  0
SECTION
  2
HEADER
  9
$ACADVER
  1
AC1015
  9
$ACADMAINTVER
 70
     6
  9
$DWGCODEPAGE
  3
DOS932
  9
$INSBASE
 10
0.0
 20
0.0
 30
0.0
  9
$EXTMIN
 10
0.0
 20
0.0
 30
0.0
  9
$EXTMAX
 10
210.0
 20
297.0
 30
0.0
  9
$LIMMIN
 10
0.0
 20
0.0
  9
$LIMMAX
 10
210.0
 20
297.0
  9
$ORTHOMODE
 70
     0
  9
$REGENMODE
 70
     1
  9
$FILLMODE
 70
     1
  9
$QTEXTMODE
 70
     0
  9
$MIRRTEXT
 70
     1
  9
$LTSCALE
 40
1.0
  9
$ATTMODE
 70
     1
  9
$TEXTSIZE
 40
3.5
  9
$TRACEWID
 40
1.0
  9
$TEXTSTYLE
  7
Standard
  9
$CLAYER
  8
0
  9
$CELTYPE
  6
ByLayer
  9
$CECOLOR
 62
   256
  9
$CELTSCALE
 40
1.0
  9
$DISPSILH
 70
     0
  9
$DIMSCALE
 40
1.0
  9
$DIMASZ
 40
3.0
  9
$DIMEXO
 40
1.0
  9
$DIMDLI
 40
3.75
  9
$DIMRND
 40
0.0
  9
$DIMDLE
 40
0.0
  9
$DIMEXE
 40
1.0
  9
$DIMTP
 40
0.0
  9
$DIMTM
 40
0.0
  9
$DIMTXT
 40
3.5
  9
$DIMCEN
 40
2.5
  9
$DIMTSZ
 40
0.0
  9
$DIMTOL
 70
     0
  9
$DIMLIM
 70
     0
  9
$DIMTIH
 70
     1
  9
$DIMTOH
 70
     1
  9
$DIMSE1
 70
     0
  9
$DIMSE2
 70
     0
  9
$DIMTAD
 70
     1
  9
$DIMZIN
 70
     0
  9
$DIMBLK
  1

  9
$DIMASO
 70
     1
  9
$DIMSHO
 70
     1
  9
$DIMPOST
  1

  9
$DIMAPOST
  1

  9
$DIMALT
 70
     0
  9
$DIMALTD
 70
     3
  9
$DIMALTF
 40
0.0393700787
  9
$DIMLFAC
 40
1.0
  9
$DIMTOFL
 70
     1
  9
$DIMTVP
 40
0.0
  9
$DIMTIX
 70
     0
  9
$DIMSOXD
 70
     0
  9
$DIMSAH
 70
     0
  9
$DIMBLK1
  1

  9
$DIMBLK2
  1

  9
$DIMSTYLE
  2
ISO-25
  9
$DIMCLRD
 70
     0
  9
$DIMCLRE
 70
     0
  9
$DIMCLRT
 70
     0
  9
$DIMTFAC
 40
1.0
  9
$DIMGAP
 40
1.524
  9
$DIMJUST
 70
     0
  9
$DIMSD1
 70
     0
  9
$DIMSD2
 70
     0
  9
$DIMTOLJ
 70
     0
  9
$DIMTZIN
 70
     0
  9
$DIMALTZ
 70
     0
  9
$DIMALTTZ
 70
     0
  9
$DIMUPT
 70
     0
  9
$DIMDEC
 70
     1
  9
$DIMTDEC
 70
     3
  9
$DIMALTU
 70
     2
  9
$DIMALTTD
 70
     3
  9
$DIMTXSTY
  7
Standard
  9
$DIMAUNIT
 70
     0
  9
$DIMADEC
 70
     2
  9
$DIMALTRND
 40
0.0
  9
$DIMAZIN
 70
     0
  9
$DIMDSEP
 70
    44
  9
$DIMATFIT
 70
     3
  9
$DIMFRAC
 70
     0
  9
$DIMLDRBLK
  1

  9
$DIMLUNIT
 70
     2
  9
$DIMLWD
 70
    -2
  9
$DIMLWE
 70
    -2
  9
$DIMTMOVE
 70
     0
  9
$LUNITS
 70
     2
  9
$LUPREC
 70
     1
  9
$SKETCHINC
 40
1.0
  9
$FILLETRAD
 40
10.0
  9
$AUNITS
 70
     0
  9
$AUPREC
 70
     2
  9
$MENU
  1
.
  9
$ELEVATION
 40
0.0
  9
$PELEVATION
 40
0.0
  9
$THICKNESS
 40
0.0
  9
$LIMCHECK
 70
     0
  9
$CHAMFERA
 40
0.0
  9
$CHAMFERB
 40
0.0
  9
$CHAMFERC
 40
0.0
  9
$CHAMFERD
 40
0.0
  9
$SKPOLY
 70
     0
  9
$TDCREATE
 40
2458831.640797164
  9
$TDUCREATE
 40
2458831.265797164
  9
$TDUPDATE
 40
2458831.64079897
  9
$TDUUPDATE
 40
2458831.26579897
  9
$TDINDWG
 40
0.0000000116
  9
$TDUSRTIMER
 40
0.0000000116
  9
$USRTIMER
 70
     1
  9
$ANGBASE
 50
0.0
  9
$ANGDIR
 70
     0
  9
$PDMODE
 70
     0
  9
$PDSIZE
 40
-1.0
  9
$PLINEWID
 40
0.0
  9
$SPLFRAME
 70
     0
  9
$SPLINETYPE
 70
     6
  9
$SPLINESEGS
 70
     8
  9
$HANDSEED
  5
486
  9
$SURFTAB1
 70
     6
  9
$SURFTAB2
 70
     6
  9
$SURFTYPE
 70
     6
  9
$SURFU
 70
     6
  9
$SURFV
 70
     6
  9
$UCSBASE
  2

  9
$UCSNAME
  2

  9
$UCSORG
 10
0.0
 20
0.0
 30
0.0
  9
$UCSXDIR
 10
1.0
 20
0.0
 30
0.0
  9
$UCSYDIR
 10
0.0
 20
1.0
 30
0.0
  9
$UCSORTHOREF
  2

  9
$UCSORTHOVIEW
 70
     0
  9
$UCSORGTOP
 10
0.0
 20
0.0
 30
0.0
  9
$UCSORGBOTTOM
 10
0.0
 20
0.0
 30
0.0
  9
$UCSORGLEFT
 10
0.0
 20
0.0
 30
0.0
  9
$UCSORGRIGHT
 10
0.0
 20
0.0
 30
0.0
  9
$UCSORGFRONT
 10
0.0
 20
0.0
 30
0.0
  9
$UCSORGBACK
 10
0.0
 20
0.0
 30
0.0
  9
$PUCSBASE
  2

  9
$PUCSNAME
  2

  9
$PUCSORG
 10
0.0
 20
0.0
 30
0.0
  9
$PUCSXDIR
 10
1.0
 20
0.0
 30
0.0
  9
$PUCSYDIR
 10
0.0
 20
1.0
 30
0.0
  9
$PUCSORTHOREF
  2

  9
$PUCSORTHOVIEW
 70
     0
  9
$PUCSORGTOP
 10
0.0
 20
0.0
 30
0.0
  9
$PUCSORGBOTTOM
 10
0.0
 20
0.0
 30
0.0
  9
$PUCSORGLEFT
 10
0.0
 20
0.0
 30
0.0
  9
$PUCSORGRIGHT
 10
0.0
 20
0.0
 30
0.0
  9
$PUCSORGFRONT
 10
0.0
 20
0.0
 30
0.0
  9
$PUCSORGBACK
 10
0.0
 20
0.0
 30
0.0
  9
$USERI1
 70
     0
  9
$USERI2
 70
     0
  9
$USERI3
 70
     0
  9
$USERI4
 70
     0
  9
$USERI5
 70
     0
  9
$USERR1
 40
0.0
  9
$USERR2
 40
0.0
  9
$USERR3
 40
0.0
  9
$USERR4
 40
0.0
  9
$USERR5
 40
0.0
  9
$WORLDVIEW
 70
     1
  9
$SHADEDGE
 70
     3
  9
$SHADEDIF
 70
    70
  9
$TILEMODE
 70
     1
  9
$MAXACTVP
 70
    64
  9
$PINSBASE
 10
0.0
 20
0.0
 30
0.0
  9
$PLIMCHECK
 70
     0
  9
$PEXTMIN
 10
1.0000000000E+20
 20
1.0000000000E+20
 30
1.0000000000E+20
  9
$PEXTMAX
 10
-1.0000000000E+20
 20
-1.0000000000E+20
 30
-1.0000000000E+20
  9
$PLIMMIN
 10
0.0
 20
0.0
  9
$PLIMMAX
 10
420.0
 20
297.0
  9
$UNITMODE
 70
     0
  9
$VISRETAIN
 70
     1
  9
$PLINEGEN
 70
     0
  9
$PSLTSCALE
 70
     1
  9
$TREEDEPTH
 70
  3020
  9
$CMLSTYLE
  2
Standard
  9
$CMLJUST
 70
     0
  9
$CMLSCALE
 40
20.0
  9
$PROXYGRAPHICS
 70
     1
  9
$MEASUREMENT
 70
     1
  9
$CELWEIGHT
370
    -1
  9
$ENDCAPS
280
     0
  9
$JOINSTYLE
280
     0
  9
$LWDISPLAY
290
     1
  9
$INSUNITS
 70
     4
  9
$HYPERLINKBASE
  1

  9
$STYLESHEET
  1

  9
$XEDIT
290
     1
  9
$CEPSNTYPE
380
     0
  9
$PSTYLEMODE
290
     1
  9
$FINGERPRINTGUID
  2
{775C7B60-8D53-4EEB-A61D-2BEB7402B6DE}
  9
$VERSIONGUID
  2
{FAEB1C32-E019-11D5-929B-00C0DF256EC4}
  9
$EXTNAMES
290
     1
  9
$PSVPSCALE
 40
0.0
  9
$OLESTARTUP
290
     0
  0
ENDSEC
  0
SECTION
  2
CLASSES
  0
CLASS
  1
ACDBDICTIONARYWDFLT
  2
AcDbDictionaryWithDefault
  3
ObjectDBX Classes
 90
        0
280
     0
281
     0
  0
CLASS
  1
VISUALSTYLE
  2
AcDbVisualStyle
  3
ObjectDBX Classes
 90
     4095
280
     0
281
     0
  0
CLASS
  1
MATERIAL
  2
AcDbMaterial
  3
ObjectDBX Classes
 90
     1153
280
     0
281
     0
  0
CLASS
  1
SCALE
  2
AcDbScale
  3
ObjectDBX Classes
 90
     1153
280
     0
281
     0
  0
CLASS
  1
TABLESTYLE
  2
AcDbTableStyle
  3
ObjectDBX Classes
 90
     4095
280
     0
281
     0
  0
CLASS
  1
MLEADERSTYLE
  2
AcDbMLeaderStyle
  3
ACDB_MLEADERSTYLE_CLASS
 90
     4095
280
     0
281
     0
  0
CLASS
  1
SUN
  2
AcDbSun
  3
SCENEOE
 90
     1153
280
     0
281
     0
  0
CLASS
  1
ACDBPLACEHOLDER
  2
AcDbPlaceHolder
  3
ObjectDBX Classes
 90
        0
280
     0
281
     0
  0
CLASS
  1
LAYOUT
  2
AcDbLayout
  3
ObjectDBX Classes
 90
        0
280
     0
281
     0
  0
ENDSEC
  0
SECTION
  2
TABLES
  0
TABLE
  2
VPORT
  5
8
330
0
100
AcDbSymbolTable
 70
     1
  0
VPORT
  5
29
330
8
100
AcDbSymbolTableRecord
100
AcDbViewportTableRecord
  2
*Active
 70
     0
 10
0.0
 20
0.0
 11
1.0
 21
1.0
 12
105.0
 22
148.5
 13
0.0
 23
0.0
 14
10.0
 24
10.0
 15
10.0
 25
10.0
 16
0.0
 26
0.0
 36
1.0
 17
0.0
 27
0.0
 37
0.0
 40
297.0
 41
0.7070707071
 42
50.0
 43
0.0
 44
0.0
 50
0.0
 51
0.0
 71
     0
 72
  2000
 73
     1
 74
     3
 75
     0
 76
     0
 77
     0
 78
     0
281
     0
 65
     1
110
0.0
120
0.0
130
0.0
111
1.0
121
0.0
131
0.0
112
0.0
122
1.0
132
0.0
 79
     0
146
0.0
  0
ENDTAB
  0
TABLE
  2
LTYPE
  5
5
330
0
100
AcDbSymbolTable
 70
     6
  0
LTYPE
  5
14
330
5
100
AcDbSymbolTableRecord
100
AcDbLinetypeTableRecord
  2
ByBlock
 70
     0
  3

 72
    65
 73
     0
 40
0.0
  0
LTYPE
  5
15
330
5
100
AcDbSymbolTableRecord
100
AcDbLinetypeTableRecord
  2
ByLayer
 70
     0
  3

 72
    65
 73
     0
 40
0.0
  0
LTYPE
  5
16
330
5
100
AcDbSymbolTableRecord
100
AcDbLinetypeTableRecord
  2
Continuous
 70
     0
  3
Solid line
 72
    65
 73
     0
 40
0.0
  0
LTYPE
  5
6E
330
5
100
AcDbSymbolTableRecord
100
AcDbLinetypeTableRecord
  2
HIDDEN
 70
     0
  3
Hidden __ __ __ __ __ __ __ __ __ __ __ __ __ __
 72
    65
 73
     2
 40
1.905
 49
1.27
 74
     0
 49
-0.635
 74
     0
  0
LTYPE
  5
6F
330
5
100
AcDbSymbolTableRecord
100
AcDbLinetypeTableRecord
  2
PHANTOM
 70
     0
  3
Phantom ______  __  __  ______  __  __  ______
 72
    65
 73
     6
 40
12.7
 49
6.35
 74
     0
 49
-1.27
 74
     0
 49
1.27
 74
     0
 49
-1.27
 74
     0
 49
1.27
 74
     0
 49
-1.27
 74
     0
  0
LTYPE
  5
70
330
5
100
AcDbSymbolTableRecord
100
AcDbLinetypeTableRecord
  2
CENTER
 70
     0
  3
Center ____ _ ____ _ ____ _ ____ _ ____ _ ____
 72
    65
 73
     4
 40
10.16
 49
6.35
 74
     0
 49
-1.27
 74
     0
 49
1.27
 74
     0
 49
-1.27
 74
     0
  0
LTYPE
  5
71
330
5
100
AcDbSymbolTableRecord
100
AcDbLinetypeTableRecord
  2
CENTERX2
 70
     0
  3
Center (2x) ________  __  ________  __  _____
 72
    65
 73
     4
 40
20.32
 49
12.7
 74
     0
 49
-2.54
 74
     0
 49
2.54
 74
     0
 49
-2.54
 74
     0
  0
LTYPE
  5
72
330
5
100
AcDbSymbolTableRecord
100
AcDbLinetypeTableRecord
  2
DOT2
 70
     0
  3
Dot (.5x) ........................................
 72
    65
 73
     2
 40
0.635
 49
0.0
 74
     0
 49
-0.635
 74
     0
  0
ENDTAB
  0
TABLE
  2
LAYER
  5
2
330
0
100
AcDbSymbolTable
 70
     1
  0
LAYER
  5
10
330
2
100
AcDbSymbolTableRecord
100
AcDbLayerTableRecord
  2
0
 70
     0
 62
     7
  6
Continuous
370
    -3
390
F
  0
ENDTAB
  0
TABLE
  2
STYLE
  5
3
330
0
100
AcDbSymbolTable
 70
     2
  0
STYLE
  5
11
330
3
100
AcDbSymbolTableRecord
100
AcDbTextStyleTableRecord
  2
Standard
 70
     0
 40
0.0
 41
1.0
 50
0.0
 71
     0
 42
3.5
  3
txt
  4
bigfont
  0
STYLE
  5
7B
330
3
100
AcDbSymbolTableRecord
100
AcDbTextStyleTableRecord
  2
SLDTEXTSTYLE0
 70
     0
 40
0.0
 41
0.7
 50
0.0
 71
     0
 42
3.5
  3
TXT
  4
bigfont
  0
ENDTAB
  0
TABLE
  2
VIEW
  5
6
330
0
100
AcDbSymbolTable
 70
     0
  0
ENDTAB
  0
TABLE
  2
UCS
  5
7
330
0
100
AcDbSymbolTable
 70
     0
  0
ENDTAB
  0
TABLE
  2
APPID
  5
9
330
0
100
AcDbSymbolTable
 70
     1
  0
APPID
  5
12
330
9
100
AcDbSymbolTableRecord
100
AcDbRegAppTableRecord
  2
ACAD
 70
     0
  0
ENDTAB
  0
TABLE
  2
DIMSTYLE
  5
A
330
0
100
AcDbSymbolTable
 70
     6
100
AcDbDimStyleTable
  0
DIMSTYLE
105
27
330
A
100
AcDbSymbolTableRecord
100
AcDbDimStyleTableRecord
  2
ISO-25
 70
     0
 41
2.5
 42
0.625
 43
3.75
 44
1.25
 73
     0
 74
     0
 77
     1
 78
     8
140
2.5
141
2.5
143
0.0393700787
147
0.625
171
     3
172
     1
178
     0
271
     2
272
     2
274
     3
278
    44
283
     0
284
     8
340
11
  0
DIMSTYLE
105
8E
102
{ACAD_REACTORS
330
8D
330
97
102
}
330
A
100
AcDbSymbolTableRecord
100
AcDbDimStyleTableRecord
  2
SLDDIMSTYLE0
 70
     0
 41
3.0
 44
0.0
 45
0.000000001
 78
    12
 79
     3
140
3.5
141
0.0
147
0.875
173
     1
178
     0
271
     1
272
     3
276
     2
284
    12
340
7B
  0
DIMSTYLE
105
A1
102
{ACAD_REACTORS
330
A0
330
AB
102
}
330
A
100
AcDbSymbolTableRecord
100
AcDbDimStyleTableRecord
  2
SLDDIMSTYLE1
 70
     0
 41
3.0
 44
0.0
 45
0.000000001
 73
     0
 74
     0
 77
     3
 78
    12
 79
     3
140
3.5
147
0.875
173
     1
178
     0
271
     1
272
     3
276
     2
284
    12
340
7B
  0
DIMSTYLE
105
B6
102
{ACAD_REACTORS
330
B5
330
120
330
12C
330
479
102
}
330
A
100
AcDbSymbolTableRecord
100
AcDbDimStyleTableRecord
  2
SLDDIMSTYLE2
 70
     0
 41
3.0
 44
0.0
 45
0.000000001
 73
     0
 74
     0
 77
     3
 78
    12
 79
     3
140
3.5
147
0.875
172
     1
173
     1
178
     0
271
     1
272
     3
276
     2
284
    12
289
     0
340
7B
  0
DIMSTYLE
105
114
102
{ACAD_REACTORS
330
113
102
}
330
A
100
AcDbSymbolTableRecord
100
AcDbDimStyleTableRecord
  2
SLDDIMSTYLE3
 70
     0
 41
3.0
 44
0.0
 45
0.000000001
 73
     0
 74
     0
 77
     3
 78
     8
 79
     2
140
3.5
147
0.875
172
     1
173
     1
178
     0
271
     1
272
     3
276
     2
284
    12
289
     0
340
7B
  0
DIMSTYLE
105
139
102
{ACAD_REACTORS
330
138
102
}
330
A
100
AcDbSymbolTableRecord
100
AcDbDimStyleTableRecord
  2
SLDDIMSTYLE4
 70
     0
 41
3.0
 44
0.0
 45
0.000000001
 78
    12
 79
     3
140
3.5
141
0.0
147
0.875
173
     1
178
     0
271
     1
272
     3
276
     2
284
    12
340
7B
  0
ENDTAB
  0
TABLE
  2
BLOCK_RECORD
  5
1
330
0
100
AcDbSymbolTable
 70
    12
  0
BLOCK_RECORD
  5
1F
330
1
100
AcDbSymbolTableRecord
100
AcDbBlockTableRecord
  2
*Model_Space
340
22
  0
BLOCK_RECORD
  5
1B
330
1
100
AcDbSymbolTableRecord
100
AcDbBlockTableRecord
  2
*Paper_Space
340
1E
  0
BLOCK_RECORD
  5
23
330
1
100
AcDbSymbolTableRecord
100
AcDbBlockTableRecord
  2
*Paper_Space0
340
26
  0
BLOCK_RECORD
  5
8F
330
1
100
AcDbSymbolTableRecord
100
AcDbBlockTableRecord
  2
_D
340
0
  0
BLOCK_RECORD
  5
98
330
1
100
AcDbSymbolTableRecord
100
AcDbBlockTableRecord
  2
_D_1
340
0
  0
BLOCK_RECORD
  5
A2
330
1
100
AcDbSymbolTableRecord
100
AcDbBlockTableRecord
  2
_D_2
340
0
  0
BLOCK_RECORD
  5
AC
330
1
100
AcDbSymbolTableRecord
100
AcDbBlockTableRecord
  2
_D_3
340
0
  0
BLOCK_RECORD
  5
B7
330
1
100
AcDbSymbolTableRecord
100
AcDbBlockTableRecord
  2
_D_4
340
0
  0
BLOCK_RECORD
  5
C2
330
1
100
AcDbSymbolTableRecord
100
AcDbBlockTableRecord
  2
SW_CENTERMARKSYMBOL_0
340
0
102
{BLKREFS
331
CD
102
}
  0
BLOCK_RECORD
  5
115
330
1
100
AcDbSymbolTableRecord
100
AcDbBlockTableRecord
  2
_D_5
340
0
  0
BLOCK_RECORD
  5
121
330
1
100
AcDbSymbolTableRecord
100
AcDbBlockTableRecord
  2
_D_6
340
0
  0
BLOCK_RECORD
  5
12D
330
1
100
AcDbSymbolTableRecord
100
AcDbBlockTableRecord
  2
_D_7
340
0
  0
BLOCK_RECORD
  5
13A
330
1
100
AcDbSymbolTableRecord
100
AcDbBlockTableRecord
  2
_D_8
340
0
  0
BLOCK_RECORD
  5
47A
330
1
100
AcDbSymbolTableRecord
100
AcDbBlockTableRecord
  2
_D_9
340
0
  0
ENDTAB
  0
ENDSEC
  0
SECTION
  2
BLOCKS
  0
BLOCK
  5
20
330
1F
100
AcDbEntity
  8
0
100
AcDbBlockBegin
  2
*Model_Space
 70
     0
 10
0.0
 20
0.0
 30
0.0
  3
*Model_Space
  1

  0
ENDBLK
  5
21
330
1F
100
AcDbEntity
  8
0
100
AcDbBlockEnd
  0
BLOCK
  5
1C
330
1B
100
AcDbEntity
 67
     1
  8
0
100
AcDbBlockBegin
  2
*Paper_Space
 70
     0
 10
0.0
 20
0.0
 30
0.0
  3
*Paper_Space
  1

  0
ENDBLK
  5
1D
330
1B
100
AcDbEntity
 67
     1
  8
0
100
AcDbBlockEnd
  0
BLOCK
  5
24
330
23
100
AcDbEntity
  8
0
100
AcDbBlockBegin
  2
*Paper_Space0
 70
     0
 10
0.0
 20
0.0
 30
0.0
  3
*Paper_Space0
  1

  0
ENDBLK
  5
25
330
23
100
AcDbEntity
  8
0
100
AcDbBlockEnd
  0
BLOCK
  5
90
330
8F
100
AcDbEntity
  8
0
100
AcDbBlockBegin
  2
_D
 70
     0
 10
0.0
 20
0.0
 30
0.0
  3
_D
  1

  0
SOLID
  5
92
330
8F
100
AcDbEntity
  8
0
  6
Continuous
 62
     7
370
    18
100
AcDbTrace
 10
91.3364955736
 20
175.1364518225
 30
0.0
 11
93.4973489823
 21
177.3485125238
 31
0.0
 12
92.2021611925
 22
178.1051422807
 32
0.0
 13
92.2021611925
 23
178.1051422807
 33
0.0
  0
LINE
  5
93
330
8F
100
AcDbEntity
  8
0
  6
Continuous
 62
     7
370
    18
100
AcDbLine
 10
91.3364955736
 20
175.1364518225
 30
0.0
 11
103.4713086949
 21
195.9086480569
 31
0.0
  0
LINE
  5
94
330
8F
100
AcDbEntity
  8
0
  6
Continuous
 62
     7
370
    18
100
AcDbLine
 10
103.4713086949
 20
195.9086480569
 30
0.0
 11
110.9655447075
 21
195.9086480569
 31
0.0
  0
MTEXT
  5
95
330
8F
100
AcDbEntity
  8
0
  6
Continuous
 62
     7
370
    18
100
AcDbMText
 10
105.0588086949
 20
200.4203853789
 30
0.0
 40
3.5
 41
0.0
 71
     1
 72
     1
  1
%%c
  7
SLDTEXTSTYLE0
 73
     1
 44
1.0
  0
MTEXT
  5
96
330
8F
100
AcDbEntity
  8
0
  6
Continuous
 62
     7
370
    18
100
AcDbMText
 10
108.92873921
 20
200.4203853789
 30
0.0
 40
3.5
 41
0.0
 71
     1
 72
     1
  1
8
  7
SLDTEXTSTYLE0
 73
     1
 44
1.0
  0
ENDBLK
  5
91
330
8F
100
AcDbEntity
  8
0
100
AcDbBlockEnd
  0
BLOCK
  5
99
330
98
100
AcDbEntity
  8
0
100
AcDbBlockBegin
  2
_D_1
 70
     0
 10
0.0
 20
0.0
 30
0.0
  3
_D_1
  1

  0
SOLID
  5
9B
330
98
100
AcDbEntity
  8
0
  6
Continuous
 62
     7
370
    18
100
AcDbTrace
 10
88.0869379378
 20
173.3833457642
 30
0.0
 11
86.9345146919
 21
176.2529137913
 31
0.0
 12
85.7197089433
 22
175.3730007312
 32
0.0
 13
85.7197089433
 23
175.3730007312
 33
0.0
  0
LINE
  5
9C
330
98
100
AcDbEntity
  8
0
  6
Continuous
 62
     7
370
    18
100
AcDbLine
 10
88.0869379378
 20
173.3833457642
 30
0.0
 11
68.651924513
 21
200.2152762151
 31
0.0
  0
LINE
  5
9D
330
98
100
AcDbEntity
  8
0
  6
Continuous
 62
     7
370
    18
100
AcDbLine
 10
68.651924513
 20
200.2152762151
 30
0.0
 11
57.0840775055
 21
200.2152762151
 31
0.0
  0
MTEXT
  5
9E
330
98
100
AcDbEntity
  8
0
  6
Continuous
 62
     7
370
    18
100
AcDbMText
 10
57.0840775055
 20
204.7270135372
 30
0.0
 40
3.5
 41
0.0
 71
     1
 72
     1
  1
%%c
  7
SLDTEXTSTYLE0
 73
     1
 44
1.0
  0
MTEXT
  5
9F
330
98
100
AcDbEntity
  8
0
  6
Continuous
 62
     7
370
    18
100
AcDbMText
 10
60.9540080205
 20
204.7270135372
 30
0.0
 40
3.5
 41
0.0
 71
     1
 72
     1
  1
4.2
  7
SLDTEXTSTYLE0
 73
     1
 44
1.0
  0
ENDBLK
  5
9A
330
98
100
AcDbEntity
  8
0
100
AcDbBlockEnd
  0
BLOCK
  5
A3
330
A2
100
AcDbEntity
  8
0
100
AcDbBlockBegin
  2
_D_2
 70
     0
 10
0.0
 20
0.0
 30
0.0
  3
_D_2
  1

  0
SOLID
  5
A5
330
A2
100
AcDbEntity
  8
0
  6
Continuous
 62
     7
370
    18
100
AcDbTrace
 10
132.9647844139
 20
186.6826177162
 30
0.0
 11
132.2147844139
 21
183.6826177162
 31
0.0
 12
133.7147844139
 22
183.6826177162
 32
0.0
 13
133.7147844139
 23
183.6826177162
 33
0.0
  0
SOLID
  5
A6
330
A2
100
AcDbEntity
  8
0
  6
Continuous
 62
     7
370
    18
100
AcDbTrace
 10
132.9647844139
 20
156.6826177162
 30
0.0
 11
133.7147844139
 21
159.6826177162
 31
0.0
 12
132.2147844139
 22
159.6826177162
 32
0.0
 13
132.2147844139
 23
159.6826177162
 33
0.0
  0
LINE
  5
A7
330
A2
100
AcDbEntity
  8
0
  6
Continuous
 62
     7
370
    18
100
AcDbLine
 10
113.5689212054
 20
186.6826177162
 30
0.0
 11
133.9647844139
 21
186.6826177162
 31
0.0
  0
LINE
  5
A8
330
A2
100
AcDbEntity
  8
0
  6
Continuous
 62
     7
370
    18
100
AcDbLine
 10
113.5689212054
 20
156.6826177162
 30
0.0
 11
133.9647844139
 21
156.6826177162
 31
0.0
  0
LINE
  5
A9
330
A2
100
AcDbEntity
  8
0
  6
Continuous
 62
     7
370
    18
100
AcDbLine
 10
132.9647844139
 20
186.6826177162
 30
0.0
 11
132.9647844139
 21
156.6826177162
 31
0.0
  0
MTEXT
  5
AA
330
A2
100
AcDbEntity
  8
0
  6
Continuous
 62
     7
370
    18
100
AcDbMText
 10
128.4530475575
 20
169.6458122188
 30
0.0
 40
3.5
 41
0.0
 71
     1
 72
     1
  1
30
  7
SLDTEXTSTYLE0
 11
-7.044195017643634E-15
 21
1.0
 31
0.0
 73
     1
 44
1.0
  0
ENDBLK
  5
A4
330
A2
100
AcDbEntity
  8
0
100
AcDbBlockEnd
  0
BLOCK
  5
AD
330
AC
100
AcDbEntity
  8
0
100
AcDbBlockBegin
  2
_D_3
 70
     0
 10
0.0
 20
0.0
 30
0.0
  3
_D_3
  1

  0
SOLID
  5
AF
330
AC
100
AcDbEntity
  8
0
  6
Continuous
 62
     7
370
    18
100
AcDbTrace
 10
64.3188162219
 20
146.5698135681
 30
0.0
 11
67.3188162219
 21
145.8198135681
 31
0.0
 12
67.3188162219
 22
147.3198135681
 32
0.0
 13
67.3188162219
 23
147.3198135681
 33
0.0
  0
SOLID
  5
B0
330
AC
100
AcDbEntity
  8
0
  6
Continuous
 62
     7
370
    18
100
AcDbTrace
 10
114.3188162219
 20
146.5698135681
 30
0.0
 11
111.3188162219
 21
147.3198135681
 31
0.0
 12
111.3188162219
 22
145.8198135681
 32
0.0
 13
111.3188162219
 23
145.8198135681
 33
0.0
  0
LINE
  5
B1
330
AC
100
AcDbEntity
  8
0
  6
Continuous
 62
     7
370
    18
100
AcDbLine
 10
64.3188162219
 20
157.6826177162
 30
0.0
 11
64.3188162219
 21
145.5698135681
 31
0.0
  0
LINE
  5
B2
330
AC
100
AcDbEntity
  8
0
  6
Continuous
 62
     7
370
    18
100
AcDbLine
 10
114.3188162219
 20
157.6826177162
 30
0.0
 11
114.3188162219
 21
145.5698135681
 31
0.0
  0
LINE
  5
B3
330
AC
100
AcDbEntity
  8
0
  6
Continuous
 62
     7
370
    18
100
AcDbLine
 10
64.3188162219
 20
146.5698135681
 30
0.0
 11
114.3188162219
 21
146.5698135681
 31
0.0
  0
MTEXT
  5
B4
330
AC
100
AcDbEntity
  8
0
  6
Continuous
 62
     7
370
    18
100
AcDbMText
 10
87.2820107245
 20
151.0815504245
 30
0.0
 40
3.5
 41
0.0
 71
     1
 72
     1
  1
50
  7
SLDTEXTSTYLE0
 73
     1
 44
1.0
  0
ENDBLK
  5
AE
330
AC
100
AcDbEntity
  8
0
100
AcDbBlockEnd
  0
BLOCK
  5
B8
330
B7
100
AcDbEntity
  8
0
100
AcDbBlockBegin
  2
_D_4
 70
     0
 10
0.0
 20
0.0
 30
0.0
  3
_D_4
  1

  0
SOLID
  5
BA
330
B7
100
AcDbEntity
  8
0
  6
Continuous
 62
     7
370
    18
100
AcDbTrace
 10
121.3064153549
 20
174.6826177162
 30
0.0
 11
122.0564153549
 21
177.6826177162
 31
0.0
 12
120.5564153549
 22
177.6826177162
 32
0.0
 13
120.5564153549
 23
177.6826177162
 33
0.0
  0
SOLID
  5
BB
330
B7
100
AcDbEntity
  8
0
  6
Continuous
 62
     7
370
    18
100
AcDbTrace
 10
121.3064153549
 20
168.6826177162
 30
0.0
 11
120.5564153549
 21
165.6826177162
 31
0.0
 12
122.0564153549
 22
165.6826177162
 32
0.0
 13
122.0564153549
 23
165.6826177162
 33
0.0
  0
LINE
  5
BC
330
B7
100
AcDbEntity
  8
0
  6
Continuous
 62
     7
370
    18
100
AcDbLine
 10
99.2092605303
 20
174.6826177162
 30
0.0
 11
122.3064153549
 21
174.6826177162
 31
0.0
  0
LINE
  5
BD
330
B7
100
AcDbEntity
  8
0
  6
Continuous
 62
     7
370
    18
100
AcDbLine
 10
99.2092605303
 20
168.6826177162
 30
0.0
 11
122.3064153549
 21
168.6826177162
 31
0.0
  0
LINE
  5
BE
330
B7
100
AcDbEntity
  8
0
  6
Continuous
 62
     7
370
    18
100
AcDbLine
 10
121.3064153549
 20
174.6826177162
 30
0.0
 11
121.3064153549
 21
181.6584209007
 31
0.0
  0
LINE
  5
BF
330
B7
100
AcDbEntity
  8
0
  6
Continuous
 62
     7
370
    18
100
AcDbLine
 10
121.3064153549
 20
174.6826177162
 30
0.0
 11
121.3064153549
 21
168.6826177162
 31
0.0
  0
LINE
  5
C0
330
B7
100
AcDbEntity
  8
0
  6
Continuous
 62
     7
370
    18
100
AcDbLine
 10
121.3064153549
 20
168.6826177162
 30
0.0
 11
121.3064153549
 21
163.6826177162
 31
0.0
  0
MTEXT
  5
C1
330
B7
100
AcDbEntity
  8
0
  6
Continuous
 62
     7
370
    18
100
AcDbMText
 10
116.7946784985
 20
179.6216154033
 30
0.0
 40
3.5
 41
0.0
 71
     1
 72
     1
  1
6
  7
SLDTEXTSTYLE0
 11
-7.044195017643634E-15
 21
1.0
 31
0.0
 73
     1
 44
1.0
  0
ENDBLK
  5
B9
330
B7
100
AcDbEntity
  8
0
100
AcDbBlockEnd
  0
BLOCK
  5
C3
330
C2
100
AcDbEntity
  8
0
100
AcDbBlockBegin
  2
SW_CENTERMARKSYMBOL_0
 70
     0
 10
0.0
 20
0.0
 30
0.0
  3
SW_CENTERMARKSYMBOL_0
  1

  0
LINE
  5
C5
330
C2
100
AcDbEntity
  8
0
  6
Continuous
 62
     0
370
    18
100
AcDbLine
 10
0.0
 20
0.0
 30
0.0
 11
0.0
 21
2.5
 31
0.0
  0
LINE
  5
C6
330
C2
100
AcDbEntity
  8
0
  6
Continuous
 62
     0
370
    18
100
AcDbLine
 10
0.0
 20
0.0
 30
0.0
 11
-2.5
 21
0.0
 31
0.0
  0
LINE
  5
C7
330
C2
100
AcDbEntity
  8
0
  6
Continuous
 62
     0
370
    18
100
AcDbLine
 10
0.0
 20
0.0
 30
0.0
 11
0.0
 21
-2.5
 31
0.0
  0
LINE
  5
C8
330
C2
100
AcDbEntity
  8
0
  6
Continuous
 62
     0
370
    18
100
AcDbLine
 10
0.0
 20
0.0
 30
0.0
 11
2.5
 21
0.0
 31
0.0
  0
LINE
  5
C9
330
C2
100
AcDbEntity
  8
0
  6
Continuous
 62
     0
370
    18
100
AcDbLine
 10
0.0
 20
2.5
 30
0.0
 11
0.0
 21
4.6
 31
0.0
  0
LINE
  5
CA
330
C2
100
AcDbEntity
  8
0
  6
Continuous
 62
     0
370
    18
100
AcDbLine
 10
-2.5
 20
0.0
 30
0.0
 11
-4.6
 21
0.0
 31
0.0
  0
LINE
  5
CB
330
C2
100
AcDbEntity
  8
0
  6
Continuous
 62
     0
370
    18
100
AcDbLine
 10
0.0
 20
-2.5
 30
0.0
 11
0.0
 21
-4.6
 31
0.0
  0
LINE
  5
CC
330
C2
100
AcDbEntity
  8
0
  6
Continuous
 62
     0
370
    18
100
AcDbLine
 10
2.5
 20
0.0
 30
0.0
 11
4.6
 21
0.0
 31
0.0
  0
ENDBLK
  5
C4
330
C2
100
AcDbEntity
  8
0
100
AcDbBlockEnd
  0
BLOCK
  5
116
330
115
100
AcDbEntity
  8
0
100
AcDbBlockBegin
  2
_D_5
 70
     0
 10
0.0
 20
0.0
 30
0.0
  3
_D_5
  1

  0
SOLID
  5
118
330
115
100
AcDbEntity
  8
0
  6
Continuous
 62
     7
370
    18
100
AcDbTrace
 10
123.6233148371
 20
120.1351535802
 30
0.0
 11
124.3733148371
 21
123.1351535802
 31
0.0
 12
122.8733148371
 22
123.1351535802
 32
0.0
 13
122.8733148371
 23
123.1351535802
 33
0.0
  0
SOLID
  5
119
330
115
100
AcDbEntity
  8
0
  6
Continuous
 62
     7
370
    18
100
AcDbTrace
 10
123.6233148371
 20
119.3351535802
 30
0.0
 11
122.8733148371
 21
116.3351535802
 31
0.0
 12
124.3733148371
 22
116.3351535802
 32
0.0
 13
124.3733148371
 23
116.3351535802
 33
0.0
  0
LINE
  5
11A
330
115
100
AcDbEntity
  8
0
  6
Continuous
 62
     7
370
    18
100
AcDbLine
 10
90.3188162219
 20
120.1351535802
 30
0.0
 11
124.6233148371
 21
120.1351535802
 31
0.0
  0
LINE
  5
11B
330
115
100
AcDbEntity
  8
0
  6
Continuous
 62
     7
370
    18
100
AcDbLine
 10
99.2092605303
 20
119.3351535802
 30
0.0
 11
124.6233148371
 21
119.3351535802
 31
0.0
  0
LINE
  5
11C
330
115
100
AcDbEntity
  8
0
  6
Continuous
 62
     7
370
    18
100
AcDbLine
 10
123.6233148371
 20
120.1351535802
 30
0.0
 11
123.6233148371
 21
130.2544612022
 31
0.0
  0
LINE
  5
11D
330
115
100
AcDbEntity
  8
0
  6
Continuous
 62
     7
370
    18
100
AcDbLine
 10
123.6233148371
 20
120.1351535802
 30
0.0
 11
123.6233148371
 21
119.3351535802
 31
0.0
  0
LINE
  5
11E
330
115
100
AcDbEntity
  8
0
  6
Continuous
 62
     7
370
    18
100
AcDbLine
 10
123.6233148371
 20
119.3351535802
 30
0.0
 11
123.6233148371
 21
114.3351535802
 31
0.0
  0
MTEXT
  5
11F
330
115
100
AcDbEntity
  8
0
  6
Continuous
 62
     7
370
    18
100
AcDbMText
 10
119.1115779807
 20
124.1440444769
 30
0.0
 40
3.5
 41
0.0
 71
     1
 72
     1
  1
0.8
  7
SLDTEXTSTYLE0
 11
-7.044195017643634E-15
 21
1.0
 31
0.0
 73
     1
 44
1.0
  0
ENDBLK
  5
117
330
115
100
AcDbEntity
  8
0
100
AcDbBlockEnd
  0
BLOCK
  5
122
330
121
100
AcDbEntity
  8
0
100
AcDbBlockBegin
  2
_D_6
 70
     0
 10
0.0
 20
0.0
 30
0.0
  3
_D_6
  1

  0
SOLID
  5
124
330
121
100
AcDbEntity
  8
0
  6
Continuous
 62
     7
370
    18
100
AcDbTrace
 10
125.9254475068
 20
106.668282181
 30
0.0
 11
128.0801188215
 21
108.8863650302
 31
0.0
 12
126.7828243849
 22
109.6393770784
 32
0.0
 13
126.7828243849
 23
109.6393770784
 33
0.0
  0
SOLID
  5
125
330
121
100
AcDbEntity
  8
0
  6
Continuous
 62
     7
370
    18
100
AcDbTrace
 10
124.4194234104
 20
104.0736933078
 30
0.0
 11
122.2647520958
 21
101.8556104587
 31
0.0
 12
123.5620465324
 22
101.1025984105
 32
0.0
 13
123.5620465324
 23
101.1025984105
 33
0.0
  0
LINE
  5
126
330
121
100
AcDbEntity
  8
0
  6
Continuous
 62
     7
370
    18
100
AcDbLine
 10
115.1836791797
 20
112.9033208437
 30
0.0
 11
126.7903104646
 21
106.1662741489
 31
0.0
  0
LINE
  5
127
330
121
100
AcDbEntity
  8
0
  6
Continuous
 62
     7
370
    18
100
AcDbLine
 10
113.6776550833
 20
110.3087319705
 30
0.0
 11
125.2842863682
 21
103.5716852757
 31
0.0
  0
LINE
  5
128
330
121
100
AcDbEntity
  8
0
  6
Continuous
 62
     7
370
    18
100
AcDbLine
 10
125.9254475068
 20
106.668282181
 30
0.0
 11
128.9578691886
 21
111.8925595171
 31
0.0
  0
LINE
  5
129
330
121
100
AcDbEntity
  8
0
  6
Continuous
 62
     7
370
    18
100
AcDbLine
 10
125.9254475068
 20
106.668282181
 30
0.0
 11
124.4194234104
 21
104.0736933078
 31
0.0
  0
LINE
  5
12A
330
121
100
AcDbEntity
  8
0
  6
Continuous
 62
     7
370
    18
100
AcDbLine
 10
124.4194234104
 20
104.0736933078
 30
0.0
 11
121.9093832498
 21
99.7493785191
 31
0.0
  0
MTEXT
  5
12B
330
121
100
AcDbEntity
  8
0
  6
Continuous
 62
     7
370
    18
100
AcDbMText
 10
124.0333423868
 20
112.395930031
 30
0.0
 40
3.5
 41
0.0
 71
     1
 72
     1
  1
3
  7
SLDTEXTSTYLE0
 11
0.5020080321285084
 21
0.8648629577444408
 31
0.0
 73
     1
 44
1.0
  0
ENDBLK
  5
123
330
121
100
AcDbEntity
  8
0
100
AcDbBlockEnd
  0
BLOCK
  5
12E
330
12D
100
AcDbEntity
  8
0
100
AcDbBlockBegin
  2
_D_7
 70
     0
 10
0.0
 20
0.0
 30
0.0
  3
_D_7
  1

  0
SOLID
  5
130
330
12D
100
AcDbEntity
  8
0
  6
Continuous
 62
     7
370
    18
100
AcDbTrace
 10
132.3530607967
 20
102.9561282647
 30
0.0
 11
134.5060064903
 21
105.1758860984
 31
0.0
 12
133.2081268399
 22
105.9278890326
 32
0.0
 13
133.2081268399
 23
105.9278890326
 33
0.0
  0
SOLID
  5
131
330
12D
100
AcDbEntity
  8
0
  6
Continuous
 62
     7
370
    18
100
AcDbTrace
 10
128.342377036
 20
96.0341009687
 30
0.0
 11
126.1894313424
 21
93.8143431349
 31
0.0
 12
127.4873109928
 22
93.0623402007
 32
0.0
 13
127.4873109928
 23
93.0623402007
 33
0.0
  0
LINE
  5
132
330
12D
100
AcDbEntity
  8
0
  6
Continuous
 62
     7
370
    18
100
AcDbLine
 10
115.1840693222
 20
112.9039935864
 30
0.0
 11
133.218313897
 21
102.4547929752
 31
0.0
  0
LINE
  5
133
330
12D
100
AcDbEntity
  8
0
  6
Continuous
 62
     7
370
    18
100
AcDbLine
 10
111.1733855615
 20
105.9819662904
 30
0.0
 11
129.2076301363
 21
95.5327656792
 31
0.0
  0
LINE
  5
134
330
12D
100
AcDbEntity
  8
0
  6
Continuous
 62
     7
370
    18
100
AcDbLine
 10
132.3530607967
 20
102.9561282647
 30
0.0
 11
134.859737244
 21
107.282393766
 31
0.0
  0
LINE
  5
135
330
12D
100
AcDbEntity
  8
0
  6
Continuous
 62
     7
370
    18
100
AcDbLine
 10
132.3530607967
 20
102.9561282647
 30
0.0
 11
128.342377036
 21
96.0341009687
 31
0.0
  0
LINE
  5
136
330
12D
100
AcDbEntity
  8
0
  6
Continuous
 62
     7
370
    18
100
AcDbLine
 10
128.342377036
 20
96.0341009687
 30
0.0
 11
125.8357005887
 21
91.7078354673
 31
0.0
  0
MTEXT
  5
137
330
12D
100
AcDbEntity
  8
0
  6
Continuous
 62
     7
370
    18
100
AcDbMText
 10
125.9333633769
 20
100.8758313839
 30
0.0
 40
3.5
 41
0.0
 71
     1
 72
     1
  1
8
  7
SLDTEXTSTYLE0
 11
0.501335289468349
 21
0.8652531002739525
 31
0.0
 73
     1
 44
1.0
  0
ENDBLK
  5
12F
330
12D
100
AcDbEntity
  8
0
100
AcDbBlockEnd
  0
BLOCK
  5
13B
330
13A
100
AcDbEntity
  8
0
100
AcDbBlockBegin
  2
_D_8
 70
     0
 10
0.0
 20
0.0
 30
0.0
  3
_D_8
  1

  0
SOLID
  5
13D
330
13A
100
AcDbEntity
  8
0
  6
Continuous
 62
     7
370
    18
100
AcDbTrace
 10
77.086299219
 20
110.3052114707
 30
0.0
 11
77.2470649508
 21
107.2170640683
 31
0.0
 12
78.6813971718
 22
107.6560299894
 32
0.0
 13
78.6813971718
 23
107.6560299894
 33
0.0
  0
LINE
  5
13E
330
13A
100
AcDbEntity
  8
0
  6
Continuous
 62
     7
370
    18
100
AcDbLine
 10
89.3188162219
 20
70.3351535802
 30
0.0
 11
83.8259057763
 21
88.283377028
 31
0.0
  0
LINE
  5
13F
330
13A
100
AcDbEntity
  8
0
  6
Continuous
 62
     7
370
    18
100
AcDbLine
 10
77.086299219
 20
110.3052114707
 30
0.0
 11
82.5792096646
 21
92.356988023
 31
0.0
  0
MTEXT
  5
140
330
13A
100
AcDbEntity
  8
0
  6
Continuous
 62
     7
370
    18
100
AcDbMText
 10
78.1105440932
 20
92.7951138844
 30
0.0
 40
3.5
 41
0.0
 71
     1
 72
     1
  1
R41.8
  7
SLDTEXTSTYLE0
 73
     1
 44
1.0
  0
ENDBLK
  5
13C
330
13A
100
AcDbEntity
  8
0
100
AcDbBlockEnd
  0
BLOCK
  5
47B
330
47A
100
AcDbEntity
  8
0
100
AcDbBlockBegin
  2
_D_9
 70
     0
 10
0.0
 20
0.0
 30
0.0
  3
_D_9
  1

  0
SOLID
  5
47D
330
47A
100
AcDbEntity
  8
0
  6
Continuous
 62
     7
370
    18
100
AcDbTrace
 10
151.2116786037
 20
148.410394041
 30
0.0
 11
148.2116786037
 21
149.160394041
 31
0.0
 12
148.2116786037
 22
147.660394041
 32
0.0
 13
148.2116786037
 23
147.660394041
 33
0.0
  0
SOLID
  5
47E
330
47A
100
AcDbEntity
  8
0
  6
Continuous
 62
     7
370
    18
100
AcDbTrace
 10
164.8635306041
 20
148.410394041
 30
0.0
 11
167.8635306041
 21
147.660394041
 31
0.0
 12
167.8635306041
 22
149.160394041
 32
0.0
 13
167.8635306041
 23
149.160394041
 33
0.0
  0
LINE
  5
47F
330
47A
100
AcDbEntity
  8
0
  6
Continuous
 62
     7
370
    18
100
AcDbLine
 10
151.2116786037
 20
155.6826177162
 30
0.0
 11
151.2116786037
 21
147.410394041
 31
0.0
  0
LINE
  5
480
330
47A
100
AcDbEntity
  8
0
  6
Continuous
 62
     7
370
    18
100
AcDbLine
 10
164.8635306041
 20
157.6826177162
 30
0.0
 11
164.8635306041
 21
147.410394041
 31
0.0
  0
LINE
  5
481
330
47A
100
AcDbEntity
  8
0
  6
Continuous
 62
     7
370
    18
100
AcDbLine
 10
151.2116786037
 20
148.410394041
 30
0.0
 11
146.2116786037
 21
148.410394041
 31
0.0
  0
LINE
  5
482
330
47A
100
AcDbEntity
  8
0
  6
Continuous
 62
     7
370
    18
100
AcDbLine
 10
151.2116786037
 20
148.410394041
 30
0.0
 11
164.8635306041
 21
148.410394041
 31
0.0
  0
LINE
  5
483
330
47A
100
AcDbEntity
  8
0
  6
Continuous
 62
     7
370
    18
100
AcDbLine
 10
164.8635306041
 20
148.410394041
 30
0.0
 11
169.8635306041
 21
148.410394041
 31
0.0
  0
MTEXT
  5
484
330
47A
100
AcDbEntity
  8
0
  6
Continuous
 62
     7
370
    18
100
AcDbMText
 10
153.9639936089
 20
152.9221308974
 30
0.0
 40
3.5
 41
0.0
 71
     1
 72
     1
  1
13.6
  7
SLDTEXTSTYLE0
 73
     1
 44
1.0
  0
ENDBLK
  5
47C
330
47A
100
AcDbEntity
  8
0
100
AcDbBlockEnd
  0
ENDSEC
  0
SECTION
  2
ENTITIES
  0
LINE
  5
73
330
1F
100
AcDbEntity
  8
0
  6
Continuous
 62
     7
370
    18
100
AcDbLine
 10
20.2604743903
 20
285.0
 30
0.0
 11
196.7604743903
 21
285.0
 31
0.0
  0
LINE
  5
74
330
1F
100
AcDbEntity
  8
0
  6
Continuous
 62
     7
370
    18
100
AcDbLine
 10
20.2604743903
 20
285.0
 30
0.0
 11
20.2604743903
 21
10.0
 31
0.0
  0
LINE
  5
75
330
1F
100
AcDbEntity
  8
0
  6
Continuous
 62
     7
370
    18
100
AcDbLine
 10
20.2604743903
 20
10.0
 30
0.0
 11
196.7604743903
 21
10.0
 31
0.0
  0
LINE
  5
76
330
1F
100
AcDbEntity
  8
0
  6
Continuous
 62
     7
370
    18
100
AcDbLine
 10
196.7604743903
 20
285.0
 30
0.0
 11
196.7604743903
 21
10.0
 31
0.0
  0
LINE
  5
77
330
1F
100
AcDbEntity
  8
0
  6
Continuous
 62
     7
370
    18
100
AcDbLine
 10
127.0104743903
 20
50.75
 30
0.0
 11
196.7604743903
 21
50.75
 31
0.0
  0
LINE
  5
78
330
1F
100
AcDbEntity
  8
0
  6
Continuous
 62
     7
370
    18
100
AcDbLine
 10
127.0104743903
 20
50.75
 30
0.0
 11
127.0104743903
 21
10.0
 31
0.0
  0
LINE
  5
79
330
1F
100
AcDbEntity
  8
0
  6
Continuous
 62
     7
370
    18
100
AcDbLine
 10
127.0104743903
 20
22.75
 30
0.0
 11
196.7604743903
 21
22.75
 31
0.0
  0
LINE
  5
7A
330
1F
100
AcDbEntity
  8
0
  6
Continuous
 62
     7
370
    18
100
AcDbLine
 10
127.0104743903
 20
36.75
 30
0.0
 11
196.7604743903
 21
36.75
 31
0.0
  0
MTEXT
  5
7C
330
1F
100
AcDbEntity
  8
0
  6
Continuous
 62
     7
370
     0
100
AcDbMText
 10
162.8781485358
 20
30.4171582345
 30
0.0
 40
4.2333333333
 41
0.0
 71
     2
 72
     1
  1
CPL-018
  7
SLDTEXTSTYLE0
 73
     1
 44
1.0
  0
MTEXT
  5
7D
330
1F
100
AcDbEntity
  8
0
  6
Continuous
 62
     7
370
     0
100
AcDbMText
 10
159.7252999555
 20
45.443602535
 30
0.0
 40
3.7041666667
 41
0.0
 71
     2
 72
     1
  1
当板・R型・黒・ミニシリンダー用
  7
SLDTEXTSTYLE0
 73
     1
 44
1.0
  0
MTEXT
  5
7E
330
1F
100
AcDbEntity
  8
0
  6
Continuous
 62
     7
370
     0
100
AcDbMText
 10
162.9146541142
 20
16.8228189052
 30
0.0
 40
4.2333333333
 41
0.0
 71
     2
 72
     1
  1
023359
  7
SLDTEXTSTYLE0
 73
     1
 44
1.0
  0
SPLINE
  5
7F
330
1F
100
AcDbEntity
  8
0
  6
Continuous
 62
     7
370
    18
100
AcDbSpline
210
0.0
220
0.0
230
1.0
 70
     8
 71
     3
 72
    18
 73
    14
 74
     0
 42
0.000000001
 43
0.00000001
 40
0.0
 40
0.0
 40
0.0
 40
0.0
 40
0.1249999999999991
 40
0.1249999999999991
 40
0.2499999999999983
 40
0.2499999999999983
 40
0.3749999999999974
 40
0.3749999999999974
 40
0.4999999999999966
 40
0.4999999999999966
 40
0.7499999999999982
 40
0.7499999999999982
 40
1.0
 40
1.0
 40
1.0
 40
1.0
 10
114.318816221936
 20
184.6826177162434
 30
0.0
 10
114.3188162219359
 20
184.8146934096151
 30
0.0
 10
114.3076147474569
 20
184.9445629463423
 30
0.0
 10
114.2636961513617
 20
185.2000701671064
 30
0.0
 10
114.2304466597428
 20
185.3270294824802
 30
0.0
 10
114.1435394988973
 20
185.5691557700961
 30
0.0
 10
114.0903209332125
 20
185.6839957144854
 30
0.0
 10
113.9644066977494
 20
185.9013417378364
 30
0.0
 10
113.8910330017713
 20
186.0042584712436
 30
0.0
 10
113.6501866494212
 20
186.2809801214254
 30
0.0
 10
113.455498819571
 20
186.4299968398104
 30
0.0
 10
113.0336155418802
 20
186.6296095803293
 30
0.0
 10
112.8025165650336
 20
186.6826177162434
 30
0.0
 10
112.5689212054487
 20
186.6826177162434
 30
0.0
  0
LINE
  5
80
330
1F
100
AcDbEntity
  8
0
  6
Continuous
 62
     7
370
    18
100
AcDbLine
 10
114.3188162219
 20
184.6826177162
 30
0.0
 11
114.3188162219
 21
158.6826177162
 31
0.0
  0
SPLINE
  5
81
330
1F
100
AcDbEntity
  8
0
  6
Continuous
 62
     7
370
    18
100
AcDbSpline
210
0.0
220
0.0
230
1.0
 70
     8
 71
     3
 72
    18
 73
    14
 74
     0
 42
0.000000001
 43
0.00000001
 40
0.0
 40
0.0
 40
0.0
 40
0.0
 40
0.1249999999999997
 40
0.1249999999999997
 40
0.2499999999999994
 40
0.2499999999999994
 40
0.3749999999999992
 40
0.3749999999999992
 40
0.4999999999999989
 40
0.4999999999999989
 40
0.7499999999999994
 40
0.7499999999999994
 40
1.0
 40
1.0
 40
1.0
 40
1.0
 10
112.5689212054487
 20
156.6826177162434
 30
0.0
 10
112.6857181418977
 20
156.6826177162434
 30
0.0
 10
112.8003212817038
 20
156.695551461942
 30
0.0
 10
113.0253431899403
 20
156.7462516560175
 30
0.0
 10
113.1369205904876
 20
156.7846326383995
 30
0.0
 10
113.3493025396792
 20
156.8848655649894
 30
0.0
 10
113.4498270398333
 20
156.9462109170924
 30
0.0
 10
113.639762250916
 20
157.0911638232012
 30
0.0
 10
113.7295267172234
 20
157.175547582589
 30
0.0
 10
113.9705499634589
 20
157.452072392792
 30
0.0
 10
114.0998632868644
 20
157.6750071408851
 30
0.0
 10
114.272938463713
 20
158.1559828412823
 30
0.0
 10
114.3188162219359
 20
158.4184667047048
 30
0.0
 10
114.318816221936
 20
158.6826177162434
 30
0.0
  0
LINE
  5
82
330
1F
100
AcDbEntity
  8
0
  6
Continuous
 62
     7
370
    18
100
AcDbLine
 10
66.0687112384
 20
156.6826177162
 30
0.0
 11
112.5689212054
 21
156.6826177162
 31
0.0
  0
SPLINE
  5
83
330
1F
100
AcDbEntity
  8
0
  6
Continuous
 62
     7
370
    18
100
AcDbSpline
210
0.0
220
0.0
230
1.0
 70
     8
 71
     3
 72
    18
 73
    14
 74
     0
 42
0.000000001
 43
0.00000001
 40
0.0
 40
0.0
 40
0.0
 40
0.0
 40
0.1249999999999994
 40
0.1249999999999994
 40
0.2499999999999989
 40
0.2499999999999989
 40
0.3749999999999983
 40
0.3749999999999983
 40
0.4999999999999978
 40
0.4999999999999978
 40
0.7499999999999989
 40
0.7499999999999989
 40
1.0
 40
1.0
 40
1.0
 40
1.0
 10
64.31881622193595
 20
158.6826177162434
 30
0.0
 10
64.31881622193595
 20
158.5505420228716
 30
0.0
 10
64.33001769641497
 20
158.4206724861445
 30
0.0
 10
64.37393629251015
 20
158.1651652653804
 30
0.0
 10
64.40718578412911
 20
158.0382059500065
 30
0.0
 10
64.49409294497462
 20
157.7960796623907
 30
0.0
 10
64.5473115106594
 20
157.6812397180014
 30
0.0
 10
64.6732257461225
 20
157.4638936946504
 30
0.0
 10
64.74659944210065
 20
157.3609769612432
 30
0.0
 10
64.98744579445075
 20
157.0842553110613
 30
0.0
 10
65.1821336243009
 20
156.9352385926764
 30
0.0
 10
65.60401690199176
 20
156.7356258521575
 30
0.0
 10
65.83511587883831
 20
156.6826177162434
 30
0.0
 10
66.06871123842326
 20
156.6826177162434
 30
0.0
  0
LINE
  5
84
330
1F
100
AcDbEntity
  8
0
  6
Continuous
 62
     7
370
    18
100
AcDbLine
 10
64.3188162219
 20
184.6826177162
 30
0.0
 11
64.3188162219
 21
158.6826177162
 31
0.0
  0
SPLINE
  5
85
330
1F
100
AcDbEntity
  8
0
  6
Continuous
 62
     7
370
    18
100
AcDbSpline
210
0.0
220
0.0
230
1.0
 70
     8
 71
     3
 72
    18
 73
    14
 74
     0
 42
0.000000001
 43
0.00000001
 40
0.0
 40
0.0
 40
0.0
 40
0.0
 40
0.125
 40
0.125
 40
0.25
 40
0.25
 40
0.375
 40
0.375
 40
0.5
 40
0.5
 40
0.75
 40
0.75
 40
1.0
 40
1.0
 40
1.0
 40
1.0
 10
66.06871123842325
 20
186.6826177162434
 30
0.0
 10
65.95191430197424
 20
186.6826177162434
 30
0.0
 10
65.83731116216815
 20
186.6696839705447
 30
0.0
 10
65.61228925393159
 20
186.6189837764693
 30
0.0
 10
65.5007118533843
 20
186.5806027940872
 30
0.0
 10
65.2883299041927
 20
186.4803698674973
 30
0.0
 10
65.18780540403857
 20
186.4190245153944
 30
0.0
 10
64.99787019295587
 20
186.2740716092855
 30
0.0
 10
64.90810572664851
 20
186.1896878498977
 30
0.0
 10
64.66708248041303
 20
185.9131630396948
 30
0.0
 10
64.53776915700746
 20
185.6902282916016
 30
0.0
 10
64.36469398015893
 20
185.2092525912045
 30
0.0
 10
64.31881622193595
 20
184.946768727782
 30
0.0
 10
64.31881622193595
 20
184.6826177162434
 30
0.0
  0
LINE
  5
86
330
1F
100
AcDbEntity
  8
0
  6
Continuous
 62
     7
370
    18
100
AcDbLine
 10
66.0687112384
 20
186.6826177162
 30
0.0
 11
112.5689212054
 21
186.6826177162
 31
0.0
  0
LINE
  5
87
330
1F
100
AcDbEntity
  8
0
  6
Continuous
 62
     7
370
    18
100
AcDbLine
 10
98.2092605303
 20
168.6826177162
 30
0.0
 11
80.4283719136
 21
168.6826177162
 31
0.0
  0
LINE
  5
88
330
1F
100
AcDbEntity
  8
0
  6
Continuous
 62
     7
370
    18
100
AcDbLine
 10
98.2092605303
 20
168.6826177162
 30
0.0
 11
98.2092605303
 21
174.6826177162
 31
0.0
  0
LINE
  5
89
330
1F
100
AcDbEntity
  8
0
  6
Continuous
 62
     7
370
    18
100
AcDbLine
 10
80.4283719136
 20
174.6826177162
 30
0.0
 11
98.2092605303
 21
174.6826177162
 31
0.0
  0
LINE
  5
8A
330
1F
100
AcDbEntity
  8
0
  6
Continuous
 62
     7
370
    18
100
AcDbLine
 10
80.4283719136
 20
174.6826177162
 30
0.0
 11
80.4283719136
 21
168.6826177162
 31
0.0
  0
CIRCLE
  5
8B
330
1F
100
AcDbEntity
  8
0
  6
Continuous
 62
     7
370
    18
100
AcDbCircle
 10
89.3188162219
 20
171.6826177162
 30
0.0
 40
2.099999999999994
  0
CIRCLE
  5
8C
330
1F
100
AcDbEntity
  8
0
  6
CENTERX2
 62
     7
370
    18
100
AcDbCircle
 10
89.3188162219
 20
171.6826177162
 30
0.0
 40
4.000000000000018
  0
DIMENSION
  5
8D
330
1F
100
AcDbEntity
  8
0
  6
Continuous
 62
     7
370
    18
100
AcDbDimension
  2
_D
 10
87.3011368702
 20
168.22878361
 30
0.0
 11
108.0121767012
 21
198.4454536364
 31
0.0
 70
   163
  1
<>
 71
     1
 42
-1.0
  3
SLDDIMSTYLE0
100
AcDbDiametricDimension
 15
91.3364955736
 25
175.1364518225
 35
0.0
 40
0.0
  0
DIMENSION
  5
97
330
1F
100
AcDbEntity
  8
0
  6
Continuous
 62
     7
370
    18
100
AcDbDimension
  2
_D_1
 10
90.5506945061
 20
169.9818896683
 30
0.0
 11
62.0742510092
 21
202.7520817946
 31
0.0
 70
   163
  1
<>
 71
     1
 42
-1.0
  3
SLDDIMSTYLE0
100
AcDbDiametricDimension
 15
88.0869379378
 25
173.3833457642
 35
0.0
 40
0.0
  0
DIMENSION
  5
A0
330
1F
100
AcDbEntity
  8
0
  6
Continuous
 62
     7
370
    18
100
AcDbDimension
  2
_D_2
 10
132.9647844139
 20
156.6826177162
 30
0.0
 11
132.9647844139
 21
171.6826177162
 31
0.0
 70
   160
  1
<>
 71
     2
 42
-1.0
  3
SLDDIMSTYLE1
100
AcDbAlignedDimension
 13
112.5689212054
 23
186.6826177162
 33
0.0
 14
112.5689212054
 24
156.6826177162
 34
0.0
 50
90.0
100
AcDbRotatedDimension
  0
DIMENSION
  5
AB
330
1F
100
AcDbEntity
  8
0
  6
Continuous
 62
     7
370
    18
100
AcDbDimension
  2
_D_3
 10
114.3188162219
 20
146.5698135681
 30
0.0
 11
89.3188162219
 21
146.5698135681
 31
0.0
 70
   160
  1
<>
 71
     2
 42
-1.0
  3
SLDDIMSTYLE1
100
AcDbAlignedDimension
 13
64.3188162219
 23
158.6826177162
 33
0.0
 14
114.3188162219
 24
158.6826177162
 34
0.0
100
AcDbRotatedDimension
  0
DIMENSION
  5
B5
330
1F
100
AcDbEntity
  8
0
  6
Continuous
 62
     7
370
    18
100
AcDbDimension
  2
_D_4
 10
121.3064153549
 20
168.6826177162
 30
0.0
 11
121.3064153549
 21
180.640018152
 31
0.0
 70
   160
  1
<>
 71
     2
 42
-1.0
  3
SLDDIMSTYLE2
100
AcDbAlignedDimension
 13
98.2092605303
 23
174.6826177162
 33
0.0
 14
98.2092605303
 24
168.6826177162
 34
0.0
 50
90.0
100
AcDbRotatedDimension
  0
INSERT
  5
CD
330
1F
100
AcDbEntity
  8
0
  6
Continuous
 62
     7
370
    18
100
AcDbBlockReference
  2
SW_CENTERMARKSYMBOL_0
 10
89.3188162219
 20
171.6826177162
 30
0.0
  0
SPLINE
  5
CE
330
1F
100
AcDbEntity
  8
0
  6
Continuous
 62
     7
370
    18
100
AcDbSpline
210
0.0
220
0.0
230
1.0
 70
     8
 71
     3
 72
    18
 73
    14
 74
     0
 42
0.000000001
 43
0.00000001
 40
0.0
 40
0.0
 40
0.0
 40
0.0
 40
0.1249999999999995
 40
0.1249999999999995
 40
0.249999999999999
 40
0.249999999999999
 40
0.3749999999999985
 40
0.3749999999999985
 40
0.499999999999998
 40
0.499999999999998
 40
0.749999999999999
 40
0.749999999999999
 40
1.0
 40
1.0
 40
1.0
 40
1.0
 10
70.08311589026468
 20
107.4461739481503
 30
0.0
 10
69.96584950696244
 20
107.3853914370305
 30
0.0
 10
69.85082668514556
 20
107.3250671880245
 30
0.0
 10
69.62505755160281
 20
107.2053609942298
 30
0.0
 10
69.51314926096055
 20
107.1453453647382
 30
0.0
 10
69.30021190068844
 20
107.0299780655806
 30
0.0
 10
69.1994612578414
 20
106.9747956869872
 30
0.0
 10
69.00915581383995
 20
106.8696511406224
 30
0.0
 10
68.91924861898225
 20
106.819481142399
 30
0.0
 10
68.67790714834362
 20
106.6838390698858
 30
0.0
 10
68.54851587014774
 20
106.6097259744171
 30
0.0
 10
68.37537314913918
 20
106.5100367361041
 30
0.0
 10
68.32949998261971
 20
106.4833015798728
 30
0.0
 10
68.32949998261972
 20
106.4833015798728
 30
0.0
  0
ARC
  5
CF
330
1F
100
AcDbEntity
  8
0
  6
Continuous
 62
     7
370
    18
100
AcDbCircle
 10
89.3188162219
 20
70.3351535802
 30
0.0
 40
41.8
100
AcDbArc
 50
62.6010045788
 51
117.3989954212
  0
SPLINE
  5
D0
330
1F
100
AcDbEntity
  8
0
  6
Continuous
 62
     7
370
    18
100
AcDbSpline
210
0.0
220
0.0
230
1.0
 70
     8
 71
     3
 72
    18
 73
    14
 74
     0
 42
0.000000001
 43
0.00000001
 40
0.0
 40
0.0
 40
0.0
 40
0.0
 40
0.1250000000000009
 40
0.1250000000000009
 40
0.2500000000000017
 40
0.2500000000000017
 40
0.3750000000000026
 40
0.3750000000000026
 40
0.5000000000000034
 40
0.5000000000000034
 40
0.7500000000000017
 40
0.7500000000000017
 40
1.0
 40
1.0
 40
1.0
 40
1.0
 10
110.3081324612522
 20
106.4833015798728
 30
0.0
 10
110.3081324612522
 20
106.4833015798728
 30
0.0
 10
110.2969309032755
 20
106.4898123214171
 30
0.0
 10
110.2530063721169
 20
106.5152631299701
 30
0.0
 10
110.2197507204504
 20
106.5345106632327
 30
0.0
 10
110.1328102882459
 20
106.5845696740313
 30
0.0
 10
110.0795644755188
 20
106.6151286539101
 30
0.0
 10
109.9535506083222
 20
106.6869485317696
 30
0.0
 10
109.8801039035582
 20
106.7285864022329
 30
0.0
 10
109.6389408580561
 20
106.864135903346
 30
0.0
 10
109.4438956914327
 20
106.9722800821133
 30
0.0
 10
109.0209077143172
 20
107.2014722572336
 30
0.0
 10
108.7890514361351
 20
107.3246078291673
 30
0.0
 10
108.5545165536072
 20
107.4461739481503
 30
0.0
  0
LINE
  5
D1
330
1F
100
AcDbEntity
  8
0
  6
Continuous
 62
     7
370
    18
100
AcDbLine
 10
68.3294999826
 20
106.4833015799
 30
0.0
 11
65.8188162219
 21
110.8072427282
 31
0.0
  0
SPLINE
  5
D2
330
1F
100
AcDbEntity
  8
0
  6
Continuous
 62
     7
370
    18
100
AcDbSpline
210
0.0
220
0.0
230
1.0
 70
     8
 71
     3
 72
    18
 73
    14
 74
     0
 42
0.000000001
 43
0.00000001
 40
0.0
 40
0.0
 40
0.0
 40
0.0
 40
0.1249999999999989
 40
0.1249999999999989
 40
0.2499999999999978
 40
0.2499999999999978
 40
0.3749999999999967
 40
0.3749999999999967
 40
0.4999999999999956
 40
0.4999999999999956
 40
0.7499999999999978
 40
0.7499999999999978
 40
1.0
 40
1.0
 40
1.0
 40
1.0
 10
65.81881622193595
 20
110.8072427281586
 30
0.0
 10
65.81881622193595
 20
110.8072427281586
 30
0.0
 10
65.83001705064332
 20
110.8137523411269
 30
0.0
 10
65.87393499851876
 20
110.8392050883799
 30
0.0
 10
65.9071845561355
 20
110.8584557461085
 30
0.0
 10
65.9940976804082
 20
110.908544129218
 30
0.0
 10
66.04732220886524
 20
110.9391290605208
 30
0.0
 10
66.17326236900492
 20
111.0110505616797
 30
0.0
 10
66.24665620849657
 20
111.0527656726321
 30
0.0
 10
66.48759467114223
 20
111.1886642161261
 30
0.0
 10
66.68239106583027
 20
111.2972105265872
 30
0.0
 10
67.10462153132846
 20
111.527718532808
 30
0.0
 10
67.3359623056762
 20
111.6517835519981
 30
0.0
 10
67.56986132324973
 20
111.7745425816709
 30
0.0
  0
LINE
  5
D3
330
1F
100
AcDbEntity
  8
0
  6
Continuous
 62
     7
370
    18
100
AcDbLine
 10
67.5698613232
 20
111.7745425817
 30
0.0
 11
70.0831158903
 21
107.4461739482
 31
0.0
  0
LINE
  5
D4
330
1F
100
AcDbEntity
  8
0
  6
Continuous
 62
     7
370
    18
100
AcDbLine
 10
112.8188162219
 20
110.8072427282
 30
0.0
 11
110.3081324613
 21
106.4833015799
 31
0.0
  0
LINE
  5
D5
330
1F
100
AcDbEntity
  8
0
  6
Continuous
 62
     7
370
    18
100
AcDbLine
 10
108.5545165536
 20
107.4461739482
 30
0.0
 11
111.0677711206
 21
111.7745425817
 31
0.0
  0
SPLINE
  5
D6
330
1F
100
AcDbEntity
  8
0
  6
Continuous
 62
     7
370
    18
100
AcDbSpline
210
0.0
220
0.0
230
1.0
 70
     8
 71
     3
 72
    18
 73
    14
 74
     0
 42
0.000000001
 43
0.00000001
 40
0.0
 40
0.0
 40
0.0
 40
0.0
 40
0.1249999999999995
 40
0.1249999999999995
 40
0.249999999999999
 40
0.249999999999999
 40
0.3749999999999985
 40
0.3749999999999985
 40
0.499999999999998
 40
0.499999999999998
 40
0.749999999999999
 40
0.749999999999999
 40
1.0
 40
1.0
 40
1.0
 40
1.0
 10
111.0677711206222
 20
111.7745425816709
 30
0.0
 10
111.1847197869643
 20
111.7131635089812
 30
0.0
 10
111.2994578650641
 20
111.652313651514
 30
0.0
 10
111.5247186027102
 20
111.5316852650121
 30
0.0
 10
111.636400940491
 20
111.4712699890769
 30
0.0
 10
111.8489574617022
 20
111.3552388627873
 30
0.0
 10
111.9495521349239
 20
111.2997920847889
 30
0.0
 10
112.1396006184221
 20
111.1942237520009
 30
0.0
 10
112.2294077297728
 20
111.1438942036471
 30
0.0
 10
112.4705235743705
 20
111.007902500199
 30
0.0
 10
112.599855305063
 20
110.9337150870473
 30
0.0
 10
112.7729427680948
 20
110.8339674538447
 30
0.0
 10
112.818816221936
 20
110.8072427281586
 30
0.0
 10
112.8188162219359
 20
110.8072427281586
 30
0.0
  0
ARC
  5
D7
330
1F
100
AcDbEntity
  8
0
  6
Continuous
 62
     7
370
    18
100
AcDbCircle
 10
89.3188162219
 20
70.3351535802
 30
0.0
 40
46.8
100
AcDbArc
 50
62.3078161273
 51
117.6921838727
  0
SPLINE
  5
D8
330
1F
100
AcDbEntity
  8
0
  6
Continuous
 62
     7
370
    18
100
AcDbSpline
210
0.0
220
0.0
230
1.0
 70
     8
 71
     3
 72
    18
 73
    14
 74
     0
 42
0.000000001
 43
0.00000001
 40
0.0
 40
0.0
 40
0.0
 40
0.0
 40
0.1250000000000006
 40
0.1250000000000006
 40
0.2500000000000012
 40
0.2500000000000012
 40
0.3750000000000018
 40
0.3750000000000018
 40
0.5000000000000023
 40
0.5000000000000023
 40
0.7500000000000011
 40
0.7500000000000011
 40
1.0
 40
1.0
 40
1.0
 40
1.0
 10
67.57602937244094
 20
111.7777792211719
 30
0.0
 10
67.45907157177801
 20
111.7164175557159
 30
0.0
 10
67.34432443810094
 20
111.6555847764541
 30
0.0
 10
67.1190457487093
 20
111.5349899189314
 30
0.0
 10
67.0073544200002
 20
111.4745912663828
 30
0.0
 10
66.79478063115559
 20
111.3585917781353
 30
0.0
 10
66.69417770639033
 20
111.3031599731885
 30
0.0
 10
66.50411351228391
 20
111.1976199282467
 30
0.0
 10
66.41429891091488
 20
111.147303747275
 30
0.0
 10
66.17316282808248
 20
111.0113479328389
 30
0.0
 10
66.04382005682233
 20
110.937179770149
 30
0.0
 10
65.87071774934309
 20
110.8374579002624
 30
0.0
 10
65.8248403183215
 20
110.8107400026435
 30
0.0
 10
65.82484031832149
 20
110.8107400026435
 30
0.0
  0
ARC
  5
D9
330
1F
100
AcDbEntity
  8
0
  6
Continuous
 62
     7
370
    18
100
AcDbCircle
 10
89.3188162219
 20
70.3351535802
 30
0.0
 40
46.80000000000001
100
AcDbArc
 50
62.3163439892
 51
117.6836560108
  0
SPLINE
  5
DA
330
1F
100
AcDbEntity
  8
0
  6
Continuous
 62
     7
370
    18
100
AcDbSpline
210
0.0
220
0.0
230
1.0
 70
     8
 71
     3
 72
    18
 73
    14
 74
     0
 42
0.000000001
 43
0.00000001
 40
0.0
 40
0.0
 40
0.0
 40
0.0
 40
0.1249999999999995
 40
0.1249999999999995
 40
0.249999999999999
 40
0.249999999999999
 40
0.3749999999999985
 40
0.3749999999999985
 40
0.499999999999998
 40
0.499999999999998
 40
0.749999999999999
 40
0.749999999999999
 40
1.0
 40
1.0
 40
1.0
 40
1.0
 10
112.8127921255504
 20
110.8107400026435
 30
0.0
 10
112.8127921255504
 20
110.8107400026435
 30
0.0
 10
112.8015903280811
 20
110.8172479484166
 30
0.0
 10
112.7576685923239
 20
110.8426941586724
 30
0.0
 10
112.7244161698216
 20
110.861939867348
 30
0.0
 10
112.6374955913934
 20
110.912015313817
 30
0.0
 10
112.5842665112871
 20
110.9425923228812
 30
0.0
 10
112.4583156477989
 20
111.0144950784023
 30
0.0
 10
112.3849156002737
 20
111.0561992650074
 30
0.0
 10
112.1439569132572
 20
111.192061945892
 30
0.0
 10
111.9491443647735
 20
111.3005792617981
 30
0.0
 10
111.5268795953095
 20
111.5310244209926
 30
0.0
 10
111.2955203577777
 20
111.6550550062172
 30
0.0
 10
111.061603071431
 20
111.7777792211719
 30
0.0
  0
LINE
  5
DB
330
1F
100
AcDbEntity
  8
0
  6
Continuous
 62
     7
370
    18
100
AcDbLine
 10
65.8248403183
 20
110.8107400026
 30
0.0
 11
64.3188162219
 21
113.4053288759
 31
0.0
  0
SPLINE
  5
DC
330
1F
100
AcDbEntity
  8
0
  6
Continuous
 62
     7
370
    18
100
AcDbSpline
210
0.0
220
0.0
230
1.0
 70
     8
 71
     3
 72
    18
 73
    14
 74
     0
 42
0.000000001
 43
0.00000001
 40
0.0
 40
0.0
 40
0.0
 40
0.0
 40
0.1249999999999994
 40
0.1249999999999994
 40
0.2499999999999989
 40
0.2499999999999989
 40
0.3749999999999983
 40
0.3749999999999983
 40
0.4999999999999978
 40
0.4999999999999978
 40
0.7499999999999989
 40
0.7499999999999989
 40
1.0
 40
1.0
 40
1.0
 40
1.0
 10
64.31881622193595
 20
113.4053288758768
 30
0.0
 10
64.31881622193595
 20
113.4053288758768
 30
0.0
 10
64.33001769641497
 20
113.4118362792326
 30
0.0
 10
64.37393629251015
 20
113.437283567113
 30
0.0
 10
64.40718578412911
 20
113.4565309284108
 30
0.0
 10
64.49409294497462
 20
113.5066213534753
 30
0.0
 10
64.5473115106594
 20
113.537211543793
 30
0.0
 10
64.6732257461225
 20
113.6091657358684
 30
0.0
 10
64.74659944210065
 20
113.6509089589073
 30
0.0
 10
64.98744579445075
 20
113.7869477794324
 30
0.0
 10
65.1821336243009
 20
113.8956678360459
 30
0.0
 10
65.60401690199176
 20
114.1267754075257
 30
0.0
 10
65.83511587883831
 20
114.2512735565362
 30
0.0
 10
66.06871123842326
 20
114.3745974715115
 30
0.0
  0
LINE
  5
DD
330
1F
100
AcDbEntity
  8
0
  6
Continuous
 62
     7
370
    18
100
AcDbLine
 10
66.0687112384
 20
114.3745974715
 30
0.0
 11
67.5760293724
 21
111.7777792212
 31
0.0
  0
LINE
  5
DE
330
1F
100
AcDbEntity
  8
0
  6
Continuous
 62
     7
370
    18
100
AcDbLine
 10
114.3188162219
 20
113.4053288759
 30
0.0
 11
112.8127921256
 21
110.8107400026
 31
0.0
  0
LINE
  5
DF
330
1F
100
AcDbEntity
  8
0
  6
Continuous
 62
     7
370
    18
100
AcDbLine
 10
111.0616030714
 20
111.7777792212
 30
0.0
 11
112.5689212054
 21
114.3745974715
 31
0.0
  0
SPLINE
  5
E0
330
1F
100
AcDbEntity
  8
0
  6
Continuous
 62
     7
370
    18
100
AcDbSpline
210
0.0
220
0.0
230
1.0
 70
     8
 71
     3
 72
    18
 73
    14
 74
     0
 42
0.000000001
 43
0.00000001
 40
0.0
 40
0.0
 40
0.0
 40
0.0
 40
0.1249999999999997
 40
0.1249999999999997
 40
0.2499999999999994
 40
0.2499999999999994
 40
0.3749999999999992
 40
0.3749999999999992
 40
0.4999999999999989
 40
0.4999999999999989
 40
0.7499999999999994
 40
0.7499999999999994
 40
1.0
 40
1.0
 40
1.0
 40
1.0
 10
112.5689212054487
 20
114.3745974715115
 30
0.0
 10
112.6857181418977
 20
114.3129359064633
 30
0.0
 10
112.8003212817038
 20
114.2518388222264
 30
0.0
 10
113.0253431899403
 20
114.1307800928371
 30
0.0
 10
113.1369205904876
 20
114.0701803229797
 30
0.0
 10
113.3493025396792
 20
113.953846674281
 30
0.0
 10
113.4498270398333
 20
113.8982817014642
 30
0.0
 10
113.639762250916
 20
113.7925280873949
 30
0.0
 10
113.7295267172234
 20
113.7421314399332
 30
0.0
 10
113.9705499634589
 20
113.6059991778597
 30
0.0
 10
114.0998632868644
 20
113.531793295797
 30
0.0
 10
114.272938463713
 20
113.4320416290573
 30
0.0
 10
114.3188162219359
 20
113.4053288758768
 30
0.0
 10
114.318816221936
 20
113.4053288758768
 30
0.0
  0
ARC
  5
E1
330
1F
100
AcDbEntity
  8
0
  6
Continuous
 62
     7
370
    18
100
AcDbCircle
 10
89.3188162219
 20
70.3351535802
 30
0.0
 40
49.80000000000002
100
AcDbArc
 50
62.1687148216
 51
117.8312851784
  0
LINE
  5
E2
330
1F
100
AcDbEntity
  8
0
  6
HIDDEN
 62
     7
370
    18
100
AcDbLine
 10
68.479724555
 20
108.8601098877
 30
0.0
 11
68.7447759476
 21
106.7212617369
 31
0.0
  0
LINE
  5
E3
330
1F
100
AcDbEntity
  8
0
  6
HIDDEN
 62
     7
370
    18
100
AcDbLine
 10
71.4075253834
 20
108.1032043705
 30
0.0
 11
69.8110992728
 21
109.5510812045
 31
0.0
  0
ARC
  5
E4
330
1F
100
AcDbEntity
  8
0
  6
HIDDEN
 62
     7
370
    18
100
AcDbCircle
 10
89.3188162219
 20
70.3351535802
 30
0.0
 40
43.8
100
AcDbArc
 50
116.4477601984
 51
118.4100403286
  0
LINE
  5
E5
330
1F
100
AcDbEntity
  8
0
  6
HIDDEN
 62
     7
370
    18
100
AcDbLine
 10
109.8742444749
 20
106.7317793763
 30
0.0
 11
110.1382019393
 21
108.8707628053
 31
0.0
  0
LINE
  5
E6
330
1F
100
AcDbEntity
  8
0
  6
HIDDEN
 62
     7
370
    18
100
AcDbLine
 10
108.8064740048
 20
109.5610531128
 30
0.0
 11
107.2107886059
 21
108.1123599911
 31
0.0
  0
ARC
  5
E7
330
1F
100
AcDbEntity
  8
0
  6
HIDDEN
 62
     7
370
    18
100
AcDbCircle
 10
89.3188162219
 20
70.3351535802
 30
0.0
 40
43.8
100
AcDbArc
 50
61.6192630567
 51
63.5815431869
  0
LINE
  5
E8
330
1F
100
AcDbEntity
  8
0
  6
HIDDEN
 62
     7
370
    18
100
AcDbLine
 10
72.2560413846
 20
110.6749814783
 30
0.0
 11
72.3155178959
 21
108.5205938165
 31
0.0
  0
LINE
  5
E9
330
1F
100
AcDbEntity
  8
0
  6
HIDDEN
 62
     7
370
    18
100
AcDbLine
 10
75.0981264101
 20
109.6417940023
 30
0.0
 11
73.6473456416
 21
111.2355815713
 31
0.0
  0
ARC
  5
EA
330
1F
100
AcDbEntity
  8
0
  6
HIDDEN
 62
     7
370
    18
100
AcDbCircle
 10
89.3188162219
 20
70.3351535802
 30
0.0
 40
43.8
100
AcDbArc
 50
110.9649104842
 51
112.9271906144
  0
LINE
  5
EB
330
1F
100
AcDbEntity
  8
0
  6
HIDDEN
 62
     7
370
    18
100
AcDbLine
 10
106.3025827423
 20
108.5292849983
 30
0.0
 11
106.3609574047
 21
110.6837027971
 31
0.0
  0
LINE
  5
EC
330
1F
100
AcDbEntity
  8
0
  6
HIDDEN
 62
     7
370
    18
100
AcDbLine
 10
104.9693666159
 20
111.2435912473
 30
0.0
 11
103.5194011648
 21
109.6490618988
 31
0.0
  0
ARC
  5
ED
330
1F
100
AcDbEntity
  8
0
  6
HIDDEN
 62
     7
370
    18
100
AcDbCircle
 10
89.3188162219
 20
70.3351535802
 30
0.0
 40
43.8
100
AcDbArc
 50
67.1021127708
 51
69.0643929011
  0
LINE
  5
EE
330
1F
100
AcDbEntity
  8
0
  6
HIDDEN
 62
     7
370
    18
100
AcDbLine
 10
102.5755142193
 20
109.9773023389
 30
0.0
 11
102.4277719333
 21
112.1274409088
 31
0.0
  0
LINE
  5
EF
330
1F
100
AcDbEntity
  8
0
  6
HIDDEN
 62
     7
370
    18
100
AcDbLine
 10
100.9890517825
 20
112.551804347
 30
0.0
 11
99.6980739176
 21
110.8260292152
 31
0.0
  0
ARC
  5
F0
330
1F
100
AcDbEntity
  8
0
  6
HIDDEN
 62
     7
370
    18
100
AcDbCircle
 10
89.3188162219
 20
70.3351535802
 30
0.0
 40
43.8
100
AcDbArc
 50
72.584962485
 51
74.5472426152
  0
LINE
  5
F1
330
1F
100
AcDbEntity
  8
0
  6
HIDDEN
 62
     7
370
    18
100
AcDbLine
 10
96.9019506334
 20
113.4737218515
 30
0.0
 11
95.7817732073
 21
111.6324923202
 31
0.0
  0
LINE
  5
F2
330
1F
100
AcDbEntity
  8
0
  6
HIDDEN
 62
     7
370
    18
100
AcDbLine
 10
98.7271427519
 20
111.0625815852
 30
0.0
 11
98.3746354057
 21
113.188766484
 31
0.0
  0
ARC
  5
F3
330
1F
100
AcDbEntity
  8
0
  6
HIDDEN
 62
     7
370
    18
100
AcDbCircle
 10
89.3188162219
 20
70.3351535802
 30
0.0
 40
43.8
100
AcDbArc
 50
78.0678121992
 51
80.0300923294
  0
LINE
  5
F4
330
1F
100
AcDbEntity
  8
0
  6
HIDDEN
 62
     7
370
    18
100
AcDbLine
 10
76.1884879554
 20
112.1207309917
 30
0.0
 11
76.0418453567
 21
109.9705171416
 31
0.0
  0
LINE
  5
F5
330
1F
100
AcDbEntity
  8
0
  6
HIDDEN
 62
     7
370
    18
100
AcDbLine
 10
78.9188512087
 20
110.8207155465
 30
0.0
 11
77.6269908814
 21
112.5458301941
 31
0.0
  0
ARC
  5
F6
330
1F
100
AcDbEntity
  8
0
  6
HIDDEN
 62
     7
370
    18
100
AcDbCircle
 10
89.3188162219
 20
70.3351535802
 30
0.0
 40
43.8
100
AcDbArc
 50
105.48206077
 51
107.4443409003
  0
LINE
  5
F7
330
1F
100
AcDbEntity
  8
0
  6
HIDDEN
 62
     7
370
    18
100
AcDbLine
 10
80.2410811479
 20
113.1841293664
 30
0.0
 11
79.889661265
 21
111.0577644591
 31
0.0
  0
LINE
  5
F8
330
1F
100
AcDbEntity
  8
0
  6
HIDDEN
 62
     7
370
    18
100
AcDbLine
 10
82.8347389489
 20
111.6291815009
 30
0.0
 11
81.7136199899
 21
113.4698378873
 31
0.0
  0
ARC
  5
F9
330
1F
100
AcDbEntity
  8
0
  6
HIDDEN
 62
     7
370
    18
100
AcDbCircle
 10
89.3188162219
 20
70.3351535802
 30
0.0
 40
43.8
100
AcDbArc
 50
99.9992110559
 51
101.9614911861
  0
LINE
  5
FA
330
1F
100
AcDbEntity
  8
0
  6
HIDDEN
 62
     7
370
    18
100
AcDbLine
 10
90.80813395
 20
112.1086132491
 30
0.0
 11
90.0576172915
 21
114.1289222349
 31
0.0
  0
LINE
  5
FB
330
1F
100
AcDbEntity
  8
0
  6
HIDDEN
 62
     7
370
    18
100
AcDbLine
 10
88.5576173406
 20
114.1285386545
 30
0.0
 11
87.8081340481
 21
112.1078460882
 31
0.0
  0
ARC
  5
FC
330
1F
100
AcDbEntity
  8
0
  6
HIDDEN
 62
     7
370
    18
100
AcDbCircle
 10
89.3188162219
 20
70.3351535802
 30
0.0
 40
43.80000000000001
100
AcDbArc
 50
89.0335116275
 51
90.9957917578
  0
LINE
  5
FD
330
1F
100
AcDbEntity
  8
0
  6
HIDDEN
 62
     7
370
    18
100
AcDbLine
 10
84.3767384635
 20
113.8554461738
 30
0.0
 11
83.8237568984
 21
111.7723871152
 31
0.0
  0
LINE
  5
FE
330
1F
100
AcDbEntity
  8
0
  6
HIDDEN
 62
     7
370
    18
100
AcDbLine
 10
86.8099580298
 20
112.0597941487
 30
0.0
 11
85.8698390292
 21
113.9991496905
 31
0.0
  0
ARC
  5
FF
330
1F
100
AcDbEntity
  8
0
  6
HIDDEN
 62
     7
370
    18
100
AcDbCircle
 10
89.3188162219
 20
70.3351535802
 30
0.0
 40
43.8
100
AcDbArc
 50
94.5163613417
 51
96.4786414719
  0
LINE
  5
100
330
1F
100
AcDbEntity
  8
0
  6
HIDDEN
 62
     7
370
    18
100
AcDbLine
 10
92.7454614262
 20
114.0009079267
 30
0.0
 11
91.8063344135
 21
112.0610718235
 31
0.0
  0
LINE
  5
101
330
1F
100
AcDbEntity
  8
0
  6
HIDDEN
 62
     7
370
    18
100
AcDbLine
 10
94.792682146
 20
111.7751920918
 30
0.0
 11
94.2386352924
 21
113.8579680608
 31
0.0
  0
ARC
  5
102
330
1F
100
AcDbEntity
  8
0
  6
HIDDEN
 62
     7
370
    18
100
AcDbCircle
 10
89.3188162219
 20
70.3351535802
 30
0.0
 40
43.8
100
AcDbArc
 50
83.5506619133
 51
85.5129420436
  0
SPLINE
  5
103
330
1F
100
AcDbEntity
  8
0
  6
HIDDEN
 62
     7
370
    18
100
AcDbSpline
210
0.0
220
0.0
230
1.0
 70
    24
 71
     3
 72
     9
 73
     5
 74
     0
 42
0.000000001
 43
0.00000001
 40
0.0
 40
0.0
 40
0.0
 40
0.0
 40
0.9813436075367202
 40
1.0
 40
1.0
 40
1.0
 40
1.0
 10
85.39217710723037
 20
113.9587882896461
 30
0.0
 10
85.34418240660261
 20
113.9544275286335
 30
0.0
 10
85.29527527533976
 20
113.949983864886
 30
0.0
 10
85.31972889085773
 20
113.9522057012923
 30
0.0
 10
85.32018510710598
 20
113.9522471527443
 30
0.0
  0
ELLIPSE
  5
104
330
1F
100
AcDbEntity
  8
0
  6
HIDDEN
 62
     7
370
    18
100
AcDbEllipse
 10
89.3188162219
 20
116.4415190569
 30
0.0
 11
0.1603874319004746
 21
11.04725024320119
 31
0.0
210
0.0
220
0.0
230
1.0
 40
0.3617898665
 41
1.802719253002447
 42
1.992760831366672
  0
ELLIPSE
  5
105
330
1F
100
AcDbEntity
  8
0
  6
HIDDEN
 62
     7
370
    18
100
AcDbEllipse
 10
89.3188162219
 20
105.4008263564
 30
0.0
 11
0.1603874319004746
 21
11.04725024320119
 31
0.0
210
0.0
220
0.0
230
1.0
 40
0.3617898665
 41
0.8410534606408904
 42
0.9337378957251067
  0
ELLIPSE
  5
106
330
1F
100
AcDbEntity
  8
0
  6
HIDDEN
 62
     7
370
    18
100
AcDbEllipse
 10
89.3188162219
 20
105.3991049679
 30
0.0
 11
-0.1595391954429175
 21
11.04663840179937
 31
0.0
210
0.0
220
0.0
230
1.0
 40
0.3618129782
 41
5.349711848220666
 42
5.445711685397386
  0
ELLIPSE
  5
107
330
1F
100
AcDbEntity
  8
0
  6
HIDDEN
 62
     7
370
    18
100
AcDbEllipse
 10
89.3188162219
 20
116.4392556762
 30
0.0
 11
-0.1595391954429175
 21
11.04663840179937
 31
0.0
210
0.0
220
0.0
230
1.0
 40
0.3618129782
 41
4.290650920792674
 42
4.480690588534718
  0
LINE
  5
108
330
1F
100
AcDbEntity
  8
0
  6
HIDDEN
 62
     7
370
    18
100
AcDbLine
 10
93.3174476885
 20
113.9522471209
 30
0.0
 11
93.2454647201
 21
113.958787445
 31
0.0
  0
LINE
  5
109
330
1F
100
AcDbEntity
  8
0
  6
HIDDEN
 62
     7
370
    18
100
AcDbLine
 10
111.0677711206
 20
111.7745425817
 30
0.0
 11
108.5545165536
 21
107.4461739482
 31
0.0
  0
LINE
  5
10A
330
1F
100
AcDbEntity
  8
0
  6
HIDDEN
 62
     7
370
    18
100
AcDbLine
 10
70.0831158903
 20
107.4461739482
 30
0.0
 11
67.5698613232
 21
111.7745425817
 31
0.0
  0
LINE
  5
10B
330
1F
100
AcDbEntity
  8
0
  6
HIDDEN
 62
     7
370
    18
100
AcDbLine
 10
80.4283719136
 20
119.3351535802
 30
0.0
 11
98.2092605303
 21
119.3351535802
 31
0.0
  0
LINE
  5
10C
330
1F
100
AcDbEntity
  8
0
  6
HIDDEN
 62
     7
370
    18
100
AcDbLine
 10
112.5689212054
 20
114.3745974715
 30
0.0
 11
111.0616030714
 21
111.7777792212
 31
0.0
  0
LINE
  5
10D
330
1F
100
AcDbEntity
  8
0
  6
HIDDEN
 62
     7
370
    18
100
AcDbLine
 10
67.5760293724
 20
111.7777792212
 30
0.0
 11
66.0687112384
 21
114.3745974715
 31
0.0
  0
LINE
  5
10E
330
1F
100
AcDbEntity
  8
0
  6
HIDDEN
 62
     7
370
    18
100
AcDbLine
 10
93.3188162219
 20
113.9522471209
 30
0.0
 11
93.3188162219
 21
116.9645799502
 31
0.0
  0
LINE
  5
10F
330
1F
100
AcDbEntity
  8
0
  6
HIDDEN
 62
     7
370
    18
100
AcDbLine
 10
85.3188162219
 20
116.9639695706
 30
0.0
 11
85.3188162219
 21
113.9522471527
 31
0.0
  0
LINE
  5
110
330
1F
100
AcDbEntity
  8
0
  6
HIDDEN
 62
     7
370
    18
100
AcDbLine
 10
91.4188162219
 20
117.0882078871
 30
0.0
 11
91.4188162219
 21
119.3351535802
 31
0.0
  0
LINE
  5
111
330
1F
100
AcDbEntity
  8
0
  6
HIDDEN
 62
     7
370
    18
100
AcDbLine
 10
87.2188162219
 20
119.3351535802
 30
0.0
 11
87.2188162219
 21
117.0880476131
 31
0.0
  0
POINT
  5
112
330
1F
100
AcDbEntity
  8
0
  6
Continuous
 62
     7
370
     0
100
AcDbPoint
 10
89.3188162219
 20
120.1351535802
 30
0.0
  0
DIMENSION
  5
113
330
1F
100
AcDbEntity
  8
0
  6
Continuous
 62
     7
370
    18
100
AcDbDimension
  2
_D_5
 10
123.6233148371
 20
119.3351535802
 30
0.0
 11
123.6233148371
 21
127.1992528396
 31
0.0
 70
   160
  1
<>
 71
     2
 42
-1.0
  3
SLDDIMSTYLE3
100
AcDbAlignedDimension
 13
89.3188162219
 23
120.1351535802
 33
0.0
 14
98.2092605303
 24
119.3351535802
 34
0.0
 50
90.0
100
AcDbRotatedDimension
  0
DIMENSION
  5
120
330
1F
100
AcDbEntity
  8
0
  6
Continuous
 62
     7
370
    18
100
AcDbDimension
  2
_D_6
 10
124.4194234104
 20
104.0736933078
 30
0.0
 11
128.4466228288
 21
111.0117807037
 31
0.0
 70
   160
  1
<>
 71
     2
 42
-1.0
  3
SLDDIMSTYLE2
100
AcDbAlignedDimension
 13
114.3188162219
 23
113.4053288759
 33
0.0
 14
112.8127921256
 24
110.8107400026
 34
0.0
 50
59.8670605025
100
AcDbRotatedDimension
  0
DIMENSION
  5
12C
330
1F
100
AcDbEntity
  8
0
  6
Continuous
 62
     7
370
    18
100
AcDbDimension
  2
_D_7
 10
128.342377036
 20
96.0341009687
 30
0.0
 11
130.3477189163
 21
99.4951146167
 31
0.0
 70
   160
  1
<>
 71
     2
 42
-1.0
  3
SLDDIMSTYLE2
100
AcDbAlignedDimension
 13
114.3188162219
 23
113.4053288759
 33
0.0
 14
110.3081324613
 24
106.4833015799
 34
0.0
 50
59.911618569
100
AcDbRotatedDimension
  0
DIMENSION
  5
138
330
1F
100
AcDbEntity
  8
0
  6
Continuous
 62
     7
370
    18
100
AcDbDimension
  2
_D_8
 10
89.3188162219
 20
70.3351535802
 30
0.0
 11
83.2025677205
 21
90.3201925255
 31
0.0
 70
   164
  1
<>
 71
     1
 42
-1.0
  3
SLDDIMSTYLE4
100
AcDbRadialDimension
 15
77.086299219
 25
110.3052114707
 35
0.0
 40
0.0
  0
LINE
  5
141
330
1F
100
AcDbEntity
  8
0
  6
Continuous
 62
     7
370
    18
100
AcDbLine
 10
151.2116786037
 20
168.6826177162
 30
0.0
 11
151.2116786037
 21
156.6826177162
 31
0.0
  0
LINE
  5
142
330
1F
100
AcDbEntity
  8
0
  6
Continuous
 62
     7
370
    18
100
AcDbLine
 10
151.2116786037
 20
186.6826177162
 30
0.0
 11
151.2116786037
 21
174.6826177162
 31
0.0
  0
LINE
  5
143
330
1F
100
AcDbEntity
  8
0
  6
Continuous
 62
     7
370
    18
100
AcDbLine
 10
160.5395894558
 20
158.6826177162
 30
0.0
 11
164.8635306041
 21
158.6826177162
 31
0.0
  0
SPLINE
  5
144
330
1F
100
AcDbEntity
  8
0
  6
Continuous
 62
     7
370
    18
100
AcDbSpline
210
0.0
220
0.0
230
1.0
 70
     8
 71
     3
 72
    18
 73
    14
 74
     0
 42
0.000000001
 43
0.00000001
 40
0.0
 40
0.0
 40
0.0
 40
0.0
 40
0.1250000000000009
 40
0.1250000000000009
 40
0.2500000000000017
 40
0.2500000000000017
 40
0.3750000000000026
 40
0.3750000000000026
 40
0.5000000000000034
 40
0.5000000000000034
 40
0.7500000000000017
 40
0.7500000000000017
 40
1.0
 40
1.0
 40
1.0
 40
1.0
 10
164.8635306040594
 20
158.6826177162434
 30
0.0
 10
164.8635306040594
 20
158.5505330227547
 30
0.0
 10
164.8570198625151
 20
158.4206547696596
 30
0.0
 10
164.8315690539621
 20
158.1651306721258
 30
0.0
 10
164.8123215206995
 20
158.0381628585321
 30
0.0
 10
164.7622625099009
 20
157.7960236694725
 30
0.0
 10
164.7317035300221
 20
157.6811781265953
 30
0.0
 10
164.6598836521626
 20
157.4638229924447
 30
0.0
 10
164.6182457816993
 20
157.3609038920261
 30
0.0
 10
164.4826962805862
 20
157.0841830356926
 30
0.0
 10
164.3745521018189
 20
156.9351764822957
 30
0.0
 10
164.1453599266986
 20
156.7355996337871
 30
0.0
 10
164.0222243547649
 20
156.6826177162434
 30
0.0
 10
163.9006582357819
 20
156.6826177162434
 30
0.0
  0
LINE
  5
145
330
1F
100
AcDbEntity
  8
0
  6
Continuous
 62
     7
370
    18
100
AcDbLine
 10
163.9006582358
 20
156.6826177162
 30
0.0
 11
159.5722896023
 21
156.6826177162
 31
0.0
  0
SPLINE
  5
146
330
1F
100
AcDbEntity
  8
0
  6
Continuous
 62
     7
370
    18
100
AcDbSpline
210
0.0
220
0.0
230
1.0
 70
     8
 71
     3
 72
    18
 73
    14
 74
     0
 42
0.000000001
 43
0.00000001
 40
0.0
 40
0.0
 40
0.0
 40
0.0
 40
0.1249999999999995
 40
0.1249999999999995
 40
0.249999999999999
 40
0.249999999999999
 40
0.3749999999999985
 40
0.3749999999999985
 40
0.499999999999998
 40
0.499999999999998
 40
0.749999999999999
 40
0.749999999999999
 40
1.0
 40
1.0
 40
1.0
 40
1.0
 10
159.5722896022613
 20
156.6826177162434
 30
0.0
 10
159.633668674951
 20
156.6826177162434
 30
0.0
 10
159.6945185324182
 20
156.6955492652614
 30
0.0
 10
159.8151469189202
 20
156.7462439394463
 30
0.0
 10
159.8755621948553
 20
156.7846216480065
 30
0.0
 10
159.9915933211449
 20
156.884848641114
 30
0.0
 10
160.0470400991433
 20
156.9461914456169
 30
0.0
 10
160.1526084319314
 20
157.091141303821
 30
0.0
 10
160.2029379802852
 20
157.1755243015185
 30
0.0
 10
160.3389296837332
 20
157.4520489879201
 30
0.0
 10
160.4131170968849
 20
157.6749869232356
 30
0.0
 10
160.5128647300875
 20
158.1559715055451
 30
0.0
 10
160.5395894557736
 20
158.4184610765477
 30
0.0
 10
160.5395894557736
 20
158.6826177162434
 30
0.0
  0
SPLINE
  5
147
330
1F
100
AcDbEntity
  8
0
  6
Continuous
 62
     7
370
    18
100
AcDbSpline
210
0.0
220
0.0
230
1.0
 70
     8
 71
     3
 72
    18
 73
    14
 74
     0
 42
0.000000001
 43
0.00000001
 40
0.0
 40
0.0
 40
0.0
 40
0.0
 40
0.1249999999999999
 40
0.1249999999999999
 40
0.2499999999999999
 40
0.2499999999999999
 40
0.3749999999999998
 40
0.3749999999999998
 40
0.4999999999999998
 40
0.4999999999999998
 40
0.7499999999999999
 40
0.7499999999999999
 40
1.0
 40
1.0
 40
1.0
 40
1.0
 10
160.5395894557736
 20
184.6826177162434
 30
0.0
 10
160.5395894557736
 20
184.8146962483391
 30
0.0
 10
160.5330798428053
 20
184.9445685342959
 30
0.0
 10
160.5076270955523
 20
185.2000810781674
 30
0.0
 10
160.4883764378238
 20
185.3270430740127
 30
0.0
 10
160.4382880547142
 20
185.5691734309142
 30
0.0
 10
160.4077031234115
 20
185.6840151411487
 30
0.0
 10
160.3357816222526
 20
185.901364038206
 30
0.0
 10
160.2940665113001
 20
186.0042815184245
 30
0.0
 10
160.1581679678061
 20
186.2810029184529
 30
0.0
 10
160.049621657345
 20
186.4300164311749
 30
0.0
 10
159.8191136511242
 20
186.6296178506026
 30
0.0
 10
159.6950486319341
 20
186.6826177162434
 30
0.0
 10
159.5722896022613
 20
186.6826177162434
 30
0.0
  0
LINE
  5
148
330
1F
100
AcDbEntity
  8
0
  6
Continuous
 62
     7
370
    18
100
AcDbLine
 10
160.5395894558
 20
184.6826177162
 30
0.0
 11
160.5395894558
 21
158.6826177162
 31
0.0
  0
LINE
  5
149
330
1F
100
AcDbEntity
  8
0
  6
Continuous
 62
     7
370
    18
100
AcDbLine
 10
159.5722896023
 20
186.6826177162
 30
0.0
 11
163.9006582358
 21
186.6826177162
 31
0.0
  0
SPLINE
  5
14A
330
1F
100
AcDbEntity
  8
0
  6
Continuous
 62
     7
370
    18
100
AcDbSpline
210
0.0
220
0.0
230
1.0
 70
     8
 71
     3
 72
    18
 73
    14
 74
     0
 42
0.000000001
 43
0.00000001
 40
0.0
 40
0.0
 40
0.0
 40
0.0
 40
0.1249999999999995
 40
0.1249999999999995
 40
0.249999999999999
 40
0.249999999999999
 40
0.3749999999999985
 40
0.3749999999999985
 40
0.499999999999998
 40
0.499999999999998
 40
0.749999999999999
 40
0.749999999999999
 40
1.0
 40
1.0
 40
1.0
 40
1.0
 10
163.9006582357819
 20
186.6826177162434
 30
0.0
 10
163.9614407469017
 20
186.6826177162434
 30
0.0
 10
164.0217649959077
 20
186.6696909338816
 30
0.0
 10
164.1414711897024
 20
186.6190082386221
 30
0.0
 10
164.201486819194
 20
186.5806376352233
 30
0.0
 10
164.3168541183516
 20
186.4804235199477
 30
0.0
 10
164.372036496945
 20
186.4190862449261
 30
0.0
 10
164.4771810433099
 20
186.2741430021154
 30
0.0
 10
164.5273510415333
 20
186.1897616582161
 30
0.0
 10
164.6629931140464
 20
185.9132372404967
 30
0.0
 10
164.7371062095151
 20
185.6902923904217
 30
0.0
 10
164.8367954478281
 20
185.2092885241917
 30
0.0
 10
164.8635306040594
 20
184.9467865720601
 30
0.0
 10
164.8635306040594
 20
184.6826177162434
 30
0.0
  0
LINE
  5
14B
330
1F
100
AcDbEntity
  8
0
  6
Continuous
 62
     7
370
    18
100
AcDbLine
 10
164.8635306041
 20
184.6826177162
 30
0.0
 11
160.5395894558
 21
184.6826177162
 31
0.0
  0
LINE
  5
14C
330
1F
100
AcDbEntity
  8
0
  6
Continuous
 62
     7
370
    18
100
AcDbLine
 10
164.8635306041
 20
184.6826177162
 30
0.0
 11
164.8635306041
 21
158.6826177162
 31
0.0
  0
LINE
  5
14D
330
1F
100
AcDbEntity
  8
0
  6
Continuous
 62
     7
370
    18
100
AcDbLine
 10
157.9415033081
 20
158.6826177162
 30
0.0
 11
160.5360921813
 21
158.6826177162
 31
0.0
  0
SPLINE
  5
14E
330
1F
100
AcDbEntity
  8
0
  6
Continuous
 62
     7
370
    18
100
AcDbSpline
210
0.0
220
0.0
230
1.0
 70
     8
 71
     3
 72
    18
 73
    14
 74
     0
 42
0.000000001
 43
0.00000001
 40
0.0
 40
0.0
 40
0.0
 40
0.0
 40
0.1249999999999995
 40
0.1249999999999995
 40
0.249999999999999
 40
0.249999999999999
 40
0.3749999999999985
 40
0.3749999999999985
 40
0.499999999999998
 40
0.499999999999998
 40
0.749999999999999
 40
0.749999999999999
 40
1.0
 40
1.0
 40
1.0
 40
1.0
 10
160.5360921812887
 20
158.6826177162434
 30
0.0
 10
160.5360921812887
 20
158.5505391841476
 30
0.0
 10
160.5295842355157
 20
158.4206668981909
 30
0.0
 10
160.5041380252598
 20
158.1651543543194
 30
0.0
 10
160.4848923165842
 20
158.0381923584741
 30
0.0
 10
160.4348168701152
 20
157.7960620015725
 30
0.0
 10
160.4042398610511
 20
157.681220291338
 30
0.0
 10
160.3323371055299
 20
157.4638713942807
 30
0.0
 10
160.2906329189248
 20
157.3609539140622
 30
0.0
 10
160.1547702380402
 20
157.0842325140339
 30
0.0
 10
160.0462529221341
 20
156.9352190013119
 30
0.0
 10
159.8158077629396
 20
156.7356175818842
 30
0.0
 10
159.691777177715
 20
156.6826177162434
 30
0.0
 10
159.5690529627603
 20
156.6826177162434
 30
0.0
  0
LINE
  5
14F
330
1F
100
AcDbEntity
  8
0
  6
Continuous
 62
     7
370
    18
100
AcDbLine
 10
159.5690529628
 20
156.6826177162
 30
0.0
 11
156.9722347124
 21
156.6826177162
 31
0.0
  0
SPLINE
  5
150
330
1F
100
AcDbEntity
  8
0
  6
Continuous
 62
     7
370
    18
100
AcDbSpline
210
0.0
220
0.0
230
1.0
 70
     8
 71
     3
 72
    18
 73
    14
 74
     0
 42
0.000000001
 43
0.00000001
 40
0.0
 40
0.0
 40
0.0
 40
0.0
 40
0.1249999999999997
 40
0.1249999999999997
 40
0.2499999999999994
 40
0.2499999999999994
 40
0.3749999999999992
 40
0.3749999999999992
 40
0.4999999999999989
 40
0.4999999999999989
 40
0.7499999999999994
 40
0.7499999999999994
 40
1.0
 40
1.0
 40
1.0
 40
1.0
 10
156.9722347124207
 20
156.6826177162434
 30
0.0
 10
157.033896277469
 20
156.6826177162434
 30
0.0
 10
157.0949933617058
 20
156.695551461942
 30
0.0
 10
157.2160520910951
 20
156.7462516560175
 30
0.0
 10
157.2766518609525
 20
156.7846326383995
 30
0.0
 10
157.3929855096513
 20
156.8848655649894
 30
0.0
 10
157.4485504824681
 20
156.9462109170924
 30
0.0
 10
157.5543040965373
 20
157.0911638232012
 30
0.0
 10
157.604700743999
 20
157.175547582589
 30
0.0
 10
157.7408330060726
 20
157.452072392792
 30
0.0
 10
157.8150388881352
 20
157.6750071408851
 30
0.0
 10
157.9147905548749
 20
158.1559828412823
 30
0.0
 10
157.9415033080554
 20
158.4184667047048
 30
0.0
 10
157.9415033080554
 20
158.6826177162434
 30
0.0
  0
SPLINE
  5
151
330
1F
100
AcDbEntity
  8
0
  6
Continuous
 62
     7
370
    18
100
AcDbSpline
210
0.0
220
0.0
230
1.0
 70
     8
 71
     3
 72
    18
 73
    14
 74
     0
 42
0.000000001
 43
0.00000001
 40
0.0
 40
0.0
 40
0.0
 40
0.0
 40
0.1249999999999991
 40
0.1249999999999991
 40
0.2499999999999983
 40
0.2499999999999983
 40
0.3749999999999974
 40
0.3749999999999974
 40
0.4999999999999966
 40
0.4999999999999966
 40
0.7499999999999982
 40
0.7499999999999982
 40
1.0
 40
1.0
 40
1.0
 40
1.0
 10
157.9415033080554
 20
184.6826177162434
 30
0.0
 10
157.9415033080554
 20
184.8146934096151
 30
0.0
 10
157.9349959046996
 20
184.9445629463423
 30
0.0
 10
157.9095486168192
 20
185.2000701671064
 30
0.0
 10
157.8903012555214
 20
185.3270294824802
 30
0.0
 10
157.8402108304569
 20
185.5691557700961
 30
0.0
 10
157.8096206401393
 20
185.6839957144854
 30
0.0
 10
157.7376664480638
 20
185.9013417378364
 30
0.0
 10
157.6959232250249
 20
186.0042584712436
 30
0.0
 10
157.5598844044999
 20
186.2809801214254
 30
0.0
 10
157.4511643478864
 20
186.4299968398104
 30
0.0
 10
157.2200567764066
 20
186.6296095803293
 30
0.0
 10
157.095558627396
 20
186.6826177162434
 30
0.0
 10
156.9722347124207
 20
186.6826177162434
 30
0.0
  0
LINE
  5
152
330
1F
100
AcDbEntity
  8
0
  6
Continuous
 62
     7
370
    18
100
AcDbLine
 10
157.9415033081
 20
184.6826177162
 30
0.0
 11
157.9415033081
 21
158.6826177162
 31
0.0
  0
LINE
  5
153
330
1F
100
AcDbEntity
  8
0
  6
Continuous
 62
     7
370
    18
100
AcDbLine
 10
151.2116786037
 20
156.6826177162
 30
0.0
 11
156.9722347124
 21
156.6826177162
 31
0.0
  0
LINE
  5
154
330
1F
100
AcDbEntity
  8
0
  6
Continuous
 62
     7
370
    18
100
AcDbLine
 10
151.2116786037
 20
186.6826177162
 30
0.0
 11
156.9722347124
 21
186.6826177162
 31
0.0
  0
LINE
  5
155
330
1F
100
AcDbEntity
  8
0
  6
Continuous
 62
     7
370
    18
100
AcDbLine
 10
152.0116786037
 20
168.6826177162
 30
0.0
 11
151.2116786037
 21
168.6826177162
 31
0.0
  0
LINE
  5
156
330
1F
100
AcDbEntity
  8
0
  6
Continuous
 62
     7
370
    18
100
AcDbLine
 10
152.0116786037
 20
168.6826177162
 30
0.0
 11
152.0116786037
 21
174.6826177162
 31
0.0
  0
LINE
  5
157
330
1F
100
AcDbEntity
  8
0
  6
Continuous
 62
     7
370
    18
100
AcDbLine
 10
151.2116786037
 20
174.6826177162
 30
0.0
 11
152.0116786037
 21
174.6826177162
 31
0.0
  0
LINE
  5
158
330
1F
100
AcDbEntity
  8
0
  6
Continuous
 62
     7
370
    18
100
AcDbLine
 10
156.9722347124
 20
186.6826177162
 30
0.0
 11
159.5690529628
 21
186.6826177162
 31
0.0
  0
SPLINE
  5
159
330
1F
100
AcDbEntity
  8
0
  6
Continuous
 62
     7
370
    18
100
AcDbSpline
210
0.0
220
0.0
230
1.0
 70
     8
 71
     3
 72
    18
 73
    14
 74
     0
 42
0.000000001
 43
0.00000001
 40
0.0
 40
0.0
 40
0.0
 40
0.0
 40
0.1250000000000003
 40
0.1250000000000003
 40
0.2500000000000006
 40
0.2500000000000006
 40
0.3750000000000008
 40
0.3750000000000008
 40
0.5000000000000011
 40
0.5000000000000011
 40
0.7500000000000006
 40
0.7500000000000006
 40
1.0
 40
1.0
 40
1.0
 40
1.0
 10
159.5690529627603
 20
186.6826177162434
 30
0.0
 10
159.6304146282163
 20
186.6826177162434
 30
0.0
 10
159.6912474074781
 20
186.6696861672253
 30
0.0
 10
159.8118422650008
 20
186.6189914930405
 30
0.0
 10
159.8722409175494
 20
186.5806137844802
 30
0.0
 10
159.9882404057969
 20
186.4803867913727
 30
0.0
 10
160.0436722107438
 20
186.4190439868698
 30
0.0
 10
160.1492122556855
 20
186.2740941286658
 30
0.0
 10
160.1995284366572
 20
186.1897111309683
 30
0.0
 10
160.3354842510933
 20
185.9131864445666
 30
0.0
 10
160.4096524137832
 20
185.6902485092511
 30
0.0
 10
160.5093742836698
 20
185.2092639269417
 30
0.0
 10
160.5360921812887
 20
184.9467743559391
 30
0.0
 10
160.5360921812887
 20
184.6826177162434
 30
0.0
  0
LINE
  5
15A
330
1F
100
AcDbEntity
  8
0
  6
Continuous
 62
     7
370
    18
100
AcDbLine
 10
160.5360921813
 20
184.6826177162
 30
0.0
 11
157.9415033081
 21
184.6826177162
 31
0.0
  0
LINE
  5
15B
330
1F
100
AcDbEntity
  8
0
  6
Continuous
 62
     7
370
    18
100
AcDbLine
 10
160.5360921813
 20
184.6826177162
 30
0.0
 11
160.5360921813
 21
158.6826177162
 31
0.0
  0
SPLINE
  5
15C
330
1F
100
AcDbEntity
  8
0
  6
HIDDEN
 62
     7
370
    18
100
AcDbSpline
210
0.0
220
0.0
230
1.0
 70
     8
 71
     3
 72
    35
 73
    31
 74
     0
 42
0.000000001
 43
0.00000001
 40
0.0
 40
0.0
 40
0.0
 40
0.0
 40
0.0418946715702269
 40
0.0640724848049784
 40
0.1071244116083175
 40
0.1498002908466939
 40
0.1705039993889985
 40
0.2142339962988772
 40
0.2570070333503569
 40
0.2777578867744623
 40
0.3215886139798249
 40
0.3569315511614055
 40
0.4085678918500124
 40
0.4291023578612523
 40
0.4718316282048082
 40
0.4925620593925023
 40
0.5363570178714337
 40
0.5789766347961333
 40
0.5996532245850315
 40
0.6433276410685796
 40
0.6860055806127773
 40
0.7067100693826315
 40
0.750440070561009
 40
0.7835783927978235
 40
0.814872338604615
 40
0.8579086718554083
 40
0.8910476773687848
 40
0.922344530632443
 40
0.9653887248665346
 40
0.9999999999999999
 40
0.9999999999999999
 40
0.9999999999999999
 40
0.9999999999999999
 10
154.2116786037284
 20
167.6826177162434
 30
0.0
 10
154.212230359826
 20
167.6890409379592
 30
0.0
 10
154.2130741994564
 20
167.6988644252992
 30
0.0
 10
154.2195371144354
 20
167.7753590937315
 30
0.0
 10
154.2294589480333
 20
167.8949745290422
 30
0.0
 10
154.2433833294414
 20
168.0708182874382
 30
0.0
 10
154.2596141721228
 20
168.2870698452672
 30
0.0
 10
154.2777523140311
 20
168.5428586860351
 30
0.0
 10
154.2970757319537
 20
168.8465410014632
 30
0.0
 10
154.3162359170709
 20
169.1811571865841
 30
0.0
 10
154.3334669833771
 20
169.5204122423933
 30
0.0
 10
154.3534657585358
 20
170.0002684354318
 30
0.0
 10
154.3666286876303
 20
170.4223714888439
 30
0.0
 10
154.3767199494557
 20
170.8880403977827
 30
0.0
 10
154.381390342675
 20
171.2368346198081
 30
0.0
 10
154.3835448684296
 20
171.6854860583824
 30
0.0
 10
154.3817845974937
 20
172.135302988432
 30
0.0
 10
154.3748900112905
 20
172.577807270187
 30
0.0
 10
154.3646445444797
 20
173.0083548319429
 30
0.0
 10
154.3512256633197
 20
173.4255593412183
 30
0.0
 10
154.3345489467237
 20
173.8161811342033
 30
0.0
 10
154.3163900122939
 20
174.1819281924408
 30
0.0
 10
154.2988795699801
 20
174.4904887415532
 30
0.0
 10
154.2795079043418
 20
174.7934394120657
 30
0.0
 10
154.2610807430318
 20
175.0591182333089
 30
0.0
 10
154.2444465311739
 20
175.2809378046953
 30
0.0
 10
154.2306919410149
 20
175.4544417566946
 30
0.0
 10
154.2200882576832
 20
175.5835691868012
 30
0.0
 10
154.2128027997028
 20
175.6695051134905
 30
0.0
 10
154.212350414337
 20
175.674760811997
 30
0.0
 10
154.2121487848254
 20
175.6771032925526
 30
0.0
  0
LINE
  5
15D
330
1F
100
AcDbEntity
  8
0
  6
HIDDEN
 62
     7
370
    18
100
AcDbLine
 10
159.2870380352
 20
168.5672316131
 30
0.0
 11
159.2870380352
 21
166.1826177162
 31
0.0
  0
LINE
  5
15E
330
1F
100
AcDbEntity
  8
0
  6
HIDDEN
 62
     7
370
    18
100
AcDbLine
 10
159.5744450688
 20
169.1826177162
 30
0.0
 11
159.5744450688
 21
166.1826177162
 31
0.0
  0
LINE
  5
15F
330
1F
100
AcDbEntity
  8
0
  6
HIDDEN
 62
     7
370
    18
100
AcDbLine
 10
159.5744450688
 20
173.1826177162
 30
0.0
 11
159.5744450688
 21
170.1826177162
 31
0.0
  0
LINE
  5
160
330
1F
100
AcDbEntity
  8
0
  6
HIDDEN
 62
     7
370
    18
100
AcDbLine
 10
159.5744450688
 20
177.1826177162
 30
0.0
 11
159.5744450688
 21
174.1826177162
 31
0.0
  0
LINE
  5
161
330
1F
100
AcDbEntity
  8
0
  6
HIDDEN
 62
     7
370
    18
100
AcDbLine
 10
159.2870380352
 20
177.1826177162
 30
0.0
 11
159.2870380352
 21
174.7980038194
 31
0.0
  0
LINE
  5
162
330
1F
100
AcDbEntity
  8
0
  6
HIDDEN
 62
     7
370
    18
100
AcDbLine
 10
159.2389860957
 20
177.1826177162
 30
0.0
 11
159.2389860957
 21
175.3863778826
 31
0.0
  0
LINE
  5
163
330
1F
100
AcDbEntity
  8
0
  6
HIDDEN
 62
     7
370
    18
100
AcDbLine
 10
159.2382189349
 20
177.1826177162
 30
0.0
 11
159.2382189349
 21
175.3950202678
 31
0.0
  0
SPLINE
  5
164
330
1F
100
AcDbEntity
  8
0
  6
HIDDEN
 62
     7
370
    18
100
AcDbSpline
210
0.0
220
0.0
230
1.0
 70
     8
 71
     3
 72
    10
 73
     6
 74
     0
 42
0.000000001
 43
0.00000001
 40
0.0
 40
0.0
 40
0.0
 40
0.0
 40
0.5000000000000002
 40
0.5000000000000002
 40
1.0
 40
1.0
 40
1.0
 40
1.0
 10
159.2382189348821
 20
175.3950202677899
 30
0.0
 10
159.2445762186374
 20
175.3234855317617
 30
0.0
 10
159.2518863581012
 20
175.239251260396
 30
0.0
 10
159.2680028043257
 20
175.0447395187793
 30
0.0
 10
159.2767806425038
 20
174.9346839598901
 30
0.0
 10
159.2857603604291
 20
174.8150693513844
 30
0.0
  0
LINE
  5
165
330
1F
100
AcDbEntity
  8
0
  6
HIDDEN
 62
     7
370
    18
100
AcDbLine
 10
159.2857603604
 20
177.1826177162
 30
0.0
 11
159.2857603604
 21
174.8150693514
 31
0.0
  0
ELLIPSE
  5
166
330
1F
100
AcDbEntity
  8
0
  6
HIDDEN
 62
     7
370
    18
100
AcDbEllipse
 10
201.0116786037
 20
192.3867745033
 30
0.0
 11
41.79741646040975
 21
15.159903514219
 31
0.0
210
0.0
220
0.0
230
1.0
 40
0.0306554398
 41
3.190019583847567
 42
3.26180533136006
  0
LINE
  5
167
330
1F
100
AcDbEntity
  8
0
  6
HIDDEN
 62
     7
370
    18
100
AcDbLine
 10
159.5716400921
 20
177.1826177162
 30
0.0
 11
159.5716400921
 21
174.1826177162
 31
0.0
  0
ELLIPSE
  5
168
330
1F
100
AcDbEntity
  8
0
  6
HIDDEN
 62
     7
370
    18
100
AcDbEllipse
 10
201.0116786037
 20
158.9784609292
 30
0.0
 11
41.79741646040975
 21
-15.159903514219
 31
0.0
210
0.0
220
0.0
230
1.0
 40
0.0306554398
 41
3.021379975819975
 42
3.078065642134992
  0
SPLINE
  5
169
330
1F
100
AcDbEntity
  8
0
  6
HIDDEN
 62
     7
370
    18
100
AcDbSpline
210
0.0
220
0.0
230
1.0
 70
     8
 71
     3
 72
    10
 73
     6
 74
     0
 42
0.000000001
 43
0.00000001
 40
0.0
 40
0.0
 40
0.0
 40
0.0
 40
0.5
 40
0.5
 40
1.0
 40
1.0
 40
1.0
 40
1.0
 10
159.3280775837765
 20
174.1891280374948
 30
0.0
 10
159.3373906571007
 20
174.0342503857161
 30
0.0
 10
159.3463109339961
 20
173.8715620251785
 30
0.0
 10
159.362732117204
 20
173.5328494776766
 30
0.0
 10
159.3702514957271
 20
173.3565492237213
 30
0.0
 10
159.3768174580852
 20
173.1731419921252
 30
0.0
  0
ELLIPSE
  5
16A
330
1F
100
AcDbEntity
  8
0
  6
HIDDEN
 62
     7
370
    18
100
AcDbEllipse
 10
201.0116786037
 20
188.3867745033
 30
0.0
 11
41.79741646040975
 21
15.159903514219
 31
0.0
210
0.0
220
0.0
230
1.0
 40
0.0306554398
 41
3.219393398930451
 42
3.26180533136006
  0
LINE
  5
16B
330
1F
100
AcDbEntity
  8
0
  6
HIDDEN
 62
     7
370
    18
100
AcDbLine
 10
159.5716400921
 20
173.1826177162
 30
0.0
 11
159.5716400921
 21
170.1826177162
 31
0.0
  0
ELLIPSE
  5
16C
330
1F
100
AcDbEntity
  8
0
  6
HIDDEN
 62
     7
370
    18
100
AcDbEllipse
 10
201.0116786037
 20
154.9784609292
 30
0.0
 11
41.79741646040975
 21
-15.159903514219
 31
0.0
210
0.0
220
0.0
230
1.0
 40
0.0306554398
 41
3.021379975819977
 42
3.063791908249604
  0
SPLINE
  5
16D
330
1F
100
AcDbEntity
  8
0
  6
HIDDEN
 62
     7
370
    18
100
AcDbSpline
210
0.0
220
0.0
230
1.0
 70
     8
 71
     3
 72
    10
 73
     6
 74
     0
 42
0.000000001
 43
0.00000001
 40
0.0
 40
0.0
 40
0.0
 40
0.0
 40
0.5000000000000003
 40
0.5000000000000003
 40
1.0
 40
1.0
 40
1.0
 40
1.0
 10
159.3768174580852
 20
170.1920934403616
 30
0.0
 10
159.3702469395305
 20
170.0085589403822
 30
0.0
 10
159.3627241354706
 20
169.8322069558873
 30
0.0
 10
159.3463022587804
 20
169.4935088452211
 30
0.0
 10
159.3373958808512
 20
169.3310719184394
 30
0.0
 10
159.3280775837765
 20
169.176107394992
 30
0.0
  0
ELLIPSE
  5
16E
330
1F
100
AcDbEntity
  8
0
  6
HIDDEN
 62
     7
370
    18
100
AcDbEllipse
 10
201.0116786037
 20
184.3867745033
 30
0.0
 11
41.79741646040975
 21
15.15990351421902
 31
0.0
210
0.0
220
0.0
230
1.0
 40
0.0306554398
 41
3.205119665045018
 42
3.261805331360029
  0
LINE
  5
16F
330
1F
100
AcDbEntity
  8
0
  6
HIDDEN
 62
     7
370
    18
100
AcDbLine
 10
159.5716400921
 20
169.1826177162
 30
0.0
 11
159.5716400921
 21
166.1826177162
 31
0.0
  0
ELLIPSE
  5
170
330
1F
100
AcDbEntity
  8
0
  6
HIDDEN
 62
     7
370
    18
100
AcDbEllipse
 10
201.0116786037
 20
150.9784609292
 30
0.0
 11
41.79741646040975
 21
-15.159903514219
 31
0.0
210
0.0
220
0.0
230
1.0
 40
0.0306554398
 41
3.021379975819975
 42
3.093165723332474
  0
LINE
  5
171
330
1F
100
AcDbEntity
  8
0
  6
HIDDEN
 62
     7
370
    18
100
AcDbLine
 10
159.2857603604
 20
168.5501660811
 30
0.0
 11
159.2857603604
 21
166.1826177162
 31
0.0
  0
SPLINE
  5
172
330
1F
100
AcDbEntity
  8
0
  6
HIDDEN
 62
     7
370
    18
100
AcDbSpline
210
0.0
220
0.0
230
1.0
 70
     8
 71
     3
 72
    10
 73
     6
 74
     0
 42
0.000000001
 43
0.00000001
 40
0.0
 40
0.0
 40
0.0
 40
0.0
 40
0.5
 40
0.5
 40
1.0
 40
1.0
 40
1.0
 40
1.0
 10
159.2857603604291
 20
168.5501660811024
 30
0.0
 10
159.2767827275174
 20
168.4305792460851
 30
0.0
 10
159.2680123622733
 20
168.3206128147406
 30
0.0
 10
159.2518859600145
 20
168.1259778236318
 30
0.0
 10
159.2445749452489
 20
168.0417355720409
 30
0.0
 10
159.2382189348821
 20
167.9702151646968
 30
0.0
  0
LINE
  5
173
330
1F
100
AcDbEntity
  8
0
  6
HIDDEN
 62
     7
370
    18
100
AcDbLine
 10
159.2382189349
 20
167.9702151647
 30
0.0
 11
159.2382189349
 21
166.1826177162
 31
0.0
  0
LINE
  5
174
330
1F
100
AcDbEntity
  8
0
  6
HIDDEN
 62
     7
370
    18
100
AcDbLine
 10
159.2389860957
 20
167.9788575499
 30
0.0
 11
159.2389860957
 21
166.1826177162
 31
0.0
  0
LINE
  5
175
330
1F
100
AcDbEntity
  8
0
  6
HIDDEN
 62
     7
370
    18
100
AcDbLine
 10
163.2436278135
 20
169.1826177162
 30
0.0
 11
163.2436278135
 21
166.1826177162
 31
0.0
  0
LINE
  5
176
330
1F
100
AcDbEntity
  8
0
  6
HIDDEN
 62
     7
370
    18
100
AcDbLine
 10
164.625570447
 20
169.1826177162
 30
0.0
 11
164.625570447
 21
166.1826177162
 31
0.0
  0
LINE
  5
177
330
1F
100
AcDbEntity
  8
0
  6
HIDDEN
 62
     7
370
    18
100
AcDbLine
 10
163.2436278135
 20
177.1826177162
 30
0.0
 11
163.2436278135
 21
174.1826177162
 31
0.0
  0
LINE
  5
178
330
1F
100
AcDbEntity
  8
0
  6
HIDDEN
 62
     7
370
    18
100
AcDbLine
 10
164.625570447
 20
177.1826177162
 30
0.0
 11
164.625570447
 21
174.1826177162
 31
0.0
  0
LINE
  5
179
330
1F
100
AcDbEntity
  8
0
  6
HIDDEN
 62
     7
370
    18
100
AcDbLine
 10
163.2436278135
 20
185.1826177162
 30
0.0
 11
163.2436278135
 21
182.1826177162
 31
0.0
  0
LINE
  5
17A
330
1F
100
AcDbEntity
  8
0
  6
HIDDEN
 62
     7
370
    18
100
AcDbLine
 10
164.625570447
 20
185.1826177162
 30
0.0
 11
164.625570447
 21
182.1826177162
 31
0.0
  0
LINE
  5
17B
330
1F
100
AcDbEntity
  8
0
  6
HIDDEN
 62
     7
370
    18
100
AcDbLine
 10
161.7050381816
 20
169.1826177162
 30
0.0
 11
161.7050381816
 21
166.1826177162
 31
0.0
  0
LINE
  5
17C
330
1F
100
AcDbEntity
  8
0
  6
HIDDEN
 62
     7
370
    18
100
AcDbLine
 10
162.8262383675
 20
169.1826177162
 30
0.0
 11
162.8262383675
 21
166.1826177162
 31
0.0
  0
LINE
  5
17D
330
1F
100
AcDbEntity
  8
0
  6
HIDDEN
 62
     7
370
    18
100
AcDbLine
 10
161.7050381816
 20
177.1826177162
 30
0.0
 11
161.7050381816
 21
174.1826177162
 31
0.0
  0
LINE
  5
17E
330
1F
100
AcDbEntity
  8
0
  6
HIDDEN
 62
     7
370
    18
100
AcDbLine
 10
162.8262383675
 20
177.1826177162
 30
0.0
 11
162.8262383675
 21
174.1826177162
 31
0.0
  0
LINE
  5
17F
330
1F
100
AcDbEntity
  8
0
  6
HIDDEN
 62
     7
370
    18
100
AcDbLine
 10
161.7050381816
 20
185.1826177162
 30
0.0
 11
161.7050381816
 21
182.1826177162
 31
0.0
  0
LINE
  5
180
330
1F
100
AcDbEntity
  8
0
  6
HIDDEN
 62
     7
370
    18
100
AcDbLine
 10
162.8262383675
 20
185.1826177162
 30
0.0
 11
162.8262383675
 21
182.1826177162
 31
0.0
  0
LINE
  5
181
330
1F
100
AcDbEntity
  8
0
  6
HIDDEN
 62
     7
370
    18
100
AcDbLine
 10
160.5261166375
 20
169.1826177162
 30
0.0
 11
160.5261166375
 21
166.1826177162
 31
0.0
  0
LINE
  5
182
330
1F
100
AcDbEntity
  8
0
  6
HIDDEN
 62
     7
370
    18
100
AcDbLine
 10
161.3763150423
 20
169.1826177162
 30
0.0
 11
161.3763150423
 21
166.1826177162
 31
0.0
  0
LINE
  5
183
330
1F
100
AcDbEntity
  8
0
  6
HIDDEN
 62
     7
370
    18
100
AcDbLine
 10
160.5261166375
 20
177.1826177162
 30
0.0
 11
160.5261166375
 21
174.1826177162
 31
0.0
  0
LINE
  5
184
330
1F
100
AcDbEntity
  8
0
  6
HIDDEN
 62
     7
370
    18
100
AcDbLine
 10
161.3763150423
 20
177.1826177162
 30
0.0
 11
161.3763150423
 21
174.1826177162
 31
0.0
  0
LINE
  5
185
330
1F
100
AcDbEntity
  8
0
  6
HIDDEN
 62
     7
370
    18
100
AcDbLine
 10
160.5261166375
 20
185.1826177162
 30
0.0
 11
160.5261166375
 21
182.1826177162
 31
0.0
  0
LINE
  5
186
330
1F
100
AcDbEntity
  8
0
  6
HIDDEN
 62
     7
370
    18
100
AcDbLine
 10
161.3763150423
 20
185.1826177162
 30
0.0
 11
161.3763150423
 21
182.1826177162
 31
0.0
  0
LINE
  5
187
330
1F
100
AcDbEntity
  8
0
  6
HIDDEN
 62
     7
370
    18
100
AcDbLine
 10
159.717650683
 20
169.1826177162
 30
0.0
 11
159.717650683
 21
166.1826177162
 31
0.0
  0
LINE
  5
188
330
1F
100
AcDbEntity
  8
0
  6
HIDDEN
 62
     7
370
    18
100
AcDbLine
 10
160.2890677248
 20
169.1826177162
 30
0.0
 11
160.2890677248
 21
166.1826177162
 31
0.0
  0
LINE
  5
189
330
1F
100
AcDbEntity
  8
0
  6
HIDDEN
 62
     7
370
    18
100
AcDbLine
 10
159.717650683
 20
177.1826177162
 30
0.0
 11
159.717650683
 21
174.1826177162
 31
0.0
  0
LINE
  5
18A
330
1F
100
AcDbEntity
  8
0
  6
HIDDEN
 62
     7
370
    18
100
AcDbLine
 10
160.2890677248
 20
177.1826177162
 30
0.0
 11
160.2890677248
 21
174.1826177162
 31
0.0
  0
LINE
  5
18B
330
1F
100
AcDbEntity
  8
0
  6
HIDDEN
 62
     7
370
    18
100
AcDbLine
 10
159.717650683
 20
185.1826177162
 30
0.0
 11
159.717650683
 21
182.1826177162
 31
0.0
  0
LINE
  5
18C
330
1F
100
AcDbEntity
  8
0
  6
HIDDEN
 62
     7
370
    18
100
AcDbLine
 10
160.2890677248
 20
185.1826177162
 30
0.0
 11
160.2890677248
 21
182.1826177162
 31
0.0
  0
LINE
  5
18D
330
1F
100
AcDbEntity
  8
0
  6
HIDDEN
 62
     7
370
    18
100
AcDbLine
 10
159.2870380352
 20
185.1826177162
 30
0.0
 11
159.2870380352
 21
182.1826177162
 31
0.0
  0
LINE
  5
18E
330
1F
100
AcDbEntity
  8
0
  6
HIDDEN
 62
     7
370
    18
100
AcDbLine
 10
159.5744450688
 20
185.1826177162
 30
0.0
 11
159.5744450688
 21
182.1826177162
 31
0.0
  0
LINE
  5
18F
330
1F
100
AcDbEntity
  8
0
  6
HIDDEN
 62
     7
370
    18
100
AcDbLine
 10
159.2382189349
 20
185.1826177162
 30
0.0
 11
159.2382189349
 21
182.1826177162
 31
0.0
  0
LINE
  5
190
330
1F
100
AcDbEntity
  8
0
  6
HIDDEN
 62
     7
370
    18
100
AcDbLine
 10
159.2389860957
 20
185.1826177162
 30
0.0
 11
159.2389860957
 21
182.1826177162
 31
0.0
  0
LINE
  5
191
330
1F
100
AcDbEntity
  8
0
  6
HIDDEN
 62
     7
370
    18
100
AcDbLine
 10
159.5716400921
 20
185.1826177162
 30
0.0
 11
159.5716400921
 21
182.1826177162
 31
0.0
  0
ELLIPSE
  5
192
330
1F
100
AcDbEntity
  8
0
  6
HIDDEN
 62
     7
370
    18
100
AcDbEllipse
 10
201.0116786037
 20
166.9784609292
 30
0.0
 11
41.79741646040975
 21
-15.159903514219
 31
0.0
210
0.0
220
0.0
230
1.0
 40
0.0306554398
 41
3.021379975819975
 42
3.093165723332488
  0
LINE
  5
193
330
1F
100
AcDbEntity
  8
0
  6
HIDDEN
 62
     7
370
    18
100
AcDbLine
 10
159.2857603604
 20
185.1826177162
 30
0.0
 11
159.2857603604
 21
182.1826177162
 31
0.0
  0
ELLIPSE
  5
194
330
1F
100
AcDbEntity
  8
0
  6
HIDDEN
 62
     7
370
    18
100
AcDbEllipse
 10
201.0116786037
 20
200.3867745033
 30
0.0
 11
41.79741646040975
 21
15.159903514219
 31
0.0
210
0.0
220
0.0
230
1.0
 40
0.0306554398
 41
3.190019583847567
 42
3.26180533136006
  0
LINE
  5
195
330
1F
100
AcDbEntity
  8
0
  6
HIDDEN
 62
     7
370
    18
100
AcDbLine
 10
160.2842505987
 20
169.1826177162
 30
0.0
 11
160.2842505987
 21
166.1826177162
 31
0.0
  0
ELLIPSE
  5
196
330
1F
100
AcDbEntity
  8
0
  6
HIDDEN
 62
     7
370
    18
100
AcDbEllipse
 10
201.0116786037
 20
150.9784609292
 30
0.0
 11
41.78989472133088
 21
-14.99684439234193
 31
0.0
210
0.0
220
0.0
230
1.0
 40
0.0612845711
 41
2.936557156732007
 42
3.008342904244516
  0
LINE
  5
197
330
1F
100
AcDbEntity
  8
0
  6
HIDDEN
 62
     7
370
    18
100
AcDbLine
 10
159.7143398637
 20
169.1826177162
 30
0.0
 11
159.7143398637
 21
166.1826177162
 31
0.0
  0
ELLIPSE
  5
198
330
1F
100
AcDbEntity
  8
0
  6
HIDDEN
 62
     7
370
    18
100
AcDbEllipse
 10
201.0116786037
 20
184.3867745033
 30
0.0
 11
41.78989472133088
 21
14.9968443923419
 31
0.0
210
0.0
220
0.0
230
1.0
 40
0.0612845711
 41
3.274842402935301
 42
3.346628150447805
  0
LINE
  5
199
330
1F
100
AcDbEntity
  8
0
  6
HIDDEN
 62
     7
370
    18
100
AcDbLine
 10
160.2842505987
 20
177.1826177162
 30
0.0
 11
160.2842505987
 21
174.1826177162
 31
0.0
  0
ELLIPSE
  5
19A
330
1F
100
AcDbEntity
  8
0
  6
HIDDEN
 62
     7
370
    18
100
AcDbEllipse
 10
201.0116786037
 20
158.9784609292
 30
0.0
 11
41.78989472133088
 21
-14.9968443923419
 31
0.0
210
0.0
220
0.0
230
1.0
 40
0.0612845711
 41
2.936557156731999
 42
3.008342904244509
  0
LINE
  5
19B
330
1F
100
AcDbEntity
  8
0
  6
HIDDEN
 62
     7
370
    18
100
AcDbLine
 10
159.7143398637
 20
177.1826177162
 30
0.0
 11
159.7143398637
 21
174.1826177162
 31
0.0
  0
ELLIPSE
  5
19C
330
1F
100
AcDbEntity
  8
0
  6
HIDDEN
 62
     7
370
    18
100
AcDbEllipse
 10
201.0116786037
 20
192.3867745033
 30
0.0
 11
41.78989472133088
 21
14.9968443923419
 31
0.0
210
0.0
220
0.0
230
1.0
 40
0.0612845711
 41
3.274842402935301
 42
3.346628150447805
  0
LINE
  5
19D
330
1F
100
AcDbEntity
  8
0
  6
HIDDEN
 62
     7
370
    18
100
AcDbLine
 10
160.2842505987
 20
185.1826177162
 30
0.0
 11
160.2842505987
 21
182.1826177162
 31
0.0
  0
ELLIPSE
  5
19E
330
1F
100
AcDbEntity
  8
0
  6
HIDDEN
 62
     7
370
    18
100
AcDbEllipse
 10
201.0116786037
 20
166.9784609292
 30
0.0
 11
41.78989472133088
 21
-14.9968443923419
 31
0.0
210
0.0
220
0.0
230
1.0
 40
0.0612845711
 41
2.936557156731998
 42
3.008342904244508
  0
LINE
  5
19F
330
1F
100
AcDbEntity
  8
0
  6
HIDDEN
 62
     7
370
    18
100
AcDbLine
 10
159.7143398637
 20
185.1826177162
 30
0.0
 11
159.7143398637
 21
182.1826177162
 31
0.0
  0
ELLIPSE
  5
1A0
330
1F
100
AcDbEntity
  8
0
  6
HIDDEN
 62
     7
370
    18
100
AcDbEllipse
 10
201.0116786037
 20
200.3867745033
 30
0.0
 11
41.78989472133088
 21
14.99684439234193
 31
0.0
210
0.0
220
0.0
230
1.0
 40
0.0612845711
 41
3.274842402935295
 42
3.3466281504478
  0
LINE
  5
1A1
330
1F
100
AcDbEntity
  8
0
  6
HIDDEN
 62
     7
370
    18
100
AcDbLine
 10
161.369529845
 20
169.1826177162
 30
0.0
 11
161.369529845
 21
166.1826177162
 31
0.0
  0
ELLIPSE
  5
1A2
330
1F
100
AcDbEntity
  8
0
  6
HIDDEN
 62
     7
370
    18
100
AcDbEllipse
 10
201.0116786037
 20
150.9784609292
 30
0.0
 11
41.77819340407279
 21
-14.72381603859338
 31
0.0
210
0.0
220
0.0
230
1.0
 40
0.091689593
 41
2.85117692387054
 42
2.922962671383052
  0
LINE
  5
1A3
330
1F
100
AcDbEntity
  8
0
  6
HIDDEN
 62
     7
370
    18
100
AcDbLine
 10
160.5208029688
 20
169.1826177162
 30
0.0
 11
160.5208029688
 21
166.1826177162
 31
0.0
  0
ELLIPSE
  5
1A4
330
1F
100
AcDbEntity
  8
0
  6
HIDDEN
 62
     7
370
    18
100
AcDbEllipse
 10
201.0116786037
 20
184.3867745033
 30
0.0
 11
41.77819340407279
 21
14.72381603859336
 31
0.0
210
0.0
220
0.0
230
1.0
 40
0.091689593
 41
3.360222635796685
 42
3.432008383309193
  0
LINE
  5
1A5
330
1F
100
AcDbEntity
  8
0
  6
HIDDEN
 62
     7
370
    18
100
AcDbLine
 10
161.369529845
 20
177.1826177162
 30
0.0
 11
161.369529845
 21
174.1826177162
 31
0.0
  0
ELLIPSE
  5
1A6
330
1F
100
AcDbEntity
  8
0
  6
HIDDEN
 62
     7
370
    18
100
AcDbEllipse
 10
201.0116786037
 20
158.9784609292
 30
0.0
 11
41.77819340407279
 21
-14.72381603859338
 31
0.0
210
0.0
220
0.0
230
1.0
 40
0.091689593
 41
2.851176923870538
 42
2.922962671383051
  0
LINE
  5
1A7
330
1F
100
AcDbEntity
  8
0
  6
HIDDEN
 62
     7
370
    18
100
AcDbLine
 10
160.5208029688
 20
177.1826177162
 30
0.0
 11
160.5208029688
 21
174.1826177162
 31
0.0
  0
ELLIPSE
  5
1A8
330
1F
100
AcDbEntity
  8
0
  6
HIDDEN
 62
     7
370
    18
100
AcDbEllipse
 10
201.0116786037
 20
192.3867745033
 30
0.0
 11
41.77819340407279
 21
14.72381603859338
 31
0.0
210
0.0
220
0.0
230
1.0
 40
0.091689593
 41
3.360222635796681
 42
3.432008383309188
  0
LINE
  5
1A9
330
1F
100
AcDbEntity
  8
0
  6
HIDDEN
 62
     7
370
    18
100
AcDbLine
 10
161.369529845
 20
185.1826177162
 30
0.0
 11
161.369529845
 21
182.1826177162
 31
0.0
  0
ELLIPSE
  5
1AA
330
1F
100
AcDbEntity
  8
0
  6
HIDDEN
 62
     7
370
    18
100
AcDbEllipse
 10
201.0116786037
 20
166.9784609292
 30
0.0
 11
41.77819340407279
 21
-14.72381603859336
 31
0.0
210
0.0
220
0.0
230
1.0
 40
0.091689593
 41
2.851176923870532
 42
2.922962671383045
  0
LINE
  5
1AB
330
1F
100
AcDbEntity
  8
0
  6
HIDDEN
 62
     7
370
    18
100
AcDbLine
 10
160.5208029688
 20
185.1826177162
 30
0.0
 11
160.5208029688
 21
182.1826177162
 31
0.0
  0
ELLIPSE
  5
1AC
330
1F
100
AcDbEntity
  8
0
  6
HIDDEN
 62
     7
370
    18
100
AcDbEllipse
 10
201.0116786037
 20
200.3867745033
 30
0.0
 11
41.77819340407279
 21
14.72381603859338
 31
0.0
210
0.0
220
0.0
230
1.0
 40
0.091689593
 41
3.360222635796681
 42
3.432008383309188
  0
LINE
  5
1AD
330
1F
100
AcDbEntity
  8
0
  6
HIDDEN
 62
     7
370
    18
100
AcDbLine
 10
162.8175471856
 20
169.1826177162
 30
0.0
 11
162.8175471856
 21
166.1826177162
 31
0.0
  0
ELLIPSE
  5
1AE
330
1F
100
AcDbEntity
  8
0
  6
HIDDEN
 62
     7
370
    18
100
AcDbEllipse
 10
201.0116786037
 20
150.9784609292
 30
0.0
 11
41.76353215385964
 21
-14.33924555304549
 31
0.0
210
0.0
220
0.0
230
1.0
 40
0.1217410798
 41
2.764955095277648
 42
2.836740842790161
  0
LINE
  5
1AF
330
1F
100
AcDbEntity
  8
0
  6
HIDDEN
 62
     7
370
    18
100
AcDbLine
 10
161.6977702852
 20
169.1826177162
 30
0.0
 11
161.6977702852
 21
166.1826177162
 31
0.0
  0
ELLIPSE
  5
1B0
330
1F
100
AcDbEntity
  8
0
  6
HIDDEN
 62
     7
370
    18
100
AcDbEllipse
 10
201.0116786037
 20
184.3867745033
 30
0.0
 11
41.76353215385964
 21
14.33924555304549
 31
0.0
210
0.0
220
0.0
230
1.0
 40
0.1217410798
 41
3.44644446438953
 42
3.518230211902037
  0
LINE
  5
1B1
330
1F
100
AcDbEntity
  8
0
  6
HIDDEN
 62
     7
370
    18
100
AcDbLine
 10
162.8175471856
 20
177.1826177162
 30
0.0
 11
162.8175471856
 21
174.1826177162
 31
0.0
  0
ELLIPSE
  5
1B2
330
1F
100
AcDbEntity
  8
0
  6
HIDDEN
 62
     7
370
    18
100
AcDbEllipse
 10
201.0116786037
 20
158.9784609292
 30
0.0
 11
41.76353215385964
 21
-14.33924555304546
 31
0.0
210
0.0
220
0.0
230
1.0
 40
0.1217410798
 41
2.764955095277637
 42
2.83674084279015
  0
LINE
  5
1B3
330
1F
100
AcDbEntity
  8
0
  6
HIDDEN
 62
     7
370
    18
100
AcDbLine
 10
161.6977702852
 20
177.1826177162
 30
0.0
 11
161.6977702852
 21
174.1826177162
 31
0.0
  0
ELLIPSE
  5
1B4
330
1F
100
AcDbEntity
  8
0
  6
HIDDEN
 62
     7
370
    18
100
AcDbEllipse
 10
201.0116786037
 20
192.3867745033
 30
0.0
 11
41.76353215385964
 21
14.33924555304549
 31
0.0
210
0.0
220
0.0
230
1.0
 40
0.1217410798
 41
3.446444464389531
 42
3.518230211902039
  0
LINE
  5
1B5
330
1F
100
AcDbEntity
  8
0
  6
HIDDEN
 62
     7
370
    18
100
AcDbLine
 10
162.8175471856
 20
185.1826177162
 30
0.0
 11
162.8175471856
 21
182.1826177162
 31
0.0
  0
ELLIPSE
  5
1B6
330
1F
100
AcDbEntity
  8
0
  6
HIDDEN
 62
     7
370
    18
100
AcDbEllipse
 10
201.0116786037
 20
166.9784609292
 30
0.0
 11
41.76353215385964
 21
-14.33924555304546
 31
0.0
210
0.0
220
0.0
230
1.0
 40
0.1217410798
 41
2.764955095277644
 42
2.836740842790157
  0
LINE
  5
1B7
330
1F
100
AcDbEntity
  8
0
  6
HIDDEN
 62
     7
370
    18
100
AcDbLine
 10
161.6977702852
 20
185.1826177162
 30
0.0
 11
161.6977702852
 21
182.1826177162
 31
0.0
  0
ELLIPSE
  5
1B8
330
1F
100
AcDbEntity
  8
0
  6
HIDDEN
 62
     7
370
    18
100
AcDbEllipse
 10
201.0116786037
 20
200.3867745033
 30
0.0
 11
41.76353215385964
 21
14.33924555304549
 31
0.0
210
0.0
220
0.0
230
1.0
 40
0.1217410798
 41
3.44644446438953
 42
3.518230211902037
  0
LINE
  5
1B9
330
1F
100
AcDbEntity
  8
0
  6
HIDDEN
 62
     7
370
    18
100
AcDbLine
 10
161.369529845
 20
161.1826177162
 30
0.0
 11
161.369529845
 21
158.1826177162
 31
0.0
  0
ELLIPSE
  5
1BA
330
1F
100
AcDbEntity
  8
0
  6
HIDDEN
 62
     7
370
    18
100
AcDbEllipse
 10
201.0116786037
 20
142.9784609292
 30
0.0
 11
41.77819340407279
 21
-14.72381603859338
 31
0.0
210
0.0
220
0.0
230
1.0
 40
0.091689593
 41
2.851176923870549
 42
2.922962671383057
  0
LINE
  5
1BB
330
1F
100
AcDbEntity
  8
0
  6
HIDDEN
 62
     7
370
    18
100
AcDbLine
 10
160.5208029688
 20
161.1826177162
 30
0.0
 11
160.5208029688
 21
158.1826177162
 31
0.0
  0
ELLIPSE
  5
1BC
330
1F
100
AcDbEntity
  8
0
  6
HIDDEN
 62
     7
370
    18
100
AcDbEllipse
 10
201.0116786037
 20
176.3867745033
 30
0.0
 11
41.77819340407279
 21
14.72381603859338
 31
0.0
210
0.0
220
0.0
230
1.0
 40
0.091689593
 41
3.360222635796684
 42
3.432008383309191
  0
LINE
  5
1BD
330
1F
100
AcDbEntity
  8
0
  6
HIDDEN
 62
     7
370
    18
100
AcDbLine
 10
159.5716400921
 20
161.1826177162
 30
0.0
 11
159.5716400921
 21
158.1826177162
 31
0.0
  0
ELLIPSE
  5
1BE
330
1F
100
AcDbEntity
  8
0
  6
HIDDEN
 62
     7
370
    18
100
AcDbEllipse
 10
201.0116786037
 20
142.9784609292
 30
0.0
 11
41.79741646040974
 21
-15.15990351421901
 31
0.0
210
0.0
220
0.0
230
1.0
 40
0.0306554398
 41
3.021379975820004
 42
3.093165723332503
  0
LINE
  5
1BF
330
1F
100
AcDbEntity
  8
0
  6
HIDDEN
 62
     7
370
    18
100
AcDbLine
 10
159.2857603604
 20
161.1826177162
 30
0.0
 11
159.2857603604
 21
158.1826177162
 31
0.0
  0
ELLIPSE
  5
1C0
330
1F
100
AcDbEntity
  8
0
  6
HIDDEN
 62
     7
370
    18
100
AcDbEllipse
 10
201.0116786037
 20
176.3867745033
 30
0.0
 11
41.79741646040975
 21
15.159903514219
 31
0.0
210
0.0
220
0.0
230
1.0
 40
0.0306554398
 41
3.190019583847566
 42
3.261805331360058
  0
LINE
  5
1C1
330
1F
100
AcDbEntity
  8
0
  6
HIDDEN
 62
     7
370
    18
100
AcDbLine
 10
159.2870380352
 20
161.1826177162
 30
0.0
 11
159.2870380352
 21
158.1826177162
 31
0.0
  0
LINE
  5
1C2
330
1F
100
AcDbEntity
  8
0
  6
HIDDEN
 62
     7
370
    18
100
AcDbLine
 10
159.5744450688
 20
161.1826177162
 30
0.0
 11
159.5744450688
 21
158.1826177162
 31
0.0
  0
LINE
  5
1C3
330
1F
100
AcDbEntity
  8
0
  6
HIDDEN
 62
     7
370
    18
100
AcDbLine
 10
160.5261166375
 20
161.1826177162
 30
0.0
 11
160.5261166375
 21
158.1826177162
 31
0.0
  0
LINE
  5
1C4
330
1F
100
AcDbEntity
  8
0
  6
HIDDEN
 62
     7
370
    18
100
AcDbLine
 10
161.3763150423
 20
161.1826177162
 30
0.0
 11
161.3763150423
 21
158.1826177162
 31
0.0
  0
LINE
  5
1C5
330
1F
100
AcDbEntity
  8
0
  6
HIDDEN
 62
     7
370
    18
100
AcDbLine
 10
163.2436278135
 20
161.1826177162
 30
0.0
 11
163.2436278135
 21
158.1826177162
 31
0.0
  0
LINE
  5
1C6
330
1F
100
AcDbEntity
  8
0
  6
HIDDEN
 62
     7
370
    18
100
AcDbLine
 10
164.625570447
 20
161.1826177162
 30
0.0
 11
164.625570447
 21
158.1826177162
 31
0.0
  0
LINE
  5
1C7
330
1F
100
AcDbEntity
  8
0
  6
HIDDEN
 62
     7
370
    18
100
AcDbLine
 10
164.6150528077
 20
169.1826177162
 30
0.0
 11
164.6150528077
 21
166.1826177162
 31
0.0
  0
ELLIPSE
  5
1C8
330
1F
100
AcDbEntity
  8
0
  6
HIDDEN
 62
     7
370
    18
100
AcDbEllipse
 10
201.0116786037
 20
150.9784609292
 30
0.0
 11
41.74751751022498
 21
-13.84101013751549
 31
0.0
210
0.0
220
0.0
230
1.0
 40
0.1512885997
 41
2.67760296086537
 42
2.74938870837788
  0
LINE
  5
1C9
330
1F
100
AcDbEntity
  8
0
  6
HIDDEN
 62
     7
370
    18
100
AcDbLine
 10
163.2344721928
 20
169.1826177162
 30
0.0
 11
163.2344721928
 21
166.1826177162
 31
0.0
  0
ELLIPSE
  5
1CA
330
1F
100
AcDbEntity
  8
0
  6
HIDDEN
 62
     7
370
    18
100
AcDbEllipse
 10
201.0116786037
 20
184.3867745033
 30
0.0
 11
41.74751751022498
 21
13.84101013751549
 31
0.0
210
0.0
220
0.0
230
1.0
 40
0.1512885997
 41
3.533796598801787
 42
3.605582346314292
  0
LINE
  5
1CB
330
1F
100
AcDbEntity
  8
0
  6
HIDDEN
 62
     7
370
    18
100
AcDbLine
 10
164.6150528077
 20
177.1826177162
 30
0.0
 11
164.6150528077
 21
174.1826177162
 31
0.0
  0
ELLIPSE
  5
1CC
330
1F
100
AcDbEntity
  8
0
  6
HIDDEN
 62
     7
370
    18
100
AcDbEllipse
 10
201.0116786037
 20
158.9784609292
 30
0.0
 11
41.74751751022498
 21
-13.84101013751549
 31
0.0
210
0.0
220
0.0
230
1.0
 40
0.1512885997
 41
2.677602960865368
 42
2.749388708377878
  0
LINE
  5
1CD
330
1F
100
AcDbEntity
  8
0
  6
HIDDEN
 62
     7
370
    18
100
AcDbLine
 10
163.2344721928
 20
177.1826177162
 30
0.0
 11
163.2344721928
 21
174.1826177162
 31
0.0
  0
ELLIPSE
  5
1CE
330
1F
100
AcDbEntity
  8
0
  6
HIDDEN
 62
     7
370
    18
100
AcDbEllipse
 10
201.0116786037
 20
192.3867745033
 30
0.0
 11
41.74751751022498
 21
13.84101013751549
 31
0.0
210
0.0
220
0.0
230
1.0
 40
0.1512885997
 41
3.533796598801787
 42
3.605582346314292
  0
LINE
  5
1CF
330
1F
100
AcDbEntity
  8
0
  6
HIDDEN
 62
     7
370
    18
100
AcDbLine
 10
164.6150528077
 20
185.1826177162
 30
0.0
 11
164.6150528077
 21
182.1826177162
 31
0.0
  0
ELLIPSE
  5
1D0
330
1F
100
AcDbEntity
  8
0
  6
HIDDEN
 62
     7
370
    18
100
AcDbEllipse
 10
201.0116786037
 20
166.9784609292
 30
0.0
 11
41.74751751022497
 21
-13.84101013751547
 31
0.0
210
0.0
220
0.0
230
1.0
 40
0.1512885997
 41
2.677602960865364
 42
2.749388708377875
  0
LINE
  5
1D1
330
1F
100
AcDbEntity
  8
0
  6
HIDDEN
 62
     7
370
    18
100
AcDbLine
 10
163.2344721928
 20
185.1826177162
 30
0.0
 11
163.2344721928
 21
182.1826177162
 31
0.0
  0
ELLIPSE
  5
1D2
330
1F
100
AcDbEntity
  8
0
  6
HIDDEN
 62
     7
370
    18
100
AcDbEllipse
 10
201.0116786037
 20
200.3867745033
 30
0.0
 11
41.74751751022498
 21
13.84101013751549
 31
0.0
210
0.0
220
0.0
230
1.0
 40
0.1512885997
 41
3.533796598801786
 42
3.605582346314291
  0
LINE
  5
1D3
330
1F
100
AcDbEntity
  8
0
  6
HIDDEN
 62
     7
370
    18
100
AcDbLine
 10
164.6150528077
 20
161.1826177162
 30
0.0
 11
164.6150528077
 21
158.1826177162
 31
0.0
  0
ELLIPSE
  5
1D4
330
1F
100
AcDbEntity
  8
0
  6
HIDDEN
 62
     7
370
    18
100
AcDbEllipse
 10
201.0116786037
 20
142.9784609292
 30
0.0
 11
41.74751751022498
 21
-13.84101013751549
 31
0.0
210
0.0
220
0.0
230
1.0
 40
0.1512885997
 41
2.677602960865374
 42
2.749388708377885
  0
LINE
  5
1D5
330
1F
100
AcDbEntity
  8
0
  6
HIDDEN
 62
     7
370
    18
100
AcDbLine
 10
163.2344721928
 20
161.1826177162
 30
0.0
 11
163.2344721928
 21
158.1826177162
 31
0.0
  0
ELLIPSE
  5
1D6
330
1F
100
AcDbEntity
  8
0
  6
HIDDEN
 62
     7
370
    18
100
AcDbEllipse
 10
201.0116786037
 20
176.3867745033
 30
0.0
 11
41.74751751022498
 21
13.84101013751549
 31
0.0
210
0.0
220
0.0
230
1.0
 40
0.1512885997
 41
3.53379659880179
 42
3.605582346314295
  0
LINE
  5
1D7
330
1F
100
AcDbEntity
  8
0
  6
HIDDEN
 62
     7
370
    18
100
AcDbLine
 10
164.6150528077
 20
181.1826177162
 30
0.0
 11
164.6150528077
 21
178.1826177162
 31
0.0
  0
ELLIPSE
  5
1D8
330
1F
100
AcDbEntity
  8
0
  6
HIDDEN
 62
     7
370
    18
100
AcDbEllipse
 10
201.0116786037
 20
162.9784609292
 30
0.0
 11
41.74751751022497
 21
-13.84101013751547
 31
0.0
210
0.0
220
0.0
230
1.0
 40
0.1512885997
 41
2.677602960865362
 42
2.749388708377872
  0
LINE
  5
1D9
330
1F
100
AcDbEntity
  8
0
  6
HIDDEN
 62
     7
370
    18
100
AcDbLine
 10
163.2344721928
 20
181.1826177162
 30
0.0
 11
163.2344721928
 21
178.1826177162
 31
0.0
  0
ELLIPSE
  5
1DA
330
1F
100
AcDbEntity
  8
0
  6
HIDDEN
 62
     7
370
    18
100
AcDbEllipse
 10
201.0116786037
 20
196.3867745033
 30
0.0
 11
41.74751751022497
 21
13.84101013751547
 31
0.0
210
0.0
220
0.0
230
1.0
 40
0.1512885997
 41
3.533796598801789
 42
3.605582346314295
  0
LINE
  5
1DB
330
1F
100
AcDbEntity
  8
0
  6
HIDDEN
 62
     7
370
    18
100
AcDbLine
 10
164.6150528077
 20
173.1826177162
 30
0.0
 11
164.6150528077
 21
170.1826177162
 31
0.0
  0
ELLIPSE
  5
1DC
330
1F
100
AcDbEntity
  8
0
  6
HIDDEN
 62
     7
370
    18
100
AcDbEllipse
 10
201.0116786037
 20
154.9784609292
 30
0.0
 11
41.74751751022498
 21
-13.84101013751549
 31
0.0
210
0.0
220
0.0
230
1.0
 40
0.1512885997
 41
2.677602960865366
 42
2.749388708377876
  0
LINE
  5
1DD
330
1F
100
AcDbEntity
  8
0
  6
HIDDEN
 62
     7
370
    18
100
AcDbLine
 10
163.2344721928
 20
173.1826177162
 30
0.0
 11
163.2344721928
 21
170.1826177162
 31
0.0
  0
ELLIPSE
  5
1DE
330
1F
100
AcDbEntity
  8
0
  6
HIDDEN
 62
     7
370
    18
100
AcDbEllipse
 10
201.0116786037
 20
188.3867745033
 30
0.0
 11
41.74751751022498
 21
13.84101013751549
 31
0.0
210
0.0
220
0.0
230
1.0
 40
0.1512885997
 41
3.533796598801787
 42
3.605582346314292
  0
LINE
  5
1DF
330
1F
100
AcDbEntity
  8
0
  6
HIDDEN
 62
     7
370
    18
100
AcDbLine
 10
164.6150528077
 20
165.1826177162
 30
0.0
 11
164.6150528077
 21
162.1826177162
 31
0.0
  0
ELLIPSE
  5
1E0
330
1F
100
AcDbEntity
  8
0
  6
HIDDEN
 62
     7
370
    18
100
AcDbEllipse
 10
201.0116786037
 20
146.9784609292
 30
0.0
 11
41.74751751022498
 21
-13.84101013751552
 31
0.0
210
0.0
220
0.0
230
1.0
 40
0.1512885997
 41
2.677602960865374
 42
2.749388708377885
  0
LINE
  5
1E1
330
1F
100
AcDbEntity
  8
0
  6
HIDDEN
 62
     7
370
    18
100
AcDbLine
 10
163.2344721928
 20
165.1826177162
 30
0.0
 11
163.2344721928
 21
162.1826177162
 31
0.0
  0
ELLIPSE
  5
1E2
330
1F
100
AcDbEntity
  8
0
  6
HIDDEN
 62
     7
370
    18
100
AcDbEllipse
 10
201.0116786037
 20
180.3867745033
 30
0.0
 11
41.74751751022498
 21
13.84101013751549
 31
0.0
210
0.0
220
0.0
230
1.0
 40
0.1512885997
 41
3.533796598801787
 42
3.605582346314292
  0
LINE
  5
1E3
330
1F
100
AcDbEntity
  8
0
  6
HIDDEN
 62
     7
370
    18
100
AcDbLine
 10
161.7050381816
 20
161.1826177162
 30
0.0
 11
161.7050381816
 21
158.1826177162
 31
0.0
  0
LINE
  5
1E4
330
1F
100
AcDbEntity
  8
0
  6
HIDDEN
 62
     7
370
    18
100
AcDbLine
 10
162.8262383675
 20
161.1826177162
 30
0.0
 11
162.8262383675
 21
158.1826177162
 31
0.0
  0
LINE
  5
1E5
330
1F
100
AcDbEntity
  8
0
  6
HIDDEN
 62
     7
370
    18
100
AcDbLine
 10
159.717650683
 20
161.1826177162
 30
0.0
 11
159.717650683
 21
158.1826177162
 31
0.0
  0
LINE
  5
1E6
330
1F
100
AcDbEntity
  8
0
  6
HIDDEN
 62
     7
370
    18
100
AcDbLine
 10
160.2890677248
 20
161.1826177162
 30
0.0
 11
160.2890677248
 21
158.1826177162
 31
0.0
  0
LINE
  5
1E7
330
1F
100
AcDbEntity
  8
0
  6
HIDDEN
 62
     7
370
    18
100
AcDbLine
 10
159.2382189349
 20
161.1826177162
 30
0.0
 11
159.2382189349
 21
158.1826177162
 31
0.0
  0
LINE
  5
1E8
330
1F
100
AcDbEntity
  8
0
  6
HIDDEN
 62
     7
370
    18
100
AcDbLine
 10
159.2389860957
 20
161.1826177162
 30
0.0
 11
159.2389860957
 21
158.1826177162
 31
0.0
  0
LINE
  5
1E9
330
1F
100
AcDbEntity
  8
0
  6
HIDDEN
 62
     7
370
    18
100
AcDbLine
 10
160.2842505987
 20
161.1826177162
 30
0.0
 11
160.2842505987
 21
158.1826177162
 31
0.0
  0
ELLIPSE
  5
1EA
330
1F
100
AcDbEntity
  8
0
  6
HIDDEN
 62
     7
370
    18
100
AcDbEllipse
 10
201.0116786037
 20
142.9784609292
 30
0.0
 11
41.78989472133088
 21
-14.99684439234193
 31
0.0
210
0.0
220
0.0
230
1.0
 40
0.0612845711
 41
2.93655715673202
 42
3.008342904244531
  0
LINE
  5
1EB
330
1F
100
AcDbEntity
  8
0
  6
HIDDEN
 62
     7
370
    18
100
AcDbLine
 10
159.7143398637
 20
161.1826177162
 30
0.0
 11
159.7143398637
 21
158.1826177162
 31
0.0
  0
ELLIPSE
  5
1EC
330
1F
100
AcDbEntity
  8
0
  6
HIDDEN
 62
     7
370
    18
100
AcDbEllipse
 10
201.0116786037
 20
176.3867745033
 30
0.0
 11
41.78989472133088
 21
14.99684439234193
 31
0.0
210
0.0
220
0.0
230
1.0
 40
0.0612845711
 41
3.274842402935294
 42
3.346628150447805
  0
LINE
  5
1ED
330
1F
100
AcDbEntity
  8
0
  6
HIDDEN
 62
     7
370
    18
100
AcDbLine
 10
162.8175471856
 20
161.1826177162
 30
0.0
 11
162.8175471856
 21
158.1826177162
 31
0.0
  0
ELLIPSE
  5
1EE
330
1F
100
AcDbEntity
  8
0
  6
HIDDEN
 62
     7
370
    18
100
AcDbEllipse
 10
201.0116786037
 20
142.9784609292
 30
0.0
 11
41.76353215385964
 21
-14.33924555304551
 31
0.0
210
0.0
220
0.0
230
1.0
 40
0.1217410798
 41
2.764955095277658
 42
2.836740842790171
  0
LINE
  5
1EF
330
1F
100
AcDbEntity
  8
0
  6
HIDDEN
 62
     7
370
    18
100
AcDbLine
 10
161.6977702852
 20
161.1826177162
 30
0.0
 11
161.6977702852
 21
158.1826177162
 31
0.0
  0
ELLIPSE
  5
1F0
330
1F
100
AcDbEntity
  8
0
  6
HIDDEN
 62
     7
370
    18
100
AcDbEllipse
 10
201.0116786037
 20
176.3867745033
 30
0.0
 11
41.76353215385964
 21
14.33924555304551
 31
0.0
210
0.0
220
0.0
230
1.0
 40
0.1217410798
 41
3.44644446438953
 42
3.518230211902031
  0
LINE
  5
1F1
330
1F
100
AcDbEntity
  8
0
  6
HIDDEN
 62
     7
370
    18
100
AcDbLine
 10
162.8175471856
 20
181.1826177162
 30
0.0
 11
162.8175471856
 21
178.1826177162
 31
0.0
  0
ELLIPSE
  5
1F2
330
1F
100
AcDbEntity
  8
0
  6
HIDDEN
 62
     7
370
    18
100
AcDbEllipse
 10
201.0116786037
 20
162.9784609292
 30
0.0
 11
41.76353215385964
 21
-14.33924555304546
 31
0.0
210
0.0
220
0.0
230
1.0
 40
0.1217410798
 41
2.764955095277637
 42
2.83674084279015
  0
LINE
  5
1F3
330
1F
100
AcDbEntity
  8
0
  6
HIDDEN
 62
     7
370
    18
100
AcDbLine
 10
161.6977702852
 20
181.1826177162
 30
0.0
 11
161.6977702852
 21
178.1826177162
 31
0.0
  0
ELLIPSE
  5
1F4
330
1F
100
AcDbEntity
  8
0
  6
HIDDEN
 62
     7
370
    18
100
AcDbEllipse
 10
201.0116786037
 20
196.3867745033
 30
0.0
 11
41.76353215385964
 21
14.33924555304549
 31
0.0
210
0.0
220
0.0
230
1.0
 40
0.1217410798
 41
3.446444464389531
 42
3.518230211902039
  0
LINE
  5
1F5
330
1F
100
AcDbEntity
  8
0
  6
HIDDEN
 62
     7
370
    18
100
AcDbLine
 10
162.8175471856
 20
173.1826177162
 30
0.0
 11
162.8175471856
 21
170.1826177162
 31
0.0
  0
ELLIPSE
  5
1F6
330
1F
100
AcDbEntity
  8
0
  6
HIDDEN
 62
     7
370
    18
100
AcDbEllipse
 10
201.0116786037
 20
154.9784609292
 30
0.0
 11
41.76353215385964
 21
-14.33924555304546
 31
0.0
210
0.0
220
0.0
230
1.0
 40
0.1217410798
 41
2.764955095277637
 42
2.83674084279015
  0
LINE
  5
1F7
330
1F
100
AcDbEntity
  8
0
  6
HIDDEN
 62
     7
370
    18
100
AcDbLine
 10
161.6977702852
 20
173.1826177162
 30
0.0
 11
161.6977702852
 21
170.1826177162
 31
0.0
  0
ELLIPSE
  5
1F8
330
1F
100
AcDbEntity
  8
0
  6
HIDDEN
 62
     7
370
    18
100
AcDbEllipse
 10
201.0116786037
 20
188.3867745033
 30
0.0
 11
41.76353215385964
 21
14.33924555304546
 31
0.0
210
0.0
220
0.0
230
1.0
 40
0.1217410798
 41
3.446444464389542
 42
3.51823021190205
  0
LINE
  5
1F9
330
1F
100
AcDbEntity
  8
0
  6
HIDDEN
 62
     7
370
    18
100
AcDbLine
 10
162.8175471856
 20
165.1826177162
 30
0.0
 11
162.8175471856
 21
162.1826177162
 31
0.0
  0
ELLIPSE
  5
1FA
330
1F
100
AcDbEntity
  8
0
  6
HIDDEN
 62
     7
370
    18
100
AcDbEllipse
 10
201.0116786037
 20
146.9784609292
 30
0.0
 11
41.76353215385964
 21
-14.33924555304549
 31
0.0
210
0.0
220
0.0
230
1.0
 40
0.1217410798
 41
2.764955095277644
 42
2.836740842790157
  0
LINE
  5
1FB
330
1F
100
AcDbEntity
  8
0
  6
HIDDEN
 62
     7
370
    18
100
AcDbLine
 10
161.6977702852
 20
165.1826177162
 30
0.0
 11
161.6977702852
 21
162.1826177162
 31
0.0
  0
ELLIPSE
  5
1FC
330
1F
100
AcDbEntity
  8
0
  6
HIDDEN
 62
     7
370
    18
100
AcDbEllipse
 10
201.0116786037
 20
180.3867745033
 30
0.0
 11
41.76353215385964
 21
14.33924555304549
 31
0.0
210
0.0
220
0.0
230
1.0
 40
0.1217410798
 41
3.44644446438953
 42
3.518230211902037
  0
LINE
  5
1FD
330
1F
100
AcDbEntity
  8
0
  6
HIDDEN
 62
     7
370
    18
100
AcDbLine
 10
161.369529845
 20
181.1826177162
 30
0.0
 11
161.369529845
 21
178.1826177162
 31
0.0
  0
ELLIPSE
  5
1FE
330
1F
100
AcDbEntity
  8
0
  6
HIDDEN
 62
     7
370
    18
100
AcDbEllipse
 10
201.0116786037
 20
162.9784609292
 30
0.0
 11
41.77819340407279
 21
-14.72381603859336
 31
0.0
210
0.0
220
0.0
230
1.0
 40
0.091689593
 41
2.851176923870523
 42
2.922962671383035
  0
LINE
  5
1FF
330
1F
100
AcDbEntity
  8
0
  6
HIDDEN
 62
     7
370
    18
100
AcDbLine
 10
160.5208029688
 20
181.1826177162
 30
0.0
 11
160.5208029688
 21
178.1826177162
 31
0.0
  0
ELLIPSE
  5
200
330
1F
100
AcDbEntity
  8
0
  6
HIDDEN
 62
     7
370
    18
100
AcDbEllipse
 10
201.0116786037
 20
196.3867745033
 30
0.0
 11
41.77819340407279
 21
14.72381603859338
 31
0.0
210
0.0
220
0.0
230
1.0
 40
0.091689593
 41
3.360222635796681
 42
3.432008383309188
  0
LINE
  5
201
330
1F
100
AcDbEntity
  8
0
  6
HIDDEN
 62
     7
370
    18
100
AcDbLine
 10
161.369529845
 20
173.1826177162
 30
0.0
 11
161.369529845
 21
170.1826177162
 31
0.0
  0
ELLIPSE
  5
202
330
1F
100
AcDbEntity
  8
0
  6
HIDDEN
 62
     7
370
    18
100
AcDbEllipse
 10
201.0116786037
 20
154.9784609292
 30
0.0
 11
41.77819340407279
 21
-14.72381603859336
 31
0.0
210
0.0
220
0.0
230
1.0
 40
0.091689593
 41
2.851176923870523
 42
2.922962671383035
  0
LINE
  5
203
330
1F
100
AcDbEntity
  8
0
  6
HIDDEN
 62
     7
370
    18
100
AcDbLine
 10
160.5208029688
 20
173.1826177162
 30
0.0
 11
160.5208029688
 21
170.1826177162
 31
0.0
  0
ELLIPSE
  5
204
330
1F
100
AcDbEntity
  8
0
  6
HIDDEN
 62
     7
370
    18
100
AcDbEllipse
 10
201.0116786037
 20
188.3867745033
 30
0.0
 11
41.77819340407279
 21
14.72381603859336
 31
0.0
210
0.0
220
0.0
230
1.0
 40
0.091689593
 41
3.360222635796685
 42
3.432008383309193
  0
LINE
  5
205
330
1F
100
AcDbEntity
  8
0
  6
HIDDEN
 62
     7
370
    18
100
AcDbLine
 10
161.369529845
 20
165.1826177162
 30
0.0
 11
161.369529845
 21
162.1826177162
 31
0.0
  0
ELLIPSE
  5
206
330
1F
100
AcDbEntity
  8
0
  6
HIDDEN
 62
     7
370
    18
100
AcDbEllipse
 10
201.0116786037
 20
146.9784609292
 30
0.0
 11
41.77819340407279
 21
-14.72381603859338
 31
0.0
210
0.0
220
0.0
230
1.0
 40
0.091689593
 41
2.85117692387054
 42
2.922962671383052
  0
LINE
  5
207
330
1F
100
AcDbEntity
  8
0
  6
HIDDEN
 62
     7
370
    18
100
AcDbLine
 10
160.5208029688
 20
165.1826177162
 30
0.0
 11
160.5208029688
 21
162.1826177162
 31
0.0
  0
ELLIPSE
  5
208
330
1F
100
AcDbEntity
  8
0
  6
HIDDEN
 62
     7
370
    18
100
AcDbEllipse
 10
201.0116786037
 20
180.3867745033
 30
0.0
 11
41.77819340407279
 21
14.72381603859336
 31
0.0
210
0.0
220
0.0
230
1.0
 40
0.091689593
 41
3.360222635796685
 42
3.432008383309193
  0
LINE
  5
209
330
1F
100
AcDbEntity
  8
0
  6
HIDDEN
 62
     7
370
    18
100
AcDbLine
 10
160.2842505987
 20
181.1826177162
 30
0.0
 11
160.2842505987
 21
178.1826177162
 31
0.0
  0
ELLIPSE
  5
20A
330
1F
100
AcDbEntity
  8
0
  6
HIDDEN
 62
     7
370
    18
100
AcDbEllipse
 10
201.0116786037
 20
162.9784609292
 30
0.0
 11
41.78989472133088
 21
-14.9968443923419
 31
0.0
210
0.0
220
0.0
230
1.0
 40
0.0612845711
 41
2.936557156731983
 42
3.008342904244501
  0
LINE
  5
20B
330
1F
100
AcDbEntity
  8
0
  6
HIDDEN
 62
     7
370
    18
100
AcDbLine
 10
159.7143398637
 20
181.1826177162
 30
0.0
 11
159.7143398637
 21
178.1826177162
 31
0.0
  0
ELLIPSE
  5
20C
330
1F
100
AcDbEntity
  8
0
  6
HIDDEN
 62
     7
370
    18
100
AcDbEllipse
 10
201.0116786037
 20
196.3867745033
 30
0.0
 11
41.78989472133088
 21
14.9968443923419
 31
0.0
210
0.0
220
0.0
230
1.0
 40
0.0612845711
 41
3.274842402935302
 42
3.346628150447807
  0
LINE
  5
20D
330
1F
100
AcDbEntity
  8
0
  6
HIDDEN
 62
     7
370
    18
100
AcDbLine
 10
160.2842505987
 20
173.1826177162
 30
0.0
 11
160.2842505987
 21
170.1826177162
 31
0.0
  0
ELLIPSE
  5
20E
330
1F
100
AcDbEntity
  8
0
  6
HIDDEN
 62
     7
370
    18
100
AcDbEllipse
 10
201.0116786037
 20
154.9784609292
 30
0.0
 11
41.78989472133088
 21
-14.9968443923419
 31
0.0
210
0.0
220
0.0
230
1.0
 40
0.0612845711
 41
2.936557156731983
 42
3.008342904244501
  0
LINE
  5
20F
330
1F
100
AcDbEntity
  8
0
  6
HIDDEN
 62
     7
370
    18
100
AcDbLine
 10
159.7143398637
 20
173.1826177162
 30
0.0
 11
159.7143398637
 21
170.1826177162
 31
0.0
  0
ELLIPSE
  5
210
330
1F
100
AcDbEntity
  8
0
  6
HIDDEN
 62
     7
370
    18
100
AcDbEllipse
 10
201.0116786037
 20
188.3867745033
 30
0.0
 11
41.78989472133088
 21
14.9968443923419
 31
0.0
210
0.0
220
0.0
230
1.0
 40
0.0612845711
 41
3.274842402935301
 42
3.346628150447805
  0
LINE
  5
211
330
1F
100
AcDbEntity
  8
0
  6
HIDDEN
 62
     7
370
    18
100
AcDbLine
 10
160.2842505987
 20
165.1826177162
 30
0.0
 11
160.2842505987
 21
162.1826177162
 31
0.0
  0
ELLIPSE
  5
212
330
1F
100
AcDbEntity
  8
0
  6
HIDDEN
 62
     7
370
    18
100
AcDbEllipse
 10
201.0116786037
 20
146.9784609292
 30
0.0
 11
41.78989472133088
 21
-14.99684439234193
 31
0.0
210
0.0
220
0.0
230
1.0
 40
0.0612845711
 41
2.936557156732008
 42
3.008342904244518
  0
LINE
  5
213
330
1F
100
AcDbEntity
  8
0
  6
HIDDEN
 62
     7
370
    18
100
AcDbLine
 10
159.7143398637
 20
165.1826177162
 30
0.0
 11
159.7143398637
 21
162.1826177162
 31
0.0
  0
ELLIPSE
  5
214
330
1F
100
AcDbEntity
  8
0
  6
HIDDEN
 62
     7
370
    18
100
AcDbEllipse
 10
201.0116786037
 20
180.3867745033
 30
0.0
 11
41.78989472133088
 21
14.99684439234193
 31
0.0
210
0.0
220
0.0
230
1.0
 40
0.0612845711
 41
3.274842402935294
 42
3.346628150447798
  0
LINE
  5
215
330
1F
100
AcDbEntity
  8
0
  6
HIDDEN
 62
     7
370
    18
100
AcDbLine
 10
159.5716400921
 20
181.1826177162
 30
0.0
 11
159.5716400921
 21
178.1826177162
 31
0.0
  0
ELLIPSE
  5
216
330
1F
100
AcDbEntity
  8
0
  6
HIDDEN
 62
     7
370
    18
100
AcDbEllipse
 10
201.0116786037
 20
162.9784609292
 30
0.0
 11
41.79741646040975
 21
-15.159903514219
 31
0.0
210
0.0
220
0.0
230
1.0
 40
0.0306554398
 41
3.021379975819975
 42
3.093165723332474
  0
LINE
  5
217
330
1F
100
AcDbEntity
  8
0
  6
HIDDEN
 62
     7
370
    18
100
AcDbLine
 10
159.2857603604
 20
181.1826177162
 30
0.0
 11
159.2857603604
 21
178.1826177162
 31
0.0
  0
ELLIPSE
  5
218
330
1F
100
AcDbEntity
  8
0
  6
HIDDEN
 62
     7
370
    18
100
AcDbEllipse
 10
201.0116786037
 20
196.3867745033
 30
0.0
 11
41.79741646040975
 21
15.159903514219
 31
0.0
210
0.0
220
0.0
230
1.0
 40
0.0306554398
 41
3.190019583847568
 42
3.261805331360062
  0
LINE
  5
219
330
1F
100
AcDbEntity
  8
0
  6
HIDDEN
 62
     7
370
    18
100
AcDbLine
 10
159.5716400921
 20
165.1826177162
 30
0.0
 11
159.5716400921
 21
162.1826177162
 31
0.0
  0
ELLIPSE
  5
21A
330
1F
100
AcDbEntity
  8
0
  6
HIDDEN
 62
     7
370
    18
100
AcDbEllipse
 10
201.0116786037
 20
146.9784609292
 30
0.0
 11
41.79741646040975
 21
-15.159903514219
 31
0.0
210
0.0
220
0.0
230
1.0
 40
0.0306554398
 41
3.021379975819977
 42
3.093165723332475
  0
LINE
  5
21B
330
1F
100
AcDbEntity
  8
0
  6
HIDDEN
 62
     7
370
    18
100
AcDbLine
 10
159.2857603604
 20
165.1826177162
 30
0.0
 11
159.2857603604
 21
162.1826177162
 31
0.0
  0
ELLIPSE
  5
21C
330
1F
100
AcDbEntity
  8
0
  6
HIDDEN
 62
     7
370
    18
100
AcDbEllipse
 10
201.0116786037
 20
180.3867745033
 30
0.0
 11
41.79741646040975
 21
15.15990351421902
 31
0.0
210
0.0
220
0.0
230
1.0
 40
0.0306554398
 41
3.190019583847523
 42
3.261805331360029
  0
LINE
  5
21D
330
1F
100
AcDbEntity
  8
0
  6
HIDDEN
 62
     7
370
    18
100
AcDbLine
 10
159.2382189349
 20
181.1826177162
 30
0.0
 11
159.2382189349
 21
178.1826177162
 31
0.0
  0
LINE
  5
21E
330
1F
100
AcDbEntity
  8
0
  6
HIDDEN
 62
     7
370
    18
100
AcDbLine
 10
159.2389860957
 20
181.1826177162
 30
0.0
 11
159.2389860957
 21
178.1826177162
 31
0.0
  0
LINE
  5
21F
330
1F
100
AcDbEntity
  8
0
  6
HIDDEN
 62
     7
370
    18
100
AcDbLine
 10
159.2382189349
 20
165.1826177162
 30
0.0
 11
159.2382189349
 21
162.1826177162
 31
0.0
  0
LINE
  5
220
330
1F
100
AcDbEntity
  8
0
  6
HIDDEN
 62
     7
370
    18
100
AcDbLine
 10
159.2389860957
 20
165.1826177162
 30
0.0
 11
159.2389860957
 21
162.1826177162
 31
0.0
  0
LINE
  5
221
330
1F
100
AcDbEntity
  8
0
  6
HIDDEN
 62
     7
370
    18
100
AcDbLine
 10
159.2870380352
 20
181.1826177162
 30
0.0
 11
159.2870380352
 21
178.1826177162
 31
0.0
  0
LINE
  5
222
330
1F
100
AcDbEntity
  8
0
  6
HIDDEN
 62
     7
370
    18
100
AcDbLine
 10
159.5744450688
 20
181.1826177162
 30
0.0
 11
159.5744450688
 21
178.1826177162
 31
0.0
  0
LINE
  5
223
330
1F
100
AcDbEntity
  8
0
  6
HIDDEN
 62
     7
370
    18
100
AcDbLine
 10
159.2870380352
 20
165.1826177162
 30
0.0
 11
159.2870380352
 21
162.1826177162
 31
0.0
  0
LINE
  5
224
330
1F
100
AcDbEntity
  8
0
  6
HIDDEN
 62
     7
370
    18
100
AcDbLine
 10
159.5744450688
 20
165.1826177162
 30
0.0
 11
159.5744450688
 21
162.1826177162
 31
0.0
  0
LINE
  5
225
330
1F
100
AcDbEntity
  8
0
  6
HIDDEN
 62
     7
370
    18
100
AcDbLine
 10
159.717650683
 20
181.1826177162
 30
0.0
 11
159.717650683
 21
178.1826177162
 31
0.0
  0
LINE
  5
226
330
1F
100
AcDbEntity
  8
0
  6
HIDDEN
 62
     7
370
    18
100
AcDbLine
 10
160.2890677248
 20
181.1826177162
 30
0.0
 11
160.2890677248
 21
178.1826177162
 31
0.0
  0
LINE
  5
227
330
1F
100
AcDbEntity
  8
0
  6
HIDDEN
 62
     7
370
    18
100
AcDbLine
 10
159.717650683
 20
173.1826177162
 30
0.0
 11
159.717650683
 21
170.1826177162
 31
0.0
  0
LINE
  5
228
330
1F
100
AcDbEntity
  8
0
  6
HIDDEN
 62
     7
370
    18
100
AcDbLine
 10
160.2890677248
 20
173.1826177162
 30
0.0
 11
160.2890677248
 21
170.1826177162
 31
0.0
  0
LINE
  5
229
330
1F
100
AcDbEntity
  8
0
  6
HIDDEN
 62
     7
370
    18
100
AcDbLine
 10
159.717650683
 20
165.1826177162
 30
0.0
 11
159.717650683
 21
162.1826177162
 31
0.0
  0
LINE
  5
22A
330
1F
100
AcDbEntity
  8
0
  6
HIDDEN
 62
     7
370
    18
100
AcDbLine
 10
160.2890677248
 20
165.1826177162
 30
0.0
 11
160.2890677248
 21
162.1826177162
 31
0.0
  0
LINE
  5
22B
330
1F
100
AcDbEntity
  8
0
  6
HIDDEN
 62
     7
370
    18
100
AcDbLine
 10
160.5261166375
 20
181.1826177162
 30
0.0
 11
160.5261166375
 21
178.1826177162
 31
0.0
  0
LINE
  5
22C
330
1F
100
AcDbEntity
  8
0
  6
HIDDEN
 62
     7
370
    18
100
AcDbLine
 10
161.3763150423
 20
181.1826177162
 30
0.0
 11
161.3763150423
 21
178.1826177162
 31
0.0
  0
LINE
  5
22D
330
1F
100
AcDbEntity
  8
0
  6
HIDDEN
 62
     7
370
    18
100
AcDbLine
 10
160.5261166375
 20
173.1826177162
 30
0.0
 11
160.5261166375
 21
170.1826177162
 31
0.0
  0
LINE
  5
22E
330
1F
100
AcDbEntity
  8
0
  6
HIDDEN
 62
     7
370
    18
100
AcDbLine
 10
161.3763150423
 20
173.1826177162
 30
0.0
 11
161.3763150423
 21
170.1826177162
 31
0.0
  0
LINE
  5
22F
330
1F
100
AcDbEntity
  8
0
  6
HIDDEN
 62
     7
370
    18
100
AcDbLine
 10
160.5261166375
 20
165.1826177162
 30
0.0
 11
160.5261166375
 21
162.1826177162
 31
0.0
  0
LINE
  5
230
330
1F
100
AcDbEntity
  8
0
  6
HIDDEN
 62
     7
370
    18
100
AcDbLine
 10
161.3763150423
 20
165.1826177162
 30
0.0
 11
161.3763150423
 21
162.1826177162
 31
0.0
  0
LINE
  5
231
330
1F
100
AcDbEntity
  8
0
  6
HIDDEN
 62
     7
370
    18
100
AcDbLine
 10
161.7050381816
 20
181.1826177162
 30
0.0
 11
161.7050381816
 21
178.1826177162
 31
0.0
  0
LINE
  5
232
330
1F
100
AcDbEntity
  8
0
  6
HIDDEN
 62
     7
370
    18
100
AcDbLine
 10
162.8262383675
 20
181.1826177162
 30
0.0
 11
162.8262383675
 21
178.1826177162
 31
0.0
  0
LINE
  5
233
330
1F
100
AcDbEntity
  8
0
  6
HIDDEN
 62
     7
370
    18
100
AcDbLine
 10
161.7050381816
 20
173.1826177162
 30
0.0
 11
161.7050381816
 21
170.1826177162
 31
0.0
  0
LINE
  5
234
330
1F
100
AcDbEntity
  8
0
  6
HIDDEN
 62
     7
370
    18
100
AcDbLine
 10
162.8262383675
 20
173.1826177162
 30
0.0
 11
162.8262383675
 21
170.1826177162
 31
0.0
  0
LINE
  5
235
330
1F
100
AcDbEntity
  8
0
  6
HIDDEN
 62
     7
370
    18
100
AcDbLine
 10
161.7050381816
 20
165.1826177162
 30
0.0
 11
161.7050381816
 21
162.1826177162
 31
0.0
  0
LINE
  5
236
330
1F
100
AcDbEntity
  8
0
  6
HIDDEN
 62
     7
370
    18
100
AcDbLine
 10
162.8262383675
 20
165.1826177162
 30
0.0
 11
162.8262383675
 21
162.1826177162
 31
0.0
  0
LINE
  5
237
330
1F
100
AcDbEntity
  8
0
  6
HIDDEN
 62
     7
370
    18
100
AcDbLine
 10
163.2436278135
 20
181.1826177162
 30
0.0
 11
163.2436278135
 21
178.1826177162
 31
0.0
  0
LINE
  5
238
330
1F
100
AcDbEntity
  8
0
  6
HIDDEN
 62
     7
370
    18
100
AcDbLine
 10
164.625570447
 20
181.1826177162
 30
0.0
 11
164.625570447
 21
178.1826177162
 31
0.0
  0
LINE
  5
239
330
1F
100
AcDbEntity
  8
0
  6
HIDDEN
 62
     7
370
    18
100
AcDbLine
 10
163.2436278135
 20
173.1826177162
 30
0.0
 11
163.2436278135
 21
170.1826177162
 31
0.0
  0
LINE
  5
23A
330
1F
100
AcDbEntity
  8
0
  6
HIDDEN
 62
     7
370
    18
100
AcDbLine
 10
164.625570447
 20
173.1826177162
 30
0.0
 11
164.625570447
 21
170.1826177162
 31
0.0
  0
LINE
  5
23B
330
1F
100
AcDbEntity
  8
0
  6
HIDDEN
 62
     7
370
    18
100
AcDbLine
 10
163.2436278135
 20
165.1826177162
 30
0.0
 11
163.2436278135
 21
162.1826177162
 31
0.0
  0
LINE
  5
23C
330
1F
100
AcDbEntity
  8
0
  6
HIDDEN
 62
     7
370
    18
100
AcDbLine
 10
164.625570447
 20
165.1826177162
 30
0.0
 11
164.625570447
 21
162.1826177162
 31
0.0
  0
LINE
  5
23D
330
1F
100
AcDbEntity
  8
0
  6
HIDDEN
 62
     7
370
    18
100
AcDbLine
 10
164.6150528077
 20
177.1826177162
 30
0.0
 11
162.4760693786
 21
176.4472155514
 31
0.0
  0
LINE
  5
23E
330
1F
100
AcDbEntity
  8
0
  6
HIDDEN
 62
     7
370
    18
100
AcDbLine
 10
161.7857790712
 20
176.4472155514
 30
0.0
 11
163.2344721928
 21
177.1826177162
 31
0.0
  0
ELLIPSE
  5
23F
330
1F
100
AcDbEntity
  8
0
  6
HIDDEN
 62
     7
370
    18
100
AcDbEllipse
 10
201.0116786037
 20
192.3867745033
 30
0.0
 11
43.7450063863123
 21
14.50325942639182
 31
0.0
210
0.0
220
0.0
230
1.0
 40
0.1512885997
 41
3.552565347998468
 42
3.586813597117611
  0
LINE
  5
240
330
1F
100
AcDbEntity
  8
0
  6
HIDDEN
 62
     7
370
    18
100
AcDbLine
 10
161.7857790712
 20
158.9180198811
 30
0.0
 11
163.2344721928
 21
158.1826177162
 31
0.0
  0
LINE
  5
241
330
1F
100
AcDbEntity
  8
0
  6
HIDDEN
 62
     7
370
    18
100
AcDbLine
 10
164.6150528077
 20
158.1826177162
 30
0.0
 11
162.4760693786
 21
158.9180198811
 31
0.0
  0
ELLIPSE
  5
242
330
1F
100
AcDbEntity
  8
0
  6
HIDDEN
 62
     7
370
    18
100
AcDbEllipse
 10
201.0116786037
 20
142.9784609292
 30
0.0
 11
43.7450063863123
 21
-14.50325942639185
 31
0.0
210
0.0
220
0.0
230
1.0
 40
0.1512885997
 41
2.696371710062053
 42
2.730619959181199
  0
LINE
  5
243
330
1F
100
AcDbEntity
  8
0
  6
HIDDEN
 62
     7
370
    18
100
AcDbLine
 10
164.6150528077
 20
165.1826177162
 30
0.0
 11
162.4760693786
 21
164.4472155514
 31
0.0
  0
LINE
  5
244
330
1F
100
AcDbEntity
  8
0
  6
HIDDEN
 62
     7
370
    18
100
AcDbLine
 10
162.4760693786
 20
164.4472155514
 30
0.0
 11
162.4760693786
 21
162.9180198811
 31
0.0
  0
LINE
  5
245
330
1F
100
AcDbEntity
  8
0
  6
HIDDEN
 62
     7
370
    18
100
AcDbLine
 10
164.6150528077
 20
162.1826177162
 30
0.0
 11
162.4760693786
 21
162.9180198811
 31
0.0
  0
LINE
  5
246
330
1F
100
AcDbEntity
  8
0
  6
HIDDEN
 62
     7
370
    18
100
AcDbLine
 10
164.6150528077
 20
185.1826177162
 30
0.0
 11
162.4760693786
 21
184.4472155514
 31
0.0
  0
LINE
  5
247
330
1F
100
AcDbEntity
  8
0
  6
HIDDEN
 62
     7
370
    18
100
AcDbLine
 10
162.4760693786
 20
184.4472155514
 30
0.0
 11
162.4760693786
 21
182.9180198811
 31
0.0
  0
LINE
  5
248
330
1F
100
AcDbEntity
  8
0
  6
HIDDEN
 62
     7
370
    18
100
AcDbLine
 10
164.6150528077
 20
182.1826177162
 30
0.0
 11
162.4760693786
 21
182.9180198811
 31
0.0
  0
LINE
  5
249
330
1F
100
AcDbEntity
  8
0
  6
HIDDEN
 62
     7
370
    18
100
AcDbLine
 10
164.6150528077
 20
173.1826177162
 30
0.0
 11
162.4760693786
 21
172.4472155514
 31
0.0
  0
LINE
  5
24A
330
1F
100
AcDbEntity
  8
0
  6
HIDDEN
 62
     7
370
    18
100
AcDbLine
 10
161.7857790712
 20
172.4472155514
 30
0.0
 11
163.2344721928
 21
173.1826177162
 31
0.0
  0
ELLIPSE
  5
24B
330
1F
100
AcDbEntity
  8
0
  6
HIDDEN
 62
     7
370
    18
100
AcDbEllipse
 10
201.0116786037
 20
188.3867745033
 30
0.0
 11
43.7450063863123
 21
14.50325942639182
 31
0.0
210
0.0
220
0.0
230
1.0
 40
0.1512885997
 41
3.552565347998473
 42
3.586813597117616
  0
LINE
  5
24C
330
1F
100
AcDbEntity
  8
0
  6
HIDDEN
 62
     7
370
    18
100
AcDbLine
 10
161.7857790712
 20
184.4472155514
 30
0.0
 11
163.2344721928
 21
185.1826177162
 31
0.0
  0
ELLIPSE
  5
24D
330
1F
100
AcDbEntity
  8
0
  6
HIDDEN
 62
     7
370
    18
100
AcDbEllipse
 10
201.0116786037
 20
200.3867745033
 30
0.0
 11
43.7450063863123
 21
14.50325942639182
 31
0.0
210
0.0
220
0.0
230
1.0
 40
0.1512885997
 41
3.552565347998466
 42
3.586813597117609
  0
LINE
  5
24E
330
1F
100
AcDbEntity
  8
0
  6
HIDDEN
 62
     7
370
    18
100
AcDbLine
 10
164.6150528077
 20
161.1826177162
 30
0.0
 11
162.4760693786
 21
160.4472155514
 31
0.0
  0
LINE
  5
24F
330
1F
100
AcDbEntity
  8
0
  6
HIDDEN
 62
     7
370
    18
100
AcDbLine
 10
161.7857790712
 20
160.4472155514
 30
0.0
 11
163.2344721928
 21
161.1826177162
 31
0.0
  0
ELLIPSE
  5
250
330
1F
100
AcDbEntity
  8
0
  6
HIDDEN
 62
     7
370
    18
100
AcDbEllipse
 10
201.0116786037
 20
176.3867745033
 30
0.0
 11
43.7450063863123
 21
14.50325942639182
 31
0.0
210
0.0
220
0.0
230
1.0
 40
0.1512885997
 41
3.552565347998466
 42
3.586813597117609
  0
LINE
  5
251
330
1F
100
AcDbEntity
  8
0
  6
HIDDEN
 62
     7
370
    18
100
AcDbLine
 10
161.7857790712
 20
162.9180198811
 30
0.0
 11
163.2344721928
 21
162.1826177162
 31
0.0
  0
ELLIPSE
  5
252
330
1F
100
AcDbEntity
  8
0
  6
HIDDEN
 62
     7
370
    18
100
AcDbEllipse
 10
201.0116786037
 20
146.9784609292
 30
0.0
 11
43.7450063863123
 21
-14.50325942639182
 31
0.0
210
0.0
220
0.0
230
1.0
 40
0.1512885997
 41
2.696371710062052
 42
2.730619959181197
  0
LINE
  5
253
330
1F
100
AcDbEntity
  8
0
  6
HIDDEN
 62
     7
370
    18
100
AcDbLine
 10
164.6150528077
 20
181.1826177162
 30
0.0
 11
162.4760693786
 21
180.4472155514
 31
0.0
  0
LINE
  5
254
330
1F
100
AcDbEntity
  8
0
  6
HIDDEN
 62
     7
370
    18
100
AcDbLine
 10
161.7857790712
 20
180.4472155514
 30
0.0
 11
163.2344721928
 21
181.1826177162
 31
0.0
  0
ELLIPSE
  5
255
330
1F
100
AcDbEntity
  8
0
  6
HIDDEN
 62
     7
370
    18
100
AcDbEllipse
 10
201.0116786037
 20
196.3867745033
 30
0.0
 11
43.7450063863123
 21
14.50325942639182
 31
0.0
210
0.0
220
0.0
230
1.0
 40
0.1512885997
 41
3.552565347998466
 42
3.586813597117609
  0
LINE
  5
256
330
1F
100
AcDbEntity
  8
0
  6
HIDDEN
 62
     7
370
    18
100
AcDbLine
 10
162.4760693786
 20
160.4472155514
 30
0.0
 11
162.4760693786
 21
158.9180198811
 31
0.0
  0
LINE
  5
257
330
1F
100
AcDbEntity
  8
0
  6
HIDDEN
 62
     7
370
    18
100
AcDbLine
 10
161.7857790712
 20
164.4472155514
 30
0.0
 11
163.2344721928
 21
165.1826177162
 31
0.0
  0
ELLIPSE
  5
258
330
1F
100
AcDbEntity
  8
0
  6
HIDDEN
 62
     7
370
    18
100
AcDbEllipse
 10
201.0116786037
 20
180.3867745033
 30
0.0
 11
43.7450063863123
 21
14.50325942639185
 31
0.0
210
0.0
220
0.0
230
1.0
 40
0.1512885997
 41
3.552565347998466
 42
3.586813597117608
  0
LINE
  5
259
330
1F
100
AcDbEntity
  8
0
  6
HIDDEN
 62
     7
370
    18
100
AcDbLine
 10
162.4760693786
 20
180.4472155514
 30
0.0
 11
162.4760693786
 21
178.9180198811
 31
0.0
  0
LINE
  5
25A
330
1F
100
AcDbEntity
  8
0
  6
HIDDEN
 62
     7
370
    18
100
AcDbLine
 10
164.6150528077
 20
178.1826177162
 30
0.0
 11
162.4760693786
 21
178.9180198811
 31
0.0
  0
LINE
  5
25B
330
1F
100
AcDbEntity
  8
0
  6
HIDDEN
 62
     7
370
    18
100
AcDbLine
 10
164.6150528077
 20
169.1826177162
 30
0.0
 11
162.4760693786
 21
168.4472155514
 31
0.0
  0
LINE
  5
25C
330
1F
100
AcDbEntity
  8
0
  6
HIDDEN
 62
     7
370
    18
100
AcDbLine
 10
162.4760693786
 20
168.4472155514
 30
0.0
 11
162.4760693786
 21
166.9180198811
 31
0.0
  0
LINE
  5
25D
330
1F
100
AcDbEntity
  8
0
  6
HIDDEN
 62
     7
370
    18
100
AcDbLine
 10
164.6150528077
 20
166.1826177162
 30
0.0
 11
162.4760693786
 21
166.9180198811
 31
0.0
  0
LINE
  5
25E
330
1F
100
AcDbEntity
  8
0
  6
HIDDEN
 62
     7
370
    18
100
AcDbLine
 10
162.4760693786
 20
172.4472155514
 30
0.0
 11
162.4760693786
 21
170.9180198811
 31
0.0
  0
LINE
  5
25F
330
1F
100
AcDbEntity
  8
0
  6
HIDDEN
 62
     7
370
    18
100
AcDbLine
 10
164.6150528077
 20
170.1826177162
 30
0.0
 11
162.4760693786
 21
170.9180198811
 31
0.0
  0
LINE
  5
260
330
1F
100
AcDbEntity
  8
0
  6
HIDDEN
 62
     7
370
    18
100
AcDbLine
 10
161.7857790712
 20
182.9180198811
 30
0.0
 11
163.2344721928
 21
182.1826177162
 31
0.0
  0
ELLIPSE
  5
261
330
1F
100
AcDbEntity
  8
0
  6
HIDDEN
 62
     7
370
    18
100
AcDbEllipse
 10
201.0116786037
 20
166.9784609292
 30
0.0
 11
43.7450063863123
 21
-14.50325942639182
 31
0.0
210
0.0
220
0.0
230
1.0
 40
0.1512885997
 41
2.696371710062047
 42
2.730619959181193
  0
LINE
  5
262
330
1F
100
AcDbEntity
  8
0
  6
HIDDEN
 62
     7
370
    18
100
AcDbLine
 10
161.7857790712
 20
168.4472155514
 30
0.0
 11
163.2344721928
 21
169.1826177162
 31
0.0
  0
ELLIPSE
  5
263
330
1F
100
AcDbEntity
  8
0
  6
HIDDEN
 62
     7
370
    18
100
AcDbEllipse
 10
201.0116786037
 20
184.3867745033
 30
0.0
 11
43.7450063863123
 21
14.50325942639188
 31
0.0
210
0.0
220
0.0
230
1.0
 40
0.1512885997
 41
3.55256534799846
 42
3.586813597117608
  0
LINE
  5
264
330
1F
100
AcDbEntity
  8
0
  6
HIDDEN
 62
     7
370
    18
100
AcDbLine
 10
161.7857790712
 20
178.9180198811
 30
0.0
 11
163.2344721928
 21
178.1826177162
 31
0.0
  0
ELLIPSE
  5
265
330
1F
100
AcDbEntity
  8
0
  6
HIDDEN
 62
     7
370
    18
100
AcDbEllipse
 10
201.0116786037
 20
162.9784609292
 30
0.0
 11
43.7450063863123
 21
-14.50325942639182
 31
0.0
210
0.0
220
0.0
230
1.0
 40
0.1512885997
 41
2.696371710062052
 42
2.730619959181197
  0
LINE
  5
266
330
1F
100
AcDbEntity
  8
0
  6
HIDDEN
 62
     7
370
    18
100
AcDbLine
 10
161.7857790712
 20
170.9180198811
 30
0.0
 11
163.2344721928
 21
170.1826177162
 31
0.0
  0
ELLIPSE
  5
267
330
1F
100
AcDbEntity
  8
0
  6
HIDDEN
 62
     7
370
    18
100
AcDbEllipse
 10
201.0116786037
 20
154.9784609292
 30
0.0
 11
43.7450063863123
 21
-14.50325942639182
 31
0.0
210
0.0
220
0.0
230
1.0
 40
0.1512885997
 41
2.696371710062051
 42
2.730619959181196
  0
LINE
  5
268
330
1F
100
AcDbEntity
  8
0
  6
HIDDEN
 62
     7
370
    18
100
AcDbLine
 10
161.7857790712
 20
174.9180198811
 30
0.0
 11
163.2344721928
 21
174.1826177162
 31
0.0
  0
LINE
  5
269
330
1F
100
AcDbEntity
  8
0
  6
HIDDEN
 62
     7
370
    18
100
AcDbLine
 10
164.6150528077
 20
174.1826177162
 30
0.0
 11
162.4760693786
 21
174.9180198811
 31
0.0
  0
ELLIPSE
  5
26A
330
1F
100
AcDbEntity
  8
0
  6
HIDDEN
 62
     7
370
    18
100
AcDbEllipse
 10
201.0116786037
 20
158.9784609292
 30
0.0
 11
43.7450063863123
 21
-14.50325942639185
 31
0.0
210
0.0
220
0.0
230
1.0
 40
0.1512885997
 41
2.696371710062053
 42
2.730619959181204
  0
LINE
  5
26B
330
1F
100
AcDbEntity
  8
0
  6
HIDDEN
 62
     7
370
    18
100
AcDbLine
 10
162.4760693786
 20
176.4472155514
 30
0.0
 11
162.4760693786
 21
174.9180198811
 31
0.0
  0
LINE
  5
26C
330
1F
100
AcDbEntity
  8
0
  6
HIDDEN
 62
     7
370
    18
100
AcDbLine
 10
161.7857790712
 20
166.9180198811
 30
0.0
 11
163.2344721928
 21
166.1826177162
 31
0.0
  0
ELLIPSE
  5
26D
330
1F
100
AcDbEntity
  8
0
  6
HIDDEN
 62
     7
370
    18
100
AcDbEllipse
 10
201.0116786037
 20
150.9784609292
 30
0.0
 11
43.7450063863123
 21
-14.50325942639182
 31
0.0
210
0.0
220
0.0
230
1.0
 40
0.1512885997
 41
2.696371710062051
 42
2.730619959181196
  0
LINE
  5
26E
330
1F
100
AcDbEntity
  8
0
  6
HIDDEN
 62
     7
370
    18
100
AcDbLine
 10
161.7857790712
 20
180.4472155514
 30
0.0
 11
161.7857790712
 21
178.9180198811
 31
0.0
  0
LINE
  5
26F
330
1F
100
AcDbEntity
  8
0
  6
HIDDEN
 62
     7
370
    18
100
AcDbLine
 10
161.7857790712
 20
160.4472155514
 30
0.0
 11
161.7857790712
 21
158.9180198811
 31
0.0
  0
LINE
  5
270
330
1F
100
AcDbEntity
  8
0
  6
HIDDEN
 62
     7
370
    18
100
AcDbLine
 10
161.7857790712
 20
168.4472155514
 30
0.0
 11
161.7857790712
 21
166.9180198811
 31
0.0
  0
LINE
  5
271
330
1F
100
AcDbEntity
  8
0
  6
HIDDEN
 62
     7
370
    18
100
AcDbLine
 10
161.7857790712
 20
172.4472155514
 30
0.0
 11
161.7857790712
 21
170.9180198811
 31
0.0
  0
LINE
  5
272
330
1F
100
AcDbEntity
  8
0
  6
HIDDEN
 62
     7
370
    18
100
AcDbLine
 10
161.7857790712
 20
176.4472155514
 30
0.0
 11
161.7857790712
 21
174.9180198811
 31
0.0
  0
LINE
  5
273
330
1F
100
AcDbEntity
  8
0
  6
HIDDEN
 62
     7
370
    18
100
AcDbLine
 10
161.7857790712
 20
184.4472155514
 30
0.0
 11
161.7857790712
 21
182.9180198811
 31
0.0
  0
LINE
  5
274
330
1F
100
AcDbEntity
  8
0
  6
HIDDEN
 62
     7
370
    18
100
AcDbLine
 10
161.7857790712
 20
164.4472155514
 30
0.0
 11
161.7857790712
 21
162.9180198811
 31
0.0
  0
LINE
  5
275
330
1F
100
AcDbEntity
  8
0
  6
HIDDEN
 62
     7
370
    18
100
AcDbLine
 10
162.8175471856
 20
173.1826177162
 30
0.0
 11
160.6631293868
 21
172.4472155514
 31
0.0
  0
LINE
  5
276
330
1F
100
AcDbEntity
  8
0
  6
HIDDEN
 62
     7
370
    18
100
AcDbLine
 10
160.6631293868
 20
172.4472155514
 30
0.0
 11
160.6631293868
 21
170.9180198811
 31
0.0
  0
LINE
  5
277
330
1F
100
AcDbEntity
  8
0
  6
HIDDEN
 62
     7
370
    18
100
AcDbLine
 10
162.8175471856
 20
170.1826177162
 30
0.0
 11
160.6631293868
 21
170.9180198811
 31
0.0
  0
LINE
  5
278
330
1F
100
AcDbEntity
  8
0
  6
HIDDEN
 62
     7
370
    18
100
AcDbLine
 10
162.8175471856
 20
185.1826177162
 30
0.0
 11
160.6631293868
 21
184.4472155514
 31
0.0
  0
LINE
  5
279
330
1F
100
AcDbEntity
  8
0
  6
HIDDEN
 62
     7
370
    18
100
AcDbLine
 10
160.1032409366
 20
184.4472155514
 30
0.0
 11
161.6977702852
 21
185.1826177162
 31
0.0
  0
ELLIPSE
  5
27A
330
1F
100
AcDbEntity
  8
0
  6
HIDDEN
 62
     7
370
    18
100
AcDbEllipse
 10
201.0116786037
 20
200.3867745033
 30
0.0
 11
43.76178728083849
 21
15.02533385701892
 31
0.0
210
0.0
220
0.0
230
1.0
 40
0.1217410798
 41
3.465213213586213
 42
3.499461462705356
  0
LINE
  5
27B
330
1F
100
AcDbEntity
  8
0
  6
HIDDEN
 62
     7
370
    18
100
AcDbLine
 10
162.8175471856
 20
169.1826177162
 30
0.0
 11
160.6631293868
 21
168.4472155514
 31
0.0
  0
LINE
  5
27C
330
1F
100
AcDbEntity
  8
0
  6
HIDDEN
 62
     7
370
    18
100
AcDbLine
 10
160.1032409366
 20
168.4472155514
 30
0.0
 11
161.6977702852
 21
169.1826177162
 31
0.0
  0
ELLIPSE
  5
27D
330
1F
100
AcDbEntity
  8
0
  6
HIDDEN
 62
     7
370
    18
100
AcDbEllipse
 10
201.0116786037
 20
184.3867745033
 30
0.0
 11
43.76178728083849
 21
15.02533385701895
 31
0.0
210
0.0
220
0.0
230
1.0
 40
0.1217410798
 41
3.465213213586209
 42
3.499461462705355
  0
LINE
  5
27E
330
1F
100
AcDbEntity
  8
0
  6
HIDDEN
 62
     7
370
    18
100
AcDbLine
 10
160.6631293868
 20
184.4472155514
 30
0.0
 11
160.6631293868
 21
182.9180198811
 31
0.0
  0
LINE
  5
27F
330
1F
100
AcDbEntity
  8
0
  6
HIDDEN
 62
     7
370
    18
100
AcDbLine
 10
162.8175471856
 20
182.1826177162
 30
0.0
 11
160.6631293868
 21
182.9180198811
 31
0.0
  0
LINE
  5
280
330
1F
100
AcDbEntity
  8
0
  6
HIDDEN
 62
     7
370
    18
100
AcDbLine
 10
160.1032409366
 20
166.9180198811
 30
0.0
 11
161.6977702852
 21
166.1826177162
 31
0.0
  0
LINE
  5
281
330
1F
100
AcDbEntity
  8
0
  6
HIDDEN
 62
     7
370
    18
100
AcDbLine
 10
162.8175471856
 20
166.1826177162
 30
0.0
 11
160.6631293868
 21
166.9180198811
 31
0.0
  0
ELLIPSE
  5
282
330
1F
100
AcDbEntity
  8
0
  6
HIDDEN
 62
     7
370
    18
100
AcDbEllipse
 10
201.0116786037
 20
150.9784609292
 30
0.0
 11
43.76178728083849
 21
-15.02533385701892
 31
0.0
210
0.0
220
0.0
230
1.0
 40
0.1217410798
 41
2.783723844474331
 42
2.817972093593476
  0
LINE
  5
283
330
1F
100
AcDbEntity
  8
0
  6
HIDDEN
 62
     7
370
    18
100
AcDbLine
 10
160.1032409366
 20
170.9180198811
 30
0.0
 11
161.6977702852
 21
170.1826177162
 31
0.0
  0
ELLIPSE
  5
284
330
1F
100
AcDbEntity
  8
0
  6
HIDDEN
 62
     7
370
    18
100
AcDbEllipse
 10
201.0116786037
 20
154.9784609292
 30
0.0
 11
43.76178728083849
 21
-15.02533385701892
 31
0.0
210
0.0
220
0.0
230
1.0
 40
0.1217410798
 41
2.783723844474329
 42
2.817972093593478
  0
LINE
  5
285
330
1F
100
AcDbEntity
  8
0
  6
HIDDEN
 62
     7
370
    18
100
AcDbLine
 10
162.8175471856
 20
161.1826177162
 30
0.0
 11
160.6631293868
 21
160.4472155514
 31
0.0
  0
LINE
  5
286
330
1F
100
AcDbEntity
  8
0
  6
HIDDEN
 62
     7
370
    18
100
AcDbLine
 10
160.6631293868
 20
160.4472155514
 30
0.0
 11
160.6631293868
 21
158.9180198811
 31
0.0
  0
LINE
  5
287
330
1F
100
AcDbEntity
  8
0
  6
HIDDEN
 62
     7
370
    18
100
AcDbLine
 10
162.8175471856
 20
158.1826177162
 30
0.0
 11
160.6631293868
 21
158.9180198811
 31
0.0
  0
LINE
  5
288
330
1F
100
AcDbEntity
  8
0
  6
HIDDEN
 62
     7
370
    18
100
AcDbLine
 10
162.8175471856
 20
177.1826177162
 30
0.0
 11
160.6631293868
 21
176.4472155514
 31
0.0
  0
LINE
  5
289
330
1F
100
AcDbEntity
  8
0
  6
HIDDEN
 62
     7
370
    18
100
AcDbLine
 10
160.1032409366
 20
176.4472155514
 30
0.0
 11
161.6977702852
 21
177.1826177162
 31
0.0
  0
ELLIPSE
  5
28A
330
1F
100
AcDbEntity
  8
0
  6
HIDDEN
 62
     7
370
    18
100
AcDbEllipse
 10
201.0116786037
 20
192.3867745033
 30
0.0
 11
43.76178728083849
 21
15.02533385701892
 31
0.0
210
0.0
220
0.0
230
1.0
 40
0.1217410798
 41
3.465213213586213
 42
3.499461462705356
  0
LINE
  5
28B
330
1F
100
AcDbEntity
  8
0
  6
HIDDEN
 62
     7
370
    18
100
AcDbLine
 10
162.8175471856
 20
181.1826177162
 30
0.0
 11
160.6631293868
 21
180.4472155514
 31
0.0
  0
LINE
  5
28C
330
1F
100
AcDbEntity
  8
0
  6
HIDDEN
 62
     7
370
    18
100
AcDbLine
 10
160.1032409366
 20
180.4472155514
 30
0.0
 11
161.6977702852
 21
181.1826177162
 31
0.0
  0
ELLIPSE
  5
28D
330
1F
100
AcDbEntity
  8
0
  6
HIDDEN
 62
     7
370
    18
100
AcDbEllipse
 10
201.0116786037
 20
196.3867745033
 30
0.0
 11
43.76178728083849
 21
15.02533385701892
 31
0.0
210
0.0
220
0.0
230
1.0
 40
0.1217410798
 41
3.465213213586213
 42
3.499461462705356
  0
LINE
  5
28E
330
1F
100
AcDbEntity
  8
0
  6
HIDDEN
 62
     7
370
    18
100
AcDbLine
 10
160.1032409366
 20
174.9180198811
 30
0.0
 11
161.6977702852
 21
174.1826177162
 31
0.0
  0
LINE
  5
28F
330
1F
100
AcDbEntity
  8
0
  6
HIDDEN
 62
     7
370
    18
100
AcDbLine
 10
162.8175471856
 20
174.1826177162
 30
0.0
 11
160.6631293868
 21
174.9180198811
 31
0.0
  0
ELLIPSE
  5
290
330
1F
100
AcDbEntity
  8
0
  6
HIDDEN
 62
     7
370
    18
100
AcDbEllipse
 10
201.0116786037
 20
158.9784609292
 30
0.0
 11
43.76178728083849
 21
-15.02533385701892
 31
0.0
210
0.0
220
0.0
230
1.0
 40
0.1217410798
 41
2.783723844474329
 42
2.817972093593478
  0
LINE
  5
291
330
1F
100
AcDbEntity
  8
0
  6
HIDDEN
 62
     7
370
    18
100
AcDbLine
 10
160.1032409366
 20
182.9180198811
 30
0.0
 11
161.6977702852
 21
182.1826177162
 31
0.0
  0
ELLIPSE
  5
292
330
1F
100
AcDbEntity
  8
0
  6
HIDDEN
 62
     7
370
    18
100
AcDbEllipse
 10
201.0116786037
 20
166.9784609292
 30
0.0
 11
43.76178728083849
 21
-15.02533385701892
 31
0.0
210
0.0
220
0.0
230
1.0
 40
0.1217410798
 41
2.783723844474328
 42
2.817972093593473
  0
LINE
  5
293
330
1F
100
AcDbEntity
  8
0
  6
HIDDEN
 62
     7
370
    18
100
AcDbLine
 10
160.6631293868
 20
176.4472155514
 30
0.0
 11
160.6631293868
 21
174.9180198811
 31
0.0
  0
LINE
  5
294
330
1F
100
AcDbEntity
  8
0
  6
HIDDEN
 62
     7
370
    18
100
AcDbLine
 10
160.6631293868
 20
180.4472155514
 30
0.0
 11
160.6631293868
 21
178.9180198811
 31
0.0
  0
LINE
  5
295
330
1F
100
AcDbEntity
  8
0
  6
HIDDEN
 62
     7
370
    18
100
AcDbLine
 10
162.8175471856
 20
178.1826177162
 30
0.0
 11
160.6631293868
 21
178.9180198811
 31
0.0
  0
LINE
  5
296
330
1F
100
AcDbEntity
  8
0
  6
HIDDEN
 62
     7
370
    18
100
AcDbLine
 10
160.1032409366
 20
160.4472155514
 30
0.0
 11
161.6977702852
 21
161.1826177162
 31
0.0
  0
ELLIPSE
  5
297
330
1F
100
AcDbEntity
  8
0
  6
HIDDEN
 62
     7
370
    18
100
AcDbEllipse
 10
201.0116786037
 20
176.3867745033
 30
0.0
 11
43.76178728083849
 21
15.02533385701892
 31
0.0
210
0.0
220
0.0
230
1.0
 40
0.1217410798
 41
3.465213213586213
 42
3.499461462705356
  0
LINE
  5
298
330
1F
100
AcDbEntity
  8
0
  6
HIDDEN
 62
     7
370
    18
100
AcDbLine
 10
160.6631293868
 20
168.4472155514
 30
0.0
 11
160.6631293868
 21
166.9180198811
 31
0.0
  0
LINE
  5
299
330
1F
100
AcDbEntity
  8
0
  6
HIDDEN
 62
     7
370
    18
100
AcDbLine
 10
162.8175471856
 20
165.1826177162
 30
0.0
 11
160.6631293868
 21
164.4472155514
 31
0.0
  0
LINE
  5
29A
330
1F
100
AcDbEntity
  8
0
  6
HIDDEN
 62
     7
370
    18
100
AcDbLine
 10
160.6631293868
 20
164.4472155514
 30
0.0
 11
160.6631293868
 21
162.9180198811
 31
0.0
  0
LINE
  5
29B
330
1F
100
AcDbEntity
  8
0
  6
HIDDEN
 62
     7
370
    18
100
AcDbLine
 10
162.8175471856
 20
162.1826177162
 30
0.0
 11
160.6631293868
 21
162.9180198811
 31
0.0
  0
LINE
  5
29C
330
1F
100
AcDbEntity
  8
0
  6
HIDDEN
 62
     7
370
    18
100
AcDbLine
 10
160.1032409366
 20
172.4472155514
 30
0.0
 11
161.6977702852
 21
173.1826177162
 31
0.0
  0
ELLIPSE
  5
29D
330
1F
100
AcDbEntity
  8
0
  6
HIDDEN
 62
     7
370
    18
100
AcDbEllipse
 10
201.0116786037
 20
188.3867745033
 30
0.0
 11
43.76178728083849
 21
15.02533385701892
 31
0.0
210
0.0
220
0.0
230
1.0
 40
0.1217410798
 41
3.465213213586222
 42
3.499461462705364
  0
LINE
  5
29E
330
1F
100
AcDbEntity
  8
0
  6
HIDDEN
 62
     7
370
    18
100
AcDbLine
 10
160.1032409366
 20
164.4472155514
 30
0.0
 11
161.6977702852
 21
165.1826177162
 31
0.0
  0
ELLIPSE
  5
29F
330
1F
100
AcDbEntity
  8
0
  6
HIDDEN
 62
     7
370
    18
100
AcDbEllipse
 10
201.0116786037
 20
180.3867745033
 30
0.0
 11
43.76178728083849
 21
15.02533385701895
 31
0.0
210
0.0
220
0.0
230
1.0
 40
0.1217410798
 41
3.465213213586209
 42
3.499461462705348
  0
LINE
  5
2A0
330
1F
100
AcDbEntity
  8
0
  6
HIDDEN
 62
     7
370
    18
100
AcDbLine
 10
160.1032409366
 20
162.9180198811
 30
0.0
 11
161.6977702852
 21
162.1826177162
 31
0.0
  0
ELLIPSE
  5
2A1
330
1F
100
AcDbEntity
  8
0
  6
HIDDEN
 62
     7
370
    18
100
AcDbEllipse
 10
201.0116786037
 20
146.9784609292
 30
0.0
 11
43.76178728083849
 21
-15.02533385701892
 31
0.0
210
0.0
220
0.0
230
1.0
 40
0.1217410798
 41
2.783723844474331
 42
2.817972093593476
  0
LINE
  5
2A2
330
1F
100
AcDbEntity
  8
0
  6
HIDDEN
 62
     7
370
    18
100
AcDbLine
 10
160.1032409366
 20
178.9180198811
 30
0.0
 11
161.6977702852
 21
178.1826177162
 31
0.0
  0
ELLIPSE
  5
2A3
330
1F
100
AcDbEntity
  8
0
  6
HIDDEN
 62
     7
370
    18
100
AcDbEllipse
 10
201.0116786037
 20
162.9784609292
 30
0.0
 11
43.76178728083849
 21
-15.02533385701892
 31
0.0
210
0.0
220
0.0
230
1.0
 40
0.1217410798
 41
2.783723844474331
 42
2.817972093593476
  0
LINE
  5
2A4
330
1F
100
AcDbEntity
  8
0
  6
HIDDEN
 62
     7
370
    18
100
AcDbLine
 10
160.1032409366
 20
158.9180198811
 30
0.0
 11
161.6977702852
 21
158.1826177162
 31
0.0
  0
ELLIPSE
  5
2A5
330
1F
100
AcDbEntity
  8
0
  6
HIDDEN
 62
     7
370
    18
100
AcDbEllipse
 10
201.0116786037
 20
142.9784609292
 30
0.0
 11
43.76178728083849
 21
-15.02533385701894
 31
0.0
210
0.0
220
0.0
230
1.0
 40
0.1217410798
 41
2.783723844474334
 42
2.817972093593476
  0
LINE
  5
2A6
330
1F
100
AcDbEntity
  8
0
  6
HIDDEN
 62
     7
370
    18
100
AcDbLine
 10
160.1032409366
 20
176.4472155514
 30
0.0
 11
160.1032409366
 21
174.9180198811
 31
0.0
  0
LINE
  5
2A7
330
1F
100
AcDbEntity
  8
0
  6
HIDDEN
 62
     7
370
    18
100
AcDbLine
 10
160.1032409366
 20
168.4472155514
 30
0.0
 11
160.1032409366
 21
166.9180198811
 31
0.0
  0
LINE
  5
2A8
330
1F
100
AcDbEntity
  8
0
  6
HIDDEN
 62
     7
370
    18
100
AcDbLine
 10
160.1032409366
 20
180.4472155514
 30
0.0
 11
160.1032409366
 21
178.9180198811
 31
0.0
  0
LINE
  5
2A9
330
1F
100
AcDbEntity
  8
0
  6
HIDDEN
 62
     7
370
    18
100
AcDbLine
 10
160.1032409366
 20
164.4472155514
 30
0.0
 11
160.1032409366
 21
162.9180198811
 31
0.0
  0
LINE
  5
2AA
330
1F
100
AcDbEntity
  8
0
  6
HIDDEN
 62
     7
370
    18
100
AcDbLine
 10
160.1032409366
 20
184.4472155514
 30
0.0
 11
160.1032409366
 21
182.9180198811
 31
0.0
  0
LINE
  5
2AB
330
1F
100
AcDbEntity
  8
0
  6
HIDDEN
 62
     7
370
    18
100
AcDbLine
 10
160.1032409366
 20
172.4472155514
 30
0.0
 11
160.1032409366
 21
170.9180198811
 31
0.0
  0
LINE
  5
2AC
330
1F
100
AcDbEntity
  8
0
  6
HIDDEN
 62
     7
370
    18
100
AcDbLine
 10
160.1032409366
 20
160.4472155514
 30
0.0
 11
160.1032409366
 21
158.9180198811
 31
0.0
  0
LINE
  5
2AD
330
1F
100
AcDbEntity
  8
0
  6
HIDDEN
 62
     7
370
    18
100
AcDbLine
 10
158.795027837
 20
178.9180198811
 30
0.0
 11
160.5208029688
 21
178.1826177162
 31
0.0
  0
LINE
  5
2AE
330
1F
100
AcDbEntity
  8
0
  6
HIDDEN
 62
     7
370
    18
100
AcDbLine
 10
161.369529845
 20
178.1826177162
 30
0.0
 11
159.2193912751
 21
178.9180198811
 31
0.0
  0
ELLIPSE
  5
2AF
330
1F
100
AcDbEntity
  8
0
  6
HIDDEN
 62
     7
370
    18
100
AcDbEllipse
 10
201.0116786037
 20
162.9784609292
 30
0.0
 11
43.77715002627716
 21
-15.42830484426764
 31
0.0
210
0.0
220
0.0
230
1.0
 40
0.091689593
 41
2.869945673067217
 42
2.904193922186362
  0
LINE
  5
2B0
330
1F
100
AcDbEntity
  8
0
  6
HIDDEN
 62
     7
370
    18
100
AcDbLine
 10
161.369529845
 20
173.1826177162
 30
0.0
 11
159.2193912751
 21
172.4472155514
 31
0.0
  0
LINE
  5
2B1
330
1F
100
AcDbEntity
  8
0
  6
HIDDEN
 62
     7
370
    18
100
AcDbLine
 10
158.795027837
 20
172.4472155514
 30
0.0
 11
160.5208029688
 21
173.1826177162
 31
0.0
  0
ELLIPSE
  5
2B2
330
1F
100
AcDbEntity
  8
0
  6
HIDDEN
 62
     7
370
    18
100
AcDbEllipse
 10
201.0116786037
 20
188.3867745033
 30
0.0
 11
43.77715002627716
 21
15.42830484426768
 31
0.0
210
0.0
220
0.0
230
1.0
 40
0.091689593
 41
3.378991384993368
 42
3.41323963411251
  0
LINE
  5
2B3
330
1F
100
AcDbEntity
  8
0
  6
HIDDEN
 62
     7
370
    18
100
AcDbLine
 10
161.369529845
 20
169.1826177162
 30
0.0
 11
159.2193912751
 21
168.4472155514
 31
0.0
  0
LINE
  5
2B4
330
1F
100
AcDbEntity
  8
0
  6
HIDDEN
 62
     7
370
    18
100
AcDbLine
 10
159.2193912751
 20
168.4472155514
 30
0.0
 11
159.2193912751
 21
166.9180198811
 31
0.0
  0
LINE
  5
2B5
330
1F
100
AcDbEntity
  8
0
  6
HIDDEN
 62
     7
370
    18
100
AcDbLine
 10
161.369529845
 20
166.1826177162
 30
0.0
 11
159.2193912751
 21
166.9180198811
 31
0.0
  0
LINE
  5
2B6
330
1F
100
AcDbEntity
  8
0
  6
HIDDEN
 62
     7
370
    18
100
AcDbLine
 10
158.795027837
 20
162.9180198811
 30
0.0
 11
160.5208029688
 21
162.1826177162
 31
0.0
  0
LINE
  5
2B7
330
1F
100
AcDbEntity
  8
0
  6
HIDDEN
 62
     7
370
    18
100
AcDbLine
 10
161.369529845
 20
162.1826177162
 30
0.0
 11
159.2193912751
 21
162.9180198811
 31
0.0
  0
ELLIPSE
  5
2B8
330
1F
100
AcDbEntity
  8
0
  6
HIDDEN
 62
     7
370
    18
100
AcDbEllipse
 10
201.0116786037
 20
146.9784609292
 30
0.0
 11
43.77715002627716
 21
-15.4283048442677
 31
0.0
210
0.0
220
0.0
230
1.0
 40
0.091689593
 41
2.869945673067226
 42
2.904193922186371
  0
LINE
  5
2B9
330
1F
100
AcDbEntity
  8
0
  6
HIDDEN
 62
     7
370
    18
100
AcDbLine
 10
161.369529845
 20
165.1826177162
 30
0.0
 11
159.2193912751
 21
164.4472155514
 31
0.0
  0
LINE
  5
2BA
330
1F
100
AcDbEntity
  8
0
  6
HIDDEN
 62
     7
370
    18
100
AcDbLine
 10
159.2193912751
 20
164.4472155514
 30
0.0
 11
159.2193912751
 21
162.9180198811
 31
0.0
  0
LINE
  5
2BB
330
1F
100
AcDbEntity
  8
0
  6
HIDDEN
 62
     7
370
    18
100
AcDbLine
 10
158.795027837
 20
174.9180198811
 30
0.0
 11
160.5208029688
 21
174.1826177162
 31
0.0
  0
LINE
  5
2BC
330
1F
100
AcDbEntity
  8
0
  6
HIDDEN
 62
     7
370
    18
100
AcDbLine
 10
161.369529845
 20
174.1826177162
 30
0.0
 11
159.2193912751
 21
174.9180198811
 31
0.0
  0
ELLIPSE
  5
2BD
330
1F
100
AcDbEntity
  8
0
  6
HIDDEN
 62
     7
370
    18
100
AcDbEllipse
 10
201.0116786037
 20
158.9784609292
 30
0.0
 11
43.77715002627716
 21
-15.42830484426768
 31
0.0
210
0.0
220
0.0
230
1.0
 40
0.091689593
 41
2.869945673067222
 42
2.904193922186371
  0
LINE
  5
2BE
330
1F
100
AcDbEntity
  8
0
  6
HIDDEN
 62
     7
370
    18
100
AcDbLine
 10
161.369529845
 20
181.1826177162
 30
0.0
 11
159.2193912751
 21
180.4472155514
 31
0.0
  0
LINE
  5
2BF
330
1F
100
AcDbEntity
  8
0
  6
HIDDEN
 62
     7
370
    18
100
AcDbLine
 10
159.2193912751
 20
180.4472155514
 30
0.0
 11
159.2193912751
 21
178.9180198811
 31
0.0
  0
LINE
  5
2C0
330
1F
100
AcDbEntity
  8
0
  6
HIDDEN
 62
     7
370
    18
100
AcDbLine
 10
158.795027837
 20
168.4472155514
 30
0.0
 11
160.5208029688
 21
169.1826177162
 31
0.0
  0
ELLIPSE
  5
2C1
330
1F
100
AcDbEntity
  8
0
  6
HIDDEN
 62
     7
370
    18
100
AcDbEllipse
 10
201.0116786037
 20
184.3867745033
 30
0.0
 11
43.77715002627716
 21
15.4283048442677
 31
0.0
210
0.0
220
0.0
230
1.0
 40
0.091689593
 41
3.37899138499335
 42
3.413239634112501
  0
LINE
  5
2C2
330
1F
100
AcDbEntity
  8
0
  6
HIDDEN
 62
     7
370
    18
100
AcDbLine
 10
161.369529845
 20
185.1826177162
 30
0.0
 11
159.2193912751
 21
184.4472155514
 31
0.0
  0
LINE
  5
2C3
330
1F
100
AcDbEntity
  8
0
  6
HIDDEN
 62
     7
370
    18
100
AcDbLine
 10
158.795027837
 20
184.4472155514
 30
0.0
 11
160.5208029688
 21
185.1826177162
 31
0.0
  0
ELLIPSE
  5
2C4
330
1F
100
AcDbEntity
  8
0
  6
HIDDEN
 62
     7
370
    18
100
AcDbEllipse
 10
201.0116786037
 20
200.3867745033
 30
0.0
 11
43.77715002627716
 21
15.42830484426768
 31
0.0
210
0.0
220
0.0
230
1.0
 40
0.091689593
 41
3.378991384993364
 42
3.413239634112506
  0
LINE
  5
2C5
330
1F
100
AcDbEntity
  8
0
  6
HIDDEN
 62
     7
370
    18
100
AcDbLine
 10
161.369529845
 20
177.1826177162
 30
0.0
 11
159.2193912751
 21
176.4472155514
 31
0.0
  0
LINE
  5
2C6
330
1F
100
AcDbEntity
  8
0
  6
HIDDEN
 62
     7
370
    18
100
AcDbLine
 10
158.795027837
 20
176.4472155514
 30
0.0
 11
160.5208029688
 21
177.1826177162
 31
0.0
  0
ELLIPSE
  5
2C7
330
1F
100
AcDbEntity
  8
0
  6
HIDDEN
 62
     7
370
    18
100
AcDbEllipse
 10
201.0116786037
 20
192.3867745033
 30
0.0
 11
43.77715002627716
 21
15.42830484426768
 31
0.0
210
0.0
220
0.0
230
1.0
 40
0.091689593
 41
3.378991384993364
 42
3.413239634112506
  0
LINE
  5
2C8
330
1F
100
AcDbEntity
  8
0
  6
HIDDEN
 62
     7
370
    18
100
AcDbLine
 10
158.795027837
 20
164.4472155514
 30
0.0
 11
160.5208029688
 21
165.1826177162
 31
0.0
  0
ELLIPSE
  5
2C9
330
1F
100
AcDbEntity
  8
0
  6
HIDDEN
 62
     7
370
    18
100
AcDbEllipse
 10
201.0116786037
 20
180.3867745033
 30
0.0
 11
43.77715002627716
 21
15.42830484426768
 31
0.0
210
0.0
220
0.0
230
1.0
 40
0.091689593
 41
3.378991384993364
 42
3.413239634112506
  0
LINE
  5
2CA
330
1F
100
AcDbEntity
  8
0
  6
HIDDEN
 62
     7
370
    18
100
AcDbLine
 10
161.369529845
 20
161.1826177162
 30
0.0
 11
159.2193912751
 21
160.4472155514
 31
0.0
  0
LINE
  5
2CB
330
1F
100
AcDbEntity
  8
0
  6
HIDDEN
 62
     7
370
    18
100
AcDbLine
 10
159.2193912751
 20
160.4472155514
 30
0.0
 11
159.2193912751
 21
158.9180198811
 31
0.0
  0
LINE
  5
2CC
330
1F
100
AcDbEntity
  8
0
  6
HIDDEN
 62
     7
370
    18
100
AcDbLine
 10
161.369529845
 20
158.1826177162
 30
0.0
 11
159.2193912751
 21
158.9180198811
 31
0.0
  0
LINE
  5
2CD
330
1F
100
AcDbEntity
  8
0
  6
HIDDEN
 62
     7
370
    18
100
AcDbLine
 10
159.2193912751
 20
184.4472155514
 30
0.0
 11
159.2193912751
 21
182.9180198811
 31
0.0
  0
LINE
  5
2CE
330
1F
100
AcDbEntity
  8
0
  6
HIDDEN
 62
     7
370
    18
100
AcDbLine
 10
161.369529845
 20
182.1826177162
 30
0.0
 11
159.2193912751
 21
182.9180198811
 31
0.0
  0
LINE
  5
2CF
330
1F
100
AcDbEntity
  8
0
  6
HIDDEN
 62
     7
370
    18
100
AcDbLine
 10
158.795027837
 20
180.4472155514
 30
0.0
 11
160.5208029688
 21
181.1826177162
 31
0.0
  0
ELLIPSE
  5
2D0
330
1F
100
AcDbEntity
  8
0
  6
HIDDEN
 62
     7
370
    18
100
AcDbEllipse
 10
201.0116786037
 20
196.3867745033
 30
0.0
 11
43.77715002627716
 21
15.42830484426768
 31
0.0
210
0.0
220
0.0
230
1.0
 40
0.091689593
 41
3.378991384993364
 42
3.413239634112506
  0
LINE
  5
2D1
330
1F
100
AcDbEntity
  8
0
  6
HIDDEN
 62
     7
370
    18
100
AcDbLine
 10
158.795027837
 20
160.4472155514
 30
0.0
 11
160.5208029688
 21
161.1826177162
 31
0.0
  0
ELLIPSE
  5
2D2
330
1F
100
AcDbEntity
  8
0
  6
HIDDEN
 62
     7
370
    18
100
AcDbEllipse
 10
201.0116786037
 20
176.3867745033
 30
0.0
 11
43.77715002627716
 21
15.42830484426768
 31
0.0
210
0.0
220
0.0
230
1.0
 40
0.091689593
 41
3.378991384993364
 42
3.413239634112506
  0
LINE
  5
2D3
330
1F
100
AcDbEntity
  8
0
  6
HIDDEN
 62
     7
370
    18
100
AcDbLine
 10
158.795027837
 20
170.9180198811
 30
0.0
 11
160.5208029688
 21
170.1826177162
 31
0.0
  0
LINE
  5
2D4
330
1F
100
AcDbEntity
  8
0
  6
HIDDEN
 62
     7
370
    18
100
AcDbLine
 10
161.369529845
 20
170.1826177162
 30
0.0
 11
159.2193912751
 21
170.9180198811
 31
0.0
  0
ELLIPSE
  5
2D5
330
1F
100
AcDbEntity
  8
0
  6
HIDDEN
 62
     7
370
    18
100
AcDbEllipse
 10
201.0116786037
 20
154.9784609292
 30
0.0
 11
43.77715002627716
 21
-15.42830484426768
 31
0.0
210
0.0
220
0.0
230
1.0
 40
0.091689593
 41
2.869945673067222
 42
2.904193922186366
  0
LINE
  5
2D6
330
1F
100
AcDbEntity
  8
0
  6
HIDDEN
 62
     7
370
    18
100
AcDbLine
 10
158.795027837
 20
182.9180198811
 30
0.0
 11
160.5208029688
 21
182.1826177162
 31
0.0
  0
ELLIPSE
  5
2D7
330
1F
100
AcDbEntity
  8
0
  6
HIDDEN
 62
     7
370
    18
100
AcDbEllipse
 10
201.0116786037
 20
166.9784609292
 30
0.0
 11
43.77715002627716
 21
-15.42830484426764
 31
0.0
210
0.0
220
0.0
230
1.0
 40
0.091689593
 41
2.869945673067215
 42
2.904193922186359
  0
LINE
  5
2D8
330
1F
100
AcDbEntity
  8
0
  6
HIDDEN
 62
     7
370
    18
100
AcDbLine
 10
159.2193912751
 20
172.4472155514
 30
0.0
 11
159.2193912751
 21
170.9180198811
 31
0.0
  0
LINE
  5
2D9
330
1F
100
AcDbEntity
  8
0
  6
HIDDEN
 62
     7
370
    18
100
AcDbLine
 10
159.2193912751
 20
176.4472155514
 30
0.0
 11
159.2193912751
 21
174.9180198811
 31
0.0
  0
LINE
  5
2DA
330
1F
100
AcDbEntity
  8
0
  6
HIDDEN
 62
     7
370
    18
100
AcDbLine
 10
158.795027837
 20
166.9180198811
 30
0.0
 11
160.5208029688
 21
166.1826177162
 31
0.0
  0
ELLIPSE
  5
2DB
330
1F
100
AcDbEntity
  8
0
  6
HIDDEN
 62
     7
370
    18
100
AcDbEllipse
 10
201.0116786037
 20
150.9784609292
 30
0.0
 11
43.77715002627716
 21
-15.4283048442677
 31
0.0
210
0.0
220
0.0
230
1.0
 40
0.091689593
 41
2.869945673067226
 42
2.904193922186371
  0
LINE
  5
2DC
330
1F
100
AcDbEntity
  8
0
  6
HIDDEN
 62
     7
370
    18
100
AcDbLine
 10
158.795027837
 20
158.9180198811
 30
0.0
 11
160.5208029688
 21
158.1826177162
 31
0.0
  0
ELLIPSE
  5
2DD
330
1F
100
AcDbEntity
  8
0
  6
HIDDEN
 62
     7
370
    18
100
AcDbEllipse
 10
201.0116786037
 20
142.9784609292
 30
0.0
 11
43.77715002627716
 21
-15.4283048442677
 31
0.0
210
0.0
220
0.0
230
1.0
 40
0.091689593
 41
2.869945673067226
 42
2.904193922186371
  0
LINE
  5
2DE
330
1F
100
AcDbEntity
  8
0
  6
HIDDEN
 62
     7
370
    18
100
AcDbLine
 10
158.795027837
 20
164.4472155514
 30
0.0
 11
158.795027837
 21
162.9180198811
 31
0.0
  0
LINE
  5
2DF
330
1F
100
AcDbEntity
  8
0
  6
HIDDEN
 62
     7
370
    18
100
AcDbLine
 10
158.795027837
 20
180.4472155514
 30
0.0
 11
158.795027837
 21
178.9180198811
 31
0.0
  0
LINE
  5
2E0
330
1F
100
AcDbEntity
  8
0
  6
HIDDEN
 62
     7
370
    18
100
AcDbLine
 10
158.795027837
 20
172.4472155514
 30
0.0
 11
158.795027837
 21
170.9180198811
 31
0.0
  0
LINE
  5
2E1
330
1F
100
AcDbEntity
  8
0
  6
HIDDEN
 62
     7
370
    18
100
AcDbLine
 10
158.795027837
 20
160.4472155514
 30
0.0
 11
158.795027837
 21
158.9180198811
 31
0.0
  0
LINE
  5
2E2
330
1F
100
AcDbEntity
  8
0
  6
HIDDEN
 62
     7
370
    18
100
AcDbLine
 10
158.795027837
 20
184.4472155514
 30
0.0
 11
158.795027837
 21
182.9180198811
 31
0.0
  0
LINE
  5
2E3
330
1F
100
AcDbEntity
  8
0
  6
HIDDEN
 62
     7
370
    18
100
AcDbLine
 10
158.795027837
 20
176.4472155514
 30
0.0
 11
158.795027837
 21
174.9180198811
 31
0.0
  0
LINE
  5
2E4
330
1F
100
AcDbEntity
  8
0
  6
HIDDEN
 62
     7
370
    18
100
AcDbLine
 10
158.795027837
 20
168.4472155514
 30
0.0
 11
158.795027837
 21
166.9180198811
 31
0.0
  0
LINE
  5
2E5
330
1F
100
AcDbEntity
  8
0
  6
HIDDEN
 62
     7
370
    18
100
AcDbLine
 10
160.2842505987
 20
181.1826177162
 30
0.0
 11
158.1580656999
 21
180.4472155514
 31
0.0
  0
LINE
  5
2E6
330
1F
100
AcDbEntity
  8
0
  6
HIDDEN
 62
     7
370
    18
100
AcDbLine
 10
157.8731103324
 20
180.4472155514
 30
0.0
 11
159.7143398637
 21
181.1826177162
 31
0.0
  0
ELLIPSE
  5
2E7
330
1F
100
AcDbEntity
  8
0
  6
HIDDEN
 62
     7
370
    18
100
AcDbEllipse
 10
201.0116786037
 20
196.3867745033
 30
0.0
 11
43.78941121517448
 21
15.71439675561188
 31
0.0
210
0.0
220
0.0
230
1.0
 40
0.0612845711
 41
3.293611152131973
 42
3.327859401251114
  0
LINE
  5
2E8
330
1F
100
AcDbEntity
  8
0
  6
HIDDEN
 62
     7
370
    18
100
AcDbLine
 10
160.2842505987
 20
161.1826177162
 30
0.0
 11
158.1580656999
 21
160.4472155514
 31
0.0
  0
LINE
  5
2E9
330
1F
100
AcDbEntity
  8
0
  6
HIDDEN
 62
     7
370
    18
100
AcDbLine
 10
157.8731103324
 20
160.4472155514
 30
0.0
 11
159.7143398637
 21
161.1826177162
 31
0.0
  0
ELLIPSE
  5
2EA
330
1F
100
AcDbEntity
  8
0
  6
HIDDEN
 62
     7
370
    18
100
AcDbEllipse
 10
201.0116786037
 20
176.3867745033
 30
0.0
 11
43.78941121517448
 21
15.71439675561188
 31
0.0
210
0.0
220
0.0
230
1.0
 40
0.0612845711
 41
3.293611152131972
 42
3.327859401251112
  0
LINE
  5
2EB
330
1F
100
AcDbEntity
  8
0
  6
HIDDEN
 62
     7
370
    18
100
AcDbLine
 10
157.8731103324
 20
182.9180198811
 30
0.0
 11
159.7143398637
 21
182.1826177162
 31
0.0
  0
LINE
  5
2EC
330
1F
100
AcDbEntity
  8
0
  6
HIDDEN
 62
     7
370
    18
100
AcDbLine
 10
160.2842505987
 20
182.1826177162
 30
0.0
 11
158.1580656999
 21
182.9180198811
 31
0.0
  0
ELLIPSE
  5
2ED
330
1F
100
AcDbEntity
  8
0
  6
HIDDEN
 62
     7
370
    18
100
AcDbEllipse
 10
201.0116786037
 20
166.9784609292
 30
0.0
 11
43.78941121517449
 21
-15.71439675561186
 31
0.0
210
0.0
220
0.0
230
1.0
 40
0.0612845711
 41
2.955325905928679
 42
2.989574155047815
  0
LINE
  5
2EE
330
1F
100
AcDbEntity
  8
0
  6
HIDDEN
 62
     7
370
    18
100
AcDbLine
 10
160.2842505987
 20
185.1826177162
 30
0.0
 11
158.1580656999
 21
184.4472155514
 31
0.0
  0
LINE
  5
2EF
330
1F
100
AcDbEntity
  8
0
  6
HIDDEN
 62
     7
370
    18
100
AcDbLine
 10
157.8731103324
 20
184.4472155514
 30
0.0
 11
159.7143398637
 21
185.1826177162
 31
0.0
  0
ELLIPSE
  5
2F0
330
1F
100
AcDbEntity
  8
0
  6
HIDDEN
 62
     7
370
    18
100
AcDbEllipse
 10
201.0116786037
 20
200.3867745033
 30
0.0
 11
43.78941121517448
 21
15.71439675561188
 31
0.0
210
0.0
220
0.0
230
1.0
 40
0.0612845711
 41
3.293611152131973
 42
3.327859401251114
  0
LINE
  5
2F1
330
1F
100
AcDbEntity
  8
0
  6
HIDDEN
 62
     7
370
    18
100
AcDbLine
 10
158.1580656999
 20
180.4472155514
 30
0.0
 11
158.1580656999
 21
178.9180198811
 31
0.0
  0
LINE
  5
2F2
330
1F
100
AcDbEntity
  8
0
  6
HIDDEN
 62
     7
370
    18
100
AcDbLine
 10
160.2842505987
 20
178.1826177162
 30
0.0
 11
158.1580656999
 21
178.9180198811
 31
0.0
  0
LINE
  5
2F3
330
1F
100
AcDbEntity
  8
0
  6
HIDDEN
 62
     7
370
    18
100
AcDbLine
 10
160.2842505987
 20
177.1826177162
 30
0.0
 11
158.1580656999
 21
176.4472155514
 31
0.0
  0
LINE
  5
2F4
330
1F
100
AcDbEntity
  8
0
  6
HIDDEN
 62
     7
370
    18
100
AcDbLine
 10
157.8731103324
 20
176.4472155514
 30
0.0
 11
159.7143398637
 21
177.1826177162
 31
0.0
  0
ELLIPSE
  5
2F5
330
1F
100
AcDbEntity
  8
0
  6
HIDDEN
 62
     7
370
    18
100
AcDbEllipse
 10
201.0116786037
 20
192.3867745033
 30
0.0
 11
43.78941121517448
 21
15.71439675561188
 31
0.0
210
0.0
220
0.0
230
1.0
 40
0.0612845711
 41
3.293611152131973
 42
3.327859401251114
  0
LINE
  5
2F6
330
1F
100
AcDbEntity
  8
0
  6
HIDDEN
 62
     7
370
    18
100
AcDbLine
 10
157.8731103324
 20
166.9180198811
 30
0.0
 11
159.7143398637
 21
166.1826177162
 31
0.0
  0
LINE
  5
2F7
330
1F
100
AcDbEntity
  8
0
  6
HIDDEN
 62
     7
370
    18
100
AcDbLine
 10
160.2842505987
 20
166.1826177162
 30
0.0
 11
158.1580656999
 21
166.9180198811
 31
0.0
  0
ELLIPSE
  5
2F8
330
1F
100
AcDbEntity
  8
0
  6
HIDDEN
 62
     7
370
    18
100
AcDbEllipse
 10
201.0116786037
 20
150.9784609292
 30
0.0
 11
43.78941121517448
 21
-15.71439675561188
 31
0.0
210
0.0
220
0.0
230
1.0
 40
0.0612845711
 41
2.955325905928693
 42
2.989574155047836
  0
LINE
  5
2F9
330
1F
100
AcDbEntity
  8
0
  6
HIDDEN
 62
     7
370
    18
100
AcDbLine
 10
160.2842505987
 20
169.1826177162
 30
0.0
 11
158.1580656999
 21
168.4472155514
 31
0.0
  0
LINE
  5
2FA
330
1F
100
AcDbEntity
  8
0
  6
HIDDEN
 62
     7
370
    18
100
AcDbLine
 10
157.8731103324
 20
168.4472155514
 30
0.0
 11
159.7143398637
 21
169.1826177162
 31
0.0
  0
ELLIPSE
  5
2FB
330
1F
100
AcDbEntity
  8
0
  6
HIDDEN
 62
     7
370
    18
100
AcDbEllipse
 10
201.0116786037
 20
184.3867745033
 30
0.0
 11
43.78941121517448
 21
15.71439675561191
 31
0.0
210
0.0
220
0.0
230
1.0
 40
0.0612845711
 41
3.293611152131953
 42
3.327859401251101
  0
LINE
  5
2FC
330
1F
100
AcDbEntity
  8
0
  6
HIDDEN
 62
     7
370
    18
100
AcDbLine
 10
157.8731103324
 20
174.9180198811
 30
0.0
 11
159.7143398637
 21
174.1826177162
 31
0.0
  0
LINE
  5
2FD
330
1F
100
AcDbEntity
  8
0
  6
HIDDEN
 62
     7
370
    18
100
AcDbLine
 10
160.2842505987
 20
174.1826177162
 30
0.0
 11
158.1580656999
 21
174.9180198811
 31
0.0
  0
ELLIPSE
  5
2FE
330
1F
100
AcDbEntity
  8
0
  6
HIDDEN
 62
     7
370
    18
100
AcDbEllipse
 10
201.0116786037
 20
158.9784609292
 30
0.0
 11
43.78941121517448
 21
-15.71439675561188
 31
0.0
210
0.0
220
0.0
230
1.0
 40
0.0612845711
 41
2.955325905928693
 42
2.989574155047843
  0
LINE
  5
2FF
330
1F
100
AcDbEntity
  8
0
  6
HIDDEN
 62
     7
370
    18
100
AcDbLine
 10
157.8731103324
 20
178.9180198811
 30
0.0
 11
159.7143398637
 21
178.1826177162
 31
0.0
  0
ELLIPSE
  5
300
330
1F
100
AcDbEntity
  8
0
  6
HIDDEN
 62
     7
370
    18
100
AcDbEllipse
 10
201.0116786037
 20
162.9784609292
 30
0.0
 11
43.78941121517449
 21
-15.71439675561186
 31
0.0
210
0.0
220
0.0
230
1.0
 40
0.0612845711
 41
2.955325905928687
 42
2.98957415504783
  0
LINE
  5
301
330
1F
100
AcDbEntity
  8
0
  6
HIDDEN
 62
     7
370
    18
100
AcDbLine
 10
158.1580656999
 20
176.4472155514
 30
0.0
 11
158.1580656999
 21
174.9180198811
 31
0.0
  0
LINE
  5
302
330
1F
100
AcDbEntity
  8
0
  6
HIDDEN
 62
     7
370
    18
100
AcDbLine
 10
160.2842505987
 20
173.1826177162
 30
0.0
 11
158.1580656999
 21
172.4472155514
 31
0.0
  0
LINE
  5
303
330
1F
100
AcDbEntity
  8
0
  6
HIDDEN
 62
     7
370
    18
100
AcDbLine
 10
157.8731103324
 20
172.4472155514
 30
0.0
 11
159.7143398637
 21
173.1826177162
 31
0.0
  0
ELLIPSE
  5
304
330
1F
100
AcDbEntity
  8
0
  6
HIDDEN
 62
     7
370
    18
100
AcDbEllipse
 10
201.0116786037
 20
188.3867745033
 30
0.0
 11
43.78941121517448
 21
15.71439675561188
 31
0.0
210
0.0
220
0.0
230
1.0
 40
0.0612845711
 41
3.293611152131973
 42
3.32785940125112
  0
LINE
  5
305
330
1F
100
AcDbEntity
  8
0
  6
HIDDEN
 62
     7
370
    18
100
AcDbLine
 10
160.2842505987
 20
165.1826177162
 30
0.0
 11
158.1580656999
 21
164.4472155514
 31
0.0
  0
LINE
  5
306
330
1F
100
AcDbEntity
  8
0
  6
HIDDEN
 62
     7
370
    18
100
AcDbLine
 10
157.8731103324
 20
164.4472155514
 30
0.0
 11
159.7143398637
 21
165.1826177162
 31
0.0
  0
ELLIPSE
  5
307
330
1F
100
AcDbEntity
  8
0
  6
HIDDEN
 62
     7
370
    18
100
AcDbEllipse
 10
201.0116786037
 20
180.3867745033
 30
0.0
 11
43.78941121517448
 21
15.71439675561188
 31
0.0
210
0.0
220
0.0
230
1.0
 40
0.0612845711
 41
3.293611152131973
 42
3.327859401251114
  0
LINE
  5
308
330
1F
100
AcDbEntity
  8
0
  6
HIDDEN
 62
     7
370
    18
100
AcDbLine
 10
157.8731103324
 20
158.9180198811
 30
0.0
 11
159.7143398637
 21
158.1826177162
 31
0.0
  0
LINE
  5
309
330
1F
100
AcDbEntity
  8
0
  6
HIDDEN
 62
     7
370
    18
100
AcDbLine
 10
160.2842505987
 20
158.1826177162
 30
0.0
 11
158.1580656999
 21
158.9180198811
 31
0.0
  0
ELLIPSE
  5
30A
330
1F
100
AcDbEntity
  8
0
  6
HIDDEN
 62
     7
370
    18
100
AcDbEllipse
 10
201.0116786037
 20
142.9784609292
 30
0.0
 11
43.78941121517448
 21
-15.7143967556119
 31
0.0
210
0.0
220
0.0
230
1.0
 40
0.0612845711
 41
2.955325905928698
 42
2.989574155047841
  0
LINE
  5
30B
330
1F
100
AcDbEntity
  8
0
  6
HIDDEN
 62
     7
370
    18
100
AcDbLine
 10
158.1580656999
 20
168.4472155514
 30
0.0
 11
158.1580656999
 21
166.9180198811
 31
0.0
  0
LINE
  5
30C
330
1F
100
AcDbEntity
  8
0
  6
HIDDEN
 62
     7
370
    18
100
AcDbLine
 10
158.1580656999
 20
160.4472155514
 30
0.0
 11
158.1580656999
 21
158.9180198811
 31
0.0
  0
LINE
  5
30D
330
1F
100
AcDbEntity
  8
0
  6
HIDDEN
 62
     7
370
    18
100
AcDbLine
 10
158.1580656999
 20
184.4472155514
 30
0.0
 11
158.1580656999
 21
182.9180198811
 31
0.0
  0
LINE
  5
30E
330
1F
100
AcDbEntity
  8
0
  6
HIDDEN
 62
     7
370
    18
100
AcDbLine
 10
158.1580656999
 20
172.4472155514
 30
0.0
 11
158.1580656999
 21
170.9180198811
 31
0.0
  0
LINE
  5
30F
330
1F
100
AcDbEntity
  8
0
  6
HIDDEN
 62
     7
370
    18
100
AcDbLine
 10
160.2842505987
 20
170.1826177162
 30
0.0
 11
158.1580656999
 21
170.9180198811
 31
0.0
  0
LINE
  5
310
330
1F
100
AcDbEntity
  8
0
  6
HIDDEN
 62
     7
370
    18
100
AcDbLine
 10
157.8731103324
 20
170.9180198811
 30
0.0
 11
159.7143398637
 21
170.1826177162
 31
0.0
  0
ELLIPSE
  5
311
330
1F
100
AcDbEntity
  8
0
  6
HIDDEN
 62
     7
370
    18
100
AcDbEllipse
 10
201.0116786037
 20
154.9784609292
 30
0.0
 11
43.78941121517448
 21
-15.71439675561188
 31
0.0
210
0.0
220
0.0
230
1.0
 40
0.0612845711
 41
2.955325905928693
 42
2.989574155047843
  0
LINE
  5
312
330
1F
100
AcDbEntity
  8
0
  6
HIDDEN
 62
     7
370
    18
100
AcDbLine
 10
158.1580656999
 20
164.4472155514
 30
0.0
 11
158.1580656999
 21
162.9180198811
 31
0.0
  0
LINE
  5
313
330
1F
100
AcDbEntity
  8
0
  6
HIDDEN
 62
     7
370
    18
100
AcDbLine
 10
160.2842505987
 20
162.1826177162
 30
0.0
 11
158.1580656999
 21
162.9180198811
 31
0.0
  0
LINE
  5
314
330
1F
100
AcDbEntity
  8
0
  6
HIDDEN
 62
     7
370
    18
100
AcDbLine
 10
157.8731103324
 20
162.9180198811
 30
0.0
 11
159.7143398637
 21
162.1826177162
 31
0.0
  0
ELLIPSE
  5
315
330
1F
100
AcDbEntity
  8
0
  6
HIDDEN
 62
     7
370
    18
100
AcDbEllipse
 10
201.0116786037
 20
146.9784609292
 30
0.0
 11
43.78941121517448
 21
-15.71439675561191
 31
0.0
210
0.0
220
0.0
230
1.0
 40
0.0612845711
 41
2.955325905928706
 42
2.989574155047843
  0
LINE
  5
316
330
1F
100
AcDbEntity
  8
0
  6
HIDDEN
 62
     7
370
    18
100
AcDbLine
 10
157.8731103324
 20
168.4472155514
 30
0.0
 11
157.8731103324
 21
166.9180198811
 31
0.0
  0
LINE
  5
317
330
1F
100
AcDbEntity
  8
0
  6
HIDDEN
 62
     7
370
    18
100
AcDbLine
 10
157.8731103324
 20
184.4472155514
 30
0.0
 11
157.8731103324
 21
182.9180198811
 31
0.0
  0
LINE
  5
318
330
1F
100
AcDbEntity
  8
0
  6
HIDDEN
 62
     7
370
    18
100
AcDbLine
 10
157.8731103324
 20
172.4472155514
 30
0.0
 11
157.8731103324
 21
170.9180198811
 31
0.0
  0
LINE
  5
319
330
1F
100
AcDbEntity
  8
0
  6
HIDDEN
 62
     7
370
    18
100
AcDbLine
 10
157.8731103324
 20
160.4472155514
 30
0.0
 11
157.8731103324
 21
158.9180198811
 31
0.0
  0
LINE
  5
31A
330
1F
100
AcDbEntity
  8
0
  6
HIDDEN
 62
     7
370
    18
100
AcDbLine
 10
157.8731103324
 20
180.4472155514
 30
0.0
 11
157.8731103324
 21
178.9180198811
 31
0.0
  0
LINE
  5
31B
330
1F
100
AcDbEntity
  8
0
  6
HIDDEN
 62
     7
370
    18
100
AcDbLine
 10
157.8731103324
 20
176.4472155514
 30
0.0
 11
157.8731103324
 21
174.9180198811
 31
0.0
  0
LINE
  5
31C
330
1F
100
AcDbEntity
  8
0
  6
HIDDEN
 62
     7
370
    18
100
AcDbLine
 10
157.8731103324
 20
164.4472155514
 30
0.0
 11
157.8731103324
 21
162.9180198811
 31
0.0
  0
LINE
  5
31D
330
1F
100
AcDbEntity
  8
0
  6
HIDDEN
 62
     7
370
    18
100
AcDbLine
 10
159.5716400921
 20
173.1826177162
 30
0.0
 11
157.4888641231
 21
172.4472155514
 31
0.0
  0
ELLIPSE
  5
31E
330
1F
100
AcDbEntity
  8
0
  6
HIDDEN
 62
     7
370
    18
100
AcDbEllipse
 10
154.9075765077
 20
171.6826177162
 30
0.0
 11
11.04670010577681
 21
3.998120885093357
 31
0.0
210
0.0
220
0.0
230
1.0
 40
0.0110978305
 41
4.934845392571962
 42
5.124885060314168
  0
ELLIPSE
  5
31F
330
1F
100
AcDbEntity
  8
0
  6
HIDDEN
 62
     7
370
    18
100
AcDbEllipse
 10
201.0116786037
 20
188.3867745033
 30
0.0
 11
43.79729284607554
 21
15.88525774934919
 31
0.0
210
0.0
220
0.0
230
1.0
 40
0.0306554398
 41
3.220244429499486
 42
3.243036582163398
  0
LINE
  5
320
330
1F
100
AcDbEntity
  8
0
  6
HIDDEN
 62
     7
370
    18
100
AcDbLine
 10
159.5716400921
 20
177.1826177162
 30
0.0
 11
157.4888641231
 21
176.4472155514
 31
0.0
  0
LINE
  5
321
330
1F
100
AcDbEntity
  8
0
  6
HIDDEN
 62
     7
370
    18
100
AcDbLine
 10
157.4888641231
 20
176.4472155514
 30
0.0
 11
157.4888641231
 21
174.9180198811
 31
0.0
  0
LINE
  5
322
330
1F
100
AcDbEntity
  8
0
  6
HIDDEN
 62
     7
370
    18
100
AcDbLine
 10
159.5716400921
 20
174.1826177162
 30
0.0
 11
157.4888641231
 21
174.9180198811
 31
0.0
  0
LINE
  5
323
330
1F
100
AcDbEntity
  8
0
  6
HIDDEN
 62
     7
370
    18
100
AcDbLine
 10
157.3459242573
 20
162.9180198811
 30
0.0
 11
159.2857603604
 21
162.1826177162
 31
0.0
  0
LINE
  5
324
330
1F
100
AcDbEntity
  8
0
  6
HIDDEN
 62
     7
370
    18
100
AcDbLine
 10
159.5716400921
 20
162.1826177162
 30
0.0
 11
157.4888641231
 21
162.9180198811
 31
0.0
  0
ELLIPSE
  5
325
330
1F
100
AcDbEntity
  8
0
  6
HIDDEN
 62
     7
370
    18
100
AcDbEllipse
 10
201.0116786037
 20
146.9784609292
 30
0.0
 11
43.79729284607555
 21
-15.88525774934922
 31
0.0
210
0.0
220
0.0
230
1.0
 40
0.0306554398
 41
3.04014872501667
 42
3.074396974135826
  0
LINE
  5
326
330
1F
100
AcDbEntity
  8
0
  6
HIDDEN
 62
     7
370
    18
100
AcDbLine
 10
157.4888641231
 20
172.4472155514
 30
0.0
 11
157.4888641231
 21
170.9180198811
 31
0.0
  0
LINE
  5
327
330
1F
100
AcDbEntity
  8
0
  6
HIDDEN
 62
     7
370
    18
100
AcDbLine
 10
159.5716400921
 20
170.1826177162
 30
0.0
 11
157.4888641231
 21
170.9180198811
 31
0.0
  0
ELLIPSE
  5
328
330
1F
100
AcDbEntity
  8
0
  6
HIDDEN
 62
     7
370
    18
100
AcDbEllipse
 10
201.0116786037
 20
154.9784609292
 30
0.0
 11
43.79729284607554
 21
-15.88525774934919
 31
0.0
210
0.0
220
0.0
230
1.0
 40
0.0306554398
 41
3.040148725016654
 42
3.062940877680582
  0
ELLIPSE
  5
329
330
1F
100
AcDbEntity
  8
0
  6
HIDDEN
 62
     7
370
    18
100
AcDbEllipse
 10
154.9075765077
 20
171.6826177162
 30
0.0
 11
11.04670010577684
 21
-3.998120885093357
 31
0.0
210
0.0
220
0.0
230
1.0
 40
0.0110978305
 41
1.158300246865479
 42
1.348339914607608
  0
ELLIPSE
  5
32A
330
1F
100
AcDbEntity
  8
0
  6
HIDDEN
 62
     7
370
    18
100
AcDbEllipse
 10
201.0116786037
 20
184.3867745033
 30
0.0
 11
43.79729284607555
 21
15.88525774934922
 31
0.0
210
0.0
220
0.0
230
1.0
 40
0.0306554398
 41
3.208788333044215
 42
3.243036582163369
  0
LINE
  5
32B
330
1F
100
AcDbEntity
  8
0
  6
HIDDEN
 62
     7
370
    18
100
AcDbLine
 10
159.5716400921
 20
169.1826177162
 30
0.0
 11
157.4888641231
 21
168.4472155514
 31
0.0
  0
ELLIPSE
  5
32C
330
1F
100
AcDbEntity
  8
0
  6
HIDDEN
 62
     7
370
    18
100
AcDbEllipse
 10
165.947727216
 20
171.6826177162
 30
0.0
 11
11.04670010577681
 21
3.998120885093357
 31
0.0
210
0.0
220
0.0
230
1.0
 40
0.0110978305
 41
3.969824295709836
 42
4.065824132886414
  0
LINE
  5
32D
330
1F
100
AcDbEntity
  8
0
  6
HIDDEN
 62
     7
370
    18
100
AcDbLine
 10
157.3459242573
 20
168.4472155514
 30
0.0
 11
158.5108629716
 21
168.8888500024
 31
0.0
  0
LINE
  5
32E
330
1F
100
AcDbEntity
  8
0
  6
HIDDEN
 62
     7
370
    18
100
AcDbLine
 10
159.5716400921
 20
181.1826177162
 30
0.0
 11
157.4888641231
 21
180.4472155514
 31
0.0
  0
LINE
  5
32F
330
1F
100
AcDbEntity
  8
0
  6
HIDDEN
 62
     7
370
    18
100
AcDbLine
 10
157.4888641231
 20
180.4472155514
 30
0.0
 11
157.4888641231
 21
178.9180198811
 31
0.0
  0
LINE
  5
330
330
1F
100
AcDbEntity
  8
0
  6
HIDDEN
 62
     7
370
    18
100
AcDbLine
 10
159.5716400921
 20
178.1826177162
 30
0.0
 11
157.4888641231
 21
178.9180198811
 31
0.0
  0
LINE
  5
331
330
1F
100
AcDbEntity
  8
0
  6
HIDDEN
 62
     7
370
    18
100
AcDbLine
 10
157.3459242573
 20
178.9180198811
 30
0.0
 11
159.2857603604
 21
178.1826177162
 31
0.0
  0
ELLIPSE
  5
332
330
1F
100
AcDbEntity
  8
0
  6
HIDDEN
 62
     7
370
    18
100
AcDbEllipse
 10
201.0116786037
 20
162.9784609292
 30
0.0
 11
43.79729284607554
 21
-15.88525774934919
 31
0.0
210
0.0
220
0.0
230
1.0
 40
0.0306554398
 41
3.040148725016668
 42
3.074396974135825
  0
LINE
  5
333
330
1F
100
AcDbEntity
  8
0
  6
HIDDEN
 62
     7
370
    18
100
AcDbLine
 10
157.3459242573
 20
176.4472155514
 30
0.0
 11
159.2857603604
 21
177.1826177162
 31
0.0
  0
ELLIPSE
  5
334
330
1F
100
AcDbEntity
  8
0
  6
HIDDEN
 62
     7
370
    18
100
AcDbEllipse
 10
201.0116786037
 20
192.3867745033
 30
0.0
 11
43.79729284607554
 21
15.88525774934919
 31
0.0
210
0.0
220
0.0
230
1.0
 40
0.0306554398
 41
3.208788333044244
 42
3.243036582163384
  0
LINE
  5
335
330
1F
100
AcDbEntity
  8
0
  6
HIDDEN
 62
     7
370
    18
100
AcDbLine
 10
157.4888641231
 20
168.4472155514
 30
0.0
 11
157.4888641231
 21
166.9180198811
 31
0.0
  0
LINE
  5
336
330
1F
100
AcDbEntity
  8
0
  6
HIDDEN
 62
     7
370
    18
100
AcDbLine
 10
159.5716400921
 20
166.1826177162
 30
0.0
 11
157.4888641231
 21
166.9180198811
 31
0.0
  0
LINE
  5
337
330
1F
100
AcDbEntity
  8
0
  6
HIDDEN
 62
     7
370
    18
100
AcDbLine
 10
159.5716400921
 20
165.1826177162
 30
0.0
 11
157.4888641231
 21
164.4472155514
 31
0.0
  0
LINE
  5
338
330
1F
100
AcDbEntity
  8
0
  6
HIDDEN
 62
     7
370
    18
100
AcDbLine
 10
157.4888641231
 20
164.4472155514
 30
0.0
 11
157.4888641231
 21
162.9180198811
 31
0.0
  0
LINE
  5
339
330
1F
100
AcDbEntity
  8
0
  6
HIDDEN
 62
     7
370
    18
100
AcDbLine
 10
159.5716400921
 20
161.1826177162
 30
0.0
 11
157.4888641231
 21
160.4472155514
 31
0.0
  0
LINE
  5
33A
330
1F
100
AcDbEntity
  8
0
  6
HIDDEN
 62
     7
370
    18
100
AcDbLine
 10
157.3459242573
 20
160.4472155514
 30
0.0
 11
159.2857603604
 21
161.1826177162
 31
0.0
  0
ELLIPSE
  5
33B
330
1F
100
AcDbEntity
  8
0
  6
HIDDEN
 62
     7
370
    18
100
AcDbEllipse
 10
201.0116786037
 20
176.3867745033
 30
0.0
 11
43.79729284607555
 21
15.88525774934922
 31
0.0
210
0.0
220
0.0
230
1.0
 40
0.0306554398
 41
3.2087883330442
 42
3.243036582163355
  0
LINE
  5
33C
330
1F
100
AcDbEntity
  8
0
  6
HIDDEN
 62
     7
370
    18
100
AcDbLine
 10
157.3459242573
 20
164.4472155514
 30
0.0
 11
159.2857603604
 21
165.1826177162
 31
0.0
  0
ELLIPSE
  5
33D
330
1F
100
AcDbEntity
  8
0
  6
HIDDEN
 62
     7
370
    18
100
AcDbEllipse
 10
201.0116786037
 20
180.3867745033
 30
0.0
 11
43.79729284607555
 21
15.88525774934922
 31
0.0
210
0.0
220
0.0
230
1.0
 40
0.0306554398
 41
3.2087883330442
 42
3.243036582163355
  0
LINE
  5
33E
330
1F
100
AcDbEntity
  8
0
  6
HIDDEN
 62
     7
370
    18
100
AcDbLine
 10
157.3459242573
 20
158.9180198811
 30
0.0
 11
159.2857603604
 21
158.1826177162
 31
0.0
  0
LINE
  5
33F
330
1F
100
AcDbEntity
  8
0
  6
HIDDEN
 62
     7
370
    18
100
AcDbLine
 10
159.5716400921
 20
158.1826177162
 30
0.0
 11
157.4888641231
 21
158.9180198811
 31
0.0
  0
ELLIPSE
  5
340
330
1F
100
AcDbEntity
  8
0
  6
HIDDEN
 62
     7
370
    18
100
AcDbEllipse
 10
201.0116786037
 20
142.9784609292
 30
0.0
 11
43.79729284607555
 21
-15.88525774934922
 31
0.0
210
0.0
220
0.0
230
1.0
 40
0.0306554398
 41
3.04014872501667
 42
3.074396974135826
  0
LINE
  5
341
330
1F
100
AcDbEntity
  8
0
  6
HIDDEN
 62
     7
370
    18
100
AcDbLine
 10
157.3459242573
 20
180.4472155514
 30
0.0
 11
159.2857603604
 21
181.1826177162
 31
0.0
  0
ELLIPSE
  5
342
330
1F
100
AcDbEntity
  8
0
  6
HIDDEN
 62
     7
370
    18
100
AcDbEllipse
 10
201.0116786037
 20
196.3867745033
 30
0.0
 11
43.79729284607555
 21
15.88525774934917
 31
0.0
210
0.0
220
0.0
230
1.0
 40
0.0306554398
 41
3.208788333044257
 42
3.243036582163396
  0
LINE
  5
343
330
1F
100
AcDbEntity
  8
0
  6
HIDDEN
 62
     7
370
    18
100
AcDbLine
 10
157.3459242573
 20
166.9180198811
 30
0.0
 11
159.2857603604
 21
166.1826177162
 31
0.0
  0
ELLIPSE
  5
344
330
1F
100
AcDbEntity
  8
0
  6
HIDDEN
 62
     7
370
    18
100
AcDbEllipse
 10
201.0116786037
 20
150.9784609292
 30
0.0
 11
43.79729284607555
 21
-15.88525774934922
 31
0.0
210
0.0
220
0.0
230
1.0
 40
0.0306554398
 41
3.040148725016668
 42
3.074396974135825
  0
LINE
  5
345
330
1F
100
AcDbEntity
  8
0
  6
HIDDEN
 62
     7
370
    18
100
AcDbLine
 10
159.5716400921
 20
185.1826177162
 30
0.0
 11
157.4888641231
 21
184.4472155514
 31
0.0
  0
LINE
  5
346
330
1F
100
AcDbEntity
  8
0
  6
HIDDEN
 62
     7
370
    18
100
AcDbLine
 10
157.3459242573
 20
184.4472155514
 30
0.0
 11
159.2857603604
 21
185.1826177162
 31
0.0
  0
ELLIPSE
  5
347
330
1F
100
AcDbEntity
  8
0
  6
HIDDEN
 62
     7
370
    18
100
AcDbEllipse
 10
201.0116786037
 20
200.3867745033
 30
0.0
 11
43.79729284607555
 21
15.88525774934917
 31
0.0
210
0.0
220
0.0
230
1.0
 40
0.0306554398
 41
3.208788333044257
 42
3.243036582163396
  0
ELLIPSE
  5
348
330
1F
100
AcDbEntity
  8
0
  6
HIDDEN
 62
     7
370
    18
100
AcDbEllipse
 10
201.0116786037
 20
158.9784609292
 30
0.0
 11
43.79729284607554
 21
-15.88525774934919
 31
0.0
210
0.0
220
0.0
230
1.0
 40
0.0306554398
 41
3.040148725016654
 42
3.074396974135796
  0
LINE
  5
349
330
1F
100
AcDbEntity
  8
0
  6
HIDDEN
 62
     7
370
    18
100
AcDbLine
 10
157.3459242573
 20
174.9180198811
 30
0.0
 11
158.5108629716
 21
174.4763854301
 31
0.0
  0
ELLIPSE
  5
34A
330
1F
100
AcDbEntity
  8
0
  6
HIDDEN
 62
     7
370
    18
100
AcDbEllipse
 10
165.947727216
 20
171.6826177162
 30
0.0
 11
11.04670010577681
 21
-3.998120885093357
 31
0.0
210
0.0
220
0.0
230
1.0
 40
0.0110978305
 41
2.217361174293771
 42
2.313361011470557
  0
LINE
  5
34B
330
1F
100
AcDbEntity
  8
0
  6
HIDDEN
 62
     7
370
    18
100
AcDbLine
 10
157.3459242573
 20
182.9180198811
 30
0.0
 11
159.2857603604
 21
182.1826177162
 31
0.0
  0
LINE
  5
34C
330
1F
100
AcDbEntity
  8
0
  6
HIDDEN
 62
     7
370
    18
100
AcDbLine
 10
159.5716400921
 20
182.1826177162
 30
0.0
 11
157.4888641231
 21
182.9180198811
 31
0.0
  0
ELLIPSE
  5
34D
330
1F
100
AcDbEntity
  8
0
  6
HIDDEN
 62
     7
370
    18
100
AcDbEllipse
 10
201.0116786037
 20
166.9784609292
 30
0.0
 11
43.79729284607554
 21
-15.88525774934919
 31
0.0
210
0.0
220
0.0
230
1.0
 40
0.0306554398
 41
3.040148725016654
 42
3.074396974135796
  0
LINE
  5
34E
330
1F
100
AcDbEntity
  8
0
  6
HIDDEN
 62
     7
370
    18
100
AcDbLine
 10
157.4888641231
 20
184.4472155514
 30
0.0
 11
157.4888641231
 21
182.9180198811
 31
0.0
  0
LINE
  5
34F
330
1F
100
AcDbEntity
  8
0
  6
HIDDEN
 62
     7
370
    18
100
AcDbLine
 10
157.4888641231
 20
160.4472155514
 30
0.0
 11
157.4888641231
 21
158.9180198811
 31
0.0
  0
SPLINE
  5
350
330
1F
100
AcDbEntity
  8
0
  6
HIDDEN
 62
     7
370
    18
100
AcDbSpline
210
0.0
220
0.0
230
1.0
 70
     8
 71
     3
 72
     8
 73
     4
 74
     0
 42
0.000000001
 43
0.00000001
 40
0.0
 40
0.0
 40
0.0
 40
0.0
 40
1.0
 40
1.0
 40
1.0
 40
1.0
 10
157.3880447389052
 20
172.4451343207517
 30
0.0
 10
157.3969303133923
 20
171.9367899177462
 30
0.0
 10
157.3969303133923
 20
171.4284455147406
 30
0.0
 10
157.3880447389052
 20
170.9201011117351
 30
0.0
  0
LINE
  5
351
330
1F
100
AcDbEntity
  8
0
  6
HIDDEN
 62
     7
370
    18
100
AcDbLine
 10
157.3459242573
 20
160.4472155514
 30
0.0
 11
157.3459242573
 21
158.9180198811
 31
0.0
  0
LINE
  5
352
330
1F
100
AcDbEntity
  8
0
  6
HIDDEN
 62
     7
370
    18
100
AcDbLine
 10
157.3459242573
 20
168.4472155514
 30
0.0
 11
157.3459242573
 21
166.9180198811
 31
0.0
  0
LINE
  5
353
330
1F
100
AcDbEntity
  8
0
  6
HIDDEN
 62
     7
370
    18
100
AcDbLine
 10
157.3459242573
 20
164.4472155514
 30
0.0
 11
157.3459242573
 21
162.9180198811
 31
0.0
  0
LINE
  5
354
330
1F
100
AcDbEntity
  8
0
  6
HIDDEN
 62
     7
370
    18
100
AcDbLine
 10
157.3459242573
 20
176.4472155514
 30
0.0
 11
157.3459242573
 21
174.9180198811
 31
0.0
  0
LINE
  5
355
330
1F
100
AcDbEntity
  8
0
  6
HIDDEN
 62
     7
370
    18
100
AcDbLine
 10
157.3459242573
 20
180.4472155514
 30
0.0
 11
157.3459242573
 21
178.9180198811
 31
0.0
  0
LINE
  5
356
330
1F
100
AcDbEntity
  8
0
  6
HIDDEN
 62
     7
370
    18
100
AcDbLine
 10
157.3459242573
 20
184.4472155514
 30
0.0
 11
157.3459242573
 21
182.9180198811
 31
0.0
  0
ELLIPSE
  5
357
330
1F
100
AcDbEntity
  8
0
  6
HIDDEN
 62
     7
370
    18
100
AcDbEllipse
 10
164.4239126342
 20
171.6826177162
 30
0.0
 11
8.262294991230874
 21
0.0
 31
0.0
210
0.0
220
0.0
230
1.0
 40
0.4841269894
 41
2.241936847629763
 42
2.368374567368247
  0
ELLIPSE
  5
358
330
1F
100
AcDbEntity
  8
0
  6
HIDDEN
 62
     7
370
    18
100
AcDbEllipse
 10
155.2291380507
 20
171.6826177162
 30
0.0
 11
10.76756371989825
 21
0.0
 31
0.0
210
0.0
220
0.0
230
1.0
 40
0.3714860765
 41
1.189278674170836
 42
1.385029453016897
  0
LINE
  5
359
330
1F
100
AcDbEntity
  8
0
  6
HIDDEN
 62
     7
370
    18
100
AcDbLine
 10
157.2182935295
 20
175.6095218739
 30
0.0
 11
157.2167386904
 21
175.6267943017
 31
0.0
  0
SPLINE
  5
35A
330
1F
100
AcDbEntity
  8
0
  6
HIDDEN
 62
     7
370
    18
100
AcDbSpline
210
0.0
220
0.0
230
1.0
 70
     8
 71
     3
 72
    10
 73
     6
 74
     0
 42
0.000000001
 43
0.00000001
 40
0.0
 40
0.0
 40
0.0
 40
0.0
 40
0.2231946730633134
 40
0.740006771081868
 40
1.0
 40
1.0
 40
1.0
 40
1.0
 10
157.2120783351988
 20
175.6782381392624
 30
0.0
 10
157.2119883076725
 20
175.6792234151188
 30
0.0
 10
157.2116898194601
 20
175.6824901185533
 30
0.0
 10
157.2140235792064
 20
175.656972136825
 30
0.0
 10
157.2169353818699
 20
175.6246240619391
 30
0.0
 10
157.2179099490494
 20
175.6137973076067
 30
0.0
  0
ELLIPSE
  5
35B
330
1F
100
AcDbEntity
  8
0
  6
HIDDEN
 62
     7
370
    18
100
AcDbEllipse
 10
155.1660143973
 20
171.6826177162
 30
0.0
 11
10.78445690041619
 21
0.0
 31
0.0
210
0.0
220
0.0
230
1.0
 40
0.3709041667
 41
1.183517099783334
 42
1.379328889926074
  0
ELLIPSE
  5
35C
330
1F
100
AcDbEntity
  8
0
  6
HIDDEN
 62
     7
370
    18
100
AcDbEllipse
 10
164.4625190491
 20
171.6826177162
 30
0.0
 11
8.25153215945312
 21
0.0
 31
0.0
210
0.0
220
0.0
230
1.0
 40
0.4847584573
 41
2.248767984554784
 42
2.371742177338957
  0
ELLIPSE
  5
35D
330
1F
100
AcDbEntity
  8
0
  6
HIDDEN
 62
     7
370
    18
100
AcDbEllipse
 10
165.9460058276
 20
171.6826177162
 30
0.0
 11
11.04731258704842
 21
-3.998100719375543
 31
0.0
210
0.0
220
0.0
230
1.0
 40
0.0111565871
 41
2.217144913923077
 42
2.30982934900724
  0
ELLIPSE
  5
35E
330
1F
100
AcDbEntity
  8
0
  6
HIDDEN
 62
     7
370
    18
100
AcDbEllipse
 10
154.9053131271
 20
171.6826177162
 30
0.0
 11
11.04731258704848
 21
3.998100719375543
 31
0.0
210
0.0
220
0.0
230
1.0
 40
0.0111565871
 41
4.935021750533895
 42
5.125063328898239
  0
ELLIPSE
  5
35F
330
1F
100
AcDbEntity
  8
0
  6
HIDDEN
 62
     7
370
    18
100
AcDbEllipse
 10
154.9053131271
 20
171.6826177162
 30
0.0
 11
11.04731258704845
 21
-3.998100719375543
 31
0.0
210
0.0
220
0.0
230
1.0
 40
0.0111565871
 41
1.158121978281609
 42
1.348163556645765
  0
ELLIPSE
  5
360
330
1F
100
AcDbEntity
  8
0
  6
HIDDEN
 62
     7
370
    18
100
AcDbEllipse
 10
165.9460058276
 20
171.6826177162
 30
0.0
 11
11.04731258704845
 21
3.998100719375543
 31
0.0
210
0.0
220
0.0
230
1.0
 40
0.0111565871
 41
3.97335595817285
 42
4.066040393257055
  0
ELLIPSE
  5
361
330
1F
100
AcDbEntity
  8
0
  6
HIDDEN
 62
     7
370
    18
100
AcDbEllipse
 10
164.4625190491
 20
171.6826177162
 30
0.0
 11
8.25153215945312
 21
0.0
 31
0.0
210
0.0
220
0.0
230
1.0
 40
0.4847584573
 41
3.911443129840647
 42
4.034417322624818
  0
ELLIPSE
  5
362
330
1F
100
AcDbEntity
  8
0
  6
HIDDEN
 62
     7
370
    18
100
AcDbEllipse
 10
155.1660143973
 20
171.6826177162
 30
0.0
 11
10.78445690041619
 21
0.0
 31
0.0
210
0.0
220
0.0
230
1.0
 40
0.3709041667
 41
4.903856417253518
 42
5.099668207396265
  0
SPLINE
  5
363
330
1F
100
AcDbEntity
  8
0
  6
HIDDEN
 62
     7
370
    18
100
AcDbSpline
210
0.0
220
0.0
230
1.0
 70
     8
 71
     3
 72
    10
 73
     6
 74
     0
 42
0.000000001
 43
0.00000001
 40
0.0
 40
0.0
 40
0.0
 40
0.0
 40
0.2479510931781914
 40
0.7464016601342776
 40
1.0
 40
1.0
 40
1.0
 40
1.0
 10
157.2179099490494
 20
167.7514381248801
 30
0.0
 10
157.2169756428776
 20
167.7410573662406
 30
0.0
 10
157.2141631217923
 20
167.7098083994275
 30
0.0
 10
157.2117800508523
 20
167.6837335165235
 30
0.0
 10
157.2120075232919
 20
167.6862224655795
 30
0.0
 10
157.2120842292515
 20
167.6870617638523
 30
0.0
  0
LINE
  5
364
330
1F
100
AcDbEntity
  8
0
  6
HIDDEN
 62
     7
370
    18
100
AcDbLine
 10
157.2161853408
 20
167.7322978582
 30
0.0
 11
157.2182935295
 21
167.7557135586
 31
0.0
  0
ELLIPSE
  5
365
330
1F
100
AcDbEntity
  8
0
  6
HIDDEN
 62
     7
370
    18
100
AcDbEllipse
 10
155.2291380507
 20
171.6826177162
 30
0.0
 11
10.76756371989825
 21
0.0
 31
0.0
210
0.0
220
0.0
230
1.0
 40
0.3714860765
 41
4.898155854162696
 42
5.093906633008757
  0
ELLIPSE
  5
366
330
1F
100
AcDbEntity
  8
0
  6
HIDDEN
 62
     7
370
    18
100
AcDbEllipse
 10
164.4239126342
 20
171.6826177162
 30
0.0
 11
8.262294991230874
 21
0.0
 31
0.0
210
0.0
220
0.0
230
1.0
 40
0.4841269894
 41
3.914810739811362
 42
4.041248459549838
  0
LINE
  5
367
330
1F
100
AcDbEntity
  8
0
  6
HIDDEN
 62
     7
370
    18
100
AcDbLine
 10
159.2382189349
 20
185.1826177162
 30
0.0
 11
157.217909949
 21
184.4472155514
 31
0.0
  0
LINE
  5
368
330
1F
100
AcDbEntity
  8
0
  6
HIDDEN
 62
     7
370
    18
100
AcDbLine
 10
157.217909949
 20
184.4472155514
 30
0.0
 11
157.217909949
 21
182.9180198811
 31
0.0
  0
LINE
  5
369
330
1F
100
AcDbEntity
  8
0
  6
HIDDEN
 62
     7
370
    18
100
AcDbLine
 10
159.2382189349
 20
182.1826177162
 30
0.0
 11
157.217909949
 21
182.9180198811
 31
0.0
  0
LINE
  5
36A
330
1F
100
AcDbEntity
  8
0
  6
HIDDEN
 62
     7
370
    18
100
AcDbLine
 10
157.2182935295
 20
178.9180198811
 30
0.0
 11
159.2389860957
 21
178.1826177162
 31
0.0
  0
LINE
  5
36B
330
1F
100
AcDbEntity
  8
0
  6
HIDDEN
 62
     7
370
    18
100
AcDbLine
 10
159.2382189349
 20
178.1826177162
 30
0.0
 11
157.217909949
 21
178.9180198811
 31
0.0
  0
ELLIPSE
  5
36C
330
1F
100
AcDbEntity
  8
0
  6
HIDDEN
 62
     7
370
    18
100
AcDbEllipse
 10
201.0116786037
 20
162.9784609292
 30
0.0
 11
43.80000002434821
 21
-15.94189587042635
 31
0.0
210
0.0
220
0.0
230
1.0
 40
0.0000821869
 41
3.12424272233662
 42
3.158490971653944
  0
LINE
  5
36D
330
1F
100
AcDbEntity
  8
0
  6
HIDDEN
 62
     7
370
    18
100
AcDbLine
 10
157.2182935295
 20
184.4472155514
 30
0.0
 11
159.2389860957
 21
185.1826177162
 31
0.0
  0
ELLIPSE
  5
36E
330
1F
100
AcDbEntity
  8
0
  6
HIDDEN
 62
     7
370
    18
100
AcDbEllipse
 10
201.0116786037
 20
200.3867745033
 30
0.0
 11
43.80000002435187
 21
15.94189587042768
 31
0.0
210
0.0
220
0.0
230
1.0
 40
0.0000821869
 41
3.124694335700805
 42
3.158942585018368
  0
LINE
  5
36F
330
1F
100
AcDbEntity
  8
0
  6
HIDDEN
 62
     7
370
    18
100
AcDbLine
 10
157.2182935295
 20
166.9180198811
 30
0.0
 11
159.2389860957
 21
166.1826177162
 31
0.0
  0
LINE
  5
370
330
1F
100
AcDbEntity
  8
0
  6
HIDDEN
 62
     7
370
    18
100
AcDbLine
 10
159.2382189349
 20
166.1826177162
 30
0.0
 11
157.217909949
 21
166.9180198811
 31
0.0
  0
ELLIPSE
  5
371
330
1F
100
AcDbEntity
  8
0
  6
HIDDEN
 62
     7
370
    18
100
AcDbEllipse
 10
201.0116786037
 20
150.9784609292
 30
0.0
 11
43.80000002434821
 21
-15.94189587042635
 31
0.0
210
0.0
220
0.0
230
1.0
 40
0.0000821869
 41
3.124242722325696
 42
3.15849097164866
  0
LINE
  5
372
330
1F
100
AcDbEntity
  8
0
  6
HIDDEN
 62
     7
370
    18
100
AcDbLine
 10
159.2382189349
 20
181.1826177162
 30
0.0
 11
157.217909949
 21
180.4472155514
 31
0.0
  0
LINE
  5
373
330
1F
100
AcDbEntity
  8
0
  6
HIDDEN
 62
     7
370
    18
100
AcDbLine
 10
157.217909949
 20
180.4472155514
 30
0.0
 11
157.217909949
 21
178.9180198811
 31
0.0
  0
LINE
  5
374
330
1F
100
AcDbEntity
  8
0
  6
HIDDEN
 62
     7
370
    18
100
AcDbLine
 10
157.2182935295
 20
182.9180198811
 30
0.0
 11
159.2389860957
 21
182.1826177162
 31
0.0
  0
ELLIPSE
  5
375
330
1F
100
AcDbEntity
  8
0
  6
HIDDEN
 62
     7
370
    18
100
AcDbEllipse
 10
201.0116786037
 20
166.9784609292
 30
0.0
 11
43.80000002434821
 21
-15.94189587042635
 31
0.0
210
0.0
220
0.0
230
1.0
 40
0.0000821869
 41
3.124242722325817
 42
3.158490971648542
  0
LINE
  5
376
330
1F
100
AcDbEntity
  8
0
  6
HIDDEN
 62
     7
370
    18
100
AcDbLine
 10
159.2382189349
 20
165.1826177162
 30
0.0
 11
157.217909949
 21
164.4472155514
 31
0.0
  0
LINE
  5
377
330
1F
100
AcDbEntity
  8
0
  6
HIDDEN
 62
     7
370
    18
100
AcDbLine
 10
157.217909949
 20
164.4472155514
 30
0.0
 11
157.217909949
 21
162.9180198811
 31
0.0
  0
LINE
  5
378
330
1F
100
AcDbEntity
  8
0
  6
HIDDEN
 62
     7
370
    18
100
AcDbLine
 10
159.2382189349
 20
162.1826177162
 30
0.0
 11
157.217909949
 21
162.9180198811
 31
0.0
  0
LINE
  5
379
330
1F
100
AcDbEntity
  8
0
  6
HIDDEN
 62
     7
370
    18
100
AcDbLine
 10
159.2382189349
 20
161.1826177162
 30
0.0
 11
157.217909949
 21
160.4472155514
 31
0.0
  0
LINE
  5
37A
330
1F
100
AcDbEntity
  8
0
  6
HIDDEN
 62
     7
370
    18
100
AcDbLine
 10
157.217909949
 20
160.4472155514
 30
0.0
 11
157.217909949
 21
158.9180198811
 31
0.0
  0
LINE
  5
37B
330
1F
100
AcDbEntity
  8
0
  6
HIDDEN
 62
     7
370
    18
100
AcDbLine
 10
159.2382189349
 20
158.1826177162
 30
0.0
 11
157.217909949
 21
158.9180198811
 31
0.0
  0
LINE
  5
37C
330
1F
100
AcDbEntity
  8
0
  6
HIDDEN
 62
     7
370
    18
100
AcDbLine
 10
157.2182935295
 20
180.4472155514
 30
0.0
 11
159.2389860957
 21
181.1826177162
 31
0.0
  0
ELLIPSE
  5
37D
330
1F
100
AcDbEntity
  8
0
  6
HIDDEN
 62
     7
370
    18
100
AcDbEllipse
 10
201.0116786037
 20
196.3867745033
 30
0.0
 11
43.80000002435187
 21
15.94189587042768
 31
0.0
210
0.0
220
0.0
230
1.0
 40
0.0000821869
 41
3.124694335700805
 42
3.158942585018368
  0
LINE
  5
37E
330
1F
100
AcDbEntity
  8
0
  6
HIDDEN
 62
     7
370
    18
100
AcDbLine
 10
159.2382189349
 20
177.1826177162
 30
0.0
 11
157.217909949
 21
176.4472155514
 31
0.0
  0
LINE
  5
37F
330
1F
100
AcDbEntity
  8
0
  6
HIDDEN
 62
     7
370
    18
100
AcDbLine
 10
157.217909949
 20
176.4472155514
 30
0.0
 11
157.217909949
 21
175.6137973076
 31
0.0
  0
LINE
  5
380
330
1F
100
AcDbEntity
  8
0
  6
HIDDEN
 62
     7
370
    18
100
AcDbLine
 10
157.2182935295
 20
158.9180198811
 30
0.0
 11
159.2389860957
 21
158.1826177162
 31
0.0
  0
ELLIPSE
  5
381
330
1F
100
AcDbEntity
  8
0
  6
HIDDEN
 62
     7
370
    18
100
AcDbEllipse
 10
201.0116786037
 20
142.9784609292
 30
0.0
 11
43.80000002434821
 21
-15.94189587042634
 31
0.0
210
0.0
220
0.0
230
1.0
 40
0.0000821869
 41
3.124242722325696
 42
3.15849097164866
  0
LINE
  5
382
330
1F
100
AcDbEntity
  8
0
  6
HIDDEN
 62
     7
370
    18
100
AcDbLine
 10
157.2182935295
 20
160.4472155514
 30
0.0
 11
159.2389860957
 21
161.1826177162
 31
0.0
  0
ELLIPSE
  5
383
330
1F
100
AcDbEntity
  8
0
  6
HIDDEN
 62
     7
370
    18
100
AcDbEllipse
 10
201.0116786037
 20
176.3867745033
 30
0.0
 11
43.80000002435187
 21
15.94189587042768
 31
0.0
210
0.0
220
0.0
230
1.0
 40
0.0000821869
 41
3.124694335690119
 42
3.158942585012845
  0
LINE
  5
384
330
1F
100
AcDbEntity
  8
0
  6
HIDDEN
 62
     7
370
    18
100
AcDbLine
 10
157.2182935295
 20
162.9180198811
 30
0.0
 11
159.2389860957
 21
162.1826177162
 31
0.0
  0
ELLIPSE
  5
385
330
1F
100
AcDbEntity
  8
0
  6
HIDDEN
 62
     7
370
    18
100
AcDbEllipse
 10
201.0116786037
 20
146.9784609292
 30
0.0
 11
43.8000000243482
 21
-15.94189587042632
 31
0.0
210
0.0
220
0.0
230
1.0
 40
0.0000821869
 41
3.124242722320294
 42
3.158490971643258
  0
LINE
  5
386
330
1F
100
AcDbEntity
  8
0
  6
HIDDEN
 62
     7
370
    18
100
AcDbLine
 10
157.2182935295
 20
176.4472155514
 30
0.0
 11
159.2389860957
 21
177.1826177162
 31
0.0
  0
ELLIPSE
  5
387
330
1F
100
AcDbEntity
  8
0
  6
HIDDEN
 62
     7
370
    18
100
AcDbEllipse
 10
201.0116786037
 20
192.3867745033
 30
0.0
 11
43.80000002435187
 21
15.94189587042768
 31
0.0
210
0.0
220
0.0
230
1.0
 40
0.0000821869
 41
3.124694335700805
 42
3.158942585018368
  0
LINE
  5
388
330
1F
100
AcDbEntity
  8
0
  6
HIDDEN
 62
     7
370
    18
100
AcDbLine
 10
157.217909949
 20
167.7514381249
 30
0.0
 11
157.217909949
 21
166.9180198811
 31
0.0
  0
LINE
  5
389
330
1F
100
AcDbEntity
  8
0
  6
HIDDEN
 62
     7
370
    18
100
AcDbLine
 10
157.2182935295
 20
164.4472155514
 30
0.0
 11
159.2389860957
 21
165.1826177162
 31
0.0
  0
ELLIPSE
  5
38A
330
1F
100
AcDbEntity
  8
0
  6
HIDDEN
 62
     7
370
    18
100
AcDbEllipse
 10
201.0116786037
 20
180.3867745033
 30
0.0
 11
43.80000002435187
 21
15.94189587042768
 31
0.0
210
0.0
220
0.0
230
1.0
 40
0.0000821869
 41
3.124694335690119
 42
3.158942585012845
  0
LINE
  5
38B
330
1F
100
AcDbEntity
  8
0
  6
HIDDEN
 62
     7
370
    18
100
AcDbLine
 10
157.2182935295
 20
176.4472155514
 30
0.0
 11
157.2182935295
 21
175.6095218739
 31
0.0
  0
LINE
  5
38C
330
1F
100
AcDbEntity
  8
0
  6
HIDDEN
 62
     7
370
    18
100
AcDbLine
 10
157.2182935295
 20
167.7557135586
 30
0.0
 11
157.2182935295
 21
166.9180198811
 31
0.0
  0
LINE
  5
38D
330
1F
100
AcDbEntity
  8
0
  6
HIDDEN
 62
     7
370
    18
100
AcDbLine
 10
157.2182935295
 20
180.4472155514
 30
0.0
 11
157.2182935295
 21
178.9180198811
 31
0.0
  0
LINE
  5
38E
330
1F
100
AcDbEntity
  8
0
  6
HIDDEN
 62
     7
370
    18
100
AcDbLine
 10
157.2182935295
 20
164.4472155514
 30
0.0
 11
157.2182935295
 21
162.9180198811
 31
0.0
  0
LINE
  5
38F
330
1F
100
AcDbEntity
  8
0
  6
HIDDEN
 62
     7
370
    18
100
AcDbLine
 10
157.2182935295
 20
160.4472155514
 30
0.0
 11
157.2182935295
 21
158.9180198811
 31
0.0
  0
LINE
  5
390
330
1F
100
AcDbEntity
  8
0
  6
HIDDEN
 62
     7
370
    18
100
AcDbLine
 10
157.2182935295
 20
184.4472155514
 30
0.0
 11
157.2182935295
 21
182.9180198811
 31
0.0
  0
LINE
  5
391
330
1F
100
AcDbEntity
  8
0
  6
HIDDEN
 62
     7
370
    18
100
AcDbLine
 10
157.4913860102
 20
162.9180198811
 30
0.0
 11
159.5744450688
 21
162.1826177162
 31
0.0
  0
LINE
  5
392
330
1F
100
AcDbEntity
  8
0
  6
HIDDEN
 62
     7
370
    18
100
AcDbLine
 10
159.2870380352
 20
162.1826177162
 30
0.0
 11
157.3476824934
 21
162.9180198811
 31
0.0
  0
LINE
  5
393
330
1F
100
AcDbEntity
  8
0
  6
HIDDEN
 62
     7
370
    18
100
AcDbLine
 10
157.4913860102
 20
182.9180198811
 30
0.0
 11
159.5744450688
 21
182.1826177162
 31
0.0
  0
LINE
  5
394
330
1F
100
AcDbEntity
  8
0
  6
HIDDEN
 62
     7
370
    18
100
AcDbLine
 10
159.2870380352
 20
182.1826177162
 30
0.0
 11
157.3476824934
 21
182.9180198811
 31
0.0
  0
LINE
  5
395
330
1F
100
AcDbEntity
  8
0
  6
HIDDEN
 62
     7
370
    18
100
AcDbLine
 10
159.2870380352
 20
161.1826177162
 30
0.0
 11
157.3476824934
 21
160.4472155514
 31
0.0
  0
LINE
  5
396
330
1F
100
AcDbEntity
  8
0
  6
HIDDEN
 62
     7
370
    18
100
AcDbLine
 10
157.4913860102
 20
160.4472155514
 30
0.0
 11
159.5744450688
 21
161.1826177162
 31
0.0
  0
LINE
  5
397
330
1F
100
AcDbEntity
  8
0
  6
HIDDEN
 62
     7
370
    18
100
AcDbLine
 10
159.2870380352
 20
181.1826177162
 30
0.0
 11
157.3476824934
 21
180.4472155514
 31
0.0
  0
LINE
  5
398
330
1F
100
AcDbEntity
  8
0
  6
HIDDEN
 62
     7
370
    18
100
AcDbLine
 10
157.4913860102
 20
180.4472155514
 30
0.0
 11
159.5744450688
 21
181.1826177162
 31
0.0
  0
LINE
  5
399
330
1F
100
AcDbEntity
  8
0
  6
HIDDEN
 62
     7
370
    18
100
AcDbLine
 10
159.2870380352
 20
185.1826177162
 30
0.0
 11
157.3476824934
 21
184.4472155514
 31
0.0
  0
LINE
  5
39A
330
1F
100
AcDbEntity
  8
0
  6
HIDDEN
 62
     7
370
    18
100
AcDbLine
 10
157.4913860102
 20
184.4472155514
 30
0.0
 11
159.5744450688
 21
185.1826177162
 31
0.0
  0
LINE
  5
39B
330
1F
100
AcDbEntity
  8
0
  6
HIDDEN
 62
     7
370
    18
100
AcDbLine
 10
159.2870380352
 20
165.1826177162
 30
0.0
 11
157.3476824934
 21
164.4472155514
 31
0.0
  0
LINE
  5
39C
330
1F
100
AcDbEntity
  8
0
  6
HIDDEN
 62
     7
370
    18
100
AcDbLine
 10
157.4913860102
 20
164.4472155514
 30
0.0
 11
159.5744450688
 21
165.1826177162
 31
0.0
  0
LINE
  5
39D
330
1F
100
AcDbEntity
  8
0
  6
HIDDEN
 62
     7
370
    18
100
AcDbLine
 10
157.4913860102
 20
166.9180198811
 30
0.0
 11
159.5744450688
 21
166.1826177162
 31
0.0
  0
LINE
  5
39E
330
1F
100
AcDbEntity
  8
0
  6
HIDDEN
 62
     7
370
    18
100
AcDbLine
 10
159.2870380352
 20
166.1826177162
 30
0.0
 11
157.3476824934
 21
166.9180198811
 31
0.0
  0
LINE
  5
39F
330
1F
100
AcDbEntity
  8
0
  6
HIDDEN
 62
     7
370
    18
100
AcDbLine
 10
157.4913860102
 20
178.9180198811
 30
0.0
 11
159.5744450688
 21
178.1826177162
 31
0.0
  0
LINE
  5
3A0
330
1F
100
AcDbEntity
  8
0
  6
HIDDEN
 62
     7
370
    18
100
AcDbLine
 10
159.2870380352
 20
178.1826177162
 30
0.0
 11
157.3476824934
 21
178.9180198811
 31
0.0
  0
LINE
  5
3A1
330
1F
100
AcDbEntity
  8
0
  6
HIDDEN
 62
     7
370
    18
100
AcDbLine
 10
159.2870380352
 20
177.1826177162
 30
0.0
 11
157.3476824934
 21
176.4472155514
 31
0.0
  0
LINE
  5
3A2
330
1F
100
AcDbEntity
  8
0
  6
HIDDEN
 62
     7
370
    18
100
AcDbLine
 10
157.4913860102
 20
176.4472155514
 30
0.0
 11
159.5744450688
 21
177.1826177162
 31
0.0
  0
LINE
  5
3A3
330
1F
100
AcDbEntity
  8
0
  6
HIDDEN
 62
     7
370
    18
100
AcDbLine
 10
157.4913860102
 20
158.9180198811
 30
0.0
 11
159.5744450688
 21
158.1826177162
 31
0.0
  0
LINE
  5
3A4
330
1F
100
AcDbEntity
  8
0
  6
HIDDEN
 62
     7
370
    18
100
AcDbLine
 10
159.2870380352
 20
158.1826177162
 30
0.0
 11
157.3476824934
 21
158.9180198811
 31
0.0
  0
LINE
  5
3A5
330
1F
100
AcDbEntity
  8
0
  6
HIDDEN
 62
     7
370
    18
100
AcDbLine
 10
157.3476824934
 20
164.4472155514
 30
0.0
 11
157.3476824934
 21
162.9180198811
 31
0.0
  0
LINE
  5
3A6
330
1F
100
AcDbEntity
  8
0
  6
HIDDEN
 62
     7
370
    18
100
AcDbLine
 10
157.3476824934
 20
176.4472155514
 30
0.0
 11
157.3476824934
 21
174.9180198811
 31
0.0
  0
LINE
  5
3A7
330
1F
100
AcDbEntity
  8
0
  6
HIDDEN
 62
     7
370
    18
100
AcDbLine
 10
158.5377972458
 20
174.4667292608
 30
0.0
 11
157.3476824934
 21
174.9180198811
 31
0.0
  0
LINE
  5
3A8
330
1F
100
AcDbEntity
  8
0
  6
HIDDEN
 62
     7
370
    18
100
AcDbLine
 10
157.3476824934
 20
184.4472155514
 30
0.0
 11
157.3476824934
 21
182.9180198811
 31
0.0
  0
LINE
  5
3A9
330
1F
100
AcDbEntity
  8
0
  6
HIDDEN
 62
     7
370
    18
100
AcDbLine
 10
158.5377972458
 20
168.8985061716
 30
0.0
 11
157.3476824934
 21
168.4472155514
 31
0.0
  0
LINE
  5
3AA
330
1F
100
AcDbEntity
  8
0
  6
HIDDEN
 62
     7
370
    18
100
AcDbLine
 10
157.3476824934
 20
168.4472155514
 30
0.0
 11
157.3476824934
 21
166.9180198811
 31
0.0
  0
LINE
  5
3AB
330
1F
100
AcDbEntity
  8
0
  6
HIDDEN
 62
     7
370
    18
100
AcDbLine
 10
157.3476824934
 20
180.4472155514
 30
0.0
 11
157.3476824934
 21
178.9180198811
 31
0.0
  0
LINE
  5
3AC
330
1F
100
AcDbEntity
  8
0
  6
HIDDEN
 62
     7
370
    18
100
AcDbLine
 10
157.3476824934
 20
160.4472155514
 30
0.0
 11
157.3476824934
 21
158.9180198811
 31
0.0
  0
LINE
  5
3AD
330
1F
100
AcDbEntity
  8
0
  6
HIDDEN
 62
     7
370
    18
100
AcDbLine
 10
157.4913860102
 20
168.4472155514
 30
0.0
 11
159.5744450688
 21
169.1826177162
 31
0.0
  0
LINE
  5
3AE
330
1F
100
AcDbEntity
  8
0
  6
HIDDEN
 62
     7
370
    18
100
AcDbLine
 10
157.4913860102
 20
174.9180198811
 30
0.0
 11
159.5744450688
 21
174.1826177162
 31
0.0
  0
LINE
  5
3AF
330
1F
100
AcDbEntity
  8
0
  6
HIDDEN
 62
     7
370
    18
100
AcDbLine
 10
157.4913860102
 20
184.4472155514
 30
0.0
 11
157.4913860102
 21
182.9180198811
 31
0.0
  0
LINE
  5
3B0
330
1F
100
AcDbEntity
  8
0
  6
HIDDEN
 62
     7
370
    18
100
AcDbLine
 10
157.4913860102
 20
176.4472155514
 30
0.0
 11
157.4913860102
 21
174.9180198811
 31
0.0
  0
LINE
  5
3B1
330
1F
100
AcDbEntity
  8
0
  6
HIDDEN
 62
     7
370
    18
100
AcDbLine
 10
157.4913860102
 20
168.4472155514
 30
0.0
 11
157.4913860102
 21
166.9180198811
 31
0.0
  0
LINE
  5
3B2
330
1F
100
AcDbEntity
  8
0
  6
HIDDEN
 62
     7
370
    18
100
AcDbLine
 10
157.4913860102
 20
180.4472155514
 30
0.0
 11
157.4913860102
 21
178.9180198811
 31
0.0
  0
LINE
  5
3B3
330
1F
100
AcDbEntity
  8
0
  6
HIDDEN
 62
     7
370
    18
100
AcDbLine
 10
157.4913860102
 20
160.4472155514
 30
0.0
 11
157.4913860102
 21
158.9180198811
 31
0.0
  0
LINE
  5
3B4
330
1F
100
AcDbEntity
  8
0
  6
HIDDEN
 62
     7
370
    18
100
AcDbLine
 10
157.4913860102
 20
164.4472155514
 30
0.0
 11
157.4913860102
 21
162.9180198811
 31
0.0
  0
LINE
  5
3B5
330
1F
100
AcDbEntity
  8
0
  6
HIDDEN
 62
     7
370
    18
100
AcDbLine
 10
157.4913860102
 20
172.4472155514
 30
0.0
 11
157.4913860102
 21
170.9180198811
 31
0.0
  0
LINE
  5
3B6
330
1F
100
AcDbEntity
  8
0
  6
HIDDEN
 62
     7
370
    18
100
AcDbLine
 10
157.4913860102
 20
170.9180198811
 30
0.0
 11
159.5744450688
 21
170.1826177162
 31
0.0
  0
LINE
  5
3B7
330
1F
100
AcDbEntity
  8
0
  6
HIDDEN
 62
     7
370
    18
100
AcDbLine
 10
157.4913860102
 20
172.4472155514
 30
0.0
 11
159.5744450688
 21
173.1826177162
 31
0.0
  0
LINE
  5
3B8
330
1F
100
AcDbEntity
  8
0
  6
HIDDEN
 62
     7
370
    18
100
AcDbLine
 10
158.1627028175
 20
170.9180198811
 30
0.0
 11
160.2890677248
 21
170.1826177162
 31
0.0
  0
LINE
  5
3B9
330
1F
100
AcDbEntity
  8
0
  6
HIDDEN
 62
     7
370
    18
100
AcDbLine
 10
159.717650683
 20
170.1826177162
 30
0.0
 11
157.8769942966
 21
170.9180198811
 31
0.0
  0
LINE
  5
3BA
330
1F
100
AcDbEntity
  8
0
  6
HIDDEN
 62
     7
370
    18
100
AcDbLine
 10
158.1627028175
 20
178.9180198811
 30
0.0
 11
160.2890677248
 21
178.1826177162
 31
0.0
  0
LINE
  5
3BB
330
1F
100
AcDbEntity
  8
0
  6
HIDDEN
 62
     7
370
    18
100
AcDbLine
 10
159.717650683
 20
178.1826177162
 30
0.0
 11
157.8769942966
 21
178.9180198811
 31
0.0
  0
LINE
  5
3BC
330
1F
100
AcDbEntity
  8
0
  6
HIDDEN
 62
     7
370
    18
100
AcDbLine
 10
158.1627028175
 20
182.9180198811
 30
0.0
 11
160.2890677248
 21
182.1826177162
 31
0.0
  0
LINE
  5
3BD
330
1F
100
AcDbEntity
  8
0
  6
HIDDEN
 62
     7
370
    18
100
AcDbLine
 10
159.717650683
 20
182.1826177162
 30
0.0
 11
157.8769942966
 21
182.9180198811
 31
0.0
  0
LINE
  5
3BE
330
1F
100
AcDbEntity
  8
0
  6
HIDDEN
 62
     7
370
    18
100
AcDbLine
 10
158.1627028175
 20
158.9180198811
 30
0.0
 11
160.2890677248
 21
158.1826177162
 31
0.0
  0
LINE
  5
3BF
330
1F
100
AcDbEntity
  8
0
  6
HIDDEN
 62
     7
370
    18
100
AcDbLine
 10
159.717650683
 20
158.1826177162
 30
0.0
 11
157.8769942966
 21
158.9180198811
 31
0.0
  0
LINE
  5
3C0
330
1F
100
AcDbEntity
  8
0
  6
HIDDEN
 62
     7
370
    18
100
AcDbLine
 10
159.717650683
 20
161.1826177162
 30
0.0
 11
157.8769942966
 21
160.4472155514
 31
0.0
  0
LINE
  5
3C1
330
1F
100
AcDbEntity
  8
0
  6
HIDDEN
 62
     7
370
    18
100
AcDbLine
 10
158.1627028175
 20
160.4472155514
 30
0.0
 11
160.2890677248
 21
161.1826177162
 31
0.0
  0
LINE
  5
3C2
330
1F
100
AcDbEntity
  8
0
  6
HIDDEN
 62
     7
370
    18
100
AcDbLine
 10
158.1627028175
 20
166.9180198811
 30
0.0
 11
160.2890677248
 21
166.1826177162
 31
0.0
  0
LINE
  5
3C3
330
1F
100
AcDbEntity
  8
0
  6
HIDDEN
 62
     7
370
    18
100
AcDbLine
 10
159.717650683
 20
166.1826177162
 30
0.0
 11
157.8769942966
 21
166.9180198811
 31
0.0
  0
LINE
  5
3C4
330
1F
100
AcDbEntity
  8
0
  6
HIDDEN
 62
     7
370
    18
100
AcDbLine
 10
159.717650683
 20
173.1826177162
 30
0.0
 11
157.8769942966
 21
172.4472155514
 31
0.0
  0
LINE
  5
3C5
330
1F
100
AcDbEntity
  8
0
  6
HIDDEN
 62
     7
370
    18
100
AcDbLine
 10
158.1627028175
 20
172.4472155514
 30
0.0
 11
160.2890677248
 21
173.1826177162
 31
0.0
  0
LINE
  5
3C6
330
1F
100
AcDbEntity
  8
0
  6
HIDDEN
 62
     7
370
    18
100
AcDbLine
 10
158.1627028175
 20
174.9180198811
 30
0.0
 11
160.2890677248
 21
174.1826177162
 31
0.0
  0
LINE
  5
3C7
330
1F
100
AcDbEntity
  8
0
  6
HIDDEN
 62
     7
370
    18
100
AcDbLine
 10
159.717650683
 20
174.1826177162
 30
0.0
 11
157.8769942966
 21
174.9180198811
 31
0.0
  0
LINE
  5
3C8
330
1F
100
AcDbEntity
  8
0
  6
HIDDEN
 62
     7
370
    18
100
AcDbLine
 10
159.717650683
 20
181.1826177162
 30
0.0
 11
157.8769942966
 21
180.4472155514
 31
0.0
  0
LINE
  5
3C9
330
1F
100
AcDbEntity
  8
0
  6
HIDDEN
 62
     7
370
    18
100
AcDbLine
 10
158.1627028175
 20
180.4472155514
 30
0.0
 11
160.2890677248
 21
181.1826177162
 31
0.0
  0
LINE
  5
3CA
330
1F
100
AcDbEntity
  8
0
  6
HIDDEN
 62
     7
370
    18
100
AcDbLine
 10
159.717650683
 20
169.1826177162
 30
0.0
 11
157.8769942966
 21
168.4472155514
 31
0.0
  0
LINE
  5
3CB
330
1F
100
AcDbEntity
  8
0
  6
HIDDEN
 62
     7
370
    18
100
AcDbLine
 10
158.1627028175
 20
168.4472155514
 30
0.0
 11
160.2890677248
 21
169.1826177162
 31
0.0
  0
LINE
  5
3CC
330
1F
100
AcDbEntity
  8
0
  6
HIDDEN
 62
     7
370
    18
100
AcDbLine
 10
158.1627028175
 20
162.9180198811
 30
0.0
 11
160.2890677248
 21
162.1826177162
 31
0.0
  0
LINE
  5
3CD
330
1F
100
AcDbEntity
  8
0
  6
HIDDEN
 62
     7
370
    18
100
AcDbLine
 10
159.717650683
 20
162.1826177162
 30
0.0
 11
157.8769942966
 21
162.9180198811
 31
0.0
  0
LINE
  5
3CE
330
1F
100
AcDbEntity
  8
0
  6
HIDDEN
 62
     7
370
    18
100
AcDbLine
 10
159.717650683
 20
177.1826177162
 30
0.0
 11
157.8769942966
 21
176.4472155514
 31
0.0
  0
LINE
  5
3CF
330
1F
100
AcDbEntity
  8
0
  6
HIDDEN
 62
     7
370
    18
100
AcDbLine
 10
158.1627028175
 20
176.4472155514
 30
0.0
 11
160.2890677248
 21
177.1826177162
 31
0.0
  0
LINE
  5
3D0
330
1F
100
AcDbEntity
  8
0
  6
HIDDEN
 62
     7
370
    18
100
AcDbLine
 10
159.717650683
 20
185.1826177162
 30
0.0
 11
157.8769942966
 21
184.4472155514
 31
0.0
  0
LINE
  5
3D1
330
1F
100
AcDbEntity
  8
0
  6
HIDDEN
 62
     7
370
    18
100
AcDbLine
 10
158.1627028175
 20
184.4472155514
 30
0.0
 11
160.2890677248
 21
185.1826177162
 31
0.0
  0
LINE
  5
3D2
330
1F
100
AcDbEntity
  8
0
  6
HIDDEN
 62
     7
370
    18
100
AcDbLine
 10
159.717650683
 20
165.1826177162
 30
0.0
 11
157.8769942966
 21
164.4472155514
 31
0.0
  0
LINE
  5
3D3
330
1F
100
AcDbEntity
  8
0
  6
HIDDEN
 62
     7
370
    18
100
AcDbLine
 10
158.1627028175
 20
164.4472155514
 30
0.0
 11
160.2890677248
 21
165.1826177162
 31
0.0
  0
LINE
  5
3D4
330
1F
100
AcDbEntity
  8
0
  6
HIDDEN
 62
     7
370
    18
100
AcDbLine
 10
157.8769942966
 20
172.4472155514
 30
0.0
 11
157.8769942966
 21
170.9180198811
 31
0.0
  0
LINE
  5
3D5
330
1F
100
AcDbEntity
  8
0
  6
HIDDEN
 62
     7
370
    18
100
AcDbLine
 10
157.8769942966
 20
160.4472155514
 30
0.0
 11
157.8769942966
 21
158.9180198811
 31
0.0
  0
LINE
  5
3D6
330
1F
100
AcDbEntity
  8
0
  6
HIDDEN
 62
     7
370
    18
100
AcDbLine
 10
157.8769942966
 20
180.4472155514
 30
0.0
 11
157.8769942966
 21
178.9180198811
 31
0.0
  0
LINE
  5
3D7
330
1F
100
AcDbEntity
  8
0
  6
HIDDEN
 62
     7
370
    18
100
AcDbLine
 10
157.8769942966
 20
168.4472155514
 30
0.0
 11
157.8769942966
 21
166.9180198811
 31
0.0
  0
LINE
  5
3D8
330
1F
100
AcDbEntity
  8
0
  6
HIDDEN
 62
     7
370
    18
100
AcDbLine
 10
157.8769942966
 20
176.4472155514
 30
0.0
 11
157.8769942966
 21
174.9180198811
 31
0.0
  0
LINE
  5
3D9
330
1F
100
AcDbEntity
  8
0
  6
HIDDEN
 62
     7
370
    18
100
AcDbLine
 10
157.8769942966
 20
184.4472155514
 30
0.0
 11
157.8769942966
 21
182.9180198811
 31
0.0
  0
LINE
  5
3DA
330
1F
100
AcDbEntity
  8
0
  6
HIDDEN
 62
     7
370
    18
100
AcDbLine
 10
157.8769942966
 20
164.4472155514
 30
0.0
 11
157.8769942966
 21
162.9180198811
 31
0.0
  0
LINE
  5
3DB
330
1F
100
AcDbEntity
  8
0
  6
HIDDEN
 62
     7
370
    18
100
AcDbLine
 10
158.1627028175
 20
180.4472155514
 30
0.0
 11
158.1627028175
 21
178.9180198811
 31
0.0
  0
LINE
  5
3DC
330
1F
100
AcDbEntity
  8
0
  6
HIDDEN
 62
     7
370
    18
100
AcDbLine
 10
158.1627028175
 20
164.4472155514
 30
0.0
 11
158.1627028175
 21
162.9180198811
 31
0.0
  0
LINE
  5
3DD
330
1F
100
AcDbEntity
  8
0
  6
HIDDEN
 62
     7
370
    18
100
AcDbLine
 10
158.1627028175
 20
172.4472155514
 30
0.0
 11
158.1627028175
 21
170.9180198811
 31
0.0
  0
LINE
  5
3DE
330
1F
100
AcDbEntity
  8
0
  6
HIDDEN
 62
     7
370
    18
100
AcDbLine
 10
158.1627028175
 20
184.4472155514
 30
0.0
 11
158.1627028175
 21
182.9180198811
 31
0.0
  0
LINE
  5
3DF
330
1F
100
AcDbEntity
  8
0
  6
HIDDEN
 62
     7
370
    18
100
AcDbLine
 10
158.1627028175
 20
168.4472155514
 30
0.0
 11
158.1627028175
 21
166.9180198811
 31
0.0
  0
LINE
  5
3E0
330
1F
100
AcDbEntity
  8
0
  6
HIDDEN
 62
     7
370
    18
100
AcDbLine
 10
158.1627028175
 20
160.4472155514
 30
0.0
 11
158.1627028175
 21
158.9180198811
 31
0.0
  0
LINE
  5
3E1
330
1F
100
AcDbEntity
  8
0
  6
HIDDEN
 62
     7
370
    18
100
AcDbLine
 10
158.1627028175
 20
176.4472155514
 30
0.0
 11
158.1627028175
 21
174.9180198811
 31
0.0
  0
LINE
  5
3E2
330
1F
100
AcDbEntity
  8
0
  6
HIDDEN
 62
     7
370
    18
100
AcDbLine
 10
159.2261011922
 20
166.9180198811
 30
0.0
 11
161.3763150423
 21
166.1826177162
 31
0.0
  0
LINE
  5
3E3
330
1F
100
AcDbEntity
  8
0
  6
HIDDEN
 62
     7
370
    18
100
AcDbLine
 10
160.5261166375
 20
166.1826177162
 30
0.0
 11
158.8010019898
 21
166.9180198811
 31
0.0
  0
LINE
  5
3E4
330
1F
100
AcDbEntity
  8
0
  6
HIDDEN
 62
     7
370
    18
100
AcDbLine
 10
159.2261011922
 20
162.9180198811
 30
0.0
 11
161.3763150423
 21
162.1826177162
 31
0.0
  0
LINE
  5
3E5
330
1F
100
AcDbEntity
  8
0
  6
HIDDEN
 62
     7
370
    18
100
AcDbLine
 10
160.5261166375
 20
162.1826177162
 30
0.0
 11
158.8010019898
 21
162.9180198811
 31
0.0
  0
LINE
  5
3E6
330
1F
100
AcDbEntity
  8
0
  6
HIDDEN
 62
     7
370
    18
100
AcDbLine
 10
160.5261166375
 20
177.1826177162
 30
0.0
 11
158.8010019898
 21
176.4472155514
 31
0.0
  0
LINE
  5
3E7
330
1F
100
AcDbEntity
  8
0
  6
HIDDEN
 62
     7
370
    18
100
AcDbLine
 10
159.2261011922
 20
176.4472155514
 30
0.0
 11
161.3763150423
 21
177.1826177162
 31
0.0
  0
LINE
  5
3E8
330
1F
100
AcDbEntity
  8
0
  6
HIDDEN
 62
     7
370
    18
100
AcDbLine
 10
159.2261011922
 20
182.9180198811
 30
0.0
 11
161.3763150423
 21
182.1826177162
 31
0.0
  0
LINE
  5
3E9
330
1F
100
AcDbEntity
  8
0
  6
HIDDEN
 62
     7
370
    18
100
AcDbLine
 10
160.5261166375
 20
182.1826177162
 30
0.0
 11
158.8010019898
 21
182.9180198811
 31
0.0
  0
LINE
  5
3EA
330
1F
100
AcDbEntity
  8
0
  6
HIDDEN
 62
     7
370
    18
100
AcDbLine
 10
160.5261166375
 20
161.1826177162
 30
0.0
 11
158.8010019898
 21
160.4472155514
 31
0.0
  0
LINE
  5
3EB
330
1F
100
AcDbEntity
  8
0
  6
HIDDEN
 62
     7
370
    18
100
AcDbLine
 10
159.2261011922
 20
160.4472155514
 30
0.0
 11
161.3763150423
 21
161.1826177162
 31
0.0
  0
LINE
  5
3EC
330
1F
100
AcDbEntity
  8
0
  6
HIDDEN
 62
     7
370
    18
100
AcDbLine
 10
159.2261011922
 20
170.9180198811
 30
0.0
 11
161.3763150423
 21
170.1826177162
 31
0.0
  0
LINE
  5
3ED
330
1F
100
AcDbEntity
  8
0
  6
HIDDEN
 62
     7
370
    18
100
AcDbLine
 10
160.5261166375
 20
170.1826177162
 30
0.0
 11
158.8010019898
 21
170.9180198811
 31
0.0
  0
LINE
  5
3EE
330
1F
100
AcDbEntity
  8
0
  6
HIDDEN
 62
     7
370
    18
100
AcDbLine
 10
159.2261011922
 20
174.9180198811
 30
0.0
 11
161.3763150423
 21
174.1826177162
 31
0.0
  0
LINE
  5
3EF
330
1F
100
AcDbEntity
  8
0
  6
HIDDEN
 62
     7
370
    18
100
AcDbLine
 10
160.5261166375
 20
174.1826177162
 30
0.0
 11
158.8010019898
 21
174.9180198811
 31
0.0
  0
LINE
  5
3F0
330
1F
100
AcDbEntity
  8
0
  6
HIDDEN
 62
     7
370
    18
100
AcDbLine
 10
160.5261166375
 20
181.1826177162
 30
0.0
 11
158.8010019898
 21
180.4472155514
 31
0.0
  0
LINE
  5
3F1
330
1F
100
AcDbEntity
  8
0
  6
HIDDEN
 62
     7
370
    18
100
AcDbLine
 10
159.2261011922
 20
180.4472155514
 30
0.0
 11
161.3763150423
 21
181.1826177162
 31
0.0
  0
LINE
  5
3F2
330
1F
100
AcDbEntity
  8
0
  6
HIDDEN
 62
     7
370
    18
100
AcDbLine
 10
159.2261011922
 20
158.9180198811
 30
0.0
 11
161.3763150423
 21
158.1826177162
 31
0.0
  0
LINE
  5
3F3
330
1F
100
AcDbEntity
  8
0
  6
HIDDEN
 62
     7
370
    18
100
AcDbLine
 10
160.5261166375
 20
158.1826177162
 30
0.0
 11
158.8010019898
 21
158.9180198811
 31
0.0
  0
LINE
  5
3F4
330
1F
100
AcDbEntity
  8
0
  6
HIDDEN
 62
     7
370
    18
100
AcDbLine
 10
159.2261011922
 20
178.9180198811
 30
0.0
 11
161.3763150423
 21
178.1826177162
 31
0.0
  0
LINE
  5
3F5
330
1F
100
AcDbEntity
  8
0
  6
HIDDEN
 62
     7
370
    18
100
AcDbLine
 10
160.5261166375
 20
178.1826177162
 30
0.0
 11
158.8010019898
 21
178.9180198811
 31
0.0
  0
LINE
  5
3F6
330
1F
100
AcDbEntity
  8
0
  6
HIDDEN
 62
     7
370
    18
100
AcDbLine
 10
160.5261166375
 20
173.1826177162
 30
0.0
 11
158.8010019898
 21
172.4472155514
 31
0.0
  0
LINE
  5
3F7
330
1F
100
AcDbEntity
  8
0
  6
HIDDEN
 62
     7
370
    18
100
AcDbLine
 10
159.2261011922
 20
172.4472155514
 30
0.0
 11
161.3763150423
 21
173.1826177162
 31
0.0
  0
LINE
  5
3F8
330
1F
100
AcDbEntity
  8
0
  6
HIDDEN
 62
     7
370
    18
100
AcDbLine
 10
160.5261166375
 20
165.1826177162
 30
0.0
 11
158.8010019898
 21
164.4472155514
 31
0.0
  0
LINE
  5
3F9
330
1F
100
AcDbEntity
  8
0
  6
HIDDEN
 62
     7
370
    18
100
AcDbLine
 10
159.2261011922
 20
164.4472155514
 30
0.0
 11
161.3763150423
 21
165.1826177162
 31
0.0
  0
LINE
  5
3FA
330
1F
100
AcDbEntity
  8
0
  6
HIDDEN
 62
     7
370
    18
100
AcDbLine
 10
160.5261166375
 20
185.1826177162
 30
0.0
 11
158.8010019898
 21
184.4472155514
 31
0.0
  0
LINE
  5
3FB
330
1F
100
AcDbEntity
  8
0
  6
HIDDEN
 62
     7
370
    18
100
AcDbLine
 10
159.2261011922
 20
184.4472155514
 30
0.0
 11
161.3763150423
 21
185.1826177162
 31
0.0
  0
LINE
  5
3FC
330
1F
100
AcDbEntity
  8
0
  6
HIDDEN
 62
     7
370
    18
100
AcDbLine
 10
160.5261166375
 20
169.1826177162
 30
0.0
 11
158.8010019898
 21
168.4472155514
 31
0.0
  0
LINE
  5
3FD
330
1F
100
AcDbEntity
  8
0
  6
HIDDEN
 62
     7
370
    18
100
AcDbLine
 10
159.2261011922
 20
168.4472155514
 30
0.0
 11
161.3763150423
 21
169.1826177162
 31
0.0
  0
LINE
  5
3FE
330
1F
100
AcDbEntity
  8
0
  6
HIDDEN
 62
     7
370
    18
100
AcDbLine
 10
158.8010019898
 20
172.4472155514
 30
0.0
 11
158.8010019898
 21
170.9180198811
 31
0.0
  0
LINE
  5
3FF
330
1F
100
AcDbEntity
  8
0
  6
HIDDEN
 62
     7
370
    18
100
AcDbLine
 10
158.8010019898
 20
184.4472155514
 30
0.0
 11
158.8010019898
 21
182.9180198811
 31
0.0
  0
LINE
  5
400
330
1F
100
AcDbEntity
  8
0
  6
HIDDEN
 62
     7
370
    18
100
AcDbLine
 10
158.8010019898
 20
164.4472155514
 30
0.0
 11
158.8010019898
 21
162.9180198811
 31
0.0
  0
LINE
  5
401
330
1F
100
AcDbEntity
  8
0
  6
HIDDEN
 62
     7
370
    18
100
AcDbLine
 10
158.8010019898
 20
160.4472155514
 30
0.0
 11
158.8010019898
 21
158.9180198811
 31
0.0
  0
LINE
  5
402
330
1F
100
AcDbEntity
  8
0
  6
HIDDEN
 62
     7
370
    18
100
AcDbLine
 10
158.8010019898
 20
176.4472155514
 30
0.0
 11
158.8010019898
 21
174.9180198811
 31
0.0
  0
LINE
  5
403
330
1F
100
AcDbEntity
  8
0
  6
HIDDEN
 62
     7
370
    18
100
AcDbLine
 10
158.8010019898
 20
180.4472155514
 30
0.0
 11
158.8010019898
 21
178.9180198811
 31
0.0
  0
LINE
  5
404
330
1F
100
AcDbEntity
  8
0
  6
HIDDEN
 62
     7
370
    18
100
AcDbLine
 10
158.8010019898
 20
168.4472155514
 30
0.0
 11
158.8010019898
 21
166.9180198811
 31
0.0
  0
LINE
  5
405
330
1F
100
AcDbEntity
  8
0
  6
HIDDEN
 62
     7
370
    18
100
AcDbLine
 10
159.2261011922
 20
176.4472155514
 30
0.0
 11
159.2261011922
 21
174.9180198811
 31
0.0
  0
LINE
  5
406
330
1F
100
AcDbEntity
  8
0
  6
HIDDEN
 62
     7
370
    18
100
AcDbLine
 10
159.2261011922
 20
184.4472155514
 30
0.0
 11
159.2261011922
 21
182.9180198811
 31
0.0
  0
LINE
  5
407
330
1F
100
AcDbEntity
  8
0
  6
HIDDEN
 62
     7
370
    18
100
AcDbLine
 10
159.2261011922
 20
160.4472155514
 30
0.0
 11
159.2261011922
 21
158.9180198811
 31
0.0
  0
LINE
  5
408
330
1F
100
AcDbEntity
  8
0
  6
HIDDEN
 62
     7
370
    18
100
AcDbLine
 10
159.2261011922
 20
172.4472155514
 30
0.0
 11
159.2261011922
 21
170.9180198811
 31
0.0
  0
LINE
  5
409
330
1F
100
AcDbEntity
  8
0
  6
HIDDEN
 62
     7
370
    18
100
AcDbLine
 10
159.2261011922
 20
168.4472155514
 30
0.0
 11
159.2261011922
 21
166.9180198811
 31
0.0
  0
LINE
  5
40A
330
1F
100
AcDbEntity
  8
0
  6
HIDDEN
 62
     7
370
    18
100
AcDbLine
 10
159.2261011922
 20
180.4472155514
 30
0.0
 11
159.2261011922
 21
178.9180198811
 31
0.0
  0
LINE
  5
40B
330
1F
100
AcDbEntity
  8
0
  6
HIDDEN
 62
     7
370
    18
100
AcDbLine
 10
159.2261011922
 20
164.4472155514
 30
0.0
 11
159.2261011922
 21
162.9180198811
 31
0.0
  0
LINE
  5
40C
330
1F
100
AcDbEntity
  8
0
  6
HIDDEN
 62
     7
370
    18
100
AcDbLine
 10
160.6718507056
 20
166.9180198811
 30
0.0
 11
162.8262383675
 21
166.1826177162
 31
0.0
  0
LINE
  5
40D
330
1F
100
AcDbEntity
  8
0
  6
HIDDEN
 62
     7
370
    18
100
AcDbLine
 10
161.7050381816
 20
166.1826177162
 30
0.0
 11
160.1112506127
 21
166.9180198811
 31
0.0
  0
LINE
  5
40E
330
1F
100
AcDbEntity
  8
0
  6
HIDDEN
 62
     7
370
    18
100
AcDbLine
 10
160.6718507056
 20
178.9180198811
 30
0.0
 11
162.8262383675
 21
178.1826177162
 31
0.0
  0
LINE
  5
40F
330
1F
100
AcDbEntity
  8
0
  6
HIDDEN
 62
     7
370
    18
100
AcDbLine
 10
161.7050381816
 20
178.1826177162
 30
0.0
 11
160.1112506127
 21
178.9180198811
 31
0.0
  0
LINE
  5
410
330
1F
100
AcDbEntity
  8
0
  6
HIDDEN
 62
     7
370
    18
100
AcDbLine
 10
161.7050381816
 20
181.1826177162
 30
0.0
 11
160.1112506127
 21
180.4472155514
 31
0.0
  0
LINE
  5
411
330
1F
100
AcDbEntity
  8
0
  6
HIDDEN
 62
     7
370
    18
100
AcDbLine
 10
160.6718507056
 20
180.4472155514
 30
0.0
 11
162.8262383675
 21
181.1826177162
 31
0.0
  0
LINE
  5
412
330
1F
100
AcDbEntity
  8
0
  6
HIDDEN
 62
     7
370
    18
100
AcDbLine
 10
161.7050381816
 20
169.1826177162
 30
0.0
 11
160.1112506127
 21
168.4472155514
 31
0.0
  0
LINE
  5
413
330
1F
100
AcDbEntity
  8
0
  6
HIDDEN
 62
     7
370
    18
100
AcDbLine
 10
160.6718507056
 20
168.4472155514
 30
0.0
 11
162.8262383675
 21
169.1826177162
 31
0.0
  0
LINE
  5
414
330
1F
100
AcDbEntity
  8
0
  6
HIDDEN
 62
     7
370
    18
100
AcDbLine
 10
160.6718507056
 20
158.9180198811
 30
0.0
 11
162.8262383675
 21
158.1826177162
 31
0.0
  0
LINE
  5
415
330
1F
100
AcDbEntity
  8
0
  6
HIDDEN
 62
     7
370
    18
100
AcDbLine
 10
161.7050381816
 20
158.1826177162
 30
0.0
 11
160.1112506127
 21
158.9180198811
 31
0.0
  0
LINE
  5
416
330
1F
100
AcDbEntity
  8
0
  6
HIDDEN
 62
     7
370
    18
100
AcDbLine
 10
161.7050381816
 20
161.1826177162
 30
0.0
 11
160.1112506127
 21
160.4472155514
 31
0.0
  0
LINE
  5
417
330
1F
100
AcDbEntity
  8
0
  6
HIDDEN
 62
     7
370
    18
100
AcDbLine
 10
160.6718507056
 20
160.4472155514
 30
0.0
 11
162.8262383675
 21
161.1826177162
 31
0.0
  0
LINE
  5
418
330
1F
100
AcDbEntity
  8
0
  6
HIDDEN
 62
     7
370
    18
100
AcDbLine
 10
161.7050381816
 20
165.1826177162
 30
0.0
 11
160.1112506127
 21
164.4472155514
 31
0.0
  0
LINE
  5
419
330
1F
100
AcDbEntity
  8
0
  6
HIDDEN
 62
     7
370
    18
100
AcDbLine
 10
160.6718507056
 20
164.4472155514
 30
0.0
 11
162.8262383675
 21
165.1826177162
 31
0.0
  0
LINE
  5
41A
330
1F
100
AcDbEntity
  8
0
  6
HIDDEN
 62
     7
370
    18
100
AcDbLine
 10
161.7050381816
 20
185.1826177162
 30
0.0
 11
160.1112506127
 21
184.4472155514
 31
0.0
  0
LINE
  5
41B
330
1F
100
AcDbEntity
  8
0
  6
HIDDEN
 62
     7
370
    18
100
AcDbLine
 10
160.6718507056
 20
184.4472155514
 30
0.0
 11
162.8262383675
 21
185.1826177162
 31
0.0
  0
LINE
  5
41C
330
1F
100
AcDbEntity
  8
0
  6
HIDDEN
 62
     7
370
    18
100
AcDbLine
 10
160.6718507056
 20
170.9180198811
 30
0.0
 11
162.8262383675
 21
170.1826177162
 31
0.0
  0
LINE
  5
41D
330
1F
100
AcDbEntity
  8
0
  6
HIDDEN
 62
     7
370
    18
100
AcDbLine
 10
161.7050381816
 20
170.1826177162
 30
0.0
 11
160.1112506127
 21
170.9180198811
 31
0.0
  0
LINE
  5
41E
330
1F
100
AcDbEntity
  8
0
  6
HIDDEN
 62
     7
370
    18
100
AcDbLine
 10
160.6718507056
 20
182.9180198811
 30
0.0
 11
162.8262383675
 21
182.1826177162
 31
0.0
  0
LINE
  5
41F
330
1F
100
AcDbEntity
  8
0
  6
HIDDEN
 62
     7
370
    18
100
AcDbLine
 10
161.7050381816
 20
182.1826177162
 30
0.0
 11
160.1112506127
 21
182.9180198811
 31
0.0
  0
LINE
  5
420
330
1F
100
AcDbEntity
  8
0
  6
HIDDEN
 62
     7
370
    18
100
AcDbLine
 10
161.7050381816
 20
177.1826177162
 30
0.0
 11
160.1112506127
 21
176.4472155514
 31
0.0
  0
LINE
  5
421
330
1F
100
AcDbEntity
  8
0
  6
HIDDEN
 62
     7
370
    18
100
AcDbLine
 10
160.6718507056
 20
176.4472155514
 30
0.0
 11
162.8262383675
 21
177.1826177162
 31
0.0
  0
LINE
  5
422
330
1F
100
AcDbEntity
  8
0
  6
HIDDEN
 62
     7
370
    18
100
AcDbLine
 10
160.6718507056
 20
162.9180198811
 30
0.0
 11
162.8262383675
 21
162.1826177162
 31
0.0
  0
LINE
  5
423
330
1F
100
AcDbEntity
  8
0
  6
HIDDEN
 62
     7
370
    18
100
AcDbLine
 10
161.7050381816
 20
162.1826177162
 30
0.0
 11
160.1112506127
 21
162.9180198811
 31
0.0
  0
LINE
  5
424
330
1F
100
AcDbEntity
  8
0
  6
HIDDEN
 62
     7
370
    18
100
AcDbLine
 10
161.7050381816
 20
173.1826177162
 30
0.0
 11
160.1112506127
 21
172.4472155514
 31
0.0
  0
LINE
  5
425
330
1F
100
AcDbEntity
  8
0
  6
HIDDEN
 62
     7
370
    18
100
AcDbLine
 10
160.6718507056
 20
172.4472155514
 30
0.0
 11
162.8262383675
 21
173.1826177162
 31
0.0
  0
LINE
  5
426
330
1F
100
AcDbEntity
  8
0
  6
HIDDEN
 62
     7
370
    18
100
AcDbLine
 10
160.6718507056
 20
174.9180198811
 30
0.0
 11
162.8262383675
 21
174.1826177162
 31
0.0
  0
LINE
  5
427
330
1F
100
AcDbEntity
  8
0
  6
HIDDEN
 62
     7
370
    18
100
AcDbLine
 10
161.7050381816
 20
174.1826177162
 30
0.0
 11
160.1112506127
 21
174.9180198811
 31
0.0
  0
LINE
  5
428
330
1F
100
AcDbEntity
  8
0
  6
HIDDEN
 62
     7
370
    18
100
AcDbLine
 10
160.1112506127
 20
160.4472155514
 30
0.0
 11
160.1112506127
 21
158.9180198811
 31
0.0
  0
LINE
  5
429
330
1F
100
AcDbEntity
  8
0
  6
HIDDEN
 62
     7
370
    18
100
AcDbLine
 10
160.1112506127
 20
180.4472155514
 30
0.0
 11
160.1112506127
 21
178.9180198811
 31
0.0
  0
LINE
  5
42A
330
1F
100
AcDbEntity
  8
0
  6
HIDDEN
 62
     7
370
    18
100
AcDbLine
 10
160.1112506127
 20
184.4472155514
 30
0.0
 11
160.1112506127
 21
182.9180198811
 31
0.0
  0
LINE
  5
42B
330
1F
100
AcDbEntity
  8
0
  6
HIDDEN
 62
     7
370
    18
100
AcDbLine
 10
160.1112506127
 20
172.4472155514
 30
0.0
 11
160.1112506127
 21
170.9180198811
 31
0.0
  0
LINE
  5
42C
330
1F
100
AcDbEntity
  8
0
  6
HIDDEN
 62
     7
370
    18
100
AcDbLine
 10
160.1112506127
 20
168.4472155514
 30
0.0
 11
160.1112506127
 21
166.9180198811
 31
0.0
  0
LINE
  5
42D
330
1F
100
AcDbEntity
  8
0
  6
HIDDEN
 62
     7
370
    18
100
AcDbLine
 10
160.1112506127
 20
164.4472155514
 30
0.0
 11
160.1112506127
 21
162.9180198811
 31
0.0
  0
LINE
  5
42E
330
1F
100
AcDbEntity
  8
0
  6
HIDDEN
 62
     7
370
    18
100
AcDbLine
 10
160.1112506127
 20
176.4472155514
 30
0.0
 11
160.1112506127
 21
174.9180198811
 31
0.0
  0
LINE
  5
42F
330
1F
100
AcDbEntity
  8
0
  6
HIDDEN
 62
     7
370
    18
100
AcDbLine
 10
160.6718507056
 20
168.4472155514
 30
0.0
 11
160.6718507056
 21
166.9180198811
 31
0.0
  0
LINE
  5
430
330
1F
100
AcDbEntity
  8
0
  6
HIDDEN
 62
     7
370
    18
100
AcDbLine
 10
160.6718507056
 20
176.4472155514
 30
0.0
 11
160.6718507056
 21
174.9180198811
 31
0.0
  0
LINE
  5
431
330
1F
100
AcDbEntity
  8
0
  6
HIDDEN
 62
     7
370
    18
100
AcDbLine
 10
160.6718507056
 20
184.4472155514
 30
0.0
 11
160.6718507056
 21
182.9180198811
 31
0.0
  0
LINE
  5
432
330
1F
100
AcDbEntity
  8
0
  6
HIDDEN
 62
     7
370
    18
100
AcDbLine
 10
160.6718507056
 20
172.4472155514
 30
0.0
 11
160.6718507056
 21
170.9180198811
 31
0.0
  0
LINE
  5
433
330
1F
100
AcDbEntity
  8
0
  6
HIDDEN
 62
     7
370
    18
100
AcDbLine
 10
160.6718507056
 20
164.4472155514
 30
0.0
 11
160.6718507056
 21
162.9180198811
 31
0.0
  0
LINE
  5
434
330
1F
100
AcDbEntity
  8
0
  6
HIDDEN
 62
     7
370
    18
100
AcDbLine
 10
160.6718507056
 20
160.4472155514
 30
0.0
 11
160.6718507056
 21
158.9180198811
 31
0.0
  0
LINE
  5
435
330
1F
100
AcDbEntity
  8
0
  6
HIDDEN
 62
     7
370
    18
100
AcDbLine
 10
160.6718507056
 20
180.4472155514
 30
0.0
 11
160.6718507056
 21
178.9180198811
 31
0.0
  0
LINE
  5
436
330
1F
100
AcDbEntity
  8
0
  6
HIDDEN
 62
     7
370
    18
100
AcDbLine
 10
163.2436278135
 20
161.1826177162
 30
0.0
 11
161.7957509794
 21
160.4472155514
 31
0.0
  0
LINE
  5
437
330
1F
100
AcDbEntity
  8
0
  6
HIDDEN
 62
     7
370
    18
100
AcDbLine
 10
162.4867222962
 20
160.4472155514
 30
0.0
 11
164.625570447
 21
161.1826177162
 31
0.0
  0
LINE
  5
438
330
1F
100
AcDbEntity
  8
0
  6
HIDDEN
 62
     7
370
    18
100
AcDbLine
 10
162.4867222962
 20
162.9180198811
 30
0.0
 11
164.625570447
 21
162.1826177162
 31
0.0
  0
LINE
  5
439
330
1F
100
AcDbEntity
  8
0
  6
HIDDEN
 62
     7
370
    18
100
AcDbLine
 10
163.2436278135
 20
162.1826177162
 30
0.0
 11
161.7957509794
 21
162.9180198811
 31
0.0
  0
LINE
  5
43A
330
1F
100
AcDbEntity
  8
0
  6
HIDDEN
 62
     7
370
    18
100
AcDbLine
 10
162.4867222962
 20
178.9180198811
 30
0.0
 11
164.625570447
 21
178.1826177162
 31
0.0
  0
LINE
  5
43B
330
1F
100
AcDbEntity
  8
0
  6
HIDDEN
 62
     7
370
    18
100
AcDbLine
 10
163.2436278135
 20
178.1826177162
 30
0.0
 11
161.7957509794
 21
178.9180198811
 31
0.0
  0
LINE
  5
43C
330
1F
100
AcDbEntity
  8
0
  6
HIDDEN
 62
     7
370
    18
100
AcDbLine
 10
162.4867222962
 20
174.9180198811
 30
0.0
 11
164.625570447
 21
174.1826177162
 31
0.0
  0
LINE
  5
43D
330
1F
100
AcDbEntity
  8
0
  6
HIDDEN
 62
     7
370
    18
100
AcDbLine
 10
163.2436278135
 20
174.1826177162
 30
0.0
 11
161.7957509794
 21
174.9180198811
 31
0.0
  0
LINE
  5
43E
330
1F
100
AcDbEntity
  8
0
  6
HIDDEN
 62
     7
370
    18
100
AcDbLine
 10
162.4867222962
 20
158.9180198811
 30
0.0
 11
164.625570447
 21
158.1826177162
 31
0.0
  0
LINE
  5
43F
330
1F
100
AcDbEntity
  8
0
  6
HIDDEN
 62
     7
370
    18
100
AcDbLine
 10
163.2436278135
 20
158.1826177162
 30
0.0
 11
161.7957509794
 21
158.9180198811
 31
0.0
  0
LINE
  5
440
330
1F
100
AcDbEntity
  8
0
  6
HIDDEN
 62
     7
370
    18
100
AcDbLine
 10
163.2436278135
 20
165.1826177162
 30
0.0
 11
161.7957509794
 21
164.4472155514
 31
0.0
  0
LINE
  5
441
330
1F
100
AcDbEntity
  8
0
  6
HIDDEN
 62
     7
370
    18
100
AcDbLine
 10
162.4867222962
 20
164.4472155514
 30
0.0
 11
164.625570447
 21
165.1826177162
 31
0.0
  0
LINE
  5
442
330
1F
100
AcDbEntity
  8
0
  6
HIDDEN
 62
     7
370
    18
100
AcDbLine
 10
162.4867222962
 20
170.9180198811
 30
0.0
 11
164.625570447
 21
170.1826177162
 31
0.0
  0
LINE
  5
443
330
1F
100
AcDbEntity
  8
0
  6
HIDDEN
 62
     7
370
    18
100
AcDbLine
 10
163.2436278135
 20
170.1826177162
 30
0.0
 11
161.7957509794
 21
170.9180198811
 31
0.0
  0
LINE
  5
444
330
1F
100
AcDbEntity
  8
0
  6
HIDDEN
 62
     7
370
    18
100
AcDbLine
 10
162.4867222962
 20
182.9180198811
 30
0.0
 11
164.625570447
 21
182.1826177162
 31
0.0
  0
LINE
  5
445
330
1F
100
AcDbEntity
  8
0
  6
HIDDEN
 62
     7
370
    18
100
AcDbLine
 10
163.2436278135
 20
182.1826177162
 30
0.0
 11
161.7957509794
 21
182.9180198811
 31
0.0
  0
LINE
  5
446
330
1F
100
AcDbEntity
  8
0
  6
HIDDEN
 62
     7
370
    18
100
AcDbLine
 10
163.2436278135
 20
177.1826177162
 30
0.0
 11
161.7957509794
 21
176.4472155514
 31
0.0
  0
LINE
  5
447
330
1F
100
AcDbEntity
  8
0
  6
HIDDEN
 62
     7
370
    18
100
AcDbLine
 10
162.4867222962
 20
176.4472155514
 30
0.0
 11
164.625570447
 21
177.1826177162
 31
0.0
  0
LINE
  5
448
330
1F
100
AcDbEntity
  8
0
  6
HIDDEN
 62
     7
370
    18
100
AcDbLine
 10
163.2436278135
 20
169.1826177162
 30
0.0
 11
161.7957509794
 21
168.4472155514
 31
0.0
  0
LINE
  5
449
330
1F
100
AcDbEntity
  8
0
  6
HIDDEN
 62
     7
370
    18
100
AcDbLine
 10
162.4867222962
 20
168.4472155514
 30
0.0
 11
164.625570447
 21
169.1826177162
 31
0.0
  0
LINE
  5
44A
330
1F
100
AcDbEntity
  8
0
  6
HIDDEN
 62
     7
370
    18
100
AcDbLine
 10
163.2436278135
 20
173.1826177162
 30
0.0
 11
161.7957509794
 21
172.4472155514
 31
0.0
  0
LINE
  5
44B
330
1F
100
AcDbEntity
  8
0
  6
HIDDEN
 62
     7
370
    18
100
AcDbLine
 10
162.4867222962
 20
172.4472155514
 30
0.0
 11
164.625570447
 21
173.1826177162
 31
0.0
  0
LINE
  5
44C
330
1F
100
AcDbEntity
  8
0
  6
HIDDEN
 62
     7
370
    18
100
AcDbLine
 10
163.2436278135
 20
185.1826177162
 30
0.0
 11
161.7957509794
 21
184.4472155514
 31
0.0
  0
LINE
  5
44D
330
1F
100
AcDbEntity
  8
0
  6
HIDDEN
 62
     7
370
    18
100
AcDbLine
 10
162.4867222962
 20
184.4472155514
 30
0.0
 11
164.625570447
 21
185.1826177162
 31
0.0
  0
LINE
  5
44E
330
1F
100
AcDbEntity
  8
0
  6
HIDDEN
 62
     7
370
    18
100
AcDbLine
 10
163.2436278135
 20
181.1826177162
 30
0.0
 11
161.7957509794
 21
180.4472155514
 31
0.0
  0
LINE
  5
44F
330
1F
100
AcDbEntity
  8
0
  6
HIDDEN
 62
     7
370
    18
100
AcDbLine
 10
162.4867222962
 20
180.4472155514
 30
0.0
 11
164.625570447
 21
181.1826177162
 31
0.0
  0
LINE
  5
450
330
1F
100
AcDbEntity
  8
0
  6
HIDDEN
 62
     7
370
    18
100
AcDbLine
 10
162.4867222962
 20
166.9180198811
 30
0.0
 11
164.625570447
 21
166.1826177162
 31
0.0
  0
LINE
  5
451
330
1F
100
AcDbEntity
  8
0
  6
HIDDEN
 62
     7
370
    18
100
AcDbLine
 10
163.2436278135
 20
166.1826177162
 30
0.0
 11
161.7957509794
 21
166.9180198811
 31
0.0
  0
LINE
  5
452
330
1F
100
AcDbEntity
  8
0
  6
HIDDEN
 62
     7
370
    18
100
AcDbLine
 10
161.7957509794
 20
172.4472155514
 30
0.0
 11
161.7957509794
 21
170.9180198811
 31
0.0
  0
LINE
  5
453
330
1F
100
AcDbEntity
  8
0
  6
HIDDEN
 62
     7
370
    18
100
AcDbLine
 10
161.7957509794
 20
180.4472155514
 30
0.0
 11
161.7957509794
 21
178.9180198811
 31
0.0
  0
LINE
  5
454
330
1F
100
AcDbEntity
  8
0
  6
HIDDEN
 62
     7
370
    18
100
AcDbLine
 10
161.7957509794
 20
160.4472155514
 30
0.0
 11
161.7957509794
 21
158.9180198811
 31
0.0
  0
LINE
  5
455
330
1F
100
AcDbEntity
  8
0
  6
HIDDEN
 62
     7
370
    18
100
AcDbLine
 10
161.7957509794
 20
184.4472155514
 30
0.0
 11
161.7957509794
 21
182.9180198811
 31
0.0
  0
LINE
  5
456
330
1F
100
AcDbEntity
  8
0
  6
HIDDEN
 62
     7
370
    18
100
AcDbLine
 10
161.7957509794
 20
164.4472155514
 30
0.0
 11
161.7957509794
 21
162.9180198811
 31
0.0
  0
LINE
  5
457
330
1F
100
AcDbEntity
  8
0
  6
HIDDEN
 62
     7
370
    18
100
AcDbLine
 10
161.7957509794
 20
168.4472155514
 30
0.0
 11
161.7957509794
 21
166.9180198811
 31
0.0
  0
LINE
  5
458
330
1F
100
AcDbEntity
  8
0
  6
HIDDEN
 62
     7
370
    18
100
AcDbLine
 10
161.7957509794
 20
176.4472155514
 30
0.0
 11
161.7957509794
 21
174.9180198811
 31
0.0
  0
LINE
  5
459
330
1F
100
AcDbEntity
  8
0
  6
HIDDEN
 62
     7
370
    18
100
AcDbLine
 10
164.8635306041
 20
158.6826177162
 30
0.0
 11
160.5395894558
 21
158.6826177162
 31
0.0
  0
LINE
  5
45A
330
1F
100
AcDbEntity
  8
0
  6
HIDDEN
 62
     7
370
    18
100
AcDbLine
 10
160.5395894558
 20
184.6826177162
 30
0.0
 11
164.8635306041
 21
184.6826177162
 31
0.0
  0
LINE
  5
45B
330
1F
100
AcDbEntity
  8
0
  6
HIDDEN
 62
     7
370
    18
100
AcDbLine
 10
162.4867222962
 20
160.4472155514
 30
0.0
 11
162.4867222962
 21
158.9180198811
 31
0.0
  0
LINE
  5
45C
330
1F
100
AcDbEntity
  8
0
  6
HIDDEN
 62
     7
370
    18
100
AcDbLine
 10
162.4867222962
 20
180.4472155514
 30
0.0
 11
162.4867222962
 21
178.9180198811
 31
0.0
  0
LINE
  5
45D
330
1F
100
AcDbEntity
  8
0
  6
HIDDEN
 62
     7
370
    18
100
AcDbLine
 10
162.4867222962
 20
164.4472155514
 30
0.0
 11
162.4867222962
 21
162.9180198811
 31
0.0
  0
LINE
  5
45E
330
1F
100
AcDbEntity
  8
0
  6
HIDDEN
 62
     7
370
    18
100
AcDbLine
 10
162.4867222962
 20
168.4472155514
 30
0.0
 11
162.4867222962
 21
166.9180198811
 31
0.0
  0
LINE
  5
45F
330
1F
100
AcDbEntity
  8
0
  6
HIDDEN
 62
     7
370
    18
100
AcDbLine
 10
162.4867222962
 20
176.4472155514
 30
0.0
 11
162.4867222962
 21
174.9180198811
 31
0.0
  0
LINE
  5
460
330
1F
100
AcDbEntity
  8
0
  6
HIDDEN
 62
     7
370
    18
100
AcDbLine
 10
162.4867222962
 20
184.4472155514
 30
0.0
 11
162.4867222962
 21
182.9180198811
 31
0.0
  0
LINE
  5
461
330
1F
100
AcDbEntity
  8
0
  6
HIDDEN
 62
     7
370
    18
100
AcDbLine
 10
162.4867222962
 20
172.4472155514
 30
0.0
 11
162.4867222962
 21
170.9180198811
 31
0.0
  0
SPLINE
  5
462
330
1F
100
AcDbEntity
  8
0
  6
HIDDEN
 62
     7
370
    18
100
AcDbSpline
210
0.0
220
0.0
230
1.0
 70
     8
 71
     3
 72
    37
 73
    33
 74
     0
 42
0.000000001
 43
0.00000001
 40
0.0
 40
0.0
 40
0.0
 40
0.0
 40
0.0363652634894732
 40
0.0699001347498452
 40
0.1073181872543633
 40
0.1304883340018638
 40
0.173939095263209
 40
0.2146231854020693
 40
0.2378079462831142
 40
0.2812861243045587
 40
0.3219961721248847
 40
0.3583983771445919
 40
0.3885757459302066
 40
0.4157634772347913
 40
0.4294409578210134
 40
0.4526189204702069
 40
0.4960852814004943
 40
0.5367856256661523
 40
0.5599473828201526
 40
0.6033826189353415
 40
0.64405248859212
 40
0.6672231101914115
 40
0.7106745113138503
 40
0.7513589132103666
 40
0.7745496267719265
 40
0.8180392370601836
 40
0.8587604776952238
 40
0.8819511686779786
 40
0.9254414300229918
 40
0.9661643538351936
 40
0.9893349593002487
 40
1.0
 40
1.0
 40
1.0
 40
1.0
 10
154.2116786037284
 20
169.5826177162434
 30
0.0
 10
154.211796916425
 20
169.5852453711741
 30
0.0
 10
154.2120243332685
 20
169.5902961645991
 30
0.0
 10
154.2138339633331
 20
169.6310047621674
 30
0.0
 10
154.2162890847576
 20
169.6876250260111
 30
0.0
 10
154.2197883047704
 20
169.7712013127964
 30
0.0
 10
154.2241556045126
 20
169.880050198209
 30
0.0
 10
154.2291735894082
 20
170.0156453510037
 30
0.0
 10
154.2344234647824
 20
170.1696359487737
 30
0.0
 10
154.2397660722021
 20
170.3419976442908
 30
0.0
 10
154.2454550974171
 20
170.5577754767479
 30
0.0
 10
154.2499535812007
 20
170.7649367641554
 30
0.0
 10
154.2532728048395
 20
170.955233798002
 30
0.0
 10
154.2553033454157
 20
171.1042604506587
 30
0.0
 10
154.256782398134
 20
171.2409206518363
 30
0.0
 10
154.2582232690932
 20
171.4145914066921
 30
0.0
 10
154.2590838373126
 20
171.6505645991496
 30
0.0
 10
154.2585315987118
 20
171.8868537040244
 30
0.0
 10
154.2569426617585
 20
172.1201415613205
 30
0.0
 10
154.2543174293248
 20
172.3489731619359
 30
0.0
 10
154.2505692262497
 20
172.5677815856296
 30
0.0
 10
154.2461665578203
 20
172.7760914689897
 30
0.0
 10
154.2412060877671
 20
172.9722399705929
 30
0.0
 10
154.235901397299
 20
173.149151641283
 30
0.0
 10
154.2306086690075
 20
173.3091729378362
 30
0.0
 10
154.2254811333179
 20
173.4506001431957
 30
0.0
 10
154.2209387248552
 20
173.5657044780776
 30
0.0
 10
154.2170797887137
 20
173.6591712825926
 30
0.0
 10
154.2140052133715
 20
173.7304147916629
 30
0.0
 10
154.2123194833601
 20
173.7683223086817
 30
0.0
 10
154.2116218292331
 20
173.7838878683163
 30
0.0
 10
154.2117883735788
 20
173.780166890677
 30
0.0
 10
154.2118408685782
 20
173.7789940335731
 30
0.0
  0
LINE
  5
463
330
1F
100
AcDbEntity
  8
0
  6
HIDDEN
 62
     7
370
    18
100
AcDbLine
 10
160.5360921813
 20
158.6826177162
 30
0.0
 11
157.9415033081
 21
158.6826177162
 31
0.0
  0
LINE
  5
464
330
1F
100
AcDbEntity
  8
0
  6
HIDDEN
 62
     7
370
    18
100
AcDbLine
 10
157.9415033081
 20
184.6826177162
 30
0.0
 11
160.5360921813
 21
184.6826177162
 31
0.0
  0
LINE
  5
465
330
1F
100
AcDbEntity
  8
0
  6
HIDDEN
 62
     7
370
    18
100
AcDbLine
 10
154.2116786037
 20
167.6826177162
 30
0.0
 11
154.2116786037
 21
156.6826177162
 31
0.0
  0
LINE
  5
466
330
1F
100
AcDbEntity
  8
0
  6
HIDDEN
 62
     7
370
    18
100
AcDbLine
 10
154.2116786037
 20
186.6826177162
 30
0.0
 11
154.2116786037
 21
175.6771032926
 31
0.0
  0
LINE
  5
467
330
1F
100
AcDbEntity
  8
0
  6
HIDDEN
 62
     7
370
    18
100
AcDbLine
 10
159.2116786037
 20
158.1924162241
 30
0.0
 11
159.2116786037
 21
156.6826177162
 31
0.0
  0
LINE
  5
468
330
1F
100
AcDbEntity
  8
0
  6
HIDDEN
 62
     7
370
    18
100
AcDbLine
 10
159.2116786037
 20
162.1924162241
 30
0.0
 11
159.2116786037
 21
161.1728192084
 31
0.0
  0
LINE
  5
469
330
1F
100
AcDbEntity
  8
0
  6
HIDDEN
 62
     7
370
    18
100
AcDbLine
 10
159.2116786037
 20
166.1924162241
 30
0.0
 11
159.2116786037
 21
165.1728192084
 31
0.0
  0
LINE
  5
46A
330
1F
100
AcDbEntity
  8
0
  6
HIDDEN
 62
     7
370
    18
100
AcDbLine
 10
159.2116786037
 20
178.1924162241
 30
0.0
 11
159.2116786037
 21
177.1728192084
 31
0.0
  0
LINE
  5
46B
330
1F
100
AcDbEntity
  8
0
  6
HIDDEN
 62
     7
370
    18
100
AcDbLine
 10
159.2116786037
 20
182.1924162241
 30
0.0
 11
159.2116786037
 21
181.1728192084
 31
0.0
  0
LINE
  5
46C
330
1F
100
AcDbEntity
  8
0
  6
HIDDEN
 62
     7
370
    18
100
AcDbLine
 10
159.2116786037
 20
186.6826177162
 30
0.0
 11
159.2116786037
 21
185.1728192084
 31
0.0
  0
LINE
  5
46D
330
1F
100
AcDbEntity
  8
0
  6
HIDDEN
 62
     7
370
    18
100
AcDbLine
 10
157.2120783352
 20
175.6826177162
 30
0.0
 11
154.2116786037
 21
175.6826177162
 31
0.0
  0
LINE
  5
46E
330
1F
100
AcDbEntity
  8
0
  6
HIDDEN
 62
     7
370
    18
100
AcDbLine
 10
154.2116786037
 20
167.6826177162
 30
0.0
 11
157.2120842293
 21
167.6826177162
 31
0.0
  0
LINE
  5
46F
330
1F
100
AcDbEntity
  8
0
  6
HIDDEN
 62
     7
370
    18
100
AcDbLine
 10
157.2116786037
 20
176.4448787637
 30
0.0
 11
157.2116786037
 21
175.6782379994
 31
0.0
  0
LINE
  5
470
330
1F
100
AcDbEntity
  8
0
  6
HIDDEN
 62
     7
370
    18
100
AcDbLine
 10
157.2116786037
 20
167.6870617639
 30
0.0
 11
157.2116786037
 21
166.9203566688
 31
0.0
  0
LINE
  5
471
330
1F
100
AcDbEntity
  8
0
  6
HIDDEN
 62
     7
370
    18
100
AcDbLine
 10
157.2116786037
 20
180.4448787637
 30
0.0
 11
157.2116786037
 21
178.9203566688
 31
0.0
  0
LINE
  5
472
330
1F
100
AcDbEntity
  8
0
  6
HIDDEN
 62
     7
370
    18
100
AcDbLine
 10
157.2116786037
 20
164.4448787637
 30
0.0
 11
157.2116786037
 21
162.9203566688
 31
0.0
  0
LINE
  5
473
330
1F
100
AcDbEntity
  8
0
  6
HIDDEN
 62
     7
370
    18
100
AcDbLine
 10
157.2116786037
 20
160.4448787637
 30
0.0
 11
157.2116786037
 21
158.9203566688
 31
0.0
  0
LINE
  5
474
330
1F
100
AcDbEntity
  8
0
  6
HIDDEN
 62
     7
370
    18
100
AcDbLine
 10
157.2116786037
 20
184.4448787637
 30
0.0
 11
157.2116786037
 21
182.9203566688
 31
0.0
  0
LINE
  5
475
330
1F
100
AcDbEntity
  8
0
  6
HIDDEN
 62
     7
370
    18
100
AcDbLine
 10
154.2116786037
 20
169.5826177162
 30
0.0
 11
154.2116786037
 21
156.6826177162
 31
0.0
  0
LINE
  5
476
330
1F
100
AcDbEntity
  8
0
  6
HIDDEN
 62
     7
370
    18
100
AcDbLine
 10
154.2116786037
 20
186.6826177162
 30
0.0
 11
154.2116786037
 21
173.7789940336
 31
0.0
  0
LINE
  5
477
330
1F
100
AcDbEntity
  8
0
  6
HIDDEN
 62
     7
370
    18
100
AcDbLine
 10
154.2118406727
 20
173.7826177162
 30
0.0
 11
152.0116786037
 21
173.7826177162
 31
0.0
  0
LINE
  5
478
330
1F
100
AcDbEntity
  8
0
  6
HIDDEN
 62
     7
370
    18
100
AcDbLine
 10
152.0116786037
 20
169.5826177162
 30
0.0
 11
154.2116786037
 21
169.5826177162
 31
0.0
  0
DIMENSION
  5
479
330
1F
100
AcDbEntity
  8
0
  6
Continuous
 62
     7
370
    18
100
AcDbDimension
  2
_D_9
 10
164.8635306041
 20
148.410394041
 30
0.0
 11
158.0376046039
 21
148.410394041
 31
0.0
 70
   160
  1
13.6
 71
     2
 42
-1.0
  3
SLDDIMSTYLE2
100
AcDbAlignedDimension
 13
151.2116786037
 23
156.6826177162
 33
0.0
 14
164.8635306041
 24
158.6826177162
 34
0.0
100
AcDbRotatedDimension
  0
LINE
  5
485
330
1F
100
AcDbEntity
  8
0
  6
CENTERX2
 62
     7
370
    18
100
AcDbLine
 10
150.0116786037
 20
171.6826177162
 30
0.0
 11
156.2116786097
 21
171.6826177162
 31
0.0
  0
ENDSEC
  0
SECTION
  2
OBJECTS
  0
DICTIONARY
  5
C
330
0
100
AcDbDictionary
281
     1
  3
ACAD_GROUP
350
D
  3
ACAD_LAYOUT
350
1A
  3
ACAD_MLINESTYLE
350
17
  3
ACAD_PLOTSETTINGS
350
19
  3
ACAD_PLOTSTYLENAME
350
E
  3
ACAD_SCALELIST
350
47
  0
DICTIONARY
  5
D
102
{ACAD_REACTORS
330
C
102
}
330
C
100
AcDbDictionary
281
     1
  0
DICTIONARY
  5
1A
102
{ACAD_REACTORS
330
C
102
}
330
C
100
AcDbDictionary
281
     1
  3
Layout1
350
1E
  3
Layout2
350
26
  3
Model
350
22
  0
DICTIONARY
  5
17
102
{ACAD_REACTORS
330
C
102
}
330
C
100
AcDbDictionary
281
     1
  3
Standard
350
18
  0
DICTIONARY
  5
19
102
{ACAD_REACTORS
330
C
102
}
330
C
100
AcDbDictionary
281
     1
  0
ACDBDICTIONARYWDFLT
  5
E
102
{ACAD_REACTORS
330
C
102
}
330
C
100
AcDbDictionary
281
     1
  3
Normal
350
F
100
AcDbDictionaryWithDefault
340
F
  0
DICTIONARY
  5
47
102
{ACAD_REACTORS
330
C
102
}
330
C
100
AcDbDictionary
281
     1
  3
A0
350
48
  3
A1
350
49
  3
A2
350
4A
  3
A3
350
4B
  3
A4
350
4C
  3
A5
350
4D
  3
A6
350
4E
  3
A7
350
4F
  3
A8
350
50
  3
A9
350
51
  3
B0
350
52
  3
B1
350
53
  3
B2
350
54
  3
B3
350
55
  3
B4
350
56
  3
B5
350
57
  3
B6
350
58
  3
B7
350
59
  3
B8
350
5A
  3
B9
350
5B
  3
C0
350
5C
  3
C1
350
5D
  3
C2
350
5E
  3
C3
350
5F
  3
C4
350
60
  3
C5
350
61
  3
C6
350
62
  3
C7
350
63
  3
C8
350
64
  3
C9
350
65
  3
D0
350
66
  3
D1
350
67
  3
D2
350
68
  0
LAYOUT
  5
1E
102
{ACAD_REACTORS
330
1A
102
}
330
1A
100
AcDbPlotSettings
  1

  2
none_device
  4

  6

 40
0.0
 41
0.0
 42
0.0
 43
0.0
 44
0.0
 45
0.0
 46
0.0
 47
0.0
 48
0.0
 49
0.0
140
0.0
141
0.0
142
1.0
143
1.0
 70
   688
 72
     1
 73
     0
 74
     5
  7

 75
    16
147
1.0
148
0.0
149
0.0
100
AcDbLayout
  1
Layout1
 70
     1
 71
     1
 10
0.0
 20
0.0
 11
420.0
 21
297.0
 12
0.0
 22
0.0
 32
0.0
 14
1.0000000000E+20
 24
1.0000000000E+20
 34
1.0000000000E+20
 15
-1.0000000000E+20
 25
-1.0000000000E+20
 35
-1.0000000000E+20
146
0.0
 13
0.0
 23
0.0
 33
0.0
 16
1.0
 26
0.0
 36
0.0
 17
0.0
 27
1.0
 37
0.0
 76
     0
330
1B
  0
LAYOUT
  5
26
102
{ACAD_REACTORS
330
1A
102
}
330
1A
100
AcDbPlotSettings
  1

  2
none_device
  4

  6

 40
0.0
 41
0.0
 42
0.0
 43
0.0
 44
0.0
 45
0.0
 46
0.0
 47
0.0
 48
0.0
 49
0.0
140
0.0
141
0.0
142
1.0
143
1.0
 70
   688
 72
     1
 73
     0
 74
     5
  7

 75
    16
147
1.0
148
0.0
149
0.0
100
AcDbLayout
  1
Layout2
 70
     1
 71
     2
 10
0.0
 20
0.0
 11
0.0
 21
0.0
 12
0.0
 22
0.0
 32
0.0
 14
0.0
 24
0.0
 34
0.0
 15
0.0
 25
0.0
 35
0.0
146
0.0
 13
0.0
 23
0.0
 33
0.0
 16
1.0
 26
0.0
 36
0.0
 17
0.0
 27
1.0
 37
0.0
 76
     0
330
23
  0
LAYOUT
  5
22
102
{ACAD_REACTORS
330
1A
102
}
330
1A
100
AcDbPlotSettings
  1

  2
none_device
  4
Letter_(8.50_x_11.00_Inches)
  6

 40
6.35
 41
6.35
 42
6.35000508
 43
6.35000508
 44
215.9
 45
279.4
 46
0.0
 47
0.0
 48
0.0
 49
0.0
140
0.0
141
0.0
142
1.0
143
1.0
 70
  1712
 72
     1
 73
     0
 74
     0
  7

 75
     0
147
1.0
148
0.0
149
0.0
100
AcDbLayout
  1
Model
 70
     1
 71
     0
 10
0.0
 20
0.0
 11
210.0
 21
297.0
 12
0.0
 22
0.0
 32
0.0
 14
0.0
 24
0.0
 34
0.0
 15
210.0
 25
297.0
 35
0.0
146
0.0
 13
0.0
 23
0.0
 33
0.0
 16
1.0
 26
0.0
 36
0.0
 17
0.0
 27
1.0
 37
0.0
 76
     0
330
1F
331
29
  0
MLINESTYLE
  5
18
102
{ACAD_REACTORS
330
17
102
}
330
17
100
AcDbMlineStyle
  2
Standard
 70
     0
  3

 62
   256
 51
90.0
 52
90.0
 71
     2
 49
0.5
 62
   256
  6
BYLAYER
 49
-0.5
 62
   256
  6
BYLAYER
  0
ACDBPLACEHOLDER
  5
F
102
{ACAD_REACTORS
330
E
102
}
330
E
  0
SCALE
  5
48
102
{ACAD_REACTORS
330
47
102
}
330
47
100
AcDbScale
 70
     0
300
1:1
140
1.0
141
1.0
290
     1
  0
SCALE
  5
49
102
{ACAD_REACTORS
330
47
102
}
330
47
100
AcDbScale
 70
     0
300
1:2
140
1.0
141
2.0
290
     0
  0
SCALE
  5
4A
102
{ACAD_REACTORS
330
47
102
}
330
47
100
AcDbScale
 70
     0
300
1:4
140
1.0
141
4.0
290
     0
  0
SCALE
  5
4B
102
{ACAD_REACTORS
330
47
102
}
330
47
100
AcDbScale
 70
     0
300
1:5
140
1.0
141
5.0
290
     0
  0
SCALE
  5
4C
102
{ACAD_REACTORS
330
47
102
}
330
47
100
AcDbScale
 70
     0
300
1:8
140
1.0
141
8.0
290
     0
  0
SCALE
  5
4D
102
{ACAD_REACTORS
330
47
102
}
330
47
100
AcDbScale
 70
     0
300
1:10
140
1.0
141
10.0
290
     0
  0
SCALE
  5
4E
102
{ACAD_REACTORS
330
47
102
}
330
47
100
AcDbScale
 70
     0
300
1:16
140
1.0
141
16.0
290
     0
  0
SCALE
  5
4F
102
{ACAD_REACTORS
330
47
102
}
330
47
100
AcDbScale
 70
     0
300
1:20
140
1.0
141
20.0
290
     0
  0
SCALE
  5
50
102
{ACAD_REACTORS
330
47
102
}
330
47
100
AcDbScale
 70
     0
300
1:30
140
1.0
141
30.0
290
     0
  0
SCALE
  5
51
102
{ACAD_REACTORS
330
47
102
}
330
47
100
AcDbScale
 70
     0
300
1:40
140
1.0
141
40.0
290
     0
  0
SCALE
  5
52
102
{ACAD_REACTORS
330
47
102
}
330
47
100
AcDbScale
 70
     0
300
1:50
140
1.0
141
50.0
290
     0
  0
SCALE
  5
53
102
{ACAD_REACTORS
330
47
102
}
330
47
100
AcDbScale
 70
     0
300
1:100
140
1.0
141
100.0
290
     0
  0
SCALE
  5
54
102
{ACAD_REACTORS
330
47
102
}
330
47
100
AcDbScale
 70
     0
300
2:1
140
2.0
141
1.0
290
     0
  0
SCALE
  5
55
102
{ACAD_REACTORS
330
47
102
}
330
47
100
AcDbScale
 70
     0
300
4:1
140
4.0
141
1.0
290
     0
  0
SCALE
  5
56
102
{ACAD_REACTORS
330
47
102
}
330
47
100
AcDbScale
 70
     0
300
8:1
140
8.0
141
1.0
290
     0
  0
SCALE
  5
57
102
{ACAD_REACTORS
330
47
102
}
330
47
100
AcDbScale
 70
     0
300
10:1
140
10.0
141
1.0
290
     0
  0
SCALE
  5
58
102
{ACAD_REACTORS
330
47
102
}
330
47
100
AcDbScale
 70
     0
300
100:1
140
100.0
141
1.0
290
     0
  0
SCALE
  5
59
102
{ACAD_REACTORS
330
47
102
}
330
47
100
AcDbScale
 70
     0
300
1/128" = 1'-0"
140
0.0078125
141
12.0
290
     0
  0
SCALE
  5
5A
102
{ACAD_REACTORS
330
47
102
}
330
47
100
AcDbScale
 70
     0
300
1/64" = 1'-0"
140
0.015625
141
12.0
290
     0
  0
SCALE
  5
5B
102
{ACAD_REACTORS
330
47
102
}
330
47
100
AcDbScale
 70
     0
300
1/32" = 1'-0"
140
0.03125
141
12.0
290
     0
  0
SCALE
  5
5C
102
{ACAD_REACTORS
330
47
102
}
330
47
100
AcDbScale
 70
     0
300
1/16" = 1'-0"
140
0.0625
141
12.0
290
     0
  0
SCALE
  5
5D
102
{ACAD_REACTORS
330
47
102
}
330
47
100
AcDbScale
 70
     0
300
3/32" = 1'-0"
140
0.09375
141
12.0
290
     0
  0
SCALE
  5
5E
102
{ACAD_REACTORS
330
47
102
}
330
47
100
AcDbScale
 70
     0
300
1/8" = 1'-0"
140
0.125
141
12.0
290
     0
  0
SCALE
  5
5F
102
{ACAD_REACTORS
330
47
102
}
330
47
100
AcDbScale
 70
     0
300
3/16" = 1'-0"
140
0.1875
141
12.0
290
     0
  0
SCALE
  5
60
102
{ACAD_REACTORS
330
47
102
}
330
47
100
AcDbScale
 70
     0
300
1/4" = 1'-0"
140
0.25
141
12.0
290
     0
  0
SCALE
  5
61
102
{ACAD_REACTORS
330
47
102
}
330
47
100
AcDbScale
 70
     0
300
3/8" = 1'-0"
140
0.375
141
12.0
290
     0
  0
SCALE
  5
62
102
{ACAD_REACTORS
330
47
102
}
330
47
100
AcDbScale
 70
     0
300
1/2" = 1'-0"
140
0.5
141
12.0
290
     0
  0
SCALE
  5
63
102
{ACAD_REACTORS
330
47
102
}
330
47
100
AcDbScale
 70
     0
300
3/4" = 1'-0"
140
0.75
141
12.0
290
     0
  0
SCALE
  5
64
102
{ACAD_REACTORS
330
47
102
}
330
47
100
AcDbScale
 70
     0
300
1" = 1'-0"
140
1.0
141
12.0
290
     0
  0
SCALE
  5
65
102
{ACAD_REACTORS
330
47
102
}
330
47
100
AcDbScale
 70
     0
300
1-1/2" = 1'-0"
140
1.5
141
12.0
290
     0
  0
SCALE
  5
66
102
{ACAD_REACTORS
330
47
102
}
330
47
100
AcDbScale
 70
     0
300
3" = 1'-0"
140
3.0
141
12.0
290
     0
  0
SCALE
  5
67
102
{ACAD_REACTORS
330
47
102
}
330
47
100
AcDbScale
 70
     0
300
6" = 1'-0"
140
6.0
141
12.0
290
     0
  0
SCALE
  5
68
102
{ACAD_REACTORS
330
47
102
}
330
47
100
AcDbScale
 70
     0
300
1'-0" = 1'-0"
140
12.0
141
12.0
290
     0
  0
ENDSEC
  0
EOF
