  0
SECTION
  2
HEADER
  9
$ACADVER
  1
AC1015
  9
$ACADMAINTVER
 70
     6
  9
$DWGCODEPAGE
  3
DOS932
  9
$INSBASE
 10
0.0
 20
0.0
 30
0.0
  9
$EXTMIN
 10
0.0
 20
0.0
 30
0.0
  9
$EXTMAX
 10
210.0
 20
297.0
 30
0.0
  9
$LIMMIN
 10
0.0
 20
0.0
  9
$LIMMAX
 10
0.0
 20
0.0
  9
$ORTHOMODE
 70
     0
  9
$REGENMODE
 70
     1
  9
$FILLMODE
 70
     1
  9
$QTEXTMODE
 70
     0
  9
$MIRRTEXT
 70
     1
  9
$LTSCALE
 40
1.0
  9
$ATTMODE
 70
     1
  9
$TEXTSIZE
 40
3.5
  9
$TRACEWID
 40
1.0
  9
$TEXTSTYLE
  7
Standard
  9
$CLAYER
  8
0
  9
$CELTYPE
  6
ByLayer
  9
$CECOLOR
 62
   256
  9
$CELTSCALE
 40
1.0
  9
$DISPSILH
 70
     0
  9
$DIMSCALE
 40
1.0
  9
$DIMASZ
 40
3.0
  9
$DIMEXO
 40
1.0
  9
$DIMDLI
 40
3.75
  9
$DIMRND
 40
0.0
  9
$DIMDLE
 40
0.0
  9
$DIMEXE
 40
1.0
  9
$DIMTP
 40
0.0
  9
$DIMTM
 40
0.0
  9
$DIMTXT
 40
2.2
  9
$DIMCEN
 40
2.5
  9
$DIMTSZ
 40
0.0
  9
$DIMTOL
 70
     0
  9
$DIMLIM
 70
     0
  9
$DIMTIH
 70
     1
  9
$DIMTOH
 70
     1
  9
$DIMSE1
 70
     0
  9
$DIMSE2
 70
     0
  9
$DIMTAD
 70
     1
  9
$DIMZIN
 70
     1
  9
$DIMBLK
  1

  9
$DIMASO
 70
     1
  9
$DIMSHO
 70
     1
  9
$DIMPOST
  1

  9
$DIMAPOST
  1

  9
$DIMALT
 70
     0
  9
$DIMALTD
 70
     3
  9
$DIMALTF
 40
0.0393700787
  9
$DIMLFAC
 40
1.0
  9
$DIMTOFL
 70
     1
  9
$DIMTVP
 40
0.0
  9
$DIMTIX
 70
     0
  9
$DIMSOXD
 70
     0
  9
$DIMSAH
 70
     0
  9
$DIMBLK1
  1

  9
$DIMBLK2
  1

  9
$DIMSTYLE
  2
ISO-25
  9
$DIMCLRD
 70
     0
  9
$DIMCLRE
 70
     0
  9
$DIMCLRT
 70
     0
  9
$DIMTFAC
 40
1.0
  9
$DIMGAP
 40
1.524
  9
$DIMJUST
 70
     0
  9
$DIMSD1
 70
     0
  9
$DIMSD2
 70
     0
  9
$DIMTOLJ
 70
     0
  9
$DIMTZIN
 70
     1
  9
$DIMALTZ
 70
     0
  9
$DIMALTTZ
 70
     0
  9
$DIMUPT
 70
     0
  9
$DIMDEC
 70
     2
  9
$DIMTDEC
 70
     2
  9
$DIMALTU
 70
     2
  9
$DIMALTTD
 70
     3
  9
$DIMTXSTY
  7
Standard
  9
$DIMAUNIT
 70
     0
  9
$DIMADEC
 70
     0
  9
$DIMALTRND
 40
0.0
  9
$DIMAZIN
 70
     0
  9
$DIMDSEP
 70
    44
  9
$DIMATFIT
 70
     3
  9
$DIMFRAC
 70
     0
  9
$DIMLDRBLK
  1

  9
$DIMLUNIT
 70
     2
  9
$DIMLWD
 70
    -2
  9
$DIMLWE
 70
    -2
  9
$DIMTMOVE
 70
     0
  9
$LUNITS
 70
     2
  9
$LUPREC
 70
     2
  9
$SKETCHINC
 40
1.0
  9
$FILLETRAD
 40
10.0
  9
$AUNITS
 70
     0
  9
$AUPREC
 70
     0
  9
$MENU
  1
.
  9
$ELEVATION
 40
0.0
  9
$PELEVATION
 40
0.0
  9
$THICKNESS
 40
0.0
  9
$LIMCHECK
 70
     0
  9
$CHAMFERA
 40
10.0
  9
$CHAMFERB
 40
10.0
  9
$CHAMFERC
 40
20.0
  9
$CHAMFERD
 40
0.0
  9
$SKPOLY
 70
     0
  9
$TDCREATE
 40
2454389.555622465
  9
$TDUCREATE
 40
2454389.180622465
  9
$TDUPDATE
 40
2454389.555622477
  9
$TDUUPDATE
 40
2454389.180622477
  9
$TDINDWG
 40
0.0000000116
  9
$TDUSRTIMER
 40
0.0000000116
  9
$USRTIMER
 70
     1
  9
$ANGBASE
 50
0.0
  9
$ANGDIR
 70
     0
  9
$PDMODE
 70
     0
  9
$PDSIZE
 40
-1.0
  9
$PLINEWID
 40
0.0
  9
$SPLFRAME
 70
     0
  9
$SPLINETYPE
 70
     6
  9
$SPLINESEGS
 70
     8
  9
$HANDSEED
  5
11C
  9
$SURFTAB1
 70
     6
  9
$SURFTAB2
 70
     6
  9
$SURFTYPE
 70
     6
  9
$SURFU
 70
     6
  9
$SURFV
 70
     6
  9
$UCSBASE
  2

  9
$UCSNAME
  2

  9
$UCSORG
 10
0.0
 20
0.0
 30
0.0
  9
$UCSXDIR
 10
1.0
 20
0.0
 30
0.0
  9
$UCSYDIR
 10
0.0
 20
1.0
 30
0.0
  9
$UCSORTHOREF
  2

  9
$UCSORTHOVIEW
 70
     0
  9
$UCSORGTOP
 10
0.0
 20
0.0
 30
0.0
  9
$UCSORGBOTTOM
 10
0.0
 20
0.0
 30
0.0
  9
$UCSORGLEFT
 10
0.0
 20
0.0
 30
0.0
  9
$UCSORGRIGHT
 10
0.0
 20
0.0
 30
0.0
  9
$UCSORGFRONT
 10
0.0
 20
0.0
 30
0.0
  9
$UCSORGBACK
 10
0.0
 20
0.0
 30
0.0
  9
$PUCSBASE
  2

  9
$PUCSNAME
  2

  9
$PUCSORG
 10
0.0
 20
0.0
 30
0.0
  9
$PUCSXDIR
 10
1.0
 20
0.0
 30
0.0
  9
$PUCSYDIR
 10
0.0
 20
1.0
 30
0.0
  9
$PUCSORTHOREF
  2

  9
$PUCSORTHOVIEW
 70
     0
  9
$PUCSORGTOP
 10
0.0
 20
0.0
 30
0.0
  9
$PUCSORGBOTTOM
 10
0.0
 20
0.0
 30
0.0
  9
$PUCSORGLEFT
 10
0.0
 20
0.0
 30
0.0
  9
$PUCSORGRIGHT
 10
0.0
 20
0.0
 30
0.0
  9
$PUCSORGFRONT
 10
0.0
 20
0.0
 30
0.0
  9
$PUCSORGBACK
 10
0.0
 20
0.0
 30
0.0
  9
$USERI1
 70
     0
  9
$USERI2
 70
     0
  9
$USERI3
 70
     0
  9
$USERI4
 70
     0
  9
$USERI5
 70
     0
  9
$USERR1
 40
0.0
  9
$USERR2
 40
0.0
  9
$USERR3
 40
0.0
  9
$USERR4
 40
0.0
  9
$USERR5
 40
0.0
  9
$WORLDVIEW
 70
     1
  9
$SHADEDGE
 70
     3
  9
$SHADEDIF
 70
    70
  9
$TILEMODE
 70
     1
  9
$MAXACTVP
 70
    64
  9
$PINSBASE
 10
0.0
 20
0.0
 30
0.0
  9
$PLIMCHECK
 70
     0
  9
$PEXTMIN
 10
1.0000000000E+20
 20
1.0000000000E+20
 30
1.0000000000E+20
  9
$PEXTMAX
 10
-1.0000000000E+20
 20
-1.0000000000E+20
 30
-1.0000000000E+20
  9
$PLIMMIN
 10
0.0
 20
0.0
  9
$PLIMMAX
 10
420.0
 20
297.0
  9
$UNITMODE
 70
     0
  9
$VISRETAIN
 70
     1
  9
$PLINEGEN
 70
     0
  9
$PSLTSCALE
 70
     1
  9
$TREEDEPTH
 70
  3020
  9
$CMLSTYLE
  2
Standard
  9
$CMLJUST
 70
     0
  9
$CMLSCALE
 40
20.0
  9
$PROXYGRAPHICS
 70
     1
  9
$MEASUREMENT
 70
     1
  9
$CELWEIGHT
370
    -1
  9
$ENDCAPS
280
     0
  9
$JOINSTYLE
280
     0
  9
$LWDISPLAY
290
     1
  9
$INSUNITS
 70
     4
  9
$HYPERLINKBASE
  1

  9
$STYLESHEET
  1

  9
$XEDIT
290
     1
  9
$CEPSNTYPE
380
     0
  9
$PSTYLEMODE
290
     1
  9
$FINGERPRINTGUID
  2
{A3244AE9-9615-4612-9BB1-C948D68D6922}
  9
$VERSIONGUID
  2
{FAEB1C32-E019-11D5-929B-00C0DF256EC4}
  9
$EXTNAMES
290
     1
  9
$PSVPSCALE
 40
0.0
  9
$OLESTARTUP
290
     0
  0
ENDSEC
  0
SECTION
  2
CLASSES
  0
CLASS
  1
ACDBDICTIONARYWDFLT
  2
AcDbDictionaryWithDefault
  3
ObjectDBX Classes
 90
        0
280
     0
281
     0
  0
CLASS
  1
ACDBPLACEHOLDER
  2
AcDbPlaceHolder
  3
ObjectDBX Classes
 90
        0
280
     0
281
     0
  0
CLASS
  1
LAYOUT
  2
AcDbLayout
  3
ObjectDBX Classes
 90
        0
280
     0
281
     0
  0
ENDSEC
  0
SECTION
  2
TABLES
  0
TABLE
  2
VPORT
  5
8
330
0
100
AcDbSymbolTable
 70
     1
  0
VPORT
  5
29
330
8
100
AcDbSymbolTableRecord
100
AcDbViewportTableRecord
  2
*Active
 70
     0
 10
0.0
 20
0.0
 11
1.0
 21
1.0
 12
105.0
 22
148.5
 13
0.0
 23
0.0
 14
10.0
 24
10.0
 15
10.0
 25
10.0
 16
0.0
 26
0.0
 36
1.0
 17
0.0
 27
0.0
 37
0.0
 40
297.0
 41
1.9729729729
 42
50.0
 43
0.0
 44
0.0
 50
0.0
 51
0.0
 71
     0
 72
  2000
 73
     1
 74
     3
 75
     0
 76
     0
 77
     0
 78
     0
281
     0
 65
     1
110
0.0
120
0.0
130
0.0
111
1.0
121
0.0
131
0.0
112
0.0
122
1.0
132
0.0
 79
     0
146
0.0
  0
ENDTAB
  0
TABLE
  2
LTYPE
  5
5
330
0
100
AcDbSymbolTable
 70
     6
  0
LTYPE
  5
14
330
5
100
AcDbSymbolTableRecord
100
AcDbLinetypeTableRecord
  2
ByBlock
 70
     0
  3

 72
    65
 73
     0
 40
0.0
  0
LTYPE
  5
15
330
5
100
AcDbSymbolTableRecord
100
AcDbLinetypeTableRecord
  2
ByLayer
 70
     0
  3

 72
    65
 73
     0
 40
0.0
  0
LTYPE
  5
16
330
5
100
AcDbSymbolTableRecord
100
AcDbLinetypeTableRecord
  2
Continuous
 70
     0
  3
Solid line
 72
    65
 73
     0
 40
0.0
  0
LTYPE
  5
2A
330
5
100
AcDbSymbolTableRecord
100
AcDbLinetypeTableRecord
  2
HIDDEN
 70
     0
  3
Hidden __ __ __ __ __ __ __ __ __ __ __ __ __ __
 72
    65
 73
     2
 40
1.905
 49
1.27
 74
     0
 49
-0.635
 74
     0
  0
LTYPE
  5
2B
330
5
100
AcDbSymbolTableRecord
100
AcDbLinetypeTableRecord
  2
PHANTOM
 70
     0
  3
Phantom ______  __  __  ______  __  __  ______
 72
    65
 73
     6
 40
12.7
 49
6.35
 74
     0
 49
-1.27
 74
     0
 49
1.27
 74
     0
 49
-1.27
 74
     0
 49
1.27
 74
     0
 49
-1.27
 74
     0
  0
LTYPE
  5
2C
330
5
100
AcDbSymbolTableRecord
100
AcDbLinetypeTableRecord
  2
CENTER
 70
     0
  3
Center ____ _ ____ _ ____ _ ____ _ ____ _ ____
 72
    65
 73
     4
 40
10.16
 49
6.35
 74
     0
 49
-1.27
 74
     0
 49
1.27
 74
     0
 49
-1.27
 74
     0
  0
LTYPE
  5
2D
330
5
100
AcDbSymbolTableRecord
100
AcDbLinetypeTableRecord
  2
CENTERX2
 70
     0
  3
Center (2x) ________  __  ________  __  _____
 72
    65
 73
     4
 40
20.32
 49
12.7
 74
     0
 49
-2.54
 74
     0
 49
2.54
 74
     0
 49
-2.54
 74
     0
  0
LTYPE
  5
2E
330
5
100
AcDbSymbolTableRecord
100
AcDbLinetypeTableRecord
  2
DOT2
 70
     0
  3
Dot (.5x) ........................................
 72
    65
 73
     2
 40
0.635
 49
0.0
 74
     0
 49
-0.635
 74
     0
  0
ENDTAB
  0
TABLE
  2
LAYER
  5
2
330
0
100
AcDbSymbolTable
 70
     4
  0
LAYER
  5
10
330
2
100
AcDbSymbolTableRecord
100
AcDbLayerTableRecord
  2
0
 70
     0
 62
     7
  6
Continuous
370
    -3
390
F
  0
LAYER
  5
2F
330
2
100
AcDbSymbolTableRecord
100
AcDbLayerTableRecord
  2
SLD-0
 70
     0
 62
     7
  6
Continuous
370
     0
390
F
  0
LAYER
  5
30
330
2
100
AcDbSymbolTableRecord
100
AcDbLayerTableRecord
  2
SLD-DEFPOINTS
 70
     0
 62
     7
  6
Continuous
370
     0
390
F
  0
LAYER
  5
8D
330
2
100
AcDbSymbolTableRecord
100
AcDbLayerTableRecord
  2
Defpoints
 70
     0
 62
     7
  6
Continuous
290
     0
370
    -3
390
F
  0
ENDTAB
  0
TABLE
  2
STYLE
  5
3
330
0
100
AcDbSymbolTable
 70
     5
  0
STYLE
  5
11
330
3
100
AcDbSymbolTableRecord
100
AcDbTextStyleTableRecord
  2
Standard
 70
     0
 40
0.0
 41
1.0
 50
0.0
 71
     0
 42
2.5
  3
txt
  4
bigfont
  0
STYLE
  5
34
330
3
100
AcDbSymbolTableRecord
100
AcDbTextStyleTableRecord
  2
SLDTEXTSTYLE0
 70
     0
 40
0.0
 41
0.7
 50
0.0
 71
     0
 42
0.2
  3
TXT
  4
bigfont
  0
STYLE
  5
9A
330
3
100
AcDbSymbolTableRecord
100
AcDbTextStyleTableRecord
  2
SLDTEXTSTYLE1
 70
     0
 40
0.0
 41
1.08
 50
0.0
 71
     0
 42
0.2
  3
SIMPLEX
  4
bigfont
  0
STYLE
  5
A2
330
3
100
AcDbSymbolTableRecord
100
AcDbTextStyleTableRecord
  2
SLDTEXTSTYLE2
 70
     0
 40
0.0
 41
0.97
 50
0.0
 71
     0
 42
0.2
  3
SIMPLEX
  4
bigfont
  0
STYLE
  5
113
330
3
100
AcDbSymbolTableRecord
100
AcDbTextStyleTableRecord
  2
SLDTEXTSTYLE3
 70
     0
 40
0.0
 41
1.0793434
 50
0.0
 71
     0
 42
0.2
  3
SIMPLEX
  4
bigfont
  0
ENDTAB
  0
TABLE
  2
VIEW
  5
6
330
0
100
AcDbSymbolTable
 70
     0
  0
ENDTAB
  0
TABLE
  2
UCS
  5
7
330
0
100
AcDbSymbolTable
 70
     0
  0
ENDTAB
  0
TABLE
  2
APPID
  5
9
330
0
100
AcDbSymbolTable
 70
     1
  0
APPID
  5
12
330
9
100
AcDbSymbolTableRecord
100
AcDbRegAppTableRecord
  2
ACAD
 70
     0
  0
ENDTAB
  0
TABLE
  2
DIMSTYLE
  5
A
330
0
100
AcDbSymbolTable
 70
     3
100
AcDbDimStyleTable
  0
DIMSTYLE
105
27
330
A
100
AcDbSymbolTableRecord
100
AcDbDimStyleTableRecord
  2
ISO-25
 70
     0
 41
2.5
 42
0.625
 43
3.75
 44
1.25
 73
     0
 74
     0
 77
     1
 78
     8
140
2.5
141
2.5
143
0.0393700787
147
0.625
171
     3
172
     1
271
     2
272
     2
274
     3
278
    44
283
     0
284
     8
340
11
  0
DIMSTYLE
105
9B
102
{ACAD_REACTORS
330
8C
330
A6
330
CE
330
E6
330
F9
102
}
330
A
100
AcDbSymbolTableRecord
100
AcDbDimStyleTableRecord
  2
SLDDIMSTYLE0
 70
     0
 41
3.0
 44
0.0
 73
     0
 74
     0
 77
     3
 78
    12
140
2.2
147
0.55
173
     1
271
     0
272
     2
284
    12
340
9A
341
9C
343
9C
344
9C
  0
DIMSTYLE
105
C7
102
{ACAD_REACTORS
330
B9
102
}
330
A
100
AcDbSymbolTableRecord
100
AcDbDimStyleTableRecord
  2
SLDDIMSTYLE1
 70
     0
 41
3.0
 44
0.0
 73
     0
 74
     0
 77
     3
 78
    12
140
2.2
147
0.55
173
     1
271
     1
272
     2
284
    12
340
9A
341
9C
343
9C
344
9C
  0
ENDTAB
  0
TABLE
  2
BLOCK_RECORD
  5
1
330
0
100
AcDbSymbolTable
 70
     9
  0
BLOCK_RECORD
  5
1F
330
1
100
AcDbSymbolTableRecord
100
AcDbBlockTableRecord
  2
*Model_Space
340
22
  0
BLOCK_RECORD
  5
1B
330
1
100
AcDbSymbolTableRecord
100
AcDbBlockTableRecord
  2
*Paper_Space
340
1E
  0
BLOCK_RECORD
  5
23
330
1
100
AcDbSymbolTableRecord
100
AcDbBlockTableRecord
  2
*Paper_Space0
340
26
  0
BLOCK_RECORD
  5
31
330
1
100
AcDbSymbolTableRecord
100
AcDbBlockTableRecord
  2
注記
340
0
  0
BLOCK_RECORD
  5
8E
330
1
100
AcDbSymbolTableRecord
100
AcDbBlockTableRecord
  2
*D2
340
0
  0
BLOCK_RECORD
  5
9C
330
1
100
AcDbSymbolTableRecord
100
AcDbBlockTableRecord
  2
_None
340
0
102
{BLKREFS
331
93
331
92
331
AC
331
AB
331
BF
331
BE
331
D5
331
D4
331
EC
331
EB
331
100
331
FF
102
}
  0
BLOCK_RECORD
  5
A7
330
1
100
AcDbSymbolTableRecord
100
AcDbBlockTableRecord
  2
*D4
340
0
  0
BLOCK_RECORD
  5
BA
330
1
100
AcDbSymbolTableRecord
100
AcDbBlockTableRecord
  2
*D5
340
0
  0
BLOCK_RECORD
  5
CF
330
1
100
AcDbSymbolTableRecord
100
AcDbBlockTableRecord
  2
*D6
340
0
  0
BLOCK_RECORD
  5
E7
330
1
100
AcDbSymbolTableRecord
100
AcDbBlockTableRecord
  2
*D7
340
0
  0
BLOCK_RECORD
  5
FA
330
1
100
AcDbSymbolTableRecord
100
AcDbBlockTableRecord
  2
*D8
340
0
  0
ENDTAB
  0
ENDSEC
  0
SECTION
  2
BLOCKS
  0
BLOCK
  5
20
330
1F
100
AcDbEntity
  8
0
100
AcDbBlockBegin
  2
*Model_Space
 70
     0
 71
     0
 10
0.0
 20
0.0
 30
0.0
  3
*Model_Space
  1

  0
ENDBLK
  5
21
330
1F
100
AcDbEntity
  8
0
100
AcDbBlockEnd
  0
BLOCK
  5
1C
330
1B
100
AcDbEntity
 67
     1
  8
0
100
AcDbBlockBegin
  2
*Paper_Space
 70
     0
 71
     0
 10
0.0
 20
0.0
 30
0.0
  3
*Paper_Space
  1

  0
ENDBLK
  5
1D
330
1B
100
AcDbEntity
 67
     1
  8
0
100
AcDbBlockEnd
  0
BLOCK
  5
24
330
23
100
AcDbEntity
  8
0
100
AcDbBlockBegin
  2
*Paper_Space0
 70
     0
 71
     0
 10
0.0
 20
0.0
 30
0.0
  3
*Paper_Space0
  1

  0
ENDBLK
  5
25
330
23
100
AcDbEntity
  8
0
100
AcDbBlockEnd
  0
BLOCK
  5
32
330
31
100
AcDbEntity
  8
0
100
AcDbBlockBegin
  2
注記
 70
     0
 71
     0
 10
0.0
 20
0.0
 30
0.0
  3
注記
  1

  0
MTEXT
  5
35
330
31
100
AcDbEntity
  8
0
  6
Continuous
 62
     7
370
     0
100
AcDbMText
 10
0.2636785918
 20
9.0739778448
 30
0.0
 40
3.5
 41
0.0
 71
     1
 72
     1
  1
１．特記ナキ角部ハ、バリ　カエリノ無キコト。
  7
SLDTEXTSTYLE0
 73
     1
 44
1.0
  0
MTEXT
  5
36
330
31
100
AcDbEntity
  8
0
  6
Continuous
 62
     7
370
     0
100
AcDbMText
 10
0.2636785918
 20
3.5759549983
 30
0.0
 40
3.5
 41
0.0
 71
     1
 72
     1
  1
２．特記ナキ隅部ハ、Ｒ０．４ＭＡＸトスル。
  7
SLDTEXTSTYLE0
 73
     1
 44
1.0
  0
ENDBLK
  5
33
330
31
100
AcDbEntity
  8
0
100
AcDbBlockEnd
  0
BLOCK
  5
98
330
8E
100
AcDbEntity
  8
0
100
AcDbBlockBegin
  2
*D2
 70
     1
 71
     0
 10
0.0
 20
0.0
 30
0.0
  3
*D2
  1

  0
LINE
  5
9F
330
8E
100
AcDbEntity
  8
SLD-0
 62
     4
100
AcDbLine
 10
60.125
 20
130.275
 30
0.0
 11
60.125
 21
141.575001
 31
0.0
  0
LINE
  5
A0
330
8E
100
AcDbEntity
  8
SLD-0
 62
     4
100
AcDbLine
 10
87.125
 20
130.575
 30
0.0
 11
87.125
 21
141.575001
 31
0.0
  0
LINE
  5
A1
330
8E
100
AcDbEntity
  8
SLD-0
 62
     4
100
AcDbLine
 10
63.125
 20
140.575001
 30
0.0
 11
84.125
 21
140.575001
 31
0.0
  0
MTEXT
  5
A3
330
8E
100
AcDbEntity
  8
SLD-0
 62
     4
100
AcDbMText
 10
71.7015714286
 20
143.875001
 30
0.1
 40
2.2
 41
0.0
 71
     1
 72
     1
  1
27
  7
SLDTEXTSTYLE2
 73
     1
 44
1.0
  0
SOLID
  5
A4
330
8E
100
AcDbEntity
  8
SLD-0
 62
     4
100
AcDbTrace
 10
63.125
 20
141.075001
 30
0.0
 11
63.125
 21
140.075001
 31
0.0
 12
60.125
 22
140.575001
 32
0.0
 13
60.125
 23
140.575001
 33
0.0
  0
SOLID
  5
A5
330
8E
100
AcDbEntity
  8
SLD-0
 62
     4
100
AcDbTrace
 10
84.125
 20
141.075001
 30
0.0
 11
84.125
 21
140.075001
 31
0.0
 12
87.125
 22
140.575001
 32
0.0
 13
87.125
 23
140.575001
 33
0.0
  0
ENDBLK
  5
99
330
8E
100
AcDbEntity
  8
0
100
AcDbBlockEnd
  0
BLOCK
  5
9D
330
9C
100
AcDbEntity
  8
0
100
AcDbBlockBegin
  2
_None
 70
     0
 71
     0
 10
0.0
 20
0.0
 30
0.0
  3
_None
  1

  0
ENDBLK
  5
9E
330
9C
100
AcDbEntity
  8
0
100
AcDbBlockEnd
  0
BLOCK
  5
B1
330
A7
100
AcDbEntity
  8
0
100
AcDbBlockBegin
  2
*D4
 70
     1
 71
     0
 10
0.0
 20
0.0
 30
0.0
  3
*D4
  1

  0
LINE
  5
B3
330
A7
100
AcDbEntity
  8
SLD-0
 62
     4
100
AcDbLine
 10
90.163879
 20
126.0225058
 30
0.0
 11
90.163879
 21
141.575001
 31
0.0
  0
LINE
  5
B4
330
A7
100
AcDbEntity
  8
SLD-0
 62
     4
100
AcDbLine
 10
158.132904
 20
121.9749999
 30
0.0
 11
158.132904
 21
141.575001
 31
0.0
  0
LINE
  5
B5
330
A7
100
AcDbEntity
  8
SLD-0
 62
     4
100
AcDbLine
 10
93.163879
 20
140.575001
 30
0.0
 11
155.132904
 21
140.575001
 31
0.0
  0
MTEXT
  5
B6
330
A7
100
AcDbEntity
  8
SLD-0
 62
     4
100
AcDbMText
 10
100.8296486429
 20
143.875001
 30
0.1
 40
2.2
 41
0.0
 71
     1
 72
     1
  1
2000 (STANDARD LENGTH)
  7
SLDTEXTSTYLE2
 73
     1
 44
1.0
  0
SOLID
  5
B7
330
A7
100
AcDbEntity
  8
SLD-0
 62
     4
100
AcDbTrace
 10
93.163879
 20
141.075001
 30
0.0
 11
93.163879
 21
140.075001
 31
0.0
 12
90.163879
 22
140.575001
 32
0.0
 13
90.163879
 23
140.575001
 33
0.0
  0
SOLID
  5
B8
330
A7
100
AcDbEntity
  8
SLD-0
 62
     4
100
AcDbTrace
 10
155.132904
 20
141.075001
 30
0.0
 11
155.132904
 21
140.075001
 31
0.0
 12
158.132904
 22
140.575001
 32
0.0
 13
158.132904
 23
140.575001
 33
0.0
  0
ENDBLK
  5
B2
330
A7
100
AcDbEntity
  8
0
100
AcDbBlockEnd
  0
BLOCK
  5
C5
330
BA
100
AcDbEntity
  8
0
100
AcDbBlockBegin
  2
*D5
 70
     1
 71
     0
 10
0.0
 20
0.0
 30
0.0
  3
*D5
  1

  0
LINE
  5
C8
330
BA
100
AcDbEntity
  8
SLD-0
 62
     4
100
AcDbLine
 10
60.4249992
 20
130.575
 30
0.0
 11
49.424999
 21
130.575
 31
0.0
  0
LINE
  5
C9
330
BA
100
AcDbEntity
  8
SLD-0
 62
     4
100
AcDbLine
 10
63.92499924
 20
116.0749998
 30
0.0
 11
49.424999
 21
116.0749998
 31
0.0
  0
LINE
  5
CA
330
BA
100
AcDbEntity
  8
SLD-0
 62
     4
100
AcDbLine
 10
50.424999
 20
127.575
 30
0.0
 11
50.424999
 21
119.0749998
 31
0.0
  0
MTEXT
  5
CB
330
BA
100
AcDbEntity
  8
SLD-0
 62
     4
100
AcDbMText
 10
47.124999
 20
119.9307141857
 30
0.1
 40
2.2
 41
0.0
 71
     1
 72
     1
  1
14.5
  7
SLDTEXTSTYLE2
 11
6.123031769111886E-17
 21
1.0
 31
0.0
 73
     1
 44
1.0
  0
SOLID
  5
CC
330
BA
100
AcDbEntity
  8
SLD-0
 62
     4
100
AcDbTrace
 10
49.924999
 20
127.575
 30
0.0
 11
50.924999
 21
127.575
 31
0.0
 12
50.424999
 22
130.575
 32
0.0
 13
50.424999
 23
130.575
 33
0.0
  0
SOLID
  5
CD
330
BA
100
AcDbEntity
  8
SLD-0
 62
     4
100
AcDbTrace
 10
49.924999
 20
119.0749998
 30
0.0
 11
50.924999
 21
119.0749998
 31
0.0
 12
50.424999
 22
116.0749998
 32
0.0
 13
50.424999
 23
116.0749998
 33
0.0
  0
ENDBLK
  5
C6
330
BA
100
AcDbEntity
  8
0
100
AcDbBlockEnd
  0
BLOCK
  5
DC
330
CF
100
AcDbEntity
  8
0
100
AcDbBlockBegin
  2
*D6
 70
     1
 71
     0
 10
0.0
 20
0.0
 30
0.0
  3
*D6
  1

  0
LINE
  5
DE
330
CF
100
AcDbEntity
  8
SLD-0
 62
     4
100
AcDbLine
 10
87.125
 20
119.8749997616
 30
0.0
 11
87.125
 21
105.075
 31
0.0
  0
LINE
  5
DF
330
CF
100
AcDbEntity
  8
SLD-0
 62
     4
100
AcDbLine
 10
83.125
 20
114.875
 30
0.0
 11
83.125
 21
105.075
 31
0.0
  0
LINE
  5
E0
330
CF
100
AcDbEntity
  8
SLD-0
 62
     4
100
AcDbLine
 10
90.125
 20
106.075
 30
0.0
 11
93.125
 21
106.075
 31
0.0
  0
LINE
  5
E1
330
CF
100
AcDbEntity
  8
SLD-0
 62
     4
100
AcDbLine
 10
80.125
 20
106.075
 30
0.0
 11
77.125
 21
106.075
 31
0.0
  0
LINE
  5
E2
330
CF
100
AcDbEntity
  8
SLD-0
 62
     4
100
AcDbLine
 10
87.125
 20
106.075
 30
0.0
 11
83.125
 21
106.075
 31
0.0
  0
MTEXT
  5
E3
330
CF
100
AcDbEntity
  8
SLD-0
 62
     4
100
AcDbMText
 10
90.5303365351
 20
109.375
 30
0.1
 40
2.2
 41
0.0
 71
     1
 72
     1
  1
4
  7
SLDTEXTSTYLE2
 73
     1
 44
1.0
  0
SOLID
  5
E4
330
CF
100
AcDbEntity
  8
SLD-0
 62
     4
100
AcDbTrace
 10
90.125
 20
106.575
 30
0.0
 11
90.125
 21
105.575
 31
0.0
 12
87.125
 22
106.075
 32
0.0
 13
87.125
 23
106.075
 33
0.0
  0
SOLID
  5
E5
330
CF
100
AcDbEntity
  8
SLD-0
 62
     4
100
AcDbTrace
 10
80.125
 20
106.575
 30
0.0
 11
80.125
 21
105.575
 31
0.0
 12
83.125
 22
106.075
 32
0.0
 13
83.125
 23
106.075
 33
0.0
  0
ENDBLK
  5
DD
330
CF
100
AcDbEntity
  8
0
100
AcDbBlockEnd
  0
BLOCK
  5
F1
330
E7
100
AcDbEntity
  8
0
100
AcDbBlockBegin
  2
*D7
 70
     1
 71
     0
 10
0.0
 20
0.0
 30
0.0
  3
*D7
  1

  0
LINE
  5
F3
330
E7
100
AcDbEntity
  8
SLD-0
 62
     4
100
AcDbLine
 10
64.125
 20
114.875
 30
0.0
 11
64.125
 21
105.075
 31
0.0
  0
LINE
  5
F4
330
E7
100
AcDbEntity
  8
SLD-0
 62
     4
100
AcDbLine
 10
83.125
 20
114.875
 30
0.0
 11
83.125
 21
105.075
 31
0.0
  0
LINE
  5
F5
330
E7
100
AcDbEntity
  8
SLD-0
 62
     4
100
AcDbLine
 10
67.125
 20
106.075
 30
0.0
 11
80.125
 21
106.075
 31
0.0
  0
MTEXT
  5
F6
330
E7
100
AcDbEntity
  8
SLD-0
 62
     4
100
AcDbMText
 10
71.9844285714
 20
109.375
 30
0.1
 40
2.2
 41
0.0
 71
     1
 72
     1
  1
19
  7
SLDTEXTSTYLE2
 73
     1
 44
1.0
  0
SOLID
  5
F7
330
E7
100
AcDbEntity
  8
SLD-0
 62
     4
100
AcDbTrace
 10
67.125
 20
106.575
 30
0.0
 11
67.125
 21
105.575
 31
0.0
 12
64.125
 22
106.075
 32
0.0
 13
64.125
 23
106.075
 33
0.0
  0
SOLID
  5
F8
330
E7
100
AcDbEntity
  8
SLD-0
 62
     4
100
AcDbTrace
 10
80.125
 20
106.575
 30
0.0
 11
80.125
 21
105.575
 31
0.0
 12
83.125
 22
106.075
 32
0.0
 13
83.125
 23
106.075
 33
0.0
  0
ENDBLK
  5
F2
330
E7
100
AcDbEntity
  8
0
100
AcDbBlockEnd
  0
BLOCK
  5
106
330
FA
100
AcDbEntity
  8
0
100
AcDbBlockBegin
  2
*D8
 70
     1
 71
     0
 10
0.0
 20
0.0
 30
0.0
  3
*D8
  1

  0
LINE
  5
108
330
FA
100
AcDbEntity
  8
SLD-0
 62
     4
100
AcDbLine
 10
60.4249992
 20
179.875
 30
0.0
 11
49.424999
 21
179.875
 31
0.0
  0
LINE
  5
109
330
FA
100
AcDbEntity
  8
SLD-0
 62
     4
100
AcDbLine
 10
60.4249992
 20
175.875
 30
0.0
 11
49.424999
 21
175.875
 31
0.0
  0
LINE
  5
10A
330
FA
100
AcDbEntity
  8
SLD-0
 62
     4
100
AcDbLine
 10
50.424999
 20
182.875
 30
0.0
 11
50.424999
 21
185.875
 31
0.0
  0
LINE
  5
10B
330
FA
100
AcDbEntity
  8
SLD-0
 62
     4
100
AcDbLine
 10
50.424999
 20
172.875
 30
0.0
 11
50.424999
 21
169.875
 31
0.0
  0
LINE
  5
10C
330
FA
100
AcDbEntity
  8
SLD-0
 62
     4
100
AcDbLine
 10
50.424999
 20
169.875
 30
0.0
 11
50.424999
 21
168.201
 31
0.0
  0
LINE
  5
10D
330
FA
100
AcDbEntity
  8
SLD-0
 62
     4
100
AcDbLine
 10
50.424999
 20
179.875
 30
0.0
 11
50.424999
 21
175.875
 31
0.0
  0
MTEXT
  5
10E
330
FA
100
AcDbEntity
  8
SLD-0
 62
     4
100
AcDbMText
 10
47.124999
 20
168.1444285714
 30
0.1
 40
2.2
 41
0.0
 71
     1
 72
     1
  1
4
  7
SLDTEXTSTYLE2
 11
6.123031769111886E-17
 21
1.0
 31
0.0
 73
     1
 44
1.0
  0
SOLID
  5
10F
330
FA
100
AcDbEntity
  8
SLD-0
 62
     4
100
AcDbTrace
 10
49.924999
 20
182.875
 30
0.0
 11
50.924999
 21
182.875
 31
0.0
 12
50.424999
 22
179.875
 32
0.0
 13
50.424999
 23
179.875
 33
0.0
  0
SOLID
  5
110
330
FA
100
AcDbEntity
  8
SLD-0
 62
     4
100
AcDbTrace
 10
49.924999
 20
172.875
 30
0.0
 11
50.924999
 21
172.875
 31
0.0
 12
50.424999
 22
175.875
 32
0.0
 13
50.424999
 23
175.875
 33
0.0
  0
ENDBLK
  5
107
330
FA
100
AcDbEntity
  8
0
100
AcDbBlockEnd
  0
ENDSEC
  0
SECTION
  2
ENTITIES
  0
LINE
  5
37
330
1F
100
AcDbEntity
  8
SLD-0
  6
CENTER
 62
     2
100
AcDbLine
 10
59.1250004
 20
119.8749996
 30
0.0
 11
88.1250004
 21
119.8749996
 31
0.0
  0
LINE
  5
38
330
1F
100
AcDbEntity
  8
SLD-0
  6
CENTER
 62
     2
100
AcDbLine
 10
83.125
 20
124.875
 30
0.0
 11
83.125
 21
114.875
 31
0.0
  0
LINE
  5
39
330
1F
100
AcDbEntity
  8
SLD-0
  6
Continuous
 62
     7
100
AcDbLine
 10
87.1250008416
 20
130.5749996
 30
0.0
 11
87.1250008416
 21
119.8749996416
 31
0.0
  0
LINE
  5
3A
330
1F
100
AcDbEntity
  8
SLD-0
  6
CENTER
 62
     2
100
AcDbLine
 10
64.125
 20
124.875
 30
0.0
 11
64.125
 21
114.875
 31
0.0
  0
LINE
  5
3B
330
1F
100
AcDbEntity
  8
SLD-0
  6
Continuous
 62
     7
100
AcDbLine
 10
60.4249996
 20
130.5749996
 30
0.0
 11
87.1250008416
 21
130.5749996
 31
0.0
  0
LINE
  5
3C
330
1F
100
AcDbEntity
  8
SLD-0
  6
Continuous
 62
     7
100
AcDbLine
 10
63.9249996008
 20
116.0750001608
 30
0.0
 11
83.3250013608
 21
116.0750001608
 31
0.0
  0
LINE
  5
3D
330
1F
100
AcDbEntity
  8
SLD-0
  6
Continuous
 62
     7
100
AcDbLine
 10
60.125
 20
130.275
 30
0.0
 11
60.125
 21
119.8749997616
 31
0.0
  0
LINE
  5
3E
330
1F
100
AcDbEntity
  8
SLD-0
  6
Continuous
 62
     7
100
AcDbLine
 10
87.4249984216
 20
121.3150005553
 30
0.0
 11
89.0096164216
 21
121.3150005553
 31
0.0
  0
LINE
  5
3F
330
1F
100
AcDbEntity
  8
SLD-0
  6
CENTER
 62
     2
100
AcDbLine
 10
89.710051
 20
123.6658046
 30
0.0
 11
104.202496
 21
120.87499946
 31
0.0
  0
LINE
  5
40
330
1F
100
AcDbEntity
  8
SLD-0
  6
Continuous
 62
     7
100
AcDbLine
 10
87.368271
 20
126.5608554
 30
0.0
 11
89.869293
 21
126.0792346
 31
0.0
  0
LINE
  5
41
330
1F
100
AcDbEntity
  8
SLD-0
  6
Continuous
 62
     7
100
AcDbLine
 10
90.107151135
 20
125.7279172914
 30
0.0
 11
89.304203135
 21
121.5582707914
 31
0.0
  0
LINE
  5
42
330
1F
100
AcDbEntity
  8
SLD-0
  6
Continuous
 62
     7
100
AcDbLine
 10
89.9180555451
 20
124.7459603879
 30
0.0
 11
104.3074465451
 21
121.9750004879
 31
0.0
  0
LINE
  5
43
330
1F
100
AcDbEntity
  8
SLD-0
  6
Continuous
 62
     7
100
AcDbLine
 10
89.5020458141
 20
122.5856505879
 30
0.0
 11
104.0975468141
 21
119.7750007129
 31
0.0
  0
LINE
  5
44
330
1F
100
AcDbEntity
  8
SLD-0
  6
CENTER
 62
     2
100
AcDbLine
 10
104.202496
 20
120.87499946
 30
0.0
 11
160.74054
 21
120.87499946
 31
0.0
  0
LINE
  5
45
330
1F
100
AcDbEntity
  8
SLD-0
  6
Continuous
 62
     7
100
AcDbLine
 10
104.0975468141
 20
119.7750007129
 30
0.0
 11
114.7266888141
 21
119.7750005679
 31
0.0
  0
LINE
  5
46
330
1F
100
AcDbEntity
  8
SLD-0
  6
Continuous
 62
     7
100
AcDbLine
 10
104.3074465451
 20
121.9750004879
 30
0.0
 11
114.7266885451
 21
121.9750004879
 31
0.0
  0
LINE
  5
47
330
1F
100
AcDbEntity
  8
SLD-0
  6
Continuous
 62
     7
100
AcDbLine
 10
115.7266859457
 20
121.975000451
 30
0.0
 11
139.7266859457
 21
121.975000451
 31
0.0
  0
LINE
  5
48
330
1F
100
AcDbEntity
  8
SLD-0
  6
Continuous
 62
     7
100
AcDbLine
 10
115.7266874892
 20
119.775000531
 30
0.0
 11
139.7266844892
 21
119.775000531
 31
0.0
  0
LINE
  5
49
330
1F
100
AcDbEntity
  8
SLD-0
  6
Continuous
 62
     7
100
AcDbLine
 10
140.7266848165
 20
119.7750001779
 30
0.0
 11
158.1329038165
 21
119.7750001779
 31
0.0
  0
LINE
  5
4A
330
1F
100
AcDbEntity
  8
SLD-0
  6
Continuous
 62
     7
100
AcDbLine
 10
140.7266848863
 20
121.9750000979
 30
0.0
 11
158.1329038165
 21
121.9750000979
 31
0.0
  0
LINE
  5
4B
330
1F
100
AcDbEntity
  8
SLD-0
  6
Continuous
 62
     7
100
AcDbLine
 10
158.1329038165
 20
121.9750000979
 30
0.0
 11
158.1329038165
 21
119.7750001779
 31
0.0
  0
LINE
  5
4C
330
1F
100
AcDbEntity
  8
SLD-0
  6
Continuous
 62
     7
100
AcDbLine
 10
60.4249991
 20
179.8750001
 30
0.0
 11
89.8125629
 21
179.8750001
 31
0.0
  0
LINE
  5
4D
330
1F
100
AcDbEntity
  8
SLD-0
  6
Continuous
 62
     7
100
AcDbLine
 10
87.125
 20
179.575001
 30
0.0
 11
87.125
 21
176.174999
 31
0.0
  0
LINE
  5
4E
330
1F
100
AcDbEntity
  8
SLD-0
  6
Continuous
 62
     7
100
AcDbLine
 10
60.125
 20
179.575001
 30
0.0
 11
60.125
 21
176.174999
 31
0.0
  0
LINE
  5
4F
330
1F
100
AcDbEntity
  8
SLD-0
  6
Continuous
 62
     7
100
AcDbLine
 10
60.4249991
 20
175.8749999
 30
0.0
 11
89.8125629
 21
175.8749999
 31
0.0
  0
LINE
  5
50
330
1F
100
AcDbEntity
  8
SLD-0
  6
Continuous
 62
     7
100
AcDbLine
 10
90.1125629
 20
179.5750019
 30
0.0
 11
90.1125629
 21
176.1749999
 31
0.0
  0
LINE
  5
51
330
1F
100
AcDbEntity
  8
SLD-0
  6
CENTER
 62
     2
100
AcDbLine
 10
67.125
 20
180.875
 30
0.0
 11
67.125
 21
174.207081
 31
0.0
  0
LINE
  5
52
330
1F
100
AcDbEntity
  8
SLD-0
  6
PHANTOM
 62
     2
100
AcDbLine
 10
61.625
 20
178.875
 30
0.0
 11
61.625
 21
176.875
 31
0.0
  0
LINE
  5
53
330
1F
100
AcDbEntity
  8
SLD-0
  6
PHANTOM
 62
     2
100
AcDbLine
 10
72.625
 20
178.875
 30
0.0
 11
72.625
 21
176.875
 31
0.0
  0
LINE
  5
54
330
1F
100
AcDbEntity
  8
SLD-0
  6
Continuous
 62
     7
100
AcDbLine
 10
61.1000004
 20
179.375
 30
0.0
 11
61.1000004
 21
176.375
 31
0.0
  0
LINE
  5
55
330
1F
100
AcDbEntity
  8
SLD-0
  6
Continuous
 62
     7
100
AcDbLine
 10
73.1499996
 20
179.375
 30
0.0
 11
73.1499996
 21
176.375
 31
0.0
  0
LINE
  5
56
330
1F
100
AcDbEntity
  8
SLD-0
  6
CENTER
 62
     2
100
AcDbLine
 10
59.125
 20
177.875
 30
0.0
 11
91.112564
 21
177.875
 31
0.0
  0
LINE
  5
57
330
1F
100
AcDbEntity
  8
SLD-0
  6
Continuous
 62
     7
100
AcDbLine
 10
61.1000004
 20
176.375
 30
0.0
 11
73.1499996
 21
176.375
 31
0.0
  0
LINE
  5
58
330
1F
100
AcDbEntity
  8
SLD-0
  6
Continuous
 62
     7
100
AcDbLine
 10
61.1000004
 20
179.375
 30
0.0
 11
73.1499996
 21
179.375
 31
0.0
  0
LINE
  5
59
330
1F
100
AcDbEntity
  8
SLD-0
  6
PHANTOM
 62
     2
100
AcDbLine
 10
61.625
 20
176.875
 30
0.0
 11
72.625
 21
176.875
 31
0.0
  0
LINE
  5
5A
330
1F
100
AcDbEntity
  8
SLD-0
  6
PHANTOM
 62
     2
100
AcDbLine
 10
61.625
 20
178.875
 30
0.0
 11
72.625
 21
178.875
 31
0.0
  0
LINE
  5
5B
330
1F
100
AcDbEntity
  8
SLD-0
  6
Continuous
 62
     4
100
AcDbLine
 10
79.703723
 20
160.428543
 30
0.0
 11
82.703722
 21
160.428543
 31
0.0
  0
LINE
  5
5C
330
1F
100
AcDbEntity
  8
SLD-0
  6
Continuous
 62
     4
100
AcDbLine
 10
77.33322
 20
191.837692
 30
0.0
 11
80.33322
 21
191.837692
 31
0.0
  0
LINE
  5
5D
330
1F
100
AcDbEntity
  8
SLD-0
  6
PHANTOM
 62
     3
100
AcDbLine
 10
67.125
 20
150.575
 30
0.0
 11
67.125
 21
130.575
 31
0.0
  0
LINE
  5
5E
330
1F
100
AcDbEntity
  8
SLD-0
100
AcDbLine
 10
69.6831053478
 20
150.6655238934
 30
0.0
 11
69.0113087689
 21
151.4062595795
 31
0.0
  0
LINE
  5
5F
330
1F
100
AcDbEntity
  8
SLD-0
100
AcDbLine
 10
69.0113087689
 20
151.4062595795
 30
0.0
 11
67.125
 21
149.020502
 31
0.0
  0
LINE
  5
60
330
1F
100
AcDbEntity
  8
SLD-0
100
AcDbLine
 10
67.125
 20
149.020502
 30
0.0
 11
69.6831053478
 21
150.6655238934
 31
0.0
  0
LINE
  5
61
330
1F
100
AcDbEntity
  8
SLD-0
 62
     4
100
AcDbLine
 10
69.3472070583
 20
151.0358917365
 30
0.0
 11
79.703723
 21
160.428543
 31
0.0
  0
LINE
  5
62
330
1F
100
AcDbEntity
  8
SLD-0
100
AcDbLine
 10
69.2992142541
 20
180.0016899775
 30
0.0
 11
68.4919531774
 21
180.5918844828
 31
0.0
  0
LINE
  5
63
330
1F
100
AcDbEntity
  8
SLD-0
100
AcDbLine
 10
68.4919531774
 20
180.5918844828
 30
0.0
 11
67.1250002
 21
177.875004
 31
0.0
  0
LINE
  5
64
330
1F
100
AcDbEntity
  8
SLD-0
100
AcDbLine
 10
67.1250002
 20
177.875004
 30
0.0
 11
69.2992142541
 21
180.0016899775
 31
0.0
  0
LINE
  5
65
330
1F
100
AcDbEntity
  8
SLD-0
 62
     4
100
AcDbLine
 10
68.8955837157
 20
180.2967872301
 30
0.0
 11
77.33322
 21
191.837692
 31
0.0
  0
LINE
  5
66
330
1F
100
AcDbEntity
  8
0
  6
Continuous
 62
     7
370
     0
100
AcDbLine
 10
20.2604743903
 20
285.0
 30
0.0
 11
196.7604743903
 21
285.0
 31
0.0
  0
LINE
  5
67
330
1F
100
AcDbEntity
  8
0
  6
Continuous
 62
     7
370
     0
100
AcDbLine
 10
20.2604743903
 20
285.0
 30
0.0
 11
20.2604743903
 21
10.0
 31
0.0
  0
LINE
  5
68
330
1F
100
AcDbEntity
  8
0
  6
Continuous
 62
     7
370
     0
100
AcDbLine
 10
20.2604743903
 20
10.0
 30
0.0
 11
196.7604743903
 21
10.0
 31
0.0
  0
LINE
  5
69
330
1F
100
AcDbEntity
  8
0
  6
Continuous
 62
     7
370
     0
100
AcDbLine
 10
196.7604743903
 20
285.0
 30
0.0
 11
196.7604743903
 21
10.0
 31
0.0
  0
LINE
  5
6A
330
1F
100
AcDbEntity
  8
0
  6
Continuous
 62
     7
370
     0
100
AcDbLine
 10
127.0104743903
 20
50.75
 30
0.0
 11
196.7604743903
 21
50.75
 31
0.0
  0
LINE
  5
6B
330
1F
100
AcDbEntity
  8
0
  6
Continuous
 62
     7
370
     0
100
AcDbLine
 10
127.0104743903
 20
50.75
 30
0.0
 11
127.0104743903
 21
10.0
 31
0.0
  0
LINE
  5
6C
330
1F
100
AcDbEntity
  8
0
  6
Continuous
 62
     7
370
     0
100
AcDbLine
 10
127.0104743903
 20
22.75
 30
0.0
 11
196.7604743903
 21
22.75
 31
0.0
  0
LINE
  5
6D
330
1F
100
AcDbEntity
  8
0
  6
Continuous
 62
     7
370
     0
100
AcDbLine
 10
127.0104743903
 20
36.75
 30
0.0
 11
196.7604743903
 21
36.75
 31
0.0
  0
ARC
  5
6E
330
1F
100
AcDbEntity
  8
SLD-0
  6
Continuous
 62
     7
100
AcDbCircle
 10
83.3250013608
 20
119.8749996416
 30
0.0
 40
3.799999480790717
100
AcDbArc
 50
270.0
 51
0.0
  0
CIRCLE
  5
6F
330
1F
100
AcDbEntity
  8
SLD-0
  6
Continuous
 62
     7
100
AcDbCircle
 10
83.125
 20
119.875
 30
0.0
 40
1.600000000000009
  0
CIRCLE
  5
70
330
1F
100
AcDbEntity
  8
SLD-0
  6
Continuous
 62
     7
100
AcDbCircle
 10
83.125
 20
119.875
 30
0.0
 40
3.0
  0
CIRCLE
  5
71
330
1F
100
AcDbEntity
  8
SLD-0
  6
Continuous
 62
     7
100
AcDbCircle
 10
64.125
 20
119.875
 30
0.0
 40
3.0
  0
CIRCLE
  5
72
330
1F
100
AcDbEntity
  8
SLD-0
  6
Continuous
 62
     7
100
AcDbCircle
 10
64.125
 20
119.875
 30
0.0
 40
1.600000000000009
  0
ARC
  5
73
330
1F
100
AcDbEntity
  8
SLD-0
  6
Continuous
 62
     7
100
AcDbCircle
 10
60.4249996
 20
130.275
 30
0.0
 40
0.2999995999999996
100
AcDbArc
 50
90.0
 51
180.0
  0
ARC
  5
74
330
1F
100
AcDbEntity
  8
SLD-0
  6
Continuous
 62
     7
100
AcDbCircle
 10
63.9249996008
 20
119.8749997616
 30
0.0
 40
3.799999600790713
100
AcDbArc
 50
180.0
 51
270.0
  0
ARC
  5
75
330
1F
100
AcDbEntity
  8
SLD-0
  6
Continuous
 62
     7
100
AcDbCircle
 10
89.0096164216
 20
121.6149997288
 30
0.0
 40
0.2999991734525275
100
AcDbArc
 50
270.0
 51
349.099910379
  0
ARC
  5
76
330
1F
100
AcDbEntity
  8
SLD-0
  6
Continuous
 62
     7
100
AcDbCircle
 10
89.8125630218
 20
125.7846466132
 30
0.0
 40
0.3000006206527757
100
AcDbArc
 50
349.0998888386
 51
79.0997611723
  0
ARC
  5
77
330
1F
100
AcDbEntity
  8
SLD-0
  6
Continuous
 62
     7
100
AcDbCircle
 10
87.4249990135
 20
126.8554430703
 30
0.0
 40
0.299999938381451
100
AcDbArc
 50
180.0
 51
259.100118195
  0
ARC
  5
78
330
1F
100
AcDbEntity
  8
SLD-0
  6
Continuous
 62
     7
100
AcDbCircle
 10
87.4249984216
 20
121.0150005503
 30
0.0
 40
0.3000000050000032
100
AcDbArc
 50
90.0
 51
180.0
  0
ARC
  5
79
330
1F
100
AcDbEntity
  8
SLD-0
  6
Continuous
 62
     2
100
AcDbCircle
 10
141.236588
 20
120.3249995267
 30
0.0
 40
0.7500003601361436
100
AcDbArc
 50
132.8334653763
 51
227.1664690821
  0
ARC
  5
7A
330
1F
100
AcDbEntity
  8
SLD-0
  6
Continuous
 62
     2
100
AcDbCircle
 10
140.216782
 20
120.32500011
 30
0.0
 40
0.7500005383519887
100
AcDbArc
 50
312.8334800616
 51
47.1664543969
  0
ARC
  5
7B
330
1F
100
AcDbEntity
  8
SLD-0
  6
Continuous
 62
     2
100
AcDbCircle
 10
141.2365880349
 20
121.4250000376
 30
0.0
 40
0.7500008581930746
100
AcDbArc
 50
132.8334920073
 51
227.1665662628
  0
ARC
  5
7C
330
1F
100
AcDbEntity
  8
SLD-0
  6
Continuous
 62
     2
100
AcDbCircle
 10
140.2365879751
 20
121.4250000872
 30
0.0
 40
0.750000319802842
100
AcDbArc
 50
132.8334135472
 51
227.1664015401
  0
ARC
  5
7D
330
1F
100
AcDbEntity
  8
SLD-0
  6
Continuous
 62
     2
100
AcDbCircle
 10
139.2167819751
 20
121.4250017329
 30
0.0
 40
0.750000432755871
100
AcDbArc
 50
312.8334228547
 51
47.1663922326
  0
ARC
  5
7E
330
1F
100
AcDbEntity
  8
SLD-0
  6
Continuous
 62
     2
100
AcDbCircle
 10
139.2167882468
 20
120.3250008024
 30
0.0
 40
0.749996317670922
100
AcDbArc
 50
312.8330941346
 51
47.1669390516
  0
ARC
  5
7F
330
1F
100
AcDbEntity
  8
SLD-0
  6
Continuous
 62
     2
100
AcDbCircle
 10
114.2167891345
 20
120.325001311
 30
0.0
 40
0.7499990003989826
100
AcDbArc
 50
312.8332622036
 51
47.166609
  0
ARC
  5
80
330
1F
100
AcDbEntity
  8
SLD-0
  6
Continuous
 62
     2
100
AcDbCircle
 10
114.216785
 20
121.425
 30
0.0
 40
0.7500014413074697
100
AcDbArc
 50
312.8336488356
 51
47.1665079927
  0
ARC
  5
81
330
1F
100
AcDbEntity
  8
SLD-0
  6
Continuous
 62
     2
100
AcDbCircle
 10
115.236591
 20
121.4250013957
 30
0.0
 40
0.7499996766699728
100
AcDbArc
 50
132.8335034266
 51
227.1666534017
  0
ARC
  5
82
330
1F
100
AcDbEntity
  8
SLD-0
  6
Continuous
 62
     2
100
AcDbCircle
 10
116.2365887282
 20
121.4250007855
 30
0.0
 40
0.7500003198028671
100
AcDbArc
 50
132.8334920073
 51
227.16661
  0
ARC
  5
83
330
1F
100
AcDbEntity
  8
SLD-0
  6
Continuous
 62
     2
100
AcDbCircle
 10
115.216785
 20
120.32500011
 30
0.0
 40
0.7500000569375767
100
AcDbArc
 50
312.8334800616
 51
47.1665787273
  0
ARC
  5
84
330
1F
100
AcDbEntity
  8
SLD-0
  6
Continuous
 62
     2
100
AcDbCircle
 10
116.236591
 20
120.3250006332
 30
0.0
 40
0.7500011351786178
100
AcDbArc
 50
132.8335689104
 51
227.1664898784
  0
ARC
  5
85
330
1F
100
AcDbEntity
  8
SLD-0
  6
Continuous
 62
     7
100
AcDbCircle
 10
86.825000495
 20
176.174999
 30
0.0
 40
0.2999995050000166
100
AcDbArc
 50
270.00002
 51
0.0
  0
ARC
  5
86
330
1F
100
AcDbEntity
  8
SLD-0
  6
Continuous
 62
     7
100
AcDbCircle
 10
86.825000495
 20
179.575001
 30
0.0
 40
0.2999995050000166
100
AcDbArc
 50
0.0
 51
89.999982
  0
ARC
  5
87
330
1F
100
AcDbEntity
  8
SLD-0
  6
Continuous
 62
     7
100
AcDbCircle
 10
60.4249991
 20
179.575001
 30
0.0
 40
0.2999991000000151
100
AcDbArc
 50
90.0
 51
180.0
  0
ARC
  5
88
330
1F
100
AcDbEntity
  8
SLD-0
  6
Continuous
 62
     7
100
AcDbCircle
 10
60.4249991
 20
176.174999
 30
0.0
 40
0.2999991000000151
100
AcDbArc
 50
180.0
 51
270.0
  0
ARC
  5
89
330
1F
100
AcDbEntity
  8
SLD-0
  6
Continuous
 62
     7
100
AcDbCircle
 10
89.8125629
 20
176.1749999
 30
0.0
 40
0.3000000000000114
100
AcDbArc
 50
270.0
 51
0.0
  0
ARC
  5
8A
330
1F
100
AcDbEntity
  8
SLD-0
  6
Continuous
 62
     7
100
AcDbCircle
 10
89.8125629
 20
179.5750001
 30
0.0
 40
0.3000000000000114
100
AcDbArc
 50
0.0
 51
90.000000001
  0
CIRCLE
  5
8B
330
1F
100
AcDbEntity
  8
SLD-0
  6
Continuous
 62
     7
100
AcDbCircle
 10
64.125
 20
119.875
 30
0.0
 40
0.5
  0
DIMENSION
  5
8C
330
1F
100
AcDbEntity
  8
SLD-0
 62
     4
100
AcDbDimension
  2
*D2
 10
60.125
 20
142.775001
 30
0.0
 11
73.625
 21
142.775001
 31
0.0
 70
   160
 71
     1
 42
27.0
  3
SLDDIMSTYLE0
100
AcDbAlignedDimension
 13
87.125
 23
130.575
 33
0.0
 14
60.125
 24
130.275
 34
0.0
100
AcDbRotatedDimension
1001
ACAD
1000
DSTYLE
1002
{
1070
    77
1070
     3
1070
   143
1040
0.0393700787
1070
    41
1040
3.0
1070
    44
1040
1.0
1070
    42
1040
1.0
1070
   147
1040
1.524
1070
    73
1070
     0
1070
    74
1070
     0
1070
   140
1040
2.2
1070
   284
1070
    12
1070
    78
1070
    12
1002
}
  0
DIMENSION
  5
A6
330
1F
100
AcDbEntity
  8
SLD-0
 62
     4
100
AcDbDimension
  2
*D4
 10
90.163879
 20
142.775001
 30
0.0
 11
124.1483915
 21
142.775001
 31
0.0
 70
   160
  1
<> (STANDARD LENGTH)
 71
     1
 42
67.969025
  3
SLDDIMSTYLE0
100
AcDbAlignedDimension
 13
158.132904
 23
121.9749999
 33
0.0
 14
90.163879
 24
126.0225058
 34
0.0
100
AcDbRotatedDimension
1001
ACAD
1000
DSTYLE
1002
{
1070
    77
1070
     3
1070
   143
1040
0.0393700787
1070
    41
1040
3.0
1070
    44
1040
1.0
1070
    42
1040
1.0
1070
   147
1040
1.524
1070
    73
1070
     0
1070
    74
1070
     0
1070
   140
1040
2.2
1070
   284
1070
    12
1070
    78
1070
    12
1002
}
  0
DIMENSION
  5
B9
330
1F
100
AcDbEntity
  8
SLD-0
 62
     4
100
AcDbDimension
  2
*D5
 10
48.224999
 20
130.575
 30
0.0
 11
48.224999
 21
123.3249999
 31
0.0
 70
   160
 71
     1
 42
14.5000002
  3
SLDDIMSTYLE1
100
AcDbAlignedDimension
 13
63.92499924
 23
116.0749998
 33
0.0
 14
60.4249992
 24
130.575
 34
0.0
 50
90.0
100
AcDbRotatedDimension
1001
ACAD
1000
DSTYLE
1002
{
1070
    77
1070
     3
1070
   143
1040
0.0393700787
1070
    41
1040
3.0
1070
    44
1040
1.0
1070
    42
1040
1.0
1070
   147
1040
1.524
1070
    73
1070
     0
1070
    74
1070
     0
1070
   140
1040
2.2
1070
   284
1070
    12
1070
    78
1070
    12
1002
}
  0
DIMENSION
  5
CE
330
1F
100
AcDbEntity
  8
SLD-0
 62
     4
100
AcDbDimension
  2
*D6
 10
87.125
 20
108.275
 30
0.0
 11
91.3789079637
 21
108.275
 31
0.0
 70
   160
 71
     1
 42
4.0
  3
SLDDIMSTYLE0
100
AcDbAlignedDimension
 13
83.125
 23
114.875
 33
0.0
 14
87.125
 24
119.8749997616
 34
0.0
100
AcDbRotatedDimension
1001
ACAD
1000
DSTYLE
1002
{
1070
    77
1070
     3
1070
   143
1040
0.0393700787
1070
    41
1040
3.0
1070
    44
1040
1.0
1070
    42
1040
1.0
1070
   147
1040
1.524
1070
    73
1070
     0
1070
    74
1070
     0
1070
   140
1040
2.2
1070
   284
1070
    12
1070
    78
1070
    12
1002
}
  0
DIMENSION
  5
E6
330
1F
100
AcDbEntity
  8
SLD-0
 62
     4
100
AcDbDimension
  2
*D7
 10
64.125
 20
108.275
 30
0.0
 11
73.625
 21
108.275
 31
0.0
 70
   160
 71
     1
 42
19.0
  3
SLDDIMSTYLE0
100
AcDbAlignedDimension
 13
83.125
 23
114.875
 33
0.0
 14
64.125
 24
114.875
 34
0.0
100
AcDbRotatedDimension
1001
ACAD
1000
DSTYLE
1002
{
1070
    77
1070
     3
1070
   143
1040
0.0393700787
1070
    41
1040
3.0
1070
    44
1040
1.0
1070
    42
1040
1.0
1070
   147
1040
1.524
1070
    73
1070
     0
1070
    74
1070
     0
1070
   140
1040
2.2
1070
   284
1070
    12
1070
    78
1070
    12
1002
}
  0
DIMENSION
  5
F9
330
1F
100
AcDbEntity
  8
SLD-0
 62
     4
100
AcDbDimension
  2
*D8
 10
48.224999
 20
179.875
 30
0.0
 11
48.224999
 21
168.993
 31
0.0
 70
   160
 71
     1
 42
4.0
  3
SLDDIMSTYLE0
100
AcDbAlignedDimension
 13
60.4249992
 23
175.875
 33
0.0
 14
60.4249992
 24
179.875
 34
0.0
 50
90.0
100
AcDbRotatedDimension
1001
ACAD
1000
DSTYLE
1002
{
1070
    77
1070
     3
1070
   143
1040
0.0393700787
1070
    41
1040
3.0
1070
    44
1040
1.0
1070
    42
1040
1.0
1070
   147
1040
1.524
1070
    73
1070
     0
1070
    74
1070
     0
1070
   140
1040
2.2
1070
   284
1070
    12
1070
    78
1070
    12
1002
}
  0
MTEXT
  5
111
330
1F
100
AcDbEntity
  8
SLD-0
 62
     4
100
AcDbMText
 10
83.918224
 20
161.5288507494
 30
0.0
 40
2.2
 41
0.0
 71
     1
 72
     1
  1
OPTICAL
  7
SLDTEXTSTYLE1
 73
     1
 44
1.0
  0
MTEXT
  5
112
330
1F
100
AcDbEntity
  8
SLD-0
 62
     4
100
AcDbMText
 10
83.918224
 20
158.5288507494
 30
0.0
 40
2.2
 41
0.0
 71
     1
 72
     1
  1
AXIS
  7
SLDTEXTSTYLE1
 73
     1
 44
1.0
  0
MTEXT
  5
114
330
1F
100
AcDbEntity
  8
SLD-0
 62
     4
100
AcDbMText
 10
81.54772
 20
192.9379997494
 30
0.0
 40
2.2
 41
0.0
 71
     1
 72
     1
  1
SOURCE AND
  7
SLDTEXTSTYLE3
 73
     1
 44
1.0
  0
MTEXT
  5
115
330
1F
100
AcDbEntity
  8
SLD-0
 62
     4
100
AcDbMText
 10
81.54772
 20
189.9379997494
 30
0.0
 40
2.2
 41
0.0
 71
     1
 72
     1
  1
RECEIVE
  7
SLDTEXTSTYLE1
 73
     1
 44
1.0
  0
MTEXT
  5
116
330
1F
100
AcDbEntity
  8
SLD-0
 62
     4
100
AcDbMText
 10
91.48863
 20
97.2747657494
 30
0.0
 40
2.2
 41
0.0
 71
     1
 72
     1
  1
PERMISSIBLE BENDING RADIUS 10mm MIN.
  7
SLDTEXTSTYLE1
 73
     1
 44
1.0
  0
MTEXT
  5
117
330
1F
100
AcDbEntity
  8
0
  6
Continuous
 62
     7
370
     0
100
AcDbMText
 10
151.3496641535
 20
29.8861652342
 30
0.0
 40
4.2333333333
 41
0.0
 71
     1
 72
     1
  1
E32-T16PR
  7
SLDTEXTSTYLE0
 73
     1
 44
1.0
  0
MTEXT
  5
118
330
1F
100
AcDbEntity
  8
0
  6
Continuous
 62
     7
370
     0
100
AcDbMText
 10
143.4029533177
 20
43.4099788511
 30
0.0
 40
4.2333333333
 41
0.0
 71
     1
 72
     1
  1
光エリアセンサー
  7
SLDTEXTSTYLE0
 73
     1
 44
1.0
  0
MTEXT
  5
119
330
1F
100
AcDbEntity
  8
0
  6
Continuous
 62
     7
370
     0
100
AcDbMText
 10
155.4808425002
 20
16.2918259049
 30
0.0
 40
4.2333333333
 41
0.0
 71
     1
 72
     1
  1
041415
  7
SLDTEXTSTYLE0
 73
     1
 44
1.0
  0
HATCH
  5
11A
330
1F
100
AcDbEntity
  8
0
  6
Continuous
 62
     4
100
AcDbHatch
 10
0.0
 20
0.0
 30
0.0
210
0.0
220
0.0
230
1.0
  2
ANSI31
 70
     0
 71
     0
 91
        1
 92
        0
 93
        3
 72
     1
 10
67.125
 20
149.020502
 11
69.68310534775316
 21
150.6655238934095
 72
     1
 10
69.68310534775316
 20
150.6655238934095
 11
69.01130876893099
 21
151.4062595795236
 72
     1
 10
69.01130876893099
 20
151.4062595795236
 11
67.125
 21
149.020502
 97
        0
 75
     0
 76
     1
 52
0.0
 41
1.0
 77
     0
 78
     1
 53
45.00000209717174
 43
0.0
 44
0.0
 45
-2.245064112442359
 46
2.245063948092215
 79
     0
 98
        1
 10
0.0
 20
0.0
  0
HATCH
  5
11B
330
1F
100
AcDbEntity
  8
0
  6
Continuous
 62
     4
100
AcDbHatch
 10
0.0
 20
0.0
 30
0.0
210
0.0
220
0.0
230
1.0
  2
ANSI31
 70
     0
 71
     0
 91
        1
 92
        0
 93
        3
 72
     1
 10
67.1250002
 20
177.875004
 11
69.29921425410251
 21
180.0016899775113
 72
     1
 10
69.29921425410251
 20
180.0016899775113
 11
68.4919531773906
 21
180.5918844827601
 72
     1
 10
68.4919531773906
 20
180.5918844827601
 11
67.1250002
 21
177.875004
 97
        0
 75
     0
 76
     1
 52
0.0
 41
1.0
 77
     0
 78
     1
 53
45.00000209717174
 43
0.0
 44
0.0
 45
-2.245064112442359
 46
2.245063948092215
 79
     0
 98
        1
 10
0.0
 20
0.0
  0
ENDSEC
  0
SECTION
  2
OBJECTS
  0
DICTIONARY
  5
C
330
0
100
AcDbDictionary
281
     1
  3
ACAD_GROUP
350
D
  3
ACAD_LAYOUT
350
1A
  3
ACAD_MLINESTYLE
350
17
  3
ACAD_PLOTSETTINGS
350
19
  3
ACAD_PLOTSTYLENAME
350
E
  0
DICTIONARY
  5
D
102
{ACAD_REACTORS
330
C
102
}
330
C
100
AcDbDictionary
281
     1
  0
DICTIONARY
  5
1A
102
{ACAD_REACTORS
330
C
102
}
330
C
100
AcDbDictionary
281
     1
  3
Layout1
350
1E
  3
Layout2
350
26
  3
Model
350
22
  0
DICTIONARY
  5
17
102
{ACAD_REACTORS
330
C
102
}
330
C
100
AcDbDictionary
281
     1
  3
Standard
350
18
  0
DICTIONARY
  5
19
102
{ACAD_REACTORS
330
C
102
}
330
C
100
AcDbDictionary
281
     1
  0
ACDBDICTIONARYWDFLT
  5
E
102
{ACAD_REACTORS
330
C
102
}
330
C
100
AcDbDictionary
281
     1
  3
Normal
350
F
100
AcDbDictionaryWithDefault
340
F
  0
LAYOUT
  5
1E
102
{ACAD_REACTORS
330
1A
102
}
330
1A
100
AcDbPlotSettings
  1

  2

  4

  6

 40
0.0
 41
0.0
 42
0.0
 43
0.0
 44
0.0
 45
0.0
 46
0.0
 47
0.0
 48
0.0
 49
0.0
140
0.0
141
0.0
142
1.0
143
1.0
 70
   688
 72
     0
 73
     0
 74
     5
  7

 75
    16
147
1.0
148
0.0
149
0.0
100
AcDbLayout
  1
Layout1
 70
     1
 71
     1
 10
0.0
 20
0.0
 11
0.0
 21
0.0
 12
0.0
 22
0.0
 32
0.0
 14
0.0
 24
0.0
 34
0.0
 15
0.0
 25
0.0
 35
0.0
146
0.0
 13
0.0
 23
0.0
 33
0.0
 16
1.0
 26
0.0
 36
0.0
 17
0.0
 27
1.0
 37
0.0
 76
     0
330
1B
  0
LAYOUT
  5
26
102
{ACAD_REACTORS
330
1A
102
}
330
1A
100
AcDbPlotSettings
  1

  2

  4

  6

 40
0.0
 41
0.0
 42
0.0
 43
0.0
 44
0.0
 45
0.0
 46
0.0
 47
0.0
 48
0.0
 49
0.0
140
0.0
141
0.0
142
1.0
143
1.0
 70
   688
 72
     0
 73
     0
 74
     5
  7

 75
    16
147
1.0
148
0.0
149
0.0
100
AcDbLayout
  1
Layout2
 70
     1
 71
     2
 10
0.0
 20
0.0
 11
0.0
 21
0.0
 12
0.0
 22
0.0
 32
0.0
 14
0.0
 24
0.0
 34
0.0
 15
0.0
 25
0.0
 35
0.0
146
0.0
 13
0.0
 23
0.0
 33
0.0
 16
1.0
 26
0.0
 36
0.0
 17
0.0
 27
1.0
 37
0.0
 76
     0
330
23
  0
LAYOUT
  5
22
102
{ACAD_REACTORS
330
1A
102
}
330
1A
100
AcDbPlotSettings
  1

  2

  4

  6

 40
0.0
 41
0.0
 42
0.0
 43
0.0
 44
0.0
 45
0.0
 46
0.0
 47
0.0
 48
0.0
 49
0.0
140
0.0
141
0.0
142
1.0
143
1.0
 70
  1712
 72
     0
 73
     0
 74
     0
  7

 75
     0
147
1.0
148
0.0
149
0.0
100
AcDbLayout
  1
Model
 70
     1
 71
     0
 10
0.0
 20
0.0
 11
0.0
 21
0.0
 12
0.0
 22
0.0
 32
0.0
 14
0.0
 24
0.0
 34
0.0
 15
210.0
 25
297.0
 35
0.0
146
0.0
 13
0.0
 23
0.0
 33
0.0
 16
1.0
 26
0.0
 36
0.0
 17
0.0
 27
1.0
 37
0.0
 76
     0
330
1F
  0
MLINESTYLE
  5
18
102
{ACAD_REACTORS
330
17
102
}
330
17
100
AcDbMlineStyle
  2
Standard
 70
     0
  3

 62
   256
 51
90.0
 52
90.0
 71
     2
 49
0.5
 62
   256
  6
BYLAYER
 49
-0.5
 62
   256
  6
BYLAYER
  0
ACDBPLACEHOLDER
  5
F
102
{ACAD_REACTORS
330
E
102
}
330
E
  0
ENDSEC
  0
EOF
