  0
SECTION
  2
HEADER
  9
$ACADVER
  1
AC1015
  9
$ACADMAINTVER
 70
    20
  9
$DWGCODEPAGE
  3
ANSI_932
  9
$INSBASE
 10
0.0
 20
0.0
 30
0.0
  9
$EXTMIN
 10
20.2604743903
 20
10.0
 30
0.0
  9
$EXTMAX
 10
196.7604743903
 20
285.0
 30
0.0
  9
$LIMMIN
 10
0.0
 20
0.0
  9
$LIMMAX
 10
0.0
 20
0.0
  9
$ORTHOMODE
 70
     0
  9
$REGENMODE
 70
     1
  9
$FILLMODE
 70
     1
  9
$QTEXTMODE
 70
     0
  9
$MIRRTEXT
 70
     1
  9
$LTSCALE
 40
1.0
  9
$ATTMODE
 70
     1
  9
$TEXTSIZE
 40
2.5
  9
$TRACEWID
 40
1.0
  9
$TEXTSTYLE
  7
Standard
  9
$CLAYER
  8
0
  9
$CELTYPE
  6
ByLayer
  9
$CECOLOR
 62
   256
  9
$CELTSCALE
 40
1.0
  9
$DISPSILH
 70
     0
  9
$DIMSCALE
 40
1.0
  9
$DIMASZ
 40
3.0
  9
$DIMEXO
 40
1.0
  9
$DIMDLI
 40
3.75
  9
$DIMRND
 40
0.0
  9
$DIMDLE
 40
0.0
  9
$DIMEXE
 40
1.0
  9
$DIMTP
 40
0.0
  9
$DIMTM
 40
0.0
  9
$DIMTXT
 40
3.5
  9
$DIMCEN
 40
2.5
  9
$DIMTSZ
 40
0.0
  9
$DIMTOL
 70
     0
  9
$DIMLIM
 70
     0
  9
$DIMTIH
 70
     0
  9
$DIMTOH
 70
     0
  9
$DIMSE1
 70
     0
  9
$DIMSE2
 70
     0
  9
$DIMTAD
 70
     1
  9
$DIMZIN
 70
     0
  9
$DIMBLK
  1

  9
$DIMASO
 70
     1
  9
$DIMSHO
 70
     1
  9
$DIMPOST
  1

  9
$DIMAPOST
  1

  9
$DIMALT
 70
     0
  9
$DIMALTD
 70
     3
  9
$DIMALTF
 40
0.0393700787
  9
$DIMLFAC
 40
1.0
  9
$DIMTOFL
 70
     1
  9
$DIMTVP
 40
0.0
  9
$DIMTIX
 70
     0
  9
$DIMSOXD
 70
     0
  9
$DIMSAH
 70
     0
  9
$DIMBLK1
  1

  9
$DIMBLK2
  1

  9
$DIMSTYLE
  2
ISO-25
  9
$DIMCLRD
 70
     0
  9
$DIMCLRE
 70
     0
  9
$DIMCLRT
 70
     0
  9
$DIMTFAC
 40
1.0
  9
$DIMGAP
 40
1.524
  9
$DIMJUST
 70
     0
  9
$DIMSD1
 70
     0
  9
$DIMSD2
 70
     0
  9
$DIMTOLJ
 70
     0
  9
$DIMTZIN
 70
     0
  9
$DIMALTZ
 70
     0
  9
$DIMALTTZ
 70
     0
  9
$DIMUPT
 70
     0
  9
$DIMDEC
 70
     2
  9
$DIMTDEC
 70
     2
  9
$DIMALTU
 70
     2
  9
$DIMALTTD
 70
     3
  9
$DIMTXSTY
  7
Standard
  9
$DIMAUNIT
 70
     0
  9
$DIMADEC
 70
     0
  9
$DIMALTRND
 40
0.0
  9
$DIMAZIN
 70
     0
  9
$DIMDSEP
 70
    44
  9
$DIMATFIT
 70
     3
  9
$DIMFRAC
 70
     0
  9
$DIMLDRBLK
  1

  9
$DIMLUNIT
 70
     2
  9
$DIMLWD
 70
    -2
  9
$DIMLWE
 70
    -2
  9
$DIMTMOVE
 70
     0
  9
$LUNITS
 70
     2
  9
$LUPREC
 70
     1
  9
$SKETCHINC
 40
1.0
  9
$FILLETRAD
 40
10.0
  9
$AUNITS
 70
     0
  9
$AUPREC
 70
     0
  9
$MENU
  1
.
  9
$ELEVATION
 40
0.0
  9
$PELEVATION
 40
0.0
  9
$THICKNESS
 40
0.0
  9
$LIMCHECK
 70
     0
  9
$CHAMFERA
 40
10.0
  9
$CHAMFERB
 40
10.0
  9
$CHAMFERC
 40
20.0
  9
$CHAMFERD
 40
0.0
  9
$SKPOLY
 70
     0
  9
$TDCREATE
 40
2454722.393937535
  9
$TDUCREATE
 40
2454722.018937534
  9
$TDUPDATE
 40
2454734.362752812
  9
$TDUUPDATE
 40
2454733.987752812
  9
$TDINDWG
 40
0.0771111690
  9
$TDUSRTIMER
 40
0.0771071875
  9
$USRTIMER
 70
     1
  9
$ANGBASE
 50
0.0
  9
$ANGDIR
 70
     0
  9
$PDMODE
 70
     0
  9
$PDSIZE
 40
-1.0
  9
$PLINEWID
 40
0.0
  9
$SPLFRAME
 70
     0
  9
$SPLINETYPE
 70
     6
  9
$SPLINESEGS
 70
     8
  9
$HANDSEED
  5
1966
  9
$SURFTAB1
 70
     6
  9
$SURFTAB2
 70
     6
  9
$SURFTYPE
 70
     6
  9
$SURFU
 70
     6
  9
$SURFV
 70
     6
  9
$UCSBASE
  2

  9
$UCSNAME
  2

  9
$UCSORG
 10
0.0
 20
0.0
 30
0.0
  9
$UCSXDIR
 10
1.0
 20
0.0
 30
0.0
  9
$UCSYDIR
 10
0.0
 20
1.0
 30
0.0
  9
$UCSORTHOREF
  2

  9
$UCSORTHOVIEW
 70
     0
  9
$UCSORGTOP
 10
0.0
 20
0.0
 30
0.0
  9
$UCSORGBOTTOM
 10
0.0
 20
0.0
 30
0.0
  9
$UCSORGLEFT
 10
0.0
 20
0.0
 30
0.0
  9
$UCSORGRIGHT
 10
0.0
 20
0.0
 30
0.0
  9
$UCSORGFRONT
 10
0.0
 20
0.0
 30
0.0
  9
$UCSORGBACK
 10
0.0
 20
0.0
 30
0.0
  9
$PUCSBASE
  2

  9
$PUCSNAME
  2

  9
$PUCSORG
 10
0.0
 20
0.0
 30
0.0
  9
$PUCSXDIR
 10
1.0
 20
0.0
 30
0.0
  9
$PUCSYDIR
 10
0.0
 20
1.0
 30
0.0
  9
$PUCSORTHOREF
  2

  9
$PUCSORTHOVIEW
 70
     0
  9
$PUCSORGTOP
 10
0.0
 20
0.0
 30
0.0
  9
$PUCSORGBOTTOM
 10
0.0
 20
0.0
 30
0.0
  9
$PUCSORGLEFT
 10
0.0
 20
0.0
 30
0.0
  9
$PUCSORGRIGHT
 10
0.0
 20
0.0
 30
0.0
  9
$PUCSORGFRONT
 10
0.0
 20
0.0
 30
0.0
  9
$PUCSORGBACK
 10
0.0
 20
0.0
 30
0.0
  9
$USERI1
 70
     0
  9
$USERI2
 70
     0
  9
$USERI3
 70
     0
  9
$USERI4
 70
     0
  9
$USERI5
 70
     0
  9
$USERR1
 40
0.0
  9
$USERR2
 40
0.0
  9
$USERR3
 40
0.0
  9
$USERR4
 40
0.0
  9
$USERR5
 40
0.0
  9
$WORLDVIEW
 70
     1
  9
$SHADEDGE
 70
     3
  9
$SHADEDIF
 70
    70
  9
$TILEMODE
 70
     1
  9
$MAXACTVP
 70
    64
  9
$PINSBASE
 10
0.0
 20
0.0
 30
0.0
  9
$PLIMCHECK
 70
     0
  9
$PEXTMIN
 10
1.000000000000000E+20
 20
1.000000000000000E+20
 30
1.000000000000000E+20
  9
$PEXTMAX
 10
-1.000000000000000E+20
 20
-1.000000000000000E+20
 30
-1.000000000000000E+20
  9
$PLIMMIN
 10
0.0
 20
0.0
  9
$PLIMMAX
 10
420.0
 20
297.0
  9
$UNITMODE
 70
     0
  9
$VISRETAIN
 70
     1
  9
$PLINEGEN
 70
     0
  9
$PSLTSCALE
 70
     1
  9
$TREEDEPTH
 70
  3020
  9
$CMLSTYLE
  2
Standard
  9
$CMLJUST
 70
     0
  9
$CMLSCALE
 40
20.0
  9
$PROXYGRAPHICS
 70
     1
  9
$MEASUREMENT
 70
     1
  9
$CELWEIGHT
370
    -1
  9
$ENDCAPS
280
     0
  9
$JOINSTYLE
280
     0
  9
$LWDISPLAY
290
     1
  9
$INSUNITS
 70
     4
  9
$HYPERLINKBASE
  1

  9
$STYLESHEET
  1

  9
$XEDIT
290
     1
  9
$CEPSNTYPE
380
     0
  9
$PSTYLEMODE
290
     1
  9
$FINGERPRINTGUID
  2
{6D6CEAD6-D64D-4EA2-931F-F9052205EC44}
  9
$VERSIONGUID
  2
{E0AE6988-7244-43CF-BB17-6FD4205B037A}
  9
$EXTNAMES
290
     1
  9
$PSVPSCALE
 40
0.0
  9
$OLESTARTUP
290
     0
  0
ENDSEC
  0
SECTION
  2
CLASSES
  0
CLASS
  1
ACDBDICTIONARYWDFLT
  2
AcDbDictionaryWithDefault
  3
ObjectDBX Classes
 90
        0
280
     0
281
     0
  0
CLASS
  1
ACDBPLACEHOLDER
  2
AcDbPlaceHolder
  3
ObjectDBX Classes
 90
        0
280
     0
281
     0
  0
CLASS
  1
LAYOUT
  2
AcDbLayout
  3
ObjectDBX Classes
 90
        0
280
     0
281
     0
  0
CLASS
  1
TABLESTYLE
  2
AcDbTableStyle
  3
ObjectDBX Classes
 90
     2047
280
     0
281
     0
  0
CLASS
  1
DICTIONARYVAR
  2
AcDbDictionaryVar
  3
ObjectDBX Classes
 90
        0
280
     0
281
     0
  0
CLASS
  1
SORTENTSTABLE
  2
AcDbSortentsTable
  3
ObjectDBX Classes
 90
        0
280
     0
281
     0
  0
ENDSEC
  0
SECTION
  2
TABLES
  0
TABLE
  2
VPORT
  5
8
330
0
100
AcDbSymbolTable
 70
     2
  0
VPORT
  5
195D
330
8
100
AcDbSymbolTableRecord
100
AcDbViewportTableRecord
  2
*Active
 70
     0
 10
0.0
 20
0.0
 11
1.0
 21
1.0
 12
174.048214348777
 22
155.3723205449931
 13
0.0
 23
0.0
 14
10.0
 24
10.0
 15
10.0
 25
10.0
 16
0.0
 26
0.0
 36
1.0
 17
0.0
 27
0.0
 37
0.0
 40
410.1232132526513
 41
1.589583333333333
 42
50.0
 43
0.0
 44
0.0
 50
0.0
 51
0.0
 71
     0
 72
  2000
 73
     1
 74
     3
 75
     0
 76
     0
 77
     0
 78
     0
281
     0
 65
     1
110
0.0
120
0.0
130
0.0
111
1.0
121
0.0
131
0.0
112
0.0
122
1.0
132
0.0
 79
     0
146
0.0
  0
ENDTAB
  0
TABLE
  2
LTYPE
  5
5
330
0
100
AcDbSymbolTable
 70
     6
  0
LTYPE
  5
14
330
5
100
AcDbSymbolTableRecord
100
AcDbLinetypeTableRecord
  2
ByBlock
 70
     0
  3

 72
    65
 73
     0
 40
0.0
  0
LTYPE
  5
15
330
5
100
AcDbSymbolTableRecord
100
AcDbLinetypeTableRecord
  2
ByLayer
 70
     0
  3

 72
    65
 73
     0
 40
0.0
  0
LTYPE
  5
16
330
5
100
AcDbSymbolTableRecord
100
AcDbLinetypeTableRecord
  2
Continuous
 70
     0
  3
Solid line
 72
    65
 73
     0
 40
0.0
  0
LTYPE
  5
2A
330
5
100
AcDbSymbolTableRecord
100
AcDbLinetypeTableRecord
  2
HIDDEN
 70
     0
  3
Hidden __ __ __ __ __ __ __ __ __ __ __ __ __ __
 72
    65
 73
     2
 40
1.905
 49
1.27
 74
     0
 49
-0.635
 74
     0
  0
LTYPE
  5
2B
330
5
100
AcDbSymbolTableRecord
100
AcDbLinetypeTableRecord
  2
PHANTOM
 70
     0
  3
Phantom ______  __  __  ______  __  __  ______
 72
    65
 73
     6
 40
12.7
 49
6.349999999999997
 74
     0
 49
-1.27
 74
     0
 49
1.27
 74
     0
 49
-1.27
 74
     0
 49
1.27
 74
     0
 49
-1.27
 74
     0
  0
LTYPE
  5
2C
330
5
100
AcDbSymbolTableRecord
100
AcDbLinetypeTableRecord
  2
CENTER
 70
     0
  3
Center ____ _ ____ _ ____ _ ____ _ ____ _ ____
 72
    65
 73
     4
 40
10.16
 49
6.349999999999997
 74
     0
 49
-1.27
 74
     0
 49
1.27
 74
     0
 49
-1.27
 74
     0
  0
LTYPE
  5
2D
330
5
100
AcDbSymbolTableRecord
100
AcDbLinetypeTableRecord
  2
CENTERX2
 70
     0
  3
Center (2x) ________  __  ________  __  _____
 72
    65
 73
     4
 40
20.32
 49
12.7
 74
     0
 49
-2.54
 74
     0
 49
2.54
 74
     0
 49
-2.54
 74
     0
  0
LTYPE
  5
2E
330
5
100
AcDbSymbolTableRecord
100
AcDbLinetypeTableRecord
  2
DOT2
 70
     0
  3
Dot (.5x) ........................................
 72
    65
 73
     2
 40
0.635
 49
0.0
 74
     0
 49
-0.635
 74
     0
  0
ENDTAB
  0
TABLE
  2
LAYER
  5
2
330
0
100
AcDbSymbolTable
 70
     2
  0
LAYER
  5
10
330
2
100
AcDbSymbolTableRecord
100
AcDbLayerTableRecord
  2
0
 70
     0
 62
     7
  6
Continuous
370
    -3
390
F
  0
LAYER
  5
FE
330
2
100
AcDbSymbolTableRecord
100
AcDbLayerTableRecord
  2
Defpoints
 70
     0
 62
     7
  6
Continuous
290
     0
370
    -3
390
F
  0
ENDTAB
  0
TABLE
  2
STYLE
  5
3
330
0
100
AcDbSymbolTable
 70
     2
  0
STYLE
  5
11
330
3
100
AcDbSymbolTableRecord
100
AcDbTextStyleTableRecord
  2
Standard
 70
     0
 40
0.0
 41
1.0
 50
0.0
 71
     0
 42
2.5
  3
txt
  4
bigfont
  0
STYLE
  5
37
330
3
100
AcDbSymbolTableRecord
100
AcDbTextStyleTableRecord
  2
SLDTEXTSTYLE0
 70
     0
 40
0.0
 41
0.7
 50
0.0
 71
     0
 42
0.2
  3
TXT
  4
bigfont
  0
ENDTAB
  0
TABLE
  2
VIEW
  5
6
330
0
100
AcDbSymbolTable
 70
     0
  0
ENDTAB
  0
TABLE
  2
UCS
  5
7
330
0
100
AcDbSymbolTable
 70
     0
  0
ENDTAB
  0
TABLE
  2
APPID
  5
9
330
0
100
AcDbSymbolTable
 70
    10
  0
APPID
  5
12
330
9
100
AcDbSymbolTableRecord
100
AcDbRegAppTableRecord
  2
ACAD
 70
     0
  0
APPID
  5
2E4
330
9
100
AcDbSymbolTableRecord
100
AcDbRegAppTableRecord
  2
ACAD_DSTYLE_DIMTEXT_FILL
 70
     0
  0
APPID
  5
2E5
330
9
100
AcDbSymbolTableRecord
100
AcDbRegAppTableRecord
  2
ACAD_DSTYLE_DIMEXT_LENGTH
 70
     0
  0
APPID
  5
2E6
330
9
100
AcDbSymbolTableRecord
100
AcDbRegAppTableRecord
  2
ACAD_DSTYLE_DIMEXT_ENABLED
 70
     0
  0
APPID
  5
2E7
330
9
100
AcDbSymbolTableRecord
100
AcDbRegAppTableRecord
  2
ACAD_DSTYLE_DIM_LINETYPE
 70
     0
  0
APPID
  5
2E8
330
9
100
AcDbSymbolTableRecord
100
AcDbRegAppTableRecord
  2
ACAD_DSTYLE_DIM_EXT1_LINETYPE
 70
     0
  0
APPID
  5
2E9
330
9
100
AcDbSymbolTableRecord
100
AcDbRegAppTableRecord
  2
ACAD_DSTYLE_DIM_EXT2_LINETYPE
 70
     0
  0
APPID
  5
3A5
330
9
100
AcDbSymbolTableRecord
100
AcDbRegAppTableRecord
  2
ACAD_DSTYLE_DIMJOGGED_JOGANGLE_SYMBOL
 70
     0
  0
APPID
  5
499
330
9
100
AcDbSymbolTableRecord
100
AcDbRegAppTableRecord
  2
ACAD_DSTYLE_DIMARC_LENGTH_SYMBOL
 70
     0
  0
APPID
  5
551
330
9
100
AcDbSymbolTableRecord
100
AcDbRegAppTableRecord
  2
ACAD_EXEMPT_FROM_CAD_STANDARDS
 70
     0
  0
ENDTAB
  0
TABLE
  2
DIMSTYLE
  5
A
330
0
100
AcDbSymbolTable
 70
     3
100
AcDbDimStyleTable
 71
     1
340
27
  0
DIMSTYLE
105
27
102
{ACAD_REACTORS
330
188B
330
18E1
330
193B
102
}
330
A
100
AcDbSymbolTableRecord
100
AcDbDimStyleTableRecord
  2
ISO-25
 70
     0
 41
2.5
 42
0.625
 43
3.75
 44
1.25
 73
     0
 74
     0
 77
     1
 78
     8
140
2.5
141
2.5
143
0.0393700787
147
0.625
171
     3
172
     1
271
     2
272
     2
274
     3
278
    44
283
     0
284
     8
340
11
  0
DIMSTYLE
105
10C
330
A
100
AcDbSymbolTableRecord
100
AcDbDimStyleTableRecord
  2
SLDDIMSTYLE0
 70
     0
 41
3.0
 44
0.0
 73
     0
 74
     0
 77
     3
 78
    12
140
3.5
144
3.0
147
0.875
173
     1
271
     1
272
     3
284
    12
340
37
341
10D
343
10D
344
10D
  0
DIMSTYLE
105
210
330
A
100
AcDbSymbolTableRecord
100
AcDbDimStyleTableRecord
  2
SLDDIMSTYLE1
 70
     0
  3
<>
 41
3.0
 44
0.0
 78
    12
140
3.5
144
3.0
147
0.875
173
     1
271
     1
272
     3
284
    12
340
37
341
10D
343
10D
344
10D
  0
ENDTAB
  0
TABLE
  2
BLOCK_RECORD
  5
1
330
0
100
AcDbSymbolTable
 70
    71
  0
BLOCK_RECORD
  5
1F
102
{ACAD_XDICTIONARY
360
559
102
}
330
1
100
AcDbSymbolTableRecord
100
AcDbBlockTableRecord
  2
*Model_Space
340
22
  0
BLOCK_RECORD
  5
1B
330
1
100
AcDbSymbolTableRecord
100
AcDbBlockTableRecord
  2
*Paper_Space
340
1E
  0
BLOCK_RECORD
  5
23
330
1
100
AcDbSymbolTableRecord
100
AcDbBlockTableRecord
  2
*Paper_Space0
340
26
  0
BLOCK_RECORD
  5
FF
330
1
100
AcDbSymbolTableRecord
100
AcDbBlockTableRecord
  2
*D1
340
0
  0
BLOCK_RECORD
  5
10D
330
1
100
AcDbSymbolTableRecord
100
AcDbBlockTableRecord
  2
_Open30
340
0
102
{BLKREFS
331
113
331
114
331
1E6
331
1E7
331
1FB
331
1FC
331
211
331
222
331
223
331
237
102
}
  0
BLOCK_RECORD
  5
1DA
330
1
100
AcDbSymbolTableRecord
100
AcDbBlockTableRecord
  2
*D3
340
0
  0
BLOCK_RECORD
  5
1ED
330
1
100
AcDbSymbolTableRecord
100
AcDbBlockTableRecord
  2
*D4
340
0
  0
BLOCK_RECORD
  5
204
330
1
100
AcDbSymbolTableRecord
100
AcDbBlockTableRecord
  2
*D5
340
0
  0
BLOCK_RECORD
  5
216
330
1
100
AcDbSymbolTableRecord
100
AcDbBlockTableRecord
  2
*D6
340
0
  0
BLOCK_RECORD
  5
22B
330
1
100
AcDbSymbolTableRecord
100
AcDbBlockTableRecord
  2
*D7
340
0
  0
BLOCK_RECORD
  5
2B5
330
1
100
AcDbSymbolTableRecord
100
AcDbBlockTableRecord
  2
*D8
340
0
  0
BLOCK_RECORD
  5
4E5
330
1
100
AcDbSymbolTableRecord
100
AcDbBlockTableRecord
  2
*D9
340
0
  0
BLOCK_RECORD
  5
4FD
330
1
100
AcDbSymbolTableRecord
100
AcDbBlockTableRecord
  2
*D10
340
0
  0
BLOCK_RECORD
  5
50A
330
1
100
AcDbSymbolTableRecord
100
AcDbBlockTableRecord
  2
*D11
340
0
  0
BLOCK_RECORD
  5
517
330
1
100
AcDbSymbolTableRecord
100
AcDbBlockTableRecord
  2
*D12
340
0
  0
BLOCK_RECORD
  5
542
330
1
100
AcDbSymbolTableRecord
100
AcDbBlockTableRecord
  2
*D13
340
0
  0
BLOCK_RECORD
  5
55D
330
1
100
AcDbSymbolTableRecord
100
AcDbBlockTableRecord
  2
*D14
340
0
  0
BLOCK_RECORD
  5
56C
330
1
100
AcDbSymbolTableRecord
100
AcDbBlockTableRecord
  2
*D15
340
0
  0
BLOCK_RECORD
  5
764
330
1
100
AcDbSymbolTableRecord
100
AcDbBlockTableRecord
  2
*D16
340
0
  0
BLOCK_RECORD
  5
773
330
1
100
AcDbSymbolTableRecord
100
AcDbBlockTableRecord
  2
*D17
340
0
  0
BLOCK_RECORD
  5
781
330
1
100
AcDbSymbolTableRecord
100
AcDbBlockTableRecord
  2
*D18
340
0
  0
BLOCK_RECORD
  5
78E
330
1
100
AcDbSymbolTableRecord
100
AcDbBlockTableRecord
  2
*D19
340
0
  0
BLOCK_RECORD
  5
85A
330
1
100
AcDbSymbolTableRecord
100
AcDbBlockTableRecord
  2
*D20
340
0
  0
BLOCK_RECORD
  5
867
330
1
100
AcDbSymbolTableRecord
100
AcDbBlockTableRecord
  2
*D21
340
0
  0
BLOCK_RECORD
  5
876
330
1
100
AcDbSymbolTableRecord
100
AcDbBlockTableRecord
  2
*D22
340
0
  0
BLOCK_RECORD
  5
8A6
330
1
100
AcDbSymbolTableRecord
100
AcDbBlockTableRecord
  2
*D23
340
0
  0
BLOCK_RECORD
  5
8D6
330
1
100
AcDbSymbolTableRecord
100
AcDbBlockTableRecord
  2
*D24
340
0
  0
BLOCK_RECORD
  5
924
330
1
100
AcDbSymbolTableRecord
100
AcDbBlockTableRecord
  2
*D25
340
0
  0
BLOCK_RECORD
  5
931
330
1
100
AcDbSymbolTableRecord
100
AcDbBlockTableRecord
  2
*D26
340
0
  0
BLOCK_RECORD
  5
942
330
1
100
AcDbSymbolTableRecord
100
AcDbBlockTableRecord
  2
*D27
340
0
  0
BLOCK_RECORD
  5
E23
330
1
100
AcDbSymbolTableRecord
100
AcDbBlockTableRecord
  2
*D28
340
0
  0
BLOCK_RECORD
  5
E32
330
1
100
AcDbSymbolTableRecord
100
AcDbBlockTableRecord
  2
*D29
340
0
  0
BLOCK_RECORD
  5
E41
330
1
100
AcDbSymbolTableRecord
100
AcDbBlockTableRecord
  2
*D30
340
0
  0
BLOCK_RECORD
  5
E5C
330
1
100
AcDbSymbolTableRecord
100
AcDbBlockTableRecord
  2
*D31
340
0
  0
BLOCK_RECORD
  5
E6D
330
1
100
AcDbSymbolTableRecord
100
AcDbBlockTableRecord
  2
*D32
340
0
  0
BLOCK_RECORD
  5
EED
330
1
100
AcDbSymbolTableRecord
100
AcDbBlockTableRecord
  2
*D33
340
0
  0
BLOCK_RECORD
  5
10F2
330
1
100
AcDbSymbolTableRecord
100
AcDbBlockTableRecord
  2
*D34
340
0
  0
BLOCK_RECORD
  5
114C
330
1
100
AcDbSymbolTableRecord
100
AcDbBlockTableRecord
  2
*D35
340
0
  0
BLOCK_RECORD
  5
12E5
330
1
100
AcDbSymbolTableRecord
100
AcDbBlockTableRecord
  2
*D36
340
0
  0
BLOCK_RECORD
  5
12F2
330
1
100
AcDbSymbolTableRecord
100
AcDbBlockTableRecord
  2
*D37
340
0
  0
BLOCK_RECORD
  5
130D
330
1
100
AcDbSymbolTableRecord
100
AcDbBlockTableRecord
  2
*D38
340
0
  0
BLOCK_RECORD
  5
131C
330
1
100
AcDbSymbolTableRecord
100
AcDbBlockTableRecord
  2
*D39
340
0
  0
BLOCK_RECORD
  5
13A4
330
1
100
AcDbSymbolTableRecord
100
AcDbBlockTableRecord
  2
*D40
340
0
  0
BLOCK_RECORD
  5
13B6
330
1
100
AcDbSymbolTableRecord
100
AcDbBlockTableRecord
  2
*D41
340
0
  0
BLOCK_RECORD
  5
13C5
330
1
100
AcDbSymbolTableRecord
100
AcDbBlockTableRecord
  2
*D42
340
0
  0
BLOCK_RECORD
  5
13D4
330
1
100
AcDbSymbolTableRecord
100
AcDbBlockTableRecord
  2
*D43
340
0
  0
BLOCK_RECORD
  5
13E3
330
1
100
AcDbSymbolTableRecord
100
AcDbBlockTableRecord
  2
*D44
340
0
  0
BLOCK_RECORD
  5
13F2
330
1
100
AcDbSymbolTableRecord
100
AcDbBlockTableRecord
  2
*D45
340
0
  0
BLOCK_RECORD
  5
1400
330
1
100
AcDbSymbolTableRecord
100
AcDbBlockTableRecord
  2
*D46
340
0
  0
BLOCK_RECORD
  5
14BC
330
1
100
AcDbSymbolTableRecord
100
AcDbBlockTableRecord
  2
*D47
340
0
  0
BLOCK_RECORD
  5
14C9
330
1
100
AcDbSymbolTableRecord
100
AcDbBlockTableRecord
  2
*D48
340
0
  0
BLOCK_RECORD
  5
14D6
330
1
100
AcDbSymbolTableRecord
100
AcDbBlockTableRecord
  2
*D49
340
0
  0
BLOCK_RECORD
  5
14F3
330
1
100
AcDbSymbolTableRecord
100
AcDbBlockTableRecord
  2
*D50
340
0
  0
BLOCK_RECORD
  5
1502
330
1
100
AcDbSymbolTableRecord
100
AcDbBlockTableRecord
  2
*D51
340
0
  0
BLOCK_RECORD
  5
151C
330
1
100
AcDbSymbolTableRecord
100
AcDbBlockTableRecord
  2
*D52
340
0
  0
BLOCK_RECORD
  5
15D5
330
1
100
AcDbSymbolTableRecord
100
AcDbBlockTableRecord
  2
*D53
340
0
  0
BLOCK_RECORD
  5
15EB
330
1
100
AcDbSymbolTableRecord
100
AcDbBlockTableRecord
  2
*D54
340
0
  0
BLOCK_RECORD
  5
15FA
330
1
100
AcDbSymbolTableRecord
100
AcDbBlockTableRecord
  2
*D55
340
0
  0
BLOCK_RECORD
  5
1609
330
1
100
AcDbSymbolTableRecord
100
AcDbBlockTableRecord
  2
*D56
340
0
  0
BLOCK_RECORD
  5
1618
330
1
100
AcDbSymbolTableRecord
100
AcDbBlockTableRecord
  2
*D57
340
0
  0
BLOCK_RECORD
  5
16E8
330
1
100
AcDbSymbolTableRecord
100
AcDbBlockTableRecord
  2
*D58
340
0
  0
BLOCK_RECORD
  5
16FA
330
1
100
AcDbSymbolTableRecord
100
AcDbBlockTableRecord
  2
*D59
340
0
  0
BLOCK_RECORD
  5
1708
330
1
100
AcDbSymbolTableRecord
100
AcDbBlockTableRecord
  2
*D60
340
0
  0
BLOCK_RECORD
  5
1718
330
1
100
AcDbSymbolTableRecord
100
AcDbBlockTableRecord
  2
*D61
340
0
  0
BLOCK_RECORD
  5
17C1
330
1
100
AcDbSymbolTableRecord
100
AcDbBlockTableRecord
  2
*D62
340
0
  0
BLOCK_RECORD
  5
17D2
330
1
100
AcDbSymbolTableRecord
100
AcDbBlockTableRecord
  2
*D63
340
0
  0
BLOCK_RECORD
  5
1866
330
1
100
AcDbSymbolTableRecord
100
AcDbBlockTableRecord
  2
*D64
340
0
  0
BLOCK_RECORD
  5
188C
330
1
100
AcDbSymbolTableRecord
100
AcDbBlockTableRecord
  2
*D65
340
0
  0
BLOCK_RECORD
  5
18D3
330
1
100
AcDbSymbolTableRecord
100
AcDbBlockTableRecord
  2
*D66
340
0
  0
BLOCK_RECORD
  5
18E2
330
1
100
AcDbSymbolTableRecord
100
AcDbBlockTableRecord
  2
*D67
340
0
  0
BLOCK_RECORD
  5
1920
330
1
100
AcDbSymbolTableRecord
100
AcDbBlockTableRecord
  2
*D68
340
0
  0
BLOCK_RECORD
  5
192E
330
1
100
AcDbSymbolTableRecord
100
AcDbBlockTableRecord
  2
*D69
340
0
  0
BLOCK_RECORD
  5
193C
330
1
100
AcDbSymbolTableRecord
100
AcDbBlockTableRecord
  2
*D70
340
0
  0
ENDTAB
  0
ENDSEC
  0
SECTION
  2
BLOCKS
  0
BLOCK
  5
20
330
1F
100
AcDbEntity
  8
0
100
AcDbBlockBegin
  2
*Model_Space
 70
     0
 10
0.0
 20
0.0
 30
0.0
  3
*Model_Space
  1

  0
ENDBLK
  5
21
330
1F
100
AcDbEntity
  8
0
100
AcDbBlockEnd
  0
BLOCK
  5
1C
330
1B
100
AcDbEntity
 67
     1
  8
0
100
AcDbBlockBegin
  2
*Paper_Space
 70
     0
 10
0.0
 20
0.0
 30
0.0
  3
*Paper_Space
  1

  0
ENDBLK
  5
1D
330
1B
100
AcDbEntity
 67
     1
  8
0
100
AcDbBlockEnd
  0
BLOCK
  5
24
330
23
100
AcDbEntity
 67
     1
  8
0
100
AcDbBlockBegin
  2
*Paper_Space0
 70
     0
 10
0.0
 20
0.0
 30
0.0
  3
*Paper_Space0
  1

  0
ENDBLK
  5
25
330
23
100
AcDbEntity
 67
     1
  8
0
100
AcDbBlockEnd
  0
BLOCK
  5
10A
330
FF
100
AcDbEntity
  8
0
100
AcDbBlockBegin
  2
*D1
 70
     1
 10
0.0
 20
0.0
 30
0.0
  3
*D1
  1

  0
INSERT
  5
113
330
FF
100
AcDbEntity
  8
0
  6
Continuous
 62
     7
370
     0
100
AcDbBlockReference
  2
_Open30
 10
75.84152842289999
 20
144.4455125669
 30
-2.5
 41
3.0
 42
3.0
 50
90.0
  0
INSERT
  5
114
330
FF
100
AcDbEntity
  8
0
  6
Continuous
 62
     7
370
     0
100
AcDbBlockReference
  2
_Open30
 10
75.84152842289999
 20
77.7788459003
 30
-2.5
 41
3.0
 42
3.0
 50
270.0
  0
LINE
  5
115
330
FF
100
AcDbEntity
  8
0
  6
Continuous
 62
     7
370
     0
100
AcDbLine
 10
89.85183433819997
 20
144.4455125669
 30
0.0
 11
74.8415284229
 21
144.4455125669
 31
0.0
  0
LINE
  5
116
330
FF
100
AcDbEntity
  8
0
  6
Continuous
 62
     7
370
     0
100
AcDbLine
 10
89.85183433819997
 20
77.7788459003
 30
0.0
 11
74.8415284229
 21
77.7788459003
 31
0.0
  0
LINE
  5
117
330
FF
100
AcDbEntity
  8
0
  6
Continuous
 62
     7
370
     0
100
AcDbLine
 10
75.84152842289999
 20
144.4455125669
 30
0.0
 11
75.84152842289999
 21
77.7788459003
 31
0.0
  0
MTEXT
  5
118
330
FF
100
AcDbEntity
  8
0
  6
Continuous
 62
     7
370
     0
100
AcDbMText
 10
71.76880138299998
 20
108.0581900757
 30
0.0
 40
3.5
 41
0.0
 71
     1
 72
     1
  1
200
  7
SLDTEXTSTYLE0
 11
-0.000000000000007
 21
1.0
 31
0.0
 73
     1
 44
1.0
1001
ACAD
1000
MTEXTBEGIN
1070
    73
1070
     1
1070
    44
1040
1.0
1070
    74
1070
     0
1000
MTEXTEND
  0
ENDBLK
  5
10B
330
FF
100
AcDbEntity
  8
0
100
AcDbBlockEnd
  0
BLOCK
  5
10E
330
10D
100
AcDbEntity
  8
0
100
AcDbBlockBegin
  2
_Open30
 70
     0
 10
0.0
 20
0.0
 30
0.0
  3
_Open30
  1

  0
LINE
  5
110
330
10D
100
AcDbEntity
  8
0
  6
ByBlock
 62
     0
370
    -2
100
AcDbLine
 10
-1.0
 20
0.267949
 30
0.0
 11
0.0
 21
0.0
 31
0.0
  0
LINE
  5
111
330
10D
100
AcDbEntity
  8
0
  6
ByBlock
 62
     0
370
    -2
100
AcDbLine
 10
0.0
 20
0.0
 30
0.0
 11
-1.0
 21
-0.267949
 31
0.0
  0
LINE
  5
112
330
10D
100
AcDbEntity
  8
0
  6
ByBlock
 62
     0
370
    -2
100
AcDbLine
 10
0.0
 20
0.0
 30
0.0
 11
-1.0
 21
0.0
 31
0.0
  0
ENDBLK
  5
10F
330
10D
100
AcDbEntity
  8
0
100
AcDbBlockEnd
  0
BLOCK
  5
1E4
330
1DA
100
AcDbEntity
  8
0
100
AcDbBlockBegin
  2
*D3
 70
     1
 10
0.0
 20
0.0
 30
0.0
  3
*D3
  1

  0
INSERT
  5
1E6
330
1DA
100
AcDbEntity
  8
0
  6
Continuous
 62
     7
370
     0
100
AcDbBlockReference
  2
_Open30
 10
162.5243707317
 20
234.7935427329
 30
0.3333333333
 41
3.0
 42
3.0
  0
INSERT
  5
1E7
330
1DA
100
AcDbEntity
  8
0
  6
Continuous
 62
     7
370
     0
100
AcDbBlockReference
  2
_Open30
 10
57.5243707317
 20
234.7935427329
 30
0.3333333333
 41
3.0
 42
3.0
 50
180.0
  0
LINE
  5
1E8
330
1DA
100
AcDbEntity
  8
0
  6
Continuous
 62
     7
370
     0
100
AcDbLine
 10
162.5243707317
 20
210.8936097561
 30
0.0
 11
162.5243707317
 21
235.7935427329
 31
0.0
  0
LINE
  5
1E9
330
1DA
100
AcDbEntity
  8
0
  6
Continuous
 62
     7
370
     0
100
AcDbLine
 10
57.5243707317
 20
210.8936097561
 30
0.0
 11
57.5243707317
 21
235.7935427329
 31
0.0
  0
LINE
  5
1EA
330
1DA
100
AcDbEntity
  8
0
  6
Continuous
 62
     7
370
     0
100
AcDbLine
 10
162.5243707317
 20
234.7935427329
 30
0.0
 11
57.5243707317
 21
234.7935427329
 31
0.0
  0
MTEXT
  5
1EB
330
1DA
100
AcDbEntity
  8
0
  6
Continuous
 62
     7
370
     0
100
AcDbMText
 10
106.9703815739
 20
238.8662697728
 30
0.0
 40
3.5
 41
0.0
 71
     1
 72
     1
  1
315
  7
SLDTEXTSTYLE0
 73
     1
 44
1.0
1001
ACAD
1000
MTEXTBEGIN
1070
    73
1070
     1
1070
    44
1040
1.0
1070
    74
1070
     0
1000
MTEXTEND
  0
ENDBLK
  5
1E5
330
1DA
100
AcDbEntity
  8
0
100
AcDbBlockEnd
  0
BLOCK
  5
1F8
330
1ED
100
AcDbEntity
  8
0
100
AcDbBlockBegin
  2
*D4
 70
     1
 10
0.0
 20
0.0
 30
0.0
  3
*D4
  1

  0
INSERT
  5
1FB
330
1ED
100
AcDbEntity
  8
0
  6
Continuous
 62
     7
370
     0
100
AcDbBlockReference
  2
_Open30
 10
89.51850100479997
 20
219.7341507245
 30
0.3333333333
 41
3.0
 42
3.0
  0
INSERT
  5
1FC
330
1ED
100
AcDbEntity
  8
0
  6
Continuous
 62
     7
370
     0
100
AcDbBlockReference
  2
_Open30
 10
96.1851676715
 20
219.7341507245
 30
0.3333333333
 41
3.0
 42
3.0
 50
180.0
  0
LINE
  5
1FD
330
1ED
100
AcDbEntity
  8
0
  6
Continuous
 62
     7
370
     0
100
AcDbLine
 10
89.51850100479997
 20
203.8936097561
 30
0.0
 11
89.51850100479997
 21
220.7341507245
 31
0.0
  0
LINE
  5
1FE
330
1ED
100
AcDbEntity
  8
0
  6
Continuous
 62
     7
370
     0
100
AcDbLine
 10
96.1851676715
 20
203.8936097561
 30
0.0
 11
96.1851676715
 21
220.7341507245
 31
0.0
  0
LINE
  5
1FF
330
1ED
100
AcDbEntity
  8
0
  6
Continuous
 62
     7
370
     0
100
AcDbLine
 10
89.51850100479997
 20
219.7341507245
 30
0.0
 11
84.51850100479999
 21
219.7341507245
 31
0.0
  0
LINE
  5
200
330
1ED
100
AcDbEntity
  8
0
  6
Continuous
 62
     7
370
     0
100
AcDbLine
 10
89.51850100479997
 20
219.7341507245
 30
0.0
 11
96.1851676715
 21
219.7341507245
 31
0.0
  0
LINE
  5
201
330
1ED
100
AcDbEntity
  8
0
  6
Continuous
 62
     7
370
     0
100
AcDbLine
 10
96.1851676715
 20
219.7341507245
 30
0.0
 11
101.1851676715
 21
219.7341507245
 31
0.0
  0
MTEXT
  5
202
330
1ED
100
AcDbEntity
  8
0
  6
Continuous
 62
     7
370
     0
100
AcDbMText
 10
90.81531163580001
 20
223.8068777644
 30
0.0
 40
3.5
 41
0.0
 71
     1
 72
     1
  1
20
  7
SLDTEXTSTYLE0
 73
     1
 44
1.0
1001
ACAD
1000
MTEXTBEGIN
1070
    73
1070
     1
1070
    44
1040
1.0
1070
    74
1070
     0
1000
MTEXTEND
  0
ENDBLK
  5
1F9
330
1ED
100
AcDbEntity
  8
0
100
AcDbBlockEnd
  0
BLOCK
  5
20E
330
204
100
AcDbEntity
  8
0
100
AcDbBlockBegin
  2
*D5
 70
     1
 10
0.0
 20
0.0
 30
0.0
  3
*D5
  1

  0
INSERT
  5
211
330
204
100
AcDbEntity
  8
0
  6
Continuous
 62
     7
370
     0
100
AcDbBlockReference
  2
_Open30
 10
89.72260367309997
 20
202.5303561093
 30
0.3333333333
 41
3.0
 42
3.0
 50
119.3304866484
  0
LINE
  5
212
330
204
100
AcDbEntity
  8
0
  6
Continuous
 62
     7
370
     0
100
AcDbLine
 10
89.72260367309997
 20
202.5303561093
 30
0.0
 11
96.62276966290001
 21
190.2497206800999
 31
0.0
  0
LINE
  5
213
330
204
100
AcDbEntity
  8
0
  6
Continuous
 62
     7
370
     0
100
AcDbLine
 10
96.62276966290001
 20
190.2497206800999
 30
0.0
 11
109.5313604722
 21
190.2497206800999
 31
0.0
  0
MTEXT
  5
214
330
204
100
AcDbEntity
  8
0
  6
Continuous
 62
     7
370
     0
100
AcDbMText
 10
99.79776966290001
 20
194.32244772
 30
0.0
 40
3.5
 41
0.0
 71
     1
 72
     1
  1
2-M3
  7
SLDTEXTSTYLE0
 73
     1
 44
1.0
1001
ACAD
1000
MTEXTBEGIN
1070
    73
1070
     1
1070
    44
1040
1.0
1070
    74
1070
     0
1000
MTEXTEND
  0
ENDBLK
  5
20F
330
204
100
AcDbEntity
  8
0
100
AcDbBlockEnd
  0
BLOCK
  5
220
330
216
100
AcDbEntity
  8
0
100
AcDbBlockBegin
  2
*D6
 70
     1
 10
0.0
 20
0.0
 30
0.0
  3
*D6
  1

  0
INSERT
  5
222
330
216
100
AcDbEntity
  8
0
  6
Continuous
 62
     7
370
     0
100
AcDbBlockReference
  2
_Open30
 10
86.5185010048
 20
228.4622995219
 30
0.3333333333
 41
3.0
 42
3.0
  0
INSERT
  5
223
330
216
100
AcDbEntity
  8
0
  6
Continuous
 62
     7
370
     0
100
AcDbBlockReference
  2
_Open30
 10
99.1851676715
 20
228.4622995219
 30
0.3333333333
 41
3.0
 42
3.0
 50
180.0
  0
LINE
  5
224
330
216
100
AcDbEntity
  8
0
  6
Continuous
 62
     7
370
     0
100
AcDbLine
 10
86.5185010048
 20
203.8936097561
 30
0.0
 11
86.5185010048
 21
229.4622995219
 31
0.0
  0
LINE
  5
225
330
216
100
AcDbEntity
  8
0
  6
Continuous
 62
     7
370
     0
100
AcDbLine
 10
99.1851676715
 20
203.8936097561
 30
0.0
 11
99.1851676715
 21
229.4622995219
 31
0.0
  0
LINE
  5
226
330
216
100
AcDbEntity
  8
0
  6
Continuous
 62
     7
370
     0
100
AcDbLine
 10
86.5185010048
 20
228.4622995219
 30
0.0
 11
81.5185010048
 21
228.4622995219
 31
0.0
  0
LINE
  5
227
330
216
100
AcDbEntity
  8
0
  6
Continuous
 62
     7
370
     0
100
AcDbLine
 10
86.5185010048
 20
228.4622995219
 30
0.0
 11
99.1851676715
 21
228.4622995219
 31
0.0
  0
LINE
  5
228
330
216
100
AcDbEntity
  8
0
  6
Continuous
 62
     7
370
     0
100
AcDbLine
 10
99.1851676715
 20
228.4622995219
 30
0.0
 11
104.1851676715
 21
228.4622995219
 31
0.0
  0
MTEXT
  5
229
330
216
100
AcDbEntity
  8
0
  6
Continuous
 62
     7
370
     0
100
AcDbMText
 10
90.81531163580001
 20
232.5350265617
 30
0.0
 40
3.5
 41
0.0
 71
     1
 72
     1
  1
38
  7
SLDTEXTSTYLE0
 73
     1
 44
1.0
1001
ACAD
1000
MTEXTBEGIN
1070
    73
1070
     1
1070
    44
1040
1.0
1070
    74
1070
     0
1000
MTEXTEND
  0
ENDBLK
  5
221
330
216
100
AcDbEntity
  8
0
100
AcDbBlockEnd
  0
BLOCK
  5
235
330
22B
100
AcDbEntity
  8
0
100
AcDbBlockBegin
  2
*D7
 70
     1
 10
0.0
 20
0.0
 30
0.0
  3
*D7
  1

  0
INSERT
  5
237
330
22B
100
AcDbEntity
  8
0
  6
Continuous
 62
     7
370
     0
100
AcDbBlockReference
  2
_Open30
 10
86.2460304849
 20
202.4158443159
 30
0.3333333333
 41
3.0
 42
3.0
 50
60.3038074067
  0
LINE
  5
238
330
22B
100
AcDbEntity
  8
0
  6
Continuous
 62
     7
370
     0
100
AcDbLine
 10
86.2460304849
 20
202.4158443159
 30
0.0
 11
79.8068555803
 21
191.125025647
 31
0.0
  0
LINE
  5
239
330
22B
100
AcDbEntity
  8
0
  6
Continuous
 62
     7
370
     0
100
AcDbLine
 10
79.8068555803
 20
191.125025647
 30
0.0
 11
66.8982647709
 21
191.125025647
 31
0.0
  0
MTEXT
  5
23A
330
22B
100
AcDbEntity
  8
0
  6
Continuous
 62
     7
370
     0
100
AcDbMText
 10
68.4857647709
 20
195.1977526869
 30
0.0
 40
3.5
 41
0.0
 71
     1
 72
     1
  1
2-M4
  7
SLDTEXTSTYLE0
 73
     1
 44
1.0
1001
ACAD
1000
MTEXTBEGIN
1070
    73
1070
     1
1070
    44
1040
1.0
1070
    74
1070
     0
1000
MTEXTEND
  0
ENDBLK
  5
236
330
22B
100
AcDbEntity
  8
0
100
AcDbBlockEnd
  0
BLOCK
  5
2C1
330
2B5
100
AcDbEntity
  8
0
100
AcDbBlockBegin
  2
*D8
 70
     1
 10
0.0
 20
0.0
 30
0.0
  3
*D8
  1

  0
LINE
  5
4D9
330
2B5
100
AcDbEntity
  8
0
 62
     0
370
    -2
100
AcDbLine
 10
120.0276724756715
 20
158.3145284690472
 30
0.0
 11
136.5496388996398
 21
158.3145284690472
 31
0.0
  0
LINE
  5
4DA
330
2B5
100
AcDbEntity
  8
0
 62
     0
370
    -2
100
AcDbLine
 10
120.0276724756714
 20
167.6145284690472
 30
0.0
 11
136.5496388996398
 21
167.6145284690472
 31
0.0
  0
LINE
  5
4DB
330
2B5
100
AcDbEntity
  8
0
 62
     0
370
    -2
100
AcDbLine
 10
135.5496388996398
 20
161.3145284690473
 30
0.0
 11
135.5496388996398
 21
164.6145284690472
 31
0.0
  0
LINE
  5
4DC
330
2B5
100
AcDbEntity
  8
0
 62
     0
370
    -2
100
AcDbLine
 10
135.5496388996398
 20
167.6145284690472
 30
0.0
 11
135.5496388996398
 21
170.6145284690471
 31
0.0
  0
LINE
  5
4DD
330
2B5
100
AcDbEntity
  8
0
 62
     0
370
    -2
100
AcDbLine
 10
135.5496388996398
 20
170.6145284690471
 30
0.0
 11
154.5736388996398
 21
170.6145284690471
 31
0.0
  0
SOLID
  5
4DE
330
2B5
100
AcDbEntity
  8
0
 62
     0
100
AcDbTrace
 10
135.0496388996398
 20
161.3145284690473
 30
0.0
 11
136.0496388996398
 21
161.3145284690473
 31
0.0
 12
135.5496388996398
 22
158.3145284690472
 32
0.0
 13
135.5496388996398
 23
158.3145284690472
 33
0.0
  0
SOLID
  5
4DF
330
2B5
100
AcDbEntity
  8
0
 62
     0
100
AcDbTrace
 10
135.0496388996398
 20
164.6145284690472
 30
0.0
 11
136.0496388996398
 21
164.6145284690472
 31
0.0
 12
135.5496388996398
 22
167.6145284690472
 32
0.0
 13
135.5496388996398
 23
167.6145284690472
 33
0.0
  0
MTEXT
  5
4E0
330
2B5
100
AcDbEntity
  8
0
 62
     0
100
AcDbMText
 10
145.8236388996398
 20
174.1801951357139
 30
0.0
 40
3.5
 41
0.0
 71
     5
 72
     1
  1
%%C27,90
 73
     1
 44
1.0
1001
ACAD
1000
MTEXTBEGIN
1070
    73
1070
     1
1070
    44
1040
1.0
1070
    74
1070
     0
1000
MTEXTEND
  0
POINT
  5
4E1
330
2B5
100
AcDbEntity
  8
Defpoints
 62
     0
100
AcDbPoint
 10
119.0276724756715
 20
158.3145284690472
 30
0.0
  0
POINT
  5
4E2
330
2B5
100
AcDbEntity
  8
Defpoints
 62
     0
100
AcDbPoint
 10
119.0276724756714
 20
167.6145284690472
 30
0.0
  0
POINT
  5
4E3
330
2B5
100
AcDbEntity
  8
Defpoints
 62
     0
100
AcDbPoint
 10
135.5496388996398
 20
167.6145284690472
 30
0.0
  0
ENDBLK
  5
2C2
330
2B5
100
AcDbEntity
  8
0
100
AcDbBlockEnd
  0
BLOCK
  5
4F0
330
4E5
100
AcDbEntity
  8
0
100
AcDbBlockBegin
  2
*D9
 70
     1
 10
0.0
 20
0.0
 30
0.0
  3
*D9
  1

  0
LINE
  5
537
330
4E5
100
AcDbEntity
  8
0
 62
     0
370
    -2
100
AcDbLine
 10
120.0276724756715
 20
158.3145284690472
 30
0.0
 11
151.7941904661106
 21
158.3145284690472
 31
0.0
  0
LINE
  5
538
330
4E5
100
AcDbEntity
  8
0
 62
     0
370
    -2
100
AcDbLine
 10
120.0276724756715
 20
167.6145284690472
 30
0.0
 11
151.7941904661106
 21
167.6145284690472
 31
0.0
  0
LINE
  5
539
330
4E5
100
AcDbEntity
  8
0
 62
     0
370
    -2
100
AcDbLine
 10
150.7941904661106
 20
161.3145284690473
 30
0.0
 11
150.7941904661106
 21
164.6145284690472
 31
0.0
  0
LINE
  5
53A
330
4E5
100
AcDbEntity
  8
0
 62
     0
370
    -2
100
AcDbLine
 10
150.7941904661106
 20
167.6145284690472
 30
0.0
 11
150.7941904661106
 21
191.1625284690472
 31
0.0
  0
SOLID
  5
53B
330
4E5
100
AcDbEntity
  8
0
 62
     0
100
AcDbTrace
 10
150.2941904661106
 20
161.3145284690473
 30
0.0
 11
151.2941904661106
 21
161.3145284690473
 31
0.0
 12
150.7941904661106
 22
158.3145284690472
 32
0.0
 13
150.7941904661106
 23
158.3145284690472
 33
0.0
  0
SOLID
  5
53C
330
4E5
100
AcDbEntity
  8
0
 62
     0
100
AcDbTrace
 10
150.2941904661106
 20
164.6145284690472
 30
0.0
 11
151.2941904661106
 21
164.6145284690472
 31
0.0
 12
150.7941904661106
 22
167.6145284690472
 32
0.0
 13
150.7941904661106
 23
167.6145284690472
 33
0.0
  0
MTEXT
  5
53D
330
4E5
100
AcDbEntity
  8
0
 62
     0
100
AcDbMText
 10
147.2285237994439
 20
180.8885284690473
 30
0.0
 40
3.5
 41
0.0
 71
     5
 72
     1
  1
%%c27,90
 11
0.0000000000000001
 21
1.0
 31
0.0
 73
     1
 44
1.0
1001
ACAD
1000
MTEXTBEGIN
1070
    73
1070
     1
1070
    44
1040
1.0
1070
    74
1070
     0
1000
MTEXTEND
  0
POINT
  5
53E
330
4E5
100
AcDbEntity
  8
Defpoints
 62
     0
100
AcDbPoint
 10
119.0276724756715
 20
158.3145284690472
 30
0.0
  0
POINT
  5
53F
330
4E5
100
AcDbEntity
  8
Defpoints
 62
     0
100
AcDbPoint
 10
119.0276724756715
 20
167.6145284690472
 30
0.0
  0
POINT
  5
540
330
4E5
100
AcDbEntity
  8
Defpoints
 62
     0
100
AcDbPoint
 10
150.7941904661106
 20
167.6145284690472
 30
0.0
  0
ENDBLK
  5
4F1
330
4E5
100
AcDbEntity
  8
0
100
AcDbBlockEnd
  0
BLOCK
  5
507
330
4FD
100
AcDbEntity
  8
0
100
AcDbBlockBegin
  2
*D10
 70
     1
 10
0.0
 20
0.0
 30
0.0
  3
*D10
  1

  0
LINE
  5
4FE
330
4FD
100
AcDbEntity
  8
0
 62
     0
370
    -2
100
AcDbLine
 10
102.0276724756715
 20
149.2645284690472
 30
0.0
 11
80.75645055395034
 21
149.2645284690472
 31
0.0
  0
LINE
  5
4FF
330
4FD
100
AcDbEntity
  8
0
 62
     0
370
    -2
100
AcDbLine
 10
118.0276724756714
 20
167.6145284690472
 30
0.0
 11
80.75645055395034
 21
167.6145284690472
 31
0.0
  0
LINE
  5
500
330
4FD
100
AcDbEntity
  8
0
 62
     0
370
    -2
100
AcDbLine
 10
81.75645055395035
 20
152.2645284690472
 30
0.0
 11
81.75645055395035
 21
164.6145284690472
 31
0.0
  0
SOLID
  5
501
330
4FD
100
AcDbEntity
  8
0
 62
     0
100
AcDbTrace
 10
81.25645055395034
 20
152.2645284690472
 30
0.0
 11
82.25645055395034
 21
152.2645284690472
 31
0.0
 12
81.75645055395035
 22
149.2645284690472
 32
0.0
 13
81.75645055395035
 23
149.2645284690472
 33
0.0
  0
SOLID
  5
502
330
4FD
100
AcDbEntity
  8
0
 62
     0
100
AcDbTrace
 10
81.25645055395036
 20
164.6145284690472
 30
0.0
 11
82.25645055395036
 21
164.6145284690472
 31
0.0
 12
81.75645055395035
 22
167.6145284690472
 32
0.0
 13
81.75645055395035
 23
167.6145284690472
 33
0.0
  0
MTEXT
  5
503
330
4FD
100
AcDbEntity
  8
0
 62
     0
100
AcDbMText
 10
78.19078388728366
 20
158.4395284690472
 30
0.0
 40
3.5
 41
0.0
 71
     5
 72
     1
  1
55,05
 11
0.0000000000000001
 21
1.0
 31
0.0
 73
     1
 44
1.0
1001
ACAD
1000
MTEXTBEGIN
1070
    73
1070
     1
1070
    44
1040
1.0
1070
    74
1070
     0
1000
MTEXTEND
  0
POINT
  5
504
330
4FD
100
AcDbEntity
  8
Defpoints
 62
     0
100
AcDbPoint
 10
103.0276724756715
 20
149.2645284690472
 30
0.0
  0
POINT
  5
505
330
4FD
100
AcDbEntity
  8
Defpoints
 62
     0
100
AcDbPoint
 10
119.0276724756714
 20
167.6145284690472
 30
0.0
  0
POINT
  5
506
330
4FD
100
AcDbEntity
  8
Defpoints
 62
     0
100
AcDbPoint
 10
81.75645055395035
 20
167.6145284690472
 30
0.0
  0
ENDBLK
  5
508
330
4FD
100
AcDbEntity
  8
0
100
AcDbBlockEnd
  0
BLOCK
  5
514
330
50A
100
AcDbEntity
  8
0
100
AcDbBlockBegin
  2
*D11
 70
     1
 10
0.0
 20
0.0
 30
0.0
  3
*D11
  1

  0
LINE
  5
50B
330
50A
100
AcDbEntity
  8
0
 62
     0
370
    -2
100
AcDbLine
 10
104.5276724756714
 20
149.2645284690472
 30
0.0
 11
82.40680040448113
 21
149.2645284690472
 31
0.0
  0
LINE
  5
50C
330
50A
100
AcDbEntity
  8
0
 62
     0
370
    -2
100
AcDbLine
 10
112.6776724756715
 20
167.4145284690473
 30
0.0
 11
82.40680040448117
 21
167.4145284690473
 31
0.0
  0
LINE
  5
50D
330
50A
100
AcDbEntity
  8
0
 62
     0
370
    -2
100
AcDbLine
 10
83.40680040448113
 20
152.2645284690472
 30
0.0
 11
83.40680040448114
 21
164.4145284690472
 31
0.0
  0
SOLID
  5
50E
330
50A
100
AcDbEntity
  8
0
 62
     0
100
AcDbTrace
 10
82.90680040448114
 20
152.2645284690472
 30
0.0
 11
83.90680040448113
 21
152.2645284690472
 31
0.0
 12
83.40680040448113
 22
149.2645284690472
 32
0.0
 13
83.40680040448113
 23
149.2645284690472
 33
0.0
  0
SOLID
  5
50F
330
50A
100
AcDbEntity
  8
0
 62
     0
100
AcDbTrace
 10
82.90680040448114
 20
164.4145284690472
 30
0.0
 11
83.90680040448115
 21
164.4145284690472
 31
0.0
 12
83.40680040448114
 22
167.4145284690473
 32
0.0
 13
83.40680040448114
 23
167.4145284690473
 33
0.0
  0
MTEXT
  5
510
330
50A
100
AcDbEntity
  8
0
 62
     0
100
AcDbMText
 10
79.84113373781443
 20
158.3395284690472
 30
0.0
 40
3.5
 41
0.0
 71
     5
 72
     1
  1
54,45
 11
0.0000000000000001
 21
1.0
 31
0.0
 73
     1
 44
1.0
1001
ACAD
1000
MTEXTBEGIN
1070
    73
1070
     1
1070
    44
1040
1.0
1070
    74
1070
     0
1000
MTEXTEND
  0
POINT
  5
511
330
50A
100
AcDbEntity
  8
Defpoints
 62
     0
100
AcDbPoint
 10
105.5276724756714
 20
149.2645284690472
 30
0.0
  0
POINT
  5
512
330
50A
100
AcDbEntity
  8
Defpoints
 62
     0
100
AcDbPoint
 10
113.6776724756715
 20
167.4145284690473
 30
0.0
  0
POINT
  5
513
330
50A
100
AcDbEntity
  8
Defpoints
 62
     0
100
AcDbPoint
 10
83.40680040448114
 20
167.4145284690473
 30
0.0
  0
ENDBLK
  5
515
330
50A
100
AcDbEntity
  8
0
100
AcDbBlockEnd
  0
BLOCK
  5
521
330
517
100
AcDbEntity
  8
0
100
AcDbBlockBegin
  2
*D12
 70
     1
 10
0.0
 20
0.0
 30
0.0
  3
*D12
  1

  0
LINE
  5
518
330
517
100
AcDbEntity
  8
0
 62
     0
370
    -2
100
AcDbLine
 10
102.0276724756715
 20
149.2645284690473
 30
0.0
 11
82.40680040448113
 21
149.2645284690473
 31
0.0
  0
LINE
  5
519
330
517
100
AcDbEntity
  8
0
 62
     0
370
    -2
100
AcDbLine
 10
112.6776724756715
 20
167.6145284690472
 30
0.0
 11
82.40680040448117
 21
167.6145284690472
 31
0.0
  0
LINE
  5
51A
330
517
100
AcDbEntity
  8
0
 62
     0
370
    -2
100
AcDbLine
 10
83.40680040448113
 20
152.2645284690473
 30
0.0
 11
83.40680040448114
 21
164.6145284690472
 31
0.0
  0
SOLID
  5
51B
330
517
100
AcDbEntity
  8
0
 62
     0
100
AcDbTrace
 10
82.90680040448114
 20
152.2645284690473
 30
0.0
 11
83.90680040448113
 21
152.2645284690473
 31
0.0
 12
83.40680040448113
 22
149.2645284690473
 32
0.0
 13
83.40680040448113
 23
149.2645284690473
 33
0.0
  0
SOLID
  5
51C
330
517
100
AcDbEntity
  8
0
 62
     0
100
AcDbTrace
 10
82.90680040448114
 20
164.6145284690472
 30
0.0
 11
83.90680040448115
 21
164.6145284690472
 31
0.0
 12
83.40680040448114
 22
167.6145284690472
 32
0.0
 13
83.40680040448114
 23
167.6145284690472
 33
0.0
  0
MTEXT
  5
51D
330
517
100
AcDbEntity
  8
0
 62
     0
100
AcDbMText
 10
79.84113373781443
 20
158.4395284690473
 30
0.0
 40
3.5
 41
0.0
 71
     5
 72
     1
  1
55,05
 11
0.0000000000000001
 21
1.0
 31
0.0
 73
     1
 44
1.0
1001
ACAD
1000
MTEXTBEGIN
1070
    73
1070
     1
1070
    44
1040
1.0
1070
    74
1070
     0
1000
MTEXTEND
  0
POINT
  5
51E
330
517
100
AcDbEntity
  8
Defpoints
 62
     0
100
AcDbPoint
 10
103.0276724756715
 20
149.2645284690473
 30
0.0
  0
POINT
  5
51F
330
517
100
AcDbEntity
  8
Defpoints
 62
     0
100
AcDbPoint
 10
113.6776724756715
 20
167.6145284690472
 30
0.0
  0
POINT
  5
520
330
517
100
AcDbEntity
  8
Defpoints
 62
     0
100
AcDbPoint
 10
83.40680040448114
 20
167.6145284690472
 30
0.0
  0
ENDBLK
  5
522
330
517
100
AcDbEntity
  8
0
100
AcDbBlockEnd
  0
BLOCK
  5
54E
330
542
100
AcDbEntity
  8
0
100
AcDbBlockBegin
  2
*D13
 70
     1
 10
0.0
 20
0.0
 30
0.0
  3
*D13
  1

  0
LINE
  5
543
330
542
100
AcDbEntity
  8
0
 62
     0
370
    -2
100
AcDbLine
 10
120.6276724756715
 20
165.1595284690472
 30
0.0
 11
141.7816629260928
 21
165.1595284690472
 31
0.0
  0
LINE
  5
544
330
542
100
AcDbEntity
  8
0
 62
     0
370
    -2
100
AcDbLine
 10
120.6276724756714
 20
160.7695284690471
 30
0.0
 11
141.7816629260928
 21
160.7695284690471
 31
0.0
  0
LINE
  5
545
330
542
100
AcDbEntity
  8
0
 62
     0
370
    -2
100
AcDbLine
 10
140.7816629260928
 20
168.159528469047
 30
0.0
 11
140.7816629260928
 21
171.1595284690472
 31
0.0
  0
LINE
  5
546
330
542
100
AcDbEntity
  8
0
 62
     0
370
    -2
100
AcDbLine
 10
140.7816629260928
 20
157.7695284690471
 30
0.0
 11
140.7816629260928
 21
139.4715284690472
 31
0.0
  0
LINE
  5
547
330
542
100
AcDbEntity
  8
0
 62
     0
370
    -2
100
AcDbLine
 10
140.7816629260928
 20
165.1595284690472
 30
0.0
 11
140.7816629260928
 21
160.7695284690471
 31
0.0
  0
SOLID
  5
548
330
542
100
AcDbEntity
  8
0
 62
     0
100
AcDbTrace
 10
140.2816629260928
 20
168.159528469047
 30
0.0
 11
141.2816629260928
 21
168.159528469047
 31
0.0
 12
140.7816629260928
 22
165.1595284690472
 32
0.0
 13
140.7816629260928
 23
165.1595284690472
 33
0.0
  0
SOLID
  5
549
330
542
100
AcDbEntity
  8
0
 62
     0
100
AcDbTrace
 10
140.2816629260928
 20
157.7695284690471
 30
0.0
 11
141.2816629260928
 21
157.7695284690471
 31
0.0
 12
140.7816629260928
 22
160.7695284690471
 32
0.0
 13
140.7816629260928
 23
160.7695284690471
 33
0.0
  0
MTEXT
  5
54A
330
542
100
AcDbEntity
  8
0
 62
     0
100
AcDbMText
 10
137.2159962594261
 20
147.1205284690473
 30
0.0
 40
3.5
 41
0.0
 71
     5
 72
     1
  1
13,17
 11
0.0000000000000001
 21
1.0
 31
0.0
 73
     1
 44
1.0
1001
ACAD
1000
MTEXTBEGIN
1070
    73
1070
     1
1070
    44
1040
1.0
1070
    74
1070
     0
1000
MTEXTEND
  0
POINT
  5
54B
330
542
100
AcDbEntity
  8
Defpoints
 62
     0
100
AcDbPoint
 10
119.6276724756715
 20
165.1595284690472
 30
0.0
  0
POINT
  5
54C
330
542
100
AcDbEntity
  8
Defpoints
 62
     0
100
AcDbPoint
 10
119.6276724756714
 20
160.7695284690471
 30
0.0
  0
POINT
  5
54D
330
542
100
AcDbEntity
  8
Defpoints
 62
     0
100
AcDbPoint
 10
140.7816629260928
 20
160.7695284690471
 30
0.0
  0
ENDBLK
  5
54F
330
542
100
AcDbEntity
  8
0
100
AcDbBlockEnd
  0
BLOCK
  5
569
330
55D
100
AcDbEntity
  8
0
100
AcDbBlockBegin
  2
*D14
 70
     1
 10
0.0
 20
0.0
 30
0.0
  3
*D14
  1

  0
LINE
  5
55E
330
55D
100
AcDbEntity
  8
0
 62
     0
370
    -2
100
AcDbLine
 10
121.6276724756714
 20
164.9645284690472
 30
0.0
 11
140.9427151435279
 21
164.9645284690472
 31
0.0
  0
LINE
  5
55F
330
55D
100
AcDbEntity
  8
0
 62
     0
370
    -2
100
AcDbLine
 10
121.6276724756714
 20
160.9645284690472
 30
0.0
 11
140.9427151435279
 21
160.9645284690472
 31
0.0
  0
LINE
  5
560
330
55D
100
AcDbEntity
  8
0
 62
     0
370
    -2
100
AcDbLine
 10
139.9427151435279
 20
167.9645284690472
 30
0.0
 11
139.9427151435279
 21
170.9645284690472
 31
0.0
  0
LINE
  5
561
330
55D
100
AcDbEntity
  8
0
 62
     0
370
    -2
100
AcDbLine
 10
139.9427151435279
 20
157.9645284690472
 30
0.0
 11
139.9427151435279
 21
139.6665284690472
 31
0.0
  0
LINE
  5
562
330
55D
100
AcDbEntity
  8
0
 62
     0
370
    -2
100
AcDbLine
 10
139.9427151435279
 20
164.9645284690472
 30
0.0
 11
139.9427151435279
 21
160.9645284690472
 31
0.0
  0
SOLID
  5
563
330
55D
100
AcDbEntity
  8
0
 62
     0
100
AcDbTrace
 10
139.4427151435279
 20
167.9645284690472
 30
0.0
 11
140.4427151435279
 21
167.9645284690472
 31
0.0
 12
139.9427151435279
 22
164.9645284690472
 32
0.0
 13
139.9427151435279
 23
164.9645284690472
 33
0.0
  0
SOLID
  5
564
330
55D
100
AcDbEntity
  8
0
 62
     0
100
AcDbTrace
 10
139.4427151435279
 20
157.9645284690472
 30
0.0
 11
140.4427151435279
 21
157.9645284690472
 31
0.0
 12
139.9427151435279
 22
160.9645284690472
 32
0.0
 13
139.9427151435279
 23
160.9645284690472
 33
0.0
  0
MTEXT
  5
565
330
55D
100
AcDbEntity
  8
0
 62
     0
100
AcDbMText
 10
136.3770484768612
 20
147.3155284690472
 30
0.0
 40
3.5
 41
0.0
 71
     5
 72
     1
  1
12,00
 11
0.0000000000000001
 21
1.0
 31
0.0
 73
     1
 44
1.0
1001
ACAD
1000
MTEXTBEGIN
1070
    73
1070
     1
1070
    44
1040
1.0
1070
    74
1070
     0
1000
MTEXTEND
  0
POINT
  5
566
330
55D
100
AcDbEntity
  8
Defpoints
 62
     0
100
AcDbPoint
 10
120.6276724756714
 20
164.9645284690472
 30
0.0
  0
POINT
  5
567
330
55D
100
AcDbEntity
  8
Defpoints
 62
     0
100
AcDbPoint
 10
120.6276724756714
 20
160.9645284690472
 30
0.0
  0
POINT
  5
568
330
55D
100
AcDbEntity
  8
Defpoints
 62
     0
100
AcDbPoint
 10
139.9427151435279
 20
160.9645284690472
 30
0.0
  0
ENDBLK
  5
56A
330
55D
100
AcDbEntity
  8
0
100
AcDbBlockEnd
  0
BLOCK
  5
578
330
56C
100
AcDbEntity
  8
0
100
AcDbBlockBegin
  2
*D15
 70
     1
 10
0.0
 20
0.0
 30
0.0
  3
*D15
  1

  0
LINE
  5
56D
330
56C
100
AcDbEntity
  8
0
 62
     0
370
    -2
100
AcDbLine
 10
108.0276724756715
 20
148.2645284690473
 30
0.0
 11
108.0276724756715
 21
128.4924171888218
 31
0.0
  0
LINE
  5
56E
330
56C
100
AcDbEntity
  8
0
 62
     0
370
    -2
100
AcDbLine
 10
103.0276724756715
 20
148.2645284690472
 30
0.0
 11
103.0276724756715
 21
128.4924171888218
 31
0.0
  0
LINE
  5
56F
330
56C
100
AcDbEntity
  8
0
 62
     0
370
    -2
100
AcDbLine
 10
111.0276724756716
 20
129.4924171888218
 30
0.0
 11
114.0276724756716
 21
129.4924171888218
 31
0.0
  0
LINE
  5
570
330
56C
100
AcDbEntity
  8
0
 62
     0
370
    -2
100
AcDbLine
 10
100.0276724756716
 20
129.4924171888218
 30
0.0
 11
81.72967247567155
 21
129.4924171888218
 31
0.0
  0
LINE
  5
571
330
56C
100
AcDbEntity
  8
0
 62
     0
370
    -2
100
AcDbLine
 10
108.0276724756715
 20
129.4924171888218
 30
0.0
 11
103.0276724756715
 21
129.4924171888218
 31
0.0
  0
SOLID
  5
572
330
56C
100
AcDbEntity
  8
0
 62
     0
100
AcDbTrace
 10
111.0276724756716
 20
129.9924171888218
 30
0.0
 11
111.0276724756716
 21
128.9924171888218
 31
0.0
 12
108.0276724756715
 22
129.4924171888218
 32
0.0
 13
108.0276724756715
 23
129.4924171888218
 33
0.0
  0
SOLID
  5
573
330
56C
100
AcDbEntity
  8
0
 62
     0
100
AcDbTrace
 10
100.0276724756716
 20
129.9924171888218
 30
0.0
 11
100.0276724756716
 21
128.9924171888218
 31
0.0
 12
103.0276724756715
 22
129.4924171888218
 32
0.0
 13
103.0276724756715
 23
129.4924171888218
 33
0.0
  0
MTEXT
  5
574
330
56C
100
AcDbEntity
  8
0
 62
     0
100
AcDbMText
 10
89.37867247567158
 20
133.0580838554885
 30
0.0
 40
3.5
 41
0.0
 71
     5
 72
     1
  1
15,00
 73
     1
 44
1.0
1001
ACAD
1000
MTEXTBEGIN
1070
    73
1070
     1
1070
    44
1040
1.0
1070
    74
1070
     0
1000
MTEXTEND
  0
POINT
  5
575
330
56C
100
AcDbEntity
  8
Defpoints
 62
     0
100
AcDbPoint
 10
108.0276724756715
 20
149.2645284690473
 30
0.0
  0
POINT
  5
576
330
56C
100
AcDbEntity
  8
Defpoints
 62
     0
100
AcDbPoint
 10
103.0276724756715
 20
149.2645284690472
 30
0.0
  0
POINT
  5
577
330
56C
100
AcDbEntity
  8
Defpoints
 62
     0
100
AcDbPoint
 10
103.0276724756715
 20
129.4924171888218
 30
0.0
  0
ENDBLK
  5
579
330
56C
100
AcDbEntity
  8
0
100
AcDbBlockEnd
  0
BLOCK
  5
770
330
764
100
AcDbEntity
  8
0
100
AcDbBlockBegin
  2
*D16
 70
     1
 10
0.0
 20
0.0
 30
0.0
  3
*D16
  1

  0
LINE
  5
765
330
764
100
AcDbEntity
  8
0
 62
     0
370
    -2
100
AcDbLine
 10
108.0276724756715
 20
148.2645284690473
 30
0.0
 11
108.0276724756715
 21
133.8086284501626
 31
0.0
  0
LINE
  5
766
330
764
100
AcDbEntity
  8
0
 62
     0
370
    -2
100
AcDbLine
 10
103.0276724756715
 20
148.2645284690473
 30
0.0
 11
103.0276724756715
 21
133.8086284501626
 31
0.0
  0
LINE
  5
767
330
764
100
AcDbEntity
  8
0
 62
     0
370
    -2
100
AcDbLine
 10
111.0276724756716
 20
134.8086284501626
 30
0.0
 11
114.0276724756716
 21
134.8086284501626
 31
0.0
  0
LINE
  5
768
330
764
100
AcDbEntity
  8
0
 62
     0
370
    -2
100
AcDbLine
 10
100.0276724756716
 20
134.8086284501626
 30
0.0
 11
84.06300580900492
 21
134.8086284501626
 31
0.0
  0
LINE
  5
769
330
764
100
AcDbEntity
  8
0
 62
     0
370
    -2
100
AcDbLine
 10
108.0276724756715
 20
134.8086284501626
 30
0.0
 11
103.0276724756715
 21
134.8086284501626
 31
0.0
  0
SOLID
  5
76A
330
764
100
AcDbEntity
  8
0
 62
     0
100
AcDbTrace
 10
111.0276724756716
 20
135.3086284501626
 30
0.0
 11
111.0276724756716
 21
134.3086284501626
 31
0.0
 12
108.0276724756715
 22
134.8086284501626
 32
0.0
 13
108.0276724756715
 23
134.8086284501626
 33
0.0
  0
SOLID
  5
76B
330
764
100
AcDbEntity
  8
0
 62
     0
100
AcDbTrace
 10
100.0276724756716
 20
135.3086284501626
 30
0.0
 11
100.0276724756716
 21
134.3086284501626
 31
0.0
 12
103.0276724756715
 22
134.8086284501626
 32
0.0
 13
103.0276724756715
 23
134.8086284501626
 33
0.0
  0
MTEXT
  5
76C
330
764
100
AcDbEntity
  8
0
 62
     0
100
AcDbMText
 10
90.54533914233823
 20
138.3742951168292
 30
0.0
 40
3.5
 41
0.0
 71
     5
 72
     1
  1
5,00
 73
     1
 44
1.0
1001
ACAD
1000
MTEXTBEGIN
1070
    73
1070
     1
1070
    44
1040
1.0
1070
    74
1070
     0
1000
MTEXTEND
  0
POINT
  5
76D
330
764
100
AcDbEntity
  8
Defpoints
 62
     0
100
AcDbPoint
 10
108.0276724756715
 20
149.2645284690473
 30
0.0
  0
POINT
  5
76E
330
764
100
AcDbEntity
  8
Defpoints
 62
     0
100
AcDbPoint
 10
103.0276724756715
 20
149.2645284690473
 30
0.0
  0
POINT
  5
76F
330
764
100
AcDbEntity
  8
Defpoints
 62
     0
100
AcDbPoint
 10
103.0276724756715
 20
134.8086284501626
 30
0.0
  0
ENDBLK
  5
771
330
764
100
AcDbEntity
  8
0
100
AcDbBlockEnd
  0
BLOCK
  5
77E
330
773
100
AcDbEntity
  8
0
100
AcDbBlockBegin
  2
*D17
 70
     1
 10
0.0
 20
0.0
 30
0.0
  3
*D17
  1

  0
LINE
  5
79C
330
773
100
AcDbEntity
  8
0
 62
     0
370
    -2
100
AcDbLine
 10
120.0276724756714
 20
158.3145284690472
 30
0.0
 11
152.3286714677381
 21
158.3145284690472
 31
0.0
  0
LINE
  5
79D
330
773
100
AcDbEntity
  8
0
 62
     0
370
    -2
100
AcDbLine
 10
120.0276724756715
 20
167.6145284690472
 30
0.0
 11
152.3286714677381
 21
167.6145284690472
 31
0.0
  0
LINE
  5
79E
330
773
100
AcDbEntity
  8
0
 62
     0
370
    -2
100
AcDbLine
 10
151.3286714677381
 20
161.3145284690472
 30
0.0
 11
151.3286714677381
 21
164.6145284690472
 31
0.0
  0
LINE
  5
79F
330
773
100
AcDbEntity
  8
0
 62
     0
370
    -2
100
AcDbLine
 10
151.3286714677381
 20
167.6145284690472
 30
0.0
 11
151.3286714677381
 21
187.6625284690472
 31
0.0
  0
SOLID
  5
7A0
330
773
100
AcDbEntity
  8
0
 62
     0
100
AcDbTrace
 10
150.8286714677381
 20
161.3145284690472
 30
0.0
 11
151.8286714677381
 21
161.3145284690472
 31
0.0
 12
151.3286714677381
 22
158.3145284690472
 32
0.0
 13
151.3286714677381
 23
158.3145284690472
 33
0.0
  0
SOLID
  5
7A1
330
773
100
AcDbEntity
  8
0
 62
     0
100
AcDbTrace
 10
150.8286714677381
 20
164.6145284690472
 30
0.0
 11
151.8286714677381
 21
164.6145284690472
 31
0.0
 12
151.3286714677381
 22
167.6145284690472
 32
0.0
 13
151.3286714677381
 23
167.6145284690472
 33
0.0
  0
MTEXT
  5
7A2
330
773
100
AcDbEntity
  8
0
 62
     0
100
AcDbMText
 10
147.7630048010714
 20
179.1385284690473
 30
0.0
 40
3.5
 41
0.0
 71
     5
 72
     1
  1
%%c9,30
 11
0.0000000000000001
 21
1.0
 31
0.0
 73
     1
 44
1.0
1001
ACAD
1000
MTEXTBEGIN
1070
    73
1070
     1
1070
    44
1040
1.0
1070
    74
1070
     0
1000
MTEXTEND
  0
POINT
  5
7A3
330
773
100
AcDbEntity
  8
Defpoints
 62
     0
100
AcDbPoint
 10
119.0276724756714
 20
158.3145284690472
 30
0.0
  0
POINT
  5
7A4
330
773
100
AcDbEntity
  8
Defpoints
 62
     0
100
AcDbPoint
 10
119.0276724756715
 20
167.6145284690472
 30
0.0
  0
POINT
  5
7A5
330
773
100
AcDbEntity
  8
Defpoints
 62
     0
100
AcDbPoint
 10
151.3286714677381
 20
167.6145284690472
 30
0.0
  0
ENDBLK
  5
77F
330
773
100
AcDbEntity
  8
0
100
AcDbBlockEnd
  0
BLOCK
  5
78B
330
781
100
AcDbEntity
  8
0
100
AcDbBlockBegin
  2
*D18
 70
     1
 10
0.0
 20
0.0
 30
0.0
  3
*D18
  1

  0
LINE
  5
782
330
781
100
AcDbEntity
  8
0
 62
     0
370
    -2
100
AcDbLine
 10
102.0276724756715
 20
149.2645284690473
 30
0.0
 11
82.54403236330677
 21
149.2645284690473
 31
0.0
  0
LINE
  5
783
330
781
100
AcDbEntity
  8
0
 62
     0
370
    -2
100
AcDbLine
 10
112.6776724756715
 20
167.6145284690472
 30
0.0
 11
82.54403236330679
 21
167.6145284690472
 31
0.0
  0
LINE
  5
784
330
781
100
AcDbEntity
  8
0
 62
     0
370
    -2
100
AcDbLine
 10
83.54403236330677
 20
152.2645284690473
 30
0.0
 11
83.5440323633068
 21
164.6145284690472
 31
0.0
  0
SOLID
  5
785
330
781
100
AcDbEntity
  8
0
 62
     0
100
AcDbTrace
 10
83.04403236330676
 20
152.2645284690473
 30
0.0
 11
84.04403236330677
 21
152.2645284690473
 31
0.0
 12
83.54403236330677
 22
149.2645284690473
 32
0.0
 13
83.54403236330677
 23
149.2645284690473
 33
0.0
  0
SOLID
  5
786
330
781
100
AcDbEntity
  8
0
 62
     0
100
AcDbTrace
 10
83.04403236330678
 20
164.6145284690472
 30
0.0
 11
84.04403236330677
 21
164.6145284690472
 31
0.0
 12
83.5440323633068
 22
167.6145284690472
 32
0.0
 13
83.5440323633068
 23
167.6145284690472
 33
0.0
  0
MTEXT
  5
787
330
781
100
AcDbEntity
  8
0
 62
     0
100
AcDbMText
 10
79.97836569664008
 20
158.4395284690473
 30
0.0
 40
3.5
 41
0.0
 71
     5
 72
     1
  1
18,35
 11
0.0000000000000001
 21
1.0
 31
0.0
 73
     1
 44
1.0
1001
ACAD
1000
MTEXTBEGIN
1070
    73
1070
     1
1070
    44
1040
1.0
1070
    74
1070
     0
1000
MTEXTEND
  0
POINT
  5
788
330
781
100
AcDbEntity
  8
Defpoints
 62
     0
100
AcDbPoint
 10
103.0276724756715
 20
149.2645284690473
 30
0.0
  0
POINT
  5
789
330
781
100
AcDbEntity
  8
Defpoints
 62
     0
100
AcDbPoint
 10
113.6776724756715
 20
167.6145284690472
 30
0.0
  0
POINT
  5
78A
330
781
100
AcDbEntity
  8
Defpoints
 62
     0
100
AcDbPoint
 10
83.5440323633068
 20
167.6145284690472
 30
0.0
  0
ENDBLK
  5
78C
330
781
100
AcDbEntity
  8
0
100
AcDbBlockEnd
  0
BLOCK
  5
79A
330
78E
100
AcDbEntity
  8
0
100
AcDbBlockBegin
  2
*D19
 70
     1
 10
0.0
 20
0.0
 30
0.0
  3
*D19
  1

  0
LINE
  5
7A6
330
78E
100
AcDbEntity
  8
0
 62
     0
370
    -2
100
AcDbLine
 10
121.6276724756714
 20
160.9645284690472
 30
0.0
 11
136.5172784833653
 21
160.9645284690472
 31
0.0
  0
LINE
  5
7A7
330
78E
100
AcDbEntity
  8
0
 62
     0
370
    -2
100
AcDbLine
 10
121.6276724756714
 20
164.9645284690472
 30
0.0
 11
136.5172784833653
 21
164.9645284690472
 31
0.0
  0
LINE
  5
7A8
330
78E
100
AcDbEntity
  8
0
 62
     0
370
    -2
100
AcDbLine
 10
135.5172784833653
 20
157.9645284690472
 30
0.0
 11
135.5172784833653
 21
154.9645284690472
 31
0.0
  0
LINE
  5
7A9
330
78E
100
AcDbEntity
  8
0
 62
     0
370
    -2
100
AcDbLine
 10
135.5172784833653
 20
167.9645284690472
 30
0.0
 11
135.5172784833653
 21
187.4291951357138
 31
0.0
  0
LINE
  5
7AA
330
78E
100
AcDbEntity
  8
0
 62
     0
370
    -2
100
AcDbLine
 10
135.5172784833653
 20
160.9645284690472
 30
0.0
 11
135.5172784833653
 21
164.9645284690472
 31
0.0
  0
SOLID
  5
7AB
330
78E
100
AcDbEntity
  8
0
 62
     0
100
AcDbTrace
 10
135.0172784833653
 20
157.9645284690472
 30
0.0
 11
136.0172784833653
 21
157.9645284690472
 31
0.0
 12
135.5172784833653
 22
160.9645284690472
 32
0.0
 13
135.5172784833653
 23
160.9645284690472
 33
0.0
  0
SOLID
  5
7AC
330
78E
100
AcDbEntity
  8
0
 62
     0
100
AcDbTrace
 10
135.0172784833653
 20
167.9645284690472
 30
0.0
 11
136.0172784833653
 21
167.9645284690472
 31
0.0
 12
135.5172784833653
 22
164.9645284690472
 32
0.0
 13
135.5172784833653
 23
164.9645284690472
 33
0.0
  0
MTEXT
  5
7AD
330
78E
100
AcDbEntity
  8
0
 62
     0
100
AcDbMText
 10
131.9516118166986
 20
179.1968618023805
 30
0.0
 40
3.5
 41
0.0
 71
     5
 72
     1
  1
%%c4,00
 11
0.0000000000000001
 21
1.0
 31
0.0
 73
     1
 44
1.0
1001
ACAD
1000
MTEXTBEGIN
1070
    73
1070
     1
1070
    44
1040
1.0
1070
    74
1070
     0
1000
MTEXTEND
  0
POINT
  5
7AE
330
78E
100
AcDbEntity
  8
Defpoints
 62
     0
100
AcDbPoint
 10
120.6276724756714
 20
160.9645284690472
 30
0.0
  0
POINT
  5
7AF
330
78E
100
AcDbEntity
  8
Defpoints
 62
     0
100
AcDbPoint
 10
120.6276724756714
 20
164.9645284690472
 30
0.0
  0
POINT
  5
7B0
330
78E
100
AcDbEntity
  8
Defpoints
 62
     0
100
AcDbPoint
 10
135.5172784833653
 20
164.9645284690472
 30
0.0
  0
ENDBLK
  5
79B
330
78E
100
AcDbEntity
  8
0
100
AcDbBlockEnd
  0
BLOCK
  5
864
330
85A
100
AcDbEntity
  8
0
100
AcDbBlockBegin
  2
*D20
 70
     1
 10
0.0
 20
0.0
 30
0.0
  3
*D20
  1

  0
LINE
  5
85B
330
85A
100
AcDbEntity
  8
0
 62
     0
370
    -2
100
AcDbLine
 10
92.44049886569323
 20
167.428645667286
 30
0.0
 11
92.44049886569323
 21
196.3863244334556
 31
0.0
  0
LINE
  5
85C
330
85A
100
AcDbEntity
  8
0
 62
     0
370
    -2
100
AcDbLine
 10
115.6404988656933
 20
167.428645667286
 30
0.0
 11
115.6404988656933
 21
196.3863244334556
 31
0.0
  0
LINE
  5
85D
330
85A
100
AcDbEntity
  8
0
 62
     0
370
    -2
100
AcDbLine
 10
95.44049886569323
 20
195.3863244334556
 30
0.0
 11
112.6404988656933
 21
195.3863244334556
 31
0.0
  0
SOLID
  5
85E
330
85A
100
AcDbEntity
  8
0
 62
     0
100
AcDbTrace
 10
95.44049886569323
 20
195.8863244334555
 30
0.0
 11
95.44049886569323
 21
194.8863244334555
 31
0.0
 12
92.44049886569323
 22
195.3863244334556
 32
0.0
 13
92.44049886569323
 23
195.3863244334556
 33
0.0
  0
SOLID
  5
85F
330
85A
100
AcDbEntity
  8
0
 62
     0
100
AcDbTrace
 10
112.6404988656933
 20
195.8863244334555
 30
0.0
 11
112.6404988656933
 21
194.8863244334555
 31
0.0
 12
115.6404988656933
 22
195.3863244334556
 32
0.0
 13
115.6404988656933
 23
195.3863244334556
 33
0.0
  0
MTEXT
  5
860
330
85A
100
AcDbEntity
  8
0
 62
     0
100
AcDbMText
 10
104.0404988656932
 20
198.9519911001222
 30
0.0
 40
3.5
 41
0.0
 71
     5
 72
     1
  1
23,20
 73
     1
 44
1.0
1001
ACAD
1000
MTEXTBEGIN
1070
    73
1070
     1
1070
    44
1040
1.0
1070
    74
1070
     0
1000
MTEXTEND
  0
POINT
  5
861
330
85A
100
AcDbEntity
  8
Defpoints
 62
     0
100
AcDbPoint
 10
92.44049886569323
 20
166.428645667286
 30
0.0
  0
POINT
  5
862
330
85A
100
AcDbEntity
  8
Defpoints
 62
     0
100
AcDbPoint
 10
115.6404988656933
 20
166.428645667286
 30
0.0
  0
POINT
  5
863
330
85A
100
AcDbEntity
  8
Defpoints
 62
     0
100
AcDbPoint
 10
115.6404988656933
 20
195.3863244334556
 30
0.0
  0
ENDBLK
  5
865
330
85A
100
AcDbEntity
  8
0
100
AcDbBlockEnd
  0
BLOCK
  5
873
330
867
100
AcDbEntity
  8
0
100
AcDbBlockBegin
  2
*D21
 70
     1
 10
0.0
 20
0.0
 30
0.0
  3
*D21
  1

  0
LINE
  5
8CA
330
867
100
AcDbEntity
  8
0
 62
     0
370
    -2
100
AcDbLine
 10
95.24049886569322
 20
169.5286456672859
 30
0.0
 11
95.24049886569322
 21
186.1687170139297
 31
0.0
  0
LINE
  5
8CB
330
867
100
AcDbEntity
  8
0
 62
     0
370
    -2
100
AcDbLine
 10
101.2404988656932
 20
169.5286456672859
 30
0.0
 11
101.2404988656932
 21
186.1687170139297
 31
0.0
  0
LINE
  5
8CC
330
867
100
AcDbEntity
  8
0
 62
     0
370
    -2
100
AcDbLine
 10
104.2404988656932
 20
185.1687170139296
 30
0.0
 11
107.2404988656932
 21
185.1687170139296
 31
0.0
  0
LINE
  5
8CD
330
867
100
AcDbEntity
  8
0
 62
     0
370
    -2
100
AcDbLine
 10
92.24049886569323
 20
185.1687170139296
 30
0.0
 11
72.77583219902655
 21
185.1687170139296
 31
0.0
  0
LINE
  5
8CE
330
867
100
AcDbEntity
  8
0
 62
     0
370
    -2
100
AcDbLine
 10
101.2404988656932
 20
185.1687170139296
 30
0.0
 11
95.24049886569322
 21
185.1687170139296
 31
0.0
  0
SOLID
  5
8CF
330
867
100
AcDbEntity
  8
0
 62
     0
100
AcDbTrace
 10
104.2404988656932
 20
185.6687170139296
 30
0.0
 11
104.2404988656932
 21
184.6687170139296
 31
0.0
 12
101.2404988656932
 22
185.1687170139296
 32
0.0
 13
101.2404988656932
 23
185.1687170139296
 33
0.0
  0
SOLID
  5
8D0
330
867
100
AcDbEntity
  8
0
 62
     0
100
AcDbTrace
 10
92.24049886569323
 20
185.6687170139296
 30
0.0
 11
92.24049886569323
 21
184.6687170139296
 31
0.0
 12
95.24049886569322
 22
185.1687170139296
 32
0.0
 13
95.24049886569322
 23
185.1687170139296
 33
0.0
  0
MTEXT
  5
8D1
330
867
100
AcDbEntity
  8
0
 62
     0
100
AcDbMText
 10
81.00816553235992
 20
188.7343836805964
 30
0.0
 40
3.5
 41
0.0
 71
     5
 72
     1
  1
%%c6,00
 73
     1
 44
1.0
1001
ACAD
1000
MTEXTBEGIN
1070
    73
1070
     1
1070
    44
1040
1.0
1070
    74
1070
     0
1000
MTEXTEND
  0
POINT
  5
8D2
330
867
100
AcDbEntity
  8
Defpoints
 62
     0
100
AcDbPoint
 10
95.24049886569322
 20
168.528645667286
 30
0.0
  0
POINT
  5
8D3
330
867
100
AcDbEntity
  8
Defpoints
 62
     0
100
AcDbPoint
 10
101.2404988656932
 20
168.528645667286
 30
0.0
  0
POINT
  5
8D4
330
867
100
AcDbEntity
  8
Defpoints
 62
     0
100
AcDbPoint
 10
101.2404988656932
 20
185.1687170139296
 30
0.0
  0
ENDBLK
  5
874
330
867
100
AcDbEntity
  8
0
100
AcDbBlockEnd
  0
BLOCK
  5
882
330
876
100
AcDbEntity
  8
0
100
AcDbBlockBegin
  2
*D22
 70
     1
 10
0.0
 20
0.0
 30
0.0
  3
*D22
  1

  0
LINE
  5
8BF
330
876
100
AcDbEntity
  8
0
 62
     0
370
    -2
100
AcDbLine
 10
106.8404988656932
 20
169.5286456672859
 30
0.0
 11
106.8404988656932
 21
183.8744117462539
 31
0.0
  0
LINE
  5
8C0
330
876
100
AcDbEntity
  8
0
 62
     0
370
    -2
100
AcDbLine
 10
112.8404988656932
 20
169.5286456672859
 30
0.0
 11
112.8404988656932
 21
183.8744117462539
 31
0.0
  0
LINE
  5
8C1
330
876
100
AcDbEntity
  8
0
 62
     0
370
    -2
100
AcDbLine
 10
103.8404988656932
 20
182.8744117462539
 30
0.0
 11
100.8404988656932
 21
182.8744117462539
 31
0.0
  0
LINE
  5
8C2
330
876
100
AcDbEntity
  8
0
 62
     0
370
    -2
100
AcDbLine
 10
115.8404988656932
 20
182.8744117462539
 30
0.0
 11
135.3051655323598
 21
182.8744117462539
 31
0.0
  0
LINE
  5
8C3
330
876
100
AcDbEntity
  8
0
 62
     0
370
    -2
100
AcDbLine
 10
106.8404988656932
 20
182.8744117462539
 30
0.0
 11
112.8404988656932
 21
182.8744117462539
 31
0.0
  0
SOLID
  5
8C4
330
876
100
AcDbEntity
  8
0
 62
     0
100
AcDbTrace
 10
103.8404988656932
 20
183.3744117462538
 30
0.0
 11
103.8404988656932
 21
182.3744117462539
 31
0.0
 12
106.8404988656932
 22
182.8744117462539
 32
0.0
 13
106.8404988656932
 23
182.8744117462539
 33
0.0
  0
SOLID
  5
8C5
330
876
100
AcDbEntity
  8
0
 62
     0
100
AcDbTrace
 10
115.8404988656932
 20
183.3744117462538
 30
0.0
 11
115.8404988656932
 21
182.3744117462539
 31
0.0
 12
112.8404988656932
 22
182.8744117462539
 32
0.0
 13
112.8404988656932
 23
182.8744117462539
 33
0.0
  0
MTEXT
  5
8C6
330
876
100
AcDbEntity
  8
0
 62
     0
100
AcDbMText
 10
127.0728321990265
 20
186.4400784129206
 30
0.0
 40
3.5
 41
0.0
 71
     5
 72
     1
  1
%%c6,00
 73
     1
 44
1.0
1001
ACAD
1000
MTEXTBEGIN
1070
    73
1070
     1
1070
    44
1040
1.0
1070
    74
1070
     0
1000
MTEXTEND
  0
POINT
  5
8C7
330
876
100
AcDbEntity
  8
Defpoints
 62
     0
100
AcDbPoint
 10
106.8404988656932
 20
168.528645667286
 30
0.0
  0
POINT
  5
8C8
330
876
100
AcDbEntity
  8
Defpoints
 62
     0
100
AcDbPoint
 10
112.8404988656932
 20
168.528645667286
 30
0.0
  0
POINT
  5
8C9
330
876
100
AcDbEntity
  8
Defpoints
 62
     0
100
AcDbPoint
 10
112.8404988656932
 20
182.8744117462539
 30
0.0
  0
ENDBLK
  5
883
330
876
100
AcDbEntity
  8
0
100
AcDbBlockEnd
  0
BLOCK
  5
8B2
330
8A6
100
AcDbEntity
  8
0
100
AcDbBlockBegin
  2
*D23
 70
     1
 10
0.0
 20
0.0
 30
0.0
  3
*D23
  1

  0
LINE
  5
8B4
330
8A6
100
AcDbEntity
  8
0
 62
     0
370
    -2
100
AcDbLine
 10
101.0404988656932
 20
136.328645667286
 30
0.0
 11
101.0404988656932
 21
125.5257140334985
 31
0.0
  0
LINE
  5
8B5
330
8A6
100
AcDbEntity
  8
0
 62
     0
370
    -2
100
AcDbLine
 10
107.0404988656932
 20
136.328645667286
 30
0.0
 11
107.0404988656932
 21
125.5257140334985
 31
0.0
  0
LINE
  5
8B6
330
8A6
100
AcDbEntity
  8
0
 62
     0
370
    -2
100
AcDbLine
 10
98.04049886569321
 20
126.5257140334985
 30
0.0
 11
95.04049886569321
 21
126.5257140334985
 31
0.0
  0
LINE
  5
8B7
330
8A6
100
AcDbEntity
  8
0
 62
     0
370
    -2
100
AcDbLine
 10
110.0404988656932
 20
126.5257140334985
 30
0.0
 11
129.5051655323599
 21
126.5257140334985
 31
0.0
  0
LINE
  5
8B8
330
8A6
100
AcDbEntity
  8
0
 62
     0
370
    -2
100
AcDbLine
 10
101.0404988656932
 20
126.5257140334985
 30
0.0
 11
107.0404988656932
 21
126.5257140334985
 31
0.0
  0
SOLID
  5
8B9
330
8A6
100
AcDbEntity
  8
0
 62
     0
100
AcDbTrace
 10
98.04049886569321
 20
127.0257140334985
 30
0.0
 11
98.04049886569321
 21
126.0257140334985
 31
0.0
 12
101.0404988656932
 22
126.5257140334985
 32
0.0
 13
101.0404988656932
 23
126.5257140334985
 33
0.0
  0
SOLID
  5
8BA
330
8A6
100
AcDbEntity
  8
0
 62
     0
100
AcDbTrace
 10
110.0404988656932
 20
127.0257140334985
 30
0.0
 11
110.0404988656932
 21
126.0257140334985
 31
0.0
 12
107.0404988656932
 22
126.5257140334985
 32
0.0
 13
107.0404988656932
 23
126.5257140334985
 33
0.0
  0
MTEXT
  5
8BB
330
8A6
100
AcDbEntity
  8
0
 62
     0
100
AcDbMText
 10
121.2728321990265
 20
130.0913807001651
 30
0.0
 40
3.5
 41
0.0
 71
     5
 72
     1
  1
%%c6,00
 73
     1
 44
1.0
1001
ACAD
1000
MTEXTBEGIN
1070
    73
1070
     1
1070
    44
1040
1.0
1070
    74
1070
     0
1000
MTEXTEND
  0
POINT
  5
8BC
330
8A6
100
AcDbEntity
  8
Defpoints
 62
     0
100
AcDbPoint
 10
101.0404988656932
 20
137.328645667286
 30
0.0
  0
POINT
  5
8BD
330
8A6
100
AcDbEntity
  8
Defpoints
 62
     0
100
AcDbPoint
 10
107.0404988656932
 20
137.328645667286
 30
0.0
  0
POINT
  5
8BE
330
8A6
100
AcDbEntity
  8
Defpoints
 62
     0
100
AcDbPoint
 10
107.0404988656932
 20
126.5257140334985
 30
0.0
  0
ENDBLK
  5
8B3
330
8A6
100
AcDbEntity
  8
0
100
AcDbBlockEnd
  0
BLOCK
  5
8E0
330
8D6
100
AcDbEntity
  8
0
100
AcDbBlockBegin
  2
*D24
 70
     1
 10
0.0
 20
0.0
 30
0.0
  3
*D24
  1

  0
LINE
  5
8D7
330
8D6
100
AcDbEntity
  8
0
 62
     0
370
    -2
100
AcDbLine
 10
97.8404988656932
 20
137.328645667286
 30
0.0
 11
71.7869039491452
 21
137.328645667286
 31
0.0
  0
LINE
  5
8D8
330
8D6
100
AcDbEntity
  8
0
 62
     0
370
    -2
100
AcDbLine
 10
92.04049886569322
 20
168.528645667286
 30
0.0
 11
71.7869039491452
 21
168.528645667286
 31
0.0
  0
LINE
  5
8D9
330
8D6
100
AcDbEntity
  8
0
 62
     0
370
    -2
100
AcDbLine
 10
72.78690394914518
 20
140.328645667286
 30
0.0
 11
72.78690394914518
 21
165.5286456672859
 31
0.0
  0
SOLID
  5
8DA
330
8D6
100
AcDbEntity
  8
0
 62
     0
100
AcDbTrace
 10
72.2869039491452
 20
140.328645667286
 30
0.0
 11
73.2869039491452
 21
140.328645667286
 31
0.0
 12
72.78690394914518
 22
137.328645667286
 32
0.0
 13
72.78690394914518
 23
137.328645667286
 33
0.0
  0
SOLID
  5
8DB
330
8D6
100
AcDbEntity
  8
0
 62
     0
100
AcDbTrace
 10
72.2869039491452
 20
165.5286456672859
 30
0.0
 11
73.2869039491452
 21
165.5286456672859
 31
0.0
 12
72.78690394914518
 22
168.528645667286
 32
0.0
 13
72.78690394914518
 23
168.528645667286
 33
0.0
  0
MTEXT
  5
8DC
330
8D6
100
AcDbEntity
  8
0
 62
     0
100
AcDbMText
 10
69.2212372824785
 20
152.928645667286
 30
0.0
 40
3.5
 41
0.0
 71
     5
 72
     1
  1
31,20
 11
0.0000000000000001
 21
1.0
 31
0.0
 73
     1
 44
1.0
1001
ACAD
1000
MTEXTBEGIN
1070
    73
1070
     1
1070
    44
1040
1.0
1070
    74
1070
     0
1000
MTEXTEND
  0
POINT
  5
8DD
330
8D6
100
AcDbEntity
  8
Defpoints
 62
     0
100
AcDbPoint
 10
98.84049886569322
 20
137.328645667286
 30
0.0
  0
POINT
  5
8DE
330
8D6
100
AcDbEntity
  8
Defpoints
 62
     0
100
AcDbPoint
 10
93.04049886569321
 20
168.528645667286
 30
0.0
  0
POINT
  5
8DF
330
8D6
100
AcDbEntity
  8
Defpoints
 62
     0
100
AcDbPoint
 10
72.78690394914518
 20
168.528645667286
 30
0.0
  0
ENDBLK
  5
8E1
330
8D6
100
AcDbEntity
  8
0
100
AcDbBlockEnd
  0
BLOCK
  5
92E
330
924
100
AcDbEntity
  8
0
100
AcDbBlockBegin
  2
*D25
 70
     1
 10
0.0
 20
0.0
 30
0.0
  3
*D25
  1

  0
LINE
  5
DE1
330
924
100
AcDbEntity
  8
0
 62
     0
370
    -2
100
AcDbLine
 10
107.1863647225719
 20
147.9979815568864
 30
0.0
 11
90.6898520792042
 21
147.9979815568864
 31
0.0
  0
LINE
  5
DE2
330
924
100
AcDbEntity
  8
0
 62
     0
370
    -2
100
AcDbLine
 10
105.2363647225718
 20
167.4979815568864
 30
0.0
 11
90.68985207920423
 21
167.4979815568864
 31
0.0
  0
LINE
  5
DE3
330
924
100
AcDbEntity
  8
0
 62
     0
370
    -2
100
AcDbLine
 10
91.68985207920419
 20
150.9979815568864
 30
0.0
 11
91.68985207920423
 21
164.4979815568864
 31
0.0
  0
SOLID
  5
DE4
330
924
100
AcDbEntity
  8
0
 62
     0
100
AcDbTrace
 10
91.18985207920422
 20
150.9979815568864
 30
0.0
 11
92.18985207920422
 21
150.9979815568864
 31
0.0
 12
91.68985207920419
 22
147.9979815568864
 32
0.0
 13
91.68985207920419
 23
147.9979815568864
 33
0.0
  0
SOLID
  5
DE5
330
924
100
AcDbEntity
  8
0
 62
     0
100
AcDbTrace
 10
91.18985207920422
 20
164.4979815568864
 30
0.0
 11
92.18985207920423
 21
164.4979815568864
 31
0.0
 12
91.68985207920423
 22
167.4979815568864
 32
0.0
 13
91.68985207920423
 23
167.4979815568864
 33
0.0
  0
MTEXT
  5
DE6
330
924
100
AcDbEntity
  8
0
 62
     0
100
AcDbMText
 10
88.12418541253753
 20
157.7479815568864
 30
0.0
 40
3.5
 41
0.0
 71
     5
 72
     1
  1
19,50
 11
0.0000000000000001
 21
1.0
 31
0.0
 73
     1
 44
1.0
1001
ACAD
1000
MTEXTBEGIN
1070
    73
1070
     1
1070
    44
1040
1.0
1070
    74
1070
     0
1000
MTEXTEND
  0
POINT
  5
DE7
330
924
100
AcDbEntity
  8
Defpoints
 62
     0
100
AcDbPoint
 10
108.1863647225719
 20
147.9979815568864
 30
0.0
  0
POINT
  5
DE8
330
924
100
AcDbEntity
  8
Defpoints
 62
     0
100
AcDbPoint
 10
106.2363647225718
 20
167.4979815568864
 30
0.0
  0
POINT
  5
DE9
330
924
100
AcDbEntity
  8
Defpoints
 62
     0
100
AcDbPoint
 10
91.68985207920423
 20
167.4979815568864
 30
0.0
  0
ENDBLK
  5
92F
330
924
100
AcDbEntity
  8
0
100
AcDbBlockEnd
  0
BLOCK
  5
93C
330
931
100
AcDbEntity
  8
0
100
AcDbBlockBegin
  2
*D26
 70
     1
 10
0.0
 20
0.0
 30
0.0
  3
*D26
  1

  0
LINE
  5
DCB
330
931
100
AcDbEntity
  8
0
 62
     0
370
    -2
100
AcDbLine
 10
105.6863647225719
 20
166.3979815568864
 30
0.0
 11
105.6863647225719
 21
179.8221813487623
 31
0.0
  0
LINE
  5
DCC
330
931
100
AcDbEntity
  8
0
 62
     0
370
    -2
100
AcDbLine
 10
115.6863647225719
 20
166.3979815568864
 30
0.0
 11
115.6863647225719
 21
179.8221813487623
 31
0.0
  0
LINE
  5
DCD
330
931
100
AcDbEntity
  8
0
 62
     0
370
    -2
100
AcDbLine
 10
102.6863647225719
 20
178.8221813487623
 30
0.0
 11
99.68636472257193
 21
178.8221813487623
 31
0.0
  0
LINE
  5
DCE
330
931
100
AcDbEntity
  8
0
 62
     0
370
    -2
100
AcDbLine
 10
118.6863647225719
 20
178.8221813487623
 30
0.0
 11
139.9010313892386
 21
178.8221813487623
 31
0.0
  0
LINE
  5
DCF
330
931
100
AcDbEntity
  8
0
 62
     0
370
    -2
100
AcDbLine
 10
105.6863647225719
 20
178.8221813487623
 30
0.0
 11
115.6863647225719
 21
178.8221813487623
 31
0.0
  0
SOLID
  5
DD0
330
931
100
AcDbEntity
  8
0
 62
     0
100
AcDbTrace
 10
102.6863647225719
 20
179.3221813487623
 30
0.0
 11
102.6863647225719
 21
178.3221813487623
 31
0.0
 12
105.6863647225719
 22
178.8221813487623
 32
0.0
 13
105.6863647225719
 23
178.8221813487623
 33
0.0
  0
SOLID
  5
DD1
330
931
100
AcDbEntity
  8
0
 62
     0
100
AcDbTrace
 10
118.6863647225719
 20
179.3221813487623
 30
0.0
 11
118.6863647225719
 21
178.3221813487623
 31
0.0
 12
115.6863647225719
 22
178.8221813487623
 32
0.0
 13
115.6863647225719
 23
178.8221813487623
 33
0.0
  0
MTEXT
  5
DD2
330
931
100
AcDbEntity
  8
0
 62
     0
100
AcDbMText
 10
130.7936980559052
 20
182.387848015429
 30
0.0
 40
3.5
 41
0.0
 71
     5
 72
     1
  1
%%C10,00
 73
     1
 44
1.0
1001
ACAD
1000
MTEXTBEGIN
1070
    73
1070
     1
1070
    44
1040
1.0
1070
    74
1070
     0
1000
MTEXTEND
  0
POINT
  5
DD3
330
931
100
AcDbEntity
  8
Defpoints
 62
     0
100
AcDbPoint
 10
105.6863647225719
 20
165.3979815568864
 30
0.0
  0
POINT
  5
DD4
330
931
100
AcDbEntity
  8
Defpoints
 62
     0
100
AcDbPoint
 10
115.6863647225719
 20
165.3979815568864
 30
0.0
  0
POINT
  5
DD5
330
931
100
AcDbEntity
  8
Defpoints
 62
     0
100
AcDbPoint
 10
115.6863647225719
 20
178.8221813487623
 30
0.0
  0
ENDBLK
  5
93D
330
931
100
AcDbEntity
  8
0
100
AcDbBlockEnd
  0
BLOCK
  5
94E
330
942
100
AcDbEntity
  8
0
100
AcDbBlockBegin
  2
*D27
 70
     1
 10
0.0
 20
0.0
 30
0.0
  3
*D27
  1

  0
LINE
  5
DD6
330
942
100
AcDbEntity
  8
0
 62
     0
370
    -2
100
AcDbLine
 10
113.6863647225718
 20
168.4979815568864
 30
0.0
 11
113.6863647225718
 21
173.5241508426199
 31
0.0
  0
LINE
  5
DD7
330
942
100
AcDbEntity
  8
0
 62
     0
370
    -2
100
AcDbLine
 10
107.6863647225718
 20
168.4979815568864
 30
0.0
 11
107.6863647225718
 21
173.5241508426199
 31
0.0
  0
LINE
  5
DD8
330
942
100
AcDbEntity
  8
0
 62
     0
370
    -2
100
AcDbLine
 10
116.6863647225718
 20
172.5241508426199
 30
0.0
 11
119.6863647225718
 21
172.5241508426199
 31
0.0
  0
LINE
  5
DD9
330
942
100
AcDbEntity
  8
0
 62
     0
370
    -2
100
AcDbLine
 10
104.6863647225718
 20
172.5241508426199
 30
0.0
 11
85.22169805590516
 21
172.5241508426199
 31
0.0
  0
LINE
  5
DDA
330
942
100
AcDbEntity
  8
0
 62
     0
370
    -2
100
AcDbLine
 10
113.6863647225718
 20
172.5241508426199
 30
0.0
 11
107.6863647225718
 21
172.5241508426199
 31
0.0
  0
SOLID
  5
DDB
330
942
100
AcDbEntity
  8
0
 62
     0
100
AcDbTrace
 10
116.6863647225718
 20
173.0241508426199
 30
0.0
 11
116.6863647225718
 21
172.0241508426199
 31
0.0
 12
113.6863647225718
 22
172.5241508426199
 32
0.0
 13
113.6863647225718
 23
172.5241508426199
 33
0.0
  0
SOLID
  5
DDC
330
942
100
AcDbEntity
  8
0
 62
     0
100
AcDbTrace
 10
104.6863647225718
 20
173.0241508426199
 30
0.0
 11
104.6863647225718
 21
172.0241508426199
 31
0.0
 12
107.6863647225718
 22
172.5241508426199
 32
0.0
 13
107.6863647225718
 23
172.5241508426199
 33
0.0
  0
MTEXT
  5
DDD
330
942
100
AcDbEntity
  8
0
 62
     0
100
AcDbMText
 10
93.45403138923849
 20
176.0898175092866
 30
0.0
 40
3.5
 41
0.0
 71
     5
 72
     1
  1
%%C6,00
 73
     1
 44
1.0
1001
ACAD
1000
MTEXTBEGIN
1070
    73
1070
     1
1070
    44
1040
1.0
1070
    74
1070
     0
1000
MTEXTEND
  0
POINT
  5
DDE
330
942
100
AcDbEntity
  8
Defpoints
 62
     0
100
AcDbPoint
 10
113.6863647225718
 20
167.4979815568864
 30
0.0
  0
POINT
  5
DDF
330
942
100
AcDbEntity
  8
Defpoints
 62
     0
100
AcDbPoint
 10
107.6863647225718
 20
167.4979815568864
 30
0.0
  0
POINT
  5
DE0
330
942
100
AcDbEntity
  8
Defpoints
 62
     0
100
AcDbPoint
 10
107.6863647225718
 20
172.5241508426199
 30
0.0
  0
ENDBLK
  5
94F
330
942
100
AcDbEntity
  8
0
100
AcDbBlockEnd
  0
BLOCK
  5
E2F
330
E23
100
AcDbEntity
  8
0
100
AcDbBlockBegin
  2
*D28
 70
     1
 10
0.0
 20
0.0
 30
0.0
  3
*D28
  1

  0
LINE
  5
E24
330
E23
100
AcDbEntity
  8
0
 62
     0
370
    -2
100
AcDbLine
 10
105.1201697735108
 20
165.4506081514649
 30
0.0
 11
105.1201697735108
 21
170.7074748981641
 31
0.0
  0
LINE
  5
E25
330
E23
100
AcDbEntity
  8
0
 62
     0
370
    -2
100
AcDbLine
 10
113.0201697735108
 20
165.450608151465
 30
0.0
 11
113.0201697735108
 21
170.7074748981641
 31
0.0
  0
LINE
  5
E26
330
E23
100
AcDbEntity
  8
0
 62
     0
370
    -2
100
AcDbLine
 10
102.1201697735108
 20
169.7074748981641
 30
0.0
 11
99.12016977351084
 21
169.7074748981641
 31
0.0
  0
LINE
  5
E27
330
E23
100
AcDbEntity
  8
0
 62
     0
370
    -2
100
AcDbLine
 10
116.0201697735108
 20
169.7074748981641
 30
0.0
 11
134.9015031068441
 21
169.7074748981641
 31
0.0
  0
LINE
  5
E28
330
E23
100
AcDbEntity
  8
0
 62
     0
370
    -2
100
AcDbLine
 10
105.1201697735108
 20
169.7074748981641
 30
0.0
 11
113.0201697735108
 21
169.7074748981641
 31
0.0
  0
SOLID
  5
E29
330
E23
100
AcDbEntity
  8
0
 62
     0
100
AcDbTrace
 10
102.1201697735108
 20
170.2074748981641
 30
0.0
 11
102.1201697735108
 21
169.2074748981641
 31
0.0
 12
105.1201697735108
 22
169.7074748981641
 32
0.0
 13
105.1201697735108
 23
169.7074748981641
 33
0.0
  0
SOLID
  5
E2A
330
E23
100
AcDbEntity
  8
0
 62
     0
100
AcDbTrace
 10
116.0201697735108
 20
170.2074748981641
 30
0.0
 11
116.0201697735108
 21
169.2074748981641
 31
0.0
 12
113.0201697735108
 22
169.7074748981641
 32
0.0
 13
113.0201697735108
 23
169.7074748981641
 33
0.0
  0
MTEXT
  5
E2B
330
E23
100
AcDbEntity
  8
0
 62
     0
100
AcDbMText
 10
126.9608364401775
 20
173.2731415648308
 30
0.0
 40
3.5
 41
0.0
 71
     5
 72
     1
  1
15,80
 73
     1
 44
1.0
1001
ACAD
1000
MTEXTBEGIN
1070
    73
1070
     1
1070
    44
1040
1.0
1070
    74
1070
     0
1000
MTEXTEND
  0
POINT
  5
E2C
330
E23
100
AcDbEntity
  8
Defpoints
 62
     0
100
AcDbPoint
 10
105.1201697735108
 20
164.4506081514649
 30
0.0
  0
POINT
  5
E2D
330
E23
100
AcDbEntity
  8
Defpoints
 62
     0
100
AcDbPoint
 10
113.0201697735108
 20
164.450608151465
 30
0.0
  0
POINT
  5
E2E
330
E23
100
AcDbEntity
  8
Defpoints
 62
     0
100
AcDbPoint
 10
113.0201697735108
 20
169.7074748981641
 30
0.0
  0
ENDBLK
  5
E30
330
E23
100
AcDbEntity
  8
0
100
AcDbBlockEnd
  0
BLOCK
  5
E3E
330
E32
100
AcDbEntity
  8
0
100
AcDbBlockBegin
  2
*D29
 70
     1
 10
0.0
 20
0.0
 30
0.0
  3
*D29
  1

  0
LINE
  5
EA5
330
E32
100
AcDbEntity
  8
0
 62
     0
370
    -2
100
AcDbLine
 10
105.0701697735108
 20
163.850608151465
 30
0.0
 11
105.0701697735108
 21
187.7089575902213
 31
0.0
  0
LINE
  5
EA6
330
E32
100
AcDbEntity
  8
0
 62
     0
370
    -2
100
AcDbLine
 10
113.0701697735108
 20
163.850608151465
 30
0.0
 11
113.0701697735108
 21
187.7089575902213
 31
0.0
  0
LINE
  5
EA7
330
E32
100
AcDbEntity
  8
0
 62
     0
370
    -2
100
AcDbLine
 10
102.0701697735108
 20
186.7089575902213
 30
0.0
 11
99.07016977351084
 21
186.7089575902213
 31
0.0
  0
LINE
  5
EA8
330
E32
100
AcDbEntity
  8
0
 62
     0
370
    -2
100
AcDbLine
 10
116.0701697735108
 20
186.7089575902213
 30
0.0
 11
135.5348364401775
 21
186.7089575902213
 31
0.0
  0
LINE
  5
EA9
330
E32
100
AcDbEntity
  8
0
 62
     0
370
    -2
100
AcDbLine
 10
105.0701697735108
 20
186.7089575902213
 30
0.0
 11
113.0701697735108
 21
186.7089575902213
 31
0.0
  0
SOLID
  5
EAA
330
E32
100
AcDbEntity
  8
0
 62
     0
100
AcDbTrace
 10
102.0701697735108
 20
187.2089575902213
 30
0.0
 11
102.0701697735108
 21
186.2089575902213
 31
0.0
 12
105.0701697735108
 22
186.7089575902213
 32
0.0
 13
105.0701697735108
 23
186.7089575902213
 33
0.0
  0
SOLID
  5
EAB
330
E32
100
AcDbEntity
  8
0
 62
     0
100
AcDbTrace
 10
116.0701697735108
 20
187.2089575902213
 30
0.0
 11
116.0701697735108
 21
186.2089575902213
 31
0.0
 12
113.0701697735108
 22
186.7089575902213
 32
0.0
 13
113.0701697735108
 23
186.7089575902213
 33
0.0
  0
MTEXT
  5
EAC
330
E32
100
AcDbEntity
  8
0
 62
     0
100
AcDbMText
 10
127.3025031068441
 20
190.2746242568879
 30
0.0
 40
3.5
 41
0.0
 71
     5
 72
     1
  1
%%c8,00
 73
     1
 44
1.0
1001
ACAD
1000
MTEXTBEGIN
1070
    73
1070
     1
1070
    44
1040
1.0
1070
    74
1070
     0
1000
MTEXTEND
  0
POINT
  5
EAD
330
E32
100
AcDbEntity
  8
Defpoints
 62
     0
100
AcDbPoint
 10
105.0701697735108
 20
162.850608151465
 30
0.0
  0
POINT
  5
EAE
330
E32
100
AcDbEntity
  8
Defpoints
 62
     0
100
AcDbPoint
 10
113.0701697735108
 20
162.850608151465
 30
0.0
  0
POINT
  5
EAF
330
E32
100
AcDbEntity
  8
Defpoints
 62
     0
100
AcDbPoint
 10
113.0701697735108
 20
186.7089575902213
 30
0.0
  0
ENDBLK
  5
E3F
330
E32
100
AcDbEntity
  8
0
100
AcDbBlockEnd
  0
BLOCK
  5
E4B
330
E41
100
AcDbEntity
  8
0
100
AcDbBlockBegin
  2
*D30
 70
     1
 10
0.0
 20
0.0
 30
0.0
  3
*D30
  1

  0
LINE
  5
E91
330
E41
100
AcDbEntity
  8
0
 62
     0
370
    -2
100
AcDbLine
 10
104.6201697735107
 20
164.9506081514649
 30
0.0
 11
86.64700089150326
 21
164.9506081514649
 31
0.0
  0
LINE
  5
E92
330
E41
100
AcDbEntity
  8
0
 62
     0
370
    -2
100
AcDbLine
 10
105.5701697735108
 20
146.2506081514649
 30
0.0
 11
86.64700089150324
 21
146.2506081514649
 31
0.0
  0
LINE
  5
E93
330
E41
100
AcDbEntity
  8
0
 62
     0
370
    -2
100
AcDbLine
 10
87.64700089150325
 20
161.9506081514649
 30
0.0
 11
87.64700089150323
 21
149.2506081514649
 31
0.0
  0
SOLID
  5
E94
330
E41
100
AcDbEntity
  8
0
 62
     0
100
AcDbTrace
 10
87.14700089150325
 20
161.9506081514649
 30
0.0
 11
88.14700089150326
 21
161.9506081514649
 31
0.0
 12
87.64700089150325
 22
164.9506081514649
 32
0.0
 13
87.64700089150325
 23
164.9506081514649
 33
0.0
  0
SOLID
  5
E95
330
E41
100
AcDbEntity
  8
0
 62
     0
100
AcDbTrace
 10
87.14700089150325
 20
149.2506081514649
 30
0.0
 11
88.14700089150324
 21
149.2506081514649
 31
0.0
 12
87.64700089150323
 22
146.2506081514649
 32
0.0
 13
87.64700089150323
 23
146.2506081514649
 33
0.0
  0
MTEXT
  5
E96
330
E41
100
AcDbEntity
  8
0
 62
     0
100
AcDbMText
 10
84.08133422483656
 20
155.600608151465
 30
0.0
 40
3.5
 41
0.0
 71
     5
 72
     1
  1
18,70
 11
0.0000000000000001
 21
1.0
 31
0.0
 73
     1
 44
1.0
1001
ACAD
1000
MTEXTBEGIN
1070
    73
1070
     1
1070
    44
1040
1.0
1070
    74
1070
     0
1000
MTEXTEND
  0
POINT
  5
E97
330
E41
100
AcDbEntity
  8
Defpoints
 62
     0
100
AcDbPoint
 10
105.6201697735107
 20
164.9506081514649
 30
0.0
  0
POINT
  5
E98
330
E41
100
AcDbEntity
  8
Defpoints
 62
     0
100
AcDbPoint
 10
106.5701697735108
 20
146.2506081514649
 30
0.0
  0
POINT
  5
E99
330
E41
100
AcDbEntity
  8
Defpoints
 62
     0
100
AcDbPoint
 10
87.64700089150323
 20
146.2506081514649
 30
0.0
  0
ENDBLK
  5
E4C
330
E41
100
AcDbEntity
  8
0
100
AcDbBlockEnd
  0
BLOCK
  5
E68
330
E5C
100
AcDbEntity
  8
0
100
AcDbBlockBegin
  2
*D31
 70
     1
 10
0.0
 20
0.0
 30
0.0
  3
*D31
  1

  0
LINE
  5
E5D
330
E5C
100
AcDbEntity
  8
0
 62
     0
370
    -2
100
AcDbLine
 10
107.0701697735107
 20
165.9506081514649
 30
0.0
 11
107.0701697735107
 21
174.5622323031945
 31
0.0
  0
LINE
  5
E5E
330
E5C
100
AcDbEntity
  8
0
 62
     0
370
    -2
100
AcDbLine
 10
111.0701697735107
 20
165.9506081514649
 30
0.0
 11
111.0701697735107
 21
174.5622323031945
 31
0.0
  0
LINE
  5
E5F
330
E5C
100
AcDbEntity
  8
0
 62
     0
370
    -2
100
AcDbLine
 10
104.0701697735107
 20
173.5622323031945
 30
0.0
 11
101.0701697735107
 21
173.5622323031945
 31
0.0
  0
LINE
  5
E60
330
E5C
100
AcDbEntity
  8
0
 62
     0
370
    -2
100
AcDbLine
 10
114.0701697735107
 20
173.5622323031945
 30
0.0
 11
130.0348364401774
 21
173.5622323031945
 31
0.0
  0
LINE
  5
E61
330
E5C
100
AcDbEntity
  8
0
 62
     0
370
    -2
100
AcDbLine
 10
107.0701697735107
 20
173.5622323031945
 30
0.0
 11
111.0701697735107
 21
173.5622323031945
 31
0.0
  0
SOLID
  5
E62
330
E5C
100
AcDbEntity
  8
0
 62
     0
100
AcDbTrace
 10
104.0701697735107
 20
174.0622323031945
 30
0.0
 11
104.0701697735107
 21
173.0622323031945
 31
0.0
 12
107.0701697735107
 22
173.5622323031945
 32
0.0
 13
107.0701697735107
 23
173.5622323031945
 33
0.0
  0
SOLID
  5
E63
330
E5C
100
AcDbEntity
  8
0
 62
     0
100
AcDbTrace
 10
114.0701697735107
 20
174.0622323031945
 30
0.0
 11
114.0701697735107
 21
173.0622323031945
 31
0.0
 12
111.0701697735107
 22
173.5622323031945
 32
0.0
 13
111.0701697735107
 23
173.5622323031945
 33
0.0
  0
MTEXT
  5
E64
330
E5C
100
AcDbEntity
  8
0
 62
     0
100
AcDbMText
 10
123.552503106844
 20
177.1278989698611
 30
0.0
 40
3.5
 41
0.0
 71
     5
 72
     1
  1
8,00
 73
     1
 44
1.0
1001
ACAD
1000
MTEXTBEGIN
1070
    73
1070
     1
1070
    44
1040
1.0
1070
    74
1070
     0
1000
MTEXTEND
  0
POINT
  5
E65
330
E5C
100
AcDbEntity
  8
Defpoints
 62
     0
100
AcDbPoint
 10
107.0701697735107
 20
164.9506081514649
 30
0.0
  0
POINT
  5
E66
330
E5C
100
AcDbEntity
  8
Defpoints
 62
     0
100
AcDbPoint
 10
111.0701697735107
 20
164.9506081514649
 30
0.0
  0
POINT
  5
E67
330
E5C
100
AcDbEntity
  8
Defpoints
 62
     0
100
AcDbPoint
 10
111.0701697735107
 20
173.5622323031945
 30
0.0
  0
ENDBLK
  5
E69
330
E5C
100
AcDbEntity
  8
0
100
AcDbBlockEnd
  0
BLOCK
  5
E79
330
E6D
100
AcDbEntity
  8
0
100
AcDbBlockBegin
  2
*D32
 70
     1
 10
0.0
 20
0.0
 30
0.0
  3
*D32
  1

  0
LINE
  5
E9A
330
E6D
100
AcDbEntity
  8
0
 62
     0
370
    -2
100
AcDbLine
 10
107.0701697735107
 20
165.9506081514649
 30
0.0
 11
107.0701697735107
 21
176.9519923879141
 31
0.0
  0
LINE
  5
E9B
330
E6D
100
AcDbEntity
  8
0
 62
     0
370
    -2
100
AcDbLine
 10
111.0701697735107
 20
165.9506081514649
 30
0.0
 11
111.0701697735107
 21
176.9519923879141
 31
0.0
  0
LINE
  5
E9C
330
E6D
100
AcDbEntity
  8
0
 62
     0
370
    -2
100
AcDbLine
 10
104.0701697735107
 20
175.9519923879141
 30
0.0
 11
101.0701697735107
 21
175.9519923879141
 31
0.0
  0
LINE
  5
E9D
330
E6D
100
AcDbEntity
  8
0
 62
     0
370
    -2
100
AcDbLine
 10
114.0701697735107
 20
175.9519923879141
 30
0.0
 11
133.5348364401774
 21
175.9519923879141
 31
0.0
  0
LINE
  5
E9E
330
E6D
100
AcDbEntity
  8
0
 62
     0
370
    -2
100
AcDbLine
 10
107.0701697735107
 20
175.9519923879141
 30
0.0
 11
111.0701697735107
 21
175.9519923879141
 31
0.0
  0
SOLID
  5
E9F
330
E6D
100
AcDbEntity
  8
0
 62
     0
100
AcDbTrace
 10
104.0701697735107
 20
176.4519923879142
 30
0.0
 11
104.0701697735107
 21
175.4519923879142
 31
0.0
 12
107.0701697735107
 22
175.9519923879141
 32
0.0
 13
107.0701697735107
 23
175.9519923879141
 33
0.0
  0
SOLID
  5
EA0
330
E6D
100
AcDbEntity
  8
0
 62
     0
100
AcDbTrace
 10
114.0701697735107
 20
176.4519923879142
 30
0.0
 11
114.0701697735107
 21
175.4519923879142
 31
0.0
 12
111.0701697735107
 22
175.9519923879141
 32
0.0
 13
111.0701697735107
 23
175.9519923879141
 33
0.0
  0
MTEXT
  5
EA1
330
E6D
100
AcDbEntity
  8
0
 62
     0
100
AcDbMText
 10
125.302503106844
 20
179.5176590545808
 30
0.0
 40
3.5
 41
0.0
 71
     5
 72
     1
  1
%%c4,00
 73
     1
 44
1.0
1001
ACAD
1000
MTEXTBEGIN
1070
    73
1070
     1
1070
    44
1040
1.0
1070
    74
1070
     0
1000
MTEXTEND
  0
POINT
  5
EA2
330
E6D
100
AcDbEntity
  8
Defpoints
 62
     0
100
AcDbPoint
 10
107.0701697735107
 20
164.9506081514649
 30
0.0
  0
POINT
  5
EA3
330
E6D
100
AcDbEntity
  8
Defpoints
 62
     0
100
AcDbPoint
 10
111.0701697735107
 20
164.9506081514649
 30
0.0
  0
POINT
  5
EA4
330
E6D
100
AcDbEntity
  8
Defpoints
 62
     0
100
AcDbPoint
 10
111.0701697735107
 20
175.9519923879141
 30
0.0
  0
ENDBLK
  5
E7A
330
E6D
100
AcDbEntity
  8
0
100
AcDbBlockEnd
  0
BLOCK
  5
EF8
330
EED
100
AcDbEntity
  8
0
100
AcDbBlockBegin
  2
*D33
 70
     1
 10
0.0
 20
0.0
 30
0.0
  3
*D33
  1

  0
LINE
  5
1138
330
EED
100
AcDbEntity
  8
0
 62
     0
370
    -2
100
AcDbLine
 10
103.4434465778629
 20
165.9360139033962
 30
0.0
 11
103.4434465778629
 21
189.4483570314661
 31
0.0
  0
LINE
  5
1139
330
EED
100
AcDbEntity
  8
0
 62
     0
370
    -2
100
AcDbLine
 10
113.443446577863
 20
165.9360139033962
 30
0.0
 11
113.443446577863
 21
189.4483570314661
 31
0.0
  0
LINE
  5
113A
330
EED
100
AcDbEntity
  8
0
 62
     0
370
    -2
100
AcDbLine
 10
106.4434465778629
 20
188.4483570314661
 30
0.0
 11
110.443446577863
 21
188.4483570314661
 31
0.0
  0
LINE
  5
113B
330
EED
100
AcDbEntity
  8
0
 62
     0
370
    -2
100
AcDbLine
 10
113.443446577863
 20
188.4483570314661
 30
0.0
 11
137.1933991121145
 21
188.4483570314661
 31
0.0
  0
SOLID
  5
113C
330
EED
100
AcDbEntity
  8
0
 62
     0
100
AcDbTrace
 10
106.4434465778629
 20
188.9483570314661
 30
0.0
 11
106.4434465778629
 21
187.9483570314661
 31
0.0
 12
103.4434465778629
 22
188.4483570314661
 32
0.0
 13
103.4434465778629
 23
188.4483570314661
 33
0.0
  0
SOLID
  5
113D
330
EED
100
AcDbEntity
  8
0
 62
     0
100
AcDbTrace
 10
110.443446577863
 20
188.9483570314661
 30
0.0
 11
110.443446577863
 21
187.9483570314661
 31
0.0
 12
113.443446577863
 22
188.4483570314661
 32
0.0
 13
113.443446577863
 23
188.4483570314661
 33
0.0
  0
MTEXT
  5
113E
330
EED
100
AcDbEntity
  8
0
 62
     0
100
AcDbMText
 10
128.0860657787812
 20
192.0140236981328
 30
0.0
 40
3.5
 41
0.0
 71
     5
 72
     1
  1
%%c10,00
 73
     1
 44
1.0
1001
ACAD
1000
MTEXTBEGIN
1070
    73
1070
     1
1070
    44
1040
1.0
1070
    74
1070
     0
1000
MTEXTEND
  0
POINT
  5
113F
330
EED
100
AcDbEntity
  8
Defpoints
 62
     0
100
AcDbPoint
 10
103.4434465778629
 20
164.9360139033962
 30
0.0
  0
POINT
  5
1140
330
EED
100
AcDbEntity
  8
Defpoints
 62
     0
100
AcDbPoint
 10
113.443446577863
 20
164.9360139033962
 30
0.0
  0
POINT
  5
1141
330
EED
100
AcDbEntity
  8
Defpoints
 62
     0
100
AcDbPoint
 10
113.443446577863
 20
188.4483570314661
 30
0.0
  0
ENDBLK
  5
EF9
330
EED
100
AcDbEntity
  8
0
100
AcDbBlockEnd
  0
BLOCK
  5
10FE
330
10F2
100
AcDbEntity
  8
0
100
AcDbBlockBegin
  2
*D34
 70
     1
 10
0.0
 20
0.0
 30
0.0
  3
*D34
  1

  0
LINE
  5
112D
330
10F2
100
AcDbEntity
  8
0
 62
     0
370
    -2
100
AcDbLine
 10
105.4434465778629
 20
168.0360139033962
 30
0.0
 11
105.4434465778629
 21
177.1982800574806
 31
0.0
  0
LINE
  5
112E
330
10F2
100
AcDbEntity
  8
0
 62
     0
370
    -2
100
AcDbLine
 10
111.4434465778629
 20
168.0360139033962
 30
0.0
 11
111.4434465778629
 21
177.1982800574806
 31
0.0
  0
LINE
  5
112F
330
10F2
100
AcDbEntity
  8
0
 62
     0
370
    -2
100
AcDbLine
 10
102.4434465778629
 20
176.1982800574806
 30
0.0
 11
99.44344657786288
 21
176.1982800574806
 31
0.0
  0
LINE
  5
1130
330
10F2
100
AcDbEntity
  8
0
 62
     0
370
    -2
100
AcDbLine
 10
114.4434465778629
 20
176.1982800574806
 30
0.0
 11
136.7382362086348
 21
176.1982800574806
 31
0.0
  0
LINE
  5
1131
330
10F2
100
AcDbEntity
  8
0
 62
     0
370
    -2
100
AcDbLine
 10
105.4434465778629
 20
176.1982800574806
 30
0.0
 11
111.4434465778629
 21
176.1982800574806
 31
0.0
  0
SOLID
  5
1132
330
10F2
100
AcDbEntity
  8
0
 62
     0
100
AcDbTrace
 10
102.4434465778629
 20
176.6982800574806
 30
0.0
 11
102.4434465778629
 21
175.6982800574806
 31
0.0
 12
105.4434465778629
 22
176.1982800574806
 32
0.0
 13
105.4434465778629
 23
176.1982800574806
 33
0.0
  0
SOLID
  5
1133
330
10F2
100
AcDbEntity
  8
0
 62
     0
100
AcDbTrace
 10
114.4434465778629
 20
176.6982800574806
 30
0.0
 11
114.4434465778629
 21
175.6982800574806
 31
0.0
 12
111.4434465778629
 22
176.1982800574806
 32
0.0
 13
111.4434465778629
 23
176.1982800574806
 33
0.0
  0
MTEXT
  5
1134
330
10F2
100
AcDbEntity
  8
0
 62
     0
100
AcDbMText
 10
128.5059028753014
 20
179.7639467241473
 30
0.0
 40
3.5
 41
0.0
 71
     5
 72
     1
  1
%%c6,00
 73
     1
 44
1.0
1001
ACAD
1000
MTEXTBEGIN
1070
    73
1070
     1
1070
    44
1040
1.0
1070
    74
1070
     0
1000
MTEXTEND
  0
POINT
  5
1135
330
10F2
100
AcDbEntity
  8
Defpoints
 62
     0
100
AcDbPoint
 10
105.4434465778629
 20
167.0360139033962
 30
0.0
  0
POINT
  5
1136
330
10F2
100
AcDbEntity
  8
Defpoints
 62
     0
100
AcDbPoint
 10
111.4434465778629
 20
167.0360139033962
 30
0.0
  0
POINT
  5
1137
330
10F2
100
AcDbEntity
  8
Defpoints
 62
     0
100
AcDbPoint
 10
111.4434465778629
 20
176.1982800574806
 30
0.0
  0
ENDBLK
  5
10FF
330
10F2
100
AcDbEntity
  8
0
100
AcDbBlockEnd
  0
BLOCK
  5
1156
330
114C
100
AcDbEntity
  8
0
100
AcDbBlockBegin
  2
*D35
 70
     1
 10
0.0
 20
0.0
 30
0.0
  3
*D35
  1

  0
LINE
  5
114D
330
114C
100
AcDbEntity
  8
0
 62
     0
370
    -2
100
AcDbLine
 10
102.593446577863
 20
147.0360139033963
 30
0.0
 11
90.96222784144471
 21
147.0360139033963
 31
0.0
  0
LINE
  5
114E
330
114C
100
AcDbEntity
  8
0
 62
     0
370
    -2
100
AcDbLine
 10
102.9934465778629
 20
167.0360139033962
 30
0.0
 11
90.96222784144471
 21
167.0360139033962
 31
0.0
  0
LINE
  5
114F
330
114C
100
AcDbEntity
  8
0
 62
     0
370
    -2
100
AcDbLine
 10
91.9622278414447
 20
150.0360139033963
 30
0.0
 11
91.96222784144472
 21
164.0360139033962
 31
0.0
  0
SOLID
  5
1150
330
114C
100
AcDbEntity
  8
0
 62
     0
100
AcDbTrace
 10
91.4622278414447
 20
150.0360139033963
 30
0.0
 11
92.46222784144469
 21
150.0360139033963
 31
0.0
 12
91.9622278414447
 22
147.0360139033963
 32
0.0
 13
91.9622278414447
 23
147.0360139033963
 33
0.0
  0
SOLID
  5
1151
330
114C
100
AcDbEntity
  8
0
 62
     0
100
AcDbTrace
 10
91.46222784144471
 20
164.0360139033962
 30
0.0
 11
92.46222784144471
 21
164.0360139033962
 31
0.0
 12
91.96222784144472
 22
167.0360139033962
 32
0.0
 13
91.96222784144472
 23
167.0360139033962
 33
0.0
  0
MTEXT
  5
1152
330
114C
100
AcDbEntity
  8
0
 62
     0
100
AcDbMText
 10
88.39656117477803
 20
157.0360139033962
 30
0.0
 40
3.5
 41
0.0
 71
     5
 72
     1
  1
20,00
 11
0.0000000000000001
 21
1.0
 31
0.0
 73
     1
 44
1.0
1001
ACAD
1000
MTEXTBEGIN
1070
    73
1070
     1
1070
    44
1040
1.0
1070
    74
1070
     0
1000
MTEXTEND
  0
POINT
  5
1153
330
114C
100
AcDbEntity
  8
Defpoints
 62
     0
100
AcDbPoint
 10
103.593446577863
 20
147.0360139033963
 30
0.0
  0
POINT
  5
1154
330
114C
100
AcDbEntity
  8
Defpoints
 62
     0
100
AcDbPoint
 10
103.9934465778629
 20
167.0360139033962
 30
0.0
  0
POINT
  5
1155
330
114C
100
AcDbEntity
  8
Defpoints
 62
     0
100
AcDbPoint
 10
91.96222784144472
 20
167.0360139033962
 30
0.0
  0
ENDBLK
  5
1157
330
114C
100
AcDbEntity
  8
0
100
AcDbBlockEnd
  0
BLOCK
  5
12EF
330
12E5
100
AcDbEntity
  8
0
100
AcDbBlockBegin
  2
*D36
 70
     1
 10
0.0
 20
0.0
 30
0.0
  3
*D36
  1

  0
LINE
  5
12E6
330
12E5
100
AcDbEntity
  8
0
 62
     0
370
    -2
100
AcDbLine
 10
100.3407496808768
 20
155.0927102058214
 30
0.0
 11
82.92311609741933
 21
155.0927102058214
 31
0.0
  0
LINE
  5
12E7
330
12E5
100
AcDbEntity
  8
0
 62
     0
370
    -2
100
AcDbLine
 10
100.3407496808768
 20
183.0927102058215
 30
0.0
 11
82.92311609741934
 21
183.0927102058215
 31
0.0
  0
LINE
  5
12E8
330
12E5
100
AcDbEntity
  8
0
 62
     0
370
    -2
100
AcDbLine
 10
83.92311609741931
 20
158.0927102058215
 30
0.0
 11
83.92311609741936
 21
180.0927102058215
 31
0.0
  0
SOLID
  5
12E9
330
12E5
100
AcDbEntity
  8
0
 62
     0
100
AcDbTrace
 10
83.42311609741932
 20
158.0927102058215
 30
0.0
 11
84.42311609741933
 21
158.0927102058215
 31
0.0
 12
83.92311609741931
 22
155.0927102058214
 32
0.0
 13
83.92311609741931
 23
155.0927102058214
 33
0.0
  0
SOLID
  5
12EA
330
12E5
100
AcDbEntity
  8
0
 62
     0
100
AcDbTrace
 10
83.42311609741932
 20
180.0927102058215
 30
0.0
 11
84.42311609741933
 21
180.0927102058215
 31
0.0
 12
83.92311609741936
 22
183.0927102058215
 32
0.0
 13
83.92311609741936
 23
183.0927102058215
 33
0.0
  0
MTEXT
  5
12EB
330
12E5
100
AcDbEntity
  8
0
 62
     0
100
AcDbMText
 10
80.35744943075263
 20
169.0927102058215
 30
0.0
 40
3.5
 41
0.0
 71
     5
 72
     1
  1
28,00
 11
0.0000000000000001
 21
1.0
 31
0.0
 73
     1
 44
1.0
1001
ACAD
1000
MTEXTBEGIN
1070
    73
1070
     1
1070
    44
1040
1.0
1070
    74
1070
     0
1000
MTEXTEND
  0
POINT
  5
12EC
330
12E5
100
AcDbEntity
  8
Defpoints
 62
     0
100
AcDbPoint
 10
101.3407496808768
 20
155.0927102058214
 30
0.0
  0
POINT
  5
12ED
330
12E5
100
AcDbEntity
  8
Defpoints
 62
     0
100
AcDbPoint
 10
101.3407496808768
 20
183.0927102058215
 30
0.0
  0
POINT
  5
12EE
330
12E5
100
AcDbEntity
  8
Defpoints
 62
     0
100
AcDbPoint
 10
83.92311609741936
 20
183.0927102058215
 30
0.0
  0
ENDBLK
  5
12F0
330
12E5
100
AcDbEntity
  8
0
100
AcDbBlockEnd
  0
BLOCK
  5
12FD
330
12F2
100
AcDbEntity
  8
0
100
AcDbBlockBegin
  2
*D37
 70
     1
 10
0.0
 20
0.0
 30
0.0
  3
*D37
  1

  0
LINE
  5
1335
330
12F2
100
AcDbEntity
  8
0
 62
     0
370
    -2
100
AcDbLine
 10
100.7407496808769
 20
181.9927102058215
 30
0.0
 11
100.7407496808769
 21
196.3367292243864
 31
0.0
  0
LINE
  5
1336
330
12F2
100
AcDbEntity
  8
0
 62
     0
370
    -2
100
AcDbLine
 10
112.3407496808769
 20
181.9927102058215
 30
0.0
 11
112.3407496808769
 21
196.3367292243864
 31
0.0
  0
LINE
  5
1337
330
12F2
100
AcDbEntity
  8
0
 62
     0
370
    -2
100
AcDbLine
 10
103.7407496808769
 20
195.3367292243864
 30
0.0
 11
109.3407496808769
 21
195.3367292243864
 31
0.0
  0
LINE
  5
1338
330
12F2
100
AcDbEntity
  8
0
 62
     0
370
    -2
100
AcDbLine
 10
112.3407496808769
 20
195.3367292243864
 30
0.0
 11
133.5554163475435
 21
195.3367292243864
 31
0.0
  0
SOLID
  5
1339
330
12F2
100
AcDbEntity
  8
0
 62
     0
100
AcDbTrace
 10
103.7407496808769
 20
195.8367292243864
 30
0.0
 11
103.7407496808769
 21
194.8367292243864
 31
0.0
 12
100.7407496808769
 22
195.3367292243864
 32
0.0
 13
100.7407496808769
 23
195.3367292243864
 33
0.0
  0
SOLID
  5
133A
330
12F2
100
AcDbEntity
  8
0
 62
     0
100
AcDbTrace
 10
109.3407496808769
 20
195.8367292243864
 30
0.0
 11
109.3407496808769
 21
194.8367292243864
 31
0.0
 12
112.3407496808769
 22
195.3367292243864
 32
0.0
 13
112.3407496808769
 23
195.3367292243864
 33
0.0
  0
MTEXT
  5
133B
330
12F2
100
AcDbEntity
  8
0
 62
     0
100
AcDbMText
 10
124.4480830142102
 20
198.9023958910531
 30
0.0
 40
3.5
 41
0.0
 71
     5
 72
     1
  1
%%c11,60
 73
     1
 44
1.0
1001
ACAD
1000
MTEXTBEGIN
1070
    73
1070
     1
1070
    44
1040
1.0
1070
    74
1070
     0
1000
MTEXTEND
  0
POINT
  5
133C
330
12F2
100
AcDbEntity
  8
Defpoints
 62
     0
100
AcDbPoint
 10
100.7407496808769
 20
180.9927102058215
 30
0.0
  0
POINT
  5
133D
330
12F2
100
AcDbEntity
  8
Defpoints
 62
     0
100
AcDbPoint
 10
112.3407496808769
 20
180.9927102058215
 30
0.0
  0
POINT
  5
133E
330
12F2
100
AcDbEntity
  8
Defpoints
 62
     0
100
AcDbPoint
 10
112.3407496808769
 20
195.3367292243864
 30
0.0
  0
ENDBLK
  5
12FE
330
12F2
100
AcDbEntity
  8
0
100
AcDbBlockEnd
  0
BLOCK
  5
1319
330
130D
100
AcDbEntity
  8
0
100
AcDbBlockBegin
  2
*D38
 70
     1
 10
0.0
 20
0.0
 30
0.0
  3
*D38
  1

  0
LINE
  5
132A
330
130D
100
AcDbEntity
  8
0
 62
     0
370
    -2
100
AcDbLine
 10
109.5407496808768
 20
184.0927102058215
 30
0.0
 11
109.5407496808768
 21
189.8325237553405
 31
0.0
  0
LINE
  5
132B
330
130D
100
AcDbEntity
  8
0
 62
     0
370
    -2
100
AcDbLine
 10
103.5407496808768
 20
184.0927102058215
 30
0.0
 11
103.5407496808768
 21
189.8325237553405
 31
0.0
  0
LINE
  5
132C
330
130D
100
AcDbEntity
  8
0
 62
     0
370
    -2
100
AcDbLine
 10
112.5407496808768
 20
188.8325237553405
 30
0.0
 11
115.5407496808768
 21
188.8325237553405
 31
0.0
  0
LINE
  5
132D
330
130D
100
AcDbEntity
  8
0
 62
     0
370
    -2
100
AcDbLine
 10
100.5407496808768
 20
188.8325237553405
 30
0.0
 11
81.07608301421015
 21
188.8325237553405
 31
0.0
  0
LINE
  5
132E
330
130D
100
AcDbEntity
  8
0
 62
     0
370
    -2
100
AcDbLine
 10
109.5407496808768
 20
188.8325237553405
 30
0.0
 11
103.5407496808768
 21
188.8325237553405
 31
0.0
  0
SOLID
  5
132F
330
130D
100
AcDbEntity
  8
0
 62
     0
100
AcDbTrace
 10
112.5407496808768
 20
189.3325237553405
 30
0.0
 11
112.5407496808768
 21
188.3325237553405
 31
0.0
 12
109.5407496808768
 22
188.8325237553405
 32
0.0
 13
109.5407496808768
 23
188.8325237553405
 33
0.0
  0
SOLID
  5
1330
330
130D
100
AcDbEntity
  8
0
 62
     0
100
AcDbTrace
 10
100.5407496808768
 20
189.3325237553405
 30
0.0
 11
100.5407496808768
 21
188.3325237553405
 31
0.0
 12
103.5407496808768
 22
188.8325237553405
 32
0.0
 13
103.5407496808768
 23
188.8325237553405
 33
0.0
  0
MTEXT
  5
1331
330
130D
100
AcDbEntity
  8
0
 62
     0
100
AcDbMText
 10
89.30841634754349
 20
192.3981904220071
 30
0.0
 40
3.5
 41
0.0
 71
     5
 72
     1
  1
%%c6,00
 73
     1
 44
1.0
1001
ACAD
1000
MTEXTBEGIN
1070
    73
1070
     1
1070
    44
1040
1.0
1070
    74
1070
     0
1000
MTEXTEND
  0
POINT
  5
1332
330
130D
100
AcDbEntity
  8
Defpoints
 62
     0
100
AcDbPoint
 10
109.5407496808768
 20
183.0927102058215
 30
0.0
  0
POINT
  5
1333
330
130D
100
AcDbEntity
  8
Defpoints
 62
     0
100
AcDbPoint
 10
103.5407496808768
 20
183.0927102058215
 30
0.0
  0
POINT
  5
1334
330
130D
100
AcDbEntity
  8
Defpoints
 62
     0
100
AcDbPoint
 10
103.5407496808768
 20
188.8325237553405
 30
0.0
  0
ENDBLK
  5
131A
330
130D
100
AcDbEntity
  8
0
100
AcDbBlockEnd
  0
BLOCK
  5
1328
330
131C
100
AcDbEntity
  8
0
100
AcDbBlockBegin
  2
*D39
 70
     1
 10
0.0
 20
0.0
 30
0.0
  3
*D39
  1

  0
LINE
  5
133F
330
131C
100
AcDbEntity
  8
0
 62
     0
370
    -2
100
AcDbLine
 10
103.5407496808768
 20
154.0927102058215
 30
0.0
 11
103.5407496808768
 21
145.1335600538957
 31
0.0
  0
LINE
  5
1340
330
131C
100
AcDbEntity
  8
0
 62
     0
370
    -2
100
AcDbLine
 10
109.5407496808768
 20
154.0927102058215
 30
0.0
 11
109.5407496808768
 21
145.1335600538957
 31
0.0
  0
LINE
  5
1341
330
131C
100
AcDbEntity
  8
0
 62
     0
370
    -2
100
AcDbLine
 10
100.5407496808768
 20
146.1335600538957
 30
0.0
 11
97.54074968087682
 21
146.1335600538957
 31
0.0
  0
LINE
  5
1342
330
131C
100
AcDbEntity
  8
0
 62
     0
370
    -2
100
AcDbLine
 10
112.5407496808768
 20
146.1335600538957
 30
0.0
 11
132.0054163475435
 21
146.1335600538957
 31
0.0
  0
LINE
  5
1343
330
131C
100
AcDbEntity
  8
0
 62
     0
370
    -2
100
AcDbLine
 10
103.5407496808768
 20
146.1335600538957
 30
0.0
 11
109.5407496808768
 21
146.1335600538957
 31
0.0
  0
SOLID
  5
1344
330
131C
100
AcDbEntity
  8
0
 62
     0
100
AcDbTrace
 10
100.5407496808768
 20
146.6335600538956
 30
0.0
 11
100.5407496808768
 21
145.6335600538956
 31
0.0
 12
103.5407496808768
 22
146.1335600538957
 32
0.0
 13
103.5407496808768
 23
146.1335600538957
 33
0.0
  0
SOLID
  5
1345
330
131C
100
AcDbEntity
  8
0
 62
     0
100
AcDbTrace
 10
112.5407496808768
 20
146.6335600538956
 30
0.0
 11
112.5407496808768
 21
145.6335600538956
 31
0.0
 12
109.5407496808768
 22
146.1335600538957
 32
0.0
 13
109.5407496808768
 23
146.1335600538957
 33
0.0
  0
MTEXT
  5
1346
330
131C
100
AcDbEntity
  8
0
 62
     0
100
AcDbMText
 10
123.7730830142101
 20
149.6992267205624
 30
0.0
 40
3.5
 41
0.0
 71
     5
 72
     1
  1
%%c6,00
 73
     1
 44
1.0
1001
ACAD
1000
MTEXTBEGIN
1070
    73
1070
     1
1070
    44
1040
1.0
1070
    74
1070
     0
1000
MTEXTEND
  0
POINT
  5
1347
330
131C
100
AcDbEntity
  8
Defpoints
 62
     0
100
AcDbPoint
 10
103.5407496808768
 20
155.0927102058215
 30
0.0
  0
POINT
  5
1348
330
131C
100
AcDbEntity
  8
Defpoints
 62
     0
100
AcDbPoint
 10
109.5407496808768
 20
155.0927102058215
 30
0.0
  0
POINT
  5
1349
330
131C
100
AcDbEntity
  8
Defpoints
 62
     0
100
AcDbPoint
 10
109.5407496808768
 20
146.1335600538957
 30
0.0
  0
ENDBLK
  5
1329
330
131C
100
AcDbEntity
  8
0
100
AcDbBlockEnd
  0
BLOCK
  5
13AE
330
13A4
100
AcDbEntity
  8
0
100
AcDbBlockBegin
  2
*D40
 70
     1
 10
0.0
 20
0.0
 30
0.0
  3
*D40
  1

  0
LINE
  5
13A5
330
13A4
100
AcDbEntity
  8
0
 62
     0
370
    -2
100
AcDbLine
 10
105.538972446458
 20
167.3415583389686
 30
0.0
 11
86.6749390235541
 21
167.3415583389686
 31
0.0
  0
LINE
  5
13A6
330
13A4
100
AcDbEntity
  8
0
 62
     0
370
    -2
100
AcDbLine
 10
104.388972446458
 20
140.1915583389685
 30
0.0
 11
86.67493902355408
 21
140.1915583389685
 31
0.0
  0
LINE
  5
13A7
330
13A4
100
AcDbEntity
  8
0
 62
     0
370
    -2
100
AcDbLine
 10
87.67493902355409
 20
164.3415583389686
 30
0.0
 11
87.67493902355409
 21
143.1915583389685
 31
0.0
  0
SOLID
  5
13A8
330
13A4
100
AcDbEntity
  8
0
 62
     0
100
AcDbTrace
 10
87.1749390235541
 20
164.3415583389686
 30
0.0
 11
88.1749390235541
 21
164.3415583389686
 31
0.0
 12
87.67493902355409
 22
167.3415583389686
 32
0.0
 13
87.67493902355409
 23
167.3415583389686
 33
0.0
  0
SOLID
  5
13A9
330
13A4
100
AcDbEntity
  8
0
 62
     0
100
AcDbTrace
 10
87.1749390235541
 20
143.1915583389685
 30
0.0
 11
88.17493902355407
 21
143.1915583389685
 31
0.0
 12
87.67493902355409
 22
140.1915583389685
 32
0.0
 13
87.67493902355409
 23
140.1915583389685
 33
0.0
  0
MTEXT
  5
13AA
330
13A4
100
AcDbEntity
  8
0
 62
     0
100
AcDbMText
 10
84.1092723568874
 20
153.7665583389686
 30
0.0
 40
3.5
 41
0.0
 71
     5
 72
     1
  1
27,15
 11
0.0000000000000001
 21
1.0
 31
0.0
 73
     1
 44
1.0
1001
ACAD
1000
MTEXTBEGIN
1070
    73
1070
     1
1070
    44
1040
1.0
1070
    74
1070
     0
1000
MTEXTEND
  0
POINT
  5
13AB
330
13A4
100
AcDbEntity
  8
Defpoints
 62
     0
100
AcDbPoint
 10
106.538972446458
 20
167.3415583389686
 30
0.0
  0
POINT
  5
13AC
330
13A4
100
AcDbEntity
  8
Defpoints
 62
     0
100
AcDbPoint
 10
105.388972446458
 20
140.1915583389685
 30
0.0
  0
POINT
  5
13AD
330
13A4
100
AcDbEntity
  8
Defpoints
 62
     0
100
AcDbPoint
 10
87.67493902355409
 20
140.1915583389685
 30
0.0
  0
ENDBLK
  5
13AF
330
13A4
100
AcDbEntity
  8
0
100
AcDbBlockEnd
  0
BLOCK
  5
13C2
330
13B6
100
AcDbEntity
  8
0
100
AcDbBlockBegin
  2
*D41
 70
     1
 10
0.0
 20
0.0
 30
0.0
  3
*D41
  1

  0
LINE
  5
13B7
330
13B6
100
AcDbEntity
  8
0
 62
     0
370
    -2
100
AcDbLine
 10
108.588972446458
 20
167.3415583389685
 30
0.0
 11
111.8394280119714
 21
167.3415583389685
 31
0.0
  0
LINE
  5
13B8
330
13B6
100
AcDbEntity
  8
0
 62
     0
370
    -2
100
AcDbLine
 10
108.588972446458
 20
169.9065441206625
 30
0.0
 11
111.8394280119714
 21
169.9065441206625
 31
0.0
  0
LINE
  5
13B9
330
13B6
100
AcDbEntity
  8
0
 62
     0
370
    -2
100
AcDbLine
 10
110.8394280119714
 20
164.3415583389685
 30
0.0
 11
110.8394280119714
 21
161.3415583389685
 31
0.0
  0
LINE
  5
13BA
330
13B6
100
AcDbEntity
  8
0
 62
     0
370
    -2
100
AcDbLine
 10
110.8394280119714
 20
172.9065441206625
 30
0.0
 11
110.8394280119714
 21
190.0378774539958
 31
0.0
  0
LINE
  5
13BB
330
13B6
100
AcDbEntity
  8
0
 62
     0
370
    -2
100
AcDbLine
 10
110.8394280119714
 20
167.3415583389685
 30
0.0
 11
110.8394280119714
 21
169.9065441206625
 31
0.0
  0
SOLID
  5
13BC
330
13B6
100
AcDbEntity
  8
0
 62
     0
100
AcDbTrace
 10
110.3394280119714
 20
164.3415583389685
 30
0.0
 11
111.3394280119714
 21
164.3415583389685
 31
0.0
 12
110.8394280119714
 22
167.3415583389685
 32
0.0
 13
110.8394280119714
 23
167.3415583389685
 33
0.0
  0
SOLID
  5
13BD
330
13B6
100
AcDbEntity
  8
0
 62
     0
100
AcDbTrace
 10
110.3394280119714
 20
172.9065441206625
 30
0.0
 11
111.3394280119714
 21
172.9065441206625
 31
0.0
 12
110.8394280119714
 22
169.9065441206625
 32
0.0
 13
110.8394280119714
 23
169.9065441206625
 33
0.0
  0
MTEXT
  5
13BE
330
13B6
100
AcDbEntity
  8
0
 62
     0
100
AcDbMText
 10
107.2737613453047
 20
182.9722107873291
 30
0.0
 40
3.5
 41
0.0
 71
     5
 72
     1
  1
2,56
 11
0.0000000000000001
 21
1.0
 31
0.0
 73
     1
 44
1.0
1001
ACAD
1000
MTEXTBEGIN
1070
    73
1070
     1
1070
    44
1040
1.0
1070
    74
1070
     0
1000
MTEXTEND
  0
POINT
  5
13BF
330
13B6
100
AcDbEntity
  8
Defpoints
 62
     0
100
AcDbPoint
 10
107.588972446458
 20
167.3415583389685
 30
0.0
  0
POINT
  5
13C0
330
13B6
100
AcDbEntity
  8
Defpoints
 62
     0
100
AcDbPoint
 10
107.588972446458
 20
169.9065441206625
 30
0.0
  0
POINT
  5
13C1
330
13B6
100
AcDbEntity
  8
Defpoints
 62
     0
100
AcDbPoint
 10
110.8394280119714
 20
169.9065441206625
 30
0.0
  0
ENDBLK
  5
13C3
330
13B6
100
AcDbEntity
  8
0
100
AcDbBlockEnd
  0
BLOCK
  5
13D1
330
13C5
100
AcDbEntity
  8
0
100
AcDbBlockBegin
  2
*D42
 70
     1
 10
0.0
 20
0.0
 30
0.0
  3
*D42
  1

  0
LINE
  5
13C6
330
13C5
100
AcDbEntity
  8
0
 62
     0
370
    -2
100
AcDbLine
 10
108.563972446458
 20
168.3415583389685
 30
0.0
 11
108.563972446458
 21
171.4685645240532
 31
0.0
  0
LINE
  5
13C7
330
13C5
100
AcDbEntity
  8
0
 62
     0
370
    -2
100
AcDbLine
 10
112.613972446458
 20
168.3415583389685
 30
0.0
 11
112.613972446458
 21
171.4685645240532
 31
0.0
  0
LINE
  5
13C8
330
13C5
100
AcDbEntity
  8
0
 62
     0
370
    -2
100
AcDbLine
 10
105.563972446458
 20
170.4685645240532
 30
0.0
 11
102.563972446458
 21
170.4685645240532
 31
0.0
  0
LINE
  5
13C9
330
13C5
100
AcDbEntity
  8
0
 62
     0
370
    -2
100
AcDbLine
 10
115.613972446458
 20
170.4685645240532
 30
0.0
 11
132.1619724464579
 21
170.4685645240532
 31
0.0
  0
LINE
  5
13CA
330
13C5
100
AcDbEntity
  8
0
 62
     0
370
    -2
100
AcDbLine
 10
108.563972446458
 20
170.4685645240532
 30
0.0
 11
112.613972446458
 21
170.4685645240532
 31
0.0
  0
SOLID
  5
13CB
330
13C5
100
AcDbEntity
  8
0
 62
     0
100
AcDbTrace
 10
105.563972446458
 20
170.9685645240532
 30
0.0
 11
105.563972446458
 21
169.9685645240532
 31
0.0
 12
108.563972446458
 22
170.4685645240532
 32
0.0
 13
108.563972446458
 23
170.4685645240532
 33
0.0
  0
SOLID
  5
13CC
330
13C5
100
AcDbEntity
  8
0
 62
     0
100
AcDbTrace
 10
115.613972446458
 20
170.9685645240532
 30
0.0
 11
115.613972446458
 21
169.9685645240532
 31
0.0
 12
112.613972446458
 22
170.4685645240532
 32
0.0
 13
112.613972446458
 23
170.4685645240532
 33
0.0
  0
MTEXT
  5
13CD
330
13C5
100
AcDbEntity
  8
0
 62
     0
100
AcDbMText
 10
125.387972446458
 20
174.0342311907199
 30
0.0
 40
3.5
 41
0.0
 71
     5
 72
     1
  1
4,05
 73
     1
 44
1.0
1001
ACAD
1000
MTEXTBEGIN
1070
    73
1070
     1
1070
    44
1040
1.0
1070
    74
1070
     0
1000
MTEXTEND
  0
POINT
  5
13CE
330
13C5
100
AcDbEntity
  8
Defpoints
 62
     0
100
AcDbPoint
 10
108.563972446458
 20
167.3415583389685
 30
0.0
  0
POINT
  5
13CF
330
13C5
100
AcDbEntity
  8
Defpoints
 62
     0
100
AcDbPoint
 10
112.613972446458
 20
167.3415583389685
 30
0.0
  0
POINT
  5
13D0
330
13C5
100
AcDbEntity
  8
Defpoints
 62
     0
100
AcDbPoint
 10
112.613972446458
 20
170.4685645240532
 30
0.0
  0
ENDBLK
  5
13D2
330
13C5
100
AcDbEntity
  8
0
100
AcDbBlockEnd
  0
BLOCK
  5
13E0
330
13D4
100
AcDbEntity
  8
0
100
AcDbBlockBegin
  2
*D43
 70
     1
 10
0.0
 20
0.0
 30
0.0
  3
*D43
  1

  0
LINE
  5
1417
330
13D4
100
AcDbEntity
  8
0
 62
     0
370
    -2
100
AcDbLine
 10
108.588972446458
 20
168.3415583389685
 30
0.0
 11
108.588972446458
 21
172.9904818183188
 31
0.0
  0
LINE
  5
1418
330
13D4
100
AcDbEntity
  8
0
 62
     0
370
    -2
100
AcDbLine
 10
112.588972446458
 20
168.3415583389685
 30
0.0
 11
112.588972446458
 21
172.9904818183188
 31
0.0
  0
LINE
  5
1419
330
13D4
100
AcDbEntity
  8
0
 62
     0
370
    -2
100
AcDbLine
 10
105.588972446458
 20
171.9904818183188
 30
0.0
 11
102.588972446458
 21
171.9904818183188
 31
0.0
  0
LINE
  5
141A
330
13D4
100
AcDbEntity
  8
0
 62
     0
370
    -2
100
AcDbLine
 10
115.588972446458
 20
171.9904818183188
 30
0.0
 11
135.0536391131246
 21
171.9904818183188
 31
0.0
  0
LINE
  5
141B
330
13D4
100
AcDbEntity
  8
0
 62
     0
370
    -2
100
AcDbLine
 10
108.588972446458
 20
171.9904818183188
 30
0.0
 11
112.588972446458
 21
171.9904818183188
 31
0.0
  0
SOLID
  5
141C
330
13D4
100
AcDbEntity
  8
0
 62
     0
100
AcDbTrace
 10
105.588972446458
 20
172.4904818183188
 30
0.0
 11
105.588972446458
 21
171.4904818183188
 31
0.0
 12
108.588972446458
 22
171.9904818183188
 32
0.0
 13
108.588972446458
 23
171.9904818183188
 33
0.0
  0
SOLID
  5
141D
330
13D4
100
AcDbEntity
  8
0
 62
     0
100
AcDbTrace
 10
115.588972446458
 20
172.4904818183188
 30
0.0
 11
115.588972446458
 21
171.4904818183188
 31
0.0
 12
112.588972446458
 22
171.9904818183188
 32
0.0
 13
112.588972446458
 23
171.9904818183188
 33
0.0
  0
MTEXT
  5
141E
330
13D4
100
AcDbEntity
  8
0
 62
     0
100
AcDbMText
 10
126.8213057797913
 20
175.5561484849854
 30
0.0
 40
3.5
 41
0.0
 71
     5
 72
     1
  1
%%C4,00
 73
     1
 44
1.0
1001
ACAD
1000
MTEXTBEGIN
1070
    73
1070
     1
1070
    44
1040
1.0
1070
    74
1070
     0
1000
MTEXTEND
  0
POINT
  5
141F
330
13D4
100
AcDbEntity
  8
Defpoints
 62
     0
100
AcDbPoint
 10
108.588972446458
 20
167.3415583389685
 30
0.0
  0
POINT
  5
1420
330
13D4
100
AcDbEntity
  8
Defpoints
 62
     0
100
AcDbPoint
 10
112.588972446458
 20
167.3415583389685
 30
0.0
  0
POINT
  5
1421
330
13D4
100
AcDbEntity
  8
Defpoints
 62
     0
100
AcDbPoint
 10
112.588972446458
 20
171.9904818183188
 30
0.0
  0
ENDBLK
  5
13E1
330
13D4
100
AcDbEntity
  8
0
100
AcDbBlockEnd
  0
BLOCK
  5
13EF
330
13E3
100
AcDbEntity
  8
0
100
AcDbBlockBegin
  2
*D44
 70
     1
 10
0.0
 20
0.0
 30
0.0
  3
*D44
  1

  0
LINE
  5
1422
330
13E3
100
AcDbEntity
  8
0
 62
     0
370
    -2
100
AcDbLine
 10
107.588972446458
 20
139.1915583389685
 30
0.0
 11
107.588972446458
 21
126.250713809394
 31
0.0
  0
LINE
  5
1423
330
13E3
100
AcDbEntity
  8
0
 62
     0
370
    -2
100
AcDbLine
 10
113.588972446458
 20
139.1915583389685
 30
0.0
 11
113.588972446458
 21
126.250713809394
 31
0.0
  0
LINE
  5
1424
330
13E3
100
AcDbEntity
  8
0
 62
     0
370
    -2
100
AcDbLine
 10
104.588972446458
 20
127.250713809394
 30
0.0
 11
101.588972446458
 21
127.250713809394
 31
0.0
  0
LINE
  5
1425
330
13E3
100
AcDbEntity
  8
0
 62
     0
370
    -2
100
AcDbLine
 10
116.588972446458
 20
127.250713809394
 30
0.0
 11
136.0536391131246
 21
127.250713809394
 31
0.0
  0
LINE
  5
1426
330
13E3
100
AcDbEntity
  8
0
 62
     0
370
    -2
100
AcDbLine
 10
107.588972446458
 20
127.250713809394
 30
0.0
 11
113.588972446458
 21
127.250713809394
 31
0.0
  0
SOLID
  5
1427
330
13E3
100
AcDbEntity
  8
0
 62
     0
100
AcDbTrace
 10
104.588972446458
 20
127.750713809394
 30
0.0
 11
104.588972446458
 21
126.750713809394
 31
0.0
 12
107.588972446458
 22
127.250713809394
 32
0.0
 13
107.588972446458
 23
127.250713809394
 33
0.0
  0
SOLID
  5
1428
330
13E3
100
AcDbEntity
  8
0
 62
     0
100
AcDbTrace
 10
116.588972446458
 20
127.750713809394
 30
0.0
 11
116.588972446458
 21
126.750713809394
 31
0.0
 12
113.588972446458
 22
127.250713809394
 32
0.0
 13
113.588972446458
 23
127.250713809394
 33
0.0
  0
MTEXT
  5
1429
330
13E3
100
AcDbEntity
  8
0
 62
     0
100
AcDbMText
 10
127.8213057797913
 20
130.8163804760607
 30
0.0
 40
3.5
 41
0.0
 71
     5
 72
     1
  1
%%C6,00
 73
     1
 44
1.0
1001
ACAD
1000
MTEXTBEGIN
1070
    73
1070
     1
1070
    44
1040
1.0
1070
    74
1070
     0
1000
MTEXTEND
  0
POINT
  5
142A
330
13E3
100
AcDbEntity
  8
Defpoints
 62
     0
100
AcDbPoint
 10
107.588972446458
 20
140.1915583389685
 30
0.0
  0
POINT
  5
142B
330
13E3
100
AcDbEntity
  8
Defpoints
 62
     0
100
AcDbPoint
 10
113.588972446458
 20
140.1915583389685
 30
0.0
  0
POINT
  5
142C
330
13E3
100
AcDbEntity
  8
Defpoints
 62
     0
100
AcDbPoint
 10
113.588972446458
 20
127.250713809394
 30
0.0
  0
ENDBLK
  5
13F0
330
13E3
100
AcDbEntity
  8
0
100
AcDbBlockEnd
  0
BLOCK
  5
13FD
330
13F2
100
AcDbEntity
  8
0
100
AcDbBlockBegin
  2
*D45
 70
     1
 10
0.0
 20
0.0
 30
0.0
  3
*D45
  1

  0
LINE
  5
142D
330
13F2
100
AcDbEntity
  8
0
 62
     0
370
    -2
100
AcDbLine
 10
116.3889724464581
 20
141.2915583389686
 30
0.0
 11
116.3889724464581
 21
118.0621195526906
 31
0.0
  0
LINE
  5
142E
330
13F2
100
AcDbEntity
  8
0
 62
     0
370
    -2
100
AcDbLine
 10
104.788972446458
 20
141.2915583389686
 30
0.0
 11
104.788972446458
 21
118.0621195526906
 31
0.0
  0
LINE
  5
142F
330
13F2
100
AcDbEntity
  8
0
 62
     0
370
    -2
100
AcDbLine
 10
113.3889724464581
 20
119.0621195526906
 30
0.0
 11
107.788972446458
 21
119.0621195526906
 31
0.0
  0
LINE
  5
1430
330
13F2
100
AcDbEntity
  8
0
 62
     0
370
    -2
100
AcDbLine
 10
104.788972446458
 20
119.0621195526906
 30
0.0
 11
83.57430577979139
 21
119.0621195526906
 31
0.0
  0
SOLID
  5
1431
330
13F2
100
AcDbEntity
  8
0
 62
     0
100
AcDbTrace
 10
113.3889724464581
 20
119.5621195526906
 30
0.0
 11
113.3889724464581
 21
118.5621195526906
 31
0.0
 12
116.3889724464581
 22
119.0621195526906
 32
0.0
 13
116.3889724464581
 23
119.0621195526906
 33
0.0
  0
SOLID
  5
1432
330
13F2
100
AcDbEntity
  8
0
 62
     0
100
AcDbTrace
 10
107.788972446458
 20
119.5621195526906
 30
0.0
 11
107.788972446458
 21
118.5621195526906
 31
0.0
 12
104.788972446458
 22
119.0621195526906
 32
0.0
 13
104.788972446458
 23
119.0621195526906
 33
0.0
  0
MTEXT
  5
1433
330
13F2
100
AcDbEntity
  8
0
 62
     0
100
AcDbMText
 10
92.68163911312472
 20
122.6277862193573
 30
0.0
 40
3.5
 41
0.0
 71
     5
 72
     1
  1
%%C11,60
 73
     1
 44
1.0
1001
ACAD
1000
MTEXTBEGIN
1070
    73
1070
     1
1070
    44
1040
1.0
1070
    74
1070
     0
1000
MTEXTEND
  0
POINT
  5
1434
330
13F2
100
AcDbEntity
  8
Defpoints
 62
     0
100
AcDbPoint
 10
116.3889724464581
 20
142.2915583389686
 30
0.0
  0
POINT
  5
1435
330
13F2
100
AcDbEntity
  8
Defpoints
 62
     0
100
AcDbPoint
 10
104.788972446458
 20
142.2915583389686
 30
0.0
  0
POINT
  5
1436
330
13F2
100
AcDbEntity
  8
Defpoints
 62
     0
100
AcDbPoint
 10
104.788972446458
 20
119.0621195526906
 30
0.0
  0
ENDBLK
  5
13FE
330
13F2
100
AcDbEntity
  8
0
100
AcDbBlockEnd
  0
BLOCK
  5
140B
330
1400
100
AcDbEntity
  8
0
100
AcDbBlockBegin
  2
*D46
 70
     1
 10
0.0
 20
0.0
 30
0.0
  3
*D46
  1

  0
LINE
  5
140D
330
1400
100
AcDbEntity
  8
0
 62
     0
370
    -2
100
AcDbLine
 10
115.238972446458
 20
166.2415583389685
 30
0.0
 11
115.238972446458
 21
184.8068793714576
 31
0.0
  0
LINE
  5
140E
330
1400
100
AcDbEntity
  8
0
 62
     0
370
    -2
100
AcDbLine
 10
105.938972446458
 20
166.2415583389685
 30
0.0
 11
105.938972446458
 21
184.8068793714576
 31
0.0
  0
LINE
  5
140F
330
1400
100
AcDbEntity
  8
0
 62
     0
370
    -2
100
AcDbLine
 10
112.238972446458
 20
183.8068793714576
 30
0.0
 11
108.938972446458
 21
183.8068793714576
 31
0.0
  0
LINE
  5
1410
330
1400
100
AcDbEntity
  8
0
 62
     0
370
    -2
100
AcDbLine
 10
105.938972446458
 20
183.8068793714576
 30
0.0
 11
85.89097244645802
 21
183.8068793714576
 31
0.0
  0
SOLID
  5
1411
330
1400
100
AcDbEntity
  8
0
 62
     0
100
AcDbTrace
 10
112.238972446458
 20
184.3068793714576
 30
0.0
 11
112.238972446458
 21
183.3068793714576
 31
0.0
 12
115.238972446458
 22
183.8068793714576
 32
0.0
 13
115.238972446458
 23
183.8068793714576
 33
0.0
  0
SOLID
  5
1412
330
1400
100
AcDbEntity
  8
0
 62
     0
100
AcDbTrace
 10
108.938972446458
 20
184.3068793714576
 30
0.0
 11
108.938972446458
 21
183.3068793714576
 31
0.0
 12
105.938972446458
 22
183.8068793714576
 32
0.0
 13
105.938972446458
 23
183.8068793714576
 33
0.0
  0
MTEXT
  5
1413
330
1400
100
AcDbEntity
  8
0
 62
     0
100
AcDbMText
 10
94.414972446458
 20
187.3725460381242
 30
0.0
 40
3.5
 41
0.0
 71
     5
 72
     1
  1
%%C9,30
 73
     1
 44
1.0
1001
ACAD
1000
MTEXTBEGIN
1070
    73
1070
     1
1070
    44
1040
1.0
1070
    74
1070
     0
1000
MTEXTEND
  0
POINT
  5
1414
330
1400
100
AcDbEntity
  8
Defpoints
 62
     0
100
AcDbPoint
 10
115.238972446458
 20
165.2415583389685
 30
0.0
  0
POINT
  5
1415
330
1400
100
AcDbEntity
  8
Defpoints
 62
     0
100
AcDbPoint
 10
105.938972446458
 20
165.2415583389685
 30
0.0
  0
POINT
  5
1416
330
1400
100
AcDbEntity
  8
Defpoints
 62
     0
100
AcDbPoint
 10
105.938972446458
 20
183.8068793714576
 30
0.0
  0
ENDBLK
  5
140C
330
1400
100
AcDbEntity
  8
0
100
AcDbBlockEnd
  0
BLOCK
  5
14C6
330
14BC
100
AcDbEntity
  8
0
100
AcDbBlockBegin
  2
*D47
 70
     1
 10
0.0
 20
0.0
 30
0.0
  3
*D47
  1

  0
LINE
  5
14BD
330
14BC
100
AcDbEntity
  8
0
 62
     0
370
    -2
100
AcDbLine
 10
104.4310314342597
 20
148.9921905107986
 30
0.0
 11
86.88334963141141
 21
148.9921905107986
 31
0.0
  0
LINE
  5
14BE
330
14BC
100
AcDbEntity
  8
0
 62
     0
370
    -2
100
AcDbLine
 10
99.78103143425972
 20
176.8921905107986
 30
0.0
 11
86.88334963141143
 21
176.8921905107986
 31
0.0
  0
LINE
  5
14BF
330
14BC
100
AcDbEntity
  8
0
 62
     0
370
    -2
100
AcDbLine
 10
87.8833496314114
 20
151.9921905107986
 30
0.0
 11
87.88334963141142
 21
173.8921905107986
 31
0.0
  0
SOLID
  5
14C0
330
14BC
100
AcDbEntity
  8
0
 62
     0
100
AcDbTrace
 10
87.3833496314114
 20
151.9921905107986
 30
0.0
 11
88.38334963141141
 21
151.9921905107986
 31
0.0
 12
87.8833496314114
 22
148.9921905107986
 32
0.0
 13
87.8833496314114
 23
148.9921905107986
 33
0.0
  0
SOLID
  5
14C1
330
14BC
100
AcDbEntity
  8
0
 62
     0
100
AcDbTrace
 10
87.3833496314114
 20
173.8921905107986
 30
0.0
 11
88.38334963141141
 21
173.8921905107986
 31
0.0
 12
87.88334963141142
 22
176.8921905107986
 32
0.0
 13
87.88334963141142
 23
176.8921905107986
 33
0.0
  0
MTEXT
  5
14C2
330
14BC
100
AcDbEntity
  8
0
 62
     0
100
AcDbMText
 10
84.31768296474471
 20
162.9421905107987
 30
0.0
 40
3.5
 41
0.0
 71
     5
 72
     1
  1
27,90
 11
0.0000000000000001
 21
1.0
 31
0.0
 73
     1
 44
1.0
1001
ACAD
1000
MTEXTBEGIN
1070
    73
1070
     1
1070
    44
1040
1.0
1070
    74
1070
     0
1000
MTEXTEND
  0
POINT
  5
14C3
330
14BC
100
AcDbEntity
  8
Defpoints
 62
     0
100
AcDbPoint
 10
105.4310314342597
 20
148.9921905107986
 30
0.0
  0
POINT
  5
14C4
330
14BC
100
AcDbEntity
  8
Defpoints
 62
     0
100
AcDbPoint
 10
100.7810314342597
 20
176.8921905107986
 30
0.0
  0
POINT
  5
14C5
330
14BC
100
AcDbEntity
  8
Defpoints
 62
     0
100
AcDbPoint
 10
87.88334963141142
 20
176.8921905107986
 30
0.0
  0
ENDBLK
  5
14C7
330
14BC
100
AcDbEntity
  8
0
100
AcDbBlockEnd
  0
BLOCK
  5
14D3
330
14C9
100
AcDbEntity
  8
0
100
AcDbBlockBegin
  2
*D48
 70
     1
 10
0.0
 20
0.0
 30
0.0
  3
*D48
  1

  0
LINE
  5
14CA
330
14C9
100
AcDbEntity
  8
0
 62
     0
370
    -2
100
AcDbLine
 10
100.1810314342598
 20
175.7921905107986
 30
0.0
 11
100.1810314342598
 21
191.3343733520005
 31
0.0
  0
LINE
  5
14CB
330
14C9
100
AcDbEntity
  8
0
 62
     0
370
    -2
100
AcDbLine
 10
118.7810314342597
 20
175.7921905107986
 30
0.0
 11
118.7810314342597
 21
191.3343733520005
 31
0.0
  0
LINE
  5
14CC
330
14C9
100
AcDbEntity
  8
0
 62
     0
370
    -2
100
AcDbLine
 10
103.1810314342598
 20
190.3343733520007
 30
0.0
 11
115.7810314342597
 21
190.3343733520007
 31
0.0
  0
SOLID
  5
14CD
330
14C9
100
AcDbEntity
  8
0
 62
     0
100
AcDbTrace
 10
103.1810314342598
 20
190.8343733520007
 30
0.0
 11
103.1810314342598
 21
189.8343733520007
 31
0.0
 12
100.1810314342598
 22
190.3343733520007
 32
0.0
 13
100.1810314342598
 23
190.3343733520007
 33
0.0
  0
SOLID
  5
14CE
330
14C9
100
AcDbEntity
  8
0
 62
     0
100
AcDbTrace
 10
115.7810314342597
 20
190.8343733520007
 30
0.0
 11
115.7810314342597
 21
189.8343733520007
 31
0.0
 12
118.7810314342597
 22
190.3343733520007
 32
0.0
 13
118.7810314342597
 23
190.3343733520007
 33
0.0
  0
MTEXT
  5
14CF
330
14C9
100
AcDbEntity
  8
0
 62
     0
100
AcDbMText
 10
109.4810314342597
 20
193.9000400186674
 30
0.0
 40
3.5
 41
0.0
 71
     5
 72
     1
  1
18,60
 73
     1
 44
1.0
1001
ACAD
1000
MTEXTBEGIN
1070
    73
1070
     1
1070
    44
1040
1.0
1070
    74
1070
     0
1000
MTEXTEND
  0
POINT
  5
14D0
330
14C9
100
AcDbEntity
  8
Defpoints
 62
     0
100
AcDbPoint
 10
100.1810314342598
 20
174.7921905107986
 30
0.0
  0
POINT
  5
14D1
330
14C9
100
AcDbEntity
  8
Defpoints
 62
     0
100
AcDbPoint
 10
118.7810314342597
 20
174.7921905107986
 30
0.0
  0
POINT
  5
14D2
330
14C9
100
AcDbEntity
  8
Defpoints
 62
     0
100
AcDbPoint
 10
118.7810314342597
 20
190.3343733520007
 30
0.0
  0
ENDBLK
  5
14D4
330
14C9
100
AcDbEntity
  8
0
100
AcDbBlockEnd
  0
BLOCK
  5
14E0
330
14D6
100
AcDbEntity
  8
0
100
AcDbBlockBegin
  2
*D49
 70
     1
 10
0.0
 20
0.0
 30
0.0
  3
*D49
  1

  0
LINE
  5
14D7
330
14D6
100
AcDbEntity
  8
0
 62
     0
370
    -2
100
AcDbLine
 10
100.1810314342597
 20
175.7921905107986
 30
0.0
 11
100.1810314342597
 21
198.2908684200092
 31
0.0
  0
LINE
  5
14D8
330
14D6
100
AcDbEntity
  8
0
 62
     0
370
    -2
100
AcDbLine
 10
118.7810314342597
 20
175.7921905107986
 30
0.0
 11
118.7810314342597
 21
198.2908684200092
 31
0.0
  0
LINE
  5
14D9
330
14D6
100
AcDbEntity
  8
0
 62
     0
370
    -2
100
AcDbLine
 10
103.1810314342597
 20
197.2908684200092
 30
0.0
 11
115.7810314342597
 21
197.2908684200092
 31
0.0
  0
SOLID
  5
14DA
330
14D6
100
AcDbEntity
  8
0
 62
     0
100
AcDbTrace
 10
103.1810314342597
 20
197.7908684200092
 30
0.0
 11
103.1810314342597
 21
196.7908684200092
 31
0.0
 12
100.1810314342597
 22
197.2908684200092
 32
0.0
 13
100.1810314342597
 23
197.2908684200092
 33
0.0
  0
SOLID
  5
14DB
330
14D6
100
AcDbEntity
  8
0
 62
     0
100
AcDbTrace
 10
115.7810314342597
 20
197.7908684200092
 30
0.0
 11
115.7810314342597
 21
196.7908684200092
 31
0.0
 12
118.7810314342597
 22
197.2908684200092
 32
0.0
 13
118.7810314342597
 23
197.2908684200092
 33
0.0
  0
MTEXT
  5
14DC
330
14D6
100
AcDbEntity
  8
0
 62
     0
100
AcDbMText
 10
109.4810314342597
 20
200.8565350866759
 30
0.0
 40
3.5
 41
0.0
 71
     5
 72
     1
  1
18,60
 73
     1
 44
1.0
1001
ACAD
1000
MTEXTBEGIN
1070
    73
1070
     1
1070
    44
1040
1.0
1070
    74
1070
     0
1000
MTEXTEND
  0
POINT
  5
14DD
330
14D6
100
AcDbEntity
  8
Defpoints
 62
     0
100
AcDbPoint
 10
100.1810314342597
 20
174.7921905107986
 30
0.0
  0
POINT
  5
14DE
330
14D6
100
AcDbEntity
  8
Defpoints
 62
     0
100
AcDbPoint
 10
118.7810314342597
 20
174.7921905107986
 30
0.0
  0
POINT
  5
14DF
330
14D6
100
AcDbEntity
  8
Defpoints
 62
     0
100
AcDbPoint
 10
118.7810314342597
 20
197.2908684200092
 30
0.0
  0
ENDBLK
  5
14E1
330
14D6
100
AcDbEntity
  8
0
100
AcDbBlockEnd
  0
BLOCK
  5
14FF
330
14F3
100
AcDbEntity
  8
0
100
AcDbBlockBegin
  2
*D50
 70
     1
 10
0.0
 20
0.0
 30
0.0
  3
*D50
  1

  0
LINE
  5
152A
330
14F3
100
AcDbEntity
  8
0
 62
     0
370
    -2
100
AcDbLine
 10
102.8310314333097
 20
177.8921905107986
 30
0.0
 11
102.8310314333097
 21
187.1820064358851
 31
0.0
  0
LINE
  5
152B
330
14F3
100
AcDbEntity
  8
0
 62
     0
370
    -2
100
AcDbLine
 10
106.8310314333097
 20
177.8921905107986
 30
0.0
 11
106.8310314333097
 21
187.1820064358851
 31
0.0
  0
LINE
  5
152C
330
14F3
100
AcDbEntity
  8
0
 62
     0
370
    -2
100
AcDbLine
 10
109.8310314333097
 20
186.1820064358851
 30
0.0
 11
112.8310314333097
 21
186.1820064358851
 31
0.0
  0
LINE
  5
152D
330
14F3
100
AcDbEntity
  8
0
 62
     0
370
    -2
100
AcDbLine
 10
99.83103143330973
 20
186.1820064358851
 30
0.0
 11
79.63827513844856
 21
186.1820064358851
 31
0.0
  0
LINE
  5
152E
330
14F3
100
AcDbEntity
  8
0
 62
     0
370
    -2
100
AcDbLine
 10
106.8310314333097
 20
186.1820064358851
 30
0.0
 11
102.8310314333097
 21
186.1820064358851
 31
0.0
  0
SOLID
  5
152F
330
14F3
100
AcDbEntity
  8
0
 62
     0
100
AcDbTrace
 10
109.8310314333097
 20
186.6820064358851
 30
0.0
 11
109.8310314333097
 21
185.6820064358851
 31
0.0
 12
106.8310314333097
 22
186.1820064358851
 32
0.0
 13
106.8310314333097
 23
186.1820064358851
 33
0.0
  0
SOLID
  5
1530
330
14F3
100
AcDbEntity
  8
0
 62
     0
100
AcDbTrace
 10
99.83103143330973
 20
186.6820064358851
 30
0.0
 11
99.83103143330973
 21
185.6820064358851
 31
0.0
 12
102.8310314333097
 22
186.1820064358851
 32
0.0
 13
102.8310314333097
 23
186.1820064358851
 33
0.0
  0
MTEXT
  5
1531
330
14F3
100
AcDbEntity
  8
0
 62
     0
100
AcDbMText
 10
87.87060847178191
 20
189.7476731025518
 30
0.0
 40
3.5
 41
0.0
 71
     5
 72
     1
  1
%%C4,00
 73
     1
 44
1.0
1001
ACAD
1000
MTEXTBEGIN
1070
    73
1070
     1
1070
    44
1040
1.0
1070
    74
1070
     0
1000
MTEXTEND
  0
POINT
  5
1532
330
14F3
100
AcDbEntity
  8
Defpoints
 62
     0
100
AcDbPoint
 10
102.8310314333097
 20
176.8921905107986
 30
0.0
  0
POINT
  5
1533
330
14F3
100
AcDbEntity
  8
Defpoints
 62
     0
100
AcDbPoint
 10
106.8310314333097
 20
176.8921905107986
 30
0.0
  0
POINT
  5
1534
330
14F3
100
AcDbEntity
  8
Defpoints
 62
     0
100
AcDbPoint
 10
106.8310314333097
 20
186.1820064358851
 30
0.0
  0
ENDBLK
  5
1500
330
14F3
100
AcDbEntity
  8
0
100
AcDbBlockEnd
  0
BLOCK
  5
150E
330
1502
100
AcDbEntity
  8
0
100
AcDbBlockBegin
  2
*D51
 70
     1
 10
0.0
 20
0.0
 30
0.0
  3
*D51
  1

  0
LINE
  5
1535
330
1502
100
AcDbEntity
  8
0
 62
     0
370
    -2
100
AcDbLine
 10
112.1310314342597
 20
177.8921905107986
 30
0.0
 11
112.1310314342597
 21
182.8185125060004
 31
0.0
  0
LINE
  5
1536
330
1502
100
AcDbEntity
  8
0
 62
     0
370
    -2
100
AcDbLine
 10
116.1310314342597
 20
177.8921905107986
 30
0.0
 11
116.1310314342597
 21
182.8185125060004
 31
0.0
  0
LINE
  5
1537
330
1502
100
AcDbEntity
  8
0
 62
     0
370
    -2
100
AcDbLine
 10
109.1310314342597
 20
181.8185125060004
 30
0.0
 11
106.1310314342597
 21
181.8185125060004
 31
0.0
  0
LINE
  5
1538
330
1502
100
AcDbEntity
  8
0
 62
     0
370
    -2
100
AcDbLine
 10
119.1310314342597
 20
181.8185125060004
 30
0.0
 11
138.5956981009264
 21
181.8185125060004
 31
0.0
  0
LINE
  5
1539
330
1502
100
AcDbEntity
  8
0
 62
     0
370
    -2
100
AcDbLine
 10
112.1310314342597
 20
181.8185125060004
 30
0.0
 11
116.1310314342597
 21
181.8185125060004
 31
0.0
  0
SOLID
  5
153A
330
1502
100
AcDbEntity
  8
0
 62
     0
100
AcDbTrace
 10
109.1310314342597
 20
182.3185125060004
 30
0.0
 11
109.1310314342597
 21
181.3185125060004
 31
0.0
 12
112.1310314342597
 22
181.8185125060004
 32
0.0
 13
112.1310314342597
 23
181.8185125060004
 33
0.0
  0
SOLID
  5
153B
330
1502
100
AcDbEntity
  8
0
 62
     0
100
AcDbTrace
 10
119.1310314342597
 20
182.3185125060004
 30
0.0
 11
119.1310314342597
 21
181.3185125060004
 31
0.0
 12
116.1310314342597
 22
181.8185125060004
 32
0.0
 13
116.1310314342597
 23
181.8185125060004
 33
0.0
  0
MTEXT
  5
153C
330
1502
100
AcDbEntity
  8
0
 62
     0
100
AcDbMText
 10
130.363364767593
 20
185.384179172667
 30
0.0
 40
3.5
 41
0.0
 71
     5
 72
     1
  1
%%C4,00
 73
     1
 44
1.0
1001
ACAD
1000
MTEXTBEGIN
1070
    73
1070
     1
1070
    44
1040
1.0
1070
    74
1070
     0
1000
MTEXTEND
  0
POINT
  5
153D
330
1502
100
AcDbEntity
  8
Defpoints
 62
     0
100
AcDbPoint
 10
112.1310314342597
 20
176.8921905107986
 30
0.0
  0
POINT
  5
153E
330
1502
100
AcDbEntity
  8
Defpoints
 62
     0
100
AcDbPoint
 10
116.1310314342597
 20
176.8921905107986
 30
0.0
  0
POINT
  5
153F
330
1502
100
AcDbEntity
  8
Defpoints
 62
     0
100
AcDbPoint
 10
116.1310314342597
 20
181.8185125060004
 30
0.0
  0
ENDBLK
  5
150F
330
1502
100
AcDbEntity
  8
0
100
AcDbBlockEnd
  0
BLOCK
  5
1528
330
151C
100
AcDbEntity
  8
0
100
AcDbBlockBegin
  2
*D52
 70
     1
 10
0.0
 20
0.0
 30
0.0
  3
*D52
  1

  0
LINE
  5
1540
330
151C
100
AcDbEntity
  8
0
 62
     0
370
    -2
100
AcDbLine
 10
107.4810314333097
 20
147.9921905107986
 30
0.0
 11
107.4810314333097
 21
141.5688315032307
 31
0.0
  0
LINE
  5
1541
330
151C
100
AcDbEntity
  8
0
 62
     0
370
    -2
100
AcDbLine
 10
111.4810314333097
 20
147.9921905107986
 30
0.0
 11
111.4810314333097
 21
141.5688315032307
 31
0.0
  0
LINE
  5
1542
330
151C
100
AcDbEntity
  8
0
 62
     0
370
    -2
100
AcDbLine
 10
104.4810314333097
 20
142.5688315032306
 30
0.0
 11
101.4810314333097
 21
142.5688315032306
 31
0.0
  0
LINE
  5
1543
330
151C
100
AcDbEntity
  8
0
 62
     0
370
    -2
100
AcDbLine
 10
114.4810314333097
 20
142.5688315032306
 30
0.0
 11
133.9456980999764
 21
142.5688315032306
 31
0.0
  0
LINE
  5
1544
330
151C
100
AcDbEntity
  8
0
 62
     0
370
    -2
100
AcDbLine
 10
107.4810314333097
 20
142.5688315032306
 30
0.0
 11
111.4810314333097
 21
142.5688315032306
 31
0.0
  0
SOLID
  5
1545
330
151C
100
AcDbEntity
  8
0
 62
     0
100
AcDbTrace
 10
104.4810314333097
 20
143.0688315032307
 30
0.0
 11
104.4810314333097
 21
142.0688315032307
 31
0.0
 12
107.4810314333097
 22
142.5688315032306
 32
0.0
 13
107.4810314333097
 23
142.5688315032306
 33
0.0
  0
SOLID
  5
1546
330
151C
100
AcDbEntity
  8
0
 62
     0
100
AcDbTrace
 10
114.4810314333097
 20
143.0688315032307
 30
0.0
 11
114.4810314333097
 21
142.0688315032307
 31
0.0
 12
111.4810314333097
 22
142.5688315032306
 32
0.0
 13
111.4810314333097
 23
142.5688315032306
 33
0.0
  0
MTEXT
  5
1547
330
151C
100
AcDbEntity
  8
0
 62
     0
100
AcDbMText
 10
125.713364766643
 20
146.1344981698974
 30
0.0
 40
3.5
 41
0.0
 71
     5
 72
     1
  1
%%C4,00
 73
     1
 44
1.0
1001
ACAD
1000
MTEXTBEGIN
1070
    73
1070
     1
1070
    44
1040
1.0
1070
    74
1070
     0
1000
MTEXTEND
  0
POINT
  5
1548
330
151C
100
AcDbEntity
  8
Defpoints
 62
     0
100
AcDbPoint
 10
107.4810314333097
 20
148.9921905107986
 30
0.0
  0
POINT
  5
1549
330
151C
100
AcDbEntity
  8
Defpoints
 62
     0
100
AcDbPoint
 10
111.4810314333097
 20
148.9921905107986
 30
0.0
  0
POINT
  5
154A
330
151C
100
AcDbEntity
  8
Defpoints
 62
     0
100
AcDbPoint
 10
111.4810314333097
 20
142.5688315032306
 30
0.0
  0
ENDBLK
  5
1529
330
151C
100
AcDbEntity
  8
0
100
AcDbBlockEnd
  0
BLOCK
  5
15DF
330
15D5
100
AcDbEntity
  8
0
100
AcDbBlockBegin
  2
*D53
 70
     1
 10
0.0
 20
0.0
 30
0.0
  3
*D53
  1

  0
LINE
  5
15D6
330
15D5
100
AcDbEntity
  8
0
 62
     0
370
    -2
100
AcDbLine
 10
100.4857801082853
 20
166.941472833999
 30
0.0
 11
100.4857801082853
 21
182.2380766504414
 31
0.0
  0
LINE
  5
15D7
330
15D5
100
AcDbEntity
  8
0
 62
     0
370
    -2
100
AcDbLine
 10
119.0857801082854
 20
166.9414728339991
 30
0.0
 11
119.0857801082854
 21
182.2380766504414
 31
0.0
  0
LINE
  5
15D8
330
15D5
100
AcDbEntity
  8
0
 62
     0
370
    -2
100
AcDbLine
 10
103.4857801082853
 20
181.2380766504413
 30
0.0
 11
116.0857801082854
 21
181.2380766504413
 31
0.0
  0
SOLID
  5
15D9
330
15D5
100
AcDbEntity
  8
0
 62
     0
100
AcDbTrace
 10
103.4857801082853
 20
181.7380766504413
 30
0.0
 11
103.4857801082853
 21
180.7380766504413
 31
0.0
 12
100.4857801082853
 22
181.2380766504413
 32
0.0
 13
100.4857801082853
 23
181.2380766504413
 33
0.0
  0
SOLID
  5
15DA
330
15D5
100
AcDbEntity
  8
0
 62
     0
100
AcDbTrace
 10
116.0857801082854
 20
181.7380766504413
 30
0.0
 11
116.0857801082854
 21
180.7380766504413
 31
0.0
 12
119.0857801082854
 22
181.2380766504413
 32
0.0
 13
119.0857801082854
 23
181.2380766504413
 33
0.0
  0
MTEXT
  5
15DB
330
15D5
100
AcDbEntity
  8
0
 62
     0
100
AcDbMText
 10
109.7857801082854
 20
184.803743317108
 30
0.0
 40
3.5
 41
0.0
 71
     5
 72
     1
  1
18,60
 73
     1
 44
1.0
1001
ACAD
1000
MTEXTBEGIN
1070
    73
1070
     1
1070
    44
1040
1.0
1070
    74
1070
     0
1000
MTEXTEND
  0
POINT
  5
15DC
330
15D5
100
AcDbEntity
  8
Defpoints
 62
     0
100
AcDbPoint
 10
100.4857801082853
 20
165.941472833999
 30
0.0
  0
POINT
  5
15DD
330
15D5
100
AcDbEntity
  8
Defpoints
 62
     0
100
AcDbPoint
 10
119.0857801082854
 20
165.9414728339991
 30
0.0
  0
POINT
  5
15DE
330
15D5
100
AcDbEntity
  8
Defpoints
 62
     0
100
AcDbPoint
 10
119.0857801082854
 20
181.2380766504413
 30
0.0
  0
ENDBLK
  5
15E0
330
15D5
100
AcDbEntity
  8
0
100
AcDbBlockEnd
  0
BLOCK
  5
15F7
330
15EB
100
AcDbEntity
  8
0
100
AcDbBlockBegin
  2
*D54
 70
     1
 10
0.0
 20
0.0
 30
0.0
  3
*D54
  1

  0
LINE
  5
162F
330
15EB
100
AcDbEntity
  8
0
 62
     0
370
    -2
100
AcDbLine
 10
103.1357801067353
 20
169.041472833999
 30
0.0
 11
103.1357801067353
 21
176.2729241024808
 31
0.0
  0
LINE
  5
1630
330
15EB
100
AcDbEntity
  8
0
 62
     0
370
    -2
100
AcDbLine
 10
107.1357801067353
 20
169.041472833999
 30
0.0
 11
107.1357801067353
 21
176.2729241024808
 31
0.0
  0
LINE
  5
1631
330
15EB
100
AcDbEntity
  8
0
 62
     0
370
    -2
100
AcDbLine
 10
110.1357801067353
 20
175.2729241024808
 30
0.0
 11
113.1357801067353
 21
175.2729241024808
 31
0.0
  0
LINE
  5
1632
330
15EB
100
AcDbEntity
  8
0
 62
     0
370
    -2
100
AcDbLine
 10
100.1357801067353
 20
175.2729241024808
 30
0.0
 11
80.11744468729014
 21
175.2729241024808
 31
0.0
  0
LINE
  5
1633
330
15EB
100
AcDbEntity
  8
0
 62
     0
370
    -2
100
AcDbLine
 10
107.1357801067353
 20
175.2729241024808
 30
0.0
 11
103.1357801067353
 21
175.2729241024808
 31
0.0
  0
SOLID
  5
1634
330
15EB
100
AcDbEntity
  8
0
 62
     0
100
AcDbTrace
 10
110.1357801067353
 20
175.7729241024808
 30
0.0
 11
110.1357801067353
 21
174.7729241024808
 31
0.0
 12
107.1357801067353
 22
175.2729241024808
 32
0.0
 13
107.1357801067353
 23
175.2729241024808
 33
0.0
  0
SOLID
  5
1635
330
15EB
100
AcDbEntity
  8
0
 62
     0
100
AcDbTrace
 10
100.1357801067353
 20
175.7729241024808
 30
0.0
 11
100.1357801067353
 21
174.7729241024808
 31
0.0
 12
103.1357801067353
 22
175.2729241024808
 32
0.0
 13
103.1357801067353
 23
175.2729241024808
 33
0.0
  0
MTEXT
  5
1636
330
15EB
100
AcDbEntity
  8
0
 62
     0
100
AcDbMText
 10
88.34977802062349
 20
178.8385907691475
 30
0.0
 40
3.5
 41
0.0
 71
     5
 72
     1
  1
%%c4,00
 73
     1
 44
1.0
1001
ACAD
1000
MTEXTBEGIN
1070
    73
1070
     1
1070
    44
1040
1.0
1070
    74
1070
     0
1000
MTEXTEND
  0
POINT
  5
1637
330
15EB
100
AcDbEntity
  8
Defpoints
 62
     0
100
AcDbPoint
 10
103.1357801067353
 20
168.041472833999
 30
0.0
  0
POINT
  5
1638
330
15EB
100
AcDbEntity
  8
Defpoints
 62
     0
100
AcDbPoint
 10
107.1357801067353
 20
168.041472833999
 30
0.0
  0
POINT
  5
1639
330
15EB
100
AcDbEntity
  8
Defpoints
 62
     0
100
AcDbPoint
 10
107.1357801067353
 20
175.2729241024808
 30
0.0
  0
ENDBLK
  5
15F8
330
15EB
100
AcDbEntity
  8
0
100
AcDbBlockEnd
  0
BLOCK
  5
1606
330
15FA
100
AcDbEntity
  8
0
100
AcDbBlockBegin
  2
*D55
 70
     1
 10
0.0
 20
0.0
 30
0.0
  3
*D55
  1

  0
LINE
  5
163A
330
15FA
100
AcDbEntity
  8
0
 62
     0
370
    -2
100
AcDbLine
 10
112.4357801082853
 20
169.041472833999
 30
0.0
 11
112.4357801082853
 21
172.8990551051263
 31
0.0
  0
LINE
  5
163B
330
15FA
100
AcDbEntity
  8
0
 62
     0
370
    -2
100
AcDbLine
 10
116.4357801082853
 20
169.041472833999
 30
0.0
 11
116.4357801082853
 21
172.8990551051263
 31
0.0
  0
LINE
  5
163C
330
15FA
100
AcDbEntity
  8
0
 62
     0
370
    -2
100
AcDbLine
 10
109.4357801082853
 20
171.8990551051263
 30
0.0
 11
106.4357801082853
 21
171.8990551051263
 31
0.0
  0
LINE
  5
163D
330
15FA
100
AcDbEntity
  8
0
 62
     0
370
    -2
100
AcDbLine
 10
119.4357801082853
 20
171.8990551051263
 30
0.0
 11
138.900446774952
 21
171.8990551051263
 31
0.0
  0
LINE
  5
163E
330
15FA
100
AcDbEntity
  8
0
 62
     0
370
    -2
100
AcDbLine
 10
112.4357801082853
 20
171.8990551051263
 30
0.0
 11
116.4357801082853
 21
171.8990551051263
 31
0.0
  0
SOLID
  5
163F
330
15FA
100
AcDbEntity
  8
0
 62
     0
100
AcDbTrace
 10
109.4357801082853
 20
172.3990551051263
 30
0.0
 11
109.4357801082853
 21
171.3990551051263
 31
0.0
 12
112.4357801082853
 22
171.8990551051263
 32
0.0
 13
112.4357801082853
 23
171.8990551051263
 33
0.0
  0
SOLID
  5
1640
330
15FA
100
AcDbEntity
  8
0
 62
     0
100
AcDbTrace
 10
119.4357801082853
 20
172.3990551051263
 30
0.0
 11
119.4357801082853
 21
171.3990551051263
 31
0.0
 12
116.4357801082853
 22
171.8990551051263
 32
0.0
 13
116.4357801082853
 23
171.8990551051263
 33
0.0
  0
MTEXT
  5
1641
330
15FA
100
AcDbEntity
  8
0
 62
     0
100
AcDbMText
 10
130.6681134416187
 20
175.464721771793
 30
0.0
 40
3.5
 41
0.0
 71
     5
 72
     1
  1
%%c4,00
 73
     1
 44
1.0
1001
ACAD
1000
MTEXTBEGIN
1070
    73
1070
     1
1070
    44
1040
1.0
1070
    74
1070
     0
1000
MTEXTEND
  0
POINT
  5
1642
330
15FA
100
AcDbEntity
  8
Defpoints
 62
     0
100
AcDbPoint
 10
112.4357801082853
 20
168.041472833999
 30
0.0
  0
POINT
  5
1643
330
15FA
100
AcDbEntity
  8
Defpoints
 62
     0
100
AcDbPoint
 10
116.4357801082853
 20
168.041472833999
 30
0.0
  0
POINT
  5
1644
330
15FA
100
AcDbEntity
  8
Defpoints
 62
     0
100
AcDbPoint
 10
116.4357801082853
 20
171.8990551051263
 30
0.0
  0
ENDBLK
  5
1607
330
15FA
100
AcDbEntity
  8
0
100
AcDbBlockEnd
  0
BLOCK
  5
1615
330
1609
100
AcDbEntity
  8
0
100
AcDbBlockBegin
  2
*D56
 70
     1
 10
0.0
 20
0.0
 30
0.0
  3
*D56
  1

  0
LINE
  5
1645
330
1609
100
AcDbEntity
  8
0
 62
     0
370
    -2
100
AcDbLine
 10
106.7857801082853
 20
137.541472833999
 30
0.0
 11
106.7857801082853
 21
129.5529511875374
 31
0.0
  0
LINE
  5
1646
330
1609
100
AcDbEntity
  8
0
 62
     0
370
    -2
100
AcDbLine
 10
112.7857801082853
 20
137.541472833999
 30
0.0
 11
112.7857801082853
 21
129.5529511875374
 31
0.0
  0
LINE
  5
1647
330
1609
100
AcDbEntity
  8
0
 62
     0
370
    -2
100
AcDbLine
 10
103.7857801082853
 20
130.5529511875374
 30
0.0
 11
100.7857801082853
 21
130.5529511875374
 31
0.0
  0
LINE
  5
1648
330
1609
100
AcDbEntity
  8
0
 62
     0
370
    -2
100
AcDbLine
 10
115.7857801082853
 20
130.5529511875374
 30
0.0
 11
135.250446774952
 21
130.5529511875374
 31
0.0
  0
LINE
  5
1649
330
1609
100
AcDbEntity
  8
0
 62
     0
370
    -2
100
AcDbLine
 10
106.7857801082853
 20
130.5529511875374
 30
0.0
 11
112.7857801082853
 21
130.5529511875374
 31
0.0
  0
SOLID
  5
164A
330
1609
100
AcDbEntity
  8
0
 62
     0
100
AcDbTrace
 10
103.7857801082853
 20
131.0529511875375
 30
0.0
 11
103.7857801082853
 21
130.0529511875375
 31
0.0
 12
106.7857801082853
 22
130.5529511875374
 32
0.0
 13
106.7857801082853
 23
130.5529511875374
 33
0.0
  0
SOLID
  5
164B
330
1609
100
AcDbEntity
  8
0
 62
     0
100
AcDbTrace
 10
115.7857801082853
 20
131.0529511875375
 30
0.0
 11
115.7857801082853
 21
130.0529511875375
 31
0.0
 12
112.7857801082853
 22
130.5529511875374
 32
0.0
 13
112.7857801082853
 23
130.5529511875374
 33
0.0
  0
MTEXT
  5
164C
330
1609
100
AcDbEntity
  8
0
 62
     0
100
AcDbMText
 10
127.0181134416187
 20
134.1186178542041
 30
0.0
 40
3.5
 41
0.0
 71
     5
 72
     1
  1
%%c6,00
 73
     1
 44
1.0
1001
ACAD
1000
MTEXTBEGIN
1070
    73
1070
     1
1070
    44
1040
1.0
1070
    74
1070
     0
1000
MTEXTEND
  0
POINT
  5
164D
330
1609
100
AcDbEntity
  8
Defpoints
 62
     0
100
AcDbPoint
 10
106.7857801082853
 20
138.541472833999
 30
0.0
  0
POINT
  5
164E
330
1609
100
AcDbEntity
  8
Defpoints
 62
     0
100
AcDbPoint
 10
112.7857801082853
 20
138.541472833999
 30
0.0
  0
POINT
  5
164F
330
1609
100
AcDbEntity
  8
Defpoints
 62
     0
100
AcDbPoint
 10
112.7857801082853
 20
130.5529511875374
 30
0.0
  0
ENDBLK
  5
1616
330
1609
100
AcDbEntity
  8
0
100
AcDbBlockEnd
  0
BLOCK
  5
1622
330
1618
100
AcDbEntity
  8
0
100
AcDbBlockBegin
  2
*D57
 70
     1
 10
0.0
 20
0.0
 30
0.0
  3
*D57
  1

  0
LINE
  5
1619
330
1618
100
AcDbEntity
  8
0
 62
     0
370
    -2
100
AcDbLine
 10
100.0857801082853
 20
168.041472833999
 30
0.0
 11
83.02836783495742
 21
168.041472833999
 31
0.0
  0
LINE
  5
161A
330
1618
100
AcDbEntity
  8
0
 62
     0
370
    -2
100
AcDbLine
 10
103.5857801082853
 20
138.541472833999
 30
0.0
 11
83.0283678349574
 21
138.541472833999
 31
0.0
  0
LINE
  5
161B
330
1618
100
AcDbEntity
  8
0
 62
     0
370
    -2
100
AcDbLine
 10
84.02836783495741
 20
165.041472833999
 30
0.0
 11
84.02836783495741
 21
141.541472833999
 31
0.0
  0
SOLID
  5
161C
330
1618
100
AcDbEntity
  8
0
 62
     0
100
AcDbTrace
 10
83.52836783495742
 20
165.041472833999
 30
0.0
 11
84.52836783495742
 21
165.041472833999
 31
0.0
 12
84.02836783495741
 22
168.041472833999
 32
0.0
 13
84.02836783495741
 23
168.041472833999
 33
0.0
  0
SOLID
  5
161D
330
1618
100
AcDbEntity
  8
0
 62
     0
100
AcDbTrace
 10
83.52836783495741
 20
141.541472833999
 30
0.0
 11
84.5283678349574
 21
141.541472833999
 31
0.0
 12
84.02836783495741
 22
138.541472833999
 32
0.0
 13
84.02836783495741
 23
138.541472833999
 33
0.0
  0
MTEXT
  5
161E
330
1618
100
AcDbEntity
  8
0
 62
     0
100
AcDbMText
 10
80.46270116829072
 20
153.291472833999
 30
0.0
 40
3.5
 41
0.0
 71
     5
 72
     1
  1
29,50
 11
0.0000000000000001
 21
1.0
 31
0.0
 73
     1
 44
1.0
1001
ACAD
1000
MTEXTBEGIN
1070
    73
1070
     1
1070
    44
1040
1.0
1070
    74
1070
     0
1000
MTEXTEND
  0
POINT
  5
161F
330
1618
100
AcDbEntity
  8
Defpoints
 62
     0
100
AcDbPoint
 10
101.0857801082853
 20
168.041472833999
 30
0.0
  0
POINT
  5
1620
330
1618
100
AcDbEntity
  8
Defpoints
 62
     0
100
AcDbPoint
 10
104.5857801082853
 20
138.541472833999
 30
0.0
  0
POINT
  5
1621
330
1618
100
AcDbEntity
  8
Defpoints
 62
     0
100
AcDbPoint
 10
84.02836783495741
 20
138.541472833999
 30
0.0
  0
ENDBLK
  5
1623
330
1618
100
AcDbEntity
  8
0
100
AcDbBlockEnd
  0
BLOCK
  5
16F4
330
16E8
100
AcDbEntity
  8
0
100
AcDbBlockBegin
  2
*D58
 70
     1
 10
0.0
 20
0.0
 30
0.0
  3
*D58
  1

  0
LINE
  5
16E9
330
16E8
100
AcDbEntity
  8
0
 62
     0
370
    -2
100
AcDbLine
 10
101.2790177813154
 20
144.2535173555654
 30
0.0
 11
101.2790177813154
 21
137.7885259730042
 31
0.0
  0
LINE
  5
16EA
330
16E8
100
AcDbEntity
  8
0
 62
     0
370
    -2
100
AcDbLine
 10
106.2790177813543
 20
144.2535173556043
 30
0.0
 11
106.2790177813543
 21
137.7885259730042
 31
0.0
  0
LINE
  5
16EB
330
16E8
100
AcDbEntity
  8
0
 62
     0
370
    -2
100
AcDbLine
 10
98.27901778131547
 20
138.7885259730042
 30
0.0
 11
95.27901778131548
 21
138.7885259730042
 31
0.0
  0
LINE
  5
16EC
330
16E8
100
AcDbEntity
  8
0
 62
     0
370
    -2
100
AcDbLine
 10
109.2790177813543
 20
138.7885259730042
 30
0.0
 11
125.243684448021
 21
138.7885259730042
 31
0.0
  0
LINE
  5
16ED
330
16E8
100
AcDbEntity
  8
0
 62
     0
370
    -2
100
AcDbLine
 10
101.2790177813154
 20
138.7885259730042
 30
0.0
 11
106.2790177813543
 21
138.7885259730042
 31
0.0
  0
SOLID
  5
16EE
330
16E8
100
AcDbEntity
  8
0
 62
     0
100
AcDbTrace
 10
98.27901778131547
 20
139.2885259730042
 30
0.0
 11
98.27901778131547
 21
138.2885259730042
 31
0.0
 12
101.2790177813154
 22
138.7885259730042
 32
0.0
 13
101.2790177813154
 23
138.7885259730042
 33
0.0
  0
SOLID
  5
16EF
330
16E8
100
AcDbEntity
  8
0
 62
     0
100
AcDbTrace
 10
109.2790177813543
 20
139.2885259730042
 30
0.0
 11
109.2790177813543
 21
138.2885259730042
 31
0.0
 12
106.2790177813543
 22
138.7885259730042
 32
0.0
 13
106.2790177813543
 23
138.7885259730042
 33
0.0
  0
MTEXT
  5
16F0
330
16E8
100
AcDbEntity
  8
0
 62
     0
100
AcDbMText
 10
118.7613511146876
 20
142.3541926396708
 30
0.0
 40
3.5
 41
0.0
 71
     5
 72
     1
  1
5,00
 73
     1
 44
1.0
1001
ACAD
1000
MTEXTBEGIN
1070
    73
1070
     1
1070
    44
1040
1.0
1070
    74
1070
     0
1000
MTEXTEND
  0
POINT
  5
16F1
330
16E8
100
AcDbEntity
  8
Defpoints
 62
     0
100
AcDbPoint
 10
101.2790177813154
 20
145.2535173555654
 30
0.0
  0
POINT
  5
16F2
330
16E8
100
AcDbEntity
  8
Defpoints
 62
     0
100
AcDbPoint
 10
106.2790177813543
 20
145.2535173556043
 30
0.0
  0
POINT
  5
16F3
330
16E8
100
AcDbEntity
  8
Defpoints
 62
     0
100
AcDbPoint
 10
106.2790177813543
 20
138.7885259730042
 30
0.0
  0
ENDBLK
  5
16F5
330
16E8
100
AcDbEntity
  8
0
100
AcDbBlockEnd
  0
BLOCK
  5
1705
330
16FA
100
AcDbEntity
  8
0
100
AcDbBlockBegin
  2
*D59
 70
     1
 10
0.0
 20
0.0
 30
0.0
  3
*D59
  1

  0
LINE
  5
16FB
330
16FA
100
AcDbEntity
  8
0
 62
     0
370
    -2
100
AcDbLine
 10
100.5290177813154
 20
145.0035173555654
 30
0.0
 11
80.99340074859673
 21
145.0035173555654
 31
0.0
  0
LINE
  5
16FC
330
16FA
100
AcDbEntity
  8
0
 62
     0
370
    -2
100
AcDbLine
 10
99.27901778138279
 20
160.0035173556043
 30
0.0
 11
80.99340074859675
 21
160.0035173556043
 31
0.0
  0
LINE
  5
16FD
330
16FA
100
AcDbEntity
  8
0
 62
     0
370
    -2
100
AcDbLine
 10
81.99340074859675
 20
148.0035173555654
 30
0.0
 11
81.99340074859675
 21
157.0035173556043
 31
0.0
  0
LINE
  5
16FE
330
16FA
100
AcDbEntity
  8
0
 62
     0
370
    -2
100
AcDbLine
 10
81.99340074859675
 20
160.0035173556043
 30
0.0
 11
81.99340074859675
 21
178.3015173556043
 31
0.0
  0
SOLID
  5
16FF
330
16FA
100
AcDbEntity
  8
0
 62
     0
100
AcDbTrace
 10
81.49340074859674
 20
148.0035173555654
 30
0.0
 11
82.49340074859674
 21
148.0035173555654
 31
0.0
 12
81.99340074859675
 22
145.0035173555654
 32
0.0
 13
81.99340074859675
 23
145.0035173555654
 33
0.0
  0
SOLID
  5
1700
330
16FA
100
AcDbEntity
  8
0
 62
     0
100
AcDbTrace
 10
81.49340074859674
 20
157.0035173556043
 30
0.0
 11
82.49340074859674
 21
157.0035173556043
 31
0.0
 12
81.99340074859675
 22
160.0035173556043
 32
0.0
 13
81.99340074859675
 23
160.0035173556043
 33
0.0
  0
MTEXT
  5
1701
330
16FA
100
AcDbEntity
  8
0
 62
     0
100
AcDbMText
 10
78.42773408193004
 20
170.6525173556043
 30
0.0
 40
3.5
 41
0.0
 71
     5
 72
     1
  1
15,00
 11
0.0000000000000001
 21
1.0
 31
0.0
 73
     1
 44
1.0
1001
ACAD
1000
MTEXTBEGIN
1070
    73
1070
     1
1070
    44
1040
1.0
1070
    74
1070
     0
1000
MTEXTEND
  0
POINT
  5
1702
330
16FA
100
AcDbEntity
  8
Defpoints
 62
     0
100
AcDbPoint
 10
101.5290177813154
 20
145.0035173555654
 30
0.0
  0
POINT
  5
1703
330
16FA
100
AcDbEntity
  8
Defpoints
 62
     0
100
AcDbPoint
 10
100.2790177813828
 20
160.0035173556043
 30
0.0
  0
POINT
  5
1704
330
16FA
100
AcDbEntity
  8
Defpoints
 62
     0
100
AcDbPoint
 10
81.99340074859675
 20
160.0035173556043
 30
0.0
  0
ENDBLK
  5
1706
330
16FA
100
AcDbEntity
  8
0
100
AcDbBlockEnd
  0
BLOCK
  5
1712
330
1708
100
AcDbEntity
  8
0
100
AcDbBlockBegin
  2
*D60
 70
     1
 10
0.0
 20
0.0
 30
0.0
  3
*D60
  1

  0
LINE
  5
1709
330
1708
100
AcDbEntity
  8
0
 62
     0
370
    -2
100
AcDbLine
 10
99.73756589698588
 20
160.6909099643945
 30
0.0
 11
99.73756589698588
 21
173.5967548443996
 31
0.0
  0
LINE
  5
170A
330
1708
100
AcDbEntity
  8
0
 62
     0
370
    -2
100
AcDbLine
 10
115.7790177812859
 20
155.7535173556043
 30
0.0
 11
115.7790177812859
 21
173.5967548443996
 31
0.0
  0
LINE
  5
170B
330
1708
100
AcDbEntity
  8
0
 62
     0
370
    -2
100
AcDbLine
 10
102.7375658969859
 20
172.5967548443995
 30
0.0
 11
112.7790177812859
 21
172.5967548443995
 31
0.0
  0
SOLID
  5
170C
330
1708
100
AcDbEntity
  8
0
 62
     0
100
AcDbTrace
 10
102.7375658969859
 20
173.0967548443996
 30
0.0
 11
102.7375658969859
 21
172.0967548443996
 31
0.0
 12
99.73756589698588
 22
172.5967548443995
 32
0.0
 13
99.73756589698588
 23
172.5967548443995
 33
0.0
  0
SOLID
  5
170D
330
1708
100
AcDbEntity
  8
0
 62
     0
100
AcDbTrace
 10
112.7790177812859
 20
173.0967548443996
 30
0.0
 11
112.7790177812859
 21
172.0967548443996
 31
0.0
 12
115.7790177812859
 22
172.5967548443995
 32
0.0
 13
115.7790177812859
 23
172.5967548443995
 33
0.0
  0
MTEXT
  5
170E
330
1708
100
AcDbEntity
  8
0
 62
     0
100
AcDbMText
 10
107.7582918391359
 20
176.1624215110661
 30
0.0
 40
3.5
 41
0.0
 71
     5
 72
     1
  1
16,04
 73
     1
 44
1.0
1001
ACAD
1000
MTEXTBEGIN
1070
    73
1070
     1
1070
    44
1040
1.0
1070
    74
1070
     0
1000
MTEXTEND
  0
POINT
  5
170F
330
1708
100
AcDbEntity
  8
Defpoints
 62
     0
100
AcDbPoint
 10
99.73756589698588
 20
159.6909099643945
 30
0.0
  0
POINT
  5
1710
330
1708
100
AcDbEntity
  8
Defpoints
 62
     0
100
AcDbPoint
 10
115.7790177812859
 20
154.7535173556043
 30
0.0
  0
POINT
  5
1711
330
1708
100
AcDbEntity
  8
Defpoints
 62
     0
100
AcDbPoint
 10
115.7790177812859
 20
172.5967548443995
 30
0.0
  0
ENDBLK
  5
1713
330
1708
100
AcDbEntity
  8
0
100
AcDbBlockEnd
  0
BLOCK
  5
1724
330
1718
100
AcDbEntity
  8
0
100
AcDbBlockBegin
  2
*D61
 70
     1
 10
0.0
 20
0.0
 30
0.0
  3
*D61
  1

  0
LINE
  5
1731
330
1718
100
AcDbEntity
  8
0
 62
     0
370
    -2
100
AcDbLine
 10
116.2790177812859
 20
155.5035173556043
 30
0.0
 11
131.7876164136105
 21
155.5035173556043
 31
0.0
  0
LINE
  5
1732
330
1718
100
AcDbEntity
  8
0
 62
     0
370
    -2
100
AcDbLine
 10
116.2790177812859
 20
151.5035173556043
 30
0.0
 11
131.7876164136105
 21
151.5035173556043
 31
0.0
  0
LINE
  5
1733
330
1718
100
AcDbEntity
  8
0
 62
     0
370
    -2
100
AcDbLine
 10
130.7876164136105
 20
148.5035173556043
 30
0.0
 11
130.7876164136105
 21
145.5035173556043
 31
0.0
  0
LINE
  5
1734
330
1718
100
AcDbEntity
  8
0
 62
     0
370
    -2
100
AcDbLine
 10
130.7876164136105
 20
158.5035173556043
 30
0.0
 11
130.7876164136105
 21
177.9681840222709
 31
0.0
  0
LINE
  5
1735
330
1718
100
AcDbEntity
  8
0
 62
     0
370
    -2
100
AcDbLine
 10
130.7876164136105
 20
151.5035173556043
 30
0.0
 11
130.7876164136105
 21
155.5035173556043
 31
0.0
  0
SOLID
  5
1736
330
1718
100
AcDbEntity
  8
0
 62
     0
100
AcDbTrace
 10
130.2876164136105
 20
148.5035173556043
 30
0.0
 11
131.2876164136105
 21
148.5035173556043
 31
0.0
 12
130.7876164136105
 22
151.5035173556043
 32
0.0
 13
130.7876164136105
 23
151.5035173556043
 33
0.0
  0
SOLID
  5
1737
330
1718
100
AcDbEntity
  8
0
 62
     0
100
AcDbTrace
 10
130.2876164136105
 20
158.5035173556043
 30
0.0
 11
131.2876164136105
 21
158.5035173556043
 31
0.0
 12
130.7876164136105
 22
155.5035173556043
 32
0.0
 13
130.7876164136105
 23
155.5035173556043
 33
0.0
  0
MTEXT
  5
1738
330
1718
100
AcDbEntity
  8
0
 62
     0
100
AcDbMText
 10
127.2219497469438
 20
169.7358506889375
 30
0.0
 40
3.5
 41
0.0
 71
     5
 72
     1
  1
%%c4,00
 11
0.0000000000000001
 21
1.0
 31
0.0
 73
     1
 44
1.0
1001
ACAD
1000
MTEXTBEGIN
1070
    73
1070
     1
1070
    44
1040
1.0
1070
    74
1070
     0
1000
MTEXTEND
  0
POINT
  5
1739
330
1718
100
AcDbEntity
  8
Defpoints
 62
     0
100
AcDbPoint
 10
115.2790177812859
 20
155.5035173556043
 30
0.0
  0
POINT
  5
173A
330
1718
100
AcDbEntity
  8
Defpoints
 62
     0
100
AcDbPoint
 10
115.2790177812859
 20
151.5035173556043
 30
0.0
  0
POINT
  5
173B
330
1718
100
AcDbEntity
  8
Defpoints
 62
     0
100
AcDbPoint
 10
130.7876164136105
 20
151.5035173556043
 30
0.0
  0
ENDBLK
  5
1725
330
1718
100
AcDbEntity
  8
0
100
AcDbBlockEnd
  0
BLOCK
  5
17CC
330
17C1
100
AcDbEntity
  8
0
100
AcDbBlockBegin
  2
*D62
 70
     1
 10
0.0
 20
0.0
 30
0.0
  3
*D62
  1

  0
LINE
  5
17C2
330
17C1
100
AcDbEntity
  8
0
 62
     0
370
    -2
100
AcDbLine
 10
102.4332154130034
 20
161.6663193243135
 30
0.0
 11
102.4332154130034
 21
175.1288566730886
 31
0.0
  0
LINE
  5
17C3
330
17C1
100
AcDbEntity
  8
0
 62
     0
370
    -2
100
AcDbLine
 10
115.4332154130034
 20
161.6663193243135
 30
0.0
 11
115.4332154130034
 21
175.1288566730886
 31
0.0
  0
LINE
  5
17C4
330
17C1
100
AcDbEntity
  8
0
 62
     0
370
    -2
100
AcDbLine
 10
105.4332154130035
 20
174.1288566730886
 30
0.0
 11
112.4332154130034
 21
174.1288566730886
 31
0.0
  0
LINE
  5
17C5
330
17C1
100
AcDbEntity
  8
0
 62
     0
370
    -2
100
AcDbLine
 10
115.4332154130034
 20
174.1288566730886
 30
0.0
 11
133.7312154130035
 21
174.1288566730886
 31
0.0
  0
SOLID
  5
17C6
330
17C1
100
AcDbEntity
  8
0
 62
     0
100
AcDbTrace
 10
105.4332154130035
 20
174.6288566730886
 30
0.0
 11
105.4332154130035
 21
173.6288566730886
 31
0.0
 12
102.4332154130034
 22
174.1288566730886
 32
0.0
 13
102.4332154130034
 23
174.1288566730886
 33
0.0
  0
SOLID
  5
17C7
330
17C1
100
AcDbEntity
  8
0
 62
     0
100
AcDbTrace
 10
112.4332154130034
 20
174.6288566730886
 30
0.0
 11
112.4332154130034
 21
173.6288566730886
 31
0.0
 12
115.4332154130034
 22
174.1288566730886
 32
0.0
 13
115.4332154130034
 23
174.1288566730886
 33
0.0
  0
MTEXT
  5
17C8
330
17C1
100
AcDbEntity
  8
0
 62
     0
100
AcDbMText
 10
126.0822154130034
 20
177.6945233397553
 30
0.0
 40
3.5
 41
0.0
 71
     5
 72
     1
  1
13,00
 73
     1
 44
1.0
1001
ACAD
1000
MTEXTBEGIN
1070
    73
1070
     1
1070
    44
1040
1.0
1070
    74
1070
     0
1000
MTEXTEND
  0
POINT
  5
17C9
330
17C1
100
AcDbEntity
  8
Defpoints
 62
     0
100
AcDbPoint
 10
102.4332154130034
 20
160.6663193243135
 30
0.0
  0
POINT
  5
17CA
330
17C1
100
AcDbEntity
  8
Defpoints
 62
     0
100
AcDbPoint
 10
115.4332154130034
 20
160.6663193243135
 30
0.0
  0
POINT
  5
17CB
330
17C1
100
AcDbEntity
  8
Defpoints
 62
     0
100
AcDbPoint
 10
115.4332154130034
 20
174.1288566730886
 30
0.0
  0
ENDBLK
  5
17CD
330
17C1
100
AcDbEntity
  8
0
100
AcDbBlockEnd
  0
BLOCK
  5
17DD
330
17D2
100
AcDbEntity
  8
0
100
AcDbBlockBegin
  2
*D63
 70
     1
 10
0.0
 20
0.0
 30
0.0
  3
*D63
  1

  0
LINE
  5
17D3
330
17D2
100
AcDbEntity
  8
0
 62
     0
370
    -2
100
AcDbLine
 10
105.4332154129769
 20
150.2913193243422
 30
0.0
 11
91.9742282873085
 21
150.2913193243422
 31
0.0
  0
LINE
  5
17D4
330
17D2
100
AcDbEntity
  8
0
 62
     0
370
    -2
100
AcDbLine
 10
94.627349447107
 20
137.0396819405837
 30
0.0
 11
91.9742282873085
 21
137.0396819405837
 31
0.0
  0
LINE
  5
17D5
330
17D2
100
AcDbEntity
  8
0
 62
     0
370
    -2
100
AcDbLine
 10
92.9742282873085
 20
147.2913193243422
 30
0.0
 11
92.9742282873085
 21
140.0396819405837
 31
0.0
  0
LINE
  5
17D6
330
17D2
100
AcDbEntity
  8
0
 62
     0
370
    -2
100
AcDbLine
 10
92.9742282873085
 20
137.0396819405837
 30
0.0
 11
92.9742282873085
 21
117.575015273917
 31
0.0
  0
SOLID
  5
17D7
330
17D2
100
AcDbEntity
  8
0
 62
     0
100
AcDbTrace
 10
92.47422828730853
 20
147.2913193243422
 30
0.0
 11
93.4742282873085
 21
147.2913193243422
 31
0.0
 12
92.9742282873085
 22
150.2913193243422
 32
0.0
 13
92.9742282873085
 23
150.2913193243422
 33
0.0
  0
SOLID
  5
17D8
330
17D2
100
AcDbEntity
  8
0
 62
     0
100
AcDbTrace
 10
92.47422828730853
 20
140.0396819405837
 30
0.0
 11
93.4742282873085
 21
140.0396819405837
 31
0.0
 12
92.9742282873085
 22
137.0396819405837
 32
0.0
 13
92.9742282873085
 23
137.0396819405837
 33
0.0
  0
MTEXT
  5
17D9
330
17D2
100
AcDbEntity
  8
0
 62
     0
100
AcDbMText
 10
89.4085616206418
 20
125.8073486072504
 30
0.0
 40
3.5
 41
0.0
 71
     5
 72
     1
  1
13,25
 11
0.0000000000000001
 21
1.0
 31
0.0
 73
     1
 44
1.0
1001
ACAD
1000
MTEXTBEGIN
1070
    73
1070
     1
1070
    44
1040
1.0
1070
    74
1070
     0
1000
MTEXTEND
  0
POINT
  5
17DA
330
17D2
100
AcDbEntity
  8
Defpoints
 62
     0
100
AcDbPoint
 10
106.4332154129769
 20
150.2913193243422
 30
0.0
  0
POINT
  5
17DB
330
17D2
100
AcDbEntity
  8
Defpoints
 62
     0
100
AcDbPoint
 10
95.62734944710699
 20
137.0396819405837
 30
0.0
  0
POINT
  5
17DC
330
17D2
100
AcDbEntity
  8
Defpoints
 62
     0
100
AcDbPoint
 10
92.9742282873085
 20
137.0396819405837
 30
0.0
  0
ENDBLK
  5
17DE
330
17D2
100
AcDbEntity
  8
0
100
AcDbBlockEnd
  0
BLOCK
  5
1872
330
1866
100
AcDbEntity
  8
0
100
AcDbBlockBegin
  2
*D64
 70
     1
 10
0.0
 20
0.0
 30
0.0
  3
*D64
  1

  0
LINE
  5
1880
330
1866
100
AcDbEntity
  8
0
 62
     0
370
    -2
100
AcDbLine
 10
109.8613814053596
 20
157.5413572954579
 30
0.0
 11
129.1025920376587
 21
157.5413572954579
 31
0.0
  0
LINE
  5
1881
330
1866
100
AcDbEntity
  8
0
 62
     0
370
    -2
100
AcDbLine
 10
109.8613814053596
 20
153.5413572954579
 30
0.0
 11
129.1025920376587
 21
153.5413572954579
 31
0.0
  0
LINE
  5
1882
330
1866
100
AcDbEntity
  8
0
 62
     0
370
    -2
100
AcDbLine
 10
128.1025920376587
 20
150.5413572954578
 30
0.0
 11
128.1025920376587
 21
147.5413572954579
 31
0.0
  0
LINE
  5
1883
330
1866
100
AcDbEntity
  8
0
 62
     0
370
    -2
100
AcDbLine
 10
128.1025920376587
 20
160.5413572954579
 30
0.0
 11
128.1025920376587
 21
180.0060239621246
 31
0.0
  0
LINE
  5
1884
330
1866
100
AcDbEntity
  8
0
 62
     0
370
    -2
100
AcDbLine
 10
128.1025920376587
 20
153.5413572954579
 30
0.0
 11
128.1025920376587
 21
157.5413572954579
 31
0.0
  0
SOLID
  5
1885
330
1866
100
AcDbEntity
  8
0
 62
     0
100
AcDbTrace
 10
127.6025920376587
 20
150.5413572954578
 30
0.0
 11
128.6025920376587
 21
150.5413572954578
 31
0.0
 12
128.1025920376587
 22
153.5413572954579
 32
0.0
 13
128.1025920376587
 23
153.5413572954579
 33
0.0
  0
SOLID
  5
1886
330
1866
100
AcDbEntity
  8
0
 62
     0
100
AcDbTrace
 10
127.6025920376588
 20
160.5413572954579
 30
0.0
 11
128.6025920376587
 21
160.5413572954579
 31
0.0
 12
128.1025920376587
 22
157.5413572954579
 32
0.0
 13
128.1025920376587
 23
157.5413572954579
 33
0.0
  0
MTEXT
  5
1887
330
1866
100
AcDbEntity
  8
0
 62
     0
100
AcDbMText
 10
124.536925370992
 20
171.7736906287913
 30
0.0
 40
3.5
 41
0.0
 71
     5
 72
     1
  1
%%C4,00
 11
0.0000000000000001
 21
1.0
 31
0.0
 73
     1
 44
1.0
1001
ACAD
1000
MTEXTBEGIN
1070
    73
1070
     1
1070
    44
1040
1.0
1070
    74
1070
     0
1000
MTEXTEND
  0
POINT
  5
1888
330
1866
100
AcDbEntity
  8
Defpoints
 62
     0
100
AcDbPoint
 10
108.8613814053596
 20
157.5413572954579
 30
0.0
  0
POINT
  5
1889
330
1866
100
AcDbEntity
  8
Defpoints
 62
     0
100
AcDbPoint
 10
108.8613814053596
 20
153.5413572954579
 30
0.0
  0
POINT
  5
188A
330
1866
100
AcDbEntity
  8
Defpoints
 62
     0
100
AcDbPoint
 10
128.1025920376587
 20
153.5413572954579
 30
0.0
  0
ENDBLK
  5
1873
330
1866
100
AcDbEntity
  8
0
100
AcDbBlockEnd
  0
BLOCK
  5
1897
330
188C
100
AcDbEntity
  8
0
100
AcDbBlockBegin
  2
*D65
 70
     1
 10
0.0
 20
0.0
 30
0.0
  3
*D65
  1

  0
LINE
  5
18FB
330
188C
100
AcDbEntity
  8
0
 62
     0
370
    -2
100
AcDbLine
 10
100.5613814053596
 20
160.5413572954079
 30
0.0
 11
100.5613814053596
 21
171.6178917117852
 31
0.0
  0
LINE
  5
18FC
330
188C
100
AcDbEntity
  8
0
 62
     0
370
    -2
100
AcDbLine
 10
113.861381405333
 20
157.6913572954367
 30
0.0
 11
113.861381405333
 21
171.6178917117852
 31
0.0
  0
LINE
  5
18FD
330
188C
100
AcDbEntity
  8
0
 62
     0
370
    -2
100
AcDbLine
 10
110.861381405333
 20
170.6178917117852
 30
0.0
 11
103.5613814053596
 21
170.6178917117852
 31
0.0
  0
LINE
  5
18FE
330
188C
100
AcDbEntity
  8
0
 62
     0
370
    -2
100
AcDbLine
 10
100.5613814053596
 20
170.6178917117852
 30
0.0
 11
79.56176733739043
 21
170.6178917117852
 31
0.0
  0
SOLID
  5
18FF
330
188C
100
AcDbEntity
  8
0
 62
     0
100
AcDbTrace
 10
110.861381405333
 20
171.1178917117852
 30
0.0
 11
110.861381405333
 21
170.1178917117851
 31
0.0
 12
113.861381405333
 22
170.6178917117852
 32
0.0
 13
113.861381405333
 23
170.6178917117852
 33
0.0
  0
SOLID
  5
1900
330
188C
100
AcDbEntity
  8
0
 62
     0
100
AcDbTrace
 10
103.5613814053596
 20
171.1178917117852
 30
0.0
 11
103.5613814053596
 21
170.1178917117851
 31
0.0
 12
100.5613814053596
 22
170.6178917117852
 32
0.0
 13
100.5613814053596
 23
170.6178917117852
 33
0.0
  0
MTEXT
  5
1901
330
188C
100
AcDbEntity
  8
0
 62
     0
100
AcDbMText
 10
86.04410067072377
 20
174.1835583784518
 30
0.0
 40
3.5
 41
0.0
 71
     5
 72
     1
  1
13,3
 73
     1
 44
1.0
1001
ACAD
1000
MTEXTBEGIN
1070
    73
1070
     1
1070
    44
1040
1.0
1070
    74
1070
     0
1000
MTEXTEND
  0
POINT
  5
1902
330
188C
100
AcDbEntity
  8
Defpoints
 62
     0
100
AcDbPoint
 10
100.5613814053596
 20
159.5413572954079
 30
0.0
  0
POINT
  5
1903
330
188C
100
AcDbEntity
  8
Defpoints
 62
     0
100
AcDbPoint
 10
113.861381405333
 20
156.6913572954367
 30
0.0
  0
POINT
  5
1904
330
188C
100
AcDbEntity
  8
Defpoints
 62
     0
100
AcDbPoint
 10
113.861381405333
 20
170.6178917117852
 30
0.0
  0
ENDBLK
  5
1898
330
188C
100
AcDbEntity
  8
0
100
AcDbBlockEnd
  0
BLOCK
  5
18DF
330
18D3
100
AcDbEntity
  8
0
100
AcDbBlockBegin
  2
*D66
 70
     1
 10
0.0
 20
0.0
 30
0.0
  3
*D66
  1

  0
LINE
  5
18D4
330
18D3
100
AcDbEntity
  8
0
 62
     0
370
    -2
100
AcDbLine
 10
112.7613814053596
 20
157.2413572954079
 30
0.0
 11
136.0322692334423
 21
157.2413572954079
 31
0.0
  0
LINE
  5
18D5
330
18D3
100
AcDbEntity
  8
0
 62
     0
370
    -2
100
AcDbLine
 10
112.7613814053596
 20
153.8413572954489
 30
0.0
 11
136.0322692334423
 21
153.8413572954489
 31
0.0
  0
LINE
  5
18D6
330
18D3
100
AcDbEntity
  8
0
 62
     0
370
    -2
100
AcDbLine
 10
135.0322692334423
 20
160.2413572954079
 30
0.0
 11
135.0322692334423
 21
163.2413572954079
 31
0.0
  0
LINE
  5
18D7
330
18D3
100
AcDbEntity
  8
0
 62
     0
370
    -2
100
AcDbLine
 10
135.0322692334423
 20
150.8413572954489
 30
0.0
 11
135.0322692334423
 21
134.2933572954489
 31
0.0
  0
LINE
  5
18D8
330
18D3
100
AcDbEntity
  8
0
 62
     0
370
    -2
100
AcDbLine
 10
135.0322692334423
 20
157.2413572954079
 30
0.0
 11
135.0322692334423
 21
153.8413572954489
 31
0.0
  0
SOLID
  5
18D9
330
18D3
100
AcDbEntity
  8
0
 62
     0
100
AcDbTrace
 10
134.5322692334423
 20
160.2413572954079
 30
0.0
 11
135.5322692334423
 21
160.2413572954079
 31
0.0
 12
135.0322692334423
 22
157.2413572954079
 32
0.0
 13
135.0322692334423
 23
157.2413572954079
 33
0.0
  0
SOLID
  5
18DA
330
18D3
100
AcDbEntity
  8
0
 62
     0
100
AcDbTrace
 10
134.5322692334423
 20
150.8413572954489
 30
0.0
 11
135.5322692334423
 21
150.8413572954489
 31
0.0
 12
135.0322692334423
 22
153.8413572954489
 32
0.0
 13
135.0322692334423
 23
153.8413572954489
 33
0.0
  0
MTEXT
  5
18DB
330
18D3
100
AcDbEntity
  8
0
 62
     0
100
AcDbMText
 10
131.4666025667756
 20
141.0673572954489
 30
0.0
 40
3.5
 41
0.0
 71
     5
 72
     1
  1
3,40
 11
0.0000000000000001
 21
1.0
 31
0.0
 73
     1
 44
1.0
1001
ACAD
1000
MTEXTBEGIN
1070
    73
1070
     1
1070
    44
1040
1.0
1070
    74
1070
     0
1000
MTEXTEND
  0
POINT
  5
18DC
330
18D3
100
AcDbEntity
  8
Defpoints
 62
     0
100
AcDbPoint
 10
111.7613814053596
 20
157.2413572954079
 30
0.0
  0
POINT
  5
18DD
330
18D3
100
AcDbEntity
  8
Defpoints
 62
     0
100
AcDbPoint
 10
111.7613814053596
 20
153.8413572954489
 30
0.0
  0
POINT
  5
18DE
330
18D3
100
AcDbEntity
  8
Defpoints
 62
     0
100
AcDbPoint
 10
135.0322692334423
 20
153.8413572954489
 30
0.0
  0
ENDBLK
  5
18E0
330
18D3
100
AcDbEntity
  8
0
100
AcDbBlockEnd
  0
BLOCK
  5
18EE
330
18E2
100
AcDbEntity
  8
0
100
AcDbBlockBegin
  2
*D67
 70
     1
 10
0.0
 20
0.0
 30
0.0
  3
*D67
  1

  0
LINE
  5
1905
330
18E2
100
AcDbEntity
  8
0
 62
     0
370
    -2
100
AcDbLine
 10
112.7613814053596
 20
153.8413572954079
 30
0.0
 11
130.2149997917931
 21
153.8413572954079
 31
0.0
  0
LINE
  5
1906
330
18E2
100
AcDbEntity
  8
0
 62
     0
370
    -2
100
AcDbLine
 10
112.761381405333
 20
157.2413572954365
 30
0.0
 11
130.2149997917931
 21
157.2413572954365
 31
0.0
  0
LINE
  5
1907
330
18E2
100
AcDbEntity
  8
0
 62
     0
370
    -2
100
AcDbLine
 10
129.2149997917931
 20
150.8413572954079
 30
0.0
 11
129.2149997917931
 21
147.8413572954079
 31
0.0
  0
LINE
  5
1908
330
18E2
100
AcDbEntity
  8
0
 62
     0
370
    -2
100
AcDbLine
 10
129.2149997917931
 20
160.2413572954366
 30
0.0
 11
129.2149997917931
 21
177.3726906287699
 31
0.0
  0
LINE
  5
1909
330
18E2
100
AcDbEntity
  8
0
 62
     0
370
    -2
100
AcDbLine
 10
129.2149997917931
 20
153.8413572954079
 30
0.0
 11
129.2149997917931
 21
157.2413572954365
 31
0.0
  0
SOLID
  5
190A
330
18E2
100
AcDbEntity
  8
0
 62
     0
100
AcDbTrace
 10
128.7149997917931
 20
150.8413572954079
 30
0.0
 11
129.7149997917931
 21
150.8413572954079
 31
0.0
 12
129.2149997917931
 22
153.8413572954079
 32
0.0
 13
129.2149997917931
 23
153.8413572954079
 33
0.0
  0
SOLID
  5
190B
330
18E2
100
AcDbEntity
  8
0
 62
     0
100
AcDbTrace
 10
128.7149997917931
 20
160.2413572954366
 30
0.0
 11
129.7149997917931
 21
160.2413572954366
 31
0.0
 12
129.2149997917931
 22
157.2413572954365
 32
0.0
 13
129.2149997917931
 23
157.2413572954365
 33
0.0
  0
MTEXT
  5
190C
330
18E2
100
AcDbEntity
  8
0
 62
     0
100
AcDbMText
 10
125.6493331251264
 20
170.3070239621032
 30
0.0
 40
3.5
 41
0.0
 71
     5
 72
     1
  1
%%c3,4
 11
0.0000000000000001
 21
1.0
 31
0.0
 73
     1
 44
1.0
1001
ACAD
1000
MTEXTBEGIN
1070
    73
1070
     1
1070
    44
1040
1.0
1070
    74
1070
     0
1000
MTEXTEND
  0
POINT
  5
190D
330
18E2
100
AcDbEntity
  8
Defpoints
 62
     0
100
AcDbPoint
 10
111.7613814053596
 20
153.8413572954079
 30
0.0
  0
POINT
  5
190E
330
18E2
100
AcDbEntity
  8
Defpoints
 62
     0
100
AcDbPoint
 10
111.761381405333
 20
157.2413572954365
 30
0.0
  0
POINT
  5
190F
330
18E2
100
AcDbEntity
  8
Defpoints
 62
     0
100
AcDbPoint
 10
129.2149997917931
 20
157.2413572954365
 30
0.0
  0
ENDBLK
  5
18EF
330
18E2
100
AcDbEntity
  8
0
100
AcDbBlockEnd
  0
BLOCK
  5
192B
330
1920
100
AcDbEntity
  8
0
100
AcDbBlockBegin
  2
*D68
 70
     1
 10
0.0
 20
0.0
 30
0.0
  3
*D68
  1

  0
LINE
  5
1921
330
1920
100
AcDbEntity
  8
0
 62
     0
370
    -2
100
AcDbLine
 10
100.0613814053596
 20
159.6413572954079
 30
0.0
 11
92.49850335776022
 21
159.6413572954079
 31
0.0
  0
LINE
  5
1922
330
1920
100
AcDbEntity
  8
0
 62
     0
370
    -2
100
AcDbLine
 10
101.3113814053596
 20
148.0413572954079
 30
0.0
 11
92.49850335776022
 21
148.0413572954079
 31
0.0
  0
LINE
  5
1923
330
1920
100
AcDbEntity
  8
0
 62
     0
370
    -2
100
AcDbLine
 10
93.49850335776023
 20
156.6413572954079
 30
0.0
 11
93.49850335776023
 21
151.0413572954079
 31
0.0
  0
LINE
  5
1924
330
1920
100
AcDbEntity
  8
0
 62
     0
370
    -2
100
AcDbLine
 10
93.49850335776023
 20
148.0413572954079
 30
0.0
 11
93.49850335776023
 21
130.3266906287412
 31
0.0
  0
SOLID
  5
1925
330
1920
100
AcDbEntity
  8
0
 62
     0
100
AcDbTrace
 10
92.99850335776023
 20
156.6413572954079
 30
0.0
 11
93.99850335776022
 21
156.6413572954079
 31
0.0
 12
93.49850335776023
 22
159.6413572954079
 32
0.0
 13
93.49850335776023
 23
159.6413572954079
 33
0.0
  0
SOLID
  5
1926
330
1920
100
AcDbEntity
  8
0
 62
     0
100
AcDbTrace
 10
92.99850335776023
 20
151.0413572954079
 30
0.0
 11
93.99850335776022
 21
151.0413572954079
 31
0.0
 12
93.49850335776023
 22
148.0413572954079
 32
0.0
 13
93.49850335776023
 23
148.0413572954079
 33
0.0
  0
MTEXT
  5
1927
330
1920
100
AcDbEntity
  8
0
 62
     0
100
AcDbMText
 10
89.93283669109354
 20
137.6840239620745
 30
0.0
 40
3.5
 41
0.0
 71
     5
 72
     1
  1
11,60
 11
0.0000000000000001
 21
1.0
 31
0.0
 73
     1
 44
1.0
1001
ACAD
1000
MTEXTBEGIN
1070
    73
1070
     1
1070
    44
1040
1.0
1070
    74
1070
     0
1000
MTEXTEND
  0
POINT
  5
1928
330
1920
100
AcDbEntity
  8
Defpoints
 62
     0
100
AcDbPoint
 10
101.0613814053596
 20
159.6413572954079
 30
0.0
  0
POINT
  5
1929
330
1920
100
AcDbEntity
  8
Defpoints
 62
     0
100
AcDbPoint
 10
102.3113814053596
 20
148.0413572954079
 30
0.0
  0
POINT
  5
192A
330
1920
100
AcDbEntity
  8
Defpoints
 62
     0
100
AcDbPoint
 10
93.49850335776023
 20
148.0413572954079
 30
0.0
  0
ENDBLK
  5
192C
330
1920
100
AcDbEntity
  8
0
100
AcDbBlockEnd
  0
BLOCK
  5
1939
330
192E
100
AcDbEntity
  8
0
100
AcDbBlockBegin
  2
*D69
 70
     1
 10
0.0
 20
0.0
 30
0.0
  3
*D69
  1

  0
LINE
  5
192F
330
192E
100
AcDbEntity
  8
0
 62
     0
370
    -2
100
AcDbLine
 10
99.5613814053596
 20
159.5413572954079
 30
0.0
 11
96.92848047684766
 21
159.5413572954079
 31
0.0
  0
LINE
  5
1930
330
192E
100
AcDbEntity
  8
0
 62
     0
370
    -2
100
AcDbLine
 10
101.061381405333
 20
148.2913572954366
 30
0.0
 11
96.92848047684766
 21
148.2913572954366
 31
0.0
  0
LINE
  5
1931
330
192E
100
AcDbEntity
  8
0
 62
     0
370
    -2
100
AcDbLine
 10
97.92848047684765
 20
156.5413572954079
 30
0.0
 11
97.92848047684765
 21
151.2913572954366
 31
0.0
  0
LINE
  5
1932
330
192E
100
AcDbEntity
  8
0
 62
     0
370
    -2
100
AcDbLine
 10
97.92848047684765
 20
148.2913572954366
 30
0.0
 11
97.92848047684765
 21
129.9933572954366
 31
0.0
  0
SOLID
  5
1933
330
192E
100
AcDbEntity
  8
0
 62
     0
100
AcDbTrace
 10
97.42848047684766
 20
156.5413572954079
 30
0.0
 11
98.42848047684766
 21
156.5413572954079
 31
0.0
 12
97.92848047684765
 22
159.5413572954079
 32
0.0
 13
97.92848047684765
 23
159.5413572954079
 33
0.0
  0
SOLID
  5
1934
330
192E
100
AcDbEntity
  8
0
 62
     0
100
AcDbTrace
 10
97.42848047684766
 20
151.2913572954366
 30
0.0
 11
98.42848047684766
 21
151.2913572954366
 31
0.0
 12
97.92848047684765
 22
148.2913572954366
 32
0.0
 13
97.92848047684765
 23
148.2913572954366
 33
0.0
  0
MTEXT
  5
1935
330
192E
100
AcDbEntity
  8
0
 62
     0
100
AcDbMText
 10
94.36281381018096
 20
137.6423572954366
 30
0.0
 40
3.5
 41
0.0
 71
     5
 72
     1
  1
11,25
 11
0.0000000000000001
 21
1.0
 31
0.0
 73
     1
 44
1.0
1001
ACAD
1000
MTEXTBEGIN
1070
    73
1070
     1
1070
    44
1040
1.0
1070
    74
1070
     0
1000
MTEXTEND
  0
POINT
  5
1936
330
192E
100
AcDbEntity
  8
Defpoints
 62
     0
100
AcDbPoint
 10
100.5613814053596
 20
159.5413572954079
 30
0.0
  0
POINT
  5
1937
330
192E
100
AcDbEntity
  8
Defpoints
 62
     0
100
AcDbPoint
 10
102.061381405333
 20
148.2913572954366
 30
0.0
  0
POINT
  5
1938
330
192E
100
AcDbEntity
  8
Defpoints
 62
     0
100
AcDbPoint
 10
97.92848047684765
 20
148.2913572954366
 30
0.0
  0
ENDBLK
  5
193A
330
192E
100
AcDbEntity
  8
0
100
AcDbBlockEnd
  0
BLOCK
  5
1947
330
193C
100
AcDbEntity
  8
0
100
AcDbBlockBegin
  2
*D70
 70
     1
 10
0.0
 20
0.0
 30
0.0
  3
*D70
  1

  0
LINE
  5
1953
330
193C
100
AcDbEntity
  8
0
 62
     0
370
    -2
100
AcDbLine
 10
101.311381405333
 20
148.0413572954366
 30
0.0
 11
90.58807086131585
 21
148.0413572954366
 31
0.0
  0
LINE
  5
1954
330
193C
100
AcDbEntity
  8
0
 62
     0
370
    -2
100
AcDbLine
 10
99.5613814053596
 20
159.5413572954079
 30
0.0
 11
90.58807086131585
 21
159.5413572954079
 31
0.0
  0
LINE
  5
1955
330
193C
100
AcDbEntity
  8
0
 62
     0
370
    -2
100
AcDbLine
 10
91.58807086131584
 20
156.5413572954079
 30
0.0
 11
91.58807086131584
 21
151.0413572954366
 31
0.0
  0
LINE
  5
1956
330
193C
100
AcDbEntity
  8
0
 62
     0
370
    -2
100
AcDbLine
 10
91.58807086131584
 20
148.0413572954366
 30
0.0
 11
91.58807086131584
 21
130.6590306669202
 31
0.0
  0
SOLID
  5
1957
330
193C
100
AcDbEntity
  8
0
 62
     0
100
AcDbTrace
 10
91.08807086131584
 20
156.5413572954079
 30
0.0
 11
92.08807086131583
 21
156.5413572954079
 31
0.0
 12
91.58807086131584
 22
159.5413572954079
 32
0.0
 13
91.58807086131584
 23
159.5413572954079
 33
0.0
  0
SOLID
  5
1958
330
193C
100
AcDbEntity
  8
0
 62
     0
100
AcDbTrace
 10
91.08807086131584
 20
151.0413572954366
 30
0.0
 11
92.08807086131583
 21
151.0413572954366
 31
0.0
 12
91.58807086131584
 22
148.0413572954366
 32
0.0
 13
91.58807086131584
 23
148.0413572954366
 33
0.0
  0
MTEXT
  5
1959
330
193C
100
AcDbEntity
  8
0
 62
     0
100
AcDbMText
 10
88.02240419464915
 20
136.5580306669202
 30
0.0
 40
3.5
 41
0.0
 71
     5
 72
     1
  1
11,5
 11
0.0000000000000001
 21
1.0
 31
0.0
 73
     1
 44
1.0
1001
ACAD
1000
MTEXTBEGIN
1070
    73
1070
     1
1070
    44
1040
1.0
1070
    74
1070
     0
1000
MTEXTEND
  0
POINT
  5
195A
330
193C
100
AcDbEntity
  8
Defpoints
 62
     0
100
AcDbPoint
 10
102.311381405333
 20
148.0413572954366
 30
0.0
  0
POINT
  5
195B
330
193C
100
AcDbEntity
  8
Defpoints
 62
     0
100
AcDbPoint
 10
100.5613814053596
 20
159.5413572954079
 30
0.0
  0
POINT
  5
195C
330
193C
100
AcDbEntity
  8
Defpoints
 62
     0
100
AcDbPoint
 10
91.58807086131584
 20
159.5413572954079
 30
0.0
  0
ENDBLK
  5
1948
330
193C
100
AcDbEntity
  8
0
100
AcDbBlockEnd
  0
ENDSEC
  0
SECTION
  2
ENTITIES
  0
LINE
  5
2F
330
1F
100
AcDbEntity
  8
0
  6
Continuous
 62
     7
370
     0
100
AcDbLine
 10
20.2604743903
 20
285.0
 30
0.0
 11
196.7604743903
 21
285.0
 31
0.0
  0
LINE
  5
30
330
1F
100
AcDbEntity
  8
0
  6
Continuous
 62
     7
370
     0
100
AcDbLine
 10
20.2604743903
 20
285.0
 30
0.0
 11
20.2604743903
 21
10.0
 31
0.0
  0
LINE
  5
31
330
1F
100
AcDbEntity
  8
0
  6
Continuous
 62
     7
370
     0
100
AcDbLine
 10
20.2604743903
 20
10.0
 30
0.0
 11
196.7604743903
 21
10.0
 31
0.0
  0
LINE
  5
32
330
1F
100
AcDbEntity
  8
0
  6
Continuous
 62
     7
370
     0
100
AcDbLine
 10
196.7604743903
 20
285.0
 30
0.0
 11
196.7604743903
 21
10.0
 31
0.0
  0
LINE
  5
33
330
1F
100
AcDbEntity
  8
0
  6
Continuous
 62
     7
370
     0
100
AcDbLine
 10
127.0104743903
 20
50.75
 30
0.0
 11
196.7604743903
 21
50.75
 31
0.0
  0
LINE
  5
34
330
1F
100
AcDbEntity
  8
0
  6
Continuous
 62
     7
370
     0
100
AcDbLine
 10
127.0104743903
 20
50.75
 30
0.0
 11
127.0104743903
 21
10.0
 31
0.0
  0
LINE
  5
35
330
1F
100
AcDbEntity
  8
0
  6
Continuous
 62
     7
370
     0
100
AcDbLine
 10
127.0104743903
 20
22.75
 30
0.0
 11
196.7604743903
 21
22.75
 31
0.0
  0
LINE
  5
36
330
1F
100
AcDbEntity
  8
0
  6
Continuous
 62
     7
370
     0
100
AcDbLine
 10
127.0104743903
 20
36.75
 30
0.0
 11
196.7604743903
 21
36.75
 31
0.0
  0
MTEXT
  5
38
330
1F
100
AcDbEntity
  8
0
  6
Continuous
 62
     7
370
     0
100
AcDbMText
 10
153.5731096636727
 20
30.21791892076374
 30
0.0
 40
4.2333333333
 41
0.0
 71
     1
 72
     1
  1
{\fArial|b0|i0|c128|p34;\H0.8333x;\C256;M-5ALU-4}
  7
SLDTEXTSTYLE0
 73
     1
 44
1.0
1001
ACAD
1000
ACAD_MTEXT_DEFINED_HEIGHT_BEGIN
1070
    46
1040
0.0
1000
ACAD_MTEXT_DEFINED_HEIGHT_END
1000
MTEXTBEGIN
1070
    73
1070
     1
1070
    44
1040
1.0
1070
    74
1070
     0
1000
MTEXTEND
  0
MTEXT
  5
39
330
1F
100
AcDbEntity
  8
0
  6
Continuous
 62
     7
370
     0
100
AcDbMText
 10
145.1450765871018
 20
43.87749885544018
 30
0.0
 40
4.2333333333
 41
0.0
 71
     1
 72
     1
  1
軟質チューブ用ハーフエルボ
  7
SLDTEXTSTYLE0
 73
     1
 44
1.0
1001
ACAD
1000
ACAD_MTEXT_DEFINED_HEIGHT_BEGIN
1070
    46
1040
0.0
1000
ACAD_MTEXT_DEFINED_HEIGHT_END
1000
MTEXTBEGIN
1070
    73
1070
     1
1070
    44
1040
1.0
1070
    74
1070
     0
1000
MTEXTEND
  0
MTEXT
  5
3A
330
1F
100
AcDbEntity
  8
0
  6
Continuous
 62
     7
370
     0
100
AcDbMText
 10
155.3999971815
 20
16.2918260795
 30
0.0
 40
4.2333333333
 41
0.0
 71
     1
 72
     1
  1
120692
  7
SLDTEXTSTYLE0
 73
     1
 44
1.0
1001
ACAD
1000
ACAD_MTEXT_DEFINED_HEIGHT_BEGIN
1070
    46
1040
0.0
1000
ACAD_MTEXT_DEFINED_HEIGHT_END
1000
MTEXTBEGIN
1070
    73
1070
     1
1070
    44
1040
1.0
1070
    74
1070
     0
1000
MTEXTEND
  0
SPLINE
  5
1827
330
1F
100
AcDbEntity
  8
0
  6
Continuous
 62
     7
100
AcDbSpline
210
0.0
220
0.0
230
1.0
 70
    24
 71
     1
 72
     4
 73
     2
 74
     0
 42
0.0000000001
 43
0.0000000001
 40
0.0
 40
0.0
 40
1.0
 40
1.0
 10
108.561381405333
 20
151.5413572954366
 30
0.0
 10
108.861381405333
 20
151.5676038944944
 30
0.0
  0
SPLINE
  5
1828
330
1F
100
AcDbEntity
  8
0
  6
Continuous
 62
     7
100
AcDbSpline
210
0.0
220
0.0
230
1.0
 70
    24
 71
     1
 72
     4
 73
     2
 74
     0
 42
0.0000000001
 43
0.0000000001
 40
0.0
 40
0.0
 40
1.0
 40
1.0
 10
108.861381405333
 20
159.515110696379
 30
0.0
 10
108.561381405333
 20
159.5413572954366
 30
0.0
  0
SPLINE
  5
1829
330
1F
100
AcDbEntity
  8
0
  6
Continuous
 62
     7
100
AcDbSpline
210
0.0
220
0.0
230
1.0
 70
    24
 71
     1
 72
     4
 73
     2
 74
     0
 42
0.0000000001
 43
0.0000000001
 40
0.0
 40
0.0
 40
1.0
 40
1.0
 10
101.061381405333
 20
151.5413572954366
 30
0.0
 10
101.061381405333
 20
151.0413572954366
 30
0.0
  0
SPLINE
  5
182A
330
1F
100
AcDbEntity
  8
0
  6
Continuous
 62
     7
100
AcDbSpline
210
0.0
220
0.0
230
1.0
 70
    24
 71
     1
 72
     4
 73
     2
 74
     0
 42
0.0000000001
 43
0.0000000001
 40
0.0
 40
0.0
 40
1.0
 40
1.0
 10
108.0613814053331
 20
151.0413572954366
 30
0.0
 10
108.0613814053331
 20
151.5413572954366
 30
0.0
  0
SPLINE
  5
182B
330
1F
100
AcDbEntity
  8
0
  6
Continuous
 62
     7
100
AcDbSpline
210
0.0
220
0.0
230
1.0
 70
    24
 71
     1
 72
     4
 73
     2
 74
     0
 42
0.0000000001
 43
0.0000000001
 40
0.0
 40
0.0
 40
1.0
 40
1.0
 10
101.061381405333
 20
159.6413572954366
 30
0.0
 10
101.061381405333
 20
159.5413572954366
 30
0.0
  0
SPLINE
  5
182C
330
1F
100
AcDbEntity
  8
0
  6
Continuous
 62
     7
100
AcDbSpline
210
0.0
220
0.0
230
1.0
 70
    24
 71
     1
 72
     4
 73
     2
 74
     0
 42
0.0000000001
 43
0.0000000001
 40
0.0
 40
0.0
 40
1.0
 40
1.0
 10
108.0613814053331
 20
159.5413572954366
 30
0.0
 10
108.0613814053331
 20
159.6413572954366
 30
0.0
  0
SPLINE
  5
182D
330
1F
100
AcDbEntity
  8
0
  6
Continuous
 62
     7
100
AcDbSpline
210
0.0
220
0.0
230
1.0
 70
    24
 71
     1
 72
     4
 73
     2
 74
     0
 42
0.0000000001
 43
0.0000000001
 40
0.0
 40
0.0
 40
1.0
 40
1.0
 10
102.061381405333
 20
148.2913572954366
 30
0.0
 10
102.311381405333
 20
148.0413572954366
 30
0.0
  0
SPLINE
  5
182E
330
1F
100
AcDbEntity
  8
0
  6
Continuous
 62
     7
100
AcDbSpline
210
0.0
220
0.0
230
1.0
 70
    24
 71
     1
 72
     4
 73
     2
 74
     0
 42
0.0000000001
 43
0.0000000001
 40
0.0
 40
0.0
 40
1.0
 40
1.0
 10
106.811381405333
 20
148.0413572954366
 30
0.0
 10
107.0613814053331
 20
148.2913572954366
 30
0.0
  0
SPLINE
  5
182F
330
1F
100
AcDbEntity
  8
0
  6
Continuous
 62
     7
100
AcDbSpline
210
0.0
220
0.0
230
1.0
 70
    24
 71
     1
 72
     4
 73
     2
 74
     0
 42
0.0000000001
 43
0.0000000001
 40
0.0
 40
0.0
 40
1.0
 40
1.0
 10
102.061381405333
 20
151.0413572954366
 30
0.0
 10
102.061381405333
 20
148.2913572954366
 30
0.0
  0
SPLINE
  5
1830
330
1F
100
AcDbEntity
  8
0
  6
Continuous
 62
     7
100
AcDbSpline
210
0.0
220
0.0
230
1.0
 70
    24
 71
     1
 72
     4
 73
     2
 74
     0
 42
0.0000000001
 43
0.0000000001
 40
0.0
 40
0.0
 40
1.0
 40
1.0
 10
107.0613814053331
 20
148.2913572954366
 30
0.0
 10
107.0613814053331
 20
151.0413572954366
 30
0.0
  0
SPLINE
  5
1831
330
1F
100
AcDbEntity
  8
0
  6
Continuous
 62
     7
100
AcDbSpline
210
0.0
220
0.0
230
1.0
 70
    24
 71
     1
 72
     4
 73
     2
 74
     0
 42
0.0000000001
 43
0.0000000001
 40
0.0
 40
0.0
 40
1.0
 40
1.0
 10
111.2613814053331
 20
153.8413572954367
 30
0.0
 10
111.761381405333
 20
153.8413572954367
 30
0.0
  0
SPLINE
  5
1832
330
1F
100
AcDbEntity
  8
0
  6
Continuous
 62
     7
100
AcDbSpline
210
0.0
220
0.0
230
1.0
 70
    24
 71
     1
 72
     4
 73
     2
 74
     0
 42
0.0000000001
 43
0.0000000001
 40
0.0
 40
0.0
 40
1.0
 40
1.0
 10
111.761381405333
 20
157.2413572954365
 30
0.0
 10
111.2613814053331
 20
157.2413572954365
 30
0.0
  0
SPLINE
  5
1833
330
1F
100
AcDbEntity
  8
0
  6
Continuous
 62
     7
100
AcDbSpline
210
0.0
220
0.0
230
1.0
 70
    24
 71
     1
 72
     4
 73
     2
 74
     0
 42
0.0000000001
 43
0.0000000001
 40
0.0
 40
0.0
 40
1.0
 40
1.0
 10
111.761381405333
 20
153.8413572954367
 30
0.0
 10
112.961381405333
 20
154.3913572954366
 30
0.0
  0
SPLINE
  5
1834
330
1F
100
AcDbEntity
  8
0
  6
Continuous
 62
     7
100
AcDbSpline
210
0.0
220
0.0
230
1.0
 70
    24
 71
     1
 72
     4
 73
     2
 74
     0
 42
0.0000000001
 43
0.0000000001
 40
0.0
 40
0.0
 40
1.0
 40
1.0
 10
112.961381405333
 20
156.6913572954367
 30
0.0
 10
111.761381405333
 20
157.2413572954365
 30
0.0
  0
SPLINE
  5
1835
330
1F
100
AcDbEntity
  8
0
  6
Continuous
 62
     7
100
AcDbSpline
210
0.0
220
0.0
230
1.0
 70
    24
 71
     1
 72
     4
 73
     2
 74
     0
 42
0.0000000001
 43
0.0000000001
 40
0.0
 40
0.0
 40
1.0
 40
1.0
 10
108.861381405333
 20
153.9413572954368
 30
0.0
 10
109.8795632235149
 20
153.9413572954368
 30
0.0
  0
SPLINE
  5
1836
330
1F
100
AcDbEntity
  8
0
  6
Continuous
 62
     7
100
AcDbSpline
210
0.0
220
0.0
230
1.0
 70
    24
 71
     1
 72
     4
 73
     2
 74
     0
 42
0.0000000001
 43
0.0000000001
 40
0.0
 40
0.0
 40
1.0
 40
1.0
 10
109.8795632235149
 20
157.1413572954366
 30
0.0
 10
108.861381405333
 20
157.1413572954366
 30
0.0
  0
SPLINE
  5
1837
330
1F
100
AcDbEntity
  8
0
  6
Continuous
 62
     7
100
AcDbSpline
210
0.0
220
0.0
230
1.0
 70
    24
 71
     1
 72
     4
 73
     2
 74
     0
 42
0.0000000001
 43
0.0000000001
 40
0.0
 40
0.0
 40
1.0
 40
1.0
 10
109.8795632235149
 20
153.9413572954368
 30
0.0
 10
110.861381405333
 20
154.3913572954366
 30
0.0
  0
SPLINE
  5
1838
330
1F
100
AcDbEntity
  8
0
  6
Continuous
 62
     7
100
AcDbSpline
210
0.0
220
0.0
230
1.0
 70
    24
 71
     1
 72
     4
 73
     2
 74
     0
 42
0.0000000001
 43
0.0000000001
 40
0.0
 40
0.0
 40
1.0
 40
1.0
 10
110.861381405333
 20
156.6913572954367
 30
0.0
 10
109.8795632235149
 20
157.1413572954366
 30
0.0
  0
SPLINE
  5
1839
330
1F
100
AcDbEntity
  8
0
  6
Continuous
 62
     7
100
AcDbSpline
210
0.0
220
0.0
230
1.0
 70
    24
 71
     1
 72
     4
 73
     2
 74
     0
 42
0.0000000001
 43
0.0000000001
 40
0.0
 40
0.0
 40
1.0
 40
1.0
 10
110.861381405333
 20
154.3913572954366
 30
0.0
 10
111.2613814053331
 20
154.3913572954366
 30
0.0
  0
SPLINE
  5
183A
330
1F
100
AcDbEntity
  8
0
  6
Continuous
 62
     7
100
AcDbSpline
210
0.0
220
0.0
230
1.0
 70
    24
 71
     1
 72
     4
 73
     2
 74
     0
 42
0.0000000001
 43
0.0000000001
 40
0.0
 40
0.0
 40
1.0
 40
1.0
 10
111.2613814053331
 20
156.6913572954367
 30
0.0
 10
110.861381405333
 20
156.6913572954367
 30
0.0
  0
SPLINE
  5
183B
330
1F
100
AcDbEntity
  8
0
  6
Continuous
 62
     7
100
AcDbSpline
210
0.0
220
0.0
230
1.0
 70
    24
 71
     1
 72
     4
 73
     2
 74
     0
 42
0.0000000001
 43
0.0000000001
 40
0.0
 40
0.0
 40
1.0
 40
1.0
 10
112.961381405333
 20
154.3913572954366
 30
0.0
 10
113.861381405333
 20
154.3913572954366
 30
0.0
  0
SPLINE
  5
183C
330
1F
100
AcDbEntity
  8
0
  6
Continuous
 62
     7
100
AcDbSpline
210
0.0
220
0.0
230
1.0
 70
    24
 71
     1
 72
     4
 73
     2
 74
     0
 42
0.0000000001
 43
0.0000000001
 40
0.0
 40
0.0
 40
1.0
 40
1.0
 10
113.861381405333
 20
156.6913572954367
 30
0.0
 10
112.961381405333
 20
156.6913572954367
 30
0.0
  0
LINE
  5
183D
330
1F
100
AcDbEntity
  8
0
  6
Continuous
 62
     7
100
AcDbLine
 10
104.5613814053595
 20
159.5413572954079
 30
0.0
 11
108.5613814053596
 21
159.5413572954079
 31
0.0
  0
LINE
  5
183E
330
1F
100
AcDbEntity
  8
0
  6
Continuous
 62
     7
100
AcDbLine
 10
108.5613814053596
 20
155.5413572954079
 30
0.0
 11
108.5613814053596
 21
159.5413572954079
 31
0.0
  0
ARC
  5
183F
330
1F
100
AcDbEntity
  8
0
  6
Continuous
 62
     7
100
AcDbCircle
 10
104.5613814053595
 20
155.5413572954079
 30
0.0
 40
4.000000000000028
100
AcDbArc
 50
0.0
 51
90.0
  0
LINE
  5
1840
330
1F
100
AcDbEntity
  8
0
  6
Continuous
 62
     7
100
AcDbLine
 10
100.5613814053596
 20
151.5413572954079
 30
0.0
 11
104.5613814053595
 21
151.5413572954079
 31
0.0
  0
LINE
  5
1841
330
1F
100
AcDbEntity
  8
0
  6
Continuous
 62
     7
100
AcDbLine
 10
100.5613814053596
 20
155.5413572954079
 30
0.0
 11
100.5613814053596
 21
151.5413572954079
 31
0.0
  0
ARC
  5
1842
330
1F
100
AcDbEntity
  8
0
  6
Continuous
 62
     7
100
AcDbCircle
 10
104.5613814053595
 20
155.5413572954079
 30
0.0
 40
4.0
100
AcDbArc
 50
180.0
 51
270.0
  0
LINE
  5
1843
330
1F
100
AcDbEntity
  8
0
  6
Continuous
 62
     7
100
AcDbLine
 10
108.5613814053596
 20
151.5413572954079
 30
0.0
 11
108.5613814053596
 21
155.5413572954079
 31
0.0
  0
LINE
  5
1844
330
1F
100
AcDbEntity
  8
0
  6
Continuous
 62
     7
100
AcDbLine
 10
104.5613814053595
 20
151.5413572954079
 30
0.0
 11
108.5613814053596
 21
151.5413572954079
 31
0.0
  0
ARC
  5
1845
330
1F
100
AcDbEntity
  8
0
  6
Continuous
 62
     7
100
AcDbCircle
 10
104.5613814053595
 20
155.5413572954079
 30
0.0
 40
4.0
100
AcDbArc
 50
270.0
 51
0.0
  0
LINE
  5
1846
330
1F
100
AcDbEntity
  8
0
  6
Continuous
 62
     7
100
AcDbLine
 10
100.5613814053596
 20
159.5413572954079
 30
0.0
 11
104.5613814053595
 21
159.5413572954079
 31
0.0
  0
ARC
  5
1847
330
1F
100
AcDbEntity
  8
0
  6
Continuous
 62
     7
100
AcDbCircle
 10
104.5613814053595
 20
155.5413572954079
 30
0.0
 40
4.000000000000028
100
AcDbArc
 50
90.0
 51
180.0
  0
LINE
  5
1848
330
1F
100
AcDbEntity
  8
0
  6
Continuous
 62
     7
100
AcDbLine
 10
100.5613814053596
 20
159.5413572954079
 30
0.0
 11
100.5613814053596
 21
155.5413572954079
 31
0.0
  0
LINE
  5
1849
330
1F
100
AcDbEntity
  8
0
  6
Continuous
 62
     7
100
AcDbLine
 10
108.8613814053596
 20
159.5151106964079
 30
0.0
 11
108.8613814053596
 21
151.5676038945079
 31
0.0
  0
LINE
  5
184A
330
1F
100
AcDbEntity
  8
0
  6
Continuous
 62
     7
100
AcDbLine
 10
104.5613814053595
 20
151.0413572954079
 30
0.0
 11
108.0613814053596
 21
151.0413572954079
 31
0.0
  0
LINE
  5
184B
330
1F
100
AcDbEntity
  8
0
  6
Continuous
 62
     7
100
AcDbLine
 10
101.0613814053596
 20
151.0413572954079
 30
0.0
 11
104.5613814053595
 21
151.0413572954079
 31
0.0
  0
LINE
  5
184C
330
1F
100
AcDbEntity
  8
0
  6
Continuous
 62
     7
100
AcDbLine
 10
101.0613814053596
 20
159.6413572954079
 30
0.0
 11
104.3113814053596
 21
159.6413572954079
 31
0.0
  0
LINE
  5
184D
330
1F
100
AcDbEntity
  8
0
  6
Continuous
 62
     7
100
AcDbLine
 10
104.3113814053596
 20
159.5413572954079
 30
0.0
 11
104.3113814053596
 21
159.6413572954079
 31
0.0
  0
LINE
  5
184E
330
1F
100
AcDbEntity
  8
0
  6
Continuous
 62
     7
100
AcDbLine
 10
104.8113814053596
 20
159.6413572954079
 30
0.0
 11
108.0613814053596
 21
159.6413572954079
 31
0.0
  0
LINE
  5
184F
330
1F
100
AcDbEntity
  8
0
  6
Continuous
 62
     7
100
AcDbLine
 10
104.8113814053596
 20
159.5413572954079
 30
0.0
 11
104.8113814053596
 21
159.6413572954079
 31
0.0
  0
LINE
  5
1850
330
1F
100
AcDbEntity
  8
0
  6
Continuous
 62
     7
100
AcDbLine
 10
104.5613814053595
 20
148.0413572954079
 30
0.0
 11
102.3113814053596
 21
148.0413572954079
 31
0.0
  0
LINE
  5
1851
330
1F
100
AcDbEntity
  8
0
  6
Continuous
 62
     7
100
AcDbLine
 10
106.8113814053596
 20
148.0413572954079
 30
0.0
 11
104.5613814053595
 21
148.0413572954079
 31
0.0
  0
LINE
  5
1852
330
1F
100
AcDbEntity
  8
0
  6
Continuous
 62
     7
100
AcDbLine
 10
104.5613814053595
 20
148.2913572954079
 30
0.0
 11
107.0613814053596
 21
148.2913572954079
 31
0.0
  0
LINE
  5
1853
330
1F
100
AcDbEntity
  8
0
  6
Continuous
 62
     7
100
AcDbLine
 10
102.0613814053596
 20
148.2913572954079
 30
0.0
 11
104.5613814053595
 21
148.2913572954079
 31
0.0
  0
LINE
  5
1854
330
1F
100
AcDbEntity
  8
0
  6
Continuous
 62
     7
100
AcDbLine
 10
111.7613814053596
 20
155.5413572954079
 30
0.0
 11
111.7613814053596
 21
157.2413572954079
 31
0.0
  0
LINE
  5
1855
330
1F
100
AcDbEntity
  8
0
  6
Continuous
 62
     7
100
AcDbLine
 10
111.7613814053596
 20
153.8413572954079
 30
0.0
 11
111.7613814053596
 21
155.5413572954079
 31
0.0
  0
LINE
  5
1856
330
1F
100
AcDbEntity
  8
0
  6
Continuous
 62
     7
100
AcDbLine
 10
111.2613814053596
 20
155.5413572954079
 30
0.0
 11
111.2613814053596
 21
157.2413572954079
 31
0.0
  0
LINE
  5
1857
330
1F
100
AcDbEntity
  8
0
  6
Continuous
 62
     7
100
AcDbLine
 10
111.2613814053596
 20
153.8413572954079
 30
0.0
 11
111.2613814053596
 21
155.5413572954079
 31
0.0
  0
LINE
  5
1858
330
1F
100
AcDbEntity
  8
0
  6
Continuous
 62
     7
100
AcDbLine
 10
112.9613814053596
 20
155.5413572954079
 30
0.0
 11
112.9613814053596
 21
156.6913572954079
 31
0.0
  0
LINE
  5
1859
330
1F
100
AcDbEntity
  8
0
  6
Continuous
 62
     7
100
AcDbLine
 10
112.9613814053596
 20
154.3913572954079
 30
0.0
 11
112.9613814053596
 21
155.5413572954079
 31
0.0
  0
LINE
  5
185A
330
1F
100
AcDbEntity
  8
0
  6
Continuous
 62
     7
100
AcDbLine
 10
109.8795632235596
 20
155.5413572954079
 30
0.0
 11
109.8795632235596
 21
157.1413572954079
 31
0.0
  0
LINE
  5
185B
330
1F
100
AcDbEntity
  8
0
  6
Continuous
 62
     7
100
AcDbLine
 10
109.8795632235596
 20
153.9413572954079
 30
0.0
 11
109.8795632235596
 21
155.5413572954079
 31
0.0
  0
LINE
  5
185C
330
1F
100
AcDbEntity
  8
0
  6
Continuous
 62
     7
100
AcDbLine
 10
110.8613814053596
 20
155.5413572954079
 30
0.0
 11
110.8613814053596
 21
156.6913572954079
 31
0.0
  0
LINE
  5
185D
330
1F
100
AcDbEntity
  8
0
  6
Continuous
 62
     7
100
AcDbLine
 10
110.8613814053596
 20
154.3913572954079
 30
0.0
 11
110.8613814053596
 21
155.5413572954079
 31
0.0
  0
LINE
  5
185E
330
1F
100
AcDbEntity
  8
0
  6
Continuous
 62
     7
100
AcDbLine
 10
113.8613814053595
 20
156.6913572954079
 30
0.0
 11
113.8613814053595
 21
154.3913572954079
 31
0.0
  0
LEADER
  5
185F
330
1F
100
AcDbEntity
  8
0
100
AcDbLeader
  3
ISO-25
 73
     0
 74
     0
 75
     1
 40
3.5
 41
5.833333333333332
 76
     3
 10
107.0613814053331
 20
149.6663572954366
 30
0.0
 10
114.534478311858
 20
133.5600149838445
 30
0.0
 10
117.534478311858
 20
133.5600149838445
 30
0.0
340
1860
213
0.0
223
-1.75
233
0.0
1001
ACAD
1000
DSTYLE
1002
{
1070
    77
1070
     0
1070
    41
1040
3.0
1070
    42
1040
1.0
1070
    44
1040
1.0
1070
    78
1070
     0
1070
   140
1040
3.5
1070
   147
1040
1.524
1070
   284
1070
     0
1002
}
  0
MTEXT
  5
1860
102
{ACAD_REACTORS
330
185F
102
}
330
1F
100
AcDbEntity
  8
0
100
AcDbMText
 10
119.058478311858
 20
135.3100149838446
 30
0.0
 40
3.5
 41
5.0
 71
     7
 72
     1
  1
M5
 73
     1
 44
1.0
1001
ACAD
1000
ACAD_MTEXT_DEFINED_HEIGHT_BEGIN
1070
    46
1040
0.0
1000
ACAD_MTEXT_DEFINED_HEIGHT_END
1000
MTEXTBEGIN
1070
    73
1070
     1
1070
    44
1040
1.0
1070
    74
1070
     0
1000
MTEXTEND
  0
LINE
  5
1861
330
1F
100
AcDbEntity
  8
0
100
AcDbLine
 10
117.534478311858
 20
133.5600149838445
 30
0.0
 11
127.4889314981974
 21
133.5600149838445
 31
0.0
  0
DIMENSION
  5
188B
330
1F
100
AcDbEntity
  8
0
100
AcDbDimension
  2
*D65
 10
113.861381405333
 20
170.6178917117852
 30
0.0
 11
86.04410067072377
 21
170.6178917117852
 31
0.0
 70
   160
 71
     5
 42
13.29999999997341
  3
ISO-25
100
AcDbAlignedDimension
 13
100.5613814053596
 23
159.5413572954079
 33
0.0
 14
113.861381405333
 24
156.6913572954367
 34
0.0
100
AcDbRotatedDimension
1001
ACAD
1000
DSTYLE
1002
{
1070
   271
1070
     1
1070
    41
1040
3.0
1070
    42
1040
1.0
1070
    44
1040
1.0
1070
    78
1070
     0
1070
   140
1040
3.5
1070
   147
1040
1.524
1070
   284
1070
     0
1002
}
  0
DIMENSION
  5
18E1
330
1F
100
AcDbEntity
  8
0
100
AcDbDimension
  2
*D67
 10
129.2149997917931
 20
157.2413572954365
 30
0.0
 11
125.6493331251264
 21
170.3070239621032
 31
0.0
 70
    32
 71
     5
 42
3.400000000028682
  3
ISO-25
100
AcDbAlignedDimension
 13
111.7613814053596
 23
153.8413572954079
 33
0.0
 14
111.761381405333
 24
157.2413572954365
 34
0.0
 50
90.0
100
AcDbRotatedDimension
1001
ACAD
1000
DSTYLE
1002
{
1070
   271
1070
     1
1070
     3
1000
%%c<>
1070
    41
1040
3.0
1070
    42
1040
1.0
1070
    44
1040
1.0
1070
    78
1070
     0
1070
   140
1040
3.5
1070
   147
1040
1.524
1070
   284
1070
     0
1002
}
  0
DIMENSION
  5
193B
330
1F
100
AcDbEntity
  8
0
100
AcDbDimension
  2
*D70
 10
91.58807086131584
 20
159.5413572954079
 30
0.0
 11
91.58807086131583
 21
136.5580306669202
 31
0.0
 70
   160
 71
     5
 42
11.49999999997129
  3
ISO-25
100
AcDbAlignedDimension
 13
102.311381405333
 23
148.0413572954366
 33
0.0
 14
100.5613814053596
 24
159.5413572954079
 34
0.0
 50
90.0
100
AcDbRotatedDimension
1001
ACAD
1000
DSTYLE
1002
{
1070
   271
1070
     1
1070
    41
1040
3.0
1070
    42
1040
1.0
1070
    44
1040
1.0
1070
    78
1070
     0
1070
   140
1040
3.5
1070
   147
1040
1.524
1070
   284
1070
     0
1002
}
  0
ENDSEC
  0
SECTION
  2
OBJECTS
  0
DICTIONARY
  5
C
330
0
100
AcDbDictionary
281
     1
  3
ACAD_COLOR
350
23E
  3
ACAD_GROUP
350
D
  3
ACAD_LAYOUT
350
1A
  3
ACAD_MATERIAL
350
23D
  3
ACAD_MLINESTYLE
350
17
  3
ACAD_PLOTSETTINGS
350
19
  3
ACAD_PLOTSTYLENAME
350
E
  3
ACAD_TABLESTYLE
350
23F
  3
ACDBHEADERROUNDTRIPXREC
350
195F
  3
AcDbVariableDictionary
350
52B
  3
DWGPROPS
350
195E
  0
DICTIONARY
  5
559
330
1F
100
AcDbDictionary
280
     1
281
     1
  3
ACAD_SORTENTS
360
55A
  0
DICTIONARY
  5
23E
102
{ACAD_REACTORS
330
C
102
}
330
C
100
AcDbDictionary
281
     1
  0
DICTIONARY
  5
D
102
{ACAD_REACTORS
330
C
102
}
330
C
100
AcDbDictionary
281
     1
  0
DICTIONARY
  5
1A
102
{ACAD_REACTORS
330
C
102
}
330
C
100
AcDbDictionary
281
     1
  3
Layout1
350
1E
  3
Layout2
350
26
  3
Model
350
22
  0
DICTIONARY
  5
23D
102
{ACAD_REACTORS
330
C
102
}
330
C
100
AcDbDictionary
281
     1
  0
DICTIONARY
  5
17
102
{ACAD_REACTORS
330
C
102
}
330
C
100
AcDbDictionary
281
     1
  3
Standard
350
18
  0
DICTIONARY
  5
19
102
{ACAD_REACTORS
330
C
102
}
330
C
100
AcDbDictionary
281
     1
  0
ACDBDICTIONARYWDFLT
  5
E
102
{ACAD_REACTORS
330
C
102
}
330
C
100
AcDbDictionary
281
     1
  3
Normal
350
F
100
AcDbDictionaryWithDefault
340
F
  0
DICTIONARY
  5
23F
102
{ACAD_REACTORS
330
C
102
}
330
C
100
AcDbDictionary
281
     1
  3
Standard
350
240
  0
DICTIONARY
  5
195F
102
{ACAD_REACTORS
330
C
102
}
330
C
100
AcDbDictionary
281
     1
  0
DICTIONARY
  5
52B
102
{ACAD_REACTORS
330
C
102
}
330
C
100
AcDbDictionary
281
     1
  3
CTABLESTYLE
350
52C
  3
DIMASSOC
350
52D
  3
PROJECTNAME
350
52E
  0
XRECORD
  5
195E
102
{ACAD_REACTORS
330
C
102
}
330
C
100
AcDbXrecord
280
     1
  1
DWGPROPS COOKIE
  2

  3

  4

  6

  7

  8
CAD58
  9

300
=
301
=
302
=
303
=
304
=
305
=
306
=
307
=
308
=
309
=
 40
0.0771111689814815
 41
2454722.393937535
 42
2454734.362752812
  1

 90
        0
  0
SORTENTSTABLE
  5
55A
102
{ACAD_REACTORS
330
559
102
}
330
559
100
AcDbSortentsTable
330
1F
331
38
  5
38
331
185D
  5
185D
331
183F
  5
183F
331
1848
  5
1848
331
182A
  5
182A
331
35
  5
35
331
1833
  5
1833
331
1851
  5
1851
331
39
  5
39
331
185E
  5
185E
331
1840
  5
1840
331
1849
  5
1849
331
182B
  5
182B
331
36
  5
36
331
1852
  5
1852
331
1834
  5
1834
331
1838
  5
1838
331
3A
  5
3A
331
185F
  5
185F
331
1841
  5
1841
331
184A
  5
184A
331
182C
  5
182C
331
1835
  5
1835
331
1853
  5
1853
331
1839
  5
1839
331
1860
  5
1860
331
1842
  5
1842
331
184B
  5
184B
331
182D
  5
182D
331
1854
  5
1854
331
1836
  5
1836
331
1858
  5
1858
331
183A
  5
183A
331
1861
  5
1861
331
2F
  5
2F
331
1843
  5
1843
331
30
  5
30
331
184C
  5
184C
331
182E
  5
182E
331
1855
  5
1855
331
1837
  5
1837
331
1859
  5
1859
331
183B
  5
183B
331
1844
  5
1844
331
31
  5
31
331
184D
  5
184D
331
182F
  5
182F
331
1856
  5
1856
331
185A
  5
185A
331
183C
  5
183C
331
1845
  5
1845
331
1827
  5
1827
331
32
  5
32
331
184E
  5
184E
331
1830
  5
1830
331
1857
  5
1857
331
185B
  5
185B
331
183D
  5
183D
331
1846
  5
1846
331
1828
  5
1828
331
33
  5
33
331
184F
  5
184F
331
1831
  5
1831
331
185C
  5
185C
331
183E
  5
183E
331
1847
  5
1847
331
1829
  5
1829
331
34
  5
34
331
1850
  5
1850
331
1832
  5
1832
  0
LAYOUT
  5
1E
102
{ACAD_XDICTIONARY
360
1960
102
}
102
{ACAD_REACTORS
330
1A
102
}
330
1A
100
AcDbPlotSettings
  1

  2

  4

  6

 40
0.0
 41
0.0
 42
0.0
 43
0.0
 44
0.0
 45
0.0
 46
0.0
 47
0.0
 48
0.0
 49
0.0
140
0.0
141
0.0
142
1.0
143
1.0
 70
   688
 72
     0
 73
     0
 74
     5
  7

 75
    16
147
1.0
148
0.0
149
0.0
100
AcDbLayout
  1
Layout1
 70
     1
 71
     1
 10
0.0
 20
0.0
 11
420.0
 21
297.0
 12
0.0
 22
0.0
 32
0.0
 14
1.000000000000000E+20
 24
1.000000000000000E+20
 34
1.000000000000000E+20
 15
-1.000000000000000E+20
 25
-1.000000000000000E+20
 35
-1.000000000000000E+20
146
0.0
 13
0.0
 23
0.0
 33
0.0
 16
1.0
 26
0.0
 36
0.0
 17
0.0
 27
1.0
 37
0.0
 76
     0
330
1B
  0
LAYOUT
  5
26
102
{ACAD_XDICTIONARY
360
1964
102
}
102
{ACAD_REACTORS
330
1A
102
}
330
1A
100
AcDbPlotSettings
  1

  2

  4

  6

 40
0.0
 41
0.0
 42
0.0
 43
0.0
 44
0.0
 45
0.0
 46
0.0
 47
0.0
 48
0.0
 49
0.0
140
0.0
141
0.0
142
1.0
143
1.0
 70
   688
 72
     0
 73
     0
 74
     5
  7

 75
    16
147
1.0
148
0.0
149
0.0
100
AcDbLayout
  1
Layout2
 70
     1
 71
     2
 10
0.0
 20
0.0
 11
0.0
 21
0.0
 12
0.0
 22
0.0
 32
0.0
 14
0.0
 24
0.0
 34
0.0
 15
0.0
 25
0.0
 35
0.0
146
0.0
 13
0.0
 23
0.0
 33
0.0
 16
1.0
 26
0.0
 36
0.0
 17
0.0
 27
1.0
 37
0.0
 76
     0
330
23
  0
LAYOUT
  5
22
102
{ACAD_XDICTIONARY
360
1962
102
}
102
{ACAD_REACTORS
330
1A
102
}
330
1A
100
AcDbPlotSettings
  1

  2

  4

  6

 40
0.0
 41
0.0
 42
0.0
 43
0.0
 44
0.0
 45
0.0
 46
0.0
 47
0.0
 48
0.0
 49
0.0
140
0.0
141
0.0
142
1.0
143
1.0
 70
  1712
 72
     0
 73
     0
 74
     0
  7

 75
     0
147
1.0
148
0.0
149
0.0
100
AcDbLayout
  1
Model
 70
     1
 71
     0
 10
0.0
 20
0.0
 11
0.0
 21
0.0
 12
0.0
 22
0.0
 32
0.0
 14
0.0
 24
0.0
 34
0.0
 15
210.0
 25
297.0
 35
0.0
146
0.0
 13
0.0
 23
0.0
 33
0.0
 16
1.0
 26
0.0
 36
0.0
 17
0.0
 27
1.0
 37
0.0
 76
     0
330
1F
  0
MLINESTYLE
  5
18
102
{ACAD_REACTORS
330
17
102
}
330
17
100
AcDbMlineStyle
  2
STANDARD
 70
     0
  3

 62
   256
 51
90.0
 52
90.0
 71
     2
 49
0.5
 62
   256
  6
BYLAYER
 49
-0.5
 62
   256
  6
BYLAYER
  0
ACDBPLACEHOLDER
  5
F
102
{ACAD_REACTORS
330
E
102
}
330
E
  0
TABLESTYLE
  5
240
102
{ACAD_REACTORS
330
23F
102
}
330
23F
100
AcDbTableStyle
  3
Standard
 70
     0
 71
     0
 40
1.5
 41
1.5
280
     0
281
     0
  7
Standard
140
4.5
170
     2
 62
     0
 63
     7
283
     0
274
    -2
284
     1
 64
     0
275
    -2
285
     1
 65
     0
276
    -2
286
     1
 66
     0
277
    -2
287
     1
 67
     0
278
    -2
288
     1
 68
     0
279
    -2
289
     1
 69
     0
  7
Standard
140
6.0
170
     5
 62
     0
 63
     7
283
     0
274
    -2
284
     1
 64
     0
275
    -2
285
     1
 65
     0
276
    -2
286
     1
 66
     0
277
    -2
287
     1
 67
     0
278
    -2
288
     1
 68
     0
279
    -2
289
     1
 69
     0
  7
Standard
140
4.5
170
     5
 62
     0
 63
     7
283
     0
274
    -2
284
     1
 64
     0
275
    -2
285
     1
 65
     0
276
    -2
286
     1
 66
     0
277
    -2
287
     1
 67
     0
278
    -2
288
     1
 68
     0
279
    -2
289
     1
 69
     0
  0
DICTIONARYVAR
  5
52C
102
{ACAD_REACTORS
330
52B
102
}
330
52B
100
DictionaryVariables
280
     0
  1
STANDARD
  0
DICTIONARYVAR
  5
52D
102
{ACAD_REACTORS
330
52B
102
}
330
52B
100
DictionaryVariables
280
     0
  1
1
  0
DICTIONARYVAR
  5
52E
102
{ACAD_REACTORS
330
52B
102
}
330
52B
100
DictionaryVariables
280
     0
  1

  0
DICTIONARY
  5
1960
330
1E
100
AcDbDictionary
280
     1
281
     1
  3
ACAD_XREC_ROUNDTRIP
360
1961
  0
DICTIONARY
  5
1964
330
26
100
AcDbDictionary
280
     1
281
     1
  3
ACAD_XREC_ROUNDTRIP
360
1965
  0
DICTIONARY
  5
1962
330
22
100
AcDbDictionary
280
     1
281
     1
  3
ACAD_XREC_ROUNDTRIP
360
1963
  0
XRECORD
  5
1961
102
{ACAD_REACTORS
330
1960
102
}
330
1960
100
AcDbXrecord
280
     1
102
SHADEPLOT
 70
     0
102
SHADEPLOTRESLEVEL
 70
     2
102
SHADEPLOTCUSTOMDPI
 70
   300
  0
XRECORD
  5
1965
102
{ACAD_REACTORS
330
1964
102
}
330
1964
100
AcDbXrecord
280
     1
102
SHADEPLOT
 70
     0
102
SHADEPLOTRESLEVEL
 70
     2
102
SHADEPLOTCUSTOMDPI
 70
   300
  0
XRECORD
  5
1963
102
{ACAD_REACTORS
330
1962
102
}
330
1962
100
AcDbXrecord
280
     1
102
SHADEPLOT
 70
     0
102
SHADEPLOTRESLEVEL
 70
     2
102
SHADEPLOTCUSTOMDPI
 70
   300
  0
ENDSEC
  0
EOF
