  0
SECTION
  2
HEADER
  9
$ACADVER
  1
AC1015
  9
$ACADMAINTVER
 70
     6
  9
$DWGCODEPAGE
  3
DOS932
  9
$INSBASE
 10
0.0
 20
0.0
 30
0.0
  9
$EXTMIN
 10
0.0
 20
0.0
 30
0.0
  9
$EXTMAX
 10
210.0
 20
297.0
 30
0.0
  9
$LIMMIN
 10
0.0
 20
0.0
  9
$LIMMAX
 10
210.0
 20
297.0
  9
$ORTHOMODE
 70
     0
  9
$REGENMODE
 70
     1
  9
$FILLMODE
 70
     1
  9
$QTEXTMODE
 70
     0
  9
$MIRRTEXT
 70
     1
  9
$LTSCALE
 40
1.0
  9
$ATTMODE
 70
     1
  9
$TEXTSIZE
 40
3.5
  9
$TRACEWID
 40
1.0
  9
$TEXTSTYLE
  7
Standard
  9
$CLAYER
  8
0
  9
$CELTYPE
  6
ByLayer
  9
$CECOLOR
 62
   256
  9
$CELTSCALE
 40
1.0
  9
$DISPSILH
 70
     0
  9
$DIMSCALE
 40
1.0
  9
$DIMASZ
 40
2.0
  9
$DIMEXO
 40
1.0
  9
$DIMDLI
 40
3.75
  9
$DIMRND
 40
0.0
  9
$DIMDLE
 40
0.0
  9
$DIMEXE
 40
1.0
  9
$DIMTP
 40
0.0
  9
$DIMTM
 40
0.0
  9
$DIMTXT
 40
3.5
  9
$DIMCEN
 40
2.5
  9
$DIMTSZ
 40
0.0
  9
$DIMTOL
 70
     0
  9
$DIMLIM
 70
     0
  9
$DIMTIH
 70
     1
  9
$DIMTOH
 70
     1
  9
$DIMSE1
 70
     0
  9
$DIMSE2
 70
     0
  9
$DIMTAD
 70
     1
  9
$DIMZIN
 70
     0
  9
$DIMBLK
  1

  9
$DIMASO
 70
     1
  9
$DIMSHO
 70
     1
  9
$DIMPOST
  1

  9
$DIMAPOST
  1

  9
$DIMALT
 70
     0
  9
$DIMALTD
 70
     3
  9
$DIMALTF
 40
0.0393700787
  9
$DIMLFAC
 40
1.0
  9
$DIMTOFL
 70
     1
  9
$DIMTVP
 40
0.0
  9
$DIMTIX
 70
     0
  9
$DIMSOXD
 70
     0
  9
$DIMSAH
 70
     0
  9
$DIMBLK1
  1

  9
$DIMBLK2
  1

  9
$DIMSTYLE
  2
ISO-25
  9
$DIMCLRD
 70
     0
  9
$DIMCLRE
 70
     0
  9
$DIMCLRT
 70
     0
  9
$DIMTFAC
 40
1.0
  9
$DIMGAP
 40
1.524
  9
$DIMJUST
 70
     0
  9
$DIMSD1
 70
     0
  9
$DIMSD2
 70
     0
  9
$DIMTOLJ
 70
     0
  9
$DIMTZIN
 70
     0
  9
$DIMALTZ
 70
     0
  9
$DIMALTTZ
 70
     0
  9
$DIMUPT
 70
     0
  9
$DIMDEC
 70
     2
  9
$DIMTDEC
 70
     2
  9
$DIMALTU
 70
     2
  9
$DIMALTTD
 70
     3
  9
$DIMTXSTY
  7
Standard
  9
$DIMAUNIT
 70
     0
  9
$DIMADEC
 70
     2
  9
$DIMALTRND
 40
0.0
  9
$DIMAZIN
 70
     0
  9
$DIMDSEP
 70
    44
  9
$DIMATFIT
 70
     3
  9
$DIMFRAC
 70
     0
  9
$DIMLDRBLK
  1

  9
$DIMLUNIT
 70
     2
  9
$DIMLWD
 70
    -2
  9
$DIMLWE
 70
    -2
  9
$DIMTMOVE
 70
     0
  9
$LUNITS
 70
     2
  9
$LUPREC
 70
     2
  9
$SKETCHINC
 40
1.0
  9
$FILLETRAD
 40
10.0
  9
$AUNITS
 70
     0
  9
$AUPREC
 70
     2
  9
$MENU
  1
.
  9
$ELEVATION
 40
0.0
  9
$PELEVATION
 40
0.0
  9
$THICKNESS
 40
0.0
  9
$LIMCHECK
 70
     0
  9
$CHAMFERA
 40
10.0
  9
$CHAMFERB
 40
10.0
  9
$CHAMFERC
 40
20.0
  9
$CHAMFERD
 40
0.0
  9
$SKPOLY
 70
     0
  9
$TDCREATE
 40
2456911.784171053
  9
$TDUCREATE
 40
2456911.409171053
  9
$TDUPDATE
 40
2456911.784173576
  9
$TDUUPDATE
 40
2456911.409173576
  9
$TDINDWG
 40
0.0000000116
  9
$TDUSRTIMER
 40
0.0000000116
  9
$USRTIMER
 70
     1
  9
$ANGBASE
 50
0.0
  9
$ANGDIR
 70
     0
  9
$PDMODE
 70
     0
  9
$PDSIZE
 40
-1.0
  9
$PLINEWID
 40
0.0
  9
$SPLFRAME
 70
     0
  9
$SPLINETYPE
 70
     6
  9
$SPLINESEGS
 70
     8
  9
$HANDSEED
  5
492
  9
$SURFTAB1
 70
     6
  9
$SURFTAB2
 70
     6
  9
$SURFTYPE
 70
     6
  9
$SURFU
 70
     6
  9
$SURFV
 70
     6
  9
$UCSBASE
  2

  9
$UCSNAME
  2

  9
$UCSORG
 10
0.0
 20
0.0
 30
0.0
  9
$UCSXDIR
 10
1.0
 20
0.0
 30
0.0
  9
$UCSYDIR
 10
0.0
 20
1.0
 30
0.0
  9
$UCSORTHOREF
  2

  9
$UCSORTHOVIEW
 70
     0
  9
$UCSORGTOP
 10
0.0
 20
0.0
 30
0.0
  9
$UCSORGBOTTOM
 10
0.0
 20
0.0
 30
0.0
  9
$UCSORGLEFT
 10
0.0
 20
0.0
 30
0.0
  9
$UCSORGRIGHT
 10
0.0
 20
0.0
 30
0.0
  9
$UCSORGFRONT
 10
0.0
 20
0.0
 30
0.0
  9
$UCSORGBACK
 10
0.0
 20
0.0
 30
0.0
  9
$PUCSBASE
  2

  9
$PUCSNAME
  2

  9
$PUCSORG
 10
0.0
 20
0.0
 30
0.0
  9
$PUCSXDIR
 10
1.0
 20
0.0
 30
0.0
  9
$PUCSYDIR
 10
0.0
 20
1.0
 30
0.0
  9
$PUCSORTHOREF
  2

  9
$PUCSORTHOVIEW
 70
     0
  9
$PUCSORGTOP
 10
0.0
 20
0.0
 30
0.0
  9
$PUCSORGBOTTOM
 10
0.0
 20
0.0
 30
0.0
  9
$PUCSORGLEFT
 10
0.0
 20
0.0
 30
0.0
  9
$PUCSORGRIGHT
 10
0.0
 20
0.0
 30
0.0
  9
$PUCSORGFRONT
 10
0.0
 20
0.0
 30
0.0
  9
$PUCSORGBACK
 10
0.0
 20
0.0
 30
0.0
  9
$USERI1
 70
     0
  9
$USERI2
 70
     0
  9
$USERI3
 70
     0
  9
$USERI4
 70
     0
  9
$USERI5
 70
     0
  9
$USERR1
 40
0.0
  9
$USERR2
 40
0.0
  9
$USERR3
 40
0.0
  9
$USERR4
 40
0.0
  9
$USERR5
 40
0.0
  9
$WORLDVIEW
 70
     1
  9
$SHADEDGE
 70
     3
  9
$SHADEDIF
 70
    70
  9
$TILEMODE
 70
     1
  9
$MAXACTVP
 70
    64
  9
$PINSBASE
 10
0.0
 20
0.0
 30
0.0
  9
$PLIMCHECK
 70
     0
  9
$PEXTMIN
 10
1.0000000000E+20
 20
1.0000000000E+20
 30
1.0000000000E+20
  9
$PEXTMAX
 10
-1.0000000000E+20
 20
-1.0000000000E+20
 30
-1.0000000000E+20
  9
$PLIMMIN
 10
0.0
 20
0.0
  9
$PLIMMAX
 10
420.0
 20
297.0
  9
$UNITMODE
 70
     0
  9
$VISRETAIN
 70
     1
  9
$PLINEGEN
 70
     0
  9
$PSLTSCALE
 70
     1
  9
$TREEDEPTH
 70
  3020
  9
$CMLSTYLE
  2
Standard
  9
$CMLJUST
 70
     0
  9
$CMLSCALE
 40
20.0
  9
$PROXYGRAPHICS
 70
     1
  9
$MEASUREMENT
 70
     1
  9
$CELWEIGHT
370
    -1
  9
$ENDCAPS
280
     0
  9
$JOINSTYLE
280
     0
  9
$LWDISPLAY
290
     1
  9
$INSUNITS
 70
     4
  9
$HYPERLINKBASE
  1

  9
$STYLESHEET
  1

  9
$XEDIT
290
     1
  9
$CEPSNTYPE
380
     0
  9
$PSTYLEMODE
290
     1
  9
$FINGERPRINTGUID
  2
{BE3BACC0-DAE3-44B1-A1ED-C5941FCD27B1}
  9
$VERSIONGUID
  2
{FAEB1C32-E019-11D5-929B-00C0DF256EC4}
  9
$EXTNAMES
290
     1
  9
$PSVPSCALE
 40
0.0
  9
$OLESTARTUP
290
     0
  0
ENDSEC
  0
SECTION
  2
CLASSES
  0
CLASS
  1
ACDBDICTIONARYWDFLT
  2
AcDbDictionaryWithDefault
  3
ObjectDBX Classes
 90
        0
280
     0
281
     0
  0
CLASS
  1
VISUALSTYLE
  2
AcDbVisualStyle
  3
ObjectDBX Classes
 90
     4095
280
     0
281
     0
  0
CLASS
  1
MATERIAL
  2
AcDbMaterial
  3
ObjectDBX Classes
 90
     1153
280
     0
281
     0
  0
CLASS
  1
ACDBPLACEHOLDER
  2
AcDbPlaceHolder
  3
ObjectDBX Classes
 90
        0
280
     0
281
     0
  0
CLASS
  1
LAYOUT
  2
AcDbLayout
  3
ObjectDBX Classes
 90
        0
280
     0
281
     0
  0
ENDSEC
  0
SECTION
  2
TABLES
  0
TABLE
  2
VPORT
  5
8
330
0
100
AcDbSymbolTable
 70
     1
  0
VPORT
  5
29
330
8
100
AcDbSymbolTableRecord
100
AcDbViewportTableRecord
  2
*Active
 70
     0
 10
0.0
 20
0.0
 11
1.0
 21
1.0
 12
105.0
 22
148.5
 13
0.0
 23
0.0
 14
10.0
 24
10.0
 15
10.0
 25
10.0
 16
0.0
 26
0.0
 36
1.0
 17
0.0
 27
0.0
 37
0.0
 40
297.0
 41
0.7070707071
 42
50.0
 43
0.0
 44
0.0
 50
0.0
 51
0.0
 71
     0
 72
  2000
 73
     1
 74
     3
 75
     0
 76
     0
 77
     0
 78
     0
281
     0
 65
     1
110
0.0
120
0.0
130
0.0
111
1.0
121
0.0
131
0.0
112
0.0
122
1.0
132
0.0
 79
     0
146
0.0
  0
ENDTAB
  0
TABLE
  2
LTYPE
  5
5
330
0
100
AcDbSymbolTable
 70
     6
  0
LTYPE
  5
14
330
5
100
AcDbSymbolTableRecord
100
AcDbLinetypeTableRecord
  2
ByBlock
 70
     0
  3

 72
    65
 73
     0
 40
0.0
  0
LTYPE
  5
15
330
5
100
AcDbSymbolTableRecord
100
AcDbLinetypeTableRecord
  2
ByLayer
 70
     0
  3

 72
    65
 73
     0
 40
0.0
  0
LTYPE
  5
16
330
5
100
AcDbSymbolTableRecord
100
AcDbLinetypeTableRecord
  2
Continuous
 70
     0
  3
Solid line
 72
    65
 73
     0
 40
0.0
  0
LTYPE
  5
3F
330
5
100
AcDbSymbolTableRecord
100
AcDbLinetypeTableRecord
  2
HIDDEN
 70
     0
  3
Hidden __ __ __ __ __ __ __ __ __ __ __ __ __ __
 72
    65
 73
     2
 40
1.905
 49
1.27
 74
     0
 49
-0.635
 74
     0
  0
LTYPE
  5
40
330
5
100
AcDbSymbolTableRecord
100
AcDbLinetypeTableRecord
  2
PHANTOM
 70
     0
  3
Phantom ______  __  __  ______  __  __  ______
 72
    65
 73
     6
 40
12.7
 49
6.35
 74
     0
 49
-1.27
 74
     0
 49
1.27
 74
     0
 49
-1.27
 74
     0
 49
1.27
 74
     0
 49
-1.27
 74
     0
  0
LTYPE
  5
41
330
5
100
AcDbSymbolTableRecord
100
AcDbLinetypeTableRecord
  2
CENTER
 70
     0
  3
Center ____ _ ____ _ ____ _ ____ _ ____ _ ____
 72
    65
 73
     4
 40
10.16
 49
6.35
 74
     0
 49
-1.27
 74
     0
 49
1.27
 74
     0
 49
-1.27
 74
     0
  0
LTYPE
  5
42
330
5
100
AcDbSymbolTableRecord
100
AcDbLinetypeTableRecord
  2
CENTERX2
 70
     0
  3
Center (2x) ________  __  ________  __  _____
 72
    65
 73
     4
 40
20.32
 49
12.7
 74
     0
 49
-2.54
 74
     0
 49
2.54
 74
     0
 49
-2.54
 74
     0
  0
LTYPE
  5
43
330
5
100
AcDbSymbolTableRecord
100
AcDbLinetypeTableRecord
  2
DOT2
 70
     0
  3
Dot (.5x) ........................................
 72
    65
 73
     2
 40
0.635
 49
0.0
 74
     0
 49
-0.635
 74
     0
  0
ENDTAB
  0
TABLE
  2
LAYER
  5
2
330
0
100
AcDbSymbolTable
 70
     1
  0
LAYER
  5
10
330
2
100
AcDbSymbolTableRecord
100
AcDbLayerTableRecord
  2
0
 70
     0
 62
     7
  6
Continuous
370
    -3
390
F
  0
ENDTAB
  0
TABLE
  2
STYLE
  5
3
330
0
100
AcDbSymbolTable
 70
     3
  0
STYLE
  5
11
330
3
100
AcDbSymbolTableRecord
100
AcDbTextStyleTableRecord
  2
Standard
 70
     0
 40
0.0
 41
1.0
 50
0.0
 71
     0
 42
3.5
  3
txt
  4
bigfont
  0
STYLE
  5
4C
330
3
100
AcDbSymbolTableRecord
100
AcDbTextStyleTableRecord
  2
SLDTEXTSTYLE0
 70
     0
 40
0.0
 41
0.7
 50
0.0
 71
     0
 42
0.2
  3
TXT
  4
bigfont
  0
STYLE
  5
1AF
330
3
100
AcDbSymbolTableRecord
100
AcDbTextStyleTableRecord
  2
SLDTEXTSTYLE1
 70
     0
 40
0.0
 41
0.75
 50
0.0
 71
     0
 42
0.2
  3
TXT
  4
bigfont
  0
ENDTAB
  0
TABLE
  2
VIEW
  5
6
330
0
100
AcDbSymbolTable
 70
     0
  0
ENDTAB
  0
TABLE
  2
UCS
  5
7
330
0
100
AcDbSymbolTable
 70
     0
  0
ENDTAB
  0
TABLE
  2
APPID
  5
9
330
0
100
AcDbSymbolTable
 70
     1
  0
APPID
  5
12
330
9
100
AcDbSymbolTableRecord
100
AcDbRegAppTableRecord
  2
ACAD
 70
     0
  0
ENDTAB
  0
TABLE
  2
DIMSTYLE
  5
A
330
0
100
AcDbSymbolTable
 70
     7
100
AcDbDimStyleTable
  0
DIMSTYLE
105
27
330
A
100
AcDbSymbolTableRecord
100
AcDbDimStyleTableRecord
  2
ISO-25
 70
     0
 41
2.5
 42
0.625
 43
3.75
 44
1.25
 73
     0
 74
     0
 77
     1
 78
     8
140
2.5
141
2.5
143
0.0393700787
147
0.625
171
     3
172
     1
178
     0
271
     2
272
     2
274
     3
278
    44
283
     0
284
     8
340
11
  0
DIMSTYLE
105
1B0
102
{ACAD_REACTORS
330
1AE
330
1BA
330
1C4
330
1F3
330
350
330
364
330
45A
330
47C
102
}
330
A
100
AcDbSymbolTableRecord
100
AcDbDimStyleTableRecord
  2
SLDDIMSTYLE0
 70
     0
 41
2.0
 44
0.0
 45
0.000000001
 73
     0
 74
     0
 77
     3
 78
    12
 79
     3
140
3.5
147
0.875
173
     1
178
     0
271
     2
272
     2
276
     2
284
    12
340
1AF
  0
DIMSTYLE
105
1CF
102
{ACAD_REACTORS
330
1CE
102
}
330
A
100
AcDbSymbolTableRecord
100
AcDbDimStyleTableRecord
  2
SLDDIMSTYLE1
 70
     0
 41
2.0
 44
0.0
 45
0.000000001
 73
     0
 74
     0
 77
     3
 78
    12
 79
     3
140
3.5
147
0.875
172
     1
173
     1
178
     0
271
     1
272
     2
276
     2
284
    12
289
     0
340
1AF
  0
DIMSTYLE
105
1DC
102
{ACAD_REACTORS
330
1DB
330
465
102
}
330
A
100
AcDbSymbolTableRecord
100
AcDbDimStyleTableRecord
  2
SLDDIMSTYLE2
 70
     0
 41
2.0
 44
0.0
 45
0.000000001
 73
     0
 74
     0
 77
     3
 78
    12
 79
     3
140
3.5
147
0.875
172
     1
173
     1
178
     0
271
     2
272
     2
276
     2
284
    12
289
     0
340
1AF
  0
DIMSTYLE
105
1E9
102
{ACAD_REACTORS
330
1E8
330
35A
102
}
330
A
100
AcDbSymbolTableRecord
100
AcDbDimStyleTableRecord
  2
SLDDIMSTYLE3
 70
     0
 41
2.0
 44
0.0
 45
0.000000001
 73
     0
 74
     0
 77
     3
 78
    12
 79
     3
140
3.5
147
0.875
173
     1
178
     0
271
     1
272
     1
276
     2
284
    12
340
1AF
  0
DIMSTYLE
105
1FE
330
A
100
AcDbSymbolTableRecord
100
AcDbDimStyleTableRecord
  2
SLDDIMSTYLE4
 70
     0
 41
2.0
 44
0.0
 45
0.000000001
140
0.0
146
2.0
147
0.0
173
     1
178
     0
271
     0
272
     0
276
     2
340
11
  0
DIMSTYLE
105
472
102
{ACAD_REACTORS
330
471
102
}
330
A
100
AcDbSymbolTableRecord
100
AcDbDimStyleTableRecord
  2
SLDDIMSTYLE5
 70
     0
 41
2.0
 44
0.0
 45
0.000000001
 73
     0
 74
     0
 77
     3
 78
     4
 79
     1
140
3.5
147
0.875
173
     1
178
     0
271
     2
272
     2
276
     2
284
    12
340
1AF
  0
ENDTAB
  0
TABLE
  2
BLOCK_RECORD
  5
1
330
0
100
AcDbSymbolTable
 70
    23
  0
BLOCK_RECORD
  5
1F
330
1
100
AcDbSymbolTableRecord
100
AcDbBlockTableRecord
  2
*Model_Space
340
22
  0
BLOCK_RECORD
  5
1B
330
1
100
AcDbSymbolTableRecord
100
AcDbBlockTableRecord
  2
*Paper_Space
340
1E
  0
BLOCK_RECORD
  5
23
330
1
100
AcDbSymbolTableRecord
100
AcDbBlockTableRecord
  2
*Paper_Space0
340
26
  0
BLOCK_RECORD
  5
1B1
330
1
100
AcDbSymbolTableRecord
100
AcDbBlockTableRecord
  2
_D
340
0
  0
BLOCK_RECORD
  5
1BB
330
1
100
AcDbSymbolTableRecord
100
AcDbBlockTableRecord
  2
_D_1
340
0
  0
BLOCK_RECORD
  5
1C5
330
1
100
AcDbSymbolTableRecord
100
AcDbBlockTableRecord
  2
_D_2
340
0
  0
BLOCK_RECORD
  5
1D0
330
1
100
AcDbSymbolTableRecord
100
AcDbBlockTableRecord
  2
_D_3
340
0
  0
BLOCK_RECORD
  5
1DD
330
1
100
AcDbSymbolTableRecord
100
AcDbBlockTableRecord
  2
_D_4
340
0
  0
BLOCK_RECORD
  5
1EA
330
1
100
AcDbSymbolTableRecord
100
AcDbBlockTableRecord
  2
_D_5
340
0
  0
BLOCK_RECORD
  5
1F4
330
1
100
AcDbSymbolTableRecord
100
AcDbBlockTableRecord
  2
_D_6
340
0
  0
BLOCK_RECORD
  5
204
330
1
100
AcDbSymbolTableRecord
100
AcDbBlockTableRecord
  2
SW_CENTERMARKSYMBOL_0
340
0
102
{BLKREFS
331
20F
102
}
  0
BLOCK_RECORD
  5
210
330
1
100
AcDbSymbolTableRecord
100
AcDbBlockTableRecord
  2
SW_CENTERMARKSYMBOL_1
340
0
102
{BLKREFS
331
21B
102
}
  0
BLOCK_RECORD
  5
351
330
1
100
AcDbSymbolTableRecord
100
AcDbBlockTableRecord
  2
_D_7
340
0
  0
BLOCK_RECORD
  5
35B
330
1
100
AcDbSymbolTableRecord
100
AcDbBlockTableRecord
  2
_D_8
340
0
  0
BLOCK_RECORD
  5
365
330
1
100
AcDbSymbolTableRecord
100
AcDbBlockTableRecord
  2
_D_9
340
0
  0
BLOCK_RECORD
  5
36E
330
1
100
AcDbSymbolTableRecord
100
AcDbBlockTableRecord
  2
SW_CENTERMARKSYMBOL_2
340
0
102
{BLKREFS
331
379
102
}
  0
BLOCK_RECORD
  5
37A
330
1
100
AcDbSymbolTableRecord
100
AcDbBlockTableRecord
  2
SW_CENTERMARKSYMBOL_3
340
0
102
{BLKREFS
331
385
102
}
  0
BLOCK_RECORD
  5
386
330
1
100
AcDbSymbolTableRecord
100
AcDbBlockTableRecord
  2
SW_CENTERMARKSYMBOL_4
340
0
102
{BLKREFS
331
391
102
}
  0
BLOCK_RECORD
  5
392
330
1
100
AcDbSymbolTableRecord
100
AcDbBlockTableRecord
  2
SW_CENTERMARKSYMBOL_5
340
0
102
{BLKREFS
331
39D
102
}
  0
BLOCK_RECORD
  5
39E
330
1
100
AcDbSymbolTableRecord
100
AcDbBlockTableRecord
  2
SW_CENTERMARKSYMBOL_6
340
0
102
{BLKREFS
331
3A9
102
}
  0
BLOCK_RECORD
  5
45B
330
1
100
AcDbSymbolTableRecord
100
AcDbBlockTableRecord
  2
_D_10
340
0
  0
BLOCK_RECORD
  5
466
330
1
100
AcDbSymbolTableRecord
100
AcDbBlockTableRecord
  2
_D_11
340
0
  0
BLOCK_RECORD
  5
473
330
1
100
AcDbSymbolTableRecord
100
AcDbBlockTableRecord
  2
_D_12
340
0
  0
BLOCK_RECORD
  5
47D
330
1
100
AcDbSymbolTableRecord
100
AcDbBlockTableRecord
  2
_D_13
340
0
  0
BLOCK_RECORD
  5
486
330
1
100
AcDbSymbolTableRecord
100
AcDbBlockTableRecord
  2
SW_CENTERMARKSYMBOL_7
340
0
102
{BLKREFS
331
491
102
}
  0
ENDTAB
  0
ENDSEC
  0
SECTION
  2
BLOCKS
  0
BLOCK
  5
20
330
1F
100
AcDbEntity
  8
0
100
AcDbBlockBegin
  2
*Model_Space
 70
     0
 10
0.0
 20
0.0
 30
0.0
  3
*Model_Space
  1

  0
ENDBLK
  5
21
330
1F
100
AcDbEntity
  8
0
100
AcDbBlockEnd
  0
BLOCK
  5
1C
330
1B
100
AcDbEntity
 67
     1
  8
0
100
AcDbBlockBegin
  2
*Paper_Space
 70
     0
 10
0.0
 20
0.0
 30
0.0
  3
*Paper_Space
  1

  0
ENDBLK
  5
1D
330
1B
100
AcDbEntity
 67
     1
  8
0
100
AcDbBlockEnd
  0
BLOCK
  5
24
330
23
100
AcDbEntity
  8
0
100
AcDbBlockBegin
  2
*Paper_Space0
 70
     0
 10
0.0
 20
0.0
 30
0.0
  3
*Paper_Space0
  1

  0
ENDBLK
  5
25
330
23
100
AcDbEntity
  8
0
100
AcDbBlockEnd
  0
BLOCK
  5
1B2
330
1B1
100
AcDbEntity
  8
0
100
AcDbBlockBegin
  2
_D
 70
     0
 10
0.0
 20
0.0
 30
0.0
  3
_D
  1

  0
SOLID
  5
1B4
330
1B1
100
AcDbEntity
  8
0
  6
Continuous
 62
     7
370
     0
100
AcDbTrace
 10
102.99744785
 20
195.0717752851
 30
0.0
 11
102.24744785
 21
193.0717752851
 31
0.0
 12
103.74744785
 22
193.0717752851
 32
0.0
 13
103.74744785
 23
193.0717752851
 33
0.0
  0
SOLID
  5
1B5
330
1B1
100
AcDbEntity
  8
0
  6
Continuous
 62
     7
370
     0
100
AcDbTrace
 10
102.99744785
 20
174.0717752851
 30
0.0
 11
103.74744785
 21
176.0717752851
 31
0.0
 12
102.24744785
 22
176.0717752851
 32
0.0
 13
102.24744785
 23
176.0717752851
 33
0.0
  0
LINE
  5
1B6
330
1B1
100
AcDbEntity
  8
0
  6
Continuous
 62
     7
370
     0
100
AcDbLine
 10
122.3206756589
 20
195.0717752851
 30
0.0
 11
101.99744785
 21
195.0717752851
 31
0.0
  0
LINE
  5
1B7
330
1B1
100
AcDbEntity
  8
0
  6
Continuous
 62
     7
370
     0
100
AcDbLine
 10
141.5556755787
 20
174.0717752851
 30
0.0
 11
101.99744785
 21
174.0717752851
 31
0.0
  0
LINE
  5
1B8
330
1B1
100
AcDbEntity
  8
0
  6
Continuous
 62
     7
370
     0
100
AcDbLine
 10
102.99744785
 20
195.0717752851
 30
0.0
 11
102.99744785
 21
174.0717752851
 31
0.0
  0
MTEXT
  5
1B9
330
1B1
100
AcDbEntity
  8
0
  6
Continuous
 62
     7
370
     0
100
AcDbMText
 10
98.4857109355
 20
182.1959761792
 30
0.1
 40
3.5
 41
0.0
 71
     1
 72
     1
  1
21
  7
SLDTEXTSTYLE1
 11
-7.044195017643634E-15
 21
1.0
 31
0.0
 73
     1
 44
1.0
  0
ENDBLK
  5
1B3
330
1B1
100
AcDbEntity
  8
0
100
AcDbBlockEnd
  0
BLOCK
  5
1BC
330
1BB
100
AcDbEntity
  8
0
100
AcDbBlockBegin
  2
_D_1
 70
     0
 10
0.0
 20
0.0
 30
0.0
  3
_D_1
  1

  0
SOLID
  5
1BE
330
1BB
100
AcDbEntity
  8
0
  6
Continuous
 62
     7
370
     0
100
AcDbTrace
 10
126.5556755787
 20
161.4423276296
 30
0.0
 11
128.5556755787
 21
160.6923276296
 31
0.0
 12
128.5556755787
 22
162.1923276296
 32
0.0
 13
128.5556755787
 23
162.1923276296
 33
0.0
  0
SOLID
  5
1BF
330
1BB
100
AcDbEntity
  8
0
  6
Continuous
 62
     7
370
     0
100
AcDbTrace
 10
164.5556755787
 20
161.4423276296
 30
0.0
 11
162.5556755787
 21
162.1923276296
 31
0.0
 12
162.5556755787
 22
160.6923276296
 32
0.0
 13
162.5556755787
 23
160.6923276296
 33
0.0
  0
LINE
  5
1C0
330
1BB
100
AcDbEntity
  8
0
  6
Continuous
 62
     7
370
     0
100
AcDbLine
 10
126.5556755787
 20
189.5717752851
 30
0.0
 11
126.5556755787
 21
160.4423276296
 31
0.0
  0
LINE
  5
1C1
330
1BB
100
AcDbEntity
  8
0
  6
Continuous
 62
     7
370
     0
100
AcDbLine
 10
164.5556755787
 20
186.8217752851
 30
0.0
 11
164.5556755787
 21
160.4423276296
 31
0.0
  0
LINE
  5
1C2
330
1BB
100
AcDbEntity
  8
0
  6
Continuous
 62
     7
370
     0
100
AcDbLine
 10
126.5556755787
 20
161.4423276296
 30
0.0
 11
164.5556755787
 21
161.4423276296
 31
0.0
  0
MTEXT
  5
1C3
330
1BB
100
AcDbEntity
  8
0
  6
Continuous
 62
     7
370
     0
100
AcDbMText
 10
142.9695643852
 20
165.9540645442
 30
-6.860690685
 40
3.5
 41
0.0
 71
     1
 72
     1
  1
38
  7
SLDTEXTSTYLE1
 73
     1
 44
1.0
  0
ENDBLK
  5
1BD
330
1BB
100
AcDbEntity
  8
0
100
AcDbBlockEnd
  0
BLOCK
  5
1C6
330
1C5
100
AcDbEntity
  8
0
100
AcDbBlockBegin
  2
_D_2
 70
     0
 10
0.0
 20
0.0
 30
0.0
  3
_D_2
  1

  0
SOLID
  5
1C8
330
1C5
100
AcDbEntity
  8
0
  6
Continuous
 62
     7
370
     0
100
AcDbTrace
 10
121.5556755787
 20
152.0717752851
 30
0.0
 11
123.5556755787
 21
151.3217752851
 31
0.0
 12
123.5556755787
 22
152.8217752851
 32
0.0
 13
123.5556755787
 23
152.8217752851
 33
0.0
  0
SOLID
  5
1C9
330
1C5
100
AcDbEntity
  8
0
  6
Continuous
 62
     7
370
     0
100
AcDbTrace
 10
169.5556755787
 20
152.0717752851
 30
0.0
 11
167.5556755787
 21
152.8217752851
 31
0.0
 12
167.5556755787
 22
151.3217752851
 32
0.0
 13
167.5556755787
 23
151.3217752851
 33
0.0
  0
LINE
  5
1CA
330
1C5
100
AcDbEntity
  8
0
  6
Continuous
 62
     7
370
     0
100
AcDbLine
 10
121.5556755787
 20
181.0717752851
 30
0.0
 11
121.5556755787
 21
151.0717752851
 31
0.0
  0
LINE
  5
1CB
330
1C5
100
AcDbEntity
  8
0
  6
Continuous
 62
     7
370
     0
100
AcDbLine
 10
169.5556755787
 20
181.0717752851
 30
0.0
 11
169.5556755787
 21
151.0717752851
 31
0.0
  0
LINE
  5
1CC
330
1C5
100
AcDbEntity
  8
0
  6
Continuous
 62
     7
370
     0
100
AcDbLine
 10
121.5556755787
 20
152.0717752851
 30
0.0
 11
169.5556755787
 21
152.0717752851
 31
0.0
  0
MTEXT
  5
1CD
330
1C5
100
AcDbEntity
  8
0
  6
Continuous
 62
     7
370
     0
100
AcDbMText
 10
142.9695643852
 20
156.5835121997
 30
-6.860690685
 40
3.5
 41
0.0
 71
     1
 72
     1
  1
48
  7
SLDTEXTSTYLE1
 73
     1
 44
1.0
  0
ENDBLK
  5
1C7
330
1C5
100
AcDbEntity
  8
0
100
AcDbBlockEnd
  0
BLOCK
  5
1D1
330
1D0
100
AcDbEntity
  8
0
100
AcDbBlockBegin
  2
_D_3
 70
     0
 10
0.0
 20
0.0
 30
0.0
  3
_D_3
  1

  0
SOLID
  5
1D3
330
1D0
100
AcDbEntity
  8
0
  6
Continuous
 62
     7
370
     0
100
AcDbTrace
 10
162.3056755787
 20
169.3223599125
 30
0.0
 11
160.3056755787
 21
170.0723599125
 31
0.0
 12
160.3056755787
 22
168.5723599125
 32
0.0
 13
160.3056755787
 23
168.5723599125
 33
0.0
  0
SOLID
  5
1D4
330
1D0
100
AcDbEntity
  8
0
  6
Continuous
 62
     7
370
     0
100
AcDbTrace
 10
166.8056755787
 20
169.3223599125
 30
0.0
 11
168.8056755787
 21
168.5723599125
 31
0.0
 12
168.8056755787
 22
170.0723599125
 32
0.0
 13
168.8056755787
 23
170.0723599125
 33
0.0
  0
LINE
  5
1D5
330
1D0
100
AcDbEntity
  8
0
  6
Continuous
 62
     7
370
     0
100
AcDbLine
 10
162.3056755787
 20
191.5717752851
 30
0.0
 11
162.3056755787
 21
168.3223599125
 31
0.0
  0
LINE
  5
1D6
330
1D0
100
AcDbEntity
  8
0
  6
Continuous
 62
     7
370
     0
100
AcDbLine
 10
166.8056755787
 20
191.5717752851
 30
0.0
 11
166.8056755787
 21
168.3223599125
 31
0.0
  0
LINE
  5
1D7
330
1D0
100
AcDbEntity
  8
0
  6
Continuous
 62
     7
370
     0
100
AcDbLine
 10
162.3056755787
 20
169.3223599125
 30
0.0
 11
152.6597128582
 21
169.3223599125
 31
0.0
  0
LINE
  5
1D8
330
1D0
100
AcDbEntity
  8
0
  6
Continuous
 62
     7
370
     0
100
AcDbLine
 10
162.3056755787
 20
169.3223599125
 30
0.0
 11
166.8056755787
 21
169.3223599125
 31
0.0
  0
LINE
  5
1D9
330
1D0
100
AcDbEntity
  8
0
  6
Continuous
 62
     7
370
     0
100
AcDbLine
 10
166.8056755787
 20
169.3223599125
 30
0.0
 11
171.8056755787
 21
169.3223599125
 31
0.0
  0
MTEXT
  5
1DA
330
1D0
100
AcDbEntity
  8
0
  6
Continuous
 62
     7
370
     0
100
AcDbMText
 10
152.6597128582
 20
173.8340968271
 30
-6.860690685
 40
3.5
 41
0.0
 71
     1
 72
     1
  1
4.5
  7
SLDTEXTSTYLE1
 73
     1
 44
1.0
  0
ENDBLK
  5
1D2
330
1D0
100
AcDbEntity
  8
0
100
AcDbBlockEnd
  0
BLOCK
  5
1DE
330
1DD
100
AcDbEntity
  8
0
100
AcDbBlockBegin
  2
_D_4
 70
     0
 10
0.0
 20
0.0
 30
0.0
  3
_D_4
  1

  0
SOLID
  5
1E0
330
1DD
100
AcDbEntity
  8
0
  6
Continuous
 62
     7
370
     0
100
AcDbTrace
 10
181.2868166339
 20
197.5717752851
 30
0.0
 11
182.0368166339
 21
199.5717752851
 31
0.0
 12
180.5368166339
 22
199.5717752851
 32
0.0
 13
180.5368166339
 23
199.5717752851
 33
0.0
  0
SOLID
  5
1E1
330
1DD
100
AcDbEntity
  8
0
  6
Continuous
 62
     7
370
     0
100
AcDbTrace
 10
181.2868166339
 20
192.5717752851
 30
0.0
 11
180.5368166339
 21
190.5717752851
 31
0.0
 12
182.0368166339
 22
190.5717752851
 32
0.0
 13
182.0368166339
 23
190.5717752851
 33
0.0
  0
LINE
  5
1E2
330
1DD
100
AcDbEntity
  8
0
  6
Continuous
 62
     7
370
     0
100
AcDbLine
 10
170.3056755787
 20
197.5717752851
 30
0.0
 11
182.2868166339
 21
197.5717752851
 31
0.0
  0
LINE
  5
1E3
330
1DD
100
AcDbEntity
  8
0
  6
Continuous
 62
     7
370
     0
100
AcDbLine
 10
170.3056755787
 20
192.5717752851
 30
0.0
 11
182.2868166339
 21
192.5717752851
 31
0.0
  0
LINE
  5
1E4
330
1DD
100
AcDbEntity
  8
0
  6
Continuous
 62
     7
370
     0
100
AcDbLine
 10
181.2868166339
 20
197.5717752851
 30
0.0
 11
181.2868166339
 21
202.5717752851
 31
0.0
  0
LINE
  5
1E5
330
1DD
100
AcDbEntity
  8
0
  6
Continuous
 62
     7
370
     0
100
AcDbLine
 10
181.2868166339
 20
197.5717752851
 30
0.0
 11
181.2868166339
 21
192.5717752851
 31
0.0
  0
LINE
  5
1E6
330
1DD
100
AcDbEntity
  8
0
  6
Continuous
 62
     7
370
     0
100
AcDbLine
 10
181.2868166339
 20
192.5717752851
 30
0.0
 11
181.2868166339
 21
187.5717752851
 31
0.0
  0
MTEXT
  5
1E7
330
1DD
100
AcDbEntity
  8
0
  6
Continuous
 62
     7
370
     0
100
AcDbMText
 10
176.7750797193
 20
193.9480433915
 30
-6.860690685
 40
3.5
 41
0.0
 71
     1
 72
     1
  1
5
  7
SLDTEXTSTYLE1
 11
-7.044195017643634E-15
 21
1.0
 31
0.0
 73
     1
 44
1.0
  0
ENDBLK
  5
1DF
330
1DD
100
AcDbEntity
  8
0
100
AcDbBlockEnd
  0
BLOCK
  5
1EB
330
1EA
100
AcDbEntity
  8
0
100
AcDbBlockBegin
  2
_D_5
 70
     0
 10
0.0
 20
0.0
 30
0.0
  3
_D_5
  1

  0
SOLID
  5
1ED
330
1EA
100
AcDbEntity
  8
0
  6
Continuous
 62
     7
370
     0
100
AcDbTrace
 10
181.2868166339
 20
192.5717752851
 30
0.0
 11
180.5368166339
 21
190.5717752851
 31
0.0
 12
182.0368166339
 22
190.5717752851
 32
0.0
 13
182.0368166339
 23
190.5717752851
 33
0.0
  0
SOLID
  5
1EE
330
1EA
100
AcDbEntity
  8
0
  6
Continuous
 62
     7
370
     0
100
AcDbTrace
 10
181.2868166339
 20
180.0717752851
 30
0.0
 11
182.0368166339
 21
182.0717752851
 31
0.0
 12
180.5368166339
 22
182.0717752851
 32
0.0
 13
180.5368166339
 23
182.0717752851
 33
0.0
  0
LINE
  5
1EF
330
1EA
100
AcDbEntity
  8
0
  6
Continuous
 62
     7
370
     0
100
AcDbLine
 10
170.3056755787
 20
192.5717752851
 30
0.0
 11
182.2868166339
 21
192.5717752851
 31
0.0
  0
LINE
  5
1F0
330
1EA
100
AcDbEntity
  8
0
  6
Continuous
 62
     7
370
     0
100
AcDbLine
 10
168.5556755787
 20
180.0717752851
 30
0.0
 11
182.2868166339
 21
180.0717752851
 31
0.0
  0
LINE
  5
1F1
330
1EA
100
AcDbEntity
  8
0
  6
Continuous
 62
     7
370
     0
100
AcDbLine
 10
181.2868166339
 20
192.5717752851
 30
0.0
 11
181.2868166339
 21
180.0717752851
 31
0.0
  0
MTEXT
  5
1F2
330
1EA
100
AcDbEntity
  8
0
  6
Continuous
 62
     7
370
     0
100
AcDbMText
 10
176.7750797193
 20
181.7960807546
 30
-6.860690685
 40
3.5
 41
0.0
 71
     1
 72
     1
  1
12.5
  7
SLDTEXTSTYLE1
 11
-7.044195017643634E-15
 21
1.0
 31
0.0
 73
     1
 44
1.0
  0
ENDBLK
  5
1EC
330
1EA
100
AcDbEntity
  8
0
100
AcDbBlockEnd
  0
BLOCK
  5
1F5
330
1F4
100
AcDbEntity
  8
0
100
AcDbBlockBegin
  2
_D_6
 70
     0
 10
0.0
 20
0.0
 30
0.0
  3
_D_6
  1

  0
SOLID
  5
1F7
330
1F4
100
AcDbEntity
  8
0
  6
Continuous
 62
     7
370
     0
100
AcDbTrace
 10
111.0556755787
 20
202.0717752851
 30
0.0
 11
110.3056755787
 21
200.0717752851
 31
0.0
 12
111.8056755787
 22
200.0717752851
 32
0.0
 13
111.8056755787
 23
200.0717752851
 33
0.0
  0
SOLID
  5
1F8
330
1F4
100
AcDbEntity
  8
0
  6
Continuous
 62
     7
370
     0
100
AcDbTrace
 10
111.0556755787
 20
180.0717752851
 30
0.0
 11
111.8056755787
 21
182.0717752851
 31
0.0
 12
110.3056755787
 22
182.0717752851
 32
0.0
 13
110.3056755787
 23
182.0717752851
 33
0.0
  0
LINE
  5
1F9
330
1F4
100
AcDbEntity
  8
0
  6
Continuous
 62
     7
370
     0
100
AcDbLine
 10
122.5556755787
 20
202.0717752851
 30
0.0
 11
110.0556755787
 21
202.0717752851
 31
0.0
  0
LINE
  5
1FA
330
1F4
100
AcDbEntity
  8
0
  6
Continuous
 62
     7
370
     0
100
AcDbLine
 10
122.5556755787
 20
180.0717752851
 30
0.0
 11
110.0556755787
 21
180.0717752851
 31
0.0
  0
LINE
  5
1FB
330
1F4
100
AcDbEntity
  8
0
  6
Continuous
 62
     7
370
     0
100
AcDbLine
 10
111.0556755787
 20
202.0717752851
 30
0.0
 11
111.0556755787
 21
180.0717752851
 31
0.0
  0
MTEXT
  5
1FC
330
1F4
100
AcDbEntity
  8
0
  6
Continuous
 62
     7
370
     0
100
AcDbMText
 10
106.5439386641
 20
189.2856773758
 30
-6.860690685
 40
3.5
 41
0.0
 71
     1
 72
     1
  1
22
  7
SLDTEXTSTYLE1
 11
-7.044195017643634E-15
 21
1.0
 31
0.0
 73
     1
 44
1.0
  0
ENDBLK
  5
1F6
330
1F4
100
AcDbEntity
  8
0
100
AcDbBlockEnd
  0
BLOCK
  5
205
330
204
100
AcDbEntity
  8
0
100
AcDbBlockBegin
  2
SW_CENTERMARKSYMBOL_0
 70
     0
 10
0.0
 20
0.0
 30
0.0
  3
SW_CENTERMARKSYMBOL_0
  1

  0
LINE
  5
207
330
204
100
AcDbEntity
  8
0
  6
Continuous
 62
     0
370
     0
100
AcDbLine
 10
0.0
 20
0.0
 30
0.0
 11
0.0
 21
2.5
 31
0.0
  0
LINE
  5
208
330
204
100
AcDbEntity
  8
0
  6
Continuous
 62
     0
370
     0
100
AcDbLine
 10
0.0
 20
0.0
 30
0.0
 11
-2.5
 21
0.0
 31
0.0
  0
LINE
  5
209
330
204
100
AcDbEntity
  8
0
  6
Continuous
 62
     0
370
     0
100
AcDbLine
 10
0.0
 20
0.0
 30
0.0
 11
0.0
 21
-2.5
 31
0.0
  0
LINE
  5
20A
330
204
100
AcDbEntity
  8
0
  6
Continuous
 62
     0
370
     0
100
AcDbLine
 10
0.0
 20
0.0
 30
0.0
 11
2.5
 21
0.0
 31
0.0
  0
LINE
  5
20B
330
204
100
AcDbEntity
  8
0
  6
Continuous
 62
     0
370
     0
100
AcDbLine
 10
0.0
 20
2.5
 30
0.0
 11
0.0
 21
4.75
 31
0.0
  0
LINE
  5
20C
330
204
100
AcDbEntity
  8
0
  6
Continuous
 62
     0
370
     0
100
AcDbLine
 10
-2.5
 20
0.0
 30
0.0
 11
-4.75
 21
0.0
 31
0.0
  0
LINE
  5
20D
330
204
100
AcDbEntity
  8
0
  6
Continuous
 62
     0
370
     0
100
AcDbLine
 10
0.0
 20
-2.5
 30
0.0
 11
0.0
 21
-4.75
 31
0.0
  0
LINE
  5
20E
330
204
100
AcDbEntity
  8
0
  6
Continuous
 62
     0
370
     0
100
AcDbLine
 10
2.5
 20
0.0
 30
0.0
 11
4.75
 21
0.0
 31
0.0
  0
ENDBLK
  5
206
330
204
100
AcDbEntity
  8
0
100
AcDbBlockEnd
  0
BLOCK
  5
211
330
210
100
AcDbEntity
  8
0
100
AcDbBlockBegin
  2
SW_CENTERMARKSYMBOL_1
 70
     0
 10
0.0
 20
0.0
 30
0.0
  3
SW_CENTERMARKSYMBOL_1
  1

  0
LINE
  5
213
330
210
100
AcDbEntity
  8
0
  6
Continuous
 62
     0
370
     0
100
AcDbLine
 10
0.0
 20
0.0
 30
0.0
 11
0.0
 21
2.5
 31
0.0
  0
LINE
  5
214
330
210
100
AcDbEntity
  8
0
  6
Continuous
 62
     0
370
     0
100
AcDbLine
 10
0.0
 20
0.0
 30
0.0
 11
-2.5
 21
0.0
 31
0.0
  0
LINE
  5
215
330
210
100
AcDbEntity
  8
0
  6
Continuous
 62
     0
370
     0
100
AcDbLine
 10
0.0
 20
0.0
 30
0.0
 11
0.0
 21
-2.5
 31
0.0
  0
LINE
  5
216
330
210
100
AcDbEntity
  8
0
  6
Continuous
 62
     0
370
     0
100
AcDbLine
 10
0.0
 20
0.0
 30
0.0
 11
2.5
 21
0.0
 31
0.0
  0
LINE
  5
217
330
210
100
AcDbEntity
  8
0
  6
Continuous
 62
     0
370
     0
100
AcDbLine
 10
0.0
 20
2.5
 30
0.0
 11
0.0
 21
4.75
 31
0.0
  0
LINE
  5
218
330
210
100
AcDbEntity
  8
0
  6
Continuous
 62
     0
370
     0
100
AcDbLine
 10
-2.5
 20
0.0
 30
0.0
 11
-4.75
 21
0.0
 31
0.0
  0
LINE
  5
219
330
210
100
AcDbEntity
  8
0
  6
Continuous
 62
     0
370
     0
100
AcDbLine
 10
0.0
 20
-2.5
 30
0.0
 11
0.0
 21
-4.75
 31
0.0
  0
LINE
  5
21A
330
210
100
AcDbEntity
  8
0
  6
Continuous
 62
     0
370
     0
100
AcDbLine
 10
2.5
 20
0.0
 30
0.0
 11
4.75
 21
0.0
 31
0.0
  0
ENDBLK
  5
212
330
210
100
AcDbEntity
  8
0
100
AcDbBlockEnd
  0
BLOCK
  5
352
330
351
100
AcDbEntity
  8
0
100
AcDbBlockBegin
  2
_D_7
 70
     0
 10
0.0
 20
0.0
 30
0.0
  3
_D_7
  1

  0
SOLID
  5
354
330
351
100
AcDbEntity
  8
0
  6
Continuous
 62
     7
370
     0
100
AcDbTrace
 10
182.9635467198
 20
112.0850090286
 30
0.0
 11
182.2135467198
 21
110.0850090286
 31
0.0
 12
183.7135467198
 22
110.0850090286
 32
0.0
 13
183.7135467198
 23
110.0850090286
 33
0.0
  0
SOLID
  5
355
330
351
100
AcDbEntity
  8
0
  6
Continuous
 62
     7
370
     0
100
AcDbTrace
 10
182.9635467198
 20
84.0850090286
 30
0.0
 11
183.7135467198
 21
86.0850090286
 31
0.0
 12
182.2135467198
 22
86.0850090286
 32
0.0
 13
182.2135467198
 23
86.0850090286
 33
0.0
  0
LINE
  5
356
330
351
100
AcDbEntity
  8
0
  6
Continuous
 62
     7
370
     0
100
AcDbLine
 10
157.2400352901
 20
112.0850090286
 30
0.0
 11
183.9635467198
 21
112.0850090286
 31
0.0
  0
LINE
  5
357
330
351
100
AcDbEntity
  8
0
  6
Continuous
 62
     7
370
     0
100
AcDbLine
 10
170.5556755787
 20
84.0850090286
 30
0.0
 11
183.9635467198
 21
84.0850090286
 31
0.0
  0
LINE
  5
358
330
351
100
AcDbEntity
  8
0
  6
Continuous
 62
     7
370
     0
100
AcDbLine
 10
182.9635467198
 20
112.0850090286
 30
0.0
 11
182.9635467198
 21
84.0850090286
 31
0.0
  0
MTEXT
  5
359
330
351
100
AcDbEntity
  8
0
  6
Continuous
 62
     7
370
     0
100
AcDbMText
 10
178.4518098053
 20
94.8067583898
 30
-16.5600465905
 40
3.5
 41
0.0
 71
     1
 72
     1
  1
28
  7
SLDTEXTSTYLE1
 11
-7.044195017643634E-15
 21
1.0
 31
0.0
 73
     1
 44
1.0
  0
ENDBLK
  5
353
330
351
100
AcDbEntity
  8
0
100
AcDbBlockEnd
  0
BLOCK
  5
35C
330
35B
100
AcDbEntity
  8
0
100
AcDbBlockBegin
  2
_D_8
 70
     0
 10
0.0
 20
0.0
 30
0.0
  3
_D_8
  1

  0
SOLID
  5
35E
330
35B
100
AcDbEntity
  8
0
  6
Continuous
 62
     7
370
     0
100
AcDbTrace
 10
159.7556755787
 20
125.8908484763
 30
0.0
 11
157.7556755787
 21
126.6408484763
 31
0.0
 12
157.7556755787
 22
125.1408484763
 32
0.0
 13
157.7556755787
 23
125.1408484763
 33
0.0
  0
SOLID
  5
35F
330
35B
100
AcDbEntity
  8
0
  6
Continuous
 62
     7
370
     0
100
AcDbTrace
 10
131.3556755787
 20
125.8908484763
 30
0.0
 11
133.3556755787
 21
125.1408484763
 31
0.0
 12
133.3556755787
 22
126.6408484763
 32
0.0
 13
133.3556755787
 23
126.6408484763
 33
0.0
  0
LINE
  5
360
330
35B
100
AcDbEntity
  8
0
  6
Continuous
 62
     7
370
     0
100
AcDbLine
 10
159.7556755787
 20
109.5693687399
 30
0.0
 11
159.7556755787
 21
126.8908484763
 31
0.0
  0
LINE
  5
361
330
35B
100
AcDbEntity
  8
0
  6
Continuous
 62
     7
370
     0
100
AcDbLine
 10
131.3556755787
 20
109.5693687399
 30
0.0
 11
131.3556755787
 21
126.8908484763
 31
0.0
  0
LINE
  5
362
330
35B
100
AcDbEntity
  8
0
  6
Continuous
 62
     7
370
     0
100
AcDbLine
 10
159.7556755787
 20
125.8908484763
 30
0.0
 11
131.3556755787
 21
125.8908484763
 31
0.0
  0
MTEXT
  5
363
330
35B
100
AcDbEntity
  8
0
  6
Continuous
 62
     7
370
     0
100
AcDbMText
 10
141.6138976297
 20
130.4025853908
 30
-16.5600465905
 40
3.5
 41
0.0
 71
     1
 72
     1
  1
28.4
  7
SLDTEXTSTYLE1
 73
     1
 44
1.0
  0
ENDBLK
  5
35D
330
35B
100
AcDbEntity
  8
0
100
AcDbBlockEnd
  0
BLOCK
  5
366
330
365
100
AcDbEntity
  8
0
100
AcDbBlockBegin
  2
_D_9
 70
     0
 10
0.0
 20
0.0
 30
0.0
  3
_D_9
  1

  0
SOLID
  5
368
330
365
100
AcDbEntity
  8
0
  6
Continuous
 62
     7
370
     0
100
AcDbTrace
 10
139.0556755787
 20
116.8312637839
 30
0.0
 11
141.0556755787
 21
116.0812637839
 31
0.0
 12
141.0556755787
 22
117.5812637839
 32
0.0
 13
141.0556755787
 23
117.5812637839
 33
0.0
  0
SOLID
  5
369
330
365
100
AcDbEntity
  8
0
  6
Continuous
 62
     7
370
     0
100
AcDbTrace
 10
152.0556755787
 20
116.8312637839
 30
0.0
 11
150.0556755787
 21
117.5812637839
 31
0.0
 12
150.0556755787
 22
116.0812637839
 32
0.0
 13
150.0556755787
 23
116.0812637839
 33
0.0
  0
LINE
  5
36A
330
365
100
AcDbEntity
  8
0
  6
Continuous
 62
     7
370
     0
100
AcDbLine
 10
139.0556755787
 20
115.5850090286
 30
0.0
 11
139.0556755787
 21
117.8312637839
 31
0.0
  0
LINE
  5
36B
330
365
100
AcDbEntity
  8
0
  6
Continuous
 62
     7
370
     0
100
AcDbLine
 10
152.0556755787
 20
115.5850090286
 30
0.0
 11
152.0556755787
 21
117.8312637839
 31
0.0
  0
LINE
  5
36C
330
365
100
AcDbEntity
  8
0
  6
Continuous
 62
     7
370
     0
100
AcDbLine
 10
139.0556755787
 20
116.8312637839
 30
0.0
 11
152.0556755787
 21
116.8312637839
 31
0.0
  0
MTEXT
  5
36D
330
365
100
AcDbEntity
  8
0
  6
Continuous
 62
     7
370
     0
100
AcDbMText
 10
142.9695643852
 20
121.3430006985
 30
-16.5600465905
 40
3.5
 41
0.0
 71
     1
 72
     1
  1
13
  7
SLDTEXTSTYLE1
 73
     1
 44
1.0
  0
ENDBLK
  5
367
330
365
100
AcDbEntity
  8
0
100
AcDbBlockEnd
  0
BLOCK
  5
36F
330
36E
100
AcDbEntity
  8
0
100
AcDbBlockBegin
  2
SW_CENTERMARKSYMBOL_2
 70
     0
 10
0.0
 20
0.0
 30
0.0
  3
SW_CENTERMARKSYMBOL_2
  1

  0
LINE
  5
371
330
36E
100
AcDbEntity
  8
0
  6
Continuous
 62
     0
370
     0
100
AcDbLine
 10
0.0
 20
0.0
 30
0.0
 11
0.0
 21
2.5
 31
0.0
  0
LINE
  5
372
330
36E
100
AcDbEntity
  8
0
  6
Continuous
 62
     0
370
     0
100
AcDbLine
 10
0.0
 20
0.0
 30
0.0
 11
-2.5
 21
0.0
 31
0.0
  0
LINE
  5
373
330
36E
100
AcDbEntity
  8
0
  6
Continuous
 62
     0
370
     0
100
AcDbLine
 10
0.0
 20
0.0
 30
0.0
 11
0.0
 21
-2.5
 31
0.0
  0
LINE
  5
374
330
36E
100
AcDbEntity
  8
0
  6
Continuous
 62
     0
370
     0
100
AcDbLine
 10
0.0
 20
0.0
 30
0.0
 11
2.5
 21
0.0
 31
0.0
  0
LINE
  5
375
330
36E
100
AcDbEntity
  8
0
  6
Continuous
 62
     0
370
     0
100
AcDbLine
 10
0.0
 20
2.5
 30
0.0
 11
0.0
 21
4.75
 31
0.0
  0
LINE
  5
376
330
36E
100
AcDbEntity
  8
0
  6
Continuous
 62
     0
370
     0
100
AcDbLine
 10
-2.5
 20
0.0
 30
0.0
 11
-4.75
 21
0.0
 31
0.0
  0
LINE
  5
377
330
36E
100
AcDbEntity
  8
0
  6
Continuous
 62
     0
370
     0
100
AcDbLine
 10
0.0
 20
-2.5
 30
0.0
 11
0.0
 21
-4.75
 31
0.0
  0
LINE
  5
378
330
36E
100
AcDbEntity
  8
0
  6
Continuous
 62
     0
370
     0
100
AcDbLine
 10
2.5
 20
0.0
 30
0.0
 11
4.75
 21
0.0
 31
0.0
  0
ENDBLK
  5
370
330
36E
100
AcDbEntity
  8
0
100
AcDbBlockEnd
  0
BLOCK
  5
37B
330
37A
100
AcDbEntity
  8
0
100
AcDbBlockBegin
  2
SW_CENTERMARKSYMBOL_3
 70
     0
 10
0.0
 20
0.0
 30
0.0
  3
SW_CENTERMARKSYMBOL_3
  1

  0
LINE
  5
37D
330
37A
100
AcDbEntity
  8
0
  6
Continuous
 62
     0
370
     0
100
AcDbLine
 10
0.0
 20
0.0
 30
0.0
 11
0.0
 21
2.5
 31
0.0
  0
LINE
  5
37E
330
37A
100
AcDbEntity
  8
0
  6
Continuous
 62
     0
370
     0
100
AcDbLine
 10
0.0
 20
0.0
 30
0.0
 11
-2.5
 21
0.0
 31
0.0
  0
LINE
  5
37F
330
37A
100
AcDbEntity
  8
0
  6
Continuous
 62
     0
370
     0
100
AcDbLine
 10
0.0
 20
0.0
 30
0.0
 11
0.0
 21
-2.5
 31
0.0
  0
LINE
  5
380
330
37A
100
AcDbEntity
  8
0
  6
Continuous
 62
     0
370
     0
100
AcDbLine
 10
0.0
 20
0.0
 30
0.0
 11
2.5
 21
0.0
 31
0.0
  0
LINE
  5
381
330
37A
100
AcDbEntity
  8
0
  6
Continuous
 62
     0
370
     0
100
AcDbLine
 10
0.0
 20
2.5
 30
0.0
 11
0.0
 21
4.75
 31
0.0
  0
LINE
  5
382
330
37A
100
AcDbEntity
  8
0
  6
Continuous
 62
     0
370
     0
100
AcDbLine
 10
-2.5
 20
0.0
 30
0.0
 11
-4.75
 21
0.0
 31
0.0
  0
LINE
  5
383
330
37A
100
AcDbEntity
  8
0
  6
Continuous
 62
     0
370
     0
100
AcDbLine
 10
0.0
 20
-2.5
 30
0.0
 11
0.0
 21
-4.75
 31
0.0
  0
LINE
  5
384
330
37A
100
AcDbEntity
  8
0
  6
Continuous
 62
     0
370
     0
100
AcDbLine
 10
2.5
 20
0.0
 30
0.0
 11
4.75
 21
0.0
 31
0.0
  0
ENDBLK
  5
37C
330
37A
100
AcDbEntity
  8
0
100
AcDbBlockEnd
  0
BLOCK
  5
387
330
386
100
AcDbEntity
  8
0
100
AcDbBlockBegin
  2
SW_CENTERMARKSYMBOL_4
 70
     0
 10
0.0
 20
0.0
 30
0.0
  3
SW_CENTERMARKSYMBOL_4
  1

  0
LINE
  5
389
330
386
100
AcDbEntity
  8
0
  6
Continuous
 62
     0
370
     0
100
AcDbLine
 10
0.0
 20
0.0
 30
0.0
 11
0.0
 21
2.5
 31
0.0
  0
LINE
  5
38A
330
386
100
AcDbEntity
  8
0
  6
Continuous
 62
     0
370
     0
100
AcDbLine
 10
0.0
 20
0.0
 30
0.0
 11
-2.5
 21
0.0
 31
0.0
  0
LINE
  5
38B
330
386
100
AcDbEntity
  8
0
  6
Continuous
 62
     0
370
     0
100
AcDbLine
 10
0.0
 20
0.0
 30
0.0
 11
0.0
 21
-2.5
 31
0.0
  0
LINE
  5
38C
330
386
100
AcDbEntity
  8
0
  6
Continuous
 62
     0
370
     0
100
AcDbLine
 10
0.0
 20
0.0
 30
0.0
 11
2.5
 21
0.0
 31
0.0
  0
LINE
  5
38D
330
386
100
AcDbEntity
  8
0
  6
Continuous
 62
     0
370
     0
100
AcDbLine
 10
0.0
 20
2.5
 30
0.0
 11
0.0
 21
4.75
 31
0.0
  0
LINE
  5
38E
330
386
100
AcDbEntity
  8
0
  6
Continuous
 62
     0
370
     0
100
AcDbLine
 10
-2.5
 20
0.0
 30
0.0
 11
-4.75
 21
0.0
 31
0.0
  0
LINE
  5
38F
330
386
100
AcDbEntity
  8
0
  6
Continuous
 62
     0
370
     0
100
AcDbLine
 10
0.0
 20
-2.5
 30
0.0
 11
0.0
 21
-4.75
 31
0.0
  0
LINE
  5
390
330
386
100
AcDbEntity
  8
0
  6
Continuous
 62
     0
370
     0
100
AcDbLine
 10
2.5
 20
0.0
 30
0.0
 11
4.75
 21
0.0
 31
0.0
  0
ENDBLK
  5
388
330
386
100
AcDbEntity
  8
0
100
AcDbBlockEnd
  0
BLOCK
  5
393
330
392
100
AcDbEntity
  8
0
100
AcDbBlockBegin
  2
SW_CENTERMARKSYMBOL_5
 70
     0
 10
0.0
 20
0.0
 30
0.0
  3
SW_CENTERMARKSYMBOL_5
  1

  0
LINE
  5
395
330
392
100
AcDbEntity
  8
0
  6
Continuous
 62
     0
370
     0
100
AcDbLine
 10
0.0
 20
0.0
 30
0.0
 11
0.0
 21
2.5
 31
0.0
  0
LINE
  5
396
330
392
100
AcDbEntity
  8
0
  6
Continuous
 62
     0
370
     0
100
AcDbLine
 10
0.0
 20
0.0
 30
0.0
 11
-2.5
 21
0.0
 31
0.0
  0
LINE
  5
397
330
392
100
AcDbEntity
  8
0
  6
Continuous
 62
     0
370
     0
100
AcDbLine
 10
0.0
 20
0.0
 30
0.0
 11
0.0
 21
-2.5
 31
0.0
  0
LINE
  5
398
330
392
100
AcDbEntity
  8
0
  6
Continuous
 62
     0
370
     0
100
AcDbLine
 10
0.0
 20
0.0
 30
0.0
 11
2.5
 21
0.0
 31
0.0
  0
LINE
  5
399
330
392
100
AcDbEntity
  8
0
  6
Continuous
 62
     0
370
     0
100
AcDbLine
 10
0.0
 20
2.5
 30
0.0
 11
0.0
 21
4.75
 31
0.0
  0
LINE
  5
39A
330
392
100
AcDbEntity
  8
0
  6
Continuous
 62
     0
370
     0
100
AcDbLine
 10
-2.5
 20
0.0
 30
0.0
 11
-4.75
 21
0.0
 31
0.0
  0
LINE
  5
39B
330
392
100
AcDbEntity
  8
0
  6
Continuous
 62
     0
370
     0
100
AcDbLine
 10
0.0
 20
-2.5
 30
0.0
 11
0.0
 21
-4.75
 31
0.0
  0
LINE
  5
39C
330
392
100
AcDbEntity
  8
0
  6
Continuous
 62
     0
370
     0
100
AcDbLine
 10
2.5
 20
0.0
 30
0.0
 11
4.75
 21
0.0
 31
0.0
  0
ENDBLK
  5
394
330
392
100
AcDbEntity
  8
0
100
AcDbBlockEnd
  0
BLOCK
  5
39F
330
39E
100
AcDbEntity
  8
0
100
AcDbBlockBegin
  2
SW_CENTERMARKSYMBOL_6
 70
     0
 10
0.0
 20
0.0
 30
0.0
  3
SW_CENTERMARKSYMBOL_6
  1

  0
LINE
  5
3A1
330
39E
100
AcDbEntity
  8
0
  6
Continuous
 62
     0
370
     0
100
AcDbLine
 10
0.0
 20
0.0
 30
0.0
 11
0.0
 21
2.5
 31
0.0
  0
LINE
  5
3A2
330
39E
100
AcDbEntity
  8
0
  6
Continuous
 62
     0
370
     0
100
AcDbLine
 10
0.0
 20
0.0
 30
0.0
 11
-2.5
 21
0.0
 31
0.0
  0
LINE
  5
3A3
330
39E
100
AcDbEntity
  8
0
  6
Continuous
 62
     0
370
     0
100
AcDbLine
 10
0.0
 20
0.0
 30
0.0
 11
0.0
 21
-2.5
 31
0.0
  0
LINE
  5
3A4
330
39E
100
AcDbEntity
  8
0
  6
Continuous
 62
     0
370
     0
100
AcDbLine
 10
0.0
 20
0.0
 30
0.0
 11
2.5
 21
0.0
 31
0.0
  0
LINE
  5
3A5
330
39E
100
AcDbEntity
  8
0
  6
Continuous
 62
     0
370
     0
100
AcDbLine
 10
0.0
 20
5.0
 30
0.0
 11
0.0
 21
10.0
 31
0.0
  0
LINE
  5
3A6
330
39E
100
AcDbEntity
  8
0
  6
Continuous
 62
     0
370
     0
100
AcDbLine
 10
-5.0
 20
0.0
 30
0.0
 11
-10.0
 21
0.0
 31
0.0
  0
LINE
  5
3A7
330
39E
100
AcDbEntity
  8
0
  6
Continuous
 62
     0
370
     0
100
AcDbLine
 10
0.0
 20
-5.0
 30
0.0
 11
0.0
 21
-10.0
 31
0.0
  0
LINE
  5
3A8
330
39E
100
AcDbEntity
  8
0
  6
Continuous
 62
     0
370
     0
100
AcDbLine
 10
5.0
 20
0.0
 30
0.0
 11
10.0
 21
0.0
 31
0.0
  0
ENDBLK
  5
3A0
330
39E
100
AcDbEntity
  8
0
100
AcDbBlockEnd
  0
BLOCK
  5
45C
330
45B
100
AcDbEntity
  8
0
100
AcDbBlockBegin
  2
_D_10
 70
     0
 10
0.0
 20
0.0
 30
0.0
  3
_D_10
  1

  0
SOLID
  5
45E
330
45B
100
AcDbEntity
  8
0
  6
Continuous
 62
     7
370
     0
100
AcDbTrace
 10
114.0295383698
 20
115.0087623922
 30
0.0
 11
112.0295383698
 21
115.7587623922
 31
0.0
 12
112.0295383698
 22
114.2587623922
 32
0.0
 13
112.0295383698
 23
114.2587623922
 33
0.0
  0
SOLID
  5
45F
330
45B
100
AcDbEntity
  8
0
  6
Continuous
 62
     7
370
     0
100
AcDbTrace
 10
94.0295383698
 20
115.0087623922
 30
0.0
 11
96.0295383698
 21
114.2587623922
 31
0.0
 12
96.0295383698
 22
115.7587623922
 32
0.0
 13
96.0295383698
 23
115.7587623922
 33
0.0
  0
LINE
  5
460
330
45B
100
AcDbEntity
  8
0
  6
Continuous
 62
     7
370
     0
100
AcDbLine
 10
114.0295383698
 20
104.5850090286
 30
0.0
 11
114.0295383698
 21
116.0087623922
 31
0.0
  0
LINE
  5
461
330
45B
100
AcDbEntity
  8
0
  6
Continuous
 62
     7
370
     0
100
AcDbLine
 10
94.0295383698
 20
104.5850090286
 30
0.0
 11
94.0295383698
 21
116.0087623922
 31
0.0
  0
LINE
  5
462
330
45B
100
AcDbEntity
  8
0
  6
Continuous
 62
     7
370
     0
100
AcDbLine
 10
114.0295383698
 20
115.0087623922
 30
0.0
 11
94.0295383698
 21
115.0087623922
 31
0.0
  0
MTEXT
  5
463
330
45B
100
AcDbEntity
  8
0
  6
Continuous
 62
     7
370
     0
100
AcDbMText
 10
99.7468994736
 20
119.5204993068
 30
0.1
 40
3.5
 41
0.0
 71
     1
 72
     1
  1
20
  7
SLDTEXTSTYLE1
 73
     1
 44
1.0
  0
MTEXT
  5
464
330
45B
100
AcDbEntity
  8
0
  6
Continuous
 62
     7
370
     0
100
AcDbMText
 10
104.9191218606
 20
119.5204993068
 30
0.1
 40
3.5
 41
0.0
 71
     1
 72
     1
  1
st
  7
SLDTEXTSTYLE1
 73
     1
 44
1.0
  0
ENDBLK
  5
45D
330
45B
100
AcDbEntity
  8
0
100
AcDbBlockEnd
  0
BLOCK
  5
467
330
466
100
AcDbEntity
  8
0
100
AcDbBlockBegin
  2
_D_11
 70
     0
 10
0.0
 20
0.0
 30
0.0
  3
_D_11
  1

  0
SOLID
  5
469
330
466
100
AcDbEntity
  8
0
  6
Continuous
 62
     7
370
     0
100
AcDbTrace
 10
36.0295383698
 20
74.0850090286
 30
0.0
 11
34.0295383698
 21
74.8350090286
 31
0.0
 12
34.0295383698
 22
73.3350090286
 32
0.0
 13
34.0295383698
 23
73.3350090286
 33
0.0
  0
SOLID
  5
46A
330
466
100
AcDbEntity
  8
0
  6
Continuous
 62
     7
370
     0
100
AcDbTrace
 10
43.0295383698
 20
74.0850090286
 30
0.0
 11
45.0295383698
 21
73.3350090286
 31
0.0
 12
45.0295383698
 22
74.8350090286
 32
0.0
 13
45.0295383698
 23
74.8350090286
 33
0.0
  0
LINE
  5
46B
330
466
100
AcDbEntity
  8
0
  6
Continuous
 62
     7
370
     0
100
AcDbLine
 10
36.0295383698
 20
89.1993250087
 30
0.0
 11
36.0295383698
 21
73.0850090286
 31
0.0
  0
LINE
  5
46C
330
466
100
AcDbEntity
  8
0
  6
Continuous
 62
     7
370
     0
100
AcDbLine
 10
43.0295383698
 20
93.0850090286
 30
0.0
 11
43.0295383698
 21
73.0850090286
 31
0.0
  0
LINE
  5
46D
330
466
100
AcDbEntity
  8
0
  6
Continuous
 62
     7
370
     0
100
AcDbLine
 10
36.0295383698
 20
74.0850090286
 30
0.0
 11
31.0295383698
 21
74.0850090286
 31
0.0
  0
LINE
  5
46E
330
466
100
AcDbEntity
  8
0
  6
Continuous
 62
     7
370
     0
100
AcDbLine
 10
36.0295383698
 20
74.0850090286
 30
0.0
 11
43.0295383698
 21
74.0850090286
 31
0.0
  0
LINE
  5
46F
330
466
100
AcDbEntity
  8
0
  6
Continuous
 62
     7
370
     0
100
AcDbLine
 10
43.0295383698
 20
74.0850090286
 30
0.0
 11
48.0295383698
 21
74.0850090286
 31
0.0
  0
MTEXT
  5
470
330
466
100
AcDbEntity
  8
0
  6
Continuous
 62
     7
370
     0
100
AcDbMText
 10
38.8014489011
 20
78.5967459432
 30
-9.2024880709
 40
3.5
 41
0.0
 71
     1
 72
     1
  1
7
  7
SLDTEXTSTYLE1
 73
     1
 44
1.0
  0
ENDBLK
  5
468
330
466
100
AcDbEntity
  8
0
100
AcDbBlockEnd
  0
BLOCK
  5
474
330
473
100
AcDbEntity
  8
0
100
AcDbBlockBegin
  2
_D_12
 70
     0
 10
0.0
 20
0.0
 30
0.0
  3
_D_12
  1

  0
SOLID
  5
476
330
473
100
AcDbEntity
  8
0
  6
Continuous
 62
     7
370
     0
100
AcDbTrace
 10
88.0295383698
 20
120.3081795286
 30
0.0
 11
86.0295383698
 21
121.0581795286
 31
0.0
 12
86.0295383698
 22
119.5581795286
 32
0.0
 13
86.0295383698
 23
119.5581795286
 33
0.0
  0
SOLID
  5
477
330
473
100
AcDbEntity
  8
0
  6
Continuous
 62
     7
370
     0
100
AcDbTrace
 10
36.2295383698
 20
120.3081795286
 30
0.0
 11
38.2295383698
 21
119.5581795286
 31
0.0
 12
38.2295383698
 22
121.0581795286
 32
0.0
 13
38.2295383698
 23
121.0581795286
 33
0.0
  0
LINE
  5
478
330
473
100
AcDbEntity
  8
0
  6
Continuous
 62
     7
370
     0
100
AcDbLine
 10
88.0295383698
 20
113.0850090286
 30
0.0
 11
88.0295383698
 21
121.3081795286
 31
0.0
  0
LINE
  5
479
330
473
100
AcDbEntity
  8
0
  6
Continuous
 62
     7
370
     0
100
AcDbLine
 10
36.2295383698
 20
109.5693687399
 30
0.0
 11
36.2295383698
 21
121.3081795286
 31
0.0
  0
LINE
  5
47A
330
473
100
AcDbEntity
  8
0
  6
Continuous
 62
     7
370
     0
100
AcDbLine
 10
88.0295383698
 20
120.3081795286
 30
0.0
 11
36.2295383698
 21
120.3081795286
 31
0.0
  0
MTEXT
  5
47B
330
473
100
AcDbEntity
  8
0
  6
Continuous
 62
     7
370
     0
100
AcDbMText
 10
55.8276873749
 20
124.8199164432
 30
-9.2024880709
 40
3.5
 41
0.0
 71
     1
 72
     1
  1
51.80
  7
SLDTEXTSTYLE1
 73
     1
 44
1.0
  0
ENDBLK
  5
475
330
473
100
AcDbEntity
  8
0
100
AcDbBlockEnd
  0
BLOCK
  5
47E
330
47D
100
AcDbEntity
  8
0
100
AcDbBlockBegin
  2
_D_13
 70
     0
 10
0.0
 20
0.0
 30
0.0
  3
_D_13
  1

  0
SOLID
  5
480
330
47D
100
AcDbEntity
  8
0
  6
Continuous
 62
     7
370
     0
100
AcDbTrace
 10
36.0295383698
 20
129.5204809811
 30
0.0
 11
38.0295383698
 21
128.7704809811
 31
0.0
 12
38.0295383698
 22
130.2704809811
 32
0.0
 13
38.0295383698
 23
130.2704809811
 33
0.0
  0
SOLID
  5
481
330
47D
100
AcDbEntity
  8
0
  6
Continuous
 62
     7
370
     0
100
AcDbTrace
 10
94.0295383698
 20
129.5204809811
 30
0.0
 11
92.0295383698
 21
130.2704809811
 31
0.0
 12
92.0295383698
 22
128.7704809811
 32
0.0
 13
92.0295383698
 23
128.7704809811
 33
0.0
  0
LINE
  5
482
330
47D
100
AcDbEntity
  8
0
  6
Continuous
 62
     7
370
     0
100
AcDbLine
 10
36.0295383698
 20
109.849995417
 30
0.0
 11
36.0295383698
 21
130.5204809811
 31
0.0
  0
LINE
  5
483
330
47D
100
AcDbEntity
  8
0
  6
Continuous
 62
     7
370
     0
100
AcDbLine
 10
94.0295383698
 20
104.5850090286
 30
0.0
 11
94.0295383698
 21
130.5204809811
 31
0.0
  0
LINE
  5
484
330
47D
100
AcDbEntity
  8
0
  6
Continuous
 62
     7
370
     0
100
AcDbLine
 10
36.0295383698
 20
129.5204809811
 30
0.0
 11
94.0295383698
 21
129.5204809811
 31
0.0
  0
MTEXT
  5
485
330
47D
100
AcDbEntity
  8
0
  6
Continuous
 62
     7
370
     0
100
AcDbMText
 10
62.1312927854
 20
134.0322178956
 30
-9.2024880709
 40
3.5
 41
0.0
 71
     1
 72
     1
  1
58
  7
SLDTEXTSTYLE1
 73
     1
 44
1.0
  0
ENDBLK
  5
47F
330
47D
100
AcDbEntity
  8
0
100
AcDbBlockEnd
  0
BLOCK
  5
487
330
486
100
AcDbEntity
  8
0
100
AcDbBlockBegin
  2
SW_CENTERMARKSYMBOL_7
 70
     0
 10
0.0
 20
0.0
 30
0.0
  3
SW_CENTERMARKSYMBOL_7
  1

  0
LINE
  5
489
330
486
100
AcDbEntity
  8
0
  6
Continuous
 62
     0
370
     0
100
AcDbLine
 10
0.0
 20
0.0
 30
0.0
 11
0.0
 21
2.5
 31
0.0
  0
LINE
  5
48A
330
486
100
AcDbEntity
  8
0
  6
Continuous
 62
     0
370
     0
100
AcDbLine
 10
0.0
 20
0.0
 30
0.0
 11
-2.5
 21
0.0
 31
0.0
  0
LINE
  5
48B
330
486
100
AcDbEntity
  8
0
  6
Continuous
 62
     0
370
     0
100
AcDbLine
 10
0.0
 20
0.0
 30
0.0
 11
0.0
 21
-2.5
 31
0.0
  0
LINE
  5
48C
330
486
100
AcDbEntity
  8
0
  6
Continuous
 62
     0
370
     0
100
AcDbLine
 10
0.0
 20
0.0
 30
0.0
 11
2.5
 21
0.0
 31
0.0
  0
LINE
  5
48D
330
486
100
AcDbEntity
  8
0
  6
Continuous
 62
     0
370
     0
100
AcDbLine
 10
0.0
 20
5.0
 30
0.0
 11
0.0
 21
6.5
 31
0.0
  0
LINE
  5
48E
330
486
100
AcDbEntity
  8
0
  6
Continuous
 62
     0
370
     0
100
AcDbLine
 10
-5.0
 20
0.0
 30
0.0
 11
-6.5
 21
0.0
 31
0.0
  0
LINE
  5
48F
330
486
100
AcDbEntity
  8
0
  6
Continuous
 62
     0
370
     0
100
AcDbLine
 10
0.0
 20
-5.0
 30
0.0
 11
0.0
 21
-6.5
 31
0.0
  0
LINE
  5
490
330
486
100
AcDbEntity
  8
0
  6
Continuous
 62
     0
370
     0
100
AcDbLine
 10
5.0
 20
0.0
 30
0.0
 11
6.5
 21
0.0
 31
0.0
  0
ENDBLK
  5
488
330
486
100
AcDbEntity
  8
0
100
AcDbBlockEnd
  0
ENDSEC
  0
SECTION
  2
ENTITIES
  0
LINE
  5
44
330
1F
100
AcDbEntity
  8
0
  6
Continuous
 62
     7
370
     0
100
AcDbLine
 10
20.2604743903
 20
285.0
 30
0.0
 11
196.7604743903
 21
285.0
 31
0.0
  0
LINE
  5
45
330
1F
100
AcDbEntity
  8
0
  6
Continuous
 62
     7
370
     0
100
AcDbLine
 10
20.2604743903
 20
285.0
 30
0.0
 11
20.2604743903
 21
10.0
 31
0.0
  0
LINE
  5
46
330
1F
100
AcDbEntity
  8
0
  6
Continuous
 62
     7
370
     0
100
AcDbLine
 10
20.2604743903
 20
10.0
 30
0.0
 11
196.7604743903
 21
10.0
 31
0.0
  0
LINE
  5
47
330
1F
100
AcDbEntity
  8
0
  6
Continuous
 62
     7
370
     0
100
AcDbLine
 10
196.7604743903
 20
285.0
 30
0.0
 11
196.7604743903
 21
10.0
 31
0.0
  0
LINE
  5
48
330
1F
100
AcDbEntity
  8
0
  6
Continuous
 62
     7
370
     0
100
AcDbLine
 10
127.0104743903
 20
50.75
 30
0.0
 11
196.7604743903
 21
50.75
 31
0.0
  0
LINE
  5
49
330
1F
100
AcDbEntity
  8
0
  6
Continuous
 62
     7
370
     0
100
AcDbLine
 10
127.0104743903
 20
50.75
 30
0.0
 11
127.0104743903
 21
10.0
 31
0.0
  0
LINE
  5
4A
330
1F
100
AcDbEntity
  8
0
  6
Continuous
 62
     7
370
     0
100
AcDbLine
 10
127.0104743903
 20
22.75
 30
0.0
 11
196.7604743903
 21
22.75
 31
0.0
  0
LINE
  5
4B
330
1F
100
AcDbEntity
  8
0
  6
Continuous
 62
     7
370
     0
100
AcDbLine
 10
127.0104743903
 20
36.75
 30
0.0
 11
196.7604743903
 21
36.75
 31
0.0
  0
MTEXT
  5
4D
330
1F
100
AcDbEntity
  8
0
  6
Continuous
 62
     7
370
     0
100
AcDbMText
 10
162.3416323814
 20
30.4171582345
 30
0.0
 40
4.2333333333
 41
0.0
 71
     2
 72
     1
  1
MCE-20S
  7
SLDTEXTSTYLE0
 73
     1
 44
1.0
  0
MTEXT
  5
4E
330
1F
100
AcDbEntity
  8
0
  6
Continuous
 62
     7
370
     0
100
AcDbMText
 10
158.1936440429
 20
45.3938595104
 30
0.0
 40
3.7041666667
 41
0.0
 71
     2
 72
     1
  1
ミニシリンダー・MCE20st(押出)
  7
SLDTEXTSTYLE0
 73
     1
 44
1.0
  0
MTEXT
  5
4F
330
1F
100
AcDbEntity
  8
0
  6
Continuous
 62
     7
370
     0
100
AcDbMText
 10
162.58490512
 20
16.8228189052
 30
0.0
 40
4.2333333333
 41
0.0
 71
     2
 72
     1
  1
123506
  7
SLDTEXTSTYLE0
 73
     1
 44
1.0
  0
LINE
  5
50
330
1F
100
AcDbEntity
  8
0
  6
Continuous
 62
     7
370
    15
100
AcDbLine
 10
134.2250829649
 20
230.5717752851
 30
0.0
 11
134.2250829649
 21
229.0717752851
 31
0.0
  0
LINE
  5
51
330
1F
100
AcDbEntity
  8
0
  6
Continuous
 62
     7
370
    15
100
AcDbLine
 10
156.8862681925
 20
229.0717752851
 30
0.0
 11
156.8862681925
 21
230.5717752851
 31
0.0
  0
LINE
  5
52
330
1F
100
AcDbEntity
  8
0
  6
Continuous
 62
     7
370
    15
100
AcDbLine
 10
156.9373433246
 20
180.0717752851
 30
0.0
 11
156.9373433246
 21
229.0717752851
 31
0.0
  0
LINE
  5
53
330
1F
100
AcDbEntity
  8
0
  6
Continuous
 62
     7
370
    15
100
AcDbLine
 10
134.1740078328
 20
229.0717752851
 30
0.0
 11
134.1740078328
 21
180.0717752851
 31
0.0
  0
ARC
  5
54
330
1F
100
AcDbEntity
  8
0
  6
Continuous
 62
     7
370
    15
100
AcDbCircle
 10
150.8056755787
 20
230.866467525
 30
0.0
 40
1.0
100
AcDbArc
 50
126.3843518158
 51
180.0
  0
ARC
  5
55
330
1F
100
AcDbEntity
  8
0
  6
Continuous
 62
     7
370
    15
100
AcDbCircle
 10
153.3056755787
 20
230.866467525
 30
0.0
 40
1.0
100
AcDbArc
 50
0.0
 51
53.6156481842
  0
LINE
  5
56
330
1F
100
AcDbEntity
  8
0
  6
Continuous
 62
     7
370
    15
100
AcDbLine
 10
154.3056755787
 20
230.5717752851
 30
0.0
 11
154.3056755787
 21
230.866467525
 31
0.0
  0
LINE
  5
57
330
1F
100
AcDbEntity
  8
0
  6
Continuous
 62
     7
370
    15
100
AcDbLine
 10
149.8056755787
 20
230.866467525
 30
0.0
 11
149.8056755787
 21
230.5717752851
 31
0.0
  0
LINE
  5
58
330
1F
100
AcDbEntity
  8
0
  6
Continuous
 62
     7
370
    15
100
AcDbLine
 10
153.8988746168
 20
231.6715233623
 30
0.0
 11
153.4879591177
 21
231.9743032038
 31
0.0
  0
LINE
  5
59
330
1F
100
AcDbEntity
  8
0
  6
Continuous
 62
     7
370
    15
100
AcDbLine
 10
150.6233920398
 20
231.9743032038
 30
0.0
 11
150.2124765407
 21
231.6715233623
 31
0.0
  0
ARC
  5
5A
330
1F
100
AcDbEntity
  8
0
  6
Continuous
 62
     7
370
    15
100
AcDbCircle
 10
153.1913595986
 20
231.5717752851
 30
0.0
 40
0.5000000000000173
100
AcDbArc
 50
53.6156481842
 51
90.0
  0
ARC
  5
5B
330
1F
100
AcDbEntity
  8
0
  6
Continuous
 62
     7
370
    15
100
AcDbCircle
 10
150.9199915588
 20
231.5717752851
 30
0.0
 40
0.5000000000000006
100
AcDbArc
 50
90.0
 51
126.3843518158
  0
LINE
  5
5C
330
1F
100
AcDbEntity
  8
0
  6
Continuous
 62
     7
370
    15
100
AcDbLine
 10
141.3056755787
 20
230.5717752851
 30
0.0
 11
141.3056755787
 21
230.866467525
 31
0.0
  0
LINE
  5
5D
330
1F
100
AcDbEntity
  8
0
  6
Continuous
 62
     7
370
    15
100
AcDbLine
 10
136.8056755787
 20
230.866467525
 30
0.0
 11
136.8056755787
 21
230.5717752851
 31
0.0
  0
ARC
  5
5E
330
1F
100
AcDbEntity
  8
0
  6
Continuous
 62
     7
370
    15
100
AcDbCircle
 10
137.8056755787
 20
230.866467525
 30
0.0
 40
1.0
100
AcDbArc
 50
126.3843518158
 51
180.0
  0
ARC
  5
5F
330
1F
100
AcDbEntity
  8
0
  6
Continuous
 62
     7
370
    15
100
AcDbCircle
 10
140.3056755787
 20
230.866467525
 30
0.0
 40
1.0
100
AcDbArc
 50
0.0
 51
53.6156481842
  0
LINE
  5
60
330
1F
100
AcDbEntity
  8
0
  6
Continuous
 62
     7
370
    15
100
AcDbLine
 10
140.8988746168
 20
231.6715233623
 30
0.0
 11
140.4879591177
 21
231.9743032038
 31
0.0
  0
LINE
  5
61
330
1F
100
AcDbEntity
  8
0
  6
Continuous
 62
     7
370
    15
100
AcDbLine
 10
137.6233920398
 20
231.9743032038
 30
0.0
 11
137.2124765407
 21
231.6715233623
 31
0.0
  0
ARC
  5
62
330
1F
100
AcDbEntity
  8
0
  6
Continuous
 62
     7
370
    15
100
AcDbCircle
 10
140.1913595986
 20
231.5717752851
 30
0.0
 40
0.5000000000000173
100
AcDbArc
 50
53.6156481842
 51
90.0
  0
ARC
  5
63
330
1F
100
AcDbEntity
  8
0
  6
Continuous
 62
     7
370
    15
100
AcDbCircle
 10
137.9199915588
 20
231.5717752851
 30
0.0
 40
0.5000000000000173
100
AcDbArc
 50
90.0
 51
126.3843518158
  0
LINE
  5
64
330
1F
100
AcDbEntity
  8
0
  6
Continuous
 62
     7
370
    15
100
AcDbLine
 10
136.8056755787
 20
178.5717752851
 30
0.0
 11
136.8056755787
 21
178.2770830452
 31
0.0
  0
LINE
  5
65
330
1F
100
AcDbEntity
  8
0
  6
Continuous
 62
     7
370
    15
100
AcDbLine
 10
141.3056755787
 20
178.2770830452
 30
0.0
 11
141.3056755787
 21
178.5717752851
 31
0.0
  0
ARC
  5
66
330
1F
100
AcDbEntity
  8
0
  6
Continuous
 62
     7
370
    15
100
AcDbCircle
 10
140.3056755787
 20
178.2770830452
 30
0.0
 40
1.000000000000035
100
AcDbArc
 50
306.3843518158
 51
0.0
  0
ARC
  5
67
330
1F
100
AcDbEntity
  8
0
  6
Continuous
 62
     7
370
    15
100
AcDbCircle
 10
137.8056755787
 20
178.2770830452
 30
0.0
 40
1.000000000000018
100
AcDbArc
 50
180.0
 51
233.6156481842
  0
LINE
  5
68
330
1F
100
AcDbEntity
  8
0
  6
Continuous
 62
     7
370
    15
100
AcDbLine
 10
137.2124765407
 20
177.4720272079
 30
0.0
 11
137.6233920398
 21
177.1692473664
 31
0.0
  0
LINE
  5
69
330
1F
100
AcDbEntity
  8
0
  6
Continuous
 62
     7
370
    15
100
AcDbLine
 10
140.4879591177
 20
177.1692473664
 30
0.0
 11
140.8988746168
 21
177.4720272079
 31
0.0
  0
ARC
  5
6A
330
1F
100
AcDbEntity
  8
0
  6
Continuous
 62
     7
370
    15
100
AcDbCircle
 10
137.9199915588
 20
177.5717752851
 30
0.0
 40
0.5
100
AcDbArc
 50
233.6156481842
 51
270.0
  0
ARC
  5
6B
330
1F
100
AcDbEntity
  8
0
  6
Continuous
 62
     7
370
    15
100
AcDbCircle
 10
140.1913595986
 20
177.5717752851
 30
0.0
 40
0.5
100
AcDbArc
 50
270.0
 51
306.3843518158
  0
ARC
  5
6C
330
1F
100
AcDbEntity
  8
0
  6
Continuous
 62
     7
370
    15
100
AcDbCircle
 10
153.3056755787
 20
178.2770830452
 30
0.0
 40
1.0
100
AcDbArc
 50
306.3843518158
 51
0.0
  0
ARC
  5
6D
330
1F
100
AcDbEntity
  8
0
  6
Continuous
 62
     7
370
    15
100
AcDbCircle
 10
150.8056755787
 20
178.2770830452
 30
0.0
 40
1.0
100
AcDbArc
 50
180.0
 51
233.6156481842
  0
LINE
  5
6E
330
1F
100
AcDbEntity
  8
0
  6
Continuous
 62
     7
370
    15
100
AcDbLine
 10
149.8056755787
 20
178.5717752851
 30
0.0
 11
149.8056755787
 21
178.2770830452
 31
0.0
  0
LINE
  5
6F
330
1F
100
AcDbEntity
  8
0
  6
Continuous
 62
     7
370
    15
100
AcDbLine
 10
154.3056755787
 20
178.2770830452
 30
0.0
 11
154.3056755787
 21
178.5717752851
 31
0.0
  0
LINE
  5
70
330
1F
100
AcDbEntity
  8
0
  6
Continuous
 62
     7
370
    15
100
AcDbLine
 10
150.2124765407
 20
177.4720272079
 30
0.0
 11
150.6233920398
 21
177.1692473664
 31
0.0
  0
LINE
  5
71
330
1F
100
AcDbEntity
  8
0
  6
Continuous
 62
     7
370
    15
100
AcDbLine
 10
153.4879591177
 20
177.1692473664
 30
0.0
 11
153.8988746168
 21
177.4720272079
 31
0.0
  0
ARC
  5
72
330
1F
100
AcDbEntity
  8
0
  6
Continuous
 62
     7
370
    15
100
AcDbCircle
 10
150.9199915588
 20
177.5717752851
 30
0.0
 40
0.5
100
AcDbArc
 50
233.6156481842
 51
270.0
  0
ARC
  5
73
330
1F
100
AcDbEntity
  8
0
  6
Continuous
 62
     7
370
    15
100
AcDbCircle
 10
153.1913595986
 20
177.5717752851
 30
0.0
 40
0.5
100
AcDbArc
 50
270.0
 51
306.3843518158
  0
LINE
  5
74
330
1F
100
AcDbEntity
  8
0
  6
Continuous
 62
     7
370
    15
100
AcDbLine
 10
126.0556755787
 20
226.8217752851
 30
0.0
 11
123.5556755787
 21
226.5717752851
 31
0.0
  0
LINE
  5
75
330
1F
100
AcDbEntity
  8
0
  6
Continuous
 62
     7
370
    15
100
AcDbLine
 10
123.5556755787
 20
223.5717752851
 30
0.0
 11
126.0556755787
 21
223.3217752851
 31
0.0
  0
LINE
  5
76
330
1F
100
AcDbEntity
  8
0
  6
Continuous
 62
     7
370
    15
100
AcDbLine
 10
123.5556755787
 20
226.8217752851
 30
0.0
 11
121.0556755787
 21
226.5717752851
 31
0.0
  0
LINE
  5
77
330
1F
100
AcDbEntity
  8
0
  6
Continuous
 62
     7
370
    15
100
AcDbLine
 10
121.0556755787
 20
223.5717752851
 30
0.0
 11
123.5556755787
 21
223.3217752851
 31
0.0
  0
LINE
  5
78
330
1F
100
AcDbEntity
  8
0
  6
Continuous
 62
     7
370
    15
100
AcDbLine
 10
126.0556755787
 20
223.4717752851
 30
0.0
 11
128.0556755787
 21
223.4717752851
 31
0.0
  0
LINE
  5
79
330
1F
100
AcDbEntity
  8
0
  6
Continuous
 62
     7
370
    15
100
AcDbLine
 10
128.0556755787
 20
226.6717752851
 30
0.0
 11
126.0556755787
 21
226.6717752851
 31
0.0
  0
LINE
  5
7A
330
1F
100
AcDbEntity
  8
0
  6
Continuous
 62
     7
370
    15
100
AcDbLine
 10
131.3556755787
 20
229.0717752851
 30
0.0
 11
130.5556755787
 21
229.0717752851
 31
0.0
  0
LINE
  5
7B
330
1F
100
AcDbEntity
  8
0
  6
Continuous
 62
     7
370
    15
100
AcDbLine
 10
130.5556755787
 20
221.0717752851
 30
0.0
 11
131.3556755787
 21
221.0717752851
 31
0.0
  0
LINE
  5
7C
330
1F
100
AcDbEntity
  8
0
  6
Continuous
 62
     7
370
    15
100
AcDbLine
 10
160.5556755787
 20
229.0717752851
 30
0.0
 11
159.7556755787
 21
229.0717752851
 31
0.0
  0
LINE
  5
7D
330
1F
100
AcDbEntity
  8
0
  6
Continuous
 62
     7
370
    15
100
AcDbLine
 10
159.7556755787
 20
221.0717752851
 30
0.0
 11
160.5556755787
 21
221.0717752851
 31
0.0
  0
LINE
  5
7E
330
1F
100
AcDbEntity
  8
0
  6
Continuous
 62
     7
370
    15
100
AcDbLine
 10
148.5556755787
 20
177.0717752851
 30
0.0
 11
148.5556755787
 21
174.5717752851
 31
0.0
  0
LINE
  5
7F
330
1F
100
AcDbEntity
  8
0
  6
Continuous
 62
     7
370
    15
100
AcDbLine
 10
148.2014268898
 20
174.5717752851
 30
0.0
 11
148.5556755787
 21
174.5717752851
 31
0.0
  0
LINE
  5
80
330
1F
100
AcDbEntity
  8
0
  6
Continuous
 62
     7
370
    15
100
AcDbLine
 10
148.2014268898
 20
177.0717752851
 30
0.0
 11
148.2014268898
 21
174.5717752851
 31
0.0
  0
LINE
  5
81
330
1F
100
AcDbEntity
  8
0
  6
Continuous
 62
     7
370
    15
100
AcDbLine
 10
142.9099242677
 20
177.0717752851
 30
0.0
 11
142.9099242677
 21
174.5717752851
 31
0.0
  0
LINE
  5
82
330
1F
100
AcDbEntity
  8
0
  6
Continuous
 62
     7
370
    15
100
AcDbLine
 10
142.5556755787
 20
174.5717752851
 30
0.0
 11
142.9099242677
 21
174.5717752851
 31
0.0
  0
LINE
  5
83
330
1F
100
AcDbEntity
  8
0
  6
Continuous
 62
     7
370
    15
100
AcDbLine
 10
142.5556755787
 20
177.0717752851
 30
0.0
 11
142.5556755787
 21
174.5717752851
 31
0.0
  0
SPLINE
  5
84
330
1F
100
AcDbEntity
  8
0
  6
Continuous
 62
     7
370
    15
100
AcDbSpline
210
0.0
220
0.0
230
1.0
 70
    24
 71
     3
 72
     8
 73
     4
 74
     0
 42
0.00000001
 43
0.00000001
 12
1.0
 22
0.0
 32
0.0
 13
1.0
 23
0.0
 33
0.0
 40
0.0
 40
0.0
 40
0.0
 40
0.0
 40
1.0
 40
1.0
 40
1.0
 40
1.0
 10
148.5556755787173
 20
174.5717752850794
 30
0.0
 10
148.5556755787173
 20
174.3913244629765
 30
0.0
 10
148.5556755787173
 20
174.2216411029096
 30
0.0
 10
148.5556755787173
 20
174.0717752850794
 30
0.0
  0
LINE
  5
85
330
1F
100
AcDbEntity
  8
0
  6
Continuous
 62
     7
370
    15
100
AcDbLine
 10
148.5556755787
 20
174.0717752851
 30
0.0
 11
147.3584512164
 21
174.0717752851
 31
0.0
  0
SPLINE
  5
86
330
1F
100
AcDbEntity
  8
0
  6
Continuous
 62
     7
370
    15
100
AcDbSpline
210
0.0
220
0.0
230
1.0
 70
     8
 71
     3
 72
     8
 73
     4
 74
     0
 42
0.00000001
 43
0.00000001
 12
1.0
 22
0.0
 32
0.0
 13
1.0
 23
0.0
 33
0.0
 40
0.0
 40
0.0
 40
0.0
 40
0.0
 40
1.0
 40
1.0
 40
1.0
 40
1.0
 10
147.3584512164493
 20
174.0717752850794
 30
0.0
 10
147.6494083114017
 20
174.2216411029096
 30
0.0
 10
147.9286108902609
 20
174.3913244629765
 30
0.0
 10
148.2014268897819
 20
174.5717752850794
 30
0.0
  0
LINE
  5
87
330
1F
100
AcDbEntity
  8
0
  6
Continuous
 62
     7
370
    15
100
AcDbLine
 10
147.3584512164
 20
174.0717752851
 30
0.0
 11
143.752899941
 21
174.0717752851
 31
0.0
  0
SPLINE
  5
88
330
1F
100
AcDbEntity
  8
0
  6
Continuous
 62
     7
370
    15
100
AcDbSpline
210
0.0
220
0.0
230
1.0
 70
     8
 71
     3
 72
     8
 73
     4
 74
     0
 42
0.00000001
 43
0.00000001
 12
1.0
 22
0.0
 32
0.0
 13
1.0
 23
0.0
 33
0.0
 40
0.0
 40
0.0
 40
0.0
 40
0.0
 40
1.0
 40
1.0
 40
1.0
 40
1.0
 10
142.9099242676527
 20
174.5717752850794
 30
0.0
 10
143.1827402671736
 20
174.3913244629765
 30
0.0
 10
143.4619428460328
 20
174.2216411029096
 30
0.0
 10
143.7528999409853
 20
174.0717752850794
 30
0.0
  0
SPLINE
  5
89
330
1F
100
AcDbEntity
  8
0
  6
Continuous
 62
     7
370
    15
100
AcDbSpline
210
0.0
220
0.0
230
1.0
 70
    24
 71
     3
 72
     8
 73
     4
 74
     0
 42
0.00000001
 43
0.00000001
 12
1.0
 22
0.0
 32
0.0
 13
1.0
 23
0.0
 33
0.0
 40
0.0
 40
0.0
 40
0.0
 40
0.0
 40
1.0
 40
1.0
 40
1.0
 40
1.0
 10
142.5556755787173
 20
174.0717752850794
 30
0.0
 10
142.5556755787173
 20
174.2216411029096
 30
0.0
 10
142.5556755787173
 20
174.3913244629765
 30
0.0
 10
142.5556755787173
 20
174.5717752850794
 30
0.0
  0
LINE
  5
8A
330
1F
100
AcDbEntity
  8
0
  6
Continuous
 62
     7
370
    15
100
AcDbLine
 10
143.752899941
 20
174.0717752851
 30
0.0
 11
142.5556755787
 21
174.0717752851
 31
0.0
  0
LINE
  5
8B
330
1F
100
AcDbEntity
  8
0
  6
Continuous
 62
     7
370
    15
100
AcDbLine
 10
134.8713158674
 20
230.5717752851
 30
0.0
 11
134.8713158674
 21
229.0717752851
 31
0.0
  0
LINE
  5
8C
330
1F
100
AcDbEntity
  8
0
  6
Continuous
 62
     7
370
    15
100
AcDbLine
 10
134.8713158674
 20
229.0717752851
 30
0.0
 11
134.3426612288
 21
229.0717752851
 31
0.0
  0
LINE
  5
8D
330
1F
100
AcDbEntity
  8
0
  6
Continuous
 62
     7
370
    15
100
AcDbLine
 10
134.3426612288
 20
230.5717752851
 30
0.0
 11
134.3426612288
 21
229.0717752851
 31
0.0
  0
LINE
  5
8E
330
1F
100
AcDbEntity
  8
0
  6
Continuous
 62
     7
370
    15
100
AcDbLine
 10
134.8713158674
 20
230.5717752851
 30
0.0
 11
134.3426612288
 21
230.5717752851
 31
0.0
  0
LINE
  5
8F
330
1F
100
AcDbEntity
  8
0
  6
Continuous
 62
     7
370
    15
100
AcDbLine
 10
139.6191839056
 20
229.0717752851
 30
0.0
 11
139.6191839056
 21
230.5717752851
 31
0.0
  0
LINE
  5
90
330
1F
100
AcDbEntity
  8
0
  6
Continuous
 62
     7
370
    15
100
AcDbLine
 10
134.8713158674
 20
229.0717752851
 30
0.0
 11
139.6191839056
 21
229.0717752851
 31
0.0
  0
LINE
  5
91
330
1F
100
AcDbEntity
  8
0
  6
Continuous
 62
     7
370
    15
100
AcDbLine
 10
134.8713158674
 20
230.5717752851
 30
0.0
 11
139.6191839056
 21
230.5717752851
 31
0.0
  0
LINE
  5
92
330
1F
100
AcDbEntity
  8
0
  6
Continuous
 62
     7
370
    15
100
AcDbLine
 10
141.1804334052
 20
229.0717752851
 30
0.0
 11
141.1804334052
 21
230.5717752851
 31
0.0
  0
LINE
  5
93
330
1F
100
AcDbEntity
  8
0
  6
Continuous
 62
     7
370
    15
100
AcDbLine
 10
141.1804334052
 20
229.0717752851
 30
0.0
 11
139.6191839056
 21
229.0717752851
 31
0.0
  0
LINE
  5
94
330
1F
100
AcDbEntity
  8
0
  6
Continuous
 62
     7
370
    15
100
AcDbLine
 10
139.6191839056
 20
230.5717752851
 30
0.0
 11
141.1804334052
 21
230.5717752851
 31
0.0
  0
LINE
  5
95
330
1F
100
AcDbEntity
  8
0
  6
Continuous
 62
     7
370
    15
100
AcDbLine
 10
151.4921672518
 20
230.5717752851
 30
0.0
 11
151.4921672518
 21
229.0717752851
 31
0.0
  0
LINE
  5
96
330
1F
100
AcDbEntity
  8
0
  6
Continuous
 62
     7
370
    15
100
AcDbLine
 10
149.9309177522
 20
230.5717752851
 30
0.0
 11
149.9309177522
 21
229.0717752851
 31
0.0
  0
LINE
  5
97
330
1F
100
AcDbEntity
  8
0
  6
Continuous
 62
     7
370
    15
100
AcDbLine
 10
149.9309177522
 20
230.5717752851
 30
0.0
 11
151.4921672518
 21
230.5717752851
 31
0.0
  0
LINE
  5
98
330
1F
100
AcDbEntity
  8
0
  6
Continuous
 62
     7
370
    15
100
AcDbLine
 10
151.4921672518
 20
229.0717752851
 30
0.0
 11
149.9309177522
 21
229.0717752851
 31
0.0
  0
LINE
  5
99
330
1F
100
AcDbEntity
  8
0
  6
Continuous
 62
     7
370
    15
100
AcDbLine
 10
156.2400352901
 20
230.5717752851
 30
0.0
 11
156.2400352901
 21
229.0717752851
 31
0.0
  0
LINE
  5
9A
330
1F
100
AcDbEntity
  8
0
  6
Continuous
 62
     7
370
    15
100
AcDbLine
 10
151.4921672518
 20
230.5717752851
 30
0.0
 11
156.2400352901
 21
230.5717752851
 31
0.0
  0
LINE
  5
9B
330
1F
100
AcDbEntity
  8
0
  6
Continuous
 62
     7
370
    15
100
AcDbLine
 10
151.4921672518
 20
229.0717752851
 30
0.0
 11
156.2400352901
 21
229.0717752851
 31
0.0
  0
LINE
  5
9C
330
1F
100
AcDbEntity
  8
0
  6
Continuous
 62
     7
370
    15
100
AcDbLine
 10
156.2400352901
 20
230.5717752851
 30
0.0
 11
156.7686899286
 21
230.5717752851
 31
0.0
  0
LINE
  5
9D
330
1F
100
AcDbEntity
  8
0
  6
Continuous
 62
     7
370
    15
100
AcDbLine
 10
156.7686899286
 20
229.0717752851
 30
0.0
 11
156.7686899286
 21
230.5717752851
 31
0.0
  0
LINE
  5
9E
330
1F
100
AcDbEntity
  8
0
  6
Continuous
 62
     7
370
    15
100
AcDbLine
 10
156.7686899286
 20
229.0717752851
 30
0.0
 11
156.2400352901
 21
229.0717752851
 31
0.0
  0
LINE
  5
9F
330
1F
100
AcDbEntity
  8
0
  6
Continuous
 62
     7
370
    15
100
AcDbLine
 10
134.2250829649
 20
230.5717752851
 30
0.0
 11
134.3426612288
 21
230.5717752851
 31
0.0
  0
LINE
  5
A0
330
1F
100
AcDbEntity
  8
0
  6
Continuous
 62
     7
370
    15
100
AcDbLine
 10
156.7686899286
 20
230.5717752851
 30
0.0
 11
156.8862681925
 21
230.5717752851
 31
0.0
  0
LINE
  5
A1
330
1F
100
AcDbEntity
  8
0
  6
Continuous
 62
     7
370
    15
100
AcDbLine
 10
142.7416829048
 20
232.0717752851
 30
0.0
 11
142.7416829048
 21
229.0717752851
 31
0.0
  0
LINE
  5
A2
330
1F
100
AcDbEntity
  8
0
  6
Continuous
 62
     7
370
    15
100
AcDbLine
 10
142.3928770439
 20
232.0717752851
 30
0.0
 11
142.3928770439
 21
230.5717752851
 31
0.0
  0
LINE
  5
A3
330
1F
100
AcDbEntity
  8
0
  6
Continuous
 62
     7
370
    15
100
AcDbLine
 10
142.3928770439
 20
232.0717752851
 30
0.0
 11
142.7416829048
 21
232.0717752851
 31
0.0
  0
LINE
  5
A4
330
1F
100
AcDbEntity
  8
0
  6
Continuous
 62
     7
370
    15
100
AcDbLine
 10
142.7416829048
 20
229.0717752851
 30
0.0
 11
141.1804334052
 21
229.0717752851
 31
0.0
  0
LINE
  5
A5
330
1F
100
AcDbEntity
  8
0
  6
Continuous
 62
     7
370
    15
100
AcDbLine
 10
141.1804334052
 20
230.5717752851
 30
0.0
 11
142.3928770439
 21
230.5717752851
 31
0.0
  0
LINE
  5
A6
330
1F
100
AcDbEntity
  8
0
  6
Continuous
 62
     7
370
    15
100
AcDbLine
 10
148.3696682526
 20
229.0717752851
 30
0.0
 11
148.3696682526
 21
232.0717752851
 31
0.0
  0
LINE
  5
A7
330
1F
100
AcDbEntity
  8
0
  6
Continuous
 62
     7
370
    15
100
AcDbLine
 10
148.3696682526
 20
232.0717752851
 30
0.0
 11
148.7184741135
 21
232.0717752851
 31
0.0
  0
LINE
  5
A8
330
1F
100
AcDbEntity
  8
0
  6
Continuous
 62
     7
370
    15
100
AcDbLine
 10
148.7184741135
 20
230.5717752851
 30
0.0
 11
148.7184741135
 21
232.0717752851
 31
0.0
  0
LINE
  5
A9
330
1F
100
AcDbEntity
  8
0
  6
Continuous
 62
     7
370
    15
100
AcDbLine
 10
148.7184741135
 20
230.5717752851
 30
0.0
 11
149.9309177522
 21
230.5717752851
 31
0.0
  0
LINE
  5
AA
330
1F
100
AcDbEntity
  8
0
  6
Continuous
 62
     7
370
    15
100
AcDbLine
 10
149.9309177522
 20
229.0717752851
 30
0.0
 11
148.3696682526
 21
229.0717752851
 31
0.0
  0
LINE
  5
AB
330
1F
100
AcDbEntity
  8
0
  6
Continuous
 62
     7
370
    15
100
AcDbLine
 10
132.7058643614
 20
229.0717752851
 30
0.0
 11
132.7058643614
 21
232.0717752851
 31
0.0
  0
LINE
  5
AC
330
1F
100
AcDbEntity
  8
0
  6
Continuous
 62
     7
370
    15
100
AcDbLine
 10
135.1810439516
 20
232.0717752851
 30
0.0
 11
132.7058643614
 21
232.0717752851
 31
0.0
  0
LINE
  5
AD
330
1F
100
AcDbEntity
  8
0
  6
Continuous
 62
     7
370
    15
100
AcDbLine
 10
135.1810439516
 20
230.5717752851
 30
0.0
 11
135.1810439516
 21
232.0717752851
 31
0.0
  0
LINE
  5
AE
330
1F
100
AcDbEntity
  8
0
  6
Continuous
 62
     7
370
    15
100
AcDbLine
 10
158.405486796
 20
229.0717752851
 30
0.0
 11
158.405486796
 21
232.0717752851
 31
0.0
  0
LINE
  5
AF
330
1F
100
AcDbEntity
  8
0
  6
Continuous
 62
     7
370
    15
100
AcDbLine
 10
155.9303072058
 20
230.5717752851
 30
0.0
 11
155.9303072058
 21
232.0717752851
 31
0.0
  0
LINE
  5
B0
330
1F
100
AcDbEntity
  8
0
  6
Continuous
 62
     7
370
    15
100
AcDbLine
 10
158.405486796
 20
232.0717752851
 30
0.0
 11
155.9303072058
 21
232.0717752851
 31
0.0
  0
LINE
  5
B1
330
1F
100
AcDbEntity
  8
0
  6
Continuous
 62
     7
370
    15
100
AcDbLine
 10
141.8056755787
 20
230.5717752851
 30
0.0
 11
141.8056755787
 21
232.0717752851
 31
0.0
  0
LINE
  5
B2
330
1F
100
AcDbEntity
  8
0
  6
Continuous
 62
     7
370
    15
100
AcDbLine
 10
141.8056755787
 20
232.0717752851
 30
0.0
 11
142.3928770439
 21
232.0717752851
 31
0.0
  0
LINE
  5
B3
330
1F
100
AcDbEntity
  8
0
  6
Continuous
 62
     7
370
    15
100
AcDbLine
 10
149.3056755787
 20
232.0717752851
 30
0.0
 11
149.3056755787
 21
230.5717752851
 31
0.0
  0
LINE
  5
B4
330
1F
100
AcDbEntity
  8
0
  6
Continuous
 62
     7
370
    15
100
AcDbLine
 10
148.7184741135
 20
232.0717752851
 30
0.0
 11
149.3056755787
 21
232.0717752851
 31
0.0
  0
LINE
  5
B5
330
1F
100
AcDbEntity
  8
0
  6
Continuous
 62
     7
370
    15
100
AcDbLine
 10
148.3696682526
 20
232.0717752851
 30
0.0
 11
142.7416829048
 21
232.0717752851
 31
0.0
  0
LINE
  5
B6
330
1F
100
AcDbEntity
  8
0
  6
Continuous
 62
     7
370
    15
100
AcDbLine
 10
148.3696682526
 20
229.0717752851
 30
0.0
 11
142.7416829048
 21
229.0717752851
 31
0.0
  0
LINE
  5
B7
330
1F
100
AcDbEntity
  8
0
  6
Continuous
 62
     7
370
    15
100
AcDbLine
 10
141.8056755787
 20
232.0717752851
 30
0.0
 11
140.1913595986
 21
232.0717752851
 31
0.0
  0
LINE
  5
B8
330
1F
100
AcDbEntity
  8
0
  6
Continuous
 62
     7
370
    15
100
AcDbLine
 10
150.9199915588
 20
232.0717752851
 30
0.0
 11
149.3056755787
 21
232.0717752851
 31
0.0
  0
LINE
  5
B9
330
1F
100
AcDbEntity
  8
0
  6
Continuous
 62
     7
370
    15
100
AcDbLine
 10
132.191630587
 20
232.0717752851
 30
0.0
 11
132.191630587
 21
229.0717752851
 31
0.0
  0
LINE
  5
BA
330
1F
100
AcDbEntity
  8
0
  6
Continuous
 62
     7
370
    15
100
AcDbLine
 10
131.7413340922
 20
229.0717752851
 30
0.0
 11
131.7413340922
 21
232.0717752851
 31
0.0
  0
LINE
  5
BB
330
1F
100
AcDbEntity
  8
0
  6
Continuous
 62
     7
370
    15
100
AcDbLine
 10
131.7413340922
 20
232.0717752851
 30
0.0
 11
132.191630587
 21
232.0717752851
 31
0.0
  0
LINE
  5
BC
330
1F
100
AcDbEntity
  8
0
  6
Continuous
 62
     7
370
    15
100
AcDbLine
 10
158.9197205704
 20
229.0717752851
 30
0.0
 11
158.9197205704
 21
232.0717752851
 31
0.0
  0
LINE
  5
BD
330
1F
100
AcDbEntity
  8
0
  6
Continuous
 62
     7
370
    15
100
AcDbLine
 10
159.3700170652
 20
232.0717752851
 30
0.0
 11
159.3700170652
 21
229.0717752851
 31
0.0
  0
LINE
  5
BE
330
1F
100
AcDbEntity
  8
0
  6
Continuous
 62
     7
370
    15
100
AcDbLine
 10
158.9197205704
 20
232.0717752851
 30
0.0
 11
159.3700170652
 21
232.0717752851
 31
0.0
  0
LINE
  5
BF
330
1F
100
AcDbEntity
  8
0
  6
Continuous
 62
     7
370
    15
100
AcDbLine
 10
132.7058643614
 20
232.0717752851
 30
0.0
 11
132.191630587
 21
232.0717752851
 31
0.0
  0
LINE
  5
C0
330
1F
100
AcDbEntity
  8
0
  6
Continuous
 62
     7
370
    15
100
AcDbLine
 10
132.7058643614
 20
229.0717752851
 30
0.0
 11
132.191630587
 21
229.0717752851
 31
0.0
  0
LINE
  5
C1
330
1F
100
AcDbEntity
  8
0
  6
Continuous
 62
     7
370
    15
100
AcDbLine
 10
158.9197205704
 20
232.0717752851
 30
0.0
 11
158.405486796
 21
232.0717752851
 31
0.0
  0
LINE
  5
C2
330
1F
100
AcDbEntity
  8
0
  6
Continuous
 62
     7
370
    15
100
AcDbLine
 10
158.9197205704
 20
229.0717752851
 30
0.0
 11
158.405486796
 21
229.0717752851
 31
0.0
  0
LINE
  5
C3
330
1F
100
AcDbEntity
  8
0
  6
Continuous
 62
     7
370
    15
100
AcDbLine
 10
131.3556755787
 20
231.8717752851
 30
0.0
 11
131.3556755787
 21
229.0717752851
 31
0.0
  0
LINE
  5
C4
330
1F
100
AcDbEntity
  8
0
  6
Continuous
 62
     7
370
    15
100
AcDbLine
 10
131.5556755787
 20
232.0717752851
 30
0.0
 11
131.3556755787
 21
231.8717752851
 31
0.0
  0
LINE
  5
C5
330
1F
100
AcDbEntity
  8
0
  6
Continuous
 62
     7
370
    15
100
AcDbLine
 10
131.7413340922
 20
232.0717752851
 30
0.0
 11
131.5556755787
 21
232.0717752851
 31
0.0
  0
LINE
  5
C6
330
1F
100
AcDbEntity
  8
0
  6
Continuous
 62
     7
370
    15
100
AcDbLine
 10
131.7413340922
 20
229.0717752851
 30
0.0
 11
131.3556755787
 21
229.0717752851
 31
0.0
  0
LINE
  5
C7
330
1F
100
AcDbEntity
  8
0
  6
Continuous
 62
     7
370
    15
100
AcDbLine
 10
159.7556755787
 20
231.8717752851
 30
0.0
 11
159.5556755787
 21
232.0717752851
 31
0.0
  0
LINE
  5
C8
330
1F
100
AcDbEntity
  8
0
  6
Continuous
 62
     7
370
    15
100
AcDbLine
 10
159.7556755787
 20
231.8717752851
 30
0.0
 11
159.7556755787
 21
229.0717752851
 31
0.0
  0
LINE
  5
C9
330
1F
100
AcDbEntity
  8
0
  6
Continuous
 62
     7
370
    15
100
AcDbLine
 10
159.5556755787
 20
232.0717752851
 30
0.0
 11
159.3700170652
 21
232.0717752851
 31
0.0
  0
LINE
  5
CA
330
1F
100
AcDbEntity
  8
0
  6
Continuous
 62
     7
370
    15
100
AcDbLine
 10
159.7556755787
 20
229.0717752851
 30
0.0
 11
159.3700170652
 21
229.0717752851
 31
0.0
  0
LINE
  5
CB
330
1F
100
AcDbEntity
  8
0
  6
Continuous
 62
     7
370
    15
100
AcDbLine
 10
137.9199915588
 20
232.0717752851
 30
0.0
 11
135.1810439516
 21
232.0717752851
 31
0.0
  0
LINE
  5
CC
330
1F
100
AcDbEntity
  8
0
  6
Continuous
 62
     7
370
    15
100
AcDbLine
 10
155.9303072058
 20
232.0717752851
 30
0.0
 11
153.1913595986
 21
232.0717752851
 31
0.0
  0
LINE
  5
CD
330
1F
100
AcDbEntity
  8
0
  6
Continuous
 62
     7
370
    15
100
AcDbLine
 10
156.2400352901
 20
229.0717752851
 30
0.0
 11
156.2400352901
 21
180.0717752851
 31
0.0
  0
LINE
  5
CE
330
1F
100
AcDbEntity
  8
0
  6
Continuous
 62
     7
370
    15
100
AcDbLine
 10
156.8602660456
 20
180.0717752851
 30
0.0
 11
156.8602660456
 21
229.0717752851
 31
0.0
  0
LINE
  5
CF
330
1F
100
AcDbEntity
  8
0
  6
Continuous
 62
     7
370
    15
100
AcDbLine
 10
156.2400352901
 20
180.0717752851
 30
0.0
 11
156.8602660456
 21
180.0717752851
 31
0.0
  0
LINE
  5
D0
330
1F
100
AcDbEntity
  8
0
  6
Continuous
 62
     7
370
    15
100
AcDbLine
 10
156.2400352901
 20
229.0717752851
 30
0.0
 11
156.8602660456
 21
229.0717752851
 31
0.0
  0
LINE
  5
D1
330
1F
100
AcDbEntity
  8
0
  6
Continuous
 62
     7
370
    15
100
AcDbLine
 10
153.2255634222
 20
229.0717752851
 30
0.0
 11
153.2255634222
 21
180.0717752851
 31
0.0
  0
LINE
  5
D2
330
1F
100
AcDbEntity
  8
0
  6
Continuous
 62
     7
370
    15
100
AcDbLine
 10
156.2400352901
 20
180.0717752851
 30
0.0
 11
153.2255634222
 21
180.0717752851
 31
0.0
  0
LINE
  5
D3
330
1F
100
AcDbEntity
  8
0
  6
Continuous
 62
     7
370
    15
100
AcDbLine
 10
156.2400352901
 20
229.0717752851
 30
0.0
 11
153.2255634222
 21
229.0717752851
 31
0.0
  0
LINE
  5
D4
330
1F
100
AcDbEntity
  8
0
  6
Continuous
 62
     7
370
    15
100
AcDbLine
 10
152.4682525638
 20
186.5717752851
 30
0.0
 11
152.4682525638
 21
190.3717752851
 31
0.0
  0
LINE
  5
D5
330
1F
100
AcDbEntity
  8
0
  6
Continuous
 62
     7
370
    15
100
AcDbLine
 10
152.4682525638
 20
190.3717752851
 30
0.0
 11
152.4556755787
 21
190.3867968006
 31
0.0
  0
LINE
  5
D6
330
1F
100
AcDbEntity
  8
0
  6
Continuous
 62
     7
370
    15
100
AcDbLine
 10
152.4556755787
 20
218.7567537696
 30
0.0
 11
152.4556755787
 21
190.3867968006
 31
0.0
  0
LINE
  5
D7
330
1F
100
AcDbEntity
  8
0
  6
Continuous
 62
     7
370
    15
100
AcDbLine
 10
152.4556755787
 20
218.7567537696
 30
0.0
 11
152.4682525638
 21
218.7717752851
 31
0.0
  0
LINE
  5
D8
330
1F
100
AcDbEntity
  8
0
  6
Continuous
 62
     7
370
    15
100
AcDbLine
 10
152.4682525638
 20
218.7717752851
 30
0.0
 11
152.4682525638
 21
222.5717752851
 31
0.0
  0
LINE
  5
D9
330
1F
100
AcDbEntity
  8
0
  6
Continuous
 62
     7
370
    15
100
AcDbLine
 10
134.8713158674
 20
229.0717752851
 30
0.0
 11
134.8713158674
 21
180.0717752851
 31
0.0
  0
LINE
  5
DA
330
1F
100
AcDbEntity
  8
0
  6
Continuous
 62
     7
370
    15
100
AcDbLine
 10
134.2510851119
 20
229.0717752851
 30
0.0
 11
134.2510851119
 21
180.0717752851
 31
0.0
  0
LINE
  5
DB
330
1F
100
AcDbEntity
  8
0
  6
Continuous
 62
     7
370
    15
100
AcDbLine
 10
134.2510851119
 20
180.0717752851
 30
0.0
 11
134.8713158674
 21
180.0717752851
 31
0.0
  0
LINE
  5
DC
330
1F
100
AcDbEntity
  8
0
  6
Continuous
 62
     7
370
    15
100
AcDbLine
 10
134.2510851119
 20
229.0717752851
 30
0.0
 11
134.8713158674
 21
229.0717752851
 31
0.0
  0
LINE
  5
DD
330
1F
100
AcDbEntity
  8
0
  6
Continuous
 62
     7
370
    15
100
AcDbLine
 10
138.6430985936
 20
190.3717752851
 30
0.0
 11
138.6430985936
 21
186.5717752851
 31
0.0
  0
LINE
  5
DE
330
1F
100
AcDbEntity
  8
0
  6
Continuous
 62
     7
370
    15
100
AcDbLine
 10
137.8857877353
 20
229.0717752851
 30
0.0
 11
137.8857877353
 21
180.0717752851
 31
0.0
  0
LINE
  5
DF
330
1F
100
AcDbEntity
  8
0
  6
Continuous
 62
     7
370
    15
100
AcDbLine
 10
138.6430985936
 20
222.5717752851
 30
0.0
 11
138.6430985936
 21
218.7717752851
 31
0.0
  0
LINE
  5
E0
330
1F
100
AcDbEntity
  8
0
  6
Continuous
 62
     7
370
    15
100
AcDbLine
 10
138.6430985936
 20
218.7717752851
 30
0.0
 11
138.6556755787
 21
218.7567537696
 31
0.0
  0
LINE
  5
E1
330
1F
100
AcDbEntity
  8
0
  6
Continuous
 62
     7
370
    15
100
AcDbLine
 10
138.6556755787
 20
218.7567537696
 30
0.0
 11
138.6556755787
 21
190.3867968006
 31
0.0
  0
LINE
  5
E2
330
1F
100
AcDbEntity
  8
0
  6
Continuous
 62
     7
370
    15
100
AcDbLine
 10
138.6556755787
 20
190.3867968006
 30
0.0
 11
138.6430985936
 21
190.3717752851
 31
0.0
  0
LINE
  5
E3
330
1F
100
AcDbEntity
  8
0
  6
Continuous
 62
     7
370
    15
100
AcDbLine
 10
137.8857877353
 20
180.0717752851
 30
0.0
 11
134.8713158674
 21
180.0717752851
 31
0.0
  0
LINE
  5
E4
330
1F
100
AcDbEntity
  8
0
  6
Continuous
 62
     7
370
    15
100
AcDbLine
 10
137.8857877353
 20
229.0717752851
 30
0.0
 11
134.8713158674
 21
229.0717752851
 31
0.0
  0
LINE
  5
E5
330
1F
100
AcDbEntity
  8
0
  6
Continuous
 62
     7
370
    15
100
AcDbLine
 10
141.1804334052
 20
180.0717752851
 30
0.0
 11
141.1804334052
 21
229.0717752851
 31
0.0
  0
LINE
  5
E6
330
1F
100
AcDbEntity
  8
0
  6
Continuous
 62
     7
370
    15
100
AcDbLine
 10
140.1793477978
 20
229.0717752851
 30
0.0
 11
140.1793477978
 21
180.0717752851
 31
0.0
  0
LINE
  5
E7
330
1F
100
AcDbEntity
  8
0
  6
Continuous
 62
     7
370
    15
100
AcDbLine
 10
141.1804334052
 20
180.0717752851
 30
0.0
 11
140.1793477978
 21
180.0717752851
 31
0.0
  0
LINE
  5
E8
330
1F
100
AcDbEntity
  8
0
  6
Continuous
 62
     7
370
    15
100
AcDbLine
 10
140.1793477978
 20
229.0717752851
 30
0.0
 11
141.1804334052
 21
229.0717752851
 31
0.0
  0
LINE
  5
E9
330
1F
100
AcDbEntity
  8
0
  6
Continuous
 62
     7
370
    15
100
AcDbLine
 10
139.4682525638
 20
186.5717752851
 30
0.0
 11
139.4682525638
 21
190.3717752851
 31
0.0
  0
LINE
  5
EA
330
1F
100
AcDbEntity
  8
0
  6
Continuous
 62
     7
370
    15
100
AcDbLine
 10
139.4682525638
 20
190.3717752851
 30
0.0
 11
139.4556755787
 21
190.3867968006
 31
0.0
  0
LINE
  5
EB
330
1F
100
AcDbEntity
  8
0
  6
Continuous
 62
     7
370
    15
100
AcDbLine
 10
139.4556755787
 20
218.7567537696
 30
0.0
 11
139.4556755787
 21
190.3867968006
 31
0.0
  0
LINE
  5
EC
330
1F
100
AcDbEntity
  8
0
  6
Continuous
 62
     7
370
    15
100
AcDbLine
 10
139.4556755787
 20
218.7567537696
 30
0.0
 11
139.4682525638
 21
218.7717752851
 31
0.0
  0
LINE
  5
ED
330
1F
100
AcDbEntity
  8
0
  6
Continuous
 62
     7
370
    15
100
AcDbLine
 10
139.4682525638
 20
218.7717752851
 30
0.0
 11
139.4682525638
 21
222.5717752851
 31
0.0
  0
LINE
  5
EE
330
1F
100
AcDbEntity
  8
0
  6
Continuous
 62
     7
370
    15
100
AcDbLine
 10
149.9309177522
 20
229.0717752851
 30
0.0
 11
149.9309177522
 21
180.0717752851
 31
0.0
  0
LINE
  5
EF
330
1F
100
AcDbEntity
  8
0
  6
Continuous
 62
     7
370
    15
100
AcDbLine
 10
150.9320033596
 20
229.0717752851
 30
0.0
 11
150.9320033596
 21
180.0717752851
 31
0.0
  0
LINE
  5
F0
330
1F
100
AcDbEntity
  8
0
  6
Continuous
 62
     7
370
    15
100
AcDbLine
 10
150.9320033596
 20
180.0717752851
 30
0.0
 11
149.9309177522
 21
180.0717752851
 31
0.0
  0
LINE
  5
F1
330
1F
100
AcDbEntity
  8
0
  6
Continuous
 62
     7
370
    15
100
AcDbLine
 10
149.9309177522
 20
229.0717752851
 30
0.0
 11
150.9320033596
 21
229.0717752851
 31
0.0
  0
LINE
  5
F2
330
1F
100
AcDbEntity
  8
0
  6
Continuous
 62
     7
370
    15
100
AcDbLine
 10
151.6430985936
 20
190.3717752851
 30
0.0
 11
151.6430985936
 21
186.5717752851
 31
0.0
  0
LINE
  5
F3
330
1F
100
AcDbEntity
  8
0
  6
Continuous
 62
     7
370
    15
100
AcDbLine
 10
151.6430985936
 20
222.5717752851
 30
0.0
 11
151.6430985936
 21
218.7717752851
 31
0.0
  0
LINE
  5
F4
330
1F
100
AcDbEntity
  8
0
  6
Continuous
 62
     7
370
    15
100
AcDbLine
 10
151.6430985936
 20
218.7717752851
 30
0.0
 11
151.6556755787
 21
218.7567537696
 31
0.0
  0
LINE
  5
F5
330
1F
100
AcDbEntity
  8
0
  6
Continuous
 62
     7
370
    15
100
AcDbLine
 10
151.6556755787
 20
218.7567537696
 30
0.0
 11
151.6556755787
 21
190.3867968006
 31
0.0
  0
LINE
  5
F6
330
1F
100
AcDbEntity
  8
0
  6
Continuous
 62
     7
370
    15
100
AcDbLine
 10
151.6556755787
 20
190.3867968006
 30
0.0
 11
151.6430985936
 21
190.3717752851
 31
0.0
  0
LINE
  5
F7
330
1F
100
AcDbEntity
  8
0
  6
Continuous
 62
     7
370
    15
100
AcDbLine
 10
156.8602660456
 20
229.0717752851
 30
0.0
 11
156.9373433246
 21
229.0717752851
 31
0.0
  0
LINE
  5
F8
330
1F
100
AcDbEntity
  8
0
  6
Continuous
 62
     7
370
    15
100
AcDbLine
 10
134.1740078328
 20
229.0717752851
 30
0.0
 11
134.2510851119
 21
229.0717752851
 31
0.0
  0
LINE
  5
F9
330
1F
100
AcDbEntity
  8
0
  6
Continuous
 62
     7
370
    15
100
AcDbLine
 10
142.7416829048
 20
229.0717752851
 30
0.0
 11
142.7416829048
 21
180.0717752851
 31
0.0
  0
LINE
  5
FA
330
1F
100
AcDbEntity
  8
0
  6
Continuous
 62
     7
370
    15
100
AcDbLine
 10
142.7416829048
 20
180.0717752851
 30
0.0
 11
141.1804334052
 21
180.0717752851
 31
0.0
  0
LINE
  5
FB
330
1F
100
AcDbEntity
  8
0
  6
Continuous
 62
     7
370
    15
100
AcDbLine
 10
148.3696682526
 20
180.0717752851
 30
0.0
 11
148.3696682526
 21
229.0717752851
 31
0.0
  0
LINE
  5
FC
330
1F
100
AcDbEntity
  8
0
  6
Continuous
 62
     7
370
    15
100
AcDbLine
 10
149.9309177522
 20
180.0717752851
 30
0.0
 11
148.3696682526
 21
180.0717752851
 31
0.0
  0
LINE
  5
FD
330
1F
100
AcDbEntity
  8
0
  6
Continuous
 62
     7
370
    15
100
AcDbLine
 10
151.6359458023
 20
190.3717752851
 30
0.0
 11
152.4715886137
 21
190.3717752851
 31
0.0
  0
LINE
  5
FE
330
1F
100
AcDbEntity
  8
0
  6
Continuous
 62
     7
370
    15
100
AcDbLine
 10
138.6359458023
 20
190.3717752851
 30
0.0
 11
139.4715886137
 21
190.3717752851
 31
0.0
  0
LINE
  5
FF
330
1F
100
AcDbEntity
  8
0
  6
Continuous
 62
     7
370
    15
100
AcDbLine
 10
139.4754053551
 20
218.7717752851
 30
0.0
 11
138.6397625437
 21
218.7717752851
 31
0.0
  0
LINE
  5
100
330
1F
100
AcDbEntity
  8
0
  6
Continuous
 62
     7
370
    15
100
AcDbLine
 10
138.6556755787
 20
218.7567537696
 30
0.0
 11
139.4556755787
 21
218.7567537696
 31
0.0
  0
LINE
  5
101
330
1F
100
AcDbEntity
  8
0
  6
Continuous
 62
     7
370
    15
100
AcDbLine
 10
152.462379428
 20
190.3867968006
 30
0.0
 11
151.6556755787
 21
190.3867968006
 31
0.0
  0
LINE
  5
102
330
1F
100
AcDbEntity
  8
0
  6
Continuous
 62
     7
370
    15
100
AcDbLine
 10
152.4754053551
 20
218.7717752851
 30
0.0
 11
151.6397625437
 21
218.7717752851
 31
0.0
  0
LINE
  5
103
330
1F
100
AcDbEntity
  8
0
  6
Continuous
 62
     7
370
    15
100
AcDbLine
 10
151.6556755787
 20
218.7567537696
 30
0.0
 11
152.4556755787
 21
218.7567537696
 31
0.0
  0
LINE
  5
104
330
1F
100
AcDbEntity
  8
0
  6
Continuous
 62
     7
370
    15
100
AcDbLine
 10
139.462379428
 20
190.3867968006
 30
0.0
 11
138.6556755787
 21
190.3867968006
 31
0.0
  0
LINE
  5
105
330
1F
100
AcDbEntity
  8
0
  6
Continuous
 62
     7
370
    15
100
AcDbLine
 10
158.3043893928
 20
229.0717752851
 30
0.0
 11
158.3043893928
 21
180.0717752851
 31
0.0
  0
LINE
  5
106
330
1F
100
AcDbEntity
  8
0
  6
Continuous
 62
     7
370
    15
100
AcDbLine
 10
158.3043893928
 20
229.0717752851
 30
0.0
 11
156.9373433246
 21
229.0717752851
 31
0.0
  0
LINE
  5
107
330
1F
100
AcDbEntity
  8
0
  6
Continuous
 62
     7
370
    15
100
AcDbLine
 10
132.8069617647
 20
229.0717752851
 30
0.0
 11
132.8069617647
 21
180.0717752851
 31
0.0
  0
LINE
  5
108
330
1F
100
AcDbEntity
  8
0
  6
Continuous
 62
     7
370
    15
100
AcDbLine
 10
134.1740078328
 20
229.0717752851
 30
0.0
 11
132.8069617647
 21
229.0717752851
 31
0.0
  0
LINE
  5
109
330
1F
100
AcDbEntity
  8
0
  6
Continuous
 62
     7
370
    15
100
AcDbLine
 10
142.7416829048
 20
180.0717752851
 30
0.0
 11
148.3696682526
 21
180.0717752851
 31
0.0
  0
LINE
  5
10A
330
1F
100
AcDbEntity
  8
0
  6
Continuous
 62
     7
370
    15
100
AcDbLine
 10
159.2992720444
 20
229.0717752851
 30
0.0
 11
159.2992720444
 21
180.0717752851
 31
0.0
  0
LINE
  5
10B
330
1F
100
AcDbEntity
  8
0
  6
Continuous
 62
     7
370
    15
100
AcDbLine
 10
159.0000850244
 20
180.0717752851
 30
0.0
 11
159.0000850244
 21
229.0717752851
 31
0.0
  0
LINE
  5
10C
330
1F
100
AcDbEntity
  8
0
  6
Continuous
 62
     7
370
    15
100
AcDbLine
 10
159.0000850244
 20
229.0717752851
 30
0.0
 11
159.2992720444
 21
229.0717752851
 31
0.0
  0
LINE
  5
10D
330
1F
100
AcDbEntity
  8
0
  6
Continuous
 62
     7
370
    15
100
AcDbLine
 10
132.111266133
 20
229.0717752851
 30
0.0
 11
132.111266133
 21
180.0717752851
 31
0.0
  0
LINE
  5
10E
330
1F
100
AcDbEntity
  8
0
  6
Continuous
 62
     7
370
    15
100
AcDbLine
 10
131.812079113
 20
180.0717752851
 30
0.0
 11
131.812079113
 21
229.0717752851
 31
0.0
  0
LINE
  5
10F
330
1F
100
AcDbEntity
  8
0
  6
Continuous
 62
     7
370
    15
100
AcDbLine
 10
131.812079113
 20
229.0717752851
 30
0.0
 11
132.111266133
 21
229.0717752851
 31
0.0
  0
LINE
  5
110
330
1F
100
AcDbEntity
  8
0
  6
Continuous
 62
     7
370
    15
100
AcDbLine
 10
159.0000850244
 20
229.0717752851
 30
0.0
 11
158.3043893928
 21
229.0717752851
 31
0.0
  0
LINE
  5
111
330
1F
100
AcDbEntity
  8
0
  6
Continuous
 62
     7
370
    15
100
AcDbLine
 10
132.8069617647
 20
229.0717752851
 30
0.0
 11
132.111266133
 21
229.0717752851
 31
0.0
  0
LINE
  5
112
330
1F
100
AcDbEntity
  8
0
  6
Continuous
 62
     7
370
    15
100
AcDbLine
 10
159.7556755787
 20
229.0717752851
 30
0.0
 11
159.7556755787
 21
180.0717752851
 31
0.0
  0
LINE
  5
113
330
1F
100
AcDbEntity
  8
0
  6
Continuous
 62
     7
370
    15
100
AcDbLine
 10
159.2992720444
 20
180.0717752851
 30
0.0
 11
159.7556755787
 21
180.0717752851
 31
0.0
  0
LINE
  5
114
330
1F
100
AcDbEntity
  8
0
  6
Continuous
 62
     7
370
    15
100
AcDbLine
 10
159.2992720444
 20
229.0717752851
 30
0.0
 11
159.7556755787
 21
229.0717752851
 31
0.0
  0
LINE
  5
115
330
1F
100
AcDbEntity
  8
0
  6
Continuous
 62
     7
370
    15
100
AcDbLine
 10
131.3556755787
 20
229.0717752851
 30
0.0
 11
131.3556755787
 21
180.0717752851
 31
0.0
  0
LINE
  5
116
330
1F
100
AcDbEntity
  8
0
  6
Continuous
 62
     7
370
    15
100
AcDbLine
 10
131.3556755787
 20
180.0717752851
 30
0.0
 11
131.812079113
 21
180.0717752851
 31
0.0
  0
LINE
  5
117
330
1F
100
AcDbEntity
  8
0
  6
Continuous
 62
     7
370
    15
100
AcDbLine
 10
131.3556755787
 20
229.0717752851
 30
0.0
 11
131.812079113
 21
229.0717752851
 31
0.0
  0
LINE
  5
118
330
1F
100
AcDbEntity
  8
0
  6
Continuous
 62
     7
370
    15
100
AcDbLine
 10
131.0999300726
 20
180.0717752851
 30
0.0
 11
131.0999300726
 21
202.0717752851
 31
0.0
  0
LINE
  5
119
330
1F
100
AcDbEntity
  8
0
  6
Continuous
 62
     7
370
    15
100
AcDbLine
 10
131.3556755787
 20
202.0717752851
 30
0.0
 11
131.0999300726
 21
202.0717752851
 31
0.0
  0
LINE
  5
11A
330
1F
100
AcDbEntity
  8
0
  6
Continuous
 62
     7
370
    15
100
AcDbLine
 10
131.3556755787
 20
180.0717752851
 30
0.0
 11
131.0999300726
 21
180.0717752851
 31
0.0
  0
LINE
  5
11B
330
1F
100
AcDbEntity
  8
0
  6
Continuous
 62
     7
370
    15
100
AcDbLine
 10
160.0114210848
 20
202.0717752851
 30
0.0
 11
160.0114210848
 21
180.0717752851
 31
0.0
  0
LINE
  5
11C
330
1F
100
AcDbEntity
  8
0
  6
Continuous
 62
     7
370
    15
100
AcDbLine
 10
160.0114210848
 20
202.0717752851
 30
0.0
 11
159.7556755787
 21
202.0717752851
 31
0.0
  0
LINE
  5
11D
330
1F
100
AcDbEntity
  8
0
  6
Continuous
 62
     7
370
    15
100
AcDbLine
 10
160.0114210848
 20
180.0717752851
 30
0.0
 11
159.7556755787
 21
180.0717752851
 31
0.0
  0
LINE
  5
11E
330
1F
100
AcDbEntity
  8
0
  6
Continuous
 62
     7
370
    15
100
AcDbLine
 10
168.5556755787
 20
201.0717752851
 30
0.0
 11
167.5556755787
 21
202.0717752851
 31
0.0
  0
LINE
  5
11F
330
1F
100
AcDbEntity
  8
0
  6
Continuous
 62
     7
370
    15
100
AcDbLine
 10
168.5556755787
 20
181.0717752851
 30
0.0
 11
168.5556755787
 21
201.0717752851
 31
0.0
  0
LINE
  5
120
330
1F
100
AcDbEntity
  8
0
  6
Continuous
 62
     7
370
    15
100
AcDbLine
 10
167.5556755787
 20
180.0717752851
 30
0.0
 11
168.5556755787
 21
181.0717752851
 31
0.0
  0
LINE
  5
121
330
1F
100
AcDbEntity
  8
0
  6
Continuous
 62
     7
370
    15
100
AcDbLine
 10
166.8056755787
 20
197.5717752851
 30
0.0
 11
166.8056755787
 21
192.5717752851
 31
0.0
  0
ARC
  5
122
330
1F
100
AcDbEntity
  8
0
  6
Continuous
 62
     7
370
    15
100
AcDbCircle
 10
164.5556755787
 20
197.5717752851
 30
0.0
 40
2.25
100
AcDbArc
 50
0.0
 51
180.0
  0
LINE
  5
123
330
1F
100
AcDbEntity
  8
0
  6
Continuous
 62
     7
370
    15
100
AcDbLine
 10
162.3056755787
 20
192.5717752851
 30
0.0
 11
162.3056755787
 21
197.5717752851
 31
0.0
  0
ARC
  5
124
330
1F
100
AcDbEntity
  8
0
  6
Continuous
 62
     7
370
    15
100
AcDbCircle
 10
164.5556755787
 20
192.5717752851
 30
0.0
 40
2.25
100
AcDbArc
 50
180.0
 51
0.0
  0
LINE
  5
125
330
1F
100
AcDbEntity
  8
0
  6
Continuous
 62
     7
370
    15
100
AcDbLine
 10
160.0114210848
 20
202.0717752851
 30
0.0
 11
167.5556755787
 21
202.0717752851
 31
0.0
  0
LINE
  5
126
330
1F
100
AcDbEntity
  8
0
  6
Continuous
 62
     7
370
    15
100
AcDbLine
 10
167.5556755787
 20
180.0717752851
 30
0.0
 11
160.0114210848
 21
180.0717752851
 31
0.0
  0
LINE
  5
127
330
1F
100
AcDbEntity
  8
0
  6
Continuous
 62
     7
370
    15
100
AcDbLine
 10
123.5556755787
 20
202.0717752851
 30
0.0
 11
122.5556755787
 21
201.0717752851
 31
0.0
  0
LINE
  5
128
330
1F
100
AcDbEntity
  8
0
  6
Continuous
 62
     7
370
    15
100
AcDbLine
 10
122.5556755787
 20
181.0717752851
 30
0.0
 11
123.5556755787
 21
180.0717752851
 31
0.0
  0
LINE
  5
129
330
1F
100
AcDbEntity
  8
0
  6
Continuous
 62
     7
370
    15
100
AcDbLine
 10
122.5556755787
 20
201.0717752851
 30
0.0
 11
122.5556755787
 21
181.0717752851
 31
0.0
  0
LINE
  5
12A
330
1F
100
AcDbEntity
  8
0
  6
Continuous
 62
     7
370
    15
100
AcDbLine
 10
124.3056755787
 20
192.5717752851
 30
0.0
 11
124.3056755787
 21
197.5717752851
 31
0.0
  0
ARC
  5
12B
330
1F
100
AcDbEntity
  8
0
  6
Continuous
 62
     7
370
    15
100
AcDbCircle
 10
126.5556755787
 20
192.5717752851
 30
0.0
 40
2.250000000000014
100
AcDbArc
 50
180.0
 51
0.0
  0
ARC
  5
12C
330
1F
100
AcDbEntity
  8
0
  6
Continuous
 62
     7
370
    15
100
AcDbCircle
 10
126.5556755787
 20
197.5717752851
 30
0.0
 40
2.250000000000014
100
AcDbArc
 50
0.0
 51
180.0
  0
LINE
  5
12D
330
1F
100
AcDbEntity
  8
0
  6
Continuous
 62
     7
370
    15
100
AcDbLine
 10
128.8056755787
 20
197.5717752851
 30
0.0
 11
128.8056755787
 21
192.5717752851
 31
0.0
  0
LINE
  5
12E
330
1F
100
AcDbEntity
  8
0
  6
Continuous
 62
     7
370
    15
100
AcDbLine
 10
123.5556755787
 20
202.0717752851
 30
0.0
 11
131.0999300726
 21
202.0717752851
 31
0.0
  0
LINE
  5
12F
330
1F
100
AcDbEntity
  8
0
  6
Continuous
 62
     7
370
    15
100
AcDbLine
 10
131.0999300726
 20
180.0717752851
 30
0.0
 11
123.5556755787
 21
180.0717752851
 31
0.0
  0
LINE
  5
130
330
1F
100
AcDbEntity
  8
0
  6
Continuous
 62
     7
370
    15
100
AcDbLine
 10
169.5556755787
 20
200.0717752851
 30
0.0
 11
169.5556755787
 21
182.0717752851
 31
0.0
  0
LINE
  5
131
330
1F
100
AcDbEntity
  8
0
  6
Continuous
 62
     7
370
    15
100
AcDbLine
 10
168.5556755787
 20
181.0717752851
 30
0.0
 11
169.5556755787
 21
182.0717752851
 31
0.0
  0
LINE
  5
132
330
1F
100
AcDbEntity
  8
0
  6
Continuous
 62
     7
370
    15
100
AcDbLine
 10
169.5556755787
 20
200.0717752851
 30
0.0
 11
168.5556755787
 21
201.0717752851
 31
0.0
  0
LINE
  5
133
330
1F
100
AcDbEntity
  8
0
  6
Continuous
 62
     7
370
    15
100
AcDbLine
 10
121.5556755787
 20
182.0717752851
 30
0.0
 11
121.5556755787
 21
200.0717752851
 31
0.0
  0
LINE
  5
134
330
1F
100
AcDbEntity
  8
0
  6
Continuous
 62
     7
370
    15
100
AcDbLine
 10
121.5556755787
 20
182.0717752851
 30
0.0
 11
122.5556755787
 21
181.0717752851
 31
0.0
  0
LINE
  5
135
330
1F
100
AcDbEntity
  8
0
  6
Continuous
 62
     7
370
    15
100
AcDbLine
 10
122.5556755787
 20
201.0717752851
 30
0.0
 11
121.5556755787
 21
200.0717752851
 31
0.0
  0
LINE
  5
136
330
1F
100
AcDbEntity
  8
0
  6
Continuous
 62
     7
370
    15
100
AcDbLine
 10
153.0656159269
 20
232.0717752851
 30
0.0
 11
153.1913595986
 21
232.0717752851
 31
0.0
  0
LINE
  5
137
330
1F
100
AcDbEntity
  8
0
  6
Continuous
 62
     7
370
    15
100
AcDbLine
 10
150.9199915588
 20
232.0717752851
 30
0.0
 11
153.0656159269
 21
232.0717752851
 31
0.0
  0
LINE
  5
138
330
1F
100
AcDbEntity
  8
0
  6
Continuous
 62
     7
370
    15
100
AcDbLine
 10
151.5300452719
 20
222.7717752851
 30
0.0
 11
152.5813058855
 21
222.7717752851
 31
0.0
  0
LINE
  5
139
330
1F
100
AcDbEntity
  8
0
  6
Continuous
 62
     7
370
    15
100
AcDbLine
 10
152.4682525638
 20
222.5717752851
 30
0.0
 11
151.6430985936
 21
222.5717752851
 31
0.0
  0
LINE
  5
13A
330
1F
100
AcDbEntity
  8
0
  6
Continuous
 62
     7
370
    15
100
AcDbLine
 10
140.0656159269
 20
232.0717752851
 30
0.0
 11
140.1913595986
 21
232.0717752851
 31
0.0
  0
LINE
  5
13B
330
1F
100
AcDbEntity
  8
0
  6
Continuous
 62
     7
370
    15
100
AcDbLine
 10
137.9199915588
 20
232.0717752851
 30
0.0
 11
140.0656159269
 21
232.0717752851
 31
0.0
  0
LINE
  5
13C
330
1F
100
AcDbEntity
  8
0
  6
Continuous
 62
     7
370
    15
100
AcDbLine
 10
138.5300452719
 20
222.7717752851
 30
0.0
 11
139.5813058855
 21
222.7717752851
 31
0.0
  0
LINE
  5
13D
330
1F
100
AcDbEntity
  8
0
  6
Continuous
 62
     7
370
    15
100
AcDbLine
 10
139.4682525638
 20
222.5717752851
 30
0.0
 11
138.6430985936
 21
222.5717752851
 31
0.0
  0
LINE
  5
13E
330
1F
100
AcDbEntity
  8
0
  6
Continuous
 62
     7
370
    15
100
AcDbLine
 10
139.6191839056
 20
178.5717752851
 30
0.0
 11
139.6191839056
 21
180.0717752851
 31
0.0
  0
LINE
  5
13F
330
1F
100
AcDbEntity
  8
0
  6
Continuous
 62
     7
370
    15
100
AcDbLine
 10
139.6191839056
 20
180.0717752851
 30
0.0
 11
141.1804334052
 21
180.0717752851
 31
0.0
  0
LINE
  5
140
330
1F
100
AcDbEntity
  8
0
  6
Continuous
 62
     7
370
    15
100
AcDbLine
 10
141.1804334052
 20
178.5717752851
 30
0.0
 11
141.1804334052
 21
180.0717752851
 31
0.0
  0
LINE
  5
141
330
1F
100
AcDbEntity
  8
0
  6
Continuous
 62
     7
370
    15
100
AcDbLine
 10
141.1804334052
 20
178.5717752851
 30
0.0
 11
139.6191839056
 21
178.5717752851
 31
0.0
  0
LINE
  5
142
330
1F
100
AcDbEntity
  8
0
  6
Continuous
 62
     7
370
    15
100
AcDbLine
 10
136.3056755787
 20
177.0717752851
 30
0.0
 11
134.5906891903
 21
177.0717752851
 31
0.0
  0
ARC
  5
143
330
1F
100
AcDbEntity
  8
0
  6
Continuous
 62
     7
370
    15
100
AcDbCircle
 10
142.8556755787
 20
165.7717752851
 30
0.0
 40
13.99999999999984
100
AcDbArc
 50
124.7719440319
 51
126.1822872212
  0
LINE
  5
144
330
1F
100
AcDbEntity
  8
0
  6
Continuous
 62
     7
370
    15
100
AcDbLine
 10
134.8713158674
 20
177.2717752851
 30
0.0
 11
136.3056755787
 21
177.2717752851
 31
0.0
  0
LINE
  5
145
330
1F
100
AcDbEntity
  8
0
  6
Continuous
 62
     7
370
    15
100
AcDbLine
 10
136.3056755787
 20
177.2717752851
 30
0.0
 11
136.3056755787
 21
177.0717752851
 31
0.0
  0
LINE
  5
146
330
1F
100
AcDbEntity
  8
0
  6
Continuous
 62
     7
370
    15
100
AcDbLine
 10
136.3056755787
 20
178.5717752851
 30
0.0
 11
136.3056755787
 21
177.2717752851
 31
0.0
  0
LINE
  5
147
330
1F
100
AcDbEntity
  8
0
  6
Continuous
 62
     7
370
    15
100
AcDbLine
 10
134.8713158674
 20
177.2717752851
 30
0.0
 11
134.8713158674
 21
180.0717752851
 31
0.0
  0
LINE
  5
148
330
1F
100
AcDbEntity
  8
0
  6
Continuous
 62
     7
370
    15
100
AcDbLine
 10
139.6191839056
 20
180.0717752851
 30
0.0
 11
134.8713158674
 21
180.0717752851
 31
0.0
  0
LINE
  5
149
330
1F
100
AcDbEntity
  8
0
  6
Continuous
 62
     7
370
    15
100
AcDbLine
 10
139.6191839056
 20
178.5717752851
 30
0.0
 11
136.3056755787
 21
178.5717752851
 31
0.0
  0
LINE
  5
14A
330
1F
100
AcDbEntity
  8
0
  6
Continuous
 62
     7
370
    15
100
AcDbLine
 10
154.8056755787
 20
177.2717752851
 30
0.0
 11
156.2400352901
 21
177.2717752851
 31
0.0
  0
ARC
  5
14B
330
1F
100
AcDbEntity
  8
0
  6
Continuous
 62
     7
370
    15
100
AcDbCircle
 10
148.2556755787
 20
165.7717752851
 30
0.0
 40
13.99999999999984
100
AcDbArc
 50
53.8177127788
 51
55.2280559681
  0
LINE
  5
14C
330
1F
100
AcDbEntity
  8
0
  6
Continuous
 62
     7
370
    15
100
AcDbLine
 10
156.5206619671
 20
177.0717752851
 30
0.0
 11
154.8056755787
 21
177.0717752851
 31
0.0
  0
LINE
  5
14D
330
1F
100
AcDbEntity
  8
0
  6
Continuous
 62
     7
370
    15
100
AcDbLine
 10
154.8056755787
 20
177.0717752851
 30
0.0
 11
154.8056755787
 21
177.2717752851
 31
0.0
  0
LINE
  5
14E
330
1F
100
AcDbEntity
  8
0
  6
Continuous
 62
     7
370
    15
100
AcDbLine
 10
151.4921672518
 20
180.0717752851
 30
0.0
 11
151.4921672518
 21
178.5717752851
 31
0.0
  0
LINE
  5
14F
330
1F
100
AcDbEntity
  8
0
  6
Continuous
 62
     7
370
    15
100
AcDbLine
 10
149.9309177522
 20
180.0717752851
 30
0.0
 11
149.9309177522
 21
178.5717752851
 31
0.0
  0
LINE
  5
150
330
1F
100
AcDbEntity
  8
0
  6
Continuous
 62
     7
370
    15
100
AcDbLine
 10
151.4921672518
 20
178.5717752851
 30
0.0
 11
149.9309177522
 21
178.5717752851
 31
0.0
  0
LINE
  5
151
330
1F
100
AcDbEntity
  8
0
  6
Continuous
 62
     7
370
    15
100
AcDbLine
 10
149.9309177522
 20
180.0717752851
 30
0.0
 11
151.4921672518
 21
180.0717752851
 31
0.0
  0
LINE
  5
152
330
1F
100
AcDbEntity
  8
0
  6
Continuous
 62
     7
370
    15
100
AcDbLine
 10
156.2400352901
 20
177.2717752851
 30
0.0
 11
156.2400352901
 21
180.0717752851
 31
0.0
  0
LINE
  5
153
330
1F
100
AcDbEntity
  8
0
  6
Continuous
 62
     7
370
    15
100
AcDbLine
 10
154.8056755787
 20
178.5717752851
 30
0.0
 11
151.4921672518
 21
178.5717752851
 31
0.0
  0
LINE
  5
154
330
1F
100
AcDbEntity
  8
0
  6
Continuous
 62
     7
370
    15
100
AcDbLine
 10
156.2400352901
 20
180.0717752851
 30
0.0
 11
151.4921672518
 21
180.0717752851
 31
0.0
  0
LINE
  5
155
330
1F
100
AcDbEntity
  8
0
  6
Continuous
 62
     7
370
    15
100
AcDbLine
 10
154.8056755787
 20
178.5717752851
 30
0.0
 11
154.8056755787
 21
177.2717752851
 31
0.0
  0
LINE
  5
156
330
1F
100
AcDbEntity
  8
0
  6
Continuous
 62
     7
370
    15
100
AcDbLine
 10
131.5556755787
 20
177.0717752851
 30
0.0
 11
134.5906891903
 21
177.0717752851
 31
0.0
  0
LINE
  5
157
330
1F
100
AcDbEntity
  8
0
  6
Continuous
 62
     7
370
    15
100
AcDbLine
 10
131.3556755787
 20
177.2717752851
 30
0.0
 11
131.5556755787
 21
177.0717752851
 31
0.0
  0
LINE
  5
158
330
1F
100
AcDbEntity
  8
0
  6
Continuous
 62
     7
370
    15
100
AcDbLine
 10
131.3556755787
 20
177.2717752851
 30
0.0
 11
131.3556755787
 21
180.0717752851
 31
0.0
  0
LINE
  5
159
330
1F
100
AcDbEntity
  8
0
  6
Continuous
 62
     7
370
    15
100
AcDbLine
 10
131.3556755787
 20
180.0717752851
 30
0.0
 11
134.8713158674
 21
180.0717752851
 31
0.0
  0
LINE
  5
15A
330
1F
100
AcDbEntity
  8
0
  6
Continuous
 62
     7
370
    15
100
AcDbLine
 10
159.7556755787
 20
177.2717752851
 30
0.0
 11
159.7556755787
 21
180.0717752851
 31
0.0
  0
LINE
  5
15B
330
1F
100
AcDbEntity
  8
0
  6
Continuous
 62
     7
370
    15
100
AcDbLine
 10
159.5556755787
 20
177.0717752851
 30
0.0
 11
159.7556755787
 21
177.2717752851
 31
0.0
  0
LINE
  5
15C
330
1F
100
AcDbEntity
  8
0
  6
Continuous
 62
     7
370
    15
100
AcDbLine
 10
156.5206619671
 20
177.0717752851
 30
0.0
 11
159.5556755787
 21
177.0717752851
 31
0.0
  0
LINE
  5
15D
330
1F
100
AcDbEntity
  8
0
  6
Continuous
 62
     7
370
    15
100
AcDbLine
 10
156.2400352901
 20
180.0717752851
 30
0.0
 11
159.7556755787
 21
180.0717752851
 31
0.0
  0
LINE
  5
15E
330
1F
100
AcDbEntity
  8
0
  6
Continuous
 62
     7
370
    15
100
AcDbLine
 10
142.7416829048
 20
180.0717752851
 30
0.0
 11
142.7416829048
 21
178.5717752851
 31
0.0
  0
LINE
  5
15F
330
1F
100
AcDbEntity
  8
0
  6
Continuous
 62
     7
370
    15
100
AcDbLine
 10
142.7416829048
 20
178.5717752851
 30
0.0
 11
141.1804334052
 21
178.5717752851
 31
0.0
  0
LINE
  5
160
330
1F
100
AcDbEntity
  8
0
  6
Continuous
 62
     7
370
    15
100
AcDbLine
 10
148.3696682526
 20
178.5717752851
 30
0.0
 11
148.3696682526
 21
180.0717752851
 31
0.0
  0
LINE
  5
161
330
1F
100
AcDbEntity
  8
0
  6
Continuous
 62
     7
370
    15
100
AcDbLine
 10
149.9309177522
 20
178.5717752851
 30
0.0
 11
148.3696682526
 21
178.5717752851
 31
0.0
  0
LINE
  5
162
330
1F
100
AcDbEntity
  8
0
  6
Continuous
 62
     7
370
    15
100
AcDbLine
 10
149.3117934951
 20
178.5717752851
 30
0.0
 11
149.3117934951
 21
177.0717752851
 31
0.0
  0
LINE
  5
163
330
1F
100
AcDbEntity
  8
0
  6
Continuous
 62
     7
370
    15
100
AcDbLine
 10
148.3140181919
 20
177.0717752851
 30
0.0
 11
148.3140181919
 21
178.5717752851
 31
0.0
  0
LINE
  5
164
330
1F
100
AcDbEntity
  8
0
  6
Continuous
 62
     7
370
    15
100
AcDbLine
 10
149.3117934951
 20
177.0717752851
 30
0.0
 11
148.3140181919
 21
177.0717752851
 31
0.0
  0
LINE
  5
165
330
1F
100
AcDbEntity
  8
0
  6
Continuous
 62
     7
370
    15
100
AcDbLine
 10
141.7995576624
 20
177.0717752851
 30
0.0
 11
141.7995576624
 21
178.5717752851
 31
0.0
  0
LINE
  5
166
330
1F
100
AcDbEntity
  8
0
  6
Continuous
 62
     7
370
    15
100
AcDbLine
 10
142.7973329655
 20
178.5717752851
 30
0.0
 11
142.7973329655
 21
177.0717752851
 31
0.0
  0
LINE
  5
167
330
1F
100
AcDbEntity
  8
0
  6
Continuous
 62
     7
370
    15
100
AcDbLine
 10
142.7973329655
 20
177.0717752851
 30
0.0
 11
141.7995576624
 21
177.0717752851
 31
0.0
  0
LINE
  5
168
330
1F
100
AcDbEntity
  8
0
  6
Continuous
 62
     7
370
    15
100
AcDbLine
 10
142.7973329655
 20
177.0717752851
 30
0.0
 11
148.3140181919
 21
177.0717752851
 31
0.0
  0
LINE
  5
169
330
1F
100
AcDbEntity
  8
0
  6
Continuous
 62
     7
370
    15
100
AcDbLine
 10
142.7416829048
 20
178.5717752851
 30
0.0
 11
142.7973329655
 21
178.5717752851
 31
0.0
  0
LINE
  5
16A
330
1F
100
AcDbEntity
  8
0
  6
Continuous
 62
     7
370
    15
100
AcDbLine
 10
148.3140181919
 20
178.5717752851
 30
0.0
 11
148.3696682526
 21
178.5717752851
 31
0.0
  0
LINE
  5
16B
330
1F
100
AcDbEntity
  8
0
  6
Continuous
 62
     7
370
    15
100
AcDbLine
 10
136.3056755787
 20
177.0717752851
 30
0.0
 11
137.9199915588
 21
177.0717752851
 31
0.0
  0
LINE
  5
16C
330
1F
100
AcDbEntity
  8
0
  6
Continuous
 62
     7
370
    15
100
AcDbLine
 10
140.1913595986
 20
177.0717752851
 30
0.0
 11
141.7995576624
 21
177.0717752851
 31
0.0
  0
LINE
  5
16D
330
1F
100
AcDbEntity
  8
0
  6
Continuous
 62
     7
370
    15
100
AcDbLine
 10
149.3117934951
 20
177.0717752851
 30
0.0
 11
150.9199915588
 21
177.0717752851
 31
0.0
  0
LINE
  5
16E
330
1F
100
AcDbEntity
  8
0
  6
Continuous
 62
     7
370
    15
100
AcDbLine
 10
153.1913595986
 20
177.0717752851
 30
0.0
 11
154.8056755787
 21
177.0717752851
 31
0.0
  0
LINE
  5
16F
330
1F
100
AcDbEntity
  8
0
  6
Continuous
 62
     7
370
    15
100
AcDbLine
 10
140.1913595986
 20
177.0717752851
 30
0.0
 11
137.9199915588
 21
177.0717752851
 31
0.0
  0
LINE
  5
170
330
1F
100
AcDbEntity
  8
0
  6
Continuous
 62
     7
370
    15
100
AcDbLine
 10
139.5813058855
 20
186.3717752851
 30
0.0
 11
138.5300452719
 21
186.3717752851
 31
0.0
  0
LINE
  5
171
330
1F
100
AcDbEntity
  8
0
  6
Continuous
 62
     7
370
    15
100
AcDbLine
 10
138.6430985936
 20
186.5717752851
 30
0.0
 11
139.4682525638
 21
186.5717752851
 31
0.0
  0
LINE
  5
172
330
1F
100
AcDbEntity
  8
0
  6
Continuous
 62
     7
370
    15
100
AcDbLine
 10
153.1913595986
 20
177.0717752851
 30
0.0
 11
150.9199915588
 21
177.0717752851
 31
0.0
  0
LINE
  5
173
330
1F
100
AcDbEntity
  8
0
  6
Continuous
 62
     7
370
    15
100
AcDbLine
 10
152.5813058855
 20
186.3717752851
 30
0.0
 11
151.5300452719
 21
186.3717752851
 31
0.0
  0
LINE
  5
174
330
1F
100
AcDbEntity
  8
0
  6
Continuous
 62
     7
370
    15
100
AcDbLine
 10
151.6430985936
 20
186.5717752851
 30
0.0
 11
152.4682525638
 21
186.5717752851
 31
0.0
  0
LINE
  5
175
330
1F
100
AcDbEntity
  8
0
  6
Continuous
 62
     7
370
    15
100
AcDbLine
 10
130.5556755787
 20
226.2333771335
 30
0.0
 11
128.0556755787
 21
226.2333771335
 31
0.0
  0
LINE
  5
176
330
1F
100
AcDbEntity
  8
0
  6
Continuous
 62
     7
370
    15
100
AcDbLine
 10
128.0556755787
 20
226.2333771335
 30
0.0
 11
128.0556755787
 21
229.0126187475
 31
0.0
  0
LINE
  5
177
330
1F
100
AcDbEntity
  8
0
  6
Continuous
 62
     7
370
    15
100
AcDbLine
 10
130.5556755787
 20
229.0126187475
 30
0.0
 11
128.0556755787
 21
229.0126187475
 31
0.0
  0
LINE
  5
178
330
1F
100
AcDbEntity
  8
0
  6
Continuous
 62
     7
370
    15
100
AcDbLine
 10
130.5556755787
 20
226.2333771335
 30
0.0
 11
130.5556755787
 21
226.3033378769
 31
0.0
  0
LINE
  5
179
330
1F
100
AcDbEntity
  8
0
  6
Continuous
 62
     7
370
    15
100
AcDbLine
 10
130.5556755787
 20
228.9426580042
 30
0.0
 11
130.5556755787
 21
229.0126187475
 31
0.0
  0
LINE
  5
17A
330
1F
100
AcDbEntity
  8
0
  6
Continuous
 62
     7
370
    15
100
AcDbLine
 10
128.0556755787
 20
222.292533671
 30
0.0
 11
130.5556755787
 21
222.292533671
 31
0.0
  0
LINE
  5
17B
330
1F
100
AcDbEntity
  8
0
  6
Continuous
 62
     7
370
    15
100
AcDbLine
 10
128.0556755787
 20
222.292533671
 30
0.0
 11
128.0556755787
 21
226.2333771335
 31
0.0
  0
LINE
  5
17C
330
1F
100
AcDbEntity
  8
0
  6
Continuous
 62
     7
370
    15
100
AcDbLine
 10
130.5556755787
 20
222.292533671
 30
0.0
 11
130.5556755787
 21
222.3917349555
 31
0.0
  0
LINE
  5
17D
330
1F
100
AcDbEntity
  8
0
  6
Continuous
 62
     7
370
    15
100
AcDbLine
 10
130.5556755787
 20
226.134175849
 30
0.0
 11
130.5556755787
 21
226.2333771335
 31
0.0
  0
LINE
  5
17E
330
1F
100
AcDbEntity
  8
0
  6
Continuous
 62
     7
370
    15
100
AcDbLine
 10
130.5556755787
 20
221.1309318226
 30
0.0
 11
128.0556755787
 21
221.1309318226
 31
0.0
  0
LINE
  5
17F
330
1F
100
AcDbEntity
  8
0
  6
Continuous
 62
     7
370
    15
100
AcDbLine
 10
128.0556755787
 20
221.1309318226
 30
0.0
 11
128.0556755787
 21
222.292533671
 31
0.0
  0
LINE
  5
180
330
1F
100
AcDbEntity
  8
0
  6
Continuous
 62
     7
370
    15
100
AcDbLine
 10
130.5556755787
 20
222.2632931298
 30
0.0
 11
130.5556755787
 21
222.292533671
 31
0.0
  0
LINE
  5
181
330
1F
100
AcDbEntity
  8
0
  6
Continuous
 62
     7
370
    15
100
AcDbLine
 10
126.0556755787
 20
223.3217752851
 30
0.0
 11
126.0556755787
 21
226.77460888
 31
0.0
  0
LINE
  5
182
330
1F
100
AcDbEntity
  8
0
  6
Continuous
 62
     7
370
    15
100
AcDbLine
 10
126.0556755787
 20
226.77460888
 30
0.0
 11
126.0556755787
 21
226.8217752851
 31
0.0
  0
LINE
  5
183
330
1F
100
AcDbEntity
  8
0
  6
Continuous
 62
     7
370
    15
100
AcDbLine
 10
121.0556755787
 20
224.7258698206
 30
0.0
 11
121.0556755787
 21
226.5717752851
 31
0.0
  0
LINE
  5
184
330
1F
100
AcDbEntity
  8
0
  6
Continuous
 62
     7
370
    15
100
AcDbLine
 10
121.0556755787
 20
223.5717752851
 30
0.0
 11
121.0556755787
 21
224.7258698206
 31
0.0
  0
LINE
  5
185
330
1F
100
AcDbEntity
  8
0
  6
Continuous
 62
     7
370
    15
100
AcDbLine
 10
123.5556755787
 20
223.3217752851
 30
0.0
 11
123.5556755787
 21
226.77460888
 31
0.0
  0
LINE
  5
186
330
1F
100
AcDbEntity
  8
0
  6
Continuous
 62
     7
370
    15
100
AcDbLine
 10
123.5556755787
 20
226.77460888
 30
0.0
 11
123.5556755787
 21
226.8217752851
 31
0.0
  0
LINE
  5
187
330
1F
100
AcDbEntity
  8
0
  6
Continuous
 62
     7
370
    15
100
AcDbLine
 10
130.5556755787
 20
221.0717752851
 30
0.0
 11
130.5556755787
 21
222.2632931298
 31
0.0
  0
LINE
  5
188
330
1F
100
AcDbEntity
  8
0
  6
Continuous
 62
     7
370
    15
100
AcDbLine
 10
130.5556755787
 20
222.3917349555
 30
0.0
 11
130.5556755787
 21
226.134175849
 31
0.0
  0
LINE
  5
189
330
1F
100
AcDbEntity
  8
0
  6
Continuous
 62
     7
370
    15
100
AcDbLine
 10
130.5556755787
 20
226.3033378769
 30
0.0
 11
130.5556755787
 21
228.9426580042
 31
0.0
  0
LINE
  5
18A
330
1F
100
AcDbEntity
  8
0
  6
Continuous
 62
     7
370
    15
100
AcDbLine
 10
130.5556755787
 20
229.0126187476
 30
0.0
 11
130.5556755787
 21
229.0717752851
 31
0.0
  0
LINE
  5
18B
330
1F
100
AcDbEntity
  8
0
  6
Continuous
 62
     7
370
    15
100
AcDbLine
 10
163.0556755787
 20
221.081100526
 30
0.0
 11
160.5556755787
 21
221.081100526
 31
0.0
  0
LINE
  5
18C
330
1F
100
AcDbEntity
  8
0
  6
Continuous
 62
     7
370
    15
100
AcDbLine
 10
160.5556755787
 20
223.6745693506
 30
0.0
 11
160.5556755787
 21
223.6092849917
 31
0.0
  0
LINE
  5
18D
330
1F
100
AcDbEntity
  8
0
  6
Continuous
 62
     7
370
    15
100
AcDbLine
 10
160.5556755787
 20
221.1463848849
 30
0.0
 11
160.5556755787
 21
221.081100526
 31
0.0
  0
LINE
  5
18E
330
1F
100
AcDbEntity
  8
0
  6
Continuous
 62
     7
370
    15
100
AcDbLine
 10
160.5556755787
 20
223.6745693506
 30
0.0
 11
163.0556755787
 21
223.6745693506
 31
0.0
  0
LINE
  5
18F
330
1F
100
AcDbEntity
  8
0
  6
Continuous
 62
     7
370
    15
100
AcDbLine
 10
163.0556755787
 20
223.6745693506
 30
0.0
 11
163.0556755787
 21
221.081100526
 31
0.0
  0
LINE
  5
190
330
1F
100
AcDbEntity
  8
0
  6
Continuous
 62
     7
370
    15
100
AcDbLine
 10
160.5556755787
 20
227.6652441096
 30
0.0
 11
160.5556755787
 21
227.5647884417
 31
0.0
  0
LINE
  5
191
330
1F
100
AcDbEntity
  8
0
  6
Continuous
 62
     7
370
    15
100
AcDbLine
 10
160.5556755787
 20
223.7750250185
 30
0.0
 11
160.5556755787
 21
223.6745693506
 31
0.0
  0
LINE
  5
192
330
1F
100
AcDbEntity
  8
0
  6
Continuous
 62
     7
370
    15
100
AcDbLine
 10
160.5556755787
 20
227.6652441096
 30
0.0
 11
163.0556755787
 21
227.6652441095
 31
0.0
  0
LINE
  5
193
330
1F
100
AcDbEntity
  8
0
  6
Continuous
 62
     7
370
    15
100
AcDbLine
 10
163.0556755787
 20
227.6652441095
 30
0.0
 11
163.0556755787
 21
223.6745693506
 31
0.0
  0
LINE
  5
194
330
1F
100
AcDbEntity
  8
0
  6
Continuous
 62
     7
370
    15
100
AcDbLine
 10
160.5556755787
 20
229.0624500441
 30
0.0
 11
163.0556755787
 21
229.0624500441
 31
0.0
  0
LINE
  5
195
330
1F
100
AcDbEntity
  8
0
  6
Continuous
 62
     7
370
    15
100
AcDbLine
 10
160.5556755787
 20
227.7004154187
 30
0.0
 11
160.5556755787
 21
227.6652441096
 31
0.0
  0
LINE
  5
196
330
1F
100
AcDbEntity
  8
0
  6
Continuous
 62
     7
370
    15
100
AcDbLine
 10
163.0556755787
 20
229.0624500441
 30
0.0
 11
163.0556755787
 21
227.6652441095
 31
0.0
  0
LINE
  5
197
330
1F
100
AcDbEntity
  8
0
  6
Continuous
 62
     7
370
    15
100
AcDbLine
 10
160.5556755787
 20
221.0717752851
 30
0.0
 11
160.5556755787
 21
221.081100526
 31
0.0
  0
LINE
  5
198
330
1F
100
AcDbEntity
  8
0
  6
Continuous
 62
     7
370
    15
100
AcDbLine
 10
160.5556755787
 20
221.1463848849
 30
0.0
 11
160.5556755787
 21
223.6092849917
 31
0.0
  0
LINE
  5
199
330
1F
100
AcDbEntity
  8
0
  6
Continuous
 62
     7
370
    15
100
AcDbLine
 10
160.5556755787
 20
223.7750250185
 30
0.0
 11
160.5556755787
 21
227.5647884417
 31
0.0
  0
LINE
  5
19A
330
1F
100
AcDbEntity
  8
0
  6
Continuous
 62
     7
370
    15
100
AcDbLine
 10
160.5556755787
 20
227.7004154187
 30
0.0
 11
160.5556755787
 21
229.0717752851
 31
0.0
  0
LINE
  5
19B
330
1F
100
AcDbEntity
  8
0
  6
Continuous
 62
     8
370
    15
100
AcDbLine
 10
154.3056755787
 20
230.866467525
 30
0.0
 11
149.8056755787
 21
230.866467525
 31
0.0
  0
LINE
  5
19C
330
1F
100
AcDbEntity
  8
0
  6
Continuous
 62
     8
370
    15
100
AcDbLine
 10
153.694794423
 20
231.6715233623
 30
0.0
 11
153.8988746168
 21
231.6715233623
 31
0.0
  0
LINE
  5
19D
330
1F
100
AcDbEntity
  8
0
  6
Continuous
 62
     8
370
    15
100
AcDbLine
 10
150.2124765407
 20
231.6715233623
 30
0.0
 11
153.694794423
 21
231.6715233623
 31
0.0
  0
LINE
  5
19E
330
1F
100
AcDbEntity
  8
0
  6
Continuous
 62
     8
370
    15
100
AcDbLine
 10
153.4879591177
 20
231.9743032038
 30
0.0
 11
150.6233920398
 21
231.9743032038
 31
0.0
  0
LINE
  5
19F
330
1F
100
AcDbEntity
  8
0
  6
Continuous
 62
     8
370
    15
100
AcDbLine
 10
141.3056755787
 20
230.866467525
 30
0.0
 11
136.8056755787
 21
230.866467525
 31
0.0
  0
LINE
  5
1A0
330
1F
100
AcDbEntity
  8
0
  6
Continuous
 62
     8
370
    15
100
AcDbLine
 10
140.694794423
 20
231.6715233623
 30
0.0
 11
140.8988746168
 21
231.6715233623
 31
0.0
  0
LINE
  5
1A1
330
1F
100
AcDbEntity
  8
0
  6
Continuous
 62
     8
370
    15
100
AcDbLine
 10
137.2124765407
 20
231.6715233623
 30
0.0
 11
140.694794423
 21
231.6715233623
 31
0.0
  0
LINE
  5
1A2
330
1F
100
AcDbEntity
  8
0
  6
Continuous
 62
     8
370
    15
100
AcDbLine
 10
140.4879591177
 20
231.9743032038
 30
0.0
 11
137.6233920398
 21
231.9743032038
 31
0.0
  0
LINE
  5
1A3
330
1F
100
AcDbEntity
  8
0
  6
Continuous
 62
     8
370
    15
100
AcDbLine
 10
141.2969565221
 20
178.2770830452
 30
0.0
 11
141.3056755787
 21
178.2770830452
 31
0.0
  0
LINE
  5
1A4
330
1F
100
AcDbEntity
  8
0
  6
Continuous
 62
     8
370
    15
100
AcDbLine
 10
136.8056755787
 20
178.2770830452
 30
0.0
 11
141.2969565221
 21
178.2770830452
 31
0.0
  0
LINE
  5
1A5
330
1F
100
AcDbEntity
  8
0
  6
Continuous
 62
     8
370
    15
100
AcDbLine
 10
140.8988746168
 20
177.4720272079
 30
0.0
 11
137.2124765407
 21
177.4720272079
 31
0.0
  0
LINE
  5
1A6
330
1F
100
AcDbEntity
  8
0
  6
Continuous
 62
     8
370
    15
100
AcDbLine
 10
140.4824088237
 20
177.1692473664
 30
0.0
 11
140.4879591177
 21
177.1692473664
 31
0.0
  0
LINE
  5
1A7
330
1F
100
AcDbEntity
  8
0
  6
Continuous
 62
     8
370
    15
100
AcDbLine
 10
137.6233920398
 20
177.1692473664
 30
0.0
 11
140.4824088237
 21
177.1692473664
 31
0.0
  0
LINE
  5
1A8
330
1F
100
AcDbEntity
  8
0
  6
Continuous
 62
     8
370
    15
100
AcDbLine
 10
154.2969565221
 20
178.2770830452
 30
0.0
 11
154.3056755787
 21
178.2770830452
 31
0.0
  0
LINE
  5
1A9
330
1F
100
AcDbEntity
  8
0
  6
Continuous
 62
     8
370
    15
100
AcDbLine
 10
149.8056755787
 20
178.2770830452
 30
0.0
 11
154.2969565221
 21
178.2770830452
 31
0.0
  0
LINE
  5
1AA
330
1F
100
AcDbEntity
  8
0
  6
Continuous
 62
     8
370
    15
100
AcDbLine
 10
153.8988746168
 20
177.4720272079
 30
0.0
 11
150.2124765407
 21
177.4720272079
 31
0.0
  0
LINE
  5
1AB
330
1F
100
AcDbEntity
  8
0
  6
Continuous
 62
     8
370
    15
100
AcDbLine
 10
153.4824088237
 20
177.1692473664
 30
0.0
 11
153.4879591177
 21
177.1692473664
 31
0.0
  0
LINE
  5
1AC
330
1F
100
AcDbEntity
  8
0
  6
Continuous
 62
     8
370
    15
100
AcDbLine
 10
150.6233920398
 20
177.1692473664
 30
0.0
 11
153.4824088237
 21
177.1692473664
 31
0.0
  0
LINE
  5
1AD
330
1F
100
AcDbEntity
  8
0
  6
CENTERX2
 62
     7
370
     0
100
AcDbLine
 10
130.0263169897
 20
195.0717752851
 30
0.0
 11
123.3206756589
 21
195.0717752851
 31
0.0
  0
DIMENSION
  5
1AE
330
1F
100
AcDbEntity
  8
0
  6
Continuous
 62
     7
370
     0
100
AcDbDimension
  2
_D
 10
102.99744785
 20
174.0717752851
 30
0.0
 11
102.99744785
 21
184.7820873727
 31
0.0
 70
   160
  1
<>
 71
     2
 42
-1.0
  3
SLDDIMSTYLE0
100
AcDbAlignedDimension
 13
123.3206756589
 23
195.0717752851
 33
0.0
 14
142.5556755787
 24
174.0717752851
 34
0.0
 50
90.0
100
AcDbRotatedDimension
  0
DIMENSION
  5
1BA
330
1F
100
AcDbEntity
  8
0
  6
Continuous
 62
     7
370
     0
100
AcDbDimension
  2
_D_1
 10
164.5556755787
 20
161.4423276296
 30
0.0
 11
145.5556755787
 21
161.4423276296
 31
0.0
 70
   160
  1
<>
 71
     2
 42
-1.0
  3
SLDDIMSTYLE0
100
AcDbAlignedDimension
 13
126.5556755787
 23
190.5717752851
 33
0.0
 14
164.5556755787
 24
187.8217752851
 34
0.0
100
AcDbRotatedDimension
  0
DIMENSION
  5
1C4
330
1F
100
AcDbEntity
  8
0
  6
Continuous
 62
     7
370
     0
100
AcDbDimension
  2
_D_2
 10
169.5556755787
 20
152.0717752851
 30
0.0
 11
145.5556755787
 21
152.0717752851
 31
0.0
 70
   160
  1
<>
 71
     2
 42
-1.0
  3
SLDDIMSTYLE0
100
AcDbAlignedDimension
 13
121.5556755787
 23
182.0717752851
 33
0.0
 14
169.5556755787
 24
182.0717752851
 34
0.0
100
AcDbRotatedDimension
  0
DIMENSION
  5
1CE
330
1F
100
AcDbEntity
  8
0
  6
Continuous
 62
     7
370
     0
100
AcDbDimension
  2
_D_3
 10
166.8056755787
 20
169.3223599125
 30
0.0
 11
155.8923516755
 21
169.3223599125
 31
0.0
 70
   160
  1
<>
 71
     2
 42
-1.0
  3
SLDDIMSTYLE1
100
AcDbAlignedDimension
 13
162.3056755787
 23
192.5717752851
 33
0.0
 14
166.8056755787
 24
192.5717752851
 34
0.0
100
AcDbRotatedDimension
  0
DIMENSION
  5
1DB
330
1F
100
AcDbEntity
  8
0
  6
Continuous
 62
     7
370
     0
100
AcDbDimension
  2
_D_4
 10
181.2868166339
 20
192.5717752851
 30
0.0
 11
181.2868166339
 21
195.2410989883
 31
0.0
 70
   160
  1
<>
 71
     2
 42
-1.0
  3
SLDDIMSTYLE2
100
AcDbAlignedDimension
 13
169.3056755787
 23
197.5717752851
 33
0.0
 14
169.3056755787
 24
192.5717752851
 34
0.0
 50
90.0
100
AcDbRotatedDimension
  0
DIMENSION
  5
1E8
330
1F
100
AcDbEntity
  8
0
  6
Continuous
 62
     7
370
     0
100
AcDbDimension
  2
_D_5
 10
181.2868166339
 20
180.0717752851
 30
0.0
 11
181.2868166339
 21
186.3217752851
 31
0.0
 70
   160
  1
<>
 71
     2
 42
-1.0
  3
SLDDIMSTYLE3
100
AcDbAlignedDimension
 13
169.3056755787
 23
192.5717752851
 33
0.0
 14
167.5556755787
 24
180.0717752851
 34
0.0
 50
90.0
100
AcDbRotatedDimension
  0
DIMENSION
  5
1F3
330
1F
100
AcDbEntity
  8
0
  6
Continuous
 62
     7
370
     0
100
AcDbDimension
  2
_D_6
 10
111.0556755787
 20
180.0717752851
 30
0.0
 11
111.0556755787
 21
191.8717885694
 31
0.0
 70
   160
  1
<>
 71
     2
 42
-1.0
  3
SLDDIMSTYLE0
100
AcDbAlignedDimension
 13
123.5556755787
 23
202.0717752851
 33
0.0
 14
123.5556755787
 24
180.0717752851
 34
0.0
 50
90.0
100
AcDbRotatedDimension
  0
MTEXT
  5
1FD
330
1F
100
AcDbEntity
  8
0
  6
Continuous
 62
     7
370
     0
100
AcDbMText
 10
98.4596004913
 20
246.5699218762
 30
0.0
 40
3.5
 41
0.0
 71
     1
 72
     1
  1
BF-5
  7
SLDTEXTSTYLE1
 73
     1
 44
1.0
  0
LEADER
  5
1FF
330
1F
100
AcDbEntity
  8
0
  6
Continuous
 62
     7
370
     0
100
AcDbLeader
  3
SLDDIMSTYLE4
 76
     3
 10
123.5556755787
 20
225.7027386757
 30
0.0
 10
107.9817518248
 20
241.8795620438
 30
0.0
 10
98.3576642336
 20
241.8795620438
 30
0.0
  0
MTEXT
  5
200
330
1F
100
AcDbEntity
  8
0
  6
Continuous
 62
     7
370
     0
100
AcDbMText
 10
176.2652887587
 20
244.5896707733
 30
0.0
 40
3.5
 41
0.0
 71
     1
 72
     1
  1
PF
  7
SLDTEXTSTYLE1
 73
     1
 44
1.0
  0
LEADER
  5
201
330
1F
100
AcDbEntity
  8
0
  6
Continuous
 62
     7
370
     0
100
AcDbLeader
  3
SLDDIMSTYLE4
 76
     3
 10
162.460981819
 20
225.3557455212
 30
0.0
 10
175.5948905109
 20
240.0547445255
 30
0.0
 10
181.204379562
 20
240.0547445255
 30
0.0
  0
MTEXT
  5
202
330
1F
100
AcDbEntity
  8
0
  6
Continuous
 62
     7
370
     0
100
AcDbMText
 10
108.1801289249
 20
145.6247439955
 30
0.0
 40
3.5
 41
0.0
 71
     1
 72
     1
  1
M4深8
  7
SLDTEXTSTYLE1
 73
     1
 44
1.0
  0
LEADER
  5
203
330
1F
100
AcDbEntity
  8
0
  6
Continuous
 62
     7
370
     0
100
AcDbLeader
  3
SLDDIMSTYLE4
 76
     3
 10
144.421616291
 20
174.0717752851
 30
0.0
 10
122.9452554745
 20
140.9671532847
 30
0.0
 10
108.0291970803
 20
140.9671532847
 30
0.0
  0
INSERT
  5
20F
330
1F
100
AcDbEntity
  8
0
  6
Continuous
 62
     7
370
     0
100
AcDbBlockReference
  2
SW_CENTERMARKSYMBOL_0
 10
164.5556755787
 20
197.5717752851
 30
0.0
  0
INSERT
  5
21B
330
1F
100
AcDbEntity
  8
0
  6
Continuous
 62
     7
370
     0
100
AcDbBlockReference
  2
SW_CENTERMARKSYMBOL_1
 10
164.5556755787
 20
192.5717752851
 30
0.0
  0
LINE
  5
21C
330
1F
100
AcDbEntity
  8
0
  6
CENTERX2
 62
     7
370
     0
100
AcDbLine
 10
126.5556755787
 20
190.5717752851
 30
0.0
 11
126.5556755787
 21
199.5717752851
 31
0.0
  0
LINE
  5
21D
330
1F
100
AcDbEntity
  8
0
  6
Continuous
 62
     7
370
    15
100
AcDbLine
 10
151.7661762353
 20
98.7238416301
 30
0.0
 11
151.8423586548
 21
98.9364779407
 31
0.0
  0
SPLINE
  5
21E
330
1F
100
AcDbEntity
  8
0
  6
Continuous
 62
     7
370
    15
100
AcDbSpline
210
0.0
220
0.0
230
1.0
 70
     8
 71
     3
 72
     9
 73
     5
 74
     0
 42
0.00000001
 43
0.00000001
 12
1.0
 22
0.0
 32
0.0
 13
1.0
 23
0.0
 33
0.0
 40
0.0
 40
0.0
 40
0.0
 40
0.0
 40
0.665115425384568
 40
1.0
 40
1.0
 40
1.0
 40
1.0
 10
152.0333768729335
 20
100.331834782123
 30
0.0
 10
152.0476087125021
 20
100.6354290439328
 30
0.0
 10
152.0690062609958
 20
101.0918825409092
 30
0.0
 10
151.9701350208636
 20
101.5362064267122
 30
0.0
 10
151.9370245676702
 20
101.6850036422009
 30
0.0
  0
LINE
  5
21F
330
1F
100
AcDbEntity
  8
0
  6
Continuous
 62
     7
370
    15
100
AcDbLine
 10
139.8254666873
 20
103.6419340262
 30
0.0
 11
139.6702859946
 21
103.3357384468
 31
0.0
  0
LINE
  5
220
330
1F
100
AcDbEntity
  8
0
  6
Continuous
 62
     7
370
    15
100
AcDbLine
 10
139.686787168
 20
97.833968498
 30
0.0
 11
139.8347212397
 21
97.5538951198
 31
0.0
  0
SPLINE
  5
221
330
1F
100
AcDbEntity
  8
0
  6
Continuous
 62
     7
370
    15
100
AcDbSpline
210
0.0
220
0.0
230
1.0
 70
     8
 71
     3
 72
     9
 73
     5
 74
     0
 42
0.00000001
 43
0.00000001
 12
1.0
 22
0.0
 32
0.0
 13
1.0
 23
0.0
 33
0.0
 40
0.0
 40
0.0
 40
0.0
 40
0.0
 40
0.3621844164587129
 40
1.0
 40
1.0
 40
1.0
 40
1.0
 10
151.2946436576759
 20
97.57744966468161
 30
0.0
 10
151.3515693179048
 20
97.66951632749107
 30
0.0
 10
151.5087424530315
 20
97.92371462710223
 30
0.0
 10
151.5938933841581
 20
98.21120006356868
 30
0.0
 10
151.6482039749837
 20
98.39456275498813
 30
0.0
  0
LINE
  5
222
330
1F
100
AcDbEntity
  8
0
  6
Continuous
 62
     7
370
    15
100
AcDbLine
 10
126.055676157
 20
102.3350090573
 30
0.0
 11
123.5556748159
 21
102.085009482
 31
0.0
  0
LINE
  5
223
330
1F
100
AcDbEntity
  8
0
  6
Continuous
 62
     7
370
    15
100
AcDbLine
 10
123.5556748159
 20
99.0850089902
 30
0.0
 11
126.055676157
 21
98.8350089492
 31
0.0
  0
LINE
  5
224
330
1F
100
AcDbEntity
  8
0
  6
Continuous
 62
     7
370
    15
100
AcDbLine
 10
123.5556748159
 20
102.3350090573
 30
0.0
 11
121.0556772001
 21
102.085009482
 31
0.0
  0
LINE
  5
225
330
1F
100
AcDbEntity
  8
0
  6
Continuous
 62
     7
370
    15
100
AcDbLine
 10
121.0556772001
 20
99.0850089902
 30
0.0
 11
123.5556748159
 21
98.8350089492
 31
0.0
  0
LINE
  5
226
330
1F
100
AcDbEntity
  8
0
  6
Continuous
 62
     7
370
    15
100
AcDbLine
 10
126.055676157
 20
98.9850091601
 30
0.0
 11
128.0556764849
 21
98.9850091601
 31
0.0
  0
LINE
  5
227
330
1F
100
AcDbEntity
  8
0
  6
Continuous
 62
     7
370
    15
100
AcDbLine
 10
128.0556764849
 20
102.1850093121
 30
0.0
 11
126.055676157
 21
102.1850093121
 31
0.0
  0
LINE
  5
228
330
1F
100
AcDbEntity
  8
0
  6
Continuous
 62
     7
370
    15
100
AcDbLine
 10
131.355676467
 20
104.5850089604
 30
0.0
 11
130.5556759633
 21
104.5850089604
 31
0.0
  0
LINE
  5
229
330
1F
100
AcDbEntity
  8
0
  6
Continuous
 62
     7
370
    15
100
AcDbLine
 10
130.5556759633
 20
96.5850090461
 30
0.0
 11
131.355676467
 21
96.5850090461
 31
0.0
  0
LINE
  5
22A
330
1F
100
AcDbEntity
  8
0
  6
Continuous
 62
     7
370
    15
100
AcDbLine
 10
160.5556757584
 20
104.5850089604
 30
0.0
 11
159.7556757204
 21
104.5850089604
 31
0.0
  0
LINE
  5
22B
330
1F
100
AcDbEntity
  8
0
  6
Continuous
 62
     7
370
    15
100
AcDbLine
 10
159.7556757204
 20
96.5850090461
 30
0.0
 11
160.5556757584
 21
96.5850090461
 31
0.0
  0
LINE
  5
22C
330
1F
100
AcDbEntity
  8
0
  6
Continuous
 62
     7
370
    15
100
AcDbLine
 10
138.2704988517
 20
91.7003810492
 30
0.0
 11
138.9795091398
 21
92.1976784912
 31
0.0
  0
LINE
  5
22D
330
1F
100
AcDbEntity
  8
0
  6
Continuous
 62
     7
370
    15
100
AcDbLine
 10
138.3466661372
 20
90.8377115002
 30
0.0
 11
138.2704988517
 21
91.7003810492
 31
0.0
  0
LINE
  5
22E
330
1F
100
AcDbEntity
  8
0
  6
Continuous
 62
     7
370
    15
100
AcDbLine
 10
138.9795091398
 20
92.1976784912
 30
0.0
 11
139.7646857821
 21
91.8323065007
 31
0.0
  0
CIRCLE
  5
22F
330
1F
100
AcDbEntity
  8
0
  6
Continuous
 62
     7
370
    15
100
AcDbCircle
 10
139.0556755787
 20
91.3350090286
 30
0.0
 40
1.13568401991386
  0
LINE
  5
230
330
1F
100
AcDbEntity
  8
0
  6
Continuous
 62
     7
370
    15
100
AcDbLine
 10
139.7646857821
 20
91.8323065007
 30
0.0
 11
139.8408530675
 21
90.9696370682
 31
0.0
  0
LINE
  5
231
330
1F
100
AcDbEntity
  8
0
  6
Continuous
 62
     7
370
    15
100
AcDbLine
 10
139.8408530675
 20
90.9696370682
 30
0.0
 11
139.1318427794
 21
90.4723396844
 31
0.0
  0
LINE
  5
232
330
1F
100
AcDbEntity
  8
0
  6
Continuous
 62
     7
370
    15
100
AcDbLine
 10
139.1318427794
 20
90.4723396844
 30
0.0
 11
138.3466661372
 21
90.8377115002
 31
0.0
  0
CIRCLE
  5
233
330
1F
100
AcDbEntity
  8
0
  6
Continuous
 62
     7
370
    15
100
AcDbCircle
 10
139.0556755787
 20
91.3350090286
 30
0.0
 40
1.432283538938794
  0
CIRCLE
  5
234
330
1F
100
AcDbEntity
  8
0
  6
Continuous
 62
     7
370
    15
100
AcDbCircle
 10
139.0556755787
 20
91.3350090286
 30
0.0
 40
1.84319903804984
  0
CIRCLE
  5
235
330
1F
100
AcDbEntity
  8
0
  6
Continuous
 62
     7
370
    15
100
AcDbCircle
 10
139.0556755787
 20
91.3350090286
 30
0.0
 40
2.250000000000016
  0
ARC
  5
236
330
1F
100
AcDbEntity
  8
0
  6
Continuous
 62
     7
370
    15
100
AcDbCircle
 10
139.0556755787
 20
91.3350090286
 30
0.0
 40
0.7499999999999978
100
AcDbArc
 50
125.0457004739
 51
185.0457004739
  0
ARC
  5
237
330
1F
100
AcDbEntity
  8
0
  6
Continuous
 62
     7
370
    15
100
AcDbCircle
 10
139.0556755787
 20
91.3350090286
 30
0.0
 40
0.7499999999999895
100
AcDbArc
 50
65.0457004739
 51
125.0457004739
  0
ARC
  5
238
330
1F
100
AcDbEntity
  8
0
  6
Continuous
 62
     7
370
    15
100
AcDbCircle
 10
139.0556755787
 20
91.3350090286
 30
0.0
 40
0.7500000000000112
100
AcDbArc
 50
305.0457004739
 51
5.0457004739
  0
ARC
  5
239
330
1F
100
AcDbEntity
  8
0
  6
Continuous
 62
     7
370
    15
100
AcDbCircle
 10
139.0556755787
 20
91.3350090286
 30
0.0
 40
0.7500000000000152
100
AcDbArc
 50
245.0457004739
 51
305.0457004739
  0
ARC
  5
23A
330
1F
100
AcDbEntity
  8
0
  6
Continuous
 62
     7
370
    15
100
AcDbCircle
 10
139.0556755787
 20
91.3350090286
 30
0.0
 40
0.7500000000000152
100
AcDbArc
 50
185.0457004739
 51
245.0457004739
  0
ARC
  5
23B
330
1F
100
AcDbEntity
  8
0
  6
Continuous
 62
     7
370
    15
100
AcDbCircle
 10
139.0556755787
 20
91.3350090286
 30
0.0
 40
0.7499999999999952
100
AcDbArc
 50
5.0457004739
 51
65.0457004739
  0
ARC
  5
23C
330
1F
100
AcDbEntity
  8
0
  6
Continuous
 62
     7
370
    15
100
AcDbCircle
 10
145.5556755787
 20
100.5850090286
 30
0.0
 40
3.999999999999997
100
AcDbArc
 50
221.4096221093
 51
228.5903778907
  0
SPLINE
  5
23D
330
1F
100
AcDbEntity
  8
0
  6
Continuous
 62
     7
370
    15
100
AcDbSpline
210
0.0
220
0.0
230
1.0
 70
    24
 71
     3
 72
     8
 73
     4
 74
     0
 42
0.00000001
 43
0.00000001
 12
1.0
 22
0.0
 32
0.0
 13
1.0
 23
0.0
 33
0.0
 40
0.0
 40
0.0
 40
0.0
 40
0.0
 40
1.0
 40
1.0
 40
1.0
 40
1.0
 10
142.5556755787173
 20
97.9392577175283
 30
0.0
 10
142.5556755787173
 20
98.21207371704921
 30
0.0
 10
142.5556755787173
 20
98.49127629590845
 30
0.0
 10
142.5556755787173
 20
98.7822333908609
 30
0.0
  0
ARC
  5
23E
330
1F
100
AcDbEntity
  8
0
  6
Continuous
 62
     7
370
    15
100
AcDbCircle
 10
145.5556755787
 20
100.5850090286
 30
0.0
 40
3.500000000000001
100
AcDbArc
 50
211.0027191339
 51
238.9972808661
  0
SPLINE
  5
23F
330
1F
100
AcDbEntity
  8
0
  6
Continuous
 62
     7
370
    15
100
AcDbSpline
210
0.0
220
0.0
230
1.0
 70
    24
 71
     3
 72
     8
 73
     4
 74
     0
 42
0.00000001
 43
0.00000001
 12
1.0
 22
0.0
 32
0.0
 13
1.0
 23
0.0
 33
0.0
 40
0.0
 40
0.0
 40
0.0
 40
0.0
 40
1.0
 40
1.0
 40
1.0
 40
1.0
 10
143.7528999409853
 20
97.58500902859289
 30
0.0
 10
143.4619428460328
 20
97.58500902859289
 30
0.0
 10
143.1827402671736
 20
97.58500902859289
 30
0.0
 10
142.9099242676527
 20
97.58500902859289
 30
0.0
  0
ARC
  5
240
330
1F
100
AcDbEntity
  8
0
  6
Continuous
 62
     7
370
    15
100
AcDbCircle
 10
145.5556755787
 20
100.5850090286
 30
0.0
 40
4.000000000000006
100
AcDbArc
 50
41.4096221093
 51
48.5903778907
  0
SPLINE
  5
241
330
1F
100
AcDbEntity
  8
0
  6
Continuous
 62
     7
370
    15
100
AcDbSpline
210
0.0
220
0.0
230
1.0
 70
    24
 71
     3
 72
     8
 73
     4
 74
     0
 42
0.00000001
 43
0.00000001
 12
1.0
 22
0.0
 32
0.0
 13
1.0
 23
0.0
 33
0.0
 40
0.0
 40
0.0
 40
0.0
 40
0.0
 40
1.0
 40
1.0
 40
1.0
 40
1.0
 10
148.5556755787173
 20
103.2307603396575
 30
0.0
 10
148.5556755787173
 20
102.9579443401366
 30
0.0
 10
148.5556755787173
 20
102.6787417612773
 30
0.0
 10
148.5556755787173
 20
102.3877846663249
 30
0.0
  0
ARC
  5
242
330
1F
100
AcDbEntity
  8
0
  6
Continuous
 62
     7
370
    15
100
AcDbCircle
 10
145.5556755787
 20
100.5850090286
 30
0.0
 40
3.500000000000001
100
AcDbArc
 50
31.0027191339
 51
58.9972808661
  0
SPLINE
  5
243
330
1F
100
AcDbEntity
  8
0
  6
Continuous
 62
     7
370
    15
100
AcDbSpline
210
0.0
220
0.0
230
1.0
 70
    24
 71
     3
 72
     8
 73
     4
 74
     0
 42
0.00000001
 43
0.00000001
 12
1.0
 22
0.0
 32
0.0
 13
1.0
 23
0.0
 33
0.0
 40
0.0
 40
0.0
 40
0.0
 40
0.0
 40
1.0
 40
1.0
 40
1.0
 40
1.0
 10
147.3584512164493
 20
103.5850090285929
 30
0.0
 10
147.6494083114017
 20
103.5850090285929
 30
0.0
 10
147.9286108902609
 20
103.5850090285929
 30
0.0
 10
148.2014268897819
 20
103.5850090285929
 30
0.0
  0
ARC
  5
244
330
1F
100
AcDbEntity
  8
0
  6
Continuous
 62
     7
370
    15
100
AcDbCircle
 10
145.5556755787
 20
100.5850090286
 30
0.0
 40
3.499999999999994
100
AcDbArc
 50
121.0027191339
 51
148.9972808661
  0
LINE
  5
245
330
1F
100
AcDbEntity
  8
0
  6
Continuous
 62
     7
370
    15
100
AcDbLine
 10
147.3584511712
 20
103.5850087965
 30
0.0
 11
143.7528996192
 21
103.5850087965
 31
0.0
  0
LINE
  5
246
330
1F
100
AcDbEntity
  8
0
  6
Continuous
 62
     7
370
    15
100
AcDbLine
 10
148.5556756541
 20
98.7822332273
 30
0.0
 11
148.5556756541
 21
102.3877843136
 31
0.0
  0
ARC
  5
247
330
1F
100
AcDbEntity
  8
0
  6
Continuous
 62
     7
370
    15
100
AcDbCircle
 10
145.5556755787
 20
100.5850090286
 30
0.0
 40
3.500000000000001
100
AcDbArc
 50
301.0027191339
 51
328.9972808661
  0
LINE
  5
248
330
1F
100
AcDbEntity
  8
0
  6
Continuous
 62
     7
370
    15
100
AcDbLine
 10
142.5556751363
 20
102.3877843136
 30
0.0
 11
142.5556751363
 21
98.7822332273
 31
0.0
  0
LINE
  5
249
330
1F
100
AcDbEntity
  8
0
  6
Continuous
 62
     7
370
    15
100
AcDbLine
 10
143.7528996192
 20
97.58500921
 30
0.0
 11
147.3584511712
 21
97.58500921
 31
0.0
  0
CIRCLE
  5
24A
330
1F
100
AcDbEntity
  8
0
  6
Continuous
 62
     7
370
    15
100
AcDbCircle
 10
145.5556755787
 20
100.5850090286
 30
0.0
 40
1.650000000000006
  0
ARC
  5
24B
330
1F
100
AcDbEntity
  8
0
  6
Continuous
 62
     7
370
    15
100
AcDbCircle
 10
145.5556755787
 20
100.5850090286
 30
0.0
 40
4.000000000000006
100
AcDbArc
 50
311.4096221093
 51
318.5903778907
  0
SPLINE
  5
24C
330
1F
100
AcDbEntity
  8
0
  6
Continuous
 62
     7
370
    15
100
AcDbSpline
210
0.0
220
0.0
230
1.0
 70
    24
 71
     3
 72
     8
 73
     4
 74
     0
 42
0.00000001
 43
0.00000001
 12
1.0
 22
0.0
 32
0.0
 13
1.0
 23
0.0
 33
0.0
 40
0.0
 40
0.0
 40
0.0
 40
0.0
 40
1.0
 40
1.0
 40
1.0
 40
1.0
 10
148.5556755787173
 20
98.78223339086091
 30
0.0
 10
148.5556755787173
 20
98.49127629590845
 30
0.0
 10
148.5556755787173
 20
98.21207371704921
 30
0.0
 10
148.5556755787173
 20
97.9392577175283
 30
0.0
  0
SPLINE
  5
24D
330
1F
100
AcDbEntity
  8
0
  6
Continuous
 62
     7
370
    15
100
AcDbSpline
210
0.0
220
0.0
230
1.0
 70
    24
 71
     3
 72
     8
 73
     4
 74
     0
 42
0.00000001
 43
0.00000001
 12
1.0
 22
0.0
 32
0.0
 13
1.0
 23
0.0
 33
0.0
 40
0.0
 40
0.0
 40
0.0
 40
0.0
 40
1.0
 40
1.0
 40
1.0
 40
1.0
 10
148.2014268897819
 20
97.58500902859289
 30
0.0
 10
147.9286108902609
 20
97.58500902859289
 30
0.0
 10
147.6494083114017
 20
97.58500902859289
 30
0.0
 10
147.3584512164493
 20
97.58500902859289
 30
0.0
  0
ARC
  5
24E
330
1F
100
AcDbEntity
  8
0
  6
Continuous
 62
     7
370
    15
100
AcDbCircle
 10
145.5556755787
 20
100.5850090286
 30
0.0
 40
4.000000000000006
100
AcDbArc
 50
131.4096221093
 51
138.5903778907
  0
SPLINE
  5
24F
330
1F
100
AcDbEntity
  8
0
  6
Continuous
 62
     7
370
    15
100
AcDbSpline
210
0.0
220
0.0
230
1.0
 70
    24
 71
     3
 72
     8
 73
     4
 74
     0
 42
0.00000001
 43
0.00000001
 12
1.0
 22
0.0
 32
0.0
 13
1.0
 23
0.0
 33
0.0
 40
0.0
 40
0.0
 40
0.0
 40
0.0
 40
1.0
 40
1.0
 40
1.0
 40
1.0
 10
142.9099242676527
 20
103.5850090285929
 30
0.0
 10
143.1827402671736
 20
103.5850090285929
 30
0.0
 10
143.4619428460328
 20
103.5850090285929
 30
0.0
 10
143.7528999409853
 20
103.5850090285929
 30
0.0
  0
SPLINE
  5
250
330
1F
100
AcDbEntity
  8
0
  6
Continuous
 62
     7
370
    15
100
AcDbSpline
210
0.0
220
0.0
230
1.0
 70
    24
 71
     3
 72
     8
 73
     4
 74
     0
 42
0.00000001
 43
0.00000001
 12
1.0
 22
0.0
 32
0.0
 13
1.0
 23
0.0
 33
0.0
 40
0.0
 40
0.0
 40
0.0
 40
0.0
 40
1.0
 40
1.0
 40
1.0
 40
1.0
 10
142.5556755787173
 20
102.3877846663249
 30
0.0
 10
142.5556755787173
 20
102.6787417612773
 30
0.0
 10
142.5556755787173
 20
102.9579443401366
 30
0.0
 10
142.5556755787173
 20
103.2307603396575
 30
0.0
  0
LINE
  5
251
330
1F
100
AcDbEntity
  8
0
  6
Continuous
 62
     7
370
    15
100
AcDbLine
 10
122.5556765147
 20
87.5850089679
 30
0.0
 11
123.5556748159
 21
87.5850089679
 31
0.0
  0
LINE
  5
252
330
1F
100
AcDbEntity
  8
0
  6
Continuous
 62
     7
370
    15
100
AcDbLine
 10
123.5556748159
 20
87.5850089679
 30
0.0
 11
123.5556748159
 21
84.0850093255
 31
0.0
  0
LINE
  5
253
330
1F
100
AcDbEntity
  8
0
  6
Continuous
 62
     7
370
    15
100
AcDbLine
 10
123.5556748159
 20
84.0850093255
 30
0.0
 11
121.5556744881
 21
84.0850093255
 31
0.0
  0
LINE
  5
254
330
1F
100
AcDbEntity
  8
0
  6
Continuous
 62
     7
370
    15
100
AcDbLine
 10
121.5556744881
 20
84.0850093255
 30
0.0
 11
121.5556744881
 21
86.585008804
 31
0.0
  0
ARC
  5
255
330
1F
100
AcDbEntity
  8
0
  6
Continuous
 62
     7
370
    15
100
AcDbCircle
 10
122.5556755787
 20
86.5850090286
 30
0.0
 40
1.0
100
AcDbArc
 50
90.0
 51
180.0
  0
LINE
  5
256
330
1F
100
AcDbEntity
  8
0
  6
Continuous
 62
     7
370
    15
100
AcDbLine
 10
167.5556755088
 20
84.0850093255
 30
0.0
 11
167.5556755088
 21
87.5850089679
 31
0.0
  0
ARC
  5
257
330
1F
100
AcDbEntity
  8
0
  6
Continuous
 62
     7
370
    15
100
AcDbCircle
 10
168.5556755787
 20
86.5850090286
 30
0.0
 40
1.0
100
AcDbArc
 50
0.0
 51
90.0
  0
LINE
  5
258
330
1F
100
AcDbEntity
  8
0
  6
Continuous
 62
     7
370
    15
100
AcDbLine
 10
169.5556758367
 20
86.585008804
 30
0.0
 11
169.5556758367
 21
84.0850093255
 31
0.0
  0
LINE
  5
259
330
1F
100
AcDbEntity
  8
0
  6
Continuous
 62
     7
370
    15
100
AcDbLine
 10
167.5556755088
 20
87.5850089679
 30
0.0
 11
168.5556756728
 21
87.5850089679
 31
0.0
  0
LINE
  5
25A
330
1F
100
AcDbEntity
  8
0
  6
Continuous
 62
     7
370
    15
100
AcDbLine
 10
169.5556758367
 20
84.0850093255
 30
0.0
 11
167.5556755088
 21
84.0850093255
 31
0.0
  0
ARC
  5
25B
330
1F
100
AcDbEntity
  8
0
  6
Continuous
 62
     7
370
    15
100
AcDbCircle
 10
159.8290291179
 20
91.8434584735
 30
0.0
 40
3.0
100
AcDbArc
 50
190.7803039923
 51
220.9981734199
  0
LINE
  5
25C
330
1F
100
AcDbEntity
  8
0
  6
Continuous
 62
     7
370
    15
100
AcDbLine
 10
159.2566907801
 20
87.9289738687
 30
0.0
 11
157.5648376182
 21
89.8753535321
 31
0.0
  0
ARC
  5
25D
330
1F
100
AcDbEntity
  8
0
  6
Continuous
 62
     7
370
    15
100
AcDbCircle
 10
160.0114210848
 20
88.5850090286
 30
0.0
 40
1.0
100
AcDbArc
 50
220.9981734199
 51
270.0
  0
ARC
  5
25E
330
1F
100
AcDbEntity
  8
0
  6
Continuous
 62
     7
370
    15
100
AcDbCircle
 10
137.9526842023
 20
88.0850090286
 30
0.0
 40
1.000000000000014
100
AcDbArc
 50
93.9130429054
 51
139.0018265801
  0
LINE
  5
25F
330
1F
100
AcDbEntity
  8
0
  6
Continuous
 62
     7
370
    15
100
AcDbLine
 10
134.0477407374
 20
85.1169044936
 30
0.0
 11
137.1979542472
 21
88.7410438473
 31
0.0
  0
ARC
  5
260
330
1F
100
AcDbEntity
  8
0
  6
Continuous
 62
     7
370
    15
100
AcDbCircle
 10
131.7835483318
 20
87.0850090286
 30
0.0
 40
3.0
100
AcDbArc
 50
270.0
 51
319.0018265801
  0
LINE
  5
261
330
1F
100
AcDbEntity
  8
0
  6
Continuous
 62
     7
370
    15
100
AcDbLine
 10
123.5556748159
 20
84.0850093255
 30
0.0
 11
131.7835484095
 21
84.0850093255
 31
0.0
  0
LINE
  5
262
330
1F
100
AcDbEntity
  8
0
  6
Continuous
 62
     7
370
    15
100
AcDbLine
 10
131.0999297001
 20
87.5850089679
 30
0.0
 11
123.5556748159
 21
87.5850089679
 31
0.0
  0
ARC
  5
263
330
1F
100
AcDbEntity
  8
0
  6
Continuous
 62
     7
370
    15
100
AcDbCircle
 10
131.0999300726
 20
88.5850090286
 30
0.0
 40
1.000000000000005
100
AcDbArc
 50
270.0
 51
319.0018265801
  0
ARC
  5
264
330
1F
100
AcDbEntity
  8
0
  6
Continuous
 62
     7
370
    15
100
AcDbCircle
 10
131.2823220395
 20
91.8434584735
 30
0.0
 40
3.000000000000015
100
AcDbArc
 50
319.0018265801
 51
349.2196960077
  0
ARC
  5
265
330
1F
100
AcDbEntity
  8
0
  6
Continuous
 62
     7
370
    15
100
AcDbCircle
 10
153.1586669551
 20
88.0850090286
 30
0.0
 40
1.000000000000014
100
AcDbArc
 50
40.9981734199
 51
86.0869570946
  0
LINE
  5
266
330
1F
100
AcDbEntity
  8
0
  6
Continuous
 62
     7
370
    15
100
AcDbLine
 10
153.9133974746
 20
88.7410438473
 30
0.0
 11
157.0636114501
 21
85.1169044936
 31
0.0
  0
LINE
  5
267
330
1F
100
AcDbEntity
  8
0
  6
Continuous
 62
     7
370
    15
100
AcDbLine
 10
167.5556755088
 20
87.5850089679
 30
0.0
 11
160.0114210904
 21
87.5850089679
 31
0.0
  0
LINE
  5
268
330
1F
100
AcDbEntity
  8
0
  6
Continuous
 62
     7
370
    15
100
AcDbLine
 10
137.8857881226
 20
89.0850092137
 30
0.0
 11
137.8844414301
 21
89.0826776477
 31
0.0
  0
LINE
  5
269
330
1F
100
AcDbEntity
  8
0
  6
Continuous
 62
     7
370
    15
100
AcDbLine
 10
133.5465141036
 20
89.8753535321
 30
0.0
 11
131.854660476
 21
87.9289738687
 31
0.0
  0
ARC
  5
26A
330
1F
100
AcDbEntity
  8
0
  6
Continuous
 62
     7
370
    15
100
AcDbCircle
 10
159.3278028257
 20
87.0850090286
 30
0.0
 40
3.0
100
AcDbArc
 50
220.9981734199
 51
270.0
  0
LINE
  5
26B
330
1F
100
AcDbEntity
  8
0
  6
Continuous
 62
     7
370
    15
100
AcDbLine
 10
153.2269093603
 20
89.0826776477
 30
0.0
 11
153.2255633664
 21
89.0850092137
 31
0.0
  0
LINE
  5
26C
330
1F
100
AcDbEntity
  8
0
  6
Continuous
 62
     7
370
    15
100
AcDbLine
 10
159.3278028466
 20
84.0850093255
 30
0.0
 11
167.5556755088
 21
84.0850093255
 31
0.0
  0
ARC
  5
26D
330
1F
100
AcDbEntity
  8
0
  6
Continuous
 62
     7
370
    15
100
AcDbCircle
 10
145.5556755787
 20
100.5850090286
 30
0.0
 40
4.000000000000006
100
AcDbArc
 50
0.0
 51
41.4096221093
  0
ARC
  5
26E
330
1F
100
AcDbEntity
  8
0
  6
Continuous
 62
     7
370
    15
100
AcDbCircle
 10
145.5556755787
 20
100.5850090286
 30
0.0
 40
4.000000000000006
100
AcDbArc
 50
48.5903778907
 51
131.4096221093
  0
ARC
  5
26F
330
1F
100
AcDbEntity
  8
0
  6
Continuous
 62
     7
370
    15
100
AcDbCircle
 10
145.5556755787
 20
100.5850090286
 30
0.0
 40
4.000000000000006
100
AcDbArc
 50
138.5903778907
 51
221.4096221093
  0
ARC
  5
270
330
1F
100
AcDbEntity
  8
0
  6
Continuous
 62
     7
370
    15
100
AcDbCircle
 10
145.5556755787
 20
100.5850090286
 30
0.0
 40
4.000000000000006
100
AcDbArc
 50
228.5903778907
 51
311.4096221093
  0
ARC
  5
271
330
1F
100
AcDbEntity
  8
0
  6
Continuous
 62
     7
370
    15
100
AcDbCircle
 10
145.5556755787
 20
100.5850090286
 30
0.0
 40
4.000000000000006
100
AcDbArc
 50
318.9452478669
 51
0.0
  0
ARC
  5
272
330
1F
100
AcDbEntity
  8
0
  6
Continuous
 62
     7
370
    15
100
AcDbCircle
 10
142.7973329655
 20
91.5850090286
 30
0.0
 40
1.00000000000003
100
AcDbArc
 50
183.8225537293
 51
270.0
  0
ARC
  5
273
330
1F
100
AcDbEntity
  8
0
  6
Continuous
 62
     7
370
    15
100
AcDbCircle
 10
139.0556755787
 20
91.3350090286
 30
0.0
 40
2.749999999999995
100
AcDbArc
 50
3.8225537293
 51
90.0
  0
LINE
  5
274
330
1F
100
AcDbEntity
  8
0
  6
Continuous
 62
     7
370
    15
100
AcDbLine
 10
139.0556754939
 20
94.0850089856
 30
0.0
 11
133.3341706939
 21
94.0850089856
 31
0.0
  0
LINE
  5
275
330
1F
100
AcDbEntity
  8
0
  6
Continuous
 62
     7
370
    15
100
AcDbLine
 10
133.3341706939
 20
94.0850089856
 30
0.0
 11
131.5556761272
 21
96.3322916387
 31
0.0
  0
LINE
  5
276
330
1F
100
AcDbEntity
  8
0
  6
Continuous
 62
     7
370
    15
100
AcDbLine
 10
131.5556761272
 20
108.8499951029
 30
0.0
 11
131.5556761272
 21
96.3322916387
 31
0.0
  0
ARC
  5
277
330
1F
100
AcDbEntity
  8
0
  6
Continuous
 62
     7
370
    15
100
AcDbCircle
 10
142.8556755787
 20
100.5850090286
 30
0.0
 40
14.00000000000002
100
AcDbArc
 50
126.1822872212
 51
143.8177127788
  0
LINE
  5
278
330
1F
100
AcDbEntity
  8
0
  6
Continuous
 62
     7
370
    15
100
AcDbLine
 10
136.3056764402
 20
111.8850095982
 30
0.0
 11
134.5906887599
 21
111.8850095982
 31
0.0
  0
LINE
  5
279
330
1F
100
AcDbEntity
  8
0
  6
Continuous
 62
     7
370
    15
100
AcDbLine
 10
136.3056764402
 20
111.8850095982
 30
0.0
 11
136.3056764402
 21
109.835008424
 31
0.0
  0
ARC
  5
27A
330
1F
100
AcDbEntity
  8
0
  6
Continuous
 62
     7
370
    15
100
AcDbCircle
 10
139.0556755787
 20
109.8350090286
 30
0.0
 40
2.75
100
AcDbArc
 50
180.0
 51
356.1774462707
  0
ARC
  5
27B
330
1F
100
AcDbEntity
  8
0
  6
Continuous
 62
     7
370
    15
100
AcDbCircle
 10
142.7973329655
 20
109.5850090286
 30
0.0
 40
1.000000000000029
100
AcDbArc
 50
90.0
 51
176.1774462707
  0
LINE
  5
27C
330
1F
100
AcDbEntity
  8
0
  6
Continuous
 62
     7
370
    15
100
AcDbLine
 10
142.7973328553
 20
110.5850099439
 30
0.0
 11
148.3140184008
 21
110.5850099439
 31
0.0
  0
ARC
  5
27D
330
1F
100
AcDbEntity
  8
0
  6
Continuous
 62
     7
370
    15
100
AcDbCircle
 10
148.3140181919
 20
109.5850090286
 30
0.0
 40
1.0
100
AcDbArc
 50
3.8225537293
 51
90.0
  0
ARC
  5
27E
330
1F
100
AcDbEntity
  8
0
  6
Continuous
 62
     7
370
    15
100
AcDbCircle
 10
152.0556755787
 20
109.8350090286
 30
0.0
 40
2.750000000000028
100
AcDbArc
 50
183.8225537293
 51
0.0
  0
LINE
  5
27F
330
1F
100
AcDbEntity
  8
0
  6
Continuous
 62
     7
370
    15
100
AcDbLine
 10
154.8056755726
 20
109.835008424
 30
0.0
 11
154.8056755726
 21
111.8850095982
 31
0.0
  0
LINE
  5
280
330
1F
100
AcDbEntity
  8
0
  6
Continuous
 62
     7
370
    15
100
AcDbLine
 10
156.5206619142
 20
111.8850095982
 30
0.0
 11
154.8056755726
 21
111.8850095982
 31
0.0
  0
ARC
  5
281
330
1F
100
AcDbEntity
  8
0
  6
Continuous
 62
     7
370
    15
100
AcDbCircle
 10
148.2556755787
 20
100.5850090286
 30
0.0
 40
14.0
100
AcDbArc
 50
36.1822872212
 51
53.8177127788
  0
LINE
  5
282
330
1F
100
AcDbEntity
  8
0
  6
Continuous
 62
     7
370
    15
100
AcDbLine
 10
159.5556755945
 20
96.3322916387
 30
0.0
 11
159.5556755945
 21
108.8499951029
 31
0.0
  0
LINE
  5
283
330
1F
100
AcDbEntity
  8
0
  6
Continuous
 62
     7
370
    15
100
AcDbLine
 10
159.5556755945
 20
96.3322916387
 30
0.0
 11
157.7771810279
 21
94.0850089856
 31
0.0
  0
LINE
  5
284
330
1F
100
AcDbEntity
  8
0
  6
Continuous
 62
     7
370
    15
100
AcDbLine
 10
157.7771810279
 20
94.0850089856
 30
0.0
 11
152.0556755293
 21
94.0850089856
 31
0.0
  0
ARC
  5
285
330
1F
100
AcDbEntity
  8
0
  6
Continuous
 62
     7
370
    15
100
AcDbCircle
 10
152.0556755787
 20
91.3350090286
 30
0.0
 40
2.749999999999995
100
AcDbArc
 50
90.0
 51
176.1774462707
  0
ARC
  5
286
330
1F
100
AcDbEntity
  8
0
  6
Continuous
 62
     7
370
    15
100
AcDbCircle
 10
148.3140181919
 20
91.5850090286
 30
0.0
 40
1.000000000000002
100
AcDbArc
 50
270.0
 51
356.1774462707
  0
LINE
  5
287
330
1F
100
AcDbEntity
  8
0
  6
Continuous
 62
     7
370
    15
100
AcDbLine
 10
148.3140184008
 20
90.585008994
 30
0.0
 11
142.7973328553
 21
90.585008994
 31
0.0
  0
ARC
  5
288
330
1F
100
AcDbEntity
  8
0
  6
Continuous
 62
     7
370
    15
100
AcDbCircle
 10
137.8417932131
 20
97.0148523305
 30
0.0
 40
2.000000000000011
100
AcDbArc
 50
204.8357513783
 51
305.0
  0
LINE
  5
289
330
1F
100
AcDbEntity
  8
0
  6
Continuous
 62
     7
370
    15
100
AcDbLine
 10
139.7536784806
 20
95.912019754
 30
0.0
 11
138.9889462315
 21
95.3765481564
 31
0.0
  0
ARC
  5
28A
330
1F
100
AcDbEntity
  8
0
  6
Continuous
 62
     7
370
    15
100
AcDbCircle
 10
138.8933138399
 20
97.1407477056
 30
0.0
 40
1.499999999999987
100
AcDbArc
 50
305.0
 51
27.3377443392
  0
ARC
  5
28B
330
1F
100
AcDbEntity
  8
0
  6
Continuous
 62
     7
370
    15
100
AcDbCircle
 10
145.5556755787
 20
100.5850090286
 30
0.0
 40
6.000000000000008
100
AcDbArc
 50
152.6622556608
 51
207.3377443392
  0
ARC
  5
28C
330
1F
100
AcDbEntity
  8
0
  6
Continuous
 62
     7
370
    15
100
AcDbCircle
 10
138.8933138399
 20
104.0292703516
 30
0.0
 40
1.499999999999994
100
AcDbArc
 50
332.6622556608
 51
55.0
  0
LINE
  5
28D
330
1F
100
AcDbEntity
  8
0
  6
Continuous
 62
     7
370
    15
100
AcDbLine
 10
138.9889462315
 20
105.7934698502
 30
0.0
 11
139.7536784806
 21
105.2579984853
 31
0.0
  0
ARC
  5
28E
330
1F
100
AcDbEntity
  8
0
  6
Continuous
 62
     7
370
    15
100
AcDbCircle
 10
137.8417932131
 20
104.1551657267
 30
0.0
 40
2.0
100
AcDbArc
 50
55.0
 51
155.1642486217
  0
ARC
  5
28F
330
1F
100
AcDbEntity
  8
0
  6
Continuous
 62
     7
370
    15
100
AcDbCircle
 10
145.5556755787
 20
100.5850090286
 30
0.0
 40
10.49999999999999
100
AcDbArc
 50
155.1642486217
 51
204.8357513783
  0
ARC
  5
290
330
1F
100
AcDbEntity
  8
0
  6
Continuous
 62
     7
370
    15
100
AcDbCircle
 10
153.2695579443
 20
104.1551657267
 30
0.0
 40
2.000000000000005
100
AcDbArc
 50
24.8357513783
 51
125.0
  0
LINE
  5
291
330
1F
100
AcDbEntity
  8
0
  6
Continuous
 62
     7
370
    15
100
AcDbLine
 10
151.3576727756
 20
105.2579984853
 30
0.0
 11
152.1224050246
 21
105.7934698502
 31
0.0
  0
ARC
  5
292
330
1F
100
AcDbEntity
  8
0
  6
Continuous
 62
     7
370
    15
100
AcDbCircle
 10
152.2180373175
 20
104.0292703516
 30
0.0
 40
1.500000000000026
100
AcDbArc
 50
125.0
 51
207.3377443392
  0
ARC
  5
293
330
1F
100
AcDbEntity
  8
0
  6
Continuous
 62
     7
370
    15
100
AcDbCircle
 10
145.5556755787
 20
100.5850090286
 30
0.0
 40
5.999999999999994
100
AcDbArc
 50
332.6622556608
 51
27.3377443392
  0
ARC
  5
294
330
1F
100
AcDbEntity
  8
0
  6
Continuous
 62
     7
370
    15
100
AcDbCircle
 10
152.2180373175
 20
97.1407477056
 30
0.0
 40
1.499999999999994
100
AcDbArc
 50
152.6622556608
 51
235.0
  0
LINE
  5
295
330
1F
100
AcDbEntity
  8
0
  6
Continuous
 62
     7
370
    15
100
AcDbLine
 10
152.1224050246
 20
95.3765481564
 30
0.0
 11
151.3576727756
 21
95.912019754
 31
0.0
  0
ARC
  5
296
330
1F
100
AcDbEntity
  8
0
  6
Continuous
 62
     7
370
    15
100
AcDbCircle
 10
153.2695579443
 20
97.0148523305
 30
0.0
 40
2.000000000000007
100
AcDbArc
 50
235.0
 51
335.1642486217
  0
ARC
  5
297
330
1F
100
AcDbEntity
  8
0
  6
Continuous
 62
     7
370
    15
100
AcDbCircle
 10
145.5556755787
 20
100.5850090286
 30
0.0
 40
10.50000000000001
100
AcDbArc
 50
335.1642486217
 51
24.8357513783
  0
ARC
  5
298
330
1F
100
AcDbEntity
  8
0
  6
Continuous
 62
     7
370
    15
100
AcDbCircle
 10
152.2180373175
 20
97.1407477056
 30
0.0
 40
0.9999999999999812
100
AcDbArc
 50
152.6622556608
 51
235.0
  0
LWPOLYLINE
  5
299
330
1F
100
AcDbEntity
  8
0
  6
Continuous
 62
     7
370
    15
100
AcDbPolyline
 90
        9
 70
   128
 43
0.0
 10
151.6444609896
 20
96.3215956317
 10
151.6389503539
 20
96.3137257232
 10
151.6226303227
 20
96.2904184444
 10
151.5961283747
 20
96.2525697278
 10
151.5604624454
 20
96.2016336007
 10
151.5170036745
 20
96.139567936
 10
151.4674216904
 20
96.0687576181
 10
151.4136222121
 20
95.9919239713
 10
151.3576727756
 20
95.912019754
  0
LWPOLYLINE
  5
29A
330
1F
100
AcDbEntity
  8
0
  6
Continuous
 62
     7
370
    15
100
AcDbPolyline
 90
        9
 70
   128
 43
0.0
 10
151.3297223881
 20
97.5999825487
 10
151.3211879809
 20
97.6043946894
 10
151.2959130503
 20
97.6174611451
 10
151.2548685003
 20
97.638679933
 10
151.1996317584
 20
97.6672361458
 10
151.1323255416
 20
97.7020312885
 10
151.0555365984
 20
97.7417293789
 10
150.9722158242
 20
97.7848039793
 10
150.8855648734
 20
97.8296001295
  0
LINE
  5
29B
330
1F
100
AcDbEntity
  8
0
  6
Continuous
 62
     7
370
    15
100
AcDbLine
 10
159.7556757204
 20
108.5693689848
 30
0.0
 11
159.7556757204
 21
96.5850090461
 31
0.0
  0
LINE
  5
29C
330
1F
100
AcDbEntity
  8
0
  6
Continuous
 62
     7
370
    15
100
AcDbLine
 10
159.7556757204
 20
96.5850090461
 30
0.0
 11
159.5556755945
 21
96.3322916387
 31
0.0
  0
ARC
  5
29D
330
1F
100
AcDbEntity
  8
0
  6
Continuous
 62
     7
370
    15
100
AcDbCircle
 10
148.2556755787
 20
100.5850090286
 30
0.0
 40
13.99999999999999
100
AcDbArc
 50
34.7719440319
 51
36.1822872212
  0
LINE
  5
29E
330
1F
100
AcDbEntity
  8
0
  6
Continuous
 62
     7
370
    15
100
AcDbLine
 10
134.8713167407
 20
112.0850092584
 30
0.0
 11
136.3056764402
 21
112.0850092584
 31
0.0
  0
LINE
  5
29F
330
1F
100
AcDbEntity
  8
0
  6
Continuous
 62
     7
370
    15
100
AcDbLine
 10
136.3056764402
 20
112.0850092584
 30
0.0
 11
136.3056764402
 21
111.8850095982
 31
0.0
  0
ARC
  5
2A0
330
1F
100
AcDbEntity
  8
0
  6
Continuous
 62
     7
370
    15
100
AcDbCircle
 10
142.8556755787
 20
100.5850090286
 30
0.0
 40
14.0
100
AcDbArc
 50
124.7719440319
 51
126.1822872212
  0
LINE
  5
2A1
330
1F
100
AcDbEntity
  8
0
  6
Continuous
 62
     7
370
    15
100
AcDbLine
 10
154.8056755726
 20
112.0850092584
 30
0.0
 11
156.2400353303
 21
112.0850092584
 31
0.0
  0
LINE
  5
2A2
330
1F
100
AcDbEntity
  8
0
  6
Continuous
 62
     7
370
    15
100
AcDbLine
 10
154.8056755726
 20
111.8850095982
 30
0.0
 11
154.8056755726
 21
112.0850092584
 31
0.0
  0
ARC
  5
2A3
330
1F
100
AcDbEntity
  8
0
  6
Continuous
 62
     7
370
    15
100
AcDbCircle
 10
148.2556755787
 20
100.5850090286
 30
0.0
 40
14.0
100
AcDbArc
 50
53.8177127788
 51
55.2280559681
  0
LINE
  5
2A4
330
1F
100
AcDbEntity
  8
0
  6
Continuous
 62
     7
370
    15
100
AcDbLine
 10
131.355676467
 20
96.5850090461
 30
0.0
 11
131.355676467
 21
108.5693689848
 31
0.0
  0
LINE
  5
2A5
330
1F
100
AcDbEntity
  8
0
  6
Continuous
 62
     7
370
    15
100
AcDbLine
 10
131.5556761272
 20
96.3322916387
 30
0.0
 11
131.355676467
 21
96.5850090461
 31
0.0
  0
ARC
  5
2A6
330
1F
100
AcDbEntity
  8
0
  6
Continuous
 62
     7
370
    15
100
AcDbCircle
 10
142.8556755787
 20
100.5850090286
 30
0.0
 40
14.00000000000002
100
AcDbArc
 50
143.8177127788
 51
145.2280559681
  0
ARC
  5
2A7
330
1F
100
AcDbEntity
  8
0
  6
Continuous
 62
     7
370
    15
100
AcDbCircle
 10
152.2180373175
 20
104.0292703516
 30
0.0
 40
1.000000000000002
100
AcDbArc
 50
125.0
 51
207.3377443392
  0
LWPOLYLINE
  5
2A8
330
1F
100
AcDbEntity
  8
0
  6
Continuous
 62
     7
370
    15
100
AcDbPolyline
 90
        9
 70
   128
 43
0.0
 10
151.3297223881
 20
103.5700359235
 10
151.3211879809
 20
103.5656233171
 10
151.2959130503
 20
103.5525568614
 10
151.2548685003
 20
103.5313376079
 10
151.1996317584
 20
103.5027823264
 10
151.1323255416
 20
103.4679862524
 10
151.0555365984
 20
103.4282886276
 10
150.9722158242
 20
103.3852140272
 10
150.8855648734
 20
103.3404183427
  0
LWPOLYLINE
  5
2A9
330
1F
100
AcDbEntity
  8
0
  6
Continuous
 62
     7
370
    15
100
AcDbPolyline
 90
        9
 70
   128
 43
0.0
 10
151.3576727756
 20
105.2579984853
 10
151.4136222121
 20
105.1780938024
 10
151.4674216904
 20
105.1012606213
 10
151.5170036745
 20
105.0304503033
 10
151.5604624454
 20
104.968384173
 10
151.5961283747
 20
104.9174482787
 10
151.6226303227
 20
104.8795993293
 10
151.6389503539
 20
104.8562920505
 10
151.6444609896
 20
104.8484223748
  0
LWPOLYLINE
  5
2AA
330
1F
100
AcDbEntity
  8
0
  6
Continuous
 62
     7
370
    15
100
AcDbPolyline
 90
        9
 70
   128
 43
0.0
 10
152.1224050246
 20
105.7934698502
 10
152.178354694
 20
105.7135651672
 10
152.2321541723
 20
105.6367319862
 10
152.2817361564
 20
105.5659216682
 10
152.3251949273
 20
105.5038555378
 10
152.3608608566
 20
105.4529196436
 10
152.3873628047
 20
105.4150706941
 10
152.4036828358
 20
105.3917634154
 10
152.4091932386
 20
105.3838937396
  0
LINE
  5
2AB
330
1F
100
AcDbEntity
  8
0
  6
Continuous
 62
     7
370
    15
100
AcDbLine
 10
152.4091932386
 20
105.3838937396
 30
0.0
 11
151.6444609896
 21
104.8484223748
 31
0.0
  0
LINE
  5
2AC
330
1F
100
AcDbEntity
  8
0
  6
Continuous
 62
     7
370
    15
100
AcDbLine
 10
151.6444609896
 20
96.3215956317
 30
0.0
 11
152.4091932386
 21
95.7861242669
 31
0.0
  0
LWPOLYLINE
  5
2AD
330
1F
100
AcDbEntity
  8
0
  6
Continuous
 62
     7
370
    15
100
AcDbPolyline
 90
        9
 70
   128
 43
0.0
 10
152.4091932386
 20
95.7861242669
 10
152.4036828358
 20
95.7782543583
 10
152.3873628047
 20
95.7549470796
 10
152.3608608566
 20
95.717098363
 10
152.3251949273
 20
95.6661622359
 10
152.2817361564
 20
95.6040965712
 10
152.2321541723
 20
95.5332862532
 10
152.178354694
 20
95.4564526065
 10
152.1224050246
 20
95.3765481564
  0
ARC
  5
2AE
330
1F
100
AcDbEntity
  8
0
  6
Continuous
 62
     7
370
    15
100
AcDbCircle
 10
138.8933138399
 20
97.1407477056
 30
0.0
 40
1.000000000000004
100
AcDbArc
 50
305.0
 51
27.3377443392
  0
LWPOLYLINE
  5
2AF
330
1F
100
AcDbEntity
  8
0
  6
Continuous
 62
     7
370
    15
100
AcDbPolyline
 90
        9
 70
   128
 43
0.0
 10
139.7816284023
 20
97.5999825487
 10
139.7901630424
 20
97.6043946894
 10
139.8154382058
 20
97.6174611451
 10
139.856482523
 20
97.638679933
 10
139.9117192649
 20
97.6672361458
 10
139.9790259473
 20
97.7020312885
 10
140.0558144249
 20
97.7417293789
 10
140.1391351991
 20
97.7848039793
 10
140.2257863827
 20
97.8296001295
  0
LWPOLYLINE
  5
2B0
330
1F
100
AcDbEntity
  8
0
  6
Continuous
 62
     7
370
    15
100
AcDbPolyline
 90
        9
 70
   128
 43
0.0
 10
139.7536784806
 20
95.912019754
 10
139.6977292769
 20
95.9919239713
 10
139.6439295657
 20
96.0687576181
 10
139.5943478145
 20
96.139567936
 10
139.5508885779
 20
96.2016336007
 10
139.5152226486
 20
96.2525697278
 10
139.4887209334
 20
96.2904184444
 10
139.4724004366
 20
96.3137257232
 10
139.4668907322
 20
96.3215956317
  0
ARC
  5
2B1
330
1F
100
AcDbEntity
  8
0
  6
Continuous
 62
     7
370
    15
100
AcDbCircle
 10
145.5556755787
 20
100.5850090286
 30
0.0
 40
6.499999999999996
100
AcDbArc
 50
152.6622556608
 51
207.3377443392
  0
LWPOLYLINE
  5
2B2
330
1F
100
AcDbEntity
  8
0
  6
Continuous
 62
     7
370
    15
100
AcDbPolyline
 90
        9
 70
   128
 43
0.0
 10
139.7816284023
 20
103.5700359235
 10
139.7901630424
 20
103.5656233171
 10
139.8154382058
 20
103.5525568614
 10
139.856482523
 20
103.5313376079
 10
139.9117192649
 20
103.5027823264
 10
139.9790259473
 20
103.4679862524
 10
140.0558144249
 20
103.4282886276
 10
140.1391351991
 20
103.3852140272
 10
140.2257863827
 20
103.3404183427
  0
LINE
  5
2B3
330
1F
100
AcDbEntity
  8
0
  6
Continuous
 62
     7
370
    15
100
AcDbLine
 10
139.4668907322
 20
104.8484223748
 30
0.0
 11
138.7021575518
 21
105.3838937396
 31
0.0
  0
LWPOLYLINE
  5
2B4
330
1F
100
AcDbEntity
  8
0
  6
Continuous
 62
     7
370
    15
100
AcDbPolyline
 90
        9
 70
   128
 43
0.0
 10
138.7021575518
 20
105.3838937396
 10
138.7076691188
 20
105.3917634154
 10
138.723987753
 20
105.4150706941
 10
138.7504894681
 20
105.4529196436
 10
138.7861553975
 20
105.5038555378
 10
138.8296146341
 20
105.5659216682
 10
138.8791963853
 20
105.6367319862
 10
138.9329970278
 20
105.7135651672
 10
138.9889462315
 20
105.7934698502
  0
LWPOLYLINE
  5
2B5
330
1F
100
AcDbEntity
  8
0
  6
Continuous
 62
     7
370
    15
100
AcDbPolyline
 90
        9
 70
   128
 43
0.0
 10
139.4668907322
 20
104.8484223748
 10
139.4724004366
 20
104.8562920505
 10
139.4887209334
 20
104.8795993293
 10
139.5152226486
 20
104.9174482787
 10
139.5508885779
 20
104.968384173
 10
139.5943478145
 20
105.0304503033
 10
139.6439295657
 20
105.1012606213
 10
139.6977292769
 20
105.1780938024
 10
139.7536784806
 20
105.2579984853
  0
LWPOLYLINE
  5
2B6
330
1F
100
AcDbEntity
  8
0
  6
Continuous
 62
     7
370
    15
100
AcDbPolyline
 90
        9
 70
   128
 43
0.0
 10
136.0267620929
 20
104.9952025378
 10
136.1152861662
 20
104.9542317951
 10
136.2004071869
 20
104.9148359189
 10
136.2788562127
 20
104.878527377
 10
136.347617621
 20
104.8467040846
 10
136.4040483184
 20
104.8205860744
 10
136.445980186
 20
104.8011791745
 10
136.4718001731
 20
104.7892284433
 10
136.480519215
 20
104.7851930225
  0
ARC
  5
2B7
330
1F
100
AcDbEntity
  8
0
  6
Continuous
 62
     7
370
    15
100
AcDbCircle
 10
145.5556755787
 20
100.5850090286
 30
0.0
 40
10.00000000000002
100
AcDbArc
 50
155.1642486217
 51
204.8357513783
  0
LWPOLYLINE
  5
2B8
330
1F
100
AcDbEntity
  8
0
  6
Continuous
 62
     7
370
    15
100
AcDbPolyline
 90
        9
 70
   128
 43
0.0
 10
136.0267620929
 20
96.1748154687
 10
136.1152861662
 20
96.2157862114
 10
136.2004071869
 20
96.2551825533
 10
136.2788562127
 20
96.2914903967
 10
136.347617621
 20
96.3233143876
 10
136.4040483184
 20
96.3494316993
 10
136.445980186
 20
96.3688385992
 10
136.4718001731
 20
96.3807893304
 10
136.480519215
 20
96.3848247512
  0
ARC
  5
2B9
330
1F
100
AcDbEntity
  8
0
  6
Continuous
 62
     7
370
    15
100
AcDbCircle
 10
145.5556755787
 20
100.5850090286
 30
0.0
 40
6.500000000000016
100
AcDbArc
 50
332.6622556608
 51
27.3377443392
  0
ARC
  5
2BA
330
1F
100
AcDbEntity
  8
0
  6
Continuous
 62
     7
370
    15
100
AcDbCircle
 10
153.2695579443
 20
97.0148523305
 30
0.0
 40
1.50000000000001
100
AcDbArc
 50
235.0
 51
335.1642486217
  0
LWPOLYLINE
  5
2BB
330
1F
100
AcDbEntity
  8
0
  6
Continuous
 62
     7
370
    15
100
AcDbPolyline
 90
        9
 70
   128
 43
0.0
 10
155.0845890759
 20
96.1748154687
 10
154.9960653227
 20
96.2157862114
 10
154.9109435162
 20
96.2551825533
 10
154.832494767
 20
96.2914903967
 10
154.7637338825
 20
96.3233143876
 10
154.7073032796
 20
96.3494316993
 10
154.6653715576
 20
96.3688385992
 10
154.6395501299
 20
96.3807893304
 10
154.6308313026
 20
96.3848247512
  0
LWPOLYLINE
  5
2BC
330
1F
100
AcDbEntity
  8
0
  6
Continuous
 62
     7
370
    15
100
AcDbPolyline
 90
        9
 70
   128
 43
0.0
 10
138.9889462315
 20
95.3765481564
 10
138.9329970278
 20
95.4564526065
 10
138.8791963853
 20
95.5332862532
 10
138.8296146341
 20
95.6040965712
 10
138.7861553975
 20
95.6661622359
 10
138.7504894681
 20
95.717098363
 10
138.723987753
 20
95.7549470796
 10
138.7076691188
 20
95.7782543583
 10
138.7021575518
 20
95.7861242669
  0
LINE
  5
2BD
330
1F
100
AcDbEntity
  8
0
  6
Continuous
 62
     7
370
    15
100
AcDbLine
 10
138.7021575518
 20
95.7861242669
 30
0.0
 11
139.4668907322
 21
96.3215956317
 31
0.0
  0
LWPOLYLINE
  5
2BE
330
1F
100
AcDbEntity
  8
0
  6
Continuous
 62
     7
370
    15
100
AcDbPolyline
 90
        9
 70
   128
 43
0.0
 10
155.0845890759
 20
104.9952025378
 10
154.9960653227
 20
104.9542317951
 10
154.9109435162
 20
104.9148359189
 10
154.832494767
 20
104.878527377
 10
154.7637338825
 20
104.8467040846
 10
154.7073032796
 20
104.8205860744
 10
154.6653715576
 20
104.8011791745
 10
154.6395501299
 20
104.7892284433
 10
154.6308313026
 20
104.7851930225
  0
ARC
  5
2BF
330
1F
100
AcDbEntity
  8
0
  6
Continuous
 62
     7
370
    15
100
AcDbCircle
 10
153.2695579443
 20
104.1551657267
 30
0.0
 40
1.500000000000004
100
AcDbArc
 50
24.8357513783
 51
125.0
  0
ARC
  5
2C0
330
1F
100
AcDbEntity
  8
0
  6
Continuous
 62
     7
370
    15
100
AcDbCircle
 10
145.5556755787
 20
100.5850090286
 30
0.0
 40
10.00000000000001
100
AcDbArc
 50
335.1642486217
 51
24.8357513783
  0
ARC
  5
2C1
330
1F
100
AcDbEntity
  8
0
  6
Continuous
 62
     7
370
    15
100
AcDbCircle
 10
138.8933138399
 20
104.0292703516
 30
0.0
 40
0.999999999999998
100
AcDbArc
 50
332.6622556608
 51
55.0
  0
ARC
  5
2C2
330
1F
100
AcDbEntity
  8
0
  6
Continuous
 62
     7
370
    15
100
AcDbCircle
 10
137.8417932131
 20
104.1551657267
 30
0.0
 40
1.499999999999999
100
AcDbArc
 50
55.0
 51
155.1642486217
  0
ARC
  5
2C3
330
1F
100
AcDbEntity
  8
0
  6
Continuous
 62
     7
370
    15
100
AcDbCircle
 10
137.8417932131
 20
97.0148523305
 30
0.0
 40
1.500000000000036
100
AcDbArc
 50
204.8357513783
 51
305.0
  0
ARC
  5
2C4
330
1F
100
AcDbEntity
  8
0
  6
Continuous
 62
     7
370
    15
100
AcDbCircle
 10
152.2180373175
 20
97.1407477056
 30
0.0
 40
0.4999999999999964
100
AcDbArc
 50
152.6622556608
 51
235.0
  0
LWPOLYLINE
  5
2C5
330
1F
100
AcDbEntity
  8
0
  6
Continuous
 62
     7
370
    15
100
AcDbPolyline
 90
        9
 70
   128
 43
0.0
 10
151.9312492036
 20
96.7311717423
 10
151.8752995342
 20
96.6512672922
 10
151.8215000559
 20
96.5744336454
 10
151.7719180718
 20
96.5036233274
 10
151.7284593009
 20
96.4415576628
 10
151.6927933715
 20
96.3906217685
 10
151.6662914235
 20
96.3527728191
 10
151.6499713924
 20
96.3294655403
 10
151.6444609896
 20
96.3215956317
  0
LWPOLYLINE
  5
2C6
330
1F
100
AcDbEntity
  8
0
  6
Continuous
 62
     7
370
    15
100
AcDbPolyline
 90
        9
 70
   128
 43
0.0
 10
151.7738799028
 20
97.3703649679
 10
151.687228952
 20
97.4151611181
 10
151.6039081779
 20
97.4582357185
 10
151.5271192346
 20
97.4979338089
 10
151.4598130178
 20
97.5327289516
 10
151.4045765087
 20
97.5612851644
 10
151.3635319587
 20
97.5825039523
 10
151.3382567954
 20
97.595570408
 10
151.3297223881
 20
97.5999825487
  0
LWPOLYLINE
  5
2C7
330
1F
100
AcDbEntity
  8
0
  6
Continuous
 62
     7
370
    15
100
AcDbPolyline
 90
        9
 70
   128
 43
0.0
 10
152.4091932386
 20
105.3838937396
 10
152.4147038743
 20
105.3760240639
 10
152.4310236726
 20
105.3527167851
 10
152.4575258535
 20
105.3148678357
 10
152.4931915499
 20
105.2639319414
 10
152.5366505537
 20
105.2018658111
 10
152.586232305
 20
105.1310554931
 10
152.6400320161
 20
105.054222312
 10
152.6959814526
 20
104.9743176291
  0
LINE
  5
2C8
330
1F
100
AcDbEntity
  8
0
  6
Continuous
 62
     7
370
    15
100
AcDbLine
 10
152.6959814526
 20
104.9743176291
 30
0.0
 11
151.9312492036
 21
104.4388462642
 31
0.0
  0
LWPOLYLINE
  5
2C9
330
1F
100
AcDbEntity
  8
0
  6
Continuous
 62
     7
370
    15
100
AcDbPolyline
 90
        9
 70
   128
 43
0.0
 10
151.6444609896
 20
104.8484223748
 10
151.6499713924
 20
104.840552699
 10
151.6662914235
 20
104.8172454203
 10
151.6927933715
 20
104.7793964708
 10
151.7284593009
 20
104.7284605766
 10
151.7719180718
 20
104.6663944463
 10
151.8215000559
 20
104.5955841283
 10
151.8752995342
 20
104.5187509472
 10
151.9312492036
 20
104.4388462642
  0
ARC
  5
2CA
330
1F
100
AcDbEntity
  8
0
  6
Continuous
 62
     7
370
    15
100
AcDbCircle
 10
138.8933138399
 20
97.1407477056
 30
0.0
 40
0.4999999999999848
100
AcDbArc
 50
305.0
 51
27.3377443392
  0
LWPOLYLINE
  5
2CB
330
1F
100
AcDbEntity
  8
0
  6
Continuous
 62
     7
370
    15
100
AcDbPolyline
 90
        9
 70
   128
 43
0.0
 10
139.3374713533
 20
97.3703649679
 10
139.4241225369
 20
97.4151611181
 10
139.5074433111
 20
97.4582357185
 10
139.5842317887
 20
97.4979338089
 10
139.6515384712
 20
97.5327289516
 10
139.7067742817
 20
97.5612851644
 10
139.7478195302
 20
97.5825039523
 10
139.7730946936
 20
97.595570408
 10
139.7816284023
 20
97.5999825487
  0
LWPOLYLINE
  5
2CC
330
1F
100
AcDbEntity
  8
0
  6
Continuous
 62
     7
370
    15
100
AcDbPolyline
 90
        9
 70
   128
 43
0.0
 10
139.4668907322
 20
96.3215956317
 10
139.4613800965
 20
96.3294655403
 10
139.4450595997
 20
96.3527728191
 10
139.4185578846
 20
96.3906217685
 10
139.3828919552
 20
96.4415576628
 10
139.3394327186
 20
96.5036233274
 10
139.2898509674
 20
96.5744336454
 10
139.2360512562
 20
96.6512672922
 10
139.1801020526
 20
96.7311717423
  0
ARC
  5
2CD
330
1F
100
AcDbEntity
  8
0
  6
Continuous
 62
     7
370
    15
100
AcDbCircle
 10
145.5556755787
 20
100.5850090286
 30
0.0
 40
7.000000000000024
100
AcDbArc
 50
152.6622556608
 51
207.3377443392
  0
LWPOLYLINE
  5
2CE
330
1F
100
AcDbEntity
  8
0
  6
Continuous
 62
     7
370
    15
100
AcDbPolyline
 90
        9
 70
   128
 43
0.0
 10
139.3374713533
 20
103.7996525729
 10
139.4241225369
 20
103.7548568884
 10
139.5074433111
 20
103.711782288
 10
139.5842317887
 20
103.6720846633
 10
139.6515384712
 20
103.6372885892
 10
139.7067742817
 20
103.6087333078
 10
139.7478195302
 20
103.5875140542
 10
139.7730946936
 20
103.5744475985
 10
139.7816284023
 20
103.5700359235
  0
ARC
  5
2CF
330
1F
100
AcDbEntity
  8
0
  6
Continuous
 62
     7
370
    15
100
AcDbCircle
 10
137.8417932131
 20
104.1551657267
 30
0.0
 40
1.000000000000002
100
AcDbArc
 50
55.0
 51
155.1642486217
  0
LWPOLYLINE
  5
2D0
330
1F
100
AcDbEntity
  8
0
  6
Continuous
 62
     7
370
    15
100
AcDbPolyline
 90
        9
 70
   128
 43
0.0
 10
136.480519215
 20
104.7851930225
 10
136.489238257
 20
104.7811585332
 10
136.5150601067
 20
104.7692078019
 10
136.5569919743
 20
104.7498009021
 10
136.6134226717
 20
104.7236828918
 10
136.6821840801
 20
104.6918586681
 10
136.7606312432
 20
104.6555510575
 10
136.8457541265
 20
104.6161551813
 10
136.9342781998
 20
104.5751844386
  0
LWPOLYLINE
  5
2D1
330
1F
100
AcDbEntity
  8
0
  6
Continuous
 62
     7
370
    15
100
AcDbPolyline
 90
        9
 70
   128
 43
0.0
 10
138.4153698035
 20
104.9743176291
 10
138.4713199385
 20
105.054222312
 10
138.5251187183
 20
105.1310554931
 10
138.5747004695
 20
105.2018658111
 10
138.6181597062
 20
105.2639319414
 10
138.6538256355
 20
105.3148678357
 10
138.6803273507
 20
105.3527167851
 10
138.6966478475
 20
105.3760240639
 10
138.7021575518
 20
105.3838937396
  0
LWPOLYLINE
  5
2D2
330
1F
100
AcDbEntity
  8
0
  6
Continuous
 62
     7
370
    15
100
AcDbPolyline
 90
        9
 70
   128
 43
0.0
 10
138.7021575518
 20
95.7861242669
 10
138.6966478475
 20
95.7939941755
 10
138.6803273507
 20
95.8173014542
 10
138.6538256355
 20
95.8551501708
 10
138.6181597062
 20
95.9060862979
 10
138.5747004695
 20
95.9681519626
 10
138.5251187183
 20
96.0389622806
 10
138.4713199385
 20
96.1157959273
 10
138.4153698035
 20
96.1957003774
  0
LINE
  5
2D3
330
1F
100
AcDbEntity
  8
0
  6
Continuous
 62
     7
370
    15
100
AcDbLine
 10
138.4153698035
 20
96.1957003774
 30
0.0
 11
139.1801020526
 21
96.7311717423
 31
0.0
  0
LWPOLYLINE
  5
2D4
330
1F
100
AcDbEntity
  8
0
  6
Continuous
 62
     7
370
    15
100
AcDbPolyline
 90
        9
 70
   128
 43
0.0
 10
154.6308313026
 20
96.3848247512
 10
154.6221124744
 20
96.388859939
 10
154.5962910485
 20
96.4008106703
 10
154.5543593291
 20
96.4202175701
 10
154.4979287226
 20
96.4463348819
 10
154.4291678309
 20
96.4781591056
 10
154.3507191107
 20
96.514466949
 10
154.2655972752
 20
96.5538630581
 10
154.1770735219
 20
96.5948338008
  0
ARC
  5
2D5
330
1F
100
AcDbEntity
  8
0
  6
Continuous
 62
     7
370
    15
100
AcDbCircle
 10
145.5556755787
 20
100.5850090286
 30
0.0
 40
9.500000000000009
100
AcDbArc
 50
335.1642486217
 51
24.8357513783
  0
LWPOLYLINE
  5
2D6
330
1F
100
AcDbEntity
  8
0
  6
Continuous
 62
     7
370
    15
100
AcDbPolyline
 90
        9
 70
   128
 43
0.0
 10
154.6308313026
 20
104.7851930225
 10
154.6221124744
 20
104.7811585332
 10
154.5962910485
 20
104.7692078019
 10
154.5543593291
 20
104.7498009021
 10
154.4979287226
 20
104.7236828918
 10
154.4291678309
 20
104.6918586681
 10
154.3507191107
 20
104.6555510575
 10
154.2655972752
 20
104.6161551813
 10
154.1770735219
 20
104.5751844386
  0
ARC
  5
2D7
330
1F
100
AcDbEntity
  8
0
  6
Continuous
 62
     7
370
    15
100
AcDbCircle
 10
153.2695579443
 20
97.0148523305
 30
0.0
 40
1.000000000000009
100
AcDbArc
 50
235.0
 51
335.1642486217
  0
LWPOLYLINE
  5
2D8
330
1F
100
AcDbEntity
  8
0
  6
Continuous
 62
     7
370
    15
100
AcDbPolyline
 90
        9
 70
   128
 43
0.0
 10
152.6959814526
 20
96.1957003774
 10
152.6400320161
 20
96.1157959273
 10
152.586232305
 20
96.0389622806
 10
152.5366505537
 20
95.9681519626
 10
152.4931915499
 20
95.9060862979
 10
152.4575258535
 20
95.8551501708
 10
152.4310236726
 20
95.8173014542
 10
152.4147038743
 20
95.7939941755
 10
152.4091932386
 20
95.7861242669
  0
ARC
  5
2D9
330
1F
100
AcDbEntity
  8
0
  6
Continuous
 62
     7
370
    15
100
AcDbCircle
 10
145.5556755787
 20
100.5850090286
 30
0.0
 40
7.000000000000019
100
AcDbArc
 50
332.6622556608
 51
27.3377443392
  0
LWPOLYLINE
  5
2DA
330
1F
100
AcDbEntity
  8
0
  6
Continuous
 62
     7
370
    15
100
AcDbPolyline
 90
        9
 70
   128
 43
0.0
 10
151.7738799028
 20
103.7996525729
 10
151.687228952
 20
103.7548568884
 10
151.6039081779
 20
103.711782288
 10
151.5271192346
 20
103.6720846633
 10
151.4598130178
 20
103.6372885892
 10
151.4045765087
 20
103.6087333078
 10
151.3635319587
 20
103.5875140542
 10
151.3382567954
 20
103.5744475985
 10
151.3297223881
 20
103.5700359235
  0
ARC
  5
2DB
330
1F
100
AcDbEntity
  8
0
  6
Continuous
 62
     7
370
    15
100
AcDbCircle
 10
153.2695579443
 20
104.1551657267
 30
0.0
 40
1.000000000000002
100
AcDbArc
 50
24.8357513783
 51
125.0
  0
LINE
  5
2DC
330
1F
100
AcDbEntity
  8
0
  6
Continuous
 62
     7
370
    15
100
AcDbLine
 10
151.9312492036
 20
96.7311717423
 30
0.0
 11
152.6959814526
 21
96.1957003774
 31
0.0
  0
ARC
  5
2DD
330
1F
100
AcDbEntity
  8
0
  6
Continuous
 62
     7
370
    15
100
AcDbCircle
 10
138.8933138399
 20
104.0292703516
 30
0.0
 40
0.5000000000000011
100
AcDbArc
 50
332.6622556608
 51
55.0
  0
LWPOLYLINE
  5
2DE
330
1F
100
AcDbEntity
  8
0
  6
Continuous
 62
     7
370
    15
100
AcDbPolyline
 90
        9
 70
   128
 43
0.0
 10
139.1801020526
 20
104.4388462642
 10
139.2360512562
 20
104.5187509472
 10
139.2898509674
 20
104.5955841283
 10
139.3394327186
 20
104.6663944463
 10
139.3828919552
 20
104.7284605766
 10
139.4185578846
 20
104.7793964708
 10
139.4450595997
 20
104.8172454203
 10
139.4613800965
 20
104.840552699
 10
139.4668907322
 20
104.8484223748
  0
ARC
  5
2DF
330
1F
100
AcDbEntity
  8
0
  6
Continuous
 62
     7
370
    15
100
AcDbCircle
 10
152.2180373175
 20
104.0292703516
 30
0.0
 40
0.5000000000000011
100
AcDbArc
 50
125.0
 51
207.3377443392
  0
LWPOLYLINE
  5
2E0
330
1F
100
AcDbEntity
  8
0
  6
Continuous
 62
     7
370
    15
100
AcDbPolyline
 90
        9
 70
   128
 43
0.0
 10
136.480519215
 20
96.3848247512
 10
136.489238257
 20
96.388859939
 10
136.5150601067
 20
96.4008106703
 10
136.5569919743
 20
96.4202175701
 10
136.6134226717
 20
96.4463348819
 10
136.6821840801
 20
96.4781591056
 10
136.7606312432
 20
96.514466949
 10
136.8457541265
 20
96.5538630581
 10
136.9342781998
 20
96.5948338008
  0
ARC
  5
2E1
330
1F
100
AcDbEntity
  8
0
  6
Continuous
 62
     7
370
    15
100
AcDbCircle
 10
137.8417932131
 20
97.0148523305
 30
0.0
 40
1.000000000000028
100
AcDbArc
 50
204.8357513783
 51
305.0
  0
LINE
  5
2E2
330
1F
100
AcDbEntity
  8
0
  6
Continuous
 62
     7
370
    15
100
AcDbLine
 10
139.1801020526
 20
104.4388462642
 30
0.0
 11
138.4153698035
 21
104.9743176291
 31
0.0
  0
ARC
  5
2E3
330
1F
100
AcDbEntity
  8
0
  6
Continuous
 62
     7
370
    15
100
AcDbCircle
 10
145.5556755787
 20
100.5850090286
 30
0.0
 40
9.500000000000012
100
AcDbArc
 50
155.1642486217
 51
204.8357513783
  0
ARC
  5
2E4
330
1F
100
AcDbEntity
  8
0
  6
Continuous
 62
     7
370
    15
100
AcDbCircle
 10
148.3696682526
 20
112.5850090286
 30
0.0
 40
2.0
100
AcDbArc
 50
270.0
 51
321.3178125465
  0
ARC
  5
2E5
330
1F
100
AcDbEntity
  8
0
  6
Continuous
 62
     7
370
    15
100
AcDbCircle
 10
151.4921672518
 20
110.0850090286
 30
0.0
 40
2.0
100
AcDbArc
 50
90.0
 51
141.3178125465
  0
LINE
  5
2E6
330
1F
100
AcDbEntity
  8
0
  6
Continuous
 62
     7
370
    15
100
AcDbLine
 10
154.8056755726
 20
112.0850092584
 30
0.0
 11
151.492167164
 21
112.0850092584
 31
0.0
  0
LINE
  5
2E7
330
1F
100
AcDbEntity
  8
0
  6
Continuous
 62
     7
370
    15
100
AcDbLine
 10
148.3140184008
 20
110.5850099439
 30
0.0
 11
148.3696681842
 21
110.5850099439
 31
0.0
  0
ARC
  5
2E8
330
1F
100
AcDbEntity
  8
0
  6
Continuous
 62
     7
370
    15
100
AcDbCircle
 10
151.4921672518
 20
91.0850090286
 30
0.0
 40
2.000000000000014
100
AcDbArc
 50
218.6821874535
 51
270.0
  0
LINE
  5
2E9
330
1F
100
AcDbEntity
  8
0
  6
Continuous
 62
     7
370
    15
100
AcDbLine
 10
151.492167164
 20
89.0850092137
 30
0.0
 11
153.991351095
 21
89.0850092137
 31
0.0
  0
ARC
  5
2EA
330
1F
100
AcDbEntity
  8
0
  6
Continuous
 62
     7
370
    15
100
AcDbCircle
 10
153.9913510967
 20
92.0850090286
 30
0.0
 40
3.0
100
AcDbArc
 50
270.0
 51
359.845992817
  0
ARC
  5
2EB
330
1F
100
AcDbEntity
  8
0
  6
Continuous
 62
     7
370
    15
100
AcDbCircle
 10
159.9913294218
 20
92.0688814535
 30
0.0
 40
2.999999999999995
100
AcDbArc
 50
146.900066766
 51
179.845992817
  0
ARC
  5
2EC
330
1F
100
AcDbEntity
  8
0
  6
Continuous
 62
     7
370
    15
100
AcDbCircle
 10
148.3696682526
 20
88.5850090286
 30
0.0
 40
2.000000000000014
100
AcDbArc
 50
38.6821874535
 51
90.0
  0
LINE
  5
2ED
330
1F
100
AcDbEntity
  8
0
  6
Continuous
 62
     7
370
    15
100
AcDbLine
 10
157.4781713005
 20
93.7071843974
 30
0.0
 11
157.7771810279
 21
94.0850089856
 31
0.0
  0
ARC
  5
2EE
330
1F
100
AcDbEntity
  8
0
  6
Continuous
 62
     7
370
    15
100
AcDbCircle
 10
142.7416829048
 20
112.5850090286
 30
0.0
 40
2.0
100
AcDbArc
 50
218.6821874535
 51
270.0
  0
ARC
  5
2EF
330
1F
100
AcDbEntity
  8
0
  6
Continuous
 62
     7
370
    15
100
AcDbCircle
 10
139.6191839056
 20
110.0850090286
 30
0.0
 40
2.0
100
AcDbArc
 50
38.6821874535
 51
90.0
  0
LINE
  5
2F0
330
1F
100
AcDbEntity
  8
0
  6
Continuous
 62
     7
370
    15
100
AcDbLine
 10
139.6191843249
 20
112.0850092584
 30
0.0
 11
136.3056764402
 21
112.0850092584
 31
0.0
  0
LINE
  5
2F1
330
1F
100
AcDbEntity
  8
0
  6
Continuous
 62
     7
370
    15
100
AcDbLine
 10
142.7416826062
 20
110.5850099439
 30
0.0
 11
142.7973328553
 21
110.5850099439
 31
0.0
  0
ARC
  5
2F2
330
1F
100
AcDbEntity
  8
0
  6
Continuous
 62
     7
370
    15
100
AcDbCircle
 10
139.6191839056
 20
91.0850090286
 30
0.0
 40
2.000000000000014
100
AcDbArc
 50
270.0
 51
321.3178125465
  0
ARC
  5
2F3
330
1F
100
AcDbEntity
  8
0
  6
Continuous
 62
     7
370
    15
100
AcDbCircle
 10
131.1200217356
 20
92.0688814535
 30
0.0
 40
2.999999999999989
100
AcDbArc
 50
0.154007183
 51
33.099933234
  0
ARC
  5
2F4
330
1F
100
AcDbEntity
  8
0
  6
Continuous
 62
     7
370
    15
100
AcDbCircle
 10
142.7416829048
 20
88.5850090286
 30
0.0
 40
2.000000000000014
100
AcDbArc
 50
90.0
 51
141.3178125465
  0
ARC
  5
2F5
330
1F
100
AcDbEntity
  8
0
  6
Continuous
 62
     7
370
    15
100
AcDbCircle
 10
137.1200000607
 20
92.0850090286
 30
0.0
 40
3.000000000000017
100
AcDbArc
 50
180.154007183
 51
270.0
  0
LINE
  5
2F6
330
1F
100
AcDbEntity
  8
0
  6
Continuous
 62
     7
370
    15
100
AcDbLine
 10
137.120000685
 20
89.0850092137
 30
0.0
 11
139.6191843249
 21
89.0850092137
 31
0.0
  0
LINE
  5
2F7
330
1F
100
AcDbEntity
  8
0
  6
Continuous
 62
     7
370
    15
100
AcDbLine
 10
133.6331792571
 20
93.7071843974
 30
0.0
 11
133.3341706939
 21
94.0850089856
 31
0.0
  0
CIRCLE
  5
2F8
330
1F
100
AcDbEntity
  8
0
  6
Continuous
 62
     7
370
    15
100
AcDbCircle
 10
139.0556755787
 20
109.8350090286
 30
0.0
 40
1.432283538938767
  0
CIRCLE
  5
2F9
330
1F
100
AcDbEntity
  8
0
  6
Continuous
 62
     7
370
    15
100
AcDbCircle
 10
139.0556755787
 20
109.8350090286
 30
0.0
 40
1.135684019913859
  0
LINE
  5
2FA
330
1F
100
AcDbEntity
  8
0
  6
Continuous
 62
     7
370
    15
100
AcDbLine
 10
138.9795091398
 20
110.6976776237
 30
0.0
 11
139.7646857821
 21
110.3323067392
 31
0.0
  0
LINE
  5
2FB
330
1F
100
AcDbEntity
  8
0
  6
Continuous
 62
     7
370
    15
100
AcDbLine
 10
138.2704988517
 20
110.2003811712
 30
0.0
 11
138.9795091398
 21
110.6976776237
 31
0.0
  0
LINE
  5
2FC
330
1F
100
AcDbEntity
  8
0
  6
Continuous
 62
     7
370
    15
100
AcDbLine
 10
138.3466661372
 20
109.3377119715
 30
0.0
 11
138.2704988517
 21
110.2003811712
 31
0.0
  0
LINE
  5
2FD
330
1F
100
AcDbEntity
  8
0
  6
Continuous
 62
     7
370
    15
100
AcDbLine
 10
139.1318427794
 20
108.9723392243
 30
0.0
 11
138.3466661372
 21
109.3377119715
 31
0.0
  0
LINE
  5
2FE
330
1F
100
AcDbEntity
  8
0
  6
Continuous
 62
     7
370
    15
100
AcDbLine
 10
139.8408530675
 20
109.4696375394
 30
0.0
 11
139.1318427794
 21
108.9723392243
 31
0.0
  0
LINE
  5
2FF
330
1F
100
AcDbEntity
  8
0
  6
Continuous
 62
     7
370
    15
100
AcDbLine
 10
139.7646857821
 20
110.3323067392
 30
0.0
 11
139.8408530675
 21
109.4696375394
 31
0.0
  0
CIRCLE
  5
300
330
1F
100
AcDbEntity
  8
0
  6
Continuous
 62
     7
370
    15
100
AcDbCircle
 10
139.0556755787
 20
109.8350090286
 30
0.0
 40
1.843199038049838
  0
CIRCLE
  5
301
330
1F
100
AcDbEntity
  8
0
  6
Continuous
 62
     7
370
    15
100
AcDbCircle
 10
139.0556755787
 20
109.8350090286
 30
0.0
 40
2.250000000000018
  0
ARC
  5
302
330
1F
100
AcDbEntity
  8
0
  6
Continuous
 62
     7
370
    15
100
AcDbCircle
 10
139.0556755787
 20
109.8350090286
 30
0.0
 40
0.7500000000000023
100
AcDbArc
 50
5.0457004739
 51
65.0457004739
  0
ARC
  5
303
330
1F
100
AcDbEntity
  8
0
  6
Continuous
 62
     7
370
    15
100
AcDbCircle
 10
139.0556755787
 20
109.8350090286
 30
0.0
 40
0.7500000000000023
100
AcDbArc
 50
65.0457004739
 51
125.0457004739
  0
ARC
  5
304
330
1F
100
AcDbEntity
  8
0
  6
Continuous
 62
     7
370
    15
100
AcDbCircle
 10
139.0556755787
 20
109.8350090286
 30
0.0
 40
0.7500000000000023
100
AcDbArc
 50
245.0457004739
 51
305.0457004739
  0
ARC
  5
305
330
1F
100
AcDbEntity
  8
0
  6
Continuous
 62
     7
370
    15
100
AcDbCircle
 10
139.0556755787
 20
109.8350090286
 30
0.0
 40
0.7499999999999966
100
AcDbArc
 50
305.0457004739
 51
5.0457004739
  0
ARC
  5
306
330
1F
100
AcDbEntity
  8
0
  6
Continuous
 62
     7
370
    15
100
AcDbCircle
 10
139.0556755787
 20
109.8350090286
 30
0.0
 40
0.7500000000000023
100
AcDbArc
 50
185.0457004739
 51
245.0457004739
  0
ARC
  5
307
330
1F
100
AcDbEntity
  8
0
  6
Continuous
 62
     7
370
    15
100
AcDbCircle
 10
139.0556755787
 20
109.8350090286
 30
0.0
 40
0.7499999999999997
100
AcDbArc
 50
125.0457004739
 51
185.0457004739
  0
CIRCLE
  5
308
330
1F
100
AcDbEntity
  8
0
  6
Continuous
 62
     7
370
    15
100
AcDbCircle
 10
152.0556755787
 20
91.3350090286
 30
0.0
 40
1.432283538938794
  0
CIRCLE
  5
309
330
1F
100
AcDbEntity
  8
0
  6
Continuous
 62
     7
370
    15
100
AcDbCircle
 10
152.0556755787
 20
91.3350090286
 30
0.0
 40
1.13568401991386
  0
LINE
  5
30A
330
1F
100
AcDbEntity
  8
0
  6
Continuous
 62
     7
370
    15
100
AcDbLine
 10
152.1318428148
 20
90.4723396844
 30
0.0
 11
151.346665474
 21
90.8377115002
 31
0.0
  0
LINE
  5
30B
330
1F
100
AcDbEntity
  8
0
  6
Continuous
 62
     7
370
    15
100
AcDbLine
 10
152.8408528701
 20
90.9696370682
 30
0.0
 11
152.1318428148
 21
90.4723396844
 31
0.0
  0
LINE
  5
30C
330
1F
100
AcDbEntity
  8
0
  6
Continuous
 62
     7
370
    15
100
AcDbLine
 10
152.7646855846
 20
91.8323065007
 30
0.0
 11
152.8408528701
 21
90.9696370682
 31
0.0
  0
LINE
  5
30D
330
1F
100
AcDbEntity
  8
0
  6
Continuous
 62
     7
370
    15
100
AcDbLine
 10
151.2704984214
 20
91.7003810492
 30
0.0
 11
151.9795084767
 21
92.1976784912
 31
0.0
  0
LINE
  5
30E
330
1F
100
AcDbEntity
  8
0
  6
Continuous
 62
     7
370
    15
100
AcDbLine
 10
151.9795084767
 20
92.1976784912
 30
0.0
 11
152.7646855846
 21
91.8323065007
 31
0.0
  0
LINE
  5
30F
330
1F
100
AcDbEntity
  8
0
  6
Continuous
 62
     7
370
    15
100
AcDbLine
 10
151.346665474
 20
90.8377115002
 30
0.0
 11
151.2704984214
 21
91.7003810492
 31
0.0
  0
CIRCLE
  5
310
330
1F
100
AcDbEntity
  8
0
  6
Continuous
 62
     7
370
    15
100
AcDbCircle
 10
152.0556755787
 20
91.3350090286
 30
0.0
 40
1.84319903804984
  0
CIRCLE
  5
311
330
1F
100
AcDbEntity
  8
0
  6
Continuous
 62
     7
370
    15
100
AcDbCircle
 10
152.0556755787
 20
91.3350090286
 30
0.0
 40
2.249999999999988
  0
ARC
  5
312
330
1F
100
AcDbEntity
  8
0
  6
Continuous
 62
     7
370
    15
100
AcDbCircle
 10
152.0556755787
 20
91.3350090286
 30
0.0
 40
0.749999999999988
100
AcDbArc
 50
125.0457004739
 51
185.0457004739
  0
ARC
  5
313
330
1F
100
AcDbEntity
  8
0
  6
Continuous
 62
     7
370
    15
100
AcDbCircle
 10
152.0556755787
 20
91.3350090286
 30
0.0
 40
0.7499999999999895
100
AcDbArc
 50
65.0457004739
 51
125.0457004739
  0
ARC
  5
314
330
1F
100
AcDbEntity
  8
0
  6
Continuous
 62
     7
370
    15
100
AcDbCircle
 10
152.0556755787
 20
91.3350090286
 30
0.0
 40
0.7500000000000275
100
AcDbArc
 50
245.0457004739
 51
305.0457004739
  0
ARC
  5
315
330
1F
100
AcDbEntity
  8
0
  6
Continuous
 62
     7
370
    15
100
AcDbCircle
 10
152.0556755787
 20
91.3350090286
 30
0.0
 40
0.7500000000000275
100
AcDbArc
 50
305.0457004739
 51
5.0457004739
  0
ARC
  5
316
330
1F
100
AcDbEntity
  8
0
  6
Continuous
 62
     7
370
    15
100
AcDbCircle
 10
152.0556755787
 20
91.3350090286
 30
0.0
 40
0.7500000000000032
100
AcDbArc
 50
185.0457004739
 51
245.0457004739
  0
ARC
  5
317
330
1F
100
AcDbEntity
  8
0
  6
Continuous
 62
     7
370
    15
100
AcDbCircle
 10
152.0556755787
 20
91.3350090286
 30
0.0
 40
0.7499999999999952
100
AcDbArc
 50
5.0457004739
 51
65.0457004739
  0
LINE
  5
318
330
1F
100
AcDbEntity
  8
0
  6
Continuous
 62
     7
370
    15
100
AcDbLine
 10
151.2704984214
 20
110.2003811712
 30
0.0
 11
151.9795084767
 21
110.6976776237
 31
0.0
  0
LINE
  5
319
330
1F
100
AcDbEntity
  8
0
  6
Continuous
 62
     7
370
    15
100
AcDbLine
 10
151.346665474
 20
109.3377119715
 30
0.0
 11
151.2704984214
 21
110.2003811712
 31
0.0
  0
LINE
  5
31A
330
1F
100
AcDbEntity
  8
0
  6
Continuous
 62
     7
370
    15
100
AcDbLine
 10
152.1318428148
 20
108.9723392243
 30
0.0
 11
151.346665474
 21
109.3377119715
 31
0.0
  0
LINE
  5
31B
330
1F
100
AcDbEntity
  8
0
  6
Continuous
 62
     7
370
    15
100
AcDbLine
 10
152.8408528701
 20
109.4696375394
 30
0.0
 11
152.1318428148
 21
108.9723392243
 31
0.0
  0
LINE
  5
31C
330
1F
100
AcDbEntity
  8
0
  6
Continuous
 62
     7
370
    15
100
AcDbLine
 10
152.7646855846
 20
110.3323067392
 30
0.0
 11
152.8408528701
 21
109.4696375394
 31
0.0
  0
LINE
  5
31D
330
1F
100
AcDbEntity
  8
0
  6
Continuous
 62
     7
370
    15
100
AcDbLine
 10
151.9795084767
 20
110.6976776237
 30
0.0
 11
152.7646855846
 21
110.3323067392
 31
0.0
  0
CIRCLE
  5
31E
330
1F
100
AcDbEntity
  8
0
  6
Continuous
 62
     7
370
    15
100
AcDbCircle
 10
152.0556755787
 20
109.8350090286
 30
0.0
 40
1.135684019913859
  0
CIRCLE
  5
31F
330
1F
100
AcDbEntity
  8
0
  6
Continuous
 62
     7
370
    15
100
AcDbCircle
 10
152.0556755787
 20
109.8350090286
 30
0.0
 40
1.432283538938795
  0
CIRCLE
  5
320
330
1F
100
AcDbEntity
  8
0
  6
Continuous
 62
     7
370
    15
100
AcDbCircle
 10
152.0556755787
 20
109.8350090286
 30
0.0
 40
1.843199038049838
  0
CIRCLE
  5
321
330
1F
100
AcDbEntity
  8
0
  6
Continuous
 62
     7
370
    15
100
AcDbCircle
 10
152.0556755787
 20
109.8350090286
 30
0.0
 40
2.24999999999999
  0
ARC
  5
322
330
1F
100
AcDbEntity
  8
0
  6
Continuous
 62
     7
370
    15
100
AcDbCircle
 10
152.0556755787
 20
109.8350090286
 30
0.0
 40
0.7500000000000159
100
AcDbArc
 50
125.0457004739
 51
185.0457004739
  0
ARC
  5
323
330
1F
100
AcDbEntity
  8
0
  6
Continuous
 62
     7
370
    15
100
AcDbCircle
 10
152.0556755787
 20
109.8350090286
 30
0.0
 40
0.7500000000000043
100
AcDbArc
 50
305.0457004739
 51
5.0457004739
  0
ARC
  5
324
330
1F
100
AcDbEntity
  8
0
  6
Continuous
 62
     7
370
    15
100
AcDbCircle
 10
152.0556755787
 20
109.8350090286
 30
0.0
 40
0.7500000000000043
100
AcDbArc
 50
245.0457004739
 51
305.0457004739
  0
ARC
  5
325
330
1F
100
AcDbEntity
  8
0
  6
Continuous
 62
     7
370
    15
100
AcDbCircle
 10
152.0556755787
 20
109.8350090286
 30
0.0
 40
0.7499999999999903
100
AcDbArc
 50
185.0457004739
 51
245.0457004739
  0
ARC
  5
326
330
1F
100
AcDbEntity
  8
0
  6
Continuous
 62
     7
370
    15
100
AcDbCircle
 10
152.0556755787
 20
109.8350090286
 30
0.0
 40
0.7500000000000159
100
AcDbArc
 50
65.0457004739
 51
125.0457004739
  0
ARC
  5
327
330
1F
100
AcDbEntity
  8
0
  6
Continuous
 62
     7
370
    15
100
AcDbCircle
 10
152.0556755787
 20
109.8350090286
 30
0.0
 40
0.7500000000000023
100
AcDbArc
 50
5.0457004739
 51
65.0457004739
  0
LINE
  5
328
330
1F
100
AcDbEntity
  8
0
  6
Continuous
 62
     7
370
    15
100
AcDbLine
 10
130.5556759633
 20
96.7051661892
 30
0.0
 11
128.0556764849
 21
96.7051661892
 31
0.0
  0
LINE
  5
329
330
1F
100
AcDbEntity
  8
0
  6
Continuous
 62
     7
370
    15
100
AcDbLine
 10
128.0556764849
 20
96.7051661892
 30
0.0
 11
128.0556764849
 21
99.6510640571
 31
0.0
  0
LINE
  5
32A
330
1F
100
AcDbEntity
  8
0
  6
Continuous
 62
     7
370
    15
100
AcDbLine
 10
130.5556759633
 20
99.6510640571
 30
0.0
 11
128.0556764849
 21
99.6510640571
 31
0.0
  0
LINE
  5
32B
330
1F
100
AcDbEntity
  8
0
  6
Continuous
 62
     7
370
    15
100
AcDbLine
 10
130.5556759633
 20
96.7051661892
 30
0.0
 11
130.5556759633
 21
96.7793220507
 31
0.0
  0
LINE
  5
32C
330
1F
100
AcDbEntity
  8
0
  6
Continuous
 62
     7
370
    15
100
AcDbLine
 10
130.5556759633
 20
99.5769084284
 30
0.0
 11
130.5556759633
 21
99.6510640571
 31
0.0
  0
LINE
  5
32D
330
1F
100
AcDbEntity
  8
0
  6
Continuous
 62
     7
370
    15
100
AcDbLine
 10
128.0556764849
 20
99.6510640571
 30
0.0
 11
128.0556764849
 21
103.5309073368
 31
0.0
  0
LINE
  5
32E
330
1F
100
AcDbEntity
  8
0
  6
Continuous
 62
     7
370
    15
100
AcDbLine
 10
128.0556764849
 20
103.5309073368
 30
0.0
 11
130.5556759633
 21
103.5309073368
 31
0.0
  0
LINE
  5
32F
330
1F
100
AcDbEntity
  8
0
  6
Continuous
 62
     7
370
    15
100
AcDbLine
 10
130.5556759633
 20
99.6510640571
 30
0.0
 11
130.5556759633
 21
99.7487299929
 31
0.0
  0
LINE
  5
330
330
1F
100
AcDbEntity
  8
0
  6
Continuous
 62
     7
370
    15
100
AcDbLine
 10
130.5556759633
 20
103.4332414011
 30
0.0
 11
130.5556759633
 21
103.5309073368
 31
0.0
  0
LINE
  5
331
330
1F
100
AcDbEntity
  8
0
  6
Continuous
 62
     7
370
    15
100
AcDbLine
 10
130.5556759633
 20
104.4648515845
 30
0.0
 11
128.0556764849
 21
104.4648515845
 31
0.0
  0
LINE
  5
332
330
1F
100
AcDbEntity
  8
0
  6
Continuous
 62
     7
370
    15
100
AcDbLine
 10
128.0556764849
 20
103.5309073368
 30
0.0
 11
128.0556764849
 21
104.4648515845
 31
0.0
  0
LINE
  5
333
330
1F
100
AcDbEntity
  8
0
  6
Continuous
 62
     7
370
    15
100
AcDbLine
 10
130.5556759633
 20
103.5309073368
 30
0.0
 11
130.5556759633
 21
103.5544167126
 31
0.0
  0
LINE
  5
334
330
1F
100
AcDbEntity
  8
0
  6
Continuous
 62
     7
370
    15
100
AcDbLine
 10
126.055676157
 20
100.181452729
 30
0.0
 11
126.055676157
 21
102.3350090573
 31
0.0
  0
LINE
  5
335
330
1F
100
AcDbEntity
  8
0
  6
Continuous
 62
     7
370
    15
100
AcDbLine
 10
126.055676157
 20
98.8350089492
 30
0.0
 11
126.055676157
 21
100.181452729
 31
0.0
  0
LINE
  5
336
330
1F
100
AcDbEntity
  8
0
  6
Continuous
 62
     7
370
    15
100
AcDbLine
 10
123.5556748159
 20
100.181452729
 30
0.0
 11
123.5556748159
 21
102.3350090573
 31
0.0
  0
LINE
  5
337
330
1F
100
AcDbEntity
  8
0
  6
Continuous
 62
     7
370
    15
100
AcDbLine
 10
123.5556748159
 20
98.8350089492
 30
0.0
 11
123.5556748159
 21
100.181452729
 31
0.0
  0
LINE
  5
338
330
1F
100
AcDbEntity
  8
0
  6
Continuous
 62
     7
370
    15
100
AcDbLine
 10
121.0556772001
 20
102.044580769
 30
0.0
 11
121.0556772001
 21
102.085009482
 31
0.0
  0
LINE
  5
339
330
1F
100
AcDbEntity
  8
0
  6
Continuous
 62
     7
370
    15
100
AcDbLine
 10
121.0556772001
 20
99.0850089902
 30
0.0
 11
121.0556772001
 21
102.044580769
 31
0.0
  0
LINE
  5
33A
330
1F
100
AcDbEntity
  8
0
  6
Continuous
 62
     7
370
    15
100
AcDbLine
 10
130.5556759633
 20
100.5850092361
 30
0.0
 11
130.5556759633
 21
103.4332414011
 31
0.0
  0
LINE
  5
33B
330
1F
100
AcDbEntity
  8
0
  6
Continuous
 62
     7
370
    15
100
AcDbLine
 10
130.5556759633
 20
103.5544167126
 30
0.0
 11
130.5556759633
 21
104.5850089604
 31
0.0
  0
LINE
  5
33C
330
1F
100
AcDbEntity
  8
0
  6
Continuous
 62
     7
370
    15
100
AcDbLine
 10
130.5556759633
 20
96.5850090461
 30
0.0
 11
130.5556759633
 21
96.7051661892
 31
0.0
  0
LINE
  5
33D
330
1F
100
AcDbEntity
  8
0
  6
Continuous
 62
     7
370
    15
100
AcDbLine
 10
130.5556759633
 20
96.7793220507
 30
0.0
 11
130.5556759633
 21
99.5769084284
 31
0.0
  0
LINE
  5
33E
330
1F
100
AcDbEntity
  8
0
  6
Continuous
 62
     7
370
    15
100
AcDbLine
 10
130.5556759633
 20
99.7487299929
 30
0.0
 11
130.5556759633
 21
100.5850092361
 31
0.0
  0
LINE
  5
33F
330
1F
100
AcDbEntity
  8
0
  6
Continuous
 62
     7
370
    15
100
AcDbLine
 10
160.5556757584
 20
97.4743145371
 30
0.0
 11
163.0556757026
 21
97.4743145371
 31
0.0
  0
LINE
  5
340
330
1F
100
AcDbEntity
  8
0
  6
Continuous
 62
     7
370
    15
100
AcDbLine
 10
160.5556757584
 20
101.2756715382
 30
0.0
 11
160.5556757584
 21
101.1799818689
 31
0.0
  0
LINE
  5
341
330
1F
100
AcDbEntity
  8
0
  6
Continuous
 62
     7
370
    15
100
AcDbLine
 10
160.5556757584
 20
97.570004672
 30
0.0
 11
160.5556757584
 21
97.4743145371
 31
0.0
  0
LINE
  5
342
330
1F
100
AcDbEntity
  8
0
  6
Continuous
 62
     7
370
    15
100
AcDbLine
 10
163.0556757026
 20
101.2756715382
 30
0.0
 11
160.5556757584
 21
101.2756715382
 31
0.0
  0
LINE
  5
343
330
1F
100
AcDbEntity
  8
0
  6
Continuous
 62
     7
370
    15
100
AcDbLine
 10
163.0556757026
 20
101.2756715382
 30
0.0
 11
163.0556757026
 21
97.4743145371
 31
0.0
  0
LINE
  5
344
330
1F
100
AcDbEntity
  8
0
  6
Continuous
 62
     7
370
    15
100
AcDbLine
 10
160.5556757584
 20
104.3863662372
 30
0.0
 11
160.5556757584
 21
104.3080615664
 31
0.0
  0
LINE
  5
345
330
1F
100
AcDbEntity
  8
0
  6
Continuous
 62
     7
370
    15
100
AcDbLine
 10
160.5556757584
 20
101.3539762089
 30
0.0
 11
160.5556757584
 21
101.2756715382
 31
0.0
  0
LINE
  5
346
330
1F
100
AcDbEntity
  8
0
  6
Continuous
 62
     7
370
    15
100
AcDbLine
 10
160.5556757584
 20
104.3863662372
 30
0.0
 11
163.0556757026
 21
104.3863662372
 31
0.0
  0
LINE
  5
347
330
1F
100
AcDbEntity
  8
0
  6
Continuous
 62
     7
370
    15
100
AcDbLine
 10
163.0556757026
 20
104.3863662372
 30
0.0
 11
163.0556757026
 21
101.2756715382
 31
0.0
  0
LINE
  5
348
330
1F
100
AcDbEntity
  8
0
  6
Continuous
 62
     7
370
    15
100
AcDbLine
 10
160.5556757584
 20
96.7836520022
 30
0.0
 11
163.0556757026
 21
96.7836520022
 31
0.0
  0
LINE
  5
349
330
1F
100
AcDbEntity
  8
0
  6
Continuous
 62
     7
370
    15
100
AcDbLine
 10
163.0556757026
 20
97.4743145371
 30
0.0
 11
163.0556757026
 21
96.7836520022
 31
0.0
  0
LINE
  5
34A
330
1F
100
AcDbEntity
  8
0
  6
Continuous
 62
     7
370
    15
100
AcDbLine
 10
160.5556757584
 20
97.4743145371
 30
0.0
 11
160.5556757584
 21
97.4569290729
 31
0.0
  0
LINE
  5
34B
330
1F
100
AcDbEntity
  8
0
  6
Continuous
 62
     7
370
    15
100
AcDbLine
 10
160.5556757584
 20
100.5850092361
 30
0.0
 11
160.5556757584
 21
101.1799818689
 31
0.0
  0
LINE
  5
34C
330
1F
100
AcDbEntity
  8
0
  6
Continuous
 62
     7
370
    15
100
AcDbLine
 10
160.5556757584
 20
101.3539762089
 30
0.0
 11
160.5556757584
 21
104.3080615664
 31
0.0
  0
LINE
  5
34D
330
1F
100
AcDbEntity
  8
0
  6
Continuous
 62
     7
370
    15
100
AcDbLine
 10
160.5556757584
 20
104.3863662372
 30
0.0
 11
160.5556757584
 21
104.5850089604
 31
0.0
  0
LINE
  5
34E
330
1F
100
AcDbEntity
  8
0
  6
Continuous
 62
     7
370
    15
100
AcDbLine
 10
160.5556757584
 20
96.5850090461
 30
0.0
 11
160.5556757584
 21
97.4569290729
 31
0.0
  0
LINE
  5
34F
330
1F
100
AcDbEntity
  8
0
  6
Continuous
 62
     7
370
    15
100
AcDbLine
 10
160.5556757584
 20
97.570004672
 30
0.0
 11
160.5556757584
 21
100.5850092361
 31
0.0
  0
DIMENSION
  5
350
330
1F
100
AcDbEntity
  8
0
  6
Continuous
 62
     7
370
     0
100
AcDbDimension
  2
_D_7
 10
182.9635467198
 20
84.0850090286
 30
0.0
 11
182.9635467198
 21
97.3928695834
 31
0.0
 70
   160
  1
<>
 71
     2
 42
-1.0
  3
SLDDIMSTYLE0
100
AcDbAlignedDimension
 13
156.2400352901
 23
112.0850090286
 33
0.0
 14
169.5556755787
 24
84.0850090286
 34
0.0
 50
90.0
100
AcDbRotatedDimension
  0
DIMENSION
  5
35A
330
1F
100
AcDbEntity
  8
0
  6
Continuous
 62
     7
370
     0
100
AcDbDimension
  2
_D_8
 10
131.3556755787
 20
125.8908484763
 30
0.0
 11
146.1395921601
 21
125.8908484763
 31
0.0
 70
   160
  1
<>
 71
     2
 42
-1.0
  3
SLDDIMSTYLE3
100
AcDbAlignedDimension
 13
159.7556755787
 23
108.5693687399
 33
0.0
 14
131.3556755787
 24
108.5693687399
 34
0.0
100
AcDbRotatedDimension
  0
DIMENSION
  5
364
330
1F
100
AcDbEntity
  8
0
  6
Continuous
 62
     7
370
     0
100
AcDbDimension
  2
_D_9
 10
152.0556755787
 20
116.8312637839
 30
0.0
 11
145.5556755787
 21
116.8312637839
 31
0.0
 70
   160
  1
<>
 71
     2
 42
-1.0
  3
SLDDIMSTYLE0
100
AcDbAlignedDimension
 13
139.0556755787
 23
114.5850090286
 33
0.0
 14
152.0556755787
 24
114.5850090286
 34
0.0
100
AcDbRotatedDimension
  0
INSERT
  5
379
330
1F
100
AcDbEntity
  8
0
  6
Continuous
 62
     7
370
     0
100
AcDbBlockReference
  2
SW_CENTERMARKSYMBOL_2
 10
152.0556755787
 20
91.3350090286
 30
0.0
  0
INSERT
  5
385
330
1F
100
AcDbEntity
  8
0
  6
Continuous
 62
     7
370
     0
100
AcDbBlockReference
  2
SW_CENTERMARKSYMBOL_3
 10
139.0556755787
 20
109.8350090286
 30
0.0
  0
INSERT
  5
391
330
1F
100
AcDbEntity
  8
0
  6
Continuous
 62
     7
370
     0
100
AcDbBlockReference
  2
SW_CENTERMARKSYMBOL_4
 10
152.0556755787
 20
109.8350090286
 30
0.0
  0
INSERT
  5
39D
330
1F
100
AcDbEntity
  8
0
  6
Continuous
 62
     7
370
     0
100
AcDbBlockReference
  2
SW_CENTERMARKSYMBOL_5
 10
139.0556755787
 20
91.3350090286
 30
0.0
  0
INSERT
  5
3A9
330
1F
100
AcDbEntity
  8
0
  6
Continuous
 62
     7
370
     0
100
AcDbBlockReference
  2
SW_CENTERMARKSYMBOL_6
 10
145.5556755787
 20
100.5850090286
 30
0.0
  0
ARC
  5
3AA
330
1F
100
AcDbEntity
  8
0
  6
Continuous
 62
     7
370
    15
100
AcDbCircle
 10
89.8242306097
 20
92.5850090286
 30
0.0
 40
0.999999999999998
100
AcDbArc
 50
36.3843518158
 51
90.0
  0
ARC
  5
3AB
330
1F
100
AcDbEntity
  8
0
  6
Continuous
 62
     7
370
    15
100
AcDbCircle
 10
89.8242306097
 20
90.0850090286
 30
0.0
 40
1.000000000000006
100
AcDbArc
 50
270.0
 51
323.6156481842
  0
LINE
  5
3AC
330
1F
100
AcDbEntity
  8
0
  6
Continuous
 62
     7
370
    15
100
AcDbLine
 10
89.5295383698
 20
89.0850090286
 30
0.0
 11
89.8242306097
 21
89.0850090286
 31
0.0
  0
LINE
  5
3AD
330
1F
100
AcDbEntity
  8
0
  6
Continuous
 62
     7
370
    15
100
AcDbLine
 10
89.8242306097
 20
93.5850090286
 30
0.0
 11
89.5295383698
 21
93.5850090286
 31
0.0
  0
LINE
  5
3AE
330
1F
100
AcDbEntity
  8
0
  6
Continuous
 62
     7
370
    15
100
AcDbLine
 10
90.6292864471
 20
89.4918099905
 30
0.0
 11
90.9320662885
 21
89.9027254897
 31
0.0
  0
LINE
  5
3AF
330
1F
100
AcDbEntity
  8
0
  6
Continuous
 62
     7
370
    15
100
AcDbLine
 10
90.9320662885
 20
92.7672925675
 30
0.0
 11
90.6292864471
 21
93.1782080666
 31
0.0
  0
ARC
  5
3B0
330
1F
100
AcDbEntity
  8
0
  6
Continuous
 62
     7
370
    15
100
AcDbCircle
 10
90.5295383698
 20
90.1993250087
 30
0.0
 40
0.5
100
AcDbArc
 50
323.6156481842
 51
0.0
  0
ARC
  5
3B1
330
1F
100
AcDbEntity
  8
0
  6
Continuous
 62
     7
370
    15
100
AcDbCircle
 10
90.5295383698
 20
92.4706930485
 30
0.0
 40
0.5
100
AcDbArc
 50
0.0
 51
36.3843518158
  0
LINE
  5
3B2
330
1F
100
AcDbEntity
  8
0
  6
Continuous
 62
     7
370
    15
100
AcDbLine
 10
39.0295383698
 20
109.2156016424
 30
0.0
 11
36.0295383698
 21
109.2156016424
 31
0.0
  0
LINE
  5
3B3
330
1F
100
AcDbEntity
  8
0
  6
Continuous
 62
     7
370
    15
100
AcDbLine
 10
88.0295383698
 20
109.2666767745
 30
0.0
 11
39.0295383698
 21
109.2666767745
 31
0.0
  0
ARC
  5
3B4
330
1F
100
AcDbEntity
  8
0
  6
Continuous
 62
     7
370
    15
100
AcDbCircle
 10
37.23484613
 20
111.0850090286
 30
0.0
 40
1.000000000000009
100
AcDbArc
 50
90.0
 51
143.6156481842
  0
LINE
  5
3B5
330
1F
100
AcDbEntity
  8
0
  6
Continuous
 62
     7
370
    15
100
AcDbLine
 10
37.5295383698
 20
112.0850090286
 30
0.0
 11
37.23484613
 21
112.0850090286
 31
0.0
  0
LINE
  5
3B6
330
1F
100
AcDbEntity
  8
0
  6
Continuous
 62
     7
370
    15
100
AcDbLine
 10
36.4297902926
 20
111.6782080666
 30
0.0
 11
36.1270104512
 21
111.2672925675
 31
0.0
  0
ARC
  5
3B7
330
1F
100
AcDbEntity
  8
0
  6
Continuous
 62
     7
370
    15
100
AcDbCircle
 10
36.5295383698
 20
110.9706930485
 30
0.0
 40
0.5000000000000059
100
AcDbArc
 50
143.6156481842
 51
180.0
  0
ARC
  5
3B8
330
1F
100
AcDbEntity
  8
0
  6
Continuous
 62
     7
370
    15
100
AcDbCircle
 10
37.23484613
 20
90.0850090286
 30
0.0
 40
1.0
100
AcDbArc
 50
216.3843518158
 51
270.0
  0
ARC
  5
3B9
330
1F
100
AcDbEntity
  8
0
  6
Continuous
 62
     7
370
    15
100
AcDbCircle
 10
37.23484613
 20
92.5850090286
 30
0.0
 40
1.0
100
AcDbArc
 50
90.0
 51
143.6156481842
  0
LINE
  5
3BA
330
1F
100
AcDbEntity
  8
0
  6
Continuous
 62
     7
370
    15
100
AcDbLine
 10
37.5295383698
 20
93.5850090286
 30
0.0
 11
37.23484613
 21
93.5850090286
 31
0.0
  0
LINE
  5
3BB
330
1F
100
AcDbEntity
  8
0
  6
Continuous
 62
     7
370
    15
100
AcDbLine
 10
37.23484613
 20
89.0850090286
 30
0.0
 11
37.5295383698
 21
89.0850090286
 31
0.0
  0
LINE
  5
3BC
330
1F
100
AcDbEntity
  8
0
  6
Continuous
 62
     7
370
    15
100
AcDbLine
 10
36.4297902926
 20
93.1782080666
 30
0.0
 11
36.1270104512
 21
92.7672925675
 31
0.0
  0
LINE
  5
3BD
330
1F
100
AcDbEntity
  8
0
  6
Continuous
 62
     7
370
    15
100
AcDbLine
 10
36.1270104512
 20
89.9027254897
 30
0.0
 11
36.4297902926
 21
89.4918099905
 31
0.0
  0
ARC
  5
3BE
330
1F
100
AcDbEntity
  8
0
  6
Continuous
 62
     7
370
    15
100
AcDbCircle
 10
36.5295383698
 20
92.4706930485
 30
0.0
 40
0.5000000000000071
100
AcDbArc
 50
143.6156481842
 51
180.0
  0
ARC
  5
3BF
330
1F
100
AcDbEntity
  8
0
  6
Continuous
 62
     7
370
    15
100
AcDbCircle
 10
36.5295383698
 20
90.1993250087
 30
0.0
 40
0.5000000000000071
100
AcDbArc
 50
180.0
 51
216.3843518158
  0
LINE
  5
3C0
330
1F
100
AcDbEntity
  8
0
  6
Continuous
 62
     7
370
    15
100
AcDbLine
 10
91.0295383698
 20
91.2351252744
 30
0.0
 11
91.0295383698
 21
90.1993250087
 31
0.0
  0
LINE
  5
3C1
330
1F
100
AcDbEntity
  8
0
  6
Continuous
 62
     7
370
    15
100
AcDbLine
 10
91.0295383698
 20
92.4706930485
 30
0.0
 11
91.0295383698
 21
91.2351252744
 31
0.0
  0
LINE
  5
3C2
330
1F
100
AcDbEntity
  8
0
  6
Continuous
 62
     7
370
    15
100
AcDbLine
 10
93.5295383698
 20
97.5850090286
 30
0.0
 11
93.5295383698
 21
97.9392577175
 31
0.0
  0
LINE
  5
3C3
330
1F
100
AcDbEntity
  8
0
  6
Continuous
 62
     7
370
    15
100
AcDbLine
 10
91.0295383698
 20
97.5850090286
 30
0.0
 11
93.5295383698
 21
97.5850090286
 31
0.0
  0
LINE
  5
3C4
330
1F
100
AcDbEntity
  8
0
  6
Continuous
 62
     7
370
    15
100
AcDbLine
 10
91.0295383698
 20
103.5850090286
 30
0.0
 11
93.5295383698
 21
103.5850090286
 31
0.0
  0
LINE
  5
3C5
330
1F
100
AcDbEntity
  8
0
  6
Continuous
 62
     7
370
    15
100
AcDbLine
 10
93.5295383698
 20
103.2307603397
 30
0.0
 11
93.5295383698
 21
103.5850090286
 31
0.0
  0
LINE
  5
3C6
330
1F
100
AcDbEntity
  8
0
  6
Continuous
 62
     7
370
    15
100
AcDbLine
 10
91.0295383698
 20
103.2307603397
 30
0.0
 11
93.5295383698
 21
103.2307603397
 31
0.0
  0
LINE
  5
3C7
330
1F
100
AcDbEntity
  8
0
  6
Continuous
 62
     7
370
    15
100
AcDbLine
 10
91.0295383698
 20
97.9392577175
 30
0.0
 11
93.5295383698
 21
97.9392577175
 31
0.0
  0
SPLINE
  5
3C8
330
1F
100
AcDbEntity
  8
0
  6
Continuous
 62
     7
370
    15
100
AcDbSpline
210
0.0
220
0.0
230
1.0
 70
     8
 71
     3
 72
     8
 73
     4
 74
     0
 42
0.00000001
 43
0.00000001
 12
1.0
 22
0.0
 32
0.0
 13
1.0
 23
0.0
 33
0.0
 40
0.0
 40
0.0
 40
0.0
 40
0.0
 40
1.0
 40
1.0
 40
1.0
 40
1.0
 10
93.52953836984851
 20
97.9392577175283
 30
0.0
 10
93.70998919195148
 20
98.21207371704921
 30
0.0
 10
93.87967255201835
 20
98.49127629590845
 30
0.0
 10
94.02953836984851
 20
98.7822333908609
 30
0.0
  0
SPLINE
  5
3C9
330
1F
100
AcDbEntity
  8
0
  6
Continuous
 62
     7
370
    15
100
AcDbSpline
210
0.0
220
0.0
230
1.0
 70
     8
 71
     3
 72
     8
 73
     4
 74
     0
 42
0.00000001
 43
0.00000001
 12
1.0
 22
0.0
 32
0.0
 13
1.0
 23
0.0
 33
0.0
 40
0.0
 40
0.0
 40
0.0
 40
0.0
 40
1.0
 40
1.0
 40
1.0
 40
1.0
 10
94.02953836984851
 20
102.3877846663249
 30
0.0
 10
93.87967255201835
 20
102.6787417612773
 30
0.0
 10
93.70998919195148
 20
102.9579443401366
 30
0.0
 10
93.52953836984851
 20
103.2307603396575
 30
0.0
  0
LINE
  5
3CA
330
1F
100
AcDbEntity
  8
0
  6
Continuous
 62
     7
370
    15
100
AcDbLine
 10
94.0295383698
 20
102.3877846663
 30
0.0
 11
94.0295383698
 21
98.7822333909
 31
0.0
  0
LINE
  5
3CB
330
1F
100
AcDbEntity
  8
0
  6
Continuous
 62
     7
370
    15
100
AcDbLine
 10
94.0295383698
 20
98.7822333909
 30
0.0
 11
94.0295383698
 21
97.5850090286
 31
0.0
  0
SPLINE
  5
3CC
330
1F
100
AcDbEntity
  8
0
  6
Continuous
 62
     7
370
    15
100
AcDbSpline
210
0.0
220
0.0
230
1.0
 70
    24
 71
     3
 72
     8
 73
     4
 74
     0
 42
0.00000001
 43
0.00000001
 12
1.0
 22
0.0
 32
0.0
 13
1.0
 23
0.0
 33
0.0
 40
0.0
 40
0.0
 40
0.0
 40
0.0
 40
1.0
 40
1.0
 40
1.0
 40
1.0
 10
94.02953836984851
 20
97.58500902859289
 30
0.0
 10
93.87967255201835
 20
97.58500902859289
 30
0.0
 10
93.70998919195148
 20
97.58500902859289
 30
0.0
 10
93.52953836984851
 20
97.58500902859289
 30
0.0
  0
SPLINE
  5
3CD
330
1F
100
AcDbEntity
  8
0
  6
Continuous
 62
     7
370
    15
100
AcDbSpline
210
0.0
220
0.0
230
1.0
 70
    24
 71
     3
 72
     8
 73
     4
 74
     0
 42
0.00000001
 43
0.00000001
 12
1.0
 22
0.0
 32
0.0
 13
1.0
 23
0.0
 33
0.0
 40
0.0
 40
0.0
 40
0.0
 40
0.0
 40
1.0
 40
1.0
 40
1.0
 40
1.0
 10
93.52953836984851
 20
103.5850090285929
 30
0.0
 10
93.70998919195148
 20
103.5850090285929
 30
0.0
 10
93.87967255201835
 20
103.5850090285929
 30
0.0
 10
94.02953836984851
 20
103.5850090285929
 30
0.0
  0
LINE
  5
3CE
330
1F
100
AcDbEntity
  8
0
  6
Continuous
 62
     7
370
    15
100
AcDbLine
 10
94.0295383698
 20
103.5850090286
 30
0.0
 11
94.0295383698
 21
102.3877846663
 31
0.0
  0
LINE
  5
3CF
330
1F
100
AcDbEntity
  8
0
  6
Continuous
 62
     7
370
    15
100
AcDbLine
 10
36.2295383698
 20
108.5693687399
 30
0.0
 11
36.2295383698
 21
96.5850090286
 31
0.0
  0
LINE
  5
3D0
330
1F
100
AcDbEntity
  8
0
  6
Continuous
 62
     7
370
    15
100
AcDbLine
 10
36.2295383698
 20
96.5850090286
 30
0.0
 11
36.0295383698
 21
96.3322916373
 31
0.0
  0
LINE
  5
3D1
330
1F
100
AcDbEntity
  8
0
  6
Continuous
 62
     7
370
    15
100
AcDbLine
 10
36.0295383698
 20
96.3322916373
 30
0.0
 11
36.0295383698
 21
108.849995417
 31
0.0
  0
ARC
  5
3D2
330
1F
100
AcDbEntity
  8
0
  6
Continuous
 62
     7
370
    15
100
AcDbCircle
 10
24.7295383698
 20
100.5850090286
 30
0.0
 40
13.99999999999985
100
AcDbArc
 50
34.7719440319
 51
36.1822872212
  0
LINE
  5
3D3
330
1F
100
AcDbEntity
  8
0
  6
Continuous
 62
     7
370
    15
100
AcDbLine
 10
39.0295383698
 20
96.5850090286
 30
0.0
 11
39.0295383698
 21
93.7055394803
 31
0.0
  0
LINE
  5
3D4
330
1F
100
AcDbEntity
  8
0
  6
Continuous
 62
     7
370
    15
100
AcDbLine
 10
37.5295383698
 20
93.7055394803
 30
0.0
 11
39.0295383698
 21
93.7055394803
 31
0.0
  0
LINE
  5
3D5
330
1F
100
AcDbEntity
  8
0
  6
Continuous
 62
     7
370
    15
100
AcDbLine
 10
37.5295383698
 20
94.0850090286
 30
0.0
 11
37.5295383698
 21
93.7055394803
 31
0.0
  0
LINE
  5
3D6
330
1F
100
AcDbEntity
  8
0
  6
Continuous
 62
     7
370
    15
100
AcDbLine
 10
37.5295383698
 20
94.0850090286
 30
0.0
 11
36.0295383698
 21
94.0850090286
 31
0.0
  0
LINE
  5
3D7
330
1F
100
AcDbEntity
  8
0
  6
Continuous
 62
     7
370
    15
100
AcDbLine
 10
36.0295383698
 20
96.3322916373
 30
0.0
 11
36.0295383698
 21
94.0850090286
 31
0.0
  0
LINE
  5
3D8
330
1F
100
AcDbEntity
  8
0
  6
Continuous
 62
     7
370
    15
100
AcDbLine
 10
36.2295383698
 20
96.5850090286
 30
0.0
 11
39.0295383698
 21
96.5850090286
 31
0.0
  0
LINE
  5
3D9
330
1F
100
AcDbEntity
  8
0
  6
Continuous
 62
     7
370
    15
100
AcDbLine
 10
39.0295383698
 20
108.5693687399
 30
0.0
 11
39.0295383698
 21
96.5850090286
 31
0.0
  0
LINE
  5
3DA
330
1F
100
AcDbEntity
  8
0
  6
Continuous
 62
     7
370
    15
100
AcDbLine
 10
36.2295383698
 20
108.5693687399
 30
0.0
 11
39.0295383698
 21
108.5693687399
 31
0.0
  0
LINE
  5
3DB
330
1F
100
AcDbEntity
  8
0
  6
Continuous
 62
     7
370
    15
100
AcDbLine
 10
39.0295383698
 20
109.0980233785
 30
0.0
 11
36.0295383698
 21
109.0980233785
 31
0.0
  0
LINE
  5
3DC
330
1F
100
AcDbEntity
  8
0
  6
Continuous
 62
     7
370
    15
100
AcDbLine
 10
39.0295383698
 20
109.0980233785
 30
0.0
 11
39.0295383698
 21
108.5693687399
 31
0.0
  0
LINE
  5
3DD
330
1F
100
AcDbEntity
  8
0
  6
Continuous
 62
     7
370
    15
100
AcDbLine
 10
36.0295383698
 20
109.0980233785
 30
0.0
 11
36.0295383698
 21
108.849995417
 31
0.0
  0
LINE
  5
3DE
330
1F
100
AcDbEntity
  8
0
  6
Continuous
 62
     7
370
    15
100
AcDbLine
 10
36.0295383698
 20
109.0980233785
 30
0.0
 11
36.0295383698
 21
109.2156016424
 31
0.0
  0
LINE
  5
3DF
330
1F
100
AcDbEntity
  8
0
  6
Continuous
 62
     7
370
    15
100
AcDbLine
 10
37.5295383698
 20
110.7348202459
 30
0.0
 11
37.5295383698
 21
109.385825387
 31
0.0
  0
LINE
  5
3E0
330
1F
100
AcDbEntity
  8
0
  6
Continuous
 62
     7
370
    15
100
AcDbLine
 10
39.0295383698
 20
110.7348202459
 30
0.0
 11
37.5295383698
 21
110.7348202459
 31
0.0
  0
LINE
  5
3E1
330
1F
100
AcDbEntity
  8
0
  6
Continuous
 62
     7
370
    15
100
AcDbLine
 10
37.5295383698
 20
92.3757578196
 30
0.0
 11
39.0295383698
 21
92.3757578196
 31
0.0
  0
LINE
  5
3E2
330
1F
100
AcDbEntity
  8
0
  6
Continuous
 62
     7
370
    15
100
AcDbLine
 10
37.5295383698
 20
93.7055394803
 30
0.0
 11
37.5295383698
 21
92.3757578196
 31
0.0
  0
LINE
  5
3E3
330
1F
100
AcDbEntity
  8
0
  6
Continuous
 62
     7
370
    15
100
AcDbLine
 10
39.0295383698
 20
93.7055394803
 30
0.0
 11
39.0295383698
 21
92.3757578196
 31
0.0
  0
LINE
  5
3E4
330
1F
100
AcDbEntity
  8
0
  6
Continuous
 62
     7
370
    15
100
AcDbLine
 10
39.0295383698
 20
111.2490540203
 30
0.0
 11
37.5295383698
 21
111.2490540203
 31
0.0
  0
LINE
  5
3E5
330
1F
100
AcDbEntity
  8
0
  6
Continuous
 62
     7
370
    15
100
AcDbLine
 10
37.5295383698
 20
111.6993505151
 30
0.0
 11
39.0295383698
 21
111.6993505151
 31
0.0
  0
LINE
  5
3E6
330
1F
100
AcDbEntity
  8
0
  6
Continuous
 62
     7
370
    15
100
AcDbLine
 10
37.5295383698
 20
111.2490540203
 30
0.0
 11
37.5295383698
 21
111.6993505151
 31
0.0
  0
LINE
  5
3E7
330
1F
100
AcDbEntity
  8
0
  6
Continuous
 62
     7
370
    15
100
AcDbLine
 10
39.0295383698
 20
89.0850090286
 30
0.0
 11
37.5295383698
 21
89.0850090286
 31
0.0
  0
LINE
  5
3E8
330
1F
100
AcDbEntity
  8
0
  6
Continuous
 62
     7
370
    15
100
AcDbLine
 10
37.5295383698
 20
92.3757578196
 30
0.0
 11
37.5295383698
 21
89.0850090286
 31
0.0
  0
LINE
  5
3E9
330
1F
100
AcDbEntity
  8
0
  6
Continuous
 62
     7
370
    15
100
AcDbLine
 10
39.0295383698
 20
92.3757578196
 30
0.0
 11
39.0295383698
 21
92.3486956477
 31
0.0
  0
LINE
  5
3EA
330
1F
100
AcDbEntity
  8
0
  6
Continuous
 62
     7
370
    15
100
AcDbLine
 10
39.0295383698
 20
91.9425730283
 30
0.0
 11
39.0295383698
 21
90.3759653473
 31
0.0
  0
LINE
  5
3EB
330
1F
100
AcDbEntity
  8
0
  6
Continuous
 62
     7
370
    15
100
AcDbLine
 10
39.0295383698
 20
89.8885651787
 30
0.0
 11
39.0295383698
 21
89.246930205
 31
0.0
  0
LINE
  5
3EC
330
1F
100
AcDbEntity
  8
0
  6
Continuous
 62
     7
370
    15
100
AcDbLine
 10
37.5295383698
 20
110.7348202459
 30
0.0
 11
37.5295383698
 21
111.2490540203
 31
0.0
  0
LINE
  5
3ED
330
1F
100
AcDbEntity
  8
0
  6
Continuous
 62
     7
370
    15
100
AcDbLine
 10
39.0295383698
 20
111.2490540203
 30
0.0
 11
39.0295383698
 21
110.7348202459
 31
0.0
  0
LINE
  5
3EE
330
1F
100
AcDbEntity
  8
0
  6
Continuous
 62
     7
370
    15
100
AcDbLine
 10
37.5295383698
 20
112.0850090286
 30
0.0
 11
39.0295383698
 21
112.0850090286
 31
0.0
  0
LINE
  5
3EF
330
1F
100
AcDbEntity
  8
0
  6
Continuous
 62
     7
370
    15
100
AcDbLine
 10
37.5295383698
 20
112.0850090286
 30
0.0
 11
37.5295383698
 21
111.6993505151
 31
0.0
  0
LINE
  5
3F0
330
1F
100
AcDbEntity
  8
0
  6
Continuous
 62
     7
370
    15
100
AcDbLine
 10
39.0295383698
 20
112.0850090286
 30
0.0
 11
39.0295383698
 21
111.6993505151
 31
0.0
  0
LINE
  5
3F1
330
1F
100
AcDbEntity
  8
0
  6
Continuous
 62
     7
370
    15
100
AcDbLine
 10
36.0295383698
 20
94.0850090286
 30
0.0
 11
36.0295383698
 21
92.4706930485
 31
0.0
  0
ARC
  5
3F2
330
1F
100
AcDbEntity
  8
0
  6
Continuous
 62
     7
370
    15
100
AcDbCircle
 10
67.0295383698
 20
86.5850090286
 30
0.0
 40
1.0
100
AcDbArc
 50
0.0
 51
90.0
  0
LINE
  5
3F3
330
1F
100
AcDbEntity
  8
0
  6
Continuous
 62
     7
370
    15
100
AcDbLine
 10
67.0295383698
 20
87.5850090286
 30
0.0
 11
87.0295383698
 21
87.5850090286
 31
0.0
  0
ARC
  5
3F4
330
1F
100
AcDbEntity
  8
0
  6
Continuous
 62
     7
370
    15
100
AcDbCircle
 10
87.0295383698
 20
86.5850090286
 30
0.0
 40
1.0
100
AcDbArc
 50
90.0
 51
180.0
  0
LINE
  5
3F5
330
1F
100
AcDbEntity
  8
0
  6
Continuous
 62
     7
370
    15
100
AcDbLine
 10
86.0295383698
 20
86.5850090286
 30
0.0
 11
68.0295383698
 21
86.5850090286
 31
0.0
  0
LINE
  5
3F6
330
1F
100
AcDbEntity
  8
0
  6
Continuous
 62
     7
370
    15
100
AcDbLine
 10
68.0295383698
 20
86.5850090286
 30
0.0
 11
68.0295383698
 21
84.0850090286
 31
0.0
  0
LINE
  5
3F7
330
1F
100
AcDbEntity
  8
0
  6
Continuous
 62
     7
370
    15
100
AcDbLine
 10
66.0295383698
 20
84.0850090286
 30
0.0
 11
66.0295383698
 21
87.5850090286
 31
0.0
  0
LINE
  5
3F8
330
1F
100
AcDbEntity
  8
0
  6
Continuous
 62
     7
370
    15
100
AcDbLine
 10
66.0295383698
 20
87.5850090286
 30
0.0
 11
67.0295383698
 21
87.5850090286
 31
0.0
  0
LINE
  5
3F9
330
1F
100
AcDbEntity
  8
0
  6
Continuous
 62
     7
370
    15
100
AcDbLine
 10
68.0295383698
 20
84.0850090286
 30
0.0
 11
66.0295383698
 21
84.0850090286
 31
0.0
  0
LINE
  5
3FA
330
1F
100
AcDbEntity
  8
0
  6
Continuous
 62
     7
370
    15
100
AcDbLine
 10
86.0295383698
 20
84.0850090286
 30
0.0
 11
86.0295383698
 21
86.5850090286
 31
0.0
  0
LINE
  5
3FB
330
1F
100
AcDbEntity
  8
0
  6
Continuous
 62
     7
370
    15
100
AcDbLine
 10
68.0295383698
 20
84.0850090286
 30
0.0
 11
86.0295383698
 21
84.0850090286
 31
0.0
  0
LINE
  5
3FC
330
1F
100
AcDbEntity
  8
0
  6
Continuous
 62
     7
370
    15
100
AcDbLine
 10
87.0295383698
 20
87.5850090286
 30
0.0
 11
88.0295383698
 21
87.5850090286
 31
0.0
  0
LINE
  5
3FD
330
1F
100
AcDbEntity
  8
0
  6
Continuous
 62
     7
370
    15
100
AcDbLine
 10
88.0295383698
 20
87.5850090286
 30
0.0
 11
88.0295383698
 21
84.0850090286
 31
0.0
  0
LINE
  5
3FE
330
1F
100
AcDbEntity
  8
0
  6
Continuous
 62
     7
370
    15
100
AcDbLine
 10
88.0295383698
 20
84.0850090286
 30
0.0
 11
86.0295383698
 21
84.0850090286
 31
0.0
  0
LINE
  5
3FF
330
1F
100
AcDbEntity
  8
0
  6
Continuous
 62
     7
370
    15
100
AcDbLine
 10
66.0295383698
 20
87.92897406
 30
0.0
 11
88.0295383698
 21
87.92897406
 31
0.0
  0
LINE
  5
400
330
1F
100
AcDbEntity
  8
0
  6
Continuous
 62
     7
370
    15
100
AcDbLine
 10
88.0295383698
 20
87.92897406
 30
0.0
 11
88.0295383698
 21
87.5850090286
 31
0.0
  0
LINE
  5
401
330
1F
100
AcDbEntity
  8
0
  6
Continuous
 62
     7
370
    15
100
AcDbLine
 10
66.0295383698
 20
87.92897406
 30
0.0
 11
66.0295383698
 21
87.5850090286
 31
0.0
  0
LINE
  5
402
330
1F
100
AcDbEntity
  8
0
  6
Continuous
 62
     7
370
    15
100
AcDbLine
 10
39.0295383698
 20
96.5850090286
 30
0.0
 11
88.0295383698
 21
96.5850090286
 31
0.0
  0
LINE
  5
403
330
1F
100
AcDbEntity
  8
0
  6
Continuous
 62
     7
370
    15
100
AcDbLine
 10
39.0295383698
 20
108.5693687399
 30
0.0
 11
88.0295383698
 21
108.5693687399
 31
0.0
  0
LINE
  5
404
330
1F
100
AcDbEntity
  8
0
  6
Continuous
 62
     7
370
    15
100
AcDbLine
 10
88.0295383698
 20
96.5850090286
 30
0.0
 11
88.0295383698
 21
108.5693687399
 31
0.0
  0
LINE
  5
405
330
1F
100
AcDbEntity
  8
0
  6
Continuous
 62
     7
370
    15
100
AcDbLine
 10
88.0295383698
 20
109.1895994954
 30
0.0
 11
39.0295383698
 21
109.1895994954
 31
0.0
  0
LINE
  5
406
330
1F
100
AcDbEntity
  8
0
  6
Continuous
 62
     7
370
    15
100
AcDbLine
 10
39.0295383698
 20
108.5693687399
 30
0.0
 11
39.0295383698
 21
109.1895994954
 31
0.0
  0
LINE
  5
407
330
1F
100
AcDbEntity
  8
0
  6
Continuous
 62
     7
370
    15
100
AcDbLine
 10
88.0295383698
 20
108.5693687399
 30
0.0
 11
88.0295383698
 21
109.1895994954
 31
0.0
  0
LINE
  5
408
330
1F
100
AcDbEntity
  8
0
  6
Continuous
 62
     7
370
    15
100
AcDbLine
 10
39.0295383698
 20
93.705178541
 30
0.0
 11
88.0295383698
 21
93.705178541
 31
0.0
  0
LINE
  5
409
330
1F
100
AcDbEntity
  8
0
  6
Continuous
 62
     7
370
    15
100
AcDbLine
 10
39.0295383698
 20
96.5850090286
 30
0.0
 11
39.0295383698
 21
93.705178541
 31
0.0
  0
LINE
  5
40A
330
1F
100
AcDbEntity
  8
0
  6
Continuous
 62
     7
370
    15
100
AcDbLine
 10
88.0295383698
 20
96.5850090286
 30
0.0
 11
88.0295383698
 21
93.707184408
 31
0.0
  0
LINE
  5
40B
330
1F
100
AcDbEntity
  8
0
  6
Continuous
 62
     7
370
    15
100
AcDbLine
 10
39.0295383698
 20
109.1895994954
 30
0.0
 11
39.0295383698
 21
109.2666767745
 31
0.0
  0
LINE
  5
40C
330
1F
100
AcDbEntity
  8
0
  6
Continuous
 62
     7
370
    15
100
AcDbLine
 10
88.0295383698
 20
89.8753535676
 30
0.0
 11
66.0295383698
 21
89.8753535676
 31
0.0
  0
LINE
  5
40D
330
1F
100
AcDbEntity
  8
0
  6
Continuous
 62
     7
370
    15
100
AcDbLine
 10
88.0295383698
 20
89.8753535676
 30
0.0
 11
88.0295383698
 21
87.92897406
 31
0.0
  0
LINE
  5
40E
330
1F
100
AcDbEntity
  8
0
  6
Continuous
 62
     7
370
    15
100
AcDbLine
 10
66.0295383698
 20
87.92897406
 30
0.0
 11
66.0295383698
 21
89.8753535676
 31
0.0
  0
LINE
  5
40F
330
1F
100
AcDbEntity
  8
0
  6
Continuous
 62
     7
370
    15
100
AcDbLine
 10
39.0295383698
 20
110.6337228426
 30
0.0
 11
88.0295383698
 21
110.6337228426
 31
0.0
  0
LINE
  5
410
330
1F
100
AcDbEntity
  8
0
  6
Continuous
 62
     7
370
    15
100
AcDbLine
 10
39.0295383698
 20
110.6337228426
 30
0.0
 11
39.0295383698
 21
109.2666767745
 31
0.0
  0
LINE
  5
411
330
1F
100
AcDbEntity
  8
0
  6
Continuous
 62
     7
370
    15
100
AcDbLine
 10
39.0295383698
 20
92.0529492935
 30
0.0
 11
66.0295383698
 21
92.0529492935
 31
0.0
  0
LINE
  5
412
330
1F
100
AcDbEntity
  8
0
  6
Continuous
 62
     7
370
    15
100
AcDbLine
 10
39.0295383698
 20
92.0529492935
 30
0.0
 11
39.0295383698
 21
92.3600090286
 31
0.0
  0
LINE
  5
413
330
1F
100
AcDbEntity
  8
0
  6
Continuous
 62
     7
370
    15
100
AcDbLine
 10
88.0295383698
 20
91.2823275767
 30
0.0
 11
88.0295383698
 21
89.8753535676
 31
0.0
  0
LINE
  5
414
330
1F
100
AcDbEntity
  8
0
  6
Continuous
 62
     7
370
    15
100
AcDbLine
 10
66.0295383698
 20
92.0529492935
 30
0.0
 11
66.0295383698
 21
89.8753535676
 31
0.0
  0
LINE
  5
415
330
1F
100
AcDbEntity
  8
0
  6
Continuous
 62
     7
370
    15
100
AcDbLine
 10
39.0295383698
 20
111.6286054943
 30
0.0
 11
88.0295383698
 21
111.6286054943
 31
0.0
  0
LINE
  5
416
330
1F
100
AcDbEntity
  8
0
  6
Continuous
 62
     7
370
    15
100
AcDbLine
 10
88.0295383698
 20
111.3294184743
 30
0.0
 11
39.0295383698
 21
111.3294184743
 31
0.0
  0
LINE
  5
417
330
1F
100
AcDbEntity
  8
0
  6
Continuous
 62
     7
370
    15
100
AcDbLine
 10
39.0295383698
 20
111.3294184743
 30
0.0
 11
39.0295383698
 21
111.6286054943
 31
0.0
  0
LINE
  5
418
330
1F
100
AcDbEntity
  8
0
  6
Continuous
 62
     7
370
    15
100
AcDbLine
 10
39.0295383698
 20
111.3294184743
 30
0.0
 11
39.0295383698
 21
110.6337228426
 31
0.0
  0
LINE
  5
419
330
1F
100
AcDbEntity
  8
0
  6
Continuous
 62
     7
370
    15
100
AcDbLine
 10
39.0295383698
 20
112.0850090286
 30
0.0
 11
88.0295383698
 21
112.0850090286
 31
0.0
  0
LINE
  5
41A
330
1F
100
AcDbEntity
  8
0
  6
Continuous
 62
     7
370
    15
100
AcDbLine
 10
39.0295383698
 20
111.6286054943
 30
0.0
 11
39.0295383698
 21
112.0850090286
 31
0.0
  0
LINE
  5
41B
330
1F
100
AcDbEntity
  8
0
  6
Continuous
 62
     7
370
    15
100
AcDbLine
 10
88.0295383698
 20
111.6286054943
 30
0.0
 11
88.0295383698
 21
112.0850090286
 31
0.0
  0
LINE
  5
41C
330
1F
100
AcDbEntity
  8
0
  6
Continuous
 62
     7
370
    15
100
AcDbLine
 10
66.0295383698
 20
90.0720431663
 30
0.0
 11
39.0295383698
 21
90.0720431663
 31
0.0
  0
LINE
  5
41D
330
1F
100
AcDbEntity
  8
0
  6
Continuous
 62
     7
370
    15
100
AcDbLine
 10
39.0295383698
 20
90.0720431663
 30
0.0
 11
39.0295383698
 21
90.3759653473
 31
0.0
  0
LINE
  5
41E
330
1F
100
AcDbEntity
  8
0
  6
Continuous
 62
     7
370
    15
100
AcDbLine
 10
39.0295383698
 20
91.9425730283
 30
0.0
 11
39.0295383698
 21
92.0529492935
 31
0.0
  0
LINE
  5
41F
330
1F
100
AcDbEntity
  8
0
  6
Continuous
 62
     7
370
    15
100
AcDbLine
 10
66.0295383698
 20
89.0850090286
 30
0.0
 11
39.0295383698
 21
89.0850090286
 31
0.0
  0
LINE
  5
420
330
1F
100
AcDbEntity
  8
0
  6
Continuous
 62
     7
370
    15
100
AcDbLine
 10
39.0295383698
 20
89.0850090286
 30
0.0
 11
39.0295383698
 21
89.246930205
 31
0.0
  0
LINE
  5
421
330
1F
100
AcDbEntity
  8
0
  6
Continuous
 62
     7
370
    15
100
AcDbLine
 10
39.0295383698
 20
89.8885651787
 30
0.0
 11
39.0295383698
 21
90.0720431663
 31
0.0
  0
LINE
  5
422
330
1F
100
AcDbEntity
  8
0
  6
Continuous
 62
     7
370
    15
100
AcDbLine
 10
37.5295383698
 20
109.385825387
 30
0.0
 11
37.5295383698
 21
109.2156016424
 31
0.0
  0
LINE
  5
423
330
1F
100
AcDbEntity
  8
0
  6
Continuous
 62
     7
370
    15
100
AcDbLine
 10
36.0295383698
 20
109.2156016424
 30
0.0
 11
36.0295383698
 21
110.9706930485
 31
0.0
  0
LINE
  5
424
330
1F
100
AcDbEntity
  8
0
  6
Continuous
 62
     7
370
    15
100
AcDbLine
 10
89.5295383698
 20
93.707184408
 30
0.0
 11
89.5295383698
 21
94.0850090286
 31
0.0
  0
LINE
  5
425
330
1F
100
AcDbEntity
  8
0
  6
Continuous
 62
     7
370
    15
100
AcDbLine
 10
89.5295383698
 20
93.707184408
 30
0.0
 11
88.0295383698
 21
93.707184408
 31
0.0
  0
LINE
  5
426
330
1F
100
AcDbEntity
  8
0
  6
Continuous
 62
     7
370
    15
100
AcDbLine
 10
90.8295383698
 20
96.5850090286
 30
0.0
 11
88.0295383698
 21
96.5850090286
 31
0.0
  0
LINE
  5
427
330
1F
100
AcDbEntity
  8
0
  6
Continuous
 62
     7
370
    15
100
AcDbLine
 10
91.0295383698
 20
96.3322916373
 30
0.0
 11
90.8295383698
 21
96.5850090286
 31
0.0
  0
LINE
  5
428
330
1F
100
AcDbEntity
  8
0
  6
Continuous
 62
     7
370
    15
100
AcDbLine
 10
91.0295383698
 20
94.0850090286
 30
0.0
 11
91.0295383698
 21
96.3322916373
 31
0.0
  0
LINE
  5
429
330
1F
100
AcDbEntity
  8
0
  6
Continuous
 62
     7
370
    15
100
AcDbLine
 10
91.0295383698
 20
94.0850090286
 30
0.0
 11
89.5295383698
 21
94.0850090286
 31
0.0
  0
LINE
  5
42A
330
1F
100
AcDbEntity
  8
0
  6
Continuous
 62
     7
370
    15
100
AcDbLine
 10
90.8295383698
 20
108.5693687399
 30
0.0
 11
88.0295383698
 21
108.5693687399
 31
0.0
  0
LINE
  5
42B
330
1F
100
AcDbEntity
  8
0
  6
Continuous
 62
     7
370
    15
100
AcDbLine
 10
90.8295383698
 20
96.5850090286
 30
0.0
 11
90.8295383698
 21
108.5693687399
 31
0.0
  0
LINE
  5
42C
330
1F
100
AcDbEntity
  8
0
  6
Continuous
 62
     7
370
    15
100
AcDbLine
 10
90.8295383698
 20
112.0850090286
 30
0.0
 11
88.0295383698
 21
112.0850090286
 31
0.0
  0
LINE
  5
42D
330
1F
100
AcDbEntity
  8
0
  6
Continuous
 62
     7
370
    15
100
AcDbLine
 10
91.0295383698
 20
111.8850090286
 30
0.0
 11
90.8295383698
 21
112.0850090286
 31
0.0
  0
LINE
  5
42E
330
1F
100
AcDbEntity
  8
0
  6
Continuous
 62
     7
370
    15
100
AcDbLine
 10
91.0295383698
 20
108.849995417
 30
0.0
 11
91.0295383698
 21
111.8850090286
 31
0.0
  0
ARC
  5
42F
330
1F
100
AcDbEntity
  8
0
  6
Continuous
 62
     7
370
    15
100
AcDbCircle
 10
102.3295383698
 20
100.5850090286
 30
0.0
 40
14.0
100
AcDbArc
 50
143.8177127788
 51
145.2280559681
  0
LINE
  5
430
330
1F
100
AcDbEntity
  8
0
  6
Continuous
 62
     7
370
    15
100
AcDbLine
 10
88.0295383698
 20
108.5693687399
 30
0.0
 11
88.0295383698
 21
112.0850090286
 31
0.0
  0
LINE
  5
431
330
1F
100
AcDbEntity
  8
0
  6
Continuous
 62
     7
370
    15
100
AcDbLine
 10
91.0295383698
 20
108.849995417
 30
0.0
 11
91.0295383698
 21
96.3322916373
 31
0.0
  0
LINE
  5
432
330
1F
100
AcDbEntity
  8
0
  6
Continuous
 62
     7
370
    15
100
AcDbLine
 10
88.0295383698
 20
92.0769452411
 30
0.0
 11
89.5295383698
 21
92.0769452411
 31
0.0
  0
LINE
  5
433
330
1F
100
AcDbEntity
  8
0
  6
Continuous
 62
     7
370
    15
100
AcDbLine
 10
89.5295383698
 20
92.0769452411
 30
0.0
 11
89.5295383698
 21
93.707184408
 31
0.0
  0
LINE
  5
434
330
1F
100
AcDbEntity
  8
0
  6
Continuous
 62
     7
370
    15
100
AcDbLine
 10
88.0295383698
 20
92.0769452411
 30
0.0
 11
88.0295383698
 21
93.707184408
 31
0.0
  0
LINE
  5
435
330
1F
100
AcDbEntity
  8
0
  6
Continuous
 62
     7
370
    15
100
AcDbLine
 10
89.5295383698
 20
89.0850090286
 30
0.0
 11
88.0295383698
 21
89.0850090286
 31
0.0
  0
LINE
  5
436
330
1F
100
AcDbEntity
  8
0
  6
Continuous
 62
     7
370
    15
100
AcDbLine
 10
89.5295383698
 20
92.0769452411
 30
0.0
 11
89.5295383698
 21
89.0850090286
 31
0.0
  0
LINE
  5
437
330
1F
100
AcDbEntity
  8
0
  6
Continuous
 62
     7
370
    15
100
AcDbLine
 10
88.0295383698
 20
91.2823275767
 30
0.0
 11
88.0295383698
 21
92.0769452411
 31
0.0
  0
LINE
  5
438
330
1F
100
AcDbEntity
  8
0
  6
Continuous
 62
     7
370
    15
100
AcDbLine
 10
91.0295383698
 20
92.4706930485
 30
0.0
 11
91.0295383698
 21
94.0850090286
 31
0.0
  0
LINE
  5
439
330
1F
100
AcDbEntity
  8
0
  6
Continuous
 62
     7
370
    15
100
AcDbLine
 10
36.0295383698
 20
90.1993250087
 30
0.0
 11
36.0295383698
 21
92.4706930485
 31
0.0
  0
ARC
  5
43A
330
1F
100
AcDbEntity
  8
0
  6
Continuous
 62
     7
370
    15
100
AcDbCircle
 10
43.0295383698
 20
100.5850090286
 30
0.0
 40
1.749999999999833
100
AcDbArc
 50
346.6673866717
 51
166.6673866717
  0
ARC
  5
43B
330
1F
100
AcDbEntity
  8
0
  6
Continuous
 62
     7
370
    15
100
AcDbCircle
 10
43.0295383698
 20
100.5850090286
 30
0.0
 40
1.749999999999833
100
AcDbArc
 50
166.6673866717
 51
346.6673866717
  0
CIRCLE
  5
43C
330
1F
100
AcDbEntity
  8
0
  6
Continuous
 62
     7
370
    15
100
AcDbCircle
 10
43.0295383698
 20
100.5850090286
 30
0.0
 40
1.500000000000425
  0
CIRCLE
  5
43D
330
1F
100
AcDbEntity
  8
0
  6
Continuous
 62
     7
370
    15
100
AcDbCircle
 10
43.0295383698
 20
100.5850090286
 30
0.0
 40
1.000000000000177
  0
LINE
  5
43E
330
1F
100
AcDbEntity
  8
0
  6
Continuous
 62
     7
370
    15
100
AcDbLine
 10
40.2502967558
 20
97.6391108548
 30
0.0
 11
44.1911402183
 21
96.7051661006
 31
0.0
  0
LINE
  5
43F
330
1F
100
AcDbEntity
  8
0
  6
Continuous
 62
     7
370
    15
100
AcDbLine
 10
39.0886949074
 20
101.5189537828
 30
0.0
 11
40.2502967558
 21
97.6391108548
 31
0.0
  0
LINE
  5
440
330
1F
100
AcDbEntity
  8
0
  6
Continuous
 62
     7
370
    15
100
AcDbLine
 10
41.8679365214
 20
104.4648519566
 30
0.0
 11
39.0886949074
 21
101.5189537828
 31
0.0
  0
LINE
  5
441
330
1F
100
AcDbEntity
  8
0
  6
Continuous
 62
     7
370
    15
100
AcDbLine
 10
45.8087799839
 20
103.5309072024
 30
0.0
 11
41.8679365214
 21
104.4648519566
 31
0.0
  0
LINE
  5
442
330
1F
100
AcDbEntity
  8
0
  6
Continuous
 62
     7
370
    15
100
AcDbLine
 10
46.9703818323
 20
99.6510642744
 30
0.0
 11
45.8087799839
 21
103.5309072024
 31
0.0
  0
LINE
  5
443
330
1F
100
AcDbEntity
  8
0
  6
Continuous
 62
     7
370
    15
100
AcDbLine
 10
44.1911402183
 20
96.7051661006
 30
0.0
 11
46.9703818323
 21
99.6510642744
 31
0.0
  0
ARC
  5
444
330
1F
100
AcDbEntity
  8
0
  6
Continuous
 62
     7
370
    15
100
AcDbCircle
 10
43.0295383698
 20
100.5850090286
 30
0.0
 40
4.000000000000007
100
AcDbArc
 50
0.0
 51
45.4026163138
  0
ARC
  5
445
330
1F
100
AcDbEntity
  8
0
  6
Continuous
 62
     7
370
    15
100
AcDbCircle
 10
43.0295383698
 20
100.5850090286
 30
0.0
 40
4.000000000000007
100
AcDbArc
 50
47.9321570296
 51
105.4026163138
  0
ARC
  5
446
330
1F
100
AcDbEntity
  8
0
  6
Continuous
 62
     7
370
    15
100
AcDbCircle
 10
43.0295383698
 20
100.5850090286
 30
0.0
 40
4.000000000000004
100
AcDbArc
 50
107.9321570297
 51
165.4026163138
  0
ARC
  5
447
330
1F
100
AcDbEntity
  8
0
  6
Continuous
 62
     7
370
    15
100
AcDbCircle
 10
43.0295383698
 20
100.5850090286
 30
0.0
 40
4.0
100
AcDbArc
 50
167.9321570297
 51
225.4026163137
  0
ARC
  5
448
330
1F
100
AcDbEntity
  8
0
  6
Continuous
 62
     7
370
    15
100
AcDbCircle
 10
43.0295383698
 20
100.5850090286
 30
0.0
 40
3.999999999999997
100
AcDbArc
 50
227.9321570297
 51
285.4026163137
  0
ARC
  5
449
330
1F
100
AcDbEntity
  8
0
  6
Continuous
 62
     7
370
    15
100
AcDbCircle
 10
43.0295383698
 20
100.5850090286
 30
0.0
 40
4.0
100
AcDbArc
 50
287.9321570297
 51
345.4026163137
  0
LWPOLYLINE
  5
44A
330
1F
100
AcDbEntity
  8
0
  6
Continuous
 62
     7
370
    15
100
AcDbPolyline
 90
        3
 70
   128
 43
0.0
 10
46.9411412912
 20
99.7487300168
 10
47.0014627539
 20
100.1119163449
 10
47.0295383698
 20
100.5850090286
  0
LINE
  5
44B
330
1F
100
AcDbEntity
  8
0
  6
Continuous
 62
     8
370
    15
100
AcDbLine
 10
89.8242306097
 20
89.0850090286
 30
0.0
 11
89.8242306097
 21
93.5850090286
 31
0.0
  0
LINE
  5
44C
330
1F
100
AcDbEntity
  8
0
  6
Continuous
 62
     8
370
    15
100
AcDbLine
 10
90.6292864471
 20
91.1728991138
 30
0.0
 11
90.6292864471
 21
89.4918099905
 31
0.0
  0
LINE
  5
44D
330
1F
100
AcDbEntity
  8
0
  6
Continuous
 62
     8
370
    15
100
AcDbLine
 10
90.6292864471
 20
93.1782080666
 30
0.0
 11
90.6292864471
 21
91.1728991138
 31
0.0
  0
LINE
  5
44E
330
1F
100
AcDbEntity
  8
0
  6
Continuous
 62
     8
370
    15
100
AcDbLine
 10
90.9320662885
 20
89.9027254897
 30
0.0
 11
90.9320662885
 21
92.7672925675
 31
0.0
  0
LINE
  5
44F
330
1F
100
AcDbEntity
  8
0
  6
Continuous
 62
     8
370
    15
100
AcDbLine
 10
37.23484613
 20
112.0850090286
 30
0.0
 11
37.23484613
 21
109.2156016424
 31
0.0
  0
LINE
  5
450
330
1F
100
AcDbEntity
  8
0
  6
Continuous
 62
     8
370
    15
100
AcDbLine
 10
36.4297902926
 20
109.2156016424
 30
0.0
 11
36.4297902926
 21
111.6782080666
 31
0.0
  0
LINE
  5
451
330
1F
100
AcDbEntity
  8
0
  6
Continuous
 62
     8
370
    15
100
AcDbLine
 10
36.1270104512
 20
111.2672925675
 30
0.0
 11
36.1270104512
 21
109.2156016424
 31
0.0
  0
LINE
  5
452
330
1F
100
AcDbEntity
  8
0
  6
Continuous
 62
     8
370
    15
100
AcDbLine
 10
37.23484613
 20
89.8166347376
 30
0.0
 11
37.23484613
 21
89.0850090286
 31
0.0
  0
LINE
  5
453
330
1F
100
AcDbEntity
  8
0
  6
Continuous
 62
     8
370
    15
100
AcDbLine
 10
37.23484613
 20
93.5850090286
 30
0.0
 11
37.23484613
 21
89.8166347376
 31
0.0
  0
LINE
  5
454
330
1F
100
AcDbEntity
  8
0
  6
Continuous
 62
     8
370
    15
100
AcDbLine
 10
36.4297902926
 20
89.4918099905
 30
0.0
 11
36.4297902926
 21
93.1782080666
 31
0.0
  0
LINE
  5
455
330
1F
100
AcDbEntity
  8
0
  6
Continuous
 62
     8
370
    15
100
AcDbLine
 10
36.1270104512
 20
90.3684568051
 30
0.0
 11
36.1270104512
 21
89.9027254897
 31
0.0
  0
LINE
  5
456
330
1F
100
AcDbEntity
  8
0
  6
Continuous
 62
     8
370
    15
100
AcDbLine
 10
36.1270104512
 20
92.7672925675
 30
0.0
 11
36.1270104512
 21
90.3684568051
 31
0.0
  0
LINE
  5
457
330
1F
100
AcDbEntity
  8
0
  6
CENTERX2
 62
     7
370
     0
100
AcDbLine
 10
94.0295383698
 20
103.5850090286
 30
0.0
 11
114.0295383698
 21
103.5850090286
 31
0.0
  0
LINE
  5
458
330
1F
100
AcDbEntity
  8
0
  6
CENTERX2
 62
     7
370
     0
100
AcDbLine
 10
114.0295383698
 20
103.5850090286
 30
0.0
 11
114.0295383698
 21
97.5850090286
 31
0.0
  0
LINE
  5
459
330
1F
100
AcDbEntity
  8
0
  6
CENTERX2
 62
     7
370
     0
100
AcDbLine
 10
114.0295383698
 20
97.5850090286
 30
0.0
 11
94.0295383698
 21
97.5850090286
 31
0.0
  0
DIMENSION
  5
45A
330
1F
100
AcDbEntity
  8
0
  6
Continuous
 62
     7
370
     0
100
AcDbDimension
  2
_D_10
 10
94.0295383698
 20
115.0087623922
 30
0.0
 11
104.0295383698
 21
115.0087623922
 31
0.0
 70
   160
  1
<>st
 71
     2
 42
-1.0
  3
SLDDIMSTYLE0
100
AcDbAlignedDimension
 13
114.0295383698
 23
103.5850090286
 33
0.0
 14
94.0295383698
 24
103.5850090286
 34
0.0
100
AcDbRotatedDimension
  0
DIMENSION
  5
465
330
1F
100
AcDbEntity
  8
0
  6
Continuous
 62
     7
370
     0
100
AcDbDimension
  2
_D_11
 10
43.0295383698
 20
74.0850090286
 30
0.0
 11
40.0945044979
 21
74.0850090286
 31
0.0
 70
   160
  1
<>
 71
     2
 42
-1.0
  3
SLDDIMSTYLE2
100
AcDbAlignedDimension
 13
36.0295383698
 23
90.1993250087
 33
0.0
 14
43.0295383698
 24
94.0850090286
 34
0.0
100
AcDbRotatedDimension
  0
DIMENSION
  5
471
330
1F
100
AcDbEntity
  8
0
  6
Continuous
 62
     7
370
     0
100
AcDbDimension
  2
_D_12
 10
36.2295383698
 20
120.3081795286
 30
0.0
 11
61.6464376185
 21
120.3081795286
 31
0.0
 70
   160
  1
<>
 71
     2
 42
-1.0
  3
SLDDIMSTYLE5
100
AcDbAlignedDimension
 13
88.0295383698
 23
112.0850090286
 33
0.0
 14
36.2295383698
 24
108.5693687399
 34
0.0
 50
0.0
100
AcDbRotatedDimension
  0
DIMENSION
  5
47C
330
1F
100
AcDbEntity
  8
0
  6
Continuous
 62
     7
370
     0
100
AcDbDimension
  2
_D_13
 10
94.0295383698
 20
129.5204809811
 30
0.0
 11
64.7174039789
 21
129.5204809811
 31
0.0
 70
   160
  1
<>
 71
     2
 42
-1.0
  3
SLDDIMSTYLE0
100
AcDbAlignedDimension
 13
36.0295383698
 23
108.849995417
 33
0.0
 14
94.0295383698
 24
103.5850090286
 34
0.0
 50
0.0
100
AcDbRotatedDimension
  0
INSERT
  5
491
330
1F
100
AcDbEntity
  8
0
  6
Continuous
 62
     7
370
     0
100
AcDbBlockReference
  2
SW_CENTERMARKSYMBOL_7
 10
43.0295383698
 20
100.5850090286
 30
0.0
  0
ENDSEC
  0
SECTION
  2
OBJECTS
  0
DICTIONARY
  5
C
330
0
100
AcDbDictionary
281
     1
  3
ACAD_GROUP
350
D
  3
ACAD_LAYOUT
350
1A
  3
ACAD_MLINESTYLE
350
17
  3
ACAD_PLOTSETTINGS
350
19
  3
ACAD_PLOTSTYLENAME
350
E
  0
DICTIONARY
  5
D
102
{ACAD_REACTORS
330
C
102
}
330
C
100
AcDbDictionary
281
     1
  0
DICTIONARY
  5
1A
102
{ACAD_REACTORS
330
C
102
}
330
C
100
AcDbDictionary
281
     1
  3
Layout1
350
1E
  3
Layout2
350
26
  3
Model
350
22
  0
DICTIONARY
  5
17
102
{ACAD_REACTORS
330
C
102
}
330
C
100
AcDbDictionary
281
     1
  3
Standard
350
18
  0
DICTIONARY
  5
19
102
{ACAD_REACTORS
330
C
102
}
330
C
100
AcDbDictionary
281
     1
  0
ACDBDICTIONARYWDFLT
  5
E
102
{ACAD_REACTORS
330
C
102
}
330
C
100
AcDbDictionary
281
     1
  3
Normal
350
F
100
AcDbDictionaryWithDefault
340
F
  0
LAYOUT
  5
1E
102
{ACAD_REACTORS
330
1A
102
}
330
1A
100
AcDbPlotSettings
  1

  2
none_device
  4

  6

 40
0.0
 41
0.0
 42
0.0
 43
0.0
 44
0.0
 45
0.0
 46
0.0
 47
0.0
 48
0.0
 49
0.0
140
0.0
141
0.0
142
1.0
143
1.0
 70
   688
 72
     0
 73
     0
 74
     5
  7

 75
    16
147
1.0
148
0.0
149
0.0
100
AcDbLayout
  1
Layout1
 70
     1
 71
     1
 10
0.0
 20
0.0
 11
420.0
 21
297.0
 12
0.0
 22
0.0
 32
0.0
 14
1.0000000000E+20
 24
1.0000000000E+20
 34
1.0000000000E+20
 15
-1.0000000000E+20
 25
-1.0000000000E+20
 35
-1.0000000000E+20
146
0.0
 13
0.0
 23
0.0
 33
0.0
 16
1.0
 26
0.0
 36
0.0
 17
0.0
 27
1.0
 37
0.0
 76
     0
330
1B
  0
LAYOUT
  5
26
102
{ACAD_REACTORS
330
1A
102
}
330
1A
100
AcDbPlotSettings
  1

  2
none_device
  4

  6

 40
0.0
 41
0.0
 42
0.0
 43
0.0
 44
0.0
 45
0.0
 46
0.0
 47
0.0
 48
0.0
 49
0.0
140
0.0
141
0.0
142
1.0
143
1.0
 70
   688
 72
     0
 73
     0
 74
     5
  7

 75
    16
147
1.0
148
0.0
149
0.0
100
AcDbLayout
  1
Layout2
 70
     1
 71
     2
 10
0.0
 20
0.0
 11
0.0
 21
0.0
 12
0.0
 22
0.0
 32
0.0
 14
0.0
 24
0.0
 34
0.0
 15
0.0
 25
0.0
 35
0.0
146
0.0
 13
0.0
 23
0.0
 33
0.0
 16
1.0
 26
0.0
 36
0.0
 17
0.0
 27
1.0
 37
0.0
 76
     0
330
23
  0
LAYOUT
  5
22
102
{ACAD_REACTORS
330
1A
102
}
330
1A
100
AcDbPlotSettings
  1

  2
none_device
  4

  6

 40
0.0
 41
0.0
 42
0.0
 43
0.0
 44
0.0
 45
0.0
 46
0.0
 47
0.0
 48
0.0
 49
0.0
140
0.0
141
0.0
142
1.0
143
1.0
 70
  1712
 72
     0
 73
     0
 74
     0
  7

 75
     0
147
1.0
148
0.0
149
0.0
100
AcDbLayout
  1
Model
 70
     1
 71
     0
 10
0.0
 20
0.0
 11
210.0
 21
297.0
 12
0.0
 22
0.0
 32
0.0
 14
0.0
 24
0.0
 34
0.0
 15
210.0
 25
297.0
 35
0.0
146
0.0
 13
0.0
 23
0.0
 33
0.0
 16
1.0
 26
0.0
 36
0.0
 17
0.0
 27
1.0
 37
0.0
 76
     0
330
1F
331
29
  0
MLINESTYLE
  5
18
102
{ACAD_REACTORS
330
17
102
}
330
17
100
AcDbMlineStyle
  2
Standard
 70
     0
  3

 62
   256
 51
90.0
 52
90.0
 71
     2
 49
0.5
 62
   256
  6
BYLAYER
 49
-0.5
 62
   256
  6
BYLAYER
  0
ACDBPLACEHOLDER
  5
F
102
{ACAD_REACTORS
330
E
102
}
330
E
  0
ENDSEC
  0
EOF
