  0
SECTION
  2
HEADER
  9
$ACADVER
  1
AC1015
  9
$ACADMAINTVER
 70
     6
  9
$DWGCODEPAGE
  3
DOS932
  9
$INSBASE
 10
0.0
 20
0.0
 30
0.0
  9
$EXTMIN
 10
0.0
 20
0.0
 30
0.0
  9
$EXTMAX
 10
210.0
 20
297.0
 30
0.0
  9
$LIMMIN
 10
0.0
 20
0.0
  9
$LIMMAX
 10
0.0
 20
0.0
  9
$ORTHOMODE
 70
     0
  9
$REGENMODE
 70
     1
  9
$FILLMODE
 70
     1
  9
$QTEXTMODE
 70
     0
  9
$MIRRTEXT
 70
     1
  9
$LTSCALE
 40
1.0
  9
$ATTMODE
 70
     1
  9
$TEXTSIZE
 40
3.5
  9
$TRACEWID
 40
1.0
  9
$TEXTSTYLE
  7
Standard
  9
$CLAYER
  8
0
  9
$CELTYPE
  6
ByLayer
  9
$CECOLOR
 62
   256
  9
$CELTSCALE
 40
1.0
  9
$DISPSILH
 70
     0
  9
$DIMSCALE
 40
1.0
  9
$DIMASZ
 40
3.0
  9
$DIMEXO
 40
1.0
  9
$DIMDLI
 40
3.75
  9
$DIMRND
 40
0.0
  9
$DIMDLE
 40
0.0
  9
$DIMEXE
 40
1.0
  9
$DIMTP
 40
0.0
  9
$DIMTM
 40
0.0
  9
$DIMTXT
 40
3.5
  9
$DIMCEN
 40
2.5
  9
$DIMTSZ
 40
0.0
  9
$DIMTOL
 70
     0
  9
$DIMLIM
 70
     0
  9
$DIMTIH
 70
     1
  9
$DIMTOH
 70
     1
  9
$DIMSE1
 70
     0
  9
$DIMSE2
 70
     0
  9
$DIMTAD
 70
     1
  9
$DIMZIN
 70
     1
  9
$DIMBLK
  1

  9
$DIMASO
 70
     1
  9
$DIMSHO
 70
     1
  9
$DIMPOST
  1

  9
$DIMAPOST
  1

  9
$DIMALT
 70
     0
  9
$DIMALTD
 70
     3
  9
$DIMALTF
 40
0.0393700787
  9
$DIMLFAC
 40
1.0
  9
$DIMTOFL
 70
     1
  9
$DIMTVP
 40
0.0
  9
$DIMTIX
 70
     0
  9
$DIMSOXD
 70
     0
  9
$DIMSAH
 70
     0
  9
$DIMBLK1
  1

  9
$DIMBLK2
  1

  9
$DIMSTYLE
  2
ISO-25
  9
$DIMCLRD
 70
     0
  9
$DIMCLRE
 70
     0
  9
$DIMCLRT
 70
     0
  9
$DIMTFAC
 40
1.0
  9
$DIMGAP
 40
1.524
  9
$DIMJUST
 70
     0
  9
$DIMSD1
 70
     0
  9
$DIMSD2
 70
     0
  9
$DIMTOLJ
 70
     0
  9
$DIMTZIN
 70
     1
  9
$DIMALTZ
 70
     0
  9
$DIMALTTZ
 70
     0
  9
$DIMUPT
 70
     0
  9
$DIMDEC
 70
     2
  9
$DIMTDEC
 70
     2
  9
$DIMALTU
 70
     2
  9
$DIMALTTD
 70
     3
  9
$DIMTXSTY
  7
Standard
  9
$DIMAUNIT
 70
     0
  9
$DIMADEC
 70
     0
  9
$DIMALTRND
 40
0.0
  9
$DIMAZIN
 70
     0
  9
$DIMDSEP
 70
    44
  9
$DIMATFIT
 70
     3
  9
$DIMFRAC
 70
     0
  9
$DIMLDRBLK
  1

  9
$DIMLUNIT
 70
     2
  9
$DIMLWD
 70
    -2
  9
$DIMLWE
 70
    -2
  9
$DIMTMOVE
 70
     0
  9
$LUNITS
 70
     2
  9
$LUPREC
 70
     2
  9
$SKETCHINC
 40
1.0
  9
$FILLETRAD
 40
10.0
  9
$AUNITS
 70
     0
  9
$AUPREC
 70
     0
  9
$MENU
  1
.
  9
$ELEVATION
 40
0.0
  9
$PELEVATION
 40
0.0
  9
$THICKNESS
 40
0.0
  9
$LIMCHECK
 70
     0
  9
$CHAMFERA
 40
10.0
  9
$CHAMFERB
 40
10.0
  9
$CHAMFERC
 40
20.0
  9
$CHAMFERD
 40
0.0
  9
$SKPOLY
 70
     0
  9
$TDCREATE
 40
2454358.61747956
  9
$TDUCREATE
 40
2454358.24247956
  9
$TDUPDATE
 40
2454358.617479572
  9
$TDUUPDATE
 40
2454358.242479572
  9
$TDINDWG
 40
0.0000000116
  9
$TDUSRTIMER
 40
0.0000000116
  9
$USRTIMER
 70
     1
  9
$ANGBASE
 50
0.0
  9
$ANGDIR
 70
     0
  9
$PDMODE
 70
     0
  9
$PDSIZE
 40
-1.0
  9
$PLINEWID
 40
0.0
  9
$SPLFRAME
 70
     0
  9
$SPLINETYPE
 70
     6
  9
$SPLINESEGS
 70
     8
  9
$HANDSEED
  5
130
  9
$SURFTAB1
 70
     6
  9
$SURFTAB2
 70
     6
  9
$SURFTYPE
 70
     6
  9
$SURFU
 70
     6
  9
$SURFV
 70
     6
  9
$UCSBASE
  2

  9
$UCSNAME
  2

  9
$UCSORG
 10
0.0
 20
0.0
 30
0.0
  9
$UCSXDIR
 10
1.0
 20
0.0
 30
0.0
  9
$UCSYDIR
 10
0.0
 20
1.0
 30
0.0
  9
$UCSORTHOREF
  2

  9
$UCSORTHOVIEW
 70
     0
  9
$UCSORGTOP
 10
0.0
 20
0.0
 30
0.0
  9
$UCSORGBOTTOM
 10
0.0
 20
0.0
 30
0.0
  9
$UCSORGLEFT
 10
0.0
 20
0.0
 30
0.0
  9
$UCSORGRIGHT
 10
0.0
 20
0.0
 30
0.0
  9
$UCSORGFRONT
 10
0.0
 20
0.0
 30
0.0
  9
$UCSORGBACK
 10
0.0
 20
0.0
 30
0.0
  9
$PUCSBASE
  2

  9
$PUCSNAME
  2

  9
$PUCSORG
 10
0.0
 20
0.0
 30
0.0
  9
$PUCSXDIR
 10
1.0
 20
0.0
 30
0.0
  9
$PUCSYDIR
 10
0.0
 20
1.0
 30
0.0
  9
$PUCSORTHOREF
  2

  9
$PUCSORTHOVIEW
 70
     0
  9
$PUCSORGTOP
 10
0.0
 20
0.0
 30
0.0
  9
$PUCSORGBOTTOM
 10
0.0
 20
0.0
 30
0.0
  9
$PUCSORGLEFT
 10
0.0
 20
0.0
 30
0.0
  9
$PUCSORGRIGHT
 10
0.0
 20
0.0
 30
0.0
  9
$PUCSORGFRONT
 10
0.0
 20
0.0
 30
0.0
  9
$PUCSORGBACK
 10
0.0
 20
0.0
 30
0.0
  9
$USERI1
 70
     0
  9
$USERI2
 70
     0
  9
$USERI3
 70
     0
  9
$USERI4
 70
     0
  9
$USERI5
 70
     0
  9
$USERR1
 40
0.0
  9
$USERR2
 40
0.0
  9
$USERR3
 40
0.0
  9
$USERR4
 40
0.0
  9
$USERR5
 40
0.0
  9
$WORLDVIEW
 70
     1
  9
$SHADEDGE
 70
     3
  9
$SHADEDIF
 70
    70
  9
$TILEMODE
 70
     1
  9
$MAXACTVP
 70
    64
  9
$PINSBASE
 10
0.0
 20
0.0
 30
0.0
  9
$PLIMCHECK
 70
     0
  9
$PEXTMIN
 10
1.0000000000E+20
 20
1.0000000000E+20
 30
1.0000000000E+20
  9
$PEXTMAX
 10
-1.0000000000E+20
 20
-1.0000000000E+20
 30
-1.0000000000E+20
  9
$PLIMMIN
 10
0.0
 20
0.0
  9
$PLIMMAX
 10
420.0
 20
297.0
  9
$UNITMODE
 70
     0
  9
$VISRETAIN
 70
     1
  9
$PLINEGEN
 70
     0
  9
$PSLTSCALE
 70
     1
  9
$TREEDEPTH
 70
  3020
  9
$CMLSTYLE
  2
Standard
  9
$CMLJUST
 70
     0
  9
$CMLSCALE
 40
20.0
  9
$PROXYGRAPHICS
 70
     1
  9
$MEASUREMENT
 70
     1
  9
$CELWEIGHT
370
    -1
  9
$ENDCAPS
280
     0
  9
$JOINSTYLE
280
     0
  9
$LWDISPLAY
290
     1
  9
$INSUNITS
 70
     4
  9
$HYPERLINKBASE
  1

  9
$STYLESHEET
  1

  9
$XEDIT
290
     1
  9
$CEPSNTYPE
380
     0
  9
$PSTYLEMODE
290
     1
  9
$FINGERPRINTGUID
  2
{471E37EC-04DC-4818-85E2-6FA29FB7F7C2}
  9
$VERSIONGUID
  2
{FAEB1C32-E019-11D5-929B-00C0DF256EC4}
  9
$EXTNAMES
290
     1
  9
$PSVPSCALE
 40
0.0
  9
$OLESTARTUP
290
     0
  0
ENDSEC
  0
SECTION
  2
CLASSES
  0
CLASS
  1
ACDBDICTIONARYWDFLT
  2
AcDbDictionaryWithDefault
  3
ObjectDBX Classes
 90
        0
280
     0
281
     0
  0
CLASS
  1
ACDBPLACEHOLDER
  2
AcDbPlaceHolder
  3
ObjectDBX Classes
 90
        0
280
     0
281
     0
  0
CLASS
  1
LAYOUT
  2
AcDbLayout
  3
ObjectDBX Classes
 90
        0
280
     0
281
     0
  0
ENDSEC
  0
SECTION
  2
TABLES
  0
TABLE
  2
VPORT
  5
8
330
0
100
AcDbSymbolTable
 70
     1
  0
VPORT
  5
29
330
8
100
AcDbSymbolTableRecord
100
AcDbViewportTableRecord
  2
*Active
 70
     0
 10
0.0
 20
0.0
 11
1.0
 21
1.0
 12
105.0
 22
148.5
 13
0.0
 23
0.0
 14
10.0
 24
10.0
 15
10.0
 25
10.0
 16
0.0
 26
0.0
 36
1.0
 17
0.0
 27
0.0
 37
0.0
 40
297.0
 41
1.9729729729
 42
50.0
 43
0.0
 44
0.0
 50
0.0
 51
0.0
 71
     0
 72
  2000
 73
     1
 74
     3
 75
     0
 76
     0
 77
     0
 78
     0
281
     0
 65
     1
110
0.0
120
0.0
130
0.0
111
1.0
121
0.0
131
0.0
112
0.0
122
1.0
132
0.0
 79
     0
146
0.0
  0
ENDTAB
  0
TABLE
  2
LTYPE
  5
5
330
0
100
AcDbSymbolTable
 70
     6
  0
LTYPE
  5
14
330
5
100
AcDbSymbolTableRecord
100
AcDbLinetypeTableRecord
  2
ByBlock
 70
     0
  3

 72
    65
 73
     0
 40
0.0
  0
LTYPE
  5
15
330
5
100
AcDbSymbolTableRecord
100
AcDbLinetypeTableRecord
  2
ByLayer
 70
     0
  3

 72
    65
 73
     0
 40
0.0
  0
LTYPE
  5
16
330
5
100
AcDbSymbolTableRecord
100
AcDbLinetypeTableRecord
  2
Continuous
 70
     0
  3
Solid line
 72
    65
 73
     0
 40
0.0
  0
LTYPE
  5
2A
330
5
100
AcDbSymbolTableRecord
100
AcDbLinetypeTableRecord
  2
HIDDEN
 70
     0
  3
Hidden __ __ __ __ __ __ __ __ __ __ __ __ __ __
 72
    65
 73
     2
 40
1.905
 49
1.27
 74
     0
 49
-0.635
 74
     0
  0
LTYPE
  5
2B
330
5
100
AcDbSymbolTableRecord
100
AcDbLinetypeTableRecord
  2
PHANTOM
 70
     0
  3
Phantom ______  __  __  ______  __  __  ______
 72
    65
 73
     6
 40
12.7
 49
6.35
 74
     0
 49
-1.27
 74
     0
 49
1.27
 74
     0
 49
-1.27
 74
     0
 49
1.27
 74
     0
 49
-1.27
 74
     0
  0
LTYPE
  5
2C
330
5
100
AcDbSymbolTableRecord
100
AcDbLinetypeTableRecord
  2
CENTER
 70
     0
  3
Center ____ _ ____ _ ____ _ ____ _ ____ _ ____
 72
    65
 73
     4
 40
10.16
 49
6.35
 74
     0
 49
-1.27
 74
     0
 49
1.27
 74
     0
 49
-1.27
 74
     0
  0
LTYPE
  5
2D
330
5
100
AcDbSymbolTableRecord
100
AcDbLinetypeTableRecord
  2
CENTERX2
 70
     0
  3
Center (2x) ________  __  ________  __  _____
 72
    65
 73
     4
 40
20.32
 49
12.7
 74
     0
 49
-2.54
 74
     0
 49
2.54
 74
     0
 49
-2.54
 74
     0
  0
LTYPE
  5
2E
330
5
100
AcDbSymbolTableRecord
100
AcDbLinetypeTableRecord
  2
DOT2
 70
     0
  3
Dot (.5x) ........................................
 72
    65
 73
     2
 40
0.635
 49
0.0
 74
     0
 49
-0.635
 74
     0
  0
ENDTAB
  0
TABLE
  2
LAYER
  5
2
330
0
100
AcDbSymbolTable
 70
     4
  0
LAYER
  5
10
330
2
100
AcDbSymbolTableRecord
100
AcDbLayerTableRecord
  2
0
 70
     0
 62
     7
  6
Continuous
370
    -3
390
F
  0
LAYER
  5
2F
330
2
100
AcDbSymbolTableRecord
100
AcDbLayerTableRecord
  2
SLD-0
 70
     0
 62
   179
  6
Continuous
370
     0
390
F
  0
LAYER
  5
30
330
2
100
AcDbSymbolTableRecord
100
AcDbLayerTableRecord
  2
SLD-DEFPOINTS
 70
     0
 62
   179
  6
Continuous
370
     0
390
F
  0
LAYER
  5
62
330
2
100
AcDbSymbolTableRecord
100
AcDbLayerTableRecord
  2
Defpoints
 70
     0
 62
     7
  6
Continuous
290
     0
370
    -3
390
F
  0
ENDTAB
  0
TABLE
  2
STYLE
  5
3
330
0
100
AcDbSymbolTable
 70
     4
  0
STYLE
  5
11
330
3
100
AcDbSymbolTableRecord
100
AcDbTextStyleTableRecord
  2
Standard
 70
     0
 40
0.0
 41
1.0
 50
0.0
 71
     0
 42
2.5
  3
txt
  4
bigfont
  0
STYLE
  5
34
330
3
100
AcDbSymbolTableRecord
100
AcDbTextStyleTableRecord
  2
SLDTEXTSTYLE0
 70
     0
 40
0.0
 41
0.7
 50
0.0
 71
     0
 42
0.2
  3
TXT
  4
bigfont
  0
STYLE
  5
70
330
3
100
AcDbSymbolTableRecord
100
AcDbTextStyleTableRecord
  2
SLDTEXTSTYLE1
 70
     0
 40
0.0
 41
0.5526315789
 50
0.0
 71
     0
 42
0.2
  3
TXT
  4
bigfont
  0
STYLE
  5
D0
330
3
100
AcDbSymbolTableRecord
100
AcDbTextStyleTableRecord
  2
SLDTEXTSTYLE2
 70
     0
 40
0.0
 41
0.5
 50
0.0
 71
     0
 42
0.2
  3
TXT
  4
bigfont
  0
ENDTAB
  0
TABLE
  2
VIEW
  5
6
330
0
100
AcDbSymbolTable
 70
     0
  0
ENDTAB
  0
TABLE
  2
UCS
  5
7
330
0
100
AcDbSymbolTable
 70
     0
  0
ENDTAB
  0
TABLE
  2
APPID
  5
9
330
0
100
AcDbSymbolTable
 70
     1
  0
APPID
  5
12
330
9
100
AcDbSymbolTableRecord
100
AcDbRegAppTableRecord
  2
ACAD
 70
     0
  0
ENDTAB
  0
TABLE
  2
DIMSTYLE
  5
A
330
0
100
AcDbSymbolTable
 70
     2
100
AcDbDimStyleTable
  0
DIMSTYLE
105
27
330
A
100
AcDbSymbolTableRecord
100
AcDbDimStyleTableRecord
  2
ISO-25
 70
     0
 41
2.5
 42
0.625
 43
3.75
 44
1.25
 73
     0
 74
     0
 77
     1
 78
     8
140
2.5
141
2.5
143
0.0393700787
147
0.625
171
     3
172
     1
271
     2
272
     2
274
     3
278
    44
283
     0
284
     8
340
11
  0
DIMSTYLE
105
71
102
{ACAD_REACTORS
330
61
330
7B
330
92
330
A8
330
C0
330
D5
330
EB
330
105
330
11A
102
}
330
A
100
AcDbSymbolTableRecord
100
AcDbDimStyleTableRecord
  2
SLDDIMSTYLE0
 70
     0
 41
3.0
 44
0.0
 73
     0
 74
     0
 77
     3
 78
    12
140
3.5
147
0.875
173
     1
271
     0
272
     2
284
    12
340
70
341
72
343
72
344
72
  0
ENDTAB
  0
TABLE
  2
BLOCK_RECORD
  5
1
330
0
100
AcDbSymbolTable
 70
    12
  0
BLOCK_RECORD
  5
1F
330
1
100
AcDbSymbolTableRecord
100
AcDbBlockTableRecord
  2
*Model_Space
340
22
  0
BLOCK_RECORD
  5
1B
330
1
100
AcDbSymbolTableRecord
100
AcDbBlockTableRecord
  2
*Paper_Space
340
1E
  0
BLOCK_RECORD
  5
23
330
1
100
AcDbSymbolTableRecord
100
AcDbBlockTableRecord
  2
*Paper_Space0
340
26
  0
BLOCK_RECORD
  5
31
330
1
100
AcDbSymbolTableRecord
100
AcDbBlockTableRecord
  2
注記
340
0
  0
BLOCK_RECORD
  5
63
330
1
100
AcDbSymbolTableRecord
100
AcDbBlockTableRecord
  2
*D2
340
0
  0
BLOCK_RECORD
  5
72
330
1
100
AcDbSymbolTableRecord
100
AcDbBlockTableRecord
  2
_None
340
0
102
{BLKREFS
331
68
331
67
331
82
331
81
331
98
331
97
331
AF
331
AE
331
C6
331
C5
331
DB
331
DA
331
F2
331
F1
331
10C
331
10B
331
120
331
11F
102
}
  0
BLOCK_RECORD
  5
7C
330
1
100
AcDbSymbolTableRecord
100
AcDbBlockTableRecord
  2
*D4
340
0
  0
BLOCK_RECORD
  5
93
330
1
100
AcDbSymbolTableRecord
100
AcDbBlockTableRecord
  2
*D5
340
0
  0
BLOCK_RECORD
  5
A9
330
1
100
AcDbSymbolTableRecord
100
AcDbBlockTableRecord
  2
*D6
340
0
  0
BLOCK_RECORD
  5
C1
330
1
100
AcDbSymbolTableRecord
100
AcDbBlockTableRecord
  2
*D7
340
0
  0
BLOCK_RECORD
  5
D6
330
1
100
AcDbSymbolTableRecord
100
AcDbBlockTableRecord
  2
*D8
340
0
  0
BLOCK_RECORD
  5
EC
330
1
100
AcDbSymbolTableRecord
100
AcDbBlockTableRecord
  2
*D9
340
0
  0
BLOCK_RECORD
  5
106
330
1
100
AcDbSymbolTableRecord
100
AcDbBlockTableRecord
  2
*D10
340
0
  0
BLOCK_RECORD
  5
11B
330
1
100
AcDbSymbolTableRecord
100
AcDbBlockTableRecord
  2
*D11
340
0
  0
ENDTAB
  0
ENDSEC
  0
SECTION
  2
BLOCKS
  0
BLOCK
  5
20
330
1F
100
AcDbEntity
  8
0
100
AcDbBlockBegin
  2
*Model_Space
 70
     0
 71
     0
 10
0.0
 20
0.0
 30
0.0
  3
*Model_Space
  1

  0
ENDBLK
  5
21
330
1F
100
AcDbEntity
  8
0
100
AcDbBlockEnd
  0
BLOCK
  5
1C
330
1B
100
AcDbEntity
 67
     1
  8
0
100
AcDbBlockBegin
  2
*Paper_Space
 70
     0
 71
     0
 10
0.0
 20
0.0
 30
0.0
  3
*Paper_Space
  1

  0
ENDBLK
  5
1D
330
1B
100
AcDbEntity
 67
     1
  8
0
100
AcDbBlockEnd
  0
BLOCK
  5
24
330
23
100
AcDbEntity
  8
0
100
AcDbBlockBegin
  2
*Paper_Space0
 70
     0
 71
     0
 10
0.0
 20
0.0
 30
0.0
  3
*Paper_Space0
  1

  0
ENDBLK
  5
25
330
23
100
AcDbEntity
  8
0
100
AcDbBlockEnd
  0
BLOCK
  5
32
330
31
100
AcDbEntity
  8
0
100
AcDbBlockBegin
  2
注記
 70
     0
 71
     0
 10
0.0
 20
0.0
 30
0.0
  3
注記
  1

  0
MTEXT
  5
35
330
31
100
AcDbEntity
  8
0
  6
Continuous
 62
     7
370
     0
100
AcDbMText
 10
0.2636785918
 20
9.0739778448
 30
0.0
 40
3.5
 41
0.0
 71
     1
 72
     1
  1
１．特記ナキ角部ハ、バリ　カエリノ無キコト。
  7
SLDTEXTSTYLE0
 73
     1
 44
1.0
  0
MTEXT
  5
36
330
31
100
AcDbEntity
  8
0
  6
Continuous
 62
     7
370
     0
100
AcDbMText
 10
0.2636785918
 20
3.5759549983
 30
0.0
 40
3.5
 41
0.0
 71
     1
 72
     1
  1
２．特記ナキ隅部ハ、Ｒ０．４ＭＡＸトスル。
  7
SLDTEXTSTYLE0
 73
     1
 44
1.0
  0
ENDBLK
  5
33
330
31
100
AcDbEntity
  8
0
100
AcDbBlockEnd
  0
BLOCK
  5
6E
330
63
100
AcDbEntity
  8
0
100
AcDbBlockBegin
  2
*D2
 70
     1
 71
     0
 10
0.0
 20
0.0
 30
0.0
  3
*D2
  1

  0
LINE
  5
75
330
63
100
AcDbEntity
  8
SLD-0
 62
     7
100
AcDbLine
 10
61.3998504325
 20
200.5903266557
 30
0.0
 11
47.6272733267
 21
200.5903266557
 31
0.0
  0
LINE
  5
76
330
63
100
AcDbEntity
  8
SLD-0
 62
     7
100
AcDbLine
 10
61.3998504325
 20
178.5903266557
 30
0.0
 11
47.6272733267
 21
178.5903266557
 31
0.0
  0
LINE
  5
77
330
63
100
AcDbEntity
  8
SLD-0
 62
     7
100
AcDbLine
 10
48.6272733267
 20
200.5903266557
 30
0.0
 11
48.6272733267
 21
178.5903266557
 31
0.0
  0
MTEXT
  5
78
330
63
100
AcDbEntity
  8
SLD-0
 62
     7
100
AcDbMText
 10
44.1565704928
 20
187.0046446557
 30
0.1
 40
3.5
 41
0.0
 71
     1
 72
     1
  1
22
  7
SLDTEXTSTYLE0
 11
-1.059691071871038E-14
 21
1.0
 31
0.0
 73
     1
 44
1.0
  0
SOLID
  5
79
330
63
100
AcDbEntity
  8
SLD-0
 62
     7
100
AcDbTrace
 10
48.6272733267
 20
200.5903266557
 30
0.0
 11
48.1272733267
 21
197.0903266557
 31
0.0
 12
49.1272733267
 22
197.0903266557
 32
0.0
 13
49.1272733267
 23
197.0903266557
 33
0.0
  0
SOLID
  5
7A
330
63
100
AcDbEntity
  8
SLD-0
 62
     7
100
AcDbTrace
 10
48.6272733267
 20
178.5903266557
 30
0.0
 11
49.1272733267
 21
182.0903266557
 31
0.0
 12
48.1272733267
 22
182.0903266557
 32
0.0
 13
48.1272733267
 23
182.0903266557
 33
0.0
  0
ENDBLK
  5
6F
330
63
100
AcDbEntity
  8
0
100
AcDbBlockEnd
  0
BLOCK
  5
73
330
72
100
AcDbEntity
  8
0
100
AcDbBlockBegin
  2
_None
 70
     0
 71
     0
 10
0.0
 20
0.0
 30
0.0
  3
_None
  1

  0
ENDBLK
  5
74
330
72
100
AcDbEntity
  8
0
100
AcDbBlockEnd
  0
BLOCK
  5
88
330
7C
100
AcDbEntity
  8
0
100
AcDbBlockBegin
  2
*D4
 70
     1
 71
     0
 10
0.0
 20
0.0
 30
0.0
  3
*D4
  1

  0
LINE
  5
8A
330
7C
100
AcDbEntity
  8
SLD-0
 62
     7
100
AcDbLine
 10
131.3998504325
 20
183.5903266557
 30
0.0
 11
147.4562114103
 21
183.5903266557
 31
0.0
  0
LINE
  5
8B
330
7C
100
AcDbEntity
  8
SLD-0
 62
     7
100
AcDbLine
 10
137.3998504325
 20
178.5903266557
 30
0.0
 11
147.4562114103
 21
178.5903266557
 31
0.0
  0
LINE
  5
8C
330
7C
100
AcDbEntity
  8
SLD-0
 62
     7
100
AcDbLine
 10
146.4562114103
 20
183.5903266557
 30
0.0
 11
146.4562114103
 21
188.5903266557
 31
0.0
  0
LINE
  5
8D
330
7C
100
AcDbEntity
  8
SLD-0
 62
     7
100
AcDbLine
 10
146.4562114103
 20
183.5903266557
 30
0.0
 11
146.4562114103
 21
178.5903266557
 31
0.0
  0
LINE
  5
8E
330
7C
100
AcDbEntity
  8
SLD-0
 62
     7
100
AcDbLine
 10
146.4562114103
 20
178.5903266557
 30
0.0
 11
146.4562114103
 21
168.9649668965
 31
0.0
  0
MTEXT
  5
8F
330
7C
100
AcDbEntity
  8
SLD-0
 62
     7
100
AcDbMText
 10
141.9855085763
 20
170.5524668965
 30
0.1
 40
3.5
 41
0.0
 71
     1
 72
     1
  1
5
  7
SLDTEXTSTYLE0
 11
-1.059691071871038E-14
 21
1.0
 31
0.0
 73
     1
 44
1.0
  0
SOLID
  5
90
330
7C
100
AcDbEntity
  8
SLD-0
 62
     7
100
AcDbTrace
 10
146.4562114103
 20
183.5903266557
 30
0.0
 11
146.9562114103
 21
187.0903266557
 31
0.0
 12
145.9562114103
 22
187.0903266557
 32
0.0
 13
145.9562114103
 23
187.0903266557
 33
0.0
  0
SOLID
  5
91
330
7C
100
AcDbEntity
  8
SLD-0
 62
     7
100
AcDbTrace
 10
146.4562114103
 20
178.5903266557
 30
0.0
 11
145.9562114103
 21
175.0903266557
 31
0.0
 12
146.9562114103
 22
175.0903266557
 32
0.0
 13
146.9562114103
 23
175.0903266557
 33
0.0
  0
ENDBLK
  5
89
330
7C
100
AcDbEntity
  8
0
100
AcDbBlockEnd
  0
BLOCK
  5
9E
330
93
100
AcDbEntity
  8
0
100
AcDbBlockBegin
  2
*D5
 70
     1
 71
     0
 10
0.0
 20
0.0
 30
0.0
  3
*D5
  1

  0
LINE
  5
A0
330
93
100
AcDbEntity
  8
SLD-0
 62
     7
100
AcDbLine
 10
131.3998504325
 20
183.5903266557
 30
0.0
 11
157.5693294822
 21
183.5903266557
 31
0.0
  0
LINE
  5
A1
330
93
100
AcDbEntity
  8
SLD-0
 62
     7
100
AcDbLine
 10
131.3998504325
 20
195.5903266557
 30
0.0
 11
157.5693294822
 21
195.5903266557
 31
0.0
  0
LINE
  5
A2
330
93
100
AcDbEntity
  8
SLD-0
 62
     7
100
AcDbLine
 10
156.5693294822
 20
183.5903266557
 30
0.0
 11
156.5693294822
 21
178.5903266557
 31
0.0
  0
LINE
  5
A3
330
93
100
AcDbEntity
  8
SLD-0
 62
     7
100
AcDbLine
 10
156.5693294822
 20
183.5903266557
 30
0.0
 11
156.5693294822
 21
195.5903266557
 31
0.0
  0
LINE
  5
A4
330
93
100
AcDbEntity
  8
SLD-0
 62
     7
100
AcDbLine
 10
156.5693294822
 20
195.5903266557
 30
0.0
 11
156.5693294822
 21
200.5903266557
 31
0.0
  0
MTEXT
  5
A5
330
93
100
AcDbEntity
  8
SLD-0
 62
     7
100
AcDbMText
 10
152.0986266483
 20
187.0046446557
 30
0.1
 40
3.5
 41
0.0
 71
     1
 72
     1
  1
12
  7
SLDTEXTSTYLE0
 11
-3.491483361109382E-15
 21
1.0
 31
0.0
 73
     1
 44
1.0
  0
SOLID
  5
A6
330
93
100
AcDbEntity
  8
SLD-0
 62
     7
100
AcDbTrace
 10
156.5693294822
 20
183.5903266557
 30
0.0
 11
156.0693294822
 21
180.0903266557
 31
0.0
 12
157.0693294822
 22
180.0903266557
 32
0.0
 13
157.0693294822
 23
180.0903266557
 33
0.0
  0
SOLID
  5
A7
330
93
100
AcDbEntity
  8
SLD-0
 62
     7
100
AcDbTrace
 10
156.5693294822
 20
195.5903266557
 30
0.0
 11
157.0693294822
 21
199.0903266557
 31
0.0
 12
156.0693294822
 22
199.0903266557
 32
0.0
 13
156.0693294822
 23
199.0903266557
 33
0.0
  0
ENDBLK
  5
9F
330
93
100
AcDbEntity
  8
0
100
AcDbBlockEnd
  0
BLOCK
  5
B6
330
A9
100
AcDbEntity
  8
0
100
AcDbBlockBegin
  2
*D6
 70
     1
 71
     0
 10
0.0
 20
0.0
 30
0.0
  3
*D6
  1

  0
LINE
  5
B8
330
A9
100
AcDbEntity
  8
SLD-0
 62
     7
100
AcDbLine
 10
61.3998504325
 20
178.5903266557
 30
0.0
 11
61.3998504325
 21
167.3357840961
 31
0.0
  0
LINE
  5
B9
330
A9
100
AcDbEntity
  8
SLD-0
 62
     7
100
AcDbLine
 10
67.3998504325
 20
183.5903266557
 30
0.0
 11
67.3998504325
 21
167.3357840961
 31
0.0
  0
LINE
  5
BA
330
A9
100
AcDbEntity
  8
SLD-0
 62
     7
100
AcDbLine
 10
61.3998504325
 20
168.3357840961
 30
0.0
 11
50.4947971156
 21
168.3357840961
 31
0.0
  0
LINE
  5
BB
330
A9
100
AcDbEntity
  8
SLD-0
 62
     7
100
AcDbLine
 10
61.3998504325
 20
168.3357840961
 30
0.0
 11
67.3998504325
 21
168.3357840961
 31
0.0
  0
LINE
  5
BC
330
A9
100
AcDbEntity
  8
SLD-0
 62
     7
100
AcDbLine
 10
67.3998504325
 20
168.3357840961
 30
0.0
 11
72.3998504325
 21
168.3357840961
 31
0.0
  0
MTEXT
  5
BD
330
A9
100
AcDbEntity
  8
SLD-0
 62
     7
100
AcDbMText
 10
52.0822971156
 20
172.8064869301
 30
0.1
 40
3.5
 41
0.0
 71
     1
 72
     1
  1
6
  7
SLDTEXTSTYLE0
 73
     1
 44
1.0
  0
SOLID
  5
BE
330
A9
100
AcDbEntity
  8
SLD-0
 62
     7
100
AcDbTrace
 10
61.3998504325
 20
168.3357840961
 30
0.0
 11
57.8998504325
 21
168.8357840961
 31
0.0
 12
57.8998504325
 22
167.8357840961
 32
0.0
 13
57.8998504325
 23
167.8357840961
 33
0.0
  0
SOLID
  5
BF
330
A9
100
AcDbEntity
  8
SLD-0
 62
     7
100
AcDbTrace
 10
67.3998504325
 20
168.3357840961
 30
0.0
 11
70.8998504325
 21
167.8357840961
 31
0.0
 12
70.8998504325
 22
168.8357840961
 32
0.0
 13
70.8998504325
 23
168.8357840961
 33
0.0
  0
ENDBLK
  5
B7
330
A9
100
AcDbEntity
  8
0
100
AcDbBlockEnd
  0
BLOCK
  5
CB
330
C1
100
AcDbEntity
  8
0
100
AcDbBlockBegin
  2
*D7
 70
     1
 71
     0
 10
0.0
 20
0.0
 30
0.0
  3
*D7
  1

  0
LINE
  5
CD
330
C1
100
AcDbEntity
  8
SLD-0
 62
     7
100
AcDbLine
 10
67.3998504325
 20
183.5903266557
 30
0.0
 11
67.3998504325
 21
156.8098856947
 31
0.0
  0
LINE
  5
CE
330
C1
100
AcDbEntity
  8
SLD-0
 62
     7
100
AcDbLine
 10
131.3998504325
 20
183.5903266557
 30
0.0
 11
131.3998504325
 21
156.8098856947
 31
0.0
  0
LINE
  5
CF
330
C1
100
AcDbEntity
  8
SLD-0
 62
     7
100
AcDbLine
 10
67.3998504325
 20
157.8098856947
 30
0.0
 11
131.3998504325
 21
157.8098856947
 31
0.0
  0
MTEXT
  5
D1
330
C1
100
AcDbEntity
  8
SLD-0
 62
     7
100
AcDbMText
 10
87.8150684325
 20
162.2805885287
 30
0.1
 40
3.5
 41
0.0
 71
     1
 72
     1
  1
16 x 4 = 
  7
SLDTEXTSTYLE2
 73
     1
 44
1.0
  0
MTEXT
  5
D2
330
C1
100
AcDbEntity
  8
SLD-0
 62
     7
100
AcDbMText
 10
105.8132684325
 20
162.2805885287
 30
0.1
 40
3.5
 41
0.0
 71
     1
 72
     1
  1
64
  7
SLDTEXTSTYLE0
 73
     1
 44
1.0
  0
SOLID
  5
D3
330
C1
100
AcDbEntity
  8
SLD-0
 62
     7
100
AcDbTrace
 10
67.3998504325
 20
157.8098856947
 30
0.0
 11
70.8998504325
 21
157.3098856947
 31
0.0
 12
70.8998504325
 22
158.3098856947
 32
0.0
 13
70.8998504325
 23
158.3098856947
 33
0.0
  0
SOLID
  5
D4
330
C1
100
AcDbEntity
  8
SLD-0
 62
     7
100
AcDbTrace
 10
131.3998504325
 20
157.8098856947
 30
0.0
 11
127.8998504325
 21
158.3098856947
 31
0.0
 12
127.8998504325
 22
157.3098856947
 32
0.0
 13
127.8998504325
 23
157.3098856947
 33
0.0
  0
ENDBLK
  5
CC
330
C1
100
AcDbEntity
  8
0
100
AcDbBlockEnd
  0
BLOCK
  5
E1
330
D6
100
AcDbEntity
  8
0
100
AcDbBlockBegin
  2
*D8
 70
     1
 71
     0
 10
0.0
 20
0.0
 30
0.0
  3
*D8
  1

  0
LINE
  5
E3
330
D6
100
AcDbEntity
  8
SLD-0
 62
     7
100
AcDbLine
 10
67.3998504325
 20
195.5903266557
 30
0.0
 11
67.3998504325
 21
208.7563055601
 31
0.0
  0
LINE
  5
E4
330
D6
100
AcDbEntity
  8
SLD-0
 62
     7
100
AcDbLine
 10
71.3998504325
 20
189.5903266557
 30
0.0
 11
71.3998504325
 21
208.7563055601
 31
0.0
  0
LINE
  5
E5
330
D6
100
AcDbEntity
  8
SLD-0
 62
     7
100
AcDbLine
 10
67.3998504325
 20
207.7563055601
 30
0.0
 11
62.3998504325
 21
207.7563055601
 31
0.0
  0
LINE
  5
E6
330
D6
100
AcDbEntity
  8
SLD-0
 62
     7
100
AcDbLine
 10
67.3998504325
 20
207.7563055601
 30
0.0
 11
71.3998504325
 21
207.7563055601
 31
0.0
  0
LINE
  5
E7
330
D6
100
AcDbEntity
  8
SLD-0
 62
     7
100
AcDbLine
 10
71.3998504325
 20
207.7563055601
 30
0.0
 11
76.3998504325
 21
207.7563055601
 31
0.0
  0
MTEXT
  5
E8
330
D6
100
AcDbEntity
  8
SLD-0
 62
     7
100
AcDbMText
 10
68.1079004325
 20
212.2270083941
 30
0.1
 40
3.5
 41
0.0
 71
     1
 72
     1
  1
4
  7
SLDTEXTSTYLE0
 73
     1
 44
1.0
  0
SOLID
  5
E9
330
D6
100
AcDbEntity
  8
SLD-0
 62
     7
100
AcDbTrace
 10
67.3998504325
 20
207.7563055601
 30
0.0
 11
63.8998504325
 21
208.2563055601
 31
0.0
 12
63.8998504325
 22
207.2563055601
 32
0.0
 13
63.8998504325
 23
207.2563055601
 33
0.0
  0
SOLID
  5
EA
330
D6
100
AcDbEntity
  8
SLD-0
 62
     7
100
AcDbTrace
 10
71.3998504325
 20
207.7563055601
 30
0.0
 11
74.8998504325
 21
207.2563055601
 31
0.0
 12
74.8998504325
 22
208.2563055601
 32
0.0
 13
74.8998504325
 23
208.2563055601
 33
0.0
  0
ENDBLK
  5
E2
330
D6
100
AcDbEntity
  8
0
100
AcDbBlockEnd
  0
BLOCK
  5
F9
330
EC
100
AcDbEntity
  8
0
100
AcDbBlockBegin
  2
*D9
 70
     1
 71
     0
 10
0.0
 20
0.0
 30
0.0
  3
*D9
  1

  0
LINE
  5
FB
330
EC
100
AcDbEntity
  8
SLD-0
 62
     7
100
AcDbLine
 10
104.8998504325
 20
195.5903266557
 30
0.0
 11
104.8998504325
 21
208.7563055601
 31
0.0
  0
LINE
  5
FC
330
EC
100
AcDbEntity
  8
SLD-0
 62
     7
100
AcDbLine
 10
109.8998504325
 20
195.5903266557
 30
0.0
 11
109.8998504325
 21
208.7563055601
 31
0.0
  0
LINE
  5
FD
330
EC
100
AcDbEntity
  8
SLD-0
 62
     7
100
AcDbLine
 10
104.8998504325
 20
207.7563055601
 30
0.0
 11
99.8998504325
 21
207.7563055601
 31
0.0
  0
LINE
  5
FE
330
EC
100
AcDbEntity
  8
SLD-0
 62
     7
100
AcDbLine
 10
104.8998504325
 20
207.7563055601
 30
0.0
 11
109.8998504325
 21
207.7563055601
 31
0.0
  0
LINE
  5
FF
330
EC
100
AcDbEntity
  8
SLD-0
 62
     7
100
AcDbLine
 10
109.8998504325
 20
207.7563055601
 30
0.0
 11
137.7730034232
 21
207.7563055601
 31
0.0
  0
MTEXT
  5
100
330
EC
100
AcDbEntity
  8
SLD-0
 62
     7
100
AcDbMText
 10
114.4272074232
 20
212.2270083359
 30
0.1
 40
3.5
 41
0.0
 71
     1
 72
     1
  1
%%c
  7
SLDTEXTSTYLE0
 73
     1
 44
1.0
  0
MTEXT
  5
101
330
EC
100
AcDbEntity
  8
SLD-0
 62
     7
100
AcDbMText
 10
121.4554914232
 20
212.2270083941
 30
0.1
 40
3.5
 41
0.0
 71
     1
 72
     1
  1
5
  7
SLDTEXTSTYLE0
 73
     1
 44
1.0
  0
MTEXT
  5
102
330
EC
100
AcDbEntity
  8
SLD-0
 62
     7
100
AcDbMText
 10
124.0393914232
 20
212.2270083941
 30
0.1
 40
3.5
 41
0.0
 71
     1
 72
     1
  1
 (26x)
  7
SLDTEXTSTYLE0
 73
     1
 44
1.0
  0
SOLID
  5
103
330
EC
100
AcDbEntity
  8
SLD-0
 62
     7
100
AcDbTrace
 10
104.8998504325
 20
207.7563055601
 30
0.0
 11
101.3998504325
 21
208.2563055601
 31
0.0
 12
101.3998504325
 22
207.2563055601
 32
0.0
 13
101.3998504325
 23
207.2563055601
 33
0.0
  0
SOLID
  5
104
330
EC
100
AcDbEntity
  8
SLD-0
 62
     7
100
AcDbTrace
 10
109.8998504325
 20
207.7563055601
 30
0.0
 11
113.3998504325
 21
207.2563055601
 31
0.0
 12
113.3998504325
 22
208.2563055601
 32
0.0
 13
113.3998504325
 23
208.2563055601
 33
0.0
  0
ENDBLK
  5
FA
330
EC
100
AcDbEntity
  8
0
100
AcDbBlockEnd
  0
BLOCK
  5
111
330
106
100
AcDbEntity
  8
0
100
AcDbBlockBegin
  2
*D10
 70
     1
 71
     0
 10
0.0
 20
0.0
 30
0.0
  3
*D10
  1

  0
LINE
  5
113
330
106
100
AcDbEntity
  8
SLD-0
 62
     7
100
AcDbLine
 10
137.3998504325
 20
248.648002112
 30
0.0
 11
150.5375914002
 21
248.648002112
 31
0.0
  0
LINE
  5
114
330
106
100
AcDbEntity
  8
SLD-0
 62
     7
100
AcDbLine
 10
137.3998504325
 20
238.648002112
 30
0.0
 11
150.5375914002
 21
238.648002112
 31
0.0
  0
LINE
  5
115
330
106
100
AcDbEntity
  8
SLD-0
 62
     7
100
AcDbLine
 10
149.5375914002
 20
248.648002112
 30
0.0
 11
149.5375914002
 21
262.6782161769
 31
0.0
  0
LINE
  5
116
330
106
100
AcDbEntity
  8
SLD-0
 62
     7
100
AcDbLine
 10
149.5375914002
 20
248.648002112
 30
0.0
 11
149.5375914002
 21
238.648002112
 31
0.0
  0
MTEXT
  5
117
330
106
100
AcDbEntity
  8
SLD-0
 62
     7
100
AcDbMText
 10
145.0668885663
 20
255.9193521769
 30
0.1
 40
3.5
 41
0.0
 71
     1
 72
     1
  1
10
  7
SLDTEXTSTYLE0
 11
-3.491483361109382E-15
 21
1.0
 31
0.0
 73
     1
 44
1.0
  0
SOLID
  5
118
330
106
100
AcDbEntity
  8
SLD-0
 62
     7
100
AcDbTrace
 10
149.5375914002
 20
248.648002112
 30
0.0
 11
149.0375914002
 21
245.148002112
 31
0.0
 12
150.0375914002
 22
245.148002112
 32
0.0
 13
150.0375914002
 23
245.148002112
 33
0.0
  0
SOLID
  5
119
330
106
100
AcDbEntity
  8
SLD-0
 62
     7
100
AcDbTrace
 10
149.5375914002
 20
238.648002112
 30
0.0
 11
150.0375914002
 21
242.148002112
 31
0.0
 12
149.0375914002
 22
242.148002112
 32
0.0
 13
149.0375914002
 23
242.148002112
 33
0.0
  0
ENDBLK
  5
112
330
106
100
AcDbEntity
  8
0
100
AcDbBlockEnd
  0
BLOCK
  5
125
330
11B
100
AcDbEntity
  8
0
100
AcDbBlockBegin
  2
*D11
 70
     1
 71
     0
 10
0.0
 20
0.0
 30
0.0
  3
*D11
  1

  0
LINE
  5
127
330
11B
100
AcDbEntity
  8
SLD-0
 62
     7
100
AcDbLine
 10
137.3998504325
 20
248.648002112
 30
0.0
 11
137.3998504325
 21
260.3807241543
 31
0.0
  0
LINE
  5
128
330
11B
100
AcDbEntity
  8
SLD-0
 62
     7
100
AcDbLine
 10
61.3998504325
 20
248.648002112
 30
0.0
 11
61.3998504325
 21
260.3807241543
 31
0.0
  0
LINE
  5
129
330
11B
100
AcDbEntity
  8
SLD-0
 62
     7
100
AcDbLine
 10
137.3998504325
 20
259.3807241543
 30
0.0
 11
61.3998504325
 21
259.3807241543
 31
0.0
  0
MTEXT
  5
12A
330
11B
100
AcDbEntity
  8
SLD-0
 62
     7
100
AcDbMText
 10
96.8141684325
 20
263.8514269883
 30
0.1
 40
3.5
 41
0.0
 71
     1
 72
     1
  1
76
  7
SLDTEXTSTYLE0
 73
     1
 44
1.0
  0
SOLID
  5
12B
330
11B
100
AcDbEntity
  8
SLD-0
 62
     7
100
AcDbTrace
 10
137.3998504325
 20
259.3807241543
 30
0.0
 11
133.8998504325
 21
259.8807241543
 31
0.0
 12
133.8998504325
 22
258.8807241543
 32
0.0
 13
133.8998504325
 23
258.8807241543
 33
0.0
  0
SOLID
  5
12C
330
11B
100
AcDbEntity
  8
SLD-0
 62
     7
100
AcDbTrace
 10
61.3998504325
 20
259.3807241543
 30
0.0
 11
64.8998504325
 21
258.8807241543
 31
0.0
 12
64.8998504325
 22
259.8807241543
 32
0.0
 13
64.8998504325
 23
259.8807241543
 33
0.0
  0
ENDBLK
  5
126
330
11B
100
AcDbEntity
  8
0
100
AcDbBlockEnd
  0
ENDSEC
  0
SECTION
  2
ENTITIES
  0
LINE
  5
37
330
1F
100
AcDbEntity
  8
SLD-0
  6
Continuous
 62
   179
370
    30
100
AcDbLine
 10
137.3998504325
 20
200.5903266557
 30
0.0
 11
137.3998504325
 21
178.5903267749
 31
0.0
  0
LINE
  5
38
330
1F
100
AcDbEntity
  8
SLD-0
  6
Continuous
 62
   179
370
    30
100
AcDbLine
 10
137.3998504325
 20
178.5903267749
 30
0.0
 11
61.3998528762
 21
178.5903267749
 31
0.0
  0
LINE
  5
39
330
1F
100
AcDbEntity
  8
SLD-0
  6
Continuous
 62
   179
370
    30
100
AcDbLine
 10
61.3998528762
 20
178.5903267749
 30
0.0
 11
61.3998528762
 21
200.5903266557
 31
0.0
  0
LINE
  5
3A
330
1F
100
AcDbEntity
  8
SLD-0
  6
Continuous
 62
   179
370
    30
100
AcDbLine
 10
61.3998528762
 20
200.5903266557
 30
0.0
 11
137.3998504325
 21
200.5903266557
 31
0.0
  0
LINE
  5
3B
330
1F
100
AcDbEntity
  8
SLD-0
  6
Continuous
 62
   179
370
    30
100
AcDbLine
 10
61.3998528762
 20
248.6480018885
 30
0.0
 11
61.3998528762
 21
238.648002112
 31
0.0
  0
LINE
  5
3C
330
1F
100
AcDbEntity
  8
SLD-0
  6
Continuous
 62
   179
370
    30
100
AcDbLine
 10
137.3998504325
 20
248.6480018885
 30
0.0
 11
61.3998528762
 21
248.6480018885
 31
0.0
  0
LINE
  5
3D
330
1F
100
AcDbEntity
  8
SLD-0
  6
Continuous
 62
   179
370
    30
100
AcDbLine
 10
137.3998504325
 20
248.6480018885
 30
0.0
 11
137.3998504325
 21
238.648002112
 31
0.0
  0
LINE
  5
3E
330
1F
100
AcDbEntity
  8
SLD-0
  6
Continuous
 62
   179
370
    30
100
AcDbLine
 10
137.3998504325
 20
238.648002112
 30
0.0
 11
61.3998528762
 21
238.648002112
 31
0.0
  0
LINE
  5
3F
330
1F
100
AcDbEntity
  8
0
  6
Continuous
 62
     7
370
     0
100
AcDbLine
 10
20.2604743903
 20
285.0
 30
0.0
 11
196.7604743903
 21
285.0
 31
0.0
  0
LINE
  5
40
330
1F
100
AcDbEntity
  8
0
  6
Continuous
 62
     7
370
     0
100
AcDbLine
 10
20.2604743903
 20
285.0
 30
0.0
 11
20.2604743903
 21
10.0
 31
0.0
  0
LINE
  5
41
330
1F
100
AcDbEntity
  8
0
  6
Continuous
 62
     7
370
     0
100
AcDbLine
 10
20.2604743903
 20
10.0
 30
0.0
 11
196.7604743903
 21
10.0
 31
0.0
  0
LINE
  5
42
330
1F
100
AcDbEntity
  8
0
  6
Continuous
 62
     7
370
     0
100
AcDbLine
 10
196.7604743903
 20
285.0
 30
0.0
 11
196.7604743903
 21
10.0
 31
0.0
  0
LINE
  5
43
330
1F
100
AcDbEntity
  8
0
  6
Continuous
 62
     7
370
     0
100
AcDbLine
 10
127.0104743903
 20
50.75
 30
0.0
 11
196.7604743903
 21
50.75
 31
0.0
  0
LINE
  5
44
330
1F
100
AcDbEntity
  8
0
  6
Continuous
 62
     7
370
     0
100
AcDbLine
 10
127.0104743903
 20
50.75
 30
0.0
 11
127.0104743903
 21
10.0
 31
0.0
  0
LINE
  5
45
330
1F
100
AcDbEntity
  8
0
  6
Continuous
 62
     7
370
     0
100
AcDbLine
 10
127.0104743903
 20
22.75
 30
0.0
 11
196.7604743903
 21
22.75
 31
0.0
  0
LINE
  5
46
330
1F
100
AcDbEntity
  8
0
  6
Continuous
 62
     7
370
     0
100
AcDbLine
 10
127.0104743903
 20
36.75
 30
0.0
 11
196.7604743903
 21
36.75
 31
0.0
  0
CIRCLE
  5
47
330
1F
100
AcDbEntity
  8
SLD-0
  6
Continuous
 62
   179
370
    30
100
AcDbCircle
 10
67.3998504325
 20
183.5903266557
 30
0.0
 40
2.5
  0
CIRCLE
  5
48
330
1F
100
AcDbEntity
  8
SLD-0
  6
Continuous
 62
   179
370
    30
100
AcDbCircle
 10
67.3998504325
 20
195.5903266557
 30
0.0
 40
2.5
  0
CIRCLE
  5
49
330
1F
100
AcDbEntity
  8
SLD-0
  6
Continuous
 62
   179
370
    30
100
AcDbCircle
 10
75.3998504325
 20
183.5903266557
 30
0.0
 40
2.5
  0
CIRCLE
  5
4A
330
1F
100
AcDbEntity
  8
SLD-0
  6
Continuous
 62
   179
370
    30
100
AcDbCircle
 10
75.3998504325
 20
195.5903266557
 30
0.0
 40
2.499999999999972
  0
CIRCLE
  5
4B
330
1F
100
AcDbEntity
  8
SLD-0
  6
Continuous
 62
   179
370
    30
100
AcDbCircle
 10
83.3998504325
 20
183.5903266557
 30
0.0
 40
2.5
  0
CIRCLE
  5
4C
330
1F
100
AcDbEntity
  8
SLD-0
  6
Continuous
 62
   179
370
    30
100
AcDbCircle
 10
83.3998504325
 20
195.5903266557
 30
0.0
 40
2.5
  0
CIRCLE
  5
4D
330
1F
100
AcDbEntity
  8
SLD-0
  6
Continuous
 62
   179
370
    30
100
AcDbCircle
 10
91.3998504325
 20
183.5903266557
 30
0.0
 40
2.5
  0
CIRCLE
  5
4E
330
1F
100
AcDbEntity
  8
SLD-0
  6
Continuous
 62
   179
370
    30
100
AcDbCircle
 10
91.3998504325
 20
195.5903266557
 30
0.0
 40
2.5
  0
CIRCLE
  5
4F
330
1F
100
AcDbEntity
  8
SLD-0
  6
Continuous
 62
   179
370
    30
100
AcDbCircle
 10
99.3998504325
 20
183.5903266557
 30
0.0
 40
2.5
  0
CIRCLE
  5
50
330
1F
100
AcDbEntity
  8
SLD-0
  6
Continuous
 62
   179
370
    30
100
AcDbCircle
 10
99.3998504325
 20
195.5903266557
 30
0.0
 40
2.5
  0
CIRCLE
  5
51
330
1F
100
AcDbEntity
  8
SLD-0
  6
Continuous
 62
   179
370
    30
100
AcDbCircle
 10
107.3998504325
 20
183.5903266557
 30
0.0
 40
2.5
  0
CIRCLE
  5
52
330
1F
100
AcDbEntity
  8
SLD-0
  6
Continuous
 62
   179
370
    30
100
AcDbCircle
 10
107.3998504325
 20
195.5903266557
 30
0.0
 40
2.5
  0
CIRCLE
  5
53
330
1F
100
AcDbEntity
  8
SLD-0
  6
Continuous
 62
   179
370
    30
100
AcDbCircle
 10
115.3998504325
 20
183.5903266557
 30
0.0
 40
2.5
  0
CIRCLE
  5
54
330
1F
100
AcDbEntity
  8
SLD-0
  6
Continuous
 62
   179
370
    30
100
AcDbCircle
 10
115.3998504325
 20
195.5903266557
 30
0.0
 40
2.5
  0
CIRCLE
  5
55
330
1F
100
AcDbEntity
  8
SLD-0
  6
Continuous
 62
   179
370
    30
100
AcDbCircle
 10
123.3998504325
 20
183.5903266557
 30
0.0
 40
2.499999999999986
  0
CIRCLE
  5
56
330
1F
100
AcDbEntity
  8
SLD-0
  6
Continuous
 62
   179
370
    30
100
AcDbCircle
 10
123.3998504325
 20
195.5903266557
 30
0.0
 40
2.499999999999986
  0
CIRCLE
  5
57
330
1F
100
AcDbEntity
  8
SLD-0
  6
Continuous
 62
   179
370
    30
100
AcDbCircle
 10
131.3998504325
 20
183.5903266557
 30
0.0
 40
2.500000000000028
  0
CIRCLE
  5
58
330
1F
100
AcDbEntity
  8
SLD-0
  6
Continuous
 62
   179
370
    30
100
AcDbCircle
 10
131.3998504325
 20
195.5903266557
 30
0.0
 40
2.5
  0
CIRCLE
  5
59
330
1F
100
AcDbEntity
  8
SLD-0
  6
Continuous
 62
   179
370
    30
100
AcDbCircle
 10
71.3998504325
 20
189.5903266557
 30
0.0
 40
2.500000000000014
  0
CIRCLE
  5
5A
330
1F
100
AcDbEntity
  8
SLD-0
  6
Continuous
 62
   179
370
    30
100
AcDbCircle
 10
79.3998504325
 20
189.5903266557
 30
0.0
 40
2.5
  0
CIRCLE
  5
5B
330
1F
100
AcDbEntity
  8
SLD-0
  6
Continuous
 62
   179
370
    30
100
AcDbCircle
 10
87.3998504325
 20
189.5903266557
 30
0.0
 40
2.500000000000014
  0
CIRCLE
  5
5C
330
1F
100
AcDbEntity
  8
SLD-0
  6
Continuous
 62
   179
370
    30
100
AcDbCircle
 10
95.3998504325
 20
189.5903266557
 30
0.0
 40
2.5
  0
CIRCLE
  5
5D
330
1F
100
AcDbEntity
  8
SLD-0
  6
Continuous
 62
   179
370
    30
100
AcDbCircle
 10
103.3998504325
 20
189.5903266557
 30
0.0
 40
2.500000000000014
  0
CIRCLE
  5
5E
330
1F
100
AcDbEntity
  8
SLD-0
  6
Continuous
 62
   179
370
    30
100
AcDbCircle
 10
111.3998504325
 20
189.5903266557
 30
0.0
 40
2.5
  0
CIRCLE
  5
5F
330
1F
100
AcDbEntity
  8
SLD-0
  6
Continuous
 62
   179
370
    30
100
AcDbCircle
 10
119.3998504325
 20
189.5903266557
 30
0.0
 40
2.5
  0
CIRCLE
  5
60
330
1F
100
AcDbEntity
  8
SLD-0
  6
Continuous
 62
   179
370
    30
100
AcDbCircle
 10
127.3998504325
 20
189.5903266557
 30
0.0
 40
2.5
  0
DIMENSION
  5
61
330
1F
100
AcDbEntity
  8
SLD-0
 62
     7
100
AcDbDimension
  2
*D2
 10
48.6272733267
 20
200.5903266557
 30
0.0
 11
48.6272733267
 21
189.5903266557
 31
0.0
 70
   160
 71
     1
 42
22.0
  3
SLDDIMSTYLE0
100
AcDbAlignedDimension
 13
61.3998504325
 23
178.5903266557
 33
0.0
 14
61.3998504325
 24
200.5903266557
 34
0.0
 50
90.0
100
AcDbRotatedDimension
1001
ACAD
1000
DSTYLE
1002
{
1070
    77
1070
     3
1070
   143
1040
0.0393700787
1070
    41
1040
3.0
1070
    44
1040
1.0
1070
    42
1040
1.0
1070
   147
1040
1.524
1070
    73
1070
     0
1070
    74
1070
     0
1070
   140
1040
3.5
1070
   284
1070
    12
1070
    78
1070
    12
1002
}
  0
DIMENSION
  5
7B
330
1F
100
AcDbEntity
  8
SLD-0
 62
     7
100
AcDbDimension
  2
*D4
 10
146.4562114103
 20
183.5903266557
 30
0.0
 11
146.4562114103
 21
171.8444168965
 31
0.0
 70
   160
 71
     1
 42
5.0
  3
SLDDIMSTYLE0
100
AcDbAlignedDimension
 13
137.3998504325
 23
178.5903266557
 33
0.0
 14
131.3998504325
 24
183.5903266557
 34
0.0
 50
90.0
100
AcDbRotatedDimension
1001
ACAD
1000
DSTYLE
1002
{
1070
    77
1070
     3
1070
   143
1040
0.0393700787
1070
    41
1040
3.0
1070
    44
1040
1.0
1070
    42
1040
1.0
1070
   147
1040
1.524
1070
    73
1070
     0
1070
    74
1070
     0
1070
   140
1040
3.5
1070
   284
1070
    12
1070
    78
1070
    12
1002
}
  0
DIMENSION
  5
92
330
1F
100
AcDbEntity
  8
SLD-0
 62
     7
100
AcDbDimension
  2
*D5
 10
156.5693294822
 20
183.5903266557
 30
0.0
 11
156.5693294822
 21
189.5903266557
 31
0.0
 70
   160
 71
     1
 42
12.0
  3
SLDDIMSTYLE0
100
AcDbAlignedDimension
 13
131.3998504325
 23
195.5903266557
 33
0.0
 14
131.3998504325
 24
183.5903266557
 34
0.0
 50
90.0
100
AcDbRotatedDimension
1001
ACAD
1000
DSTYLE
1002
{
1070
    77
1070
     3
1070
   143
1040
0.0393700787
1070
    41
1040
3.0
1070
    44
1040
1.0
1070
    42
1040
1.0
1070
   147
1040
1.524
1070
    73
1070
     0
1070
    74
1070
     0
1070
   140
1040
3.5
1070
   284
1070
    12
1070
    78
1070
    12
1002
}
  0
DIMENSION
  5
A8
330
1F
100
AcDbEntity
  8
SLD-0
 62
     7
100
AcDbDimension
  2
*D6
 10
61.3998504325
 20
168.3357840961
 30
0.0
 11
53.3742471156
 21
168.3357840961
 31
0.0
 70
   160
 71
     1
 42
6.0
  3
SLDDIMSTYLE0
100
AcDbAlignedDimension
 13
67.3998504325
 23
183.5903266557
 33
0.0
 14
61.3998504325
 24
178.5903266557
 34
0.0
100
AcDbRotatedDimension
1001
ACAD
1000
DSTYLE
1002
{
1070
    77
1070
     3
1070
   143
1040
0.0393700787
1070
    41
1040
3.0
1070
    44
1040
1.0
1070
    42
1040
1.0
1070
   147
1040
1.524
1070
    73
1070
     0
1070
    74
1070
     0
1070
   140
1040
3.5
1070
   284
1070
    12
1070
    78
1070
    12
1002
}
  0
DIMENSION
  5
C0
330
1F
100
AcDbEntity
  8
SLD-0
 62
     7
100
AcDbDimension
  2
*D7
 10
67.3998504325
 20
157.8098856947
 30
0.0
 11
99.3998504325
 21
157.8098856947
 31
0.0
 70
   160
  1
16 x 4 = <>
 71
     1
 42
64.0
  3
SLDDIMSTYLE0
100
AcDbAlignedDimension
 13
131.3998504325
 23
183.5903266557
 33
0.0
 14
67.3998504325
 24
183.5903266557
 34
0.0
100
AcDbRotatedDimension
1001
ACAD
1000
DSTYLE
1002
{
1070
    77
1070
     3
1070
   143
1040
0.0393700787
1070
    41
1040
3.0
1070
    44
1040
1.0
1070
    42
1040
1.0
1070
   147
1040
1.524
1070
    73
1070
     0
1070
    74
1070
     0
1070
   140
1040
3.5
1070
   284
1070
    12
1070
    78
1070
    12
1002
}
  0
DIMENSION
  5
D5
330
1F
100
AcDbEntity
  8
SLD-0
 62
     7
100
AcDbDimension
  2
*D8
 10
67.3998504325
 20
207.7563055601
 30
0.0
 11
69.3998504325
 21
207.7563055601
 31
0.0
 70
   160
 71
     1
 42
4.0
  3
SLDDIMSTYLE0
100
AcDbAlignedDimension
 13
71.3998504325
 23
189.5903266557
 33
0.0
 14
67.3998504325
 24
195.5903266557
 34
0.0
100
AcDbRotatedDimension
1001
ACAD
1000
DSTYLE
1002
{
1070
    77
1070
     3
1070
   143
1040
0.0393700787
1070
    41
1040
3.0
1070
    44
1040
1.0
1070
    42
1040
1.0
1070
   147
1040
1.524
1070
    73
1070
     0
1070
    74
1070
     0
1070
   140
1040
3.5
1070
   284
1070
    12
1070
    78
1070
    12
1002
}
  0
DIMENSION
  5
EB
330
1F
100
AcDbEntity
  8
SLD-0
 62
     7
100
AcDbDimension
  2
*D9
 10
104.8998504325
 20
207.7563055601
 30
0.0
 11
126.1813554232
 21
207.7563055601
 31
0.0
 70
   160
  1
%%c<> (26x)
 71
     1
 42
5.0
  3
SLDDIMSTYLE0
100
AcDbAlignedDimension
 13
109.8998504325
 23
195.5903266557
 33
0.0
 14
104.8998504325
 24
195.5903266557
 34
0.0
100
AcDbRotatedDimension
1001
ACAD
1000
DSTYLE
1002
{
1070
    77
1070
     3
1070
   143
1040
0.0393700787
1070
    41
1040
3.0
1070
    44
1040
1.0
1070
    42
1040
1.0
1070
   147
1040
1.524
1070
    73
1070
     0
1070
    74
1070
     0
1070
   140
1040
3.5
1070
   284
1070
    12
1070
    78
1070
    12
1002
}
  0
DIMENSION
  5
105
330
1F
100
AcDbEntity
  8
SLD-0
 62
     7
100
AcDbDimension
  2
*D10
 10
149.5375914002
 20
248.648002112
 30
0.0
 11
149.5375914002
 21
258.5050341769
 31
0.0
 70
   160
 71
     1
 42
10.0
  3
SLDDIMSTYLE0
100
AcDbAlignedDimension
 13
137.3998504325
 23
238.648002112
 33
0.0
 14
137.3998504325
 24
248.648002112
 34
0.0
 50
90.0
100
AcDbRotatedDimension
1001
ACAD
1000
DSTYLE
1002
{
1070
    77
1070
     3
1070
   143
1040
0.0393700787
1070
    41
1040
3.0
1070
    44
1040
1.0
1070
    42
1040
1.0
1070
   147
1040
1.524
1070
    73
1070
     0
1070
    74
1070
     0
1070
   140
1040
3.5
1070
   284
1070
    12
1070
    78
1070
    12
1002
}
  0
DIMENSION
  5
11A
330
1F
100
AcDbEntity
  8
SLD-0
 62
     7
100
AcDbDimension
  2
*D11
 10
137.3998504325
 20
259.3807241543
 30
0.0
 11
99.3998504325
 21
259.3807241543
 31
0.0
 70
   160
 71
     1
 42
76.0
  3
SLDDIMSTYLE0
100
AcDbAlignedDimension
 13
61.3998504325
 23
248.648002112
 33
0.0
 14
137.3998504325
 24
248.648002112
 34
0.0
100
AcDbRotatedDimension
1001
ACAD
1000
DSTYLE
1002
{
1070
    77
1070
     3
1070
   143
1040
0.0393700787
1070
    41
1040
3.0
1070
    44
1040
1.0
1070
    42
1040
1.0
1070
   147
1040
1.524
1070
    73
1070
     0
1070
    74
1070
     0
1070
   140
1040
3.5
1070
   284
1070
    12
1070
    78
1070
    12
1002
}
  0
MTEXT
  5
12D
330
1F
100
AcDbEntity
  8
SLD-0
100
AcDbMText
 10
139.7219819056
 20
17.2379280258
 30
0.0
 40
3.5
 41
0.0
 71
     1
 72
     1
  1
183978
  7
SLDTEXTSTYLE0
 73
     1
 44
1.0
  0
MTEXT
  5
12E
330
1F
100
AcDbEntity
  8
SLD-0
100
AcDbMText
 10
138.1059359121
 20
30.6280234003
 30
0.0
 40
3.5
 41
0.0
 71
     1
 72
     1
  1
SFM-SEAL-76/22-10
  7
SLDTEXTSTYLE0
 73
     1
 44
1.0
  0
MTEXT
  5
12F
330
1F
100
AcDbEntity
  8
SLD-0
100
AcDbMText
 10
137.413344772
 20
45.1724373416
 30
0.0
 40
3.5
 41
0.0
 71
     1
 72
     1
  1
真空グリッパー
  7
SLDTEXTSTYLE0
 73
     1
 44
1.0
  0
ENDSEC
  0
SECTION
  2
OBJECTS
  0
DICTIONARY
  5
C
330
0
100
AcDbDictionary
281
     1
  3
ACAD_GROUP
350
D
  3
ACAD_LAYOUT
350
1A
  3
ACAD_MLINESTYLE
350
17
  3
ACAD_PLOTSETTINGS
350
19
  3
ACAD_PLOTSTYLENAME
350
E
  0
DICTIONARY
  5
D
102
{ACAD_REACTORS
330
C
102
}
330
C
100
AcDbDictionary
281
     1
  0
DICTIONARY
  5
1A
102
{ACAD_REACTORS
330
C
102
}
330
C
100
AcDbDictionary
281
     1
  3
Layout1
350
1E
  3
Layout2
350
26
  3
Model
350
22
  0
DICTIONARY
  5
17
102
{ACAD_REACTORS
330
C
102
}
330
C
100
AcDbDictionary
281
     1
  3
Standard
350
18
  0
DICTIONARY
  5
19
102
{ACAD_REACTORS
330
C
102
}
330
C
100
AcDbDictionary
281
     1
  0
ACDBDICTIONARYWDFLT
  5
E
102
{ACAD_REACTORS
330
C
102
}
330
C
100
AcDbDictionary
281
     1
  3
Normal
350
F
100
AcDbDictionaryWithDefault
340
F
  0
LAYOUT
  5
1E
102
{ACAD_REACTORS
330
1A
102
}
330
1A
100
AcDbPlotSettings
  1

  2

  4

  6

 40
0.0
 41
0.0
 42
0.0
 43
0.0
 44
0.0
 45
0.0
 46
0.0
 47
0.0
 48
0.0
 49
0.0
140
0.0
141
0.0
142
1.0
143
1.0
 70
   688
 72
     0
 73
     0
 74
     5
  7

 75
    16
147
1.0
148
0.0
149
0.0
100
AcDbLayout
  1
Layout1
 70
     1
 71
     1
 10
0.0
 20
0.0
 11
0.0
 21
0.0
 12
0.0
 22
0.0
 32
0.0
 14
0.0
 24
0.0
 34
0.0
 15
0.0
 25
0.0
 35
0.0
146
0.0
 13
0.0
 23
0.0
 33
0.0
 16
1.0
 26
0.0
 36
0.0
 17
0.0
 27
1.0
 37
0.0
 76
     0
330
1B
  0
LAYOUT
  5
26
102
{ACAD_REACTORS
330
1A
102
}
330
1A
100
AcDbPlotSettings
  1

  2

  4

  6

 40
0.0
 41
0.0
 42
0.0
 43
0.0
 44
0.0
 45
0.0
 46
0.0
 47
0.0
 48
0.0
 49
0.0
140
0.0
141
0.0
142
1.0
143
1.0
 70
   688
 72
     0
 73
     0
 74
     5
  7

 75
    16
147
1.0
148
0.0
149
0.0
100
AcDbLayout
  1
Layout2
 70
     1
 71
     2
 10
0.0
 20
0.0
 11
0.0
 21
0.0
 12
0.0
 22
0.0
 32
0.0
 14
0.0
 24
0.0
 34
0.0
 15
0.0
 25
0.0
 35
0.0
146
0.0
 13
0.0
 23
0.0
 33
0.0
 16
1.0
 26
0.0
 36
0.0
 17
0.0
 27
1.0
 37
0.0
 76
     0
330
23
  0
LAYOUT
  5
22
102
{ACAD_REACTORS
330
1A
102
}
330
1A
100
AcDbPlotSettings
  1

  2

  4

  6

 40
0.0
 41
0.0
 42
0.0
 43
0.0
 44
0.0
 45
0.0
 46
0.0
 47
0.0
 48
0.0
 49
0.0
140
0.0
141
0.0
142
1.0
143
1.0
 70
  1712
 72
     0
 73
     0
 74
     0
  7

 75
     0
147
1.0
148
0.0
149
0.0
100
AcDbLayout
  1
Model
 70
     1
 71
     0
 10
0.0
 20
0.0
 11
0.0
 21
0.0
 12
0.0
 22
0.0
 32
0.0
 14
0.0
 24
0.0
 34
0.0
 15
210.0
 25
297.0
 35
0.0
146
0.0
 13
0.0
 23
0.0
 33
0.0
 16
1.0
 26
0.0
 36
0.0
 17
0.0
 27
1.0
 37
0.0
 76
     0
330
1F
  0
MLINESTYLE
  5
18
102
{ACAD_REACTORS
330
17
102
}
330
17
100
AcDbMlineStyle
  2
Standard
 70
     0
  3

 62
   256
 51
90.0
 52
90.0
 71
     2
 49
0.5
 62
   256
  6
BYLAYER
 49
-0.5
 62
   256
  6
BYLAYER
  0
ACDBPLACEHOLDER
  5
F
102
{ACAD_REACTORS
330
E
102
}
330
E
  0
ENDSEC
  0
EOF
