  0
SECTION
  2
HEADER
  9
$ACADVER
  1
AC1015
  9
$ACADMAINTVER
 70
     6
  9
$DWGCODEPAGE
  3
DOS932
  9
$INSBASE
 10
0.0
 20
0.0
 30
0.0
  9
$EXTMIN
 10
0.0
 20
0.0
 30
0.0
  9
$EXTMAX
 10
297.0
 20
210.0
 30
0.0
  9
$LIMMIN
 10
0.0
 20
0.0
  9
$LIMMAX
 10
297.0
 20
210.0
  9
$ORTHOMODE
 70
     0
  9
$REGENMODE
 70
     1
  9
$FILLMODE
 70
     1
  9
$QTEXTMODE
 70
     0
  9
$MIRRTEXT
 70
     1
  9
$LTSCALE
 40
1.0
  9
$ATTMODE
 70
     1
  9
$TEXTSIZE
 40
3.5
  9
$TRACEWID
 40
1.0
  9
$TEXTSTYLE
  7
Standard
  9
$CLAYER
  8
0
  9
$CELTYPE
  6
ByLayer
  9
$CECOLOR
 62
   256
  9
$CELTSCALE
 40
1.0
  9
$DISPSILH
 70
     0
  9
$DIMSCALE
 40
1.0
  9
$DIMASZ
 40
3.302
  9
$DIMEXO
 40
1.0
  9
$DIMDLI
 40
3.75
  9
$DIMRND
 40
0.0
  9
$DIMDLE
 40
0.0
  9
$DIMEXE
 40
1.0
  9
$DIMTP
 40
0.0
  9
$DIMTM
 40
0.0
  9
$DIMTXT
 40
3.5
  9
$DIMCEN
 40
2.5
  9
$DIMTSZ
 40
0.0
  9
$DIMTOL
 70
     0
  9
$DIMLIM
 70
     0
  9
$DIMTIH
 70
     1
  9
$DIMTOH
 70
     1
  9
$DIMSE1
 70
     0
  9
$DIMSE2
 70
     0
  9
$DIMTAD
 70
     1
  9
$DIMZIN
 70
     1
  9
$DIMBLK
  1

  9
$DIMASO
 70
     1
  9
$DIMSHO
 70
     1
  9
$DIMPOST
  1

  9
$DIMAPOST
  1

  9
$DIMALT
 70
     0
  9
$DIMALTD
 70
     3
  9
$DIMALTF
 40
0.0393700787
  9
$DIMLFAC
 40
1.0
  9
$DIMTOFL
 70
     1
  9
$DIMTVP
 40
0.0
  9
$DIMTIX
 70
     0
  9
$DIMSOXD
 70
     0
  9
$DIMSAH
 70
     0
  9
$DIMBLK1
  1

  9
$DIMBLK2
  1

  9
$DIMSTYLE
  2
ISO-25
  9
$DIMCLRD
 70
     0
  9
$DIMCLRE
 70
     0
  9
$DIMCLRT
 70
     0
  9
$DIMTFAC
 40
1.0
  9
$DIMGAP
 40
1.524
  9
$DIMJUST
 70
     0
  9
$DIMSD1
 70
     0
  9
$DIMSD2
 70
     0
  9
$DIMTOLJ
 70
     0
  9
$DIMTZIN
 70
     1
  9
$DIMALTZ
 70
     0
  9
$DIMALTTZ
 70
     0
  9
$DIMUPT
 70
     0
  9
$DIMDEC
 70
     2
  9
$DIMTDEC
 70
     2
  9
$DIMALTU
 70
     2
  9
$DIMALTTD
 70
     3
  9
$DIMTXSTY
  7
Standard
  9
$DIMAUNIT
 70
     0
  9
$DIMADEC
 70
     0
  9
$DIMALTRND
 40
0.0
  9
$DIMAZIN
 70
     0
  9
$DIMDSEP
 70
    44
  9
$DIMATFIT
 70
     3
  9
$DIMFRAC
 70
     0
  9
$DIMLDRBLK
  1

  9
$DIMLUNIT
 70
     2
  9
$DIMLWD
 70
    -2
  9
$DIMLWE
 70
    -2
  9
$DIMTMOVE
 70
     0
  9
$LUNITS
 70
     2
  9
$LUPREC
 70
     4
  9
$SKETCHINC
 40
1.0
  9
$FILLETRAD
 40
10.0
  9
$AUNITS
 70
     0
  9
$AUPREC
 70
     0
  9
$MENU
  1
.
  9
$ELEVATION
 40
0.0
  9
$PELEVATION
 40
0.0
  9
$THICKNESS
 40
0.0
  9
$LIMCHECK
 70
     0
  9
$CHAMFERA
 40
10.0
  9
$CHAMFERB
 40
10.0
  9
$CHAMFERC
 40
20.0
  9
$CHAMFERD
 40
0.0
  9
$SKPOLY
 70
     0
  9
$TDCREATE
 40
2456238.833114502
  9
$TDUCREATE
 40
2456238.458114502
  9
$TDUPDATE
 40
2456238.833114514
  9
$TDUUPDATE
 40
2456238.458114514
  9
$TDINDWG
 40
0.0000000116
  9
$TDUSRTIMER
 40
0.0000000116
  9
$USRTIMER
 70
     1
  9
$ANGBASE
 50
0.0
  9
$ANGDIR
 70
     0
  9
$PDMODE
 70
     0
  9
$PDSIZE
 40
-1.0
  9
$PLINEWID
 40
0.0
  9
$SPLFRAME
 70
     0
  9
$SPLINETYPE
 70
     6
  9
$SPLINESEGS
 70
     8
  9
$HANDSEED
  5
185
  9
$SURFTAB1
 70
     6
  9
$SURFTAB2
 70
     6
  9
$SURFTYPE
 70
     6
  9
$SURFU
 70
     6
  9
$SURFV
 70
     6
  9
$UCSBASE
  2

  9
$UCSNAME
  2

  9
$UCSORG
 10
0.0
 20
0.0
 30
0.0
  9
$UCSXDIR
 10
1.0
 20
0.0
 30
0.0
  9
$UCSYDIR
 10
0.0
 20
1.0
 30
0.0
  9
$UCSORTHOREF
  2

  9
$UCSORTHOVIEW
 70
     0
  9
$UCSORGTOP
 10
0.0
 20
0.0
 30
0.0
  9
$UCSORGBOTTOM
 10
0.0
 20
0.0
 30
0.0
  9
$UCSORGLEFT
 10
0.0
 20
0.0
 30
0.0
  9
$UCSORGRIGHT
 10
0.0
 20
0.0
 30
0.0
  9
$UCSORGFRONT
 10
0.0
 20
0.0
 30
0.0
  9
$UCSORGBACK
 10
0.0
 20
0.0
 30
0.0
  9
$PUCSBASE
  2

  9
$PUCSNAME
  2

  9
$PUCSORG
 10
0.0
 20
0.0
 30
0.0
  9
$PUCSXDIR
 10
1.0
 20
0.0
 30
0.0
  9
$PUCSYDIR
 10
0.0
 20
1.0
 30
0.0
  9
$PUCSORTHOREF
  2

  9
$PUCSORTHOVIEW
 70
     0
  9
$PUCSORGTOP
 10
0.0
 20
0.0
 30
0.0
  9
$PUCSORGBOTTOM
 10
0.0
 20
0.0
 30
0.0
  9
$PUCSORGLEFT
 10
0.0
 20
0.0
 30
0.0
  9
$PUCSORGRIGHT
 10
0.0
 20
0.0
 30
0.0
  9
$PUCSORGFRONT
 10
0.0
 20
0.0
 30
0.0
  9
$PUCSORGBACK
 10
0.0
 20
0.0
 30
0.0
  9
$USERI1
 70
     0
  9
$USERI2
 70
     0
  9
$USERI3
 70
     0
  9
$USERI4
 70
     0
  9
$USERI5
 70
     0
  9
$USERR1
 40
0.0
  9
$USERR2
 40
0.0
  9
$USERR3
 40
0.0
  9
$USERR4
 40
0.0
  9
$USERR5
 40
0.0
  9
$WORLDVIEW
 70
     1
  9
$SHADEDGE
 70
     3
  9
$SHADEDIF
 70
    70
  9
$TILEMODE
 70
     0
  9
$MAXACTVP
 70
    64
  9
$PINSBASE
 10
0.0
 20
0.0
 30
0.0
  9
$PLIMCHECK
 70
     0
  9
$PEXTMIN
 10
0.0
 20
0.0
 30
0.0
  9
$PEXTMAX
 10
297.0
 20
210.0
 30
0.0
  9
$PLIMMIN
 10
0.0
 20
0.0
  9
$PLIMMAX
 10
297.0
 20
210.0
  9
$UNITMODE
 70
     0
  9
$VISRETAIN
 70
     1
  9
$PLINEGEN
 70
     0
  9
$PSLTSCALE
 70
     1
  9
$TREEDEPTH
 70
  3020
  9
$CMLSTYLE
  2
Standard
  9
$CMLJUST
 70
     0
  9
$CMLSCALE
 40
20.0
  9
$PROXYGRAPHICS
 70
     1
  9
$MEASUREMENT
 70
     1
  9
$CELWEIGHT
370
    -1
  9
$ENDCAPS
280
     0
  9
$JOINSTYLE
280
     0
  9
$LWDISPLAY
290
     1
  9
$INSUNITS
 70
     4
  9
$HYPERLINKBASE
  1

  9
$STYLESHEET
  1

  9
$XEDIT
290
     1
  9
$CEPSNTYPE
380
     0
  9
$PSTYLEMODE
290
     1
  9
$FINGERPRINTGUID
  2
{E830970C-7BB7-4535-A0B3-15F3A5C9EBAD}
  9
$VERSIONGUID
  2
{FAEB1C32-E019-11D5-929B-00C0DF256EC4}
  9
$EXTNAMES
290
     1
  9
$PSVPSCALE
 40
0.0
  9
$OLESTARTUP
290
     0
  0
ENDSEC
  0
SECTION
  2
CLASSES
  0
CLASS
  1
ACDBDICTIONARYWDFLT
  2
AcDbDictionaryWithDefault
  3
ObjectDBX Classes
 90
        0
280
     0
281
     0
  0
CLASS
  1
VISUALSTYLE
  2
AcDbVisualStyle
  3
ObjectDBX Classes
 90
     4095
280
     0
281
     0
  0
CLASS
  1
MATERIAL
  2
AcDbMaterial
  3
ObjectDBX Classes
 90
     1153
280
     0
281
     0
  0
CLASS
  1
SCALE
  2
AcDbScale
  3
ObjectDBX Classes
 90
     1153
280
     0
281
     0
  0
CLASS
  1
DICTIONARYVAR
  2
AcDbDictionaryVar
  3
ObjectDBX Classes
 90
        0
280
     0
281
     0
  0
CLASS
  1
ACDBPLACEHOLDER
  2
AcDbPlaceHolder
  3
ObjectDBX Classes
 90
        0
280
     0
281
     0
  0
CLASS
  1
LAYOUT
  2
AcDbLayout
  3
ObjectDBX Classes
 90
        0
280
     0
281
     0
  0
ENDSEC
  0
SECTION
  2
TABLES
  0
TABLE
  2
VPORT
  5
8
330
0
100
AcDbSymbolTable
 70
     1
  0
VPORT
  5
29
330
8
100
AcDbSymbolTableRecord
100
AcDbViewportTableRecord
  2
*Active
 70
     0
 10
0.0
 20
0.0
 11
1.0
 21
1.0
 12
148.5
 22
105.0
 13
0.0
 23
0.0
 14
10.0
 24
10.0
 15
10.0
 25
10.0
 16
0.0
 26
0.0
 36
1.0
 17
0.0
 27
0.0
 37
0.0
 40
210.0
 41
1.4142857143
 42
50.0
 43
0.0
 44
0.0
 50
0.0
 51
0.0
 71
     0
 72
  2000
 73
     1
 74
     3
 75
     0
 76
     0
 77
     0
 78
     0
281
     0
 65
     1
110
0.0
120
0.0
130
0.0
111
1.0
121
0.0
131
0.0
112
0.0
122
1.0
132
0.0
 79
     0
146
0.0
  0
ENDTAB
  0
TABLE
  2
LTYPE
  5
5
330
0
100
AcDbSymbolTable
 70
     6
  0
LTYPE
  5
14
330
5
100
AcDbSymbolTableRecord
100
AcDbLinetypeTableRecord
  2
ByBlock
 70
     0
  3

 72
    65
 73
     0
 40
0.0
  0
LTYPE
  5
15
330
5
100
AcDbSymbolTableRecord
100
AcDbLinetypeTableRecord
  2
ByLayer
 70
     0
  3

 72
    65
 73
     0
 40
0.0
  0
LTYPE
  5
16
330
5
100
AcDbSymbolTableRecord
100
AcDbLinetypeTableRecord
  2
Continuous
 70
     0
  3
Solid line
 72
    65
 73
     0
 40
0.0
  0
LTYPE
  5
3F
330
5
100
AcDbSymbolTableRecord
100
AcDbLinetypeTableRecord
  2
HIDDEN
 70
     0
  3
Hidden __ __ __ __ __ __ __ __ __ __ __ __ __ __
 72
    65
 73
     2
 40
1.905
 49
1.27
 74
     0
 49
-0.635
 74
     0
  0
LTYPE
  5
40
330
5
100
AcDbSymbolTableRecord
100
AcDbLinetypeTableRecord
  2
PHANTOM
 70
     0
  3
Phantom ______  __  __  ______  __  __  ______
 72
    65
 73
     6
 40
12.7
 49
6.35
 74
     0
 49
-1.27
 74
     0
 49
1.27
 74
     0
 49
-1.27
 74
     0
 49
1.27
 74
     0
 49
-1.27
 74
     0
  0
LTYPE
  5
41
330
5
100
AcDbSymbolTableRecord
100
AcDbLinetypeTableRecord
  2
CENTER
 70
     0
  3
Center ____ _ ____ _ ____ _ ____ _ ____ _ ____
 72
    65
 73
     4
 40
10.16
 49
6.35
 74
     0
 49
-1.27
 74
     0
 49
1.27
 74
     0
 49
-1.27
 74
     0
  0
LTYPE
  5
42
330
5
100
AcDbSymbolTableRecord
100
AcDbLinetypeTableRecord
  2
CENTERX2
 70
     0
  3
Center (2x) ________  __  ________  __  _____
 72
    65
 73
     4
 40
20.32
 49
12.7
 74
     0
 49
-2.54
 74
     0
 49
2.54
 74
     0
 49
-2.54
 74
     0
  0
LTYPE
  5
43
330
5
100
AcDbSymbolTableRecord
100
AcDbLinetypeTableRecord
  2
DOT2
 70
     0
  3
Dot (.5x) ........................................
 72
    65
 73
     2
 40
0.635
 49
0.0
 74
     0
 49
-0.635
 74
     0
  0
ENDTAB
  0
TABLE
  2
LAYER
  5
2
330
0
100
AcDbSymbolTable
 70
     4
  0
LAYER
  5
10
330
2
100
AcDbSymbolTableRecord
100
AcDbLayerTableRecord
  2
0
 70
     0
 62
     7
  6
Continuous
370
    -3
390
F
  0
LAYER
  5
44
330
2
100
AcDbSymbolTableRecord
100
AcDbLayerTableRecord
  2
SLD-0
 70
     0
 62
   179
  6
Continuous
370
    -3
390
F
  0
LAYER
  5
45
330
2
100
AcDbSymbolTableRecord
100
AcDbLayerTableRecord
  2
THICK
 70
     0
 62
   179
  6
Continuous
370
    -3
390
F
  0
LAYER
  5
46
330
2
100
AcDbSymbolTableRecord
100
AcDbLayerTableRecord
  2
HIDDEN
 70
     0
 62
   179
  6
Continuous
370
    -3
390
F
  0
ENDTAB
  0
TABLE
  2
STYLE
  5
3
330
0
100
AcDbSymbolTable
 70
     2
  0
STYLE
  5
11
330
3
100
AcDbSymbolTableRecord
100
AcDbTextStyleTableRecord
  2
Standard
 70
     0
 40
0.0
 41
1.0
 50
0.0
 71
     0
 42
2.5
  3
txt
  4
bigfont
  0
STYLE
  5
128
330
3
100
AcDbSymbolTableRecord
100
AcDbTextStyleTableRecord
  2
SLDTEXTSTYLE0
 70
     0
 40
0.0
 41
0.7
 50
0.0
 71
     0
 42
0.2
  3
TXT
  4
bigfont
  0
ENDTAB
  0
TABLE
  2
VIEW
  5
6
330
0
100
AcDbSymbolTable
 70
     0
  0
ENDTAB
  0
TABLE
  2
UCS
  5
7
330
0
100
AcDbSymbolTable
 70
     0
  0
ENDTAB
  0
TABLE
  2
APPID
  5
9
330
0
100
AcDbSymbolTable
 70
     1
  0
APPID
  5
12
330
9
100
AcDbSymbolTableRecord
100
AcDbRegAppTableRecord
  2
ACAD
 70
     0
  0
ENDTAB
  0
TABLE
  2
DIMSTYLE
  5
A
330
0
100
AcDbSymbolTable
 70
     5
100
AcDbDimStyleTable
  0
DIMSTYLE
105
27
330
A
100
AcDbSymbolTableRecord
100
AcDbDimStyleTableRecord
  2
ISO-25
 70
     0
 41
2.5
 42
0.625
 43
3.75
 44
1.25
 73
     0
 74
     0
 77
     1
 78
     8
140
2.5
141
2.5
143
0.0393700787
147
0.625
171
     3
172
     1
271
     2
272
     2
274
     3
278
    44
283
     0
284
     8
340
11
  0
DIMSTYLE
105
129
102
{ACAD_REACTORS
330
105
330
147
102
}
330
A
100
AcDbSymbolTableRecord
100
AcDbDimStyleTableRecord
  2
SLDDIMSTYLE0
 70
     0
 41
3.302
 44
0.0
 45
0.000000001
 73
     0
 74
     0
 77
     3
 78
    12
140
3.5
147
0.875
173
     1
271
     0
272
     2
276
     2
284
    12
340
128
341
12A
343
12A
344
12A
  0
DIMSTYLE
105
13B
102
{ACAD_REACTORS
330
13A
102
}
330
A
100
AcDbSymbolTableRecord
100
AcDbDimStyleTableRecord
  2
SLDDIMSTYLE1
 70
     0
 41
3.302
 44
0.0
 45
0.000000001
 73
     0
 74
     0
 77
     3
 78
    12
140
3.5
147
0.875
173
     1
271
     1
272
     2
276
     2
284
    12
340
128
341
12A
343
12A
344
12A
  0
DIMSTYLE
105
152
102
{ACAD_REACTORS
330
151
330
15E
330
16A
102
}
330
A
100
AcDbSymbolTableRecord
100
AcDbDimStyleTableRecord
  2
SLDDIMSTYLE2
 70
     0
 41
3.302
 44
0.0
 45
0.000000001
 73
     0
 74
     0
 77
     3
 78
    12
140
3.5
147
0.875
173
     1
272
     2
276
     2
284
    12
340
128
341
12A
343
12A
344
12A
  0
DIMSTYLE
105
181
330
A
100
AcDbSymbolTableRecord
100
AcDbDimStyleTableRecord
  2
SLDDIMSTYLE3
 70
     0
 41
3.302
 44
0.0
 45
0.000000001
140
0.0
146
3.302
147
0.0
173
     1
271
     0
272
     0
276
     2
340
11
341
12A
343
12A
344
12A
  0
ENDTAB
  0
TABLE
  2
BLOCK_RECORD
  5
1
330
0
100
AcDbSymbolTable
 70
     9
  0
BLOCK_RECORD
  5
1F
330
1
100
AcDbSymbolTableRecord
100
AcDbBlockTableRecord
  2
*Model_Space
340
22
  0
BLOCK_RECORD
  5
1B
330
1
100
AcDbSymbolTableRecord
100
AcDbBlockTableRecord
  2
*Paper_Space
340
1E
  0
BLOCK_RECORD
  5
12A
330
1
100
AcDbSymbolTableRecord
100
AcDbBlockTableRecord
  2
_OPEN30
340
0
102
{BLKREFS
331
133
331
134
331
13F
331
140
331
14B
331
14C
331
156
331
157
331
162
331
163
331
16E
331
16F
102
}
  0
BLOCK_RECORD
  5
130
330
1
100
AcDbSymbolTableRecord
100
AcDbBlockTableRecord
  2
*D2
340
0
  0
BLOCK_RECORD
  5
13C
330
1
100
AcDbSymbolTableRecord
100
AcDbBlockTableRecord
  2
*D3
340
0
  0
BLOCK_RECORD
  5
148
330
1
100
AcDbSymbolTableRecord
100
AcDbBlockTableRecord
  2
*D4
340
0
  0
BLOCK_RECORD
  5
153
330
1
100
AcDbSymbolTableRecord
100
AcDbBlockTableRecord
  2
*D5
340
0
  0
BLOCK_RECORD
  5
15F
330
1
100
AcDbSymbolTableRecord
100
AcDbBlockTableRecord
  2
*D6
340
0
  0
BLOCK_RECORD
  5
16B
330
1
100
AcDbSymbolTableRecord
100
AcDbBlockTableRecord
  2
*D7
340
0
  0
BLOCK_RECORD
  5
176
330
1
100
AcDbSymbolTableRecord
100
AcDbBlockTableRecord
  2
SW_NOTE_0
340
0
102
{BLKREFS
331
180
102
}
  0
ENDTAB
  0
ENDSEC
  0
SECTION
  2
BLOCKS
  0
BLOCK
  5
20
330
1F
100
AcDbEntity
  8
0
100
AcDbBlockBegin
  2
*Model_Space
 70
     0
 10
0.0
 20
0.0
 30
0.0
  3
*Model_Space
  1

  0
ENDBLK
  5
21
330
1F
100
AcDbEntity
  8
0
100
AcDbBlockEnd
  0
BLOCK
  5
1C
330
1B
100
AcDbEntity
 67
     1
  8
0
100
AcDbBlockBegin
  2
*Paper_Space
 70
     0
 10
0.0
 20
0.0
 30
0.0
  3
*Paper_Space
  1

  0
ENDBLK
  5
1D
330
1B
100
AcDbEntity
 67
     1
  8
0
100
AcDbBlockEnd
  0
BLOCK
  5
12B
330
12A
100
AcDbEntity
  8
0
100
AcDbBlockBegin
  2
_OPEN30
 70
     0
 10
0.0
 20
0.0
 30
0.0
  3
_OPEN30
  1

  0
LINE
  5
12D
330
12A
100
AcDbEntity
  8
0
  6
ByBlock
 62
     0
370
    -2
100
AcDbLine
 10
-1.0
 20
0.267949
 30
0.0
 11
0.0
 21
0.0
 31
0.0
  0
LINE
  5
12E
330
12A
100
AcDbEntity
  8
0
  6
ByBlock
 62
     0
370
    -2
100
AcDbLine
 10
0.0
 20
0.0
 30
0.0
 11
-1.0
 21
-0.267949
 31
0.0
  0
LINE
  5
12F
330
12A
100
AcDbEntity
  8
0
  6
ByBlock
 62
     0
370
    -2
100
AcDbLine
 10
0.0
 20
0.0
 30
0.0
 11
-1.0
 21
0.0
 31
0.0
  0
ENDBLK
  5
12C
330
12A
100
AcDbEntity
  8
0
100
AcDbBlockEnd
  0
BLOCK
  5
131
330
130
100
AcDbEntity
  8
0
100
AcDbBlockBegin
  2
*D2
 70
     1
 10
0.0
 20
0.0
 30
0.0
  3
*D2
  1

  0
INSERT
  5
133
330
130
100
AcDbEntity
  8
THICK
100
AcDbBlockReference
  2
_OPEN30
 10
132.0
 20
80.776808903
 30
0.1
 41
3.302
 42
3.302
 50
180.0
  0
INSERT
  5
134
330
130
100
AcDbEntity
  8
THICK
100
AcDbBlockReference
  2
_OPEN30
 10
164.9999999999
 20
80.776808903
 30
0.1
 41
3.302
 42
3.302
 50
0.0
  0
LINE
  5
135
330
130
100
AcDbEntity
  8
THICK
100
AcDbLine
 10
132.0
 20
88.5
 30
0.0
 11
132.0
 21
79.776808903
 31
0.0
  0
LINE
  5
136
330
130
100
AcDbEntity
  8
THICK
100
AcDbLine
 10
164.9999999999
 20
88.5
 30
0.0
 11
164.9999999999
 21
79.776808903
 31
0.0
  0
LINE
  5
137
330
130
100
AcDbEntity
  8
THICK
100
AcDbLine
 10
132.0
 20
80.776808903
 30
0.0
 11
164.9999999999
 21
80.776808903
 31
0.0
  0
MTEXT
  5
138
330
130
100
AcDbEntity
  8
THICK
100
AcDbMText
 10
144.622294143
 20
85.2885457594
 30
0.0
 40
3.5
 41
0.0
 71
     1
 72
     1
  1
%%c
  7
SLDTEXTSTYLE0
 73
     1
 44
1.0
  0
MTEXT
  5
139
330
130
100
AcDbEntity
  8
THICK
100
AcDbMText
 10
148.4896230557
 20
85.2885457594
 30
0.0
 40
3.5
 41
0.0
 71
     1
 72
     1
  1
33
  7
SLDTEXTSTYLE0
 73
     1
 44
1.0
  0
ENDBLK
  5
132
330
130
100
AcDbEntity
  8
0
100
AcDbBlockEnd
  0
BLOCK
  5
13D
330
13C
100
AcDbEntity
  8
0
100
AcDbBlockBegin
  2
*D3
 70
     1
 10
0.0
 20
0.0
 30
0.0
  3
*D3
  1

  0
INSERT
  5
13F
330
13C
100
AcDbEntity
  8
THICK
100
AcDbBlockReference
  2
_OPEN30
 10
170.2200911463
 20
93.8
 30
0.1
 41
3.302
 42
3.302
 50
270.0
  0
INSERT
  5
140
330
13C
100
AcDbEntity
  8
THICK
100
AcDbBlockReference
  2
_OPEN30
 10
170.2200911463
 20
89.5
 30
0.1
 41
3.302
 42
3.302
 50
90.0
  0
LINE
  5
141
330
13C
100
AcDbEntity
  8
THICK
100
AcDbLine
 10
157.2
 20
93.8
 30
0.0
 11
171.2200911463
 21
93.8
 31
0.0
  0
LINE
  5
142
330
13C
100
AcDbEntity
  8
THICK
100
AcDbLine
 10
165.9999999999
 20
89.5
 30
0.0
 11
171.2200911463
 21
89.5
 31
0.0
  0
LINE
  5
143
330
13C
100
AcDbEntity
  8
THICK
100
AcDbLine
 10
170.2200911463
 20
93.8
 30
0.0
 11
170.2200911463
 21
105.3538461876
 31
0.0
  0
LINE
  5
144
330
13C
100
AcDbEntity
  8
THICK
100
AcDbLine
 10
170.2200911463
 20
93.8
 30
0.0
 11
170.2200911463
 21
89.5
 31
0.0
  0
LINE
  5
145
330
13C
100
AcDbEntity
  8
THICK
100
AcDbLine
 10
170.2200911463
 20
89.5
 30
0.0
 11
170.2200911463
 21
83.15
 31
0.0
  0
MTEXT
  5
146
330
13C
100
AcDbEntity
  8
THICK
100
AcDbMText
 10
165.7083542899
 20
98.8684763337
 30
0.0
 40
3.5
 41
0.0
 71
     1
 72
     1
  1
4.3
  7
SLDTEXTSTYLE0
 11
-7.044195017643634E-15
 21
1.0
 31
0.0
 73
     1
 44
1.0
  0
ENDBLK
  5
13E
330
13C
100
AcDbEntity
  8
0
100
AcDbBlockEnd
  0
BLOCK
  5
149
330
148
100
AcDbEntity
  8
0
100
AcDbBlockBegin
  2
*D4
 70
     1
 10
0.0
 20
0.0
 30
0.0
  3
*D4
  1

  0
INSERT
  5
14B
330
148
100
AcDbEntity
  8
THICK
100
AcDbBlockReference
  2
_OPEN30
 10
180.2832832547
 20
89.5
 30
0.1
 41
3.302
 42
3.302
 50
270.0
  0
INSERT
  5
14C
330
148
100
AcDbEntity
  8
THICK
100
AcDbBlockReference
  2
_OPEN30
 10
180.2832832547
 20
114.5
 30
0.1
 41
3.302
 42
3.302
 50
90.0
  0
LINE
  5
14D
330
148
100
AcDbEntity
  8
THICK
100
AcDbLine
 10
165.9999999999
 20
89.5
 30
0.0
 11
181.2832832547
 21
89.5
 31
0.0
  0
LINE
  5
14E
330
148
100
AcDbEntity
  8
THICK
100
AcDbLine
 10
159.3149545762
 20
114.5
 30
0.0
 11
181.2832832547
 21
114.5
 31
0.0
  0
LINE
  5
14F
330
148
100
AcDbEntity
  8
THICK
100
AcDbLine
 10
180.2832832547
 20
89.5
 30
0.0
 11
180.2832832547
 21
114.5
 31
0.0
  0
MTEXT
  5
150
330
148
100
AcDbEntity
  8
THICK
100
AcDbMText
 10
175.7715463984
 20
99.2815328251
 30
0.0
 40
3.5
 41
0.0
 71
     1
 72
     1
  1
25
  7
SLDTEXTSTYLE0
 11
6.123233995736766E-17
 21
1.0
 31
0.0
 73
     1
 44
1.0
  0
ENDBLK
  5
14A
330
148
100
AcDbEntity
  8
0
100
AcDbBlockEnd
  0
BLOCK
  5
154
330
153
100
AcDbEntity
  8
0
100
AcDbBlockBegin
  2
*D5
 70
     1
 10
0.0
 20
0.0
 30
0.0
  3
*D5
  1

  0
INSERT
  5
156
330
153
100
AcDbEntity
  8
THICK
100
AcDbBlockReference
  2
_OPEN30
 10
143.5
 20
137.6281899741
 30
0.1
 41
3.302
 42
3.302
 50
360.0
  0
INSERT
  5
157
330
153
100
AcDbEntity
  8
THICK
100
AcDbBlockReference
  2
_OPEN30
 10
153.5
 20
137.6281899741
 30
0.1
 41
3.302
 42
3.302
 50
180.0
  0
LINE
  5
158
330
153
100
AcDbEntity
  8
THICK
100
AcDbLine
 10
143.5
 20
125.5
 30
0.0
 11
143.5
 21
138.6281899741
 31
0.0
  0
LINE
  5
159
330
153
100
AcDbEntity
  8
THICK
100
AcDbLine
 10
153.5
 20
125.5
 30
0.0
 11
153.5
 21
138.6281899741
 31
0.0
  0
LINE
  5
15A
330
153
100
AcDbEntity
  8
THICK
100
AcDbLine
 10
143.5
 20
137.6281899741
 30
0.0
 11
119.7609240604
 21
137.6281899741
 31
0.0
  0
LINE
  5
15B
330
153
100
AcDbEntity
  8
THICK
100
AcDbLine
 10
143.5
 20
137.6281899741
 30
0.0
 11
153.5
 21
137.6281899741
 31
0.0
  0
LINE
  5
15C
330
153
100
AcDbEntity
  8
THICK
100
AcDbLine
 10
153.5
 20
137.6281899741
 30
0.0
 11
159.85
 21
137.6281899741
 31
0.0
  0
MTEXT
  5
15D
330
153
100
AcDbEntity
  8
THICK
100
AcDbMText
 10
121.3484240604
 20
142.1399268305
 30
0.0
 40
3.5
 41
0.0
 71
     1
 72
     1
  1
PT1/8-M
  7
SLDTEXTSTYLE0
 73
     1
 44
1.0
  0
ENDBLK
  5
155
330
153
100
AcDbEntity
  8
0
100
AcDbBlockEnd
  0
BLOCK
  5
160
330
15F
100
AcDbEntity
  8
0
100
AcDbBlockBegin
  2
*D6
 70
     1
 10
0.0
 20
0.0
 30
0.0
  3
*D6
  1

  0
INSERT
  5
162
330
15F
100
AcDbEntity
  8
THICK
100
AcDbBlockReference
  2
_OPEN30
 10
146.45
 20
131.6697922427
 30
0.1
 41
3.302
 42
3.302
 50
360.0
  0
INSERT
  5
163
330
15F
100
AcDbEntity
  8
THICK
100
AcDbBlockReference
  2
_OPEN30
 10
150.55
 20
131.6697922427
 30
0.1
 41
3.302
 42
3.302
 50
180.0
  0
LINE
  5
164
330
15F
100
AcDbEntity
  8
THICK
100
AcDbLine
 10
146.45
 20
125.5
 30
0.0
 11
146.45
 21
132.6697922427
 31
0.0
  0
LINE
  5
165
330
15F
100
AcDbEntity
  8
THICK
100
AcDbLine
 10
150.55
 20
125.5
 30
0.0
 11
150.55
 21
132.6697922427
 31
0.0
  0
LINE
  5
166
330
15F
100
AcDbEntity
  8
THICK
100
AcDbLine
 10
146.45
 20
131.6697922427
 30
0.0
 11
140.1
 21
131.6697922427
 31
0.0
  0
LINE
  5
167
330
15F
100
AcDbEntity
  8
THICK
100
AcDbLine
 10
146.45
 20
131.6697922427
 30
0.0
 11
150.55
 21
131.6697922427
 31
0.0
  0
LINE
  5
168
330
15F
100
AcDbEntity
  8
THICK
100
AcDbLine
 10
150.55
 20
131.6697922427
 30
0.0
 11
158.8383064007
 21
131.6697922427
 31
0.0
  0
MTEXT
  5
169
330
15F
100
AcDbEntity
  8
THICK
100
AcDbMText
 10
155.2149279652
 20
136.181529099
 30
0.0
 40
3.5
 41
0.0
 71
     1
 72
     1
  1
5
  7
SLDTEXTSTYLE0
 73
     1
 44
1.0
  0
ENDBLK
  5
161
330
15F
100
AcDbEntity
  8
0
100
AcDbBlockEnd
  0
BLOCK
  5
16C
330
16B
100
AcDbEntity
  8
0
100
AcDbBlockBegin
  2
*D7
 70
     1
 10
0.0
 20
0.0
 30
0.0
  3
*D7
  1

  0
INSERT
  5
16E
330
16B
100
AcDbEntity
  8
THICK
100
AcDbBlockReference
  2
_OPEN30
 10
166.6315946266
 20
124.5
 30
0.1
 41
3.302
 42
3.302
 50
270.0
  0
INSERT
  5
16F
330
16B
100
AcDbEntity
  8
THICK
100
AcDbBlockReference
  2
_OPEN30
 10
166.6315946266
 20
114.5
 30
0.1
 41
3.302
 42
3.302
 50
90.0
  0
LINE
  5
170
330
16B
100
AcDbEntity
  8
THICK
100
AcDbLine
 10
154.5
 20
124.5
 30
0.0
 11
167.6315946266
 21
124.5
 31
0.0
  0
LINE
  5
171
330
16B
100
AcDbEntity
  8
THICK
100
AcDbLine
 10
159.3149545762
 20
114.5
 30
0.0
 11
167.6315946266
 21
114.5
 31
0.0
  0
LINE
  5
172
330
16B
100
AcDbEntity
  8
THICK
100
AcDbLine
 10
166.6315946266
 20
124.5
 30
0.0
 11
166.6315946266
 21
130.85
 31
0.0
  0
LINE
  5
173
330
16B
100
AcDbEntity
  8
THICK
100
AcDbLine
 10
166.6315946266
 20
124.5
 30
0.0
 11
166.6315946266
 21
114.5
 31
0.0
  0
LINE
  5
174
330
16B
100
AcDbEntity
  8
THICK
100
AcDbLine
 10
166.6315946266
 20
114.5
 30
0.0
 11
166.6315946266
 21
108.15
 31
0.0
  0
MTEXT
  5
175
330
16B
100
AcDbEntity
  8
THICK
100
AcDbMText
 10
162.1198577702
 20
117.5161589491
 30
0.0
 40
3.5
 41
0.0
 71
     1
 72
     1
  1
7
  7
SLDTEXTSTYLE0
 11
-7.044195017643634E-15
 21
1.0
 31
0.0
 73
     1
 44
1.0
  0
ENDBLK
  5
16D
330
16B
100
AcDbEntity
  8
0
100
AcDbBlockEnd
  0
BLOCK
  5
177
330
176
100
AcDbEntity
  8
0
100
AcDbBlockBegin
  2
SW_NOTE_0
 70
     0
 10
0.0
 20
0.0
 30
0.0
  3
SW_NOTE_0
  1

  0
LINE
  5
179
330
176
100
AcDbEntity
  8
THICK
 62
     0
100
AcDbLine
 10
-9.1320489385
 20
0.0001077345
 30
0.0
 11
0.0
 21
0.0001077345
 31
0.0
  0
LINE
  5
17A
330
176
100
AcDbEntity
  8
THICK
 62
     0
100
AcDbLine
 10
0.0
 20
0.0001077345
 30
0.0
 11
-9.1320489385
 21
0.0001077345
 31
0.0
  0
LINE
  5
17B
330
176
100
AcDbEntity
  8
THICK
 62
     0
100
AcDbLine
 10
-9.1320489385
 20
0.0001077345
 30
0.0
 11
0.0
 21
0.0001077345
 31
0.0
  0
LINE
  5
17C
330
176
100
AcDbEntity
  8
THICK
 62
     0
100
AcDbLine
 10
0.0
 20
0.0001077345
 30
0.0
 11
-9.1320489385
 21
0.0001077345
 31
0.0
  0
LINE
  5
17D
330
176
100
AcDbEntity
  8
THICK
 62
     0
100
AcDbLine
 10
-9.1320489385
 20
0.0001077345
 30
0.0
 11
0.0
 21
0.0001077345
 31
0.0
  0
LINE
  5
17E
330
176
100
AcDbEntity
  8
THICK
 62
     0
100
AcDbLine
 10
0.0
 20
0.0001077345
 30
0.0
 11
-9.1320489385
 21
0.0001077345
 31
0.0
  0
MTEXT
  5
17F
330
176
100
AcDbEntity
  8
THICK
 62
     0
100
AcDbMText
 10
-9.1319580399
 20
4.513750566
 30
0.0
 40
3.5
 41
0.0
 71
     1
 72
     1
  1
W=19
  7
SLDTEXTSTYLE0
 73
     1
 44
1.0
  0
ENDBLK
  5
178
330
176
100
AcDbEntity
  8
0
100
AcDbBlockEnd
  0
ENDSEC
  0
SECTION
  2
ENTITIES
  0
VIEWPORT
  5
47
330
1B
100
AcDbEntity
 67
     1
  8
0
100
AcDbViewport
 10
148.5
 20
105.0
 30
0.0
 40
314.226
 41
222.18
 68
     1
 69
     1
 12
148.5
 22
105.0
 13
0.0
 23
0.0
 14
10.0
 24
10.0
 15
10.0
 25
10.0
 16
0.0
 26
0.0
 36
1.0
 17
0.0
 27
0.0
 37
0.0
 42
50.0
 43
0.0
 44
0.0
 45
222.18
 50
0.0
 51
0.0
 72
   100
 90
   557152
  1

281
     0
 71
     1
 74
     0
110
0.0
120
0.0
130
0.0
111
1.0
121
0.0
131
0.0
112
0.0
122
1.0
132
0.0
 79
     0
146
0.0
  0
LINE
  5
48
330
1B
100
AcDbEntity
 67
     1
  8
HIDDEN
100
AcDbLine
 10
147.3452994616
 20
115.5
 30
0.0
 11
146.9929491924
 21
115.5
 31
0.0
  0
LINE
  5
49
330
1B
100
AcDbEntity
 67
     1
  8
HIDDEN
100
AcDbLine
 10
148.05
 20
115.5
 30
0.0
 11
147.3452994616
 21
115.5
 31
0.0
  0
LINE
  5
4A
330
1B
100
AcDbEntity
 67
     1
  8
HIDDEN
100
AcDbLine
 10
146.5429491924
 20
112.025388745
 30
0.0
 11
146.5429491924
 21
115.5
 31
0.0
  0
LINE
  5
4B
330
1B
100
AcDbEntity
 67
     1
  8
HIDDEN
100
AcDbLine
 10
146.45
 20
115.5
 30
0.0
 11
146.45
 21
124.5
 31
0.0
  0
LINE
  5
4C
330
1B
100
AcDbEntity
 67
     1
  8
HIDDEN
100
AcDbLine
 10
150.55
 20
115.5
 30
0.0
 11
150.55
 21
124.5
 31
0.0
  0
LINE
  5
4D
330
1B
100
AcDbEntity
 67
     1
  8
HIDDEN
100
AcDbLine
 10
150.4570508076
 20
115.5
 30
0.0
 11
150.4570508076
 21
112.025388745
 31
0.0
  0
LINE
  5
4E
330
1B
100
AcDbEntity
 67
     1
  8
HIDDEN
100
AcDbLine
 10
150.0070508076
 20
112.025388745
 30
0.0
 11
150.0070508076
 21
115.5
 31
0.0
  0
LINE
  5
4F
330
1B
100
AcDbEntity
 67
     1
  8
HIDDEN
100
AcDbLine
 10
148.95
 20
115.5
 30
0.0
 11
148.95
 21
112.025388745
 31
0.0
  0
LINE
  5
50
330
1B
100
AcDbEntity
 67
     1
  8
HIDDEN
100
AcDbLine
 10
148.05
 20
112.025388745
 30
0.0
 11
148.05
 21
115.5
 31
0.0
  0
LINE
  5
51
330
1B
100
AcDbEntity
 67
     1
  8
HIDDEN
100
AcDbLine
 10
146.9929491924
 20
115.5
 30
0.0
 11
146.9929491924
 21
112.025388745
 31
0.0
  0
LINE
  5
52
330
1B
100
AcDbEntity
 67
     1
  8
HIDDEN
100
AcDbLine
 10
152.4999998689
 20
114.7199762377
 30
0.0
 11
144.5
 21
114.7199764854
 31
0.0
  0
LINE
  5
53
330
1B
100
AcDbEntity
 67
     1
  8
HIDDEN
100
AcDbLine
 10
152.4999998689
 20
114.7199762377
 30
0.0
 11
152.5
 21
115.0800017271
 31
0.0
  0
LINE
  5
54
330
1B
100
AcDbEntity
 67
     1
  8
THICK
100
AcDbLine
 10
152.5
 20
115.0800017271
 30
0.0
 11
152.5
 21
116.9154700538
 31
0.0
  0
LINE
  5
55
330
1B
100
AcDbEntity
 67
     1
  8
HIDDEN
100
AcDbLine
 10
144.5
 20
114.7199764854
 30
0.0
 11
144.5
 21
115.0800017271
 31
0.0
  0
LINE
  5
56
330
1B
100
AcDbEntity
 67
     1
  8
THICK
100
AcDbLine
 10
144.5
 20
115.0800017271
 30
0.0
 11
144.5
 21
116.9154700538
 31
0.0
  0
LINE
  5
57
330
1B
100
AcDbEntity
 67
     1
  8
HIDDEN
100
AcDbLine
 10
152.5
 20
116.9154700538
 30
0.0
 11
144.5
 21
116.9154700538
 31
0.0
  0
LINE
  5
58
330
1B
100
AcDbEntity
 67
     1
  8
THICK
100
AcDbLine
 10
152.5
 20
116.9154700538
 30
0.0
 11
153.5
 21
117.492820323
 31
0.0
  0
LINE
  5
59
330
1B
100
AcDbEntity
 67
     1
  8
THICK
100
AcDbLine
 10
144.5
 20
116.9154700538
 30
0.0
 11
143.5
 21
117.492820323
 31
0.0
  0
LINE
  5
5A
330
1B
100
AcDbEntity
 67
     1
  8
HIDDEN
100
AcDbLine
 10
153.5
 20
117.492820323
 30
0.0
 11
143.5
 21
117.492820323
 31
0.0
  0
LINE
  5
5B
330
1B
100
AcDbEntity
 67
     1
  8
THICK
100
AcDbLine
 10
153.5
 20
117.492820323
 30
0.0
 11
153.5
 21
124.5
 31
0.0
  0
LINE
  5
5C
330
1B
100
AcDbEntity
 67
     1
  8
THICK
100
AcDbLine
 10
143.5
 20
117.492820323
 30
0.0
 11
143.5
 21
124.5
 31
0.0
  0
LINE
  5
5D
330
1B
100
AcDbEntity
 67
     1
  8
HIDDEN
100
AcDbLine
 10
150.8555064544
 20
112.025388745
 30
0.0
 11
150.8555064544
 21
100.5
 31
0.0
  0
LINE
  5
5E
330
1B
100
AcDbEntity
 67
     1
  8
HIDDEN
100
AcDbLine
 10
146.1444935456
 20
112.025388745
 30
0.0
 11
145.95
 21
112.025388745
 31
0.0
  0
LINE
  5
5F
330
1B
100
AcDbEntity
 67
     1
  8
HIDDEN
100
AcDbLine
 10
146.1444935456
 20
112.025388745
 30
0.0
 11
146.1444935456
 21
100.5
 31
0.0
  0
LINE
  5
60
330
1B
100
AcDbEntity
 67
     1
  8
HIDDEN
100
AcDbLine
 10
145.9558674635
 20
97.5
 30
0.0
 11
145.9558674635
 21
100.5
 31
0.0
  0
LINE
  5
61
330
1B
100
AcDbEntity
 67
     1
  8
HIDDEN
100
AcDbLine
 10
146.0866503529
 20
100.5
 30
0.0
 11
146.0866503529
 21
97.5
 31
0.0
  0
LINE
  5
62
330
1B
100
AcDbEntity
 67
     1
  8
HIDDEN
100
AcDbLine
 10
146.5801047617
 20
100.5
 30
0.0
 11
147.0782098937
 21
100.5
 31
0.0
  0
LINE
  5
63
330
1B
100
AcDbEntity
 67
     1
  8
HIDDEN
100
AcDbLine
 10
147.0782098937
 20
97.5
 30
0.0
 11
147.0782098937
 21
100.5
 31
0.0
  0
LINE
  5
64
330
1B
100
AcDbEntity
 67
     1
  8
HIDDEN
100
AcDbLine
 10
148.006545066
 20
100.5
 30
0.0
 11
148.006545066
 21
97.5
 31
0.0
  0
LINE
  5
65
330
1B
100
AcDbEntity
 67
     1
  8
HIDDEN
100
AcDbLine
 10
148.9934586802
 20
100.5
 30
0.0
 11
149.6223424302
 21
100.5
 31
0.0
  0
LINE
  5
66
330
1B
100
AcDbEntity
 67
     1
  8
HIDDEN
100
AcDbLine
 10
149.6223424302
 20
97.5
 30
0.0
 11
149.6223424302
 21
100.5
 31
0.0
  0
LINE
  5
67
330
1B
100
AcDbEntity
 67
     1
  8
HIDDEN
100
AcDbLine
 10
150.419894713
 20
100.5
 30
0.0
 11
150.419894713
 21
97.5
 31
0.0
  0
LINE
  5
68
330
1B
100
AcDbEntity
 67
     1
  8
HIDDEN
100
AcDbLine
 10
151.7330480747
 20
97.5
 30
0.0
 11
151.7330480747
 21
93.8
 31
0.0
  0
LINE
  5
69
330
1B
100
AcDbEntity
 67
     1
  8
HIDDEN
100
AcDbLine
 10
145.0
 20
97.5
 30
0.0
 11
145.2669519253
 21
97.5
 31
0.0
  0
LINE
  5
6A
330
1B
100
AcDbEntity
 67
     1
  8
HIDDEN
100
AcDbLine
 10
145.2669519253
 20
97.5
 30
0.0
 11
145.2669519253
 21
93.8
 31
0.0
  0
LINE
  5
6B
330
1B
100
AcDbEntity
 67
     1
  8
HIDDEN
100
AcDbLine
 10
155.6127057644
 20
94.5
 30
0.0
 11
155.6127057644
 21
93.8
 31
0.0
  0
LINE
  5
6C
330
1B
100
AcDbEntity
 67
     1
  8
HIDDEN
100
AcDbLine
 10
141.3872942356
 20
94.5
 30
0.0
 11
156.2
 21
94.5
 31
0.0
  0
LINE
  5
6D
330
1B
100
AcDbEntity
 67
     1
  8
HIDDEN
100
AcDbLine
 10
141.3872942356
 20
94.5
 30
0.0
 11
141.3872942356
 21
93.8
 31
0.0
  0
LINE
  5
6E
330
1B
100
AcDbEntity
 67
     1
  8
HIDDEN
100
AcDbLine
 10
156.2
 20
93.8
 30
0.0
 11
141.3872942356
 21
93.8
 31
0.0
  0
LINE
  5
6F
330
1B
100
AcDbEntity
 67
     1
  8
HIDDEN
100
AcDbLine
 10
140.8
 20
94.5
 30
0.0
 11
155.6127057644
 21
94.5
 31
0.0
  0
LINE
  5
70
330
1B
100
AcDbEntity
 67
     1
  8
HIDDEN
100
AcDbLine
 10
163.7415123522
 20
89.8400963115
 30
0.0
 11
163.7415123522
 21
89.5
 31
0.0
  0
LINE
  5
71
330
1B
100
AcDbEntity
 67
     1
  8
HIDDEN
100
AcDbLine
 10
163.7415123522
 20
89.8400963115
 30
0.0
 11
164.9999999999
 21
89.8400963115
 31
0.0
  0
LINE
  5
72
330
1B
100
AcDbEntity
 67
     1
  8
THICK
100
AcDbLine
 10
164.9999999999
 20
89.8400963115
 30
0.0
 11
133.2584876478
 21
89.8400963115
 31
0.0
  0
LINE
  5
73
330
1B
100
AcDbEntity
 67
     1
  8
THICK
100
AcDbLine
 10
133.2584876478
 20
89.8400963115
 30
0.0
 11
133.2584876478
 21
89.5
 31
0.0
  0
LINE
  5
74
330
1B
100
AcDbEntity
 67
     1
  8
THICK
100
AcDbLine
 10
164.9999999999
 20
89.5
 30
0.0
 11
133.2584876478
 21
89.5
 31
0.0
  0
LINE
  5
75
330
1B
100
AcDbEntity
 67
     1
  8
HIDDEN
100
AcDbLine
 10
157.3803910737
 20
95.5866378801
 30
0.0
 11
158.1136426182
 21
95.5866378801
 31
0.0
  0
LINE
  5
76
330
1B
100
AcDbEntity
 67
     1
  8
THICK
100
AcDbLine
 10
158.1136426182
 20
95.5866378801
 30
0.0
 11
139.6196089263
 21
95.5866378801
 31
0.0
  0
LINE
  5
77
330
1B
100
AcDbEntity
 67
     1
  8
THICK
100
AcDbLine
 10
142.904762294
 20
107.3
 30
0.0
 11
139.9974502838
 21
107.3
 31
0.0
  0
LINE
  5
78
330
1B
100
AcDbEntity
 67
     1
  8
THICK
100
AcDbLine
 10
139.9974502838
 20
107.3
 30
0.0
 11
139.6196089263
 21
95.5866378801
 31
0.0
  0
LINE
  5
79
330
1B
100
AcDbEntity
 67
     1
  8
HIDDEN
100
AcDbLine
 10
157.0025497162
 20
107.3
 30
0.0
 11
157.3803910737
 21
95.5866378801
 31
0.0
  0
LINE
  5
7A
330
1B
100
AcDbEntity
 67
     1
  8
HIDDEN
100
AcDbLine
 10
157.0025497162
 20
107.3
 30
0.0
 11
157.6271941583
 21
107.3
 31
0.0
  0
LINE
  5
7B
330
1B
100
AcDbEntity
 67
     1
  8
HIDDEN
100
AcDbLine
 10
157.6271941583
 20
107.3
 30
0.0
 11
157.7046029997
 21
107.3
 31
0.0
  0
LINE
  5
7C
330
1B
100
AcDbEntity
 67
     1
  8
THICK
100
AcDbLine
 10
157.6271941583
 20
107.3
 30
0.0
 11
154.095237706
 21
107.3
 31
0.0
  0
LINE
  5
7D
330
1B
100
AcDbEntity
 67
     1
  8
THICK
100
AcDbLine
 10
152.0319564524
 20
107.3
 30
0.0
 11
144.9680435476
 21
107.3
 31
0.0
  0
LINE
  5
7E
330
1B
100
AcDbEntity
 67
     1
  8
HIDDEN
100
AcDbLine
 10
139.3728055954
 20
107.3
 30
0.0
 11
139.8773708344
 21
107.3957274362
 31
0.0
  0
LINE
  5
7F
330
1B
100
AcDbEntity
 67
     1
  8
HIDDEN
100
AcDbLine
 10
139.8773708344
 20
107.3957274362
 30
0.0
 11
140.3819360733
 21
107.461658451
 31
0.0
  0
LINE
  5
80
330
1B
100
AcDbEntity
 67
     1
  8
HIDDEN
100
AcDbLine
 10
140.3819360733
 20
107.461658451
 30
0.0
 11
140.8865013123
 21
107.4956505603
 31
0.0
  0
LINE
  5
81
330
1B
100
AcDbEntity
 67
     1
  8
HIDDEN
100
AcDbLine
 10
140.8865013123
 20
107.4956505603
 30
0.0
 11
141.3910665512
 21
107.4956505603
 31
0.0
  0
LINE
  5
82
330
1B
100
AcDbEntity
 67
     1
  8
HIDDEN
100
AcDbLine
 10
141.3910665512
 20
107.4956505603
 30
0.0
 11
141.8956317902
 21
107.461658451
 31
0.0
  0
LINE
  5
83
330
1B
100
AcDbEntity
 67
     1
  8
HIDDEN
100
AcDbLine
 10
141.8956317902
 20
107.461658451
 30
0.0
 11
142.4001970291
 21
107.3957274362
 31
0.0
  0
LINE
  5
84
330
1B
100
AcDbEntity
 67
     1
  8
HIDDEN
100
AcDbLine
 10
142.4001970291
 20
107.3957274362
 30
0.0
 11
142.904762294
 21
107.3
 31
0.0
  0
LINE
  5
85
330
1B
100
AcDbEntity
 67
     1
  8
HIDDEN
100
AcDbLine
 10
139.3728055954
 20
107.3
 30
0.0
 11
142.904762294
 21
107.3
 31
0.0
  0
LINE
  5
86
330
1B
100
AcDbEntity
 67
     1
  8
THICK
100
AcDbLine
 10
139.9974502838
 20
107.3
 30
0.0
 11
139.3728055954
 21
107.3
 31
0.0
  0
LINE
  5
87
330
1B
100
AcDbEntity
 67
     1
  8
THICK
100
AcDbLine
 10
142.904762294
 20
107.3
 30
0.0
 11
142.4001970291
 21
107.3957274362
 31
0.0
  0
LINE
  5
88
330
1B
100
AcDbEntity
 67
     1
  8
THICK
100
AcDbLine
 10
142.4001970291
 20
107.3957274362
 30
0.0
 11
141.8956317902
 21
107.461658451
 31
0.0
  0
LINE
  5
89
330
1B
100
AcDbEntity
 67
     1
  8
THICK
100
AcDbLine
 10
141.8956317902
 20
107.461658451
 30
0.0
 11
141.3910665512
 21
107.4956505603
 31
0.0
  0
LINE
  5
8A
330
1B
100
AcDbEntity
 67
     1
  8
THICK
100
AcDbLine
 10
141.3910665512
 20
107.4956505603
 30
0.0
 11
140.8865013123
 21
107.4956505603
 31
0.0
  0
LINE
  5
8B
330
1B
100
AcDbEntity
 67
     1
  8
THICK
100
AcDbLine
 10
140.8865013123
 20
107.4956505603
 30
0.0
 11
140.3819360733
 21
107.461658451
 31
0.0
  0
LINE
  5
8C
330
1B
100
AcDbEntity
 67
     1
  8
THICK
100
AcDbLine
 10
140.3819360733
 20
107.461658451
 30
0.0
 11
139.8773708344
 21
107.3957274362
 31
0.0
  0
LINE
  5
8D
330
1B
100
AcDbEntity
 67
     1
  8
THICK
100
AcDbLine
 10
139.8773708344
 20
107.3957274362
 30
0.0
 11
139.3728055954
 21
107.3
 31
0.0
  0
LINE
  5
8E
330
1B
100
AcDbEntity
 67
     1
  8
THICK
100
AcDbLine
 10
152.0319564524
 20
107.3
 30
0.0
 11
151.0258643627
 21
107.395489879
 31
0.0
  0
LINE
  5
8F
330
1B
100
AcDbEntity
 67
     1
  8
THICK
100
AcDbLine
 10
151.0258643627
 20
107.395489879
 30
0.0
 11
150.0188313723
 21
107.4614135697
 31
0.0
  0
LINE
  5
90
330
1B
100
AcDbEntity
 67
     1
  8
THICK
100
AcDbLine
 10
150.0188313723
 20
107.4614135697
 30
0.0
 11
149.0107870102
 21
107.4955479065
 31
0.0
  0
LINE
  5
91
330
1B
100
AcDbEntity
 67
     1
  8
THICK
100
AcDbLine
 10
149.0107870102
 20
107.4955479065
 30
0.0
 11
148.001663059
 21
107.4957520929
 31
0.0
  0
LINE
  5
92
330
1B
100
AcDbEntity
 67
     1
  8
THICK
100
AcDbLine
 10
148.001663059
 20
107.4957520929
 30
0.0
 11
146.9914556742
 21
107.4619034715
 31
0.0
  0
LINE
  5
93
330
1B
100
AcDbEntity
 67
     1
  8
THICK
100
AcDbLine
 10
146.9914556742
 20
107.4619034715
 30
0.0
 11
145.980227232
 21
107.3959660679
 31
0.0
  0
LINE
  5
94
330
1B
100
AcDbEntity
 67
     1
  8
THICK
100
AcDbLine
 10
145.980227232
 20
107.3959660679
 30
0.0
 11
144.9680435476
 21
107.3
 31
0.0
  0
LINE
  5
95
330
1B
100
AcDbEntity
 67
     1
  8
THICK
100
AcDbLine
 10
157.6271941583
 20
107.3
 30
0.0
 11
157.1226291656
 21
107.3957274333
 31
0.0
  0
LINE
  5
96
330
1B
100
AcDbEntity
 67
     1
  8
THICK
100
AcDbLine
 10
157.1226291656
 20
107.3957274333
 30
0.0
 11
156.6180639267
 21
107.461658448
 31
0.0
  0
LINE
  5
97
330
1B
100
AcDbEntity
 67
     1
  8
THICK
100
AcDbLine
 10
156.6180639267
 20
107.461658448
 30
0.0
 11
156.1134986877
 21
107.4956505573
 31
0.0
  0
LINE
  5
98
330
1B
100
AcDbEntity
 67
     1
  8
THICK
100
AcDbLine
 10
156.1134986877
 20
107.4956505573
 30
0.0
 11
155.6089334488
 21
107.4956505573
 31
0.0
  0
LINE
  5
99
330
1B
100
AcDbEntity
 67
     1
  8
THICK
100
AcDbLine
 10
155.6089334488
 20
107.4956505573
 30
0.0
 11
155.1043682098
 21
107.461658448
 31
0.0
  0
LINE
  5
9A
330
1B
100
AcDbEntity
 67
     1
  8
THICK
100
AcDbLine
 10
155.1043682098
 20
107.461658448
 30
0.0
 11
154.5998029709
 21
107.3957274333
 31
0.0
  0
LINE
  5
9B
330
1B
100
AcDbEntity
 67
     1
  8
THICK
100
AcDbLine
 10
154.5998029709
 20
107.3957274333
 30
0.0
 11
154.095237706
 21
107.3
 31
0.0
  0
LINE
  5
9C
330
1B
100
AcDbEntity
 67
     1
  8
HIDDEN
100
AcDbLine
 10
154.095237706
 20
107.3
 30
0.0
 11
157.0025497162
 21
107.3
 31
0.0
  0
LINE
  5
9D
330
1B
100
AcDbEntity
 67
     1
  8
HIDDEN
100
AcDbLine
 10
154.095237706
 20
107.3
 30
0.0
 11
154.5998029709
 21
107.3957274333
 31
0.0
  0
LINE
  5
9E
330
1B
100
AcDbEntity
 67
     1
  8
HIDDEN
100
AcDbLine
 10
154.5998029709
 20
107.3957274333
 30
0.0
 11
155.1043682098
 21
107.461658448
 31
0.0
  0
LINE
  5
9F
330
1B
100
AcDbEntity
 67
     1
  8
HIDDEN
100
AcDbLine
 10
155.1043682098
 20
107.461658448
 30
0.0
 11
155.6089334488
 21
107.4956505573
 31
0.0
  0
LINE
  5
A0
330
1B
100
AcDbEntity
 67
     1
  8
HIDDEN
100
AcDbLine
 10
155.6089334488
 20
107.4956505573
 30
0.0
 11
156.1134986877
 21
107.4956505573
 31
0.0
  0
LINE
  5
A1
330
1B
100
AcDbEntity
 67
     1
  8
HIDDEN
100
AcDbLine
 10
156.1134986877
 20
107.4956505573
 30
0.0
 11
156.6180639267
 21
107.461658448
 31
0.0
  0
LINE
  5
A2
330
1B
100
AcDbEntity
 67
     1
  8
HIDDEN
100
AcDbLine
 10
156.6180639267
 20
107.461658448
 30
0.0
 11
157.1226291656
 21
107.3957274333
 31
0.0
  0
LINE
  5
A3
330
1B
100
AcDbEntity
 67
     1
  8
HIDDEN
100
AcDbLine
 10
157.1226291656
 20
107.3957274333
 30
0.0
 11
157.6271941583
 21
107.3
 31
0.0
  0
LINE
  5
A4
330
1B
100
AcDbEntity
 67
     1
  8
THICK
100
AcDbLine
 10
138.8863573818
 20
95.5866378801
 30
0.0
 11
139.6196089263
 21
95.5866378801
 31
0.0
  0
LINE
  5
A5
330
1B
100
AcDbEntity
 67
     1
  8
HIDDEN
100
AcDbLine
 10
138.8863573818
 20
95.5866378801
 30
0.0
 11
157.3803910737
 21
95.5866378801
 31
0.0
  0
LINE
  5
A6
330
1B
100
AcDbEntity
 67
     1
  8
HIDDEN
100
AcDbLine
 10
144.9680435476
 20
107.3
 30
0.0
 11
152.0319564524
 21
107.3
 31
0.0
  0
LINE
  5
A7
330
1B
100
AcDbEntity
 67
     1
  8
THICK
100
AcDbLine
 10
132.0
 20
89.8400963115
 30
0.0
 11
133.2584876478
 21
89.8400963115
 31
0.0
  0
LINE
  5
A8
330
1B
100
AcDbEntity
 67
     1
  8
HIDDEN
100
AcDbLine
 10
132.0
 20
89.8400963115
 30
0.0
 11
163.7415123522
 21
89.8400963115
 31
0.0
  0
LINE
  5
A9
330
1B
100
AcDbEntity
 67
     1
  8
THICK
100
AcDbLine
 10
132.0
 20
89.5
 30
0.0
 11
133.2584876478
 21
89.5
 31
0.0
  0
LINE
  5
AA
330
1B
100
AcDbEntity
 67
     1
  8
HIDDEN
100
AcDbLine
 10
140.8
 20
93.8
 30
0.0
 11
141.3872942356
 21
93.8
 31
0.0
  0
LINE
  5
AB
330
1B
100
AcDbEntity
 67
     1
  8
HIDDEN
100
AcDbLine
 10
152.0
 20
97.5
 30
0.0
 11
145.2669519253
 21
97.5
 31
0.0
  0
LINE
  5
AC
330
1B
100
AcDbEntity
 67
     1
  8
HIDDEN
100
AcDbLine
 10
146.1444935456
 20
112.025388745
 30
0.0
 11
151.05
 21
112.025388745
 31
0.0
  0
LINE
  5
AD
330
1B
100
AcDbEntity
 67
     1
  8
HIDDEN
100
AcDbLine
 10
150.9133524708
 20
100.5
 30
0.0
 11
151.0441325365
 21
100.5
 31
0.0
  0
LINE
  5
AE
330
1B
100
AcDbEntity
 67
     1
  8
HIDDEN
100
AcDbLine
 10
151.0441325365
 20
97.5
 30
0.0
 11
151.0441325365
 21
100.5
 31
0.0
  0
LINE
  5
AF
330
1B
100
AcDbEntity
 67
     1
  8
HIDDEN
100
AcDbLine
 10
150.9133524708
 20
100.5
 30
0.0
 11
150.9133496471
 21
97.5
 31
0.0
  0
LINE
  5
B0
330
1B
100
AcDbEntity
 67
     1
  8
HIDDEN
100
AcDbLine
 10
149.9217901063
 20
97.5
 30
0.0
 11
149.9217901063
 21
100.5
 31
0.0
  0
LINE
  5
B1
330
1B
100
AcDbEntity
 67
     1
  8
HIDDEN
100
AcDbLine
 10
148.9934586802
 20
100.5
 30
0.0
 11
148.993454934
 21
97.5
 31
0.0
  0
LINE
  5
B2
330
1B
100
AcDbEntity
 67
     1
  8
HIDDEN
100
AcDbLine
 10
147.3776575698
 20
97.5
 30
0.0
 11
147.3776575698
 21
100.5
 31
0.0
  0
LINE
  5
B3
330
1B
100
AcDbEntity
 67
     1
  8
HIDDEN
100
AcDbLine
 10
146.5801047617
 20
100.5
 30
0.0
 11
146.580105287
 21
97.5
 31
0.0
  0
LINE
  5
B4
330
1B
100
AcDbEntity
 67
     1
  8
HIDDEN
100
AcDbLine
 10
151.1665731089
 20
100.5
 30
0.0
 11
151.0441325365
 21
100.5
 31
0.0
  0
LINE
  5
B5
330
1B
100
AcDbEntity
 67
     1
  8
HIDDEN
100
AcDbLine
 10
151.1665731089
 20
100.5
 30
0.0
 11
151.1665731089
 21
97.5
 31
0.0
  0
LINE
  5
B6
330
1B
100
AcDbEntity
 67
     1
  8
HIDDEN
100
AcDbLine
 10
148.8756640343
 20
100.5
 30
0.0
 11
148.8756640343
 21
97.5
 31
0.0
  0
LINE
  5
B7
330
1B
100
AcDbEntity
 67
     1
  8
HIDDEN
100
AcDbLine
 10
146.2090909254
 20
100.5
 30
0.0
 11
146.2090909254
 21
97.5
 31
0.0
  0
LINE
  5
B8
330
1B
100
AcDbEntity
 67
     1
  8
HIDDEN
100
AcDbLine
 10
146.5801047617
 20
100.5
 30
0.0
 11
145.8334268911
 21
100.5
 31
0.0
  0
LINE
  5
B9
330
1B
100
AcDbEntity
 67
     1
  8
HIDDEN
100
AcDbLine
 10
145.8334268911
 20
100.5
 30
0.0
 11
145.8334268911
 21
97.5
 31
0.0
  0
LINE
  5
BA
330
1B
100
AcDbEntity
 67
     1
  8
HIDDEN
100
AcDbLine
 10
148.9934586802
 20
100.5
 30
0.0
 11
148.1243359657
 21
100.5
 31
0.0
  0
LINE
  5
BB
330
1B
100
AcDbEntity
 67
     1
  8
HIDDEN
100
AcDbLine
 10
148.1243359657
 20
100.5
 30
0.0
 11
147.3776575698
 21
100.5
 31
0.0
  0
LINE
  5
BC
330
1B
100
AcDbEntity
 67
     1
  8
HIDDEN
100
AcDbLine
 10
148.1243359657
 20
100.5
 30
0.0
 11
148.1243359657
 21
97.5
 31
0.0
  0
LINE
  5
BD
330
1B
100
AcDbEntity
 67
     1
  8
HIDDEN
100
AcDbLine
 10
150.9133524708
 20
100.5
 30
0.0
 11
150.7909090746
 21
100.5
 31
0.0
  0
LINE
  5
BE
330
1B
100
AcDbEntity
 67
     1
  8
HIDDEN
100
AcDbLine
 10
150.7909090746
 20
100.5
 30
0.0
 11
150.7909090746
 21
97.5
 31
0.0
  0
LINE
  5
BF
330
1B
100
AcDbEntity
 67
     1
  8
HIDDEN
100
AcDbLine
 10
150.7909090746
 20
100.5
 30
0.0
 11
149.9217901063
 21
100.5
 31
0.0
  0
LINE
  5
C0
330
1B
100
AcDbEntity
 67
     1
  8
HIDDEN
100
AcDbLine
 10
144.9680435476
 20
107.3
 30
0.0
 11
145.980227232
 21
107.3959660679
 31
0.0
  0
LINE
  5
C1
330
1B
100
AcDbEntity
 67
     1
  8
HIDDEN
100
AcDbLine
 10
145.980227232
 20
107.3959660679
 30
0.0
 11
146.9914556742
 21
107.4619034715
 31
0.0
  0
LINE
  5
C2
330
1B
100
AcDbEntity
 67
     1
  8
HIDDEN
100
AcDbLine
 10
146.9914556742
 20
107.4619034715
 30
0.0
 11
148.001663059
 21
107.4957520929
 31
0.0
  0
LINE
  5
C3
330
1B
100
AcDbEntity
 67
     1
  8
HIDDEN
100
AcDbLine
 10
148.001663059
 20
107.4957520929
 30
0.0
 11
149.0107870102
 21
107.4955479065
 31
0.0
  0
LINE
  5
C4
330
1B
100
AcDbEntity
 67
     1
  8
HIDDEN
100
AcDbLine
 10
149.0107870102
 20
107.4955479065
 30
0.0
 11
150.0188313723
 21
107.4614135697
 31
0.0
  0
LINE
  5
C5
330
1B
100
AcDbEntity
 67
     1
  8
HIDDEN
100
AcDbLine
 10
150.0188313723
 20
107.4614135697
 30
0.0
 11
151.0258643627
 21
107.395489879
 31
0.0
  0
LINE
  5
C6
330
1B
100
AcDbEntity
 67
     1
  8
HIDDEN
100
AcDbLine
 10
151.0258643627
 20
107.395489879
 30
0.0
 11
152.0319564524
 21
107.3
 31
0.0
  0
LINE
  5
C7
330
1B
100
AcDbEntity
 67
     1
  8
THICK
100
AcDbLine
 10
139.3728055954
 20
107.3
 30
0.0
 11
138.6850454238
 21
107.3
 31
0.0
  0
LINE
  5
C8
330
1B
100
AcDbEntity
 67
     1
  8
THICK
100
AcDbLine
 10
144.9680435476
 20
107.3
 30
0.0
 11
143.5925227119
 21
107.3
 31
0.0
  0
LINE
  5
C9
330
1B
100
AcDbEntity
 67
     1
  8
THICK
100
AcDbLine
 10
143.5925227119
 20
107.3
 30
0.0
 11
142.904762294
 21
107.3
 31
0.0
  0
LINE
  5
CA
330
1B
100
AcDbEntity
 67
     1
  8
THICK
100
AcDbLine
 10
154.095237706
 20
107.3
 30
0.0
 11
153.4074772881
 21
107.3
 31
0.0
  0
LINE
  5
CB
330
1B
100
AcDbEntity
 67
     1
  8
THICK
100
AcDbLine
 10
153.4074772881
 20
107.3
 30
0.0
 11
152.0319564524
 21
107.3
 31
0.0
  0
LINE
  5
CC
330
1B
100
AcDbEntity
 67
     1
  8
THICK
100
AcDbLine
 10
158.3149545762
 20
107.3
 30
0.0
 11
157.6271941583
 21
107.3
 31
0.0
  0
LINE
  5
CD
330
1B
100
AcDbEntity
 67
     1
  8
THICK
100
AcDbLine
 10
138.6850454238
 20
114.5
 30
0.0
 11
138.6850454238
 21
107.3
 31
0.0
  0
LINE
  5
CE
330
1B
100
AcDbEntity
 67
     1
  8
HIDDEN
100
AcDbLine
 10
143.5925227119
 20
114.5
 30
0.0
 11
143.5925227119
 21
107.3
 31
0.0
  0
LINE
  5
CF
330
1B
100
AcDbEntity
 67
     1
  8
THICK
100
AcDbLine
 10
143.5925227119
 20
114.5
 30
0.0
 11
143.5925227119
 21
107.3
 31
0.0
  0
LINE
  5
D0
330
1B
100
AcDbEntity
 67
     1
  8
THICK
100
AcDbLine
 10
143.5925227119
 20
114.5
 30
0.0
 11
138.6850454238
 21
114.5
 31
0.0
  0
LINE
  5
D1
330
1B
100
AcDbEntity
 67
     1
  8
THICK
100
AcDbLine
 10
153.4074772881
 20
114.5
 30
0.0
 11
153.4074772881
 21
107.3
 31
0.0
  0
LINE
  5
D2
330
1B
100
AcDbEntity
 67
     1
  8
THICK
100
AcDbLine
 10
153.4074772881
 20
114.5
 30
0.0
 11
143.5925227119
 21
114.5
 31
0.0
  0
LINE
  5
D3
330
1B
100
AcDbEntity
 67
     1
  8
THICK
100
AcDbLine
 10
158.3149545762
 20
114.5
 30
0.0
 11
158.3149545762
 21
107.3
 31
0.0
  0
LINE
  5
D4
330
1B
100
AcDbEntity
 67
     1
  8
THICK
100
AcDbLine
 10
158.3149545762
 20
114.5
 30
0.0
 11
153.4074772881
 21
114.5
 31
0.0
  0
LINE
  5
D5
330
1B
100
AcDbEntity
 67
     1
  8
HIDDEN
100
AcDbLine
 10
153.4074772881
 20
114.5
 30
0.0
 11
153.4074772881
 21
107.3
 31
0.0
  0
LINE
  5
D6
330
1B
100
AcDbEntity
 67
     1
  8
THICK
100
AcDbLine
 10
143.5
 20
124.5
 30
0.0
 11
153.5
 21
124.5
 31
0.0
  0
LINE
  5
D7
330
1B
100
AcDbEntity
 67
     1
  8
THICK
100
AcDbLine
 10
143.5
 20
117.492820323
 30
0.0
 11
153.5
 21
117.492820323
 31
0.0
  0
LINE
  5
D8
330
1B
100
AcDbEntity
 67
     1
  8
THICK
100
AcDbLine
 10
144.5
 20
116.9154700538
 30
0.0
 11
152.5
 21
116.9154700538
 31
0.0
  0
LINE
  5
D9
330
1B
100
AcDbEntity
 67
     1
  8
HIDDEN
100
AcDbLine
 10
144.5
 20
114.7199764854
 30
0.0
 11
152.4999998689
 21
114.7199762377
 31
0.0
  0
LINE
  5
DA
330
1B
100
AcDbEntity
 67
     1
  8
HIDDEN
100
AcDbLine
 10
146.5429491924
 20
115.5
 30
0.0
 11
146.5429491924
 21
112.025388745
 31
0.0
  0
LINE
  5
DB
330
1B
100
AcDbEntity
 67
     1
  8
HIDDEN
100
AcDbLine
 10
146.9929491924
 20
112.025388745
 30
0.0
 11
146.9929491924
 21
115.5
 31
0.0
  0
LINE
  5
DC
330
1B
100
AcDbEntity
 67
     1
  8
HIDDEN
100
AcDbLine
 10
148.05
 20
115.5
 30
0.0
 11
148.05
 21
112.025388745
 31
0.0
  0
LINE
  5
DD
330
1B
100
AcDbEntity
 67
     1
  8
HIDDEN
100
AcDbLine
 10
148.95
 20
112.025388745
 30
0.0
 11
148.95
 21
115.5
 31
0.0
  0
LINE
  5
DE
330
1B
100
AcDbEntity
 67
     1
  8
HIDDEN
100
AcDbLine
 10
150.0070508076
 20
115.5
 30
0.0
 11
150.0070508076
 21
112.025388745
 31
0.0
  0
LINE
  5
DF
330
1B
100
AcDbEntity
 67
     1
  8
HIDDEN
100
AcDbLine
 10
150.4570508076
 20
112.025388745
 30
0.0
 11
150.4570508076
 21
115.5
 31
0.0
  0
LINE
  5
E0
330
1B
100
AcDbEntity
 67
     1
  8
HIDDEN
100
AcDbLine
 10
150.55
 20
115.5
 30
0.0
 11
150.4570508076
 21
115.5
 31
0.0
  0
LINE
  5
E1
330
1B
100
AcDbEntity
 67
     1
  8
HIDDEN
100
AcDbLine
 10
146.5429491924
 20
115.5
 30
0.0
 11
146.1905989232
 21
115.5
 31
0.0
  0
LINE
  5
E2
330
1B
100
AcDbEntity
 67
     1
  8
HIDDEN
100
AcDbLine
 10
146.1905989232
 20
115.5
 30
0.0
 11
146.1905989232
 21
112.025388745
 31
0.0
  0
LINE
  5
E3
330
1B
100
AcDbEntity
 67
     1
  8
HIDDEN
100
AcDbLine
 10
147.3452994616
 20
115.5
 30
0.0
 11
147.3452994616
 21
112.025388745
 31
0.0
  0
LINE
  5
E4
330
1B
100
AcDbEntity
 67
     1
  8
HIDDEN
100
AcDbLine
 10
149.6547005384
 20
115.5
 30
0.0
 11
149.6547005384
 21
112.025388745
 31
0.0
  0
LINE
  5
E5
330
1B
100
AcDbEntity
 67
     1
  8
HIDDEN
100
AcDbLine
 10
150.8094010768
 20
115.5
 30
0.0
 11
150.4570508076
 21
115.5
 31
0.0
  0
LINE
  5
E6
330
1B
100
AcDbEntity
 67
     1
  8
HIDDEN
100
AcDbLine
 10
150.8094010768
 20
115.5
 30
0.0
 11
150.8094010768
 21
112.025388745
 31
0.0
  0
LINE
  5
E7
330
1B
100
AcDbEntity
 67
     1
  8
HIDDEN
100
AcDbLine
 10
149.6547005384
 20
115.5
 30
0.0
 11
148.95
 21
115.5
 31
0.0
  0
LINE
  5
E8
330
1B
100
AcDbEntity
 67
     1
  8
HIDDEN
100
AcDbLine
 10
150.0070508076
 20
115.5
 30
0.0
 11
149.6547005384
 21
115.5
 31
0.0
  0
LINE
  5
E9
330
1B
100
AcDbEntity
 67
     1
  8
HIDDEN
100
AcDbLine
 10
149.6547005384
 20
115.5
 30
0.0
 11
149.6547005384
 21
112.025388745
 31
0.0
  0
LINE
  5
EA
330
1B
100
AcDbEntity
 67
     1
  8
HIDDEN
100
AcDbLine
 10
147.3452994616
 20
115.5
 30
0.0
 11
147.3452994616
 21
112.025388745
 31
0.0
  0
LINE
  5
EB
330
1B
100
AcDbEntity
 67
     1
  8
HIDDEN
100
AcDbLine
 10
153.2149994533
 20
115.08
 30
0.0
 11
143.7850003433
 21
115.08
 31
0.0
  0
LINE
  5
EC
330
1B
100
AcDbEntity
 67
     1
  8
HIDDEN
100
AcDbLine
 10
145.95
 20
112.025388745
 30
0.0
 11
145.95
 21
97.5
 31
0.0
  0
LINE
  5
ED
330
1B
100
AcDbEntity
 67
     1
  8
HIDDEN
100
AcDbLine
 10
145.0
 20
97.5
 30
0.0
 11
145.0
 21
93.8000001907
 31
0.0
  0
LINE
  5
EE
330
1B
100
AcDbEntity
 67
     1
  8
HIDDEN
100
AcDbLine
 10
156.2
 20
93.8
 30
0.0
 11
156.2
 21
94.5
 31
0.0
  0
LINE
  5
EF
330
1B
100
AcDbEntity
 67
     1
  8
THICK
100
AcDbLine
 10
164.9999999999
 20
89.5
 30
0.0
 11
164.9999999999
 21
89.8400963115
 31
0.0
  0
LINE
  5
F0
330
1B
100
AcDbEntity
 67
     1
  8
THICK
100
AcDbLine
 10
158.1136426182
 20
95.5866378801
 30
0.0
 11
157.7046029997
 21
107.3
 31
0.0
  0
LINE
  5
F1
330
1B
100
AcDbEntity
 67
     1
  8
THICK
100
AcDbLine
 10
139.295397
 20
107.2999999902
 30
0.0
 11
138.8863573818
 21
95.5866378801
 31
0.0
  0
LINE
  5
F2
330
1B
100
AcDbEntity
 67
     1
  8
THICK
100
AcDbLine
 10
132.0
 20
89.8400963115
 30
0.0
 11
132.0
 21
89.5
 31
0.0
  0
LINE
  5
F3
330
1B
100
AcDbEntity
 67
     1
  8
HIDDEN
100
AcDbLine
 10
140.8
 20
94.5
 30
0.0
 11
140.8
 21
93.8
 31
0.0
  0
LINE
  5
F4
330
1B
100
AcDbEntity
 67
     1
  8
HIDDEN
100
AcDbLine
 10
152.0
 20
93.8000001907
 30
0.0
 11
152.0
 21
97.5
 31
0.0
  0
LINE
  5
F5
330
1B
100
AcDbEntity
 67
     1
  8
HIDDEN
100
AcDbLine
 10
151.05
 20
97.5
 30
0.0
 11
151.05
 21
112.025388745
 31
0.0
  0
LINE
  5
F6
330
1B
100
AcDbEntity
 67
     1
  8
THICK
100
AcDbLine
 10
153.2149994533
 20
115.08
 30
0.0
 11
143.7850003433
 21
115.08
 31
0.0
  0
CIRCLE
  5
F7
330
1B
100
AcDbEntity
 67
     1
  8
HIDDEN
100
AcDbCircle
 10
153.215
 20
114.19
 30
0.0
 40
0.8899999999999664
  0
ARC
  5
F8
330
1B
100
AcDbEntity
 67
     1
  8
THICK
100
AcDbCircle
 10
153.215
 20
114.19
 30
0.0
 40
0.8900000000001258
100
AcDbArc
 50
20.3842913647
 51
90.0000351937
  0
ARC
  5
F9
330
1B
100
AcDbEntity
 67
     1
  8
HIDDEN
100
AcDbCircle
 10
153.215
 20
114.19
 30
0.0
 40
0.8900000000001258
100
AcDbArc
 50
90.0000351937
 51
143.4532193361
  0
CIRCLE
  5
FA
330
1B
100
AcDbEntity
 67
     1
  8
HIDDEN
100
AcDbCircle
 10
143.7850000525
 20
114.19
 30
0.0
 40
0.8899999999999827
  0
ARC
  5
FB
330
1B
100
AcDbEntity
 67
     1
  8
THICK
100
AcDbCircle
 10
143.7850000525
 20
114.19
 30
0.0
 40
0.8900000000000055
100
AcDbArc
 50
89.999981276
 51
159.6157284831
  0
ARC
  5
FC
330
1B
100
AcDbEntity
 67
     1
  8
HIDDEN
100
AcDbCircle
 10
143.7850000525
 20
114.19
 30
0.0
 40
0.8900000000000317
100
AcDbArc
 50
36.5468005118
 51
89.999981276
  0
ARC
  5
FD
330
1B
100
AcDbEntity
 67
     1
  8
HIDDEN
100
AcDbCircle
 10
146.3147322672
 20
76.5176167122
 30
0.0
 40
18.80899733336532
100
AcDbArc
 50
107.0494233365
 51
136.3523241979
  0
ARC
  5
FE
330
1B
100
AcDbEntity
 67
     1
  8
THICK
100
AcDbCircle
 10
150.5506074913
 20
79.5240912742
 30
0.0
 40
17.75401092141609
100
AcDbArc
 50
35.5245746608
 51
64.7866423946
  0
ARC
  5
FF
330
1B
100
AcDbEntity
 67
     1
  8
THICK
100
AcDbCircle
 10
146.4493925086
 20
79.5240912742
 30
0.0
 40
17.75401092141608
100
AcDbArc
 50
115.2133576051
 51
144.475425339
  0
ARC
  5
100
330
1B
100
AcDbEntity
 67
     1
  8
HIDDEN
100
AcDbCircle
 10
150.6852677328
 20
76.5176167122
 30
0.0
 40
18.80899733336532
100
AcDbArc
 50
43.6476956499
 51
72.9505766635
  0
ELLIPSE
  5
101
330
1B
100
AcDbEntity
 67
     1
  8
HIDDEN
100
AcDbEllipse
 10
150.518593039
 20
76.5176167122
 30
0.0
 11
0.0
 21
18.8089973333653
 31
0.0
210
0.0
220
0.0
230
1.0
 40
0.9237280213
 41
5.474184754072806
 42
5.98561673439084
  0
ELLIPSE
  5
102
330
1B
100
AcDbEntity
 67
     1
  8
HIDDEN
100
AcDbEllipse
 10
146.481406961
 20
76.5176167122
 30
0.0
 11
0.0
 21
-18.8089973333653
 31
0.0
210
0.0
220
0.0
230
1.0
 40
0.9237280213
 41
3.439161226378569
 42
3.950593206696602
  0
ELLIPSE
  5
103
330
1B
100
AcDbEntity
 67
     1
  8
HIDDEN
100
AcDbEllipse
 10
150.3942036006
 20
79.5240912742
 30
0.0
 11
0.0
 21
17.7540109214161
 31
0.0
210
0.0
220
0.0
230
1.0
 40
0.9237280213
 41
5.332409773589386
 42
5.84312920148794
  0
ELLIPSE
  5
104
330
1B
100
AcDbEntity
 67
     1
  8
THICK
100
AcDbEllipse
 10
146.6057963994
 20
79.5240912742
 30
0.0
 11
0.0
 21
-17.7540109214161
 31
0.0
210
0.0
220
0.0
230
1.0
 40
0.9237280213
 41
3.581648759281468
 42
4.092368187180021
  0
DIMENSION
  5
105
330
1B
100
AcDbEntity
 67
     1
  8
THICK
100
AcDbDimension
  2
*D2
 10
164.9999999999
 20
80.776808903
 30
0.0
 11
148.5918370349
 21
80.776808903
 31
0.0
 70
   160
  1
%%c<>
 71
     2
 42
-1.0
  3
SLDDIMSTYLE0
100
AcDbAlignedDimension
 13
132.0
 23
89.5
 33
0.0
 14
164.9999999999
 24
89.5
 34
0.0
100
AcDbRotatedDimension
  0
DIMENSION
  5
13A
330
1B
100
AcDbEntity
 67
     1
  8
THICK
100
AcDbDimension
  2
*D3
 10
170.2200911463
 20
89.5
 30
0.0
 11
170.2200911463
 21
101.3174112607
 31
0.0
 70
   160
 71
     2
 42
-1.0
  3
SLDDIMSTYLE1
100
AcDbAlignedDimension
 13
156.2
 23
93.8
 33
0.0
 14
164.9999999999
 24
89.5
 34
0.0
 50
90.0
100
AcDbRotatedDimension
  0
DIMENSION
  5
147
330
1B
100
AcDbEntity
 67
     1
  8
THICK
100
AcDbDimension
  2
*D4
 10
180.2832832547
 20
114.5
 30
0.0
 11
180.2832832547
 21
101.3174112607
 31
0.0
 70
   160
 71
     2
 42
-1.0
  3
SLDDIMSTYLE0
100
AcDbAlignedDimension
 13
164.9999999999
 23
89.5
 33
0.0
 14
158.3149545762
 24
114.5
 34
0.0
 50
90.0
100
AcDbRotatedDimension
  0
DIMENSION
  5
151
330
1B
100
AcDbEntity
 67
     1
  8
THICK
100
AcDbDimension
  2
*D5
 10
153.5
 20
137.6281899741
 30
0.0
 11
129.3911240149
 21
137.6281899741
 31
0.0
 70
   160
  1
PT1/8-M
 71
     2
 42
-1.0
  3
SLDDIMSTYLE2
100
AcDbAlignedDimension
 13
143.5
 23
124.5
 33
0.0
 14
153.5
 24
124.5
 34
0.0
100
AcDbRotatedDimension
  0
DIMENSION
  5
15E
330
1B
100
AcDbEntity
 67
     1
  8
THICK
100
AcDbDimension
  2
*D6
 10
150.55
 20
131.6697922427
 30
0.0
 11
156.2328671829
 21
131.6697922427
 31
0.0
 70
   160
  1
5
 71
     2
 42
-1.0
  3
SLDDIMSTYLE2
100
AcDbAlignedDimension
 13
146.45
 23
124.5
 33
0.0
 14
150.55
 24
124.5
 34
0.0
100
AcDbRotatedDimension
  0
DIMENSION
  5
16A
330
1B
100
AcDbEntity
 67
     1
  8
THICK
100
AcDbDimension
  2
*D7
 10
166.6315946266
 20
114.5
 30
0.0
 11
166.6315946266
 21
118.5340981669
 31
0.0
 70
   160
  1
7
 71
     2
 42
-1.0
  3
SLDDIMSTYLE2
100
AcDbAlignedDimension
 13
153.5
 23
124.5
 33
0.0
 14
158.3149545762
 24
114.5
 34
0.0
 50
90.0
100
AcDbRotatedDimension
  0
INSERT
  5
180
330
1B
100
AcDbEntity
 67
     1
  8
THICK
100
AcDbBlockReference
  2
SW_NOTE_0
 10
129.1678333549
 20
117.9584735703
 30
0.0
  0
LEADER
  5
182
330
1B
100
AcDbEntity
 67
     1
  8
THICK
100
AcDbLeader
  3
SLDDIMSTYLE3
 76
     2
 10
138.6850454238
 20
112.0179841206
 30
0.0
 10
129.1678333549
 20
117.9584735703
 30
0.0
  0
ENDSEC
  0
SECTION
  2
OBJECTS
  0
DICTIONARY
  5
C
330
0
100
AcDbDictionary
281
     1
  3
ACAD_GROUP
350
D
  3
ACAD_LAYOUT
350
1A
  3
ACAD_MLINESTYLE
350
17
  3
ACAD_PLOTSETTINGS
350
19
  3
ACAD_PLOTSTYLENAME
350
E
  3
ACAD_SCALELIST
350
106
  3
AcDbVariableDictionary
350
183
  0
DICTIONARY
  5
D
102
{ACAD_REACTORS
330
C
102
}
330
C
100
AcDbDictionary
281
     1
  0
DICTIONARY
  5
1A
102
{ACAD_REACTORS
330
C
102
}
330
C
100
AcDbDictionary
281
     1
  3
Model
350
22
  3
SW_Model_1
350
1E
  0
DICTIONARY
  5
17
102
{ACAD_REACTORS
330
C
102
}
330
C
100
AcDbDictionary
281
     1
  3
Standard
350
18
  0
DICTIONARY
  5
19
102
{ACAD_REACTORS
330
C
102
}
330
C
100
AcDbDictionary
281
     1
  0
ACDBDICTIONARYWDFLT
  5
E
102
{ACAD_REACTORS
330
C
102
}
330
C
100
AcDbDictionary
281
     1
  3
Normal
350
F
100
AcDbDictionaryWithDefault
340
F
  0
DICTIONARY
  5
106
102
{ACAD_REACTORS
330
C
102
}
330
C
100
AcDbDictionary
281
     1
  3
A0
350
107
  3
A1
350
108
  3
A2
350
109
  3
A3
350
10A
  3
A4
350
10B
  3
A5
350
10C
  3
A6
350
10D
  3
A7
350
10E
  3
A8
350
10F
  3
A9
350
110
  3
B0
350
111
  3
B1
350
112
  3
B2
350
113
  3
B3
350
114
  3
B4
350
115
  3
B5
350
116
  3
B6
350
117
  3
B7
350
118
  3
B8
350
119
  3
B9
350
11A
  3
C0
350
11B
  3
C1
350
11C
  3
C2
350
11D
  3
C3
350
11E
  3
C4
350
11F
  3
C5
350
120
  3
C6
350
121
  3
C7
350
122
  3
C8
350
123
  3
C9
350
124
  3
D0
350
125
  3
D1
350
126
  3
D2
350
127
  0
DICTIONARY
  5
183
102
{ACAD_REACTORS
330
C
102
}
330
C
100
AcDbDictionary
281
     1
  3
CANNOSCALE
350
184
  0
LAYOUT
  5
22
102
{ACAD_REACTORS
330
1A
102
}
330
1A
100
AcDbPlotSettings
  1

  2
none_device
  4

  6

 40
0.0
 41
0.0
 42
0.0
 43
0.0
 44
0.0
 45
0.0
 46
0.0
 47
0.0
 48
0.0
 49
0.0
140
0.0
141
0.0
142
1.0
143
1.0
 70
  1712
 72
     0
 73
     0
 74
     0
  7

 75
     0
147
1.0
148
0.0
149
0.0
100
AcDbLayout
  1
Model
 70
     1
 71
     0
 10
0.0
 20
0.0
 11
297.0
 21
210.0
 12
0.0
 22
0.0
 32
0.0
 14
0.0
 24
0.0
 34
0.0
 15
297.0
 25
210.0
 35
0.0
146
0.0
 13
0.0
 23
0.0
 33
0.0
 16
1.0
 26
0.0
 36
0.0
 17
0.0
 27
1.0
 37
0.0
 76
     0
330
1F
331
29
  0
LAYOUT
  5
1E
102
{ACAD_REACTORS
330
1A
102
}
330
1A
100
AcDbPlotSettings
  1

  2
none_device
  4
ISO_A4_(297.00_x_210.00_MM)
  6

 40
7.5
 41
20.0
 42
7.5
 43
20.0
 44
297.0
 45
210.0
 46
0.0
 47
0.0
 48
0.0
 49
0.0
140
0.0
141
0.0
142
1.0
143
1.0
 70
  4832
 72
     0
 73
     0
 74
     1
  7

 75
     0
147
1.0
148
0.0
149
0.0
100
AcDbLayout
  1
SW_Model_1
 70
     1
 71
     1
 10
0.0
 20
0.0
 11
297.0
 21
210.0
 12
0.0
 22
0.0
 32
0.0
 14
0.0
 24
0.0
 34
0.0
 15
297.0
 25
210.0
 35
0.0
146
0.0
 13
0.0
 23
0.0
 33
0.0
 16
1.0
 26
0.0
 36
0.0
 17
0.0
 27
1.0
 37
0.0
 76
     0
330
1B
331
47
  0
MLINESTYLE
  5
18
102
{ACAD_REACTORS
330
17
102
}
330
17
100
AcDbMlineStyle
  2
Standard
 70
     0
  3

 62
   256
 51
90.0
 52
90.0
 71
     2
 49
0.5
 62
   256
  6
BYLAYER
 49
-0.5
 62
   256
  6
BYLAYER
  0
ACDBPLACEHOLDER
  5
F
102
{ACAD_REACTORS
330
E
102
}
330
E
  0
SCALE
  5
107
102
{ACAD_REACTORS
330
106
102
}
330
106
100
AcDbScale
 70
     0
300
1:1
140
1.0
141
1.0
290
     1
  0
SCALE
  5
108
102
{ACAD_REACTORS
330
106
102
}
330
106
100
AcDbScale
 70
     0
300
1:2
140
1.0
141
2.0
290
     0
  0
SCALE
  5
109
102
{ACAD_REACTORS
330
106
102
}
330
106
100
AcDbScale
 70
     0
300
1:4
140
1.0
141
4.0
290
     0
  0
SCALE
  5
10A
102
{ACAD_REACTORS
330
106
102
}
330
106
100
AcDbScale
 70
     0
300
1:5
140
1.0
141
5.0
290
     0
  0
SCALE
  5
10B
102
{ACAD_REACTORS
330
106
102
}
330
106
100
AcDbScale
 70
     0
300
1:8
140
1.0
141
8.0
290
     0
  0
SCALE
  5
10C
102
{ACAD_REACTORS
330
106
102
}
330
106
100
AcDbScale
 70
     0
300
1:10
140
1.0
141
10.0
290
     0
  0
SCALE
  5
10D
102
{ACAD_REACTORS
330
106
102
}
330
106
100
AcDbScale
 70
     0
300
1:16
140
1.0
141
16.0
290
     0
  0
SCALE
  5
10E
102
{ACAD_REACTORS
330
106
102
}
330
106
100
AcDbScale
 70
     0
300
1:20
140
1.0
141
20.0
290
     0
  0
SCALE
  5
10F
102
{ACAD_REACTORS
330
106
102
}
330
106
100
AcDbScale
 70
     0
300
1:30
140
1.0
141
30.0
290
     0
  0
SCALE
  5
110
102
{ACAD_REACTORS
330
106
102
}
330
106
100
AcDbScale
 70
     0
300
1:40
140
1.0
141
40.0
290
     0
  0
SCALE
  5
111
102
{ACAD_REACTORS
330
106
102
}
330
106
100
AcDbScale
 70
     0
300
1:50
140
1.0
141
50.0
290
     0
  0
SCALE
  5
112
102
{ACAD_REACTORS
330
106
102
}
330
106
100
AcDbScale
 70
     0
300
1:100
140
1.0
141
100.0
290
     0
  0
SCALE
  5
113
102
{ACAD_REACTORS
330
106
102
}
330
106
100
AcDbScale
 70
     0
300
2:1
140
2.0
141
1.0
290
     0
  0
SCALE
  5
114
102
{ACAD_REACTORS
330
106
102
}
330
106
100
AcDbScale
 70
     0
300
4:1
140
4.0
141
1.0
290
     0
  0
SCALE
  5
115
102
{ACAD_REACTORS
330
106
102
}
330
106
100
AcDbScale
 70
     0
300
8:1
140
8.0
141
1.0
290
     0
  0
SCALE
  5
116
102
{ACAD_REACTORS
330
106
102
}
330
106
100
AcDbScale
 70
     0
300
10:1
140
10.0
141
1.0
290
     0
  0
SCALE
  5
117
102
{ACAD_REACTORS
330
106
102
}
330
106
100
AcDbScale
 70
     0
300
100:1
140
100.0
141
1.0
290
     0
  0
SCALE
  5
118
102
{ACAD_REACTORS
330
106
102
}
330
106
100
AcDbScale
 70
     0
300
1/128" = 1'-0"
140
0.0078125
141
12.0
290
     0
  0
SCALE
  5
119
102
{ACAD_REACTORS
330
106
102
}
330
106
100
AcDbScale
 70
     0
300
1/64" = 1'-0"
140
0.015625
141
12.0
290
     0
  0
SCALE
  5
11A
102
{ACAD_REACTORS
330
106
102
}
330
106
100
AcDbScale
 70
     0
300
1/32" = 1'-0"
140
0.03125
141
12.0
290
     0
  0
SCALE
  5
11B
102
{ACAD_REACTORS
330
106
102
}
330
106
100
AcDbScale
 70
     0
300
1/16" = 1'-0"
140
0.0625
141
12.0
290
     0
  0
SCALE
  5
11C
102
{ACAD_REACTORS
330
106
102
}
330
106
100
AcDbScale
 70
     0
300
3/32" = 1'-0"
140
0.09375
141
12.0
290
     0
  0
SCALE
  5
11D
102
{ACAD_REACTORS
330
106
102
}
330
106
100
AcDbScale
 70
     0
300
1/8" = 1'-0"
140
0.125
141
12.0
290
     0
  0
SCALE
  5
11E
102
{ACAD_REACTORS
330
106
102
}
330
106
100
AcDbScale
 70
     0
300
3/16" = 1'-0"
140
0.1875
141
12.0
290
     0
  0
SCALE
  5
11F
102
{ACAD_REACTORS
330
106
102
}
330
106
100
AcDbScale
 70
     0
300
1/4" = 1'-0"
140
0.25
141
12.0
290
     0
  0
SCALE
  5
120
102
{ACAD_REACTORS
330
106
102
}
330
106
100
AcDbScale
 70
     0
300
3/8" = 1'-0"
140
0.375
141
12.0
290
     0
  0
SCALE
  5
121
102
{ACAD_REACTORS
330
106
102
}
330
106
100
AcDbScale
 70
     0
300
1/2" = 1'-0"
140
0.5
141
12.0
290
     0
  0
SCALE
  5
122
102
{ACAD_REACTORS
330
106
102
}
330
106
100
AcDbScale
 70
     0
300
3/4" = 1'-0"
140
0.75
141
12.0
290
     0
  0
SCALE
  5
123
102
{ACAD_REACTORS
330
106
102
}
330
106
100
AcDbScale
 70
     0
300
1" = 1'-0"
140
1.0
141
12.0
290
     0
  0
SCALE
  5
124
102
{ACAD_REACTORS
330
106
102
}
330
106
100
AcDbScale
 70
     0
300
1-1/2" = 1'-0"
140
1.5
141
12.0
290
     0
  0
SCALE
  5
125
102
{ACAD_REACTORS
330
106
102
}
330
106
100
AcDbScale
 70
     0
300
3" = 1'-0"
140
3.0
141
12.0
290
     0
  0
SCALE
  5
126
102
{ACAD_REACTORS
330
106
102
}
330
106
100
AcDbScale
 70
     0
300
6" = 1'-0"
140
6.0
141
12.0
290
     0
  0
SCALE
  5
127
102
{ACAD_REACTORS
330
106
102
}
330
106
100
AcDbScale
 70
     0
300
1'-0" = 1'-0"
140
12.0
141
12.0
290
     0
  0
DICTIONARYVAR
  5
184
102
{ACAD_REACTORS
330
183
102
}
330
183
100
DictionaryVariables
280
     0
  1
1:1
  0
ENDSEC
  0
EOF
