  0
SECTION
  2
HEADER
  9
$ACADVER
  1
AC1015
  9
$ACADMAINTVER
 70
     6
  9
$DWGCODEPAGE
  3
DOS932
  9
$INSBASE
 10
0.0
 20
0.0
 30
0.0
  9
$EXTMIN
 10
0.0
 20
0.0
 30
0.0
  9
$EXTMAX
 10
297.0
 20
210.0
 30
0.0
  9
$LIMMIN
 10
0.0
 20
0.0
  9
$LIMMAX
 10
297.0
 20
210.0
  9
$ORTHOMODE
 70
     0
  9
$REGENMODE
 70
     1
  9
$FILLMODE
 70
     1
  9
$QTEXTMODE
 70
     0
  9
$MIRRTEXT
 70
     1
  9
$LTSCALE
 40
1.0
  9
$ATTMODE
 70
     1
  9
$TEXTSIZE
 40
3.5
  9
$TRACEWID
 40
1.0
  9
$TEXTSTYLE
  7
Standard
  9
$CLAYER
  8
0
  9
$CELTYPE
  6
ByLayer
  9
$CECOLOR
 62
   256
  9
$CELTSCALE
 40
1.0
  9
$DISPSILH
 70
     0
  9
$DIMSCALE
 40
1.0
  9
$DIMASZ
 40
3.302
  9
$DIMEXO
 40
1.0
  9
$DIMDLI
 40
3.75
  9
$DIMRND
 40
0.0
  9
$DIMDLE
 40
0.0
  9
$DIMEXE
 40
1.0
  9
$DIMTP
 40
0.0
  9
$DIMTM
 40
0.0
  9
$DIMTXT
 40
3.5
  9
$DIMCEN
 40
2.5
  9
$DIMTSZ
 40
0.0
  9
$DIMTOL
 70
     0
  9
$DIMLIM
 70
     0
  9
$DIMTIH
 70
     1
  9
$DIMTOH
 70
     1
  9
$DIMSE1
 70
     0
  9
$DIMSE2
 70
     0
  9
$DIMTAD
 70
     1
  9
$DIMZIN
 70
     1
  9
$DIMBLK
  1

  9
$DIMASO
 70
     1
  9
$DIMSHO
 70
     1
  9
$DIMPOST
  1

  9
$DIMAPOST
  1

  9
$DIMALT
 70
     0
  9
$DIMALTD
 70
     3
  9
$DIMALTF
 40
0.0393700787
  9
$DIMLFAC
 40
1.0
  9
$DIMTOFL
 70
     1
  9
$DIMTVP
 40
0.0
  9
$DIMTIX
 70
     0
  9
$DIMSOXD
 70
     0
  9
$DIMSAH
 70
     0
  9
$DIMBLK1
  1

  9
$DIMBLK2
  1

  9
$DIMSTYLE
  2
ISO-25
  9
$DIMCLRD
 70
     0
  9
$DIMCLRE
 70
     0
  9
$DIMCLRT
 70
     0
  9
$DIMTFAC
 40
1.0
  9
$DIMGAP
 40
1.524
  9
$DIMJUST
 70
     0
  9
$DIMSD1
 70
     0
  9
$DIMSD2
 70
     0
  9
$DIMTOLJ
 70
     0
  9
$DIMTZIN
 70
     1
  9
$DIMALTZ
 70
     0
  9
$DIMALTTZ
 70
     0
  9
$DIMUPT
 70
     0
  9
$DIMDEC
 70
     0
  9
$DIMTDEC
 70
     2
  9
$DIMALTU
 70
     2
  9
$DIMALTTD
 70
     3
  9
$DIMTXSTY
  7
Standard
  9
$DIMAUNIT
 70
     0
  9
$DIMADEC
 70
     0
  9
$DIMALTRND
 40
0.0
  9
$DIMAZIN
 70
     0
  9
$DIMDSEP
 70
    44
  9
$DIMATFIT
 70
     3
  9
$DIMFRAC
 70
     0
  9
$DIMLDRBLK
  1

  9
$DIMLUNIT
 70
     2
  9
$DIMLWD
 70
    -2
  9
$DIMLWE
 70
    -2
  9
$DIMTMOVE
 70
     0
  9
$LUNITS
 70
     2
  9
$LUPREC
 70
     4
  9
$SKETCHINC
 40
1.0
  9
$FILLETRAD
 40
10.0
  9
$AUNITS
 70
     0
  9
$AUPREC
 70
     0
  9
$MENU
  1
.
  9
$ELEVATION
 40
0.0
  9
$PELEVATION
 40
0.0
  9
$THICKNESS
 40
0.0
  9
$LIMCHECK
 70
     0
  9
$CHAMFERA
 40
10.0
  9
$CHAMFERB
 40
10.0
  9
$CHAMFERC
 40
20.0
  9
$CHAMFERD
 40
0.0
  9
$SKPOLY
 70
     0
  9
$TDCREATE
 40
2456238.865929178
  9
$TDUCREATE
 40
2456238.490929178
  9
$TDUPDATE
 40
2456238.86592919
  9
$TDUUPDATE
 40
2456238.49092919
  9
$TDINDWG
 40
0.0000000116
  9
$TDUSRTIMER
 40
0.0000000116
  9
$USRTIMER
 70
     1
  9
$ANGBASE
 50
0.0
  9
$ANGDIR
 70
     0
  9
$PDMODE
 70
     0
  9
$PDSIZE
 40
-1.0
  9
$PLINEWID
 40
0.0
  9
$SPLFRAME
 70
     0
  9
$SPLINETYPE
 70
     6
  9
$SPLINESEGS
 70
     8
  9
$HANDSEED
  5
16C
  9
$SURFTAB1
 70
     6
  9
$SURFTAB2
 70
     6
  9
$SURFTYPE
 70
     6
  9
$SURFU
 70
     6
  9
$SURFV
 70
     6
  9
$UCSBASE
  2

  9
$UCSNAME
  2

  9
$UCSORG
 10
0.0
 20
0.0
 30
0.0
  9
$UCSXDIR
 10
1.0
 20
0.0
 30
0.0
  9
$UCSYDIR
 10
0.0
 20
1.0
 30
0.0
  9
$UCSORTHOREF
  2

  9
$UCSORTHOVIEW
 70
     0
  9
$UCSORGTOP
 10
0.0
 20
0.0
 30
0.0
  9
$UCSORGBOTTOM
 10
0.0
 20
0.0
 30
0.0
  9
$UCSORGLEFT
 10
0.0
 20
0.0
 30
0.0
  9
$UCSORGRIGHT
 10
0.0
 20
0.0
 30
0.0
  9
$UCSORGFRONT
 10
0.0
 20
0.0
 30
0.0
  9
$UCSORGBACK
 10
0.0
 20
0.0
 30
0.0
  9
$PUCSBASE
  2

  9
$PUCSNAME
  2

  9
$PUCSORG
 10
0.0
 20
0.0
 30
0.0
  9
$PUCSXDIR
 10
1.0
 20
0.0
 30
0.0
  9
$PUCSYDIR
 10
0.0
 20
1.0
 30
0.0
  9
$PUCSORTHOREF
  2

  9
$PUCSORTHOVIEW
 70
     0
  9
$PUCSORGTOP
 10
0.0
 20
0.0
 30
0.0
  9
$PUCSORGBOTTOM
 10
0.0
 20
0.0
 30
0.0
  9
$PUCSORGLEFT
 10
0.0
 20
0.0
 30
0.0
  9
$PUCSORGRIGHT
 10
0.0
 20
0.0
 30
0.0
  9
$PUCSORGFRONT
 10
0.0
 20
0.0
 30
0.0
  9
$PUCSORGBACK
 10
0.0
 20
0.0
 30
0.0
  9
$USERI1
 70
     0
  9
$USERI2
 70
     0
  9
$USERI3
 70
     0
  9
$USERI4
 70
     0
  9
$USERI5
 70
     0
  9
$USERR1
 40
0.0
  9
$USERR2
 40
0.0
  9
$USERR3
 40
0.0
  9
$USERR4
 40
0.0
  9
$USERR5
 40
0.0
  9
$WORLDVIEW
 70
     1
  9
$SHADEDGE
 70
     3
  9
$SHADEDIF
 70
    70
  9
$TILEMODE
 70
     0
  9
$MAXACTVP
 70
    64
  9
$PINSBASE
 10
0.0
 20
0.0
 30
0.0
  9
$PLIMCHECK
 70
     0
  9
$PEXTMIN
 10
0.0
 20
0.0
 30
0.0
  9
$PEXTMAX
 10
297.0
 20
210.0
 30
0.0
  9
$PLIMMIN
 10
0.0
 20
0.0
  9
$PLIMMAX
 10
297.0
 20
210.0
  9
$UNITMODE
 70
     0
  9
$VISRETAIN
 70
     1
  9
$PLINEGEN
 70
     0
  9
$PSLTSCALE
 70
     1
  9
$TREEDEPTH
 70
  3020
  9
$CMLSTYLE
  2
Standard
  9
$CMLJUST
 70
     0
  9
$CMLSCALE
 40
20.0
  9
$PROXYGRAPHICS
 70
     1
  9
$MEASUREMENT
 70
     1
  9
$CELWEIGHT
370
    -1
  9
$ENDCAPS
280
     0
  9
$JOINSTYLE
280
     0
  9
$LWDISPLAY
290
     1
  9
$INSUNITS
 70
     4
  9
$HYPERLINKBASE
  1

  9
$STYLESHEET
  1

  9
$XEDIT
290
     1
  9
$CEPSNTYPE
380
     0
  9
$PSTYLEMODE
290
     1
  9
$FINGERPRINTGUID
  2
{C7144BF9-05B9-4D9F-8C09-0C4BEE4AD7E3}
  9
$VERSIONGUID
  2
{FAEB1C32-E019-11D5-929B-00C0DF256EC4}
  9
$EXTNAMES
290
     1
  9
$PSVPSCALE
 40
0.0
  9
$OLESTARTUP
290
     0
  0
ENDSEC
  0
SECTION
  2
CLASSES
  0
CLASS
  1
ACDBDICTIONARYWDFLT
  2
AcDbDictionaryWithDefault
  3
ObjectDBX Classes
 90
        0
280
     0
281
     0
  0
CLASS
  1
VISUALSTYLE
  2
AcDbVisualStyle
  3
ObjectDBX Classes
 90
     4095
280
     0
281
     0
  0
CLASS
  1
MATERIAL
  2
AcDbMaterial
  3
ObjectDBX Classes
 90
     1153
280
     0
281
     0
  0
CLASS
  1
SCALE
  2
AcDbScale
  3
ObjectDBX Classes
 90
     1153
280
     0
281
     0
  0
CLASS
  1
DICTIONARYVAR
  2
AcDbDictionaryVar
  3
ObjectDBX Classes
 90
        0
280
     0
281
     0
  0
CLASS
  1
ACDBPLACEHOLDER
  2
AcDbPlaceHolder
  3
ObjectDBX Classes
 90
        0
280
     0
281
     0
  0
CLASS
  1
LAYOUT
  2
AcDbLayout
  3
ObjectDBX Classes
 90
        0
280
     0
281
     0
  0
ENDSEC
  0
SECTION
  2
TABLES
  0
TABLE
  2
VPORT
  5
8
330
0
100
AcDbSymbolTable
 70
     1
  0
VPORT
  5
29
330
8
100
AcDbSymbolTableRecord
100
AcDbViewportTableRecord
  2
*Active
 70
     0
 10
0.0
 20
0.0
 11
1.0
 21
1.0
 12
148.5
 22
105.0
 13
0.0
 23
0.0
 14
10.0
 24
10.0
 15
10.0
 25
10.0
 16
0.0
 26
0.0
 36
1.0
 17
0.0
 27
0.0
 37
0.0
 40
210.0
 41
1.4142857143
 42
50.0
 43
0.0
 44
0.0
 50
0.0
 51
0.0
 71
     0
 72
  2000
 73
     1
 74
     3
 75
     0
 76
     0
 77
     0
 78
     0
281
     0
 65
     1
110
0.0
120
0.0
130
0.0
111
1.0
121
0.0
131
0.0
112
0.0
122
1.0
132
0.0
 79
     0
146
0.0
  0
ENDTAB
  0
TABLE
  2
LTYPE
  5
5
330
0
100
AcDbSymbolTable
 70
     6
  0
LTYPE
  5
14
330
5
100
AcDbSymbolTableRecord
100
AcDbLinetypeTableRecord
  2
ByBlock
 70
     0
  3

 72
    65
 73
     0
 40
0.0
  0
LTYPE
  5
15
330
5
100
AcDbSymbolTableRecord
100
AcDbLinetypeTableRecord
  2
ByLayer
 70
     0
  3

 72
    65
 73
     0
 40
0.0
  0
LTYPE
  5
16
330
5
100
AcDbSymbolTableRecord
100
AcDbLinetypeTableRecord
  2
Continuous
 70
     0
  3
Solid line
 72
    65
 73
     0
 40
0.0
  0
LTYPE
  5
3F
330
5
100
AcDbSymbolTableRecord
100
AcDbLinetypeTableRecord
  2
HIDDEN
 70
     0
  3
Hidden __ __ __ __ __ __ __ __ __ __ __ __ __ __
 72
    65
 73
     2
 40
1.905
 49
1.27
 74
     0
 49
-0.635
 74
     0
  0
LTYPE
  5
40
330
5
100
AcDbSymbolTableRecord
100
AcDbLinetypeTableRecord
  2
PHANTOM
 70
     0
  3
Phantom ______  __  __  ______  __  __  ______
 72
    65
 73
     6
 40
12.7
 49
6.35
 74
     0
 49
-1.27
 74
     0
 49
1.27
 74
     0
 49
-1.27
 74
     0
 49
1.27
 74
     0
 49
-1.27
 74
     0
  0
LTYPE
  5
41
330
5
100
AcDbSymbolTableRecord
100
AcDbLinetypeTableRecord
  2
CENTER
 70
     0
  3
Center ____ _ ____ _ ____ _ ____ _ ____ _ ____
 72
    65
 73
     4
 40
10.16
 49
6.35
 74
     0
 49
-1.27
 74
     0
 49
1.27
 74
     0
 49
-1.27
 74
     0
  0
LTYPE
  5
42
330
5
100
AcDbSymbolTableRecord
100
AcDbLinetypeTableRecord
  2
CENTERX2
 70
     0
  3
Center (2x) ________  __  ________  __  _____
 72
    65
 73
     4
 40
20.32
 49
12.7
 74
     0
 49
-2.54
 74
     0
 49
2.54
 74
     0
 49
-2.54
 74
     0
  0
LTYPE
  5
43
330
5
100
AcDbSymbolTableRecord
100
AcDbLinetypeTableRecord
  2
DOT2
 70
     0
  3
Dot (.5x) ........................................
 72
    65
 73
     2
 40
0.635
 49
0.0
 74
     0
 49
-0.635
 74
     0
  0
ENDTAB
  0
TABLE
  2
LAYER
  5
2
330
0
100
AcDbSymbolTable
 70
     4
  0
LAYER
  5
10
330
2
100
AcDbSymbolTableRecord
100
AcDbLayerTableRecord
  2
0
 70
     0
 62
     7
  6
Continuous
370
    -3
390
F
  0
LAYER
  5
44
330
2
100
AcDbSymbolTableRecord
100
AcDbLayerTableRecord
  2
SLD-0
 70
     0
 62
   179
  6
Continuous
370
    -3
390
F
  0
LAYER
  5
45
330
2
100
AcDbSymbolTableRecord
100
AcDbLayerTableRecord
  2
THICK
 70
     0
 62
   179
  6
Continuous
370
    -3
390
F
  0
LAYER
  5
46
330
2
100
AcDbSymbolTableRecord
100
AcDbLayerTableRecord
  2
HIDDEN
 70
     0
 62
   179
  6
Continuous
370
    -3
390
F
  0
ENDTAB
  0
TABLE
  2
STYLE
  5
3
330
0
100
AcDbSymbolTable
 70
     2
  0
STYLE
  5
11
330
3
100
AcDbSymbolTableRecord
100
AcDbTextStyleTableRecord
  2
Standard
 70
     0
 40
0.0
 41
1.0
 50
0.0
 71
     0
 42
2.5
  3
txt
  4
bigfont
  0
STYLE
  5
10E
330
3
100
AcDbSymbolTableRecord
100
AcDbTextStyleTableRecord
  2
SLDTEXTSTYLE0
 70
     0
 40
0.0
 41
0.7
 50
0.0
 71
     0
 42
0.2
  3
TXT
  4
bigfont
  0
ENDTAB
  0
TABLE
  2
VIEW
  5
6
330
0
100
AcDbSymbolTable
 70
     0
  0
ENDTAB
  0
TABLE
  2
UCS
  5
7
330
0
100
AcDbSymbolTable
 70
     0
  0
ENDTAB
  0
TABLE
  2
APPID
  5
9
330
0
100
AcDbSymbolTable
 70
     1
  0
APPID
  5
12
330
9
100
AcDbSymbolTableRecord
100
AcDbRegAppTableRecord
  2
ACAD
 70
     0
  0
ENDTAB
  0
TABLE
  2
DIMSTYLE
  5
A
330
0
100
AcDbSymbolTable
 70
     6
100
AcDbDimStyleTable
  0
DIMSTYLE
105
27
330
A
100
AcDbSymbolTableRecord
100
AcDbDimStyleTableRecord
  2
ISO-25
 70
     0
 41
2.5
 42
0.625
 43
3.75
 44
1.25
 73
     0
 74
     0
 77
     1
 78
     8
140
2.5
141
2.5
143
0.0393700787
147
0.625
171
     3
172
     1
271
     2
272
     2
274
     3
278
    44
283
     0
284
     8
340
11
  0
DIMSTYLE
105
10F
102
{ACAD_REACTORS
330
EB
330
145
330
151
102
}
330
A
100
AcDbSymbolTableRecord
100
AcDbDimStyleTableRecord
  2
SLDDIMSTYLE0
 70
     0
 41
3.302
 44
0.0
 45
0.000000001
 73
     0
 74
     0
 77
     3
 78
    12
140
3.5
147
0.875
173
     1
272
     2
276
     2
284
    12
340
10E
341
110
343
110
344
110
  0
DIMSTYLE
105
122
102
{ACAD_REACTORS
330
121
102
}
330
A
100
AcDbSymbolTableRecord
100
AcDbDimStyleTableRecord
  2
SLDDIMSTYLE1
 70
     0
 41
3.302
 44
0.0
 45
0.000000001
 73
     0
 74
     0
 77
     3
 78
    12
140
3.5
147
0.875
173
     1
272
     2
276
     2
284
    12
340
10E
341
110
343
110
344
110
  0
DIMSTYLE
105
12E
102
{ACAD_REACTORS
330
12D
102
}
330
A
100
AcDbSymbolTableRecord
100
AcDbDimStyleTableRecord
  2
SLDDIMSTYLE2
 70
     0
 41
3.302
 44
0.0
 45
0.000000001
 73
     0
 74
     0
 77
     3
 78
    12
140
3.5
147
0.875
173
     1
271
     1
272
     2
276
     2
284
    12
340
10E
341
110
343
110
344
110
  0
DIMSTYLE
105
13B
102
{ACAD_REACTORS
330
13A
102
}
330
A
100
AcDbSymbolTableRecord
100
AcDbDimStyleTableRecord
  2
SLDDIMSTYLE3
 70
     0
 41
3.302
 44
0.0
 45
0.000000001
 73
     0
 74
     0
 77
     3
 78
    12
140
3.5
147
0.875
173
     1
271
     1
272
     2
276
     2
284
    12
340
10E
341
110
343
110
344
110
  0
DIMSTYLE
105
168
330
A
100
AcDbSymbolTableRecord
100
AcDbDimStyleTableRecord
  2
SLDDIMSTYLE4
 70
     0
 41
3.302
 44
0.0
 45
0.000000001
140
0.0
146
3.302
147
0.0
173
     1
271
     0
272
     0
276
     2
340
11
341
110
343
110
344
110
  0
ENDTAB
  0
TABLE
  2
BLOCK_RECORD
  5
1
330
0
100
AcDbSymbolTable
 70
     9
  0
BLOCK_RECORD
  5
1F
330
1
100
AcDbSymbolTableRecord
100
AcDbBlockTableRecord
  2
*Model_Space
340
22
  0
BLOCK_RECORD
  5
1B
330
1
100
AcDbSymbolTableRecord
100
AcDbBlockTableRecord
  2
*Paper_Space
340
1E
  0
BLOCK_RECORD
  5
110
330
1
100
AcDbSymbolTableRecord
100
AcDbBlockTableRecord
  2
_OPEN30
340
0
102
{BLKREFS
331
119
331
11A
331
126
331
127
331
132
331
133
331
13F
331
140
331
149
331
14A
331
155
331
156
102
}
  0
BLOCK_RECORD
  5
116
330
1
100
AcDbSymbolTableRecord
100
AcDbBlockTableRecord
  2
*D2
340
0
  0
BLOCK_RECORD
  5
123
330
1
100
AcDbSymbolTableRecord
100
AcDbBlockTableRecord
  2
*D3
340
0
  0
BLOCK_RECORD
  5
12F
330
1
100
AcDbSymbolTableRecord
100
AcDbBlockTableRecord
  2
*D4
340
0
  0
BLOCK_RECORD
  5
13C
330
1
100
AcDbSymbolTableRecord
100
AcDbBlockTableRecord
  2
*D5
340
0
  0
BLOCK_RECORD
  5
146
330
1
100
AcDbSymbolTableRecord
100
AcDbBlockTableRecord
  2
*D6
340
0
  0
BLOCK_RECORD
  5
152
330
1
100
AcDbSymbolTableRecord
100
AcDbBlockTableRecord
  2
*D7
340
0
  0
BLOCK_RECORD
  5
15D
330
1
100
AcDbSymbolTableRecord
100
AcDbBlockTableRecord
  2
SW_NOTE_0
340
0
102
{BLKREFS
331
167
102
}
  0
ENDTAB
  0
ENDSEC
  0
SECTION
  2
BLOCKS
  0
BLOCK
  5
20
330
1F
100
AcDbEntity
  8
0
100
AcDbBlockBegin
  2
*Model_Space
 70
     0
 10
0.0
 20
0.0
 30
0.0
  3
*Model_Space
  1

  0
ENDBLK
  5
21
330
1F
100
AcDbEntity
  8
0
100
AcDbBlockEnd
  0
BLOCK
  5
1C
330
1B
100
AcDbEntity
 67
     1
  8
0
100
AcDbBlockBegin
  2
*Paper_Space
 70
     0
 10
0.0
 20
0.0
 30
0.0
  3
*Paper_Space
  1

  0
ENDBLK
  5
1D
330
1B
100
AcDbEntity
 67
     1
  8
0
100
AcDbBlockEnd
  0
BLOCK
  5
111
330
110
100
AcDbEntity
  8
0
100
AcDbBlockBegin
  2
_OPEN30
 70
     0
 10
0.0
 20
0.0
 30
0.0
  3
_OPEN30
  1

  0
LINE
  5
113
330
110
100
AcDbEntity
  8
0
  6
ByBlock
 62
     0
370
    -2
100
AcDbLine
 10
-1.0
 20
0.267949
 30
0.0
 11
0.0
 21
0.0
 31
0.0
  0
LINE
  5
114
330
110
100
AcDbEntity
  8
0
  6
ByBlock
 62
     0
370
    -2
100
AcDbLine
 10
0.0
 20
0.0
 30
0.0
 11
-1.0
 21
-0.267949
 31
0.0
  0
LINE
  5
115
330
110
100
AcDbEntity
  8
0
  6
ByBlock
 62
     0
370
    -2
100
AcDbLine
 10
0.0
 20
0.0
 30
0.0
 11
-1.0
 21
0.0
 31
0.0
  0
ENDBLK
  5
112
330
110
100
AcDbEntity
  8
0
100
AcDbBlockEnd
  0
BLOCK
  5
117
330
116
100
AcDbEntity
  8
0
100
AcDbBlockBegin
  2
*D2
 70
     1
 10
0.0
 20
0.0
 30
0.0
  3
*D2
  1

  0
INSERT
  5
119
330
116
100
AcDbEntity
  8
THICK
100
AcDbBlockReference
  2
_OPEN30
 10
146.45
 20
131.3901878874
 30
0.1
 41
3.302
 42
3.302
 50
360.0
  0
INSERT
  5
11A
330
116
100
AcDbEntity
  8
THICK
100
AcDbBlockReference
  2
_OPEN30
 10
150.55
 20
131.3901878874
 30
0.1
 41
3.302
 42
3.302
 50
180.0
  0
LINE
  5
11B
330
116
100
AcDbEntity
  8
THICK
100
AcDbLine
 10
146.45
 20
125.5
 30
0.0
 11
146.45
 21
132.3901878874
 31
0.0
  0
LINE
  5
11C
330
116
100
AcDbEntity
  8
THICK
100
AcDbLine
 10
150.55
 20
125.5
 30
0.0
 11
150.55
 21
132.3901878874
 31
0.0
  0
LINE
  5
11D
330
116
100
AcDbEntity
  8
THICK
100
AcDbLine
 10
146.45
 20
131.3901878874
 30
0.0
 11
140.1
 21
131.3901878874
 31
0.0
  0
LINE
  5
11E
330
116
100
AcDbEntity
  8
THICK
100
AcDbLine
 10
146.45
 20
131.3901878874
 30
0.0
 11
150.55
 21
131.3901878874
 31
0.0
  0
LINE
  5
11F
330
116
100
AcDbEntity
  8
THICK
100
AcDbLine
 10
150.55
 20
131.3901878874
 30
0.0
 11
159.6032124282
 21
131.3901878874
 31
0.0
  0
MTEXT
  5
120
330
116
100
AcDbEntity
  8
THICK
100
AcDbMText
 10
155.979684896
 20
135.9019247438
 30
0.0
 40
3.5
 41
0.0
 71
     1
 72
     1
  1
5
  7
SLDTEXTSTYLE0
 73
     1
 44
1.0
  0
ENDBLK
  5
118
330
116
100
AcDbEntity
  8
0
100
AcDbBlockEnd
  0
BLOCK
  5
124
330
123
100
AcDbEntity
  8
0
100
AcDbBlockBegin
  2
*D3
 70
     1
 10
0.0
 20
0.0
 30
0.0
  3
*D3
  1

  0
INSERT
  5
126
330
123
100
AcDbEntity
  8
THICK
100
AcDbBlockReference
  2
_OPEN30
 10
127.25
 20
78.1160461832
 30
0.1
 41
3.302
 42
3.302
 50
180.0
  0
INSERT
  5
127
330
123
100
AcDbEntity
  8
THICK
100
AcDbBlockReference
  2
_OPEN30
 10
169.75
 20
78.1160461832
 30
0.1
 41
3.302
 42
3.302
 50
0.0
  0
LINE
  5
128
330
123
100
AcDbEntity
  8
THICK
100
AcDbLine
 10
127.25
 20
85.9
 30
0.0
 11
127.25
 21
77.1160461832
 31
0.0
  0
LINE
  5
129
330
123
100
AcDbEntity
  8
THICK
100
AcDbLine
 10
169.75
 20
85.9
 30
0.0
 11
169.75
 21
77.1160461832
 31
0.0
  0
LINE
  5
12A
330
123
100
AcDbEntity
  8
THICK
100
AcDbLine
 10
127.25
 20
78.1160461832
 30
0.0
 11
169.75
 21
78.1160461832
 31
0.0
  0
MTEXT
  5
12B
330
123
100
AcDbEntity
  8
THICK
100
AcDbMText
 10
144.5287661065
 20
82.6277830396
 30
0.0
 40
3.5
 41
0.0
 71
     1
 72
     1
  1
%%c
  7
SLDTEXTSTYLE0
 73
     1
 44
1.0
  0
MTEXT
  5
12C
330
123
100
AcDbEntity
  8
THICK
100
AcDbMText
 10
148.3986966215
 20
82.6277830396
 30
0.0
 40
3.5
 41
0.0
 71
     1
 72
     1
  1
43
  7
SLDTEXTSTYLE0
 73
     1
 44
1.0
  0
ENDBLK
  5
125
330
123
100
AcDbEntity
  8
0
100
AcDbBlockEnd
  0
BLOCK
  5
130
330
12F
100
AcDbEntity
  8
0
100
AcDbBlockBegin
  2
*D4
 70
     1
 10
0.0
 20
0.0
 30
0.0
  3
*D4
  1

  0
INSERT
  5
132
330
12F
100
AcDbEntity
  8
THICK
100
AcDbBlockReference
  2
_OPEN30
 10
175.3170989843
 20
93.8
 30
0.1
 41
3.302
 42
3.302
 50
270.0
  0
INSERT
  5
133
330
12F
100
AcDbEntity
  8
THICK
100
AcDbBlockReference
  2
_OPEN30
 10
175.3170989843
 20
86.9
 30
0.1
 41
3.302
 42
3.302
 50
90.0
  0
LINE
  5
134
330
12F
100
AcDbEntity
  8
THICK
100
AcDbLine
 10
157.2
 20
93.8
 30
0.0
 11
176.3170989843
 21
93.8
 31
0.0
  0
LINE
  5
135
330
12F
100
AcDbEntity
  8
THICK
100
AcDbLine
 10
170.75
 20
86.9
 30
0.0
 11
176.3170989843
 21
86.9
 31
0.0
  0
LINE
  5
136
330
12F
100
AcDbEntity
  8
THICK
100
AcDbLine
 10
175.3170989843
 20
93.8
 30
0.0
 11
175.3170989843
 21
104.9845171546
 31
0.0
  0
LINE
  5
137
330
12F
100
AcDbEntity
  8
THICK
100
AcDbLine
 10
175.3170989843
 20
93.8
 30
0.0
 11
175.3170989843
 21
86.9
 31
0.0
  0
LINE
  5
138
330
12F
100
AcDbEntity
  8
THICK
100
AcDbLine
 10
175.3170989843
 20
86.9
 30
0.0
 11
175.3170989843
 21
80.55
 31
0.0
  0
MTEXT
  5
139
330
12F
100
AcDbEntity
  8
THICK
100
AcDbMText
 10
170.8053621279
 20
98.4987886076
 30
0.0
 40
3.5
 41
0.0
 71
     1
 72
     1
  1
6.9
  7
SLDTEXTSTYLE0
 11
2.832769448823990E-16
 21
1.0
 31
0.0
 73
     1
 44
1.0
  0
ENDBLK
  5
131
330
12F
100
AcDbEntity
  8
0
100
AcDbBlockEnd
  0
BLOCK
  5
13D
330
13C
100
AcDbEntity
  8
0
100
AcDbBlockBegin
  2
*D5
 70
     1
 10
0.0
 20
0.0
 30
0.0
  3
*D5
  1

  0
INSERT
  5
13F
330
13C
100
AcDbEntity
  8
THICK
100
AcDbBlockReference
  2
_OPEN30
 10
185.8539250697
 20
114.5
 30
0.1
 41
3.302
 42
3.302
 50
90.0
  0
INSERT
  5
140
330
13C
100
AcDbEntity
  8
THICK
100
AcDbBlockReference
  2
_OPEN30
 10
185.8539250697
 20
86.9
 30
0.1
 41
3.302
 42
3.302
 50
270.0
  0
LINE
  5
141
330
13C
100
AcDbEntity
  8
THICK
100
AcDbLine
 10
159.3149545762
 20
114.5
 30
0.0
 11
186.8539250697
 21
114.5
 31
0.0
  0
LINE
  5
142
330
13C
100
AcDbEntity
  8
THICK
100
AcDbLine
 10
170.75
 20
86.9
 30
0.0
 11
186.8539250697
 21
86.9
 31
0.0
  0
LINE
  5
143
330
13C
100
AcDbEntity
  8
THICK
100
AcDbLine
 10
185.8539250697
 20
114.5
 30
0.0
 11
185.8539250697
 21
86.9
 31
0.0
  0
MTEXT
  5
144
330
13C
100
AcDbEntity
  8
THICK
100
AcDbMText
 10
181.3421882133
 20
97.4807748415
 30
0.0
 40
3.5
 41
0.0
 71
     1
 72
     1
  1
27.6
  7
SLDTEXTSTYLE0
 11
7.166659697558369E-15
 21
1.0
 31
0.0
 73
     1
 44
1.0
  0
ENDBLK
  5
13E
330
13C
100
AcDbEntity
  8
0
100
AcDbBlockEnd
  0
BLOCK
  5
147
330
146
100
AcDbEntity
  8
0
100
AcDbBlockBegin
  2
*D6
 70
     1
 10
0.0
 20
0.0
 30
0.0
  3
*D6
  1

  0
INSERT
  5
149
330
146
100
AcDbEntity
  8
THICK
100
AcDbBlockReference
  2
_OPEN30
 10
166.618056414
 20
124.5
 30
0.1
 41
3.302
 42
3.302
 50
270.0
  0
INSERT
  5
14A
330
146
100
AcDbEntity
  8
THICK
100
AcDbBlockReference
  2
_OPEN30
 10
166.618056414
 20
114.5
 30
0.1
 41
3.302
 42
3.302
 50
90.0
  0
LINE
  5
14B
330
146
100
AcDbEntity
  8
THICK
100
AcDbLine
 10
154.5
 20
124.5
 30
0.0
 11
167.618056414
 21
124.5
 31
0.0
  0
LINE
  5
14C
330
146
100
AcDbEntity
  8
THICK
100
AcDbLine
 10
159.3149545762
 20
114.5
 30
0.0
 11
167.618056414
 21
114.5
 31
0.0
  0
LINE
  5
14D
330
146
100
AcDbEntity
  8
THICK
100
AcDbLine
 10
166.618056414
 20
124.5
 30
0.0
 11
166.618056414
 21
130.85
 31
0.0
  0
LINE
  5
14E
330
146
100
AcDbEntity
  8
THICK
100
AcDbLine
 10
166.618056414
 20
124.5
 30
0.0
 11
166.618056414
 21
114.5
 31
0.0
  0
LINE
  5
14F
330
146
100
AcDbEntity
  8
THICK
100
AcDbLine
 10
166.618056414
 20
114.5
 30
0.0
 11
166.618056414
 21
108.15
 31
0.0
  0
MTEXT
  5
150
330
146
100
AcDbEntity
  8
THICK
100
AcDbMText
 10
162.1063195576
 20
118.4819862339
 30
0.0
 40
3.5
 41
0.0
 71
     1
 72
     1
  1
7
  7
SLDTEXTSTYLE0
 11
6.944615092633338E-15
 21
1.0
 31
0.0
 73
     1
 44
1.0
  0
ENDBLK
  5
148
330
146
100
AcDbEntity
  8
0
100
AcDbBlockEnd
  0
BLOCK
  5
153
330
152
100
AcDbEntity
  8
0
100
AcDbBlockBegin
  2
*D7
 70
     1
 10
0.0
 20
0.0
 30
0.0
  3
*D7
  1

  0
INSERT
  5
155
330
152
100
AcDbEntity
  8
THICK
100
AcDbBlockReference
  2
_OPEN30
 10
143.5
 20
140.9391262997
 30
0.1
 41
3.302
 42
3.302
 50
360.0
  0
INSERT
  5
156
330
152
100
AcDbEntity
  8
THICK
100
AcDbBlockReference
  2
_OPEN30
 10
153.5
 20
140.9391262997
 30
0.1
 41
3.302
 42
3.302
 50
180.0
  0
LINE
  5
157
330
152
100
AcDbEntity
  8
THICK
100
AcDbLine
 10
143.5
 20
125.5
 30
0.0
 11
143.5
 21
141.9391262997
 31
0.0
  0
LINE
  5
158
330
152
100
AcDbEntity
  8
THICK
100
AcDbLine
 10
153.5
 20
125.5
 30
0.0
 11
153.5
 21
141.9391262997
 31
0.0
  0
LINE
  5
159
330
152
100
AcDbEntity
  8
THICK
100
AcDbLine
 10
143.5
 20
140.9391262997
 30
0.0
 11
121.4766736574
 21
140.9391262997
 31
0.0
  0
LINE
  5
15A
330
152
100
AcDbEntity
  8
THICK
100
AcDbLine
 10
143.5
 20
140.9391262997
 30
0.0
 11
153.5
 21
140.9391262997
 31
0.0
  0
LINE
  5
15B
330
152
100
AcDbEntity
  8
THICK
100
AcDbLine
 10
153.5
 20
140.9391262997
 30
0.0
 11
159.85
 21
140.9391262997
 31
0.0
  0
MTEXT
  5
15C
330
152
100
AcDbEntity
  8
THICK
100
AcDbMText
 10
123.0641736574
 20
145.450863156
 30
0.0
 40
3.5
 41
0.0
 71
     1
 72
     1
  1
PT1/8-M
  7
SLDTEXTSTYLE0
 73
     1
 44
1.0
  0
ENDBLK
  5
154
330
152
100
AcDbEntity
  8
0
100
AcDbBlockEnd
  0
BLOCK
  5
15E
330
15D
100
AcDbEntity
  8
0
100
AcDbBlockBegin
  2
SW_NOTE_0
 70
     0
 10
0.0
 20
0.0
 30
0.0
  3
SW_NOTE_0
  1

  0
LINE
  5
160
330
15D
100
AcDbEntity
  8
THICK
 62
     0
100
AcDbLine
 10
-9.1355183079
 20
0.0002725201
 30
0.0
 11
0.0
 21
0.0002725201
 31
0.0
  0
LINE
  5
161
330
15D
100
AcDbEntity
  8
THICK
 62
     0
100
AcDbLine
 10
0.0
 20
0.0002725201
 30
0.0
 11
-9.1355183079
 21
0.0002725201
 31
0.0
  0
LINE
  5
162
330
15D
100
AcDbEntity
  8
THICK
 62
     0
100
AcDbLine
 10
-9.1355183079
 20
0.0002725201
 30
0.0
 11
0.0
 21
0.0002725201
 31
0.0
  0
LINE
  5
163
330
15D
100
AcDbEntity
  8
THICK
 62
     0
100
AcDbLine
 10
0.0
 20
0.0002725201
 30
0.0
 11
-9.1355183079
 21
0.0002725201
 31
0.0
  0
LINE
  5
164
330
15D
100
AcDbEntity
  8
THICK
 62
     0
100
AcDbLine
 10
-9.1355183079
 20
0.0002725201
 30
0.0
 11
0.0
 21
0.0002725201
 31
0.0
  0
LINE
  5
165
330
15D
100
AcDbEntity
  8
THICK
 62
     0
100
AcDbLine
 10
0.0
 20
0.0002725201
 30
0.0
 11
-9.1355183079
 21
0.0002725201
 31
0.0
  0
MTEXT
  5
166
330
15D
100
AcDbEntity
  8
THICK
 62
     0
100
AcDbMText
 10
-9.1330742739
 20
4.512428556
 30
0.0
 40
3.5
 41
0.0
 71
     1
 72
     1
  1
W=19
  7
SLDTEXTSTYLE0
 73
     1
 44
1.0
  0
ENDBLK
  5
15F
330
15D
100
AcDbEntity
  8
0
100
AcDbBlockEnd
  0
ENDSEC
  0
SECTION
  2
ENTITIES
  0
VIEWPORT
  5
47
330
1B
100
AcDbEntity
 67
     1
  8
0
100
AcDbViewport
 10
148.5
 20
105.0
 30
0.0
 40
314.226
 41
222.18
 68
     1
 69
     1
 12
148.5
 22
105.0
 13
0.0
 23
0.0
 14
10.0
 24
10.0
 15
10.0
 25
10.0
 16
0.0
 26
0.0
 36
1.0
 17
0.0
 27
0.0
 37
0.0
 42
50.0
 43
0.0
 44
0.0
 45
222.18
 50
0.0
 51
0.0
 72
   100
 90
   557152
  1

281
     0
 71
     1
 74
     0
110
0.0
120
0.0
130
0.0
111
1.0
121
0.0
131
0.0
112
0.0
122
1.0
132
0.0
 79
     0
146
0.0
  0
LINE
  5
48
330
1B
100
AcDbEntity
 67
     1
  8
HIDDEN
100
AcDbLine
 10
147.3452994616
 20
115.5
 30
0.0
 11
146.9929491924
 21
115.5
 31
0.0
  0
LINE
  5
49
330
1B
100
AcDbEntity
 67
     1
  8
HIDDEN
100
AcDbLine
 10
148.05
 20
115.5
 30
0.0
 11
147.3452994616
 21
115.5
 31
0.0
  0
LINE
  5
4A
330
1B
100
AcDbEntity
 67
     1
  8
HIDDEN
100
AcDbLine
 10
146.5429491924
 20
112.025388745
 30
0.0
 11
146.5429491924
 21
115.5
 31
0.0
  0
LINE
  5
4B
330
1B
100
AcDbEntity
 67
     1
  8
HIDDEN
100
AcDbLine
 10
146.45
 20
115.5
 30
0.0
 11
146.45
 21
124.5
 31
0.0
  0
LINE
  5
4C
330
1B
100
AcDbEntity
 67
     1
  8
HIDDEN
100
AcDbLine
 10
150.55
 20
115.5
 30
0.0
 11
150.55
 21
124.5
 31
0.0
  0
LINE
  5
4D
330
1B
100
AcDbEntity
 67
     1
  8
HIDDEN
100
AcDbLine
 10
150.4570508076
 20
115.5
 30
0.0
 11
150.4570508076
 21
112.025388745
 31
0.0
  0
LINE
  5
4E
330
1B
100
AcDbEntity
 67
     1
  8
HIDDEN
100
AcDbLine
 10
150.0070508076
 20
112.025388745
 30
0.0
 11
150.0070508076
 21
115.5
 31
0.0
  0
LINE
  5
4F
330
1B
100
AcDbEntity
 67
     1
  8
HIDDEN
100
AcDbLine
 10
148.95
 20
115.5
 30
0.0
 11
148.95
 21
112.025388745
 31
0.0
  0
LINE
  5
50
330
1B
100
AcDbEntity
 67
     1
  8
HIDDEN
100
AcDbLine
 10
148.05
 20
112.025388745
 30
0.0
 11
148.05
 21
115.5
 31
0.0
  0
LINE
  5
51
330
1B
100
AcDbEntity
 67
     1
  8
HIDDEN
100
AcDbLine
 10
146.9929491924
 20
115.5
 30
0.0
 11
146.9929491924
 21
112.025388745
 31
0.0
  0
LINE
  5
52
330
1B
100
AcDbEntity
 67
     1
  8
HIDDEN
100
AcDbLine
 10
152.4999998689
 20
114.7199762377
 30
0.0
 11
144.5
 21
114.7199764854
 31
0.0
  0
LINE
  5
53
330
1B
100
AcDbEntity
 67
     1
  8
HIDDEN
100
AcDbLine
 10
152.4999998689
 20
114.7199762377
 30
0.0
 11
152.5
 21
115.0800017271
 31
0.0
  0
LINE
  5
54
330
1B
100
AcDbEntity
 67
     1
  8
THICK
100
AcDbLine
 10
152.5
 20
115.0800017271
 30
0.0
 11
152.5
 21
116.9154700538
 31
0.0
  0
LINE
  5
55
330
1B
100
AcDbEntity
 67
     1
  8
HIDDEN
100
AcDbLine
 10
144.5
 20
114.7199764854
 30
0.0
 11
144.5
 21
115.0800017271
 31
0.0
  0
LINE
  5
56
330
1B
100
AcDbEntity
 67
     1
  8
THICK
100
AcDbLine
 10
144.5
 20
115.0800017271
 30
0.0
 11
144.5
 21
116.9154700538
 31
0.0
  0
LINE
  5
57
330
1B
100
AcDbEntity
 67
     1
  8
HIDDEN
100
AcDbLine
 10
152.5
 20
116.9154700538
 30
0.0
 11
144.5
 21
116.9154700538
 31
0.0
  0
LINE
  5
58
330
1B
100
AcDbEntity
 67
     1
  8
THICK
100
AcDbLine
 10
152.5
 20
116.9154700538
 30
0.0
 11
153.5
 21
117.492820323
 31
0.0
  0
LINE
  5
59
330
1B
100
AcDbEntity
 67
     1
  8
THICK
100
AcDbLine
 10
144.5
 20
116.9154700538
 30
0.0
 11
143.5
 21
117.492820323
 31
0.0
  0
LINE
  5
5A
330
1B
100
AcDbEntity
 67
     1
  8
HIDDEN
100
AcDbLine
 10
153.5
 20
117.492820323
 30
0.0
 11
143.5
 21
117.492820323
 31
0.0
  0
LINE
  5
5B
330
1B
100
AcDbEntity
 67
     1
  8
THICK
100
AcDbLine
 10
153.5
 20
117.492820323
 30
0.0
 11
153.5
 21
124.5
 31
0.0
  0
LINE
  5
5C
330
1B
100
AcDbEntity
 67
     1
  8
THICK
100
AcDbLine
 10
143.5
 20
117.492820323
 30
0.0
 11
143.5
 21
124.5
 31
0.0
  0
LINE
  5
5D
330
1B
100
AcDbEntity
 67
     1
  8
HIDDEN
100
AcDbLine
 10
145.95
 20
112.025388745
 30
0.0
 11
145.95
 21
100.5
 31
0.0
  0
LINE
  5
5E
330
1B
100
AcDbEntity
 67
     1
  8
HIDDEN
100
AcDbLine
 10
151.05
 20
112.025388745
 30
0.0
 11
145.95
 21
112.025388745
 31
0.0
  0
LINE
  5
5F
330
1B
100
AcDbEntity
 67
     1
  8
HIDDEN
100
AcDbLine
 10
151.05
 20
112.025388745
 30
0.0
 11
151.05
 21
100.5
 31
0.0
  0
LINE
  5
60
330
1B
100
AcDbEntity
 67
     1
  8
HIDDEN
100
AcDbLine
 10
150.9163104
 20
97.5
 30
0.0
 11
150.9163104
 21
100.5
 31
0.0
  0
LINE
  5
61
330
1B
100
AcDbEntity
 67
     1
  8
HIDDEN
100
AcDbLine
 10
150.4138166189
 20
100.5
 30
0.0
 11
150.4138166189
 21
97.5
 31
0.0
  0
LINE
  5
62
330
1B
100
AcDbEntity
 67
     1
  8
HIDDEN
100
AcDbLine
 10
149.0024937811
 20
97.5
 30
0.0
 11
149.0024937811
 21
100.5
 31
0.0
  0
LINE
  5
63
330
1B
100
AcDbEntity
 67
     1
  8
HIDDEN
100
AcDbLine
 10
147.9975062189
 20
100.5
 30
0.0
 11
147.9975062189
 21
97.5
 31
0.0
  0
LINE
  5
64
330
1B
100
AcDbEntity
 67
     1
  8
HIDDEN
100
AcDbLine
 10
146.5861833811
 20
97.5
 30
0.0
 11
146.5861833811
 21
100.5
 31
0.0
  0
LINE
  5
65
330
1B
100
AcDbEntity
 67
     1
  8
HIDDEN
100
AcDbLine
 10
146.0836896
 20
100.5
 30
0.0
 11
146.0836896
 21
97.5
 31
0.0
  0
LINE
  5
66
330
1B
100
AcDbEntity
 67
     1
  8
HIDDEN
100
AcDbLine
 10
144.75
 20
97.5
 30
0.0
 11
144.75
 21
93.8
 31
0.0
  0
LINE
  5
67
330
1B
100
AcDbEntity
 67
     1
  8
HIDDEN
100
AcDbLine
 10
152.25
 20
97.5
 30
0.0
 11
144.75
 21
97.5
 31
0.0
  0
LINE
  5
68
330
1B
100
AcDbEntity
 67
     1
  8
HIDDEN
100
AcDbLine
 10
152.25
 20
97.5
 30
0.0
 11
152.25
 21
93.8
 31
0.0
  0
LINE
  5
69
330
1B
100
AcDbEntity
 67
     1
  8
HIDDEN
100
AcDbLine
 10
140.8
 20
94.3
 30
0.0
 11
140.8
 21
93.8
 31
0.0
  0
LINE
  5
6A
330
1B
100
AcDbEntity
 67
     1
  8
HIDDEN
100
AcDbLine
 10
140.8
 20
94.3
 30
0.0
 11
156.2
 21
94.3
 31
0.0
  0
LINE
  5
6B
330
1B
100
AcDbEntity
 67
     1
  8
HIDDEN
100
AcDbLine
 10
156.2
 20
94.3
 30
0.0
 11
156.2
 21
93.8
 31
0.0
  0
LINE
  5
6C
330
1B
100
AcDbEntity
 67
     1
  8
HIDDEN
100
AcDbLine
 10
156.2
 20
94.3
 30
0.0
 11
140.8
 21
94.3
 31
0.0
  0
LINE
  5
6D
330
1B
100
AcDbEntity
 67
     1
  8
THICK
100
AcDbLine
 10
127.25
 20
87.35
 30
0.0
 11
127.25
 21
86.9
 31
0.0
  0
LINE
  5
6E
330
1B
100
AcDbEntity
 67
     1
  8
HIDDEN
100
AcDbLine
 10
127.25
 20
87.35
 30
0.0
 11
169.75
 21
87.35
 31
0.0
  0
LINE
  5
6F
330
1B
100
AcDbEntity
 67
     1
  8
THICK
100
AcDbLine
 10
169.75
 20
87.35
 30
0.0
 11
169.75
 21
86.9
 31
0.0
  0
LINE
  5
70
330
1B
100
AcDbEntity
 67
     1
  8
HIDDEN
100
AcDbLine
 10
138.9053259872
 20
96.0298033919
 30
0.0
 11
158.0946740128
 21
96.0298033919
 31
0.0
  0
LINE
  5
71
330
1B
100
AcDbEntity
 67
     1
  8
HIDDEN
100
AcDbLine
 10
157.6226377024
 20
107.3
 30
0.0
 11
154.0997941619
 21
107.3
 31
0.0
  0
LINE
  5
72
330
1B
100
AcDbEntity
 67
     1
  8
HIDDEN
100
AcDbLine
 10
157.7011100749
 20
107.3
 30
0.0
 11
157.6226377024
 21
107.3
 31
0.0
  0
LINE
  5
73
330
1B
100
AcDbEntity
 67
     1
  8
THICK
100
AcDbLine
 10
157.7011100749
 20
107.3
 30
0.0
 11
158.0946740128
 21
96.0298033919
 31
0.0
  0
LINE
  5
74
330
1B
100
AcDbEntity
 67
     1
  8
THICK
100
AcDbLine
 10
139.2988899251
 20
107.3
 30
0.0
 11
138.9053259872
 21
96.0298033919
 31
0.0
  0
LINE
  5
75
330
1B
100
AcDbEntity
 67
     1
  8
HIDDEN
100
AcDbLine
 10
142.9002058381
 20
107.3
 30
0.0
 11
139.3773622976
 21
107.3
 31
0.0
  0
LINE
  5
76
330
1B
100
AcDbEntity
 67
     1
  8
HIDDEN
100
AcDbLine
 10
152.0228435405
 20
107.3
 30
0.0
 11
144.9771564595
 21
107.3
 31
0.0
  0
LINE
  5
77
330
1B
100
AcDbEntity
 67
     1
  8
HIDDEN
100
AcDbLine
 10
142.9002058381
 20
107.3
 30
0.0
 11
142.3969426155
 21
107.3957376555
 31
0.0
  0
LINE
  5
78
330
1B
100
AcDbEntity
 67
     1
  8
HIDDEN
100
AcDbLine
 10
142.3969426155
 20
107.3957376555
 30
0.0
 11
141.893679142
 21
107.4616658054
 31
0.0
  0
LINE
  5
79
330
1B
100
AcDbEntity
 67
     1
  8
HIDDEN
100
AcDbLine
 10
141.893679142
 20
107.4616658054
 30
0.0
 11
141.3904156685
 21
107.4956517839
 31
0.0
  0
LINE
  5
7A
330
1B
100
AcDbEntity
 67
     1
  8
HIDDEN
100
AcDbLine
 10
141.3904156685
 20
107.4956517839
 30
0.0
 11
140.887152195
 21
107.4956517839
 31
0.0
  0
LINE
  5
7B
330
1B
100
AcDbEntity
 67
     1
  8
HIDDEN
100
AcDbLine
 10
140.887152195
 20
107.4956517839
 30
0.0
 11
140.3838891983
 21
107.4616658054
 31
0.0
  0
LINE
  5
7C
330
1B
100
AcDbEntity
 67
     1
  8
HIDDEN
100
AcDbLine
 10
140.3838891983
 20
107.4616658054
 30
0.0
 11
139.8806257248
 21
107.3957376555
 31
0.0
  0
LINE
  5
7D
330
1B
100
AcDbEntity
 67
     1
  8
HIDDEN
100
AcDbLine
 10
139.8806257248
 20
107.3957376555
 30
0.0
 11
139.3773622976
 21
107.3
 31
0.0
  0
LINE
  5
7E
330
1B
100
AcDbEntity
 67
     1
  8
THICK
100
AcDbLine
 10
139.3773622976
 20
107.3
 30
0.0
 11
142.9002058381
 21
107.3
 31
0.0
  0
LINE
  5
7F
330
1B
100
AcDbEntity
 67
     1
  8
THICK
100
AcDbLine
 10
139.3773622976
 20
107.3
 30
0.0
 11
139.8806257248
 21
107.3957376555
 31
0.0
  0
LINE
  5
80
330
1B
100
AcDbEntity
 67
     1
  8
THICK
100
AcDbLine
 10
139.8806257248
 20
107.3957376555
 30
0.0
 11
140.3838891983
 21
107.4616658054
 31
0.0
  0
LINE
  5
81
330
1B
100
AcDbEntity
 67
     1
  8
THICK
100
AcDbLine
 10
140.3838891983
 20
107.4616658054
 30
0.0
 11
140.887152195
 21
107.4956517839
 31
0.0
  0
LINE
  5
82
330
1B
100
AcDbEntity
 67
     1
  8
THICK
100
AcDbLine
 10
140.887152195
 20
107.4956517839
 30
0.0
 11
141.3904156685
 21
107.4956517839
 31
0.0
  0
LINE
  5
83
330
1B
100
AcDbEntity
 67
     1
  8
THICK
100
AcDbLine
 10
141.3904156685
 20
107.4956517839
 30
0.0
 11
141.893679142
 21
107.4616658054
 31
0.0
  0
LINE
  5
84
330
1B
100
AcDbEntity
 67
     1
  8
THICK
100
AcDbLine
 10
141.893679142
 20
107.4616658054
 30
0.0
 11
142.3969426155
 21
107.3957376555
 31
0.0
  0
LINE
  5
85
330
1B
100
AcDbEntity
 67
     1
  8
THICK
100
AcDbLine
 10
142.3969426155
 20
107.3957376555
 30
0.0
 11
142.9002058381
 21
107.3
 31
0.0
  0
LINE
  5
86
330
1B
100
AcDbEntity
 67
     1
  8
THICK
100
AcDbLine
 10
144.9771564595
 20
107.3
 30
0.0
 11
152.0228435405
 21
107.3
 31
0.0
  0
LINE
  5
87
330
1B
100
AcDbEntity
 67
     1
  8
THICK
100
AcDbLine
 10
144.9771564595
 20
107.3
 30
0.0
 11
145.9867560863
 21
107.3959784806
 31
0.0
  0
LINE
  5
88
330
1B
100
AcDbEntity
 67
     1
  8
THICK
100
AcDbLine
 10
145.9867560863
 20
107.3959784806
 30
0.0
 11
146.9953938723
 21
107.4619130418
 31
0.0
  0
LINE
  5
89
330
1B
100
AcDbEntity
 67
     1
  8
THICK
100
AcDbLine
 10
146.9953938723
 20
107.4619130418
 30
0.0
 11
148.0030041039
 21
107.4957542093
 31
0.0
  0
LINE
  5
8A
330
1B
100
AcDbEntity
 67
     1
  8
THICK
100
AcDbLine
 10
148.0030041039
 20
107.4957542093
 30
0.0
 11
149.0095242262
 21
107.4955482236
 31
0.0
  0
LINE
  5
8B
330
1B
100
AcDbEntity
 67
     1
  8
THICK
100
AcDbLine
 10
149.0095242262
 20
107.4955482236
 30
0.0
 11
150.0149582624
 21
107.4614187256
 31
0.0
  0
LINE
  5
8C
330
1B
100
AcDbEntity
 67
     1
  8
THICK
100
AcDbLine
 10
150.0149582624
 20
107.4614187256
 30
0.0
 11
151.0193743706
 21
107.395497933
 31
0.0
  0
LINE
  5
8D
330
1B
100
AcDbEntity
 67
     1
  8
THICK
100
AcDbLine
 10
151.0193743706
 20
107.395497933
 30
0.0
 11
152.0228435405
 21
107.3
 31
0.0
  0
LINE
  5
8E
330
1B
100
AcDbEntity
 67
     1
  8
THICK
100
AcDbLine
 10
154.0997941619
 20
107.3
 30
0.0
 11
157.6226377024
 21
107.3
 31
0.0
  0
LINE
  5
8F
330
1B
100
AcDbEntity
 67
     1
  8
THICK
100
AcDbLine
 10
154.0997941619
 20
107.3
 30
0.0
 11
154.6030573845
 21
107.3957376555
 31
0.0
  0
LINE
  5
90
330
1B
100
AcDbEntity
 67
     1
  8
THICK
100
AcDbLine
 10
154.6030573845
 20
107.3957376555
 30
0.0
 11
155.106320858
 21
107.4616658054
 31
0.0
  0
LINE
  5
91
330
1B
100
AcDbEntity
 67
     1
  8
THICK
100
AcDbLine
 10
155.106320858
 20
107.4616658054
 30
0.0
 11
155.6095843315
 21
107.4956517839
 31
0.0
  0
LINE
  5
92
330
1B
100
AcDbEntity
 67
     1
  8
THICK
100
AcDbLine
 10
155.6095843315
 20
107.4956517839
 30
0.0
 11
156.112847805
 21
107.4956517839
 31
0.0
  0
LINE
  5
93
330
1B
100
AcDbEntity
 67
     1
  8
THICK
100
AcDbLine
 10
156.112847805
 20
107.4956517839
 30
0.0
 11
156.6161108017
 21
107.4616658054
 31
0.0
  0
LINE
  5
94
330
1B
100
AcDbEntity
 67
     1
  8
THICK
100
AcDbLine
 10
156.6161108017
 20
107.4616658054
 30
0.0
 11
157.1193742752
 21
107.3957376555
 31
0.0
  0
LINE
  5
95
330
1B
100
AcDbEntity
 67
     1
  8
THICK
100
AcDbLine
 10
157.1193742752
 20
107.3957376555
 30
0.0
 11
157.6226377024
 21
107.3
 31
0.0
  0
LINE
  5
96
330
1B
100
AcDbEntity
 67
     1
  8
HIDDEN
100
AcDbLine
 10
157.6226377024
 20
107.3
 30
0.0
 11
157.1193742752
 21
107.3957376555
 31
0.0
  0
LINE
  5
97
330
1B
100
AcDbEntity
 67
     1
  8
HIDDEN
100
AcDbLine
 10
157.1193742752
 20
107.3957376555
 30
0.0
 11
156.6161108017
 21
107.4616658054
 31
0.0
  0
LINE
  5
98
330
1B
100
AcDbEntity
 67
     1
  8
HIDDEN
100
AcDbLine
 10
156.6161108017
 20
107.4616658054
 30
0.0
 11
156.112847805
 21
107.4956517839
 31
0.0
  0
LINE
  5
99
330
1B
100
AcDbEntity
 67
     1
  8
HIDDEN
100
AcDbLine
 10
156.112847805
 20
107.4956517839
 30
0.0
 11
155.6095843315
 21
107.4956517839
 31
0.0
  0
LINE
  5
9A
330
1B
100
AcDbEntity
 67
     1
  8
HIDDEN
100
AcDbLine
 10
155.6095843315
 20
107.4956517839
 30
0.0
 11
155.106320858
 21
107.4616658054
 31
0.0
  0
LINE
  5
9B
330
1B
100
AcDbEntity
 67
     1
  8
HIDDEN
100
AcDbLine
 10
155.106320858
 20
107.4616658054
 30
0.0
 11
154.6030573845
 21
107.3957376555
 31
0.0
  0
LINE
  5
9C
330
1B
100
AcDbEntity
 67
     1
  8
HIDDEN
100
AcDbLine
 10
154.6030573845
 20
107.3957376555
 30
0.0
 11
154.0997941619
 21
107.3
 31
0.0
  0
LINE
  5
9D
330
1B
100
AcDbEntity
 67
     1
  8
THICK
100
AcDbLine
 10
158.0946740128
 20
96.0298033919
 30
0.0
 11
138.9053259872
 21
96.0298033919
 31
0.0
  0
LINE
  5
9E
330
1B
100
AcDbEntity
 67
     1
  8
THICK
100
AcDbLine
 10
169.75
 20
87.35
 30
0.0
 11
127.25
 21
87.35
 31
0.0
  0
LINE
  5
9F
330
1B
100
AcDbEntity
 67
     1
  8
THICK
100
AcDbLine
 10
169.75
 20
86.9
 30
0.0
 11
127.25
 21
86.9
 31
0.0
  0
LINE
  5
A0
330
1B
100
AcDbEntity
 67
     1
  8
HIDDEN
100
AcDbLine
 10
156.2
 20
93.8
 30
0.0
 11
140.8
 21
93.8
 31
0.0
  0
LINE
  5
A1
330
1B
100
AcDbEntity
 67
     1
  8
HIDDEN
100
AcDbLine
 10
150.9163104
 20
100.5
 30
0.0
 11
151.05
 21
100.5
 31
0.0
  0
LINE
  5
A2
330
1B
100
AcDbEntity
 67
     1
  8
HIDDEN
100
AcDbLine
 10
146.0836896
 20
97.5
 30
0.0
 11
146.0836896
 21
100.5
 31
0.0
  0
LINE
  5
A3
330
1B
100
AcDbEntity
 67
     1
  8
HIDDEN
100
AcDbLine
 10
146.5861833811
 20
100.5
 30
0.0
 11
146.5861833811
 21
97.5
 31
0.0
  0
LINE
  5
A4
330
1B
100
AcDbEntity
 67
     1
  8
HIDDEN
100
AcDbLine
 10
147.9975062189
 20
97.5
 30
0.0
 11
147.9975062189
 21
100.5
 31
0.0
  0
LINE
  5
A5
330
1B
100
AcDbEntity
 67
     1
  8
HIDDEN
100
AcDbLine
 10
149.0024937811
 20
100.5
 30
0.0
 11
149.0024937811
 21
97.5
 31
0.0
  0
LINE
  5
A6
330
1B
100
AcDbEntity
 67
     1
  8
HIDDEN
100
AcDbLine
 10
150.4138166189
 20
97.5
 30
0.0
 11
150.4138166189
 21
100.5
 31
0.0
  0
LINE
  5
A7
330
1B
100
AcDbEntity
 67
     1
  8
HIDDEN
100
AcDbLine
 10
150.9163104
 20
100.5
 30
0.0
 11
150.9163104
 21
97.5
 31
0.0
  0
LINE
  5
A8
330
1B
100
AcDbEntity
 67
     1
  8
HIDDEN
100
AcDbLine
 10
146.0836896
 20
100.5
 30
0.0
 11
145.6132486541
 21
100.5
 31
0.0
  0
LINE
  5
A9
330
1B
100
AcDbEntity
 67
     1
  8
HIDDEN
100
AcDbLine
 10
145.6132486541
 20
100.5
 30
0.0
 11
145.6132486541
 21
97.5
 31
0.0
  0
LINE
  5
AA
330
1B
100
AcDbEntity
 67
     1
  8
HIDDEN
100
AcDbLine
 10
147.9975062189
 20
100.5
 30
0.0
 11
147.056624327
 21
100.5
 31
0.0
  0
LINE
  5
AB
330
1B
100
AcDbEntity
 67
     1
  8
HIDDEN
100
AcDbLine
 10
147.056624327
 20
100.5
 30
0.0
 11
146.5861833811
 21
100.5
 31
0.0
  0
LINE
  5
AC
330
1B
100
AcDbEntity
 67
     1
  8
HIDDEN
100
AcDbLine
 10
147.056624327
 20
100.5
 30
0.0
 11
147.056624327
 21
97.5
 31
0.0
  0
LINE
  5
AD
330
1B
100
AcDbEntity
 67
     1
  8
HIDDEN
100
AcDbLine
 10
150.4138166189
 20
100.5
 30
0.0
 11
149.943375673
 21
100.5
 31
0.0
  0
LINE
  5
AE
330
1B
100
AcDbEntity
 67
     1
  8
HIDDEN
100
AcDbLine
 10
149.943375673
 20
100.5
 30
0.0
 11
149.0024937811
 21
100.5
 31
0.0
  0
LINE
  5
AF
330
1B
100
AcDbEntity
 67
     1
  8
HIDDEN
100
AcDbLine
 10
149.943375673
 20
100.5
 30
0.0
 11
149.943375673
 21
97.5
 31
0.0
  0
LINE
  5
B0
330
1B
100
AcDbEntity
 67
     1
  8
HIDDEN
100
AcDbLine
 10
151.3867513459
 20
100.5
 30
0.0
 11
150.9163104
 21
100.5
 31
0.0
  0
LINE
  5
B1
330
1B
100
AcDbEntity
 67
     1
  8
HIDDEN
100
AcDbLine
 10
151.3867513459
 20
100.5
 30
0.0
 11
151.3867513459
 21
97.5
 31
0.0
  0
LINE
  5
B2
330
1B
100
AcDbEntity
 67
     1
  8
HIDDEN
100
AcDbLine
 10
149.943375673
 20
100.5
 30
0.0
 11
149.943375673
 21
97.5
 31
0.0
  0
LINE
  5
B3
330
1B
100
AcDbEntity
 67
     1
  8
HIDDEN
100
AcDbLine
 10
147.056624327
 20
100.5
 30
0.0
 11
147.056624327
 21
97.5
 31
0.0
  0
LINE
  5
B4
330
1B
100
AcDbEntity
 67
     1
  8
HIDDEN
100
AcDbLine
 10
152.0228435405
 20
107.3
 30
0.0
 11
151.0193743706
 21
107.395497933
 31
0.0
  0
LINE
  5
B5
330
1B
100
AcDbEntity
 67
     1
  8
HIDDEN
100
AcDbLine
 10
151.0193743706
 20
107.395497933
 30
0.0
 11
150.0149582624
 21
107.4614187256
 31
0.0
  0
LINE
  5
B6
330
1B
100
AcDbEntity
 67
     1
  8
HIDDEN
100
AcDbLine
 10
150.0149582624
 20
107.4614187256
 30
0.0
 11
149.0095242262
 21
107.4955482236
 31
0.0
  0
LINE
  5
B7
330
1B
100
AcDbEntity
 67
     1
  8
HIDDEN
100
AcDbLine
 10
149.0095242262
 20
107.4955482236
 30
0.0
 11
148.0030041039
 21
107.4957542093
 31
0.0
  0
LINE
  5
B8
330
1B
100
AcDbEntity
 67
     1
  8
HIDDEN
100
AcDbLine
 10
148.0030041039
 20
107.4957542093
 30
0.0
 11
146.9953938723
 21
107.4619130418
 31
0.0
  0
LINE
  5
B9
330
1B
100
AcDbEntity
 67
     1
  8
HIDDEN
100
AcDbLine
 10
146.9953938723
 20
107.4619130418
 30
0.0
 11
145.9867560863
 21
107.3959784806
 31
0.0
  0
LINE
  5
BA
330
1B
100
AcDbEntity
 67
     1
  8
HIDDEN
100
AcDbLine
 10
145.9867560863
 20
107.3959784806
 30
0.0
 11
144.9771564595
 21
107.3
 31
0.0
  0
LINE
  5
BB
330
1B
100
AcDbEntity
 67
     1
  8
THICK
100
AcDbLine
 10
153.4074772881
 20
107.3
 30
0.0
 11
152.0228435405
 21
107.3
 31
0.0
  0
LINE
  5
BC
330
1B
100
AcDbEntity
 67
     1
  8
THICK
100
AcDbLine
 10
154.0997941619
 20
107.3
 30
0.0
 11
153.4074772881
 21
107.3
 31
0.0
  0
LINE
  5
BD
330
1B
100
AcDbEntity
 67
     1
  8
THICK
100
AcDbLine
 10
143.5925227119
 20
107.3
 30
0.0
 11
142.9002058381
 21
107.3
 31
0.0
  0
LINE
  5
BE
330
1B
100
AcDbEntity
 67
     1
  8
THICK
100
AcDbLine
 10
144.9771564595
 20
107.3
 30
0.0
 11
143.5925227119
 21
107.3
 31
0.0
  0
LINE
  5
BF
330
1B
100
AcDbEntity
 67
     1
  8
THICK
100
AcDbLine
 10
139.3773622976
 20
107.3
 30
0.0
 11
138.6850454238
 21
107.3
 31
0.0
  0
LINE
  5
C0
330
1B
100
AcDbEntity
 67
     1
  8
THICK
100
AcDbLine
 10
143.5925227119
 20
114.5
 30
0.0
 11
138.6850454238
 21
114.5
 31
0.0
  0
LINE
  5
C1
330
1B
100
AcDbEntity
 67
     1
  8
THICK
100
AcDbLine
 10
153.4074772881
 20
114.5
 30
0.0
 11
143.5925227119
 21
114.5
 31
0.0
  0
LINE
  5
C2
330
1B
100
AcDbEntity
 67
     1
  8
THICK
100
AcDbLine
 10
158.3149545762
 20
114.5
 30
0.0
 11
153.4074772881
 21
114.5
 31
0.0
  0
LINE
  5
C3
330
1B
100
AcDbEntity
 67
     1
  8
THICK
100
AcDbLine
 10
158.3149545762
 20
107.3
 30
0.0
 11
157.6226377024
 21
107.3
 31
0.0
  0
LINE
  5
C4
330
1B
100
AcDbEntity
 67
     1
  8
THICK
100
AcDbLine
 10
143.5
 20
124.5
 30
0.0
 11
153.5
 21
124.5
 31
0.0
  0
LINE
  5
C5
330
1B
100
AcDbEntity
 67
     1
  8
THICK
100
AcDbLine
 10
143.5
 20
117.492820323
 30
0.0
 11
153.5
 21
117.492820323
 31
0.0
  0
LINE
  5
C6
330
1B
100
AcDbEntity
 67
     1
  8
THICK
100
AcDbLine
 10
144.5
 20
116.9154700538
 30
0.0
 11
152.5
 21
116.9154700538
 31
0.0
  0
LINE
  5
C7
330
1B
100
AcDbEntity
 67
     1
  8
HIDDEN
100
AcDbLine
 10
144.5
 20
114.7199764854
 30
0.0
 11
152.4999998689
 21
114.7199762377
 31
0.0
  0
LINE
  5
C8
330
1B
100
AcDbEntity
 67
     1
  8
HIDDEN
100
AcDbLine
 10
146.5429491924
 20
115.5
 30
0.0
 11
146.5429491924
 21
112.025388745
 31
0.0
  0
LINE
  5
C9
330
1B
100
AcDbEntity
 67
     1
  8
HIDDEN
100
AcDbLine
 10
146.9929491924
 20
112.025388745
 30
0.0
 11
146.9929491924
 21
115.5
 31
0.0
  0
LINE
  5
CA
330
1B
100
AcDbEntity
 67
     1
  8
HIDDEN
100
AcDbLine
 10
148.05
 20
115.5
 30
0.0
 11
148.05
 21
112.025388745
 31
0.0
  0
LINE
  5
CB
330
1B
100
AcDbEntity
 67
     1
  8
HIDDEN
100
AcDbLine
 10
148.95
 20
112.025388745
 30
0.0
 11
148.95
 21
115.5
 31
0.0
  0
LINE
  5
CC
330
1B
100
AcDbEntity
 67
     1
  8
HIDDEN
100
AcDbLine
 10
150.0070508076
 20
115.5
 30
0.0
 11
150.0070508076
 21
112.025388745
 31
0.0
  0
LINE
  5
CD
330
1B
100
AcDbEntity
 67
     1
  8
HIDDEN
100
AcDbLine
 10
150.4570508076
 20
112.025388745
 30
0.0
 11
150.4570508076
 21
115.5
 31
0.0
  0
LINE
  5
CE
330
1B
100
AcDbEntity
 67
     1
  8
HIDDEN
100
AcDbLine
 10
150.55
 20
115.5
 30
0.0
 11
150.4570508076
 21
115.5
 31
0.0
  0
LINE
  5
CF
330
1B
100
AcDbEntity
 67
     1
  8
HIDDEN
100
AcDbLine
 10
143.5925227119
 20
114.5
 30
0.0
 11
143.5925227119
 21
107.3
 31
0.0
  0
LINE
  5
D0
330
1B
100
AcDbEntity
 67
     1
  8
THICK
100
AcDbLine
 10
138.6850454238
 20
114.5
 30
0.0
 11
138.6850454238
 21
107.3
 31
0.0
  0
LINE
  5
D1
330
1B
100
AcDbEntity
 67
     1
  8
THICK
100
AcDbLine
 10
143.5925227119
 20
114.5
 30
0.0
 11
143.5925227119
 21
107.3
 31
0.0
  0
LINE
  5
D2
330
1B
100
AcDbEntity
 67
     1
  8
THICK
100
AcDbLine
 10
153.4074772881
 20
114.5
 30
0.0
 11
153.4074772881
 21
107.3
 31
0.0
  0
LINE
  5
D3
330
1B
100
AcDbEntity
 67
     1
  8
THICK
100
AcDbLine
 10
158.3149545762
 20
114.5
 30
0.0
 11
158.3149545762
 21
107.3
 31
0.0
  0
LINE
  5
D4
330
1B
100
AcDbEntity
 67
     1
  8
HIDDEN
100
AcDbLine
 10
153.4074772881
 20
114.5
 30
0.0
 11
153.4074772881
 21
107.3
 31
0.0
  0
LINE
  5
D5
330
1B
100
AcDbEntity
 67
     1
  8
HIDDEN
100
AcDbLine
 10
146.5429491924
 20
115.5
 30
0.0
 11
146.1905989232
 21
115.5
 31
0.0
  0
LINE
  5
D6
330
1B
100
AcDbEntity
 67
     1
  8
HIDDEN
100
AcDbLine
 10
146.1905989232
 20
115.5
 30
0.0
 11
146.1905989232
 21
112.025388745
 31
0.0
  0
LINE
  5
D7
330
1B
100
AcDbEntity
 67
     1
  8
HIDDEN
100
AcDbLine
 10
147.3452994616
 20
115.5
 30
0.0
 11
147.3452994616
 21
112.025388745
 31
0.0
  0
LINE
  5
D8
330
1B
100
AcDbEntity
 67
     1
  8
HIDDEN
100
AcDbLine
 10
149.6547005384
 20
115.5
 30
0.0
 11
149.6547005384
 21
112.025388745
 31
0.0
  0
LINE
  5
D9
330
1B
100
AcDbEntity
 67
     1
  8
HIDDEN
100
AcDbLine
 10
150.8094010768
 20
115.5
 30
0.0
 11
150.4570508076
 21
115.5
 31
0.0
  0
LINE
  5
DA
330
1B
100
AcDbEntity
 67
     1
  8
HIDDEN
100
AcDbLine
 10
150.8094010768
 20
115.5
 30
0.0
 11
150.8094010768
 21
112.025388745
 31
0.0
  0
LINE
  5
DB
330
1B
100
AcDbEntity
 67
     1
  8
HIDDEN
100
AcDbLine
 10
149.6547005384
 20
115.5
 30
0.0
 11
148.95
 21
115.5
 31
0.0
  0
LINE
  5
DC
330
1B
100
AcDbEntity
 67
     1
  8
HIDDEN
100
AcDbLine
 10
150.0070508076
 20
115.5
 30
0.0
 11
149.6547005384
 21
115.5
 31
0.0
  0
LINE
  5
DD
330
1B
100
AcDbEntity
 67
     1
  8
HIDDEN
100
AcDbLine
 10
149.6547005384
 20
115.5
 30
0.0
 11
149.6547005384
 21
112.025388745
 31
0.0
  0
LINE
  5
DE
330
1B
100
AcDbEntity
 67
     1
  8
HIDDEN
100
AcDbLine
 10
147.3452994616
 20
115.5
 30
0.0
 11
147.3452994616
 21
112.025388745
 31
0.0
  0
LINE
  5
DF
330
1B
100
AcDbEntity
 67
     1
  8
HIDDEN
100
AcDbLine
 10
153.2149994533
 20
115.08
 30
0.0
 11
143.7850003433
 21
115.08
 31
0.0
  0
LINE
  5
E0
330
1B
100
AcDbEntity
 67
     1
  8
THICK
100
AcDbLine
 10
153.2149994533
 20
115.08
 30
0.0
 11
143.7850003433
 21
115.08
 31
0.0
  0
CIRCLE
  5
E1
330
1B
100
AcDbEntity
 67
     1
  8
HIDDEN
100
AcDbCircle
 10
153.215
 20
114.19
 30
0.0
 40
0.8900000000000196
  0
ARC
  5
E2
330
1B
100
AcDbEntity
 67
     1
  8
THICK
100
AcDbCircle
 10
153.215
 20
114.19
 30
0.0
 40
0.8900000000002395
100
AcDbArc
 50
20.3842913647
 51
90.0000351937
  0
ARC
  5
E3
330
1B
100
AcDbEntity
 67
     1
  8
HIDDEN
100
AcDbCircle
 10
153.215
 20
114.19
 30
0.0
 40
0.8900000000002395
100
AcDbArc
 50
90.0000351937
 51
143.4532193361
  0
CIRCLE
  5
E4
330
1B
100
AcDbEntity
 67
     1
  8
HIDDEN
100
AcDbCircle
 10
143.7850000525
 20
114.19
 30
0.0
 40
0.8900000000000099
  0
ARC
  5
E5
330
1B
100
AcDbEntity
 67
     1
  8
THICK
100
AcDbCircle
 10
143.7850000525
 20
114.19
 30
0.0
 40
0.8899999999999912
100
AcDbArc
 50
89.999981276
 51
159.6157284831
  0
ARC
  5
E6
330
1B
100
AcDbEntity
 67
     1
  8
HIDDEN
100
AcDbCircle
 10
143.7850000525
 20
114.19
 30
0.0
 40
0.8899999999999945
100
AcDbArc
 50
36.5468005118
 51
89.999981276
  0
ARC
  5
E7
330
1B
100
AcDbEntity
 67
     1
  8
HIDDEN
100
AcDbCircle
 10
144.5663106439
 20
72.6247859495
 30
0.0
 40
22.0
100
AcDbArc
 50
99.8573607124
 51
139.5432980463
  0
ARC
  5
E8
330
1B
100
AcDbEntity
 67
     1
  8
HIDDEN
100
AcDbCircle
 10
152.4336893561
 20
72.6247859495
 30
0.0
 40
22.00000000000001
100
AcDbArc
 50
40.4567218015
 51
80.1426392876
  0
ARC
  5
E9
330
1B
100
AcDbEntity
 67
     1
  8
THICK
100
AcDbCircle
 10
147.9881799765
 20
71.6679117697
 30
0.0
 40
26.0
100
AcDbArc
 50
110.4470115193
 51
142.9036454886
  0
ARC
  5
EA
330
1B
100
AcDbEntity
 67
     1
  8
THICK
100
AcDbCircle
 10
149.0118200235
 20
71.6679117697
 30
0.0
 40
26.0
100
AcDbArc
 50
37.0963545114
 51
69.5530152122
  0
DIMENSION
  5
EB
330
1B
100
AcDbEntity
 67
     1
  8
THICK
100
AcDbDimension
  2
*D2
 10
150.55
 20
131.3901878874
 30
0.0
 11
156.9976986621
 21
131.3901878874
 31
0.0
 70
   160
  1
5
 71
     2
 42
-1.0
  3
SLDDIMSTYLE0
100
AcDbAlignedDimension
 13
146.45
 23
124.5
 33
0.0
 14
150.55
 24
124.5
 34
0.0
 50
0.0
100
AcDbRotatedDimension
  0
DIMENSION
  5
121
330
1B
100
AcDbEntity
 67
     1
  8
THICK
100
AcDbDimension
  2
*D3
 10
169.75
 20
78.1160461832
 30
0.0
 11
148.5
 21
78.1160461832
 31
0.0
 70
   160
  1
%%c43
 71
     2
 42
-1.0
  3
SLDDIMSTYLE1
100
AcDbAlignedDimension
 13
127.25
 23
86.9
 33
0.0
 14
169.75
 24
86.9
 34
0.0
100
AcDbRotatedDimension
  0
DIMENSION
  5
12D
330
1B
100
AcDbEntity
 67
     1
  8
THICK
100
AcDbDimension
  2
*D4
 10
175.3170989843
 20
86.9
 30
0.0
 11
175.3170989843
 21
100.9479028811
 31
0.0
 70
   160
 71
     2
 42
-1.0
  3
SLDDIMSTYLE2
100
AcDbAlignedDimension
 13
156.2
 23
93.8
 33
0.0
 14
169.75
 24
86.9
 34
0.0
 50
90.0
100
AcDbRotatedDimension
  0
DIMENSION
  5
13A
330
1B
100
AcDbEntity
 67
     1
  8
THICK
100
AcDbDimension
  2
*D5
 10
185.8539250697
 20
86.9
 30
0.0
 11
185.8539250697
 21
100.9479028811
 31
0.0
 70
   160
 71
     2
 42
-1.0
  3
SLDDIMSTYLE3
100
AcDbAlignedDimension
 13
158.3149545762
 23
114.5
 33
0.0
 14
169.75
 24
86.9
 34
0.0
 50
90.0
100
AcDbRotatedDimension
  0
DIMENSION
  5
145
330
1B
100
AcDbEntity
 67
     1
  8
THICK
100
AcDbDimension
  2
*D6
 10
166.618056414
 20
114.5
 30
0.0
 11
166.618056414
 21
119.5
 31
0.0
 70
   160
  1
7
 71
     2
 42
-1.0
  3
SLDDIMSTYLE0
100
AcDbAlignedDimension
 13
153.5
 23
124.5
 33
0.0
 14
158.3149545762
 24
114.5
 34
0.0
 50
90.0
100
AcDbRotatedDimension
  0
DIMENSION
  5
151
330
1B
100
AcDbEntity
 67
     1
  8
THICK
100
AcDbDimension
  2
*D7
 10
153.5
 20
140.9391262997
 30
0.0
 11
131.1060623212
 21
140.9391262997
 31
0.0
 70
   160
  1
PT1/8-M
 71
     2
 42
-1.0
  3
SLDDIMSTYLE0
100
AcDbAlignedDimension
 13
143.5
 23
124.5
 33
0.0
 14
153.5
 24
124.5
 34
0.0
 50
0.0
100
AcDbRotatedDimension
  0
INSERT
  5
167
330
1B
100
AcDbEntity
 67
     1
  8
THICK
100
AcDbBlockReference
  2
SW_NOTE_0
 10
130.4424363471
 20
124.242478861
 30
0.0
  0
LEADER
  5
169
330
1B
100
AcDbEntity
 67
     1
  8
THICK
100
AcDbLeader
  3
SLDDIMSTYLE4
 76
     2
 10
138.6850454238
 20
111.0881166622
 30
0.0
 10
130.4424363471
 20
124.242478861
 30
0.0
  0
ENDSEC
  0
SECTION
  2
OBJECTS
  0
DICTIONARY
  5
C
330
0
100
AcDbDictionary
281
     1
  3
ACAD_GROUP
350
D
  3
ACAD_LAYOUT
350
1A
  3
ACAD_MLINESTYLE
350
17
  3
ACAD_PLOTSETTINGS
350
19
  3
ACAD_PLOTSTYLENAME
350
E
  3
ACAD_SCALELIST
350
EC
  3
AcDbVariableDictionary
350
16A
  0
DICTIONARY
  5
D
102
{ACAD_REACTORS
330
C
102
}
330
C
100
AcDbDictionary
281
     1
  0
DICTIONARY
  5
1A
102
{ACAD_REACTORS
330
C
102
}
330
C
100
AcDbDictionary
281
     1
  3
Model
350
22
  3
SW_Model_1
350
1E
  0
DICTIONARY
  5
17
102
{ACAD_REACTORS
330
C
102
}
330
C
100
AcDbDictionary
281
     1
  3
Standard
350
18
  0
DICTIONARY
  5
19
102
{ACAD_REACTORS
330
C
102
}
330
C
100
AcDbDictionary
281
     1
  0
ACDBDICTIONARYWDFLT
  5
E
102
{ACAD_REACTORS
330
C
102
}
330
C
100
AcDbDictionary
281
     1
  3
Normal
350
F
100
AcDbDictionaryWithDefault
340
F
  0
DICTIONARY
  5
EC
102
{ACAD_REACTORS
330
C
102
}
330
C
100
AcDbDictionary
281
     1
  3
A0
350
ED
  3
A1
350
EE
  3
A2
350
EF
  3
A3
350
F0
  3
A4
350
F1
  3
A5
350
F2
  3
A6
350
F3
  3
A7
350
F4
  3
A8
350
F5
  3
A9
350
F6
  3
B0
350
F7
  3
B1
350
F8
  3
B2
350
F9
  3
B3
350
FA
  3
B4
350
FB
  3
B5
350
FC
  3
B6
350
FD
  3
B7
350
FE
  3
B8
350
FF
  3
B9
350
100
  3
C0
350
101
  3
C1
350
102
  3
C2
350
103
  3
C3
350
104
  3
C4
350
105
  3
C5
350
106
  3
C6
350
107
  3
C7
350
108
  3
C8
350
109
  3
C9
350
10A
  3
D0
350
10B
  3
D1
350
10C
  3
D2
350
10D
  0
DICTIONARY
  5
16A
102
{ACAD_REACTORS
330
C
102
}
330
C
100
AcDbDictionary
281
     1
  3
CANNOSCALE
350
16B
  0
LAYOUT
  5
22
102
{ACAD_REACTORS
330
1A
102
}
330
1A
100
AcDbPlotSettings
  1

  2
none_device
  4

  6

 40
0.0
 41
0.0
 42
0.0
 43
0.0
 44
0.0
 45
0.0
 46
0.0
 47
0.0
 48
0.0
 49
0.0
140
0.0
141
0.0
142
1.0
143
1.0
 70
  1712
 72
     0
 73
     0
 74
     0
  7

 75
     0
147
1.0
148
0.0
149
0.0
100
AcDbLayout
  1
Model
 70
     1
 71
     0
 10
0.0
 20
0.0
 11
297.0
 21
210.0
 12
0.0
 22
0.0
 32
0.0
 14
0.0
 24
0.0
 34
0.0
 15
297.0
 25
210.0
 35
0.0
146
0.0
 13
0.0
 23
0.0
 33
0.0
 16
1.0
 26
0.0
 36
0.0
 17
0.0
 27
1.0
 37
0.0
 76
     0
330
1F
331
29
  0
LAYOUT
  5
1E
102
{ACAD_REACTORS
330
1A
102
}
330
1A
100
AcDbPlotSettings
  1

  2
none_device
  4
ISO_A4_(297.00_x_210.00_MM)
  6

 40
7.5
 41
20.0
 42
7.5
 43
20.0
 44
297.0
 45
210.0
 46
0.0
 47
0.0
 48
0.0
 49
0.0
140
0.0
141
0.0
142
1.0
143
1.0
 70
  4832
 72
     0
 73
     0
 74
     1
  7

 75
     0
147
1.0
148
0.0
149
0.0
100
AcDbLayout
  1
SW_Model_1
 70
     1
 71
     1
 10
0.0
 20
0.0
 11
297.0
 21
210.0
 12
0.0
 22
0.0
 32
0.0
 14
0.0
 24
0.0
 34
0.0
 15
297.0
 25
210.0
 35
0.0
146
0.0
 13
0.0
 23
0.0
 33
0.0
 16
1.0
 26
0.0
 36
0.0
 17
0.0
 27
1.0
 37
0.0
 76
     0
330
1B
331
47
  0
MLINESTYLE
  5
18
102
{ACAD_REACTORS
330
17
102
}
330
17
100
AcDbMlineStyle
  2
Standard
 70
     0
  3

 62
   256
 51
90.0
 52
90.0
 71
     2
 49
0.5
 62
   256
  6
BYLAYER
 49
-0.5
 62
   256
  6
BYLAYER
  0
ACDBPLACEHOLDER
  5
F
102
{ACAD_REACTORS
330
E
102
}
330
E
  0
SCALE
  5
ED
102
{ACAD_REACTORS
330
EC
102
}
330
EC
100
AcDbScale
 70
     0
300
1:1
140
1.0
141
1.0
290
     1
  0
SCALE
  5
EE
102
{ACAD_REACTORS
330
EC
102
}
330
EC
100
AcDbScale
 70
     0
300
1:2
140
1.0
141
2.0
290
     0
  0
SCALE
  5
EF
102
{ACAD_REACTORS
330
EC
102
}
330
EC
100
AcDbScale
 70
     0
300
1:4
140
1.0
141
4.0
290
     0
  0
SCALE
  5
F0
102
{ACAD_REACTORS
330
EC
102
}
330
EC
100
AcDbScale
 70
     0
300
1:5
140
1.0
141
5.0
290
     0
  0
SCALE
  5
F1
102
{ACAD_REACTORS
330
EC
102
}
330
EC
100
AcDbScale
 70
     0
300
1:8
140
1.0
141
8.0
290
     0
  0
SCALE
  5
F2
102
{ACAD_REACTORS
330
EC
102
}
330
EC
100
AcDbScale
 70
     0
300
1:10
140
1.0
141
10.0
290
     0
  0
SCALE
  5
F3
102
{ACAD_REACTORS
330
EC
102
}
330
EC
100
AcDbScale
 70
     0
300
1:16
140
1.0
141
16.0
290
     0
  0
SCALE
  5
F4
102
{ACAD_REACTORS
330
EC
102
}
330
EC
100
AcDbScale
 70
     0
300
1:20
140
1.0
141
20.0
290
     0
  0
SCALE
  5
F5
102
{ACAD_REACTORS
330
EC
102
}
330
EC
100
AcDbScale
 70
     0
300
1:30
140
1.0
141
30.0
290
     0
  0
SCALE
  5
F6
102
{ACAD_REACTORS
330
EC
102
}
330
EC
100
AcDbScale
 70
     0
300
1:40
140
1.0
141
40.0
290
     0
  0
SCALE
  5
F7
102
{ACAD_REACTORS
330
EC
102
}
330
EC
100
AcDbScale
 70
     0
300
1:50
140
1.0
141
50.0
290
     0
  0
SCALE
  5
F8
102
{ACAD_REACTORS
330
EC
102
}
330
EC
100
AcDbScale
 70
     0
300
1:100
140
1.0
141
100.0
290
     0
  0
SCALE
  5
F9
102
{ACAD_REACTORS
330
EC
102
}
330
EC
100
AcDbScale
 70
     0
300
2:1
140
2.0
141
1.0
290
     0
  0
SCALE
  5
FA
102
{ACAD_REACTORS
330
EC
102
}
330
EC
100
AcDbScale
 70
     0
300
4:1
140
4.0
141
1.0
290
     0
  0
SCALE
  5
FB
102
{ACAD_REACTORS
330
EC
102
}
330
EC
100
AcDbScale
 70
     0
300
8:1
140
8.0
141
1.0
290
     0
  0
SCALE
  5
FC
102
{ACAD_REACTORS
330
EC
102
}
330
EC
100
AcDbScale
 70
     0
300
10:1
140
10.0
141
1.0
290
     0
  0
SCALE
  5
FD
102
{ACAD_REACTORS
330
EC
102
}
330
EC
100
AcDbScale
 70
     0
300
100:1
140
100.0
141
1.0
290
     0
  0
SCALE
  5
FE
102
{ACAD_REACTORS
330
EC
102
}
330
EC
100
AcDbScale
 70
     0
300
1/128" = 1'-0"
140
0.0078125
141
12.0
290
     0
  0
SCALE
  5
FF
102
{ACAD_REACTORS
330
EC
102
}
330
EC
100
AcDbScale
 70
     0
300
1/64" = 1'-0"
140
0.015625
141
12.0
290
     0
  0
SCALE
  5
100
102
{ACAD_REACTORS
330
EC
102
}
330
EC
100
AcDbScale
 70
     0
300
1/32" = 1'-0"
140
0.03125
141
12.0
290
     0
  0
SCALE
  5
101
102
{ACAD_REACTORS
330
EC
102
}
330
EC
100
AcDbScale
 70
     0
300
1/16" = 1'-0"
140
0.0625
141
12.0
290
     0
  0
SCALE
  5
102
102
{ACAD_REACTORS
330
EC
102
}
330
EC
100
AcDbScale
 70
     0
300
3/32" = 1'-0"
140
0.09375
141
12.0
290
     0
  0
SCALE
  5
103
102
{ACAD_REACTORS
330
EC
102
}
330
EC
100
AcDbScale
 70
     0
300
1/8" = 1'-0"
140
0.125
141
12.0
290
     0
  0
SCALE
  5
104
102
{ACAD_REACTORS
330
EC
102
}
330
EC
100
AcDbScale
 70
     0
300
3/16" = 1'-0"
140
0.1875
141
12.0
290
     0
  0
SCALE
  5
105
102
{ACAD_REACTORS
330
EC
102
}
330
EC
100
AcDbScale
 70
     0
300
1/4" = 1'-0"
140
0.25
141
12.0
290
     0
  0
SCALE
  5
106
102
{ACAD_REACTORS
330
EC
102
}
330
EC
100
AcDbScale
 70
     0
300
3/8" = 1'-0"
140
0.375
141
12.0
290
     0
  0
SCALE
  5
107
102
{ACAD_REACTORS
330
EC
102
}
330
EC
100
AcDbScale
 70
     0
300
1/2" = 1'-0"
140
0.5
141
12.0
290
     0
  0
SCALE
  5
108
102
{ACAD_REACTORS
330
EC
102
}
330
EC
100
AcDbScale
 70
     0
300
3/4" = 1'-0"
140
0.75
141
12.0
290
     0
  0
SCALE
  5
109
102
{ACAD_REACTORS
330
EC
102
}
330
EC
100
AcDbScale
 70
     0
300
1" = 1'-0"
140
1.0
141
12.0
290
     0
  0
SCALE
  5
10A
102
{ACAD_REACTORS
330
EC
102
}
330
EC
100
AcDbScale
 70
     0
300
1-1/2" = 1'-0"
140
1.5
141
12.0
290
     0
  0
SCALE
  5
10B
102
{ACAD_REACTORS
330
EC
102
}
330
EC
100
AcDbScale
 70
     0
300
3" = 1'-0"
140
3.0
141
12.0
290
     0
  0
SCALE
  5
10C
102
{ACAD_REACTORS
330
EC
102
}
330
EC
100
AcDbScale
 70
     0
300
6" = 1'-0"
140
6.0
141
12.0
290
     0
  0
SCALE
  5
10D
102
{ACAD_REACTORS
330
EC
102
}
330
EC
100
AcDbScale
 70
     0
300
1'-0" = 1'-0"
140
12.0
141
12.0
290
     0
  0
DICTIONARYVAR
  5
16B
102
{ACAD_REACTORS
330
16A
102
}
330
16A
100
DictionaryVariables
280
     0
  1
1:1
  0
ENDSEC
  0
EOF
