  0
SECTION
  2
HEADER
  9
$ACADVER
  1
AC1015
  9
$ACADMAINTVER
 70
     6
  9
$DWGCODEPAGE
  3
DOS932
  9
$INSBASE
 10
0.0
 20
0.0
 30
0.0
  9
$EXTMIN
 10
0.0
 20
0.0
 30
0.0
  9
$EXTMAX
 10
210.0
 20
297.0
 30
0.0
  9
$LIMMIN
 10
0.0
 20
0.0
  9
$LIMMAX
 10
210.0
 20
297.0
  9
$ORTHOMODE
 70
     0
  9
$REGENMODE
 70
     1
  9
$FILLMODE
 70
     1
  9
$QTEXTMODE
 70
     0
  9
$MIRRTEXT
 70
     1
  9
$LTSCALE
 40
1.0
  9
$ATTMODE
 70
     1
  9
$TEXTSIZE
 40
3.5
  9
$TRACEWID
 40
1.0
  9
$TEXTSTYLE
  7
Standard
  9
$CLAYER
  8
0
  9
$CELTYPE
  6
ByLayer
  9
$CECOLOR
 62
   256
  9
$CELTSCALE
 40
1.0
  9
$DISPSILH
 70
     0
  9
$DIMSCALE
 40
1.0
  9
$DIMASZ
 40
3.302
  9
$DIMEXO
 40
1.0
  9
$DIMDLI
 40
3.75
  9
$DIMRND
 40
0.0
  9
$DIMDLE
 40
0.0
  9
$DIMEXE
 40
1.0
  9
$DIMTP
 40
0.0
  9
$DIMTM
 40
0.0
  9
$DIMTXT
 40
3.5
  9
$DIMCEN
 40
2.5
  9
$DIMTSZ
 40
0.0
  9
$DIMTOL
 70
     0
  9
$DIMLIM
 70
     0
  9
$DIMTIH
 70
     1
  9
$DIMTOH
 70
     1
  9
$DIMSE1
 70
     0
  9
$DIMSE2
 70
     0
  9
$DIMTAD
 70
     1
  9
$DIMZIN
 70
     0
  9
$DIMBLK
  1

  9
$DIMASO
 70
     1
  9
$DIMSHO
 70
     1
  9
$DIMPOST
  1

  9
$DIMAPOST
  1

  9
$DIMALT
 70
     0
  9
$DIMALTD
 70
     3
  9
$DIMALTF
 40
0.0393700787
  9
$DIMLFAC
 40
1.0
  9
$DIMTOFL
 70
     1
  9
$DIMTVP
 40
0.0
  9
$DIMTIX
 70
     0
  9
$DIMSOXD
 70
     0
  9
$DIMSAH
 70
     0
  9
$DIMBLK1
  1

  9
$DIMBLK2
  1

  9
$DIMSTYLE
  2
ISO-25
  9
$DIMCLRD
 70
     0
  9
$DIMCLRE
 70
     0
  9
$DIMCLRT
 70
     0
  9
$DIMTFAC
 40
1.0
  9
$DIMGAP
 40
1.524
  9
$DIMJUST
 70
     0
  9
$DIMSD1
 70
     0
  9
$DIMSD2
 70
     0
  9
$DIMTOLJ
 70
     0
  9
$DIMTZIN
 70
     0
  9
$DIMALTZ
 70
     0
  9
$DIMALTTZ
 70
     0
  9
$DIMUPT
 70
     0
  9
$DIMDEC
 70
     2
  9
$DIMTDEC
 70
     2
  9
$DIMALTU
 70
     2
  9
$DIMALTTD
 70
     3
  9
$DIMTXSTY
  7
Standard
  9
$DIMAUNIT
 70
     0
  9
$DIMADEC
 70
     2
  9
$DIMALTRND
 40
0.0
  9
$DIMAZIN
 70
     0
  9
$DIMDSEP
 70
    44
  9
$DIMATFIT
 70
     3
  9
$DIMFRAC
 70
     0
  9
$DIMLDRBLK
  1

  9
$DIMLUNIT
 70
     2
  9
$DIMLWD
 70
    -2
  9
$DIMLWE
 70
    -2
  9
$DIMTMOVE
 70
     0
  9
$LUNITS
 70
     2
  9
$LUPREC
 70
     2
  9
$SKETCHINC
 40
1.0
  9
$FILLETRAD
 40
10.0
  9
$AUNITS
 70
     0
  9
$AUPREC
 70
     2
  9
$MENU
  1
.
  9
$ELEVATION
 40
0.0
  9
$PELEVATION
 40
0.0
  9
$THICKNESS
 40
0.0
  9
$LIMCHECK
 70
     0
  9
$CHAMFERA
 40
10.0
  9
$CHAMFERB
 40
10.0
  9
$CHAMFERC
 40
20.0
  9
$CHAMFERD
 40
0.0
  9
$SKPOLY
 70
     0
  9
$TDCREATE
 40
2456905.39620235
  9
$TDUCREATE
 40
2456905.02120235
  9
$TDUPDATE
 40
2456905.396204688
  9
$TDUUPDATE
 40
2456905.021204688
  9
$TDINDWG
 40
0.0000000116
  9
$TDUSRTIMER
 40
0.0000000116
  9
$USRTIMER
 70
     1
  9
$ANGBASE
 50
0.0
  9
$ANGDIR
 70
     0
  9
$PDMODE
 70
     0
  9
$PDSIZE
 40
-1.0
  9
$PLINEWID
 40
0.0
  9
$SPLFRAME
 70
     0
  9
$SPLINETYPE
 70
     6
  9
$SPLINESEGS
 70
     8
  9
$HANDSEED
  5
1FE
  9
$SURFTAB1
 70
     6
  9
$SURFTAB2
 70
     6
  9
$SURFTYPE
 70
     6
  9
$SURFU
 70
     6
  9
$SURFV
 70
     6
  9
$UCSBASE
  2

  9
$UCSNAME
  2

  9
$UCSORG
 10
0.0
 20
0.0
 30
0.0
  9
$UCSXDIR
 10
1.0
 20
0.0
 30
0.0
  9
$UCSYDIR
 10
0.0
 20
1.0
 30
0.0
  9
$UCSORTHOREF
  2

  9
$UCSORTHOVIEW
 70
     0
  9
$UCSORGTOP
 10
0.0
 20
0.0
 30
0.0
  9
$UCSORGBOTTOM
 10
0.0
 20
0.0
 30
0.0
  9
$UCSORGLEFT
 10
0.0
 20
0.0
 30
0.0
  9
$UCSORGRIGHT
 10
0.0
 20
0.0
 30
0.0
  9
$UCSORGFRONT
 10
0.0
 20
0.0
 30
0.0
  9
$UCSORGBACK
 10
0.0
 20
0.0
 30
0.0
  9
$PUCSBASE
  2

  9
$PUCSNAME
  2

  9
$PUCSORG
 10
0.0
 20
0.0
 30
0.0
  9
$PUCSXDIR
 10
1.0
 20
0.0
 30
0.0
  9
$PUCSYDIR
 10
0.0
 20
1.0
 30
0.0
  9
$PUCSORTHOREF
  2

  9
$PUCSORTHOVIEW
 70
     0
  9
$PUCSORGTOP
 10
0.0
 20
0.0
 30
0.0
  9
$PUCSORGBOTTOM
 10
0.0
 20
0.0
 30
0.0
  9
$PUCSORGLEFT
 10
0.0
 20
0.0
 30
0.0
  9
$PUCSORGRIGHT
 10
0.0
 20
0.0
 30
0.0
  9
$PUCSORGFRONT
 10
0.0
 20
0.0
 30
0.0
  9
$PUCSORGBACK
 10
0.0
 20
0.0
 30
0.0
  9
$USERI1
 70
     0
  9
$USERI2
 70
     0
  9
$USERI3
 70
     0
  9
$USERI4
 70
     0
  9
$USERI5
 70
     0
  9
$USERR1
 40
0.0
  9
$USERR2
 40
0.0
  9
$USERR3
 40
0.0
  9
$USERR4
 40
0.0
  9
$USERR5
 40
0.0
  9
$WORLDVIEW
 70
     1
  9
$SHADEDGE
 70
     3
  9
$SHADEDIF
 70
    70
  9
$TILEMODE
 70
     1
  9
$MAXACTVP
 70
    64
  9
$PINSBASE
 10
0.0
 20
0.0
 30
0.0
  9
$PLIMCHECK
 70
     0
  9
$PEXTMIN
 10
1.0000000000E+20
 20
1.0000000000E+20
 30
1.0000000000E+20
  9
$PEXTMAX
 10
-1.0000000000E+20
 20
-1.0000000000E+20
 30
-1.0000000000E+20
  9
$PLIMMIN
 10
0.0
 20
0.0
  9
$PLIMMAX
 10
420.0
 20
297.0
  9
$UNITMODE
 70
     0
  9
$VISRETAIN
 70
     1
  9
$PLINEGEN
 70
     0
  9
$PSLTSCALE
 70
     1
  9
$TREEDEPTH
 70
  3020
  9
$CMLSTYLE
  2
Standard
  9
$CMLJUST
 70
     0
  9
$CMLSCALE
 40
20.0
  9
$PROXYGRAPHICS
 70
     1
  9
$MEASUREMENT
 70
     1
  9
$CELWEIGHT
370
    -1
  9
$ENDCAPS
280
     0
  9
$JOINSTYLE
280
     0
  9
$LWDISPLAY
290
     1
  9
$INSUNITS
 70
     4
  9
$HYPERLINKBASE
  1

  9
$STYLESHEET
  1

  9
$XEDIT
290
     1
  9
$CEPSNTYPE
380
     0
  9
$PSTYLEMODE
290
     1
  9
$FINGERPRINTGUID
  2
{AB2CEA3A-CBE8-490D-8AC6-5A5618CA8D15}
  9
$VERSIONGUID
  2
{FAEB1C32-E019-11D5-929B-00C0DF256EC4}
  9
$EXTNAMES
290
     1
  9
$PSVPSCALE
 40
0.0
  9
$OLESTARTUP
290
     0
  0
ENDSEC
  0
SECTION
  2
CLASSES
  0
CLASS
  1
ACDBDICTIONARYWDFLT
  2
AcDbDictionaryWithDefault
  3
ObjectDBX Classes
 90
        0
280
     0
281
     0
  0
CLASS
  1
VISUALSTYLE
  2
AcDbVisualStyle
  3
ObjectDBX Classes
 90
     4095
280
     0
281
     0
  0
CLASS
  1
MATERIAL
  2
AcDbMaterial
  3
ObjectDBX Classes
 90
     1153
280
     0
281
     0
  0
CLASS
  1
ACDBPLACEHOLDER
  2
AcDbPlaceHolder
  3
ObjectDBX Classes
 90
        0
280
     0
281
     0
  0
CLASS
  1
LAYOUT
  2
AcDbLayout
  3
ObjectDBX Classes
 90
        0
280
     0
281
     0
  0
ENDSEC
  0
SECTION
  2
TABLES
  0
TABLE
  2
VPORT
  5
8
330
0
100
AcDbSymbolTable
 70
     1
  0
VPORT
  5
29
330
8
100
AcDbSymbolTableRecord
100
AcDbViewportTableRecord
  2
*Active
 70
     0
 10
0.0
 20
0.0
 11
1.0
 21
1.0
 12
105.0
 22
148.5
 13
0.0
 23
0.0
 14
10.0
 24
10.0
 15
10.0
 25
10.0
 16
0.0
 26
0.0
 36
1.0
 17
0.0
 27
0.0
 37
0.0
 40
297.0
 41
0.7070707071
 42
50.0
 43
0.0
 44
0.0
 50
0.0
 51
0.0
 71
     0
 72
  2000
 73
     1
 74
     3
 75
     0
 76
     0
 77
     0
 78
     0
281
     0
 65
     1
110
0.0
120
0.0
130
0.0
111
1.0
121
0.0
131
0.0
112
0.0
122
1.0
132
0.0
 79
     0
146
0.0
  0
ENDTAB
  0
TABLE
  2
LTYPE
  5
5
330
0
100
AcDbSymbolTable
 70
     6
  0
LTYPE
  5
14
330
5
100
AcDbSymbolTableRecord
100
AcDbLinetypeTableRecord
  2
ByBlock
 70
     0
  3

 72
    65
 73
     0
 40
0.0
  0
LTYPE
  5
15
330
5
100
AcDbSymbolTableRecord
100
AcDbLinetypeTableRecord
  2
ByLayer
 70
     0
  3

 72
    65
 73
     0
 40
0.0
  0
LTYPE
  5
16
330
5
100
AcDbSymbolTableRecord
100
AcDbLinetypeTableRecord
  2
Continuous
 70
     0
  3
Solid line
 72
    65
 73
     0
 40
0.0
  0
LTYPE
  5
3F
330
5
100
AcDbSymbolTableRecord
100
AcDbLinetypeTableRecord
  2
HIDDEN
 70
     0
  3
Hidden __ __ __ __ __ __ __ __ __ __ __ __ __ __
 72
    65
 73
     2
 40
1.905
 49
1.27
 74
     0
 49
-0.635
 74
     0
  0
LTYPE
  5
40
330
5
100
AcDbSymbolTableRecord
100
AcDbLinetypeTableRecord
  2
PHANTOM
 70
     0
  3
Phantom ______  __  __  ______  __  __  ______
 72
    65
 73
     6
 40
12.7
 49
6.35
 74
     0
 49
-1.27
 74
     0
 49
1.27
 74
     0
 49
-1.27
 74
     0
 49
1.27
 74
     0
 49
-1.27
 74
     0
  0
LTYPE
  5
41
330
5
100
AcDbSymbolTableRecord
100
AcDbLinetypeTableRecord
  2
CENTER
 70
     0
  3
Center ____ _ ____ _ ____ _ ____ _ ____ _ ____
 72
    65
 73
     4
 40
10.16
 49
6.35
 74
     0
 49
-1.27
 74
     0
 49
1.27
 74
     0
 49
-1.27
 74
     0
  0
LTYPE
  5
42
330
5
100
AcDbSymbolTableRecord
100
AcDbLinetypeTableRecord
  2
CENTERX2
 70
     0
  3
Center (2x) ________  __  ________  __  _____
 72
    65
 73
     4
 40
20.32
 49
12.7
 74
     0
 49
-2.54
 74
     0
 49
2.54
 74
     0
 49
-2.54
 74
     0
  0
LTYPE
  5
43
330
5
100
AcDbSymbolTableRecord
100
AcDbLinetypeTableRecord
  2
DOT2
 70
     0
  3
Dot (.5x) ........................................
 72
    65
 73
     2
 40
0.635
 49
0.0
 74
     0
 49
-0.635
 74
     0
  0
ENDTAB
  0
TABLE
  2
LAYER
  5
2
330
0
100
AcDbSymbolTable
 70
     1
  0
LAYER
  5
10
330
2
100
AcDbSymbolTableRecord
100
AcDbLayerTableRecord
  2
0
 70
     0
 62
     7
  6
Continuous
370
    -3
390
F
  0
ENDTAB
  0
TABLE
  2
STYLE
  5
3
330
0
100
AcDbSymbolTable
 70
     3
  0
STYLE
  5
11
330
3
100
AcDbSymbolTableRecord
100
AcDbTextStyleTableRecord
  2
Standard
 70
     0
 40
0.0
 41
1.0
 50
0.0
 71
     0
 42
3.5
  3
txt
  4
bigfont
  0
STYLE
  5
4C
330
3
100
AcDbSymbolTableRecord
100
AcDbTextStyleTableRecord
  2
SLDTEXTSTYLE0
 70
     0
 40
0.0
 41
0.7
 50
0.0
 71
     0
 42
0.2
  3
TXT
  4
bigfont
  0
STYLE
  5
11C
330
3
100
AcDbSymbolTableRecord
100
AcDbTextStyleTableRecord
  2
SLDTEXTSTYLE1
 70
     0
 40
0.0
 41
0.75
 50
0.0
 71
     0
 42
0.2
  3
TXT
  4
bigfont
  0
ENDTAB
  0
TABLE
  2
VIEW
  5
6
330
0
100
AcDbSymbolTable
 70
     0
  0
ENDTAB
  0
TABLE
  2
UCS
  5
7
330
0
100
AcDbSymbolTable
 70
     0
  0
ENDTAB
  0
TABLE
  2
APPID
  5
9
330
0
100
AcDbSymbolTable
 70
     1
  0
APPID
  5
12
330
9
100
AcDbSymbolTableRecord
100
AcDbRegAppTableRecord
  2
ACAD
 70
     0
  0
ENDTAB
  0
TABLE
  2
DIMSTYLE
  5
A
330
0
100
AcDbSymbolTable
 70
     6
100
AcDbDimStyleTable
  0
DIMSTYLE
105
27
330
A
100
AcDbSymbolTableRecord
100
AcDbDimStyleTableRecord
  2
ISO-25
 70
     0
 41
2.5
 42
0.625
 43
3.75
 44
1.25
 73
     0
 74
     0
 77
     1
 78
     8
140
2.5
141
2.5
143
0.0393700787
147
0.625
171
     3
172
     1
178
     0
271
     2
272
     2
274
     3
278
    44
283
     0
284
     8
340
11
  0
DIMSTYLE
105
11D
102
{ACAD_REACTORS
330
11B
330
128
330
13E
330
148
330
152
330
15C
102
}
330
A
100
AcDbSymbolTableRecord
100
AcDbDimStyleTableRecord
  2
SLDDIMSTYLE0
 70
     0
 41
3.302
 44
0.0
 45
0.000000001
 73
     0
 74
     0
 77
     3
 78
    12
 79
     3
140
3.5
147
0.875
173
     1
178
     0
271
     2
272
     2
276
     2
284
    12
340
11C
  0
DIMSTYLE
105
134
102
{ACAD_REACTORS
330
133
102
}
330
A
100
AcDbSymbolTableRecord
100
AcDbDimStyleTableRecord
  2
SLDDIMSTYLE1
 70
     0
 41
3.302
 44
0.0
 45
0.000000001
 73
     0
 74
     0
 77
     3
 78
    12
 79
     3
140
3.5
147
0.875
173
     1
178
     0
271
     1
272
     1
276
     2
284
    12
340
11C
  0
DIMSTYLE
105
168
102
{ACAD_REACTORS
330
167
330
174
102
}
330
A
100
AcDbSymbolTableRecord
100
AcDbDimStyleTableRecord
  2
SLDDIMSTYLE2
 70
     0
 41
3.302
 44
0.0
 45
0.000000001
 73
     0
 74
     0
 77
     3
 78
    12
 79
     3
140
3.5
147
0.875
172
     1
173
     1
178
     0
271
     2
272
     2
276
     2
284
    12
289
     0
340
11C
  0
DIMSTYLE
105
182
330
A
100
AcDbSymbolTableRecord
100
AcDbDimStyleTableRecord
  2
SLDDIMSTYLE3
 70
     0
 41
3.302
 44
0.0
 45
0.000000001
140
0.0
146
3.302
147
0.0
173
     1
178
     0
271
     0
272
     0
276
     2
340
11
  0
DIMSTYLE
105
1E4
102
{ACAD_REACTORS
330
1E3
102
}
330
A
100
AcDbSymbolTableRecord
100
AcDbDimStyleTableRecord
  2
SLDDIMSTYLE4
 70
     0
 41
3.302
 44
0.0
 45
0.000000001
 73
     0
 74
     0
 77
     3
 78
    12
 79
     3
140
3.5
147
0.875
173
     1
178
     0
271
     1
272
     2
276
     2
284
    12
340
11C
  0
ENDTAB
  0
TABLE
  2
BLOCK_RECORD
  5
1
330
0
100
AcDbSymbolTable
 70
    12
  0
BLOCK_RECORD
  5
1F
330
1
100
AcDbSymbolTableRecord
100
AcDbBlockTableRecord
  2
*Model_Space
340
22
  0
BLOCK_RECORD
  5
1B
330
1
100
AcDbSymbolTableRecord
100
AcDbBlockTableRecord
  2
*Paper_Space
340
1E
  0
BLOCK_RECORD
  5
23
330
1
100
AcDbSymbolTableRecord
100
AcDbBlockTableRecord
  2
*Paper_Space0
340
26
  0
BLOCK_RECORD
  5
11E
330
1
100
AcDbSymbolTableRecord
100
AcDbBlockTableRecord
  2
_D
340
0
  0
BLOCK_RECORD
  5
129
330
1
100
AcDbSymbolTableRecord
100
AcDbBlockTableRecord
  2
_D_1
340
0
  0
BLOCK_RECORD
  5
135
330
1
100
AcDbSymbolTableRecord
100
AcDbBlockTableRecord
  2
_D_2
340
0
  0
BLOCK_RECORD
  5
13F
330
1
100
AcDbSymbolTableRecord
100
AcDbBlockTableRecord
  2
_D_3
340
0
  0
BLOCK_RECORD
  5
149
330
1
100
AcDbSymbolTableRecord
100
AcDbBlockTableRecord
  2
_D_4
340
0
  0
BLOCK_RECORD
  5
153
330
1
100
AcDbSymbolTableRecord
100
AcDbBlockTableRecord
  2
_D_5
340
0
  0
BLOCK_RECORD
  5
15D
330
1
100
AcDbSymbolTableRecord
100
AcDbBlockTableRecord
  2
_D_6
340
0
  0
BLOCK_RECORD
  5
169
330
1
100
AcDbSymbolTableRecord
100
AcDbBlockTableRecord
  2
_D_7
340
0
  0
BLOCK_RECORD
  5
175
330
1
100
AcDbSymbolTableRecord
100
AcDbBlockTableRecord
  2
_D_8
340
0
  0
BLOCK_RECORD
  5
1E5
330
1
100
AcDbSymbolTableRecord
100
AcDbBlockTableRecord
  2
_D_9
340
0
  0
BLOCK_RECORD
  5
1F2
330
1
100
AcDbSymbolTableRecord
100
AcDbBlockTableRecord
  2
SW_CENTERMARKSYMBOL_0
340
0
102
{BLKREFS
331
1FD
102
}
  0
ENDTAB
  0
ENDSEC
  0
SECTION
  2
BLOCKS
  0
BLOCK
  5
20
330
1F
100
AcDbEntity
  8
0
100
AcDbBlockBegin
  2
*Model_Space
 70
     0
 10
0.0
 20
0.0
 30
0.0
  3
*Model_Space
  1

  0
ENDBLK
  5
21
330
1F
100
AcDbEntity
  8
0
100
AcDbBlockEnd
  0
BLOCK
  5
1C
330
1B
100
AcDbEntity
 67
     1
  8
0
100
AcDbBlockBegin
  2
*Paper_Space
 70
     0
 10
0.0
 20
0.0
 30
0.0
  3
*Paper_Space
  1

  0
ENDBLK
  5
1D
330
1B
100
AcDbEntity
 67
     1
  8
0
100
AcDbBlockEnd
  0
BLOCK
  5
24
330
23
100
AcDbEntity
  8
0
100
AcDbBlockBegin
  2
*Paper_Space0
 70
     0
 10
0.0
 20
0.0
 30
0.0
  3
*Paper_Space0
  1

  0
ENDBLK
  5
25
330
23
100
AcDbEntity
  8
0
100
AcDbBlockEnd
  0
BLOCK
  5
11F
330
11E
100
AcDbEntity
  8
0
100
AcDbBlockBegin
  2
_D
 70
     0
 10
0.0
 20
0.0
 30
0.0
  3
_D
  1

  0
SOLID
  5
121
330
11E
100
AcDbEntity
  8
0
  6
Continuous
 62
     7
370
     0
100
AcDbTrace
 10
100.3084525205
 20
234.0804689332
 30
0.0
 11
102.3084525205
 21
233.3304689332
 31
0.0
 12
102.3084525205
 22
234.8304689332
 32
0.0
 13
102.3084525205
 23
234.8304689332
 33
0.0
  0
SOLID
  5
122
330
11E
100
AcDbEntity
  8
0
  6
Continuous
 62
     7
370
     0
100
AcDbTrace
 10
114.3084525205
 20
234.0804689332
 30
0.0
 11
112.3084525205
 21
234.8304689332
 31
0.0
 12
112.3084525205
 22
233.3304689332
 32
0.0
 13
112.3084525205
 23
233.3304689332
 33
0.0
  0
LINE
  5
123
330
11E
100
AcDbEntity
  8
0
  6
Continuous
 62
     7
370
     0
100
AcDbLine
 10
100.3084525205
 20
187.2804689332
 30
0.0
 11
100.3084525205
 21
235.0804689332
 31
0.0
  0
LINE
  5
124
330
11E
100
AcDbEntity
  8
0
  6
Continuous
 62
     7
370
     0
100
AcDbLine
 10
114.3084525205
 20
187.2804689332
 30
0.0
 11
114.3084525205
 21
235.0804689332
 31
0.0
  0
LINE
  5
125
330
11E
100
AcDbEntity
  8
0
  6
Continuous
 62
     7
370
     0
100
AcDbLine
 10
100.3084525205
 20
234.0804689332
 30
0.0
 11
114.3084525205
 21
234.0804689332
 31
0.0
  0
MTEXT
  5
126
330
11E
100
AcDbEntity
  8
0
  6
Continuous
 62
     7
370
     0
100
AcDbMText
 10
101.0168420094
 20
238.5922060224
 30
-0.407333373
 40
3.5
 41
0.0
 71
     1
 72
     1
  1
%%c
  7
SLDTEXTSTYLE1
 73
     1
 44
1.0
  0
MTEXT
  5
127
330
11E
100
AcDbEntity
  8
0
  6
Continuous
 62
     7
370
     0
100
AcDbMText
 10
106.2952794078
 20
238.645678199
 30
-0.407333373
 40
3.5
 41
0.0
 71
     1
 72
     1
  1
14
  7
SLDTEXTSTYLE1
 73
     1
 44
1.0
  0
ENDBLK
  5
120
330
11E
100
AcDbEntity
  8
0
100
AcDbBlockEnd
  0
BLOCK
  5
12A
330
129
100
AcDbEntity
  8
0
100
AcDbBlockBegin
  2
_D_1
 70
     0
 10
0.0
 20
0.0
 30
0.0
  3
_D_1
  1

  0
SOLID
  5
12C
330
129
100
AcDbEntity
  8
0
  6
Continuous
 62
     7
370
     0
100
AcDbTrace
 10
101.3084525205
 20
220.0012886256
 30
0.0
 11
103.3084525205
 21
219.2512886256
 31
0.0
 12
103.3084525205
 22
220.7512886256
 32
0.0
 13
103.3084525205
 23
220.7512886256
 33
0.0
  0
SOLID
  5
12D
330
129
100
AcDbEntity
  8
0
  6
Continuous
 62
     7
370
     0
100
AcDbTrace
 10
113.3084525205
 20
220.0012886256
 30
0.0
 11
111.3084525205
 21
220.7512886256
 31
0.0
 12
111.3084525205
 22
219.2512886256
 32
0.0
 13
111.3084525205
 23
219.2512886256
 33
0.0
  0
LINE
  5
12E
330
129
100
AcDbEntity
  8
0
  6
Continuous
 62
     7
370
     0
100
AcDbLine
 10
101.3084525205
 20
201.7804689332
 30
0.0
 11
101.3084525205
 21
221.0012886256
 31
0.0
  0
LINE
  5
12F
330
129
100
AcDbEntity
  8
0
  6
Continuous
 62
     7
370
     0
100
AcDbLine
 10
113.3084525205
 20
201.7804689332
 30
0.0
 11
113.3084525205
 21
221.0012886256
 31
0.0
  0
LINE
  5
130
330
129
100
AcDbEntity
  8
0
  6
Continuous
 62
     7
370
     0
100
AcDbLine
 10
101.3084525205
 20
220.0012886256
 30
0.0
 11
113.3084525205
 21
220.0012886256
 31
0.0
  0
MTEXT
  5
131
330
129
100
AcDbEntity
  8
0
  6
Continuous
 62
     7
370
     0
100
AcDbMText
 10
101.1569750183
 20
224.5130257148
 30
-0.407333373
 40
3.5
 41
0.0
 71
     1
 72
     1
  1
%%c
  7
SLDTEXTSTYLE1
 73
     1
 44
1.0
  0
MTEXT
  5
132
330
129
100
AcDbEntity
  8
0
  6
Continuous
 62
     7
370
     0
100
AcDbMText
 10
106.4354124166
 20
224.5664978915
 30
-0.407333373
 40
3.5
 41
0.0
 71
     1
 72
     1
  1
12
  7
SLDTEXTSTYLE1
 73
     1
 44
1.0
  0
ENDBLK
  5
12B
330
129
100
AcDbEntity
  8
0
100
AcDbBlockEnd
  0
BLOCK
  5
136
330
135
100
AcDbEntity
  8
0
100
AcDbBlockBegin
  2
_D_2
 70
     0
 10
0.0
 20
0.0
 30
0.0
  3
_D_2
  1

  0
SOLID
  5
138
330
135
100
AcDbEntity
  8
0
  6
Continuous
 62
     7
370
     0
100
AcDbTrace
 10
126.6084525205
 20
212.0804689332
 30
0.0
 11
125.8584525205
 21
210.0804689332
 31
0.0
 12
127.3584525205
 22
210.0804689332
 32
0.0
 13
127.3584525205
 23
210.0804689332
 33
0.0
  0
SOLID
  5
139
330
135
100
AcDbEntity
  8
0
  6
Continuous
 62
     7
370
     0
100
AcDbTrace
 10
126.6084525205
 20
147.7804689332
 30
0.0
 11
127.3584525205
 21
149.7804689332
 31
0.0
 12
125.8584525205
 22
149.7804689332
 32
0.0
 13
125.8584525205
 23
149.7804689332
 33
0.0
  0
LINE
  5
13A
330
135
100
AcDbEntity
  8
0
  6
Continuous
 62
     7
370
     0
100
AcDbLine
 10
110.3084525205
 20
212.0804689332
 30
0.0
 11
127.6084525205
 21
212.0804689332
 31
0.0
  0
LINE
  5
13B
330
135
100
AcDbEntity
  8
0
  6
Continuous
 62
     7
370
     0
100
AcDbLine
 10
111.6084525205
 20
147.7804689332
 30
0.0
 11
127.6084525205
 21
147.7804689332
 31
0.0
  0
LINE
  5
13C
330
135
100
AcDbEntity
  8
0
  6
Continuous
 62
     7
370
     0
100
AcDbLine
 10
126.6084525205
 20
212.0804689332
 30
0.0
 11
126.6084525205
 21
147.7804689332
 31
0.0
  0
MTEXT
  5
13D
330
135
100
AcDbEntity
  8
0
  6
Continuous
 62
     7
370
     0
100
AcDbMText
 10
122.0967156059
 20
174.0168376717
 30
-0.407333373
 40
3.5
 41
0.0
 71
     1
 72
     1
  1
64.3
  7
SLDTEXTSTYLE1
 11
-7.044195017643634E-15
 21
1.0
 31
0.0
 73
     1
 44
1.0
  0
ENDBLK
  5
137
330
135
100
AcDbEntity
  8
0
100
AcDbBlockEnd
  0
BLOCK
  5
140
330
13F
100
AcDbEntity
  8
0
100
AcDbBlockBegin
  2
_D_3
 70
     0
 10
0.0
 20
0.0
 30
0.0
  3
_D_3
  1

  0
SOLID
  5
142
330
13F
100
AcDbEntity
  8
0
  6
Continuous
 62
     7
370
     0
100
AcDbTrace
 10
79.8366154859
 20
201.2804689332
 30
0.0
 11
79.0866154859
 21
199.2804689332
 31
0.0
 12
80.5866154859
 22
199.2804689332
 32
0.0
 13
80.5866154859
 23
199.2804689332
 33
0.0
  0
SOLID
  5
143
330
13F
100
AcDbEntity
  8
0
  6
Continuous
 62
     7
370
     0
100
AcDbTrace
 10
79.8366154859
 20
186.2804689332
 30
0.0
 11
80.5866154859
 21
188.2804689332
 31
0.0
 12
79.0866154859
 22
188.2804689332
 32
0.0
 13
79.0866154859
 23
188.2804689332
 33
0.0
  0
LINE
  5
144
330
13F
100
AcDbEntity
  8
0
  6
Continuous
 62
     7
370
     0
100
AcDbLine
 10
100.8084525205
 20
201.2804689332
 30
0.0
 11
78.8366154859
 21
201.2804689332
 31
0.0
  0
LINE
  5
145
330
13F
100
AcDbEntity
  8
0
  6
Continuous
 62
     7
370
     0
100
AcDbLine
 10
99.3084525205
 20
186.2804689332
 30
0.0
 11
78.8366154859
 21
186.2804689332
 31
0.0
  0
LINE
  5
146
330
13F
100
AcDbEntity
  8
0
  6
Continuous
 62
     7
370
     0
100
AcDbLine
 10
79.8366154859
 20
201.2804689332
 30
0.0
 11
79.8366154859
 21
186.2804689332
 31
0.0
  0
MTEXT
  5
147
330
13F
100
AcDbEntity
  8
0
  6
Continuous
 62
     7
370
     0
100
AcDbMText
 10
75.3248785713
 20
190.3732268037
 30
-0.407333373
 40
3.5
 41
0.0
 71
     1
 72
     1
  1
15
  7
SLDTEXTSTYLE1
 11
-7.044195017643634E-15
 21
1.0
 31
0.0
 73
     1
 44
1.0
  0
ENDBLK
  5
141
330
13F
100
AcDbEntity
  8
0
100
AcDbBlockEnd
  0
BLOCK
  5
14A
330
149
100
AcDbEntity
  8
0
100
AcDbBlockBegin
  2
_D_4
 70
     0
 10
0.0
 20
0.0
 30
0.0
  3
_D_4
  1

  0
SOLID
  5
14C
330
149
100
AcDbEntity
  8
0
  6
Continuous
 62
     7
370
     0
100
AcDbTrace
 10
79.8366154859
 20
183.2804689332
 30
0.0
 11
79.0866154859
 21
181.2804689332
 31
0.0
 12
80.5866154859
 22
181.2804689332
 32
0.0
 13
80.5866154859
 23
181.2804689332
 33
0.0
  0
SOLID
  5
14D
330
149
100
AcDbEntity
  8
0
  6
Continuous
 62
     7
370
     0
100
AcDbTrace
 10
79.8366154859
 20
170.2804689332
 30
0.0
 11
80.5866154859
 21
172.2804689332
 31
0.0
 12
79.0866154859
 22
172.2804689332
 32
0.0
 13
79.0866154859
 23
172.2804689332
 33
0.0
  0
LINE
  5
14E
330
149
100
AcDbEntity
  8
0
  6
Continuous
 62
     7
370
     0
100
AcDbLine
 10
100.3084525205
 20
183.2804689332
 30
0.0
 11
78.8366154859
 21
183.2804689332
 31
0.0
  0
LINE
  5
14F
330
149
100
AcDbEntity
  8
0
  6
Continuous
 62
     7
370
     0
100
AcDbLine
 10
100.3084525205
 20
170.2804689332
 30
0.0
 11
78.8366154859
 21
170.2804689332
 31
0.0
  0
LINE
  5
150
330
149
100
AcDbEntity
  8
0
  6
Continuous
 62
     7
370
     0
100
AcDbLine
 10
79.8366154859
 20
183.2804689332
 30
0.0
 11
79.8366154859
 21
170.2804689332
 31
0.0
  0
MTEXT
  5
151
330
149
100
AcDbEntity
  8
0
  6
Continuous
 62
     7
370
     0
100
AcDbMText
 10
75.3248785713
 20
173.2928910257
 30
-0.407333373
 40
3.5
 41
0.0
 71
     1
 72
     1
  1
13
  7
SLDTEXTSTYLE1
 11
-7.044195017643634E-15
 21
1.0
 31
0.0
 73
     1
 44
1.0
  0
ENDBLK
  5
14B
330
149
100
AcDbEntity
  8
0
100
AcDbBlockEnd
  0
BLOCK
  5
154
330
153
100
AcDbEntity
  8
0
100
AcDbBlockBegin
  2
_D_5
 70
     0
 10
0.0
 20
0.0
 30
0.0
  3
_D_5
  1

  0
SOLID
  5
156
330
153
100
AcDbEntity
  8
0
  6
Continuous
 62
     7
370
     0
100
AcDbTrace
 10
92.3639807012
 20
175.2804689332
 30
0.0
 11
91.6139807012
 21
173.2804689332
 31
0.0
 12
93.1139807012
 22
173.2804689332
 32
0.0
 13
93.1139807012
 23
173.2804689332
 33
0.0
  0
SOLID
  5
157
330
153
100
AcDbEntity
  8
0
  6
Continuous
 62
     7
370
     0
100
AcDbTrace
 10
92.3639807012
 20
170.2804689332
 30
0.0
 11
93.1139807012
 21
172.2804689332
 31
0.0
 12
91.6139807012
 22
172.2804689332
 32
0.0
 13
91.6139807012
 23
172.2804689332
 33
0.0
  0
LINE
  5
158
330
153
100
AcDbEntity
  8
0
  6
Continuous
 62
     7
370
     0
100
AcDbLine
 10
102.6084525205
 20
175.2804689332
 30
0.0
 11
91.3639807012
 21
175.2804689332
 31
0.0
  0
LINE
  5
159
330
153
100
AcDbEntity
  8
0
  6
Continuous
 62
     7
370
     0
100
AcDbLine
 10
100.3084525205
 20
170.2804689332
 30
0.0
 11
91.3639807012
 21
170.2804689332
 31
0.0
  0
LINE
  5
15A
330
153
100
AcDbEntity
  8
0
  6
Continuous
 62
     7
370
     0
100
AcDbLine
 10
92.3639807012
 20
175.2804689332
 30
0.0
 11
92.3639807012
 21
170.2804689332
 31
0.0
  0
MTEXT
  5
15B
330
153
100
AcDbEntity
  8
0
  6
Continuous
 62
     7
370
     0
100
AcDbMText
 10
87.8522437867
 20
171.6920092331
 30
-0.407333373
 40
3.5
 41
0.0
 71
     1
 72
     1
  1
5
  7
SLDTEXTSTYLE1
 11
-7.044195017643634E-15
 21
1.0
 31
0.0
 73
     1
 44
1.0
  0
ENDBLK
  5
155
330
153
100
AcDbEntity
  8
0
100
AcDbBlockEnd
  0
BLOCK
  5
15E
330
15D
100
AcDbEntity
  8
0
100
AcDbBlockBegin
  2
_D_6
 70
     0
 10
0.0
 20
0.0
 30
0.0
  3
_D_6
  1

  0
SOLID
  5
160
330
15D
100
AcDbEntity
  8
0
  6
Continuous
 62
     7
370
     0
100
AcDbTrace
 10
92.3639807012
 20
182.2804689332
 30
0.0
 11
91.6139807012
 21
180.2804689332
 31
0.0
 12
93.1139807012
 22
180.2804689332
 32
0.0
 13
93.1139807012
 23
180.2804689332
 33
0.0
  0
SOLID
  5
161
330
15D
100
AcDbEntity
  8
0
  6
Continuous
 62
     7
370
     0
100
AcDbTrace
 10
92.3639807012
 20
175.2804689332
 30
0.0
 11
93.1139807012
 21
177.2804689332
 31
0.0
 12
91.6139807012
 22
177.2804689332
 32
0.0
 13
91.6139807012
 23
177.2804689332
 33
0.0
  0
LINE
  5
162
330
15D
100
AcDbEntity
  8
0
  6
Continuous
 62
     7
370
     0
100
AcDbLine
 10
102.5084525205
 20
182.2804689332
 30
0.0
 11
91.3639807012
 21
182.2804689332
 31
0.0
  0
LINE
  5
163
330
15D
100
AcDbEntity
  8
0
  6
Continuous
 62
     7
370
     0
100
AcDbLine
 10
102.6084525205
 20
175.2804689332
 30
0.0
 11
91.3639807012
 21
175.2804689332
 31
0.0
  0
LINE
  5
164
330
15D
100
AcDbEntity
  8
0
  6
Continuous
 62
     7
370
     0
100
AcDbLine
 10
92.3639807012
 20
182.2804689332
 30
0.0
 11
92.3639807012
 21
175.2804689332
 31
0.0
  0
MTEXT
  5
165
330
15D
100
AcDbEntity
  8
0
  6
Continuous
 62
     7
370
     0
100
AcDbMText
 10
87.8522437867
 20
175.5529487863
 30
-0.407333373
 40
3.5
 41
0.0
 71
     1
 72
     1
  1
7
  7
SLDTEXTSTYLE1
 11
-7.044195017643634E-15
 21
1.0
 31
0.0
 73
     1
 44
1.0
  0
MTEXT
  5
166
330
15D
100
AcDbEntity
  8
0
  6
Continuous
 62
     7
370
     0
100
AcDbMText
 10
87.8522437867
 20
178.1390599798
 30
-0.407333373
 40
3.5
 41
0.0
 71
     1
 72
     1
  1
st
  7
SLDTEXTSTYLE1
 11
-7.044195017643634E-15
 21
1.0
 31
0.0
 73
     1
 44
1.0
  0
ENDBLK
  5
15F
330
15D
100
AcDbEntity
  8
0
100
AcDbBlockEnd
  0
BLOCK
  5
16A
330
169
100
AcDbEntity
  8
0
100
AcDbBlockBegin
  2
_D_7
 70
     0
 10
0.0
 20
0.0
 30
0.0
  3
_D_7
  1

  0
SOLID
  5
16C
330
169
100
AcDbEntity
  8
0
  6
Continuous
 62
     7
370
     0
100
AcDbTrace
 10
99.2198446332
 20
149.7804689332
 30
0.0
 11
99.9698446332
 21
151.7804689332
 31
0.0
 12
98.4698446332
 22
151.7804689332
 32
0.0
 13
98.4698446332
 23
151.7804689332
 33
0.0
  0
SOLID
  5
16D
330
169
100
AcDbEntity
  8
0
  6
Continuous
 62
     7
370
     0
100
AcDbTrace
 10
99.2198446332
 20
147.7804689332
 30
0.0
 11
98.4698446332
 21
145.7804689332
 31
0.0
 12
99.9698446332
 22
145.7804689332
 32
0.0
 13
99.9698446332
 23
145.7804689332
 33
0.0
  0
LINE
  5
16E
330
169
100
AcDbEntity
  8
0
  6
Continuous
 62
     7
370
     0
100
AcDbLine
 10
103.0084525205
 20
149.7804689332
 30
0.0
 11
98.2198446332
 21
149.7804689332
 31
0.0
  0
LINE
  5
16F
330
169
100
AcDbEntity
  8
0
  6
Continuous
 62
     7
370
     0
100
AcDbLine
 10
103.0084525205
 20
147.7804689332
 30
0.0
 11
98.2198446332
 21
147.7804689332
 31
0.0
  0
LINE
  5
170
330
169
100
AcDbEntity
  8
0
  6
Continuous
 62
     7
370
     0
100
AcDbLine
 10
99.2198446332
 20
149.7804689332
 30
0.0
 11
99.2198446332
 21
154.7804689332
 31
0.0
  0
LINE
  5
171
330
169
100
AcDbEntity
  8
0
  6
Continuous
 62
     7
370
     0
100
AcDbLine
 10
99.2198446332
 20
149.7804689332
 30
0.0
 11
99.2198446332
 21
147.7804689332
 31
0.0
  0
LINE
  5
172
330
169
100
AcDbEntity
  8
0
  6
Continuous
 62
     7
370
     0
100
AcDbLine
 10
99.2198446332
 20
147.7804689332
 30
0.0
 11
99.2198446332
 21
141.4674422243
 31
0.0
  0
MTEXT
  5
173
330
169
100
AcDbEntity
  8
0
  6
Continuous
 62
     7
370
     0
100
AcDbMText
 10
94.7081077186
 20
141.4674422243
 30
-0.407333373
 40
3.5
 41
0.0
 71
     1
 72
     1
  1
2
  7
SLDTEXTSTYLE1
 11
-7.044195017643634E-15
 21
1.0
 31
0.0
 73
     1
 44
1.0
  0
ENDBLK
  5
16B
330
169
100
AcDbEntity
  8
0
100
AcDbBlockEnd
  0
BLOCK
  5
176
330
175
100
AcDbEntity
  8
0
100
AcDbBlockBegin
  2
_D_8
 70
     0
 10
0.0
 20
0.0
 30
0.0
  3
_D_8
  1

  0
SOLID
  5
178
330
175
100
AcDbEntity
  8
0
  6
Continuous
 62
     7
370
     0
100
AcDbTrace
 10
103.8084525205
 20
134.7393760967
 30
0.0
 11
101.8084525205
 21
135.4893760967
 31
0.0
 12
101.8084525205
 22
133.9893760967
 32
0.0
 13
101.8084525205
 23
133.9893760967
 33
0.0
  0
SOLID
  5
179
330
175
100
AcDbEntity
  8
0
  6
Continuous
 62
     7
370
     0
100
AcDbTrace
 10
110.8084525205
 20
134.7393760967
 30
0.0
 11
112.8084525205
 21
133.9893760967
 31
0.0
 12
112.8084525205
 22
135.4893760967
 32
0.0
 13
112.8084525205
 23
135.4893760967
 33
0.0
  0
LINE
  5
17A
330
175
100
AcDbEntity
  8
0
  6
Continuous
 62
     7
370
     0
100
AcDbLine
 10
103.8084525205
 20
146.9804689332
 30
0.0
 11
103.8084525205
 21
133.7393760967
 31
0.0
  0
LINE
  5
17B
330
175
100
AcDbEntity
  8
0
  6
Continuous
 62
     7
370
     0
100
AcDbLine
 10
110.8084525205
 20
146.9804689332
 30
0.0
 11
110.8084525205
 21
133.7393760967
 31
0.0
  0
LINE
  5
17C
330
175
100
AcDbEntity
  8
0
  6
Continuous
 62
     7
370
     0
100
AcDbLine
 10
103.8084525205
 20
134.7393760967
 30
0.0
 11
98.8084525205
 21
134.7393760967
 31
0.0
  0
LINE
  5
17D
330
175
100
AcDbEntity
  8
0
  6
Continuous
 62
     7
370
     0
100
AcDbLine
 10
103.8084525205
 20
134.7393760967
 30
0.0
 11
110.8084525205
 21
134.7393760967
 31
0.0
  0
LINE
  5
17E
330
175
100
AcDbEntity
  8
0
  6
Continuous
 62
     7
370
     0
100
AcDbLine
 10
110.8084525205
 20
134.7393760967
 30
0.0
 11
121.7102059244
 21
134.7393760967
 31
0.0
  0
MTEXT
  5
17F
330
175
100
AcDbEntity
  8
0
  6
Continuous
 62
     7
370
     0
100
AcDbMText
 10
113.8456570996
 20
139.2511131859
 30
-0.407333373
 40
3.5
 41
0.0
 71
     1
 72
     1
  1
%%c
  7
SLDTEXTSTYLE1
 73
     1
 44
1.0
  0
MTEXT
  5
180
330
175
100
AcDbEntity
  8
0
  6
Continuous
 62
     7
370
     0
100
AcDbMText
 10
119.124094498
 20
139.3045853626
 30
-0.407333373
 40
3.5
 41
0.0
 71
     1
 72
     1
  1
7
  7
SLDTEXTSTYLE1
 73
     1
 44
1.0
  0
ENDBLK
  5
177
330
175
100
AcDbEntity
  8
0
100
AcDbBlockEnd
  0
BLOCK
  5
1E6
330
1E5
100
AcDbEntity
  8
0
100
AcDbBlockBegin
  2
_D_9
 70
     0
 10
0.0
 20
0.0
 30
0.0
  3
_D_9
  1

  0
SOLID
  5
1E8
330
1E5
100
AcDbEntity
  8
0
  6
Continuous
 62
     7
370
     0
100
AcDbTrace
 10
98.0084525205
 20
73.9026105608
 30
0.0
 11
100.0084525205
 21
73.1526105608
 31
0.0
 12
100.0084525205
 22
74.6526105608
 32
0.0
 13
100.0084525205
 23
74.6526105608
 33
0.0
  0
SOLID
  5
1E9
330
1E5
100
AcDbEntity
  8
0
  6
Continuous
 62
     7
370
     0
100
AcDbTrace
 10
116.6084525205
 20
73.9026105608
 30
0.0
 11
114.6084525205
 21
74.6526105608
 31
0.0
 12
114.6084525205
 22
73.1526105608
 32
0.0
 13
114.6084525205
 23
73.1526105608
 33
0.0
  0
LINE
  5
1EA
330
1E5
100
AcDbEntity
  8
0
  6
Continuous
 62
     7
370
     0
100
AcDbLine
 10
98.0084525205
 20
88.7215972101
 30
0.0
 11
98.0084525205
 21
72.9026105608
 31
0.0
  0
LINE
  5
1EB
330
1E5
100
AcDbEntity
  8
0
  6
Continuous
 62
     7
370
     0
100
AcDbLine
 10
116.6084525205
 20
88.7215972101
 30
0.0
 11
116.6084525205
 21
72.9026105608
 31
0.0
  0
LINE
  5
1EC
330
1E5
100
AcDbEntity
  8
0
  6
Continuous
 62
     7
370
     0
100
AcDbLine
 10
98.0084525205
 20
73.9026105608
 30
0.0
 11
116.6084525205
 21
73.9026105608
 31
0.0
  0
MTEXT
  5
1ED
330
1E5
100
AcDbEntity
  8
0
  6
Continuous
 62
     7
370
     0
100
AcDbMText
 10
102.7827579901
 20
78.4143474753
 30
34.0642039496
 40
3.5
 41
0.0
 71
     1
 72
     1
  1
18.6
  7
SLDTEXTSTYLE1
 73
     1
 44
1.0
  0
ENDBLK
  5
1E7
330
1E5
100
AcDbEntity
  8
0
100
AcDbBlockEnd
  0
BLOCK
  5
1F3
330
1F2
100
AcDbEntity
  8
0
100
AcDbBlockBegin
  2
SW_CENTERMARKSYMBOL_0
 70
     0
 10
0.0
 20
0.0
 30
0.0
  3
SW_CENTERMARKSYMBOL_0
  1

  0
LINE
  5
1F5
330
1F2
100
AcDbEntity
  8
0
  6
Continuous
 62
     0
370
     0
100
AcDbLine
 10
0.0
 20
0.0
 30
0.0
 11
0.0
 21
2.5
 31
0.0
  0
LINE
  5
1F6
330
1F2
100
AcDbEntity
  8
0
  6
Continuous
 62
     0
370
     0
100
AcDbLine
 10
0.0
 20
0.0
 30
0.0
 11
-2.5
 21
0.0
 31
0.0
  0
LINE
  5
1F7
330
1F2
100
AcDbEntity
  8
0
  6
Continuous
 62
     0
370
     0
100
AcDbLine
 10
0.0
 20
0.0
 30
0.0
 11
0.0
 21
-2.5
 31
0.0
  0
LINE
  5
1F8
330
1F2
100
AcDbEntity
  8
0
  6
Continuous
 62
     0
370
     0
100
AcDbLine
 10
0.0
 20
0.0
 30
0.0
 11
2.5
 21
0.0
 31
0.0
  0
LINE
  5
1F9
330
1F2
100
AcDbEntity
  8
0
  6
Continuous
 62
     0
370
     0
100
AcDbLine
 10
0.0
 20
5.0
 30
0.0
 11
0.0
 21
7.5
 31
0.0
  0
LINE
  5
1FA
330
1F2
100
AcDbEntity
  8
0
  6
Continuous
 62
     0
370
     0
100
AcDbLine
 10
-5.0
 20
0.0
 30
0.0
 11
-7.5
 21
0.0
 31
0.0
  0
LINE
  5
1FB
330
1F2
100
AcDbEntity
  8
0
  6
Continuous
 62
     0
370
     0
100
AcDbLine
 10
0.0
 20
-5.0
 30
0.0
 11
0.0
 21
-7.5
 31
0.0
  0
LINE
  5
1FC
330
1F2
100
AcDbEntity
  8
0
  6
Continuous
 62
     0
370
     0
100
AcDbLine
 10
5.0
 20
0.0
 30
0.0
 11
7.5
 21
0.0
 31
0.0
  0
ENDBLK
  5
1F4
330
1F2
100
AcDbEntity
  8
0
100
AcDbBlockEnd
  0
ENDSEC
  0
SECTION
  2
ENTITIES
  0
LINE
  5
44
330
1F
100
AcDbEntity
  8
0
  6
Continuous
 62
     7
370
     0
100
AcDbLine
 10
20.2604743903
 20
285.0
 30
0.0
 11
196.7604743903
 21
285.0
 31
0.0
  0
LINE
  5
45
330
1F
100
AcDbEntity
  8
0
  6
Continuous
 62
     7
370
     0
100
AcDbLine
 10
20.2604743903
 20
285.0
 30
0.0
 11
20.2604743903
 21
10.0
 31
0.0
  0
LINE
  5
46
330
1F
100
AcDbEntity
  8
0
  6
Continuous
 62
     7
370
     0
100
AcDbLine
 10
20.2604743903
 20
10.0
 30
0.0
 11
196.7604743903
 21
10.0
 31
0.0
  0
LINE
  5
47
330
1F
100
AcDbEntity
  8
0
  6
Continuous
 62
     7
370
     0
100
AcDbLine
 10
196.7604743903
 20
285.0
 30
0.0
 11
196.7604743903
 21
10.0
 31
0.0
  0
LINE
  5
48
330
1F
100
AcDbEntity
  8
0
  6
Continuous
 62
     7
370
     0
100
AcDbLine
 10
127.0104743903
 20
50.75
 30
0.0
 11
196.7604743903
 21
50.75
 31
0.0
  0
LINE
  5
49
330
1F
100
AcDbEntity
  8
0
  6
Continuous
 62
     7
370
     0
100
AcDbLine
 10
127.0104743903
 20
50.75
 30
0.0
 11
127.0104743903
 21
10.0
 31
0.0
  0
LINE
  5
4A
330
1F
100
AcDbEntity
  8
0
  6
Continuous
 62
     7
370
     0
100
AcDbLine
 10
127.0104743903
 20
22.75
 30
0.0
 11
196.7604743903
 21
22.75
 31
0.0
  0
LINE
  5
4B
330
1F
100
AcDbEntity
  8
0
  6
Continuous
 62
     7
370
     0
100
AcDbLine
 10
127.0104743903
 20
36.75
 30
0.0
 11
196.7604743903
 21
36.75
 31
0.0
  0
MTEXT
  5
4D
330
1F
100
AcDbEntity
  8
0
  6
Continuous
 62
     7
370
     0
100
AcDbMText
 10
161.1642357696
 20
30.4171582345
 30
0.0
 40
4.2333333333
 41
0.0
 71
     2
 72
     1
  1
VFILB2-SSH-P12
  7
SLDTEXTSTYLE0
 73
     1
 44
1.0
  0
MTEXT
  5
4E
330
1F
100
AcDbEntity
  8
0
  6
Continuous
 62
     7
370
     0
100
AcDbMText
 10
160.3078691532
 20
43.9409718514
 30
0.0
 40
4.2333333333
 41
0.0
 71
     2
 72
     1
  1
吸着金具・回止式・ミニ用
  7
SLDTEXTSTYLE0
 73
     1
 44
1.0
  0
MTEXT
  5
4F
330
1F
100
AcDbEntity
  8
0
  6
Continuous
 62
     7
370
     0
100
AcDbMText
 10
162.6373311304
 20
16.8228189052
 30
0.0
 40
4.2333333333
 41
0.0
 71
     2
 72
     1
  1
211042
  7
SLDTEXTSTYLE0
 73
     1
 44
1.0
  0
LINE
  5
50
330
1F
100
AcDbEntity
  8
0
  6
Continuous
 62
     7
370
    15
100
AcDbLine
 10
109.6584525205
 20
207.0804689332
 30
0.0
 11
109.3084525205
 21
209.5804689332
 31
0.0
  0
LINE
  5
51
330
1F
100
AcDbEntity
  8
0
  6
Continuous
 62
     7
370
    15
100
AcDbLine
 10
105.3084525205
 20
209.5804689332
 30
0.0
 11
104.9584525205
 21
207.0804689332
 31
0.0
  0
LINE
  5
52
330
1F
100
AcDbEntity
  8
0
  6
Continuous
 62
     7
370
    15
100
AcDbLine
 10
109.6584525205
 20
209.5804689332
 30
0.0
 11
109.3084525205
 21
212.0804689332
 31
0.0
  0
LINE
  5
53
330
1F
100
AcDbEntity
  8
0
  6
Continuous
 62
     7
370
    15
100
AcDbLine
 10
105.3084525205
 20
212.0804689332
 30
0.0
 11
104.9584525205
 21
209.5804689332
 31
0.0
  0
LINE
  5
54
330
1F
100
AcDbEntity
  8
0
  6
Continuous
 62
     7
370
    15
100
AcDbLine
 10
105.2084525205
 20
207.0804689332
 30
0.0
 11
105.2084525205
 21
204.5804689332
 31
0.0
  0
LINE
  5
55
330
1F
100
AcDbEntity
  8
0
  6
Continuous
 62
     7
370
    15
100
AcDbLine
 10
109.4084525205
 20
204.5804689332
 30
0.0
 11
109.4084525205
 21
207.0804689332
 31
0.0
  0
ARC
  5
56
330
1F
100
AcDbEntity
  8
0
  6
Continuous
 62
     7
370
    15
100
AcDbCircle
 10
104.0084525205
 20
147.9804689332
 30
0.0
 40
0.2000000000000171
100
AcDbArc
 50
180.0
 51
270.0
  0
ARC
  5
57
330
1F
100
AcDbEntity
  8
0
  6
Continuous
 62
     7
370
    15
100
AcDbCircle
 10
110.6084525205
 20
147.9804689332
 30
0.0
 40
0.2000000000000028
100
AcDbArc
 50
270.0
 51
0.0
  0
LINE
  5
58
330
1F
100
AcDbEntity
  8
0
  6
Continuous
 62
     7
370
    15
100
AcDbLine
 10
103.8084525205
 20
149.5804689332
 30
0.0
 11
103.8084525205
 21
147.9804689332
 31
0.0
  0
LINE
  5
59
330
1F
100
AcDbEntity
  8
0
  6
Continuous
 62
     7
370
    15
100
AcDbLine
 10
110.8084525205
 20
147.9804689332
 30
0.0
 11
110.8084525205
 21
149.5804689332
 31
0.0
  0
ARC
  5
5A
330
1F
100
AcDbEntity
  8
0
  6
Continuous
 62
     7
370
    15
100
AcDbCircle
 10
104.0084525205
 20
149.5804689332
 30
0.0
 40
0.2000000000000171
100
AcDbArc
 50
90.0
 51
180.0
  0
ARC
  5
5B
330
1F
100
AcDbEntity
  8
0
  6
Continuous
 62
     7
370
    15
100
AcDbCircle
 10
110.6084525205
 20
149.5804689332
 30
0.0
 40
0.2000000000000028
100
AcDbArc
 50
0.0
 51
90.0
  0
LINE
  5
5C
330
1F
100
AcDbEntity
  8
0
  6
Continuous
 62
     7
370
    15
100
AcDbLine
 10
111.3084525205
 20
153.2804689332
 30
0.0
 11
111.4745338851
 21
153.4465502978
 31
0.0
  0
LINE
  5
5D
330
1F
100
AcDbEntity
  8
0
  6
Continuous
 62
     7
370
    15
100
AcDbLine
 10
104.8084525205
 20
153.2804689332
 30
0.0
 11
104.8084525205
 21
149.7804689332
 31
0.0
  0
LINE
  5
5E
330
1F
100
AcDbEntity
  8
0
  6
Continuous
 62
     7
370
    15
100
AcDbLine
 10
109.8084525205
 20
149.7804689332
 30
0.0
 11
109.8084525205
 21
153.2804689332
 31
0.0
  0
LINE
  5
5F
330
1F
100
AcDbEntity
  8
0
  6
Continuous
 62
     7
370
    15
100
AcDbLine
 10
103.1423711559
 20
153.4465502978
 30
0.0
 11
103.3084525205
 21
153.2804689332
 31
0.0
  0
SPLINE
  5
60
330
1F
100
AcDbEntity
  8
0
  6
Continuous
 62
     7
370
    15
100
AcDbSpline
210
0.0
220
0.0
230
1.0
 70
     8
 71
     3
 72
    11
 73
     7
 74
     0
 42
0.00000001
 43
0.00000001
 12
1.0
 22
0.0
 32
0.0
 13
1.0
 23
0.0
 33
0.0
 40
0.0
 40
0.0
 40
0.0
 40
0.0
 40
0.1585586721578055
 40
0.4148509127403996
 40
0.6952615836491236
 40
0.9999999999999999
 40
0.9999999999999999
 40
0.9999999999999999
 40
0.9999999999999999
 10
103.3084525205158
 20
170.6889293626997
 30
0.0
 10
103.262603522212
 20
170.6870103801436
 30
0.0
 10
103.1426447805316
 20
170.681989578354
 30
0.0
 10
103.0108324250654
 20
170.6733731677716
 30
0.0
 10
102.8923994411595
 20
170.6628106618045
 30
0.0
 10
102.8732753368754
 20
170.6552815733107
 30
0.0
 10
102.8633157396026
 20
170.6513605170292
 30
0.0
  0
SPLINE
  5
61
330
1F
100
AcDbEntity
  8
0
  6
Continuous
 62
     7
370
    15
100
AcDbSpline
210
0.0
220
0.0
230
1.0
 70
     8
 71
     3
 72
    15
 73
    11
 74
     0
 42
0.00000001
 43
0.00000001
 12
1.0
 22
0.0
 32
0.0
 13
1.0
 23
0.0
 33
0.0
 40
0.0
 40
0.0
 40
0.0
 40
0.0
 40
0.0959932632554467
 40
0.2006516192543125
 40
0.3060712211977984
 40
0.4377225263847565
 40
0.5564945250991927
 40
0.6922771614597523
 40
0.8448742759799974
 40
1.0
 40
1.0
 40
1.0
 40
1.0
 10
104.6786266021777
 20
170.5815140988367
 30
0.0
 10
104.5771065967466
 20
170.5838353637403
 30
0.0
 10
104.364902606741
 20
170.5886874288313
 30
0.0
 10
104.075226619741
 20
170.5960749540375
 30
0.0
 10
103.7829961977919
 20
170.6043292806845
 30
0.0
 10
103.5236062498192
 20
170.6128104868665
 30
0.0
 10
103.2933679891642
 20
170.6218297099808
 30
0.0
 10
103.1103007015394
 20
170.6310743256566
 30
0.0
 10
102.9773538469309
 20
170.6408205568307
 30
0.0
 10
102.96447857181
 20
170.6471446292607
 30
0.0
 10
102.9579880351161
 20
170.6503326484506
 30
0.0
  0
SPLINE
  5
62
330
1F
100
AcDbEntity
  8
0
  6
Continuous
 62
     7
370
    15
100
AcDbSpline
210
0.0
220
0.0
230
1.0
 70
     8
 71
     3
 72
    15
 73
    11
 74
     0
 42
0.00000001
 43
0.00000001
 12
1.0
 22
0.0
 32
0.0
 13
1.0
 23
0.0
 33
0.0
 40
0.0
 40
0.0
 40
0.0
 40
0.0
 40
0.1536858762842242
 40
0.2885223076253451
 40
0.4958476656035433
 40
0.6264571193721109
 40
0.6965769333553756
 40
0.7834423827164776
 40
0.9304323702304802
 40
1.0
 40
1.0
 40
1.0
 40
1.0
 10
102.920192418243
 20
170.6611710144849
 30
0.0
 10
102.8918742197194
 20
170.6582335538158
 30
0.0
 10
102.8387110261757
 20
170.6527189095864
 30
0.0
 10
102.7577121422901
 20
170.6118654809518
 30
0.0
 10
102.6989788442333
 20
170.5500509863661
 30
0.0
 10
102.6701278689991
 20
170.4891051686142
 30
0.0
 10
102.6577711709961
 20
170.4281395309307
 30
0.0
 10
102.6589152827877
 20
170.375396855795
 30
0.0
 10
102.6654910520763
 20
170.3234371565192
 30
0.0
 10
102.6906788157073
 20
170.2923393365446
 30
0.0
 10
102.6987702097528
 20
170.2823493779655
 30
0.0
  0
SPLINE
  5
63
330
1F
100
AcDbEntity
  8
0
  6
Continuous
 62
     7
370
    15
100
AcDbSpline
210
0.0
220
0.0
230
1.0
 70
     8
 71
     3
 72
    15
 73
    11
 74
     0
 42
0.00000001
 43
0.00000001
 12
1.0
 22
0.0
 32
0.0
 13
1.0
 23
0.0
 33
0.0
 40
0.0
 40
0.0
 40
0.0
 40
0.0
 40
0.1417999216632449
 40
0.3000849298345132
 40
0.4415734854896677
 40
0.6254272079591643
 40
0.7825653994275704
 40
0.8506939400977475
 40
0.9272749371520742
 40
1.0
 40
1.0
 40
1.0
 40
1.0
 10
104.4987764552344
 20
171.2986357998896
 30
0.0
 10
104.3928140070739
 20
171.3111878356791
 30
0.0
 10
104.1685703442542
 20
171.337751156272
 30
0.0
 10
103.8843760438422
 20
171.375206968019
 30
0.0
 10
103.6105116509485
 20
171.414155803034
 30
0.0
 10
103.3855503418235
 20
171.4502535809708
 30
0.0
 10
103.2442179029341
 20
171.481413479198
 30
0.0
 10
103.1598709548023
 20
171.5051969993063
 30
0.0
 10
103.1266808529459
 20
171.5169220389748
 30
0.0
 10
103.1243479127647
 20
171.5139172264763
 30
0.0
 10
103.1232115675861
 20
171.5124536209271
 30
0.0
  0
SPLINE
  5
64
330
1F
100
AcDbEntity
  8
0
  6
Continuous
 62
     7
370
    15
100
AcDbSpline
210
0.0
220
0.0
230
1.0
 70
     8
 71
     3
 72
    25
 73
    21
 74
     0
 42
0.00000001
 43
0.00000001
 12
1.0
 22
0.0
 32
0.0
 13
1.0
 23
0.0
 33
0.0
 40
0.0
 40
0.0
 40
0.0
 40
0.0
 40
0.0007361053147035
 40
0.0838044849174834
 40
0.1590226013896511
 40
0.2251603527176923
 40
0.2598771147004327
 40
0.2849878822121958
 40
0.3006109790014834
 40
0.31428292020592
 40
0.3354416803621079
 40
0.349934439314674
 40
0.3741653795220953
 40
0.4345958853205453
 40
0.5473728479616263
 40
0.6489565982626794
 40
0.7414759519813381
 40
0.8325284522555099
 40
0.922458867360881
 40
1.0
 40
1.0
 40
1.0
 40
1.0
 10
111.3084525205158
 20
172.161378374595
 30
0.0
 10
111.3093284631288
 20
172.1615212626428
 30
0.0
 10
111.4090532145069
 20
172.1777888523637
 30
0.0
 10
111.5539342079432
 20
172.2153265362178
 30
0.0
 10
111.7378159146818
 20
172.2798052292537
 30
0.0
 10
111.8441617943001
 20
172.3459661620288
 30
0.0
 10
111.9026835957173
 20
172.4084341826026
 30
0.0
 10
111.9303386093714
 20
172.4535452930522
 30
0.0
 10
111.9497831533413
 20
172.5041434979645
 30
0.0
 10
111.9604152658075
 20
172.5680289005113
 30
0.0
 10
111.9586872794319
 20
172.6212817843856
 30
0.0
 10
111.9340560619268
 20
172.7031654238677
 30
0.0
 10
111.9041300542787
 20
172.7497698688964
 30
0.0
 10
111.8263501190961
 20
172.832738257932
 30
0.0
 10
111.6208165642949
 20
172.9310656891973
 30
0.0
 10
111.3043903305105
 20
173.0050670133783
 30
0.0
 10
110.9658503243858
 20
173.0561449087419
 30
0.0
 10
110.574518153651
 20
173.109281843751
 30
0.0
 10
110.1518004348941
 20
173.1608609436254
 30
0.0
 10
109.8400820526691
 20
173.1949333033134
 30
0.0
 10
109.6957530800901
 20
173.2107091732894
 30
0.0
  0
SPLINE
  5
65
330
1F
100
AcDbEntity
  8
0
  6
Continuous
 62
     7
370
    15
100
AcDbSpline
210
0.0
220
0.0
230
1.0
 70
     8
 71
     3
 72
    14
 73
    10
 74
     0
 42
0.00000001
 43
0.00000001
 12
1.0
 22
0.0
 32
0.0
 13
1.0
 23
0.0
 33
0.0
 40
0.0
 40
0.0
 40
0.0
 40
0.0
 40
0.160713860308006
 40
0.3289845695389132
 40
0.4765535067713749
 40
0.6665076818471569
 40
0.8225833858534302
 40
0.9420099720904331
 40
1.0
 40
1.0
 40
1.0
 40
1.0
 10
104.451360294317
 20
173.7040075731715
 30
0.0
 10
104.3331357899663
 20
173.7181875067359
 30
0.0
 10
104.0911278038583
 20
173.7472141216829
 30
0.0
 10
103.795700871166
 20
173.7871686895899
 30
0.0
 10
103.5272243239575
 20
173.8257312155318
 30
0.0
 10
103.3197335309586
 20
173.8624944440452
 30
0.0
 10
103.1880054410939
 20
173.8929471135731
 30
0.0
 10
103.1205678657219
 20
173.9177720124217
 30
0.0
 10
103.1175042943871
 20
173.9153686488609
 30
0.0
 10
103.1165029417908
 20
173.9145830904134
 30
0.0
  0
SPLINE
  5
66
330
1F
100
AcDbEntity
  8
0
  6
Continuous
 62
     7
370
    15
100
AcDbSpline
210
0.0
220
0.0
230
1.0
 70
     8
 71
     3
 72
    41
 73
    37
 74
     0
 42
0.00000001
 43
0.00000001
 12
1.0
 22
0.0
 32
0.0
 13
1.0
 23
0.0
 33
0.0
 40
0.0
 40
0.0
 40
0.0
 40
0.0
 40
0.0255060034259592
 40
0.0657346798919261
 40
0.1031904336489892
 40
0.1158172699066593
 40
0.128553984143201
 40
0.1375638667776105
 40
0.1503456563817074
 40
0.1598403284194707
 40
0.164949276216707
 40
0.1735105875759314
 40
0.1860596437045915
 40
0.212204666563228
 40
0.2461452557584956
 40
0.2841408942959023
 40
0.3257920568346782
 40
0.37307991225485
 40
0.425972188699096
 40
0.460841218087761
 40
0.4922119241508157
 40
0.5199570477972754
 40
0.5547361659021913
 40
0.5815225879562226
 40
0.6018049662842022
 40
0.6261503042384371
 40
0.6573089304017898
 40
0.695468553874288
 40
0.740579203728834
 40
0.7878179079871447
 40
0.8319215447490205
 40
0.8724735939307894
 40
0.9094801244146756
 40
0.944589094901124
 40
0.9761110999532884
 40
1.0
 40
1.0
 40
1.0
 40
1.0
 10
111.3084525205158
 20
174.5650968228574
 30
0.0
 10
111.3725796783954
 20
174.5770254686369
 30
0.0
 10
111.5378497179696
 20
174.6077682588248
 30
0.0
 10
111.7159051102802
 20
174.6706844568401
 30
0.0
 10
111.8264577509969
 20
174.7211371462899
 30
0.0
 10
111.9148988422031
 20
174.821763323206
 30
0.0
 10
111.9472707047052
 20
174.8914107702433
 30
0.0
 10
111.9619631835493
 20
174.9684093857819
 30
0.0
 10
111.954262435393
 20
175.0567330018682
 30
0.0
 10
111.917628542383
 20
175.1314902071389
 30
0.0
 10
111.8867016774817
 20
175.1726125006798
 30
0.0
 10
111.8612611350486
 20
175.198956178428
 30
0.0
 10
111.8092347639598
 20
175.2409073284051
 30
0.0
 10
111.7139423190725
 20
175.2910055370147
 30
0.0
 10
111.540539617243
 20
175.3496184879943
 30
0.0
 10
111.2799385176455
 20
175.40718141275
 30
0.0
 10
110.9178651124662
 20
175.4631028898432
 30
0.0
 10
110.4319423733821
 20
175.5278451028793
 30
0.0
 10
109.890232942797
 20
175.5906010783361
 30
0.0
 10
109.3617797914932
 20
175.6464561463566
 30
0.0
 10
108.9193652791094
 20
175.6902702061957
 30
0.0
 10
108.4599391238248
 20
175.7333246001576
 30
0.0
 10
108.0095222279495
 20
175.7730980617598
 30
0.0
 10
107.5904085420991
 20
175.808174690358
 30
0.0
 10
107.223148173817
 20
175.8370971257756
 30
0.0
 10
106.8340368271838
 20
175.8686430744287
 30
0.0
 10
106.3582165927407
 20
175.9095428721719
 30
0.0
 10
105.7923795513984
 20
175.9614306296832
 30
0.0
 10
105.1805271944832
 20
176.0222306769139
 30
0.0
 10
104.5972644538076
 20
176.0859146012424
 30
0.0
 10
104.1054779307487
 20
176.1453089794385
 30
0.0
 10
103.7253554676095
 20
176.1966162634352
 30
0.0
 10
103.444541193948
 20
176.2380581687831
 30
0.0
 10
103.2531111752273
 20
176.2752035823195
 30
0.0
 10
103.1388794415456
 20
176.3091211847739
 30
0.0
 10
103.1232950503391
 20
176.3112896661505
 30
0.0
 10
103.1165762652343
 20
176.3122245477369
 30
0.0
  0
SPLINE
  5
67
330
1F
100
AcDbEntity
  8
0
  6
Continuous
 62
     7
370
    15
100
AcDbSpline
210
0.0
220
0.0
230
1.0
 70
     8
 71
     3
 72
     9
 73
     5
 74
     0
 42
0.00000001
 43
0.00000001
 12
1.0
 22
0.0
 32
0.0
 13
1.0
 23
0.0
 33
0.0
 40
0.0
 40
0.0
 40
0.0
 40
0.0
 40
0.5089520334777745
 40
1.0
 40
1.0
 40
1.0
 40
1.0
 10
103.8530812380934
 20
176.1801625672472
 30
0.0
 10
103.9207417651553
 20
176.1897360169842
 30
0.0
 10
104.0536826370083
 20
176.2085461387782
 30
0.0
 10
104.2245489600426
 20
176.229001972427
 30
0.0
 10
104.3084525205158
 20
176.2390467679437
 30
0.0
  0
SPLINE
  5
68
330
1F
100
AcDbEntity
  8
0
  6
Continuous
 62
     7
370
    15
100
AcDbSpline
210
0.0
220
0.0
230
1.0
 70
     8
 71
     3
 72
    46
 73
    42
 74
     0
 42
0.00000001
 43
0.00000001
 12
1.0
 22
0.0
 32
0.0
 13
1.0
 23
0.0
 33
0.0
 40
0.0
 40
0.0
 40
0.0
 40
0.0
 40
0.0081005792463203
 40
0.0371884431235242
 40
0.0631813862114916
 40
0.0861844850676983
 40
0.1069251035213097
 40
0.1254393695608848
 40
0.1417651855901237
 40
0.1614018381342997
 40
0.1872766085245659
 40
0.2087343090532904
 40
0.2182134589897173
 40
0.2260929020796188
 40
0.2366013962953386
 40
0.2463955157296538
 40
0.2643137822140616
 40
0.2815091909009059
 40
0.303574236243272
 40
0.3307562626325258
 40
0.3625925854662147
 40
0.3997098029087616
 40
0.4419181434404591
 40
0.481926434289276
 40
0.5182728313243243
 40
0.5506166416939688
 40
0.5788170698085184
 40
0.6047293326041379
 40
0.6314277420243424
 40
0.6593320258632411
 40
0.689321503995158
 40
0.7213887052603517
 40
0.7554688438477181
 40
0.7912886739128787
 40
0.8284751634463997
 40
0.8665693324511052
 40
0.9036585063922479
 40
0.9370740738041555
 40
0.9674684162586679
 40
0.9944061453019829
 40
1.0
 40
1.0
 40
1.0
 40
1.0
 10
110.3084525205158
 20
176.8199626374556
 30
0.0
 10
110.3437290197637
 20
176.824098131314
 30
0.0
 10
110.5056776960232
 20
176.8430835116756
 30
0.0
 10
110.744345963319
 20
176.8743487206306
 30
0.0
 10
111.0142814103233
 20
176.9121900888392
 30
0.0
 10
111.2240729930196
 20
176.944453902054
 30
0.0
 10
111.3867847487452
 20
176.9747012629745
 30
0.0
 10
111.5138241013595
 20
177.0039854945404
 30
0.0
 10
111.6149045320695
 20
177.0317498522361
 30
0.0
 10
111.7472674214643
 20
177.080152370588
 30
0.0
 10
111.8649867399423
 20
177.1576315345024
 30
0.0
 10
111.9337599387889
 20
177.2461350056269
 30
0.0
 10
111.9602956999159
 20
177.3489163889206
 30
0.0
 10
111.9572084174726
 20
177.4308074189577
 30
0.0
 10
111.9379077722857
 20
177.4927939634723
 30
0.0
 10
111.8899126472081
 20
177.5753827005898
 30
0.0
 10
111.8063931752099
 20
177.6459795260832
 30
0.0
 10
111.7233042854596
 20
177.6875668868954
 30
0.0
 10
111.604995793204
 20
177.732101699908
 30
0.0
 10
111.4291123342736
 20
177.7777405281814
 30
0.0
 10
111.1706010364465
 20
177.8258613080206
 30
0.0
 10
110.8066204634876
 20
177.8786128673966
 30
0.0
 10
110.3401069203426
 20
177.9386398663459
 30
0.0
 10
109.8052415869695
 20
177.999863501401
 30
0.0
 10
109.265702468524
 20
178.0563873320812
 30
0.0
 10
108.7538994250478
 20
178.106172369911
 30
0.0
 10
108.2795282106226
 20
178.1494888724685
 30
0.0
 10
107.8261008908157
 20
178.1887355511332
 30
0.0
 10
107.3688259331484
 20
178.2258598938488
 30
0.0
 10
106.8878491756179
 20
178.2639324888329
 30
0.0
 10
106.3821792750217
 20
178.3074631473571
 30
0.0
 10
105.8559721054058
 20
178.3555546214496
 30
0.0
 10
105.3233131449239
 20
178.4078324041499
 30
0.0
 10
104.8022925716155
 20
178.4630339349757
 30
0.0
 10
104.3143430600717
 20
178.5193601218676
 30
0.0
 10
103.886171086432
 20
178.5743515479443
 30
0.0
 10
103.5459134687156
 20
178.6230587593091
 30
0.0
 10
103.3176890669764
 20
178.6622840020164
 30
0.0
 10
103.1904528280808
 20
178.6883463585423
 30
0.0
 10
103.1466925118183
 20
178.6954374543918
 30
0.0
 10
103.1414334484168
 20
178.6890886273306
 30
0.0
 10
103.140529144564
 20
178.6879969369793
 30
0.0
  0
SPLINE
  5
69
330
1F
100
AcDbEntity
  8
0
  6
Continuous
 62
     7
370
    15
100
AcDbSpline
210
0.0
220
0.0
230
1.0
 70
     8
 71
     3
 72
     9
 73
     5
 74
     0
 42
0.00000001
 43
0.00000001
 12
1.0
 22
0.0
 32
0.0
 13
1.0
 23
0.0
 33
0.0
 40
0.0
 40
0.0
 40
0.0
 40
0.0
 40
0.553244952369141
 40
0.9999999999999999
 40
0.9999999999999999
 40
0.9999999999999999
 40
0.9999999999999999
 10
103.8523639350777
 20
178.5802471158707
 30
0.0
 10
103.9268687199185
 20
178.5907072864761
 30
0.0
 10
104.0615374313488
 20
178.6096142291614
 30
0.0
 10
104.2322056378094
 20
178.6300579536783
 30
0.0
 10
104.3084525205158
 20
178.6391912907985
 30
0.0
  0
SPLINE
  5
6A
330
1F
100
AcDbEntity
  8
0
  6
Continuous
 62
     7
370
    15
100
AcDbSpline
210
0.0
220
0.0
230
1.0
 70
     8
 71
     3
 72
    40
 73
    36
 74
     0
 42
0.00000001
 43
0.00000001
 12
1.0
 22
0.0
 32
0.0
 13
1.0
 23
0.0
 33
0.0
 40
0.0
 40
0.0
 40
0.0
 40
0.0
 40
0.0171499037883685
 40
0.047474787130927
 40
0.0743077287541115
 40
0.1091095359438089
 40
0.1383114427683289
 40
0.1613325124598802
 40
0.1785538401004676
 40
0.1968589296269798
 40
0.2178049906936061
 40
0.2424397975891167
 40
0.2693582258170856
 40
0.3073212165455196
 40
0.3473369131715861
 40
0.3901272490858958
 40
0.4257289032445696
 40
0.4643792920218244
 40
0.5057782626986906
 40
0.54879851668941
 40
0.5868722464135865
 40
0.6184158002994994
 40
0.6436961245959477
 40
0.6636284894490173
 40
0.6839646392253487
 40
0.711400546720551
 40
0.7460679580162315
 40
0.7878299465513192
 40
0.8193688204944563
 40
0.8513289769926582
 40
0.8809151093026125
 40
0.9209009041361647
 40
0.9576578405323992
 40
0.9911161952996159
 40
1.0
 40
1.0
 40
1.0
 40
1.0
 10
110.3084525205158
 20
179.2203015400204
 30
0.0
 10
110.3817157644036
 20
179.2290453358237
 30
0.0
 10
110.5845248851437
 20
179.2532501272674
 30
0.0
 10
110.85726108767
 20
179.2900768829846
 30
0.0
 10
111.1600027222001
 20
179.3342437415841
 30
0.0
 10
111.4099001731567
 20
179.378839332418
 30
0.0
 10
111.6005278489425
 20
179.4272859412537
 30
0.0
 10
111.7228805758808
 20
179.4732960957226
 30
0.0
 10
111.8090445353799
 20
179.5159283430707
 30
0.0
 10
111.9127363157458
 20
179.6087291257937
 30
0.0
 10
111.9769096187691
 20
179.747547204014
 30
0.0
 10
111.9229070405706
 20
179.9548000398102
 30
0.0
 10
111.799694588395
 20
180.0504979960716
 30
0.0
 10
111.5917973794754
 20
180.143174217294
 30
0.0
 10
111.3107160803201
 20
180.2032013769092
 30
0.0
 10
110.9527230081977
 20
180.2584868174513
 30
0.0
 10
110.5196832848298
 20
180.3163731800009
 30
0.0
 10
110.0270800371776
 20
180.3752891357714
 30
0.0
 10
109.4387322558158
 20
180.4390581055002
 30
0.0
 10
108.8001181565448
 20
180.5021895284061
 30
0.0
 10
108.1802606437597
 20
180.5584647233439
 30
0.0
 10
107.6447636283712
 20
180.6039511444689
 30
0.0
 10
107.2085620866681
 20
180.6381675557637
 30
0.0
 10
106.8373429301438
 20
180.6685033895039
 30
0.0
 10
106.4574055697467
 20
180.7009919234364
 30
0.0
 10
106.0032629045285
 20
180.7418017644703
 30
0.0
 10
105.4522547690414
 20
180.794651570498
 30
0.0
 10
104.9178401254858
 20
180.8503240184531
 30
0.0
 10
104.4451817194873
 20
180.9039889858719
 30
0.0
 10
104.0711429803337
 20
180.9501349454023
 30
0.0
 10
103.7202622422018
 20
180.9973258580247
 30
0.0
 10
103.4248226966662
 20
181.0415966530192
 30
0.0
 10
103.2233036583209
 20
181.0788386321584
 30
0.0
 10
103.1214940919799
 20
181.1168452726625
 30
0.0
 10
103.1184240641245
 20
181.1126660167604
 30
0.0
 10
103.117779941854
 20
181.1117891674524
 30
0.0
  0
SPLINE
  5
6B
330
1F
100
AcDbEntity
  8
0
  6
Continuous
 62
     7
370
    15
100
AcDbSpline
210
0.0
220
0.0
230
1.0
 70
     8
 71
     3
 72
     9
 73
     5
 74
     0
 42
0.00000001
 43
0.00000001
 12
1.0
 22
0.0
 32
0.0
 13
1.0
 23
0.0
 33
0.0
 40
0.0
 40
0.0
 40
0.0
 40
0.0
 40
0.4733775097724537
 40
1.0
 40
1.0
 40
1.0
 40
1.0
 10
103.8492481916316
 20
180.9805422219464
 30
0.0
 10
103.9138764957443
 20
180.9893944705652
 30
0.0
 10
104.0504024243709
 20
181.0080946589689
 30
0.0
 10
104.219435762866
 20
181.0286639414917
 30
0.0
 10
104.3084525205158
 20
181.039496188276
 30
0.0
  0
SPLINE
  5
6C
330
1F
100
AcDbEntity
  8
0
  6
Continuous
 62
     7
370
    15
100
AcDbSpline
210
0.0
220
0.0
230
1.0
 70
     8
 71
     3
 72
    32
 73
    28
 74
     0
 42
0.00000001
 43
0.00000001
 12
1.0
 22
0.0
 32
0.0
 13
1.0
 23
0.0
 33
0.0
 40
0.0
 40
0.0
 40
0.0
 40
0.0
 40
0.0310480148973516
 40
0.0890845892385508
 40
0.159350377259238
 40
0.2246701365161358
 40
0.276971131159703
 40
0.2971664900017052
 40
0.3133611964901918
 40
0.3315786301537043
 40
0.3426260958749577
 40
0.3557396175341239
 40
0.3739393841098537
 40
0.4001929912206018
 40
0.4238562574084467
 40
0.4698229676861318
 40
0.5177518329178189
 40
0.5506440511658663
 40
0.5846527414969849
 40
0.6243381036648061
 40
0.671015651770843
 40
0.7247431648308174
 40
0.7853106836049967
 40
0.8349111523616819
 40
0.8876269245962884
 40
0.9428911286321148
 40
1.0
 40
1.0
 40
1.0
 40
1.0
 10
110.3084525205158
 20
181.620471270458
 30
0.0
 10
110.3935647723472
 20
181.6305729546334
 30
0.0
 10
110.6377732996438
 20
181.6595572355399
 30
0.0
 10
111.0004253524442
 20
181.7099123904292
 30
0.0
 10
111.3734990007314
 20
181.7693974663034
 30
0.0
 10
111.632027854004
 20
181.8348856184363
 30
0.0
 10
111.7783096052707
 20
181.8966074115083
 30
0.0
 10
111.8607694963758
 20
181.9608501179154
 30
0.0
 10
111.9064024696299
 20
182.0096795251386
 30
0.0
 10
111.9464939571255
 20
182.0858430026558
 30
0.0
 10
111.9604241321643
 20
182.1632954238543
 30
0.0
 10
111.9561846164367
 20
182.2373974365157
 30
0.0
 10
111.9294152054886
 20
182.3179560297211
 30
0.0
 10
111.861161374409
 20
182.4051497343209
 30
0.0
 10
111.7618415368735
 20
182.4721309463055
 30
0.0
 10
111.643657162106
 20
182.5208601614819
 30
0.0
 10
111.4646943680985
 20
182.5701252527809
 30
0.0
 10
111.2775411537759
 20
182.6073526010657
 30
0.0
 10
111.082643109754
 20
182.6385832657623
 30
0.0
 10
110.8310575777517
 20
182.6749703678686
 30
0.0
 10
110.4973729354357
 20
182.7188853932273
 30
0.0
 10
110.0639095829
 20
182.7708882099646
 30
0.0
 10
109.571837512011
 20
182.8248265679843
 30
0.0
 10
109.0440259017167
 20
182.8783607237029
 30
0.0
 10
108.5057057838829
 20
182.9292960587955
 30
0.0
 10
107.9206086292522
 20
182.9811530262695
 30
0.0
 10
107.5147254902143
 20
183.0138513769262
 30
0.0
 10
107.3084525205156
 20
183.030468933177
 30
0.0
  0
SPLINE
  5
6D
330
1F
100
AcDbEntity
  8
0
  6
Continuous
 62
     7
370
    15
100
AcDbSpline
210
0.0
220
0.0
230
1.0
 70
     8
 71
     3
 72
    19
 73
    15
 74
     0
 42
0.00000001
 43
0.00000001
 12
1.0
 22
0.0
 32
0.0
 13
1.0
 23
0.0
 33
0.0
 40
0.0
 40
0.0
 40
0.0
 40
0.0
 40
0.1168558587278832
 40
0.238801681220272
 40
0.3642822068862419
 40
0.4914306559830258
 40
0.575891813250158
 40
0.6541136283020682
 40
0.7240349162388588
 40
0.8148923640904775
 40
0.8925474414262511
 40
0.9262154316524195
 40
0.9640604850613569
 40
1.0
 40
1.0
 40
1.0
 40
1.0
 10
107.3084525205156
 20
182.530468933177
 30
0.0
 10
107.5444620892011
 20
182.5113829960718
 30
0.0
 10
108.026761243045
 20
182.4723797837554
 30
0.0
 10
108.7415568351748
 20
182.4075931593256
 30
0.0
 10
109.4333790821004
 20
182.3392032740764
 30
0.0
 10
109.9974246247789
 20
182.2774346058553
 30
0.0
 10
110.4271651959155
 20
182.2257264407143
 30
0.0
 10
110.7330807539748
 20
182.1857149254861
 30
0.0
 10
111.0062036932657
 20
182.1467875548675
 30
0.0
 10
111.2314034571964
 20
182.1106828738844
 30
0.0
 10
111.3726823698122
 20
182.0795245251935
 30
0.0
 10
111.457035025194
 20
182.0557408398655
 30
0.0
 10
111.4902239563718
 20
182.0440158340871
 30
0.0
 10
111.4925570523703
 20
182.0470206420748
 30
0.0
 10
111.4936934734455
 20
182.0484842454268
 30
0.0
  0
SPLINE
  5
6E
330
1F
100
AcDbEntity
  8
0
  6
Continuous
 62
     7
370
    15
100
AcDbSpline
210
0.0
220
0.0
230
1.0
 70
     8
 71
     3
 72
     9
 73
     5
 74
     0
 42
0.00000001
 43
0.00000001
 12
1.0
 22
0.0
 32
0.0
 13
1.0
 23
0.0
 33
0.0
 40
0.0
 40
0.0
 40
0.0
 40
0.0
 40
0.566575103207947
 40
1.0
 40
1.0
 40
1.0
 40
1.0
 10
110.7645849799638
 20
182.1807152133667
 30
0.0
 10
110.6899817108888
 20
182.170130589457
 30
0.0
 10
110.5583076068687
 20
182.151448822733
 30
0.0
 10
110.3840012397113
 20
182.1308189388609
 30
0.0
 10
110.3084525205158
 20
182.1218774335727
 30
0.0
  0
SPLINE
  5
6F
330
1F
100
AcDbEntity
  8
0
  6
Continuous
 62
     7
370
    15
100
AcDbSpline
210
0.0
220
0.0
230
1.0
 70
     8
 71
     3
 72
    44
 73
    40
 74
     0
 42
0.00000001
 43
0.00000001
 12
1.0
 22
0.0
 32
0.0
 13
1.0
 23
0.0
 33
0.0
 40
0.0
 40
0.0
 40
0.0
 40
0.0
 40
0.0208501822426879
 40
0.0597576289509978
 40
0.0955381297951291
 40
0.1283091790630849
 40
0.1579832453267975
 40
0.1840750448491535
 40
0.1977710471402856
 40
0.2076774182916103
 40
0.2138408378388374
 40
0.2192345130368136
 40
0.2275817900012049
 40
0.2332992834678448
 40
0.2428585566731668
 40
0.2666988084305527
 40
0.3111900988189542
 40
0.3512655896598517
 40
0.3877651134672468
 40
0.4236859534634479
 40
0.4591641231135411
 40
0.4938427074304376
 40
0.5274057580775843
 40
0.5595898319436304
 40
0.5900434405471359
 40
0.6185513627164445
 40
0.6451017094992822
 40
0.670694561822451
 40
0.6996349678870006
 40
0.7341187514845586
 40
0.7740282172296484
 40
0.8189232280912546
 40
0.8510527421292317
 40
0.8809155738079548
 40
0.907104483058547
 40
0.9408154573741954
 40
0.9685140538749265
 40
0.9897085687079737
 40
1.0
 40
1.0
 40
1.0
 40
1.0
 10
104.3084525205158
 20
181.5405518124234
 30
0.0
 10
104.2195290035386
 20
181.5299433212806
 30
0.0
 10
103.9646699106686
 20
181.4995388734889
 30
0.0
 10
103.6310149095232
 20
181.4532638857691
 30
0.0
 10
103.3049763623514
 20
181.4024400387235
 30
0.0
 10
103.0594483885801
 20
181.3460630005177
 30
0.0
 10
102.879890243063
 20
181.2810299127889
 30
0.0
 10
102.7726427085359
 20
181.2149845959722
 30
0.0
 10
102.7142351667035
 20
181.1525019243138
 30
0.0
 10
102.6865645676693
 20
181.1073928122997
 30
0.0
 10
102.6671222247087
 20
181.0567943252065
 30
0.0
 10
102.6564896345459
 20
180.9929089837544
 30
0.0
 10
102.6582177953839
 20
180.9396560783051
 30
0.0
 10
102.682848951157
 20
180.8577724440028
 30
0.0
 10
102.7127751839706
 20
180.8111679952266
 30
0.0
 10
102.790552293157
 20
180.7281996232918
 30
0.0
 10
102.996106411384
 20
180.6298720811141
 30
0.0
 10
103.3124585164696
 20
180.5558711531848
 30
0.0
 10
103.6512427947685
 20
180.504791953007
 30
0.0
 10
104.0416987207646
 20
180.4516596983438
 30
0.0
 10
104.4845593832402
 20
180.3979960529977
 30
0.0
 10
104.9660721686258
 20
180.3445040961635
 30
0.0
 10
105.4703560901298
 20
180.2926769246069
 30
0.0
 10
105.9808710344752
 20
180.2436960949559
 30
0.0
 10
106.4827747365213
 20
180.1985998697224
 30
0.0
 10
106.9636039012073
 20
180.1577184815395
 30
0.0
 10
107.4206602347992
 20
180.1218259547513
 30
0.0
 10
107.878570321766
 20
180.0842848407245
 30
0.0
 10
108.3740918662871
 20
180.0410736523305
 30
0.0
 10
108.9315103306404
 20
179.9891955296843
 30
0.0
 10
109.5384937315365
 20
179.9280830438857
 30
0.0
 10
110.0775922914548
 20
179.868363120603
 30
0.0
 10
110.5106766417925
 20
179.8155063707875
 30
0.0
 10
110.8217595125229
 20
179.7737517881595
 30
0.0
 10
111.0894933417335
 20
179.7352125178227
 30
0.0
 10
111.2972166724079
 20
179.698442008209
 30
0.0
 10
111.428891208482
 20
179.6679910155299
 30
0.0
 10
111.4963379680102
 20
179.6431658291117
 30
0.0
 10
111.4994009419182
 20
179.6455692113788
 30
0.0
 10
111.5004020992409
 20
179.6463547759406
 30
0.0
  0
SPLINE
  5
70
330
1F
100
AcDbEntity
  8
0
  6
Continuous
 62
     7
370
    15
100
AcDbSpline
210
0.0
220
0.0
230
1.0
 70
     8
 71
     3
 72
     9
 73
     5
 74
     0
 42
0.00000001
 43
0.00000001
 12
1.0
 22
0.0
 32
0.0
 13
1.0
 23
0.0
 33
0.0
 40
0.0
 40
0.0
 40
0.0
 40
0.0
 40
0.3342957636543673
 40
1.0
 40
1.0
 40
1.0
 40
1.0
 10
110.7655413683361
 20
179.7807884691614
 30
0.0
 10
110.7218244441285
 20
179.7745565833105
 30
0.0
 10
110.5910512517622
 20
179.7559147501543
 30
0.0
 10
110.4213940430693
 20
179.7353782945169
 30
0.0
 10
110.3084525205158
 20
179.7217070889996
 30
0.0
  0
SPLINE
  5
71
330
1F
100
AcDbEntity
  8
0
  6
Continuous
 62
     7
370
    15
100
AcDbSpline
210
0.0
220
0.0
230
1.0
 70
     8
 71
     3
 72
    43
 73
    39
 74
     0
 42
0.00000001
 43
0.00000001
 12
1.0
 22
0.0
 32
0.0
 13
1.0
 23
0.0
 33
0.0
 40
0.0
 40
0.0
 40
0.0
 40
0.0
 40
0.0372060452209203
 40
0.0795234328516667
 40
0.1183870730710503
 40
0.1547814698865554
 40
0.1886672370808026
 40
0.2000905830532881
 40
0.2116133343036924
 40
0.2197644660998168
 40
0.2313279964898132
 40
0.2399177113930053
 40
0.2445397146448278
 40
0.2522850294361871
 40
0.2636380086671289
 40
0.2872910944819828
 40
0.3179967348320804
 40
0.352370929254274
 40
0.3900522320071865
 40
0.4328329826036333
 40
0.4806839850848001
 40
0.5122295740433618
 40
0.5406102722203734
 40
0.5657109498561066
 40
0.5971751971642246
 40
0.6214085490699641
 40
0.639757771318305
 40
0.6617827039770616
 40
0.6899715360350652
 40
0.7244940856437525
 40
0.7653051447100474
 40
0.808041428845108
 40
0.8479414553517309
 40
0.8846284035502773
 40
0.918107763885059
 40
0.9498704246514025
 40
0.9783880011930837
 40
1.0
 40
1.0
 40
1.0
 40
1.0
 10
104.3084525205158
 20
179.1404827432567
 30
0.0
 10
104.1537332938571
 20
179.1215587800717
 30
0.0
 10
103.8230396133275
 20
179.0811110918882
 30
0.0
 10
103.4327391344944
 20
179.0236736359151
 30
0.0
 10
103.1164992637143
 20
178.9628496633477
 30
0.0
 10
102.899176120243
 20
178.8904924171433
 30
0.0
 10
102.7905894327936
 20
178.8397820924689
 30
0.0
 10
102.7019849879224
 20
178.7391773228054
 30
0.0
 10
102.6696381645923
 20
178.6695265944221
 30
0.0
 10
102.6549405523722
 20
178.5925286516049
 30
0.0
 10
102.662642900537
 20
178.5042048258398
 30
0.0
 10
102.6992764651702
 20
178.4294476636024
 30
0.0
 10
102.7302033752783
 20
178.3883253641372
 30
0.0
 10
102.7556439003424
 20
178.3619816886652
 30
0.0
 10
102.8076702809432
 20
178.3200305374416
 30
0.0
 10
102.9029627202009
 20
178.2699323295697
 30
0.0
 10
103.0763654243775
 20
178.2113193782825
 30
0.0
 10
103.3369665232038
 20
178.1537564536279
 30
0.0
 10
103.6990399286235
 20
178.0978349765032
 30
0.0
 10
104.1849626676305
 20
178.0330927634772
 30
0.0
 10
104.7266720982378
 20
177.9703367880174
 30
0.0
 10
105.2551252495375
 20
177.9144817199975
 30
0.0
 10
105.6975397619222
 20
177.8706676601583
 30
0.0
 10
106.1569659172065
 20
177.8276132661964
 30
0.0
 10
106.6073828130819
 20
177.7878398045942
 30
0.0
 10
107.0264964989323
 20
177.752763175996
 30
0.0
 10
107.3937568672144
 20
177.7238407405784
 30
0.0
 10
107.7828682138476
 20
177.6922947919252
 30
0.0
 10
108.2586884482907
 20
177.6513949941821
 30
0.0
 10
108.824525489633
 20
177.5995072366708
 30
0.0
 10
109.4363778465482
 20
177.5387071894402
 30
0.0
 10
110.0196405872238
 20
177.4750232651116
 30
0.0
 10
110.5114271102828
 20
177.4156288869155
 30
0.0
 10
110.891549573422
 20
177.3643216029188
 30
0.0
 10
111.1723638470835
 20
177.3228796975709
 30
0.0
 10
111.3637938658043
 20
177.2857342840345
 30
0.0
 10
111.478025599486
 20
177.2518166815801
 30
0.0
 10
111.4936099906926
 20
177.2496482002034
 30
0.0
 10
111.5003287757974
 20
177.2487133186171
 30
0.0
  0
SPLINE
  5
72
330
1F
100
AcDbEntity
  8
0
  6
Continuous
 62
     7
370
    15
100
AcDbSpline
210
0.0
220
0.0
230
1.0
 70
     8
 71
     3
 72
     9
 73
     5
 74
     0
 42
0.00000001
 43
0.00000001
 12
1.0
 22
0.0
 32
0.0
 13
1.0
 23
0.0
 33
0.0
 40
0.0
 40
0.0
 40
0.0
 40
0.0
 40
0.5089520334774792
 40
1.0
 40
1.0
 40
1.0
 40
1.0
 10
110.7638238029383
 20
177.3807752991068
 30
0.0
 10
110.6961632758764
 20
177.3712018493698
 30
0.0
 10
110.5632224040235
 20
177.3523917275757
 30
0.0
 10
110.392356080989
 20
177.331935893927
 30
0.0
 10
110.3084525205158
 20
177.3218910984103
 30
0.0
  0
SPLINE
  5
73
330
1F
100
AcDbEntity
  8
0
  6
Continuous
 62
     7
370
    15
100
AcDbSpline
210
0.0
220
0.0
230
1.0
 70
     8
 71
     3
 72
    46
 73
    42
 74
     0
 42
0.00000001
 43
0.00000001
 12
1.0
 22
0.0
 32
0.0
 13
1.0
 23
0.0
 33
0.0
 40
0.0
 40
0.0
 40
0.0
 40
0.0
 40
0.0081005792463046
 40
0.037188443123509
 40
0.063181386211476
 40
0.0861844850676846
 40
0.1069251035212944
 40
0.12543936956087
 40
0.1417651855901084
 40
0.1614018381342849
 40
0.187276608524556
 40
0.2087343090532849
 40
0.2182134589897151
 40
0.2260929020796168
 40
0.236601396295336
 40
0.2463955157296508
 40
0.2643137822140579
 40
0.2815091909009009
 40
0.3035742362432652
 40
0.3307562626325172
 40
0.3625925854662044
 40
0.3997098029087495
 40
0.4419181434404448
 40
0.4819264342892589
 40
0.5182728313243052
 40
0.550616641693949
 40
0.578817069808499
 40
0.6047293326041191
 40
0.6314277420243227
 40
0.6593320258632208
 40
0.6893215039951383
 40
0.7213887052603308
 40
0.755468843847698
 40
0.7912886739128595
 40
0.8284751634463825
 40
0.8665693324510907
 40
0.9036585063922338
 40
0.9370740738041435
 40
0.9674684162586539
 40
0.9944061453019657
 40
0.9999999999999999
 40
0.9999999999999999
 40
0.9999999999999999
 40
0.9999999999999999
 10
104.3084525205158
 20
176.7409752288983
 30
0.0
 10
104.273176021268
 20
176.73683973504
 30
0.0
 10
104.1112273450086
 20
176.7178543546784
 30
0.0
 10
103.8725590777129
 20
176.6865891457234
 30
0.0
 10
103.6026236307085
 20
176.6487477775148
 30
0.0
 10
103.3928320480122
 20
176.6164839643
 30
0.0
 10
103.2301202922866
 20
176.5862366033795
 30
0.0
 10
103.1030809396722
 20
176.5569523718136
 30
0.0
 10
103.0020005089622
 20
176.5291880141178
 30
0.0
 10
102.8696376195674
 20
176.480785495766
 30
0.0
 10
102.7519183010894
 20
176.4033063318516
 30
0.0
 10
102.6831451022427
 20
176.3148028607271
 30
0.0
 10
102.6566093411157
 20
176.2120214774334
 30
0.0
 10
102.6596966235591
 20
176.1301304473963
 30
0.0
 10
102.678997268746
 20
176.0681439028817
 30
0.0
 10
102.7269923938236
 20
175.9855551657642
 30
0.0
 10
102.8105118658218
 20
175.9149583402707
 30
0.0
 10
102.893600755572
 20
175.8733709794586
 30
0.0
 10
103.0119092478276
 20
175.828836166446
 30
0.0
 10
103.187792706758
 20
175.7831973381726
 30
0.0
 10
103.4463040045851
 20
175.7350765583334
 30
0.0
 10
103.8102845775439
 20
175.6823249989574
 30
0.0
 10
104.2767981206889
 20
175.622298000008
 30
0.0
 10
104.811663454062
 20
175.561074364953
 30
0.0
 10
105.3512025725074
 20
175.5045505342728
 30
0.0
 10
105.8630056159836
 20
175.454765496443
 30
0.0
 10
106.3373768304088
 20
175.4114489938856
 30
0.0
 10
106.7908041502156
 20
175.3722023152208
 30
0.0
 10
107.2480791078829
 20
175.3350779725052
 30
0.0
 10
107.7290558654135
 20
175.2970053775211
 30
0.0
 10
108.2347257660097
 20
175.2534747189968
 30
0.0
 10
108.7609329356256
 20
175.2053832449044
 30
0.0
 10
109.2935918961075
 20
175.1531054622041
 30
0.0
 10
109.814612469416
 20
175.0979039313783
 30
0.0
 10
110.3025619809598
 20
175.0415777444864
 30
0.0
 10
110.7307339545995
 20
174.9865863184097
 30
0.0
 10
111.070991572316
 20
174.9378791070449
 30
0.0
 10
111.2992159740552
 20
174.8986538643376
 30
0.0
 10
111.4264522129508
 20
174.8725915078116
 30
0.0
 10
111.4702125292134
 20
174.8655004119622
 30
0.0
 10
111.4754715926149
 20
174.8718492390233
 30
0.0
 10
111.4763758964677
 20
174.8729409293746
 30
0.0
  0
SPLINE
  5
74
330
1F
100
AcDbEntity
  8
0
  6
Continuous
 62
     7
370
    15
100
AcDbSpline
210
0.0
220
0.0
230
1.0
 70
     8
 71
     3
 72
    21
 73
    17
 74
     0
 42
0.00000001
 43
0.00000001
 12
1.0
 22
0.0
 32
0.0
 13
1.0
 23
0.0
 33
0.0
 40
0.0
 40
0.0
 40
0.0
 40
0.0
 40
0.0328316214524304
 40
0.1073136275972357
 40
0.1660308704310597
 40
0.209955366144837
 40
0.2566440909184621
 40
0.3100688435707191
 40
0.372902063661235
 40
0.4415598588090523
 40
0.5383877723320092
 40
0.6404512909885615
 40
0.7495917687546182
 40
0.8403968877403816
 40
0.9389780698428242
 40
1.0
 40
1.0
 40
1.0
 40
1.0
 10
103.3084525205158
 20
174.1974462654507
 30
0.0
 10
103.2720484400833
 20
174.1910933264188
 30
0.0
 10
103.1530578524203
 20
174.1703280731886
 30
0.0
 10
103.0179986872273
 20
174.1335318290978
 30
0.0
 10
102.893743600372
 20
174.0876625726015
 30
0.0
 10
102.8079307591139
 20
174.0450043207759
 30
0.0
 10
102.7041463699088
 20
173.9522103928045
 30
0.0
 10
102.6400031897146
 20
173.8133901033783
 30
0.0
 10
102.6939945476675
 20
173.6061380067219
 30
0.0
 10
102.8172167145611
 20
173.5104397700037
 30
0.0
 10
103.0250777498393
 20
173.4177638370003
 30
0.0
 10
103.3063082337042
 20
173.3577358179782
 30
0.0
 10
103.6637382240229
 20
173.3024535254811
 30
0.0
 10
104.0986165819852
 20
173.2445569068616
 30
0.0
 10
104.5105853257106
 20
173.1945774715361
 30
0.0
 10
104.8137043104409
 20
173.162211300542
 30
0.0
 10
104.9295974484484
 20
173.1498365655014
 30
0.0
  0
SPLINE
  5
75
330
1F
100
AcDbEntity
  8
0
  6
Continuous
 62
     7
370
    15
100
AcDbSpline
210
0.0
220
0.0
230
1.0
 70
     8
 71
     3
 72
    14
 73
    10
 74
     0
 42
0.00000001
 43
0.00000001
 12
1.0
 22
0.0
 32
0.0
 13
1.0
 23
0.0
 33
0.0
 40
0.0
 40
0.0
 40
0.0
 40
0.0
 40
0.0101162723291223
 40
0.1852623292722433
 40
0.3473984068780558
 40
0.5665260666324106
 40
0.7679591376961513
 40
0.9513155273813152
 40
1.0
 40
1.0
 40
1.0
 40
1.0
 10
110.1376367924516
 20
172.6601994589267
 30
0.0
 10
110.1459240485344
 20
172.6592605359506
 30
0.0
 10
110.2976910547221
 20
172.6420657578838
 30
0.0
 10
110.54306111058
 20
172.6108691595852
 30
0.0
 10
110.8976246404941
 20
172.5635879294506
 30
0.0
 10
111.1918112897483
 20
172.5193478607317
 30
0.0
 10
111.393666782959
 20
172.482097630307
 30
0.0
 10
111.4954076011569
 20
172.444092675796
 30
0.0
 10
111.4984803963023
 20
172.4482718638324
 30
0.0
 10
111.4991250991777
 20
172.4491486989016
 30
0.0
  0
SPLINE
  5
76
330
1F
100
AcDbEntity
  8
0
  6
Continuous
 62
     7
370
    15
100
AcDbSpline
210
0.0
220
0.0
230
1.0
 70
     8
 71
     3
 72
    26
 73
    22
 74
     0
 42
0.00000001
 43
0.00000001
 12
1.0
 22
0.0
 32
0.0
 13
1.0
 23
0.0
 33
0.0
 40
0.0
 40
0.0
 40
0.0
 40
0.0
 40
0.015467698023854
 40
0.1208439466261774
 40
0.2052178432297278
 40
0.237797742147893
 40
0.263923640901765
 40
0.2933126778557082
 40
0.3111348576602995
 40
0.3322900752258452
 40
0.3616506109811412
 40
0.404003899803444
 40
0.4421783549594556
 40
0.5163335500299399
 40
0.5936541659559397
 40
0.6467171075010262
 40
0.7015811830539777
 40
0.7656030753151211
 40
0.8409050202292659
 40
0.9275802290389897
 40
0.9999999999999999
 40
0.9999999999999999
 40
0.9999999999999999
 40
0.9999999999999999
 10
103.3084525205158
 20
171.7976042926926
 30
0.0
 10
103.2899939995146
 20
171.7945917508124
 30
0.0
 10
103.1457837541873
 20
171.7710557695945
 30
0.0
 10
102.989736413401
 20
171.7258236669522
 30
0.0
 10
102.8381830812216
 20
171.6643498522543
 30
0.0
 10
102.7561866355525
 20
171.6000853450915
 30
0.0
 10
102.7104882239998
 20
171.5512590161266
 30
0.0
 10
102.6704133809407
 20
171.4750947556416
 30
0.0
 10
102.6564803280931
 20
171.3976424698258
 30
0.0
 10
102.6607206610091
 20
171.323540418684
 30
0.0
 10
102.6874897328241
 20
171.2429818416763
 30
0.0
 10
102.755743667908
 20
171.1557881308533
 30
0.0
 10
102.8550636154542
 20
171.0888069199444
 30
0.0
 10
102.9732468722033
 20
171.0400777112661
 30
0.0
 10
103.1522140274043
 20
170.9908125915609
 30
0.0
 10
103.3393555498175
 20
170.9535853200892
 30
0.0
 10
103.534296943536
 20
170.9223543704242
 30
0.0
 10
103.7856806068279
 20
170.885968595398
 30
0.0
 10
104.1203220234927
 20
170.8420472802098
 30
0.0
 10
104.5075976133628
 20
170.7951349604862
 30
0.0
 10
104.8083432079362
 20
170.7627030679917
 30
0.0
 10
104.9452421038532
 20
170.7479401243107
 30
0.0
  0
SPLINE
  5
77
330
1F
100
AcDbEntity
  8
0
  6
Continuous
 62
     7
370
    15
100
AcDbSpline
210
0.0
220
0.0
230
1.0
 70
     8
 71
     3
 72
    15
 73
    11
 74
     0
 42
0.00000001
 43
0.00000001
 12
1.0
 22
0.0
 32
0.0
 13
1.0
 23
0.0
 33
0.0
 40
0.0
 40
0.0
 40
0.0
 40
0.0
 40
0.0959932632288246
 40
0.2006516192248346
 40
0.3060712211656891
 40
0.4377225263495673
 40
0.5564945250610333
 40
0.69227716141813
 40
0.8448742759344859
 40
1.0
 40
1.0
 40
1.0
 40
1.0
 10
109.9382784388506
 20
170.4794237675173
 30
0.0
 10
110.0397984442558
 20
170.4771025026144
 30
0.0
 10
110.2520024342349
 20
170.472250437524
 30
0.0
 10
110.541678421213
 20
170.4648629123186
 30
0.0
 10
110.8339088431666
 20
170.4566085856718
 30
0.0
 10
111.0932987911473
 20
170.4481273794898
 30
0.0
 10
111.3235370518142
 20
170.4391081563755
 30
0.0
 10
111.5066043394564
 20
170.4298635406993
 30
0.0
 10
111.6395511940973
 20
170.4201173095236
 30
0.0
 10
111.6524264692383
 20
170.4137932370918
 30
0.0
 10
111.6589170059434
 20
170.4106052179004
 30
0.0
  0
SPLINE
  5
78
330
1F
100
AcDbEntity
  8
0
  6
Continuous
 62
     7
370
    15
100
AcDbSpline
210
0.0
220
0.0
230
1.0
 70
     8
 71
     3
 72
    11
 73
     7
 74
     0
 42
0.00000001
 43
0.00000001
 12
1.0
 22
0.0
 32
0.0
 13
1.0
 23
0.0
 33
0.0
 40
0.0
 40
0.0
 40
0.0
 40
0.0
 40
0.1585586722377854
 40
0.4148509127943751
 40
0.6952615836764874
 40
1.0
 40
1.0
 40
1.0
 40
1.0
 10
111.3084525205158
 20
170.3720085036545
 30
0.0
 10
111.3543015188452
 20
170.3739274862119
 30
0.0
 10
111.4742602605475
 20
170.3789482880028
 30
0.0
 10
111.6060726160231
 20
170.387564698587
 30
0.0
 10
111.724505599911
 20
170.398127204555
 30
0.0
 10
111.7436297041818
 20
170.4056562930496
 30
0.0
 10
111.7535893014478
 20
170.4095773493315
 30
0.0
  0
SPLINE
  5
79
330
1F
100
AcDbEntity
  8
0
  6
Continuous
 62
     7
370
    15
100
AcDbSpline
210
0.0
220
0.0
230
1.0
 70
     8
 71
     3
 72
    17
 73
    13
 74
     0
 42
0.00000001
 43
0.00000001
 12
1.0
 22
0.0
 32
0.0
 13
1.0
 23
0.0
 33
0.0
 40
0.0
 40
0.0
 40
0.0
 40
0.0
 40
0.1042854988313738
 40
0.1957804679399774
 40
0.3364637167841961
 40
0.4250904166993614
 40
0.4726711050284944
 40
0.5316147564494424
 40
0.631356675134778
 40
0.7847302168467495
 40
0.8852264730711209
 40
1.0
 40
1.0
 40
1.0
 40
1.0
 10
111.6967126227952
 20
170.3997668518707
 30
0.0
 10
111.7250302651161
 20
170.4027040889495
 30
0.0
 10
111.7781924144721
 20
170.4082183134215
 30
0.0
 10
111.8591996106352
 20
170.4490750835478
 30
0.0
 10
111.9178919271926
 20
170.5108731037893
 30
0.0
 10
111.9468388045562
 20
170.5718574736879
 30
0.0
 10
111.9590064138605
 20
170.6327470987237
 30
0.0
 10
111.9587926060313
 20
170.6858637510877
 30
0.0
 10
111.9414133169222
 20
170.7616364765514
 30
0.0
 10
111.8847775146746
 20
170.8419829808479
 30
0.0
 10
111.7938654271721
 20
170.8994209490011
 30
0.0
 10
111.7304977948223
 20
170.9070848948275
 30
0.0
 10
111.6967126227867
 20
170.9111710144853
 30
0.0
  0
SPLINE
  5
7A
330
1F
100
AcDbEntity
  8
0
  6
Continuous
 62
     7
370
    15
100
AcDbSpline
210
0.0
220
0.0
230
1.0
 70
     8
 71
     3
 72
    15
 73
    11
 74
     0
 42
0.00000001
 43
0.00000001
 12
1.0
 22
0.0
 32
0.0
 13
1.0
 23
0.0
 33
0.0
 40
0.0
 40
0.0
 40
0.0
 40
0.0
 40
0.1711393415534735
 40
0.3239830039576583
 40
0.4586784654250545
 40
0.5752721571327071
 40
0.702684437925748
 40
0.8042190097954234
 40
0.898590964299722
 40
1.0
 40
1.0
 40
1.0
 40
1.0
 10
111.7535893014247
 20
170.901360517031
 30
0.0
 10
111.7380953195473
 20
170.9063072922264
 30
0.0
 10
111.7087637424457
 20
170.9156720068103
 30
0.0
 10
111.5420888378643
 20
170.9282677293375
 30
0.0
 10
111.3311543038007
 20
170.9390488027205
 30
0.0
 10
111.0774081150977
 20
170.9489098924786
 30
0.0
 10
110.8006124599052
 20
170.9577592061752
 30
0.0
 10
110.5038533196494
 20
170.9659428878605
 30
0.0
 10
110.2046174435484
 20
170.9734694004038
 30
0.0
 10
109.9826964197234
 20
170.9784257268698
 30
0.0
 10
109.8677475832496
 20
170.9809929643069
 30
0.0
  0
SPLINE
  5
7B
330
1F
100
AcDbEntity
  8
0
  6
Continuous
 62
     7
370
    15
100
AcDbSpline
210
0.0
220
0.0
230
1.0
 70
     8
 71
     3
 72
    11
 73
     7
 74
     0
 42
0.00000001
 43
0.00000001
 12
1.0
 22
0.0
 32
0.0
 13
1.0
 23
0.0
 33
0.0
 40
0.0
 40
0.0
 40
0.0
 40
0.0
 40
0.0317723340548098
 40
0.3177262064340866
 40
0.6403649672053375
 40
0.9999999999999999
 40
0.9999999999999999
 40
0.9999999999999999
 40
0.9999999999999999
 10
111.3084525205158
 20
182.8714574170388
 30
0.0
 10
111.3180256078426
 20
182.8718379971945
 30
0.0
 10
111.4137573446093
 20
182.8756438330802
 30
0.0
 10
111.5514565313376
 20
182.8835472476932
 30
0.0
 10
111.7125606431977
 20
182.8957521218489
 30
0.0
 10
111.739427464548
 20
182.9048053040083
 30
0.0
 10
111.7535893014359
 20
182.9095773493272
 30
0.0
  0
SPLINE
  5
7C
330
1F
100
AcDbEntity
  8
0
  6
Continuous
 62
     7
370
    15
100
AcDbSpline
210
0.0
220
0.0
230
1.0
 70
     8
 71
     3
 72
    22
 73
    18
 74
     0
 42
0.00000001
 43
0.00000001
 12
1.0
 22
0.0
 32
0.0
 13
1.0
 23
0.0
 33
0.0
 40
0.0
 40
0.0
 40
0.0
 40
0.0
 40
0.0891163393375005
 40
0.160716330224525
 40
0.2148152972394005
 40
0.2567201898766239
 40
0.3396516142935005
 40
0.4170351986384123
 40
0.4512195942231149
 40
0.4867903853482519
 40
0.536458396662727
 40
0.6009450399023063
 40
0.680223834246067
 40
0.7742360621035138
 40
0.8450662674746733
 40
0.9223332967631858
 40
1.0
 40
1.0
 40
1.0
 40
1.0
 10
107.3084525205157
 20
183.030468933177
 30
0.0
 10
107.511857057431
 20
183.0267879466749
 30
0.0
 10
107.8786857553676
 20
183.0201494935401
 30
0.0
 10
108.3598020332835
 20
183.0112782365148
 30
0.0
 10
108.7258315294722
 20
183.0043614124549
 30
0.0
 10
109.1066329680526
 20
182.9969803501284
 30
0.0
 10
109.5202777996139
 20
182.9886323962861
 30
0.0
 10
109.8905661309296
 20
182.9806025444203
 30
0.0
 10
110.1528481149292
 20
182.9745303983932
 30
0.0
 10
110.3557741985837
 20
182.9696081374619
 30
0.0
 10
110.5926185036265
 20
182.963486208941
 30
0.0
 10
110.867692248951
 20
182.9556395852975
 30
0.0
 10
111.1553588855203
 20
182.9461393509091
 30
0.0
 10
111.3857292662999
 20
182.9365827339441
 30
0.0
 10
111.5469285208262
 20
182.9273231734234
 30
0.0
 10
111.6457328678579
 20
182.9188448118662
 30
0.0
 10
111.6554173638228
 20
182.9132087337674
 30
0.0
 10
111.6602721030836
 20
182.9103834251792
 30
0.0
  0
SPLINE
  5
7D
330
1F
100
AcDbEntity
  8
0
  6
Continuous
 62
     7
370
    15
100
AcDbSpline
210
0.0
220
0.0
230
1.0
 70
     8
 71
     3
 72
    15
 73
    11
 74
     0
 42
0.00000001
 43
0.00000001
 12
1.0
 22
0.0
 32
0.0
 13
1.0
 23
0.0
 33
0.0
 40
0.0
 40
0.0
 40
0.0
 40
0.0
 40
0.1536858762783123
 40
0.2885223076142505
 40
0.4958476655844026
 40
0.6264571193489349
 40
0.6965769333324543
 40
0.7834423826976463
 40
0.9304323702206794
 40
1.0
 40
1.0
 40
1.0
 40
1.0
 10
111.696712622791
 20
182.8997668518697
 30
0.0
 10
111.7250308213142
 20
182.9027043125387
 30
0.0
 10
111.7781940148573
 20
182.908218956768
 30
0.0
 10
111.8591928987421
 20
182.9490723854025
 30
0.0
 10
111.9179261967985
 20
183.010886879988
 30
0.0
 10
111.9467771720329
 20
183.0718326977407
 30
0.0
 10
111.9591338700356
 20
183.1327983354244
 30
0.0
 10
111.9579897582439
 20
183.1855410105593
 30
0.0
 10
111.951413988955
 20
183.2375007098357
 30
0.0
 10
111.9262262253229
 20
183.2685985298113
 30
0.0
 10
111.9181348312766
 20
183.2785884883912
 30
0.0
  0
SPLINE
  5
7E
330
1F
100
AcDbEntity
  8
0
  6
Continuous
 62
     7
370
    15
100
AcDbSpline
210
0.0
220
0.0
230
1.0
 70
     8
 71
     3
 72
    22
 73
    18
 74
     0
 42
0.00000001
 43
0.00000001
 12
1.0
 22
0.0
 32
0.0
 13
1.0
 23
0.0
 33
0.0
 40
0.0
 40
0.0
 40
0.0
 40
0.0
 40
0.0891163393413658
 40
0.1607163302284442
 40
0.2148152972437679
 40
0.2567201898812239
 40
0.3396516142986234
 40
0.4170351986444092
 40
0.4512195942295003
 40
0.4867903853547882
 40
0.5364583966694753
 40
0.6009450399094446
 40
0.6802238342537688
 40
0.7742360621119344
 40
0.8450662674836495
 40
0.9223332967727754
 40
1.0
 40
1.0
 40
1.0
 40
1.0
 10
107.3084525205158
 20
183.030468933177
 30
0.0
 10
107.1050479835919
 20
183.0341499196793
 30
0.0
 10
106.7382192856467
 20
183.0407883728142
 30
0.0
 10
106.2571030077221
 20
183.0496596298397
 30
0.0
 10
105.8910735115328
 20
183.0565764538996
 30
0.0
 10
105.5102720729512
 20
183.0639575162262
 30
0.0
 10
105.0966272413884
 20
183.0723054700685
 30
0.0
 10
104.7263389100716
 20
183.0803353219344
 30
0.0
 10
104.4640569260717
 20
183.0864074679615
 30
0.0
 10
104.2611308424179
 20
183.0913297288928
 30
0.0
 10
104.0242865373769
 20
183.0974516574138
 30
0.0
 10
103.7492127920549
 20
183.1052982810573
 30
0.0
 10
103.4615461554896
 20
183.1147985154456
 30
0.0
 10
103.231175774715
 20
183.1243551324106
 30
0.0
 10
103.0699765201955
 20
183.1336146929311
 30
0.0
 10
102.9711721731739
 20
183.1420930544877
 30
0.0
 10
102.9614876772151
 20
183.1477291325859
 30
0.0
 10
102.9566329379577
 20
183.1505544411737
 30
0.0
  0
SPLINE
  5
7F
330
1F
100
AcDbEntity
  8
0
  6
Continuous
 62
     7
370
    15
100
AcDbSpline
210
0.0
220
0.0
230
1.0
 70
     8
 71
     3
 72
    11
 73
     7
 74
     0
 42
0.00000001
 43
0.00000001
 12
1.0
 22
0.0
 32
0.0
 13
1.0
 23
0.0
 33
0.0
 40
0.0
 40
0.0
 40
0.0
 40
0.0
 40
0.0317723340255534
 40
0.3177262064140071
 40
0.6403649671950393
 40
1.0
 40
1.0
 40
1.0
 40
1.0
 10
103.3084525205158
 20
183.1894804493153
 30
0.0
 10
103.298879433198
 20
183.18909986916
 30
0.0
 10
103.2031476964393
 20
183.1852940332747
 30
0.0
 10
103.0654485097159
 20
183.1773906186622
 30
0.0
 10
102.9043443978487
 20
183.1651857445069
 30
0.0
 10
102.8774775764932
 20
183.1561325623479
 30
0.0
 10
102.8633157396025
 20
183.1513605170292
 30
0.0
  0
SPLINE
  5
80
330
1F
100
AcDbEntity
  8
0
  6
Continuous
 62
     7
370
    15
100
AcDbSpline
210
0.0
220
0.0
230
1.0
 70
     8
 71
     3
 72
    21
 73
    17
 74
     0
 42
0.00000001
 43
0.00000001
 12
1.0
 22
0.0
 32
0.0
 13
1.0
 23
0.0
 33
0.0
 40
0.0
 40
0.0
 40
0.0
 40
0.0
 40
0.099853165099272
 40
0.1894343076342542
 40
0.2688298836478691
 40
0.338064842188664
 40
0.4146275506151183
 40
0.4758519908078926
 40
0.5365998995011751
 40
0.5992414130306575
 40
0.6638131223821755
 40
0.7315545648397092
 40
0.7890266227053921
 40
0.8529283548446116
 40
0.9232432333899914
 40
1.0
 40
1.0
 40
1.0
 40
1.0
 10
102.8633157395895
 20
182.6595773493295
 30
0.0
 10
102.8778530852183
 20
182.6548068286241
 30
0.0
 10
102.905432301173
 20
182.645756536768
 30
0.0
 10
103.0617929532301
 20
182.6335324862715
 30
0.0
 10
103.2613130883681
 20
182.6230044130605
 30
0.0
 10
103.5040003490103
 20
182.6132905767963
 30
0.0
 10
103.7721247123408
 20
182.6045109103282
 30
0.0
 10
104.0666325261042
 20
182.5962002305434
 30
0.0
 10
104.3716755016427
 20
182.5884791623477
 30
0.0
 10
104.7110106506082
 20
182.5806170070296
 30
0.0
 10
105.0892738834211
 20
182.5724683509272
 30
0.0
 10
105.4799619602163
 20
182.5645402497184
 30
0.0
 10
105.8862672431829
 20
182.556643644976
 30
0.0
 10
106.3116337228253
 20
182.54863733303
 30
0.0
 10
106.7916214781827
 20
182.5398205515382
 30
0.0
 10
107.1312172920643
 20
182.533675853971
 30
0.0
 10
107.3084525205158
 20
182.530468933177
 30
0.0
  0
SPLINE
  5
81
330
1F
100
AcDbEntity
  8
0
  6
Continuous
 62
     7
370
    15
100
AcDbSpline
210
0.0
220
0.0
230
1.0
 70
     8
 71
     3
 72
    17
 73
    13
 74
     0
 42
0.00000001
 43
0.00000001
 12
1.0
 22
0.0
 32
0.0
 13
1.0
 23
0.0
 33
0.0
 40
0.0
 40
0.0
 40
0.0
 40
0.0
 40
0.1042854988468114
 40
0.1957804679689496
 40
0.3364637168340929
 40
0.4250904167604604
 40
0.4726711050909795
 40
0.5316147565062853
 40
0.6313566751780676
 40
0.7847302168704146
 40
0.8852264730834067
 40
1.0
 40
1.0
 40
1.0
 40
1.0
 10
102.9201924182431
 20
183.1611710144849
 30
0.0
 10
102.8918747759212
 20
183.1582337774059
 30
0.0
 10
102.8387126265633
 20
183.1527195529337
 30
0.0
 10
102.757705430398
 20
183.111862782807
 30
0.0
 10
102.6990131138397
 20
183.0500647625651
 30
0.0
 10
102.6700662364764
 20
182.9890803926689
 30
0.0
 10
102.6578986271715
 20
182.9281907676334
 30
0.0
 10
102.6581124350001
 20
182.875074115267
 30
0.0
 10
102.6754917241092
 20
182.7993013898026
 30
0.0
 10
102.7321275263557
 20
182.7189548855064
 30
0.0
 10
102.8230396138558
 20
182.6615169173541
 30
0.0
 10
102.8864072462036
 20
182.653852971528
 30
0.0
 10
102.9201924182383
 20
182.6497668518703
 30
0.0
  0
LINE
  5
82
330
1F
100
AcDbEntity
  8
0
  6
Continuous
 62
     7
370
    15
100
AcDbLine
 10
113.3084525205
 20
160.7804689332
 30
0.0
 11
114.1084525205
 21
160.7804689332
 31
0.0
  0
LINE
  5
83
330
1F
100
AcDbEntity
  8
0
  6
Continuous
 62
     7
370
    15
100
AcDbLine
 10
114.1084525205
 20
168.7804689332
 30
0.0
 11
113.3084525205
 21
168.7804689332
 31
0.0
  0
LINE
  5
84
330
1F
100
AcDbEntity
  8
0
  6
Continuous
 62
     7
370
    15
100
AcDbLine
 10
101.3084525205
 20
168.7804689332
 30
0.0
 11
100.5084525205
 21
168.7804689332
 31
0.0
  0
LINE
  5
85
330
1F
100
AcDbEntity
  8
0
  6
Continuous
 62
     7
370
    15
100
AcDbLine
 10
100.5084525205
 20
160.7804689332
 30
0.0
 11
101.3084525205
 21
160.7804689332
 31
0.0
  0
LINE
  5
86
330
1F
100
AcDbEntity
  8
0
  6
Continuous
 62
     7
370
    15
100
AcDbLine
 10
100.3084525205
 20
186.2804689332
 30
0.0
 11
100.3084525205
 21
184.2804689332
 31
0.0
  0
LINE
  5
87
330
1F
100
AcDbEntity
  8
0
  6
Continuous
 62
     7
370
    15
100
AcDbLine
 10
114.3084525205
 20
184.2804689332
 30
0.0
 11
114.3084525205
 21
186.2804689332
 31
0.0
  0
LINE
  5
88
330
1F
100
AcDbEntity
  8
0
  6
Continuous
 62
     7
370
    15
100
AcDbLine
 10
100.3084525205
 20
184.2804689332
 30
0.0
 11
101.3084525205
 21
183.2804689332
 31
0.0
  0
LINE
  5
89
330
1F
100
AcDbEntity
  8
0
  6
Continuous
 62
     7
370
    15
100
AcDbLine
 10
113.3084525205
 20
183.2804689332
 30
0.0
 11
114.3084525205
 21
184.2804689332
 31
0.0
  0
LINE
  5
8A
330
1F
100
AcDbEntity
  8
0
  6
Continuous
 62
     7
370
    15
100
AcDbLine
 10
101.3084525205
 20
200.7804689332
 30
0.0
 11
101.3084525205
 21
186.2804689332
 31
0.0
  0
LINE
  5
8B
330
1F
100
AcDbEntity
  8
0
  6
Continuous
 62
     7
370
    15
100
AcDbLine
 10
113.3084525205
 20
186.2804689332
 30
0.0
 11
113.3084525205
 21
200.7804689332
 31
0.0
  0
LINE
  5
8C
330
1F
100
AcDbEntity
  8
0
  6
Continuous
 62
     7
370
    15
100
AcDbLine
 10
113.3084525205
 20
200.7804689332
 30
0.0
 11
112.8084525205
 21
201.2804689332
 31
0.0
  0
LINE
  5
8D
330
1F
100
AcDbEntity
  8
0
  6
Continuous
 62
     7
370
    15
100
AcDbLine
 10
101.8084525205
 20
201.2804689332
 30
0.0
 11
101.3084525205
 21
200.7804689332
 31
0.0
  0
LINE
  5
8E
330
1F
100
AcDbEntity
  8
0
  6
Continuous
 62
     7
370
    15
100
AcDbLine
 10
103.3084525205
 20
182.4804689332
 30
0.0
 11
103.5084525205
 21
182.2804689332
 31
0.0
  0
LINE
  5
8F
330
1F
100
AcDbEntity
  8
0
  6
Continuous
 62
     7
370
    15
100
AcDbLine
 10
103.3084525205
 20
183.2804689332
 30
0.0
 11
103.3084525205
 21
183.1217038916
 31
0.0
  0
LINE
  5
90
330
1F
100
AcDbEntity
  8
0
  6
Continuous
 62
     7
370
    15
100
AcDbLine
 10
103.3084525205
 20
182.6214574196
 30
0.0
 11
103.3084525205
 21
182.4804689332
 31
0.0
  0
LINE
  5
91
330
1F
100
AcDbEntity
  8
0
  6
Continuous
 62
     7
370
    15
100
AcDbLine
 10
111.3084525205
 20
182.6000002994
 30
0.0
 11
111.3084525205
 21
182.9392339747
 31
0.0
  0
LINE
  5
92
330
1F
100
AcDbEntity
  8
0
  6
Continuous
 62
     7
370
    15
100
AcDbLine
 10
102.3084525205
 20
157.5804689332
 30
0.0
 11
102.6084525205
 21
157.2804689332
 31
0.0
  0
LINE
  5
93
330
1F
100
AcDbEntity
  8
0
  6
Continuous
 62
     7
370
    15
100
AcDbLine
 10
112.0084525205
 20
157.2804689332
 30
0.0
 11
112.3084525205
 21
157.5804689332
 31
0.0
  0
LINE
  5
94
330
1F
100
AcDbEntity
  8
0
  6
Continuous
 62
     7
370
    15
100
AcDbLine
 10
102.3084525205
 20
160.2804689332
 30
0.0
 11
102.3084525205
 21
157.5804689332
 31
0.0
  0
LINE
  5
95
330
1F
100
AcDbEntity
  8
0
  6
Continuous
 62
     7
370
    15
100
AcDbLine
 10
112.3084525205
 20
157.5804689332
 30
0.0
 11
112.3084525205
 21
160.2804689332
 31
0.0
  0
LINE
  5
96
330
1F
100
AcDbEntity
  8
0
  6
Continuous
 62
     7
370
    15
100
AcDbLine
 10
103.6084525205
 20
175.2804689332
 30
0.0
 11
103.3084525205
 21
174.9804689332
 31
0.0
  0
LINE
  5
97
330
1F
100
AcDbEntity
  8
0
  6
Continuous
 62
     7
370
    15
100
AcDbLine
 10
111.3084525205
 20
170.2804689332
 30
0.0
 11
111.3084525205
 21
170.4393818
 31
0.0
  0
LINE
  5
98
330
1F
100
AcDbEntity
  8
0
  6
Continuous
 62
     7
370
    15
100
AcDbLine
 10
111.3084525205
 20
170.9395856004
 30
0.0
 11
111.3084525205
 21
172.4943156658
 31
0.0
  0
LINE
  5
99
330
1F
100
AcDbEntity
  8
0
  6
Continuous
 62
     7
370
    15
100
AcDbLine
 10
111.3084525205
 20
172.9986283567
 30
0.0
 11
111.3084525205
 21
174.8958934745
 31
0.0
  0
LINE
  5
9A
330
1F
100
AcDbEntity
  8
0
  6
Continuous
 62
     7
370
    15
100
AcDbLine
 10
103.3084525205
 20
174.9804689332
 30
0.0
 11
103.3084525205
 21
173.8667718729
 31
0.0
  0
LINE
  5
9B
330
1F
100
AcDbEntity
  8
0
  6
Continuous
 62
     7
370
    15
100
AcDbLine
 10
103.3084525205
 20
173.3608092518
 30
0.0
 11
103.3084525205
 21
171.469211296
 31
0.0
  0
LINE
  5
9C
330
1F
100
AcDbEntity
  8
0
  6
Continuous
 62
     7
370
    15
100
AcDbLine
 10
103.3084525205
 20
170.960937567
 30
0.0
 11
103.3084525205
 21
170.6215560663
 31
0.0
  0
LINE
  5
9D
330
1F
100
AcDbEntity
  8
0
  6
Continuous
 62
     7
370
    15
100
AcDbLine
 10
103.3084525205
 20
202.0804689332
 30
0.0
 11
103.3084525205
 21
201.2804689332
 31
0.0
  0
LINE
  5
9E
330
1F
100
AcDbEntity
  8
0
  6
Continuous
 62
     7
370
    15
100
AcDbLine
 10
111.3084525205
 20
201.2804689332
 30
0.0
 11
111.3084525205
 21
202.0804689332
 31
0.0
  0
LINE
  5
9F
330
1F
100
AcDbEntity
  8
0
  6
Continuous
 62
     7
370
    15
100
AcDbLine
 10
103.3084525205
 20
157.2804689332
 30
0.0
 11
103.3084525205
 21
156.4804689332
 31
0.0
  0
LINE
  5
A0
330
1F
100
AcDbEntity
  8
0
  6
Continuous
 62
     7
370
    15
100
AcDbLine
 10
111.3084525205
 20
156.4804689332
 30
0.0
 11
111.3084525205
 21
157.2804689332
 31
0.0
  0
LINE
  5
A1
330
1F
100
AcDbEntity
  8
0
  6
Continuous
 62
     7
370
    15
100
AcDbLine
 10
107.3084525205
 20
175.2804689332
 30
0.0
 11
107.3084525205
 21
175.3303660904
 31
0.0
  0
LINE
  5
A2
330
1F
100
AcDbEntity
  8
0
  6
Continuous
 62
     7
370
    15
100
AcDbLine
 10
107.3084525205
 20
175.8304209577
 30
0.0
 11
107.3084525205
 21
177.7305169087
 31
0.0
  0
LINE
  5
A3
330
1F
100
AcDbEntity
  8
0
  6
Continuous
 62
     7
370
    15
100
AcDbLine
 10
107.3084525205
 20
178.230571776
 30
0.0
 11
107.3084525205
 21
180.1305643659
 31
0.0
  0
LINE
  5
A4
330
1F
100
AcDbEntity
  8
0
  6
Continuous
 62
     7
370
    15
100
AcDbLine
 10
107.3084525205
 20
180.6303904287
 30
0.0
 11
107.3084525205
 21
182.2804689332
 31
0.0
  0
LINE
  5
A5
330
1F
100
AcDbEntity
  8
0
  6
Continuous
 62
     7
370
    15
100
AcDbLine
 10
104.3084525205
 20
175.2804689332
 30
0.0
 11
104.3084525205
 21
175.6197545488
 31
0.0
  0
LINE
  5
A6
330
1F
100
AcDbEntity
  8
0
  6
Continuous
 62
     7
370
    15
100
AcDbLine
 10
104.3084525205
 20
176.1218292706
 30
0.0
 11
104.3084525205
 21
178.020403632
 31
0.0
  0
LINE
  5
A7
330
1F
100
AcDbEntity
  8
0
  6
Continuous
 62
     7
370
    15
100
AcDbLine
 10
104.3084525205
 20
178.5212071713
 30
0.0
 11
104.3084525205
 21
180.4202226749
 31
0.0
  0
LINE
  5
A8
330
1F
100
AcDbEntity
  8
0
  6
Continuous
 62
     7
370
    15
100
AcDbLine
 10
104.3084525205
 20
180.9215402659
 30
0.0
 11
104.3084525205
 21
182.2804689332
 31
0.0
  0
LINE
  5
A9
330
1F
100
AcDbEntity
  8
0
  6
Continuous
 62
     7
370
    15
100
AcDbLine
 10
110.3084525205
 20
175.5405342343
 30
0.0
 11
110.3084525205
 21
177.4391085958
 31
0.0
  0
LINE
  5
AA
330
1F
100
AcDbEntity
  8
0
  6
Continuous
 62
     7
370
    15
100
AcDbLine
 10
110.3084525205
 20
177.9411833175
 30
0.0
 11
110.3084525205
 21
179.8394818422
 31
0.0
  0
LINE
  5
AB
330
1F
100
AcDbEntity
  8
0
  6
Continuous
 62
     7
370
    15
100
AcDbLine
 10
110.3084525205
 20
180.3406094315
 30
0.0
 11
110.3084525205
 21
182.2394046916
 31
0.0
  0
LINE
  5
AC
330
1F
100
AcDbEntity
  8
0
  6
Continuous
 62
     7
370
    15
100
AcDbLine
 10
108.4354231842
 20
204.5804689332
 30
0.0
 11
108.4354231843
 21
202.0804689332
 31
0.0
  0
LINE
  5
AD
330
1F
100
AcDbEntity
  8
0
  6
Continuous
 62
     7
370
    15
100
AcDbLine
 10
111.2408141995
 20
202.0804689332
 30
0.0
 11
111.2408141995
 21
204.5804689332
 31
0.0
  0
LINE
  5
AE
330
1F
100
AcDbEntity
  8
0
  6
Continuous
 62
     7
370
    15
100
AcDbLine
 10
111.2408141995
 20
202.0804689332
 30
0.0
 11
111.1701952077
 21
202.0804689332
 31
0.0
  0
LINE
  5
AF
330
1F
100
AcDbEntity
  8
0
  6
Continuous
 62
     7
370
    15
100
AcDbLine
 10
108.5060421761
 20
202.0804689332
 30
0.0
 11
108.4354231843
 21
202.0804689332
 31
0.0
  0
LINE
  5
B0
330
1F
100
AcDbEntity
  8
0
  6
Continuous
 62
     7
370
    15
100
AcDbLine
 10
111.2408141995
 20
204.5804689332
 30
0.0
 11
108.4354231842
 21
204.5804689332
 31
0.0
  0
LINE
  5
B1
330
1F
100
AcDbEntity
  8
0
  6
Continuous
 62
     7
370
    15
100
AcDbLine
 10
104.5030615052
 20
204.5804689332
 30
0.0
 11
104.5030615052
 21
202.0804689332
 31
0.0
  0
LINE
  5
B2
330
1F
100
AcDbEntity
  8
0
  6
Continuous
 62
     7
370
    15
100
AcDbLine
 10
108.4354231843
 20
202.0804689332
 30
0.0
 11
108.3364354082
 21
202.0804689332
 31
0.0
  0
LINE
  5
B3
330
1F
100
AcDbEntity
  8
0
  6
Continuous
 62
     7
370
    15
100
AcDbLine
 10
104.6020492812
 20
202.0804689332
 30
0.0
 11
104.5030615052
 21
202.0804689332
 31
0.0
  0
LINE
  5
B4
330
1F
100
AcDbEntity
  8
0
  6
Continuous
 62
     7
370
    15
100
AcDbLine
 10
108.4354231842
 20
204.5804689332
 30
0.0
 11
104.5030615052
 21
204.5804689332
 31
0.0
  0
LINE
  5
B5
330
1F
100
AcDbEntity
  8
0
  6
Continuous
 62
     7
370
    15
100
AcDbLine
 10
103.3760908415
 20
204.5804689332
 30
0.0
 11
103.3760908415
 21
202.0804689332
 31
0.0
  0
LINE
  5
B6
330
1F
100
AcDbEntity
  8
0
  6
Continuous
 62
     7
370
    15
100
AcDbLine
 10
104.5030615052
 20
202.0804689332
 30
0.0
 11
104.4746927211
 21
202.0804689332
 31
0.0
  0
LINE
  5
B7
330
1F
100
AcDbEntity
  8
0
  6
Continuous
 62
     7
370
    15
100
AcDbLine
 10
104.5030615052
 20
204.5804689332
 30
0.0
 11
103.3760908415
 21
204.5804689332
 31
0.0
  0
LINE
  5
B8
330
1F
100
AcDbEntity
  8
0
  6
Continuous
 62
     7
370
    15
100
AcDbLine
 10
104.9584525205
 20
207.0804689332
 30
0.0
 11
109.6584525205
 21
207.0804689332
 31
0.0
  0
LINE
  5
B9
330
1F
100
AcDbEntity
  8
0
  6
Continuous
 62
     7
370
    15
100
AcDbLine
 10
104.9584525205
 20
209.5804689332
 30
0.0
 11
109.6584525205
 21
209.5804689332
 31
0.0
  0
LINE
  5
BA
330
1F
100
AcDbEntity
  8
0
  6
Continuous
 62
     7
370
    15
100
AcDbLine
 10
105.3084525205
 20
212.0804689332
 30
0.0
 11
109.3084525205
 21
212.0804689332
 31
0.0
  0
LINE
  5
BB
330
1F
100
AcDbEntity
  8
0
  6
Continuous
 62
     7
370
    15
100
AcDbLine
 10
104.1090584309
 20
153.8992710867
 30
0.0
 11
104.1090584309
 21
156.4804689332
 31
0.0
  0
LINE
  5
BC
330
1F
100
AcDbEntity
  8
0
  6
Continuous
 62
     7
370
    15
100
AcDbLine
 10
104.1090584309
 20
156.4804689332
 30
0.0
 11
108.5937005522
 21
156.4804689332
 31
0.0
  0
LINE
  5
BD
330
1F
100
AcDbEntity
  8
0
  6
Continuous
 62
     7
370
    15
100
AcDbLine
 10
108.5937005522
 20
153.8992710867
 30
0.0
 11
108.5937005522
 21
156.4804689332
 31
0.0
  0
SPLINE
  5
BE
330
1F
100
AcDbEntity
  8
0
  6
Continuous
 62
     7
370
    15
100
AcDbSpline
210
0.0
220
0.0
230
1.0
 70
     8
 71
     3
 72
    12
 73
     8
 74
     0
 42
0.00000001
 43
0.00000001
 12
1.0
 22
0.0
 32
0.0
 13
1.0
 23
0.0
 33
0.0
 40
0.0
 40
0.0
 40
0.0
 40
0.0
 40
0.5000000000000001
 40
0.5000000000000001
 40
0.75
 40
0.75
 40
1.0
 40
1.0
 40
1.0
 40
1.0
 10
106.3513794915782
 20
153.280468933177
 30
0.0
 10
106.7453154991082
 20
153.280468933177
 30
0.0
 10
107.1291518090688
 20
153.3429545657478
 30
0.0
 10
107.69330952323
 20
153.5084307380631
 30
0.0
 10
107.8802586669043
 20
153.575834445266
 30
0.0
 10
108.2431627177332
 20
153.7264694345275
 30
0.0
 10
108.420102402759
 20
153.8098753796361
 30
0.0
 10
108.5937005522414
 20
153.899271086694
 30
0.0
  0
SPLINE
  5
BF
330
1F
100
AcDbEntity
  8
0
  6
Continuous
 62
     7
370
    15
100
AcDbSpline
210
0.0
220
0.0
230
1.0
 70
     8
 71
     3
 72
    12
 73
     8
 74
     0
 42
0.00000001
 43
0.00000001
 12
1.0
 22
0.0
 32
0.0
 13
1.0
 23
0.0
 33
0.0
 40
0.0
 40
0.0
 40
0.0
 40
0.0
 40
0.5
 40
0.5
 40
0.75
 40
0.75
 40
1.0
 40
1.0
 40
1.0
 40
1.0
 10
104.1090584309149
 20
153.8992710866937
 30
0.0
 10
104.4566112146761
 20
153.7202960979803
 30
0.0
 10
104.8226779585614
 20
153.5633058433224
 30
0.0
 10
105.3833330887438
 20
153.3987190194204
 30
0.0
 10
105.5727396039433
 20
153.355354698268
 30
0.0
 10
105.9575989968933
 20
153.2961975700258
 30
0.0
 10
106.1546390517373
 20
153.280468933177
 30
0.0
 10
106.3513794915782
 20
153.280468933177
 30
0.0
  0
LINE
  5
C0
330
1F
100
AcDbEntity
  8
0
  6
Continuous
 62
     7
370
    15
100
AcDbLine
 10
106.3513794916
 20
153.2804689332
 30
0.0
 11
110.193397597
 21
153.2804689332
 31
0.0
  0
SPLINE
  5
C1
330
1F
100
AcDbEntity
  8
0
  6
Continuous
 62
     7
370
    15
100
AcDbSpline
210
0.0
220
0.0
230
1.0
 70
     8
 71
     3
 72
    12
 73
     8
 74
     0
 42
0.00000001
 43
0.00000001
 12
1.0
 22
0.0
 32
0.0
 13
1.0
 23
0.0
 33
0.0
 40
0.0
 40
0.0
 40
0.0
 40
0.0
 40
0.4999999999999996
 40
0.4999999999999996
 40
0.7499999999999998
 40
0.7499999999999998
 40
1.0
 40
1.0
 40
1.0
 40
1.0
 10
108.5937005522414
 20
153.899271086694
 30
0.0
 10
108.8445553368377
 20
153.7181979542719
 30
0.0
 10
109.1010877630117
 20
153.5643326303446
 30
0.0
 10
109.4997190018021
 20
153.3998218015116
 30
0.0
 10
109.6349259846456
 20
153.3561499806482
 30
0.0
 10
109.9110866533806
 20
153.2963450966727
 30
0.0
 10
110.0532903531013
 20
153.280468933177
 30
0.0
 10
110.1933975970417
 20
153.280468933177
 30
0.0
  0
LINE
  5
C2
330
1F
100
AcDbEntity
  8
0
  6
Continuous
 62
     7
370
    15
100
AcDbLine
 10
111.7930946418
 20
153.8992710867
 30
0.0
 11
111.7930946418
 21
156.4804689332
 31
0.0
  0
SPLINE
  5
C3
330
1F
100
AcDbEntity
  8
0
  6
Continuous
 62
     7
370
    15
100
AcDbSpline
210
0.0
220
0.0
230
1.0
 70
     8
 71
     3
 72
    10
 73
     6
 74
     0
 42
0.00000001
 43
0.00000001
 12
1.0
 22
0.0
 32
0.0
 13
1.0
 23
0.0
 33
0.0
 40
0.0
 40
0.0
 40
0.0
 40
0.0
 40
0.5000000000000002
 40
0.5000000000000002
 40
1.0
 40
1.0
 40
1.0
 40
1.0
 10
110.1933975970417
 20
153.280468933177
 30
0.0
 10
110.471648994785
 20
153.280468933177
 30
0.0
 10
110.7451692912538
 20
153.3418902428116
 30
0.0
 10
111.2846203352041
 20
153.5632638406594
 30
0.0
 10
111.5425299308773
 20
153.7184073365291
 30
0.0
 10
111.7930946418421
 20
153.8992710866938
 30
0.0
  0
LINE
  5
C4
330
1F
100
AcDbEntity
  8
0
  6
Continuous
 62
     7
370
    15
100
AcDbLine
 10
108.5937005522
 20
156.4804689332
 30
0.0
 11
111.7930946418
 21
156.4804689332
 31
0.0
  0
LINE
  5
C5
330
1F
100
AcDbEntity
  8
0
  6
Continuous
 62
     7
370
    15
100
AcDbLine
 10
103.4664344151
 20
153.2804689332
 30
0.0
 11
106.3513794916
 21
153.2804689332
 31
0.0
  0
SPLINE
  5
C6
330
1F
100
AcDbEntity
  8
0
  6
Continuous
 62
     7
370
    15
100
AcDbSpline
210
0.0
220
0.0
230
1.0
 70
     8
 71
     3
 72
    10
 73
     6
 74
     0
 42
0.00000001
 43
0.00000001
 12
1.0
 22
0.0
 32
0.0
 13
1.0
 23
0.0
 33
0.0
 40
0.0
 40
0.0
 40
0.0
 40
0.0
 40
0.5
 40
0.5
 40
1.0
 40
1.0
 40
1.0
 40
1.0
 10
103.4664344150523
 20
153.280468933177
 30
0.0
 10
103.5782124740407
 20
153.280468933177
 30
0.0
 10
103.6880899736011
 20
153.3418902428116
 30
0.0
 10
103.9047961289018
 20
153.5632638406594
 30
0.0
 10
104.0084025590317
 20
153.7184073365292
 30
0.0
 10
104.1090584309151
 20
153.8992710866938
 30
0.0
  0
LINE
  5
C7
330
1F
100
AcDbEntity
  8
0
  6
Continuous
 62
     7
370
    15
100
AcDbLine
 10
104.0084525205
 20
147.7804689332
 30
0.0
 11
110.6084525205
 21
147.7804689332
 31
0.0
  0
LINE
  5
C8
330
1F
100
AcDbEntity
  8
0
  6
Continuous
 62
     7
370
    15
100
AcDbLine
 10
104.0084525205
 20
149.7804689332
 30
0.0
 11
110.6084525205
 21
149.7804689332
 31
0.0
  0
LINE
  5
C9
330
1F
100
AcDbEntity
  8
0
  6
Continuous
 62
     7
370
    15
100
AcDbLine
 10
102.8238103992
 20
153.8992710867
 30
0.0
 11
102.8238103992
 21
156.4804689332
 31
0.0
  0
SPLINE
  5
CA
330
1F
100
AcDbEntity
  8
0
  6
Continuous
 62
     7
370
    15
100
AcDbSpline
210
0.0
220
0.0
230
1.0
 70
     8
 71
     3
 72
    12
 73
     8
 74
     0
 42
0.00000001
 43
0.00000001
 12
1.0
 22
0.0
 32
0.0
 13
1.0
 23
0.0
 33
0.0
 40
0.0
 40
0.0
 40
0.0
 40
0.0
 40
0.4999999999999998
 40
0.4999999999999998
 40
0.7499999999999998
 40
0.7499999999999998
 40
1.0
 40
1.0
 40
1.0
 40
1.0
 10
102.8238103991896
 20
153.899271086694
 30
0.0
 10
102.9245827983133
 20
153.7181979542719
 30
0.0
 10
103.0276359973192
 20
153.5643326303446
 30
0.0
 10
103.1877725733993
 20
153.3998218015116
 30
0.0
 10
103.2420873916769
 20
153.3561499806482
 30
0.0
 10
103.3530255712171
 20
153.2963450966727
 30
0.0
 10
103.410151083127
 20
153.280468933177
 30
0.0
 10
103.4664344150523
 20
153.280468933177
 30
0.0
  0
LINE
  5
CB
330
1F
100
AcDbEntity
  8
0
  6
Continuous
 62
     7
370
    15
100
AcDbLine
 10
102.8238103992
 20
156.4804689332
 30
0.0
 11
104.1090584309
 21
156.4804689332
 31
0.0
  0
SPLINE
  5
CC
330
1F
100
AcDbEntity
  8
0
  6
Continuous
 62
     7
370
    15
100
AcDbSpline
210
0.0
220
0.0
230
1.0
 70
     8
 71
     3
 72
    10
 73
     6
 74
     0
 42
0.00000001
 43
0.00000001
 12
1.0
 22
0.0
 32
0.0
 13
1.0
 23
0.0
 33
0.0
 40
0.0
 40
0.0
 40
0.0
 40
0.0
 40
0.2099062427379579
 40
0.630983245143623
 40
1.0
 40
1.0
 40
1.0
 40
1.0
 10
111.7930946418421
 20
153.899271086694
 30
0.0
 10
111.7714344145417
 20
153.8613377593848
 30
0.0
 10
111.706323247126
 20
153.7473092595534
 30
0.0
 10
111.6005162899117
 20
153.5848788460344
 30
0.0
 10
111.5135359025746
 20
153.4916948471333
 30
0.0
 10
111.4729113311534
 20
153.4481728517208
 30
0.0
  0
LINE
  5
CD
330
1F
100
AcDbEntity
  8
0
  6
Continuous
 62
     7
370
    15
100
AcDbLine
 10
110.193397597
 20
153.2804689332
 30
0.0
 11
111.3084525205
 21
153.2804689332
 31
0.0
  0
LINE
  5
CE
330
1F
100
AcDbEntity
  8
0
  6
Continuous
 62
     7
370
    15
100
AcDbLine
 10
103.3084525205
 20
153.2804689332
 30
0.0
 11
103.4664344151
 21
153.2804689332
 31
0.0
  0
LINE
  5
CF
330
1F
100
AcDbEntity
  8
0
  6
Continuous
 62
     7
370
    15
100
AcDbLine
 10
107.3084525205
 20
170.2804689332
 30
0.0
 11
107.3084525205
 21
170.5062554408
 31
0.0
  0
LINE
  5
D0
330
1F
100
AcDbEntity
  8
0
  6
Continuous
 62
     7
370
    15
100
AcDbLine
 10
107.3084525205
 20
170.7804689332
 30
0.0
 11
107.3084525205
 21
171.0062554408
 31
0.0
  0
LINE
  5
D1
330
1F
100
AcDbEntity
  8
0
  6
Continuous
 62
     7
370
    15
100
AcDbLine
 10
107.3084525205
 20
170.5546824255
 30
0.0
 11
107.3084525205
 21
170.7804689332
 31
0.0
  0
LINE
  5
D2
330
1F
100
AcDbEntity
  8
0
  6
Continuous
 62
     7
370
    15
100
AcDbLine
 10
107.3084525205
 20
182.7804689332
 30
0.0
 11
107.3084525205
 21
183.0304689332
 31
0.0
  0
LINE
  5
D3
330
1F
100
AcDbEntity
  8
0
  6
Continuous
 62
     7
370
    15
100
AcDbLine
 10
107.3084525205
 20
182.7804689332
 30
0.0
 11
107.3084525205
 21
182.5304689332
 31
0.0
  0
LINE
  5
D4
330
1F
100
AcDbEntity
  8
0
  6
Continuous
 62
     7
370
    15
100
AcDbLine
 10
107.3084525205
 20
183.0304689332
 30
0.0
 11
107.3084525205
 21
183.2804689332
 31
0.0
  0
LINE
  5
D5
330
1F
100
AcDbEntity
  8
0
  6
Continuous
 62
     7
370
    15
100
AcDbLine
 10
114.1084525205
 20
164.7804689332
 30
0.0
 11
116.6084525205
 21
164.7804689332
 31
0.0
  0
LINE
  5
D6
330
1F
100
AcDbEntity
  8
0
  6
Continuous
 62
     7
370
    15
100
AcDbLine
 10
114.1084525205
 20
168.2878718185
 30
0.0
 11
114.1084525205
 21
168.1995813612
 31
0.0
  0
LINE
  5
D7
330
1F
100
AcDbEntity
  8
0
  6
Continuous
 62
     7
370
    15
100
AcDbLine
 10
114.1084525205
 20
164.8687593905
 30
0.0
 11
114.1084525205
 21
164.7804689332
 31
0.0
  0
LINE
  5
D8
330
1F
100
AcDbEntity
  8
0
  6
Continuous
 62
     7
370
    15
100
AcDbLine
 10
114.1084525205
 20
168.2878718185
 30
0.0
 11
116.6084525205
 21
168.2878718185
 31
0.0
  0
LINE
  5
D9
330
1F
100
AcDbEntity
  8
0
  6
Continuous
 62
     7
370
    15
100
AcDbLine
 10
116.6084525205
 20
168.2878718185
 30
0.0
 11
116.6084525205
 21
164.7804689332
 31
0.0
  0
LINE
  5
DA
330
1F
100
AcDbEntity
  8
0
  6
Continuous
 62
     7
370
    15
100
AcDbLine
 10
114.1084525205
 20
161.2730660479
 30
0.0
 11
116.6084525205
 21
161.2730660479
 31
0.0
  0
LINE
  5
DB
330
1F
100
AcDbEntity
  8
0
  6
Continuous
 62
     7
370
    15
100
AcDbLine
 10
114.1084525205
 20
164.7804689332
 30
0.0
 11
114.1084525205
 21
164.6921784758
 31
0.0
  0
LINE
  5
DC
330
1F
100
AcDbEntity
  8
0
  6
Continuous
 62
     7
370
    15
100
AcDbLine
 10
114.1084525205
 20
161.3613565052
 30
0.0
 11
114.1084525205
 21
161.2730660479
 31
0.0
  0
LINE
  5
DD
330
1F
100
AcDbEntity
  8
0
  6
Continuous
 62
     7
370
    15
100
AcDbLine
 10
116.6084525205
 20
164.7804689332
 30
0.0
 11
116.6084525205
 21
161.2730660479
 31
0.0
  0
LINE
  5
DE
330
1F
100
AcDbEntity
  8
0
  6
Continuous
 62
     7
370
    15
100
AcDbLine
 10
100.5084525205
 20
168.2878718185
 30
0.0
 11
98.0084525205
 21
168.2878718184
 31
0.0
  0
LINE
  5
DF
330
1F
100
AcDbEntity
  8
0
  6
Continuous
 62
     7
370
    15
100
AcDbLine
 10
100.5084525205
 20
164.7804689332
 30
0.0
 11
100.5084525205
 21
164.8687593905
 31
0.0
  0
LINE
  5
E0
330
1F
100
AcDbEntity
  8
0
  6
Continuous
 62
     7
370
    15
100
AcDbLine
 10
100.5084525205
 20
168.1995813612
 30
0.0
 11
100.5084525205
 21
168.2878718185
 31
0.0
  0
LINE
  5
E1
330
1F
100
AcDbEntity
  8
0
  6
Continuous
 62
     7
370
    15
100
AcDbLine
 10
98.0084525205
 20
164.7804689332
 30
0.0
 11
100.5084525205
 21
164.7804689332
 31
0.0
  0
LINE
  5
E2
330
1F
100
AcDbEntity
  8
0
  6
Continuous
 62
     7
370
    15
100
AcDbLine
 10
98.0084525205
 20
164.7804689332
 30
0.0
 11
98.0084525205
 21
168.2878718184
 31
0.0
  0
LINE
  5
E3
330
1F
100
AcDbEntity
  8
0
  6
Continuous
 62
     7
370
    15
100
AcDbLine
 10
100.5084525205
 20
161.2730660479
 30
0.0
 11
98.0084525205
 21
161.2730660479
 31
0.0
  0
LINE
  5
E4
330
1F
100
AcDbEntity
  8
0
  6
Continuous
 62
     7
370
    15
100
AcDbLine
 10
98.0084525205
 20
161.2730660479
 30
0.0
 11
98.0084525205
 21
164.7804689332
 31
0.0
  0
LINE
  5
E5
330
1F
100
AcDbEntity
  8
0
  6
Continuous
 62
     7
370
    15
100
AcDbLine
 10
100.5084525205
 20
161.2730660479
 30
0.0
 11
100.5084525205
 21
161.3613565052
 31
0.0
  0
LINE
  5
E6
330
1F
100
AcDbEntity
  8
0
  6
Continuous
 62
     7
370
    15
100
AcDbLine
 10
100.5084525205
 20
164.6921784758
 30
0.0
 11
100.5084525205
 21
164.7804689332
 31
0.0
  0
LINE
  5
E7
330
1F
100
AcDbEntity
  8
0
  6
Continuous
 62
     7
370
    15
100
AcDbLine
 10
113.3084525205
 20
166.7804689332
 30
0.0
 11
113.3084525205
 21
162.7804689332
 31
0.0
  0
LINE
  5
E8
330
1F
100
AcDbEntity
  8
0
  6
Continuous
 62
     7
370
    15
100
AcDbLine
 10
114.1084525205
 20
168.7804689332
 30
0.0
 11
114.1084525205
 21
168.2878718185
 31
0.0
  0
LINE
  5
E9
330
1F
100
AcDbEntity
  8
0
  6
Continuous
 62
     7
370
    15
100
AcDbLine
 10
114.1084525205
 20
168.1995813612
 30
0.0
 11
114.1084525205
 21
164.8687593905
 31
0.0
  0
LINE
  5
EA
330
1F
100
AcDbEntity
  8
0
  6
Continuous
 62
     7
370
    15
100
AcDbLine
 10
114.1084525205
 20
164.6921784758
 30
0.0
 11
114.1084525205
 21
161.3613565052
 31
0.0
  0
LINE
  5
EB
330
1F
100
AcDbEntity
  8
0
  6
Continuous
 62
     7
370
    15
100
AcDbLine
 10
114.1084525205
 20
161.2730660479
 30
0.0
 11
114.1084525205
 21
160.7804689332
 31
0.0
  0
LINE
  5
EC
330
1F
100
AcDbEntity
  8
0
  6
Continuous
 62
     7
370
    15
100
AcDbLine
 10
100.5084525205
 20
162.7804689332
 30
0.0
 11
100.5084525205
 21
164.6921784758
 31
0.0
  0
LINE
  5
ED
330
1F
100
AcDbEntity
  8
0
  6
Continuous
 62
     7
370
    15
100
AcDbLine
 10
100.5084525205
 20
164.8687593905
 30
0.0
 11
100.5084525205
 21
168.1995813612
 31
0.0
  0
LINE
  5
EE
330
1F
100
AcDbEntity
  8
0
  6
Continuous
 62
     7
370
    15
100
AcDbLine
 10
100.5084525205
 20
168.2878718185
 30
0.0
 11
100.5084525205
 21
168.7804689332
 31
0.0
  0
LINE
  5
EF
330
1F
100
AcDbEntity
  8
0
  6
Continuous
 62
     7
370
    15
100
AcDbLine
 10
100.5084525205
 20
160.7804689332
 30
0.0
 11
100.5084525205
 21
161.2730660479
 31
0.0
  0
LINE
  5
F0
330
1F
100
AcDbEntity
  8
0
  6
Continuous
 62
     7
370
    15
100
AcDbLine
 10
100.5084525205
 20
161.3613565052
 30
0.0
 11
100.5084525205
 21
162.7804689332
 31
0.0
  0
LINE
  5
F1
330
1F
100
AcDbEntity
  8
0
  6
Continuous
 62
     7
370
    15
100
AcDbLine
 10
101.3084525205
 20
162.7804689332
 30
0.0
 11
101.3084525205
 21
166.7804689332
 31
0.0
  0
LINE
  5
F2
330
1F
100
AcDbEntity
  8
0
  6
Continuous
 62
     7
370
    15
100
AcDbLine
 10
100.3084525205
 20
184.2804689332
 30
0.0
 11
114.3084525205
 21
184.2804689332
 31
0.0
  0
LINE
  5
F3
330
1F
100
AcDbEntity
  8
0
  6
Continuous
 62
     7
370
    15
100
AcDbLine
 10
100.3084525205
 20
186.2804689332
 30
0.0
 11
114.3084525205
 21
186.2804689332
 31
0.0
  0
LINE
  5
F4
330
1F
100
AcDbEntity
  8
0
  6
Continuous
 62
     7
370
    15
100
AcDbLine
 10
101.3084525205
 20
183.2804689332
 30
0.0
 11
113.3084525205
 21
183.2804689332
 31
0.0
  0
LINE
  5
F5
330
1F
100
AcDbEntity
  8
0
  6
Continuous
 62
     7
370
    15
100
AcDbLine
 10
113.3084525205
 20
200.7804689332
 30
0.0
 11
101.3084525205
 21
200.7804689332
 31
0.0
  0
LINE
  5
F6
330
1F
100
AcDbEntity
  8
0
  6
Continuous
 62
     7
370
    15
100
AcDbLine
 10
101.8084525205
 20
201.2804689332
 30
0.0
 11
112.8084525205
 21
201.2804689332
 31
0.0
  0
LINE
  5
F7
330
1F
100
AcDbEntity
  8
0
  6
Continuous
 62
     7
370
    15
100
AcDbLine
 10
103.3084525205
 20
182.4804689332
 30
0.0
 11
107.9187365713
 21
182.4804689332
 31
0.0
  0
LINE
  5
F8
330
1F
100
AcDbEntity
  8
0
  6
Continuous
 62
     7
370
    15
100
AcDbLine
 10
109.9747717871
 20
182.2804689332
 30
0.0
 11
103.5084525205
 21
182.2804689332
 31
0.0
  0
SPLINE
  5
F9
330
1F
100
AcDbEntity
  8
0
  6
Continuous
 62
     7
370
    15
100
AcDbSpline
210
0.0
220
0.0
230
1.0
 70
     8
 71
     3
 72
    12
 73
     8
 74
     0
 42
0.00000001
 43
0.00000001
 12
1.0
 22
0.0
 32
0.0
 13
1.0
 23
0.0
 33
0.0
 40
0.0
 40
0.0
 40
0.0
 40
0.0
 40
0.5
 40
0.5
 40
0.75
 40
0.75
 40
1.0
 40
1.0
 40
1.0
 40
1.0
 10
107.3084525205158
 20
161.2086721634525
 30
0.0
 10
106.838010008014
 20
160.9370620522213
 30
0.0
 10
106.3569201422793
 20
160.706263970464
 30
0.0
 10
105.6093450132015
 20
160.4594978997328
 30
0.0
 10
105.3557840277331
 20
160.3939902741922
 30
0.0
 10
104.8378852818187
 20
160.3042831349395
 30
0.0
 10
104.5712031900798
 20
160.280468933177
 30
0.0
 10
104.3084525205158
 20
160.280468933177
 30
0.0
  0
SPLINE
  5
FA
330
1F
100
AcDbEntity
  8
0
  6
Continuous
 62
     7
370
    15
100
AcDbSpline
210
0.0
220
0.0
230
1.0
 70
     8
 71
     3
 72
    10
 73
     6
 74
     0
 42
0.00000001
 43
0.00000001
 12
1.0
 22
0.0
 32
0.0
 13
1.0
 23
0.0
 33
0.0
 40
0.0
 40
0.0
 40
0.0
 40
0.0
 40
0.5
 40
0.5
 40
1.0
 40
1.0
 40
1.0
 40
1.0
 10
104.3084525205158
 20
160.280468933177
 30
0.0
 10
103.7866323012561
 20
160.280468933177
 30
0.0
 10
103.2736848132678
 20
160.3726008995835
 30
0.0
 10
102.2620232822301
 20
160.7046609541169
 30
0.0
 10
101.7783506958943
 20
160.9373763254059
 30
0.0
 10
101.3084525205158
 20
161.2086721634524
 30
0.0
  0
LINE
  5
FB
330
1F
100
AcDbEntity
  8
0
  6
Continuous
 62
     7
370
    15
100
AcDbLine
 10
101.3084525205
 20
161.2086721635
 30
0.0
 11
101.3084525205
 21
162.7804689332
 31
0.0
  0
LINE
  5
FC
330
1F
100
AcDbEntity
  8
0
  6
Continuous
 62
     7
370
    15
100
AcDbLine
 10
101.3084525205
 20
166.7804689332
 30
0.0
 11
101.3084525205
 21
169.3522657029
 31
0.0
  0
SPLINE
  5
FD
330
1F
100
AcDbEntity
  8
0
  6
Continuous
 62
     7
370
    15
100
AcDbSpline
210
0.0
220
0.0
230
1.0
 70
     8
 71
     3
 72
    12
 73
     8
 74
     0
 42
0.00000001
 43
0.00000001
 12
1.0
 22
0.0
 32
0.0
 13
1.0
 23
0.0
 33
0.0
 40
0.0
 40
0.0
 40
0.0
 40
0.0
 40
0.4999999999999994
 40
0.4999999999999994
 40
0.7499999999999996
 40
0.7499999999999996
 40
1.0
 40
1.0
 40
1.0
 40
1.0
 10
101.3084525205158
 20
169.3522657029015
 30
0.0
 10
101.7788950330177
 20
169.6238758141327
 30
0.0
 10
102.2599848987524
 20
169.85467389589
 30
0.0
 10
103.0075600278301
 20
170.1014399666212
 30
0.0
 10
103.2611210132985
 20
170.1669475921618
 30
0.0
 10
103.779019759213
 20
170.2566547314145
 30
0.0
 10
104.0457018509519
 20
170.280468933177
 30
0.0
 10
104.3084525205158
 20
170.280468933177
 30
0.0
  0
SPLINE
  5
FE
330
1F
100
AcDbEntity
  8
0
  6
Continuous
 62
     7
370
    15
100
AcDbSpline
210
0.0
220
0.0
230
1.0
 70
     8
 71
     3
 72
    10
 73
     6
 74
     0
 42
0.00000001
 43
0.00000001
 12
1.0
 22
0.0
 32
0.0
 13
1.0
 23
0.0
 33
0.0
 40
0.0
 40
0.0
 40
0.0
 40
0.0
 40
0.5
 40
0.5
 40
1.0
 40
1.0
 40
1.0
 40
1.0
 10
104.3084525205158
 20
170.280468933177
 30
0.0
 10
104.8302727397755
 20
170.280468933177
 30
0.0
 10
105.3432202277639
 20
170.1883369667705
 30
0.0
 10
106.3548817588015
 20
169.8562769122371
 30
0.0
 10
106.8385543451374
 20
169.6235615409481
 30
0.0
 10
107.3084525205159
 20
169.3522657029016
 30
0.0
  0
LINE
  5
FF
330
1F
100
AcDbEntity
  8
0
  6
Continuous
 62
     7
370
    15
100
AcDbLine
 10
107.3084525205
 20
161.2086721635
 30
0.0
 11
107.3084525205
 21
169.3522657029
 31
0.0
  0
LINE
  5
100
330
1F
100
AcDbEntity
  8
0
  6
Continuous
 62
     7
370
    15
100
AcDbLine
 10
104.3084525205
 20
170.2804689332
 30
0.0
 11
110.3084525205
 21
170.2804689332
 31
0.0
  0
SPLINE
  5
101
330
1F
100
AcDbEntity
  8
0
  6
Continuous
 62
     7
370
    15
100
AcDbSpline
210
0.0
220
0.0
230
1.0
 70
     8
 71
     3
 72
    12
 73
     8
 74
     0
 42
0.00000001
 43
0.00000001
 12
1.0
 22
0.0
 32
0.0
 13
1.0
 23
0.0
 33
0.0
 40
0.0
 40
0.0
 40
0.0
 40
0.0
 40
0.5000000000000004
 40
0.5000000000000004
 40
0.7500000000000002
 40
0.7500000000000002
 40
1.0
 40
1.0
 40
1.0
 40
1.0
 10
107.3084525205158
 20
169.3522657029015
 30
0.0
 10
107.7788950330177
 20
169.6238758141327
 30
0.0
 10
108.2599848987524
 20
169.85467389589
 30
0.0
 10
109.0075600278301
 20
170.1014399666212
 30
0.0
 10
109.2611210132985
 20
170.1669475921618
 30
0.0
 10
109.779019759213
 20
170.2566547314145
 30
0.0
 10
110.0457018509519
 20
170.280468933177
 30
0.0
 10
110.3084525205158
 20
170.280468933177
 30
0.0
  0
SPLINE
  5
102
330
1F
100
AcDbEntity
  8
0
  6
Continuous
 62
     7
370
    15
100
AcDbSpline
210
0.0
220
0.0
230
1.0
 70
     8
 71
     3
 72
    10
 73
     6
 74
     0
 42
0.00000001
 43
0.00000001
 12
1.0
 22
0.0
 32
0.0
 13
1.0
 23
0.0
 33
0.0
 40
0.0
 40
0.0
 40
0.0
 40
0.0
 40
0.5
 40
0.5
 40
1.0
 40
1.0
 40
1.0
 40
1.0
 10
110.3084525205158
 20
160.280468933177
 30
0.0
 10
109.7866323012561
 20
160.280468933177
 30
0.0
 10
109.2736848132678
 20
160.3726008995835
 30
0.0
 10
108.2620232822301
 20
160.7046609541169
 30
0.0
 10
107.7783506958943
 20
160.9373763254059
 30
0.0
 10
107.3084525205158
 20
161.2086721634524
 30
0.0
  0
LINE
  5
103
330
1F
100
AcDbEntity
  8
0
  6
Continuous
 62
     7
370
    15
100
AcDbLine
 10
110.3084525205
 20
160.2804689332
 30
0.0
 11
104.3084525205
 21
160.2804689332
 31
0.0
  0
SPLINE
  5
104
330
1F
100
AcDbEntity
  8
0
  6
Continuous
 62
     7
370
    15
100
AcDbSpline
210
0.0
220
0.0
230
1.0
 70
     8
 71
     3
 72
    12
 73
     8
 74
     0
 42
0.00000001
 43
0.00000001
 12
1.0
 22
0.0
 32
0.0
 13
1.0
 23
0.0
 33
0.0
 40
0.0
 40
0.0
 40
0.0
 40
0.0
 40
0.5000000000000003
 40
0.5000000000000003
 40
0.7500000000000002
 40
0.7500000000000002
 40
1.0
 40
1.0
 40
1.0
 40
1.0
 10
113.3084525205158
 20
161.2086721634525
 30
0.0
 10
112.838010008014
 20
160.9370620522213
 30
0.0
 10
112.3569201422793
 20
160.706263970464
 30
0.0
 10
111.6093450132015
 20
160.4594978997328
 30
0.0
 10
111.3557840277331
 20
160.3939902741922
 30
0.0
 10
110.8378852818187
 20
160.3042831349395
 30
0.0
 10
110.5712031900798
 20
160.280468933177
 30
0.0
 10
110.3084525205158
 20
160.280468933177
 30
0.0
  0
SPLINE
  5
105
330
1F
100
AcDbEntity
  8
0
  6
Continuous
 62
     7
370
    15
100
AcDbSpline
210
0.0
220
0.0
230
1.0
 70
     8
 71
     3
 72
    10
 73
     6
 74
     0
 42
0.00000001
 43
0.00000001
 12
1.0
 22
0.0
 32
0.0
 13
1.0
 23
0.0
 33
0.0
 40
0.0
 40
0.0
 40
0.0
 40
0.0
 40
0.5
 40
0.5
 40
1.0
 40
1.0
 40
1.0
 40
1.0
 10
110.3084525205158
 20
170.280468933177
 30
0.0
 10
110.8302727397755
 20
170.280468933177
 30
0.0
 10
111.3432202277639
 20
170.1883369667705
 30
0.0
 10
112.3548817588015
 20
169.8562769122371
 30
0.0
 10
112.8385543451374
 20
169.6235615409481
 30
0.0
 10
113.3084525205159
 20
169.3522657029016
 30
0.0
  0
LINE
  5
106
330
1F
100
AcDbEntity
  8
0
  6
Continuous
 62
     7
370
    15
100
AcDbLine
 10
113.3084525205
 20
161.2086721635
 30
0.0
 11
113.3084525205
 21
162.7804689332
 31
0.0
  0
LINE
  5
107
330
1F
100
AcDbEntity
  8
0
  6
Continuous
 62
     7
370
    15
100
AcDbLine
 10
113.3084525205
 20
166.7804689332
 30
0.0
 11
113.3084525205
 21
169.3522657029
 31
0.0
  0
SPLINE
  5
108
330
1F
100
AcDbEntity
  8
0
  6
Continuous
 62
     7
370
    15
100
AcDbSpline
210
0.0
220
0.0
230
1.0
 70
    24
 71
     3
 72
    12
 73
     8
 74
     0
 42
0.00000001
 43
0.00000001
 12
1.0
 22
0.0
 32
0.0
 13
1.0
 23
0.0
 33
0.0
 40
0.0
 40
0.0
 40
0.0
 40
0.0
 40
0.4999999999999997
 40
0.4999999999999997
 40
0.7499999999999998
 40
0.7499999999999998
 40
1.0
 40
1.0
 40
1.0
 40
1.0
 10
113.3084525205158
 20
160.280468933177
 30
0.0
 10
113.3084525205158
 20
160.280468933177
 30
0.0
 10
113.3084525205158
 20
160.3743338843583
 30
0.0
 10
113.3084525205158
 20
160.6225355180509
 30
0.0
 10
113.3084525205158
 20
160.7236114628055
 30
0.0
 10
113.3084525205158
 20
160.9495328427988
 30
0.0
 10
113.3084525205158
 20
161.0746151218375
 30
0.0
 10
113.3084525205158
 20
161.2086721634525
 30
0.0
  0
LINE
  5
109
330
1F
100
AcDbEntity
  8
0
  6
Continuous
 62
     7
370
    15
100
AcDbLine
 10
113.3084525205
 20
160.2804689332
 30
0.0
 11
110.3084525205
 21
160.2804689332
 31
0.0
  0
SPLINE
  5
10A
330
1F
100
AcDbEntity
  8
0
  6
Continuous
 62
     7
370
    15
100
AcDbSpline
210
0.0
220
0.0
230
1.0
 70
    24
 71
     3
 72
    12
 73
     8
 74
     0
 42
0.00000001
 43
0.00000001
 12
1.0
 22
0.0
 32
0.0
 13
1.0
 23
0.0
 33
0.0
 40
0.0
 40
0.0
 40
0.0
 40
0.0
 40
0.5
 40
0.5
 40
0.75
 40
0.75
 40
1.0
 40
1.0
 40
1.0
 40
1.0
 10
101.3084525205158
 20
170.280468933177
 30
0.0
 10
101.3084525205158
 20
170.280468933177
 30
0.0
 10
101.3084525205158
 20
170.1866039819957
 30
0.0
 10
101.3084525205158
 20
169.9384023483031
 30
0.0
 10
101.3084525205158
 20
169.8373264035485
 30
0.0
 10
101.3084525205158
 20
169.6114050235552
 30
0.0
 10
101.3084525205158
 20
169.4863227445165
 30
0.0
 10
101.3084525205158
 20
169.3522657029015
 30
0.0
  0
LINE
  5
10B
330
1F
100
AcDbEntity
  8
0
  6
Continuous
 62
     7
370
    15
100
AcDbLine
 10
101.3084525205
 20
170.2804689332
 30
0.0
 11
104.3084525205
 21
170.2804689332
 31
0.0
  0
SPLINE
  5
10C
330
1F
100
AcDbEntity
  8
0
  6
Continuous
 62
     7
370
    15
100
AcDbSpline
210
0.0
220
0.0
230
1.0
 70
    24
 71
     3
 72
    12
 73
     8
 74
     0
 42
0.00000001
 43
0.00000001
 12
1.0
 22
0.0
 32
0.0
 13
1.0
 23
0.0
 33
0.0
 40
0.0
 40
0.0
 40
0.0
 40
0.0
 40
0.4999999999999998
 40
0.4999999999999998
 40
0.7499999999999999
 40
0.7499999999999999
 40
1.0
 40
1.0
 40
1.0
 40
1.0
 10
101.3084525205158
 20
160.280468933177
 30
0.0
 10
101.3084525205158
 20
160.280468933177
 30
0.0
 10
101.3084525205158
 20
160.3743338843583
 30
0.0
 10
101.3084525205158
 20
160.6225355180509
 30
0.0
 10
101.3084525205158
 20
160.7236114628055
 30
0.0
 10
101.3084525205158
 20
160.9495328427988
 30
0.0
 10
101.3084525205158
 20
161.0746151218375
 30
0.0
 10
101.3084525205158
 20
161.2086721634525
 30
0.0
  0
LINE
  5
10D
330
1F
100
AcDbEntity
  8
0
  6
Continuous
 62
     7
370
    15
100
AcDbLine
 10
104.3084525205
 20
160.2804689332
 30
0.0
 11
101.3084525205
 21
160.2804689332
 31
0.0
  0
SPLINE
  5
10E
330
1F
100
AcDbEntity
  8
0
  6
Continuous
 62
     7
370
    15
100
AcDbSpline
210
0.0
220
0.0
230
1.0
 70
    24
 71
     3
 72
    12
 73
     8
 74
     0
 42
0.00000001
 43
0.00000001
 12
1.0
 22
0.0
 32
0.0
 13
1.0
 23
0.0
 33
0.0
 40
0.0
 40
0.0
 40
0.0
 40
0.0
 40
0.5
 40
0.5
 40
0.75
 40
0.75
 40
1.0
 40
1.0
 40
1.0
 40
1.0
 10
113.3084525205158
 20
170.280468933177
 30
0.0
 10
113.3084525205158
 20
170.280468933177
 30
0.0
 10
113.3084525205158
 20
170.1866039819957
 30
0.0
 10
113.3084525205158
 20
169.9384023483031
 30
0.0
 10
113.3084525205158
 20
169.8373264035485
 30
0.0
 10
113.3084525205158
 20
169.6114050235552
 30
0.0
 10
113.3084525205158
 20
169.4863227445165
 30
0.0
 10
113.3084525205158
 20
169.3522657029015
 30
0.0
  0
LINE
  5
10F
330
1F
100
AcDbEntity
  8
0
  6
Continuous
 62
     7
370
    15
100
AcDbLine
 10
110.3084525205
 20
170.2804689332
 30
0.0
 11
113.3084525205
 21
170.2804689332
 31
0.0
  0
LINE
  5
110
330
1F
100
AcDbEntity
  8
0
  6
Continuous
 62
     7
370
    15
100
AcDbLine
 10
112.0084525205
 20
157.2804689332
 30
0.0
 11
102.6084525205
 21
157.2804689332
 31
0.0
  0
LINE
  5
111
330
1F
100
AcDbEntity
  8
0
  6
Continuous
 62
     7
370
    15
100
AcDbLine
 10
102.3084525205
 20
157.5804689332
 30
0.0
 11
112.3084525205
 21
157.5804689332
 31
0.0
  0
LINE
  5
112
330
1F
100
AcDbEntity
  8
0
  6
Continuous
 62
     7
370
    15
100
AcDbLine
 10
103.6084525205
 20
175.2804689332
 30
0.0
 11
107.9174875559
 21
175.2804689332
 31
0.0
  0
LINE
  5
113
330
1F
100
AcDbEntity
  8
0
  6
Continuous
 62
     7
370
    15
100
AcDbLine
 10
110.7680027137
 20
174.9804689332
 30
0.0
 11
103.3084525205
 21
174.9804689332
 31
0.0
  0
LINE
  5
114
330
1F
100
AcDbEntity
  8
0
  6
Continuous
 62
     7
370
    15
100
AcDbLine
 10
108.5580716985
 20
202.0804689332
 30
0.0
 11
108.5060421761
 21
202.0804689332
 31
0.0
  0
LINE
  5
115
330
1F
100
AcDbEntity
  8
0
  6
Continuous
 62
     7
370
    15
100
AcDbLine
 10
108.3364354082
 20
202.0804689332
 30
0.0
 11
104.6020492812
 21
202.0804689332
 31
0.0
  0
LINE
  5
116
330
1F
100
AcDbEntity
  8
0
  6
Continuous
 62
     7
370
    15
100
AcDbLine
 10
104.4746927211
 20
202.0804689332
 30
0.0
 11
103.3084525205
 21
202.0804689332
 31
0.0
  0
LINE
  5
117
330
1F
100
AcDbEntity
  8
0
  6
Continuous
 62
     7
370
    15
100
AcDbLine
 10
111.3084525205
 20
202.0804689332
 30
0.0
 11
111.2408141995
 21
202.0804689332
 31
0.0
  0
LINE
  5
118
330
1F
100
AcDbEntity
  8
0
  6
Continuous
 62
     7
370
    15
100
AcDbLine
 10
111.1701952077
 20
202.0804689332
 30
0.0
 11
108.5580716985
 21
202.0804689332
 31
0.0
  0
LINE
  5
119
330
1F
100
AcDbEntity
  8
0
  6
Continuous
 62
     8
370
    15
100
AcDbLine
 10
103.8084525205
 20
147.9804689332
 30
0.0
 11
110.8084525205
 21
147.9804689332
 31
0.0
  0
LINE
  5
11A
330
1F
100
AcDbEntity
  8
0
  6
Continuous
 62
     8
370
    15
100
AcDbLine
 10
103.8084525205
 20
149.5804689332
 30
0.0
 11
110.8084525205
 21
149.5804689332
 31
0.0
  0
DIMENSION
  5
11B
330
1F
100
AcDbEntity
  8
0
  6
Continuous
 62
     7
370
     0
100
AcDbDimension
  2
_D
 10
114.3084525205
 20
234.0804689332
 30
0.0
 11
106.242172135
 21
234.0804689332
 31
0.0
 70
   160
  1
%%c<>
 71
     2
 42
-1.0
  3
SLDDIMSTYLE0
100
AcDbAlignedDimension
 13
100.3084525205
 23
186.2804689332
 33
0.0
 14
114.3084525205
 24
186.2804689332
 34
0.0
100
AcDbRotatedDimension
  0
DIMENSION
  5
128
330
1F
100
AcDbEntity
  8
0
  6
Continuous
 62
     7
370
     0
100
AcDbDimension
  2
_D_1
 10
113.3084525205
 20
220.0012886256
 30
0.0
 11
106.3823051438
 21
220.0012886256
 31
0.0
 70
   160
  1
%%c<>
 71
     2
 42
-1.0
  3
SLDDIMSTYLE0
100
AcDbAlignedDimension
 13
101.3084525205
 23
200.7804689332
 33
0.0
 14
113.3084525205
 24
200.7804689332
 34
0.0
100
AcDbRotatedDimension
  0
DIMENSION
  5
133
330
1F
100
AcDbEntity
  8
0
  6
Continuous
 62
     7
370
     0
100
AcDbDimension
  2
_D_2
 10
126.6084525205
 20
147.7804689332
 30
0.0
 11
126.6084525205
 21
178.5425322022
 31
0.0
 70
   160
  1
<>
 71
     2
 42
-1.0
  3
SLDDIMSTYLE1
100
AcDbAlignedDimension
 13
109.3084525205
 23
212.0804689332
 33
0.0
 14
110.6084525205
 24
147.7804689332
 34
0.0
 50
90.0
100
AcDbRotatedDimension
  0
DIMENSION
  5
13E
330
1F
100
AcDbEntity
  8
0
  6
Continuous
 62
     7
370
     0
100
AcDbDimension
  2
_D_3
 10
79.8366154859
 20
186.2804689332
 30
0.0
 11
79.8366154859
 21
192.9593379972
 31
0.0
 70
   160
  1
<>
 71
     2
 42
-1.0
  3
SLDDIMSTYLE0
100
AcDbAlignedDimension
 13
101.8084525205
 23
201.2804689332
 33
0.0
 14
100.3084525205
 24
186.2804689332
 34
0.0
 50
90.0
100
AcDbRotatedDimension
  0
DIMENSION
  5
148
330
1F
100
AcDbEntity
  8
0
  6
Continuous
 62
     7
370
     0
100
AcDbDimension
  2
_D_4
 10
79.8366154859
 20
170.2804689332
 30
0.0
 11
79.8366154859
 21
175.8790022192
 31
0.0
 70
   160
  1
<>
 71
     2
 42
-1.0
  3
SLDDIMSTYLE0
100
AcDbAlignedDimension
 13
101.3084525205
 23
183.2804689332
 33
0.0
 14
101.3084525205
 24
170.2804689332
 34
0.0
 50
90.0
100
AcDbRotatedDimension
  0
DIMENSION
  5
152
330
1F
100
AcDbEntity
  8
0
  6
Continuous
 62
     7
370
     0
100
AcDbDimension
  2
_D_5
 10
92.3639807012
 20
170.2804689332
 30
0.0
 11
92.3639807012
 21
172.9850648298
 31
0.0
 70
   160
  1
<>
 71
     2
 42
-1.0
  3
SLDDIMSTYLE0
100
AcDbAlignedDimension
 13
103.6084525205
 23
175.2804689332
 33
0.0
 14
101.3084525205
 24
170.2804689332
 34
0.0
 50
90.0
100
AcDbRotatedDimension
  0
DIMENSION
  5
15C
330
1F
100
AcDbEntity
  8
0
  6
Continuous
 62
     7
370
     0
100
AcDbDimension
  2
_D_6
 10
92.3639807012
 20
175.2804689332
 30
0.0
 11
92.3639807012
 21
178.5425322022
 31
0.0
 70
   160
  1
<>st
 71
     2
 42
-1.0
  3
SLDDIMSTYLE0
100
AcDbAlignedDimension
 13
103.5084525205
 23
182.2804689332
 33
0.0
 14
103.6084525205
 24
175.2804689332
 34
0.0
 50
90.0
100
AcDbRotatedDimension
  0
DIMENSION
  5
167
330
1F
100
AcDbEntity
  8
0
  6
Continuous
 62
     7
370
     0
100
AcDbDimension
  2
_D_7
 10
99.2198446332
 20
147.7804689332
 30
0.0
 11
99.2198446332
 21
142.7604978211
 31
0.0
 70
   160
  1
<>
 71
     2
 42
-1.0
  3
SLDDIMSTYLE2
100
AcDbAlignedDimension
 13
104.0084525205
 23
149.7804689332
 33
0.0
 14
104.0084525205
 24
147.7804689332
 34
0.0
 50
90.0
100
AcDbRotatedDimension
  0
DIMENSION
  5
174
330
1F
100
AcDbEntity
  8
0
  6
Continuous
 62
     7
370
     0
100
AcDbDimension
  2
_D_8
 10
110.8084525205
 20
134.7393760967
 30
0.0
 11
117.777931512
 21
134.7393760967
 31
0.0
 70
   160
  1
%%c<>
 71
     2
 42
-1.0
  3
SLDDIMSTYLE2
100
AcDbAlignedDimension
 13
103.8084525205
 23
147.9804689332
 33
0.0
 14
110.8084525205
 24
147.9804689332
 34
0.0
100
AcDbRotatedDimension
  0
MTEXT
  5
181
330
1F
100
AcDbEntity
  8
0
  6
Continuous
 62
     7
370
     0
100
AcDbMText
 10
79.7616557047
 20
223.3471982836
 30
0.0
 40
3.5
 41
0.0
 71
     1
 72
     1
  1
BF-6
  7
SLDTEXTSTYLE1
 73
     1
 44
1.0
  0
LEADER
  5
183
330
1F
100
AcDbEntity
  8
0
  6
Continuous
 62
     7
370
     0
100
AcDbLeader
  3
SLDDIMSTYLE3
 76
     3
 10
106.1183780107
 20
207.8832359223
 30
0.0
 10
89.2456037515
 20
218.7573270809
 30
0.0
 10
79.7186400938
 20
218.7573270809
 30
0.0
  0
MTEXT
  5
184
330
1F
100
AcDbEntity
  8
0
  6
Continuous
 62
     7
370
     0
100
AcDbMText
 10
75.8047105574
 20
161.9811232968
 30
0.0
 40
3.5
 41
0.0
 71
     1
 72
     1
  1
PF 2ヶ
  7
SLDTEXTSTYLE0
 73
     1
 44
1.0
  0
LEADER
  5
185
330
1F
100
AcDbEntity
  8
0
  6
Continuous
 62
     7
370
     0
100
AcDbLeader
  3
SLDDIMSTYLE3
 76
     3
 10
98.7671740753
 20
163.6529518079
 30
0.0
 10
88.4249706917
 20
157.4443141852
 30
0.0
 10
75.7327080891
 20
157.4443141852
 30
0.0
  0
MTEXT
  5
186
330
1F
100
AcDbEntity
  8
0
  6
Continuous
 62
     7
370
     0
100
AcDbMText
 10
75.8047105574
 20
154.248058291
 30
0.0
 40
3.5
 41
0.0
 71
     1
 72
     1
  1
Ｍ５
  7
SLDTEXTSTYLE1
 73
     1
 44
1.0
  0
LEADER
  5
187
330
1F
100
AcDbEntity
  8
0
  6
Continuous
 62
     7
370
     0
100
AcDbLeader
  3
SLDDIMSTYLE3
 76
     3
 10
104.2235789111
 20
156.8755093322
 30
0.0
 10
93.2315357562
 20
149.7069167644
 30
0.0
 10
75.7327080891
 20
149.7069167644
 30
0.0
  0
LINE
  5
188
330
1F
100
AcDbEntity
  8
0
  6
Continuous
 62
     7
370
    15
100
AcDbLine
 10
113.3084525205
 20
89.7715972101
 30
0.0
 11
114.1084525205
 21
89.7715972101
 31
0.0
  0
LINE
  5
189
330
1F
100
AcDbEntity
  8
0
  6
Continuous
 62
     7
370
    15
100
AcDbLine
 10
114.1084525205
 20
97.7715972101
 30
0.0
 11
113.3084525205
 21
97.7715972101
 31
0.0
  0
LINE
  5
18A
330
1F
100
AcDbEntity
  8
0
  6
Continuous
 62
     7
370
    15
100
AcDbLine
 10
101.3084525205
 20
97.7715972101
 30
0.0
 11
100.5084525205
 21
97.7715972101
 31
0.0
  0
LINE
  5
18B
330
1F
100
AcDbEntity
  8
0
  6
Continuous
 62
     7
370
    15
100
AcDbLine
 10
100.5084525205
 20
89.7715972101
 30
0.0
 11
101.3084525205
 21
89.7715972101
 31
0.0
  0
ARC
  5
18C
330
1F
100
AcDbEntity
  8
0
  6
Continuous
 62
     7
370
    15
100
AcDbCircle
 10
107.3084525205
 20
93.2642638371
 30
0.0
 40
1.250000000000002
100
AcDbArc
 50
52.771738091
 51
127.228261909
  0
CIRCLE
  5
18D
330
1F
100
AcDbEntity
  8
0
  6
Continuous
 62
     7
370
    15
100
AcDbCircle
 10
107.3084525205
 20
93.7715972101
 30
0.0
 40
3.300000000000006
  0
CIRCLE
  5
18E
330
1F
100
AcDbEntity
  8
0
  6
Continuous
 62
     7
370
    15
100
AcDbCircle
 10
107.3084525205
 20
93.7715972101
 30
0.0
 40
3.500000000000017
  0
CIRCLE
  5
18F
330
1F
100
AcDbEntity
  8
0
  6
Continuous
 62
     7
370
    15
100
AcDbCircle
 10
107.3084525205
 20
93.7715972101
 30
0.0
 40
0.899999999999995
  0
SPLINE
  5
190
330
1F
100
AcDbEntity
  8
0
  6
Continuous
 62
     7
370
    15
100
AcDbSpline
210
0.0
220
0.0
230
1.0
 70
    24
 71
     3
 72
    12
 73
     8
 74
     0
 42
0.00000001
 43
0.00000001
 12
1.0
 22
0.0
 32
0.0
 13
1.0
 23
0.0
 33
0.0
 40
0.0
 40
0.0
 40
0.0
 40
0.0
 40
0.5
 40
0.5
 40
0.75
 40
0.75
 40
1.0
 40
1.0
 40
1.0
 40
1.0
 10
106.0232044887903
 20
89.33521683526564
 30
0.0
 10
105.772349704194
 20
89.59640985620176
 30
0.0
 10
105.51581727802
 20
89.86351450588302
 30
0.0
 10
105.1171860392296
 20
90.27857414952
 30
0.0
 10
104.9819790563861
 20
90.41935328736811
 30
0.0
 10
104.7058183876511
 20
90.70689509944361
 30
0.0
 10
104.5636146879303
 20
90.85495930311484
 30
0.0
 10
104.42350744399
 20
91.00084065179509
 30
0.0
  0
ARC
  5
191
330
1F
100
AcDbEntity
  8
0
  6
Continuous
 62
     7
370
    15
100
AcDbCircle
 10
107.3084525205
 20
93.7715972101
 30
0.0
 40
4.000000000000006
100
AcDbArc
 50
223.8433563482
 51
283.8433563482
  0
SPLINE
  5
192
330
1F
100
AcDbEntity
  8
0
  6
Continuous
 62
     7
370
    15
100
AcDbSpline
210
0.0
220
0.0
230
1.0
 70
    24
 71
     3
 72
    12
 73
     8
 74
     0
 42
0.00000001
 43
0.00000001
 12
1.0
 22
0.0
 32
0.0
 13
1.0
 23
0.0
 33
0.0
 40
0.0
 40
0.0
 40
0.0
 40
0.0
 40
0.5
 40
0.5
 40
0.75
 40
0.75
 40
1.0
 40
1.0
 40
1.0
 40
1.0
 10
106.0232044887901
 20
89.3352168352656
 30
0.0
 10
106.3707572725513
 20
89.42086290254166
 30
0.0
 10
106.7368240164366
 20
89.51107129228618
 30
0.0
 10
107.2974791466189
 20
89.64923133370095
 30
0.0
 10
107.4868856618185
 20
89.6959060372316
 30
0.0
 10
107.8717450547685
 20
89.7907454256655
 30
0.0
 10
108.0687851096124
 20
89.83930123238532
 30
0.0
 10
108.2655255494534
 20
89.88778320615688
 30
0.0
  0
SPLINE
  5
193
330
1F
100
AcDbEntity
  8
0
  6
Continuous
 62
     7
370
    15
100
AcDbSpline
210
0.0
220
0.0
230
1.0
 70
    24
 71
     3
 72
    12
 73
     8
 74
     0
 42
0.00000001
 43
0.00000001
 12
1.0
 22
0.0
 32
0.0
 13
1.0
 23
0.0
 33
0.0
 40
0.0
 40
0.0
 40
0.0
 40
0.0
 40
0.5
 40
0.5
 40
0.75
 40
0.75
 40
1.0
 40
1.0
 40
1.0
 40
1.0
 10
108.2655255494534
 20
89.88778320615688
 30
0.0
 10
108.6594615569834
 20
89.9848593090678
 30
0.0
 10
109.043297866944
 20
90.07944658317942
 30
0.0
 10
109.6074555811052
 20
90.21846975260556
 30
0.0
 10
109.7944047247795
 20
90.26453889572406
 30
0.0
 10
110.1573087756084
 20
90.35396791544211
 30
0.0
 10
110.3342484606342
 20
90.39757046698415
 30
0.0
 10
110.5078466101165
 20
90.44034957704814
 30
0.0
  0
ARC
  5
194
330
1F
100
AcDbEntity
  8
0
  6
Continuous
 62
     7
370
    15
100
AcDbCircle
 10
107.3084525205
 20
93.7715972101
 30
0.0
 40
4.000000000000006
100
AcDbArc
 50
283.8433563482
 51
343.8433563482
  0
SPLINE
  5
195
330
1F
100
AcDbEntity
  8
0
  6
Continuous
 62
     7
370
    15
100
AcDbSpline
210
0.0
220
0.0
230
1.0
 70
    24
 71
     3
 72
    10
 73
     6
 74
     0
 42
0.00000001
 43
0.00000001
 12
1.0
 22
0.0
 32
0.0
 13
1.0
 23
0.0
 33
0.0
 40
0.0
 40
0.0
 40
0.0
 40
0.0
 40
0.5
 40
0.5
 40
1.0
 40
1.0
 40
1.0
 40
1.0
 10
111.1504706259793
 20
92.65853976446898
 30
0.0
 10
111.0386925669909
 20
92.27270763324348
 30
0.0
 10
110.9288150674306
 20
91.89343579570426
 30
0.0
 10
110.7121089121298
 20
91.14541602772772
 30
0.0
 10
110.6085024819999
 20
90.78779047842542
 30
0.0
 10
110.5078466101165
 20
90.44034957704807
 30
0.0
  0
ARC
  5
196
330
1F
100
AcDbEntity
  8
0
  6
Continuous
 62
     7
370
    15
100
AcDbCircle
 10
107.3084525205
 20
93.7715972101
 30
0.0
 40
4.000000000000015
100
AcDbArc
 50
43.8433563482
 51
103.8433563482
  0
ARC
  5
197
330
1F
100
AcDbEntity
  8
0
  6
Continuous
 62
     7
370
    15
100
AcDbCircle
 10
107.3084525205
 20
93.7715972101
 30
0.0
 40
4.000000000000015
100
AcDbArc
 50
343.8433563482
 51
43.8433563482
  0
ARC
  5
198
330
1F
100
AcDbEntity
  8
0
  6
Continuous
 62
     7
370
    15
100
AcDbCircle
 10
107.3084525205
 20
93.7715972101
 30
0.0
 40
4.000000000000013
100
AcDbArc
 50
163.8433563482
 51
223.8433563482
  0
ARC
  5
199
330
1F
100
AcDbEntity
  8
0
  6
Continuous
 62
     7
370
    15
100
AcDbCircle
 10
107.3084525205
 20
93.7715972101
 30
0.0
 40
4.000000000000013
100
AcDbArc
 50
103.8433563482
 51
163.8433563482
  0
SPLINE
  5
19A
330
1F
100
AcDbEntity
  8
0
  6
Continuous
 62
     7
370
    15
100
AcDbSpline
210
0.0
220
0.0
230
1.0
 70
    24
 71
     3
 72
    12
 73
     8
 74
     0
 42
0.00000001
 43
0.00000001
 12
1.0
 22
0.0
 32
0.0
 13
1.0
 23
0.0
 33
0.0
 40
0.0
 40
0.0
 40
0.0
 40
0.0
 40
0.4999999999999998
 40
0.4999999999999998
 40
0.7499999999999998
 40
0.7499999999999998
 40
1.0
 40
1.0
 40
1.0
 40
1.0
 10
102.8238103991896
 20
92.66646446832468
 30
0.0
 10
102.9245827983133
 20
93.01430759491403
 30
0.0
 10
103.0276359973192
 20
93.37002351771582
 30
0.0
 10
103.1877725733993
 20
93.92277811906888
 30
0.0
 10
103.2420873916769
 20
94.11026036990444
 30
0.0
 10
103.3530255712171
 20
94.49319343059281
 30
0.0
 10
103.410151083127
 20
94.69037754889877
 30
0.0
 10
103.4664344150523
 20
94.88465465574544
 30
0.0
  0
SPLINE
  5
19B
330
1F
100
AcDbEntity
  8
0
  6
Continuous
 62
     7
370
    15
100
AcDbSpline
210
0.0
220
0.0
230
1.0
 70
    24
 71
     3
 72
    10
 73
     6
 74
     0
 42
0.00000001
 43
0.00000001
 12
1.0
 22
0.0
 32
0.0
 13
1.0
 23
0.0
 33
0.0
 40
0.0
 40
0.0
 40
0.0
 40
0.0
 40
0.5
 40
0.5
 40
1.0
 40
1.0
 40
1.0
 40
1.0
 10
104.42350744399
 20
91.00084065179509
 30
0.0
 10
104.1452560462466
 20
91.29055935607751
 30
0.0
 10
103.8717357497778
 20
91.5753519807707
 30
0.0
 10
103.3322847058276
 20
92.1370349004059
 30
0.0
 10
103.0743751101543
 20
92.40557347554493
 30
0.0
 10
102.8238103991895
 20
92.66646446832472
 30
0.0
  0
SPLINE
  5
19C
330
1F
100
AcDbEntity
  8
0
  6
Continuous
 62
     7
370
    15
100
AcDbSpline
210
0.0
220
0.0
230
1.0
 70
    24
 71
     3
 72
    10
 73
     6
 74
     0
 42
0.00000001
 43
0.00000001
 12
1.0
 22
0.0
 32
0.0
 13
1.0
 23
0.0
 33
0.0
 40
0.0
 40
0.0
 40
0.0
 40
0.0
 40
0.5000000000000002
 40
0.5000000000000002
 40
1.0
 40
1.0
 40
1.0
 40
1.0
 10
110.1933975970417
 20
96.54235376841923
 30
0.0
 10
110.471648994785
 20
96.25263506413681
 30
0.0
 10
110.7451692912538
 20
95.96784243944361
 30
0.0
 10
111.2846203352041
 20
95.40615951980844
 30
0.0
 10
111.5425299308773
 20
95.1376209446694
 30
0.0
 10
111.7930946418421
 20
94.8767299518896
 30
0.0
  0
SPLINE
  5
19D
330
1F
100
AcDbEntity
  8
0
  6
Continuous
 62
     7
370
    15
100
AcDbSpline
210
0.0
220
0.0
230
1.0
 70
    24
 71
     3
 72
    12
 73
     8
 74
     0
 42
0.00000001
 43
0.00000001
 12
1.0
 22
0.0
 32
0.0
 13
1.0
 23
0.0
 33
0.0
 40
0.0
 40
0.0
 40
0.0
 40
0.0
 40
0.5000000000000001
 40
0.5000000000000001
 40
0.75
 40
0.75
 40
1.0
 40
1.0
 40
1.0
 40
1.0
 10
111.7930946418421
 20
94.87672995188966
 30
0.0
 10
111.6923222427184
 20
94.52888682530032
 30
0.0
 10
111.5892690437124
 20
94.17317090249853
 30
0.0
 10
111.4291324676323
 20
93.6204163011455
 30
0.0
 10
111.3748176493547
 20
93.43293405030994
 30
0.0
 10
111.2638794698146
 20
93.05000098962158
 30
0.0
 10
111.2067539579046
 20
92.85281687131564
 30
0.0
 10
111.1504706259793
 20
92.65853976446898
 30
0.0
  0
SPLINE
  5
19E
330
1F
100
AcDbEntity
  8
0
  6
Continuous
 62
     7
370
    15
100
AcDbSpline
210
0.0
220
0.0
230
1.0
 70
    24
 71
     3
 72
    12
 73
     8
 74
     0
 42
0.00000001
 43
0.00000001
 12
1.0
 22
0.0
 32
0.0
 13
1.0
 23
0.0
 33
0.0
 40
0.0
 40
0.0
 40
0.0
 40
0.0
 40
0.5000000000000001
 40
0.5000000000000001
 40
0.75
 40
0.75
 40
1.0
 40
1.0
 40
1.0
 40
1.0
 10
106.3513794915782
 20
97.65541121405744
 30
0.0
 10
106.7453154991082
 20
97.75248731696836
 30
0.0
 10
107.1291518090688
 20
97.84707459107997
 30
0.0
 10
107.69330952323
 20
97.98609776050611
 30
0.0
 10
107.8802586669043
 20
98.0321669036246
 30
0.0
 10
108.2431627177332
 20
98.12159592334267
 30
0.0
 10
108.420102402759
 20
98.16519847488469
 30
0.0
 10
108.5937005522414
 20
98.2079775849487
 30
0.0
  0
SPLINE
  5
19F
330
1F
100
AcDbEntity
  8
0
  6
Continuous
 62
     7
370
    15
100
AcDbSpline
210
0.0
220
0.0
230
1.0
 70
    24
 71
     3
 72
    12
 73
     8
 74
     0
 42
0.00000001
 43
0.00000001
 12
1.0
 22
0.0
 32
0.0
 13
1.0
 23
0.0
 33
0.0
 40
0.0
 40
0.0
 40
0.0
 40
0.0
 40
0.4999999999999996
 40
0.4999999999999996
 40
0.7499999999999998
 40
0.7499999999999998
 40
1.0
 40
1.0
 40
1.0
 40
1.0
 10
108.5937005522414
 20
98.2079775849487
 30
0.0
 10
108.8445553368377
 20
97.94678456401257
 30
0.0
 10
109.1010877630117
 20
97.6796799143313
 30
0.0
 10
109.4997190018021
 20
97.26462027069432
 30
0.0
 10
109.6349259846456
 20
97.12384113284621
 30
0.0
 10
109.9110866533806
 20
96.8362993207707
 30
0.0
 10
110.0532903531013
 20
96.68823511709948
 30
0.0
 10
110.1933975970417
 20
96.54235376841923
 30
0.0
  0
SPLINE
  5
1A0
330
1F
100
AcDbEntity
  8
0
  6
Continuous
 62
     7
370
    15
100
AcDbSpline
210
0.0
220
0.0
230
1.0
 70
    24
 71
     3
 72
    10
 73
     6
 74
     0
 42
0.00000001
 43
0.00000001
 12
1.0
 22
0.0
 32
0.0
 13
1.0
 23
0.0
 33
0.0
 40
0.0
 40
0.0
 40
0.0
 40
0.0
 40
0.5
 40
0.5
 40
1.0
 40
1.0
 40
1.0
 40
1.0
 10
103.4664344150523
 20
94.88465465574544
 30
0.0
 10
103.5782124740407
 20
95.2704867869709
 30
0.0
 10
103.6880899736011
 20
95.64975862451013
 30
0.0
 10
103.9047961289018
 20
96.39777839248664
 30
0.0
 10
104.0084025590317
 20
96.75540394178893
 30
0.0
 10
104.1090584309151
 20
97.10284484316625
 30
0.0
  0
SPLINE
  5
1A1
330
1F
100
AcDbEntity
  8
0
  6
Continuous
 62
     7
370
    15
100
AcDbSpline
210
0.0
220
0.0
230
1.0
 70
    24
 71
     3
 72
    12
 73
     8
 74
     0
 42
0.00000001
 43
0.00000001
 12
1.0
 22
0.0
 32
0.0
 13
1.0
 23
0.0
 33
0.0
 40
0.0
 40
0.0
 40
0.0
 40
0.0
 40
0.5
 40
0.5
 40
0.75
 40
0.75
 40
1.0
 40
1.0
 40
1.0
 40
1.0
 10
104.1090584309149
 20
97.10284484316615
 30
0.0
 10
104.4566112146761
 20
97.1884909104422
 30
0.0
 10
104.8226779585614
 20
97.27869930018673
 30
0.0
 10
105.3833330887438
 20
97.41685934160151
 30
0.0
 10
105.5727396039433
 20
97.46353404513215
 30
0.0
 10
105.9575989968933
 20
97.55837343356606
 30
0.0
 10
106.1546390517373
 20
97.60692924028588
 30
0.0
 10
106.3513794915782
 20
97.65541121405744
 30
0.0
  0
LINE
  5
1A2
330
1F
100
AcDbEntity
  8
0
  6
Continuous
 62
     7
370
    15
100
AcDbLine
 10
114.1084525205
 20
91.7465972101
 30
0.0
 11
116.6084525205
 21
91.74659721
 31
0.0
  0
LINE
  5
1A3
330
1F
100
AcDbEntity
  8
0
  6
Continuous
 62
     7
370
    15
100
AcDbLine
 10
114.1084525205
 20
95.7965972101
 30
0.0
 11
116.6084525205
 21
95.7965972101
 31
0.0
  0
LINE
  5
1A4
330
1F
100
AcDbEntity
  8
0
  6
Continuous
 62
     7
370
    15
100
AcDbLine
 10
116.6084525205
 20
95.7965972101
 30
0.0
 11
116.6084525205
 21
91.74659721
 31
0.0
  0
LINE
  5
1A5
330
1F
100
AcDbEntity
  8
0
  6
Continuous
 62
     7
370
    15
100
AcDbLine
 10
114.1084525205
 20
95.7965972101
 30
0.0
 11
114.1084525205
 21
95.6946481715
 31
0.0
  0
LINE
  5
1A6
330
1F
100
AcDbEntity
  8
0
  6
Continuous
 62
     7
370
    15
100
AcDbLine
 10
114.1084525205
 20
91.8485462487
 30
0.0
 11
114.1084525205
 21
91.7465972101
 31
0.0
  0
LINE
  5
1A7
330
1F
100
AcDbEntity
  8
0
  6
Continuous
 62
     7
370
    15
100
AcDbLine
 10
114.1084525205
 20
97.8215972101
 30
0.0
 11
116.6084525205
 21
97.8215972101
 31
0.0
  0
LINE
  5
1A8
330
1F
100
AcDbEntity
  8
0
  6
Continuous
 62
     7
370
    15
100
AcDbLine
 10
116.6084525205
 20
97.8215972101
 30
0.0
 11
116.6084525205
 21
95.7965972101
 31
0.0
  0
LINE
  5
1A9
330
1F
100
AcDbEntity
  8
0
  6
Continuous
 62
     7
370
    15
100
AcDbLine
 10
114.1084525205
 20
97.8215972101
 30
0.0
 11
114.1084525205
 21
97.7706226908
 31
0.0
  0
LINE
  5
1AA
330
1F
100
AcDbEntity
  8
0
  6
Continuous
 62
     7
370
    15
100
AcDbLine
 10
114.1084525205
 20
95.8475717294
 30
0.0
 11
114.1084525205
 21
95.7965972101
 31
0.0
  0
LINE
  5
1AB
330
1F
100
AcDbEntity
  8
0
  6
Continuous
 62
     7
370
    15
100
AcDbLine
 10
114.1084525205
 20
89.7215972101
 30
0.0
 11
116.6084525205
 21
89.7215972101
 31
0.0
  0
LINE
  5
1AC
330
1F
100
AcDbEntity
  8
0
  6
Continuous
 62
     7
370
    15
100
AcDbLine
 10
116.6084525205
 20
91.74659721
 30
0.0
 11
116.6084525205
 21
89.7215972101
 31
0.0
  0
LINE
  5
1AD
330
1F
100
AcDbEntity
  8
0
  6
Continuous
 62
     7
370
    15
100
AcDbLine
 10
114.1084525205
 20
91.7465972101
 30
0.0
 11
114.1084525205
 21
91.6956226908
 31
0.0
  0
LINE
  5
1AE
330
1F
100
AcDbEntity
  8
0
  6
Continuous
 62
     7
370
    15
100
AcDbLine
 10
114.1084525205
 20
89.7725717294
 30
0.0
 11
114.1084525205
 21
89.7215972101
 31
0.0
  0
LINE
  5
1AF
330
1F
100
AcDbEntity
  8
0
  6
Continuous
 62
     7
370
    15
100
AcDbLine
 10
112.1544865609
 20
92.6069560255
 30
0.0
 11
112.1592712102
 21
92.521633248
 31
0.0
  0
LINE
  5
1B0
330
1F
100
AcDbEntity
  8
0
  6
Continuous
 62
     7
370
    15
100
AcDbLine
 10
111.7084525205
 20
95.5600667959
 30
0.0
 11
111.5084525205
 21
95.5600667959
 31
0.0
  0
LINE
  5
1B1
330
1F
100
AcDbEntity
  8
0
  6
Continuous
 62
     7
370
    15
100
AcDbLine
 10
100.5084525205
 20
95.7965972101
 30
0.0
 11
98.0084525205
 21
95.7965972101
 31
0.0
  0
LINE
  5
1B2
330
1F
100
AcDbEntity
  8
0
  6
Continuous
 62
     7
370
    15
100
AcDbLine
 10
100.5084525205
 20
91.7465972101
 30
0.0
 11
98.0084525205
 21
91.7465972103
 31
0.0
  0
LINE
  5
1B3
330
1F
100
AcDbEntity
  8
0
  6
Continuous
 62
     7
370
    15
100
AcDbLine
 10
100.5084525205
 20
91.7465972101
 30
0.0
 11
100.5084525205
 21
91.8485462487
 31
0.0
  0
LINE
  5
1B4
330
1F
100
AcDbEntity
  8
0
  6
Continuous
 62
     7
370
    15
100
AcDbLine
 10
100.5084525205
 20
95.6946481715
 30
0.0
 11
100.5084525205
 21
95.7965972101
 31
0.0
  0
LINE
  5
1B5
330
1F
100
AcDbEntity
  8
0
  6
Continuous
 62
     7
370
    15
100
AcDbLine
 10
98.0084525205
 20
91.7465972103
 30
0.0
 11
98.0084525205
 21
95.7965972101
 31
0.0
  0
LINE
  5
1B6
330
1F
100
AcDbEntity
  8
0
  6
Continuous
 62
     7
370
    15
100
AcDbLine
 10
98.0084525205
 20
97.8215972101
 30
0.0
 11
100.5084525205
 21
97.8215972101
 31
0.0
  0
LINE
  5
1B7
330
1F
100
AcDbEntity
  8
0
  6
Continuous
 62
     7
370
    15
100
AcDbLine
 10
100.5084525205
 20
95.7965972101
 30
0.0
 11
100.5084525205
 21
95.8475717294
 31
0.0
  0
LINE
  5
1B8
330
1F
100
AcDbEntity
  8
0
  6
Continuous
 62
     7
370
    15
100
AcDbLine
 10
100.5084525205
 20
97.7706226908
 30
0.0
 11
100.5084525205
 21
97.8215972101
 31
0.0
  0
LINE
  5
1B9
330
1F
100
AcDbEntity
  8
0
  6
Continuous
 62
     7
370
    15
100
AcDbLine
 10
98.0084525205
 20
95.7965972101
 30
0.0
 11
98.0084525205
 21
97.8215972101
 31
0.0
  0
LINE
  5
1BA
330
1F
100
AcDbEntity
  8
0
  6
Continuous
 62
     7
370
    15
100
AcDbLine
 10
100.5084525205
 20
89.7215972101
 30
0.0
 11
98.0084525205
 21
89.7215972101
 31
0.0
  0
LINE
  5
1BB
330
1F
100
AcDbEntity
  8
0
  6
Continuous
 62
     7
370
    15
100
AcDbLine
 10
100.5084525205
 20
89.7215972101
 30
0.0
 11
100.5084525205
 21
89.7725717294
 31
0.0
  0
LINE
  5
1BC
330
1F
100
AcDbEntity
  8
0
  6
Continuous
 62
     7
370
    15
100
AcDbLine
 10
100.5084525205
 20
91.6956226908
 30
0.0
 11
100.5084525205
 21
91.7465972101
 31
0.0
  0
LINE
  5
1BD
330
1F
100
AcDbEntity
  8
0
  6
Continuous
 62
     7
370
    15
100
AcDbLine
 10
98.0084525205
 20
89.7215972101
 30
0.0
 11
98.0084525205
 21
91.7465972103
 31
0.0
  0
LINE
  5
1BE
330
1F
100
AcDbEntity
  8
0
  6
Continuous
 62
     7
370
    15
100
AcDbLine
 10
102.4576338308
 20
92.5215611726
 30
0.0
 11
102.4543518099
 21
92.5808233083
 31
0.0
  0
LINE
  5
1BF
330
1F
100
AcDbEntity
  8
0
  6
Continuous
 62
     7
370
    15
100
AcDbLine
 10
113.3084525205
 20
97.7715972101
 30
0.0
 11
113.3084525205
 21
97.3011661563
 31
0.0
  0
LINE
  5
1C0
330
1F
100
AcDbEntity
  8
0
  6
Continuous
 62
     7
370
    15
100
AcDbLine
 10
113.3084525205
 20
90.2420319657
 30
0.0
 11
113.3084525205
 21
89.7715972101
 31
0.0
  0
LINE
  5
1C1
330
1F
100
AcDbEntity
  8
0
  6
Continuous
 62
     7
370
    15
100
AcDbLine
 10
114.1084525205
 20
97.7706226908
 30
0.0
 11
114.1084525205
 21
95.8475717294
 31
0.0
  0
LINE
  5
1C2
330
1F
100
AcDbEntity
  8
0
  6
Continuous
 62
     7
370
    15
100
AcDbLine
 10
114.1084525205
 20
95.6946481715
 30
0.0
 11
114.1084525205
 21
91.8485462487
 31
0.0
  0
LINE
  5
1C3
330
1F
100
AcDbEntity
  8
0
  6
Continuous
 62
     7
370
    15
100
AcDbLine
 10
114.1084525205
 20
91.6956226908
 30
0.0
 11
114.1084525205
 21
89.7725717294
 31
0.0
  0
LINE
  5
1C4
330
1F
100
AcDbEntity
  8
0
  6
Continuous
 62
     7
370
    15
100
AcDbLine
 10
100.5084525205
 20
97.2356988252
 30
0.0
 11
100.5084525205
 21
97.7706226908
 31
0.0
  0
LINE
  5
1C5
330
1F
100
AcDbEntity
  8
0
  6
Continuous
 62
     7
370
    15
100
AcDbLine
 10
100.5084525205
 20
89.7725717294
 30
0.0
 11
100.5084525205
 21
91.6956226908
 31
0.0
  0
LINE
  5
1C6
330
1F
100
AcDbEntity
  8
0
  6
Continuous
 62
     7
370
    15
100
AcDbLine
 10
100.5084525205
 20
91.8485462487
 30
0.0
 11
100.5084525205
 21
95.6946481715
 31
0.0
  0
LINE
  5
1C7
330
1F
100
AcDbEntity
  8
0
  6
Continuous
 62
     7
370
    15
100
AcDbLine
 10
100.5084525205
 20
95.8475717294
 30
0.0
 11
100.5084525205
 21
97.2356988252
 31
0.0
  0
LINE
  5
1C8
330
1F
100
AcDbEntity
  8
0
  6
Continuous
 62
     7
370
    15
100
AcDbLine
 10
101.3084525205
 20
97.2356988252
 30
0.0
 11
101.3084525205
 21
97.7715972101
 31
0.0
  0
LINE
  5
1C9
330
1F
100
AcDbEntity
  8
0
  6
Continuous
 62
     7
370
    15
100
AcDbLine
 10
101.3084525205
 20
89.7715972101
 30
0.0
 11
101.3084525205
 21
90.2477303697
 31
0.0
  0
ARC
  5
1CA
330
1F
100
AcDbEntity
  8
0
  6
Continuous
 62
     7
370
    15
100
AcDbCircle
 10
107.3084525205
 20
93.2642638371
 30
0.0
 40
6.000000000000004
100
AcDbArc
 50
278.1056762023
 51
321.6879159834
  0
ARC
  5
1CB
330
1F
100
AcDbEntity
  8
0
  6
Continuous
 62
     7
370
    15
100
AcDbCircle
 10
107.3084525205
 20
93.2642638371
 30
0.0
 40
6.000000000000006
100
AcDbArc
 50
217.9803539992
 51
261.6100459323
  0
ARC
  5
1CC
330
1F
100
AcDbEntity
  8
0
  6
Continuous
 62
     7
370
    15
100
AcDbCircle
 10
107.3084525205
 20
93.2642638371
 30
0.0
 40
7.000000000000001
100
AcDbArc
 50
209.9307138769
 51
330.0692861231
  0
ARC
  5
1CD
330
1F
100
AcDbEntity
  8
0
  6
Continuous
 62
     7
370
    15
100
AcDbCircle
 10
107.3084525205
 20
93.2642638371
 30
0.0
 40
6.999999999999999
100
AcDbArc
 50
96.9908268296
 51
142.8441345953
  0
ARC
  5
1CE
330
1F
100
AcDbEntity
  8
0
  6
Continuous
 62
     7
370
    15
100
AcDbCircle
 10
107.3084525205
 20
93.2642638371
 30
0.0
 40
7.000000000000001
100
AcDbArc
 50
37.3502587527
 51
82.6439464344
  0
CIRCLE
  5
1CF
330
1F
100
AcDbEntity
  8
0
  6
Continuous
 62
     7
370
    15
100
AcDbCircle
 10
107.3084525205
 20
93.7715972101
 30
0.0
 40
4.700000000000003
  0
CIRCLE
  5
1D0
330
1F
100
AcDbEntity
  8
0
  6
Continuous
 62
     7
370
    15
100
AcDbCircle
 10
107.3084525205
 20
93.7715972101
 30
0.0
 40
5.0
  0
ARC
  5
1D1
330
1F
100
AcDbEntity
  8
0
  6
Continuous
 62
     7
370
    15
100
AcDbCircle
 10
107.3084525205
 20
93.7715972101
 30
0.0
 40
6.0
100
AcDbArc
 50
240.0
 51
300.0
  0
SPLINE
  5
1D2
330
1F
100
AcDbEntity
  8
0
  6
Continuous
 62
     7
370
    15
100
AcDbSpline
210
0.0
220
0.0
230
1.0
 70
    24
 71
     3
 72
    12
 73
     8
 74
     0
 42
0.00000001
 43
0.00000001
 12
1.0
 22
0.0
 32
0.0
 13
1.0
 23
0.0
 33
0.0
 40
0.0
 40
0.0
 40
0.0
 40
0.0
 40
0.4999999999999999
 40
0.4999999999999999
 40
0.7499999999999999
 40
0.7499999999999999
 40
1.0
 40
1.0
 40
1.0
 40
1.0
 10
107.3084525205158
 20
86.84339397983165
 30
0.0
 10
107.7788950330177
 20
87.11500409106284
 30
0.0
 10
108.2599848987524
 20
87.39276145454915
 30
0.0
 10
109.0075600278301
 20
87.82437415656167
 30
0.0
 10
109.2611210132985
 20
87.97076765977786
 30
0.0
 10
109.779019759213
 20
88.26977664014451
 30
0.0
 10
110.0457018509519
 20
88.42374561759803
 30
0.0
 10
110.3084525205158
 20
88.57544478740053
 30
0.0
  0
SPLINE
  5
1D3
330
1F
100
AcDbEntity
  8
0
  6
Continuous
 62
     7
370
    15
100
AcDbSpline
210
0.0
220
0.0
230
1.0
 70
    24
 71
     3
 72
    10
 73
     6
 74
     0
 42
0.00000001
 43
0.00000001
 12
1.0
 22
0.0
 32
0.0
 13
1.0
 23
0.0
 33
0.0
 40
0.0
 40
0.0
 40
0.0
 40
0.0
 40
0.5
 40
0.5
 40
1.0
 40
1.0
 40
1.0
 40
1.0
 10
104.3084525205158
 20
88.57544478740054
 30
0.0
 10
104.8302727397755
 20
88.27417174334235
 30
0.0
 10
105.3432202277639
 20
87.97802137307214
 30
0.0
 10
106.3548817588015
 20
87.39393831579876
 30
0.0
 10
106.8385543451374
 20
87.1146898178781
 30
0.0
 10
107.3084525205159
 20
86.84339397983162
 30
0.0
  0
ARC
  5
1D4
330
1F
100
AcDbEntity
  8
0
  6
Continuous
 62
     7
370
    15
100
AcDbCircle
 10
107.3084525205
 20
93.7715972101
 30
0.0
 40
6.000000000000014
100
AcDbArc
 50
120.0
 51
180.0
  0
ARC
  5
1D5
330
1F
100
AcDbEntity
  8
0
  6
Continuous
 62
     7
370
    15
100
AcDbCircle
 10
107.3084525205
 20
93.7715972101
 30
0.0
 40
6.000000000000007
100
AcDbArc
 50
60.0
 51
120.0
  0
ARC
  5
1D6
330
1F
100
AcDbEntity
  8
0
  6
Continuous
 62
     7
370
    15
100
AcDbCircle
 10
107.3084525205
 20
93.7715972101
 30
0.0
 40
6.0
100
AcDbArc
 50
0.0
 51
60.0
  0
ARC
  5
1D7
330
1F
100
AcDbEntity
  8
0
  6
Continuous
 62
     7
370
    15
100
AcDbCircle
 10
107.3084525205
 20
93.7715972101
 30
0.0
 40
6.0
100
AcDbArc
 50
300.0
 51
0.0
  0
ARC
  5
1D8
330
1F
100
AcDbEntity
  8
0
  6
Continuous
 62
     7
370
    15
100
AcDbCircle
 10
107.3084525205
 20
93.7715972101
 30
0.0
 40
6.000000000000014
100
AcDbArc
 50
180.0
 51
240.0
  0
SPLINE
  5
1D9
330
1F
100
AcDbEntity
  8
0
  6
Continuous
 62
     7
370
    15
100
AcDbSpline
210
0.0
220
0.0
230
1.0
 70
    24
 71
     3
 72
    12
 73
     8
 74
     0
 42
0.00000001
 43
0.00000001
 12
1.0
 22
0.0
 32
0.0
 13
1.0
 23
0.0
 33
0.0
 40
0.0
 40
0.0
 40
0.0
 40
0.0
 40
0.4999999999999997
 40
0.4999999999999997
 40
0.7499999999999997
 40
0.7499999999999997
 40
1.0
 40
1.0
 40
1.0
 40
1.0
 10
101.3084525205158
 20
90.30749559496941
 30
0.0
 10
101.7788950330177
 20
90.03588548373821
 30
0.0
 10
102.2599848987524
 20
89.7581281202519
 30
0.0
 10
103.0075600278301
 20
89.32651541823937
 30
0.0
 10
103.2611210132985
 20
89.1801219150232
 30
0.0
 10
103.779019759213
 20
88.88111293465654
 30
0.0
 10
104.0457018509519
 20
88.72714395720303
 30
0.0
 10
104.3084525205158
 20
88.57544478740054
 30
0.0
  0
SPLINE
  5
1DA
330
1F
100
AcDbEntity
  8
0
  6
Continuous
 62
     7
370
    15
100
AcDbSpline
210
0.0
220
0.0
230
1.0
 70
    24
 71
     3
 72
    12
 73
     8
 74
     0
 42
0.00000001
 43
0.00000001
 12
1.0
 22
0.0
 32
0.0
 13
1.0
 23
0.0
 33
0.0
 40
0.0
 40
0.0
 40
0.0
 40
0.0
 40
0.5
 40
0.5
 40
0.75
 40
0.75
 40
1.0
 40
1.0
 40
1.0
 40
1.0
 10
101.3084525205158
 20
90.3074955949694
 30
0.0
 10
101.3084525205158
 20
90.84476520782383
 30
0.0
 10
101.3084525205158
 20
91.41012991160565
 30
0.0
 10
101.3084525205158
 20
92.27685865740115
 30
0.0
 10
101.3084525205158
 20
92.56951399877657
 30
0.0
 10
101.3084525205158
 20
93.16377458636481
 30
0.0
 10
101.3084525205158
 20
93.46736129438959
 30
0.0
 10
101.3084525205158
 20
93.77159721010716
 30
0.0
  0
SPLINE
  5
1DB
330
1F
100
AcDbEntity
  8
0
  6
Continuous
 62
     7
370
    15
100
AcDbSpline
210
0.0
220
0.0
230
1.0
 70
    24
 71
     3
 72
    12
 73
     8
 74
     0
 42
0.00000001
 43
0.00000001
 12
1.0
 22
0.0
 32
0.0
 13
1.0
 23
0.0
 33
0.0
 40
0.0
 40
0.0
 40
0.0
 40
0.0
 40
0.5
 40
0.5
 40
0.75
 40
0.75
 40
1.0
 40
1.0
 40
1.0
 40
1.0
 10
113.3084525205158
 20
90.3074955949694
 30
0.0
 10
113.3084525205158
 20
90.84476520782383
 30
0.0
 10
113.3084525205158
 20
91.41012991160565
 30
0.0
 10
113.3084525205158
 20
92.27685865740115
 30
0.0
 10
113.3084525205158
 20
92.56951399877657
 30
0.0
 10
113.3084525205158
 20
93.16377458636481
 30
0.0
 10
113.3084525205158
 20
93.46736129438959
 30
0.0
 10
113.3084525205158
 20
93.77159721010716
 30
0.0
  0
SPLINE
  5
1DC
330
1F
100
AcDbEntity
  8
0
  6
Continuous
 62
     7
370
    15
100
AcDbSpline
210
0.0
220
0.0
230
1.0
 70
    24
 71
     3
 72
    10
 73
     6
 74
     0
 42
0.00000001
 43
0.00000001
 12
1.0
 22
0.0
 32
0.0
 13
1.0
 23
0.0
 33
0.0
 40
0.0
 40
0.0
 40
0.0
 40
0.0
 40
0.5
 40
0.5
 40
1.0
 40
1.0
 40
1.0
 40
1.0
 10
110.3084525205158
 20
88.57544478740053
 30
0.0
 10
110.8302727397755
 20
88.87671783145872
 30
0.0
 10
111.3432202277639
 20
89.17286820172893
 30
0.0
 10
112.3548817588015
 20
89.75695125900229
 30
0.0
 10
112.8385543451374
 20
90.03619975692294
 30
0.0
 10
113.3084525205159
 20
90.30749559496942
 30
0.0
  0
SPLINE
  5
1DD
330
1F
100
AcDbEntity
  8
0
  6
Continuous
 62
     7
370
    15
100
AcDbSpline
210
0.0
220
0.0
230
1.0
 70
    24
 71
     3
 72
    12
 73
     8
 74
     0
 42
0.00000001
 43
0.00000001
 12
1.0
 22
0.0
 32
0.0
 13
1.0
 23
0.0
 33
0.0
 40
0.0
 40
0.0
 40
0.0
 40
0.0
 40
0.5000000000000003
 40
0.5000000000000003
 40
0.7500000000000002
 40
0.7500000000000002
 40
1.0
 40
1.0
 40
1.0
 40
1.0
 10
113.3084525205158
 20
97.23569882524491
 30
0.0
 10
112.838010008014
 20
97.50730893647611
 30
0.0
 10
112.3569201422793
 20
97.78506629996242
 30
0.0
 10
111.6093450132015
 20
98.21667900197495
 30
0.0
 10
111.3557840277331
 20
98.36307250519113
 30
0.0
 10
110.8378852818187
 20
98.66208148555779
 30
0.0
 10
110.5712031900798
 20
98.8160504630113
 30
0.0
 10
110.3084525205158
 20
98.96774963281379
 30
0.0
  0
SPLINE
  5
1DE
330
1F
100
AcDbEntity
  8
0
  6
Continuous
 62
     7
370
    15
100
AcDbSpline
210
0.0
220
0.0
230
1.0
 70
    24
 71
     3
 72
    12
 73
     8
 74
     0
 42
0.00000001
 43
0.00000001
 12
1.0
 22
0.0
 32
0.0
 13
1.0
 23
0.0
 33
0.0
 40
0.0
 40
0.0
 40
0.0
 40
0.0
 40
0.4999999999999997
 40
0.4999999999999997
 40
0.7499999999999998
 40
0.7499999999999998
 40
1.0
 40
1.0
 40
1.0
 40
1.0
 10
113.3084525205158
 20
93.77159721010716
 30
0.0
 10
113.3084525205158
 20
94.38068827921714
 30
0.0
 10
113.3084525205158
 20
94.97377067889445
 30
0.0
 10
113.3084525205158
 20
95.84507648862166
 30
0.0
 10
113.3084525205158
 20
96.13377283607399
 30
0.0
 10
113.3084525205158
 20
96.69430168737199
 30
0.0
 10
113.3084525205158
 20
96.96758474201488
 30
0.0
 10
113.3084525205158
 20
97.23569882524491
 30
0.0
  0
SPLINE
  5
1DF
330
1F
100
AcDbEntity
  8
0
  6
Continuous
 62
     7
370
    15
100
AcDbSpline
210
0.0
220
0.0
230
1.0
 70
    24
 71
     3
 72
    10
 73
     6
 74
     0
 42
0.00000001
 43
0.00000001
 12
1.0
 22
0.0
 32
0.0
 13
1.0
 23
0.0
 33
0.0
 40
0.0
 40
0.0
 40
0.0
 40
0.0
 40
0.5
 40
0.5
 40
1.0
 40
1.0
 40
1.0
 40
1.0
 10
104.3084525205158
 20
98.96774963281379
 30
0.0
 10
103.7866323012561
 20
98.6664765887556
 30
0.0
 10
103.2736848132678
 20
98.37032621848539
 30
0.0
 10
102.2620232822301
 20
97.78624316121204
 30
0.0
 10
101.7783506958943
 20
97.50699466329138
 30
0.0
 10
101.3084525205158
 20
97.2356988252449
 30
0.0
  0
SPLINE
  5
1E0
330
1F
100
AcDbEntity
  8
0
  6
Continuous
 62
     7
370
    15
100
AcDbSpline
210
0.0
220
0.0
230
1.0
 70
    24
 71
     3
 72
    12
 73
     8
 74
     0
 42
0.00000001
 43
0.00000001
 12
1.0
 22
0.0
 32
0.0
 13
1.0
 23
0.0
 33
0.0
 40
0.0
 40
0.0
 40
0.0
 40
0.0
 40
0.4999999999999998
 40
0.4999999999999998
 40
0.7499999999999999
 40
0.7499999999999999
 40
1.0
 40
1.0
 40
1.0
 40
1.0
 10
101.3084525205158
 20
93.77159721010716
 30
0.0
 10
101.3084525205158
 20
94.38068827921714
 30
0.0
 10
101.3084525205158
 20
94.97377067889445
 30
0.0
 10
101.3084525205158
 20
95.84507648862166
 30
0.0
 10
101.3084525205158
 20
96.13377283607399
 30
0.0
 10
101.3084525205158
 20
96.69430168737199
 30
0.0
 10
101.3084525205158
 20
96.96758474201488
 30
0.0
 10
101.3084525205158
 20
97.23569882524491
 30
0.0
  0
SPLINE
  5
1E1
330
1F
100
AcDbEntity
  8
0
  6
Continuous
 62
     7
370
    15
100
AcDbSpline
210
0.0
220
0.0
230
1.0
 70
    24
 71
     3
 72
    10
 73
     6
 74
     0
 42
0.00000001
 43
0.00000001
 12
1.0
 22
0.0
 32
0.0
 13
1.0
 23
0.0
 33
0.0
 40
0.0
 40
0.0
 40
0.0
 40
0.0
 40
0.5
 40
0.5
 40
1.0
 40
1.0
 40
1.0
 40
1.0
 10
110.3084525205158
 20
98.96774963281379
 30
0.0
 10
109.7866323012561
 20
99.26902267687197
 30
0.0
 10
109.2736848132678
 20
99.56517304714218
 30
0.0
 10
108.2620232822301
 20
100.1492561044156
 30
0.0
 10
107.7783506958943
 20
100.4285046023362
 30
0.0
 10
107.3084525205158
 20
100.6998004403827
 30
0.0
  0
SPLINE
  5
1E2
330
1F
100
AcDbEntity
  8
0
  6
Continuous
 62
     7
370
    15
100
AcDbSpline
210
0.0
220
0.0
230
1.0
 70
    24
 71
     3
 72
    12
 73
     8
 74
     0
 42
0.00000001
 43
0.00000001
 12
1.0
 22
0.0
 32
0.0
 13
1.0
 23
0.0
 33
0.0
 40
0.0
 40
0.0
 40
0.0
 40
0.0
 40
0.5
 40
0.5
 40
0.75
 40
0.75
 40
1.0
 40
1.0
 40
1.0
 40
1.0
 10
107.3084525205158
 20
100.6998004403827
 30
0.0
 10
106.838010008014
 20
100.4281903291515
 30
0.0
 10
106.3569201422793
 20
100.1504329656652
 30
0.0
 10
105.6093450132015
 20
99.71882026365265
 30
0.0
 10
105.3557840277331
 20
99.57242676043646
 30
0.0
 10
104.8378852818187
 20
99.2734177800698
 30
0.0
 10
104.5712031900798
 20
99.11944880261629
 30
0.0
 10
104.3084525205158
 20
98.96774963281379
 30
0.0
  0
DIMENSION
  5
1E3
330
1F
100
AcDbEntity
  8
0
  6
Continuous
 62
     7
370
     0
100
AcDbDimension
  2
_D_9
 10
116.6084525205
 20
73.9026105608
 30
0.0
 11
107.3084525205
 21
73.9026105608
 31
0.0
 70
   160
  1
<>
 71
     2
 42
-1.0
  3
SLDDIMSTYLE4
100
AcDbAlignedDimension
 13
98.0084525205
 23
89.7215972101
 33
0.0
 14
116.6084525205
 24
89.7215972101
 34
0.0
100
AcDbRotatedDimension
  0
MTEXT
  5
1EE
330
1F
100
AcDbEntity
  8
0
  6
Continuous
 62
     7
370
     0
100
AcDbMText
 10
119.6552022536
 20
111.2766718149
 30
0.0
 40
3.5
 41
0.0
 71
     1
 72
     1
  1
φ14
  7
SLDTEXTSTYLE1
 73
     1
 44
1.0
  0
LEADER
  5
1EF
330
1F
100
AcDbEntity
  8
0
  6
Continuous
 62
     7
370
     0
100
AcDbLeader
  3
SLDDIMSTYLE3
 76
     3
 10
112.0569247394
 20
97.4392956146
 30
0.0
 10
119.0779601407
 20
106.6822977726
 30
0.0
 10
128.3704572098
 20
106.6822977726
 30
0.0
  0
MTEXT
  5
1F0
330
1F
100
AcDbEntity
  8
0
  6
Continuous
 62
     7
370
     0
100
AcDbMText
 10
87.1916609486
 20
111.2766718149
 30
0.0
 40
3.5
 41
0.0
 71
     1
 72
     1
  1
φ1.8
  7
SLDTEXTSTYLE1
 73
     1
 44
1.0
  0
LEADER
  5
1F1
330
1F
100
AcDbEntity
  8
0
  6
Continuous
 62
     7
370
     0
100
AcDbLeader
  3
SLDDIMSTYLE3
 76
     3
 10
106.7820987159
 20
94.5016326013
 30
0.0
 10
97.6864009379
 20
106.6822977726
 30
0.0
 10
87.1043376319
 20
106.6822977726
 30
0.0
  0
INSERT
  5
1FD
330
1F
100
AcDbEntity
  8
0
  6
Continuous
 62
     7
370
     0
100
AcDbBlockReference
  2
SW_CENTERMARKSYMBOL_0
 10
107.3084525205
 20
93.7715972101
 30
0.0
  0
ENDSEC
  0
SECTION
  2
OBJECTS
  0
DICTIONARY
  5
C
330
0
100
AcDbDictionary
281
     1
  3
ACAD_GROUP
350
D
  3
ACAD_LAYOUT
350
1A
  3
ACAD_MLINESTYLE
350
17
  3
ACAD_PLOTSETTINGS
350
19
  3
ACAD_PLOTSTYLENAME
350
E
  0
DICTIONARY
  5
D
102
{ACAD_REACTORS
330
C
102
}
330
C
100
AcDbDictionary
281
     1
  0
DICTIONARY
  5
1A
102
{ACAD_REACTORS
330
C
102
}
330
C
100
AcDbDictionary
281
     1
  3
Layout1
350
1E
  3
Layout2
350
26
  3
Model
350
22
  0
DICTIONARY
  5
17
102
{ACAD_REACTORS
330
C
102
}
330
C
100
AcDbDictionary
281
     1
  3
Standard
350
18
  0
DICTIONARY
  5
19
102
{ACAD_REACTORS
330
C
102
}
330
C
100
AcDbDictionary
281
     1
  0
ACDBDICTIONARYWDFLT
  5
E
102
{ACAD_REACTORS
330
C
102
}
330
C
100
AcDbDictionary
281
     1
  3
Normal
350
F
100
AcDbDictionaryWithDefault
340
F
  0
LAYOUT
  5
1E
102
{ACAD_REACTORS
330
1A
102
}
330
1A
100
AcDbPlotSettings
  1

  2
none_device
  4

  6

 40
0.0
 41
0.0
 42
0.0
 43
0.0
 44
0.0
 45
0.0
 46
0.0
 47
0.0
 48
0.0
 49
0.0
140
0.0
141
0.0
142
1.0
143
1.0
 70
   688
 72
     0
 73
     0
 74
     5
  7

 75
    16
147
1.0
148
0.0
149
0.0
100
AcDbLayout
  1
Layout1
 70
     1
 71
     1
 10
0.0
 20
0.0
 11
420.0
 21
297.0
 12
0.0
 22
0.0
 32
0.0
 14
1.0000000000E+20
 24
1.0000000000E+20
 34
1.0000000000E+20
 15
-1.0000000000E+20
 25
-1.0000000000E+20
 35
-1.0000000000E+20
146
0.0
 13
0.0
 23
0.0
 33
0.0
 16
1.0
 26
0.0
 36
0.0
 17
0.0
 27
1.0
 37
0.0
 76
     0
330
1B
  0
LAYOUT
  5
26
102
{ACAD_REACTORS
330
1A
102
}
330
1A
100
AcDbPlotSettings
  1

  2
none_device
  4

  6

 40
0.0
 41
0.0
 42
0.0
 43
0.0
 44
0.0
 45
0.0
 46
0.0
 47
0.0
 48
0.0
 49
0.0
140
0.0
141
0.0
142
1.0
143
1.0
 70
   688
 72
     0
 73
     0
 74
     5
  7

 75
    16
147
1.0
148
0.0
149
0.0
100
AcDbLayout
  1
Layout2
 70
     1
 71
     2
 10
0.0
 20
0.0
 11
0.0
 21
0.0
 12
0.0
 22
0.0
 32
0.0
 14
0.0
 24
0.0
 34
0.0
 15
0.0
 25
0.0
 35
0.0
146
0.0
 13
0.0
 23
0.0
 33
0.0
 16
1.0
 26
0.0
 36
0.0
 17
0.0
 27
1.0
 37
0.0
 76
     0
330
23
  0
LAYOUT
  5
22
102
{ACAD_REACTORS
330
1A
102
}
330
1A
100
AcDbPlotSettings
  1

  2
none_device
  4

  6

 40
0.0
 41
0.0
 42
0.0
 43
0.0
 44
0.0
 45
0.0
 46
0.0
 47
0.0
 48
0.0
 49
0.0
140
0.0
141
0.0
142
1.0
143
1.0
 70
  1712
 72
     0
 73
     0
 74
     0
  7

 75
     0
147
1.0
148
0.0
149
0.0
100
AcDbLayout
  1
Model
 70
     1
 71
     0
 10
0.0
 20
0.0
 11
210.0
 21
297.0
 12
0.0
 22
0.0
 32
0.0
 14
0.0
 24
0.0
 34
0.0
 15
210.0
 25
297.0
 35
0.0
146
0.0
 13
0.0
 23
0.0
 33
0.0
 16
1.0
 26
0.0
 36
0.0
 17
0.0
 27
1.0
 37
0.0
 76
     0
330
1F
331
29
  0
MLINESTYLE
  5
18
102
{ACAD_REACTORS
330
17
102
}
330
17
100
AcDbMlineStyle
  2
Standard
 70
     0
  3

 62
   256
 51
90.0
 52
90.0
 71
     2
 49
0.5
 62
   256
  6
BYLAYER
 49
-0.5
 62
   256
  6
BYLAYER
  0
ACDBPLACEHOLDER
  5
F
102
{ACAD_REACTORS
330
E
102
}
330
E
  0
ENDSEC
  0
EOF
