  0
SECTION
  2
HEADER
  9
$ACADVER
  1
AC1015
  9
$ACADMAINTVER
 70
     6
  9
$DWGCODEPAGE
  3
DOS932
  9
$INSBASE
 10
0.0
 20
0.0
 30
0.0
  9
$EXTMIN
 10
0.0
 20
0.0
 30
0.0
  9
$EXTMAX
 10
210.0
 20
297.0
 30
0.0
  9
$LIMMIN
 10
0.0
 20
0.0
  9
$LIMMAX
 10
210.0
 20
297.0
  9
$ORTHOMODE
 70
     0
  9
$REGENMODE
 70
     1
  9
$FILLMODE
 70
     1
  9
$QTEXTMODE
 70
     0
  9
$MIRRTEXT
 70
     1
  9
$LTSCALE
 40
1.0
  9
$ATTMODE
 70
     1
  9
$TEXTSIZE
 40
3.5
  9
$TRACEWID
 40
1.0
  9
$TEXTSTYLE
  7
Standard
  9
$CLAYER
  8
0
  9
$CELTYPE
  6
ByLayer
  9
$CECOLOR
 62
   256
  9
$CELTSCALE
 40
1.0
  9
$DISPSILH
 70
     0
  9
$DIMSCALE
 40
1.0
  9
$DIMASZ
 40
3.0
  9
$DIMEXO
 40
1.0
  9
$DIMDLI
 40
3.75
  9
$DIMRND
 40
0.0
  9
$DIMDLE
 40
0.0
  9
$DIMEXE
 40
1.0
  9
$DIMTP
 40
0.0
  9
$DIMTM
 40
0.0
  9
$DIMTXT
 40
3.5
  9
$DIMCEN
 40
2.5
  9
$DIMTSZ
 40
0.0
  9
$DIMTOL
 70
     0
  9
$DIMLIM
 70
     0
  9
$DIMTIH
 70
     1
  9
$DIMTOH
 70
     1
  9
$DIMSE1
 70
     0
  9
$DIMSE2
 70
     0
  9
$DIMTAD
 70
     1
  9
$DIMZIN
 70
     0
  9
$DIMBLK
  1

  9
$DIMASO
 70
     1
  9
$DIMSHO
 70
     1
  9
$DIMPOST
  1

  9
$DIMAPOST
  1

  9
$DIMALT
 70
     0
  9
$DIMALTD
 70
     3
  9
$DIMALTF
 40
0.0393700787
  9
$DIMLFAC
 40
1.0
  9
$DIMTOFL
 70
     1
  9
$DIMTVP
 40
0.0
  9
$DIMTIX
 70
     0
  9
$DIMSOXD
 70
     0
  9
$DIMSAH
 70
     0
  9
$DIMBLK1
  1

  9
$DIMBLK2
  1

  9
$DIMSTYLE
  2
ISO-25
  9
$DIMCLRD
 70
     0
  9
$DIMCLRE
 70
     0
  9
$DIMCLRT
 70
     0
  9
$DIMTFAC
 40
1.0
  9
$DIMGAP
 40
1.524
  9
$DIMJUST
 70
     0
  9
$DIMSD1
 70
     0
  9
$DIMSD2
 70
     0
  9
$DIMTOLJ
 70
     0
  9
$DIMTZIN
 70
     0
  9
$DIMALTZ
 70
     0
  9
$DIMALTTZ
 70
     0
  9
$DIMUPT
 70
     0
  9
$DIMDEC
 70
     1
  9
$DIMTDEC
 70
     3
  9
$DIMALTU
 70
     2
  9
$DIMALTTD
 70
     3
  9
$DIMTXSTY
  7
Standard
  9
$DIMAUNIT
 70
     0
  9
$DIMADEC
 70
     2
  9
$DIMALTRND
 40
0.0
  9
$DIMAZIN
 70
     0
  9
$DIMDSEP
 70
    44
  9
$DIMATFIT
 70
     3
  9
$DIMFRAC
 70
     0
  9
$DIMLDRBLK
  1

  9
$DIMLUNIT
 70
     2
  9
$DIMLWD
 70
    -2
  9
$DIMLWE
 70
    -2
  9
$DIMTMOVE
 70
     0
  9
$LUNITS
 70
     2
  9
$LUPREC
 70
     1
  9
$SKETCHINC
 40
1.0
  9
$FILLETRAD
 40
10.0
  9
$AUNITS
 70
     0
  9
$AUPREC
 70
     2
  9
$MENU
  1
.
  9
$ELEVATION
 40
0.0
  9
$PELEVATION
 40
0.0
  9
$THICKNESS
 40
0.0
  9
$LIMCHECK
 70
     0
  9
$CHAMFERA
 40
0.0
  9
$CHAMFERB
 40
0.0
  9
$CHAMFERC
 40
0.0
  9
$CHAMFERD
 40
0.0
  9
$SKPOLY
 70
     0
  9
$TDCREATE
 40
2458675.805408577
  9
$TDUCREATE
 40
2458675.430408577
  9
$TDUPDATE
 40
2458675.805411481
  9
$TDUUPDATE
 40
2458675.430411481
  9
$TDINDWG
 40
0.0000000116
  9
$TDUSRTIMER
 40
0.0000000116
  9
$USRTIMER
 70
     1
  9
$ANGBASE
 50
0.0
  9
$ANGDIR
 70
     0
  9
$PDMODE
 70
     0
  9
$PDSIZE
 40
-1.0
  9
$PLINEWID
 40
0.0
  9
$SPLFRAME
 70
     0
  9
$SPLINETYPE
 70
     6
  9
$SPLINESEGS
 70
     8
  9
$HANDSEED
  5
261
  9
$SURFTAB1
 70
     6
  9
$SURFTAB2
 70
     6
  9
$SURFTYPE
 70
     6
  9
$SURFU
 70
     6
  9
$SURFV
 70
     6
  9
$UCSBASE
  2

  9
$UCSNAME
  2

  9
$UCSORG
 10
0.0
 20
0.0
 30
0.0
  9
$UCSXDIR
 10
1.0
 20
0.0
 30
0.0
  9
$UCSYDIR
 10
0.0
 20
1.0
 30
0.0
  9
$UCSORTHOREF
  2

  9
$UCSORTHOVIEW
 70
     0
  9
$UCSORGTOP
 10
0.0
 20
0.0
 30
0.0
  9
$UCSORGBOTTOM
 10
0.0
 20
0.0
 30
0.0
  9
$UCSORGLEFT
 10
0.0
 20
0.0
 30
0.0
  9
$UCSORGRIGHT
 10
0.0
 20
0.0
 30
0.0
  9
$UCSORGFRONT
 10
0.0
 20
0.0
 30
0.0
  9
$UCSORGBACK
 10
0.0
 20
0.0
 30
0.0
  9
$PUCSBASE
  2

  9
$PUCSNAME
  2

  9
$PUCSORG
 10
0.0
 20
0.0
 30
0.0
  9
$PUCSXDIR
 10
1.0
 20
0.0
 30
0.0
  9
$PUCSYDIR
 10
0.0
 20
1.0
 30
0.0
  9
$PUCSORTHOREF
  2

  9
$PUCSORTHOVIEW
 70
     0
  9
$PUCSORGTOP
 10
0.0
 20
0.0
 30
0.0
  9
$PUCSORGBOTTOM
 10
0.0
 20
0.0
 30
0.0
  9
$PUCSORGLEFT
 10
0.0
 20
0.0
 30
0.0
  9
$PUCSORGRIGHT
 10
0.0
 20
0.0
 30
0.0
  9
$PUCSORGFRONT
 10
0.0
 20
0.0
 30
0.0
  9
$PUCSORGBACK
 10
0.0
 20
0.0
 30
0.0
  9
$USERI1
 70
     0
  9
$USERI2
 70
     0
  9
$USERI3
 70
     0
  9
$USERI4
 70
     0
  9
$USERI5
 70
     0
  9
$USERR1
 40
0.0
  9
$USERR2
 40
0.0
  9
$USERR3
 40
0.0
  9
$USERR4
 40
0.0
  9
$USERR5
 40
0.0
  9
$WORLDVIEW
 70
     1
  9
$SHADEDGE
 70
     3
  9
$SHADEDIF
 70
    70
  9
$TILEMODE
 70
     1
  9
$MAXACTVP
 70
    64
  9
$PINSBASE
 10
0.0
 20
0.0
 30
0.0
  9
$PLIMCHECK
 70
     0
  9
$PEXTMIN
 10
1.0000000000E+20
 20
1.0000000000E+20
 30
1.0000000000E+20
  9
$PEXTMAX
 10
-1.0000000000E+20
 20
-1.0000000000E+20
 30
-1.0000000000E+20
  9
$PLIMMIN
 10
0.0
 20
0.0
  9
$PLIMMAX
 10
420.0
 20
297.0
  9
$UNITMODE
 70
     0
  9
$VISRETAIN
 70
     1
  9
$PLINEGEN
 70
     0
  9
$PSLTSCALE
 70
     1
  9
$TREEDEPTH
 70
  3020
  9
$CMLSTYLE
  2
Standard
  9
$CMLJUST
 70
     0
  9
$CMLSCALE
 40
20.0
  9
$PROXYGRAPHICS
 70
     1
  9
$MEASUREMENT
 70
     1
  9
$CELWEIGHT
370
    -1
  9
$ENDCAPS
280
     0
  9
$JOINSTYLE
280
     0
  9
$LWDISPLAY
290
     1
  9
$INSUNITS
 70
     4
  9
$HYPERLINKBASE
  1

  9
$STYLESHEET
  1

  9
$XEDIT
290
     1
  9
$CEPSNTYPE
380
     0
  9
$PSTYLEMODE
290
     1
  9
$FINGERPRINTGUID
  2
{870F4BAF-C6A9-48CD-AD29-551AF59E096F}
  9
$VERSIONGUID
  2
{FAEB1C32-E019-11D5-929B-00C0DF256EC4}
  9
$EXTNAMES
290
     1
  9
$PSVPSCALE
 40
0.0
  9
$OLESTARTUP
290
     0
  0
ENDSEC
  0
SECTION
  2
CLASSES
  0
CLASS
  1
ACDBDICTIONARYWDFLT
  2
AcDbDictionaryWithDefault
  3
ObjectDBX Classes
 90
        0
280
     0
281
     0
  0
CLASS
  1
VISUALSTYLE
  2
AcDbVisualStyle
  3
ObjectDBX Classes
 90
     4095
280
     0
281
     0
  0
CLASS
  1
MATERIAL
  2
AcDbMaterial
  3
ObjectDBX Classes
 90
     1153
280
     0
281
     0
  0
CLASS
  1
SCALE
  2
AcDbScale
  3
ObjectDBX Classes
 90
     1153
280
     0
281
     0
  0
CLASS
  1
TABLESTYLE
  2
AcDbTableStyle
  3
ObjectDBX Classes
 90
     4095
280
     0
281
     0
  0
CLASS
  1
MLEADERSTYLE
  2
AcDbMLeaderStyle
  3
ACDB_MLEADERSTYLE_CLASS
 90
     4095
280
     0
281
     0
  0
CLASS
  1
SUN
  2
AcDbSun
  3
SCENEOE
 90
     1153
280
     0
281
     0
  0
CLASS
  1
ACDBPLACEHOLDER
  2
AcDbPlaceHolder
  3
ObjectDBX Classes
 90
        0
280
     0
281
     0
  0
CLASS
  1
LAYOUT
  2
AcDbLayout
  3
ObjectDBX Classes
 90
        0
280
     0
281
     0
  0
ENDSEC
  0
SECTION
  2
TABLES
  0
TABLE
  2
VPORT
  5
8
330
0
100
AcDbSymbolTable
 70
     1
  0
VPORT
  5
29
330
8
100
AcDbSymbolTableRecord
100
AcDbViewportTableRecord
  2
*Active
 70
     0
 10
0.0
 20
0.0
 11
1.0
 21
1.0
 12
105.0
 22
148.5
 13
0.0
 23
0.0
 14
10.0
 24
10.0
 15
10.0
 25
10.0
 16
0.0
 26
0.0
 36
1.0
 17
0.0
 27
0.0
 37
0.0
 40
297.0
 41
0.7070707071
 42
50.0
 43
0.0
 44
0.0
 50
0.0
 51
0.0
 71
     0
 72
  2000
 73
     1
 74
     3
 75
     0
 76
     0
 77
     0
 78
     0
281
     0
 65
     1
110
0.0
120
0.0
130
0.0
111
1.0
121
0.0
131
0.0
112
0.0
122
1.0
132
0.0
 79
     0
146
0.0
  0
ENDTAB
  0
TABLE
  2
LTYPE
  5
5
330
0
100
AcDbSymbolTable
 70
     6
  0
LTYPE
  5
14
330
5
100
AcDbSymbolTableRecord
100
AcDbLinetypeTableRecord
  2
ByBlock
 70
     0
  3

 72
    65
 73
     0
 40
0.0
  0
LTYPE
  5
15
330
5
100
AcDbSymbolTableRecord
100
AcDbLinetypeTableRecord
  2
ByLayer
 70
     0
  3

 72
    65
 73
     0
 40
0.0
  0
LTYPE
  5
16
330
5
100
AcDbSymbolTableRecord
100
AcDbLinetypeTableRecord
  2
Continuous
 70
     0
  3
Solid line
 72
    65
 73
     0
 40
0.0
  0
LTYPE
  5
6E
330
5
100
AcDbSymbolTableRecord
100
AcDbLinetypeTableRecord
  2
HIDDEN
 70
     0
  3
Hidden __ __ __ __ __ __ __ __ __ __ __ __ __ __
 72
    65
 73
     2
 40
1.905
 49
1.27
 74
     0
 49
-0.635
 74
     0
  0
LTYPE
  5
6F
330
5
100
AcDbSymbolTableRecord
100
AcDbLinetypeTableRecord
  2
PHANTOM
 70
     0
  3
Phantom ______  __  __  ______  __  __  ______
 72
    65
 73
     6
 40
12.7
 49
6.35
 74
     0
 49
-1.27
 74
     0
 49
1.27
 74
     0
 49
-1.27
 74
     0
 49
1.27
 74
     0
 49
-1.27
 74
     0
  0
LTYPE
  5
70
330
5
100
AcDbSymbolTableRecord
100
AcDbLinetypeTableRecord
  2
CENTER
 70
     0
  3
Center ____ _ ____ _ ____ _ ____ _ ____ _ ____
 72
    65
 73
     4
 40
10.16
 49
6.35
 74
     0
 49
-1.27
 74
     0
 49
1.27
 74
     0
 49
-1.27
 74
     0
  0
LTYPE
  5
71
330
5
100
AcDbSymbolTableRecord
100
AcDbLinetypeTableRecord
  2
CENTERX2
 70
     0
  3
Center (2x) ________  __  ________  __  _____
 72
    65
 73
     4
 40
20.32
 49
12.7
 74
     0
 49
-2.54
 74
     0
 49
2.54
 74
     0
 49
-2.54
 74
     0
  0
LTYPE
  5
72
330
5
100
AcDbSymbolTableRecord
100
AcDbLinetypeTableRecord
  2
DOT2
 70
     0
  3
Dot (.5x) ........................................
 72
    65
 73
     2
 40
0.635
 49
0.0
 74
     0
 49
-0.635
 74
     0
  0
ENDTAB
  0
TABLE
  2
LAYER
  5
2
330
0
100
AcDbSymbolTable
 70
     1
  0
LAYER
  5
10
330
2
100
AcDbSymbolTableRecord
100
AcDbLayerTableRecord
  2
0
 70
     0
 62
     7
  6
Continuous
370
    -3
390
F
  0
ENDTAB
  0
TABLE
  2
STYLE
  5
3
330
0
100
AcDbSymbolTable
 70
     2
  0
STYLE
  5
11
330
3
100
AcDbSymbolTableRecord
100
AcDbTextStyleTableRecord
  2
Standard
 70
     0
 40
0.0
 41
1.0
 50
0.0
 71
     0
 42
3.5
  3
txt
  4
bigfont
  0
STYLE
  5
7B
330
3
100
AcDbSymbolTableRecord
100
AcDbTextStyleTableRecord
  2
SLDTEXTSTYLE0
 70
     0
 40
0.0
 41
0.7
 50
0.0
 71
     0
 42
3.5
  3
TXT
  4
bigfont
  0
ENDTAB
  0
TABLE
  2
VIEW
  5
6
330
0
100
AcDbSymbolTable
 70
     0
  0
ENDTAB
  0
TABLE
  2
UCS
  5
7
330
0
100
AcDbSymbolTable
 70
     0
  0
ENDTAB
  0
TABLE
  2
APPID
  5
9
330
0
100
AcDbSymbolTable
 70
     1
  0
APPID
  5
12
330
9
100
AcDbSymbolTableRecord
100
AcDbRegAppTableRecord
  2
ACAD
 70
     0
  0
ENDTAB
  0
TABLE
  2
DIMSTYLE
  5
A
330
0
100
AcDbSymbolTable
 70
     4
100
AcDbDimStyleTable
  0
DIMSTYLE
105
27
330
A
100
AcDbSymbolTableRecord
100
AcDbDimStyleTableRecord
  2
ISO-25
 70
     0
 41
2.5
 42
0.625
 43
3.75
 44
1.25
 73
     0
 74
     0
 77
     1
 78
     8
140
2.5
141
2.5
143
0.0393700787
147
0.625
171
     3
172
     1
178
     0
271
     2
272
     2
274
     3
278
    44
283
     0
284
     8
340
11
  0
DIMSTYLE
105
AA
330
A
100
AcDbSymbolTableRecord
100
AcDbDimStyleTableRecord
  2
SLDDIMSTYLE0
 70
     0
 41
3.0
 44
0.0
 45
0.000000001
146
3.0
147
0.0
173
     1
178
     0
271
     0
272
     0
276
     2
340
11
  0
DIMSTYLE
105
1D8
102
{ACAD_REACTORS
330
1D7
330
1E5
330
1F2
330
1FE
330
20B
330
236
330
24C
102
}
330
A
100
AcDbSymbolTableRecord
100
AcDbDimStyleTableRecord
  2
SLDDIMSTYLE1
 70
     0
 41
3.0
 44
0.0
 45
0.000000001
 73
     0
 74
     0
 77
     3
 78
    12
 79
     3
140
3.5
147
0.875
172
     1
173
     1
178
     0
271
     1
272
     3
276
     2
284
    12
289
     0
340
7B
  0
DIMSTYLE
105
218
102
{ACAD_REACTORS
330
217
330
222
330
22C
330
242
102
}
330
A
100
AcDbSymbolTableRecord
100
AcDbDimStyleTableRecord
  2
SLDDIMSTYLE2
 70
     0
 41
3.0
 44
0.0
 45
0.000000001
 73
     0
 74
     0
 77
     3
 78
    12
 79
     3
140
3.5
147
0.875
173
     1
178
     0
271
     1
272
     3
276
     2
284
    12
340
7B
  0
ENDTAB
  0
TABLE
  2
BLOCK_RECORD
  5
1
330
0
100
AcDbSymbolTable
 70
    16
  0
BLOCK_RECORD
  5
1F
330
1
100
AcDbSymbolTableRecord
100
AcDbBlockTableRecord
  2
*Model_Space
340
22
  0
BLOCK_RECORD
  5
1B
330
1
100
AcDbSymbolTableRecord
100
AcDbBlockTableRecord
  2
*Paper_Space
340
1E
  0
BLOCK_RECORD
  5
23
330
1
100
AcDbSymbolTableRecord
100
AcDbBlockTableRecord
  2
*Paper_Space0
340
26
  0
BLOCK_RECORD
  5
A4
330
1
100
AcDbSymbolTableRecord
100
AcDbBlockTableRecord
  2
SW_NOTE_0
340
0
102
{BLKREFS
331
A9
102
}
  0
BLOCK_RECORD
  5
AC
330
1
100
AcDbSymbolTableRecord
100
AcDbBlockTableRecord
  2
SW_NOTE_1
340
0
102
{BLKREFS
331
B1
102
}
  0
BLOCK_RECORD
  5
B3
330
1
100
AcDbSymbolTableRecord
100
AcDbBlockTableRecord
  2
SW_CENTERMARKSYMBOL_0
340
0
102
{BLKREFS
331
BE
102
}
  0
BLOCK_RECORD
  5
1D9
330
1
100
AcDbSymbolTableRecord
100
AcDbBlockTableRecord
  2
_D
340
0
  0
BLOCK_RECORD
  5
1E6
330
1
100
AcDbSymbolTableRecord
100
AcDbBlockTableRecord
  2
_D_1
340
0
  0
BLOCK_RECORD
  5
1F3
330
1
100
AcDbSymbolTableRecord
100
AcDbBlockTableRecord
  2
_D_2
340
0
  0
BLOCK_RECORD
  5
1FF
330
1
100
AcDbSymbolTableRecord
100
AcDbBlockTableRecord
  2
_D_3
340
0
  0
BLOCK_RECORD
  5
20C
330
1
100
AcDbSymbolTableRecord
100
AcDbBlockTableRecord
  2
_D_4
340
0
  0
BLOCK_RECORD
  5
219
330
1
100
AcDbSymbolTableRecord
100
AcDbBlockTableRecord
  2
_D_5
340
0
  0
BLOCK_RECORD
  5
223
330
1
100
AcDbSymbolTableRecord
100
AcDbBlockTableRecord
  2
_D_6
340
0
  0
BLOCK_RECORD
  5
22D
330
1
100
AcDbSymbolTableRecord
100
AcDbBlockTableRecord
  2
_D_7
340
0
  0
BLOCK_RECORD
  5
237
330
1
100
AcDbSymbolTableRecord
100
AcDbBlockTableRecord
  2
_D_8
340
0
  0
BLOCK_RECORD
  5
243
330
1
100
AcDbSymbolTableRecord
100
AcDbBlockTableRecord
  2
_D_9
340
0
  0
BLOCK_RECORD
  5
24D
330
1
100
AcDbSymbolTableRecord
100
AcDbBlockTableRecord
  2
_D_10
340
0
  0
BLOCK_RECORD
  5
259
330
1
100
AcDbSymbolTableRecord
100
AcDbBlockTableRecord
  2
SW_NOTE_2
340
0
102
{BLKREFS
331
25E
102
}
  0
ENDTAB
  0
ENDSEC
  0
SECTION
  2
BLOCKS
  0
BLOCK
  5
20
330
1F
100
AcDbEntity
  8
0
100
AcDbBlockBegin
  2
*Model_Space
 70
     0
 10
0.0
 20
0.0
 30
0.0
  3
*Model_Space
  1

  0
ENDBLK
  5
21
330
1F
100
AcDbEntity
  8
0
100
AcDbBlockEnd
  0
BLOCK
  5
1C
330
1B
100
AcDbEntity
 67
     1
  8
0
100
AcDbBlockBegin
  2
*Paper_Space
 70
     0
 10
0.0
 20
0.0
 30
0.0
  3
*Paper_Space
  1

  0
ENDBLK
  5
1D
330
1B
100
AcDbEntity
 67
     1
  8
0
100
AcDbBlockEnd
  0
BLOCK
  5
24
330
23
100
AcDbEntity
  8
0
100
AcDbBlockBegin
  2
*Paper_Space0
 70
     0
 10
0.0
 20
0.0
 30
0.0
  3
*Paper_Space0
  1

  0
ENDBLK
  5
25
330
23
100
AcDbEntity
  8
0
100
AcDbBlockEnd
  0
BLOCK
  5
A5
330
A4
100
AcDbEntity
  8
0
100
AcDbBlockBegin
  2
SW_NOTE_0
 70
     0
 10
0.0
 20
0.0
 30
0.0
  3
SW_NOTE_0
  1

  0
LINE
  5
A7
330
A4
100
AcDbEntity
  8
0
  6
Continuous
 62
     0
370
     0
100
AcDbLine
 10
3.9558253648
 20
0.0
 30
0.0
 11
0.0
 21
0.0
 31
0.0
  0
MTEXT
  5
A8
330
A4
100
AcDbEntity
  8
0
  6
Continuous
 62
     0
370
     0
100
AcDbMText
 10
0.4502039178
 20
4.5662783228
 30
0.0
 40
3.5
 41
0.0
 71
     1
 72
     1
  1
M5
  7
SLDTEXTSTYLE0
 73
     1
 44
1.0
  0
ENDBLK
  5
A6
330
A4
100
AcDbEntity
  8
0
100
AcDbBlockEnd
  0
BLOCK
  5
AD
330
AC
100
AcDbEntity
  8
0
100
AcDbBlockBegin
  2
SW_NOTE_1
 70
     0
 10
0.0
 20
0.0
 30
0.0
  3
SW_NOTE_1
  1

  0
LINE
  5
AF
330
AC
100
AcDbEntity
  8
0
  6
Continuous
 62
     0
370
     0
100
AcDbLine
 10
-34.7434797858
 20
0.0
 30
0.0
 11
0.0
 21
0.0
 31
0.0
  0
MTEXT
  5
B0
330
AC
100
AcDbEntity
  8
0
  6
Continuous
 62
     0
370
     0
100
AcDbMText
 10
-35.2115997799
 20
4.6154035063
 30
0.0
 40
3.5
 41
0.0
 71
     1
 72
     1
  1
外径φ6配管用継手
  7
SLDTEXTSTYLE0
 73
     1
 44
1.0
  0
ENDBLK
  5
AE
330
AC
100
AcDbEntity
  8
0
100
AcDbBlockEnd
  0
BLOCK
  5
B4
330
B3
100
AcDbEntity
  8
0
100
AcDbBlockBegin
  2
SW_CENTERMARKSYMBOL_0
 70
     0
 10
0.0
 20
0.0
 30
0.0
  3
SW_CENTERMARKSYMBOL_0
  1

  0
LINE
  5
B6
330
B3
100
AcDbEntity
  8
0
  6
Continuous
 62
     0
370
    18
100
AcDbLine
 10
0.0
 20
0.0
 30
0.0
 11
0.0
 21
2.5
 31
0.0
  0
LINE
  5
B7
330
B3
100
AcDbEntity
  8
0
  6
Continuous
 62
     0
370
    18
100
AcDbLine
 10
0.0
 20
0.0
 30
0.0
 11
-2.5
 21
0.0
 31
0.0
  0
LINE
  5
B8
330
B3
100
AcDbEntity
  8
0
  6
Continuous
 62
     0
370
    18
100
AcDbLine
 10
0.0
 20
0.0
 30
0.0
 11
0.0
 21
-2.5
 31
0.0
  0
LINE
  5
B9
330
B3
100
AcDbEntity
  8
0
  6
Continuous
 62
     0
370
    18
100
AcDbLine
 10
0.0
 20
0.0
 30
0.0
 11
2.5
 21
0.0
 31
0.0
  0
LINE
  5
BA
330
B3
100
AcDbEntity
  8
0
  6
Continuous
 62
     0
370
    18
100
AcDbLine
 10
0.0
 20
5.0
 30
0.0
 11
0.0
 21
9.5000000002
 31
0.0
  0
LINE
  5
BB
330
B3
100
AcDbEntity
  8
0
  6
Continuous
 62
     0
370
    18
100
AcDbLine
 10
-5.0
 20
0.0
 30
0.0
 11
-9.5000000002
 21
0.0
 31
0.0
  0
LINE
  5
BC
330
B3
100
AcDbEntity
  8
0
  6
Continuous
 62
     0
370
    18
100
AcDbLine
 10
0.0
 20
-5.0
 30
0.0
 11
0.0
 21
-9.5000000002
 31
0.0
  0
LINE
  5
BD
330
B3
100
AcDbEntity
  8
0
  6
Continuous
 62
     0
370
    18
100
AcDbLine
 10
5.0
 20
0.0
 30
0.0
 11
9.5000000002
 21
0.0
 31
0.0
  0
ENDBLK
  5
B5
330
B3
100
AcDbEntity
  8
0
100
AcDbBlockEnd
  0
BLOCK
  5
1DA
330
1D9
100
AcDbEntity
  8
0
100
AcDbBlockBegin
  2
_D
 70
     0
 10
0.0
 20
0.0
 30
0.0
  3
_D
  1

  0
SOLID
  5
1DC
330
1D9
100
AcDbEntity
  8
0
  6
Continuous
 62
     7
370
    18
100
AcDbTrace
 10
103.6986256546
 20
177.108057037
 30
0.0
 11
104.4486256546
 21
180.108057037
 31
0.0
 12
102.9486256546
 22
180.108057037
 32
0.0
 13
102.9486256546
 23
180.108057037
 33
0.0
  0
SOLID
  5
1DD
330
1D9
100
AcDbEntity
  8
0
  6
Continuous
 62
     7
370
    18
100
AcDbTrace
 10
103.6986256546
 20
166.108057037
 30
0.0
 11
102.9486256546
 21
163.108057037
 31
0.0
 12
104.4486256546
 22
163.108057037
 32
0.0
 13
104.4486256546
 23
163.108057037
 33
0.0
  0
LINE
  5
1DE
330
1D9
100
AcDbEntity
  8
0
  6
Continuous
 62
     7
370
    18
100
AcDbLine
 10
111.4490106009
 20
177.108057037
 30
0.0
 11
102.6986256546
 21
177.108057037
 31
0.0
  0
LINE
  5
1DF
330
1D9
100
AcDbEntity
  8
0
  6
Continuous
 62
     7
370
    18
100
AcDbLine
 10
111.4490106009
 20
166.108057037
 30
0.0
 11
102.6986256546
 21
166.108057037
 31
0.0
  0
LINE
  5
1E0
330
1D9
100
AcDbEntity
  8
0
  6
Continuous
 62
     7
370
    18
100
AcDbLine
 10
103.6986256546
 20
177.108057037
 30
0.0
 11
103.6986256546
 21
182.108057037
 31
0.0
  0
LINE
  5
1E1
330
1D9
100
AcDbEntity
  8
0
  6
Continuous
 62
     7
370
    18
100
AcDbLine
 10
103.6986256546
 20
177.108057037
 30
0.0
 11
103.6986256546
 21
166.108057037
 31
0.0
  0
LINE
  5
1E2
330
1D9
100
AcDbEntity
  8
0
  6
Continuous
 62
     7
370
    18
100
AcDbLine
 10
103.6986256546
 20
166.108057037
 30
0.0
 11
103.6986256546
 21
161.108057037
 31
0.0
  0
MTEXT
  5
1E3
330
1D9
100
AcDbEntity
  8
0
  6
Continuous
 62
     7
370
    18
100
AcDbMText
 10
99.1868883325
 20
167.6362861656
 30
0.0
 40
3.5
 41
0.0
 71
     1
 72
     1
  1
%%c
  7
SLDTEXTSTYLE0
 11
-7.044195017643634E-15
 21
1.0
 31
0.0
 73
     1
 44
1.0
  0
MTEXT
  5
1E4
330
1D9
100
AcDbEntity
  8
0
  6
Continuous
 62
     7
370
    18
100
AcDbMText
 10
99.1868883325
 20
171.5062166806
 30
0.0
 40
3.5
 41
0.0
 71
     1
 72
     1
  1
11
  7
SLDTEXTSTYLE0
 11
-7.044195017643634E-15
 21
1.0
 31
0.0
 73
     1
 44
1.0
  0
ENDBLK
  5
1DB
330
1D9
100
AcDbEntity
  8
0
100
AcDbBlockEnd
  0
BLOCK
  5
1E7
330
1E6
100
AcDbEntity
  8
0
100
AcDbBlockBegin
  2
_D_1
 70
     0
 10
0.0
 20
0.0
 30
0.0
  3
_D_1
  1

  0
SOLID
  5
1E9
330
1E6
100
AcDbEntity
  8
0
  6
Continuous
 62
     7
370
    18
100
AcDbTrace
 10
92.3732311105
 20
178.608057037
 30
0.0
 11
93.1232311105
 21
181.608057037
 31
0.0
 12
91.6232311105
 22
181.608057037
 32
0.0
 13
91.6232311105
 23
181.608057037
 33
0.0
  0
SOLID
  5
1EA
330
1E6
100
AcDbEntity
  8
0
  6
Continuous
 62
     7
370
    18
100
AcDbTrace
 10
92.3732311105
 20
164.608057037
 30
0.0
 11
91.6232311105
 21
161.608057037
 31
0.0
 12
93.1232311105
 22
161.608057037
 32
0.0
 13
93.1232311105
 23
161.608057037
 33
0.0
  0
LINE
  5
1EB
330
1E6
100
AcDbEntity
  8
0
  6
Continuous
 62
     7
370
    18
100
AcDbLine
 10
120.4490106009
 20
178.608057037
 30
0.0
 11
91.3732311105
 21
178.608057037
 31
0.0
  0
LINE
  5
1EC
330
1E6
100
AcDbEntity
  8
0
  6
Continuous
 62
     7
370
    18
100
AcDbLine
 10
120.4490106009
 20
164.608057037
 30
0.0
 11
91.3732311105
 21
164.608057037
 31
0.0
  0
LINE
  5
1ED
330
1E6
100
AcDbEntity
  8
0
  6
Continuous
 62
     7
370
    18
100
AcDbLine
 10
92.3732311105
 20
178.608057037
 30
0.0
 11
92.3732311105
 21
183.608057037
 31
0.0
  0
LINE
  5
1EE
330
1E6
100
AcDbEntity
  8
0
  6
Continuous
 62
     7
370
    18
100
AcDbLine
 10
92.3732311105
 20
178.608057037
 30
0.0
 11
92.3732311105
 21
164.608057037
 31
0.0
  0
LINE
  5
1EF
330
1E6
100
AcDbEntity
  8
0
  6
Continuous
 62
     7
370
    18
100
AcDbLine
 10
92.3732311105
 20
164.608057037
 30
0.0
 11
92.3732311105
 21
159.608057037
 31
0.0
  0
MTEXT
  5
1F0
330
1E6
100
AcDbEntity
  8
0
  6
Continuous
 62
     7
370
    18
100
AcDbMText
 10
87.8614937885
 20
167.6362861656
 30
0.0
 40
3.5
 41
0.0
 71
     1
 72
     1
  1
%%c
  7
SLDTEXTSTYLE0
 11
-7.044195017643634E-15
 21
1.0
 31
0.0
 73
     1
 44
1.0
  0
MTEXT
  5
1F1
330
1E6
100
AcDbEntity
  8
0
  6
Continuous
 62
     7
370
    18
100
AcDbMText
 10
87.8614937885
 20
171.5062166806
 30
0.0
 40
3.5
 41
0.0
 71
     1
 72
     1
  1
14
  7
SLDTEXTSTYLE0
 11
-7.044195017643634E-15
 21
1.0
 31
0.0
 73
     1
 44
1.0
  0
ENDBLK
  5
1E8
330
1E6
100
AcDbEntity
  8
0
100
AcDbBlockEnd
  0
BLOCK
  5
1F4
330
1F3
100
AcDbEntity
  8
0
100
AcDbBlockBegin
  2
_D_2
 70
     0
 10
0.0
 20
0.0
 30
0.0
  3
_D_2
  1

  0
SOLID
  5
1F6
330
1F3
100
AcDbEntity
  8
0
  6
Continuous
 62
     7
370
    18
100
AcDbTrace
 10
121.1490106014
 20
192.9670772239
 30
0.0
 11
124.1490106014
 21
192.2170772238
 31
0.0
 12
124.1490106015
 22
193.7170772238
 32
0.0
 13
124.1490106015
 23
193.7170772238
 33
0.0
  0
SOLID
  5
1F7
330
1F3
100
AcDbEntity
  8
0
  6
Continuous
 62
     7
370
    18
100
AcDbTrace
 10
112.1490106015
 20
192.9670772242
 30
0.0
 11
109.1490106015
 21
193.7170772244
 31
0.0
 12
109.1490106015
 22
192.2170772244
 32
0.0
 13
109.1490106015
 23
192.2170772244
 33
0.0
  0
LINE
  5
1F8
330
1F3
100
AcDbEntity
  8
0
  6
Continuous
 62
     7
370
    18
100
AcDbLine
 10
121.1490106009
 20
179.3080570337
 30
0.0
 11
121.1490106015
 21
193.9670772239
 31
0.0
  0
LINE
  5
1F9
330
1F3
100
AcDbEntity
  8
0
  6
Continuous
 62
     7
370
    18
100
AcDbLine
 10
112.1490106009
 20
177.8080570344
 30
0.0
 11
112.1490106015
 21
193.9670772242
 31
0.0
  0
LINE
  5
1FA
330
1F3
100
AcDbEntity
  8
0
  6
Continuous
 62
     7
370
    18
100
AcDbLine
 10
121.1490106014
 20
192.9670772239
 30
0.0
 11
126.1490106014
 21
192.9670772237
 31
0.0
  0
LINE
  5
1FB
330
1F3
100
AcDbEntity
  8
0
  6
Continuous
 62
     7
370
    18
100
AcDbLine
 10
121.1490106014
 20
192.9670772239
 30
0.0
 11
112.1490106015
 21
192.9670772242
 31
0.0
  0
LINE
  5
1FC
330
1F3
100
AcDbEntity
  8
0
  6
Continuous
 62
     7
370
    18
100
AcDbLine
 10
112.1490106015
 20
192.9670772242
 30
0.0
 11
107.1490106015
 21
192.9670772244
 31
0.0
  0
MTEXT
  5
1FD
330
1F3
100
AcDbEntity
  8
0
  6
Continuous
 62
     7
370
    18
100
AcDbMText
 10
115.6306078529
 20
197.4788140805
 30
0.0
 40
3.5
 41
0.0
 71
     1
 72
     1
  1
9
  7
SLDTEXTSTYLE0
 73
     1
 44
1.0
  0
ENDBLK
  5
1F5
330
1F3
100
AcDbEntity
  8
0
100
AcDbBlockEnd
  0
BLOCK
  5
200
330
1FF
100
AcDbEntity
  8
0
100
AcDbBlockBegin
  2
_D_3
 70
     0
 10
0.0
 20
0.0
 30
0.0
  3
_D_3
  1

  0
SOLID
  5
202
330
1FF
100
AcDbEntity
  8
0
  6
Continuous
 62
     7
370
    18
100
AcDbTrace
 10
135.1490106009
 20
145.2718541269
 30
0.0
 11
138.1490106009
 21
144.5218541269
 31
0.0
 12
138.1490106009
 22
146.0218541269
 32
0.0
 13
138.1490106009
 23
146.0218541269
 33
0.0
  0
SOLID
  5
203
330
1FF
100
AcDbEntity
  8
0
  6
Continuous
 62
     7
370
    18
100
AcDbTrace
 10
130.1490106009
 20
145.2718541269
 30
0.0
 11
127.1490106009
 21
146.0218541269
 31
0.0
 12
127.1490106009
 22
144.5218541269
 32
0.0
 13
127.1490106009
 23
144.5218541269
 33
0.0
  0
LINE
  5
204
330
1FF
100
AcDbEntity
  8
0
  6
Continuous
 62
     7
370
    18
100
AcDbLine
 10
135.1490106009
 20
168.6080570383
 30
0.0
 11
135.1490106009
 21
144.2718541269
 31
0.0
  0
LINE
  5
205
330
1FF
100
AcDbEntity
  8
0
  6
Continuous
 62
     7
370
    18
100
AcDbLine
 10
130.1490106009
 20
167.7080570367
 30
0.0
 11
130.1490106009
 21
144.2718541269
 31
0.0
  0
LINE
  5
206
330
1FF
100
AcDbEntity
  8
0
  6
Continuous
 62
     7
370
    18
100
AcDbLine
 10
135.1490106009
 20
145.2718541269
 30
0.0
 11
140.1490106009
 21
145.2718541269
 31
0.0
  0
LINE
  5
207
330
1FF
100
AcDbEntity
  8
0
  6
Continuous
 62
     7
370
    18
100
AcDbLine
 10
135.1490106009
 20
145.2718541269
 30
0.0
 11
130.1490106009
 21
145.2718541269
 31
0.0
  0
LINE
  5
208
330
1FF
100
AcDbEntity
  8
0
  6
Continuous
 62
     7
370
    18
100
AcDbLine
 10
130.1490106009
 20
145.2718541269
 30
0.0
 11
120.1338862464
 21
145.2718541269
 31
0.0
  0
MTEXT
  5
209
330
1FF
100
AcDbEntity
  8
0
  6
Continuous
 62
     7
370
    18
100
AcDbMText
 10
120.1338862464
 20
149.7835909833
 30
0.0
 40
3.5
 41
0.0
 71
     1
 72
     1
  1
5
  7
SLDTEXTSTYLE0
 73
     1
 44
1.0
  0
MTEXT
  5
20A
330
1FF
100
AcDbEntity
  8
0
  6
Continuous
 62
     7
370
    18
100
AcDbMText
 10
122.1706917439
 20
149.7835909833
 30
0.0
 40
3.5
 41
0.0
 71
     1
 72
     1
  1
st
  7
SLDTEXTSTYLE0
 73
     1
 44
1.0
  0
ENDBLK
  5
201
330
1FF
100
AcDbEntity
  8
0
100
AcDbBlockEnd
  0
BLOCK
  5
20D
330
20C
100
AcDbEntity
  8
0
100
AcDbBlockBegin
  2
_D_4
 70
     0
 10
0.0
 20
0.0
 30
0.0
  3
_D_4
  1

  0
SOLID
  5
20F
330
20C
100
AcDbEntity
  8
0
  6
Continuous
 62
     7
370
    18
100
AcDbTrace
 10
138.1490106009
 20
153.874728375
 30
0.0
 11
135.1490106009
 21
154.624728375
 31
0.0
 12
135.1490106009
 22
153.124728375
 32
0.0
 13
135.1490106009
 23
153.124728375
 33
0.0
  0
SOLID
  5
210
330
20C
100
AcDbEntity
  8
0
  6
Continuous
 62
     7
370
    18
100
AcDbTrace
 10
141.1490106009
 20
153.874728375
 30
0.0
 11
144.1490106009
 21
153.124728375
 31
0.0
 12
144.1490106009
 22
154.624728375
 32
0.0
 13
144.1490106009
 23
154.624728375
 33
0.0
  0
LINE
  5
211
330
20C
100
AcDbEntity
  8
0
  6
Continuous
 62
     7
370
    18
100
AcDbLine
 10
138.1490106009
 20
160.7931024617
 30
0.0
 11
138.1490106009
 21
152.874728375
 31
0.0
  0
LINE
  5
212
330
20C
100
AcDbEntity
  8
0
  6
Continuous
 62
     7
370
    18
100
AcDbLine
 10
141.1490106009
 20
160.7931024617
 30
0.0
 11
141.1490106009
 21
152.874728375
 31
0.0
  0
LINE
  5
213
330
20C
100
AcDbEntity
  8
0
  6
Continuous
 62
     7
370
    18
100
AcDbLine
 10
138.1490106009
 20
153.874728375
 30
0.0
 11
133.1490106009
 21
153.874728375
 31
0.0
  0
LINE
  5
214
330
20C
100
AcDbEntity
  8
0
  6
Continuous
 62
     7
370
    18
100
AcDbLine
 10
138.1490106009
 20
153.874728375
 30
0.0
 11
141.1490106009
 21
153.874728375
 31
0.0
  0
LINE
  5
215
330
20C
100
AcDbEntity
  8
0
  6
Continuous
 62
     7
370
    18
100
AcDbLine
 10
141.1490106009
 20
153.874728375
 30
0.0
 11
147.6030081837
 21
153.874728375
 31
0.0
  0
MTEXT
  5
216
330
20C
100
AcDbEntity
  8
0
  6
Continuous
 62
     7
370
    18
100
AcDbMText
 10
145.5662026862
 20
158.3864652314
 30
0.0
 40
3.5
 41
0.0
 71
     1
 72
     1
  1
3
  7
SLDTEXTSTYLE0
 73
     1
 44
1.0
  0
ENDBLK
  5
20E
330
20C
100
AcDbEntity
  8
0
100
AcDbBlockEnd
  0
BLOCK
  5
21A
330
219
100
AcDbEntity
  8
0
100
AcDbBlockBegin
  2
_D_5
 70
     0
 10
0.0
 20
0.0
 30
0.0
  3
_D_5
  1

  0
SOLID
  5
21C
330
219
100
AcDbEntity
  8
0
  6
Continuous
 62
     7
370
    18
100
AcDbTrace
 10
163.1490106028
 20
213.013057036
 30
0.0
 11
160.1490106028
 21
213.7630570361
 31
0.0
 12
160.1490106028
 22
212.2630570361
 32
0.0
 13
160.1490106028
 23
212.2630570361
 33
0.0
  0
SOLID
  5
21D
330
219
100
AcDbEntity
  8
0
  6
Continuous
 62
     7
370
    18
100
AcDbTrace
 10
112.1490106027
 20
213.0130570385
 30
0.0
 11
115.1490106026
 21
212.2630570384
 31
0.0
 12
115.1490106027
 22
213.7630570384
 32
0.0
 13
115.1490106027
 23
213.7630570384
 33
0.0
  0
LINE
  5
21E
330
219
100
AcDbEntity
  8
0
  6
Continuous
 62
     7
370
    18
100
AcDbLine
 10
163.1490106009
 20
175.108057037
 30
0.0
 11
163.1490106028
 21
214.013057036
 31
0.0
  0
LINE
  5
21F
330
219
100
AcDbEntity
  8
0
  6
Continuous
 62
     7
370
    18
100
AcDbLine
 10
112.1490106009
 20
177.8080570344
 30
0.0
 11
112.1490106027
 21
214.0130570385
 31
0.0
  0
LINE
  5
220
330
219
100
AcDbEntity
  8
0
  6
Continuous
 62
     7
370
    18
100
AcDbLine
 10
163.1490106028
 20
213.013057036
 30
0.0
 11
112.1490106027
 21
213.0130570385
 31
0.0
  0
MTEXT
  5
221
330
219
100
AcDbEntity
  8
0
  6
Continuous
 62
     7
370
    18
100
AcDbMText
 10
135.6122051054
 20
217.5247938937
 30
0.0
 40
3.5
 41
0.0
 71
     1
 72
     1
  1
51
  7
SLDTEXTSTYLE0
 73
     1
 44
1.0
  0
ENDBLK
  5
21B
330
219
100
AcDbEntity
  8
0
100
AcDbBlockEnd
  0
BLOCK
  5
224
330
223
100
AcDbEntity
  8
0
100
AcDbBlockBegin
  2
_D_6
 70
     0
 10
0.0
 20
0.0
 30
0.0
  3
_D_6
  1

  0
SOLID
  5
226
330
223
100
AcDbEntity
  8
0
  6
Continuous
 62
     7
370
    18
100
AcDbTrace
 10
141.1490106009
 20
203.349599726
 30
0.0
 11
144.1490106009
 21
202.599599726
 31
0.0
 12
144.1490106009
 22
204.099599726
 32
0.0
 13
144.1490106009
 23
204.099599726
 33
0.0
  0
SOLID
  5
227
330
223
100
AcDbEntity
  8
0
  6
Continuous
 62
     7
370
    18
100
AcDbTrace
 10
163.1490106009
 20
203.349599726
 30
0.0
 11
160.1490106009
 21
204.099599726
 31
0.0
 12
160.1490106009
 22
202.599599726
 32
0.0
 13
160.1490106009
 23
202.599599726
 33
0.0
  0
LINE
  5
228
330
223
100
AcDbEntity
  8
0
  6
Continuous
 62
     7
370
    18
100
AcDbLine
 10
141.1490106009
 20
182.4230116123
 30
0.0
 11
141.1490106009
 21
204.349599726
 31
0.0
  0
LINE
  5
229
330
223
100
AcDbEntity
  8
0
  6
Continuous
 62
     7
370
    18
100
AcDbLine
 10
163.1490106009
 20
175.108057037
 30
0.0
 11
163.1490106009
 21
204.349599726
 31
0.0
  0
LINE
  5
22A
330
223
100
AcDbEntity
  8
0
  6
Continuous
 62
     7
370
    18
100
AcDbLine
 10
141.1490106009
 20
203.349599726
 30
0.0
 11
163.1490106009
 21
203.349599726
 31
0.0
  0
MTEXT
  5
22B
330
223
100
AcDbEntity
  8
0
  6
Continuous
 62
     7
370
    18
100
AcDbMText
 10
150.1122051034
 20
207.8613365824
 30
0.0
 40
3.5
 41
0.0
 71
     1
 72
     1
  1
22
  7
SLDTEXTSTYLE0
 73
     1
 44
1.0
  0
ENDBLK
  5
225
330
223
100
AcDbEntity
  8
0
100
AcDbBlockEnd
  0
BLOCK
  5
22E
330
22D
100
AcDbEntity
  8
0
100
AcDbBlockBegin
  2
_D_7
 70
     0
 10
0.0
 20
0.0
 30
0.0
  3
_D_7
  1

  0
SOLID
  5
230
330
22D
100
AcDbEntity
  8
0
  6
Continuous
 62
     7
370
    18
100
AcDbTrace
 10
161.1490106008
 20
192.9670772238
 30
0.0
 11
158.1490106008
 21
193.7170772238
 31
0.0
 12
158.1490106009
 22
192.2170772238
 32
0.0
 13
158.1490106009
 23
192.2170772238
 33
0.0
  0
SOLID
  5
231
330
22D
100
AcDbEntity
  8
0
  6
Continuous
 62
     7
370
    18
100
AcDbTrace
 10
141.1490106009
 20
192.9670772238
 30
0.0
 11
144.1490106009
 21
192.2170772238
 31
0.0
 12
144.1490106009
 22
193.7170772238
 32
0.0
 13
144.1490106009
 23
193.7170772238
 33
0.0
  0
LINE
  5
232
330
22D
100
AcDbEntity
  8
0
  6
Continuous
 62
     7
370
    18
100
AcDbLine
 10
161.1490106009
 20
177.6081030756
 30
0.0
 11
161.1490106008
 21
193.9670772238
 31
0.0
  0
LINE
  5
233
330
22D
100
AcDbEntity
  8
0
  6
Continuous
 62
     7
370
    18
100
AcDbLine
 10
141.1490106009
 20
182.4230116123
 30
0.0
 11
141.1490106009
 21
193.9670772238
 31
0.0
  0
LINE
  5
234
330
22D
100
AcDbEntity
  8
0
  6
Continuous
 62
     7
370
    18
100
AcDbLine
 10
161.1490106008
 20
192.9670772238
 30
0.0
 11
141.1490106009
 21
192.9670772238
 31
0.0
  0
MTEXT
  5
235
330
22D
100
AcDbEntity
  8
0
  6
Continuous
 62
     7
370
    18
100
AcDbMText
 10
149.1122051034
 20
197.4788140802
 30
0.0
 40
3.5
 41
0.0
 71
     1
 72
     1
  1
20
  7
SLDTEXTSTYLE0
 73
     1
 44
1.0
  0
ENDBLK
  5
22F
330
22D
100
AcDbEntity
  8
0
100
AcDbBlockEnd
  0
BLOCK
  5
238
330
237
100
AcDbEntity
  8
0
100
AcDbBlockBegin
  2
_D_8
 70
     0
 10
0.0
 20
0.0
 30
0.0
  3
_D_8
  1

  0
SOLID
  5
23A
330
237
100
AcDbEntity
  8
0
  6
Continuous
 62
     7
370
    18
100
AcDbTrace
 10
135.1490106009
 20
192.9670772238
 30
0.0
 11
132.1490106009
 21
193.7170772238
 31
0.0
 12
132.1490106009
 22
192.2170772238
 32
0.0
 13
132.1490106009
 23
192.2170772238
 33
0.0
  0
SOLID
  5
23B
330
237
100
AcDbEntity
  8
0
  6
Continuous
 62
     7
370
    18
100
AcDbTrace
 10
141.1490106009
 20
192.9670772238
 30
0.0
 11
144.1490106009
 21
192.2170772238
 31
0.0
 12
144.1490106009
 22
193.7170772238
 32
0.0
 13
144.1490106009
 23
193.7170772238
 33
0.0
  0
LINE
  5
23C
330
237
100
AcDbEntity
  8
0
  6
Continuous
 62
     7
370
    18
100
AcDbLine
 10
135.1490106009
 20
176.6080938684
 30
0.0
 11
135.1490106009
 21
193.9670772238
 31
0.0
  0
LINE
  5
23D
330
237
100
AcDbEntity
  8
0
  6
Continuous
 62
     7
370
    18
100
AcDbLine
 10
141.1490106009
 20
182.4230116123
 30
0.0
 11
141.1490106009
 21
193.9670772238
 31
0.0
  0
LINE
  5
23E
330
237
100
AcDbEntity
  8
0
  6
Continuous
 62
     7
370
    18
100
AcDbLine
 10
135.1490106009
 20
192.9670772238
 30
0.0
 11
130.1490106009
 21
192.9670772238
 31
0.0
  0
LINE
  5
23F
330
237
100
AcDbEntity
  8
0
  6
Continuous
 62
     7
370
    18
100
AcDbLine
 10
135.1490106009
 20
192.9670772238
 30
0.0
 11
141.1490106009
 21
192.9670772238
 31
0.0
  0
LINE
  5
240
330
237
100
AcDbEntity
  8
0
  6
Continuous
 62
     7
370
    18
100
AcDbLine
 10
141.1490106009
 20
192.9670772238
 30
0.0
 11
146.1490106009
 21
192.9670772238
 31
0.0
  0
MTEXT
  5
241
330
237
100
AcDbEntity
  8
0
  6
Continuous
 62
     7
370
    18
100
AcDbMText
 10
137.1306078521
 20
197.4788140802
 30
0.0
 40
3.5
 41
0.0
 71
     1
 72
     1
  1
6
  7
SLDTEXTSTYLE0
 73
     1
 44
1.0
  0
ENDBLK
  5
239
330
237
100
AcDbEntity
  8
0
100
AcDbBlockEnd
  0
BLOCK
  5
244
330
243
100
AcDbEntity
  8
0
100
AcDbBlockBegin
  2
_D_9
 70
     0
 10
0.0
 20
0.0
 30
0.0
  3
_D_9
  1

  0
SOLID
  5
246
330
243
100
AcDbEntity
  8
0
  6
Continuous
 62
     7
370
    18
100
AcDbTrace
 10
183.5429446331
 20
181.423011613
 30
0.0
 11
182.7929446331
 21
178.423011613
 31
0.0
 12
184.2929446331
 22
178.423011613
 32
0.0
 13
184.2929446331
 23
178.423011613
 33
0.0
  0
SOLID
  5
247
330
243
100
AcDbEntity
  8
0
  6
Continuous
 62
     7
370
    18
100
AcDbTrace
 10
183.5429446331
 20
161.793102461
 30
0.0
 11
184.2929446331
 21
164.793102461
 31
0.0
 12
182.7929446331
 22
164.793102461
 32
0.0
 13
182.7929446331
 23
164.793102461
 33
0.0
  0
LINE
  5
248
330
243
100
AcDbEntity
  8
0
  6
Continuous
 62
     7
370
    18
100
AcDbLine
 10
159.3247460179
 20
181.423011613
 30
0.0
 11
184.5429446331
 21
181.423011613
 31
0.0
  0
LINE
  5
249
330
243
100
AcDbEntity
  8
0
  6
Continuous
 62
     7
370
    18
100
AcDbLine
 10
159.3247460179
 20
161.793102461
 30
0.0
 11
184.5429446331
 21
161.793102461
 31
0.0
  0
LINE
  5
24A
330
243
100
AcDbEntity
  8
0
  6
Continuous
 62
     7
370
    18
100
AcDbLine
 10
183.5429446331
 20
181.423011613
 30
0.0
 11
183.5429446331
 21
161.793102461
 31
0.0
  0
MTEXT
  5
24B
330
243
100
AcDbEntity
  8
0
  6
Continuous
 62
     7
370
    18
100
AcDbMText
 10
179.0312077767
 20
167.534446042
 30
0.0
 40
3.5
 41
0.0
 71
     1
 72
     1
  1
19.6
  7
SLDTEXTSTYLE0
 11
-7.044195017643634E-15
 21
1.0
 31
0.0
 73
     1
 44
1.0
  0
ENDBLK
  5
245
330
243
100
AcDbEntity
  8
0
100
AcDbBlockEnd
  0
BLOCK
  5
24E
330
24D
100
AcDbEntity
  8
0
100
AcDbBlockBegin
  2
_D_10
 70
     0
 10
0.0
 20
0.0
 30
0.0
  3
_D_10
  1

  0
SOLID
  5
250
330
24D
100
AcDbEntity
  8
0
  6
Continuous
 62
     7
370
    18
100
AcDbTrace
 10
173.1540116009
 20
174.5080570368
 30
0.0
 11
173.9040116009
 21
177.5080570368
 31
0.0
 12
172.4040116009
 22
177.5080570368
 32
0.0
 13
172.4040116009
 23
177.5080570368
 33
0.0
  0
SOLID
  5
251
330
24D
100
AcDbEntity
  8
0
  6
Continuous
 62
     7
370
    18
100
AcDbTrace
 10
173.1540116009
 20
168.7080570373
 30
0.0
 11
172.4040116009
 21
165.7080570373
 31
0.0
 12
173.9040116009
 22
165.7080570373
 32
0.0
 13
173.9040116009
 23
165.7080570373
 33
0.0
  0
LINE
  5
252
330
24D
100
AcDbEntity
  8
0
  6
Continuous
 62
     7
370
    18
100
AcDbLine
 10
163.6490106009
 20
174.5080570368
 30
0.0
 11
174.1540116009
 21
174.5080570368
 31
0.0
  0
LINE
  5
253
330
24D
100
AcDbEntity
  8
0
  6
Continuous
 62
     7
370
    18
100
AcDbLine
 10
163.6490106009
 20
168.7080570373
 30
0.0
 11
174.1540116009
 21
168.7080570373
 31
0.0
  0
LINE
  5
254
330
24D
100
AcDbEntity
  8
0
  6
Continuous
 62
     7
370
    18
100
AcDbLine
 10
173.1540116009
 20
174.5080570368
 30
0.0
 11
173.1540116009
 21
192.5777480123
 31
0.0
  0
LINE
  5
255
330
24D
100
AcDbEntity
  8
0
  6
Continuous
 62
     7
370
    18
100
AcDbLine
 10
173.1540116009
 20
174.5080570368
 30
0.0
 11
173.1540116009
 21
168.7080570373
 31
0.0
  0
LINE
  5
256
330
24D
100
AcDbEntity
  8
0
  6
Continuous
 62
     7
370
    18
100
AcDbLine
 10
173.1540116009
 20
168.7080570373
 30
0.0
 11
173.1540116009
 21
163.7080570373
 31
0.0
  0
MTEXT
  5
257
330
24D
100
AcDbEntity
  8
0
  6
Continuous
 62
     7
370
    18
100
AcDbMText
 10
168.6422742788
 20
182.5974010048
 30
0.0
 40
3.5
 41
0.0
 71
     1
 72
     1
  1
%%c
  7
SLDTEXTSTYLE0
 11
-7.044195017643634E-15
 21
1.0
 31
0.0
 73
     1
 44
1.0
  0
MTEXT
  5
258
330
24D
100
AcDbEntity
  8
0
  6
Continuous
 62
     7
370
    18
100
AcDbMText
 10
168.6422742788
 20
186.4673315199
 30
0.0
 40
3.5
 41
0.0
 71
     1
 72
     1
  1
5.8
  7
SLDTEXTSTYLE0
 11
-7.044195017643634E-15
 21
1.0
 31
0.0
 73
     1
 44
1.0
  0
ENDBLK
  5
24F
330
24D
100
AcDbEntity
  8
0
100
AcDbBlockEnd
  0
BLOCK
  5
25A
330
259
100
AcDbEntity
  8
0
100
AcDbBlockBegin
  2
SW_NOTE_2
 70
     0
 10
0.0
 20
0.0
 30
0.0
  3
SW_NOTE_2
  1

  0
LINE
  5
25C
330
259
100
AcDbEntity
  8
0
  6
Continuous
 62
     0
370
     0
100
AcDbLine
 10
22.2870769376
 20
0.0
 30
0.0
 11
0.0
 21
0.0
 31
0.0
  0
MTEXT
  5
25D
330
259
100
AcDbEntity
  8
0
  6
Continuous
 62
     0
370
     0
100
AcDbMText
 10
0.4348145205
 20
4.5933721288
 30
0.0
 40
3.5
 41
0.0
 71
     1
 72
     1
  1
M12 P=1.0
  7
SLDTEXTSTYLE0
 73
     1
 44
1.0
  0
ENDBLK
  5
25B
330
259
100
AcDbEntity
  8
0
100
AcDbBlockEnd
  0
ENDSEC
  0
SECTION
  2
ENTITIES
  0
LINE
  5
73
330
1F
100
AcDbEntity
  8
0
  6
Continuous
 62
     7
370
    18
100
AcDbLine
 10
20.2604743903
 20
285.0
 30
0.0
 11
196.7604743903
 21
285.0
 31
0.0
  0
LINE
  5
74
330
1F
100
AcDbEntity
  8
0
  6
Continuous
 62
     7
370
    18
100
AcDbLine
 10
20.2604743903
 20
285.0
 30
0.0
 11
20.2604743903
 21
10.0
 31
0.0
  0
LINE
  5
75
330
1F
100
AcDbEntity
  8
0
  6
Continuous
 62
     7
370
    18
100
AcDbLine
 10
20.2604743903
 20
10.0
 30
0.0
 11
196.7604743903
 21
10.0
 31
0.0
  0
LINE
  5
76
330
1F
100
AcDbEntity
  8
0
  6
Continuous
 62
     7
370
    18
100
AcDbLine
 10
196.7604743903
 20
285.0
 30
0.0
 11
196.7604743903
 21
10.0
 31
0.0
  0
LINE
  5
77
330
1F
100
AcDbEntity
  8
0
  6
Continuous
 62
     7
370
    18
100
AcDbLine
 10
127.0104743903
 20
50.75
 30
0.0
 11
196.7604743903
 21
50.75
 31
0.0
  0
LINE
  5
78
330
1F
100
AcDbEntity
  8
0
  6
Continuous
 62
     7
370
    18
100
AcDbLine
 10
127.0104743903
 20
50.75
 30
0.0
 11
127.0104743903
 21
10.0
 31
0.0
  0
LINE
  5
79
330
1F
100
AcDbEntity
  8
0
  6
Continuous
 62
     7
370
    18
100
AcDbLine
 10
127.0104743903
 20
22.75
 30
0.0
 11
196.7604743903
 21
22.75
 31
0.0
  0
LINE
  5
7A
330
1F
100
AcDbEntity
  8
0
  6
Continuous
 62
     7
370
    18
100
AcDbLine
 10
127.0104743903
 20
36.75
 30
0.0
 11
196.7604743903
 21
36.75
 31
0.0
  0
MTEXT
  5
7C
330
1F
100
AcDbEntity
  8
0
  6
Continuous
 62
     7
370
     0
100
AcDbMText
 10
170.3469009107
 20
202.5034760287
 30
0.0
 40
3.5
 41
0.0
 71
     1
 72
     1
  1
P=1.0
  7
SLDTEXTSTYLE0
 73
     1
 44
1.0
  0
MTEXT
  5
7D
330
1F
100
AcDbEntity
  8
0
  6
Continuous
 62
     7
370
     0
100
AcDbMText
 10
162.6302237738
 20
30.4171582345
 30
0.0
 40
4.2333333333
 41
0.0
 71
     2
 72
     1
  1
VFILP-S-5
  7
SLDTEXTSTYLE0
 73
     1
 44
1.0
  0
MTEXT
  5
7E
330
1F
100
AcDbEntity
  8
0
  6
Continuous
 62
     7
370
     0
100
AcDbMText
 10
160.2799415598
 20
43.9409718514
 30
0.0
 40
4.2333333333
 41
0.0
 71
     2
 72
     1
  1
吸着樹脂具・スモール用
  7
SLDTEXTSTYLE0
 73
     1
 44
1.0
  0
MTEXT
  5
7F
330
1F
100
AcDbEntity
  8
0
  6
Continuous
 62
     7
370
     0
100
AcDbMText
 10
163.0596852534
 20
16.8228189052
 30
0.0
 40
4.2333333333
 41
0.0
 71
     2
 72
     1
  1
211097
  7
SLDTEXTSTYLE0
 73
     1
 44
1.0
  0
LWPOLYLINE
  5
80
330
1F
100
AcDbEntity
  8
0
  6
Continuous
 62
     7
370
    18
100
AcDbPolyline
 90
        3
 70
   128
 43
0.0
 10
65.9950687339
 20
159.8080567682
 10
66.1910685966
 20
158.4080572838
 10
66.345068605
 20
157.3080572898
  0
LWPOLYLINE
  5
81
330
1F
100
AcDbEntity
  8
0
  6
Continuous
 62
     7
370
    18
100
AcDbPolyline
 90
        3
 70
   128
 43
0.0
 10
70.345068795
 20
157.3080572898
 10
70.5410686577
 20
158.7080567742
 10
70.6950686661
 20
159.8080567682
  0
LWPOLYLINE
  5
82
330
1F
100
AcDbEntity
  8
0
  6
Continuous
 62
     7
370
    18
100
AcDbPolyline
 90
        3
 70
   128
 43
0.0
 10
65.9950687339
 20
162.308057178
 10
66.1910685966
 20
160.9080567623
 10
66.345068605
 20
159.8080567682
  0
LWPOLYLINE
  5
83
330
1F
100
AcDbEntity
  8
0
  6
Continuous
 62
     7
370
    18
100
AcDbPolyline
 90
        3
 70
   128
 43
0.0
 10
70.345068795
 20
159.8080567682
 10
70.5410686577
 20
161.208057184
 10
70.6950686661
 20
162.308057178
  0
LINE
  5
84
330
1F
100
AcDbEntity
  8
0
  6
Continuous
 62
     7
370
    18
100
AcDbLine
 10
67.55327699
 20
164.6481341349
 30
0.0
 11
67.4810919234
 21
164.664685134
 31
0.0
  0
LINE
  5
85
330
1F
100
AcDbEntity
  8
0
  6
Continuous
 62
     7
370
    18
100
AcDbLine
 10
66.195068627
 20
164.961402178
 30
0.0
 11
66.195068627
 21
162.308057178
 31
0.0
  0
LINE
  5
86
330
1F
100
AcDbEntity
  8
0
  6
Continuous
 62
     7
370
    18
100
AcDbLine
 10
70.495068773
 20
162.308057178
 30
0.0
 11
70.495068773
 21
164.961402178
 31
0.0
  0
SPLINE
  5
87
330
1F
100
AcDbEntity
  8
0
  6
Continuous
 62
     7
370
    18
100
AcDbSpline
210
0.0
220
0.0
230
1.0
 70
     8
 71
     3
 72
    33
 73
    29
 74
     0
 42
0.000000001
 43
0.00000001
 40
0.0
 40
0.0
 40
0.0
 40
0.0
 40
0.0125326068134496
 40
0.0250361823974898
 40
0.0375300658794424
 40
0.0500336413586776
 40
0.0625662479630028
 40
0.0938388078910985
 40
0.1251113679925474
 40
0.1563839283128947
 40
0.1876564884698983
 40
0.2501259056882397
 40
0.312595322906581
 40
0.3750647407364131
 40
0.4375341581404723
 40
0.5000035755502352
 40
0.5624729929599982
 40
0.6249424103640574
 40
0.6874118281938894
 40
0.7498812454122308
 40
0.8123506626305721
 40
0.8436232227875758
 40
0.8748957831079232
 40
0.906168343209372
 40
0.9374409031374676
 40
0.9583088818550776
 40
0.9791320209916652
 40
1.0
 40
1.0
 40
1.0
 40
1.0
 10
63.14506870260833
 20
171.6080570369826
 30
0.0
 10
63.14583554010358
 20
171.5398834551597
 30
0.0
 10
63.14736743874895
 20
171.4036942126011
 30
0.0
 10
63.15981059372494
 20
171.1998546746045
 30
0.0
 10
63.17968855967618
 20
170.9968042731768
 30
0.0
 10
63.20772697550255
 20
170.7945382122612
 30
0.0
 10
63.26160742036202
 20
170.4929779282031
 30
0.0
 10
63.36086937062721
 20
170.0960937630089
 30
0.0
 10
63.53321751878491
 20
169.6149366027753
 30
0.0
 10
63.75163131920122
 20
169.1527789551082
 30
0.0
 10
64.10178473595785
 20
168.5688143257445
 30
0.0
 10
64.64445025886303
 20
167.907275972766
 30
0.0
 10
65.43747016471022
 20
167.256577109589
 30
0.0
 10
66.34229001997109
 20
166.7729059214908
 30
0.0
 10
67.3240588586713
 20
166.4750999926342
 30
0.0
 10
68.34506869785017
 20
166.3745355635518
 30
0.0
 10
69.36607855010281
 20
166.4750999905233
 30
0.0
 10
70.34784734958173
 20
166.7729059299346
 30
0.0
 10
71.25266734865394
 20
167.256577077925
 30
0.0
 10
72.04568671847709
 20
167.9072760909782
 30
0.0
 10
72.58835390869027
 20
168.5688139776796
 30
0.0
 10
72.93850392229756
 20
169.1527795587771
 30
0.0
 10
73.15692812016316
 20
169.6149342986631
 30
0.0
 10
73.32923723243165
 20
170.0961023757887
 30
0.0
 10
73.43964914811389
 20
170.5370136656208
 30
0.0
 10
73.50406148550114
 20
170.9288227806406
 30
0.0
 10
73.53868726629892
 20
171.2677157197175
 30
0.0
 10
73.54294002908095
 20
171.494528616856
 30
0.0
 10
73.54506869744992
 20
171.6080570369826
 30
0.0
  0
SPLINE
  5
88
330
1F
100
AcDbEntity
  8
0
  6
Continuous
 62
     7
370
    18
100
AcDbSpline
210
0.0
220
0.0
230
1.0
 70
     8
 71
     3
 72
    33
 73
    29
 74
     0
 42
0.000000001
 43
0.00000001
 40
0.0
 40
0.0
 40
0.0
 40
0.0
 40
0.0125326068134496
 40
0.0250361823974899
 40
0.0375300658794425
 40
0.0500336413586776
 40
0.0625662479630028
 40
0.0938388078910984
 40
0.1251113679925474
 40
0.1563839283128946
 40
0.1876564884698984
 40
0.2501259056882398
 40
0.3125953229065812
 40
0.3750647407364132
 40
0.4375341581404723
 40
0.5000035755502353
 40
0.5624729929599984
 40
0.6249424103640575
 40
0.6874118281938896
 40
0.749881245412231
 40
0.8123506626305724
 40
0.8436232227875762
 40
0.8748957831079234
 40
0.9061683432093725
 40
0.937440903137468
 40
0.958308881855078
 40
0.9791320209916654
 40
1.0
 40
1.0
 40
1.0
 40
1.0
 10
73.54506869744992
 20
171.6080570369826
 30
0.0
 10
73.54430185995467
 20
171.6762306188055
 30
0.0
 10
73.5427699613093
 20
171.8124198613641
 30
0.0
 10
73.5303268063333
 20
172.0162593993607
 30
0.0
 10
73.51044884038208
 20
172.2193098007884
 30
0.0
 10
73.48241042455571
 20
172.421575861704
 30
0.0
 10
73.42852997969624
 20
172.7231361457621
 30
0.0
 10
73.32926802943105
 20
173.1200203109564
 30
0.0
 10
73.15691988127337
 20
173.6011774711899
 30
0.0
 10
72.93850608085702
 20
174.0633351188571
 30
0.0
 10
72.58835266410041
 20
174.6472997482207
 30
0.0
 10
72.04568714119522
 20
175.3088381011992
 30
0.0
 10
71.25266723534804
 20
175.9595369643762
 30
0.0
 10
70.34784738008716
 20
176.4432081524744
 30
0.0
 10
69.36607854138695
 20
176.741014081331
 30
0.0
 10
68.3450687022081
 20
176.8415785104134
 30
0.0
 10
67.32405884995546
 20
176.7410140834419
 30
0.0
 10
66.34229005047652
 20
176.4432081440307
 30
0.0
 10
65.4374700514043
 20
175.9595369960402
 30
0.0
 10
64.64445068158118
 20
175.3088379829871
 30
0.0
 10
64.10178349136798
 20
174.6473000962856
 30
0.0
 10
63.75163347776069
 20
174.0633345151881
 30
0.0
 10
63.5332092798951
 20
173.6011797753021
 30
0.0
 10
63.3609001676266
 20
173.1200116981765
 30
0.0
 10
63.25048825194436
 20
172.6791004083445
 30
0.0
 10
63.18607591455712
 20
172.2872912933246
 30
0.0
 10
63.15145013375933
 20
171.9483983542477
 30
0.0
 10
63.14719737097731
 20
171.7215854571092
 30
0.0
 10
63.14506870260833
 20
171.6080570369826
 30
0.0
  0
SPLINE
  5
89
330
1F
100
AcDbEntity
  8
0
  6
Continuous
 62
     7
370
    18
100
AcDbSpline
210
0.0
220
0.0
230
1.0
 70
     8
 71
     3
 72
    14
 73
    10
 74
     0
 42
0.000000001
 43
0.00000001
 40
0.0
 40
0.0
 40
0.0
 40
0.0
 40
0.25
 40
0.25
 40
0.4999999999999999
 40
0.4999999999999999
 40
0.75
 40
0.75
 40
1.0
 40
1.0
 40
1.0
 40
1.0
 10
66.24506870002912
 20
171.6080570366055
 30
0.0
 10
66.24506870012914
 20
171.0511181703133
 30
0.0
 10
66.46632921051086
 20
170.5169480454921
 30
0.0
 10
67.25395970865932
 20
169.7293175473942
 30
0.0
 10
67.78812983349475
 20
169.5080570370468
 30
0.0
 10
68.90200756607919
 20
169.5080570369184
 30
0.0
 10
69.43617769096565
 20
169.7293175471426
 30
0.0
 10
70.22380818929575
 20
170.5169480450588
 30
0.0
 10
70.44506869980066
 20
171.051118169829
 30
0.0
 10
70.44506870002913
 20
171.6080570361212
 30
0.0
  0
SPLINE
  5
8A
330
1F
100
AcDbEntity
  8
0
  6
Continuous
 62
     7
370
    18
100
AcDbSpline
210
0.0
220
0.0
230
1.0
 70
     8
 71
     3
 72
    12
 73
     8
 74
     0
 42
0.000000001
 43
0.00000001
 40
0.0
 40
0.0
 40
0.0
 40
0.0
 40
0.3333333333333334
 40
0.3333333333333334
 40
0.6666666666666666
 40
0.6666666666666666
 40
0.9999999999999999
 40
0.9999999999999999
 40
0.9999999999999999
 40
0.9999999999999999
 10
70.44506870002913
 20
171.6080570361212
 30
0.0
 10
70.44506870033685
 20
172.3582052403137
 30
0.0
 10
70.04471610185784
 20
173.0516362823689
 30
0.0
 10
68.7454212991951
 20
173.8017844869167
 30
0.0
 10
67.94471610176303
 20
173.8017844870809
 30
0.0
 10
66.64542129879257
 20
173.0516362830661
 30
0.0
 10
66.24506870002912
 20
172.3582052411751
 30
0.0
 10
66.24506870002912
 20
171.6080570369826
 30
0.0
  0
SPLINE
  5
8B
330
1F
100
AcDbEntity
  8
0
  6
Continuous
 62
     7
370
    18
100
AcDbSpline
210
0.0
220
0.0
230
1.0
 70
    24
 71
     3
 72
    10
 73
     6
 74
     0
 42
0.000000001
 43
0.00000001
 40
0.0
 40
0.0
 40
0.0
 40
0.0
 40
0.5
 40
0.5
 40
1.0
 40
1.0
 40
1.0
 40
1.0
 10
73.5450687002217
 20
171.6080570369826
 30
0.0
 10
73.61577937843673
 20
171.6080570369826
 30
0.0
 10
73.6986220909062
 20
171.6080570369826
 30
0.0
 10
73.81577937841703
 20
171.6080570369826
 30
0.0
 10
73.84506870031774
 20
171.6080570369826
 30
0.0
 10
73.84506870041498
 20
171.6080570369826
 30
0.0
  0
SPLINE
  5
8C
330
1F
100
AcDbEntity
  8
0
  6
Continuous
 62
     7
370
    18
100
AcDbSpline
210
0.0
220
0.0
230
1.0
 70
     8
 71
     3
 72
    12
 73
     8
 74
     0
 42
0.000000001
 43
0.00000001
 40
0.0
 40
0.0
 40
0.0
 40
0.0
 40
0.3333333333333332
 40
0.3333333333333332
 40
0.6666666666666665
 40
0.6666666666666665
 40
0.9999999999999999
 40
0.9999999999999999
 40
0.9999999999999999
 40
0.9999999999999999
 10
73.84506870002913
 20
171.6080570347265
 30
0.0
 10
73.84506870083504
 20
173.5727309028496
 30
0.0
 10
72.79652618100913
 20
175.3888598225181
 30
0.0
 10
69.39361122165428
 20
177.3535336915718
 30
0.0
 10
67.29652618076081
 20
177.353533692002
 30
0.0
 10
63.89361122060004
 20
175.3888598243441
 30
0.0
 10
62.84506870002912
 20
173.5727309051057
 30
0.0
 10
62.84506870002912
 20
171.6080570369826
 30
0.0
  0
SPLINE
  5
8D
330
1F
100
AcDbEntity
  8
0
  6
Continuous
 62
     7
370
    18
100
AcDbSpline
210
0.0
220
0.0
230
1.0
 70
    24
 71
     3
 72
    10
 73
     6
 74
     0
 42
0.000000001
 43
0.00000001
 40
0.0
 40
0.0
 40
0.0
 40
0.0
 40
0.5
 40
0.5
 40
1.0
 40
1.0
 40
1.0
 40
1.0
 10
62.84506869964326
 20
171.6080570369826
 30
0.0
 10
62.84506869974052
 20
171.6080570369826
 30
0.0
 10
62.87435802164122
 20
171.6080570369826
 30
0.0
 10
62.99151530915205
 20
171.6080570369826
 30
0.0
 10
63.07435802162152
 20
171.6080570369826
 30
0.0
 10
63.14506869983655
 20
171.6080570369826
 30
0.0
  0
SPLINE
  5
8E
330
1F
100
AcDbEntity
  8
0
  6
Continuous
 62
     7
370
    18
100
AcDbSpline
210
0.0
220
0.0
230
1.0
 70
     8
 71
     3
 72
    14
 73
    10
 74
     0
 42
0.000000001
 43
0.00000001
 40
0.0
 40
0.0
 40
0.0
 40
0.0
 40
0.25
 40
0.25
 40
0.5
 40
0.5
 40
0.75
 40
0.75
 40
1.0
 40
1.0
 40
1.0
 40
1.0
 10
62.84506870002912
 20
171.6080570359949
 30
0.0
 10
62.84506870029108
 20
170.1494076242772
 30
0.0
 10
63.42456051319559
 20
168.7503906306978
 30
0.0
 10
65.48740229406063
 20
166.6875488499654
 30
0.0
 10
66.88641928767719
 20
166.1080570371508
 30
0.0
 10
69.80371811111264
 20
166.1080570368144
 30
0.0
 10
71.20273510486285
 20
166.6875488493063
 30
0.0
 10
73.26557688620363
 20
168.7503906295631
 30
0.0
 10
73.84506869943078
 20
170.1494076230088
 30
0.0
 10
73.84506870002913
 20
171.6080570347265
 30
0.0
  0
SPLINE
  5
8F
330
1F
100
AcDbEntity
  8
0
  6
Continuous
 62
     7
370
    18
100
AcDbSpline
210
0.0
220
0.0
230
1.0
 70
     8
 71
     3
 72
    33
 73
    29
 74
     0
 42
0.000000001
 43
0.00000001
 40
0.0
 40
0.0
 40
0.0
 40
0.0
 40
0.0125326068134496
 40
0.0250361823974898
 40
0.0375300658794424
 40
0.0500336413586776
 40
0.0625662479630028
 40
0.0938388078910985
 40
0.1251113679925474
 40
0.1563839283128947
 40
0.1876564884698983
 40
0.2501259056882397
 40
0.3125953229065811
 40
0.3750647407364131
 40
0.4375341581404723
 40
0.5000035755502353
 40
0.5624729929599983
 40
0.6249424103640575
 40
0.6874118281938896
 40
0.749881245412231
 40
0.8123506626305723
 40
0.8436232227875761
 40
0.8748957831079234
 40
0.9061683432093723
 40
0.9374409031374679
 40
0.9583088818550778
 40
0.9791320209916653
 40
1.0
 40
1.0
 40
1.0
 40
1.0
 10
61.64506870335232
 20
171.6080570369826
 30
0.0
 10
61.64605674397122
 20
171.5202179988646
 30
0.0
 10
61.6480305364566
 20
171.3447433978757
 30
0.0
 10
61.66406306306028
 20
171.0821039931493
 30
0.0
 10
61.68967505765129
 20
170.8204813605405
 30
0.0
 10
61.72580147804296
 20
170.5598693205147
 30
0.0
 10
61.79522435891958
 20
170.1713204929783
 30
0.0
 10
61.92311956406895
 20
169.659950510901
 30
0.0
 10
62.14518352419522
 20
169.0399980159847
 30
0.0
 10
62.42660130550087
 20
168.4445256622598
 30
0.0
 10
62.87776051555267
 20
167.6921096975028
 30
0.0
 10
63.57696417006512
 20
166.8397429734728
 30
0.0
 10
64.5987398179836
 20
166.0013425151485
 30
0.0
 10
65.76456540072358
 20
165.378150792022
 30
0.0
 10
67.02953678904885
 20
164.9944393067644
 30
0.0
 10
68.34506869722162
 20
164.8648659077545
 30
0.0
 10
69.66060062223944
 20
164.9944393040446
 30
0.0
 10
70.92557196002959
 20
165.3781508029015
 30
0.0
 10
72.09139772806495
 20
166.0013424743507
 30
0.0
 10
73.11317268533706
 20
166.8397431257846
 30
0.0
 10
73.81237848811176
 20
167.6921092490346
 30
0.0
 10
74.26353331333652
 20
168.444526440064
 30
0.0
 10
74.54496449135567
 20
169.0399950472247
 30
0.0
 10
74.76697815524005
 20
169.6599616081367
 30
0.0
 10
74.90923966198451
 20
170.2280588469587
 30
0.0
 10
74.99223248131035
 20
170.7328898220804
 30
0.0
 10
75.0368464681075
 20
171.1695403397372
 30
0.0
 10
75.04232598938435
 20
171.4617800341271
 30
0.0
 10
75.04506869670593
 20
171.6080570369826
 30
0.0
  0
SPLINE
  5
90
330
1F
100
AcDbEntity
  8
0
  6
Continuous
 62
     7
370
    18
100
AcDbSpline
210
0.0
220
0.0
230
1.0
 70
     8
 71
     3
 72
    33
 73
    29
 74
     0
 42
0.000000001
 43
0.00000001
 40
0.0
 40
0.0
 40
0.0
 40
0.0
 40
0.0125326068134496
 40
0.0250361823974898
 40
0.0375300658794425
 40
0.0500336413586776
 40
0.0625662479630028
 40
0.0938388078910984
 40
0.1251113679925473
 40
0.1563839283128945
 40
0.1876564884698983
 40
0.2501259056882396
 40
0.312595322906581
 40
0.3750647407364132
 40
0.4375341581404723
 40
0.5000035755502352
 40
0.5624729929599982
 40
0.6249424103640574
 40
0.6874118281938895
 40
0.7498812454122309
 40
0.8123506626305722
 40
0.843623222787576
 40
0.8748957831079233
 40
0.9061683432093722
 40
0.9374409031374678
 40
0.9583088818550778
 40
0.9791320209916653
 40
1.0
 40
1.0
 40
1.0
 40
1.0
 10
75.04506869670593
 20
171.6080570369826
 30
0.0
 10
75.04408065608703
 20
171.6958960751006
 30
0.0
 10
75.04210686360166
 20
171.8713706760896
 30
0.0
 10
75.02607433699797
 20
172.134010080816
 30
0.0
 10
75.00046234240696
 20
172.3956327134247
 30
0.0
 10
74.9643359220153
 20
172.6562447534506
 30
0.0
 10
74.89491304113866
 20
173.044793580987
 30
0.0
 10
74.76701783598928
 20
173.5561635630642
 30
0.0
 10
74.54495387586303
 20
174.1761160579805
 30
0.0
 10
74.2635360945574
 20
174.7715884117055
 30
0.0
 10
73.81237688450558
 20
175.5240043764624
 30
0.0
 10
73.11317322999312
 20
176.3763711004925
 30
0.0
 10
72.09139758207465
 20
177.2147715588168
 30
0.0
 10
70.92557199933468
 20
177.8379632819432
 30
0.0
 10
69.66060061100941
 20
178.2216747672008
 30
0.0
 10
68.34506870283663
 20
178.3512481662107
 30
0.0
 10
67.0295367778188
 20
178.2216747699206
 30
0.0
 10
65.76456544002865
 20
177.8379632710638
 30
0.0
 10
64.59873967199331
 20
177.2147715996146
 30
0.0
 10
63.57696471472119
 20
176.3763709481806
 30
0.0
 10
62.87775891194649
 20
175.5240048249306
 30
0.0
 10
62.42660408672172
 20
174.7715876339012
 30
0.0
 10
62.14517290870259
 20
174.1761190267405
 30
0.0
 10
61.92315924481819
 20
173.5561524658286
 30
0.0
 10
61.78089773807374
 20
172.9880552270065
 30
0.0
 10
61.69790491874789
 20
172.4832242518848
 30
0.0
 10
61.65329093195074
 20
172.046573734228
 30
0.0
 10
61.64781141067391
 20
171.7543340398381
 30
0.0
 10
61.64506870335232
 20
171.6080570369826
 30
0.0
  0
SPLINE
  5
91
330
1F
100
AcDbEntity
  8
0
  6
Continuous
 62
     7
370
    18
100
AcDbSpline
210
0.0
220
0.0
230
1.0
 70
    24
 71
     3
 72
    10
 73
     6
 74
     0
 42
0.000000001
 43
0.00000001
 40
0.0
 40
0.0
 40
0.0
 40
0.0
 40
0.5
 40
0.5
 40
1.0
 40
1.0
 40
1.0
 40
1.0
 10
61.34506869964326
 20
171.6080570369826
 30
0.0
 10
61.34506869974051
 20
171.6080570369826
 30
0.0
 10
61.37435802164121
 20
171.6080570369826
 30
0.0
 10
61.49151530915205
 20
171.6080570369826
 30
0.0
 10
61.57435802162151
 20
171.6080570369826
 30
0.0
 10
61.64506869983656
 20
171.6080570369826
 30
0.0
  0
SPLINE
  5
92
330
1F
100
AcDbEntity
  8
0
  6
Continuous
 62
     7
370
    18
100
AcDbSpline
210
0.0
220
0.0
230
1.0
 70
     8
 71
     3
 72
    14
 73
    10
 74
     0
 42
0.000000001
 43
0.00000001
 40
0.0
 40
0.0
 40
0.0
 40
0.0
 40
0.25
 40
0.25
 40
0.5
 40
0.5
 40
0.75
 40
0.75
 40
1.0
 40
1.0
 40
1.0
 40
1.0
 10
61.34506870002913
 20
171.6080570357255
 30
0.0
 10
61.34506870036252
 20
169.7515941480848
 30
0.0
 10
62.08260373496825
 20
167.9710270653474
 30
0.0
 10
64.7080387287965
 20
165.345592071688
 30
0.0
 10
66.48860581158121
 20
164.6080570371967
 30
0.0
 10
70.2015315868627
 20
164.6080570367685
 30
0.0
 10
71.98209866981752
 20
165.3455920708492
 30
0.0
 10
74.60753366425122
 20
167.9710270639032
 30
0.0
 10
75.34506869926759
 20
169.7515941464704
 30
0.0
 10
75.34506870002913
 20
171.6080570341112
 30
0.0
  0
SPLINE
  5
93
330
1F
100
AcDbEntity
  8
0
  6
Continuous
 62
     7
370
    18
100
AcDbSpline
210
0.0
220
0.0
230
1.0
 70
    24
 71
     3
 72
    10
 73
     6
 74
     0
 42
0.000000001
 43
0.00000001
 40
0.0
 40
0.0
 40
0.0
 40
0.0
 40
0.5
 40
0.5
 40
1.0
 40
1.0
 40
1.0
 40
1.0
 10
75.0450687002217
 20
171.6080570369826
 30
0.0
 10
75.11577937843674
 20
171.6080570369826
 30
0.0
 10
75.19862209090621
 20
171.6080570369826
 30
0.0
 10
75.31577937841703
 20
171.6080570369826
 30
0.0
 10
75.34506870031774
 20
171.6080570369826
 30
0.0
 10
75.34506870041498
 20
171.6080570369826
 30
0.0
  0
SPLINE
  5
94
330
1F
100
AcDbEntity
  8
0
  6
Continuous
 62
     7
370
    18
100
AcDbSpline
210
0.0
220
0.0
230
1.0
 70
     8
 71
     3
 72
    12
 73
     8
 74
     0
 42
0.000000001
 43
0.00000001
 40
0.0
 40
0.0
 40
0.0
 40
0.0
 40
0.3333333333333332
 40
0.3333333333333332
 40
0.6666666666666665
 40
0.6666666666666665
 40
0.9999999999999999
 40
0.9999999999999999
 40
0.9999999999999999
 40
0.9999999999999999
 10
75.34506870002913
 20
171.6080570341112
 30
0.0
 10
75.34506870105484
 20
174.108551048086
 30
0.0
 10
74.01056003945821
 20
176.4199878549369
 30
0.0
 10
69.6795773639157
 20
178.9204818700962
 30
0.0
 10
67.01056003914216
 20
178.9204818706436
 30
0.0
 10
62.67957736257393
 20
176.4199878572609
 30
0.0
 10
61.34506870002913
 20
174.1085510509575
 30
0.0
 10
61.34506870002913
 20
171.6080570369826
 30
0.0
  0
SPLINE
  5
95
330
1F
100
AcDbEntity
  8
0
  6
Continuous
 62
     7
370
    18
100
AcDbSpline
210
0.0
220
0.0
230
1.0
 70
     8
 71
     3
 72
    10
 73
     6
 74
     0
 42
0.000000001
 43
0.00000001
 40
0.0
 40
0.0
 40
0.0
 40
0.0
 40
0.5
 40
0.5
 40
1.0
 40
1.0
 40
1.0
 40
1.0
 10
69.08580685037126
 20
164.3570226060075
 30
0.0
 10
69.07874050252687
 20
164.4259004079306
 30
0.0
 10
69.08013935793167
 20
164.50594182334
 30
0.0
 10
69.10673929526835
 20
164.6213701998995
 30
0.0
 10
69.13090549557413
 20
164.652266372048
 30
0.0
 10
69.1544767459924
 20
164.655010321908
 30
0.0
  0
SPLINE
  5
96
330
1F
100
AcDbEntity
  8
0
  6
Continuous
 62
     7
370
    18
100
AcDbSpline
210
0.0
220
0.0
230
1.0
 70
     8
 71
     3
 72
    10
 73
     6
 74
     0
 42
0.000000001
 43
0.00000001
 40
0.0
 40
0.0
 40
0.0
 40
0.0
 40
0.5
 40
0.5
 40
1.0
 40
1.0
 40
1.0
 40
1.0
 10
67.60433038402913
 20
164.3570226279826
 30
0.0
 10
67.61139673595936
 20
164.425900432683
 30
0.0
 10
67.60999788220505
 20
164.5059418527894
 30
0.0
 10
67.58339793842532
 20
164.6213702311085
 30
0.0
 10
67.55923173050994
 20
164.652266399239
 30
0.0
 10
67.53566047302913
 20
164.6550103429826
 30
0.0
  0
SPLINE
  5
97
330
1F
100
AcDbEntity
  8
0
  6
Continuous
 62
     7
370
    18
100
AcDbSpline
210
0.0
220
0.0
230
1.0
 70
     8
 71
     3
 72
    16
 73
    12
 74
     0
 42
0.000000001
 43
0.00000001
 40
0.0
 40
0.0
 40
0.0
 40
0.0
 40
0.0864429162688004
 40
0.1715998848054072
 40
0.2555040849425257
 40
0.3381902047989417
 40
0.4196944884322913
 40
0.5000547796939435
 40
0.6618863547864201
 40
0.8284401449971457
 40
0.9999999999999999
 40
0.9999999999999999
 40
0.9999999999999999
 40
0.9999999999999999
 10
67.60433038480336
 20
164.3570226287701
 30
0.0
 10
67.64531896519615
 20
164.351857611791
 30
0.0
 10
67.72668636899671
 20
164.3416044139941
 30
0.0
 10
67.85110156076237
 20
164.3294777675728
 30
0.0
 10
67.97541895164555
 20
164.3199009264916
 30
0.0
 10
68.09941100310019
 20
164.3130876458266
 30
0.0
 10
68.22254567647562
 20
164.3089870302148
 30
0.0
 10
68.38614715661315
 20
164.3071175091833
 30
0.0
 10
68.59271937565214
 20
164.3119461745767
 30
0.0
 10
68.84233491860415
 20
164.3279098705343
 30
0.0
 10
69.00385251438138
 20
164.3472230598705
 30
0.0
 10
69.08580701608284
 20
164.3570226287701
 30
0.0
  0
SPLINE
  5
98
330
1F
100
AcDbEntity
  8
0
  6
Continuous
 62
     7
370
    18
100
AcDbSpline
210
0.0
220
0.0
230
1.0
 70
    24
 71
     3
 72
    12
 73
     8
 74
     0
 42
0.000000001
 43
0.00000001
 40
0.0
 40
0.0
 40
0.0
 40
0.0
 40
0.3333333333333333
 40
0.3333333333333333
 40
0.6666666666666665
 40
0.6666666666666665
 40
0.9999999999999999
 40
0.9999999999999999
 40
0.9999999999999999
 40
0.9999999999999999
 10
65.99506870002912
 20
162.3080570369826
 30
0.0
 10
65.99506870002912
 20
162.3080570369826
 30
0.0
 10
66.44308232245488
 20
162.3080570369826
 30
0.0
 10
67.89705507815994
 20
162.3080570369826
 30
0.0
 10
68.79308232290533
 20
162.3080570369826
 30
0.0
 10
70.24705507826603
 20
162.3080570369826
 30
0.0
 10
70.69506870037348
 20
162.3080570369826
 30
0.0
 10
70.69506870002913
 20
162.3080570369826
 30
0.0
  0
SPLINE
  5
99
330
1F
100
AcDbEntity
  8
0
  6
Continuous
 62
     7
370
    18
100
AcDbSpline
210
0.0
220
0.0
230
1.0
 70
    24
 71
     3
 72
    12
 73
     8
 74
     0
 42
0.000000001
 43
0.00000001
 40
0.0
 40
0.0
 40
0.0
 40
0.0
 40
0.3333333333333333
 40
0.3333333333333333
 40
0.6666666666666665
 40
0.6666666666666665
 40
0.9999999999999999
 40
0.9999999999999999
 40
0.9999999999999999
 40
0.9999999999999999
 10
65.99506870002912
 20
159.8080570369826
 30
0.0
 10
65.99506870002912
 20
159.8080570369826
 30
0.0
 10
66.44308232245488
 20
159.8080570369826
 30
0.0
 10
67.89705507815994
 20
159.8080570369826
 30
0.0
 10
68.79308232290533
 20
159.8080570369825
 30
0.0
 10
70.24705507826603
 20
159.8080570369825
 30
0.0
 10
70.69506870037348
 20
159.8080570369825
 30
0.0
 10
70.69506870002913
 20
159.8080570369825
 30
0.0
  0
SPLINE
  5
9A
330
1F
100
AcDbEntity
  8
0
  6
Continuous
 62
     7
370
    18
100
AcDbSpline
210
0.0
220
0.0
230
1.0
 70
    24
 71
     3
 72
    12
 73
     8
 74
     0
 42
0.000000001
 43
0.00000001
 40
0.0
 40
0.0
 40
0.0
 40
0.0
 40
0.3333333333333332
 40
0.3333333333333332
 40
0.6666666666666665
 40
0.6666666666666665
 40
0.9999999999999999
 40
0.9999999999999999
 40
0.9999999999999999
 40
0.9999999999999999
 10
70.34506870002913
 20
157.3080570369826
 30
0.0
 10
70.34506870032219
 20
157.3080570369826
 30
0.0
 10
69.96378051129457
 20
157.3080570369826
 30
0.0
 10
68.726356889711
 20
157.3080570369826
 30
0.0
 10
67.96378051120428
 20
157.3080570369826
 30
0.0
 10
66.72635688932763
 20
157.3080570369826
 30
0.0
 10
66.34506870002913
 20
157.3080570369826
 30
0.0
 10
66.34506870002913
 20
157.3080570369826
 30
0.0
  0
LINE
  5
9B
330
1F
100
AcDbEntity
  8
0
  6
Continuous
 62
     7
370
    18
100
AcDbLine
 10
70.495068773
 20
163.0344058985
 30
0.0
 11
76.845069162
 21
166.7005795652
 31
0.0
  0
LINE
  5
9C
330
1F
100
AcDbEntity
  8
0
  6
Continuous
 62
     7
370
    18
100
AcDbLine
 10
59.8450691694
 20
166.7005795652
 30
0.0
 11
66.195068627
 21
163.0344058985
 31
0.0
  0
LINE
  5
9D
330
1F
100
AcDbEntity
  8
0
  6
Continuous
 62
     7
370
    18
100
AcDbLine
 10
59.8450682381
 20
176.5155343937
 30
0.0
 11
59.8450691694
 21
166.7005795652
 31
0.0
  0
LINE
  5
9E
330
1F
100
AcDbEntity
  8
0
  6
Continuous
 62
     7
370
    18
100
AcDbLine
 10
68.3450686979
 20
181.4230115751
 30
0.0
 11
59.8450682381
 21
176.5155343937
 31
0.0
  0
LINE
  5
9F
330
1F
100
AcDbEntity
  8
0
  6
Continuous
 62
     7
370
    18
100
AcDbLine
 10
76.8450682306
 20
176.5155343937
 30
0.0
 11
68.3450686979
 21
181.4230115751
 31
0.0
  0
LINE
  5
A0
330
1F
100
AcDbEntity
  8
0
  6
Continuous
 62
     7
370
    18
100
AcDbLine
 10
76.845069162
 20
166.7005795652
 30
0.0
 11
76.8450682306
 21
176.5155343937
 31
0.0
  0
SPLINE
  5
A1
330
1F
100
AcDbEntity
  8
0
  6
Continuous
 62
     8
370
    18
100
AcDbSpline
210
0.0
220
0.0
230
1.0
 70
     8
 71
     3
 72
    11
 73
     7
 74
     0
 42
0.000000001
 43
0.00000001
 40
0.0
 40
0.0
 40
0.0
 40
0.0
 40
0.3353758845884659
 40
0.6764578854177761
 40
0.852592075145151
 40
1.0
 40
1.0
 40
1.0
 40
1.0
 10
69.08580687816682
 20
164.3570227215087
 30
0.0
 10
69.18488205221456
 20
164.3741530892393
 30
0.0
 10
69.38471807446156
 20
164.4087052823573
 30
0.0
 10
69.59749146064496
 20
164.5235103251892
 30
0.0
 10
69.73239714770966
 20
164.6545114871169
 30
0.0
 10
69.7793455461398
 20
164.7378022059266
 30
0.0
 10
69.80073554662484
 20
164.7757500076687
 30
0.0
  0
LINE
  5
A2
330
1F
100
AcDbEntity
  8
0
  6
Continuous
 62
     8
370
    18
100
AcDbLine
 10
67.4771811835
 20
164.6649412477
 30
0.0
 11
67.5356603832
 21
164.6550105551
 31
0.0
  0
SPLINE
  5
A3
330
1F
100
AcDbEntity
  8
0
  6
Continuous
 62
     8
370
    18
100
AcDbSpline
210
0.0
220
0.0
230
1.0
 70
     8
 71
     3
 72
    11
 73
     7
 74
     0
 42
0.000000001
 43
0.00000001
 40
0.0
 40
0.0
 40
0.0
 40
0.0
 40
0.1478025746258669
 40
0.3240851629616139
 40
0.665255096389552
 40
1.0
 40
1.0
 40
1.0
 40
1.0
 10
66.8893889313327
 20
164.7757528016364
 30
0.0
 10
66.91084611122348
 20
164.7377109851797
 30
0.0
 10
66.95789504564968
 20
164.6542970912274
 30
0.0
 10
67.09299644397407
 20
164.5232502230787
 30
0.0
 10
67.30575679315311
 20
164.4086265032007
 30
0.0
 10
67.50543853277033
 20
164.3741146291346
 30
0.0
 10
67.60433034726846
 20
164.3570227215087
 30
0.0
  0
INSERT
  5
A9
330
1F
100
AcDbEntity
  8
0
  6
Continuous
 62
     7
370
     0
100
AcDbBlockReference
  2
SW_NOTE_0
 10
82.1855123675
 20
192.0842169193
 30
0.0
  0
LEADER
  5
AB
330
1F
100
AcDbEntity
  8
0
  6
Continuous
 62
     7
370
     0
100
AcDbLeader
  3
SLDDIMSTYLE0
 76
     2
 10
68.8406915937
 20
173.6487328925
 30
0.0
 10
82.1855123675
 20
192.0842169193
 30
0.0
  0
INSERT
  5
B1
330
1F
100
AcDbEntity
  8
0
  6
Continuous
 62
     7
370
     0
100
AcDbBlockReference
  2
SW_NOTE_1
 10
61.6274609401
 20
144.969964858
 30
0.0
  0
LEADER
  5
B2
330
1F
100
AcDbEntity
  8
0
  6
Continuous
 62
     7
370
     0
100
AcDbLeader
  3
SLDDIMSTYLE0
 76
     2
 10
68.3025840917
 20
160.6275816702
 30
0.0
 10
61.6274609401
 20
144.969964858
 30
0.0
  0
INSERT
  5
BE
330
1F
100
AcDbEntity
  8
0
  6
Continuous
 62
     7
370
    18
100
AcDbBlockReference
  2
SW_CENTERMARKSYMBOL_0
 10
68.3450687
 20
171.608057037
 30
0.0
  0
LINE
  5
BF
330
1F
100
AcDbEntity
  8
0
  6
Continuous
 62
     7
370
    18
100
AcDbLine
 10
128.8490102835
 20
178.6080569627
 30
0.0
 11
127.4490107991
 21
178.6080569627
 31
0.0
  0
LINE
  5
C0
330
1F
100
AcDbEntity
  8
0
  6
Continuous
 62
     7
370
    18
100
AcDbLine
 10
127.5990002997
 20
164.6080569962
 30
0.0
 11
128.8490102835
 21
164.6080569962
 31
0.0
  0
LINE
  5
C1
330
1F
100
AcDbEntity
  8
0
  6
Continuous
 62
     7
370
    18
100
AcDbLine
 10
122.849010697
 20
178.6080569627
 30
0.0
 11
121.4490107469
 21
178.6080569627
 31
0.0
  0
LINE
  5
C2
330
1F
100
AcDbEntity
  8
0
  6
Continuous
 62
     7
370
    18
100
AcDbLine
 10
121.4490107469
 20
164.6080569962
 30
0.0
 11
122.6990207307
 21
164.6080569962
 31
0.0
  0
SPLINE
  5
C3
330
1F
100
AcDbEntity
  8
0
  6
Continuous
 62
     7
370
    18
100
AcDbSpline
210
0.0
220
0.0
230
1.0
 70
     8
 71
     3
 72
    13
 73
     9
 74
     0
 42
0.000000001
 43
0.00000001
 40
0.0
 40
0.0
 40
0.0
 40
0.0
 40
0.239457414912892
 40
0.3683615081242659
 40
0.5000000092968622
 40
0.6316392803408235
 40
0.7605433735521974
 40
1.0
 40
1.0
 40
1.0
 40
1.0
 10
127.4490107990604
 20
178.6080569626784
 30
0.0
 10
127.4112717427025
 20
178.6040497518376
 30
0.0
 10
127.3532170956152
 20
178.5978853896724
 30
0.0
 10
127.2833724636424
 20
178.5604756075197
 30
0.0
 10
127.235310588838
 20
178.5217570341578
 30
0.0
 10
127.1965923122081
 20
178.4736949361925
 30
0.0
 10
127.1591825038544
 20
178.4038503686428
 30
0.0
 10
127.1530178034541
 20
178.3457959021273
 30
0.0
 10
127.1490103773575
 20
178.3080570066368
 30
0.0
  0
SPLINE
  5
C4
330
1F
100
AcDbEntity
  8
0
  6
Continuous
 62
     7
370
    18
100
AcDbSpline
210
0.0
220
0.0
230
1.0
 70
     8
 71
     3
 72
    13
 73
     9
 74
     0
 42
0.000000001
 43
0.00000001
 40
0.0
 40
0.0
 40
0.0
 40
0.0
 40
0.2394567846563175
 40
0.3683605067731103
 40
0.4999998647908752
 40
0.6316392228086402
 40
0.7605434011866908
 40
0.9999999999999999
 40
0.9999999999999999
 40
0.9999999999999999
 40
0.9999999999999999
 10
123.149010653029
 20
178.3080570066368
 30
0.0
 10
123.1450031359749
 20
178.3457958566898
 30
0.0
 10
123.1388383032889
 20
178.4038501814002
 30
0.0
 10
123.101429251613
 20
178.4736950392819
 30
0.0
 10
123.0627108584219
 20
178.5217571874892
 30
0.0
 10
123.0146486141712
 20
178.560475469896
 30
0.0
 10
122.9448041020958
 20
178.5978853558544
 30
0.0
 10
122.886749603247
 20
178.6040497419725
 30
0.0
 10
122.8490106969874
 20
178.6080569626784
 30
0.0
  0
SPLINE
  5
C5
330
1F
100
AcDbEntity
  8
0
  6
Continuous
 62
     7
370
    18
100
AcDbSpline
210
0.0
220
0.0
230
1.0
 70
     8
 71
     3
 72
    13
 73
     9
 74
     0
 42
0.000000001
 43
0.00000001
 40
0.0
 40
0.0
 40
0.0
 40
0.0
 40
0.2394566264478027
 40
0.3683607196591764
 40
0.4999999907031379
 40
0.6316384918757342
 40
0.760542585087108
 40
1.0
 40
1.0
 40
1.0
 40
1.0
 10
129.1490107051831
 20
178.3080570066368
 30
0.0
 10
129.1450032790865
 20
178.3457959021273
 30
0.0
 10
129.1388385786862
 20
178.4038503686428
 30
0.0
 10
129.1014287703325
 20
178.4736949361925
 30
0.0
 10
129.0627104937026
 20
178.5217570341579
 30
0.0
 10
129.0146486188981
 20
178.5604756075197
 30
0.0
 10
128.9448039869253
 20
178.5978853896724
 30
0.0
 10
128.8867493398381
 20
178.6040497518376
 30
0.0
 10
128.8490102834802
 20
178.6080569626784
 30
0.0
  0
SPLINE
  5
C6
330
1F
100
AcDbEntity
  8
0
  6
Continuous
 62
     7
370
    18
100
AcDbSpline
210
0.0
220
0.0
230
1.0
 70
     8
 71
     3
 72
    13
 73
     9
 74
     0
 42
0.000000001
 43
0.00000001
 40
0.0
 40
0.0
 40
0.0
 40
0.0
 40
0.2394576655088826
 40
0.3683613373172795
 40
0.4999998740874145
 40
0.6316391807291228
 40
0.7605433087985998
 40
1.0
 40
1.0
 40
1.0
 40
1.0
 10
128.8490102834802
 20
164.608056996206
 30
0.0
 10
128.8867492816883
 20
164.6120645043489
 30
0.0
 10
128.9448037516483
 20
164.6182293145491
 30
0.0
 10
129.0146487440922
 20
164.6556382552236
 30
0.0
 10
129.0627104749943
 20
164.6943569628527
 30
0.0
 10
129.1014287751087
 20
164.7424190129583
 30
0.0
 10
129.1388385762663
 20
164.8122635951732
 30
0.0
 10
129.1450032781331
 20
164.8703180587
 30
0.0
 10
129.1490107051831
 20
164.9080569522476
 30
0.0
  0
SPLINE
  5
C7
330
1F
100
AcDbEntity
  8
0
  6
Continuous
 62
     7
370
    18
100
AcDbSpline
210
0.0
220
0.0
230
1.0
 70
     8
 71
     3
 72
    13
 73
     9
 74
     0
 42
0.000000001
 43
0.00000001
 40
0.0
 40
0.0
 40
0.0
 40
0.0
 40
0.2394574189153967
 40
0.3683615142813883
 40
0.5000000176543078
 40
0.6316399162875672
 40
0.7605435553925947
 40
1.0
 40
1.0
 40
1.0
 40
1.0
 10
121.4490107469063
 20
178.6080569626784
 30
0.0
 10
121.4112716975928
 20
178.604049746496
 30
0.0
 10
121.3532170613421
 20
178.5978853761137
 30
0.0
 10
121.2833723761966
 20
178.5604756342807
 30
0.0
 10
121.2353105982794
 20
178.5217568675936
 30
0.0
 10
121.1965916769946
 20
178.4736952197035
 30
0.0
 10
121.1591826817351
 20
178.4038501710843
 30
0.0
 10
121.1530181264821
 20
178.3457958464141
 30
0.0
 10
121.1490107908647
 20
178.3080570066368
 30
0.0
  0
SPLINE
  5
C8
330
1F
100
AcDbEntity
  8
0
  6
Continuous
 62
     7
370
    18
100
AcDbSpline
210
0.0
220
0.0
230
1.0
 70
     8
 71
     3
 72
    13
 73
     9
 74
     0
 42
0.000000001
 43
0.00000001
 40
0.0
 40
0.0
 40
0.0
 40
0.0
 40
0.2394565093609548
 40
0.3683601833239631
 40
0.5000001175551397
 40
0.6316386565255991
 40
0.7605423304886075
 40
1.0
 40
1.0
 40
1.0
 40
1.0
 10
121.1490107908647
 20
164.9080569522476
 30
0.0
 10
121.1530181274355
 20
164.8703181144131
 30
0.0
 10
121.1591826841551
 20
164.8122637927316
 30
0.0
 10
121.1965916722184
 20
164.7424187294473
 30
0.0
 10
121.2353106169878
 20
164.6943571294171
 30
0.0
 10
121.2833722510027
 20
164.6556382284627
 30
0.0
 10
121.3532172966192
 20
164.6182293281078
 30
0.0
 10
121.4112717557426
 20
164.6120645096906
 30
0.0
 10
121.4490107469063
 20
164.608056996206
 30
0.0
  0
SPLINE
  5
C9
330
1F
100
AcDbEntity
  8
0
  6
Continuous
 62
     7
370
    18
100
AcDbSpline
210
0.0
220
0.0
230
1.0
 70
     8
 71
     3
 72
    13
 73
     9
 74
     0
 42
0.000000001
 43
0.00000001
 40
0.0
 40
0.0
 40
0.0
 40
0.0
 40
0.2394567241113507
 40
0.3683606917871737
 40
0.5000000676039478
 40
0.6316394434207218
 40
0.7605431829666371
 40
1.0
 40
1.0
 40
1.0
 40
1.0
 10
114.1490105747979
 20
176.808057226429
 30
0.0
 10
114.1450032054414
 20
176.8457961036138
 30
0.0
 10
114.1388385953062
 20
176.9038505138989
 30
0.0
 10
114.1014291300866
 20
176.9736952062103
 30
0.0
 10
114.0627107805456
 20
177.0217573785092
 30
0.0
 10
114.0146486562682
 20
177.0604757834426
 30
0.0
 10
113.9448037910539
 20
177.0978848315205
 30
0.0
 10
113.8867494678379
 20
177.1040496649398
 30
0.0
 10
113.8490106187563
 20
177.1080571824705
 30
0.0
  0
SPLINE
  5
CA
330
1F
100
AcDbEntity
  8
0
  6
Continuous
 62
     7
370
    18
100
AcDbSpline
210
0.0
220
0.0
230
1.0
 70
     8
 71
     3
 72
    13
 73
     9
 74
     0
 42
0.000000001
 43
0.00000001
 40
0.0
 40
0.0
 40
0.0
 40
0.0
 40
0.2394564769844745
 40
0.3683601335186509
 40
0.5000000499510308
 40
0.631638571122882
 40
0.7605424557868192
 40
1.0
 40
1.0
 40
1.0
 40
1.0
 10
113.8490106187563
 20
166.1080572420752
 30
0.0
 10
113.8867494575623
 20
166.1120645781692
 30
0.0
 10
113.944803780738
 20
166.1182291341555
 30
0.0
 10
114.0146488366898
 20
166.1556381258169
 30
0.0
 10
114.06271046065
 20
166.194357058844
 30
0.0
 10
114.1014292944705
 20
166.2424187648099
 30
0.0
 10
114.1388386155649
 20
166.3122636301912
 30
0.0
 10
114.1450032099646
 20
166.3703181778781
 30
0.0
 10
114.1490105747979
 20
166.4080571981168
 30
0.0
  0
SPLINE
  5
CB
330
1F
100
AcDbEntity
  8
0
  6
Continuous
 62
     7
370
    18
100
AcDbSpline
210
0.0
220
0.0
230
1.0
 70
     8
 71
     3
 72
    13
 73
     9
 74
     0
 42
0.000000001
 43
0.00000001
 40
0.0
 40
0.0
 40
0.0
 40
0.0
 40
0.2394567846563175
 40
0.3683605067731103
 40
0.4999998647908752
 40
0.6316392228086402
 40
0.7605434011866908
 40
0.9999999999999999
 40
0.9999999999999999
 40
0.9999999999999999
 40
0.9999999999999999
 10
112.4490106686752
 20
177.1080571824705
 30
0.0
 10
112.4112718186222
 20
177.1040496654165
 30
0.0
 10
112.3532174939118
 20
177.0978848327304
 30
0.0
 10
112.2833726360302
 20
177.0604757810545
 30
0.0
 10
112.2353104878228
 20
177.0217573878634
 30
0.0
 10
112.196592205416
 20
176.9736951436128
 30
0.0
 10
112.1591823194576
 20
176.9038506315374
 30
0.0
 10
112.1530179333396
 20
176.8457961326885
 30
0.0
 10
112.1490107126336
 20
176.808057226429
 30
0.0
  0
SPLINE
  5
CC
330
1F
100
AcDbEntity
  8
0
  6
Continuous
 62
     7
370
    18
100
AcDbSpline
210
0.0
220
0.0
230
1.0
 70
     8
 71
     3
 72
    13
 73
     9
 74
     0
 42
0.000000001
 43
0.00000001
 40
0.0
 40
0.0
 40
0.0
 40
0.0
 40
0.2394574189153967
 40
0.3683615142813883
 40
0.5000000176543078
 40
0.6316399162875672
 40
0.7605435553925947
 40
1.0
 40
1.0
 40
1.0
 40
1.0
 10
112.1490107126336
 20
166.4080571981168
 30
0.0
 10
112.153017928816
 20
166.3703181488032
 30
0.0
 10
112.1591822991984
 20
166.3122635125525
 30
0.0
 10
112.1965920410314
 20
166.242418827407
 30
0.0
 10
112.2353108077184
 20
166.1943570494898
 30
0.0
 10
112.2833724556085
 20
166.155638128205
 30
0.0
 10
112.3532175042277
 20
166.1182291329456
 30
0.0
 10
112.4112718288979
 20
166.1120645776925
 30
0.0
 10
112.4490106686752
 20
166.1080572420752
 30
0.0
  0
LINE
  5
CD
330
1F
100
AcDbEntity
  8
0
  6
Continuous
 62
     7
370
    18
100
AcDbLine
 10
113.8490106188
 20
177.1080571825
 30
0.0
 11
112.4490106687
 21
177.1080571825
 31
0.0
  0
LINE
  5
CE
330
1F
100
AcDbEntity
  8
0
  6
Continuous
 62
     7
370
    18
100
AcDbLine
 10
112.4490106687
 20
166.1080572421
 30
0.0
 11
113.8490106188
 21
166.1080572421
 31
0.0
  0
SPLINE
  5
CF
330
1F
100
AcDbEntity
  8
0
  6
Continuous
 62
     7
370
    18
100
AcDbSpline
210
0.0
220
0.0
230
1.0
 70
     8
 71
     3
 72
    13
 73
     9
 74
     0
 42
0.000000001
 43
0.00000001
 40
0.0
 40
0.0
 40
0.0
 40
0.0
 40
0.2394576655088826
 40
0.3683613373172795
 40
0.4999998740874145
 40
0.6316391807291228
 40
0.7605433087985998
 40
1.0
 40
1.0
 40
1.0
 40
1.0
 10
129.849010447393
 20
167.1080569403267
 30
0.0
 10
129.8867494456011
 20
167.1120644484696
 30
0.0
 10
129.944803915561
 20
167.1182292586698
 30
0.0
 10
130.014648908005
 20
167.1556381993442
 30
0.0
 10
130.062710638907
 20
167.1943569069734
 30
0.0
 10
130.1014289390215
 20
167.242418957079
 30
0.0
 10
130.1388387401791
 20
167.3122635392939
 30
0.0
 10
130.1450034420459
 20
167.3703180028206
 30
0.0
 10
130.1490108690958
 20
167.4080568963682
 30
0.0
  0
LINE
  5
D0
330
1F
100
AcDbEntity
  8
0
  6
Continuous
 62
     7
370
    18
100
AcDbLine
 10
129.8490104474
 20
176.1080570186
 30
0.0
 11
129.1490107052
 21
176.1080570186
 31
0.0
  0
LINE
  5
D1
330
1F
100
AcDbEntity
  8
0
  6
Continuous
 62
     7
370
    18
100
AcDbLine
 10
129.1490107052
 20
167.1080569403
 30
0.0
 11
129.8490104474
 21
167.1080569403
 31
0.0
  0
LINE
  5
D2
330
1F
100
AcDbEntity
  8
0
  6
Continuous
 62
     7
370
    18
100
AcDbLine
 10
127.1490103774
 20
176.1080570186
 30
0.0
 11
123.149010653
 21
176.1080570186
 31
0.0
  0
LINE
  5
D3
330
1F
100
AcDbEntity
  8
0
  6
Continuous
 62
     7
370
    18
100
AcDbLine
 10
121.1490107909
 20
175.5080571065
 30
0.0
 11
114.1490105748
 21
175.5080571065
 31
0.0
  0
LINE
  5
D4
330
1F
100
AcDbEntity
  8
0
  6
Continuous
 62
     7
370
    18
100
AcDbLine
 10
114.1490105748
 20
167.7080570852
 30
0.0
 11
121.1490107909
 21
167.7080570852
 31
0.0
  0
SPLINE
  5
D5
330
1F
100
AcDbEntity
  8
0
  6
Continuous
 62
     7
370
    18
100
AcDbSpline
210
0.0
220
0.0
230
1.0
 70
     8
 71
     3
 72
    10
 73
     6
 74
     0
 42
0.000000001
 43
0.00000001
 40
0.0
 40
0.0
 40
0.0
 40
0.0
 40
0.2071485923051136
 40
0.484600080997578
 40
1.0
 40
1.0
 40
1.0
 40
1.0
 10
161.0716211817961
 20
168.7088225634789
 30
0.0
 10
161.0815329555471
 20
168.7201904775149
 30
0.0
 10
161.104720399445
 20
168.7467843925463
 30
0.0
 10
161.13847472502
 20
168.8125917474771
 30
0.0
 10
161.144859732856
 20
168.8704475058297
 30
0.0
 10
161.1490103624564
 20
168.9080571422374
 30
0.0
  0
SPLINE
  5
D6
330
1F
100
AcDbEntity
  8
0
  6
Continuous
 62
     7
370
    18
100
AcDbSpline
210
0.0
220
0.0
230
1.0
 70
     8
 71
     3
 72
    10
 73
     6
 74
     0
 42
0.000000001
 43
0.00000001
 40
0.0
 40
0.0
 40
0.0
 40
0.0
 40
0.5153994108806577
 40
0.7928511904916452
 40
0.9999999999999999
 40
0.9999999999999999
 40
0.9999999999999999
 40
0.9999999999999999
 10
161.1490103624564
 20
174.3080570494777
 30
0.0
 10
161.144859720286
 20
174.3456666052013
 30
0.0
 10
161.1384746885675
 20
174.4035222806249
 30
0.0
 10
161.1047203995826
 20
174.46932956631
 30
0.0
 10
161.0815329555884
 20
174.495923481361
 30
0.0
 10
161.0716211817961
 20
174.5072913954055
 30
0.0
  0
SPLINE
  5
D7
330
1F
100
AcDbEntity
  8
0
  6
Continuous
 62
     7
370
    18
100
AcDbSpline
210
0.0
220
0.0
230
1.0
 70
     8
 71
     3
 72
    10
 73
     6
 74
     0
 42
0.000000001
 43
0.00000001
 40
0.0
 40
0.0
 40
0.0
 40
0.0
 40
0.515399919002422
 40
0.7928514076948864
 40
0.9999999999999999
 40
0.9999999999999999
 40
0.9999999999999999
 40
0.9999999999999999
 10
161.8490110359888
 20
168.9080571422374
 30
0.0
 10
161.8531616655892
 20
168.8704475058297
 30
0.0
 10
161.8595466734252
 20
168.8125917474771
 30
0.0
 10
161.8933009990002
 20
168.7467843925463
 30
0.0
 10
161.916488442898
 20
168.7201904775149
 30
0.0
 10
161.9264002166491
 20
168.7088225634789
 30
0.0
  0
SPLINE
  5
D8
330
1F
100
AcDbEntity
  8
0
  6
Continuous
 62
     7
370
    18
100
AcDbSpline
210
0.0
220
0.0
230
1.0
 70
     8
 71
     3
 72
    10
 73
     6
 74
     0
 42
0.000000001
 43
0.00000001
 40
0.0
 40
0.0
 40
0.0
 40
0.0
 40
0.2071488095083546
 40
0.4846005891193422
 40
0.9999999999999999
 40
0.9999999999999999
 40
0.9999999999999999
 40
0.9999999999999999
 10
161.9264002166491
 20
174.5072913954055
 30
0.0
 10
161.9164884428568
 20
174.495923481361
 30
0.0
 10
161.8933009988626
 20
174.46932956631
 30
0.0
 10
161.8595467098776
 20
174.4035222806249
 30
0.0
 10
161.8531616781592
 20
174.3456666052013
 30
0.0
 10
161.8490110359888
 20
174.3080570494777
 30
0.0
  0
LWPOLYLINE
  5
D9
330
1F
100
AcDbEntity
  8
0
  6
Continuous
 62
     7
370
    18
100
AcDbPolyline
 90
        3
 70
   128
 43
0.0
 10
162.7489964686
 20
168.7080432793
 10
162.9290099464
 20
168.8880569899
 10
163.1490106903
 20
169.1080570353
  0
LWPOLYLINE
  5
DA
330
1F
100
AcDbEntity
  8
0
  6
Continuous
 62
     7
370
    18
100
AcDbPolyline
 90
        3
 70
   128
 43
0.0
 10
163.1490106903
 20
174.1080569236
 10
162.8690104209
 20
174.3880569601
 10
162.7489964686
 20
174.5080706796
  0
LWPOLYLINE
  5
DB
330
1F
100
AcDbEntity
  8
0
  6
Continuous
 62
     7
370
    18
100
AcDbPolyline
 90
        3
 70
   128
 43
0.0
 10
122.7990107819
 20
162.308057178
 10
122.9950104117
 20
160.9080567623
 10
123.149010653
 20
159.8080567682
  0
LWPOLYLINE
  5
DC
330
1F
100
AcDbEntity
  8
0
  6
Continuous
 62
     7
370
    18
100
AcDbPolyline
 90
        3
 70
   128
 43
0.0
 10
127.1490103774
 20
159.8080567682
 10
127.3450109385
 20
161.208057184
 10
127.4990107141
 20
162.308057178
  0
LWPOLYLINE
  5
DD
330
1F
100
AcDbEntity
  8
0
  6
Continuous
 62
     7
370
    18
100
AcDbPolyline
 90
        3
 70
   128
 43
0.0
 10
122.7990107819
 20
159.8080567682
 10
122.9950104117
 20
158.4080572838
 10
123.149010653
 20
157.3080572898
  0
LWPOLYLINE
  5
DE
330
1F
100
AcDbEntity
  8
0
  6
Continuous
 62
     7
370
    18
100
AcDbPolyline
 90
        3
 70
   128
 43
0.0
 10
127.1490103774
 20
157.3080572898
 10
127.3450109385
 20
158.7080567742
 10
127.4990107141
 20
159.8080567682
  0
LINE
  5
DF
330
1F
100
AcDbEntity
  8
0
  6
Continuous
 62
     7
370
    18
100
AcDbLine
 10
122.9990104422
 20
164.3080602998
 30
0.0
 11
122.9990104422
 21
162.308057178
 31
0.0
  0
LINE
  5
E0
330
1F
100
AcDbEntity
  8
0
  6
Continuous
 62
     7
370
    18
100
AcDbLine
 10
127.2990110539
 20
162.308057178
 30
0.0
 11
127.2990110539
 21
164.3080602998
 31
0.0
  0
LINE
  5
E1
330
1F
100
AcDbEntity
  8
0
  6
Continuous
 62
     7
370
    18
100
AcDbLine
 10
161.2490120552
 20
173.6080570744
 30
0.0
 11
161.1490103625
 21
173.6080570744
 31
0.0
  0
LINE
  5
E2
330
1F
100
AcDbEntity
  8
0
  6
Continuous
 62
     7
370
    18
100
AcDbLine
 10
161.1490103625
 20
169.6080570009
 30
0.0
 11
161.2490120552
 21
169.6080570009
 31
0.0
  0
SPLINE
  5
E3
330
1F
100
AcDbEntity
  8
0
  6
Continuous
 62
     7
370
    18
100
AcDbSpline
210
0.0
220
0.0
230
1.0
 70
     8
 71
     3
 72
    13
 73
     9
 74
     0
 42
0.000000001
 43
0.00000001
 40
0.0
 40
0.0
 40
0.0
 40
0.0
 40
0.2394563437675043
 40
0.3683604848901767
 40
0.4999998048620618
 40
0.631638354962309
 40
0.760542496085021
 40
1.0
 40
1.0
 40
1.0
 40
1.0
 10
127.2990110538702
 20
164.3080570401644
 30
0.0
 10
127.3030180735929
 20
164.3457959532277
 30
0.0
 10
127.3091821522086
 20
164.4038504783094
 30
0.0
 10
127.346592082503
 20
164.4736949648421
 30
0.0
 10
127.3853103272488
 20
164.5217570690027
 30
0.0
 10
127.4333722105633
 20
164.560475640711
 30
0.0
 10
127.5032168399285
 20
164.5978854233704
 30
0.0
 10
127.5612714875471
 20
164.6040497854324
 30
0.0
 10
127.5990105442505
 20
164.608056996206
 30
0.0
  0
SPLINE
  5
E4
330
1F
100
AcDbEntity
  8
0
  6
Continuous
 62
     7
370
    18
100
AcDbSpline
210
0.0
220
0.0
230
1.0
 70
     8
 71
     3
 72
    13
 73
     9
 74
     0
 42
0.000000001
 43
0.00000001
 40
0.0
 40
0.0
 40
0.0
 40
0.0
 40
0.2394565340599815
 40
0.3683606775800135
 40
0.5000000000001001
 40
0.6316393224201732
 40
0.7605434659401655
 40
1.0
 40
1.0
 40
1.0
 40
1.0
 10
122.699010486136
 20
164.608056996206
 30
0.0
 10
122.7367493943385
 20
164.6040497764534
 30
0.0
 10
122.794803896176
 20
164.5978853918019
 30
0.0
 10
122.8646483935862
 20
164.5604754986474
 30
0.0
 10
122.9127106856967
 20
164.5217572397252
 30
0.0
 10
122.951428944619
 20
164.4736949476146
 30
0.0
 10
122.9888388377735
 20
164.4038504502044
 30
0.0
 10
122.995003222425
 20
164.3457959483669
 30
0.0
 10
122.9990104421776
 20
164.3080570401644
 30
0.0
  0
LINE
  5
E5
330
1F
100
AcDbEntity
  8
0
  6
Continuous
 62
     7
370
    18
100
AcDbLine
 10
161.2490120552
 20
167.1080569403
 30
0.0
 11
161.849011036
 21
167.1080569403
 31
0.0
  0
LINE
  5
E6
330
1F
100
AcDbEntity
  8
0
  6
Continuous
 62
     7
370
    18
100
AcDbLine
 10
161.849011036
 20
175.8951576093
 30
0.0
 11
161.2490120552
 21
175.8951576093
 31
0.0
  0
SPLINE
  5
E7
330
1F
100
AcDbEntity
  8
0
  6
Continuous
 62
     7
370
    18
100
AcDbSpline
210
0.0
220
0.0
230
1.0
 70
     8
 71
     3
 72
    34
 73
    30
 74
     0
 42
0.000000001
 43
0.00000001
 40
0.0
 40
0.0
 40
0.0
 40
0.0
 40
0.0120095907978756
 40
0.0440838336978876
 40
0.0778959465150908
 40
0.1134147084151419
 40
0.1505835810424361
 40
0.1880533647246059
 40
0.225015667117713
 40
0.2614507265058061
 40
0.297361478011671
 40
0.3327477456681726
 40
0.3674978340877074
 40
0.4322301204402519
 40
0.4901852251218517
 40
0.525271217937557
 40
0.5624972725166935
 40
0.6040545501200105
 40
0.6380957066068056
 40
0.674627671452814
 40
0.7136729010865802
 40
0.7544698704248008
 40
0.8049615684213874
 40
0.8501605717474641
 40
0.8901422151467709
 40
0.9167172638809449
 40
0.9424251875495457
 40
0.9699531084028802
 40
1.0
 40
1.0
 40
1.0
 40
1.0
 10
129.7397234685521
 20
176.8866785468554
 30
0.0
 10
129.7397331153524
 20
176.8840365765008
 30
0.0
 10
129.739768526046
 20
176.8743386455965
 30
0.0
 10
129.7662383061529
 20
176.7855233858291
 30
0.0
 10
129.801489084041
 20
176.6200700291146
 30
0.0
 10
129.8473269314492
 20
176.3692336677555
 30
0.0
 10
129.8977787517869
 20
176.0391354256882
 30
0.0
 10
129.94986546642
 20
175.6462437718281
 30
0.0
 10
130.0018200511556
 20
175.2065278272516
 30
0.0
 10
130.0533702222607
 20
174.7288634031125
 30
0.0
 10
130.1043513515589
 20
174.2207499227934
 30
0.0
 10
130.1546404594831
 20
173.691280141272
 30
0.0
 10
130.2186628821031
 20
172.9896107529883
 30
0.0
 10
130.2936025610661
 20
172.135074334692
 30
0.0
 10
130.3686937563912
 20
171.267270128946
 30
0.0
 10
130.4305801478397
 20
170.5617877929164
 30
0.0
 10
130.4847321087403
 20
169.9580676575343
 30
0.0
 10
130.5385348621216
 20
169.3811212135831
 30
0.0
 10
130.5921541325246
 20
168.8368879963911
 30
0.0
 10
130.6447117408097
 20
168.3368095329017
 30
0.0
 10
130.7007546792034
 20
167.8475455098953
 30
0.0
 10
130.763611810497
 20
167.3567579516911
 30
0.0
 10
130.8319090195891
 20
166.9094433977166
 30
0.0
 10
130.9042562358871
 20
166.5424982283793
 30
0.0
 10
130.9744132116742
 20
166.2899808414966
 30
0.0
 10
131.0379909145195
 20
166.1226955106769
 30
0.0
 10
131.1236719643119
 20
165.9694301139279
 30
0.0
 10
131.2929302451866
 20
165.7911882555779
 30
0.0
 10
131.4860100015297
 20
165.7585791943061
 30
0.0
 10
131.5867736212712
 20
165.7415613198673
 30
0.0
  0
SPLINE
  5
E8
330
1F
100
AcDbEntity
  8
0
  6
Continuous
 62
     7
370
    18
100
AcDbSpline
210
0.0
220
0.0
230
1.0
 70
     8
 71
     3
 72
    35
 73
    31
 74
     0
 42
0.000000001
 43
0.00000001
 40
0.0
 40
0.0
 40
0.0
 40
0.0
 40
0.0153889045449853
 40
0.0483379065766943
 40
0.0817446083514468
 40
0.1155234437609333
 40
0.1496235335511231
 40
0.219111149587866
 40
0.2546055774107739
 40
0.290540061872845
 40
0.3269047311756377
 40
0.3625590192265641
 40
0.407184851156894
 40
0.4484647458877568
 40
0.4863704486532976
 40
0.5240776439302409
 40
0.5664939617523472
 40
0.6137027646238851
 40
0.6522769355464008
 40
0.6935738980485929
 40
0.7359535582172414
 40
0.7750107309997634
 40
0.8215326967251483
 40
0.8617158831063222
 40
0.8955577975250854
 40
0.9168531575902352
 40
0.9394443326639443
 40
0.9669307183836611
 40
0.9827738084579773
 40
1.0
 40
1.0
 40
1.0
 40
1.0
 10
132.738308349977
 20
176.8898580821252
 30
0.0
 10
132.7395374792019
 20
176.8838616075812
 30
0.0
 10
132.7433982825144
 20
176.8650261521108
 30
0.0
 10
132.7690825850536
 20
176.7704566667441
 30
0.0
 10
132.8054176095618
 20
176.5983511952956
 30
0.0
 10
132.8492345877086
 20
176.3560073860058
 30
0.0
 10
132.9128013465293
 20
175.9412522042856
 30
0.0
 10
132.9780830762855
 20
175.4200454971468
 30
0.0
 10
133.0445530812239
 20
174.8120656319224
 30
0.0
 10
133.0956273316287
 20
174.3097868338393
 30
0.0
 10
133.1469322629012
 20
173.7747151730755
 30
0.0
 10
133.2023908912199
 20
173.1697468336188
 30
0.0
 10
133.2602023452297
 20
172.517045195151
 30
0.0
 10
133.3190894404547
 20
171.8397358040725
 30
0.0
 10
133.3747206988119
 20
171.1984124542896
 30
0.0
 10
133.4309101775363
 20
170.5575808883119
 30
0.0
 10
133.4915860833111
 20
169.8825550886706
 30
0.0
 10
133.5528255531518
 20
169.2318638738394
 30
0.0
 10
133.6137261014024
 20
168.6258186235521
 30
0.0
 10
133.6725532480689
 20
168.0860807054763
 30
0.0
 10
133.731862906132
 20
167.5981377235707
 30
0.0
 10
133.7947780227566
 20
167.1460672307883
 30
0.0
 10
133.8589937044478
 20
166.7635144888068
 30
0.0
 10
133.9237709304215
 20
166.4623330650163
 30
0.0
 10
133.983666894249
 20
166.2617027688174
 30
0.0
 10
134.0333739269656
 20
166.132289664472
 30
0.0
 10
134.1164467235292
 20
165.9762550295016
 30
0.0
 10
134.2558836837239
 20
165.8379202751585
 30
0.0
 10
134.4255955474649
 20
165.7555512341976
 30
0.0
 10
134.5323799997426
 20
165.7469964376191
 30
0.0
 10
134.5880053214531
 20
165.7425401398933
 30
0.0
  0
SPLINE
  5
E9
330
1F
100
AcDbEntity
  8
0
  6
Continuous
 62
     7
370
    18
100
AcDbSpline
210
0.0
220
0.0
230
1.0
 70
     8
 71
     3
 72
    32
 73
    28
 74
     0
 42
0.000000001
 43
0.00000001
 40
0.0
 40
0.0
 40
0.0
 40
0.0
 40
0.0119237343754193
 40
0.0715090906573485
 40
0.1275392672751844
 40
0.1848903681036992
 40
0.2260930384816018
 40
0.2696694704868835
 40
0.3153662037480061
 40
0.3593678568782834
 40
0.4003545793253786
 40
0.43833598827278
 40
0.4735177922571283
 40
0.5120331704527468
 40
0.5566663561417797
 40
0.5942078438493587
 40
0.635266799652479
 40
0.6798586831614868
 40
0.7269040255675475
 40
0.783536523895044
 40
0.8317721857877202
 40
0.871573509616017
 40
0.8958609910064587
 40
0.9216760102213689
 40
0.9436753713721956
 40
0.9697520332507285
 40
1.0
 40
1.0
 40
1.0
 40
1.0
 10
135.7403717212181
 20
176.886298567245
 30
0.0
 10
135.7404412761709
 20
176.8834998677046
 30
0.0
 10
135.7408584115468
 20
176.8667154901886
 30
0.0
 10
135.791543693592
 20
176.686005225771
 30
0.0
 10
135.8644549631368
 20
176.2708183690455
 30
0.0
 10
135.9376687840459
 20
175.7502312335063
 30
0.0
 10
136.0040470809994
 20
175.1886299792959
 30
0.0
 10
136.0656202445241
 20
174.6118669306648
 30
0.0
 10
136.1286277191201
 20
173.9703794376006
 30
0.0
 10
136.1905093173938
 20
173.3017757996163
 30
0.0
 10
136.2487754877563
 20
172.6472988700809
 30
0.0
 10
136.3028556537897
 20
172.027255419593
 30
0.0
 10
136.3557508252467
 20
171.417001012448
 30
0.0
 10
136.4118165776077
 20
170.7735357061859
 30
0.0
 10
136.4691514915068
 20
170.1293053052505
 30
0.0
 10
136.527804919761
 20
169.4953822783473
 30
0.0
 10
136.5865771934527
 20
168.891676562146
 30
0.0
 10
136.650144506058
 20
168.2857527859699
 30
0.0
 10
136.7213561132193
 20
167.6744298157024
 30
0.0
 10
136.7962406556472
 20
167.1323176534866
 30
0.0
 10
136.8710301324753
 20
166.7040218139407
 30
0.0
 10
136.9367414887049
 20
166.424198622795
 30
0.0
 10
136.9953208506138
 20
166.2341474911118
 30
0.0
 10
137.0644266331554
 20
166.0758162758904
 30
0.0
 10
137.1662253976302
 20
165.9279627228235
 30
0.0
 10
137.301947244257
 20
165.8039865487965
 30
0.0
 10
137.4219171620672
 20
165.7697445336136
 30
0.0
 10
137.4863445035916
 20
165.7513555737233
 30
0.0
  0
SPLINE
  5
EA
330
1F
100
AcDbEntity
  8
0
  6
Continuous
 62
     7
370
    18
100
AcDbSpline
210
0.0
220
0.0
230
1.0
 70
     8
 71
     3
 72
    17
 73
    13
 74
     0
 42
0.000000001
 43
0.00000001
 40
0.0
 40
0.0
 40
0.0
 40
0.0
 40
0.0611672842728094
 40
0.1173439938671852
 40
0.2145527190005733
 40
0.2940602942134498
 40
0.3691889803193601
 40
0.4906207486215633
 40
0.63677007428893
 40
0.8075302892235161
 40
0.9517274469745447
 40
1.0
 40
1.0
 40
1.0
 40
1.0
 10
136.0879729710322
 20
177.7399777101373
 30
0.0
 10
136.0323197771467
 20
177.735581544947
 30
0.0
 10
135.9255540751929
 20
177.7271478930814
 30
0.0
 10
135.7558586122476
 20
177.6450005710522
 30
0.0
 10
135.6164676360192
 20
177.507044409424
 30
0.0
 10
135.5331807010953
 20
177.3508497874379
 30
0.0
 10
135.4832333345137
 20
177.2206703763047
 30
0.0
 10
135.4225975193784
 20
177.0157038693652
 30
0.0
 10
135.3562696893637
 20
176.7054828686157
 30
0.0
 10
135.2899109162397
 20
176.3018063243271
 30
0.0
 10
135.2393450595786
 20
175.9442414477873
 30
0.0
 10
135.2130385848766
 20
175.7213811670012
 30
0.0
 10
135.2064407639008
 20
175.6654864775037
 30
0.0
  0
SPLINE
  5
EB
330
1F
100
AcDbEntity
  8
0
  6
Continuous
 62
     7
370
    18
100
AcDbSpline
210
0.0
220
0.0
230
1.0
 70
     8
 71
     3
 72
     9
 73
     5
 74
     0
 42
0.000000001
 43
0.00000001
 40
0.0
 40
0.0
 40
0.0
 40
0.0
 40
0.7101343403846987
 40
1.0
 40
1.0
 40
1.0
 40
1.0
 10
135.1490098260145
 20
175.1734196340686
 30
0.0
 10
135.1324718500623
 20
175.0236505430768
 30
0.0
 10
135.1091833326483
 20
174.8127480666374
 30
0.0
 10
135.086028799217
 20
174.576528796976
 30
0.0
 10
135.0793170951109
 20
174.5080569425618
 30
0.0
  0
SPLINE
  5
EC
330
1F
100
AcDbEntity
  8
0
  6
Continuous
 62
     7
370
    18
100
AcDbSpline
210
0.0
220
0.0
230
1.0
 70
     8
 71
     3
 72
    19
 73
    15
 74
     0
 42
0.000000001
 43
0.00000001
 40
0.0
 40
0.0
 40
0.0
 40
0.0
 40
0.0460832390123598
 40
0.0885530168648111
 40
0.1625341985123778
 40
0.2238240974961379
 40
0.2815958766844895
 40
0.3717457933224956
 40
0.4771566617476203
 40
0.597848409316866
 40
0.6984618461893809
 40
0.8071587585631154
 40
0.9134037591584482
 40
1.0
 40
1.0
 40
1.0
 40
1.0
 10
133.0868958703976
 20
177.7410356925821
 30
0.0
 10
133.0313379408302
 20
177.7364057617958
 30
0.0
 10
132.9245784686359
 20
177.72750894057
 30
0.0
 10
132.7549141027992
 20
177.6445287987186
 30
0.0
 10
132.6154737058213
 20
177.5052785863656
 30
0.0
 10
132.5327611277552
 20
177.3488341898919
 30
0.0
 10
132.4833067679743
 20
177.2192243401173
 30
0.0
 10
132.4241316485079
 20
177.0208124156123
 30
0.0
 10
132.3609401964999
 20
176.7296363039792
 30
0.0
 10
132.2989735501615
 20
176.3640811105986
 30
0.0
 10
132.2387936078559
 20
175.9374283889904
 30
0.0
 10
132.182317945615
 20
175.4793251819862
 30
0.0
 10
132.1285723673307
 20
174.9984580192014
 30
0.0
 10
132.0943493359172
 20
174.660029717994
 30
0.0
 10
132.0789813272457
 20
174.5080569425618
 30
0.0
  0
SPLINE
  5
ED
330
1F
100
AcDbEntity
  8
0
  6
Continuous
 62
     7
370
    18
100
AcDbSpline
210
0.0
220
0.0
230
1.0
 70
     8
 71
     3
 72
    16
 73
    12
 74
     0
 42
0.000000001
 43
0.00000001
 40
0.0
 40
0.0
 40
0.0
 40
0.0
 40
0.0195508807967449
 40
0.046459340496802
 40
0.1234602205741206
 40
0.2318123006181319
 40
0.3711657399231315
 40
0.5406861582649728
 40
0.7391599817410154
 40
0.9651509180052258
 40
1.0
 40
1.0
 40
1.0
 40
1.0
 10
130.0875342659455
 20
177.7409141549861
 30
0.0
 10
130.0709532064582
 20
177.740715393733
 30
0.0
 10
130.0315511408161
 20
177.7402430714457
 30
0.0
 10
129.9588114084277
 20
177.7291247840145
 30
0.0
 10
129.8626471915339
 20
177.6954837993283
 30
0.0
 10
129.7494288908363
 20
177.6109410331635
 30
0.0
 10
129.6299749147669
 20
177.4517872567056
 30
0.0
 10
129.5093446104131
 20
177.1883940264599
 30
0.0
 10
129.3923248640244
 20
176.7778204014068
 30
0.0
 10
129.3116662746409
 20
176.4107604643507
 30
0.0
 10
129.275503616777
 20
176.1437327915013
 30
0.0
 10
129.2706721670728
 20
176.1080570185578
 30
0.0
  0
SPLINE
  5
EE
330
1F
100
AcDbEntity
  8
0
  6
Continuous
 62
     7
370
    18
100
AcDbSpline
210
0.0
220
0.0
230
1.0
 70
     8
 71
     3
 72
    17
 73
    13
 74
     0
 42
0.000000001
 43
0.00000001
 40
0.0
 40
0.0
 40
0.0
 40
0.0
 40
0.0807896307972562
 40
0.1500365001675616
 40
0.2085179534118673
 40
0.2586049473564874
 40
0.4570221939643545
 40
0.5948825492092311
 40
0.736702066742656
 40
0.8778324342579008
 40
0.9829302651454316
 40
1.0
 40
1.0
 40
1.0
 40
1.0
 10
131.5664074592095
 20
165.7415995040929
 30
0.0
 10
131.6582859873709
 20
165.7547715415427
 30
0.0
 10
131.8289159638894
 20
165.779233670897
 30
0.0
 10
131.9980335546922
 20
165.9273693461546
 30
0.0
 10
132.0915207533182
 20
166.0700529538066
 30
0.0
 10
132.1759207894299
 20
166.2581071688837
 30
0.0
 10
132.2565504806142
 20
166.5497580991332
 30
0.0
 10
132.3436936533169
 20
167.0291940063412
 30
0.0
 10
132.4152573943753
 20
167.5281809143124
 30
0.0
 10
132.4812773527521
 20
168.0749453499934
 30
0.0
 10
132.5257170609351
 20
168.4756192227793
 30
0.0
 10
132.5462725357436
 20
168.6795614085439
 30
0.0
 10
132.5491446278792
 20
168.7080570163226
 30
0.0
  0
SPLINE
  5
EF
330
1F
100
AcDbEntity
  8
0
  6
Continuous
 62
     7
370
    18
100
AcDbSpline
210
0.0
220
0.0
230
1.0
 70
     8
 71
     3
 72
    14
 73
    10
 74
     0
 42
0.000000001
 43
0.00000001
 40
0.0
 40
0.0
 40
0.0
 40
0.0
 40
0.1188632363036501
 40
0.2202595155999661
 40
0.3053657911304344
 40
0.3776103396889691
 40
0.6517565985466426
 40
0.9207559009614431
 40
1.0
 40
1.0
 40
1.0
 40
1.0
 10
134.5676242582302
 20
165.7425545753932
 30
0.0
 10
134.659519161442
 20
165.7558107830845
 30
0.0
 10
134.8298050084117
 20
165.7803751982526
 30
0.0
 10
134.9991074253256
 20
165.928370069819
 30
0.0
 10
135.0925238487957
 20
166.0712415647998
 30
0.0
 10
135.1741669557186
 20
166.253373550769
 30
0.0
 10
135.2637654456489
 20
166.5832094971244
 30
0.0
 10
135.3394258968848
 20
166.9877721562338
 30
0.0
 10
135.3798896545468
 20
167.2974916699879
 30
0.0
 10
135.3890973351698
 20
167.3679695131278
 30
0.0
  0
SPLINE
  5
F0
330
1F
100
AcDbEntity
  8
0
  6
Continuous
 62
     7
370
    18
100
AcDbSpline
210
0.0
220
0.0
230
1.0
 70
     8
 71
     3
 72
     9
 73
     5
 74
     0
 42
0.000000001
 43
0.00000001
 40
0.0
 40
0.0
 40
0.0
 40
0.0
 40
0.4526822434721326
 40
1.0
 40
1.0
 40
1.0
 40
1.0
 10
137.5205408058863
 20
165.7864268535769
 30
0.0
 10
137.5435889397754
 20
165.7746554976967
 30
0.0
 10
137.5945035365403
 20
165.7486519244401
 30
0.0
 10
137.64504893342
 20
165.7508723273356
 30
0.0
 10
137.672713326643
 20
165.7520875932669
 30
0.0
  0
SPLINE
  5
F1
330
1F
100
AcDbEntity
  8
0
  6
Continuous
 62
     7
370
    18
100
AcDbSpline
210
0.0
220
0.0
230
1.0
 70
     8
 71
     3
 72
    38
 73
    34
 74
     0
 42
0.000000001
 43
0.00000001
 40
0.0
 40
0.0
 40
0.0
 40
0.0
 40
0.0168391250736682
 40
0.0528987522320248
 40
0.0849449127992749
 40
0.1145591053335576
 40
0.1464068091299499
 40
0.1807291448507695
 40
0.217531592369329
 40
0.2568092094449893
 40
0.2985227966957694
 40
0.3416888429796203
 40
0.3814770553911883
 40
0.428191638966783
 40
0.4676426971755116
 40
0.4997820934680416
 40
0.5248330993132209
 40
0.5522769245752559
 40
0.587004501289606
 40
0.6178645689918356
 40
0.6528642160750562
 40
0.6920133237504001
 40
0.7339614130452022
 40
0.785102439406167
 40
0.8297988960820989
 40
0.8680116543777131
 40
0.8846789975695409
 40
0.8997124019356326
 40
0.9158686082417823
 40
0.9315906924560997
 40
0.9507485645412257
 40
0.9735517722534865
 40
1.0
 40
1.0
 40
1.0
 40
1.0
 10
137.7877540163498
 20
166.7523643599844
 30
0.0
 10
137.7951946881911
 20
166.7579143640702
 30
0.0
 10
137.8185689581991
 20
166.7753492539319
 30
0.0
 10
137.8218328297446
 20
166.8667222115145
 30
0.0
 10
137.8092116253885
 20
167.0234929205804
 30
0.0
 10
137.779990895504
 20
167.2390373727521
 30
0.0
 10
137.7448834363048
 20
167.5078258488043
 30
0.0
 10
137.7020112167792
 20
167.8514875373846
 30
0.0
 10
137.653046533571
 20
168.2755704300583
 30
0.0
 10
137.5988832337617
 20
168.7817985302138
 30
0.0
 10
137.5407725943961
 20
169.3651123890837
 30
0.0
 10
137.4819378326333
 20
169.9921211001381
 30
0.0
 10
137.4207713686822
 20
170.672578957504
 30
0.0
 10
137.3613215809807
 20
171.3525322557516
 30
0.0
 10
137.3055059944401
 20
171.9967291560133
 30
0.0
 10
137.2598856774076
 20
172.5205614853735
 30
0.0
 10
137.2199386560671
 20
172.9737078871794
 30
0.0
 10
137.1787184845446
 20
173.4331044236785
 30
0.0
 10
137.1346735123658
 20
173.91005806473
 30
0.0
 10
137.0869795441436
 20
174.405743714725
 30
0.0
 10
137.0370627285608
 20
174.8981676469933
 30
0.0
 10
136.9816833522196
 20
175.405443952018
 30
0.0
 10
136.9183840261424
 20
175.92762546974
 30
0.0
 10
136.8514244680209
 20
176.3999660788716
 30
0.0
 10
136.7839699769031
 20
176.7835492702482
 30
0.0
 10
136.7315539667292
 20
177.0169698912565
 30
0.0
 10
136.6909488259389
 20
177.1607325074397
 30
0.0
 10
136.663848497762
 20
177.2446485866378
 30
0.0
 10
136.625608399328
 20
177.3430907045024
 30
0.0
 10
136.5573404354211
 20
177.4701567538924
 30
0.0
 10
136.4515095437643
 20
177.5976974195815
 30
0.0
 10
136.2866246916894
 20
177.7144624498798
 30
0.0
 10
136.144115966581
 20
177.7310637002625
 30
0.0
 10
136.067588182519
 20
177.7399786414599
 30
0.0
  0
SPLINE
  5
F2
330
1F
100
AcDbEntity
  8
0
  6
Continuous
 62
     7
370
    18
100
AcDbSpline
210
0.0
220
0.0
230
1.0
 70
     8
 71
     3
 72
    33
 73
    29
 74
     0
 42
0.000000001
 43
0.00000001
 40
0.0
 40
0.0
 40
0.0
 40
0.0
 40
0.0070124753185772
 40
0.0279964328317109
 40
0.0526577412459063
 40
0.0810365679666781
 40
0.1131693009504016
 40
0.149071968427903
 40
0.1887333956404364
 40
0.2307523904468727
 40
0.270559899864444
 40
0.3077889130930551
 40
0.3533482783984938
 40
0.3942044915993227
 40
0.4310860514628968
 40
0.4699680164306821
 40
0.5121351273116848
 40
0.5575802670731383
 40
0.5936576515570788
 40
0.629836488094737
 40
0.70128457887204
 40
0.7716405773796732
 40
0.8407476171605807
 40
0.9087708166600291
 40
0.9263218645891572
 40
0.9469180657801095
 40
0.9713844331519532
 40
1.0
 40
1.0
 40
1.0
 40
1.0
 10
134.9109209351044
 20
166.603044945935
 30
0.0
 10
134.91319877604
 20
166.600986776456
 30
0.0
 10
134.9222927717915
 20
166.5927697915888
 30
0.0
 10
134.8987050701616
 20
166.654468035741
 30
0.0
 10
134.8786958023582
 20
166.7454659546644
 30
0.0
 10
134.8441373414016
 20
166.9065744809921
 30
0.0
 10
134.8036474420131
 20
167.1378766239267
 30
0.0
 10
134.7553003189348
 20
167.4563761641812
 30
0.0
 10
134.701080651667
 20
167.8679003007695
 30
0.0
 10
134.6440557872827
 20
168.356431717378
 30
0.0
 10
134.5880537593327
 20
168.887007359832
 30
0.0
 10
134.530188338292
 20
169.4752222031984
 30
0.0
 10
134.4716396515869
 20
170.1052955598475
 30
0.0
 10
134.4131119253911
 20
170.7605060847266
 30
0.0
 10
134.3576739982326
 20
171.3945578698628
 30
0.0
 10
134.3016331637743
 20
172.0410411613612
 30
0.0
 10
134.2415326107668
 20
172.7308697756154
 30
0.0
 10
134.1827186995447
 20
173.3910891882024
 30
0.0
 10
134.1267348627879
 20
173.9958694329343
 30
0.0
 10
134.0583054120906
 20
174.7001969514464
 30
0.0
 10
133.9729791120913
 20
175.4999812931445
 30
0.0
 10
133.8714713610193
 20
176.2880201168739
 30
0.0
 10
133.7676153005341
 20
176.892703930925
 30
0.0
 10
133.674941864378
 20
177.2271373117744
 30
0.0
 10
133.5918196733331
 20
177.4128200612341
 30
0.0
 10
133.4982876504315
 20
177.5557921168462
 30
0.0
 10
133.3289653219598
 20
177.7038675982091
 30
0.0
 10
133.158443787836
 20
177.7279789825404
 30
0.0
 10
133.066518532465
 20
177.7409770192599
 30
0.0
  0
SPLINE
  5
F3
330
1F
100
AcDbEntity
  8
0
  6
Continuous
 62
     7
370
    18
100
AcDbSpline
210
0.0
220
0.0
230
1.0
 70
     8
 71
     3
 72
    32
 73
    28
 74
     0
 42
0.000000001
 43
0.00000001
 40
0.0
 40
0.0
 40
0.0
 40
0.0
 40
0.0132039686089799
 40
0.0404587275647061
 40
0.0705452195190261
 40
0.1034662183379475
 40
0.1392132744590272
 40
0.1777795035378802
 40
0.2169780140208829
 40
0.2539180381939618
 40
0.2885575916528336
 40
0.3208887651832271
 40
0.378541790303414
 40
0.4313720840547047
 40
0.4902459527819093
 40
0.5557196297639053
 40
0.6257155528660755
 40
0.6617166979664347
 40
0.6983885794030431
 40
0.7483437743426153
 40
0.7987000524006461
 40
0.8464901260934365
 40
0.9132474934257129
 40
0.9301383011426373
 40
0.9499074347258278
 40
0.9731283984687639
 40
1.0
 40
1.0
 40
1.0
 40
1.0
 10
131.8942162416678
 20
166.626706592927
 30
0.0
 10
131.8971270826238
 20
166.6265414422515
 30
0.0
 10
131.9060462890165
 20
166.6260353984716
 30
0.0
 10
131.885441360053
 20
166.6986411215041
 30
0.0
 10
131.8598618034569
 20
166.8270825323113
 30
0.0
 10
131.8205781523087
 20
167.0350510024442
 30
0.0
 10
131.7741514371686
 20
167.3267531516079
 30
0.0
 10
131.7217118969911
 20
167.7058792663749
 30
0.0
 10
131.6678024027336
 20
168.1489077300585
 30
0.0
 10
131.6156501278402
 20
168.6226107622946
 30
0.0
 10
131.5664768962748
 20
169.1036563191657
 30
0.0
 10
131.5073487409039
 20
169.7157098028018
 30
0.0
 10
131.4392904240977
 20
170.4623581646198
 30
0.0
 10
131.3585550254329
 20
171.383749025657
 30
0.0
 10
131.2739614408212
 20
172.3614564104246
 30
0.0
 10
131.1812180668726
 20
173.413890444089
 30
0.0
 10
131.0992371716173
 20
174.2894765855026
 30
0.0
 10
131.0308277722648
 20
174.9586015097257
 30
0.0
 10
130.9718419965979
 20
175.4924238771122
 30
0.0
 10
130.9053610749857
 20
176.0277381497358
 30
0.0
 10
130.8336846428386
 20
176.5163956027674
 30
0.0
 10
130.7453564676216
 20
176.9783345073804
 30
0.0
 10
130.6713746313652
 20
177.241703121163
 30
0.0
 10
130.5806081204993
 20
177.4322256599691
 30
0.0
 10
130.4844001006263
 20
177.569152990272
 30
0.0
 10
130.3175531986893
 20
177.7063001892092
 30
0.0
 10
130.1545953047744
 20
177.7288373717032
 30
0.0
 10
130.0671783484321
 20
177.7409271935022
 30
0.0
  0
LINE
  5
F4
330
1F
100
AcDbEntity
  8
0
  6
Continuous
 62
     7
370
    18
100
AcDbLine
 10
160.1490120612
 20
177.6080572644
 30
0.0
 11
158.8818620167
 21
177.6080572644
 31
0.0
  0
LINE
  5
F5
330
1F
100
AcDbEntity
  8
0
  6
Continuous
 62
     7
370
    18
100
AcDbLine
 10
152.8818610333
 20
177.6080572644
 30
0.0
 11
142.649010124
 21
177.6080572644
 31
0.0
  0
LINE
  5
F6
330
1F
100
AcDbEntity
  8
0
  6
Continuous
 62
     7
370
    18
100
AcDbLine
 10
142.649010124
 20
165.6080571601
 30
0.0
 11
152.8818610333
 21
165.6080571601
 31
0.0
  0
LINE
  5
F7
330
1F
100
AcDbEntity
  8
0
  6
Continuous
 62
     7
370
    18
100
AcDbLine
 10
158.8818620167
 20
165.6080571601
 30
0.0
 11
160.1490120612
 21
165.6080571601
 31
0.0
  0
LWPOLYLINE
  5
F8
330
1F
100
AcDbEntity
  8
0
  6
Continuous
 62
     7
370
    18
100
AcDbPolyline
 90
        3
 70
   128
 43
0.0
 10
160.1490120612
 20
165.6080571601
 10
160.7090908311
 20
166.1681363957
 10
161.1491519235
 20
166.6081984194
  0
LINE
  5
F9
330
1F
100
AcDbEntity
  8
0
  6
Continuous
 62
     7
370
    18
100
AcDbLine
 10
142.649010124
 20
177.1080571825
 30
0.0
 11
141.1490108095
 21
177.1080571825
 31
0.0
  0
LINE
  5
FA
330
1F
100
AcDbEntity
  8
0
  6
Continuous
 62
     7
370
    18
100
AcDbLine
 10
141.1490108095
 20
166.1080572421
 30
0.0
 11
142.649010124
 21
166.1080572421
 31
0.0
  0
LWPOLYLINE
  5
FB
330
1F
100
AcDbEntity
  8
0
  6
Continuous
 62
     7
370
    18
100
AcDbPolyline
 90
        3
 70
   128
 43
0.0
 10
161.1490103625
 20
176.6080571005
 10
160.5890098236
 20
177.1680571737
 10
160.1490120612
 20
177.6080572644
  0
LINE
  5
FC
330
1F
100
AcDbEntity
  8
0
  6
Continuous
 62
     7
370
    18
100
AcDbLine
 10
138.1490103178
 20
176.1080570186
 30
0.0
 11
136.8903613858
 21
176.1080570186
 31
0.0
  0
LINE
  5
FD
330
1F
100
AcDbEntity
  8
0
  6
Continuous
 62
     7
370
    18
100
AcDbLine
 10
135.8847825996
 20
176.1080570186
 30
0.0
 11
135.6490108393
 21
176.1080570186
 31
0.0
  0
LINE
  5
FE
330
1F
100
AcDbEntity
  8
0
  6
Continuous
 62
     7
370
    18
100
AcDbLine
 10
135.6490108393
 20
167.1080569403
 30
0.0
 11
136.803398209
 21
167.1080569403
 31
0.0
  0
LINE
  5
FF
330
1F
100
AcDbEntity
  8
0
  6
Continuous
 62
     7
370
    18
100
AcDbLine
 10
137.796989011
 20
167.1080569403
 30
0.0
 11
138.1490103178
 21
167.1080569403
 31
0.0
  0
LWPOLYLINE
  5
100
330
1F
100
AcDbEntity
  8
0
  6
Continuous
 62
     7
370
    18
100
AcDbPolyline
 90
        3
 70
   128
 43
0.0
 10
135.6490108393
 20
176.1080570186
 10
135.3690105699
 20
175.8280572148
 10
135.149009826
 20
175.6080569366
  0
LWPOLYLINE
  5
101
330
1F
100
AcDbEntity
  8
0
  6
Continuous
 62
     7
370
    18
100
AcDbPolyline
 90
        3
 70
   128
 43
0.0
 10
135.149009826
 20
167.6080570223
 10
135.4290100954
 20
167.3280572185
 10
135.6490108393
 20
167.1080569403
  0
LWPOLYLINE
  5
102
330
1F
100
AcDbEntity
  8
0
  6
Continuous
 62
     7
370
    18
100
AcDbPolyline
 90
        3
 70
   128
 43
0.0
 10
153.4423235081
 20
181.4288016075
 10
153.1284640752
 20
180.8851848954
 10
152.8818610333
 20
180.4580570797
  0
LWPOLYLINE
  5
103
330
1F
100
AcDbEntity
  8
0
  6
Continuous
 62
     7
370
    18
100
AcDbPolyline
 90
        3
 70
   128
 43
0.0
 10
155.3214046381
 20
161.787312817
 10
155.6352603458
 20
162.3309295291
 10
155.8818633877
 20
162.7580573449
  0
LWPOLYLINE
  5
104
330
1F
100
AcDbEntity
  8
0
  6
Continuous
 62
     7
370
    18
100
AcDbPolyline
 90
        3
 70
   128
 43
0.0
 10
155.8818633877
 20
180.4580570797
 10
155.5680039547
 20
181.0016737917
 10
155.3214046381
 20
181.4288016075
  0
LWPOLYLINE
  5
105
330
1F
100
AcDbEntity
  8
0
  6
Continuous
 62
     7
370
    18
100
AcDbPolyline
 90
        3
 70
   128
 43
0.0
 10
152.8818610333
 20
162.7580573449
 10
153.1957204662
 20
162.2144406328
 10
153.4423235081
 20
161.787312817
  0
LWPOLYLINE
  5
106
330
1F
100
AcDbEntity
  8
0
  6
Continuous
 62
     7
370
    18
100
AcDbPolyline
 90
        3
 70
   128
 43
0.0
 10
156.4423221372
 20
181.4288016075
 10
156.1284664295
 20
180.8851848954
 10
155.8818633877
 20
180.4580570797
  0
LWPOLYLINE
  5
107
330
1F
100
AcDbEntity
  8
0
  6
Continuous
 62
     7
370
    18
100
AcDbPolyline
 90
        3
 70
   128
 43
0.0
 10
158.3214032672
 20
161.787312817
 10
158.6352589749
 20
162.3309295291
 10
158.8818620167
 20
162.7580573449
  0
LWPOLYLINE
  5
108
330
1F
100
AcDbEntity
  8
0
  6
Continuous
 62
     7
370
    18
100
AcDbPolyline
 90
        3
 70
   128
 43
0.0
 10
158.8818620167
 20
180.4580570797
 10
158.5680063091
 20
181.0016737917
 10
158.3214032672
 20
181.4288016075
  0
LWPOLYLINE
  5
109
330
1F
100
AcDbEntity
  8
0
  6
Continuous
 62
     7
370
    18
100
AcDbPolyline
 90
        3
 70
   128
 43
0.0
 10
155.8818633877
 20
162.7580573449
 10
156.1957190953
 20
162.2144406328
 10
156.4423221372
 20
161.787312817
  0
SPLINE
  5
10A
330
1F
100
AcDbEntity
  8
0
  6
Continuous
 62
     7
370
    18
100
AcDbSpline
210
0.0
220
0.0
230
1.0
 70
    24
 71
     3
 72
    14
 73
    10
 74
     0
 42
0.000000001
 43
0.00000001
 40
0.0
 40
0.0
 40
0.0
 40
0.0
 40
0.25
 40
0.25
 40
0.5
 40
0.5
 40
0.75
 40
0.75
 40
1.0
 40
1.0
 40
1.0
 40
1.0
 10
123.1490106012608
 20
165.1445053807998
 30
0.0
 10
123.1490106012608
 20
165.3278350700406
 30
0.0
 10
123.1490106012608
 20
165.6273502777876
 30
0.0
 10
123.1490106012608
 20
166.4566495897239
 30
0.0
 10
123.1490106012608
 20
166.9861940916342
 30
0.0
 10
123.1490106012608
 20
168.1946953276092
 30
0.0
 10
123.1490106012608
 20
168.8715657845344
 30
0.0
 10
123.1490106012608
 20
170.2493026728923
 30
0.0
 10
123.1490106012608
 20
170.9483600789607
 30
0.0
 10
123.1490106012608
 20
171.6080570369826
 30
0.0
  0
SPLINE
  5
10B
330
1F
100
AcDbEntity
  8
0
  6
Continuous
 62
     7
370
    18
100
AcDbSpline
210
0.0
220
0.0
230
1.0
 70
    24
 71
     3
 72
    10
 73
     6
 74
     0
 42
0.000000001
 43
0.00000001
 40
0.0
 40
0.0
 40
0.0
 40
0.0
 40
0.5
 40
0.5
 40
1.0
 40
1.0
 40
1.0
 40
1.0
 10
122.8490106010675
 20
171.6080570369826
 30
0.0
 10
122.9197212792826
 20
171.6080570369826
 30
0.0
 10
123.002563991752
 20
171.6080570369826
 30
0.0
 10
123.1197212792628
 20
171.6080570369826
 30
0.0
 10
123.1490106011636
 20
171.6080570369826
 30
0.0
 10
123.1490106012608
 20
171.6080570369826
 30
0.0
  0
SPLINE
  5
10C
330
1F
100
AcDbEntity
  8
0
  6
Continuous
 62
     7
370
    18
100
AcDbSpline
210
0.0
220
0.0
230
1.0
 70
    24
 71
     3
 72
    10
 73
     6
 74
     0
 42
0.000000001
 43
0.00000001
 40
0.0
 40
0.0
 40
0.0
 40
0.0
 40
0.4999999999999999
 40
0.4999999999999999
 40
1.0
 40
1.0
 40
1.0
 40
1.0
 10
122.8490106008749
 20
171.6080570341112
 30
0.0
 10
122.8490106008749
 20
169.8917671794911
 30
0.0
 10
122.8490106008749
 20
168.235112390893
 30
0.0
 10
122.8490106008749
 20
165.6714214085313
 30
0.0
 10
122.8490106008749
 20
164.8534645039789
 30
0.0
 10
122.8490106008749
 20
164.6550103432596
 30
0.0
  0
SPLINE
  5
10D
330
1F
100
AcDbEntity
  8
0
  6
Continuous
 62
     7
370
    18
100
AcDbSpline
210
0.0
220
0.0
230
1.0
 70
     8
 71
     3
 72
    14
 73
    10
 74
     0
 42
0.000000001
 43
0.00000001
 40
0.0
 40
0.0
 40
0.0
 40
0.0
 40
0.25
 40
0.25
 40
0.5
 40
0.5
 40
0.75
 40
0.75
 40
1.0
 40
1.0
 40
1.0
 40
1.0
 10
122.8490106008749
 20
164.6550103429826
 30
0.0
 10
122.8701994648749
 20
164.6678999799826
 30
0.0
 10
122.8953557288749
 20
164.6850471369826
 30
0.0
 10
122.9523233608749
 20
164.7330055049826
 30
0.0
 10
122.9842343888749
 20
164.7639576389826
 30
0.0
 10
123.0479228568749
 20
164.8435410549826
 30
0.0
 10
123.0800254585416
 20
164.8925003193159
 30
0.0
 10
123.1310626878749
 20
165.0101275699826
 30
0.0
 10
123.1490106008749
 20
165.0774741539826
 30
0.0
 10
123.1490106008749
 20
165.1445053819826
 30
0.0
  0
SPLINE
  5
10E
330
1F
100
AcDbEntity
  8
0
  6
Continuous
 62
     7
370
    18
100
AcDbSpline
210
0.0
220
0.0
230
1.0
 70
    27
 71
     3
 72
    12
 73
     8
 74
     0
 42
0.000000001
 43
0.00000001
 40
0.0
 40
0.0
 40
0.0
 40
0.0
 40
0.3333333333333333
 40
0.3333333333333333
 40
0.6666666666666665
 40
0.6666666666666665
 40
0.9999999999999999
 40
0.9999999999999999
 40
0.9999999999999999
 40
0.9999999999999999
 10
128.8490106008749
 20
171.6080570369826
 30
0.0
 10
128.8490106008749
 20
174.1085510509575
 30
0.0
 10
128.8490106008749
 20
176.4199878572609
 30
0.0
 10
128.8490106008749
 20
178.9204818706436
 30
0.0
 10
128.8490106008749
 20
178.9204818700962
 30
0.0
 10
128.8490106008749
 20
176.4199878549369
 30
0.0
 10
128.8490106008749
 20
174.108551048086
 30
0.0
 10
128.8490106008749
 20
171.6080570341112
 30
0.0
  0
SPLINE
  5
10F
330
1F
100
AcDbEntity
  8
0
  6
Continuous
 62
     7
370
    18
100
AcDbSpline
210
0.0
220
0.0
230
1.0
 70
    27
 71
     3
 72
    14
 73
    10
 74
     0
 42
0.000000001
 43
0.00000001
 40
0.0
 40
0.0
 40
0.0
 40
0.0
 40
0.25
 40
0.25
 40
0.5000000000000001
 40
0.5000000000000001
 40
0.75
 40
0.75
 40
1.0
 40
1.0
 40
1.0
 40
1.0
 10
128.8490106008749
 20
171.6080570341112
 30
0.0
 10
128.8490106008749
 20
169.7515941464704
 30
0.0
 10
128.8490106008749
 20
167.9710270639032
 30
0.0
 10
128.8490106008749
 20
165.3455920708492
 30
0.0
 10
128.8490106008749
 20
164.6080570367685
 30
0.0
 10
128.8490106008749
 20
164.6080570371967
 30
0.0
 10
128.8490106008749
 20
165.345592071688
 30
0.0
 10
128.8490106008749
 20
167.9710270653474
 30
0.0
 10
128.8490106008749
 20
169.7515941480848
 30
0.0
 10
128.8490106008749
 20
171.6080570357255
 30
0.0
  0
SPLINE
  5
110
330
1F
100
AcDbEntity
  8
0
  6
Continuous
 62
     7
370
    18
100
AcDbSpline
210
0.0
220
0.0
230
1.0
 70
    24
 71
     3
 72
    10
 73
     6
 74
     0
 42
0.000000001
 43
0.00000001
 40
0.0
 40
0.0
 40
0.0
 40
0.0
 40
0.5000000000000002
 40
0.5000000000000002
 40
1.0
 40
1.0
 40
1.0
 40
1.0
 10
127.4490106008749
 20
164.6550103432596
 30
0.0
 10
127.4490106008749
 20
164.8534645039789
 30
0.0
 10
127.4490106008749
 20
165.6714214085313
 30
0.0
 10
127.4490106008749
 20
168.235112390893
 30
0.0
 10
127.4490106008749
 20
169.8917671794911
 30
0.0
 10
127.4490106008749
 20
171.6080570341112
 30
0.0
  0
SPLINE
  5
111
330
1F
100
AcDbEntity
  8
0
  6
Continuous
 62
     7
370
    18
100
AcDbSpline
210
0.0
220
0.0
230
1.0
 70
    27
 71
     3
 72
    12
 73
     8
 74
     0
 42
0.000000001
 43
0.00000001
 40
0.0
 40
0.0
 40
0.0
 40
0.0
 40
0.3333333333333332
 40
0.3333333333333332
 40
0.6666666666666665
 40
0.6666666666666665
 40
0.9999999999999999
 40
0.9999999999999999
 40
0.9999999999999999
 40
0.9999999999999999
 10
127.4490106008749
 20
171.6080570341112
 30
0.0
 10
127.4490106008749
 20
174.108551048086
 30
0.0
 10
127.4490106008749
 20
176.4199878549369
 30
0.0
 10
127.4490106008749
 20
178.9204818700962
 30
0.0
 10
127.4490106008749
 20
178.9204818706436
 30
0.0
 10
127.4490106008749
 20
176.4199878572609
 30
0.0
 10
127.4490106008749
 20
174.1085510509575
 30
0.0
 10
127.4490106008749
 20
171.6080570369826
 30
0.0
  0
SPLINE
  5
112
330
1F
100
AcDbEntity
  8
0
  6
Continuous
 62
     7
370
    18
100
AcDbSpline
210
0.0
220
0.0
230
1.0
 70
     8
 71
     3
 72
    14
 73
    10
 74
     0
 42
0.000000001
 43
0.00000001
 40
0.0
 40
0.0
 40
0.0
 40
0.0
 40
0.25
 40
0.25
 40
0.5
 40
0.5
 40
0.75
 40
0.75
 40
1.0
 40
1.0
 40
1.0
 40
1.0
 10
127.1490106008749
 20
165.1445053819826
 30
0.0
 10
127.1490106008749
 20
165.0773772059826
 30
0.0
 10
127.1669829678749
 20
165.0100427249826
 30
0.0
 10
127.2180560265416
 20
164.8923899169826
 30
0.0
 10
127.2501872033749
 20
164.8434017999826
 30
0.0
 10
127.3139941293749
 20
164.7637269319826
 30
0.0
 10
127.3457995938749
 20
164.7329042223159
 30
0.0
 10
127.4028823858749
 20
164.6848802369826
 30
0.0
 10
127.4279442268749
 20
164.6678254659826
 30
0.0
 10
127.4490106008749
 20
164.6550103429826
 30
0.0
  0
SPLINE
  5
113
330
1F
100
AcDbEntity
  8
0
  6
Continuous
 62
     7
370
    18
100
AcDbSpline
210
0.0
220
0.0
230
1.0
 70
    24
 71
     3
 72
    10
 73
     6
 74
     0
 42
0.000000001
 43
0.00000001
 40
0.0
 40
0.0
 40
0.0
 40
0.0
 40
0.5
 40
0.5
 40
1.0
 40
1.0
 40
1.0
 40
1.0
 10
127.4490106006824
 20
171.6080570369826
 30
0.0
 10
127.3782999224673
 20
171.6080570369826
 30
0.0
 10
127.2954572099978
 20
171.6080570369826
 30
0.0
 10
127.178299922487
 20
171.6080570369826
 30
0.0
 10
127.1490106005863
 20
171.6080570369826
 30
0.0
 10
127.1490106004891
 20
171.6080570369826
 30
0.0
  0
SPLINE
  5
114
330
1F
100
AcDbEntity
  8
0
  6
Continuous
 62
     7
370
    18
100
AcDbSpline
210
0.0
220
0.0
230
1.0
 70
    24
 71
     3
 72
    14
 73
    10
 74
     0
 42
0.000000001
 43
0.00000001
 40
0.0
 40
0.0
 40
0.0
 40
0.0
 40
0.2500000000000001
 40
0.2500000000000001
 40
0.5000000000000001
 40
0.5000000000000001
 40
0.7500000000000002
 40
0.7500000000000002
 40
1.0
 40
1.0
 40
1.0
 40
1.0
 10
127.149010600489
 20
171.6080570369826
 30
0.0
 10
127.1490106004891
 20
170.9483600789607
 30
0.0
 10
127.149010600489
 20
170.2493026728924
 30
0.0
 10
127.1490106004891
 20
168.8715657845345
 30
0.0
 10
127.1490106004891
 20
168.1946953276092
 30
0.0
 10
127.149010600489
 20
166.9861940916342
 30
0.0
 10
127.149010600489
 20
166.4566495897239
 30
0.0
 10
127.149010600489
 20
165.6273502777876
 30
0.0
 10
127.149010600489
 20
165.3278350700406
 30
0.0
 10
127.149010600489
 20
165.1445053807998
 30
0.0
  0
SPLINE
  5
115
330
1F
100
AcDbEntity
  8
0
  6
Continuous
 62
     7
370
    18
100
AcDbSpline
210
0.0
220
0.0
230
1.0
 70
    24
 71
     3
 72
    20
 73
    16
 74
     0
 42
0.000000001
 43
0.00000001
 40
0.0
 40
0.0
 40
0.0
 40
0.0
 40
0.1250000000000001
 40
0.1250000000000001
 40
0.2500000000000002
 40
0.2500000000000002
 40
0.3750000000000003
 40
0.3750000000000003
 40
0.5000000000000004
 40
0.5000000000000004
 40
0.6250000000000003
 40
0.6250000000000003
 40
0.7500000000000002
 40
0.7500000000000002
 40
1.0
 40
1.0
 40
1.0
 40
1.0
 10
127.1490106004891
 20
178.3080570371094
 30
0.0
 10
127.1490106004891
 20
178.3080570371083
 30
0.0
 10
127.1490106004891
 20
178.237224689966
 30
0.0
 10
127.1490106004891
 20
177.9665816919317
 30
0.0
 10
127.149010600489
 20
177.7671112470143
 30
0.0
 10
127.1490106004891
 20
177.2725322389305
 30
0.0
 10
127.1490106004891
 20
176.9778637550377
 30
0.0
 10
127.149010600489
 20
176.3341407300678
 30
0.0
 10
127.1490106004891
 20
175.9853903703942
 30
0.0
 10
127.1490106004891
 20
175.2707237037146
 30
0.0
 10
127.1490106004891
 20
174.9049092863365
 30
0.0
 10
127.1490106004891
 20
174.1831149000929
 30
0.0
 10
127.149010600489
 20
173.8270970370222
 30
0.0
 10
127.149010600489
 20
172.7979770370039
 30
0.0
 10
127.1490106004891
 20
172.1663903703259
 30
0.0
 10
127.149010600489
 20
171.6080570369826
 30
0.0
  0
SPLINE
  5
116
330
1F
100
AcDbEntity
  8
0
  6
Continuous
 62
     7
370
    18
100
AcDbSpline
210
0.0
220
0.0
230
1.0
 70
    24
 71
     3
 72
    20
 73
    16
 74
     0
 42
0.000000001
 43
0.00000001
 40
0.0
 40
0.0
 40
0.0
 40
0.0
 40
0.2499999999999998
 40
0.2499999999999998
 40
0.3749999999999999
 40
0.3749999999999999
 40
0.4999999999999999
 40
0.4999999999999999
 40
0.6249999999999999
 40
0.6249999999999999
 40
0.75
 40
0.75
 40
0.875
 40
0.875
 40
1.0
 40
1.0
 40
1.0
 40
1.0
 10
123.1490106012608
 20
171.6080570369826
 30
0.0
 10
123.1490106012608
 20
172.1663903703271
 30
0.0
 10
123.1490106012608
 20
172.7979770370064
 30
0.0
 10
123.1490106012608
 20
173.8270970370271
 30
0.0
 10
123.1490106012608
 20
174.1831149000986
 30
0.0
 10
123.1490106012608
 20
174.9049092863438
 30
0.0
 10
123.1490106012608
 20
175.2707237037226
 30
0.0
 10
123.1490106012608
 20
175.9853903704034
 30
0.0
 10
123.1490106012608
 20
176.3341407300774
 30
0.0
 10
123.1490106012608
 20
176.9778637550475
 30
0.0
 10
123.1490106012608
 20
177.27253223894
 30
0.0
 10
123.1490106012608
 20
177.7671112470226
 30
0.0
 10
123.1490106012608
 20
177.9665816919389
 30
0.0
 10
123.1490106012608
 20
178.2372246899701
 30
0.0
 10
123.1490106012608
 20
178.3080570371105
 30
0.0
 10
123.1490106012608
 20
178.3080570371094
 30
0.0
  0
SPLINE
  5
117
330
1F
100
AcDbEntity
  8
0
  6
Continuous
 62
     7
370
    18
100
AcDbSpline
210
0.0
220
0.0
230
1.0
 70
    24
 71
     3
 72
    10
 73
     6
 74
     0
 42
0.000000001
 43
0.00000001
 40
0.0
 40
0.0
 40
0.0
 40
0.0
 40
0.5
 40
0.5
 40
1.0
 40
1.0
 40
1.0
 40
1.0
 10
129.1490106012608
 20
171.6080570369826
 30
0.0
 10
129.1490106011636
 20
171.6080570369826
 30
0.0
 10
129.1197212792628
 20
171.6080570369826
 30
0.0
 10
129.002563991752
 20
171.6080570369826
 30
0.0
 10
128.9197212792826
 20
171.6080570369826
 30
0.0
 10
128.8490106010675
 20
171.6080570369826
 30
0.0
  0
SPLINE
  5
118
330
1F
100
AcDbEntity
  8
0
  6
Continuous
 62
     7
370
    18
100
AcDbSpline
210
0.0
220
0.0
230
1.0
 70
    24
 71
     3
 72
    10
 73
     6
 74
     0
 42
0.000000001
 43
0.00000001
 40
0.0
 40
0.0
 40
0.0
 40
0.0
 40
0.5
 40
0.5
 40
1.0
 40
1.0
 40
1.0
 40
1.0
 10
128.8490106010675
 20
171.6080570369826
 30
0.0
 10
128.9197212792826
 20
171.6080570369826
 30
0.0
 10
129.002563991752
 20
171.6080570369826
 30
0.0
 10
129.1197212792628
 20
171.6080570369826
 30
0.0
 10
129.1490106011636
 20
171.6080570369826
 30
0.0
 10
129.1490106012608
 20
171.6080570369826
 30
0.0
  0
SPLINE
  5
119
330
1F
100
AcDbEntity
  8
0
  6
Continuous
 62
     7
370
    18
100
AcDbSpline
210
0.0
220
0.0
230
1.0
 70
    24
 71
     3
 72
    25
 73
    21
 74
     0
 42
0.000000001
 43
0.00000001
 40
0.0
 40
0.0
 40
0.0
 40
0.0
 40
0.0250529546961805
 40
0.0500478753371753
 40
0.0750234212544378
 40
0.1000183416859154
 40
0.1250712959704197
 40
0.1875858261821788
 40
0.2501003567404746
 40
0.3126148877363533
 40
0.3751294184057043
 40
0.5000071476030017
 40
0.6248848768002988
 40
0.68739940746965
 40
0.7499139384655285
 40
0.8124284690238245
 40
0.8749429992355832
 40
0.916658544397217
 40
0.9582844542572011
 40
1.0
 40
1.0
 40
1.0
 40
1.0
 10
129.1490106008749
 20
178.3080570336594
 30
0.0
 10
129.1490106008749
 20
178.3070689930143
 30
0.0
 10
129.1490106008749
 20
178.3050952004762
 30
0.0
 10
129.1490106008749
 20
178.289062674273
 30
0.0
 10
129.1490106008749
 20
178.2634506781712
 30
0.0
 10
129.1490106008749
 20
178.2273242634317
 30
0.0
 10
129.1490106008749
 20
178.1579013508524
 30
0.0
 10
129.1490106008749
 20
178.030006452911
 30
0.0
 10
129.1490106008749
 20
177.807941196866
 30
0.0
 10
129.1490106008749
 20
177.5265282153447
 30
0.0
 10
129.1490106008749
 20
177.0753451487815
 30
0.0
 10
129.1490106008749
 20
176.3763230994238
 30
0.0
 10
129.1490106008749
 20
175.5240107707592
 30
0.0
 10
129.1490106008749
 20
174.7715865131553
 30
0.0
 10
129.1490106008749
 20
174.1761193273297
 30
0.0
 10
129.1490106008749
 20
173.5561523842175
 30
0.0
 10
129.1490106008749
 20
172.9880552409434
 30
0.0
 10
129.1490106008749
 20
172.4832242488224
 30
0.0
 10
129.1490106008749
 20
172.0465737349949
 30
0.0
 10
129.1490106008749
 20
171.7543340400939
 30
0.0
 10
129.1490106008749
 20
171.6080570369826
 30
0.0
  0
SPLINE
  5
11A
330
1F
100
AcDbEntity
  8
0
  6
Continuous
 62
     7
370
    18
100
AcDbSpline
210
0.0
220
0.0
230
1.0
 70
    24
 71
     3
 72
    25
 73
    21
 74
     0
 42
0.000000001
 43
0.00000001
 40
0.0
 40
0.0
 40
0.0
 40
0.0
 40
0.0250529547012751
 40
0.0500478753409906
 40
0.0750234212569811
 40
0.1000183416871891
 40
0.1250712959704197
 40
0.1875858261821789
 40
0.2501003567404746
 40
0.3126148877363533
 40
0.3751294184057044
 40
0.5000071476030016
 40
0.6248848768002989
 40
0.6873994074696499
 40
0.7499139384655285
 40
0.8124284690238243
 40
0.8749429992355833
 40
0.916658544395097
 40
0.9582844542529622
 40
1.0
 40
1.0
 40
1.0
 40
1.0
 10
129.1490106008749
 20
171.6080570369826
 30
0.0
 10
129.1490106008749
 20
171.5202179988567
 30
0.0
 10
129.1490106008749
 20
171.3447433978518
 30
0.0
 10
129.1490106008749
 20
171.0821039932446
 30
0.0
 10
129.1490106008749
 20
170.8204813601832
 30
0.0
 10
129.1490106008749
 20
170.5598693218513
 30
0.0
 10
129.1490106008749
 20
170.1713204848156
 30
0.0
 10
129.1490106008749
 20
169.6599505947933
 30
0.0
 10
129.1490106008749
 20
169.039997711556
 30
0.0
 10
129.1490106008749
 20
168.4445267960826
 30
0.0
 10
129.1490106008749
 20
167.6921036827408
 30
0.0
 10
129.1490106008749
 20
166.8397913765518
 30
0.0
 10
129.1490106008749
 20
166.1407673391306
 30
0.0
 10
129.1490106008749
 20
165.6895886368113
 30
0.0
 10
129.1490106008749
 20
165.4081622613105
 30
0.0
 10
129.1490106008749
 20
165.1861473060177
 30
0.0
 10
129.1490106008749
 20
165.0438861221201
 30
0.0
 10
129.1490106008749
 20
164.960893245357
 30
0.0
 10
129.1490106008749
 20
164.9162792714965
 30
0.0
 10
129.1490106008749
 20
164.9107997484922
 30
0.0
 10
129.1490106008749
 20
164.9080570403058
 30
0.0
  0
SPLINE
  5
11B
330
1F
100
AcDbEntity
  8
0
  6
Continuous
 62
     7
370
    18
100
AcDbSpline
210
0.0
220
0.0
230
1.0
 70
    24
 71
     3
 72
    10
 73
     6
 74
     0
 42
0.000000001
 43
0.00000001
 40
0.0
 40
0.0
 40
0.0
 40
0.0
 40
0.5
 40
0.5
 40
1.0
 40
1.0
 40
1.0
 40
1.0
 10
121.1490106004891
 20
171.6080570369826
 30
0.0
 10
121.1490106005863
 20
171.6080570369826
 30
0.0
 10
121.178299922487
 20
171.6080570369826
 30
0.0
 10
121.2954572099979
 20
171.6080570369826
 30
0.0
 10
121.3782999224673
 20
171.6080570369826
 30
0.0
 10
121.4490106006824
 20
171.6080570369826
 30
0.0
  0
SPLINE
  5
11C
330
1F
100
AcDbEntity
  8
0
  6
Continuous
 62
     7
370
    18
100
AcDbSpline
210
0.0
220
0.0
230
1.0
 70
    24
 71
     3
 72
    25
 73
    21
 74
     0
 42
0.000000001
 43
0.00000001
 40
0.0
 40
0.0
 40
0.0
 40
0.0
 40
0.0250529547012752
 40
0.0500478753409905
 40
0.0750234212569812
 40
0.1000183416871889
 40
0.1250712959704198
 40
0.1875858261821786
 40
0.2501003567404746
 40
0.312614887736353
 40
0.3751294184057042
 40
0.5000071476030015
 40
0.6248848768002988
 40
0.6873994074696499
 40
0.7499139384655285
 40
0.8124284690238244
 40
0.8749429992355832
 40
0.9166585443950973
 40
0.958284454252962
 40
1.0
 40
1.0
 40
1.0
 40
1.0
 10
121.1490106008749
 20
171.6080570369826
 30
0.0
 10
121.1490106008749
 20
171.6958960751085
 30
0.0
 10
121.1490106008749
 20
171.8713706761135
 30
0.0
 10
121.1490106008749
 20
172.1340100807206
 30
0.0
 10
121.1490106008749
 20
172.395632713782
 30
0.0
 10
121.1490106008749
 20
172.6562447521139
 30
0.0
 10
121.1490106008749
 20
173.0447935891497
 30
0.0
 10
121.1490106008749
 20
173.5561634791719
 30
0.0
 10
121.1490106008749
 20
174.1761163624092
 30
0.0
 10
121.1490106008749
 20
174.7715872778827
 30
0.0
 10
121.1490106008749
 20
175.5240103912244
 30
0.0
 10
121.1490106008749
 20
176.3763226974134
 30
0.0
 10
121.1490106008749
 20
177.0753467348346
 30
0.0
 10
121.1490106008749
 20
177.5265254371539
 30
0.0
 10
121.1490106008749
 20
177.8079518126547
 30
0.0
 10
121.1490106008749
 20
178.0299667679475
 30
0.0
 10
121.1490106008749
 20
178.1722279518451
 30
0.0
 10
121.1490106008749
 20
178.2552208286082
 30
0.0
 10
121.1490106008749
 20
178.2998348024687
 30
0.0
 10
121.1490106008749
 20
178.305314325473
 30
0.0
 10
121.1490106008749
 20
178.3080570336594
 30
0.0
  0
SPLINE
  5
11D
330
1F
100
AcDbEntity
  8
0
  6
Continuous
 62
     7
370
    18
100
AcDbSpline
210
0.0
220
0.0
230
1.0
 70
    24
 71
     3
 72
    25
 73
    21
 74
     0
 42
0.000000001
 43
0.00000001
 40
0.0
 40
0.0
 40
0.0
 40
0.0
 40
0.0250529546961802
 40
0.0500478753371751
 40
0.0750234212544376
 40
0.1000183416859151
 40
0.1250712959704197
 40
0.1875858261821788
 40
0.2501003567404746
 40
0.3126148877363534
 40
0.3751294184057042
 40
0.5000071476030015
 40
0.6248848768002986
 40
0.6873994074696497
 40
0.7499139384655282
 40
0.8124284690238243
 40
0.8749429992355832
 40
0.9166585443972167
 40
0.958284454257201
 40
1.0
 40
1.0
 40
1.0
 40
1.0
 10
121.1490106008749
 20
164.9080570403058
 30
0.0
 10
121.1490106008749
 20
164.9090450809509
 30
0.0
 10
121.1490106008749
 20
164.911018873489
 30
0.0
 10
121.1490106008749
 20
164.9270513996923
 30
0.0
 10
121.1490106008749
 20
164.952663395794
 30
0.0
 10
121.1490106008749
 20
164.9887898105335
 30
0.0
 10
121.1490106008749
 20
165.0582127231128
 30
0.0
 10
121.1490106008749
 20
165.1861076210542
 30
0.0
 10
121.1490106008749
 20
165.4081728770992
 30
0.0
 10
121.1490106008749
 20
165.6895858586206
 30
0.0
 10
121.1490106008749
 20
166.1407689251837
 30
0.0
 10
121.1490106008749
 20
166.8397909745414
 30
0.0
 10
121.1490106008749
 20
167.692103303206
 30
0.0
 10
121.1490106008749
 20
168.4445275608099
 30
0.0
 10
121.1490106008749
 20
169.0399947466355
 30
0.0
 10
121.1490106008749
 20
169.6599616897477
 30
0.0
 10
121.1490106008749
 20
170.2280588330218
 30
0.0
 10
121.1490106008749
 20
170.7328898251429
 30
0.0
 10
121.1490106008749
 20
171.1695403389703
 30
0.0
 10
121.1490106008749
 20
171.4617800338713
 30
0.0
 10
121.1490106008749
 20
171.6080570369826
 30
0.0
  0
SPLINE
  5
11E
330
1F
100
AcDbEntity
  8
0
  6
Continuous
 62
     7
370
    18
100
AcDbSpline
210
0.0
220
0.0
230
1.0
 70
    24
 71
     3
 72
    10
 73
     6
 74
     0
 42
0.000000001
 43
0.00000001
 40
0.0
 40
0.0
 40
0.0
 40
0.0
 40
0.5
 40
0.5
 40
1.0
 40
1.0
 40
1.0
 40
1.0
 10
113.8490106010675
 20
171.6080570369826
 30
0.0
 10
113.9197212792825
 20
171.6080570369826
 30
0.0
 10
114.002563991752
 20
171.6080570369826
 30
0.0
 10
114.1197212792628
 20
171.6080570369826
 30
0.0
 10
114.1490106011635
 20
171.6080570369826
 30
0.0
 10
114.1490106012608
 20
171.6080570369826
 30
0.0
  0
SPLINE
  5
11F
330
1F
100
AcDbEntity
  8
0
  6
Continuous
 62
     7
370
    18
100
AcDbSpline
210
0.0
220
0.0
230
1.0
 70
    24
 71
     3
 72
    20
 73
    16
 74
     0
 42
0.000000001
 43
0.00000001
 40
0.0
 40
0.0
 40
0.0
 40
0.0
 40
0.25
 40
0.25
 40
0.375
 40
0.375
 40
0.5
 40
0.5
 40
0.625
 40
0.625
 40
0.75
 40
0.75
 40
0.875
 40
0.875
 40
1.0
 40
1.0
 40
1.0
 40
1.0
 10
114.1490106012608
 20
171.6080570369826
 30
0.0
 10
114.1490106012608
 20
172.041390370327
 30
0.0
 10
114.1490106012608
 20
172.5315770370061
 30
0.0
 10
114.1490106012608
 20
173.3302970370265
 30
0.0
 10
114.1490106012608
 20
173.6066094083671
 30
0.0
 10
114.1490106012608
 20
174.1668080365008
 30
0.0
 10
114.1490106012608
 20
174.4507237037217
 30
0.0
 10
114.1490106012608
 20
175.0053903704023
 30
0.0
 10
114.1490106012608
 20
175.2760622913449
 30
0.0
 10
114.1490106012608
 20
175.7756682211751
 30
0.0
 10
114.1490106012608
 20
176.0043661489736
 30
0.0
 10
114.1490106012608
 20
176.3882185134576
 30
0.0
 10
114.1490106012608
 20
176.5430313960801
 30
0.0
 10
114.1490106012608
 20
176.7530826781353
 30
0.0
 10
114.1490106012608
 20
176.8080570371103
 30
0.0
 10
114.1490106012608
 20
176.8080570371094
 30
0.0
  0
SPLINE
  5
120
330
1F
100
AcDbEntity
  8
0
  6
Continuous
 62
     7
370
    18
100
AcDbSpline
210
0.0
220
0.0
230
1.0
 70
    24
 71
     3
 72
    20
 73
    16
 74
     0
 42
0.000000001
 43
0.00000001
 40
0.0
 40
0.0
 40
0.0
 40
0.0
 40
0.1249999999999999
 40
0.1249999999999999
 40
0.2499999999999999
 40
0.2499999999999999
 40
0.3749999999999999
 40
0.3749999999999999
 40
0.4999999999999999
 40
0.4999999999999999
 40
0.625
 40
0.625
 40
0.75
 40
0.75
 40
1.0
 40
1.0
 40
1.0
 40
1.0
 10
114.1490106012608
 20
166.4080570368558
 30
0.0
 10
114.1490106012608
 20
166.4080570368567
 30
0.0
 10
114.1490106012608
 20
166.4630313958331
 30
0.0
 10
114.1490106012608
 20
166.6730826778907
 30
0.0
 10
114.1490106012608
 20
166.827895560514
 30
0.0
 10
114.1490106012608
 20
167.2117479249991
 30
0.0
 10
114.1490106012608
 20
167.4404458527977
 30
0.0
 10
114.1490106012608
 20
167.9400517826278
 30
0.0
 10
114.1490106012608
 20
168.21072370357
 30
0.0
 10
114.1490106012608
 20
168.7653903702497
 30
0.0
 10
114.1490106012608
 20
169.0493060374701
 30
0.0
 10
114.1490106012608
 20
169.6095046656025
 30
0.0
 10
114.1490106012608
 20
169.8858170369425
 30
0.0
 10
114.1490106012608
 20
170.6845370369611
 30
0.0
 10
114.1490106012608
 20
171.1747237036392
 30
0.0
 10
114.1490106012608
 20
171.6080570369826
 30
0.0
  0
SPLINE
  5
121
330
1F
100
AcDbEntity
  8
0
  6
Continuous
 62
     7
370
    18
100
AcDbSpline
210
0.0
220
0.0
230
1.0
 70
    24
 71
     3
 72
    10
 73
     6
 74
     0
 42
0.000000001
 43
0.00000001
 40
0.0
 40
0.0
 40
0.0
 40
0.0
 40
0.5
 40
0.5
 40
1.0
 40
1.0
 40
1.0
 40
1.0
 10
112.1490106004891
 20
171.6080570369826
 30
0.0
 10
112.1490106005863
 20
171.6080570369826
 30
0.0
 10
112.178299922487
 20
171.6080570369826
 30
0.0
 10
112.2954572099979
 20
171.6080570369826
 30
0.0
 10
112.3782999224673
 20
171.6080570369826
 30
0.0
 10
112.4490106006824
 20
171.6080570369826
 30
0.0
  0
SPLINE
  5
122
330
1F
100
AcDbEntity
  8
0
  6
Continuous
 62
     7
370
    18
100
AcDbSpline
210
0.0
220
0.0
230
1.0
 70
    24
 71
     3
 72
    25
 73
    21
 74
     0
 42
0.000000001
 43
0.00000001
 40
0.0
 40
0.0
 40
0.0
 40
0.0
 40
0.0250529547012752
 40
0.0500478753409905
 40
0.0750234212569812
 40
0.1000183416871888
 40
0.1250712959704198
 40
0.1875858261821786
 40
0.2501003567404746
 40
0.312614887736353
 40
0.3751294184057043
 40
0.5000071476030015
 40
0.6248848768002987
 40
0.6873994074696498
 40
0.7499139384655283
 40
0.8124284690238243
 40
0.874942999235583
 40
0.9166585443950973
 40
0.958284454252962
 40
1.0
 40
1.0
 40
1.0
 40
1.0
 10
112.1490106008749
 20
171.6080570369826
 30
0.0
 10
112.1490106008749
 20
171.6762306188117
 30
0.0
 10
112.1490106008749
 20
171.8124198613827
 30
0.0
 10
112.1490106008749
 20
172.0162593992868
 30
0.0
 10
112.1490106008749
 20
172.2193098010657
 30
0.0
 10
112.1490106008749
 20
172.4215758606666
 30
0.0
 10
112.1490106008749
 20
172.7231361520973
 30
0.0
 10
112.1490106008749
 20
173.120020245846
 30
0.0
 10
112.1490106008749
 20
173.601177707463
 30
0.0
 10
112.1490106008749
 20
174.0633342388752
 30
0.0
 10
112.1490106008749
 20
174.6473044163941
 30
0.0
 10
112.1490106008749
 20
175.3088005346304
 30
0.0
 10
112.1490106008749
 20
175.851326653226
 30
0.0
 10
112.1490106008749
 20
176.2014951983096
 30
0.0
 10
112.1490106008749
 20
176.4199156688475
 30
0.0
 10
112.1490106008749
 20
176.5922257834031
 30
0.0
 10
112.1490106008749
 20
176.7026374485177
 30
0.0
 10
112.1490106008749
 20
176.7670498304831
 30
0.0
 10
112.1490106008749
 20
176.8016756012405
 30
0.0
 10
112.1490106008749
 20
176.8059283653632
 30
0.0
 10
112.1490106008749
 20
176.8080570344034
 30
0.0
  0
SPLINE
  5
123
330
1F
100
AcDbEntity
  8
0
  6
Continuous
 62
     7
370
    18
100
AcDbSpline
210
0.0
220
0.0
230
1.0
 70
    24
 71
     3
 72
    25
 73
    21
 74
     0
 42
0.000000001
 43
0.00000001
 40
0.0
 40
0.0
 40
0.0
 40
0.0
 40
0.0250529546961802
 40
0.0500478753371752
 40
0.0750234212544375
 40
0.1000183416859151
 40
0.1250712959704198
 40
0.1875858261821789
 40
0.2501003567404746
 40
0.3126148877363534
 40
0.3751294184057042
 40
0.5000071476030014
 40
0.6248848768002987
 40
0.6873994074696498
 40
0.7499139384655283
 40
0.8124284690238243
 40
0.8749429992355832
 40
0.9166585443972167
 40
0.958284454257201
 40
1.0
 40
1.0
 40
1.0
 40
1.0
 10
112.1490106008749
 20
166.4080570395618
 30
0.0
 10
112.1490106008749
 20
166.4088238770774
 30
0.0
 10
112.1490106008749
 20
166.4103557757637
 30
0.0
 10
112.1490106008749
 20
166.4227989304289
 30
0.0
 10
112.1490106008749
 20
166.4426768975526
 30
0.0
 10
112.1490106008749
 20
166.4707153089923
 30
0.0
 10
112.1490106008749
 20
166.5245957784568
 30
0.0
 10
112.1490106008749
 20
166.6238574902919
 30
0.0
 10
112.1490106008749
 20
166.7962066442373
 30
0.0
 10
112.1490106008749
 20
167.0146167194479
 30
0.0
 10
112.1490106008749
 20
167.3647886517059
 30
0.0
 10
112.1490106008749
 20
167.9073132273268
 30
0.0
 10
112.1490106008749
 20
168.5688093630067
 30
0.0
 10
112.1490106008749
 20
169.1527804286098
 30
0.0
 10
112.1490106008749
 20
169.6149340653699
 30
0.0
 10
112.1490106008749
 20
170.0961024391287
 30
0.0
 10
112.1490106008749
 20
170.5370136548041
 30
0.0
 10
112.1490106008749
 20
170.9288227830174
 30
0.0
 10
112.1490106008749
 20
171.2677157191223
 30
0.0
 10
112.1490106008749
 20
171.4945286166574
 30
0.0
 10
112.1490106008749
 20
171.6080570369826
 30
0.0
  0
SPLINE
  5
124
330
1F
100
AcDbEntity
  8
0
  6
Continuous
 62
     7
370
    18
100
AcDbSpline
210
0.0
220
0.0
230
1.0
 70
    24
 71
     3
 72
    23
 73
    19
 74
     0
 42
0.000000001
 43
0.00000001
 40
0.0
 40
0.0
 40
0.0
 40
0.0
 40
0.0313055084069048
 40
0.0625354171774648
 40
0.0937653257842643
 40
0.1250708337010743
 40
0.1875873933451743
 40
0.2501039533358222
 40
0.3126205137640674
 40
0.3751370738657741
 40
0.5000188570150316
 40
0.6249006401642889
 40
0.6874172002659956
 40
0.7499337606942406
 40
0.8124503206848885
 40
0.8749668803289885
 40
0.9374834398340949
 40
1.0
 40
1.0
 40
1.0
 40
1.0
 10
130.1490106008749
 20
171.6080570369826
 30
0.0
 10
130.1490106008749
 20
171.5392510255522
 30
0.0
 10
130.1490106008749
 20
171.4018051622495
 30
0.0
 10
130.1490106008749
 20
171.1962152259989
 30
0.0
 10
130.1490106008749
 20
170.9916162356583
 30
0.0
 10
130.1490106008749
 20
170.7207612657101
 30
0.0
 10
130.1490106008749
 20
170.3868585636222
 30
0.0
 10
130.1490106008749
 20
169.9982281257711
 30
0.0
 10
130.1490106008749
 20
169.6249486572572
 30
0.0
 10
130.1490106008749
 20
169.1532804767754
 30
0.0
 10
130.1490106008749
 20
168.6189928138083
 30
0.0
 10
130.1490106008749
 20
168.180807143933
 30
0.0
 10
130.1490106008749
 20
167.8979613834215
 30
0.0
 10
130.1490106008749
 20
167.7215977602524
 30
0.0
 10
130.1490106008749
 20
167.5822255613374
 30
0.0
 10
130.1490106008749
 20
167.4826648265787
 30
0.0
 10
130.1490106008749
 20
167.4196682736287
 30
0.0
 10
130.1490106008749
 20
167.4119274506004
 30
0.0
 10
130.1490106008749
 20
167.4080570390658
 30
0.0
  0
SPLINE
  5
125
330
1F
100
AcDbEntity
  8
0
  6
Continuous
 62
     7
370
    18
100
AcDbSpline
210
0.0
220
0.0
230
1.0
 70
    24
 71
     3
 72
    10
 73
     6
 74
     0
 42
0.000000001
 43
0.00000001
 40
0.0
 40
0.0
 40
0.0
 40
0.0
 40
0.5
 40
0.5
 40
1.0
 40
1.0
 40
1.0
 40
1.0
 10
129.8490106010675
 20
171.6080570369826
 30
0.0
 10
129.9197212792826
 20
171.6080570369826
 30
0.0
 10
130.002563991752
 20
171.6080570369826
 30
0.0
 10
130.1197212792628
 20
171.6080570369826
 30
0.0
 10
130.1490106011636
 20
171.6080570369826
 30
0.0
 10
130.1490106012608
 20
171.6080570369826
 30
0.0
  0
SPLINE
  5
126
330
1F
100
AcDbEntity
  8
0
  6
Continuous
 62
     7
370
    18
100
AcDbSpline
210
0.0
220
0.0
230
1.0
 70
    27
 71
     3
 72
    14
 73
    10
 74
     0
 42
0.000000001
 43
0.00000001
 40
0.0
 40
0.0
 40
0.0
 40
0.0
 40
0.25
 40
0.25
 40
0.5000000000000001
 40
0.5000000000000001
 40
0.75
 40
0.75
 40
1.0
 40
1.0
 40
1.0
 40
1.0
 10
129.8490106008749
 20
171.6080570351367
 30
0.0
 10
129.8490106008749
 20
170.4146166073676
 30
0.0
 10
129.8490106008749
 20
169.269966340003
 30
0.0
 10
129.8490106008749
 20
167.5821867016111
 30
0.0
 10
129.8490106008749
 20
167.108057036845
 30
0.0
 10
129.8490106008749
 20
167.1080570371202
 30
0.0
 10
129.8490106008749
 20
167.5821867021503
 30
0.0
 10
129.8490106008749
 20
169.2699663409314
 30
0.0
 10
129.8490106008749
 20
170.4146166084054
 30
0.0
 10
129.8490106008749
 20
171.6080570361745
 30
0.0
  0
SPLINE
  5
127
330
1F
100
AcDbEntity
  8
0
  6
Continuous
 62
     7
370
    18
100
AcDbSpline
210
0.0
220
0.0
230
1.0
 70
    24
 71
     3
 72
    10
 73
     6
 74
     0
 42
0.000000001
 43
0.00000001
 40
0.0
 40
0.0
 40
0.0
 40
0.0
 40
0.5
 40
0.5
 40
1.0
 40
1.0
 40
1.0
 40
1.0
 10
130.1490106012608
 20
171.6080570369826
 30
0.0
 10
130.1490106011636
 20
171.6080570369826
 30
0.0
 10
130.1197212792628
 20
171.6080570369826
 30
0.0
 10
130.002563991752
 20
171.6080570369826
 30
0.0
 10
129.9197212792826
 20
171.6080570369826
 30
0.0
 10
129.8490106010675
 20
171.6080570369826
 30
0.0
  0
SPLINE
  5
128
330
1F
100
AcDbEntity
  8
0
  6
Continuous
 62
     7
370
    18
100
AcDbSpline
210
0.0
220
0.0
230
1.0
 70
    27
 71
     3
 72
    12
 73
     8
 74
     0
 42
0.000000001
 43
0.00000001
 40
0.0
 40
0.0
 40
0.0
 40
0.0
 40
0.3333333333333333
 40
0.3333333333333333
 40
0.6666666666666665
 40
0.6666666666666665
 40
0.9999999999999999
 40
0.9999999999999999
 40
0.9999999999999999
 40
0.9999999999999999
 10
129.8490106008749
 20
171.6080570369826
 30
0.0
 10
129.8490106008749
 20
173.2155174745379
 30
0.0
 10
129.8490106008749
 20
174.7014411357329
 30
0.0
 10
129.8490106008749
 20
176.3089015729075
 30
0.0
 10
129.8490106008749
 20
176.3089015725556
 30
0.0
 10
129.8490106008749
 20
174.7014411342389
 30
0.0
 10
129.8490106008749
 20
173.2155174726919
 30
0.0
 10
129.8490106008749
 20
171.6080570351367
 30
0.0
  0
SPLINE
  5
129
330
1F
100
AcDbEntity
  8
0
  6
Continuous
 62
     7
370
    18
100
AcDbSpline
210
0.0
220
0.0
230
1.0
 70
    24
 71
     3
 72
    11
 73
     7
 74
     0
 42
0.000000001
 43
0.00000001
 40
0.0
 40
0.0
 40
0.0
 40
0.0
 40
0.2480286559547586
 40
0.5286410647419677
 40
0.8448331406412458
 40
1.0
 40
1.0
 40
1.0
 40
1.0
 10
130.1490108690958
 20
171.6080570376499
 30
0.0
 10
130.1490108690958
 20
171.7945808538664
 30
0.0
 10
130.1490108690958
 20
172.1921322917229
 30
0.0
 10
130.1490108690958
 20
172.812590287646
 30
0.0
 10
130.1490108690958
 20
173.3511540399645
 30
0.0
 10
130.1490108690958
 20
173.6487982644462
 30
0.0
 10
130.1490108690958
 20
173.7467799002325
 30
0.0
  0
LINE
  5
12A
330
1F
100
AcDbEntity
  8
0
  6
Continuous
 62
     7
370
    18
100
AcDbLine
 10
127.1490103774
 20
172.9347068949
 30
0.0
 11
123.149010653
 21
172.9347068949
 31
0.0
  0
LINE
  5
12B
330
1F
100
AcDbEntity
  8
0
  6
Continuous
 62
     7
370
    18
100
AcDbLine
 10
123.149010653
 20
170.281407064
 30
0.0
 11
127.1490103774
 21
170.281407064
 31
0.0
  0
SPLINE
  5
12C
330
1F
100
AcDbEntity
  8
0
  6
Continuous
 62
     7
370
    18
100
AcDbSpline
210
0.0
220
0.0
230
1.0
 70
     8
 71
     3
 72
    14
 73
    10
 74
     0
 42
0.000000001
 43
0.00000001
 40
0.0
 40
0.0
 40
0.0
 40
0.0
 40
0.0836762611521473
 40
0.1667049001914257
 40
0.2508158839822997
 40
0.4999698398158449
 40
0.7492796192960632
 40
0.8740091570941635
 40
0.9999999999999999
 40
0.9999999999999999
 40
0.9999999999999999
 40
0.9999999999999999
 10
123.4490106008749
 20
167.3529381513195
 30
0.0
 10
123.4354167842638
 20
167.3531145878641
 30
0.0
 10
123.4083343619594
 20
167.3534660954022
 30
0.0
 10
123.3684118532548
 20
167.3564154875242
 30
0.0
 10
123.3049874832049
 20
167.3641806356018
 30
0.0
 10
123.2264428381494
 20
167.38355781595
 30
0.0
 10
123.1740190042959
 20
167.4152076849921
 30
0.0
 10
123.152019931928
 20
167.4445253225358
 30
0.0
 10
123.1500170698416
 20
167.460355673894
 30
0.0
 10
123.1490106008749
 20
167.4683106686396
 30
0.0
  0
SPLINE
  5
12D
330
1F
100
AcDbEntity
  8
0
  6
Continuous
 62
     7
370
    18
100
AcDbSpline
210
0.0
220
0.0
230
1.0
 70
     8
 71
     3
 72
    11
 73
     7
 74
     0
 42
0.000000001
 43
0.00000001
 40
0.0
 40
0.0
 40
0.0
 40
0.0
 40
0.2516029273659005
 40
0.5007650754588964
 40
0.7508242773942502
 40
1.0
 40
1.0
 40
1.0
 40
1.0
 10
123.6571738648749
 20
167.3827668883415
 30
0.0
 10
123.6428046856445
 20
167.3782421798923
 30
0.0
 10
123.6142057214077
 20
167.3692366568178
 30
0.0
 10
123.5625425098273
 20
167.3600749661267
 30
0.0
 10
123.5070836532974
 20
167.3540152406826
 30
0.0
 10
123.4683454337724
 20
167.3532967572819
 30
0.0
 10
123.4490106008749
 20
167.3529381513195
 30
0.0
  0
SPLINE
  5
12E
330
1F
100
AcDbEntity
  8
0
  6
Continuous
 62
     7
370
    18
100
AcDbSpline
210
0.0
220
0.0
230
1.0
 70
     8
 71
     3
 72
    17
 73
    13
 74
     0
 42
0.000000001
 43
0.00000001
 40
0.0
 40
0.0
 40
0.0
 40
0.0
 40
0.0810181026343131
 40
0.1497488613456422
 40
0.2061913765211307
 40
0.2503453966508024
 40
0.3826540905712419
 40
0.5004634122027888
 40
0.6287002617002321
 40
0.7498493337919072
 40
0.87606658488559
 40
1.0
 40
1.0
 40
1.0
 40
1.0
 10
123.6571738656089
 20
167.3827668904432
 30
0.0
 10
123.6892883535897
 20
167.3938990977954
 30
0.0
 10
123.7486467914136
 20
167.4144751829056
 30
0.0
 10
123.835796559785
 20
167.4425191951381
 30
0.0
 10
123.9098001501415
 20
167.4652970410369
 30
0.0
 10
124.0145450327841
 20
167.4959836416982
 30
0.0
 10
124.1532447816272
 20
167.5325836651637
 30
0.0
 10
124.3415110065508
 20
167.5746959999943
 30
0.0
 10
124.5326639519649
 20
167.6087166716308
 30
0.0
 10
124.7350570122778
 20
167.6348789049519
 30
0.0
 10
124.940005178243
 20
167.651665623632
 30
0.0
 10
125.0797674630969
 20
167.6538242740386
 30
0.0
 10
125.1490106017569
 20
167.6548937451736
 30
0.0
  0
SPLINE
  5
12F
330
1F
100
AcDbEntity
  8
0
  6
Continuous
 62
     7
370
    18
100
AcDbSpline
210
0.0
220
0.0
230
1.0
 70
     8
 71
     3
 72
    16
 73
    12
 74
     0
 42
0.000000001
 43
0.00000001
 40
0.0
 40
0.0
 40
0.0
 40
0.0
 40
0.0822020591374433
 40
0.1653634907306057
 40
0.249580643994211
 40
0.3711383407280542
 40
0.4998281576374593
 40
0.6176064639588397
 40
0.7498855198296901
 40
0.850398862584169
 40
0.9999999999999999
 40
0.9999999999999999
 40
0.9999999999999999
 40
0.9999999999999999
 10
125.1490106017569
 20
167.6548937451736
 30
0.0
 10
125.1949254861335
 20
167.6544239128268
 30
0.0
 10
125.2872911231586
 20
167.6534787647643
 30
0.0
 10
125.4259558208747
 20
167.6459287807718
 30
0.0
 10
125.5847561854256
 20
167.6321867225897
 30
0.0
 10
125.7650273552733
 20
167.6087345375215
 30
0.0
 10
125.9565918681161
 20
167.5746920986504
 30
0.0
 10
126.1450969225759
 20
167.5325147972695
 30
0.0
 10
126.3100970149195
 20
167.4888998021992
 30
0.0
 10
126.4801665266203
 20
167.4376510911418
 30
0.0
 10
126.5807095009473
 20
167.4033083416386
 30
0.0
 10
126.6408473358629
 20
167.3827668904432
 30
0.0
  0
SPLINE
  5
130
330
1F
100
AcDbEntity
  8
0
  6
Continuous
 62
     7
370
    18
100
AcDbSpline
210
0.0
220
0.0
230
1.0
 70
     8
 71
     3
 72
    12
 73
     8
 74
     0
 42
0.000000001
 43
0.00000001
 40
0.0
 40
0.0
 40
0.0
 40
0.0
 40
0.1667610443292102
 40
0.3323554049059663
 40
0.4999001905056929
 40
0.7487321180604073
 40
0.9999999999999999
 40
0.9999999999999999
 40
0.9999999999999999
 40
0.9999999999999999
 10
126.8490106008749
 20
167.3529381513195
 30
0.0
 10
126.8360859711517
 20
167.3530989193481
 30
0.0
 10
126.810327134235
 20
167.3534193306495
 30
0.0
 10
126.772275318144
 20
167.3560781989229
 30
0.0
 10
126.729768408969
 20
167.3610511747402
 30
0.0
 10
126.683766258178
 20
167.3692596234773
 30
0.0
 10
126.6552000254106
 20
167.3782498697473
 30
0.0
 10
126.6408473368749
 20
167.3827668883415
 30
0.0
  0
SPLINE
  5
131
330
1F
100
AcDbEntity
  8
0
  6
Continuous
 62
     7
370
    18
100
AcDbSpline
210
0.0
220
0.0
230
1.0
 70
     8
 71
     3
 72
    13
 73
     9
 74
     0
 42
0.000000001
 43
0.00000001
 40
0.0
 40
0.0
 40
0.0
 40
0.0
 40
0.1260238509681709
 40
0.2507860845933101
 40
0.500494016442946
 40
0.7497201447862532
 40
0.8751047801654462
 40
1.0
 40
1.0
 40
1.0
 40
1.0
 10
127.1490106008749
 20
167.4683106686396
 30
0.0
 10
127.1480039568392
 20
167.460355396332
 30
0.0
 10
127.1460007462219
 20
167.4445244914788
 30
0.0
 10
127.1239913175952
 20
167.4151946439738
 30
0.0
 10
127.0714879474609
 20
167.3834775787649
 30
0.0
 10
126.987393448405
 20
167.362920828154
 30
0.0
 10
126.9100311922939
 20
167.3541450133609
 30
0.0
 10
126.8693242642459
 20
167.3533399138832
 30
0.0
 10
126.8490106008749
 20
167.3529381513195
 30
0.0
  0
SPLINE
  5
132
330
1F
100
AcDbEntity
  8
0
  6
Continuous
 62
     7
370
    18
100
AcDbSpline
210
0.0
220
0.0
230
1.0
 70
    24
 71
     3
 72
     9
 73
     5
 74
     0
 42
0.000000001
 43
0.00000001
 40
0.0
 40
0.0
 40
0.0
 40
0.0
 40
0.1811912205238986
 40
1.0
 40
1.0
 40
1.0
 40
1.0
 10
161.1490103624564
 20
174.1714753342813
 30
0.0
 10
161.1490103624564
 20
174.1903708391988
 30
0.0
 10
161.1490103624564
 20
174.2946557204581
 30
0.0
 10
161.1490103624564
 20
174.3020239106553
 30
0.0
 10
161.1490103624564
 20
174.3080570494777
 30
0.0
  0
SPLINE
  5
133
330
1F
100
AcDbEntity
  8
0
  6
Continuous
 62
     7
370
    18
100
AcDbSpline
210
0.0
220
0.0
230
1.0
 70
    24
 71
     3
 72
    10
 73
     6
 74
     0
 42
0.000000001
 43
0.00000001
 40
0.0
 40
0.0
 40
0.0
 40
0.0
 40
0.5
 40
0.5
 40
1.0
 40
1.0
 40
1.0
 40
1.0
 10
162.1490106006823
 20
171.6080570369826
 30
0.0
 10
162.0782999224673
 20
171.6080570369826
 30
0.0
 10
161.9954572099978
 20
171.6080570369826
 30
0.0
 10
161.878299922487
 20
171.6080570369826
 30
0.0
 10
161.8490106005864
 20
171.6080570369826
 30
0.0
 10
161.8490106004891
 20
171.6080570369826
 30
0.0
  0
SPLINE
  5
134
330
1F
100
AcDbEntity
  8
0
  6
Continuous
 62
     7
370
    18
100
AcDbSpline
210
0.0
220
0.0
230
1.0
 70
    24
 71
     3
 72
    14
 73
    10
 74
     0
 42
0.000000001
 43
0.00000001
 40
0.0
 40
0.0
 40
0.0
 40
0.0
 40
0.2475545236198233
 40
0.4960114941224316
 40
0.7464085727783958
 40
0.8728249758970235
 40
0.9430395295244101
 40
0.9722950522288474
 40
1.0
 40
1.0
 40
1.0
 40
1.0
 10
161.9254577182036
 20
168.7080570163226
 30
0.0
 10
161.9266780065543
 20
168.7080570163226
 30
0.0
 10
161.9291230317522
 20
168.7080570163226
 30
0.0
 10
161.9522086296533
 20
168.7080570163226
 30
0.0
 10
161.9914668025257
 20
168.7080570163226
 30
0.0
 10
162.0472895956708
 20
168.7080570163226
 30
0.0
 10
162.0924158498944
 20
168.7080570163226
 30
0.0
 10
162.1251539588068
 20
168.7080570163226
 30
0.0
 10
162.1412052278795
 20
168.7080570163226
 30
0.0
 10
162.1490123890143
 20
168.7080570163226
 30
0.0
  0
SPLINE
  5
135
330
1F
100
AcDbEntity
  8
0
  6
Continuous
 62
     7
370
    18
100
AcDbSpline
210
0.0
220
0.0
230
1.0
 70
    24
 71
     3
 72
    10
 73
     6
 74
     0
 42
0.000000001
 43
0.00000001
 40
0.0
 40
0.0
 40
0.0
 40
0.0
 40
0.5000000000000002
 40
0.5000000000000002
 40
1.0
 40
1.0
 40
1.0
 40
1.0
 10
162.1490106008749
 20
168.7080570372733
 30
0.0
 10
162.1490106008749
 20
168.877517118504
 30
0.0
 10
162.1490106008749
 20
169.2538455824615
 30
0.0
 10
162.1490106008749
 20
170.3028542553409
 30
0.0
 10
162.1490106008749
 20
170.9462023337933
 30
0.0
 10
162.1490106008749
 20
171.608057035752
 30
0.0
  0
SPLINE
  5
136
330
1F
100
AcDbEntity
  8
0
  6
Continuous
 62
     7
370
    18
100
AcDbSpline
210
0.0
220
0.0
230
1.0
 70
    24
 71
     3
 72
    10
 73
     6
 74
     0
 42
0.000000001
 43
0.00000001
 40
0.0
 40
0.0
 40
0.0
 40
0.0
 40
0.5
 40
0.5
 40
1.0
 40
1.0
 40
1.0
 40
1.0
 10
161.8490106004891
 20
171.6080570369826
 30
0.0
 10
161.8490106005864
 20
171.6080570369826
 30
0.0
 10
161.878299922487
 20
171.6080570369826
 30
0.0
 10
161.9954572099978
 20
171.6080570369826
 30
0.0
 10
162.0782999224673
 20
171.6080570369826
 30
0.0
 10
162.1490106006823
 20
171.6080570369826
 30
0.0
  0
SPLINE
  5
137
330
1F
100
AcDbEntity
  8
0
  6
Continuous
 62
     7
370
    18
100
AcDbSpline
210
0.0
220
0.0
230
1.0
 70
    24
 71
     3
 72
    17
 73
    13
 74
     0
 42
0.000000001
 43
0.00000001
 40
0.0
 40
0.0
 40
0.0
 40
0.0
 40
0.0274711493458538
 40
0.0564599780188688
 40
0.1258956389995149
 40
0.1837280529115565
 40
0.2512048019566567
 40
0.3656343069240068
 40
0.5003488659035256
 40
0.7490774742421369
 40
0.9980291828483592
 40
0.9999999999999999
 40
0.9999999999999999
 40
0.9999999999999999
 40
0.9999999999999999
 10
162.1490123890143
 20
174.5080569425618
 30
0.0
 10
162.1412656308497
 20
174.5080569425618
 30
0.0
 10
162.1253441348037
 20
174.5080569425618
 30
0.0
 10
162.0928776368868
 20
174.5080569425618
 30
0.0
 10
162.0614182792208
 20
174.5080569425618
 30
0.0
 10
162.0321387898447
 20
174.5080569425618
 30
0.0
 10
162.0040510750971
 20
174.5080569425618
 30
0.0
 10
161.9772806882725
 20
174.5080569425618
 30
0.0
 10
161.948718510425
 20
174.5080569425618
 30
0.0
 10
161.9309653425188
 20
174.5080569425618
 30
0.0
 10
161.9232107734479
 20
174.5080569425618
 30
0.0
 10
161.9254402075914
 20
174.5080569425618
 30
0.0
 10
161.9254577182036
 20
174.5080569425618
 30
0.0
  0
SPLINE
  5
138
330
1F
100
AcDbEntity
  8
0
  6
Continuous
 62
     7
370
    18
100
AcDbSpline
210
0.0
220
0.0
230
1.0
 70
    24
 71
     3
 72
    10
 73
     6
 74
     0
 42
0.000000001
 43
0.00000001
 40
0.0
 40
0.0
 40
0.0
 40
0.0
 40
0.4999999999999999
 40
0.4999999999999999
 40
1.0
 40
1.0
 40
1.0
 40
1.0
 10
162.1490106008749
 20
171.608057035752
 30
0.0
 10
162.1490106008749
 20
172.2699117382243
 30
0.0
 10
162.1490106008749
 20
172.9132598173263
 30
0.0
 10
162.1490106008749
 20
173.9622684912782
 30
0.0
 10
162.1490106008749
 20
174.3385969555825
 30
0.0
 10
162.1490106008749
 20
174.5080570368298
 30
0.0
  0
LINE
  5
139
330
1F
100
AcDbEntity
  8
0
  6
Continuous
 62
     7
370
    18
100
AcDbLine
 10
131.0763399325
 20
174.5080569426
 30
0.0
 11
133.0801735841
 21
174.5080569426
 31
0.0
  0
LINE
  5
13A
330
1F
100
AcDbEntity
  8
0
  6
Continuous
 62
     7
370
    18
100
AcDbLine
 10
134.0764540456
 20
174.5080569426
 30
0.0
 11
135.149009826
 21
174.5080569426
 31
0.0
  0
LINE
  5
13B
330
1F
100
AcDbEntity
  8
0
  6
Continuous
 62
     7
370
    18
100
AcDbLine
 10
135.149009826
 20
168.7080570163
 30
0.0
 11
134.6077102445
 21
168.7080570163
 31
0.0
  0
LINE
  5
13C
330
1F
100
AcDbEntity
  8
0
  6
Continuous
 62
     7
370
    18
100
AcDbLine
 10
133.6061454586
 20
168.7080570163
 30
0.0
 11
131.6074704028
 21
168.7080570163
 31
0.0
  0
LINE
  5
13D
330
1F
100
AcDbEntity
  8
0
  6
Continuous
 62
     7
370
    18
100
AcDbLine
 10
130.6063256435
 20
168.7080570163
 30
0.0
 11
130.1490108691
 21
168.7080570163
 31
0.0
  0
LINE
  5
13E
330
1F
100
AcDbEntity
  8
0
  6
Continuous
 62
     7
370
    18
100
AcDbLine
 10
162.149012389
 20
174.5080569426
 30
0.0
 11
162.649009677
 21
174.5080569426
 31
0.0
  0
LINE
  5
13F
330
1F
100
AcDbEntity
  8
0
  6
Continuous
 62
     7
370
    18
100
AcDbLine
 10
162.649009677
 20
168.7080570163
 30
0.0
 11
162.149012389
 21
168.7080570163
 31
0.0
  0
SPLINE
  5
140
330
1F
100
AcDbEntity
  8
0
  6
Continuous
 62
     7
370
    18
100
AcDbSpline
210
0.0
220
0.0
230
1.0
 70
    24
 71
     3
 72
    10
 73
     6
 74
     0
 42
0.000000001
 43
0.00000001
 40
0.0
 40
0.0
 40
0.0
 40
0.0
 40
0.4999999999999998
 40
0.4999999999999998
 40
1.0
 40
1.0
 40
1.0
 40
1.0
 10
162.6490106008749
 20
171.608057035752
 30
0.0
 10
162.6490106008749
 20
170.9462023337933
 30
0.0
 10
162.6490106008749
 20
170.3028542553409
 30
0.0
 10
162.6490106008749
 20
169.2538455824615
 30
0.0
 10
162.6490106008749
 20
168.877517118504
 30
0.0
 10
162.6490106008749
 20
168.7080570372733
 30
0.0
  0
SPLINE
  5
141
330
1F
100
AcDbEntity
  8
0
  6
Continuous
 62
     7
370
    18
100
AcDbSpline
210
0.0
220
0.0
230
1.0
 70
    24
 71
     3
 72
    10
 73
     6
 74
     0
 42
0.000000001
 43
0.00000001
 40
0.0
 40
0.0
 40
0.0
 40
0.0
 40
0.5000000000000001
 40
0.5000000000000001
 40
1.0
 40
1.0
 40
1.0
 40
1.0
 10
162.6490106008749
 20
174.5080570368298
 30
0.0
 10
162.6490106008749
 20
174.3385969555825
 30
0.0
 10
162.6490106008749
 20
173.9622684912782
 30
0.0
 10
162.6490106008749
 20
172.9132598173263
 30
0.0
 10
162.6490106008749
 20
172.2699117382243
 30
0.0
 10
162.6490106008749
 20
171.608057035752
 30
0.0
  0
SPLINE
  5
142
330
1F
100
AcDbEntity
  8
0
  6
Continuous
 62
     7
370
    18
100
AcDbSpline
210
0.0
220
0.0
230
1.0
 70
    24
 71
     3
 72
     9
 73
     5
 74
     0
 42
0.000000001
 43
0.00000001
 40
0.0
 40
0.0
 40
0.0
 40
0.0
 40
0.0002751562675091
 40
1.0
 40
1.0
 40
1.0
 40
1.0
 10
162.7489815674525
 20
168.7080570163226
 30
0.0
 10
162.7489915041889
 20
168.7080570163226
 30
0.0
 10
162.7851045699974
 20
168.7080570163232
 30
0.0
 10
162.7170477603713
 20
168.7080570163229
 30
0.0
 10
162.6490096770029
 20
168.7080570163226
 30
0.0
  0
SPLINE
  5
143
330
1F
100
AcDbEntity
  8
0
  6
Continuous
 62
     7
370
    18
100
AcDbSpline
210
0.0
220
0.0
230
1.0
 70
    24
 71
     3
 72
     9
 73
     5
 74
     0
 42
0.000000001
 43
0.00000001
 40
0.0
 40
0.0
 40
0.0
 40
0.0
 40
0.9997248430840537
 40
1.0
 40
1.0
 40
1.0
 40
1.0
 10
162.6490096770029
 20
174.5080569425618
 30
0.0
 10
162.7170477178245
 20
174.5080569425618
 30
0.0
 10
162.7851044849362
 20
174.5080569425617
 30
0.0
 10
162.7489915041889
 20
174.5080569425618
 30
0.0
 10
162.7489815674525
 20
174.5080569425618
 30
0.0
  0
SPLINE
  5
144
330
1F
100
AcDbEntity
  8
0
  6
Continuous
 62
     7
370
    18
100
AcDbSpline
210
0.0
220
0.0
230
1.0
 70
    24
 71
     3
 72
    10
 73
     6
 74
     0
 42
0.000000001
 43
0.00000001
 40
0.0
 40
0.0
 40
0.0
 40
0.0
 40
0.5
 40
0.5
 40
1.0
 40
1.0
 40
1.0
 40
1.0
 10
163.1490106008749
 20
171.6080570365336
 30
0.0
 10
163.1490106008749
 20
170.9450345766619
 30
0.0
 10
163.1490106008749
 20
170.3091177613986
 30
0.0
 10
163.1490106008749
 20
169.3714624065202
 30
0.0
 10
163.149010600875
 20
169.1080570370591
 30
0.0
 10
163.149010600875
 20
169.1080570369826
 30
0.0
  0
SPLINE
  5
145
330
1F
100
AcDbEntity
  8
0
  6
Continuous
 62
     7
370
    18
100
AcDbSpline
210
0.0
220
0.0
230
1.0
 70
    24
 71
     3
 72
    10
 73
     6
 74
     0
 42
0.000000001
 43
0.00000001
 40
0.0
 40
0.0
 40
0.0
 40
0.0
 40
0.5000000000000002
 40
0.5000000000000002
 40
1.0
 40
1.0
 40
1.0
 40
1.0
 10
163.1490106008749
 20
174.1080570369826
 30
0.0
 10
163.1490106008749
 20
174.1080570371186
 30
0.0
 10
163.1490106008749
 20
173.8446516676902
 30
0.0
 10
163.1490106008749
 20
172.9069963125702
 30
0.0
 10
163.149010600875
 20
172.2710794970718
 30
0.0
 10
163.149010600875
 20
171.6080570369826
 30
0.0
  0
SPLINE
  5
146
330
1F
100
AcDbEntity
  8
0
  6
Continuous
 62
     7
370
    18
100
AcDbSpline
210
0.0
220
0.0
230
1.0
 70
    24
 71
     3
 72
    10
 73
     6
 74
     0
 42
0.000000001
 43
0.00000001
 40
0.0
 40
0.0
 40
0.0
 40
0.0
 40
0.5000000000000002
 40
0.5000000000000002
 40
1.0
 40
1.0
 40
1.0
 40
1.0
 10
125.1490106018389
 20
159.8080570369826
 30
0.0
 10
125.7722517141183
 20
159.8080570369826
 30
0.0
 10
126.3700135204087
 20
159.8080570369826
 30
0.0
 10
127.2514095537912
 20
159.8080570369826
 30
0.0
 10
127.4990106009468
 20
159.8080570369826
 30
0.0
 10
127.4990106008749
 20
159.8080570369826
 30
0.0
  0
SPLINE
  5
147
330
1F
100
AcDbEntity
  8
0
  6
Continuous
 62
     7
370
    18
100
AcDbSpline
210
0.0
220
0.0
230
1.0
 70
    24
 71
     3
 72
    10
 73
     6
 74
     0
 42
0.000000001
 43
0.00000001
 40
0.0
 40
0.0
 40
0.0
 40
0.0
 40
0.4999999999999999
 40
0.4999999999999999
 40
1.0
 40
1.0
 40
1.0
 40
1.0
 10
122.7990106008749
 20
159.8080570369826
 30
0.0
 10
122.7990106010028
 20
159.8080570369826
 30
0.0
 10
123.0466116485106
 20
159.8080570369826
 30
0.0
 10
123.928007682685
 20
159.8080570369826
 30
0.0
 10
124.5257694893551
 20
159.8080570369826
 30
0.0
 10
125.1490106018389
 20
159.8080570369826
 30
0.0
  0
SPLINE
  5
148
330
1F
100
AcDbEntity
  8
0
  6
Continuous
 62
     7
370
    18
100
AcDbSpline
210
0.0
220
0.0
230
1.0
 70
    24
 71
     3
 72
    10
 73
     6
 74
     0
 42
0.000000001
 43
0.00000001
 40
0.0
 40
0.0
 40
0.0
 40
0.0
 40
0.5000000000000002
 40
0.5000000000000002
 40
1.0
 40
1.0
 40
1.0
 40
1.0
 10
125.1490106018389
 20
162.3080570369826
 30
0.0
 10
125.7722517141183
 20
162.3080570369826
 30
0.0
 10
126.3700135204087
 20
162.3080570369826
 30
0.0
 10
127.2514095537912
 20
162.3080570369826
 30
0.0
 10
127.4990106009468
 20
162.3080570369826
 30
0.0
 10
127.4990106008749
 20
162.3080570369826
 30
0.0
  0
SPLINE
  5
149
330
1F
100
AcDbEntity
  8
0
  6
Continuous
 62
     7
370
    18
100
AcDbSpline
210
0.0
220
0.0
230
1.0
 70
    24
 71
     3
 72
    10
 73
     6
 74
     0
 42
0.000000001
 43
0.00000001
 40
0.0
 40
0.0
 40
0.0
 40
0.0
 40
0.4999999999999999
 40
0.4999999999999999
 40
1.0
 40
1.0
 40
1.0
 40
1.0
 10
122.7990106008749
 20
162.3080570369826
 30
0.0
 10
122.7990106010028
 20
162.3080570369826
 30
0.0
 10
123.0466116485106
 20
162.3080570369826
 30
0.0
 10
123.928007682685
 20
162.3080570369826
 30
0.0
 10
124.5257694893551
 20
162.3080570369826
 30
0.0
 10
125.1490106018389
 20
162.3080570369826
 30
0.0
  0
SPLINE
  5
14A
330
1F
100
AcDbEntity
  8
0
  6
Continuous
 62
     7
370
    18
100
AcDbSpline
210
0.0
220
0.0
230
1.0
 70
    24
 71
     3
 72
    10
 73
     6
 74
     0
 42
0.000000001
 43
0.00000001
 40
0.0
 40
0.0
 40
0.0
 40
0.0
 40
0.5000000000000001
 40
0.5000000000000001
 40
1.0
 40
1.0
 40
1.0
 40
1.0
 10
127.1490106008749
 20
157.3080570369826
 30
0.0
 10
127.1490106009361
 20
157.3080570369826
 30
0.0
 10
126.9382863054845
 20
157.3080570369826
 30
0.0
 10
126.1881620217548
 20
157.3080570369826
 30
0.0
 10
125.6794285695927
 20
157.3080570369826
 30
0.0
 10
125.1490106016953
 20
157.3080570369826
 30
0.0
  0
SPLINE
  5
14B
330
1F
100
AcDbEntity
  8
0
  6
Continuous
 62
     7
370
    18
100
AcDbSpline
210
0.0
220
0.0
230
1.0
 70
    24
 71
     3
 72
    10
 73
     6
 74
     0
 42
0.000000001
 43
0.00000001
 40
0.0
 40
0.0
 40
0.0
 40
0.0
 40
0.5000000000000002
 40
0.5000000000000002
 40
1.0
 40
1.0
 40
1.0
 40
1.0
 10
125.1490106016953
 20
157.3080570369826
 30
0.0
 10
124.618592633624
 20
157.3080570369826
 30
0.0
 10
124.1098591811388
 20
157.3080570369826
 30
0.0
 10
123.3597348967351
 20
157.3080570369826
 30
0.0
 10
123.1490106009837
 20
157.3080570369826
 30
0.0
 10
123.1490106008749
 20
157.3080570369826
 30
0.0
  0
SPLINE
  5
14C
330
1F
100
AcDbEntity
  8
0
  6
Continuous
 62
     7
370
    18
100
AcDbSpline
210
0.0
220
0.0
230
1.0
 70
     8
 71
     3
 72
    14
 73
    10
 74
     0
 42
0.000000001
 43
0.00000001
 40
0.0
 40
0.0
 40
0.0
 40
0.0
 40
0.2499999999999998
 40
0.2499999999999998
 40
0.4999999999999999
 40
0.4999999999999999
 40
0.75
 40
0.75
 40
1.0
 40
1.0
 40
1.0
 40
1.0
 10
127.1673779478749
 20
164.3570226279826
 30
0.0
 10
127.1304088188749
 20
164.3703853209826
 30
0.0
 10
127.0864182218749
 20
164.3901840899826
 30
0.0
 10
126.9862321005416
 20
164.4540801459826
 30
0.0
 10
126.9304102538749
 20
164.4980490369826
 30
0.0
 10
126.8184226058749
 20
164.6209176649826
 30
0.0
 10
126.762029095875
 20
164.7000175109826
 30
0.0
 10
126.6723906798749
 20
164.9002317029826
 30
0.0
 10
126.6408474718749
 20
165.0189805019826
 30
0.0
 10
126.6408473358749
 20
165.1445053819826
 30
0.0
  0
LINE
  5
14D
330
1F
100
AcDbEntity
  8
0
  6
Continuous
 62
     7
370
    18
100
AcDbLine
 10
126.640847253
 20
167.3827668319
 30
0.0
 11
126.640847253
 21
165.1445053184
 31
0.0
  0
LINE
  5
14E
330
1F
100
AcDbEntity
  8
0
  6
Continuous
 62
     7
370
    18
100
AcDbLine
 10
123.6571737774
 20
165.1445053184
 30
0.0
 11
123.6571737774
 21
167.3827668319
 31
0.0
  0
SPLINE
  5
14F
330
1F
100
AcDbEntity
  8
0
  6
Continuous
 62
     7
370
    18
100
AcDbSpline
210
0.0
220
0.0
230
1.0
 70
     8
 71
     3
 72
    18
 73
    14
 74
     0
 42
0.000000001
 43
0.00000001
 40
0.0
 40
0.0
 40
0.0
 40
0.0
 40
0.0884096293516579
 40
0.1712958459353656
 40
0.2489654135437477
 40
0.3779336499071831
 40
0.4985113658609224
 40
0.6265384492203772
 40
0.7488730468569614
 40
0.8122711756634342
 40
0.8742355429967262
 40
0.9380760258737811
 40
0.9999999999999999
 40
0.9999999999999999
 40
0.9999999999999999
 40
0.9999999999999999
 10
123.1306432539507
 20
164.3570226287701
 30
0.0
 10
123.145000173788
 20
164.3625585647811
 30
0.0
 10
123.1728170614571
 20
164.373284577875
 30
0.0
 10
123.2198403988832
 20
164.3966692918249
 30
0.0
 10
123.2788837872449
 20
164.4317504028427
 30
0.0
 10
123.3515485932887
 20
164.4858039494536
 30
0.0
 10
123.4385825864905
 20
164.5716496304381
 30
0.0
 10
123.5213037958203
 20
164.6807900756409
 30
0.0
 10
123.5811565929525
 20
164.7946082084876
 30
0.0
 10
123.6182840013962
 20
164.8944344972086
 30
0.0
 10
123.6398415848514
 20
164.9752883607379
 30
0.0
 10
123.6543593345738
 20
165.0588947816964
 30
0.0
 10
123.6562452684335
 20
165.1162599088134
 30
0.0
 10
123.6571738656089
 20
165.1445053823915
 30
0.0
  0
SPLINE
  5
150
330
1F
100
AcDbEntity
  8
0
  6
Continuous
 62
     7
370
    18
100
AcDbSpline
210
0.0
220
0.0
230
1.0
 70
     8
 71
     3
 72
    12
 73
     8
 74
     0
 42
0.000000001
 43
0.00000001
 40
0.0
 40
0.0
 40
0.0
 40
0.0
 40
0.5
 40
0.5
 40
0.75
 40
0.75
 40
1.0
 40
1.0
 40
1.0
 40
1.0
 10
123.1490106008749
 20
165.144505291957
 30
0.0
 10
123.1490106051743
 20
165.144505307119
 30
0.0
 10
123.1690964063327
 20
165.1445053208888
 30
0.0
 10
123.2503048149586
 20
165.144505323057
 30
0.0
 10
123.2853683589025
 20
165.1445053206104
 30
0.0
 10
123.3641062072121
 20
165.1445053090708
 30
0.0
 10
123.407473218564
 20
165.1445053000182
 30
0.0
 10
123.4490106066711
 20
165.1445052891682
 30
0.0
  0
LINE
  5
151
330
1F
100
AcDbEntity
  8
0
  6
Continuous
 62
     7
370
    18
100
AcDbLine
 10
123.4490106091
 20
165.1445053184
 30
0.0
 11
123.4490106091
 21
167.3529379668
 31
0.0
  0
SPLINE
  5
152
330
1F
100
AcDbEntity
  8
0
  6
Continuous
 62
     7
370
    18
100
AcDbSpline
210
0.0
220
0.0
230
1.0
 70
     8
 71
     3
 72
    10
 73
     6
 74
     0
 42
0.000000001
 43
0.00000001
 40
0.0
 40
0.0
 40
0.0
 40
0.0
 40
0.5
 40
0.5
 40
1.0
 40
1.0
 40
1.0
 40
1.0
 10
127.4490105874688
 20
164.6550103511379
 30
0.0
 10
127.3839131422123
 20
164.6522664097608
 30
0.0
 10
127.3082647949219
 20
164.6213702431849
 30
0.0
 10
127.1991717008812
 20
164.5059418641848
 30
0.0
 10
127.1699712676579
 20
164.4259004422611
 30
0.0
 10
127.1673779243487
 20
164.3570226364863
 30
0.0
  0
SPLINE
  5
153
330
1F
100
AcDbEntity
  8
0
  6
Continuous
 62
     7
370
    18
100
AcDbSpline
210
0.0
220
0.0
230
1.0
 70
    24
 71
     3
 72
    12
 73
     8
 74
     0
 42
0.000000001
 43
0.00000001
 40
0.0
 40
0.0
 40
0.0
 40
0.0
 40
0.2500000000000002
 40
0.2500000000000002
 40
0.5000000000000004
 40
0.5000000000000004
 40
1.0
 40
1.0
 40
1.0
 40
1.0
 10
126.8490106012452
 20
165.1445053819826
 30
0.0
 10
126.8905479908357
 20
165.1445053819826
 30
0.0
 10
126.9339150036921
 20
165.1445053819826
 30
0.0
 10
127.0126528537396
 20
165.1445053819826
 30
0.0
 10
127.0477163978656
 20
165.1445053819826
 30
0.0
 10
127.1289248044455
 20
165.1445053819826
 30
0.0
 10
127.1490106008749
 20
165.1445053819826
 30
0.0
 10
127.1490106008749
 20
165.1445053819826
 30
0.0
  0
SPLINE
  5
154
330
1F
100
AcDbEntity
  8
0
  6
Continuous
 62
     7
370
    18
100
AcDbSpline
210
0.0
220
0.0
230
1.0
 70
    24
 71
     3
 72
    10
 73
     6
 74
     0
 42
0.000000001
 43
0.00000001
 40
0.0
 40
0.0
 40
0.0
 40
0.0
 40
0.5
 40
0.5
 40
1.0
 40
1.0
 40
1.0
 40
1.0
 10
126.6408473358749
 20
165.1445053819826
 30
0.0
 10
126.6637769251514
 20
165.1445053819826
 30
0.0
 10
126.6928610223834
 20
165.1445053819826
 30
0.0
 10
126.7634450458598
 20
165.1445053819826
 30
0.0
 10
126.8050588618042
 20
165.1445053819826
 30
0.0
 10
126.8490106012452
 20
165.1445053819826
 30
0.0
  0
LINE
  5
155
330
1F
100
AcDbEntity
  8
0
  6
Continuous
 62
     7
370
    18
100
AcDbLine
 10
126.849010887
 20
167.3529379668
 30
0.0
 11
126.849010887
 21
165.1445053184
 31
0.0
  0
SPLINE
  5
156
330
1F
100
AcDbEntity
  8
0
  6
Continuous
 62
     7
370
    18
100
AcDbSpline
210
0.0
220
0.0
230
1.0
 70
     8
 71
     3
 72
    10
 73
     6
 74
     0
 42
0.000000001
 43
0.00000001
 40
0.0
 40
0.0
 40
0.0
 40
0.0
 40
0.5
 40
0.5
 40
1.0
 40
1.0
 40
1.0
 40
1.0
 10
123.1306431930787
 20
164.3570226060075
 30
0.0
 10
123.1280498527614
 20
164.4259004079306
 30
0.0
 10
123.0988494260797
 20
164.50594182334
 30
0.0
 10
122.9897563488534
 20
164.6213701998995
 30
0.0
 10
122.9141080098548
 20
164.652266372048
 30
0.0
 10
122.8490105662311
 20
164.655010321908
 30
0.0
  0
SPLINE
  5
157
330
1F
100
AcDbEntity
  8
0
  6
Continuous
 62
     7
370
    18
100
AcDbSpline
210
0.0
220
0.0
230
1.0
 70
     8
 71
     3
 72
    10
 73
     6
 74
     0
 42
0.000000001
 43
0.00000001
 40
0.0
 40
0.0
 40
0.0
 40
0.0
 40
0.5
 40
0.5
 40
1.0
 40
1.0
 40
1.0
 40
1.0
 10
123.4490106066711
 20
165.1445052891682
 30
0.0
 10
123.4929623445425
 20
165.1445052776874
 30
0.0
 10
123.5345761589898
 20
165.1445052643267
 30
0.0
 10
123.6051601803573
 20
165.1445052380627
 30
0.0
 10
123.6342442769485
 20
165.144505225195
 30
0.0
 10
123.6571738658747
 20
165.1445052136395
 30
0.0
  0
SPLINE
  5
158
330
1F
100
AcDbEntity
  8
0
  6
Continuous
 62
     7
370
    18
100
AcDbSpline
210
0.0
220
0.0
230
1.0
 70
    24
 71
     3
 72
     9
 73
     5
 74
     0
 42
0.000000001
 43
0.00000001
 40
0.0
 40
0.0
 40
0.0
 40
0.0
 40
0.6894519325947583
 40
1.0
 40
1.0
 40
1.0
 40
1.0
 10
161.8490110359888
 20
175.8852553220486
 30
0.0
 10
161.8490110359889
 20
175.8893164331826
 30
0.0
 10
161.8490110359889
 20
175.8952067801989
 30
0.0
 10
161.8490110359888
 20
175.8942735042578
 30
0.0
 10
161.8490110359888
 20
175.8939836772179
 30
0.0
  0
SPLINE
  5
159
330
1F
100
AcDbEntity
  8
0
  6
Continuous
 62
     7
370
    18
100
AcDbSpline
210
0.0
220
0.0
230
1.0
 70
    24
 71
     3
 72
    29
 73
    25
 74
     0
 42
0.000000001
 43
0.00000001
 40
0.0
 40
0.0
 40
0.0
 40
0.0
 40
0.0156493635545416
 40
0.0312741728670996
 40
0.0468989821697902
 40
0.0625483456947755
 40
0.0938163891062796
 40
0.1250844327854719
 40
0.1875713825999929
 40
0.2500583318247154
 40
0.3125452810229788
 40
0.3750322306519308
 40
0.4375191800091878
 40
0.5000061293926275
 40
0.5624930786894276
 40
0.6249800282477487
 40
0.6874669779165954
 40
0.7499539273839707
 40
0.8124408768527304
 40
0.874927826231955
 40
0.9061958696461756
 40
0.9374639128792714
 40
0.968731956518722
 40
0.9999999999999999
 40
0.9999999999999999
 40
0.9999999999999999
 40
0.9999999999999999
 10
161.8490106008749
 20
167.2989571131838
 30
0.0
 10
161.8490106008749
 20
167.3167275414336
 30
0.0
 10
161.8490106008749
 20
167.3522405156878
 30
0.0
 10
161.8490106008749
 20
167.4139676719788
 30
0.0
 10
161.8490106008749
 20
167.4818031098268
 30
0.0
 10
161.8490106008749
 20
167.58104850206
 30
0.0
 10
161.8490106008749
 20
167.7209214912252
 30
0.0
 10
161.8490106008749
 20
167.977092113275
 30
0.0
 10
161.8490106008749
 20
168.3555056501662
 30
0.0
 10
161.8490106008749
 20
168.8907683795246
 30
0.0
 10
161.8490106008749
 20
169.4940413013762
 30
0.0
 10
161.8490106008749
 20
170.150189366133
 30
0.0
 10
161.8490106008749
 20
170.8428100071017
 30
0.0
 10
161.8490106008749
 20
171.5545734618341
 30
0.0
 10
161.8490106008749
 20
172.2676749895271
 30
0.0
 10
161.8490106008749
 20
172.9642756325367
 30
0.0
 10
161.8490106008749
 20
173.6269482801609
 30
0.0
 10
161.8490106008749
 20
174.2391190570318
 30
0.0
 10
161.8490106008749
 20
174.7854604442554
 30
0.0
 10
161.8490106008749
 20
175.1746005611693
 30
0.0
 10
161.8490106008749
 20
175.440299594989
 30
0.0
 10
161.8490106008749
 20
175.6151167813569
 30
0.0
 10
161.8490106008749
 20
175.7668412536275
 30
0.0
 10
161.8490106008749
 20
175.8457838357213
 30
0.0
 10
161.8490106008749
 20
175.8852551266684
 30
0.0
  0
SPLINE
  5
15A
330
1F
100
AcDbEntity
  8
0
  6
Continuous
 62
     7
370
    18
100
AcDbSpline
210
0.0
220
0.0
230
1.0
 70
    24
 71
     3
 72
     9
 73
     5
 74
     0
 42
0.000000001
 43
0.00000001
 40
0.0
 40
0.0
 40
0.0
 40
0.0
 40
0.4584236541737644
 40
1.0
 40
1.0
 40
1.0
 40
1.0
 10
161.8490110359888
 20
167.1153780670857
 30
0.0
 10
161.8490110359888
 20
167.1191676326427
 30
0.0
 10
161.8490110359888
 20
167.1274341466467
 30
0.0
 10
161.8490110359888
 20
167.2386988058266
 30
0.0
 10
161.8490110359888
 20
167.2989571133649
 30
0.0
  0
SPLINE
  5
15B
330
1F
100
AcDbEntity
  8
0
  6
Continuous
 62
     7
370
    18
100
AcDbSpline
210
0.0
220
0.0
230
1.0
 70
    24
 71
     3
 72
     9
 73
     5
 74
     0
 42
0.000000001
 43
0.00000001
 40
0.0
 40
0.0
 40
0.0
 40
0.0
 40
0.4584236541737644
 40
1.0
 40
1.0
 40
1.0
 40
1.0
 10
161.2490120552283
 20
167.1153780670857
 30
0.0
 10
161.2490120552283
 20
167.1191676326427
 30
0.0
 10
161.2490120552283
 20
167.1274341466467
 30
0.0
 10
161.2490120552283
 20
167.2386988058266
 30
0.0
 10
161.2490120552283
 20
167.2989571133649
 30
0.0
  0
SPLINE
  5
15C
330
1F
100
AcDbEntity
  8
0
  6
Continuous
 62
     7
370
    18
100
AcDbSpline
210
0.0
220
0.0
230
1.0
 70
    24
 71
     3
 72
    14
 73
    10
 74
     0
 42
0.000000001
 43
0.00000001
 40
0.0
 40
0.0
 40
0.0
 40
0.0
 40
0.25
 40
0.25
 40
0.5
 40
0.5
 40
0.75
 40
0.75
 40
1.0
 40
1.0
 40
1.0
 40
1.0
 10
161.2490106008749
 20
167.2989571122155
 30
0.0
 10
161.2490106008749
 20
167.5750215506779
 30
0.0
 10
161.2490106008749
 20
168.1366756458439
 30
0.0
 10
161.2490106008749
 20
169.6675311787647
 30
0.0
 10
161.2490106008749
 20
170.5968886076111
 30
0.0
 10
161.2490106008749
 20
172.5127043482062
 30
0.0
 10
161.2490106008749
 20
173.4492991830993
 30
0.0
 10
161.2490106008749
 20
175.0069957986235
 30
0.0
 10
161.2490106008749
 20
175.5875549699157
 30
0.0
 10
161.2490106008749
 20
175.8852551224983
 30
0.0
  0
SPLINE
  5
15D
330
1F
100
AcDbEntity
  8
0
  6
Continuous
 62
     7
370
    18
100
AcDbSpline
210
0.0
220
0.0
230
1.0
 70
    24
 71
     3
 72
     9
 73
     5
 74
     0
 42
0.000000001
 43
0.00000001
 40
0.0
 40
0.0
 40
0.0
 40
0.0
 40
0.6894519325947583
 40
1.0
 40
1.0
 40
1.0
 40
1.0
 10
161.2490120552283
 20
175.8852553220486
 30
0.0
 10
161.2490120552283
 20
175.8893164331826
 30
0.0
 10
161.2490120552283
 20
175.8952067801989
 30
0.0
 10
161.2490120552283
 20
175.8942735042578
 30
0.0
 10
161.2490120552283
 20
175.8939836772179
 30
0.0
  0
LINE
  5
15E
330
1F
100
AcDbEntity
  8
0
  6
Continuous
 62
     7
370
    18
100
AcDbLine
 10
161.849011036
 20
175.885255322
 30
0.0
 11
161.2490120552
 21
175.885255322
 31
0.0
  0
LINE
  5
15F
330
1F
100
AcDbEntity
  8
0
  6
Continuous
 62
     7
370
    18
100
AcDbLine
 10
137.520844417
 20
165.7878755258
 30
0.0
 11
137.5776197038
 21
165.7426532956
 31
0.0
  0
LINE
  5
160
330
1F
100
AcDbEntity
  8
0
  6
Continuous
 62
     7
370
    18
100
AcDbLine
 10
137.4879445158
 20
165.7607614661
 30
0.0
 11
137.5776197038
 21
165.7426532956
 31
0.0
  0
SPLINE
  5
161
330
1F
100
AcDbEntity
  8
0
  6
Continuous
 62
     7
370
    18
100
AcDbSpline
210
0.0
220
0.0
230
1.0
 70
     8
 71
     3
 72
    15
 73
    11
 74
     0
 42
0.000000001
 43
0.00000001
 40
0.0
 40
0.0
 40
0.0
 40
0.0
 40
0.0730439556733947
 40
0.2154465034496328
 40
0.3578374818557158
 40
0.500221244346776
 40
0.6426053402098345
 40
0.7849963186159176
 40
0.9273988663921556
 40
1.0
 40
1.0
 40
1.0
 40
1.0
 10
137.670716571043
 20
165.7614431941902
 30
0.0
 10
137.7039614295383
 20
165.7662393645565
 30
0.0
 10
137.80201866719
 20
165.780385889424
 30
0.0
 10
137.940294103604
 20
165.8818864311189
 30
0.0
 10
138.0507228495852
 20
166.0460804870835
 30
0.0
 10
138.0911081663457
 20
166.2425529700452
 30
0.0
 10
138.0507239170296
 20
166.4390309090108
 30
0.0
 10
137.9402901823794
 20
166.6032088711748
 30
0.0
 10
137.8022014437995
 20
166.7046335631096
 30
0.0
 10
137.7043519693922
 20
166.7187704570196
 30
0.0
 10
137.6713107548456
 20
166.7235441172516
 30
0.0
  0
LINE
  5
162
330
1F
100
AcDbEntity
  8
0
  6
Continuous
 62
     7
370
    18
100
AcDbLine
 10
141.1490108095
 20
166.7005795652
 30
0.0
 11
138.1490103178
 21
166.7005795652
 31
0.0
  0
LINE
  5
163
330
1F
100
AcDbEntity
  8
0
  6
Continuous
 62
     7
370
    18
100
AcDbLine
 10
138.1490103178
 20
166.7005795652
 30
0.0
 11
138.1490103178
 21
176.5155343937
 31
0.0
  0
LINE
  5
164
330
1F
100
AcDbEntity
  8
0
  6
Continuous
 62
     7
370
    18
100
AcDbLine
 10
141.1490108095
 20
176.5155343937
 30
0.0
 11
138.1490103178
 21
176.5155343937
 31
0.0
  0
LINE
  5
165
330
1F
100
AcDbEntity
  8
0
  6
Continuous
 62
     7
370
    18
100
AcDbLine
 10
141.1490108095
 20
176.5155343937
 30
0.0
 11
141.1490108095
 21
166.7005795652
 31
0.0
  0
LINE
  5
166
330
1F
100
AcDbEntity
  8
0
  6
Continuous
 62
     7
370
    18
100
AcDbLine
 10
141.1490108095
 20
161.7931028495
 30
0.0
 11
138.1490103178
 21
161.7931028495
 31
0.0
  0
LINE
  5
167
330
1F
100
AcDbEntity
  8
0
  6
Continuous
 62
     7
370
    18
100
AcDbLine
 10
138.1490103178
 20
161.7931028495
 30
0.0
 11
138.1490103178
 21
166.7005795652
 31
0.0
  0
LINE
  5
168
330
1F
100
AcDbEntity
  8
0
  6
Continuous
 62
     7
370
    18
100
AcDbLine
 10
141.1490108095
 20
166.7005795652
 30
0.0
 11
141.1490108095
 21
161.7931028495
 31
0.0
  0
LINE
  5
169
330
1F
100
AcDbEntity
  8
0
  6
Continuous
 62
     7
370
    18
100
AcDbLine
 10
138.1490103178
 20
181.4230115751
 30
0.0
 11
141.1490108095
 21
181.4230115751
 31
0.0
  0
LINE
  5
16A
330
1F
100
AcDbEntity
  8
0
  6
Continuous
 62
     7
370
    18
100
AcDbLine
 10
138.1490103178
 20
176.5155343937
 30
0.0
 11
138.1490103178
 21
181.4230115751
 31
0.0
  0
LINE
  5
16B
330
1F
100
AcDbEntity
  8
0
  6
Continuous
 62
     7
370
    18
100
AcDbLine
 10
141.1490108095
 20
181.4230115751
 30
0.0
 11
141.1490108095
 21
176.5155343937
 31
0.0
  0
SPLINE
  5
16C
330
1F
100
AcDbEntity
  8
0
  6
Continuous
 62
     7
370
    18
100
AcDbSpline
210
0.0
220
0.0
230
1.0
 70
    24
 71
     3
 72
    13
 73
     9
 74
     0
 42
0.000000001
 43
0.00000001
 40
0.0
 40
0.0
 40
0.0
 40
0.0
 40
0.1875083858861686
 40
0.3750167516146531
 40
0.5625251209355483
 40
0.750033499982981
 40
0.9375418802998996
 40
0.9999999999999999
 40
0.9999999999999999
 40
0.9999999999999999
 40
0.9999999999999999
 10
160.1490120611887
 20
174.6080570055192
 30
0.0
 10
160.1490120611887
 20
174.9370362236505
 30
0.0
 10
160.1490120611888
 20
175.5949946245469
 30
0.0
 10
160.1490120611887
 20
176.396756509228
 30
0.0
 10
160.1490120611887
 20
177.0270430104754
 30
0.0
 10
160.1490120611887
 20
177.4308327010169
 30
0.0
 10
160.1490120611888
 20
177.6178420242198
 30
0.0
 10
160.1490120611887
 20
177.5894784923879
 30
0.0
 10
160.1490120611887
 20
177.5823914112544
 30
0.0
  0
SPLINE
  5
16D
330
1F
100
AcDbEntity
  8
0
  6
Continuous
 62
     7
370
    18
100
AcDbSpline
210
0.0
220
0.0
230
1.0
 70
    24
 71
     3
 72
    18
 73
    14
 74
     0
 42
0.000000001
 43
0.00000001
 40
0.0
 40
0.0
 40
0.0
 40
0.0
 40
0.0625209357989474
 40
0.1562688446744001
 40
0.2500167442337801
 40
0.3437646394518574
 40
0.4375125667649759
 40
0.5312604530263062
 40
0.6250083729833447
 40
0.7187562778885529
 40
0.8125041807657516
 40
0.9062520851230346
 40
1.0
 40
1.0
 40
1.0
 40
1.0
 10
160.1490120611887
 20
165.63372254763
 30
0.0
 10
160.1490120611887
 20
165.6334910816151
 30
0.0
 10
160.1490120611887
 20
165.632912540583
 30
0.0
 10
160.1490120611887
 20
165.895457688061
 30
0.0
 10
160.1490120611887
 20
166.3769064646775
 30
0.0
 10
160.1490120611887
 20
167.0683434028548
 30
0.0
 10
160.1490120611887
 20
167.9318282513471
 30
0.0
 10
160.1490120611887
 20
168.9372740873095
 30
0.0
 10
160.1490120611887
 20
170.0450247720018
 30
0.0
 10
160.1490120611887
 20
171.2134827836492
 30
0.0
 10
160.1490120611887
 20
172.3948735431464
 30
0.0
 10
160.1490120611887
 20
173.5543081122913
 30
0.0
 10
160.1490120611887
 20
174.2568073613051
 30
0.0
 10
160.1490120611887
 20
174.6080570055192
 30
0.0
  0
SPLINE
  5
16E
330
1F
100
AcDbEntity
  8
0
  6
Continuous
 62
     7
370
    18
100
AcDbSpline
210
0.0
220
0.0
230
1.0
 70
    24
 71
     3
 72
    18
 73
    14
 74
     0
 42
0.000000001
 43
0.00000001
 40
0.0
 40
0.0
 40
0.0
 40
0.0
 40
0.0625209357989474
 40
0.1562688446744001
 40
0.2500167442337801
 40
0.3437646394518574
 40
0.4375125667649759
 40
0.5312604530263062
 40
0.6250083729833447
 40
0.7187562778885529
 40
0.8125041807657516
 40
0.9062520851230346
 40
1.0
 40
1.0
 40
1.0
 40
1.0
 10
142.6490101240378
 20
165.63372254763
 30
0.0
 10
142.6490101240378
 20
165.6334910816151
 30
0.0
 10
142.6490101240378
 20
165.632912540583
 30
0.0
 10
142.6490101240378
 20
165.895457688061
 30
0.0
 10
142.6490101240378
 20
166.3769064646775
 30
0.0
 10
142.6490101240378
 20
167.0683434028548
 30
0.0
 10
142.6490101240378
 20
167.9318282513471
 30
0.0
 10
142.6490101240378
 20
168.9372740873095
 30
0.0
 10
142.6490101240378
 20
170.0450247720018
 30
0.0
 10
142.6490101240378
 20
171.2134827836492
 30
0.0
 10
142.6490101240378
 20
172.3948735431464
 30
0.0
 10
142.6490101240378
 20
173.5543081122913
 30
0.0
 10
142.6490101240378
 20
174.2568073613051
 30
0.0
 10
142.6490101240378
 20
174.6080570055192
 30
0.0
  0
SPLINE
  5
16F
330
1F
100
AcDbEntity
  8
0
  6
Continuous
 62
     7
370
    18
100
AcDbSpline
210
0.0
220
0.0
230
1.0
 70
    24
 71
     3
 72
    13
 73
     9
 74
     0
 42
0.000000001
 43
0.00000001
 40
0.0
 40
0.0
 40
0.0
 40
0.0
 40
0.1875083858861686
 40
0.3750167516146531
 40
0.5625251209355483
 40
0.750033499982981
 40
0.9375418802998996
 40
0.9999999999999999
 40
0.9999999999999999
 40
0.9999999999999999
 40
0.9999999999999999
 10
142.6490101240378
 20
174.6080570055192
 30
0.0
 10
142.6490101240378
 20
174.9370362236505
 30
0.0
 10
142.6490101240378
 20
175.5949946245469
 30
0.0
 10
142.6490101240378
 20
176.396756509228
 30
0.0
 10
142.6490101240378
 20
177.0270430104754
 30
0.0
 10
142.6490101240378
 20
177.4308327010169
 30
0.0
 10
142.6490101240378
 20
177.6178420242198
 30
0.0
 10
142.6490101240378
 20
177.5894784923879
 30
0.0
 10
142.6490101240378
 20
177.5823914112544
 30
0.0
  0
SPLINE
  5
170
330
1F
100
AcDbEntity
  8
0
  6
Continuous
 62
     7
370
    18
100
AcDbSpline
210
0.0
220
0.0
230
1.0
 70
    24
 71
     3
 72
    18
 73
    14
 74
     0
 42
0.000000001
 43
0.00000001
 40
0.0
 40
0.0
 40
0.0
 40
0.0
 40
0.0625339643696377
 40
0.156280573417089
 40
0.2500271733536503
 40
0.3437737759734482
 40
0.4375203876899393
 40
0.5312669915780427
 40
0.6250135946915403
 40
0.7187601998637405
 40
0.8125068065510785
 40
0.9062534000634388
 40
1.0
 40
1.0
 40
1.0
 40
1.0
 10
161.1490103624564
 20
166.6294400246834
 30
0.0
 10
161.1490103624564
 20
166.6292461201961
 30
0.0
 10
161.1490103624564
 20
166.6287615274668
 30
0.0
 10
161.1490103624564
 20
166.8475563558074
 30
0.0
 10
161.1490103624564
 20
167.2487656260265
 30
0.0
 10
161.1490103624564
 20
167.8249622459836
 30
0.0
 10
161.1490103624564
 20
168.5445330693803
 30
0.0
 10
161.1490103624564
 20
169.3824045523005
 30
0.0
 10
161.1490103624564
 20
170.3055302762259
 30
0.0
 10
161.1490103624564
 20
171.2792451572381
 30
0.0
 10
161.1490103624564
 20
172.2637374494284
 30
0.0
 10
161.1490103624564
 20
173.2299329067413
 30
0.0
 10
161.1490103624564
 20
173.8153489112695
 30
0.0
 10
161.1490103624564
 20
174.1080569235629
 30
0.0
  0
LINE
  5
171
330
1F
100
AcDbEntity
  8
0
  6
Continuous
 62
     7
370
    18
100
AcDbLine
 10
161.1490103625
 20
174.1080569236
 30
0.0
 11
160.1490120612
 21
174.6080570055
 31
0.0
  0
SPLINE
  5
172
330
1F
100
AcDbEntity
  8
0
  6
Continuous
 62
     7
370
    18
100
AcDbSpline
210
0.0
220
0.0
230
1.0
 70
    24
 71
     3
 72
    13
 73
     9
 74
     0
 42
0.000000001
 43
0.00000001
 40
0.0
 40
0.0
 40
0.0
 40
0.0
 40
0.1875175661350592
 40
0.3750350940712484
 40
0.5625526367979181
 40
0.7500701779751752
 40
0.9375877122833444
 40
1.0
 40
1.0
 40
1.0
 40
1.0
 10
161.1490103624564
 20
174.1080569235629
 30
0.0
 10
161.1490103624564
 20
174.3822063303559
 30
0.0
 10
161.1490103624564
 20
174.9305050880954
 30
0.0
 10
161.1490103624564
 20
175.5986393274431
 30
0.0
 10
161.1490103624564
 20
176.1238793962257
 30
0.0
 10
161.1490103624564
 20
176.4603665581954
 30
0.0
 10
161.1490103624563
 20
176.6162031747826
 30
0.0
 10
161.1490103624564
 20
176.5925774562137
 30
0.0
 10
161.1490103624564
 20
176.5866776594913
 30
0.0
  0
SPLINE
  5
173
330
1F
100
AcDbEntity
  8
0
  6
Continuous
 62
     7
370
    18
100
AcDbSpline
210
0.0
220
0.0
230
1.0
 70
    24
 71
     3
 72
    18
 73
    14
 74
     0
 42
0.000000001
 43
0.00000001
 40
0.0
 40
0.0
 40
0.0
 40
0.0
 40
0.0937479057269943
 40
0.187495807076759
 40
0.2812437127369292
 40
0.3749916174813472
 40
0.4687395330850683
 40
0.5624874416430895
 40
0.6562353463867688
 40
0.7499832516656859
 40
0.8437311552783705
 40
0.9374790626523616
 40
1.0
 40
1.0
 40
1.0
 40
1.0
 10
135.6490108392935
 20
173.8580571154153
 30
0.0
 10
135.6490108392935
 20
173.5946198254007
 30
0.0
 10
135.6490108392935
 20
173.0677452576719
 30
0.0
 10
135.6490108392935
 20
172.1981694266463
 30
0.0
 10
135.6490108392935
 20
171.3121263446944
 30
0.0
 10
135.6490108392935
 20
170.4357829195723
 30
0.0
 10
135.6490108392935
 20
169.6049697841674
 30
0.0
 10
135.6490108392935
 20
168.8508853986557
 30
0.0
 10
135.6490108392935
 20
168.2032718995867
 30
0.0
 10
135.6490108392935
 20
167.6846944063102
 30
0.0
 10
135.6490108392935
 20
167.3236072170244
 30
0.0
 10
135.6490108392935
 20
167.1266984932373
 30
0.0
 10
135.6490108392935
 20
167.1271323864645
 30
0.0
 10
135.6490108392935
 20
167.1273059809601
 30
0.0
  0
SPLINE
  5
174
330
1F
100
AcDbEntity
  8
0
  6
Continuous
 62
     7
370
    18
100
AcDbSpline
210
0.0
220
0.0
230
1.0
 70
    24
 71
     3
 72
    13
 73
     9
 74
     0
 42
0.000000001
 43
0.00000001
 40
0.0
 40
0.0
 40
0.0
 40
0.0
 40
0.062458120769485
 40
0.2499664952250927
 40
0.4374748696405239
 40
0.624983258370314
 40
0.8124916343503455
 40
1.0
 40
1.0
 40
1.0
 40
1.0
 10
135.6490108392935
 20
176.0888079779243
 30
0.0
 10
135.6490108392935
 20
176.0941231556958
 30
0.0
 10
135.6490108392935
 20
176.1153952711977
 30
0.0
 10
135.6490108392935
 20
175.9751387598641
 30
0.0
 10
135.6490108392935
 20
175.6722968105665
 30
0.0
 10
135.6490108392935
 20
175.199581344906
 30
0.0
 10
135.6490108392935
 20
174.5982600587686
 30
0.0
 10
135.6490108392935
 20
174.1047914253353
 30
0.0
 10
135.6490108392935
 20
173.8580571154153
 30
0.0
  0
SPLINE
  5
175
330
1F
100
AcDbEntity
  8
0
  6
Continuous
 62
     7
370
    18
100
AcDbSpline
210
0.0
220
0.0
230
1.0
 70
    24
 71
     3
 72
    18
 73
    14
 74
     0
 42
0.000000001
 43
0.00000001
 40
0.0
 40
0.0
 40
0.0
 40
0.0
 40
0.0625478405806975
 40
0.1562930520672113
 40
0.2500382808021511
 40
0.3437834960656346
 40
0.437528719070211
 40
0.5312739136081982
 40
0.6250191286540351
 40
0.7187643436296104
 40
0.8125095602348491
 40
0.9062547712650603
 40
1.0
 40
1.0
 40
1.0
 40
1.0
 10
135.1490098260145
 20
167.625159364382
 30
0.0
 10
135.1490098260145
 20
167.6250034942053
 30
0.0
 10
135.1490098260145
 20
167.6246140095258
 30
0.0
 10
135.1490098260145
 20
167.7996551244281
 30
0.0
 10
135.1490098260145
 20
168.1206239557674
 30
0.0
 10
135.1490098260145
 20
168.5815813450184
 30
0.0
 10
135.1490098260145
 20
169.1572379349437
 30
0.0
 10
135.1490098260145
 20
169.8275351173046
 30
0.0
 10
135.1490098260145
 20
170.5660356730705
 30
0.0
 10
135.1490098260145
 20
171.3450075126926
 30
0.0
 10
135.1490098260145
 20
172.1326014182778
 30
0.0
 10
135.1490098260145
 20
172.9055577276513
 30
0.0
 10
135.1490098260145
 20
173.3738906107669
 30
0.0
 10
135.1490098260145
 20
173.6080570744371
 30
0.0
  0
SPLINE
  5
176
330
1F
100
AcDbEntity
  8
0
  6
Continuous
 62
     7
370
    18
100
AcDbSpline
210
0.0
220
0.0
230
1.0
 70
    24
 71
     3
 72
    13
 73
     9
 74
     0
 42
0.000000001
 43
0.00000001
 40
0.0
 40
0.0
 40
0.0
 40
0.0
 40
0.1875172785356595
 40
0.375034604987356
 40
0.5625519275411274
 40
0.7500692184602268
 40
0.937586549080138
 40
1.0
 40
1.0
 40
1.0
 40
1.0
 10
135.1490098260145
 20
173.6080570744371
 30
0.0
 10
135.1490098260145
 20
173.8273765287816
 30
0.0
 10
135.1490098260145
 20
174.266015493513
 30
0.0
 10
135.1490098260145
 20
174.8005229512933
 30
0.0
 10
135.1490098260145
 20
175.2207152984541
 30
0.0
 10
135.1490098260146
 20
175.4899042829247
 30
0.0
 10
135.1490098260145
 20
175.614574890386
 30
0.0
 10
135.1490098260145
 20
175.5956733466848
 30
0.0
 10
135.1490098260145
 20
175.5909531975186
 30
0.0
  0
SPLINE
  5
177
330
1F
100
AcDbEntity
  8
0
  6
Continuous
 62
     7
370
    18
100
AcDbSpline
210
0.0
220
0.0
230
1.0
 70
     8
 71
     3
 72
    12
 73
     8
 74
     0
 42
0.000000001
 43
0.00000001
 40
0.0
 40
0.0
 40
0.0
 40
0.0
 40
0.1644443311793027
 40
0.3305519270892303
 40
0.4988651060772791
 40
0.7465204752750978
 40
1.0
 40
1.0
 40
1.0
 40
1.0
 10
152.8818628028749
 20
169.1438127343027
 30
0.0
 10
152.9046143229766
 20
169.0082586677017
 30
0.0
 10
152.9503474823982
 20
168.73577947904
 30
0.0
 10
153.0313081258508
 20
168.3266998709473
 30
0.0
 10
153.1354878212334
 20
167.8514647654482
 30
0.0
 10
153.2683854486293
 20
167.3078207318449
 30
0.0
 10
153.3816759892385
 20
166.9045556509052
 30
0.0
 10
153.4389795870076
 20
166.7005797508144
 30
0.0
  0
LINE
  5
178
330
1F
100
AcDbEntity
  8
0
  6
Continuous
 62
     7
370
    18
100
AcDbLine
 10
155.3247462235
 20
166.7005795652
 30
0.0
 11
153.4389781974
 21
166.7005795652
 31
0.0
  0
SPLINE
  5
179
330
1F
100
AcDbEntity
  8
0
  6
Continuous
 62
     7
370
    18
100
AcDbSpline
210
0.0
220
0.0
230
1.0
 70
     8
 71
     3
 72
    12
 73
     8
 74
     0
 42
0.000000001
 43
0.00000001
 40
0.0
 40
0.0
 40
0.0
 40
0.0
 40
0.1689572582063151
 40
0.3351727945564676
 40
0.4989969118171301
 40
0.7516965896415582
 40
1.0
 40
1.0
 40
1.0
 40
1.0
 10
155.3247460187423
 20
166.7005797458012
 30
0.0
 10
155.3632619213107
 20
166.8364445431518
 30
0.0
 10
155.4396687169451
 20
167.1059694176277
 30
0.0
 10
155.544564175394
 20
167.5096680804324
 30
0.0
 10
155.6584743642551
 20
167.9832227880858
 30
0.0
 10
155.7760261094797
 20
168.5264844302346
 30
0.0
 10
155.8467908904302
 20
168.9392439416645
 30
0.0
 10
155.8818628028749
 20
169.1438127292894
 30
0.0
  0
SPLINE
  5
17A
330
1F
100
AcDbEntity
  8
0
  6
Continuous
 62
     7
370
    18
100
AcDbSpline
210
0.0
220
0.0
230
1.0
 70
     8
 71
     3
 72
    12
 73
     8
 74
     0
 42
0.000000001
 43
0.00000001
 40
0.0
 40
0.0
 40
0.0
 40
0.0
 40
0.1644443311810584
 40
0.3305519270918214
 40
0.4988651060799431
 40
0.7465204752768368
 40
1.0
 40
1.0
 40
1.0
 40
1.0
 10
155.8818628028749
 20
174.0723013452932
 30
0.0
 10
155.8591112827733
 20
174.2078554118858
 30
0.0
 10
155.8133781233519
 20
174.4803346005299
 30
0.0
 10
155.7324174798994
 20
174.889414208595
 30
0.0
 10
155.6282377845167
 20
175.364649314059
 30
0.0
 10
155.4953401571209
 20
175.9082933476194
 30
0.0
 10
155.3820496165114
 20
176.3115584285261
 30
0.0
 10
155.3247460187423
 20
176.5155343285998
 30
0.0
  0
LINE
  5
17B
330
1F
100
AcDbEntity
  8
0
  6
Continuous
 62
     7
370
    18
100
AcDbLine
 10
153.4389781974
 20
176.5155343937
 30
0.0
 11
155.3247462235
 21
176.5155343937
 31
0.0
  0
SPLINE
  5
17C
330
1F
100
AcDbEntity
  8
0
  6
Continuous
 62
     7
370
    18
100
AcDbSpline
210
0.0
220
0.0
230
1.0
 70
     8
 71
     3
 72
    12
 73
     8
 74
     0
 42
0.000000001
 43
0.00000001
 40
0.0
 40
0.0
 40
0.0
 40
0.0
 40
0.1689572582032377
 40
0.335172794550638
 40
0.498996911808996
 40
0.7516965879734799
 40
1.0
 40
1.0
 40
1.0
 40
1.0
 10
153.4389795870076
 20
176.5155343251131
 30
0.0
 10
153.4004636844433
 20
176.379669527773
 30
0.0
 10
153.324056888817
 20
176.1101446533178
 30
0.0
 10
153.2191614303077
 20
175.7064459905583
 30
0.0
 10
153.1052512420366
 20
175.2328912842328
 30
0.0
 10
152.9876994952323
 20
174.6896296424433
 30
0.0
 10
152.9169347151329
 20
174.2768701308723
 30
0.0
 10
152.8818628028749
 20
174.0723013418064
 30
0.0
  0
LINE
  5
17D
330
1F
100
AcDbEntity
  8
0
  6
Continuous
 62
     7
370
    18
100
AcDbLine
 10
152.8818610333
 20
174.0723013544
 30
0.0
 11
152.8818610333
 21
169.1438128373
 31
0.0
  0
LINE
  5
17E
330
1F
100
AcDbEntity
  8
0
  6
Continuous
 62
   144
370
    18
100
AcDbLine
 10
155.8818633877
 20
169.1438128373
 30
0.0
 11
155.8818633877
 21
174.0723013544
 31
0.0
  0
SPLINE
  5
17F
330
1F
100
AcDbEntity
  8
0
  6
Continuous
 62
     7
370
    18
100
AcDbSpline
210
0.0
220
0.0
230
1.0
 70
    24
 71
     3
 72
    13
 73
     9
 74
     0
 42
0.000000001
 43
0.00000001
 40
0.0
 40
0.0
 40
0.0
 40
0.0
 40
0.1250641148546024
 40
0.2500142383156693
 40
0.3749643622289934
 40
0.5000284784391451
 40
0.7500142388200999
 40
1.0
 40
1.0
 40
1.0
 40
1.0
 10
152.8818628028749
 20
163.014718955619
 30
0.0
 10
152.8818628028749
 20
162.9941751548208
 30
0.0
 10
152.8818628028749
 20
162.9531062781518
 30
0.0
 10
152.8818628028749
 20
162.9015015598349
 30
0.0
 10
152.8818628028749
 20
162.8572232515479
 30
0.0
 10
152.8818628028749
 20
162.8092807609235
 30
0.0
 10
152.8818628028749
 20
162.7673036134579
 30
0.0
 10
152.8818628028749
 20
162.7611392267969
 30
0.0
 10
152.8818628028749
 20
162.7580570334614
 30
0.0
  0
LINE
  5
180
330
1F
100
AcDbEntity
  8
0
  6
Continuous
 62
     7
370
    18
100
AcDbLine
 10
152.8818610333
 20
165.4789632784
 30
0.0
 11
152.8818610333
 21
163.0147186706
 31
0.0
  0
SPLINE
  5
181
330
1F
100
AcDbEntity
  8
0
  6
Continuous
 62
     7
370
    18
100
AcDbSpline
210
0.0
220
0.0
230
1.0
 70
    24
 71
     3
 72
    17
 73
    13
 74
     0
 42
0.000000001
 43
0.00000001
 40
0.0
 40
0.0
 40
0.0
 40
0.0
 40
0.0625338373405169
 40
0.1250106772917569
 40
0.1874875174443867
 40
0.250021355388521
 40
0.3750177961098048
 40
0.5000142374453468
 40
0.6250106770730685
 40
0.7500071163012073
 40
0.8750035586027881
 40
1.0
 40
1.0
 40
1.0
 40
1.0
 10
152.8818628028749
 20
169.1438127343349
 30
0.0
 10
152.8818628028749
 20
169.0584849293528
 30
0.0
 10
152.8818628028749
 20
168.8879070926763
 30
0.0
 10
152.8818628028749
 20
168.6351569909104
 30
0.0
 10
152.8818628028749
 20
168.3849554054426
 30
0.0
 10
152.8818628028749
 20
168.0553060347753
 30
0.0
 10
152.8818628028749
 20
167.6509927347082
 30
0.0
 10
152.8818628028749
 20
167.1803981266192
 30
0.0
 10
152.8818628028749
 20
166.7257569608767
 30
0.0
 10
152.8818628028749
 20
166.2893756980503
 30
0.0
 10
152.8818628028749
 20
165.8707117801605
 30
0.0
 10
152.8818628028749
 20
165.6095460959694
 30
0.0
 10
152.8818628028749
 20
165.4789632543462
 30
0.0
  0
SPLINE
  5
182
330
1F
100
AcDbEntity
  8
0
  6
Continuous
 62
     7
370
    18
100
AcDbSpline
210
0.0
220
0.0
230
1.0
 70
    24
 71
     3
 72
    13
 73
     9
 74
     0
 42
0.000000001
 43
0.00000001
 40
0.0
 40
0.0
 40
0.0
 40
0.0
 40
0.1250641151514015
 40
0.2500142378875858
 40
0.3749643600355799
 40
0.500028473424017
 40
0.7500142354555743
 40
1.0
 40
1.0
 40
1.0
 40
1.0
 10
152.8818628028749
 20
176.0330570347878
 30
0.0
 10
152.8818628028749
 20
175.9555373657317
 30
0.0
 10
152.8818628028749
 20
175.8005686846124
 30
0.0
 10
152.8818628028749
 20
175.5632512258592
 30
0.0
 10
152.8818628028749
 20
175.3226273453975
 30
0.0
 10
152.8818628028749
 20
174.9970883197582
 30
0.0
 10
152.8818628028749
 20
174.5827484443113
 30
0.0
 10
152.8818628028749
 20
174.2424503736697
 30
0.0
 10
152.8818628028749
 20
174.0723013374938
 30
0.0
  0
SPLINE
  5
183
330
1F
100
AcDbEntity
  8
0
  6
Continuous
 62
     7
370
    18
100
AcDbSpline
210
0.0
220
0.0
230
1.0
 70
    24
 71
     3
 72
    13
 73
     9
 74
     0
 42
0.000000001
 43
0.00000001
 40
0.0
 40
0.0
 40
0.0
 40
0.0
 40
0.1250641152939191
 40
0.2500142381347977
 40
0.3749643603473212
 40
0.5000284737578939
 40
0.7500142357028028
 40
1.0
 40
1.0
 40
1.0
 40
1.0
 10
152.8818628028749
 20
177.7371508246546
 30
0.0
 10
152.8818628028749
 20
177.672366440733
 30
0.0
 10
152.8818628028749
 20
177.5428567220488
 30
0.0
 10
152.8818628028749
 20
177.3417170061327
 30
0.0
 10
152.8818628028749
 20
177.1357721781757
 30
0.0
 10
152.8818628028749
 20
176.8541727377914
 30
0.0
 10
152.8818628028749
 20
176.4910179298915
 30
0.0
 10
152.8818628028749
 20
176.1857106669679
 30
0.0
 10
152.8818628028749
 20
176.0330570347878
 30
0.0
  0
LINE
  5
184
330
1F
100
AcDbEntity
  8
0
  6
Continuous
 62
     7
370
    18
100
AcDbLine
 10
152.8818610333
 20
180.2013948226
 30
0.0
 11
152.8818610333
 21
177.7371506805
 31
0.0
  0
SPLINE
  5
185
330
1F
100
AcDbEntity
  8
0
  6
Continuous
 62
     7
370
    18
100
AcDbSpline
210
0.0
220
0.0
230
1.0
 70
    24
 71
     3
 72
    13
 73
     9
 74
     0
 42
0.000000001
 43
0.00000001
 40
0.0
 40
0.0
 40
0.0
 40
0.0
 40
0.1250641147924005
 40
0.2500142374074629
 40
0.3749643597162773
 40
0.5000284735907758
 40
0.7500142376006728
 40
1.0
 40
1.0
 40
1.0
 40
1.0
 10
152.8818628028749
 20
180.4580570405038
 30
0.0
 10
152.8818628028749
 20
180.4572841404234
 30
0.0
 10
152.8818628028749
 20
180.4557390447377
 30
0.0
 10
152.8818628028749
 20
180.4431949097088
 30
0.0
 10
152.8818628028749
 20
180.4232215921187
 30
0.0
 10
152.8818628028749
 20
180.3854143107528
 30
0.0
 10
152.8818628028749
 20
180.3201230373409
 30
0.0
 10
152.8818628028749
 20
180.240971086478
 30
0.0
 10
152.8818628028749
 20
180.201395111174
 30
0.0
  0
SPLINE
  5
186
330
1F
100
AcDbEntity
  8
0
  6
Continuous
 62
     7
370
    18
100
AcDbSpline
210
0.0
220
0.0
230
1.0
 70
     8
 71
     3
 72
    12
 73
     8
 74
     0
 42
0.000000001
 43
0.00000001
 40
0.0
 40
0.0
 40
0.0
 40
0.0
 40
0.1687587900190306
 40
0.3347821315317121
 40
0.4984190143161831
 40
0.7514131734750366
 40
1.0
 40
1.0
 40
1.0
 40
1.0
 10
153.4389795870076
 20
166.7005797508144
 30
0.0
 10
153.4005081750637
 20
166.6327287191303
 30
0.0
 10
153.3241889427905
 20
166.4981264681229
 30
0.0
 10
153.2194016901145
 20
166.2965151887624
 30
0.0
 10
153.1054814439146
 20
166.0597616270021
 30
0.0
 10
152.9878284067313
 20
165.7880102259522
 30
0.0
 10
152.9169771502979
 20
165.5813736840908
 30
0.0
 10
152.8818628028749
 20
165.4789632585534
 30
0.0
  0
SPLINE
  5
187
330
1F
100
AcDbEntity
  8
0
  6
Continuous
 62
     7
370
    18
100
AcDbSpline
210
0.0
220
0.0
230
1.0
 70
     8
 71
     3
 72
    12
 73
     8
 74
     0
 42
0.000000001
 43
0.00000001
 40
0.0
 40
0.0
 40
0.0
 40
0.0
 40
0.1644443311793021
 40
0.3305519270892308
 40
0.4988651060772775
 40
0.7465204752750979
 40
1.0
 40
1.0
 40
1.0
 40
1.0
 10
152.8818628028749
 20
177.7371508181686
 30
0.0
 10
152.9046143229766
 20
177.6693684114437
 30
0.0
 10
152.9503474823982
 20
177.5331180159147
 30
0.0
 10
153.0313081258507
 20
177.3285778015441
 30
0.0
 10
153.1354878212334
 20
177.0909850797909
 30
0.0
 10
153.2683854486293
 20
176.8191438394277
 30
0.0
 10
153.3816759892384
 20
176.6175185892003
 30
0.0
 10
153.4389795870076
 20
176.5155343266395
 30
0.0
  0
SPLINE
  5
188
330
1F
100
AcDbEntity
  8
0
  6
Continuous
 62
     7
370
    18
100
AcDbSpline
210
0.0
220
0.0
230
1.0
 70
     8
 71
     3
 72
    12
 73
     8
 74
     0
 42
0.000000001
 43
0.00000001
 40
0.0
 40
0.0
 40
0.0
 40
0.0
 40
0.165088191481976
 40
0.3318533797545942
 40
0.5008439413460338
 40
0.74753160191054
 40
1.0
 40
1.0
 40
1.0
 40
1.0
 10
155.8818628028749
 20
165.4789632611721
 30
0.0
 10
155.8590185446484
 20
165.5470108411408
 30
0.0
 10
155.8130979719386
 20
165.6837972411492
 30
0.0
 10
155.7317599023709
 20
165.8891434415379
 30
0.0
 10
155.6274162854546
 20
166.1268752067437
 30
0.0
 10
155.4946811093222
 20
166.3981755763772
 30
0.0
 10
155.3818267053977
 20
166.5990030933319
 30
0.0
 10
155.3247460187423
 20
166.7005797458012
 30
0.0
  0
SPLINE
  5
189
330
1F
100
AcDbEntity
  8
0
  6
Continuous
 62
   144
370
    18
100
AcDbSpline
210
0.0
220
0.0
230
1.0
 70
    24
 71
     3
 72
     8
 73
     4
 74
     0
 42
0.000000001
 43
0.00000001
 40
0.0
 40
0.0
 40
0.0
 40
0.0
 40
0.9999999999999999
 40
0.9999999999999999
 40
0.9999999999999999
 40
0.9999999999999999
 10
155.8818628028749
 20
169.1438127292894
 30
0.0
 10
155.8818628028749
 20
167.7690846177649
 30
0.0
 10
155.8818628028749
 20
166.5114808171493
 30
0.0
 10
155.8818628028749
 20
165.4789632611721
 30
0.0
  0
SPLINE
  5
18A
330
1F
100
AcDbEntity
  8
0
  6
Continuous
 62
     7
370
    18
100
AcDbSpline
210
0.0
220
0.0
230
1.0
 70
     8
 71
     3
 72
    12
 73
     8
 74
     0
 42
0.000000001
 43
0.00000001
 40
0.0
 40
0.0
 40
0.0
 40
0.0
 40
0.1689572569456176
 40
0.3351727927463814
 40
0.4989969101771036
 40
0.751696588828739
 40
1.0
 40
1.0
 40
1.0
 40
1.0
 10
155.3247460187423
 20
176.5155343285998
 30
0.0
 10
155.3632619213411
 20
176.583465262729
 30
0.0
 10
155.4396687171932
 20
176.718224794918
 30
0.0
 10
155.5445641756178
 20
176.9200716073182
 30
0.0
 10
155.6584743643783
 20
177.1568629843406
 30
0.0
 10
155.7760261094629
 20
177.4284581931478
 30
0.0
 10
155.8467908904246
 20
177.6348569849305
 30
0.0
 10
155.8818628028749
 20
177.7371508132568
 30
0.0
  0
SPLINE
  5
18B
330
1F
100
AcDbEntity
  8
0
  6
Continuous
 62
   144
370
    18
100
AcDbSpline
210
0.0
220
0.0
230
1.0
 70
    24
 71
     3
 72
     8
 73
     4
 74
     0
 42
0.000000001
 43
0.00000001
 40
0.0
 40
0.0
 40
0.0
 40
0.0
 40
0.9999999999999999
 40
0.9999999999999999
 40
0.9999999999999999
 40
0.9999999999999999
 10
155.8818628028749
 20
177.7371508132568
 30
0.0
 10
155.8818628028749
 20
176.7046332573516
 30
0.0
 10
155.8818628028749
 20
175.4470294567888
 30
0.0
 10
155.8818628028749
 20
174.0723013452932
 30
0.0
  0
SPLINE
  5
18C
330
1F
100
AcDbEntity
  8
0
  6
Continuous
 62
     7
370
    18
100
AcDbSpline
210
0.0
220
0.0
230
1.0
 70
     8
 71
     3
 72
    12
 73
     8
 74
     0
 42
0.000000001
 43
0.00000001
 40
0.0
 40
0.0
 40
0.0
 40
0.0
 40
0.1650881914802133
 40
0.3318533797519989
 40
0.5008439413433724
 40
0.7475316019088071
 40
1.0
 40
1.0
 40
1.0
 40
1.0
 10
152.8818628028749
 20
163.0147189513082
 30
0.0
 10
152.9047070611015
 20
162.9466822746127
 30
0.0
 10
152.9506276338114
 20
162.8099177919077
 30
0.0
 10
153.0319657033792
 20
162.6045724046423
 30
0.0
 10
153.1363093202955
 20
162.3667904717597
 30
0.0
 10
153.2690444964279
 20
162.0955282557854
 30
0.0
 10
153.3818989003522
 20
161.8946863773719
 30
0.0
 10
153.4389795870076
 20
161.7931024610129
 30
0.0
  0
LINE
  5
18D
330
1F
100
AcDbEntity
  8
0
  6
Continuous
 62
     7
370
    18
100
AcDbLine
 10
155.3247462235
 20
161.7931028495
 30
0.0
 11
153.4389781974
 21
161.7931028495
 31
0.0
  0
SPLINE
  5
18E
330
1F
100
AcDbEntity
  8
0
  6
Continuous
 62
     7
370
    18
100
AcDbSpline
210
0.0
220
0.0
230
1.0
 70
     8
 71
     3
 72
    12
 73
     8
 74
     0
 42
0.000000001
 43
0.00000001
 40
0.0
 40
0.0
 40
0.0
 40
0.0
 40
0.1687587900202519
 40
0.3347821315338623
 40
0.4984190143188403
 40
0.751413173477321
 40
1.0
 40
1.0
 40
1.0
 40
1.0
 10
155.3247460187423
 20
161.7931024610129
 30
0.0
 10
155.3632174306861
 20
161.8609564011866
 30
0.0
 10
155.4395366629593
 20
161.9955644220288
 30
0.0
 10
155.5443239156353
 20
162.1971807201583
 30
0.0
 10
155.658244161835
 20
162.4339063021445
 30
0.0
 10
155.7758971990181
 20
162.7057291589293
 30
0.0
 10
155.8467484554519
 20
162.9123274727211
 30
0.0
 10
155.8818628028749
 20
163.0147189521761
 30
0.0
  0
LINE
  5
18F
330
1F
100
AcDbEntity
  8
0
  6
Continuous
 62
   144
370
    18
100
AcDbLine
 10
155.8818633877
 20
163.0147186706
 30
0.0
 11
155.8818633877
 21
165.4789632784
 31
0.0
  0
SPLINE
  5
190
330
1F
100
AcDbEntity
  8
0
  6
Continuous
 62
     7
370
    18
100
AcDbSpline
210
0.0
220
0.0
230
1.0
 70
     8
 71
     3
 72
    12
 73
     8
 74
     0
 42
0.000000001
 43
0.00000001
 40
0.0
 40
0.0
 40
0.0
 40
0.0
 40
0.1644443311810588
 40
0.3305519270918211
 40
0.4988651060799452
 40
0.7465204752768371
 40
1.0
 40
1.0
 40
1.0
 40
1.0
 10
155.8818628028749
 20
180.2013951219428
 30
0.0
 10
155.8591112827733
 20
180.2691667817642
 30
0.0
 10
155.8133781233519
 20
180.4053955747868
 30
0.0
 10
155.7324174798994
 20
180.6099349683465
 30
0.0
 10
155.6282377845167
 20
180.8475773519058
 30
0.0
 10
155.4953401571209
 20
181.1193801449361
 30
0.0
 10
155.3820496165114
 20
181.3210199754984
 30
0.0
 10
155.3247460187423
 20
181.4230116129523
 30
0.0
  0
LINE
  5
191
330
1F
100
AcDbEntity
  8
0
  6
Continuous
 62
     7
370
    18
100
AcDbLine
 10
155.3247462235
 20
181.4230115751
 30
0.0
 11
153.4389781974
 21
181.4230115751
 31
0.0
  0
SPLINE
  5
192
330
1F
100
AcDbEntity
  8
0
  6
Continuous
 62
     7
370
    18
100
AcDbSpline
210
0.0
220
0.0
230
1.0
 70
     8
 71
     3
 72
    12
 73
     8
 74
     0
 42
0.000000001
 43
0.00000001
 40
0.0
 40
0.0
 40
0.0
 40
0.0
 40
0.1689572582032389
 40
0.3351727945506389
 40
0.498996911808997
 40
0.7516965879734793
 40
1.0
 40
1.0
 40
1.0
 40
1.0
 10
153.4389795870076
 20
181.4230116129523
 30
0.0
 10
153.4004636844433
 20
181.355077751385
 30
0.0
 10
153.324056888817
 20
181.2203124121015
 30
0.0
 10
153.2191614303077
 20
181.0184605640733
 30
0.0
 10
153.1052512420366
 20
180.7816972352564
 30
0.0
 10
152.9876994952324
 20
180.5100307992957
 30
0.0
 10
152.9169347151329
 20
180.3036700808456
 30
0.0
 10
152.8818628028749
 20
180.2013951214548
 30
0.0
  0
LINE
  5
193
330
1F
100
AcDbEntity
  8
0
  6
Continuous
 62
   144
370
    18
100
AcDbLine
 10
155.8818633877
 20
177.7371506805
 30
0.0
 11
155.8818633877
 21
180.2013948226
 31
0.0
  0
SPLINE
  5
194
330
1F
100
AcDbEntity
  8
0
  6
Continuous
 62
   144
370
    18
100
AcDbSpline
210
0.0
220
0.0
230
1.0
 70
    24
 71
     3
 72
     8
 73
     4
 74
     0
 42
0.000000001
 43
0.00000001
 40
0.0
 40
0.0
 40
0.0
 40
0.0
 40
1.0
 40
1.0
 40
1.0
 40
1.0
 10
155.8818628028749
 20
163.0147189521761
 30
0.0
 10
155.8818628028749
 20
162.8442366552382
 30
0.0
 10
155.8818628028749
 20
162.7580570372918
 30
0.0
 10
155.8818628028749
 20
162.7580570374089
 30
0.0
  0
SPLINE
  5
195
330
1F
100
AcDbEntity
  8
0
  6
Continuous
 62
   144
370
    18
100
AcDbSpline
210
0.0
220
0.0
230
1.0
 70
    24
 71
     3
 72
     8
 73
     4
 74
     0
 42
0.000000001
 43
0.00000001
 40
0.0
 40
0.0
 40
0.0
 40
0.0
 40
0.9999999999999999
 40
0.9999999999999999
 40
0.9999999999999999
 40
0.9999999999999999
 10
155.8818628028749
 20
180.4580570365563
 30
0.0
 10
155.8818628028749
 20
180.4580570367316
 30
0.0
 10
155.8818628028749
 20
180.3718774188368
 30
0.0
 10
155.8818628028749
 20
180.2013951219428
 30
0.0
  0
SPLINE
  5
196
330
1F
100
AcDbEntity
  8
0
  6
Continuous
 62
     7
370
    18
100
AcDbSpline
210
0.0
220
0.0
230
1.0
 70
     8
 71
     3
 72
    12
 73
     8
 74
     0
 42
0.000000001
 43
0.00000001
 40
0.0
 40
0.0
 40
0.0
 40
0.0
 40
0.1644443311793029
 40
0.3305519270892307
 40
0.4988651060772799
 40
0.7465204752750981
 40
1.0
 40
1.0
 40
1.0
 40
1.0
 10
155.8818628028749
 20
169.1438127343027
 30
0.0
 10
155.9046143229766
 20
169.0082586677017
 30
0.0
 10
155.9503474823983
 20
168.73577947904
 30
0.0
 10
156.0313081258507
 20
168.3266998709473
 30
0.0
 10
156.1354878212334
 20
167.8514647654482
 30
0.0
 10
156.2683854486293
 20
167.3078207318449
 30
0.0
 10
156.3816759892384
 20
166.9045556509052
 30
0.0
 10
156.4389795870076
 20
166.7005797508144
 30
0.0
  0
SPLINE
  5
197
330
1F
100
AcDbEntity
  8
0
  6
Continuous
 62
     7
370
    18
100
AcDbSpline
210
0.0
220
0.0
230
1.0
 70
     8
 71
     3
 72
    12
 73
     8
 74
     0
 42
0.000000001
 43
0.00000001
 40
0.0
 40
0.0
 40
0.0
 40
0.0
 40
0.1687587900190294
 40
0.3347821315317118
 40
0.4984190143161824
 40
0.7514131734750368
 40
1.0
 40
1.0
 40
1.0
 40
1.0
 10
156.4389795870076
 20
166.7005797508144
 30
0.0
 10
156.4005081750637
 20
166.6327287191303
 30
0.0
 10
156.3241889427905
 20
166.4981264681229
 30
0.0
 10
156.2194016901145
 20
166.2965151887624
 30
0.0
 10
156.1054814439146
 20
166.0597616270021
 30
0.0
 10
155.9878284067313
 20
165.7880102259522
 30
0.0
 10
155.9169771502979
 20
165.5813736840908
 30
0.0
 10
155.8818628028749
 20
165.4789632585534
 30
0.0
  0
SPLINE
  5
198
330
1F
100
AcDbEntity
  8
0
  6
Continuous
 62
   144
370
    18
100
AcDbSpline
210
0.0
220
0.0
230
1.0
 70
    24
 71
     3
 72
     8
 73
     4
 74
     0
 42
0.000000001
 43
0.00000001
 40
0.0
 40
0.0
 40
0.0
 40
0.0
 40
1.0
 40
1.0
 40
1.0
 40
1.0
 10
155.8818628028749
 20
165.4789632585534
 30
0.0
 10
155.8818628028749
 20
166.5114808162837
 30
0.0
 10
155.8818628028749
 20
167.7690846196674
 30
0.0
 10
155.8818628028749
 20
169.1438127343027
 30
0.0
  0
SPLINE
  5
199
330
1F
100
AcDbEntity
  8
0
  6
Continuous
 62
     7
370
    18
100
AcDbSpline
210
0.0
220
0.0
230
1.0
 70
     8
 71
     3
 72
    12
 73
     8
 74
     0
 42
0.000000001
 43
0.00000001
 40
0.0
 40
0.0
 40
0.0
 40
0.0
 40
0.1689572582032365
 40
0.3351727945506377
 40
0.4989969118089954
 40
0.7516965879734796
 40
1.0
 40
1.0
 40
1.0
 40
1.0
 10
156.4389795870076
 20
176.5155343251131
 30
0.0
 10
156.4004636844433
 20
176.379669527773
 30
0.0
 10
156.324056888817
 20
176.1101446533178
 30
0.0
 10
156.2191614303077
 20
175.7064459905584
 30
0.0
 10
156.1052512420366
 20
175.2328912842328
 30
0.0
 10
155.9876994952324
 20
174.6896296424433
 30
0.0
 10
155.9169347151329
 20
174.2768701308723
 30
0.0
 10
155.8818628028749
 20
174.0723013418064
 30
0.0
  0
SPLINE
  5
19A
330
1F
100
AcDbEntity
  8
0
  6
Continuous
 62
     7
370
    18
100
AcDbSpline
210
0.0
220
0.0
230
1.0
 70
     8
 71
     3
 72
    12
 73
     8
 74
     0
 42
0.000000001
 43
0.00000001
 40
0.0
 40
0.0
 40
0.0
 40
0.0
 40
0.1644443311793023
 40
0.3305519270892313
 40
0.4988651060772782
 40
0.7465204752750982
 40
1.0
 40
1.0
 40
1.0
 40
1.0
 10
155.8818628028749
 20
177.7371508181686
 30
0.0
 10
155.9046143229766
 20
177.6693684114437
 30
0.0
 10
155.9503474823982
 20
177.5331180159147
 30
0.0
 10
156.0313081258507
 20
177.3285778015441
 30
0.0
 10
156.1354878212334
 20
177.0909850797909
 30
0.0
 10
156.2683854486293
 20
176.8191438394277
 30
0.0
 10
156.3816759892384
 20
176.6175185892003
 30
0.0
 10
156.4389795870076
 20
176.5155343266395
 30
0.0
  0
SPLINE
  5
19B
330
1F
100
AcDbEntity
  8
0
  6
Continuous
 62
   144
370
    18
100
AcDbSpline
210
0.0
220
0.0
230
1.0
 70
    24
 71
     3
 72
     8
 73
     4
 74
     0
 42
0.000000001
 43
0.00000001
 40
0.0
 40
0.0
 40
0.0
 40
0.0
 40
1.0
 40
1.0
 40
1.0
 40
1.0
 10
155.8818628028749
 20
176.033057038359
 30
0.0
 10
155.8818628028749
 20
176.6505864917059
 30
0.0
 10
155.8818628028749
 20
177.2227716989349
 30
0.0
 10
155.8818628028749
 20
177.7371508181686
 30
0.0
  0
SPLINE
  5
19C
330
1F
100
AcDbEntity
  8
0
  6
Continuous
 62
   144
370
    18
100
AcDbSpline
210
0.0
220
0.0
230
1.0
 70
    24
 71
     3
 72
     8
 73
     4
 74
     0
 42
0.000000001
 43
0.00000001
 40
0.0
 40
0.0
 40
0.0
 40
0.0
 40
1.0
 40
1.0
 40
1.0
 40
1.0
 10
155.8818628028749
 20
174.0723013418064
 30
0.0
 10
155.8818628028749
 20
174.757162758195
 30
0.0
 10
155.8818628028749
 20
175.4155275835717
 30
0.0
 10
155.8818628028749
 20
176.0330570369826
 30
0.0
  0
SPLINE
  5
19D
330
1F
100
AcDbEntity
  8
0
  6
Continuous
 62
     7
370
    18
100
AcDbSpline
210
0.0
220
0.0
230
1.0
 70
    24
 71
     3
 72
     8
 73
     4
 74
     0
 42
0.000000001
 43
0.00000001
 40
0.0
 40
0.0
 40
0.0
 40
0.0
 40
0.9999999999999999
 40
0.9999999999999999
 40
0.9999999999999999
 40
0.9999999999999999
 10
158.8818628028749
 20
169.1438127292894
 30
0.0
 10
158.8818628028749
 20
167.7690846177649
 30
0.0
 10
158.8818628028749
 20
166.5114808171493
 30
0.0
 10
158.8818628028749
 20
165.4789632611721
 30
0.0
  0
SPLINE
  5
19E
330
1F
100
AcDbEntity
  8
0
  6
Continuous
 62
     7
370
    18
100
AcDbSpline
210
0.0
220
0.0
230
1.0
 70
     8
 71
     3
 72
    12
 73
     8
 74
     0
 42
0.000000001
 43
0.00000001
 40
0.0
 40
0.0
 40
0.0
 40
0.0
 40
0.1689572582063151
 40
0.3351727945564676
 40
0.4989969118171296
 40
0.7516965896415577
 40
1.0
 40
1.0
 40
1.0
 40
1.0
 10
158.3247460187422
 20
166.7005797458012
 30
0.0
 10
158.3632619213107
 20
166.8364445431518
 30
0.0
 10
158.4396687169451
 20
167.1059694176277
 30
0.0
 10
158.544564175394
 20
167.5096680804324
 30
0.0
 10
158.6584743642551
 20
167.9832227880858
 30
0.0
 10
158.7760261094797
 20
168.5264844302346
 30
0.0
 10
158.8467908904302
 20
168.9392439416645
 30
0.0
 10
158.8818628028749
 20
169.1438127292894
 30
0.0
  0
SPLINE
  5
19F
330
1F
100
AcDbEntity
  8
0
  6
Continuous
 62
     7
370
    18
100
AcDbSpline
210
0.0
220
0.0
230
1.0
 70
     8
 71
     3
 72
    12
 73
     8
 74
     0
 42
0.000000001
 43
0.00000001
 40
0.0
 40
0.0
 40
0.0
 40
0.0
 40
0.1650881914819755
 40
0.3318533797545943
 40
0.5008439413460338
 40
0.7475316019105408
 40
1.0
 40
1.0
 40
1.0
 40
1.0
 10
158.8818628028749
 20
165.4789632611721
 30
0.0
 10
158.8590185446484
 20
165.5470108411408
 30
0.0
 10
158.8130979719386
 20
165.6837972411492
 30
0.0
 10
158.7317599023709
 20
165.8891434415379
 30
0.0
 10
158.6274162854546
 20
166.1268752067437
 30
0.0
 10
158.4946811093222
 20
166.3981755763772
 30
0.0
 10
158.3818267053977
 20
166.5990030933319
 30
0.0
 10
158.3247460187422
 20
166.7005797458012
 30
0.0
  0
SPLINE
  5
1A0
330
1F
100
AcDbEntity
  8
0
  6
Continuous
 62
     7
370
    18
100
AcDbSpline
210
0.0
220
0.0
230
1.0
 70
     8
 71
     3
 72
    12
 73
     8
 74
     0
 42
0.000000001
 43
0.00000001
 40
0.0
 40
0.0
 40
0.0
 40
0.0
 40
0.1644443311810589
 40
0.3305519270918213
 40
0.4988651060799431
 40
0.7465204752768368
 40
1.0
 40
1.0
 40
1.0
 40
1.0
 10
158.8818628028749
 20
174.0723013452932
 30
0.0
 10
158.8591112827733
 20
174.2078554118858
 30
0.0
 10
158.8133781233519
 20
174.4803346005299
 30
0.0
 10
158.7324174798993
 20
174.889414208595
 30
0.0
 10
158.6282377845167
 20
175.364649314059
 30
0.0
 10
158.4953401571208
 20
175.9082933476194
 30
0.0
 10
158.3820496165114
 20
176.3115584285261
 30
0.0
 10
158.3247460187422
 20
176.5155343285998
 30
0.0
  0
SPLINE
  5
1A1
330
1F
100
AcDbEntity
  8
0
  6
Continuous
 62
     7
370
    18
100
AcDbSpline
210
0.0
220
0.0
230
1.0
 70
    24
 71
     3
 72
     8
 73
     4
 74
     0
 42
0.000000001
 43
0.00000001
 40
0.0
 40
0.0
 40
0.0
 40
0.0
 40
0.9999999999999999
 40
0.9999999999999999
 40
0.9999999999999999
 40
0.9999999999999999
 10
158.8818628028749
 20
177.7371508132568
 30
0.0
 10
158.8818628028749
 20
176.7046332573516
 30
0.0
 10
158.8818628028749
 20
175.4470294567888
 30
0.0
 10
158.8818628028749
 20
174.0723013452932
 30
0.0
  0
SPLINE
  5
1A2
330
1F
100
AcDbEntity
  8
0
  6
Continuous
 62
     7
370
    18
100
AcDbSpline
210
0.0
220
0.0
230
1.0
 70
     8
 71
     3
 72
    12
 73
     8
 74
     0
 42
0.000000001
 43
0.00000001
 40
0.0
 40
0.0
 40
0.0
 40
0.0
 40
0.1689572569456177
 40
0.3351727927463815
 40
0.498996910177103
 40
0.7516965888287385
 40
1.0
 40
1.0
 40
1.0
 40
1.0
 10
158.3247460187422
 20
176.5155343285998
 30
0.0
 10
158.363261921341
 20
176.583465262729
 30
0.0
 10
158.4396687171932
 20
176.718224794918
 30
0.0
 10
158.5445641756178
 20
176.9200716073182
 30
0.0
 10
158.6584743643783
 20
177.1568629843406
 30
0.0
 10
158.7760261094629
 20
177.4284581931478
 30
0.0
 10
158.8467908904246
 20
177.6348569849305
 30
0.0
 10
158.8818628028749
 20
177.7371508132568
 30
0.0
  0
LINE
  5
1A3
330
1F
100
AcDbEntity
  8
0
  6
Continuous
 62
     7
370
    18
100
AcDbLine
 10
158.3247448526
 20
166.7005795652
 30
0.0
 11
156.4389805518
 21
166.7005795652
 31
0.0
  0
LINE
  5
1A4
330
1F
100
AcDbEntity
  8
0
  6
Continuous
 62
     7
370
    18
100
AcDbLine
 10
158.8818620167
 20
174.0723013544
 30
0.0
 11
158.8818620167
 21
169.1438128373
 31
0.0
  0
LINE
  5
1A5
330
1F
100
AcDbEntity
  8
0
  6
Continuous
 62
     7
370
    18
100
AcDbLine
 10
158.3247448526
 20
176.5155343937
 30
0.0
 11
156.4389805518
 21
176.5155343937
 31
0.0
  0
LINE
  5
1A6
330
1F
100
AcDbEntity
  8
0
  6
Continuous
 62
   144
370
    18
100
AcDbLine
 10
155.8818633877
 20
174.0723013544
 30
0.0
 11
155.8818633877
 21
169.1438128373
 31
0.0
  0
SPLINE
  5
1A7
330
1F
100
AcDbEntity
  8
0
  6
Continuous
 62
     7
370
    18
100
AcDbSpline
210
0.0
220
0.0
230
1.0
 70
    24
 71
     3
 72
     8
 73
     4
 74
     0
 42
0.000000001
 43
0.00000001
 40
0.0
 40
0.0
 40
0.0
 40
0.0
 40
0.9999999999999999
 40
0.9999999999999999
 40
0.9999999999999999
 40
0.9999999999999999
 10
158.8818628028749
 20
180.4580570365563
 30
0.0
 10
158.8818628028749
 20
180.4580570367316
 30
0.0
 10
158.8818628028749
 20
180.3718774188368
 30
0.0
 10
158.8818628028749
 20
180.2013951219428
 30
0.0
  0
LINE
  5
1A8
330
1F
100
AcDbEntity
  8
0
  6
Continuous
 62
     7
370
    18
100
AcDbLine
 10
158.8818620167
 20
180.2013948226
 30
0.0
 11
158.8818620167
 21
177.7371506805
 31
0.0
  0
LINE
  5
1A9
330
1F
100
AcDbEntity
  8
0
  6
Continuous
 62
     7
370
    18
100
AcDbLine
 10
158.8818620167
 20
165.4789632784
 30
0.0
 11
158.8818620167
 21
163.0147186706
 31
0.0
  0
SPLINE
  5
1AA
330
1F
100
AcDbEntity
  8
0
  6
Continuous
 62
     7
370
    18
100
AcDbSpline
210
0.0
220
0.0
230
1.0
 70
    24
 71
     3
 72
     8
 73
     4
 74
     0
 42
0.000000001
 43
0.00000001
 40
0.0
 40
0.0
 40
0.0
 40
0.0
 40
1.0
 40
1.0
 40
1.0
 40
1.0
 10
158.8818628028749
 20
163.0147189521761
 30
0.0
 10
158.8818628028749
 20
162.8442366552382
 30
0.0
 10
158.8818628028749
 20
162.7580570372918
 30
0.0
 10
158.8818628028749
 20
162.7580570374089
 30
0.0
  0
SPLINE
  5
1AB
330
1F
100
AcDbEntity
  8
0
  6
Continuous
 62
     7
370
    18
100
AcDbSpline
210
0.0
220
0.0
230
1.0
 70
     8
 71
     3
 72
    12
 73
     8
 74
     0
 42
0.000000001
 43
0.00000001
 40
0.0
 40
0.0
 40
0.0
 40
0.0
 40
0.1650881914802135
 40
0.3318533797519993
 40
0.5008439413433731
 40
0.7475316019088073
 40
1.0
 40
1.0
 40
1.0
 40
1.0
 10
155.8818628028749
 20
163.0147189513082
 30
0.0
 10
155.9047070611015
 20
162.9466822746127
 30
0.0
 10
155.9506276338114
 20
162.8099177919077
 30
0.0
 10
156.0319657033792
 20
162.6045724046423
 30
0.0
 10
156.1363093202955
 20
162.3667904717597
 30
0.0
 10
156.2690444964279
 20
162.0955282557854
 30
0.0
 10
156.3818989003522
 20
161.8946863773719
 30
0.0
 10
156.4389795870076
 20
161.7931024610129
 30
0.0
  0
LINE
  5
1AC
330
1F
100
AcDbEntity
  8
0
  6
Continuous
 62
     7
370
    18
100
AcDbLine
 10
158.3247448526
 20
161.7931028495
 30
0.0
 11
156.4389805518
 21
161.7931028495
 31
0.0
  0
SPLINE
  5
1AD
330
1F
100
AcDbEntity
  8
0
  6
Continuous
 62
     7
370
    18
100
AcDbSpline
210
0.0
220
0.0
230
1.0
 70
     8
 71
     3
 72
    12
 73
     8
 74
     0
 42
0.000000001
 43
0.00000001
 40
0.0
 40
0.0
 40
0.0
 40
0.0
 40
0.1687587900202519
 40
0.3347821315338623
 40
0.4984190143188403
 40
0.751413173477321
 40
1.0
 40
1.0
 40
1.0
 40
1.0
 10
158.3247460187422
 20
161.7931024610129
 30
0.0
 10
158.3632174306861
 20
161.8609564011866
 30
0.0
 10
158.4395366629592
 20
161.9955644220288
 30
0.0
 10
158.5443239156353
 20
162.1971807201583
 30
0.0
 10
158.658244161835
 20
162.4339063021445
 30
0.0
 10
158.7758971990181
 20
162.7057291589293
 30
0.0
 10
158.8467484554519
 20
162.9123274727211
 30
0.0
 10
158.8818628028749
 20
163.0147189521761
 30
0.0
  0
LINE
  5
1AE
330
1F
100
AcDbEntity
  8
0
  6
Continuous
 62
   144
370
    18
100
AcDbLine
 10
155.8818633877
 20
165.4789632784
 30
0.0
 11
155.8818633877
 21
163.0147186706
 31
0.0
  0
SPLINE
  5
1AF
330
1F
100
AcDbEntity
  8
0
  6
Continuous
 62
     7
370
    18
100
AcDbSpline
210
0.0
220
0.0
230
1.0
 70
     8
 71
     3
 72
    12
 73
     8
 74
     0
 42
0.000000001
 43
0.00000001
 40
0.0
 40
0.0
 40
0.0
 40
0.0
 40
0.1644443311810593
 40
0.3305519270918211
 40
0.4988651060799451
 40
0.746520475276837
 40
1.0
 40
1.0
 40
1.0
 40
1.0
 10
158.8818628028749
 20
180.2013951219428
 30
0.0
 10
158.8591112827733
 20
180.2691667817642
 30
0.0
 10
158.8133781233519
 20
180.4053955747868
 30
0.0
 10
158.7324174798993
 20
180.6099349683465
 30
0.0
 10
158.6282377845167
 20
180.8475773519058
 30
0.0
 10
158.4953401571209
 20
181.1193801449361
 30
0.0
 10
158.3820496165114
 20
181.3210199754984
 30
0.0
 10
158.3247460187422
 20
181.4230116129523
 30
0.0
  0
LINE
  5
1B0
330
1F
100
AcDbEntity
  8
0
  6
Continuous
 62
     7
370
    18
100
AcDbLine
 10
156.4389805518
 20
181.4230115751
 30
0.0
 11
158.3247448526
 21
181.4230115751
 31
0.0
  0
SPLINE
  5
1B1
330
1F
100
AcDbEntity
  8
0
  6
Continuous
 62
     7
370
    18
100
AcDbSpline
210
0.0
220
0.0
230
1.0
 70
     8
 71
     3
 72
    12
 73
     8
 74
     0
 42
0.000000001
 43
0.00000001
 40
0.0
 40
0.0
 40
0.0
 40
0.0
 40
0.1689572582032376
 40
0.3351727945506385
 40
0.4989969118089961
 40
0.7516965879734788
 40
0.9999999999999999
 40
0.9999999999999999
 40
0.9999999999999999
 40
0.9999999999999999
 10
156.4389795870076
 20
181.4230116129523
 30
0.0
 10
156.4004636844433
 20
181.355077751385
 30
0.0
 10
156.324056888817
 20
181.2203124121015
 30
0.0
 10
156.2191614303076
 20
181.0184605640733
 30
0.0
 10
156.1052512420366
 20
180.7816972352564
 30
0.0
 10
155.9876994952323
 20
180.5100307992957
 30
0.0
 10
155.9169347151329
 20
180.3036700808456
 30
0.0
 10
155.8818628028749
 20
180.2013951214548
 30
0.0
  0
LINE
  5
1B2
330
1F
100
AcDbEntity
  8
0
  6
Continuous
 62
   144
370
    18
100
AcDbLine
 10
155.8818633877
 20
180.2013948226
 30
0.0
 11
155.8818633877
 21
177.7371506805
 31
0.0
  0
SPLINE
  5
1B3
330
1F
100
AcDbEntity
  8
0
  6
Continuous
 62
   144
370
    18
100
AcDbSpline
210
0.0
220
0.0
230
1.0
 70
    24
 71
     3
 72
     8
 73
     4
 74
     0
 42
0.000000001
 43
0.00000001
 40
0.0
 40
0.0
 40
0.0
 40
0.0
 40
1.0
 40
1.0
 40
1.0
 40
1.0
 10
155.8818628028749
 20
180.2013951214548
 30
0.0
 10
155.8818628028749
 20
180.3718774185021
 30
0.0
 10
155.8818628028749
 20
180.4580570365608
 30
0.0
 10
155.8818628028749
 20
180.4580570365563
 30
0.0
  0
SPLINE
  5
1B4
330
1F
100
AcDbEntity
  8
0
  6
Continuous
 62
   144
370
    18
100
AcDbSpline
210
0.0
220
0.0
230
1.0
 70
    24
 71
     3
 72
     8
 73
     4
 74
     0
 42
0.000000001
 43
0.00000001
 40
0.0
 40
0.0
 40
0.0
 40
0.0
 40
0.9999999999999999
 40
0.9999999999999999
 40
0.9999999999999999
 40
0.9999999999999999
 10
155.8818628028749
 20
162.7580570374089
 30
0.0
 10
155.8818628028749
 20
162.7580570373494
 30
0.0
 10
155.8818628028749
 20
162.8442366550019
 30
0.0
 10
155.8818628028749
 20
163.0147189513082
 30
0.0
  0
SPLINE
  5
1B5
330
1F
100
AcDbEntity
  8
0
  6
Continuous
 62
   144
370
    18
100
AcDbSpline
210
0.0
220
0.0
230
1.0
 70
    24
 71
     3
 72
    13
 73
     9
 74
     0
 42
0.000000001
 43
0.00000001
 40
0.0
 40
0.0
 40
0.0
 40
0.0
 40
0.1250641151021713
 40
0.2500142379843969
 40
0.3749643605593844
 40
0.5000284747002982
 40
0.750014238155434
 40
1.0
 40
1.0
 40
1.0
 40
1.0
 10
155.8818628028749
 20
180.4580570405038
 30
0.0
 10
155.8818628028749
 20
180.4572841404637
 30
0.0
 10
155.8818628028749
 20
180.455739044859
 30
0.0
 10
155.8818628028749
 20
180.4431949098598
 30
0.0
 10
155.8818628028749
 20
180.4232215922359
 30
0.0
 10
155.8818628028749
 20
180.3854143108101
 30
0.0
 10
155.8818628028749
 20
180.3201230373408
 30
0.0
 10
155.8818628028749
 20
180.2409710864779
 30
0.0
 10
155.8818628028749
 20
180.201395111174
 30
0.0
  0
LINE
  5
1B6
330
1F
100
AcDbEntity
  8
0
  6
Continuous
 62
   144
370
    18
100
AcDbLine
 10
155.8818633877
 20
180.2013948226
 30
0.0
 11
155.8818633877
 21
177.7371506805
 31
0.0
  0
SPLINE
  5
1B7
330
1F
100
AcDbEntity
  8
0
  6
Continuous
 62
   144
370
    18
100
AcDbSpline
210
0.0
220
0.0
230
1.0
 70
    24
 71
     3
 72
    17
 73
    13
 74
     0
 42
0.000000001
 43
0.00000001
 40
0.0
 40
0.0
 40
0.0
 40
0.0
 40
0.0625338382098098
 40
0.1250106785701668
 40
0.187487518616337
 40
0.2500213558844473
 40
0.3750177959542485
 40
0.5000142372002274
 40
0.6250106784462899
 40
0.7500071185163386
 40
0.8750035586299341
 40
1.0
 40
1.0
 40
1.0
 40
1.0
 10
155.8818628028749
 20
177.7371508246546
 30
0.0
 10
155.8818628028749
 20
177.6723660603065
 30
0.0
 10
155.8818628028749
 20
177.5428555811162
 30
0.0
 10
155.8818628028749
 20
177.3417215650102
 30
0.0
 10
155.8818628028749
 20
177.1357550752799
 30
0.0
 10
155.8818628028749
 20
176.8542636372775
 30
0.0
 10
155.8818628028749
 20
176.4902859035586
 30
0.0
 10
155.8818628028749
 20
176.0357297680384
 30
0.0
 10
155.8818628028749
 20
175.5651372330639
 30
0.0
 10
155.8818628028749
 20
175.0799232453907
 30
0.0
 10
155.8818628028749
 20
174.5827425404676
 30
0.0
 10
155.8818628028749
 20
174.2424484057218
 30
0.0
 10
155.8818628028749
 20
174.0723013374938
 30
0.0
  0
LINE
  5
1B8
330
1F
100
AcDbEntity
  8
0
  6
Continuous
 62
   144
370
    18
100
AcDbLine
 10
155.8818633877
 20
174.0723013544
 30
0.0
 11
155.8818633877
 21
169.1438128373
 31
0.0
  0
SPLINE
  5
1B9
330
1F
100
AcDbEntity
  8
0
  6
Continuous
 62
   144
370
    18
100
AcDbSpline
210
0.0
220
0.0
230
1.0
 70
    24
 71
     3
 72
    17
 73
    13
 74
     0
 42
0.000000001
 43
0.00000001
 40
0.0
 40
0.0
 40
0.0
 40
0.0
 40
0.0625338373405169
 40
0.1250106772917569
 40
0.1874875174443867
 40
0.250021355388521
 40
0.3750177961098048
 40
0.5000142374453468
 40
0.6250106770730685
 40
0.7500071163012073
 40
0.8750035586027881
 40
1.0
 40
1.0
 40
1.0
 40
1.0
 10
155.8818628028749
 20
169.1438127343349
 30
0.0
 10
155.8818628028749
 20
169.0584849293528
 30
0.0
 10
155.8818628028749
 20
168.8879070926763
 30
0.0
 10
155.8818628028749
 20
168.6351569909104
 30
0.0
 10
155.8818628028749
 20
168.3849554054426
 30
0.0
 10
155.8818628028749
 20
168.0553060347753
 30
0.0
 10
155.8818628028749
 20
167.6509927347082
 30
0.0
 10
155.8818628028749
 20
167.1803981266192
 30
0.0
 10
155.8818628028749
 20
166.7257569608767
 30
0.0
 10
155.8818628028749
 20
166.2893756980503
 30
0.0
 10
155.8818628028749
 20
165.8707117801605
 30
0.0
 10
155.8818628028749
 20
165.6095460959694
 30
0.0
 10
155.8818628028749
 20
165.4789632543462
 30
0.0
  0
LINE
  5
1BA
330
1F
100
AcDbEntity
  8
0
  6
Continuous
 62
   144
370
    18
100
AcDbLine
 10
155.8818633877
 20
165.4789632784
 30
0.0
 11
155.8818633877
 21
163.0147186706
 31
0.0
  0
SPLINE
  5
1BB
330
1F
100
AcDbEntity
  8
0
  6
Continuous
 62
   144
370
    18
100
AcDbSpline
210
0.0
220
0.0
230
1.0
 70
    24
 71
     3
 72
    13
 73
     9
 74
     0
 42
0.000000001
 43
0.00000001
 40
0.0
 40
0.0
 40
0.0
 40
0.0
 40
0.1250641148546025
 40
0.2500142383156694
 40
0.3749643622289934
 40
0.5000284784391451
 40
0.7500142388402489
 40
1.0
 40
1.0
 40
1.0
 40
1.0
 10
155.8818628028749
 20
163.014718955619
 30
0.0
 10
155.8818628028749
 20
162.9941751548208
 30
0.0
 10
155.8818628028749
 20
162.9531062781518
 30
0.0
 10
155.8818628028749
 20
162.9015015598349
 30
0.0
 10
155.8818628028749
 20
162.8572232515479
 30
0.0
 10
155.8818628028749
 20
162.8092807609216
 30
0.0
 10
155.8818628028749
 20
162.767303613457
 30
0.0
 10
155.8818628028749
 20
162.7611392267964
 30
0.0
 10
155.8818628028749
 20
162.7580570334614
 30
0.0
  0
SPLINE
  5
1BC
330
1F
100
AcDbEntity
  8
0
  6
Continuous
 62
   144
370
    18
100
AcDbSpline
210
0.0
220
0.0
230
1.0
 70
    24
 71
     3
 72
    13
 73
     9
 74
     0
 42
0.000000001
 43
0.00000001
 40
0.0
 40
0.0
 40
0.0
 40
0.0
 40
0.1250641152939191
 40
0.2500142381347977
 40
0.3749643603473212
 40
0.5000284737578939
 40
0.7500142357028028
 40
1.0
 40
1.0
 40
1.0
 40
1.0
 10
155.8818628028749
 20
177.7371508246546
 30
0.0
 10
155.8818628028749
 20
177.672366440733
 30
0.0
 10
155.8818628028749
 20
177.5428567220488
 30
0.0
 10
155.8818628028749
 20
177.3417170061327
 30
0.0
 10
155.8818628028749
 20
177.1357721781757
 30
0.0
 10
155.8818628028749
 20
176.8541727377914
 30
0.0
 10
155.8818628028749
 20
176.4910179298915
 30
0.0
 10
155.8818628028749
 20
176.1857106669679
 30
0.0
 10
155.8818628028749
 20
176.0330570347878
 30
0.0
  0
SPLINE
  5
1BD
330
1F
100
AcDbEntity
  8
0
  6
Continuous
 62
   144
370
    18
100
AcDbSpline
210
0.0
220
0.0
230
1.0
 70
    24
 71
     3
 72
    13
 73
     9
 74
     0
 42
0.000000001
 43
0.00000001
 40
0.0
 40
0.0
 40
0.0
 40
0.0
 40
0.1250641151514015
 40
0.2500142378875858
 40
0.3749643600355799
 40
0.500028473424017
 40
0.7500142354555743
 40
1.0
 40
1.0
 40
1.0
 40
1.0
 10
155.8818628028749
 20
176.0330570347878
 30
0.0
 10
155.8818628028749
 20
175.9555373657317
 30
0.0
 10
155.8818628028749
 20
175.8005686846124
 30
0.0
 10
155.8818628028749
 20
175.5632512258592
 30
0.0
 10
155.8818628028749
 20
175.3226273453975
 30
0.0
 10
155.8818628028749
 20
174.9970883197582
 30
0.0
 10
155.8818628028749
 20
174.5827484443113
 30
0.0
 10
155.8818628028749
 20
174.2424503736697
 30
0.0
 10
155.8818628028749
 20
174.0723013374938
 30
0.0
  0
LINE
  5
1BE
330
1F
100
AcDbEntity
  8
0
  6
Continuous
 62
   144
370
    18
100
AcDbLine
 10
155.8818633877
 20
174.0723013544
 30
0.0
 11
155.8818633877
 21
169.1438128373
 31
0.0
  0
SPLINE
  5
1BF
330
1F
100
AcDbEntity
  8
0
  6
Continuous
 62
   144
370
    18
100
AcDbSpline
210
0.0
220
0.0
230
1.0
 70
    24
 71
     3
 72
    17
 73
    13
 74
     0
 42
0.000000001
 43
0.00000001
 40
0.0
 40
0.0
 40
0.0
 40
0.0
 40
0.0625338373405169
 40
0.1250106772917569
 40
0.1874875174443867
 40
0.250021355388521
 40
0.3750177961098048
 40
0.5000142374453468
 40
0.6250106770730685
 40
0.7500071163012073
 40
0.8750035586027881
 40
1.0
 40
1.0
 40
1.0
 40
1.0
 10
155.8818628028749
 20
169.1438127343349
 30
0.0
 10
155.8818628028749
 20
169.0584849293528
 30
0.0
 10
155.8818628028749
 20
168.8879070926763
 30
0.0
 10
155.8818628028749
 20
168.6351569909104
 30
0.0
 10
155.8818628028749
 20
168.3849554054426
 30
0.0
 10
155.8818628028749
 20
168.0553060347753
 30
0.0
 10
155.8818628028749
 20
167.6509927347082
 30
0.0
 10
155.8818628028749
 20
167.1803981266192
 30
0.0
 10
155.8818628028749
 20
166.7257569608767
 30
0.0
 10
155.8818628028749
 20
166.2893756980503
 30
0.0
 10
155.8818628028749
 20
165.8707117801605
 30
0.0
 10
155.8818628028749
 20
165.6095460959694
 30
0.0
 10
155.8818628028749
 20
165.4789632543462
 30
0.0
  0
LINE
  5
1C0
330
1F
100
AcDbEntity
  8
0
  6
Continuous
 62
   144
370
    18
100
AcDbLine
 10
155.8818633877
 20
165.4789632784
 30
0.0
 11
155.8818633877
 21
163.0147186706
 31
0.0
  0
SPLINE
  5
1C1
330
1F
100
AcDbEntity
  8
0
  6
Continuous
 62
   144
370
    18
100
AcDbSpline
210
0.0
220
0.0
230
1.0
 70
    24
 71
     3
 72
    13
 73
     9
 74
     0
 42
0.000000001
 43
0.00000001
 40
0.0
 40
0.0
 40
0.0
 40
0.0
 40
0.1250641148546025
 40
0.2500142383156694
 40
0.3749643622289934
 40
0.5000284784391451
 40
0.7500142388402489
 40
1.0
 40
1.0
 40
1.0
 40
1.0
 10
155.8818628028749
 20
163.014718955619
 30
0.0
 10
155.8818628028749
 20
162.9941751548208
 30
0.0
 10
155.8818628028749
 20
162.9531062781518
 30
0.0
 10
155.8818628028749
 20
162.9015015598349
 30
0.0
 10
155.8818628028749
 20
162.8572232515479
 30
0.0
 10
155.8818628028749
 20
162.8092807609216
 30
0.0
 10
155.8818628028749
 20
162.767303613457
 30
0.0
 10
155.8818628028749
 20
162.7611392267964
 30
0.0
 10
155.8818628028749
 20
162.7580570334614
 30
0.0
  0
SPLINE
  5
1C2
330
1F
100
AcDbEntity
  8
0
  6
Continuous
 62
   144
370
    18
100
AcDbSpline
210
0.0
220
0.0
230
1.0
 70
    24
 71
     3
 72
    13
 73
     9
 74
     0
 42
0.000000001
 43
0.00000001
 40
0.0
 40
0.0
 40
0.0
 40
0.0
 40
0.1250641151021713
 40
0.2500142379843969
 40
0.3749643605593844
 40
0.5000284747002982
 40
0.750014238155434
 40
1.0
 40
1.0
 40
1.0
 40
1.0
 10
155.8818628028749
 20
180.4580570405038
 30
0.0
 10
155.8818628028749
 20
180.4572841404637
 30
0.0
 10
155.8818628028749
 20
180.455739044859
 30
0.0
 10
155.8818628028749
 20
180.4431949098598
 30
0.0
 10
155.8818628028749
 20
180.4232215922359
 30
0.0
 10
155.8818628028749
 20
180.3854143108101
 30
0.0
 10
155.8818628028749
 20
180.3201230373408
 30
0.0
 10
155.8818628028749
 20
180.2409710864779
 30
0.0
 10
155.8818628028749
 20
180.201395111174
 30
0.0
  0
LINE
  5
1C3
330
1F
100
AcDbEntity
  8
0
  6
Continuous
 62
   144
370
    18
100
AcDbLine
 10
155.8818633877
 20
180.2013948226
 30
0.0
 11
155.8818633877
 21
177.7371506805
 31
0.0
  0
SPLINE
  5
1C4
330
1F
100
AcDbEntity
  8
0
  6
Continuous
 62
     8
370
    18
100
AcDbSpline
210
0.0
220
0.0
230
1.0
 70
     8
 71
     3
 72
    10
 73
     6
 74
     0
 42
0.000000001
 43
0.00000001
 40
0.0
 40
0.0
 40
0.0
 40
0.0
 40
0.0001366501447363
 40
0.4999060414676834
 40
0.9999999999999999
 40
0.9999999999999999
 40
0.9999999999999999
 40
0.9999999999999999
 10
127.5990002997022
 20
164.608060255835
 30
0.0
 10
127.5990037153628
 20
164.60805916903
 30
0.0
 10
127.6114991969927
 20
164.6040833196521
 30
0.0
 10
127.5713470703442
 20
164.6171732141385
 30
0.0
 10
127.4897983800377
 20
164.6423953789959
 30
0.0
 10
127.4490107990604
 20
164.6550105551278
 30
0.0
  0
SPLINE
  5
1C5
330
1F
100
AcDbEntity
  8
0
  6
Continuous
 62
     8
370
    18
100
AcDbSpline
210
0.0
220
0.0
230
1.0
 70
     8
 71
     3
 72
     9
 73
     5
 74
     0
 42
0.000000001
 43
0.00000001
 40
0.0
 40
0.0
 40
0.0
 40
0.0
 40
0.4976554390089171
 40
1.0
 40
1.0
 40
1.0
 40
1.0
 10
122.6990207306843
 20
164.608060255835
 30
0.0
 10
122.7054597676042
 20
164.6101996253894
 30
0.0
 10
122.7183985127986
 20
164.6144985225515
 30
0.0
 10
122.8053374132214
 20
164.6414640855567
 30
0.0
 10
122.8490106969874
 20
164.6550100894665
 30
0.0
  0
SPLINE
  5
1C6
330
1F
100
AcDbEntity
  8
0
  6
Continuous
 62
     8
370
    18
100
AcDbSpline
210
0.0
220
0.0
230
1.0
 70
    24
 71
     3
 72
    10
 73
     6
 74
     0
 42
0.000000001
 43
0.00000001
 40
0.0
 40
0.0
 40
0.0
 40
0.0
 40
0.4999999999999999
 40
0.4999999999999999
 40
1.0
 40
1.0
 40
1.0
 40
1.0
 10
122.8490106008749
 20
178.6080570369826
 30
0.0
 10
122.8490106008749
 20
178.6080570366018
 30
0.0
 10
122.8490106008749
 20
177.870522001472
 30
0.0
 10
122.8490106008749
 20
175.2450870060591
 30
0.0
 10
122.8490106008749
 20
173.464519922361
 30
0.0
 10
122.8490106008749
 20
171.6080570341112
 30
0.0
  0
SPLINE
  5
1C7
330
1F
100
AcDbEntity
  8
0
  6
Continuous
 62
     8
370
    18
100
AcDbSpline
210
0.0
220
0.0
230
1.0
 70
    24
 71
     3
 72
    10
 73
     6
 74
     0
 42
0.000000001
 43
0.00000001
 40
0.0
 40
0.0
 40
0.0
 40
0.0
 40
0.5000000000000001
 40
0.5000000000000001
 40
1.0
 40
1.0
 40
1.0
 40
1.0
 10
121.4490106008749
 20
164.6080570369826
 30
0.0
 10
121.4490106008749
 20
164.6080570367686
 30
0.0
 10
121.4490106008749
 20
165.3455920708492
 30
0.0
 10
121.4490106008749
 20
167.9710270639033
 30
0.0
 10
121.4490106008749
 20
169.7515941464704
 30
0.0
 10
121.4490106008749
 20
171.6080570341112
 30
0.0
  0
SPLINE
  5
1C8
330
1F
100
AcDbEntity
  8
0
  6
Continuous
 62
     8
370
    18
100
AcDbSpline
210
0.0
220
0.0
230
1.0
 70
    24
 71
     3
 72
    10
 73
     6
 74
     0
 42
0.000000001
 43
0.00000001
 40
0.0
 40
0.0
 40
0.0
 40
0.0
 40
0.5000000000000002
 40
0.5000000000000002
 40
1.0
 40
1.0
 40
1.0
 40
1.0
 10
121.4490106008749
 20
171.6080570341112
 30
0.0
 10
121.4490106008749
 20
173.464519922361
 30
0.0
 10
121.4490106008749
 20
175.2450870060592
 30
0.0
 10
121.4490106008749
 20
177.8705220014722
 30
0.0
 10
121.4490106008749
 20
178.6080570366019
 30
0.0
 10
121.4490106008749
 20
178.6080570369826
 30
0.0
  0
SPLINE
  5
1C9
330
1F
100
AcDbEntity
  8
0
  6
Continuous
 62
     8
370
    18
100
AcDbSpline
210
0.0
220
0.0
230
1.0
 70
    24
 71
     3
 72
    10
 73
     6
 74
     0
 42
0.000000001
 43
0.00000001
 40
0.0
 40
0.0
 40
0.0
 40
0.0
 40
0.4999999999999999
 40
0.4999999999999999
 40
1.0
 40
1.0
 40
1.0
 40
1.0
 10
113.8490106008749
 20
177.1080570369826
 30
0.0
 10
113.8490106008749
 20
177.1080570366834
 30
0.0
 10
113.8490106008749
 20
176.5285652233672
 30
0.0
 10
113.8490106008749
 20
174.465723441257
 30
0.0
 10
113.8490106008749
 20
173.0667064469228
 30
0.0
 10
113.8490106008749
 20
171.6080570347265
 30
0.0
  0
SPLINE
  5
1CA
330
1F
100
AcDbEntity
  8
0
  6
Continuous
 62
     8
370
    18
100
AcDbSpline
210
0.0
220
0.0
230
1.0
 70
    24
 71
     3
 72
    10
 73
     6
 74
     0
 42
0.000000001
 43
0.00000001
 40
0.0
 40
0.0
 40
0.0
 40
0.0
 40
0.4999999999999999
 40
0.4999999999999999
 40
1.0
 40
1.0
 40
1.0
 40
1.0
 10
113.8490106008749
 20
171.6080570347265
 30
0.0
 10
113.8490106008749
 20
170.1494076230087
 30
0.0
 10
113.8490106008749
 20
168.750390629563
 30
0.0
 10
113.8490106008749
 20
166.6875488493063
 30
0.0
 10
113.8490106008749
 20
166.1080570368144
 30
0.0
 10
113.8490106008749
 20
166.1080570369826
 30
0.0
  0
SPLINE
  5
1CB
330
1F
100
AcDbEntity
  8
0
  6
Continuous
 62
     8
370
    18
100
AcDbSpline
210
0.0
220
0.0
230
1.0
 70
    24
 71
     3
 72
    10
 73
     6
 74
     0
 42
0.000000001
 43
0.00000001
 40
0.0
 40
0.0
 40
0.0
 40
0.0
 40
0.4999999999999999
 40
0.4999999999999999
 40
1.0
 40
1.0
 40
1.0
 40
1.0
 10
112.4490106008749
 20
171.6080570347265
 30
0.0
 10
112.4490106008749
 20
173.0667064469228
 30
0.0
 10
112.4490106008749
 20
174.465723441257
 30
0.0
 10
112.4490106008749
 20
176.5285652233673
 30
0.0
 10
112.4490106008749
 20
177.1080570366835
 30
0.0
 10
112.4490106008749
 20
177.1080570369826
 30
0.0
  0
SPLINE
  5
1CC
330
1F
100
AcDbEntity
  8
0
  6
Continuous
 62
     8
370
    18
100
AcDbSpline
210
0.0
220
0.0
230
1.0
 70
    24
 71
     3
 72
    10
 73
     6
 74
     0
 42
0.000000001
 43
0.00000001
 40
0.0
 40
0.0
 40
0.0
 40
0.0
 40
0.5000000000000001
 40
0.5000000000000001
 40
1.0
 40
1.0
 40
1.0
 40
1.0
 10
112.4490106008749
 20
166.1080570369826
 30
0.0
 10
112.4490106008749
 20
166.1080570368144
 30
0.0
 10
112.4490106008749
 20
166.6875488493064
 30
0.0
 10
112.4490106008749
 20
168.7503906295631
 30
0.0
 10
112.4490106008749
 20
170.1494076230088
 30
0.0
 10
112.4490106008749
 20
171.6080570347265
 30
0.0
  0
SPLINE
  5
1CD
330
1F
100
AcDbEntity
  8
0
  6
Continuous
 62
     8
370
    18
100
AcDbSpline
210
0.0
220
0.0
230
1.0
 70
     8
 71
     3
 72
    14
 73
    10
 74
     0
 42
0.000000001
 43
0.00000001
 40
0.0
 40
0.0
 40
0.0
 40
0.0
 40
0.1728443973603839
 40
0.3431175153567852
 40
0.5108856967489243
 40
0.6762183011457982
 40
0.8391877992886155
 40
0.9998698607396226
 40
1.0
 40
1.0
 40
1.0
 40
1.0
 10
127.1673779476661
 20
164.3570226287701
 30
0.0
 10
127.1816148185974
 20
164.3518576072903
 30
0.0
 10
127.2098767689699
 20
164.3416044005681
 30
0.0
 10
127.2427038370337
 20
164.3294778200856
 30
0.0
 10
127.2682692923224
 20
164.3199007339334
 30
0.0
 10
127.2861313449066
 20
164.3130883492366
 30
0.0
 10
127.2966873015167
 20
164.3089844607138
 30
0.0
 10
127.2990099638137
 20
164.3080572605786
 30
0.0
 10
127.2990106003596
 20
164.3080570383147
 30
0.0
 10
127.2990106008748
 20
164.3080570381348
 30
0.0
  0
SPLINE
  5
1CE
330
1F
100
AcDbEntity
  8
0
  6
Continuous
 62
     8
370
    18
100
AcDbSpline
210
0.0
220
0.0
230
1.0
 70
     8
 71
     3
 72
    12
 73
     8
 74
     0
 42
0.000000001
 43
0.00000001
 40
0.0
 40
0.0
 40
0.0
 40
0.0
 40
0.1931171764648184
 40
0.3895498845214427
 40
0.5894272634168017
 40
0.792871888955666
 40
1.0
 40
1.0
 40
1.0
 40
1.0
 10
122.9990106008751
 20
164.3080570381348
 30
0.0
 10
122.9999747256428
 20
164.3084416806377
 30
0.0
 10
123.0019195277512
 20
164.3092175693769
 30
0.0
 10
123.0177397735805
 20
164.3153463356333
 30
0.0
 10
123.04372482747
 20
164.325162222918
 30
0.0
 10
123.0802690571154
 20
164.3387332402424
 30
0.0
 10
123.1137517242144
 20
164.3508898113838
 30
0.0
 10
123.1306432539507
 20
164.3570226287701
 30
0.0
  0
SPLINE
  5
1CF
330
1F
100
AcDbEntity
  8
0
  6
Continuous
 62
     8
370
    18
100
AcDbSpline
210
0.0
220
0.0
230
1.0
 70
     8
 71
     3
 72
     9
 73
     5
 74
     0
 42
0.000000001
 43
0.00000001
 40
0.0
 40
0.0
 40
0.0
 40
0.0
 40
0.539916231470876
 40
1.0
 40
1.0
 40
1.0
 40
1.0
 10
135.8653030566674
 20
176.2474196629619
 30
0.0
 10
135.8600332194717
 20
176.2269188155275
 30
0.0
 10
135.8502727475902
 20
176.1889483930075
 30
0.0
 10
135.8405165369944
 20
176.133546520736
 30
0.0
 10
135.8360278628569
 20
176.1080570185578
 30
0.0
  0
SPLINE
  5
1D0
330
1F
100
AcDbEntity
  8
0
  6
Continuous
 62
     8
370
    18
100
AcDbSpline
210
0.0
220
0.0
230
1.0
 70
     8
 71
     3
 72
    12
 73
     8
 74
     0
 42
0.000000001
 43
0.00000001
 40
0.0
 40
0.0
 40
0.0
 40
0.0
 40
0.1335586046633407
 40
0.4072617837128016
 40
0.6809231305833171
 40
0.9547013604288815
 40
1.0
 40
1.0
 40
1.0
 40
1.0
 10
135.015536399911
 20
168.7080570163226
 30
0.0
 10
135.005502347796
 20
168.6233569616044
 30
0.0
 10
134.9749053976966
 20
168.3650801141332
 30
0.0
 10
134.923718928059
 20
167.9883945689191
 30
0.0
 10
134.8619786366072
 20
167.5951509302167
 30
0.0
 10
134.8174437909604
 20
167.3446451250526
 30
0.0
 10
134.7934687508238
 20
167.2482814055806
 30
0.0
 10
134.7900650672417
 20
167.2346008608138
 30
0.0
  0
SPLINE
  5
1D1
330
1F
100
AcDbEntity
  8
0
  6
Continuous
 62
     8
370
    18
100
AcDbSpline
210
0.0
220
0.0
230
1.0
 70
     8
 71
     3
 72
    12
 73
     8
 74
     0
 42
0.000000001
 43
0.00000001
 40
0.0
 40
0.0
 40
0.0
 40
0.0
 40
0.1548603266022846
 40
0.3952098268535092
 40
0.6356296615248926
 40
0.8759924442043361
 40
1.0
 40
1.0
 40
1.0
 40
1.0
 10
132.8650548331242
 20
176.2453050950563
 30
0.0
 10
132.8517946404665
 20
176.1859055646173
 30
0.0
 10
132.8179540916361
 20
176.0343155566726
 30
0.0
 10
132.7635473615459
 20
175.7068179814621
 30
0.0
 10
132.7018463807246
 20
175.279119618775
 30
0.0
 10
132.6500856287953
 20
174.8763663365993
 30
0.0
 10
132.6188839664261
 20
174.6015770389195
 30
0.0
 10
132.6082649849158
 20
174.5080569425618
 30
0.0
  0
SPLINE
  5
1D2
330
1F
100
AcDbEntity
  8
0
  6
Continuous
 62
     8
370
    18
100
AcDbSpline
210
0.0
220
0.0
230
1.0
 70
     8
 71
     3
 72
    11
 73
     7
 74
     0
 42
0.000000001
 43
0.00000001
 40
0.0
 40
0.0
 40
0.0
 40
0.0
 40
0.2424290004692687
 40
0.5155620678122386
 40
0.7885808203853066
 40
0.9999999999999999
 40
0.9999999999999999
 40
0.9999999999999999
 40
0.9999999999999999
 10
132.0159950502019
 20
168.7080570163226
 30
0.0
 10
131.9977340679196
 20
168.5589340594037
 30
0.0
 10
131.9588993172604
 20
168.241801456132
 30
0.0
 10
131.899510627232
 20
167.8271412884901
 30
0.0
 10
131.8424182681288
 20
167.4759834251616
 30
0.0
 10
131.8059106679487
 20
167.3080586775889
 30
0.0
 10
131.7899779625039
 20
167.2347726898288
 30
0.0
  0
SPLINE
  5
1D3
330
1F
100
AcDbEntity
  8
0
  6
Continuous
 62
     8
370
    18
100
AcDbSpline
210
0.0
220
0.0
230
1.0
 70
     8
 71
     3
 72
     9
 73
     5
 74
     0
 42
0.000000001
 43
0.00000001
 40
0.0
 40
0.0
 40
0.0
 40
0.0
 40
0.0575275201549279
 40
1.0
 40
1.0
 40
1.0
 40
1.0
 10
129.8643744759064
 20
176.2489777656293
 30
0.0
 10
129.8638414497243
 20
176.2469011289021
 30
0.0
 10
129.8545758637808
 20
176.2108029845433
 30
0.0
 10
129.8453095785344
 20
176.1579085589843
 30
0.0
 10
129.8365763596993
 20
176.1080570185578
 30
0.0
  0
SPLINE
  5
1D4
330
1F
100
AcDbEntity
  8
0
  6
Continuous
 62
     8
370
    18
100
AcDbSpline
210
0.0
220
0.0
230
1.0
 70
     8
 71
     3
 72
    32
 73
    28
 74
     0
 42
0.000000001
 43
0.00000001
 40
0.0
 40
0.0
 40
0.0
 40
0.0
 40
0.0218183709078409
 40
0.0630019426704158
 40
0.1041817626104946
 40
0.1453436442682564
 40
0.1865081324387422
 40
0.2276901372752746
 40
0.2688720921903648
 40
0.310036500109265
 40
0.3511983284573392
 40
0.3923782053224734
 40
0.4335618225444347
 40
0.4747292755932342
 40
0.515889232722134
 40
0.557066551777693
 40
0.5982511640269018
 40
0.6394217003485018
 40
0.6805805399432181
 40
0.7217549705408915
 40
0.7629399711553536
 40
0.8041136597498707
 40
0.8452723786943515
 40
0.8864437113919725
 40
0.9276284776663383
 40
0.9688051049015391
 40
1.0
 40
1.0
 40
1.0
 40
1.0
 10
130.0769404716592
 20
177.7284945027923
 30
0.0
 10
130.0878445439928
 20
177.7306505848948
 30
0.0
 10
130.1193307508655
 20
177.7368764099846
 30
0.0
 10
130.17136542855
 20
177.6379361563813
 30
0.0
 10
130.2330723897254
 20
177.4423086328631
 30
0.0
 10
130.2948089569322
 20
177.1466284436693
 30
0.0
 10
130.356540435919
 20
176.7600201269679
 30
0.0
 10
130.4182440714462
 20
176.2898689125144
 30
0.0
 10
130.4799477979157
 20
175.7449742724568
 30
0.0
 10
130.5416792409365
 20
175.1335543872263
 30
0.0
 10
130.6034161378743
 20
174.4642115186383
 30
0.0
 10
130.6651220748153
 20
173.7496057071671
 30
0.0
 10
130.7268242213775
 20
173.0019704624422
 30
0.0
 10
130.7885497498607
 20
172.2333950854392
 30
0.0
 10
130.8502907555001
 20
171.4563908176511
 30
0.0
 10
130.9119999442769
 20
170.6842837890929
 30
0.0
 10
130.973701178866
 20
169.9296106537045
 30
0.0
 10
131.0354209616059
 20
169.2047480727819
 30
0.0
 10
131.097164342555
 20
168.5228475652046
 30
0.0
 10
131.158877658856
 20
167.8952732227092
 30
0.0
 10
131.2205786181918
 20
167.3311004258336
 30
0.0
 10
131.2822930883257
 20
166.8394755927551
 30
0.0
 10
131.3440367700502
 20
166.4307531551449
 30
0.0
 10
131.4057551325573
 20
166.1111608449826
 30
0.0
 10
131.4674563384794
 20
165.8877639330838
 30
0.0
 10
131.5241878974944
 20
165.7595422059405
 30
0.0
 10
131.5603652712714
 20
165.7534742390312
 30
0.0
 10
131.5759591035347
 20
165.7508587131297
 30
0.0
  0
SPLINE
  5
1D5
330
1F
100
AcDbEntity
  8
0
  6
Continuous
 62
     8
370
    18
100
AcDbSpline
210
0.0
220
0.0
230
1.0
 70
     8
 71
     3
 72
    32
 73
    28
 74
     0
 42
0.000000001
 43
0.00000001
 40
0.0
 40
0.0
 40
0.0
 40
0.0
 40
0.0383843532982244
 40
0.0795023293380427
 40
0.1206354881696086
 40
0.1617631314472941
 40
0.2028729561114093
 40
0.2439878823587061
 40
0.2851197339084349
 40
0.3262497218866945
 40
0.3673618400462813
 40
0.4084739674786003
 40
0.4496039532603574
 40
0.4907358059282
 40
0.5318507201047916
 40
0.5729605490298613
 40
0.6140881959656169
 40
0.6552213596548722
 40
0.6963393302719527
 40
0.7374476121276301
 40
0.7785725223489885
 40
0.819706388884225
 40
0.8608275166259842
 40
0.9019351929678106
 40
0.9430570923705612
 40
0.9841910465026036
 40
1.0
 40
1.0
 40
1.0
 40
1.0
 10
133.0762396774988
 20
177.7379464956021
 30
0.0
 10
133.0954505307139
 20
177.7316832231024
 30
0.0
 10
133.1352403786059
 20
177.7187106259314
 30
0.0
 10
133.1956017262382
 20
177.5728968785029
 30
0.0
 10
133.2573029142485
 20
177.3360222274357
 30
0.0
 10
133.319010462067
 20
177.0047933275495
 30
0.0
 10
133.3807495807571
 20
176.5861753346016
 30
0.0
 10
133.4424780769325
 20
176.0847723311083
 30
0.0
 10
133.5041809230748
 20
175.5115712828535
 30
0.0
 10
133.5658856369311
 20
174.8763162622776
 30
0.0
 10
133.6276199047792
 20
174.1888477685617
 30
0.0
 10
133.6893541381373
 20
173.459579296509
 30
0.0
 10
133.751058872748
 20
172.7018677450037
 30
0.0
 10
133.8127616988745
 20
171.9283604836269
 30
0.0
 10
133.8744902187197
 20
171.1516481729035
 30
0.0
 10
133.9362293494132
 20
170.3849628901557
 30
0.0
 10
133.9979367818462
 20
169.6410635114048
 30
0.0
 10
134.059638411528
 20
168.9317512599399
 30
0.0
 10
134.1213610259668
 20
168.268756740915
 30
0.0
 10
134.1831034895308
 20
167.6647426092774
 30
0.0
 10
134.2448145967955
 20
167.1293491527524
 30
0.0
 10
134.3065156161971
 20
166.6697895524804
 30
0.0
 10
134.3682327558048
 20
166.2942467484125
 30
0.0
 10
134.4299761402018
 20
166.009131931933
 30
0.0
 10
134.4916934386019
 20
165.8272928006534
 30
0.0
 10
134.540729975782
 20
165.7413103379068
 30
0.0
 10
134.5692183104367
 20
165.7514423225221
 30
0.0
 10
134.5771274737816
 20
165.7542552465594
 30
0.0
  0
SPLINE
  5
1D6
330
1F
100
AcDbEntity
  8
0
  6
Continuous
 62
     8
370
    18
100
AcDbSpline
210
0.0
220
0.0
230
1.0
 70
     8
 71
     3
 72
    32
 73
    28
 74
     0
 42
0.000000001
 43
0.00000001
 40
0.0
 40
0.0
 40
0.0
 40
0.0
 40
0.0132984189125389
 40
0.0560523214093896
 40
0.0987900488135611
 40
0.1415399329833195
 40
0.1843044165491388
 40
0.227061315169236
 40
0.2698002158374371
 40
0.3125468964988528
 40
0.3553103421708351
 40
0.3980699077415775
 40
0.4408107482981556
 40
0.4835542507683185
 40
0.526315985597158
 40
0.5690777541644425
 40
0.6118213366403707
 40
0.6545622299438153
 40
0.697321739470084
 40
0.7400851415761802
 40
0.7828320307064283
 40
0.8255717615026036
 40
0.8683298123962394
 40
0.9110947303589444
 40
0.9538430243021684
 40
0.996575774070128
 40
1.0
 40
1.0
 40
1.0
 40
1.0
 10
136.0771770797472
 20
177.7294700631892
 30
0.0
 10
136.0835745370524
 20
177.7325714444275
 30
0.0
 10
136.1105395721766
 20
177.7456436464031
 30
0.0
 10
136.1580745394507
 20
177.6682732940122
 30
0.0
 10
136.2198179025478
 20
177.4946166233711
 30
0.0
 10
136.2815376664722
 20
177.216238531493
 30
0.0
 10
136.343238901302
 20
176.8494974517661
 30
0.0
 10
136.4049481299413
 20
176.3981525839692
 30
0.0
 10
136.4666891033486
 20
175.8688447669413
 30
0.0
 10
136.5284146207586
 20
175.2692327327246
 30
0.0
 10
136.590116785729
 20
174.6113864287726
 30
0.0
 10
136.6518227357317
 20
173.9062992531789
 30
0.0
 10
136.7135595982847
 20
173.1650216935064
 30
0.0
 10
136.7752910761109
 20
172.3994557244466
 30
0.0
 10
136.8369947647256
 20
171.6230918868966
 30
0.0
 10
136.8986984384748
 20
170.8486752968752
 30
0.0
 10
136.960429864429
 20
170.0889518399521
 30
0.0
 10
137.0221666521199
 20
169.3574227885349
 30
0.0
 10
137.0838727017824
 20
168.6657379918508
 30
0.0
 10
137.1455750275184
 20
168.0246641140151
 30
0.0
 10
137.2073008453972
 20
167.4450228110404
 30
0.0
 10
137.2690416732636
 20
166.9383349826709
 30
0.0
 10
137.3307498498025
 20
166.5129720612237
 30
0.0
 10
137.3924511640499
 20
166.1707903016539
 30
0.0
 10
137.4541661063185
 20
165.9312088285545
 30
0.0
 10
137.4969852534851
 20
165.805588397384
 30
0.0
 10
137.5191966319205
 20
165.7890988296753
 30
0.0
 10
137.5208444170456
 20
165.7878755258417
 30
0.0
  0
DIMENSION
  5
1D7
330
1F
100
AcDbEntity
  8
0
  6
Continuous
 62
     7
370
    18
100
AcDbDimension
  2
_D
 10
103.6986256546
 20
166.108057037
 30
0.0
 11
103.6986256546
 21
171.608057037
 31
0.0
 70
   160
  1
%%c<>
 71
     2
 42
-1.0
  3
SLDDIMSTYLE1
100
AcDbAlignedDimension
 13
112.4490106009
 23
177.108057037
 33
0.0
 14
112.4490106009
 24
166.108057037
 34
0.0
 50
90.0
100
AcDbRotatedDimension
  0
DIMENSION
  5
1E5
330
1F
100
AcDbEntity
  8
0
  6
Continuous
 62
     7
370
    18
100
AcDbDimension
  2
_D_1
 10
92.3732311105
 20
164.608057037
 30
0.0
 11
92.3732311105
 21
171.608057037
 31
0.0
 70
   160
  1
%%c<>
 71
     2
 42
-1.0
  3
SLDDIMSTYLE1
100
AcDbAlignedDimension
 13
121.4490106009
 23
178.608057037
 33
0.0
 14
121.4490106009
 24
164.608057037
 34
0.0
 50
90.0
100
AcDbRotatedDimension
  0
DIMENSION
  5
1F2
330
1F
100
AcDbEntity
  8
0
  6
Continuous
 62
     7
370
    18
100
AcDbDimension
  2
_D_2
 10
112.1490106015
 20
192.9670772242
 30
0.0
 11
116.6490106014
 21
192.9670772241
 31
0.0
 70
   160
  1
<>
 71
     2
 42
-1.0
  3
SLDDIMSTYLE1
100
AcDbAlignedDimension
 13
121.1490106009
 23
178.3080570337
 33
0.0
 14
112.1490106009
 24
176.8080570344
 34
0.0
 50
-0.0000000022
100
AcDbRotatedDimension
  0
DIMENSION
  5
1FE
330
1F
100
AcDbEntity
  8
0
  6
Continuous
 62
     7
370
    18
100
AcDbDimension
  2
_D_3
 10
130.1490106009
 20
145.2718541269
 30
0.0
 11
123.189094609
 21
145.2718541269
 31
0.0
 70
   160
  1
<>st
 71
     2
 42
-1.0
  3
SLDDIMSTYLE1
100
AcDbAlignedDimension
 13
135.1490106009
 23
169.6080570383
 33
0.0
 14
130.1490106009
 24
168.7080570367
 34
0.0
 50
0.0
100
AcDbRotatedDimension
  0
DIMENSION
  5
20B
330
1F
100
AcDbEntity
  8
0
  6
Continuous
 62
     7
370
    18
100
AcDbDimension
  2
_D_4
 10
141.1490106009
 20
153.874728375
 30
0.0
 11
146.584605435
 21
153.874728375
 31
0.0
 70
   160
  1
<>
 71
     2
 42
-1.0
  3
SLDDIMSTYLE1
100
AcDbAlignedDimension
 13
138.1490106009
 23
161.7931024617
 33
0.0
 14
141.1490106009
 24
161.7931024617
 34
0.0
 50
0.0
100
AcDbRotatedDimension
  0
DIMENSION
  5
217
330
1F
100
AcDbEntity
  8
0
  6
Continuous
 62
     7
370
    18
100
AcDbDimension
  2
_D_5
 10
112.1490106027
 20
213.0130570385
 30
0.0
 11
137.6490106027
 21
213.0130570373
 31
0.0
 70
   160
  1
<>
 71
     2
 42
-1.0
  3
SLDDIMSTYLE2
100
AcDbAlignedDimension
 13
163.1490106009
 23
174.108057037
 33
0.0
 14
112.1490106009
 24
176.8080570344
 34
0.0
 50
-0.0000000028
100
AcDbRotatedDimension
  0
DIMENSION
  5
222
330
1F
100
AcDbEntity
  8
0
  6
Continuous
 62
     7
370
    18
100
AcDbDimension
  2
_D_6
 10
163.1490106009
 20
203.349599726
 30
0.0
 11
152.1490106009
 21
203.349599726
 31
0.0
 70
   160
  1
<>
 71
     2
 42
-1.0
  3
SLDDIMSTYLE2
100
AcDbAlignedDimension
 13
141.1490106009
 23
181.4230116123
 33
0.0
 14
163.1490106009
 24
174.108057037
 34
0.0
 50
0.0
100
AcDbRotatedDimension
  0
DIMENSION
  5
22C
330
1F
100
AcDbEntity
  8
0
  6
Continuous
 62
     7
370
    18
100
AcDbDimension
  2
_D_7
 10
141.1490106009
 20
192.9670772238
 30
0.0
 11
151.1490106009
 21
192.9670772238
 31
0.0
 70
   160
  1
<>
 71
     2
 42
-1.0
  3
SLDDIMSTYLE2
100
AcDbAlignedDimension
 13
161.1490106009
 23
176.6081030756
 33
0.0
 14
141.1490106009
 24
181.4230116123
 34
0.0
 50
0.0000000001
100
AcDbRotatedDimension
  0
DIMENSION
  5
236
330
1F
100
AcDbEntity
  8
0
  6
Continuous
 62
     7
370
    18
100
AcDbDimension
  2
_D_8
 10
141.1490106009
 20
192.9670772238
 30
0.0
 11
138.1490106009
 21
192.9670772238
 31
0.0
 70
   160
  1
<>
 71
     2
 42
-1.0
  3
SLDDIMSTYLE1
100
AcDbAlignedDimension
 13
135.1490106009
 23
175.6080938684
 33
0.0
 14
141.1490106009
 24
181.4230116123
 34
0.0
100
AcDbRotatedDimension
  0
DIMENSION
  5
242
330
1F
100
AcDbEntity
  8
0
  6
Continuous
 62
     7
370
    18
100
AcDbDimension
  2
_D_9
 10
183.5429446331
 20
161.793102461
 30
0.0
 11
183.5429446331
 21
171.608057037
 31
0.0
 70
   160
  1
<>
 71
     2
 42
-1.0
  3
SLDDIMSTYLE2
100
AcDbAlignedDimension
 13
158.3247460179
 23
181.423011613
 33
0.0
 14
158.3247460179
 24
161.793102461
 34
0.0
 50
90.0
100
AcDbRotatedDimension
  0
DIMENSION
  5
24C
330
1F
100
AcDbEntity
  8
0
  6
Continuous
 62
     7
370
    18
100
AcDbDimension
  2
_D_10
 10
173.1540116009
 20
168.7080570373
 30
0.0
 11
173.1540116009
 21
187.5875745085
 31
0.0
 70
   160
  1
%%c<>
 71
     2
 42
-1.0
  3
SLDDIMSTYLE1
100
AcDbAlignedDimension
 13
162.6490106009
 23
174.5080570368
 33
0.0
 14
162.6490106009
 24
168.7080570373
 34
0.0
 50
90.0
100
AcDbRotatedDimension
  0
INSERT
  5
25E
330
1F
100
AcDbEntity
  8
0
  6
Continuous
 62
     7
370
     0
100
AcDbBlockReference
  2
SW_NOTE_2
 10
157.8038869258
 20
144.6166079676
 30
0.0
  0
LEADER
  5
25F
330
1F
100
AcDbEntity
  8
0
  6
Continuous
 62
     7
370
     0
100
AcDbLeader
  3
SLDDIMSTYLE0
 76
     2
 10
150.4046360984
 20
165.6080570367
 30
0.0
 10
157.8038869258
 20
144.6166079676
 30
0.0
  0
LINE
  5
260
330
1F
100
AcDbEntity
  8
0
  6
CENTERX2
 62
     7
370
    18
100
AcDbLine
 10
109.1926701233
 20
171.608057037
 30
0.0
 11
165.4502988759
 21
171.608057037
 31
0.0
  0
ENDSEC
  0
SECTION
  2
OBJECTS
  0
DICTIONARY
  5
C
330
0
100
AcDbDictionary
281
     1
  3
ACAD_GROUP
350
D
  3
ACAD_LAYOUT
350
1A
  3
ACAD_MLINESTYLE
350
17
  3
ACAD_PLOTSETTINGS
350
19
  3
ACAD_PLOTSTYLENAME
350
E
  3
ACAD_SCALELIST
350
47
  0
DICTIONARY
  5
D
102
{ACAD_REACTORS
330
C
102
}
330
C
100
AcDbDictionary
281
     1
  0
DICTIONARY
  5
1A
102
{ACAD_REACTORS
330
C
102
}
330
C
100
AcDbDictionary
281
     1
  3
Layout1
350
1E
  3
Layout2
350
26
  3
Model
350
22
  0
DICTIONARY
  5
17
102
{ACAD_REACTORS
330
C
102
}
330
C
100
AcDbDictionary
281
     1
  3
Standard
350
18
  0
DICTIONARY
  5
19
102
{ACAD_REACTORS
330
C
102
}
330
C
100
AcDbDictionary
281
     1
  0
ACDBDICTIONARYWDFLT
  5
E
102
{ACAD_REACTORS
330
C
102
}
330
C
100
AcDbDictionary
281
     1
  3
Normal
350
F
100
AcDbDictionaryWithDefault
340
F
  0
DICTIONARY
  5
47
102
{ACAD_REACTORS
330
C
102
}
330
C
100
AcDbDictionary
281
     1
  3
A0
350
48
  3
A1
350
49
  3
A2
350
4A
  3
A3
350
4B
  3
A4
350
4C
  3
A5
350
4D
  3
A6
350
4E
  3
A7
350
4F
  3
A8
350
50
  3
A9
350
51
  3
B0
350
52
  3
B1
350
53
  3
B2
350
54
  3
B3
350
55
  3
B4
350
56
  3
B5
350
57
  3
B6
350
58
  3
B7
350
59
  3
B8
350
5A
  3
B9
350
5B
  3
C0
350
5C
  3
C1
350
5D
  3
C2
350
5E
  3
C3
350
5F
  3
C4
350
60
  3
C5
350
61
  3
C6
350
62
  3
C7
350
63
  3
C8
350
64
  3
C9
350
65
  3
D0
350
66
  3
D1
350
67
  3
D2
350
68
  0
LAYOUT
  5
1E
102
{ACAD_REACTORS
330
1A
102
}
330
1A
100
AcDbPlotSettings
  1

  2
none_device
  4

  6

 40
0.0
 41
0.0
 42
0.0
 43
0.0
 44
0.0
 45
0.0
 46
0.0
 47
0.0
 48
0.0
 49
0.0
140
0.0
141
0.0
142
1.0
143
1.0
 70
   688
 72
     1
 73
     0
 74
     5
  7

 75
    16
147
1.0
148
0.0
149
0.0
100
AcDbLayout
  1
Layout1
 70
     1
 71
     1
 10
0.0
 20
0.0
 11
420.0
 21
297.0
 12
0.0
 22
0.0
 32
0.0
 14
1.0000000000E+20
 24
1.0000000000E+20
 34
1.0000000000E+20
 15
-1.0000000000E+20
 25
-1.0000000000E+20
 35
-1.0000000000E+20
146
0.0
 13
0.0
 23
0.0
 33
0.0
 16
1.0
 26
0.0
 36
0.0
 17
0.0
 27
1.0
 37
0.0
 76
     0
330
1B
  0
LAYOUT
  5
26
102
{ACAD_REACTORS
330
1A
102
}
330
1A
100
AcDbPlotSettings
  1

  2
none_device
  4

  6

 40
0.0
 41
0.0
 42
0.0
 43
0.0
 44
0.0
 45
0.0
 46
0.0
 47
0.0
 48
0.0
 49
0.0
140
0.0
141
0.0
142
1.0
143
1.0
 70
   688
 72
     1
 73
     0
 74
     5
  7

 75
    16
147
1.0
148
0.0
149
0.0
100
AcDbLayout
  1
Layout2
 70
     1
 71
     2
 10
0.0
 20
0.0
 11
0.0
 21
0.0
 12
0.0
 22
0.0
 32
0.0
 14
0.0
 24
0.0
 34
0.0
 15
0.0
 25
0.0
 35
0.0
146
0.0
 13
0.0
 23
0.0
 33
0.0
 16
1.0
 26
0.0
 36
0.0
 17
0.0
 27
1.0
 37
0.0
 76
     0
330
23
  0
LAYOUT
  5
22
102
{ACAD_REACTORS
330
1A
102
}
330
1A
100
AcDbPlotSettings
  1

  2
none_device
  4
Letter_(8.50_x_11.00_Inches)
  6

 40
6.35
 41
6.35
 42
6.35000508
 43
6.35000508
 44
215.9
 45
279.4
 46
0.0
 47
0.0
 48
0.0
 49
0.0
140
0.0
141
0.0
142
1.0
143
1.0
 70
  1712
 72
     1
 73
     0
 74
     0
  7

 75
     0
147
1.0
148
0.0
149
0.0
100
AcDbLayout
  1
Model
 70
     1
 71
     0
 10
0.0
 20
0.0
 11
210.0
 21
297.0
 12
0.0
 22
0.0
 32
0.0
 14
0.0
 24
0.0
 34
0.0
 15
210.0
 25
297.0
 35
0.0
146
0.0
 13
0.0
 23
0.0
 33
0.0
 16
1.0
 26
0.0
 36
0.0
 17
0.0
 27
1.0
 37
0.0
 76
     0
330
1F
331
29
  0
MLINESTYLE
  5
18
102
{ACAD_REACTORS
330
17
102
}
330
17
100
AcDbMlineStyle
  2
Standard
 70
     0
  3

 62
   256
 51
90.0
 52
90.0
 71
     2
 49
0.5
 62
   256
  6
BYLAYER
 49
-0.5
 62
   256
  6
BYLAYER
  0
ACDBPLACEHOLDER
  5
F
102
{ACAD_REACTORS
330
E
102
}
330
E
  0
SCALE
  5
48
102
{ACAD_REACTORS
330
47
102
}
330
47
100
AcDbScale
 70
     0
300
1:1
140
1.0
141
1.0
290
     1
  0
SCALE
  5
49
102
{ACAD_REACTORS
330
47
102
}
330
47
100
AcDbScale
 70
     0
300
1:2
140
1.0
141
2.0
290
     0
  0
SCALE
  5
4A
102
{ACAD_REACTORS
330
47
102
}
330
47
100
AcDbScale
 70
     0
300
1:4
140
1.0
141
4.0
290
     0
  0
SCALE
  5
4B
102
{ACAD_REACTORS
330
47
102
}
330
47
100
AcDbScale
 70
     0
300
1:5
140
1.0
141
5.0
290
     0
  0
SCALE
  5
4C
102
{ACAD_REACTORS
330
47
102
}
330
47
100
AcDbScale
 70
     0
300
1:8
140
1.0
141
8.0
290
     0
  0
SCALE
  5
4D
102
{ACAD_REACTORS
330
47
102
}
330
47
100
AcDbScale
 70
     0
300
1:10
140
1.0
141
10.0
290
     0
  0
SCALE
  5
4E
102
{ACAD_REACTORS
330
47
102
}
330
47
100
AcDbScale
 70
     0
300
1:16
140
1.0
141
16.0
290
     0
  0
SCALE
  5
4F
102
{ACAD_REACTORS
330
47
102
}
330
47
100
AcDbScale
 70
     0
300
1:20
140
1.0
141
20.0
290
     0
  0
SCALE
  5
50
102
{ACAD_REACTORS
330
47
102
}
330
47
100
AcDbScale
 70
     0
300
1:30
140
1.0
141
30.0
290
     0
  0
SCALE
  5
51
102
{ACAD_REACTORS
330
47
102
}
330
47
100
AcDbScale
 70
     0
300
1:40
140
1.0
141
40.0
290
     0
  0
SCALE
  5
52
102
{ACAD_REACTORS
330
47
102
}
330
47
100
AcDbScale
 70
     0
300
1:50
140
1.0
141
50.0
290
     0
  0
SCALE
  5
53
102
{ACAD_REACTORS
330
47
102
}
330
47
100
AcDbScale
 70
     0
300
1:100
140
1.0
141
100.0
290
     0
  0
SCALE
  5
54
102
{ACAD_REACTORS
330
47
102
}
330
47
100
AcDbScale
 70
     0
300
2:1
140
2.0
141
1.0
290
     0
  0
SCALE
  5
55
102
{ACAD_REACTORS
330
47
102
}
330
47
100
AcDbScale
 70
     0
300
4:1
140
4.0
141
1.0
290
     0
  0
SCALE
  5
56
102
{ACAD_REACTORS
330
47
102
}
330
47
100
AcDbScale
 70
     0
300
8:1
140
8.0
141
1.0
290
     0
  0
SCALE
  5
57
102
{ACAD_REACTORS
330
47
102
}
330
47
100
AcDbScale
 70
     0
300
10:1
140
10.0
141
1.0
290
     0
  0
SCALE
  5
58
102
{ACAD_REACTORS
330
47
102
}
330
47
100
AcDbScale
 70
     0
300
100:1
140
100.0
141
1.0
290
     0
  0
SCALE
  5
59
102
{ACAD_REACTORS
330
47
102
}
330
47
100
AcDbScale
 70
     0
300
1/128" = 1'-0"
140
0.0078125
141
12.0
290
     0
  0
SCALE
  5
5A
102
{ACAD_REACTORS
330
47
102
}
330
47
100
AcDbScale
 70
     0
300
1/64" = 1'-0"
140
0.015625
141
12.0
290
     0
  0
SCALE
  5
5B
102
{ACAD_REACTORS
330
47
102
}
330
47
100
AcDbScale
 70
     0
300
1/32" = 1'-0"
140
0.03125
141
12.0
290
     0
  0
SCALE
  5
5C
102
{ACAD_REACTORS
330
47
102
}
330
47
100
AcDbScale
 70
     0
300
1/16" = 1'-0"
140
0.0625
141
12.0
290
     0
  0
SCALE
  5
5D
102
{ACAD_REACTORS
330
47
102
}
330
47
100
AcDbScale
 70
     0
300
3/32" = 1'-0"
140
0.09375
141
12.0
290
     0
  0
SCALE
  5
5E
102
{ACAD_REACTORS
330
47
102
}
330
47
100
AcDbScale
 70
     0
300
1/8" = 1'-0"
140
0.125
141
12.0
290
     0
  0
SCALE
  5
5F
102
{ACAD_REACTORS
330
47
102
}
330
47
100
AcDbScale
 70
     0
300
3/16" = 1'-0"
140
0.1875
141
12.0
290
     0
  0
SCALE
  5
60
102
{ACAD_REACTORS
330
47
102
}
330
47
100
AcDbScale
 70
     0
300
1/4" = 1'-0"
140
0.25
141
12.0
290
     0
  0
SCALE
  5
61
102
{ACAD_REACTORS
330
47
102
}
330
47
100
AcDbScale
 70
     0
300
3/8" = 1'-0"
140
0.375
141
12.0
290
     0
  0
SCALE
  5
62
102
{ACAD_REACTORS
330
47
102
}
330
47
100
AcDbScale
 70
     0
300
1/2" = 1'-0"
140
0.5
141
12.0
290
     0
  0
SCALE
  5
63
102
{ACAD_REACTORS
330
47
102
}
330
47
100
AcDbScale
 70
     0
300
3/4" = 1'-0"
140
0.75
141
12.0
290
     0
  0
SCALE
  5
64
102
{ACAD_REACTORS
330
47
102
}
330
47
100
AcDbScale
 70
     0
300
1" = 1'-0"
140
1.0
141
12.0
290
     0
  0
SCALE
  5
65
102
{ACAD_REACTORS
330
47
102
}
330
47
100
AcDbScale
 70
     0
300
1-1/2" = 1'-0"
140
1.5
141
12.0
290
     0
  0
SCALE
  5
66
102
{ACAD_REACTORS
330
47
102
}
330
47
100
AcDbScale
 70
     0
300
3" = 1'-0"
140
3.0
141
12.0
290
     0
  0
SCALE
  5
67
102
{ACAD_REACTORS
330
47
102
}
330
47
100
AcDbScale
 70
     0
300
6" = 1'-0"
140
6.0
141
12.0
290
     0
  0
SCALE
  5
68
102
{ACAD_REACTORS
330
47
102
}
330
47
100
AcDbScale
 70
     0
300
1'-0" = 1'-0"
140
12.0
141
12.0
290
     0
  0
ENDSEC
  0
EOF
