  0
SECTION
  2
HEADER
  9
$ACADVER
  1
AC1015
  9
$ACADMAINTVER
 70
    20
  9
$DWGCODEPAGE
  3
ANSI_950
  9
$INSBASE
 10
0.0
 20
0.0
 30
0.0
  9
$EXTMIN
 10
539.5083260741748
 20
-20.56781972074487
 30
-0.0004776773524782
  9
$EXTMAX
 10
836.6253362930123
 20
195.4711388600525
 30
141.5502650090087
  9
$LIMMIN
 10
0.0
 20
0.0
  9
$LIMMAX
 10
420.0
 20
297.0
  9
$ORTHOMODE
 70
     0
  9
$REGENMODE
 70
     1
  9
$FILLMODE
 70
     1
  9
$QTEXTMODE
 70
     0
  9
$MIRRTEXT
 70
     1
  9
$LTSCALE
 40
1.0
  9
$ATTMODE
 70
     1
  9
$TEXTSIZE
 40
3.0
  9
$TRACEWID
 40
1.0
  9
$TEXTSTYLE
  7
CHINESET
  9
$CLAYER
  8
0
  9
$CELTYPE
  6
ByLayer
  9
$CECOLOR
 62
   256
  9
$CELTSCALE
 40
1.0
  9
$DISPSILH
 70
     0
  9
$DIMSCALE
 40
1.0
  9
$DIMASZ
 40
2.5
  9
$DIMEXO
 40
1.0
  9
$DIMDLI
 40
6.0
  9
$DIMRND
 40
0.0
  9
$DIMDLE
 40
0.0
  9
$DIMEXE
 40
1.5
  9
$DIMTP
 40
0.1
  9
$DIMTM
 40
0.1
  9
$DIMTXT
 40
3.0
  9
$DIMCEN
 40
3.0
  9
$DIMTSZ
 40
0.0
  9
$DIMTOL
 70
     0
  9
$DIMLIM
 70
     0
  9
$DIMTIH
 70
     0
  9
$DIMTOH
 70
     0
  9
$DIMSE1
 70
     0
  9
$DIMSE2
 70
     0
  9
$DIMTAD
 70
     1
  9
$DIMZIN
 70
     8
  9
$DIMBLK
  1

  9
$DIMASO
 70
     1
  9
$DIMSHO
 70
     1
  9
$DIMPOST
  1

  9
$DIMAPOST
  1
"
  9
$DIMALT
 70
     0
  9
$DIMALTD
 70
     2
  9
$DIMALTF
 40
0.0393701
  9
$DIMLFAC
 40
1.0
  9
$DIMTOFL
 70
     1
  9
$DIMTVP
 40
0.0
  9
$DIMTIX
 70
     0
  9
$DIMSOXD
 70
     0
  9
$DIMSAH
 70
     0
  9
$DIMBLK1
  1

  9
$DIMBLK2
  1

  9
$DIMSTYLE
  2
AM_ISO
  9
$DIMCLRD
 70
   256
  9
$DIMCLRE
 70
   256
  9
$DIMCLRT
 70
   256
  9
$DIMTFAC
 40
0.71
  9
$DIMGAP
 40
0.8
  9
$DIMJUST
 70
     0
  9
$DIMSD1
 70
     0
  9
$DIMSD2
 70
     0
  9
$DIMTOLJ
 70
     0
  9
$DIMTZIN
 70
     8
  9
$DIMALTZ
 70
     0
  9
$DIMALTTZ
 70
     0
  9
$DIMUPT
 70
     0
  9
$DIMDEC
 70
     2
  9
$DIMTDEC
 70
     8
  9
$DIMALTU
 70
     2
  9
$DIMALTTD
 70
     2
  9
$DIMTXSTY
  7
STANDARD
  9
$DIMAUNIT
 70
     0
  9
$DIMADEC
 70
     2
  9
$DIMALTRND
 40
0.0
  9
$DIMAZIN
 70
     2
  9
$DIMDSEP
 70
    46
  9
$DIMATFIT
 70
     3
  9
$DIMFRAC
 70
     0
  9
$DIMLDRBLK
  1

  9
$DIMLUNIT
 70
     2
  9
$DIMLWD
 70
    -1
  9
$DIMLWE
 70
    -1
  9
$DIMTMOVE
 70
     0
  9
$LUNITS
 70
     2
  9
$LUPREC
 70
     2
  9
$SKETCHINC
 40
1.0
  9
$FILLETRAD
 40
2.5
  9
$AUNITS
 70
     0
  9
$AUPREC
 70
     0
  9
$MENU
  1
.
  9
$ELEVATION
 40
0.0
  9
$PELEVATION
 40
0.0
  9
$THICKNESS
 40
0.0
  9
$LIMCHECK
 70
     0
  9
$CHAMFERA
 40
2.5
  9
$CHAMFERB
 40
2.5
  9
$CHAMFERC
 40
20.0
  9
$CHAMFERD
 40
0.0
  9
$SKPOLY
 70
     0
  9
$TDCREATE
 40
2453021.369367211
  9
$TDUCREATE
 40
2453021.036033877
  9
$TDUPDATE
 40
2454250.661592153
  9
$TDUUPDATE
 40
2454250.328258819
  9
$TDINDWG
 40
0.4289757755
  9
$TDUSRTIMER
 40
0.4289754282
  9
$USRTIMER
 70
     1
  9
$ANGBASE
 50
0.0
  9
$ANGDIR
 70
     0
  9
$PDMODE
 70
     0
  9
$PDSIZE
 40
0.0
  9
$PLINEWID
 40
0.0
  9
$SPLFRAME
 70
     0
  9
$SPLINETYPE
 70
     6
  9
$SPLINESEGS
 70
     8
  9
$HANDSEED
  5
2BC5
  9
$SURFTAB1
 70
     6
  9
$SURFTAB2
 70
     6
  9
$SURFTYPE
 70
     6
  9
$SURFU
 70
     6
  9
$SURFV
 70
     6
  9
$UCSBASE
  2

  9
$UCSNAME
  2

  9
$UCSORG
 10
0.0
 20
0.0
 30
0.0
  9
$UCSXDIR
 10
1.0
 20
0.0
 30
0.0
  9
$UCSYDIR
 10
0.0
 20
1.0
 30
0.0
  9
$UCSORTHOREF
  2

  9
$UCSORTHOVIEW
 70
     0
  9
$UCSORGTOP
 10
0.0
 20
0.0
 30
0.0
  9
$UCSORGBOTTOM
 10
0.0
 20
0.0
 30
0.0
  9
$UCSORGLEFT
 10
0.0
 20
0.0
 30
0.0
  9
$UCSORGRIGHT
 10
0.0
 20
0.0
 30
0.0
  9
$UCSORGFRONT
 10
0.0
 20
0.0
 30
0.0
  9
$UCSORGBACK
 10
0.0
 20
0.0
 30
0.0
  9
$PUCSBASE
  2

  9
$PUCSNAME
  2

  9
$PUCSORG
 10
0.0
 20
0.0
 30
0.0
  9
$PUCSXDIR
 10
1.0
 20
0.0
 30
0.0
  9
$PUCSYDIR
 10
0.0
 20
1.0
 30
0.0
  9
$PUCSORTHOREF
  2

  9
$PUCSORTHOVIEW
 70
     0
  9
$PUCSORGTOP
 10
0.0
 20
0.0
 30
0.0
  9
$PUCSORGBOTTOM
 10
0.0
 20
0.0
 30
0.0
  9
$PUCSORGLEFT
 10
0.0
 20
0.0
 30
0.0
  9
$PUCSORGRIGHT
 10
0.0
 20
0.0
 30
0.0
  9
$PUCSORGFRONT
 10
0.0
 20
0.0
 30
0.0
  9
$PUCSORGBACK
 10
0.0
 20
0.0
 30
0.0
  9
$USERI1
 70
     0
  9
$USERI2
 70
     0
  9
$USERI3
 70
     0
  9
$USERI4
 70
     0
  9
$USERI5
 70
     0
  9
$USERR1
 40
0.0
  9
$USERR2
 40
0.0
  9
$USERR3
 40
0.0
  9
$USERR4
 40
0.0
  9
$USERR5
 40
0.0
  9
$WORLDVIEW
 70
     1
  9
$SHADEDGE
 70
     3
  9
$SHADEDIF
 70
    70
  9
$TILEMODE
 70
     1
  9
$MAXACTVP
 70
    64
  9
$PINSBASE
 10
0.0
 20
0.0
 30
0.0
  9
$PLIMCHECK
 70
     0
  9
$PEXTMIN
 10
1.000000000000000E+20
 20
1.000000000000000E+20
 30
1.000000000000000E+20
  9
$PEXTMAX
 10
-1.000000000000000E+20
 20
-1.000000000000000E+20
 30
-1.000000000000000E+20
  9
$PLIMMIN
 10
0.0
 20
0.0
  9
$PLIMMAX
 10
420.0
 20
297.0
  9
$UNITMODE
 70
     0
  9
$VISRETAIN
 70
     1
  9
$PLINEGEN
 70
     0
  9
$PSLTSCALE
 70
     1
  9
$TREEDEPTH
 70
  3020
  9
$CMLSTYLE
  2
Standard
  9
$CMLJUST
 70
     0
  9
$CMLSCALE
 40
20.0
  9
$PROXYGRAPHICS
 70
     1
  9
$MEASUREMENT
 70
     1
  9
$CELWEIGHT
370
    -1
  9
$ENDCAPS
280
     0
  9
$JOINSTYLE
280
     0
  9
$LWDISPLAY
290
     0
  9
$INSUNITS
 70
     4
  9
$HYPERLINKBASE
  1

  9
$STYLESHEET
  1
彩色出圖.ctb
  9
$XEDIT
290
     1
  9
$CEPSNTYPE
380
     0
  9
$PSTYLEMODE
290
     1
  9
$FINGERPRINTGUID
  2
{6C02722A-18D3-491A-897A-B8025DE410A9}
  9
$VERSIONGUID
  2
{D9275393-972F-4C6E-BD23-C7B95DBD16CB}
  9
$EXTNAMES
290
     1
  9
$PSVPSCALE
 40
0.0
  9
$OLESTARTUP
290
     0
  0
ENDSEC
  0
SECTION
  2
CLASSES
  0
CLASS
  1
ACDBDICTIONARYWDFLT
  2
AcDbDictionaryWithDefault
  3
ObjectDBX Classes
 90
        0
280
     0
281
     0
  0
CLASS
  1
ACDBPLACEHOLDER
  2
AcDbPlaceHolder
  3
ObjectDBX Classes
 90
        0
280
     0
281
     0
  0
CLASS
  1
LAYOUT
  2
AcDbLayout
  3
ObjectDBX Classes
 90
        0
280
     0
281
     0
  0
CLASS
  1
AMGSETTINGSOBJ
  2
AmgSettingsObj
  3
"AcadM|Product Description: AutoCAD Mechanical 2000|Company: Autodesk"
 90
        0
280
     0
281
     0
  0
CLASS
  1
ACME_DOCUMENT
  2
AcMeDbDoc
  3
AcMeServices
 90
        0
280
     0
281
     0
  0
CLASS
  1
ACMESCOPE
  2
AcMeScope
  3
AcMeServices
 90
        0
280
     0
281
     0
  0
CLASS
  1
ACMECOMMANDHISTORY
  2
AcMeCommandHistory
  3
AcMeServices
 90
        0
280
     0
281
     0
  0
CLASS
  1
ACIMSYSVARMAN
  2
AcImSysVarManager
  3
AcMeServices
 90
        0
280
     0
281
     0
  0
CLASS
  1
ACIMREALSYSVAR
  2
AcImRealSysVar
  3
AcMeServices
 90
        0
280
     0
281
     0
  0
CLASS
  1
ACIMINTSYSVAR
  2
AcImIntSysVar
  3
AcMeServices
 90
        0
280
     0
281
     0
  0
CLASS
  1
ACMEDRAWINGMAN
  2
AcMeDrawingMan
  3
AcMeServices
 90
        0
280
     0
281
     0
  0
CLASS
  1
ACMEVIEW
  2
AcMeView
  3
AcMeServices
 90
        0
280
     0
281
     0
  0
CLASS
  1
ACDBENTITYCACHE
  2
AcMeEntityCache
  3
AcMeServices
 90
        0
280
     0
281
     0
  0
CLASS
  1
GSMANAGER
  2
AcMeGSManager
  3
AcMeServices
 90
        0
280
     0
281
     0
  0
CLASS
  1
AMDTINTERNALREACTOR
  2
AmdtInternalReactor
  3
AcMeServices
 90
        0
280
     0
281
     0
  0
CLASS
  1
ACMESTATEMGR
  2
AcMeStateMgr
  3
AcMeServices
 90
        0
280
     0
281
     0
  0
CLASS
  1
ACGREFMASTER
  2
AcGrefMaster
  3
AcAttribServices
 90
        0
280
     0
281
     0
  0
CLASS
  1
ACME_DATABASE
  2
AcMeDbDatabase
  3
AcMeServices
 90
        0
280
     0
281
     0
  0
CLASS
  1
ACRFINSADJUSTERMGR
  2
AcRfInsAdjusterMgr
  3
AcMeServices
 90
        0
280
     0
281
     0
  0
CLASS
  1
ACGREFACADMASTER
  2
AcGrefacadMaster
  3
AcGrefServices
 90
        0
280
     0
281
     0
  0
CLASS
  1
AMIMASTER
  2
AmiMaster
  3
AmiServices
 90
        0
280
     0
281
     0
  0
CLASS
  1
ACMDATADICTIONARY
  2
AcmDataDictionary
  3
"AcmSymBB|Product Description: AutoCAD Mechanical 2004 DX|Company: Autodesk"
 90
        0
280
     0
281
     0
  0
CLASS
  1
ACMDATAENTRYBLOCK
  2
AcmDataEntryBlock
  3
"AcmSymBB|Product Description: AutoCAD Mechanical 2004 DX|Company: Autodesk"
 90
    32768
280
     0
281
     0
  0
CLASS
  1
ACIMSTRSYSVAR
  2
AcImStrSysVar
  3
AcMeServices
 90
        0
280
     0
281
     0
  0
CLASS
  1
ACMSTANDARDISO
  2
AcmStandardISO
  3
"Amdt_StdImp|Product Description: AutoCAD Mechanical 2004 DX|Company: Autodesk"
 90
        0
280
     0
281
     0
  0
CLASS
  1
AMGOBJPROPCFG
  2
AmgObjPropCfg
  3
"AmgLay|Product Description: AutoCAD Mechanical 2000|Company: Autodesk"
 90
        1
280
     0
281
     0
  0
CLASS
  1
AMDTEDGESTANDARDISO
  2
AmdtEdgeStdISO
  3
"Amdt_StdImp|Product Description: AutoCAD Mechanical 2004 DX|Company: Autodesk"
 90
    32768
280
     0
281
     0
  0
CLASS
  1
ACMSURFSTANDARDISO
  2
AcmSurfTextStdISO
  3
"Amdt_StdImp|Product Description: AutoCAD Mechanical 2004 DX|Company: Autodesk"
 90
        0
280
     0
281
     0
  0
CLASS
  1
ACMFCFSTANDARDISO
  2
AcmFCFStdISO
  3
"Amdt_StdImp|Product Description: AutoCAD Mechanical 2004 DX|Company: Autodesk"
 90
        0
280
     0
281
     0
  0
CLASS
  1
ACMWELDSTANDARDISO
  2
AcmWeldingStdISO
  3
"Amdt_StdImp|Product Description: AutoCAD Mechanical 2004 DX|Company: Autodesk"
 90
        0
280
     0
281
     0
  0
CLASS
  1
ACMIDSTANDARDISO
  2
AcmIdStdISO
  3
"Amdt_StdImp|Product Description: AutoCAD Mechanical 2004 DX|Company: Autodesk"
 90
        0
280
     0
281
     0
  0
CLASS
  1
ACMDATUMSTANDARDISO
  2
AcmDatumStdISO
  3
"Amdt_StdImp|Product Description: AutoCAD Mechanical 2004 DX|Company: Autodesk"
 90
        0
280
     0
281
     0
  0
CLASS
  1
ACMBOMSTANDARDISO
  2
AcmBOMStdISO
  3
"Amdt_StdImp|Product Description: AutoCAD Mechanical 2004 DX|Company: Autodesk"
 90
        0
280
     0
281
     0
  0
CLASS
  1
ACMDETAILSTANDARDISO
  2
AmdtDetailSymStdISO
  3
"Amdt_StdImp|Product Description: AutoCAD Mechanical 2004 DX|Company: Autodesk"
 90
        0
280
     0
281
     0
  0
CLASS
  1
ACMSECTIONSTANDARDISO
  2
AmdtSectionSymStdISO
  3
"Amdt_StdImp|Product Description: AutoCAD Mechanical 2004 DX|Company: Autodesk"
 90
        0
280
     0
281
     0
  0
CLASS
  1
ACMCENTERLINESTANDARDISO
  2
AmdtCenterLineStdISO
  3
"Amdt_StdImp|Product Description: AutoCAD Mechanical 2004 DX|Company: Autodesk"
 90
        0
280
     0
281
     0
  0
CLASS
  1
ACMNOTESTANDARDISO
  2
AmdtNoteStdISO
  3
"Amdt_StdImp|Product Description: AutoCAD Mechanical 2004 DX|Company: Autodesk"
 90
        0
280
     0
281
     0
  0
CLASS
  1
ACAMGLAYSTD
  2
AcAmgLayStd
  3
"AcAmgLayStd|Product Description: AutoCAD Mechanical 2000|Company: Autodesk"
 90
        0
280
     0
281
     0
  0
CLASS
  1
ACAMGDIMSTD
  2
AcAmgDimStd
  3
"AcAmgDimStd|Product Description: AutoCAD Mechanical 2000|Company: Autodesk"
 90
        0
280
     0
281
     0
  0
CLASS
  1
ACAMGHOLECHARTSTDISO
  2
AcAmgHoleChartStdISO
  3
ACMSYMBB_MODULE_NAME
 90
        0
280
     0
281
     0
  0
CLASS
  1
ACAMGTITLESTD
  2
AcAmgTitleStd
  3
"TITLEAPP"
 90
        0
280
     0
281
     0
  0
CLASS
  1
LAYER_INDEX
  2
AcDbLayerIndex
  3
ObjectDBX Classes
 90
    32768
280
     0
281
     0
  0
CLASS
  1
IDBUFFER
  2
AcDbIdBuffer
  3
ObjectDBX Classes
 90
    32768
280
     0
281
     0
  0
CLASS
  1
DICTIONARYVAR
  2
AcDbDictionaryVar
  3
ObjectDBX Classes
 90
        0
280
     0
281
     0
  0
CLASS
  1
ACAMGFILTERDAT
  2
AcAmgFilterDat
  3
"AcadM|Product Description: AutoCAD Mechanical 2000|Company: Autodesk"
 90
    32768
280
     0
281
     0
  0
CLASS
  1
AMDTFORMULAUPDATEDISPATCHER
  2
AmdtFormulaUpdateDispatcher
  3
AcMeServices
 90
    32768
280
     0
281
     0
  0
CLASS
  1
DIMASSOC
  2
AcDbDimAssoc
  3
"AcDbDimAssoc|Product Desc:     AcDim ARX App For Dimension|Company:          Autodesk, Inc.|WEB Address:      www.autodesk.com"
 90
        0
280
     0
281
     0
  0
CLASS
  1
AMDTNOTE
  2
AmdtNote
  3
"AcmSymBB|Product Description: AutoCAD Mechanical 2004 DX|Company: Autodesk"
 90
    33791
280
     0
281
     1
  0
CLASS
  1
TABLESTYLE
  2
AcDbTableStyle
  3
ObjectDBX Classes
 90
     2047
280
     0
281
     0
  0
CLASS
  1
AM_DRAWING_MGR
  2
AcDmDwgMgr
  3
AcMechDwgViewMgmt
 90
        0
280
     0
281
     0
  0
CLASS
  1
AM_DWG_DOCUMENT
  2
AcDmDwgDocument
  3
AcMechDwgViewMgmt
 90
        0
280
     0
281
     0
  0
CLASS
  1
AM_DWG_SHEET
  2
AcDmSheet
  3
AcMechDwgViewMgmt
 90
        0
280
     0
281
     0
  0
CLASS
  1
AM_VIEWDIMPARMAP
  2
AcDmViewDimParMap
  3
AcMechDwgViewMgmt
 90
        0
280
     0
281
     0
  0
CLASS
  1
AM_DWGMGR_NAME
  2
AcDmDwgMgrName
  3
AcMechDwgViewMgmt
 90
        0
280
     0
281
     0
  0
CLASS
  1
AMDTMENUSTATEMGR
  2
AmdtMenuStateMgr
  3
McadcomServices
 90
        0
280
     0
281
     0
  0
CLASS
  1
AMDTMCOMMENUSTATE
  2
AmdtMcomMenuState
  3
McadcomServices
 90
        0
280
     0
281
     0
  0
CLASS
  1
MAPIAMMOUDLE
  2
MApiAmModule
  3
MApiAmServices
 90
        0
280
     0
281
     0
  0
CLASS
  1
AMDTADMENUSTATE
  2
AmdtAdMenuState
  3
DesignerServices
 90
        0
280
     0
281
     0
  0
CLASS
  1
ADAPPL
  2
AcAdAppl
  3
DesignerServices
 90
        0
280
     0
281
     0
  0
CLASS
  1
DEPMGR
  2
AcAdDepMgr
  3
DesignerServices
 90
        0
280
     0
281
     0
  0
CLASS
  1
PARAMMGR
  2
AcAdParamMgr
  3
DesignerServices
 90
        0
280
     0
281
     0
  0
CLASS
  1
PARAMSCOPE
  2
AcAdParamScope
  3
DesignerServices
 90
        0
280
     0
281
     0
  0
CLASS
  1
NAMEDAPPL
  2
AcAdNamedAppl
  3
DesignerServices
 90
        0
280
     0
281
     0
  0
CLASS
  1
AMDTDMMENUSTATE
  2
AmdtDmMenuState
  3
AcMechDwgViewMgmt
 90
        0
280
     0
281
     0
  0
CLASS
  1
AMDTAMMENUSTATE
  2
AmdtAmMenuState
  3
DesignerAssemblies
 90
        0
280
     0
281
     0
  0
CLASS
  1
ACAMPROJECT
  2
AcAmProject
  3
DesignerAssemblies
 90
        0
280
     0
281
     0
  0
CLASS
  1
ACAMGRCOMPDEF
  2
AcAmGrCompDef
  3
DesignerAssemblies
 90
        0
280
     0
281
     0
  0
CLASS
  1
ACCMCONTEXT
  2
AcCmContext
  3
DesignerAssemblies
 90
        0
280
     0
281
     0
  0
CLASS
  1
ACAMCOMPDEF
  2
AcAmCompDef
  3
DesignerAssemblies
 90
        0
280
     0
281
     0
  0
CLASS
  1
ACAMCOMPDEFMGR
  2
AcAmCompDefMgr
  3
DesignerAssemblies
 90
        0
280
     0
281
     0
  0
CLASS
  1
AMCONTEXTMGR
  2
AcAmContextMgr
  3
DesignerAssemblies
 90
        0
280
     0
281
     0
  0
CLASS
  1
ACAMCONTEXTMODELER
  2
AcAmContextModeler
  3
DesignerAssemblies
 90
        0
280
     0
281
     0
  0
CLASS
  1
ACMTHREADLINESTANDARDISO
  2
AmdtThreadLineStdISO
  3
"Amdt_StdImp|Product Description: AutoCAD Mechanical 2004 DX|Company: Autodesk"
 90
        0
280
     0
281
     0
  0
CLASS
  1
CATALOGSTATE
  2
AcAmCatalogState
  3
DesignerAssemblies
 90
        0
280
     0
281
     0
  0
CLASS
  1
ACAMGRCOMPDEFSET
  2
AcAmGrCompDefSet
  3
DesignerAssemblies
 90
        0
280
     0
281
     0
  0
CLASS
  1
AMDTBROWSERDBTAB
  2
AmdtBrowserDbTab
  3
McadcomServices
 90
        0
280
     0
281
     0
  0
CLASS
  1
CBROWSERAPPOBJECT
  2
CBrowserAppObject
  3
McadcomServices
 90
        0
280
     0
281
     0
  0
CLASS
  1
DM_PLACEHOLDER
  2
AcDmSelsetPlaceholder
  3
AcMechDwgViewMgmt
 90
        0
280
     0
281
     0
  0
CLASS
  1
VAACXREFPANELOBJECT
  2
VaAcXREFPanelObject
  3
VAAC_ADDIN
 90
    32768
280
     0
281
     0
  0
CLASS
  1
VAACIMAGEINVENTORY
  2
VaAcImageInventory
  3
VAAC_ADDIN
 90
    32768
280
     0
281
     0
  0
CLASS
  1
AMDTEDGESTANDARDISO13715
  2
AmdtEdgeStdISO13715
  3
"Amdt_StdImp|Product Description: AutoCAD Mechanical 2004 DX|Company: Autodesk"
 90
        0
280
     0
281
     0
  0
CLASS
  1
AMDTNOTETEMPLATEDB
  2
AmdtNoteTemplateDB
  3
AMDT_STDIMP_MODULE_NAME
 90
        0
280
     0
281
     0
  0
CLASS
  1
ACRFATTGENMGR
  2
AcRfAttGeneralMgr
  3
AcAttribServices
 90
        0
280
     0
281
     0
  0
CLASS
  1
STDPART2D
  2
AmgStdPart
  3
"AmgStdPart|Product Description: AutoCAD Mechanical 2000|Company: Autodesk"
 90
    33791
280
     0
281
     1
  0
CLASS
  1
ACAMSTDPCOMPDEF
  2
AcAmStdpCompDef
  3
DesignerAssemblies
 90
    32768
280
     0
281
     0
  0
CLASS
  1
ACRFOBJATTMGR
  2
AcRfObjAttGroupMgr
  3
AcAttribServices
 90
    32768
280
     0
281
     0
  0
CLASS
  1
ACRFMCADAPIATTHOLDER
  2
AcRfMCADAPIAttHolder
  3
AcAttribServices
 90
    32768
280
     0
281
     0
  0
CLASS
  1
AMDTSYSATTR
  2
AmdtSystemAttribute
  3
AcAttribServices
 90
    32768
280
     0
281
     0
  0
CLASS
  1
ACAMCOMP
  2
AcAmComp
  3
DesignerAssemblies
 90
    32768
280
     0
281
     0
  0
CLASS
  1
AC_AM_STDP_VIEW_DEF
  2
AcAmStdpViewDef
  3
DesignerAssemblies
 90
    32768
280
     0
281
     0
  0
CLASS
  1
AC_AM_MVD_DEP_MGR
  2
AcAmMVDdepMgr
  3
DesignerAssemblies
 90
    32768
280
     0
281
     0
  0
CLASS
  1
AC_AM_MASTER_VIEW_DEF
  2
AcAmMasterViewDef
  3
DesignerAssemblies
 90
    32768
280
     0
281
     0
  0
CLASS
  1
AC_AM_DIRTY_NODES
  2
AcAmDirtyNodes
  3
DesignerAssemblies
 90
    32768
280
     0
281
     0
  0
CLASS
  1
AC_AM_MAPPER_CACHE
  2
AcAmMapperCache
  3
DesignerAssemblies
 90
    32768
280
     0
281
     0
  0
CLASS
  1
ACAMMVDBACKUPOBJECT
  2
AcAmMVDBackupObject
  3
DesignerAssemblies
 90
    32768
280
     0
281
     0
  0
CLASS
  1
AC_AM_COMP_VIEW_INST
  2
AcAmCompView
  3
DesignerAssemblies
 90
    32768
280
     0
281
     0
  0
CLASS
  1
AC_AM_2D_XREF_MGR
  2
AcAmXrefMgr2d
  3
DesignerAssemblies
 90
    32768
280
     0
281
     0
  0
CLASS
  1
SORTENTSTABLE
  2
AcDbSortentsTable
  3
ObjectDBX Classes
 90
        0
280
     0
281
     0
  0
ENDSEC
  0
SECTION
  2
TABLES
  0
TABLE
  2
VPORT
  5
8
330
0
100
AcDbSymbolTable
 70
    11
  0
VPORT
  5
2BBC
330
8
100
AcDbSymbolTableRecord
100
AcDbViewportTableRecord
  2
*Active
 70
     0
 10
0.0
 20
0.0
 11
1.0
 21
1.0
 12
688.0668311835936
 22
87.45165956965385
 13
0.0
 23
0.0
 14
2.5
 24
2.5
 15
10.0
 25
10.0
 16
0.0
 26
0.0
 36
1.0
 17
0.0
 27
0.0
 37
0.0
 40
217.7977560726357
 41
1.661684782608695
 42
50.0
 43
0.0
 44
0.0
 50
0.0
 51
0.0
 71
     0
 72
   100
 73
     1
 74
     3
 75
     0
 76
     0
 77
     0
 78
     0
281
     0
 65
     1
110
0.0
120
0.0
130
0.0
111
1.0
121
0.0
131
0.0
112
0.0
122
1.0
132
0.0
 79
     0
146
0.0
  0
ENDTAB
  0
TABLE
  2
LTYPE
  5
5
330
0
100
AcDbSymbolTable
 70
    14
  0
LTYPE
  5
14
330
5
100
AcDbSymbolTableRecord
100
AcDbLinetypeTableRecord
  2
ByBlock
 70
     0
  3

 72
    65
 73
     0
 40
0.0
  0
LTYPE
  5
15
330
5
100
AcDbSymbolTableRecord
100
AcDbLinetypeTableRecord
  2
ByLayer
 70
     0
  3

 72
    65
 73
     0
 40
0.0
  0
LTYPE
  5
16
330
5
100
AcDbSymbolTableRecord
100
AcDbLinetypeTableRecord
  2
Continuous
 70
     0
  3
Solid line
 72
    65
 73
     0
 40
0.0
  0
LTYPE
  5
4D
330
5
100
AcDbSymbolTableRecord
100
AcDbLinetypeTableRecord
  2
AM_ISO02W050
 70
     0
  3
__ __ __ __ __ __ __ __ __ __ __ __ __ __ __
 72
    65
 73
     2
 40
7.5
 49
6.0
 74
     0
 49
-1.5
 74
     0
  0
LTYPE
  5
4E
330
5
100
AcDbSymbolTableRecord
100
AcDbLinetypeTableRecord
  2
AM_ISO08W050
 70
     0
  3
____ . ____ . ____ . ____ . ____ . ____ . ____
 72
    65
 73
     4
 40
18.0
 49
12.0
 74
     0
 49
-1.5
 74
     0
 49
3.0
 74
     0
 49
-1.5
 74
     0
  0
LTYPE
  5
4F
330
5
100
AcDbSymbolTableRecord
100
AcDbLinetypeTableRecord
  2
AM_ISO09W050
 70
     0
  3
_____ . . _____ . . _____ . . ____ .. ____
 72
    65
 73
     6
 40
22.5
 49
12.0
 74
     0
 49
-1.5
 74
     0
 49
3.0
 74
     0
 49
-1.5
 74
     0
 49
3.0
 74
     0
 49
-1.5
 74
     0
  0
LTYPE
  5
50
330
5
100
AcDbSymbolTableRecord
100
AcDbLinetypeTableRecord
  2
Amconstr
 70
     0
  3
_______________________
 72
    65
 73
     2
 40
9999.0
 49
9999.0
 74
     0
 49
0.0
 74
     0
  0
LTYPE
  5
51
330
5
100
AcDbSymbolTableRecord
100
AcDbLinetypeTableRecord
  2
AM_ISO08W050x2
 70
     0
  3
__ . __ . __ . __ . __ . __
 72
    65
 73
     4
 40
9.0
 49
6.0
 74
     0
 49
-0.75
 74
     0
 49
1.5
 74
     0
 49
-0.75
 74
     0
  0
LTYPE
  5
52
330
5
100
AcDbSymbolTableRecord
100
AcDbLinetypeTableRecord
  2
AM_ISO02W050x2
 70
     0
  3
 _ _ _ _ _ _ _ _ _ _ _ _
 72
    65
 73
     2
 40
3.75
 49
3.0
 74
     0
 49
-0.75
 74
     0
  0
LTYPE
  5
55
330
5
100
AcDbSymbolTableRecord
100
AcDbLinetypeTableRecord
  2
Amzigzag
 70
     0
  3
/\/-/\/-/\/-/\/-/\/-/\/
 72
    65
 73
     2
 40
11.0001
 49
0.0001
 74
     4
 75
   135
340
54
 46
0.04
 50
0.0
 44
0.0
 45
0.0
 49
-11.0
 74
     0
  0
LTYPE
  5
63
330
5
100
AcDbSymbolTableRecord
100
AcDbLinetypeTableRecord
  2
ACISOWELD
 70
     0
  3
_ _ _ _ _
 72
    65
 73
     2
 40
2.0
 49
2.0
 74
     0
 49
-1.0
 74
     0
  0
LTYPE
  5
64
330
5
100
AcDbSymbolTableRecord
100
AcDbLinetypeTableRecord
  2
ACISOTGB
 70
     0
  3
__ . . __ . .
 72
    65
 73
     6
 40
9.0
 49
4.0
 74
     0
 49
-1.0
 74
     0
 49
1.0
 74
     0
 49
-1.0
 74
     0
 49
1.0
 74
     0
 49
-1.0
 74
     0
  0
LTYPE
  5
65
330
5
100
AcDbSymbolTableRecord
100
AcDbLinetypeTableRecord
  2
ACISOTGL
 70
     0
  3
_ _ _ _ _
 72
    65
 73
     2
 40
3.0
 49
2.0
 74
     0
 49
-1.0
 74
     0
  0
LTYPE
  5
68
330
5
100
AcDbSymbolTableRecord
100
AcDbLinetypeTableRecord
  2
CENTER
 70
     0
  3
__ . __
 72
    65
 73
     4
 40
7.0
 49
4.0
 74
     0
 49
-1.0
 74
     0
 49
1.0
 74
     0
 49
-1.0
 74
     0
  0
LTYPE
  5
932
330
5
100
AcDbSymbolTableRecord
100
AcDbLinetypeTableRecord
  2
HIDDEN
 70
     0
  3
Hidden __ __ __ __ __ __ __ __ __ __ __ __ __ _
 72
    65
 73
     2
 40
9.524999999999998
 49
6.349999999999999
 74
     0
 49
-3.174999999999999
 74
     0
  0
LTYPE
  5
933
330
5
100
AcDbSymbolTableRecord
100
AcDbLinetypeTableRecord
  2
PHANTOM2
 70
     0
  3
Phantom (.5x) ___ _ _ ___ _ _ ___ _ _ ___ _ _
 72
    65
 73
     6
 40
31.75
 49
15.875
 74
     0
 49
-3.174999999999999
 74
     0
 49
3.174999999999999
 74
     0
 49
-3.174999999999999
 74
     0
 49
3.174999999999999
 74
     0
 49
-3.174999999999999
 74
     0
  0
ENDTAB
  0
TABLE
  2
LAYER
  5
2
102
{ACAD_XDICTIONARY
360
E05
102
}
330
0
100
AcDbSymbolTable
 70
     8
  0
LAYER
  5
10
330
2
100
AcDbSymbolTableRecord
100
AcDbLayerTableRecord
  2
0
 70
     0
 62
     7
  6
Continuous
370
    -3
390
F
  0
LAYER
  5
2D7
330
2
100
AcDbSymbolTableRecord
100
AcDbLayerTableRecord
  2
M_1
 70
     0
 62
     7
  6
Continuous
370
    -3
390
F
  0
LAYER
  5
42A
330
2
100
AcDbSymbolTableRecord
100
AcDbLayerTableRecord
  2
AM_5
 70
     0
 62
     5
  6
Continuous
370
    50
390
F
  0
LAYER
  5
43E
330
2
100
AcDbSymbolTableRecord
100
AcDbLayerTableRecord
  2
Defpoints
 70
     0
 62
     7
  6
Continuous
290
     0
370
    -3
390
F
  0
LAYER
  5
E7E
330
2
100
AcDbSymbolTableRecord
100
AcDbLayerTableRecord
  2
AM_7
 70
     0
 62
     1
  6
CENTER
370
    25
390
F
  0
LAYER
  5
1990
330
2
100
AcDbSymbolTableRecord
100
AcDbLayerTableRecord
  2
AM_0
 70
     0
 62
     7
  6
Continuous
370
    50
390
F
  0
LAYER
  5
19B6
330
2
100
AcDbSymbolTableRecord
100
AcDbLayerTableRecord
  2
AM_4
 70
     0
 62
     3
  6
Continuous
370
    25
390
F
  0
LAYER
  5
2787
330
2
100
AcDbSymbolTableRecord
100
AcDbLayerTableRecord
  2
LOGO
 70
     0
 62
     7
  6
Continuous
370
    -3
390
F
  0
ENDTAB
  0
TABLE
  2
STYLE
  5
3
330
0
100
AcDbSymbolTable
 70
     6
  0
STYLE
  5
11
330
3
100
AcDbSymbolTableRecord
100
AcDbTextStyleTableRecord
  2
STANDARD
 70
     0
 40
0.0
 41
1.0
 50
0.0
 71
     0
 42
3.5
  3
ISOCP.SHX
  4
CHINESET.SHX
  0
STYLE
  5
54
330
3
100
AcDbSymbolTableRecord
100
AcDbTextStyleTableRecord
  2

 70
     1
 40
0.0
 41
1.0
 50
0.0
 71
     0
 42
2.5
  3
ltypeshp.shx
  4

  0
STYLE
  5
56
330
3
100
AcDbSymbolTableRecord
100
AcDbTextStyleTableRecord
  2
ACISOTS
 70
     0
 40
1.0
 41
1.0
 50
0.0
 71
     0
 42
2.5
  3
isocp.shx
  4
chineset.shx
  0
STYLE
  5
62
330
3
100
AcDbSymbolTableRecord
100
AcDbTextStyleTableRecord
  2
ACISOGDT
 70
     0
 40
0.0
 41
1.0
 50
0.0
 71
     0
 42
3.5
  3
amgdt.shx
  4

  0
STYLE
  5
9E
330
3
100
AcDbSymbolTableRecord
100
AcDbTextStyleTableRecord
  2
DAYUS
 70
     0
 40
0.0
 41
1.0
 50
0.0
 71
     0
 42
2.5
  3
simplex
  4
dayus
  0
STYLE
  5
10CF
330
3
100
AcDbSymbolTableRecord
100
AcDbTextStyleTableRecord
  2
CHINESET
 70
     0
 40
0.0
 41
0.75
 50
0.0
 71
     0
 42
3.0
  3
simplex.shx
  4
CHINESET.SHX
  0
ENDTAB
  0
TABLE
  2
VIEW
  5
6
330
0
100
AcDbSymbolTable
 70
     0
  0
ENDTAB
  0
TABLE
  2
UCS
  5
7
330
0
100
AcDbSymbolTable
 70
     0
  0
ENDTAB
  0
TABLE
  2
APPID
  5
9
330
0
100
AcDbSymbolTable
 70
    31
  0
APPID
  5
12
330
9
100
AcDbSymbolTableRecord
100
AcDbRegAppTableRecord
  2
ACAD
 70
     0
  0
APPID
  5
30
330
9
100
AcDbSymbolTableRecord
100
AcDbRegAppTableRecord
  2
MCAD_NO_VIS
 70
     0
  0
APPID
  5
31
330
9
100
AcDbSymbolTableRecord
100
AcDbRegAppTableRecord
  2
ACAD_TEMP_GRAPHIC
 70
     0
  0
APPID
  5
42
330
9
100
AcDbSymbolTableRecord
100
AcDbRegAppTableRecord
  2
ACATTRIBSERVICES
 70
     0
  0
APPID
  5
20A
330
9
100
AcDbSymbolTableRecord
100
AcDbRegAppTableRecord
  2
GENIUS_GENODEF_13
 70
     0
  0
APPID
  5
20B
330
9
100
AcDbSymbolTableRecord
100
AcDbRegAppTableRecord
  2
GENIUS_GENOBJ-N-HTC_13
 70
     0
  0
APPID
  5
20C
330
9
100
AcDbSymbolTableRecord
100
AcDbRegAppTableRecord
  2
GENIUS_GENHATCH_13
 70
     0
  0
APPID
  5
935
330
9
100
AcDbSymbolTableRecord
100
AcDbRegAppTableRecord
  2
AD_DRAW
 70
     0
  0
APPID
  5
953
330
9
100
AcDbSymbolTableRecord
100
AcDbRegAppTableRecord
  2
DESIGNERASSEMBLIES
 70
     0
  0
APPID
  5
958
330
9
100
AcDbSymbolTableRecord
100
AcDbRegAppTableRecord
  2
ACADM_DIM_EDIT
 70
     0
  0
APPID
  5
959
330
9
100
AcDbSymbolTableRecord
100
AcDbRegAppTableRecord
  2
AMDT_DM_ADJ
 70
     0
  0
APPID
  5
E24
330
9
100
AcDbSymbolTableRecord
100
AcDbRegAppTableRecord
  2
ACAD_DSTYLE_DIMTEXT_FILL
 70
     0
  0
APPID
  5
10D0
330
9
100
AcDbSymbolTableRecord
100
AcDbRegAppTableRecord
  2
ACAD_PSEXT
 70
     0
  0
APPID
  5
16F7
330
9
100
AcDbSymbolTableRecord
100
AcDbRegAppTableRecord
  2
ACAD_DIMASSOC_DIMLFAC
 70
     0
  0
APPID
  5
16F8
330
9
100
AcDbSymbolTableRecord
100
AcDbRegAppTableRecord
  2
ACAD_DIMASSOC_CALC_DIMLFAC
 70
     0
  0
APPID
  5
16F9
330
9
100
AcDbSymbolTableRecord
100
AcDbRegAppTableRecord
  2
ACAD_DIMASSOC_OVERRIDDEN_DIMLFAC
 70
     0
  0
APPID
  5
1997
330
9
100
AcDbSymbolTableRecord
100
AcDbRegAppTableRecord
  2
GEVID1139552286
 70
     0
  0
APPID
  5
1998
330
9
100
AcDbSymbolTableRecord
100
AcDbRegAppTableRecord
  2
GEVDC
 70
     0
  0
APPID
  5
1999
330
9
100
AcDbSymbolTableRecord
100
AcDbRegAppTableRecord
  2
GEVRADREF
 70
     0
  0
APPID
  5
19A2
330
9
100
AcDbSymbolTableRecord
100
AcDbRegAppTableRecord
  2
AMG_2DHIDE
 70
     0
  0
APPID
  5
19A3
330
9
100
AcDbSymbolTableRecord
100
AcDbRegAppTableRecord
  2
AMG_2DSTRUCT_BTR
 70
     0
  0
APPID
  5
19B4
330
9
100
AcDbSymbolTableRecord
100
AcDbRegAppTableRecord
  2
ACADM_2DVIEW_IGN_NOTIFY
 70
     0
  0
APPID
  5
19DC
330
9
100
AcDbSymbolTableRecord
100
AcDbRegAppTableRecord
  2
GENIUS_GENOENT_13
 70
     0
  0
APPID
  5
19DD
330
9
100
AcDbSymbolTableRecord
100
AcDbRegAppTableRecord
  2
GENIUS_GENOBJ-N-CRS_13
 70
     0
  0
APPID
  5
19DE
330
9
100
AcDbSymbolTableRecord
100
AcDbRegAppTableRecord
  2
GENIUS_GENOLIS_13
 70
     0
  0
APPID
  5
19DF
330
9
100
AcDbSymbolTableRecord
100
AcDbRegAppTableRecord
  2
GENIUS_GENOREF_13
 70
     0
  0
APPID
  5
1B28
330
9
100
AcDbSymbolTableRecord
100
AcDbRegAppTableRecord
  2
GENIUS_GENOBJ-N-CEN_13
 70
     0
  0
APPID
  5
1B29
330
9
100
AcDbSymbolTableRecord
100
AcDbRegAppTableRecord
  2
GENIUS_GENCEN_19
 70
     0
  0
APPID
  5
2753
330
9
100
AcDbSymbolTableRecord
100
AcDbRegAppTableRecord
  2
GENIUS_GENDTOL_13
 70
     0
  0
APPID
  5
2788
330
9
100
AcDbSymbolTableRecord
100
AcDbRegAppTableRecord
  2
GENIUS_GENREC_14
 70
     0
  0
APPID
  5
2789
330
9
100
AcDbSymbolTableRecord
100
AcDbRegAppTableRecord
  2
GENIUS_GENOBJ-N-REC_13
 70
     0
  0
ENDTAB
  0
TABLE
  2
DIMSTYLE
  5
A
330
0
100
AcDbSymbolTable
 70
     9
100
AcDbDimStyleTable
 71
     2
340
6B
340
75
  0
DIMSTYLE
105
6B
330
A
100
AcDbSymbolTableRecord
100
AcDbDimStyleTableRecord
  2
AM_ISO
 70
     0
  4
"
 41
2.5
 42
1.0
 43
6.0
 44
1.5
 47
0.1
 48
0.1
 73
     0
 74
     0
 77
     1
 78
     8
 79
     2
140
3.0
141
3.0
143
0.0393701
146
0.71
147
0.8
172
     1
176
   256
177
   256
178
   256
271
     2
272
     2
283
     0
284
     8
340
11
371
    -1
372
    -1
  0
DIMSTYLE
105
6C
102
{ACAD_REACTORS
330
1D75
102
}
330
A
100
AcDbSymbolTableRecord
100
AcDbDimStyleTableRecord
  2
AM_ISO$3
 70
     0
  4
"
 41
2.5
 42
1.0
 43
6.0
 44
1.5
 47
0.1
 48
0.1
 73
     0
 77
     1
 78
     8
 79
     2
140
3.0
141
3.0
143
0.0393701
146
0.71
147
0.8
176
   256
177
   256
178
   256
271
     2
272
     2
283
     0
284
     8
288
     1
289
     0
340
11
371
    -1
372
    -1
  0
DIMSTYLE
105
6D
330
A
100
AcDbSymbolTableRecord
100
AcDbDimStyleTableRecord
  2
AM_ISO$4
 70
     0
  4
"
 41
2.5
 42
1.0
 43
6.0
 44
1.5
 47
0.1
 48
0.1
 73
     0
 77
     1
 78
     8
 79
     2
140
3.0
141
3.0
143
0.0393701
146
0.71
147
0.8
176
   256
177
   256
178
   256
271
     2
272
     2
283
     0
284
     8
288
     1
289
     0
340
11
371
    -1
372
    -1
  0
DIMSTYLE
105
6E
330
A
100
AcDbSymbolTableRecord
100
AcDbDimStyleTableRecord
  2
AM_ISO$6
 70
     0
  4
"
 41
2.5
 42
1.0
 43
6.0
 44
1.5
 47
0.1
 48
0.1
 73
     0
 74
     0
 78
     8
 79
     2
140
3.0
141
3.0
143
0.0393701
146
0.71
147
0.8
172
     1
176
   256
177
   256
178
   256
271
     2
272
     2
283
     0
284
     8
340
11
371
    -1
372
    -1
  0
DIMSTYLE
105
6F
330
A
100
AcDbSymbolTableRecord
100
AcDbDimStyleTableRecord
  2
AM_ISO$7
 70
     0
  4
"
 41
2.5
 42
1.0
 43
6.0
 44
1.5
 47
0.1
 48
0.1
 73
     0
 74
     0
 77
     1
 78
     8
 79
     2
140
5.0
141
3.0
143
0.0393701
146
0.71
147
0.8
172
     1
176
   256
177
   256
178
   256
271
     2
272
     2
283
     0
284
     8
340
11
371
    -1
372
    -1
  0
DIMSTYLE
105
70
330
A
100
AcDbSymbolTableRecord
100
AcDbDimStyleTableRecord
  2
AM_ISO$SF
 70
     0
  4
"
 41
2.5
 42
1.0
 43
10.0
 44
1.0
 47
0.1
 48
0.1
 73
     0
 74
     0
 75
     1
 76
     1
 77
     1
 78
     8
 79
     2
140
3.5
141
0.0
143
0.0393701
146
0.71
147
1.5
172
     1
176
   256
177
   256
178
     2
271
     2
272
     3
274
     4
283
     0
284
     8
340
11
371
    -1
372
    -1
  0
DIMSTYLE
105
75
330
A
100
AcDbSymbolTableRecord
100
AcDbDimStyleTableRecord
  2
AM_ISO$SH
 70
     0
  4
"
 41
2.5
 42
1.0
 43
10.0
 44
1.0
 47
0.1
 48
0.1
 73
     0
 74
     0
 75
     1
 76
     1
 77
     1
 78
     8
 79
     2
140
3.5
141
0.0
143
0.0393701
144
2.0
146
0.71
147
1.5
172
     1
173
     1
176
   256
177
   256
178
     2
271
     2
272
     3
274
     4
283
     0
284
     8
340
11
343
71
371
    -1
372
    -1
  0
DIMSTYLE
105
E7F
102
{ACAD_REACTORS
330
1130
330
13F4
330
141E
330
1444
330
146E
330
1494
330
14BE
330
1C02
330
1C38
330
1C62
330
1C88
330
13A8
330
1373
330
115A
330
10FC
330
1244
330
121E
330
11F8
330
13CE
102
}
330
A
100
AcDbSymbolTableRecord
100
AcDbDimStyleTableRecord
  2
AM_ISO$0
 70
     0
  4
"
 41
2.5
 42
1.0
 43
6.0
 44
1.5
 47
0.1
 48
0.1
 73
     0
 74
     0
 77
     1
 78
     8
 79
     2
140
3.0
141
3.0
143
0.0393701
146
0.71
147
0.8
172
     1
176
   256
177
   256
178
   256
271
     2
272
     2
283
     0
284
     8
340
11
371
    -1
372
    -1
  0
DIMSTYLE
105
1597
102
{ACAD_REACTORS
330
1F35
330
1F67
330
1F9B
102
}
330
A
100
AcDbSymbolTableRecord
100
AcDbDimStyleTableRecord
  2
AM_ISO$2
 70
     0
  4
"
 41
2.5
 42
1.0
 43
6.0
 44
1.5
 47
0.1
 48
0.1
 73
     0
 74
     0
 77
     1
 78
     8
 79
     2
140
3.0
141
3.0
143
0.0393701
146
0.71
147
0.8
172
     1
176
   256
177
   256
178
   256
271
     2
272
     2
283
     0
284
     8
340
11
371
    -1
372
    -1
  0
ENDTAB
  0
TABLE
  2
BLOCK_RECORD
  5
1
330
0
100
AcDbSymbolTable
 70
    32
  0
BLOCK_RECORD
  5
1F
102
{ACAD_XDICTIONARY
360
7D
102
}
330
1
100
AcDbSymbolTableRecord
100
AcDbBlockTableRecord
  2
*Model_Space
340
22
  0
BLOCK_RECORD
  5
1B
330
1
100
AcDbSymbolTableRecord
100
AcDbBlockTableRecord
  2
*Paper_Space
340
1E
  0
BLOCK_RECORD
  5
23
330
1
100
AcDbSymbolTableRecord
100
AcDbBlockTableRecord
  2
*Paper_Space0
340
26
  0
BLOCK_RECORD
  5
71
330
1
100
AcDbSymbolTableRecord
100
AcDbBlockTableRecord
  2
GENAXEH
340
0
  0
BLOCK_RECORD
  5
10FD
330
1
100
AcDbSymbolTableRecord
100
AcDbBlockTableRecord
  2
*D2
340
0
  0
BLOCK_RECORD
  5
1131
330
1
100
AcDbSymbolTableRecord
100
AcDbBlockTableRecord
  2
*D3
340
0
  0
BLOCK_RECORD
  5
115B
330
1
100
AcDbSymbolTableRecord
100
AcDbBlockTableRecord
  2
*D4
340
0
  0
BLOCK_RECORD
  5
11F9
330
1
100
AcDbSymbolTableRecord
100
AcDbBlockTableRecord
  2
*D5
340
0
  0
BLOCK_RECORD
  5
121F
330
1
100
AcDbSymbolTableRecord
100
AcDbBlockTableRecord
  2
*D6
340
0
  0
BLOCK_RECORD
  5
1245
330
1
100
AcDbSymbolTableRecord
100
AcDbBlockTableRecord
  2
*D7
340
0
  0
BLOCK_RECORD
  5
1374
330
1
100
AcDbSymbolTableRecord
100
AcDbBlockTableRecord
  2
*D8
340
0
  0
BLOCK_RECORD
  5
13A9
330
1
100
AcDbSymbolTableRecord
100
AcDbBlockTableRecord
  2
*D9
340
0
  0
BLOCK_RECORD
  5
13CF
330
1
100
AcDbSymbolTableRecord
100
AcDbBlockTableRecord
  2
*D10
340
0
  0
BLOCK_RECORD
  5
13F5
330
1
100
AcDbSymbolTableRecord
100
AcDbBlockTableRecord
  2
*D11
340
0
  0
BLOCK_RECORD
  5
141F
330
1
100
AcDbSymbolTableRecord
100
AcDbBlockTableRecord
  2
*D12
340
0
  0
BLOCK_RECORD
  5
1445
330
1
100
AcDbSymbolTableRecord
100
AcDbBlockTableRecord
  2
*D13
340
0
  0
BLOCK_RECORD
  5
146F
330
1
100
AcDbSymbolTableRecord
100
AcDbBlockTableRecord
  2
*D14
340
0
  0
BLOCK_RECORD
  5
1495
330
1
100
AcDbSymbolTableRecord
100
AcDbBlockTableRecord
  2
*D15
340
0
  0
BLOCK_RECORD
  5
14BF
330
1
100
AcDbSymbolTableRecord
100
AcDbBlockTableRecord
  2
*D16
340
0
  0
BLOCK_RECORD
  5
1C05
330
1
100
AcDbSymbolTableRecord
100
AcDbBlockTableRecord
  2
*D18
340
0
  0
BLOCK_RECORD
  5
1C39
330
1
100
AcDbSymbolTableRecord
100
AcDbBlockTableRecord
  2
*D19
340
0
  0
BLOCK_RECORD
  5
1C63
330
1
100
AcDbSymbolTableRecord
100
AcDbBlockTableRecord
  2
*D20
340
0
  0
BLOCK_RECORD
  5
1C89
330
1
100
AcDbSymbolTableRecord
100
AcDbBlockTableRecord
  2
*D21
340
0
  0
BLOCK_RECORD
  5
1D76
330
1
100
AcDbSymbolTableRecord
100
AcDbBlockTableRecord
  2
*D22
340
0
  0
BLOCK_RECORD
  5
1F36
330
1
100
AcDbSymbolTableRecord
100
AcDbBlockTableRecord
  2
*D23
340
0
  0
BLOCK_RECORD
  5
1F68
330
1
100
AcDbSymbolTableRecord
100
AcDbBlockTableRecord
  2
*D24
340
0
  0
BLOCK_RECORD
  5
1F9C
330
1
100
AcDbSymbolTableRecord
100
AcDbBlockTableRecord
  2
*D25
340
0
  0
BLOCK_RECORD
  5
2ADE
330
1
100
AcDbSymbolTableRecord
100
AcDbBlockTableRecord
  2
*S26
340
0
102
{BLKREFS
331
2170
102
}
  0
BLOCK_RECORD
  5
2AE6
330
1
100
AcDbSymbolTableRecord
100
AcDbBlockTableRecord
  2
*S27
340
0
102
{BLKREFS
331
2175
102
}
  0
BLOCK_RECORD
  5
2AEE
330
1
100
AcDbSymbolTableRecord
100
AcDbBlockTableRecord
  2
*S28
340
0
102
{BLKREFS
331
21CB
102
}
  0
BLOCK_RECORD
  5
2AF6
330
1
100
AcDbSymbolTableRecord
100
AcDbBlockTableRecord
  2
*S29
340
0
102
{BLKREFS
331
21D0
102
}
  0
BLOCK_RECORD
  5
2AFE
330
1
100
AcDbSymbolTableRecord
100
AcDbBlockTableRecord
  2
*S30
340
0
102
{BLKREFS
331
2728
102
}
  0
ENDTAB
  0
ENDSEC
  0
SECTION
  2
BLOCKS
  0
BLOCK
  5
20
330
1F
100
AcDbEntity
  8
0
100
AcDbBlockBegin
  2
*Model_Space
 70
     0
 10
0.0
 20
0.0
 30
0.0
  3
*Model_Space
  1

  0
ENDBLK
  5
21
330
1F
100
AcDbEntity
  8
0
100
AcDbBlockEnd
  0
BLOCK
  5
1C
330
1B
100
AcDbEntity
 67
     1
  8
0
100
AcDbBlockBegin
  2
*Paper_Space
 70
     0
 10
0.0
 20
0.0
 30
0.0
  3
*Paper_Space
  1

  0
ENDBLK
  5
1D
330
1B
100
AcDbEntity
 67
     1
  8
0
100
AcDbBlockEnd
  0
BLOCK
  5
24
330
23
100
AcDbEntity
  8
0
100
AcDbBlockBegin
  2
*Paper_Space0
 70
     0
 10
0.0
 20
0.0
 30
0.0
  3
*Paper_Space0
  1

  0
ENDBLK
  5
25
330
23
100
AcDbEntity
  8
0
100
AcDbBlockEnd
  0
BLOCK
  5
73
330
71
100
AcDbEntity
  8
0
100
AcDbBlockBegin
  2
GENAXEH
 70
     0
 10
0.0
 20
0.0
 30
0.0
  3
GENAXEH
  1

  0
LINE
  5
72
330
71
100
AcDbEntity
  8
0
100
AcDbLine
 10
-1.0
 20
0.0
 30
0.0
 11
1.0
 21
0.0
 31
0.0
  0
ENDBLK
  5
74
330
71
100
AcDbEntity
  8
0
100
AcDbBlockEnd
  0
BLOCK
  5
1107
330
10FD
100
AcDbEntity
  8
0
100
AcDbBlockBegin
  2
*D2
 70
     1
 10
0.0
 20
0.0
 30
0.0
  3
*D2
  1

  0
LINE
  5
26D0
330
10FD
100
AcDbEntity
  8
AM_5
100
AcDbLine
 10
655.5206480958581
 20
153.2561201557871
 30
0.0
 11
655.5206480958581
 21
177.575090718293
 31
0.0
  0
LINE
  5
26D1
330
10FD
100
AcDbEntity
  8
AM_5
100
AcDbLine
 10
695.5206480958581
 20
150.2561201557871
 30
0.0
 11
695.5206480958581
 21
177.575090718293
 31
0.0
  0
LINE
  5
26D2
330
10FD
100
AcDbEntity
  8
AM_5
100
AcDbLine
 10
658.0206480958581
 20
176.075090718293
 30
0.0
 11
693.0206480958581
 21
176.075090718293
 31
0.0
  0
SOLID
  5
26D3
330
10FD
100
AcDbEntity
  8
AM_5
100
AcDbTrace
 10
658.0206480958581
 20
176.4917573849597
 30
0.0
 11
658.0206480958581
 21
175.6584240516264
 31
0.0
 12
655.5206480958581
 22
176.075090718293
 32
0.0
 13
655.5206480958581
 23
176.075090718293
 33
0.0
  0
SOLID
  5
26D4
330
10FD
100
AcDbEntity
  8
AM_5
100
AcDbTrace
 10
693.0206480958581
 20
176.4917573849597
 30
0.0
 11
693.0206480958581
 21
175.6584240516264
 31
0.0
 12
695.5206480958581
 22
176.075090718293
 32
0.0
 13
695.5206480958581
 23
176.075090718293
 33
0.0
  0
MTEXT
  5
26D5
330
10FD
100
AcDbEntity
  8
AM_5
100
AcDbMText
 10
675.5206480958581
 20
178.375090718293
 30
0.0
 40
3.0
 41
0.0
 71
     5
 72
     1
  1
40
 73
     1
 44
1.0
1001
ACAD
1000
MTEXTBEGIN
1070
    73
1070
     1
1070
    44
1040
1.0
1070
    74
1070
     0
1000
MTEXTEND
  0
POINT
  5
26D6
330
10FD
100
AcDbEntity
  8
Defpoints
 62
     0
100
AcDbPoint
 10
655.5206480958581
 20
152.2561201557871
 30
0.0
  0
POINT
  5
26D7
330
10FD
100
AcDbEntity
  8
Defpoints
 62
     0
100
AcDbPoint
 10
695.5206480958581
 20
149.2561201557871
 30
0.0
  0
POINT
  5
26D8
330
10FD
100
AcDbEntity
  8
Defpoints
 62
     0
100
AcDbPoint
 10
695.5206480958581
 20
176.075090718293
 30
0.0
  0
ENDBLK
  5
1108
330
10FD
100
AcDbEntity
  8
0
100
AcDbBlockEnd
  0
BLOCK
  5
113D
330
1131
100
AcDbEntity
  8
0
100
AcDbBlockBegin
  2
*D3
 70
     1
 10
0.0
 20
0.0
 30
0.0
  3
*D3
  1

  0
LINE
  5
26D9
330
1131
100
AcDbEntity
  8
AM_5
100
AcDbLine
 10
655.5206480958581
 20
153.2561201557871
 30
0.0
 11
655.5206480958581
 21
171.575090718293
 31
0.0
  0
LINE
  5
26DA
330
1131
100
AcDbEntity
  8
AM_5
100
AcDbLine
 10
658.5206480958581
 20
147.7561201557871
 30
0.0
 11
658.5206480958581
 21
171.575090718293
 31
0.0
  0
LINE
  5
26DB
330
1131
100
AcDbEntity
  8
AM_5
100
AcDbLine
 10
661.0206480958582
 20
170.075090718293
 30
0.0
 11
663.5206480958581
 21
170.075090718293
 31
0.0
  0
LINE
  5
26DC
330
1131
100
AcDbEntity
  8
AM_5
100
AcDbLine
 10
653.0206480958582
 20
170.075090718293
 30
0.0
 11
647.5963840271462
 21
170.075090718293
 31
0.0
  0
LINE
  5
26DD
330
1131
100
AcDbEntity
  8
AM_5
100
AcDbLine
 10
658.5206480958581
 20
170.075090718293
 30
0.0
 11
655.5206480958581
 21
170.075090718293
 31
0.0
  0
SOLID
  5
26DE
330
1131
100
AcDbEntity
  8
AM_5
100
AcDbTrace
 10
661.0206480958582
 20
170.4917573849597
 30
0.0
 11
661.0206480958582
 21
169.6584240516264
 31
0.0
 12
658.5206480958581
 22
170.075090718293
 32
0.0
 13
658.5206480958581
 23
170.075090718293
 33
0.0
  0
SOLID
  5
26DF
330
1131
100
AcDbEntity
  8
AM_5
100
AcDbTrace
 10
653.0206480958582
 20
170.4917573849597
 30
0.0
 11
653.0206480958582
 21
169.6584240516264
 31
0.0
 12
655.5206480958581
 22
170.075090718293
 32
0.0
 13
655.5206480958581
 23
170.075090718293
 33
0.0
  0
MTEXT
  5
26E0
330
1131
100
AcDbEntity
  8
AM_5
100
AcDbMText
 10
649.0585160615022
 20
172.375090718293
 30
0.0
 40
3.0
 41
0.0
 71
     5
 72
     1
  1
3
 73
     1
 44
1.0
1001
ACAD
1000
MTEXTBEGIN
1070
    73
1070
     1
1070
    44
1040
1.0
1070
    74
1070
     0
1000
MTEXTEND
  0
POINT
  5
26E1
330
1131
100
AcDbEntity
  8
Defpoints
 62
     0
100
AcDbPoint
 10
655.5206480958581
 20
152.2561201557871
 30
0.0
  0
POINT
  5
26E2
330
1131
100
AcDbEntity
  8
Defpoints
 62
     0
100
AcDbPoint
 10
658.5206480958581
 20
146.7561201557871
 30
0.0
  0
POINT
  5
26E3
330
1131
100
AcDbEntity
  8
Defpoints
 62
     0
100
AcDbPoint
 10
658.5206480958581
 20
170.075090718293
 30
0.0
  0
ENDBLK
  5
113E
330
1131
100
AcDbEntity
  8
0
100
AcDbBlockEnd
  0
BLOCK
  5
1165
330
115B
100
AcDbEntity
  8
0
100
AcDbBlockBegin
  2
*D4
 70
     1
 10
0.0
 20
0.0
 30
0.0
  3
*D4
  1

  0
LINE
  5
26E4
330
115B
100
AcDbEntity
  8
AM_5
100
AcDbLine
 10
658.5206480958581
 20
147.7561201557871
 30
0.0
 11
658.5206480958581
 21
171.575090718293
 31
0.0
  0
LINE
  5
26E5
330
115B
100
AcDbEntity
  8
AM_5
100
AcDbLine
 10
695.5206480958581
 20
150.2561201557871
 30
0.0
 11
695.5206480958581
 21
171.575090718293
 31
0.0
  0
LINE
  5
26E6
330
115B
100
AcDbEntity
  8
AM_5
100
AcDbLine
 10
661.0206480958582
 20
170.075090718293
 30
0.0
 11
693.0206480958581
 21
170.075090718293
 31
0.0
  0
SOLID
  5
26E7
330
115B
100
AcDbEntity
  8
AM_5
100
AcDbTrace
 10
661.0206480958582
 20
170.4917573849597
 30
0.0
 11
661.0206480958582
 21
169.6584240516264
 31
0.0
 12
658.5206480958581
 22
170.075090718293
 32
0.0
 13
658.5206480958581
 23
170.075090718293
 33
0.0
  0
SOLID
  5
26E8
330
115B
100
AcDbEntity
  8
AM_5
100
AcDbTrace
 10
693.0206480958581
 20
170.4917573849597
 30
0.0
 11
693.0206480958581
 21
169.6584240516264
 31
0.0
 12
695.5206480958581
 22
170.075090718293
 32
0.0
 13
695.5206480958581
 23
170.075090718293
 33
0.0
  0
MTEXT
  5
26E9
330
115B
100
AcDbEntity
  8
AM_5
100
AcDbMText
 10
677.0206480958582
 20
172.375090718293
 30
0.0
 40
3.0
 41
0.0
 71
     5
 72
     1
  1
37
 73
     1
 44
1.0
1001
ACAD
1000
MTEXTBEGIN
1070
    73
1070
     1
1070
    44
1040
1.0
1070
    74
1070
     0
1000
MTEXTEND
  0
POINT
  5
26EA
330
115B
100
AcDbEntity
  8
Defpoints
 62
     0
100
AcDbPoint
 10
658.5206480958581
 20
146.7561201557871
 30
0.0
  0
POINT
  5
26EB
330
115B
100
AcDbEntity
  8
Defpoints
 62
     0
100
AcDbPoint
 10
695.5206480958581
 20
149.2561201557871
 30
0.0
  0
POINT
  5
26EC
330
115B
100
AcDbEntity
  8
Defpoints
 62
     0
100
AcDbPoint
 10
695.5206480958581
 20
170.075090718293
 30
0.0
  0
ENDBLK
  5
1166
330
115B
100
AcDbEntity
  8
0
100
AcDbBlockEnd
  0
BLOCK
  5
1203
330
11F9
100
AcDbEntity
  8
0
100
AcDbBlockBegin
  2
*D5
 70
     1
 10
0.0
 20
0.0
 30
0.0
  3
*D5
  1

  0
LINE
  5
26ED
330
11F9
100
AcDbEntity
  8
AM_5
100
AcDbLine
 10
651.5206480958582
 20
128.2561201557871
 30
0.0
 11
636.0206480958582
 21
128.2561201557871
 31
0.0
  0
LINE
  5
26EE
330
11F9
100
AcDbEntity
  8
AM_5
100
AcDbLine
 10
654.5206480958581
 20
152.2561201557871
 30
0.0
 11
636.0206480958582
 21
152.2561201557871
 31
0.0
  0
LINE
  5
26EF
330
11F9
100
AcDbEntity
  8
AM_5
100
AcDbLine
 10
637.5206480958582
 20
130.7561201557871
 30
0.0
 11
637.5206480958582
 21
149.7561201557871
 31
0.0
  0
SOLID
  5
26F0
330
11F9
100
AcDbEntity
  8
AM_5
100
AcDbTrace
 10
637.1039814291917
 20
130.7561201557871
 30
0.0
 11
637.9373147625249
 21
130.7561201557871
 31
0.0
 12
637.5206480958582
 22
128.2561201557871
 32
0.0
 13
637.5206480958582
 23
128.2561201557871
 33
0.0
  0
SOLID
  5
26F1
330
11F9
100
AcDbEntity
  8
AM_5
100
AcDbTrace
 10
637.1039814291917
 20
149.7561201557871
 30
0.0
 11
637.9373147625249
 21
149.7561201557871
 31
0.0
 12
637.5206480958582
 22
152.2561201557871
 32
0.0
 13
637.5206480958582
 23
152.2561201557871
 33
0.0
  0
MTEXT
  5
26F2
330
11F9
100
AcDbEntity
  8
AM_5
100
AcDbMText
 10
635.2203528202677
 20
140.2561201557872
 30
0.0
 40
3.0
 41
0.0
 71
     5
 72
     1
  1
24
 11
0.0000000000000001
 21
1.0
 31
0.0
 73
     1
 44
1.0
1001
ACAD
1000
MTEXTBEGIN
1070
    73
1070
     1
1070
    44
1040
1.0
1070
    74
1070
     0
1000
MTEXTEND
  0
POINT
  5
26F3
330
11F9
100
AcDbEntity
  8
Defpoints
 62
     0
100
AcDbPoint
 10
652.5206480958582
 20
128.2561201557871
 30
0.0
  0
POINT
  5
26F4
330
11F9
100
AcDbEntity
  8
Defpoints
 62
     0
100
AcDbPoint
 10
655.5206480958581
 20
152.2561201557871
 30
0.0
  0
POINT
  5
26F5
330
11F9
100
AcDbEntity
  8
Defpoints
 62
     0
100
AcDbPoint
 10
637.5206480958582
 20
152.2561201557871
 30
0.0
  0
ENDBLK
  5
1204
330
11F9
100
AcDbEntity
  8
0
100
AcDbBlockEnd
  0
BLOCK
  5
1229
330
121F
100
AcDbEntity
  8
0
100
AcDbBlockBegin
  2
*D6
 70
     1
 10
0.0
 20
0.0
 30
0.0
  3
*D6
  1

  0
LINE
  5
26F6
330
121F
100
AcDbEntity
  8
AM_5
100
AcDbLine
 10
651.5206480958582
 20
128.2561201557871
 30
0.0
 11
642.0206480958583
 21
128.2561201557871
 31
0.0
  0
LINE
  5
26F7
330
121F
100
AcDbEntity
  8
AM_5
100
AcDbLine
 10
654.5206480958581
 20
144.2561201557871
 30
0.0
 11
642.0206480958583
 21
144.2561201557871
 31
0.0
  0
LINE
  5
26F8
330
121F
100
AcDbEntity
  8
AM_5
100
AcDbLine
 10
643.5206480958583
 20
130.7561201557871
 30
0.0
 11
643.5206480958583
 21
141.7561201557871
 31
0.0
  0
SOLID
  5
26F9
330
121F
100
AcDbEntity
  8
AM_5
100
AcDbTrace
 10
643.1039814291916
 20
130.7561201557871
 30
0.0
 11
643.9373147625249
 21
130.7561201557871
 31
0.0
 12
643.5206480958583
 22
128.2561201557871
 32
0.0
 13
643.5206480958583
 23
128.2561201557871
 33
0.0
  0
SOLID
  5
26FA
330
121F
100
AcDbEntity
  8
AM_5
100
AcDbTrace
 10
643.1039814291916
 20
141.7561201557871
 30
0.0
 11
643.9373147625249
 21
141.7561201557871
 31
0.0
 12
643.5206480958583
 22
144.2561201557871
 32
0.0
 13
643.5206480958583
 23
144.2561201557871
 33
0.0
  0
MTEXT
  5
26FB
330
121F
100
AcDbEntity
  8
AM_5
100
AcDbMText
 10
641.2206480958583
 20
136.2561201557872
 30
0.0
 40
3.0
 41
0.0
 71
     5
 72
     1
  1
16
 11
0.0000000000000001
 21
1.0
 31
0.0
 73
     1
 44
1.0
1001
ACAD
1000
MTEXTBEGIN
1070
    73
1070
     1
1070
    44
1040
1.0
1070
    74
1070
     0
1000
MTEXTEND
  0
POINT
  5
26FC
330
121F
100
AcDbEntity
  8
Defpoints
 62
     0
100
AcDbPoint
 10
652.5206480958582
 20
128.2561201557871
 30
0.0
  0
POINT
  5
26FD
330
121F
100
AcDbEntity
  8
Defpoints
 62
     0
100
AcDbPoint
 10
655.5206480958581
 20
144.2561201557871
 30
0.0
  0
POINT
  5
26FE
330
121F
100
AcDbEntity
  8
Defpoints
 62
     0
100
AcDbPoint
 10
643.5206480958583
 20
144.2561201557871
 30
0.0
  0
ENDBLK
  5
122A
330
121F
100
AcDbEntity
  8
0
100
AcDbBlockEnd
  0
BLOCK
  5
1251
330
1245
100
AcDbEntity
  8
0
100
AcDbBlockBegin
  2
*D7
 70
     1
 10
0.0
 20
0.0
 30
0.0
  3
*D7
  1

  0
LINE
  5
275F
330
1245
100
AcDbEntity
  8
AM_5
100
AcDbLine
 10
654.5206480958581
 20
144.2561201557871
 30
0.0
 11
642.0206480958581
 21
144.2561201557871
 31
0.0
  0
LINE
  5
2760
330
1245
100
AcDbEntity
  8
AM_5
100
AcDbLine
 10
654.5206480958581
 20
146.2561201557871
 30
0.0
 11
642.0206480958581
 21
146.2561201557871
 31
0.0
  0
LINE
  5
2761
330
1245
100
AcDbEntity
  8
AM_5
100
AcDbLine
 10
643.5206480958582
 20
141.7561201557871
 30
0.0
 11
643.5206480958582
 21
139.2561201557871
 31
0.0
  0
LINE
  5
2762
330
1245
100
AcDbEntity
  8
AM_5
100
AcDbLine
 10
643.5206480958582
 20
148.7561201557871
 30
0.0
 11
643.5206480958582
 21
160.7198174866584
 31
0.0
  0
LINE
  5
2763
330
1245
100
AcDbEntity
  8
AM_5
100
AcDbLine
 10
643.5206480958582
 20
144.2561201557871
 30
0.0
 11
643.5206480958582
 21
146.2561201557871
 31
0.0
  0
SOLID
  5
2764
330
1245
100
AcDbEntity
  8
AM_5
100
AcDbTrace
 10
643.1039814291915
 20
141.7561201557871
 30
0.0
 11
643.9373147625247
 21
141.7561201557871
 31
0.0
 12
643.5206480958582
 22
144.2561201557871
 32
0.0
 13
643.5206480958582
 23
144.2561201557871
 33
0.0
  0
SOLID
  5
2765
330
1245
100
AcDbEntity
  8
AM_5
100
AcDbTrace
 10
643.1039814291915
 20
148.7561201557871
 30
0.0
 11
643.9373147625247
 21
148.7561201557871
 31
0.0
 12
643.5206480958582
 22
146.2561201557871
 32
0.0
 13
643.5206480958582
 23
146.2561201557871
 33
0.0
  0
MTEXT
  5
2766
330
1245
100
AcDbEntity
  8
AM_5
100
AcDbMText
 10
641.2203528202676
 20
156.3243367169748
 30
0.0
 40
3.0
 41
0.0
 71
     5
 72
     1
  1
2{}{\C2; H9}
 11
0.0000000000000001
 21
1.0
 31
0.0
 73
     1
 44
1.0
1001
ACAD
1000
MTEXTBEGIN
1070
    73
1070
     1
1070
    44
1040
1.0
1070
    74
1070
     0
1000
MTEXTEND
  0
POINT
  5
2767
330
1245
100
AcDbEntity
  8
Defpoints
 62
     0
100
AcDbPoint
 10
655.5206480958581
 20
144.2561201557871
 30
0.0
  0
POINT
  5
2768
330
1245
100
AcDbEntity
  8
Defpoints
 62
     0
100
AcDbPoint
 10
655.5206480958581
 20
146.2561201557871
 30
0.0
  0
POINT
  5
2769
330
1245
100
AcDbEntity
  8
Defpoints
 62
     0
100
AcDbPoint
 10
643.5206480958582
 20
146.2561201557871
 30
0.0
  0
ENDBLK
  5
1252
330
1245
100
AcDbEntity
  8
0
100
AcDbBlockEnd
  0
BLOCK
  5
137E
330
1374
100
AcDbEntity
  8
0
100
AcDbBlockBegin
  2
*D8
 70
     1
 10
0.0
 20
0.0
 30
0.0
  3
*D8
  1

  0
LINE
  5
270A
330
1374
100
AcDbEntity
  8
AM_5
100
AcDbLine
 10
688.5206480958581
 20
149.8271201557871
 30
0.0
 11
688.5206480958581
 21
165.575090718293
 31
0.0
  0
LINE
  5
270B
330
1374
100
AcDbEntity
  8
AM_5
100
AcDbLine
 10
695.5206480958581
 20
150.2561201557871
 30
0.0
 11
695.5206480958581
 21
165.575090718293
 31
0.0
  0
LINE
  5
270C
330
1374
100
AcDbEntity
  8
AM_5
100
AcDbLine
 10
691.0206480958581
 20
164.075090718293
 30
0.0
 11
693.0206480958581
 21
164.075090718293
 31
0.0
  0
SOLID
  5
270D
330
1374
100
AcDbEntity
  8
AM_5
100
AcDbTrace
 10
691.0206480958581
 20
164.4917573849597
 30
0.0
 11
691.0206480958581
 21
163.6584240516264
 31
0.0
 12
688.5206480958581
 22
164.075090718293
 32
0.0
 13
688.5206480958581
 23
164.075090718293
 33
0.0
  0
SOLID
  5
270E
330
1374
100
AcDbEntity
  8
AM_5
100
AcDbTrace
 10
693.0206480958581
 20
164.4917573849597
 30
0.0
 11
693.0206480958581
 21
163.6584240516264
 31
0.0
 12
695.5206480958581
 22
164.075090718293
 32
0.0
 13
695.5206480958581
 23
164.075090718293
 33
0.0
  0
MTEXT
  5
270F
330
1374
100
AcDbEntity
  8
AM_5
100
AcDbMText
 10
692.0206480958581
 20
166.375090718293
 30
0.0
 40
3.0
 41
0.0
 71
     5
 72
     1
  1
7
 73
     1
 44
1.0
1001
ACAD
1000
MTEXTBEGIN
1070
    73
1070
     1
1070
    44
1040
1.0
1070
    74
1070
     0
1000
MTEXTEND
  0
POINT
  5
2710
330
1374
100
AcDbEntity
  8
Defpoints
 62
     0
100
AcDbPoint
 10
688.5206480958581
 20
148.8271201557871
 30
0.0
  0
POINT
  5
2711
330
1374
100
AcDbEntity
  8
Defpoints
 62
     0
100
AcDbPoint
 10
695.5206480958581
 20
149.2561201557871
 30
0.0
  0
POINT
  5
2712
330
1374
100
AcDbEntity
  8
Defpoints
 62
     0
100
AcDbPoint
 10
695.5206480958581
 20
164.075090718293
 30
0.0
  0
ENDBLK
  5
137F
330
1374
100
AcDbEntity
  8
0
100
AcDbBlockEnd
  0
BLOCK
  5
13B3
330
13A9
100
AcDbEntity
  8
0
100
AcDbBlockBegin
  2
*D9
 70
     1
 10
0.0
 20
0.0
 30
0.0
  3
*D9
  1

  0
LINE
  5
2713
330
13A9
100
AcDbEntity
  8
AM_5
100
AcDbLine
 10
673.5206480958582
 20
139.6311201557871
 30
0.0
 11
673.5206480958582
 21
165.575090718293
 31
0.0
  0
LINE
  5
2714
330
13A9
100
AcDbEntity
  8
AM_5
100
AcDbLine
 10
688.5206480958581
 20
149.8271201557871
 30
0.0
 11
688.5206480958581
 21
165.575090718293
 31
0.0
  0
LINE
  5
2715
330
13A9
100
AcDbEntity
  8
AM_5
100
AcDbLine
 10
676.0206480958581
 20
164.075090718293
 30
0.0
 11
686.0206480958582
 21
164.075090718293
 31
0.0
  0
SOLID
  5
2716
330
13A9
100
AcDbEntity
  8
AM_5
100
AcDbTrace
 10
676.0206480958581
 20
164.4917573849597
 30
0.0
 11
676.0206480958581
 21
163.6584240516264
 31
0.0
 12
673.5206480958582
 22
164.075090718293
 32
0.0
 13
673.5206480958582
 23
164.075090718293
 33
0.0
  0
SOLID
  5
2717
330
13A9
100
AcDbEntity
  8
AM_5
100
AcDbTrace
 10
686.0206480958582
 20
164.4917573849597
 30
0.0
 11
686.0206480958582
 21
163.6584240516264
 31
0.0
 12
688.5206480958581
 22
164.075090718293
 32
0.0
 13
688.5206480958581
 23
164.075090718293
 33
0.0
  0
MTEXT
  5
2718
330
13A9
100
AcDbEntity
  8
AM_5
100
AcDbMText
 10
681.0206480958582
 20
166.375090718293
 30
0.0
 40
3.0
 41
0.0
 71
     5
 72
     1
  1
15
 73
     1
 44
1.0
1001
ACAD
1000
MTEXTBEGIN
1070
    73
1070
     1
1070
    44
1040
1.0
1070
    74
1070
     0
1000
MTEXTEND
  0
POINT
  5
2719
330
13A9
100
AcDbEntity
  8
Defpoints
 62
     0
100
AcDbPoint
 10
673.5206480958582
 20
138.6311201557871
 30
0.0
  0
POINT
  5
271A
330
13A9
100
AcDbEntity
  8
Defpoints
 62
     0
100
AcDbPoint
 10
688.5206480958581
 20
148.8271201557871
 30
0.0
  0
POINT
  5
271B
330
13A9
100
AcDbEntity
  8
Defpoints
 62
     0
100
AcDbPoint
 10
688.5206480958581
 20
164.075090718293
 30
0.0
  0
ENDBLK
  5
13B4
330
13A9
100
AcDbEntity
  8
0
100
AcDbBlockEnd
  0
BLOCK
  5
13D9
330
13CF
100
AcDbEntity
  8
0
100
AcDbBlockBegin
  2
*D10
 70
     1
 10
0.0
 20
0.0
 30
0.0
  3
*D10
  1

  0
LINE
  5
2BA9
330
13CF
100
AcDbEntity
  8
AM_5
100
AcDbLine
 10
696.5206480958581
 20
107.2561201557871
 30
0.0
 11
709.0206480958581
 21
107.2561201557871
 31
0.0
  0
LINE
  5
2BAA
330
13CF
100
AcDbEntity
  8
AM_5
100
AcDbLine
 10
696.5206480958581
 20
149.2561201557871
 30
0.0
 11
709.0206480958581
 21
149.2561201557871
 31
0.0
  0
LINE
  5
2BAB
330
13CF
100
AcDbEntity
  8
AM_5
100
AcDbLine
 10
707.5206480958581
 20
109.7561201557871
 30
0.0
 11
707.5206480958581
 21
146.7561201557871
 31
0.0
  0
SOLID
  5
2BAC
330
13CF
100
AcDbEntity
  8
AM_5
100
AcDbTrace
 10
707.1039814291915
 20
109.7561201557871
 30
0.0
 11
707.9373147625248
 21
109.7561201557871
 31
0.0
 12
707.5206480958581
 22
107.2561201557871
 32
0.0
 13
707.5206480958581
 23
107.2561201557871
 33
0.0
  0
SOLID
  5
2BAD
330
13CF
100
AcDbEntity
  8
AM_5
100
AcDbTrace
 10
707.1039814291915
 20
146.7561201557871
 30
0.0
 11
707.9373147625248
 21
146.7561201557871
 31
0.0
 12
707.5206480958581
 22
149.2561201557871
 32
0.0
 13
707.5206480958581
 23
149.2561201557871
 33
0.0
  0
MTEXT
  5
2BAE
330
13CF
100
AcDbEntity
  8
AM_5
100
AcDbMText
 10
705.2203528202676
 20
128.2561201557872
 30
0.0
 40
3.0
 41
0.0
 71
     5
 72
     1
  1
%%c42
 11
0.0000000000000001
 21
1.0
 31
0.0
 73
     1
 44
1.0
1001
ACAD
1000
MTEXTBEGIN
1070
    73
1070
     1
1070
    44
1040
1.0
1070
    74
1070
     0
1000
MTEXTEND
  0
POINT
  5
2BAF
330
13CF
100
AcDbEntity
  8
Defpoints
 62
     0
100
AcDbPoint
 10
695.5206480958581
 20
107.2561201557871
 30
0.0
  0
POINT
  5
2BB0
330
13CF
100
AcDbEntity
  8
Defpoints
 62
     0
100
AcDbPoint
 10
695.5206480958581
 20
149.2561201557871
 30
0.0
  0
POINT
  5
2BB1
330
13CF
100
AcDbEntity
  8
Defpoints
 62
     0
100
AcDbPoint
 10
707.5206480958581
 20
149.2561201557871
 30
0.0
  0
ENDBLK
  5
13DA
330
13CF
100
AcDbEntity
  8
0
100
AcDbBlockEnd
  0
BLOCK
  5
1401
330
13F5
100
AcDbEntity
  8
0
100
AcDbBlockBegin
  2
*D11
 70
     1
 10
0.0
 20
0.0
 30
0.0
  3
*D11
  1

  0
LINE
  5
2217
330
13F5
100
AcDbEntity
  8
AM_5
100
AcDbLine
 10
662.5206480958581
 20
29.1941454107274
 30
0.0
 11
662.5206480958581
 21
19.47814541072737
 31
0.0
  0
LINE
  5
2218
330
13F5
100
AcDbEntity
  8
AM_5
100
AcDbLine
 10
667.5206480958581
 20
29.1941454107274
 30
0.0
 11
667.5206480958581
 21
19.47814541072737
 31
0.0
  0
LINE
  5
2219
330
13F5
100
AcDbEntity
  8
AM_5
100
AcDbLine
 10
660.0206480958582
 20
20.97814541072737
 30
0.0
 11
657.5206480958581
 21
20.97814541072737
 31
0.0
  0
LINE
  5
221A
330
13F5
100
AcDbEntity
  8
AM_5
100
AcDbLine
 10
670.0206480958581
 20
20.97814541072737
 30
0.0
 11
672.5206480958582
 21
20.97814541072737
 31
0.0
  0
LINE
  5
221B
330
13F5
100
AcDbEntity
  8
AM_5
100
AcDbLine
 10
662.5206480958581
 20
20.97814541072737
 30
0.0
 11
667.5206480958581
 21
20.97814541072737
 31
0.0
  0
SOLID
  5
221C
330
13F5
100
AcDbEntity
  8
AM_5
100
AcDbTrace
 10
660.0206480958582
 20
21.39481207739404
 30
0.0
 11
660.0206480958582
 21
20.5614787440607
 31
0.0
 12
662.5206480958581
 22
20.97814541072737
 32
0.0
 13
662.5206480958581
 23
20.97814541072737
 33
0.0
  0
SOLID
  5
221D
330
13F5
100
AcDbEntity
  8
AM_5
100
AcDbTrace
 10
670.0206480958581
 20
21.39481207739404
 30
0.0
 11
670.0206480958581
 21
20.5614787440607
 31
0.0
 12
667.5206480958581
 22
20.97814541072737
 32
0.0
 13
667.5206480958581
 23
20.97814541072737
 33
0.0
  0
MTEXT
  5
221E
330
13F5
100
AcDbEntity
  8
AM_5
100
AcDbMText
 10
665.0206480958582
 20
23.27814541072737
 30
0.0
 40
3.0
 41
0.0
 71
     5
 72
     1
  1
5
 73
     1
 44
1.0
1001
ACAD
1000
MTEXTBEGIN
1070
    73
1070
     1
1070
    44
1040
1.0
1070
    74
1070
     0
1000
MTEXTEND
  0
POINT
  5
221F
330
13F5
100
AcDbEntity
  8
Defpoints
 62
     0
100
AcDbPoint
 10
662.5206480958581
 20
30.1941454107274
 30
0.0
  0
POINT
  5
2220
330
13F5
100
AcDbEntity
  8
Defpoints
 62
     0
100
AcDbPoint
 10
667.5206480958581
 20
30.1941454107274
 30
0.0
  0
POINT
  5
2221
330
13F5
100
AcDbEntity
  8
Defpoints
 62
     0
100
AcDbPoint
 10
667.5206480958581
 20
20.97814541072737
 30
0.0
  0
ENDBLK
  5
1402
330
13F5
100
AcDbEntity
  8
0
100
AcDbBlockEnd
  0
BLOCK
  5
1429
330
141F
100
AcDbEntity
  8
0
100
AcDbBlockBegin
  2
*D12
 70
     1
 10
0.0
 20
0.0
 30
0.0
  3
*D12
  1

  0
LINE
  5
220E
330
141F
100
AcDbEntity
  8
AM_5
100
AcDbLine
 10
667.5206480958581
 20
29.1941454107274
 30
0.0
 11
667.5206480958581
 21
19.47814541072742
 31
0.0
  0
LINE
  5
220F
330
141F
100
AcDbEntity
  8
AM_5
100
AcDbLine
 10
695.5206480958581
 20
31.9781454107274
 30
0.0
 11
695.5206480958581
 21
19.47814541072742
 31
0.0
  0
LINE
  5
2210
330
141F
100
AcDbEntity
  8
AM_5
100
AcDbLine
 10
670.0206480958581
 20
20.97814541072743
 30
0.0
 11
693.0206480958581
 21
20.97814541072743
 31
0.0
  0
SOLID
  5
2211
330
141F
100
AcDbEntity
  8
AM_5
100
AcDbTrace
 10
670.0206480958581
 20
21.39481207739409
 30
0.0
 11
670.0206480958581
 21
20.56147874406076
 31
0.0
 12
667.5206480958581
 22
20.97814541072743
 32
0.0
 13
667.5206480958581
 23
20.97814541072743
 33
0.0
  0
SOLID
  5
2212
330
141F
100
AcDbEntity
  8
AM_5
100
AcDbTrace
 10
693.0206480958581
 20
21.39481207739409
 30
0.0
 11
693.0206480958581
 21
20.56147874406076
 31
0.0
 12
695.5206480958581
 22
20.97814541072743
 32
0.0
 13
695.5206480958581
 23
20.97814541072743
 33
0.0
  0
MTEXT
  5
2213
330
141F
100
AcDbEntity
  8
AM_5
100
AcDbMText
 10
681.5206480958582
 20
23.27844068631797
 30
0.0
 40
3.0
 41
0.0
 71
     5
 72
     1
  1
28
 73
     1
 44
1.0
1001
ACAD
1000
MTEXTBEGIN
1070
    73
1070
     1
1070
    44
1040
1.0
1070
    74
1070
     0
1000
MTEXTEND
  0
POINT
  5
2214
330
141F
100
AcDbEntity
  8
Defpoints
 62
     0
100
AcDbPoint
 10
667.5206480958581
 20
30.1941454107274
 30
0.0
  0
POINT
  5
2215
330
141F
100
AcDbEntity
  8
Defpoints
 62
     0
100
AcDbPoint
 10
695.5206480958581
 20
32.97814541072739
 30
0.0
  0
POINT
  5
2216
330
141F
100
AcDbEntity
  8
Defpoints
 62
     0
100
AcDbPoint
 10
695.5206480958581
 20
20.97814541072743
 30
0.0
  0
ENDBLK
  5
142A
330
141F
100
AcDbEntity
  8
0
100
AcDbBlockEnd
  0
BLOCK
  5
1451
330
1445
100
AcDbEntity
  8
0
100
AcDbBlockBegin
  2
*D13
 70
     1
 10
0.0
 20
0.0
 30
0.0
  3
*D13
  1

  0
LINE
  5
1455
330
1445
100
AcDbEntity
  8
AM_5
100
AcDbLine
 10
605.4236543637057
 20
30.82812362571679
 30
0.0
 11
611.6737327118003
 21
20.00285131308283
 31
0.0
  0
LINE
  5
1456
330
1445
100
AcDbEntity
  8
AM_5
100
AcDbLine
 10
610.6195918660575
 20
33.82823187300926
 30
0.0
 11
616.8697491056538
 21
23.00282291856996
 31
0.0
  0
LINE
  5
1457
330
1445
100
AcDbEntity
  8
AM_5
100
AcDbLine
 10
608.758668847502
 20
20.05186832098002
 30
0.0
 11
606.5936143849754
 21
18.80185265136111
 31
0.0
  0
LINE
  5
1458
330
1445
100
AcDbEntity
  8
AM_5
100
AcDbLine
 10
618.2847941664093
 20
25.55187126570496
 30
0.0
 11
620.4498486289359
 21
26.80188693532386
 31
0.0
  0
LINE
  5
1459
330
1445
100
AcDbEntity
  8
AM_5
100
AcDbLine
 10
610.9237233100288
 20
21.30188399059893
 30
0.0
 11
616.1197397038825
 21
24.30185559608606
 31
0.0
  0
SOLID
  5
145A
330
1445
100
AcDbEntity
  8
AM_5
100
AcDbTrace
 10
608.5503329025656
 20
20.41271073140118
 30
0.0
 11
608.9670047924386
 21
19.69102591055886
 31
0.0
 12
610.9237233100288
 22
21.30188399059893
 32
0.0
 13
610.9237233100288
 23
21.30188399059893
 33
0.0
  0
SOLID
  5
145B
330
1445
100
AcDbEntity
  8
AM_5
100
AcDbTrace
 10
618.0764582214727
 20
25.91271367612612
 30
0.0
 11
618.4931301113457
 21
25.19102885528381
 31
0.0
 12
616.1197397038825
 22
24.30185559608606
 32
0.0
 13
616.1197397038825
 23
24.30185559608606
 33
0.0
  0
MTEXT
  5
145C
330
1445
100
AcDbEntity
  8
AM_5
100
AcDbMText
 10
612.3717170909063
 20
24.79371989886715
 30
0.0
 40
3.0
 41
0.0
 71
     5
 72
     1
  1
6
 11
0.8660217850107187
 21
0.5000062678475627
 31
0.0
 73
     1
 44
1.0
1001
ACAD
1000
MTEXTBEGIN
1070
    73
1070
     1
1070
    44
1040
1.0
1070
    74
1070
     0
1000
MTEXTEND
  0
POINT
  5
145D
330
1445
100
AcDbEntity
  8
Defpoints
 62
     0
100
AcDbPoint
 10
604.9236480958581
 20
31.69414541072749
 30
0.0
  0
POINT
  5
145E
330
1445
100
AcDbEntity
  8
Defpoints
 62
     0
100
AcDbPoint
 10
610.11958559821
 20
34.69425365801999
 30
0.0
  0
POINT
  5
145F
330
1445
100
AcDbEntity
  8
Defpoints
 62
     0
100
AcDbPoint
 10
616.1197397038825
 20
24.30185559608606
 30
0.0
  0
ENDBLK
  5
1452
330
1445
100
AcDbEntity
  8
0
100
AcDbBlockEnd
  0
BLOCK
  5
1479
330
146F
100
AcDbEntity
  8
0
100
AcDbBlockBegin
  2
*D14
 70
     1
 10
0.0
 20
0.0
 30
0.0
  3
*D14
  1

  0
LINE
  5
21DA
330
146F
100
AcDbEntity
  8
AM_5
100
AcDbLine
 10
574.5196480958582
 20
50.65414541072738
 30
0.0
 11
574.5196480958582
 21
19.47814440072739
 31
0.0
  0
LINE
  5
21DB
330
146F
100
AcDbEntity
  8
AM_5
100
AcDbLine
 10
582.5196480958582
 20
50.85914541072736
 30
0.0
 11
582.5196480958582
 21
19.47814440072739
 31
0.0
  0
LINE
  5
21DC
330
146F
100
AcDbEntity
  8
AM_5
100
AcDbLine
 10
577.0196480958581
 20
20.97814440072738
 30
0.0
 11
580.0196480958581
 21
20.97814440072738
 31
0.0
  0
SOLID
  5
21DD
330
146F
100
AcDbEntity
  8
AM_5
100
AcDbTrace
 10
577.0196480958581
 20
21.39481106739405
 30
0.0
 11
577.0196480958581
 21
20.56147773406072
 31
0.0
 12
574.5196480958582
 22
20.97814440072738
 32
0.0
 13
574.5196480958582
 23
20.97814440072738
 33
0.0
  0
SOLID
  5
21DE
330
146F
100
AcDbEntity
  8
AM_5
100
AcDbTrace
 10
580.0196480958581
 20
21.39481106739405
 30
0.0
 11
580.0196480958581
 21
20.56147773406072
 31
0.0
 12
582.5196480958582
 22
20.97814440072738
 32
0.0
 13
582.5196480958582
 23
20.97814440072738
 33
0.0
  0
MTEXT
  5
21DF
330
146F
100
AcDbEntity
  8
AM_5
100
AcDbMText
 10
578.5196480958582
 20
23.27814440072739
 30
0.0
 40
3.0
 41
0.0
 71
     5
 72
     1
  1
8
 73
     1
 44
1.0
1001
ACAD
1000
MTEXTBEGIN
1070
    73
1070
     1
1070
    44
1040
1.0
1070
    74
1070
     0
1000
MTEXTEND
  0
POINT
  5
21E0
330
146F
100
AcDbEntity
  8
Defpoints
 62
     0
100
AcDbPoint
 10
574.5196480958582
 20
51.65414541072738
 30
0.0
  0
POINT
  5
21E1
330
146F
100
AcDbEntity
  8
Defpoints
 62
     0
100
AcDbPoint
 10
582.5196480958582
 20
51.85914541072737
 30
0.0
  0
POINT
  5
21E2
330
146F
100
AcDbEntity
  8
Defpoints
 62
     0
100
AcDbPoint
 10
582.5196480958582
 20
20.97814440072738
 30
0.0
  0
ENDBLK
  5
147A
330
146F
100
AcDbEntity
  8
0
100
AcDbBlockEnd
  0
BLOCK
  5
14A1
330
1495
100
AcDbEntity
  8
0
100
AcDbBlockBegin
  2
*D15
 70
     1
 10
0.0
 20
0.0
 30
0.0
  3
*D15
  1

  0
LINE
  5
14A5
330
1495
100
AcDbEntity
  8
AM_5
100
AcDbLine
 10
582.5196480958582
 20
50.85914541072736
 30
0.0
 11
582.5196480958582
 21
19.47814440072739
 31
0.0
  0
LINE
  5
14A6
330
1495
100
AcDbEntity
  8
AM_5
100
AcDbLine
 10
585.5196480958581
 20
49.97814541072739
 30
0.0
 11
585.5196480958581
 21
19.47814440072738
 31
0.0
  0
LINE
  5
14A7
330
1495
100
AcDbEntity
  8
AM_5
100
AcDbLine
 10
580.0196480958581
 20
20.97814440072738
 30
0.0
 11
577.5196480958582
 21
20.97814440072738
 31
0.0
  0
LINE
  5
14A8
330
1495
100
AcDbEntity
  8
AM_5
100
AcDbLine
 10
588.0196480958582
 20
20.97814440072738
 30
0.0
 11
590.5196480958582
 21
20.97814440072738
 31
0.0
  0
LINE
  5
14A9
330
1495
100
AcDbEntity
  8
AM_5
100
AcDbLine
 10
582.5196480958582
 20
20.97814440072738
 30
0.0
 11
585.5196480958581
 21
20.97814440072738
 31
0.0
  0
SOLID
  5
14AA
330
1495
100
AcDbEntity
  8
AM_5
100
AcDbTrace
 10
580.0196480958581
 20
21.39481106739405
 30
0.0
 11
580.0196480958581
 21
20.56147773406072
 31
0.0
 12
582.5196480958582
 22
20.97814440072738
 32
0.0
 13
582.5196480958582
 23
20.97814440072738
 33
0.0
  0
SOLID
  5
14AB
330
1495
100
AcDbEntity
  8
AM_5
100
AcDbTrace
 10
588.0196480958582
 20
21.39481106739405
 30
0.0
 11
588.0196480958582
 21
20.56147773406072
 31
0.0
 12
585.5196480958581
 22
20.97814440072738
 32
0.0
 13
585.5196480958581
 23
20.97814440072738
 33
0.0
  0
MTEXT
  5
14AC
330
1495
100
AcDbEntity
  8
AM_5
100
AcDbMText
 10
584.0196480958582
 20
23.27814440072739
 30
0.0
 40
3.0
 41
0.0
 71
     5
 72
     1
  1
3
 73
     1
 44
1.0
1001
ACAD
1000
MTEXTBEGIN
1070
    73
1070
     1
1070
    44
1040
1.0
1070
    74
1070
     0
1000
MTEXTEND
  0
POINT
  5
14AD
330
1495
100
AcDbEntity
  8
Defpoints
 62
     0
100
AcDbPoint
 10
582.5196480958582
 20
51.85914541072737
 30
0.0
  0
POINT
  5
14AE
330
1495
100
AcDbEntity
  8
Defpoints
 62
     0
100
AcDbPoint
 10
585.5196480958581
 20
50.9781454107274
 30
0.0
  0
POINT
  5
14AF
330
1495
100
AcDbEntity
  8
Defpoints
 62
     0
100
AcDbPoint
 10
585.5196480958581
 20
20.97814440072738
 30
0.0
  0
ENDBLK
  5
14A2
330
1495
100
AcDbEntity
  8
0
100
AcDbBlockEnd
  0
BLOCK
  5
14C9
330
14BF
100
AcDbEntity
  8
0
100
AcDbBlockBegin
  2
*D16
 70
     1
 10
0.0
 20
0.0
 30
0.0
  3
*D16
  1

  0
LINE
  5
14CD
330
14BF
100
AcDbEntity
  8
AM_5
100
AcDbLine
 10
570.5196480958582
 20
47.97814541072739
 30
0.0
 11
562.6812814882316
 21
47.97814541072739
 31
0.0
  0
LINE
  5
14CE
330
14BF
100
AcDbEntity
  8
AM_5
100
AcDbLine
 10
570.5196480958582
 20
59.97814541072739
 30
0.0
 11
562.6812814882316
 21
59.97814541072739
 31
0.0
  0
LINE
  5
14CF
330
14BF
100
AcDbEntity
  8
AM_5
100
AcDbLine
 10
564.1812814882317
 20
50.47814541072739
 30
0.0
 11
564.1812814882317
 21
57.47814541072739
 31
0.0
  0
SOLID
  5
14D0
330
14BF
100
AcDbEntity
  8
AM_5
100
AcDbTrace
 10
563.764614821565
 20
50.47814541072739
 30
0.0
 11
564.5979481548983
 21
50.47814541072739
 31
0.0
 12
564.1812814882317
 22
47.97814541072739
 32
0.0
 13
564.1812814882317
 23
47.97814541072739
 33
0.0
  0
SOLID
  5
14D1
330
14BF
100
AcDbEntity
  8
AM_5
100
AcDbTrace
 10
563.764614821565
 20
57.47814541072739
 30
0.0
 11
564.5979481548983
 21
57.47814541072739
 31
0.0
 12
564.1812814882317
 22
59.97814541072739
 32
0.0
 13
564.1812814882317
 23
59.97814541072739
 33
0.0
  0
MTEXT
  5
14D2
330
14BF
100
AcDbEntity
  8
AM_5
100
AcDbMText
 10
561.880986212641
 20
53.97814541072748
 30
0.0
 40
3.0
 41
0.0
 71
     5
 72
     1
  1
12
 11
0.0000000000000001
 21
1.0
 31
0.0
 73
     1
 44
1.0
1001
ACAD
1000
MTEXTBEGIN
1070
    73
1070
     1
1070
    44
1040
1.0
1070
    74
1070
     0
1000
MTEXTEND
  0
POINT
  5
14D3
330
14BF
100
AcDbEntity
  8
Defpoints
 62
     0
100
AcDbPoint
 10
571.5196480958582
 20
47.97814541072739
 30
0.0
  0
POINT
  5
14D4
330
14BF
100
AcDbEntity
  8
Defpoints
 62
     0
100
AcDbPoint
 10
571.5196480958582
 20
59.97814541072739
 30
0.0
  0
POINT
  5
14D5
330
14BF
100
AcDbEntity
  8
Defpoints
 62
     0
100
AcDbPoint
 10
564.1812814882317
 20
59.97814541072739
 30
0.0
  0
ENDBLK
  5
14CA
330
14BF
100
AcDbEntity
  8
0
100
AcDbBlockEnd
  0
BLOCK
  5
1C11
330
1C05
100
AcDbEntity
  8
0
100
AcDbBlockBegin
  2
*D18
 70
     1
 10
0.0
 20
0.0
 30
0.0
  3
*D18
  1

  0
LINE
  5
2238
330
1C05
100
AcDbEntity
  8
AM_5
100
AcDbLine
 10
759.1907148432765
 20
35.336482332955
 30
0.0
 11
757.2529864695158
 21
20.6179740686169
 31
0.0
  0
LINE
  5
2239
330
1C05
100
AcDbEntity
  8
AM_5
100
AcDbLine
 10
762.1650494273978
 20
34.94490375629484
 30
0.0
 11
760.2273210536371
 21
20.22639549195677
 31
0.0
  0
LINE
  5
223A
330
1C05
100
AcDbEntity
  8
AM_5
100
AcDbLine
 10
754.9701636044114
 20
22.43145684122774
 30
0.0
 11
752.4915514509768
 21
22.75777232177785
 31
0.0
  0
LINE
  5
223B
330
1C05
100
AcDbEntity
  8
AM_5
100
AcDbLine
 10
762.9017224954018
 20
21.38724730346736
 30
0.0
 11
765.3803346488363
 21
21.06093182291726
 31
0.0
  0
LINE
  5
223C
330
1C05
100
AcDbEntity
  8
AM_5
100
AcDbLine
 10
757.4487757578459
 20
22.10514136067762
 30
0.0
 11
760.4231103419672
 21
21.71356278401749
 31
0.0
  0
SOLID
  5
223D
330
1C05
100
AcDbEntity
  8
AM_5
100
AcDbTrace
 10
755.0245495178363
 20
22.84455886680017
 30
0.0
 11
754.9157776909863
 21
22.01835481565531
 31
0.0
 12
757.4487757578459
 22
22.10514136067762
 32
0.0
 13
757.4487757578459
 23
22.10514136067762
 33
0.0
  0
SOLID
  5
223E
330
1C05
100
AcDbEntity
  8
AM_5
100
AcDbTrace
 10
762.9561084088268
 20
21.80034932903979
 30
0.0
 11
762.8473365819768
 21
20.97414527789493
 31
0.0
 12
760.4231103419672
 22
21.71356278401749
 32
0.0
 13
760.4231103419672
 23
21.71356278401749
 33
0.0
  0
MTEXT
  5
223F
330
1C05
100
AcDbEntity
  8
AM_5
100
AcDbMText
 10
759.2361532920127
 20
24.18967525350732
 30
0.0
 40
3.0
 41
0.0
 71
     5
 72
     1
  1
3
 11
0.9914448613738111
 21
-0.1305261922200461
 31
0.0
 73
     1
 44
1.0
1001
ACAD
1000
MTEXTBEGIN
1070
    73
1070
     1
1070
    44
1040
1.0
1070
    74
1070
     0
1000
MTEXTEND
  0
POINT
  5
2240
330
1C05
100
AcDbEntity
  8
Defpoints
 62
     0
100
AcDbPoint
 10
759.3212410354965
 20
36.32792719432882
 30
0.0
  0
POINT
  5
2241
330
1C05
100
AcDbEntity
  8
Defpoints
 62
     0
100
AcDbPoint
 10
762.2955756196179
 20
35.93634861766866
 30
0.0
  0
POINT
  5
2242
330
1C05
100
AcDbEntity
  8
Defpoints
 62
     0
100
AcDbPoint
 10
760.4231103419672
 20
21.71356278401749
 30
0.0
  0
ENDBLK
  5
1C12
330
1C05
100
AcDbEntity
  8
0
100
AcDbBlockEnd
  0
BLOCK
  5
1C45
330
1C39
100
AcDbEntity
  8
0
100
AcDbBlockBegin
  2
*D19
 70
     1
 10
0.0
 20
0.0
 30
0.0
  3
*D19
  1

  0
LINE
  5
2243
330
1C39
100
AcDbEntity
  8
AM_5
100
AcDbLine
 10
759.6211741778534
 20
34.77549680615809
 30
0.0
 11
726.4077713218309
 21
39.14812424552909
 31
0.0
  0
LINE
  5
2244
330
1C39
100
AcDbEntity
  8
AM_5
100
AcDbLine
 10
760.2738051389536
 20
39.73272111302717
 30
0.0
 11
727.0604022829311
 21
44.10534855239816
 31
0.0
  0
LINE
  5
2245
330
1C39
100
AcDbEntity
  8
AM_5
100
AcDbLine
 10
727.5686231333415
 20
36.47372280376455
 30
0.0
 11
727.2423076527915
 21
33.99511065033001
 31
0.0
  0
LINE
  5
2246
330
1C39
100
AcDbEntity
  8
AM_5
100
AcDbLine
 10
728.8738850555419
 20
46.38817141750267
 30
0.0
 11
729.2002005360919
 21
48.86678357093718
 31
0.0
  0
LINE
  5
2247
330
1C39
100
AcDbEntity
  8
AM_5
100
AcDbLine
 10
727.8949386138917
 20
38.95233495719906
 30
0.0
 11
728.5475695749918
 21
43.90955926406813
 31
0.0
  0
SOLID
  5
2248
330
1C39
100
AcDbEntity
  8
AM_5
100
AcDbTrace
 10
727.1555211077692
 20
36.52810871718955
 30
0.0
 11
727.9817251589141
 21
36.41933689033954
 31
0.0
 12
727.8949386138917
 22
38.95233495719906
 32
0.0
 13
727.8949386138917
 23
38.95233495719906
 33
0.0
  0
SOLID
  5
2249
330
1C39
100
AcDbEntity
  8
AM_5
100
AcDbTrace
 10
728.4607830299695
 20
46.44255733092768
 30
0.0
 11
729.2869870811143
 21
46.33378550407766
 31
0.0
 12
728.5475695749918
 22
43.90955926406813
 32
0.0
 13
728.5475695749918
 23
43.90955926406813
 33
0.0
  0
MTEXT
  5
224A
330
1C39
100
AcDbEntity
  8
AM_5
100
AcDbMText
 10
725.9409309132819
 20
41.73115735273957
 30
0.0
 40
3.0
 41
0.0
 71
     5
 72
     1
  1
5
 11
0.1305261922200313
 21
0.9914448613738132
 31
0.0
 73
     1
 44
1.0
1001
ACAD
1000
MTEXTBEGIN
1070
    73
1070
     1
1070
    44
1040
1.0
1070
    74
1070
     0
1000
MTEXTEND
  0
POINT
  5
224B
330
1C39
100
AcDbEntity
  8
Defpoints
 62
     0
100
AcDbPoint
 10
760.6126190392273
 20
34.64497061393806
 30
0.0
  0
POINT
  5
224C
330
1C39
100
AcDbEntity
  8
Defpoints
 62
     0
100
AcDbPoint
 10
761.2652500003274
 20
39.60219492080714
 30
0.0
  0
POINT
  5
224D
330
1C39
100
AcDbEntity
  8
Defpoints
 62
     0
100
AcDbPoint
 10
728.5475695749918
 20
43.90955926406813
 30
0.0
  0
ENDBLK
  5
1C46
330
1C39
100
AcDbEntity
  8
0
100
AcDbBlockEnd
  0
BLOCK
  5
1C6D
330
1C63
100
AcDbEntity
  8
0
100
AcDbBlockBegin
  2
*D20
 70
     1
 10
0.0
 20
0.0
 30
0.0
  3
*D20
  1

  0
LINE
  5
224E
330
1C63
100
AcDbEntity
  8
AM_5
100
AcDbLine
 10
760.2738051389534
 20
39.73272111302719
 30
0.0
 11
727.0604022829309
 21
44.10534855239873
 31
0.0
  0
LINE
  5
224F
330
1C63
100
AcDbEntity
  8
AM_5
100
AcDbLine
 10
762.1664349261442
 20
54.10867160294744
 30
0.0
 11
728.9530320701215
 21
58.481299042319
 31
0.0
  0
LINE
  5
2250
330
1C63
100
AcDbEntity
  8
AM_5
100
AcDbLine
 10
728.8738850555419
 20
46.38817141750322
 30
0.0
 11
730.1138838816322
 21
55.80689760055442
 31
0.0
  0
SOLID
  5
2251
330
1C63
100
AcDbEntity
  8
AM_5
100
AcDbTrace
 10
728.4607830299694
 20
46.44255733092822
 30
0.0
 11
729.2869870811142
 21
46.33378550407819
 31
0.0
 12
728.5475695749917
 22
43.90955926406867
 32
0.0
 13
728.5475695749917
 23
43.90955926406867
 33
0.0
  0
SOLID
  5
2252
330
1C63
100
AcDbEntity
  8
AM_5
100
AcDbTrace
 10
729.7007818560598
 20
55.86128351397943
 30
0.0
 11
730.5269859072047
 21
55.7525116871294
 31
0.0
 12
730.4401993621824
 22
58.28550975398893
 32
0.0
 13
730.4401993621824
 23
58.28550975398893
 33
0.0
  0
MTEXT
  5
2253
330
1C63
100
AcDbEntity
  8
AM_5
100
AcDbMText
 10
727.2135612874272
 20
51.39774475113485
 30
0.0
 40
3.0
 41
0.0
 71
     5
 72
     1
  1
14.5
 11
0.1305261922200473
 21
0.9914448613738109
 31
0.0
 73
     1
 44
1.0
1001
ACAD
1000
MTEXTBEGIN
1070
    73
1070
     1
1070
    44
1040
1.0
1070
    74
1070
     0
1000
MTEXTEND
  0
POINT
  5
2254
330
1C63
100
AcDbEntity
  8
Defpoints
 62
     0
100
AcDbPoint
 10
761.2652500003272
 20
39.60219492080714
 30
0.0
  0
POINT
  5
2255
330
1C63
100
AcDbEntity
  8
Defpoints
 62
     0
100
AcDbPoint
 10
763.157879787518
 20
53.97814541072738
 30
0.0
  0
POINT
  5
2256
330
1C63
100
AcDbEntity
  8
Defpoints
 62
     0
100
AcDbPoint
 10
730.4401993621824
 20
58.28550975398893
 30
0.0
  0
ENDBLK
  5
1C6E
330
1C63
100
AcDbEntity
  8
0
100
AcDbBlockEnd
  0
BLOCK
  5
1C93
330
1C89
100
AcDbEntity
  8
0
100
AcDbBlockBegin
  2
*D21
 70
     1
 10
0.0
 20
0.0
 30
0.0
  3
*D21
  1

  0
LINE
  5
22BE
330
1C89
100
AcDbEntity
  8
AM_5
100
AcDbLine
 10
762.1664349261444
 20
54.10867160294744
 30
0.0
 11
728.9530320701217
 21
58.48129904231872
 31
0.0
  0
LINE
  5
22BF
330
1C89
100
AcDbEntity
  8
AM_5
100
AcDbLine
 10
764.3853801938851
 20
70.9632342463022
 30
0.0
 11
731.1719773378623
 21
75.33586168567349
 31
0.0
  0
LINE
  5
22C0
330
1C89
100
AcDbEntity
  8
AM_5
100
AcDbLine
 10
730.7665148427324
 20
60.7641219074232
 30
0.0
 11
732.3328291493729
 21
72.66146024390891
 31
0.0
  0
SOLID
  5
22C1
330
1C89
100
AcDbEntity
  8
AM_5
100
AcDbTrace
 10
730.3534128171601
 20
60.81850782084822
 30
0.0
 11
731.1796168683048
 21
60.70973599399819
 31
0.0
 12
730.4401993621824
 22
58.28550975398866
 32
0.0
 13
730.4401993621824
 23
58.28550975398866
 33
0.0
  0
SOLID
  5
22C2
330
1C89
100
AcDbEntity
  8
AM_5
100
AcDbTrace
 10
731.9197271238006
 20
72.71584615733394
 30
0.0
 11
732.7459311749453
 21
72.60707433048391
 31
0.0
 12
732.659144629923
 22
75.14007239734343
 32
0.0
 13
732.659144629923
 23
75.14007239734343
 33
0.0
  0
MTEXT
  5
22C3
330
1C89
100
AcDbEntity
  8
AM_5
100
AcDbMText
 10
729.269348814893
 20
67.01300131777212
 30
0.0
 40
3.0
 41
0.0
 71
     5
 72
     1
  1
17
 11
0.1305261922200385
 21
0.9914448613738121
 31
0.0
 73
     1
 44
1.0
1001
ACAD
1000
MTEXTBEGIN
1070
    73
1070
     1
1070
    44
1040
1.0
1070
    74
1070
     0
1000
MTEXTEND
  0
POINT
  5
22C4
330
1C89
100
AcDbEntity
  8
Defpoints
 62
     0
100
AcDbPoint
 10
763.1578797875183
 20
53.97814541072739
 30
0.0
  0
POINT
  5
22C5
330
1C89
100
AcDbEntity
  8
Defpoints
 62
     0
100
AcDbPoint
 10
765.3768250552588
 20
70.83270805408216
 30
0.0
  0
POINT
  5
22C6
330
1C89
100
AcDbEntity
  8
Defpoints
 62
     0
100
AcDbPoint
 10
732.659144629923
 20
75.14007239734343
 30
0.0
  0
ENDBLK
  5
1C94
330
1C89
100
AcDbEntity
  8
0
100
AcDbBlockEnd
  0
BLOCK
  5
1D7C
330
1D76
100
AcDbEntity
  8
0
100
AcDbBlockBegin
  2
*D22
 70
     1
 10
0.0
 20
0.0
 30
0.0
  3
*D22
  1

  0
LINE
  5
277E
330
1D76
100
AcDbEntity
  8
AM_5
100
AcDbLine
 10
752.6067943521375
 20
63.92422987323271
 30
0.0
 11
773.7089652228992
 21
44.03206094822212
 31
0.0
  0
LINE
  5
277F
330
1D76
100
AcDbEntity
  8
AM_5
100
AcDbLine
 10
775.5281178841717
 20
42.31721879951431
 30
0.0
 11
783.7651438954094
 21
34.55250521346921
 31
0.0
  0
LINE
  5
2780
330
1D76
100
AcDbEntity
  8
AM_5
100
AcDbLine
 10
783.7651438954094
 20
34.55250521346921
 30
0.0
 11
790.8651438954093
 21
34.55250521346921
 31
0.0
  0
SOLID
  5
2781
330
1D76
100
AcDbEntity
  8
AM_5
100
AcDbTrace
 10
752.8926013769221
 20
64.22742198344479
 30
0.0
 11
752.3209873273529
 21
63.62103776302063
 31
0.0
 12
750.7876416908648
 22
65.63907202194053
 32
0.0
 13
750.7876416908648
 23
65.63907202194053
 33
0.0
  0
SOLID
  5
2782
330
1D76
100
AcDbEntity
  8
AM_5
100
AcDbTrace
 10
773.9947722476838
 20
44.3352530584342
 30
0.0
 11
773.4231581981146
 21
43.72886883801004
 31
0.0
 12
775.5281178841717
 22
42.31721879951431
 32
0.0
 13
775.5281178841717
 23
42.31721879951431
 33
0.0
  0
MTEXT
  5
2783
330
1D76
100
AcDbEntity
  8
AM_5
100
AcDbMText
 10
787.7151438954094
 20
36.85250521346926
 30
0.0
 40
3.0
 41
0.0
 71
     5
 72
     1
  1
\U+220534
 73
     1
 44
1.0
1001
ACAD
1000
MTEXTBEGIN
1070
    73
1070
     1
1070
    44
1040
1.0
1070
    74
1070
     0
1000
MTEXTEND
  0
POINT
  5
2784
330
1D76
100
AcDbEntity
  8
Defpoints
 62
     0
100
AcDbPoint
 10
775.5281178841717
 20
42.31721879951431
 30
0.0
  0
POINT
  5
2785
330
1D76
100
AcDbEntity
  8
Defpoints
 62
     0
100
AcDbPoint
 10
750.7876416908648
 20
65.63907202194053
 30
0.0
  0
ENDBLK
  5
1D7D
330
1D76
100
AcDbEntity
  8
0
100
AcDbBlockEnd
  0
BLOCK
  5
1F45
330
1F36
100
AcDbEntity
  8
0
100
AcDbBlockBegin
  2
*D23
 70
     1
 10
0.0
 20
0.0
 30
0.0
  3
*D23
  1

  0
LINE
  5
2297
330
1F36
100
AcDbEntity
  8
AM_5
100
AcDbLine
 10
773.7828797875181
 20
72.38118524114668
 30
0.0
 11
781.8905233100502
 21
86.42403575182868
 31
0.0
  0
LINE
  5
2298
330
1F36
100
AcDbEntity
  8
AM_5
100
AcDbLine
 10
766.2489063169778
 20
77.45682288441412
 30
0.0
 11
768.0480810459413
 21
91.12291173145086
 31
0.0
  0
ARC
  5
2299
330
1F36
100
AcDbEntity
  8
AM_5
100
AcDbCircle
 10
763.1578797875181
 20
53.97814541072773
 30
0.0
 40
35.96528704506362
100
AcDbArc
 50
52.03296766471884
 51
56.01648383235914
  0
ARC
  5
229A
330
1F36
100
AcDbEntity
  8
AM_5
100
AcDbCircle
 10
763.1578797875181
 20
53.97814541072773
 30
0.0
 40
35.96528704506362
100
AcDbArc
 50
86.48351616764051
 51
90.46703233528079
  0
ARC
  5
229B
330
1F36
100
AcDbEntity
  8
AM_5
100
AcDbCircle
 10
763.1578797875181
 20
53.97814541072773
 30
0.0
 40
35.96528704506362
100
AcDbArc
 50
59.99999999999946
 51
82.50000000000019
  0
SOLID
  5
229C
330
1F36
100
AcDbEntity
  8
AM_5
100
AcDbTrace
 10
783.0400852370642
 20
83.44711934408431
 30
0.0
 11
783.4815829605989
 21
84.1538896070115
 31
0.0
 12
781.1405233100502
 22
85.12499764615204
 32
0.0
 13
781.1405233100502
 23
85.12499764615204
 33
0.0
  0
SOLID
  5
229D
330
1F36
100
AcDbEntity
  8
AM_5
100
AcDbTrace
 10
765.4038311463984
 20
90.29045945101703
 30
0.0
 11
765.3238403648551
 21
89.46097411702217
 31
0.0
 12
767.8522917576112
 22
89.63574443939013
 32
0.0
 13
767.8522917576112
 23
89.63574443939013
 33
0.0
  0
MTEXT
  5
229E
330
1F36
100
AcDbEntity
  8
AM_5
100
AcDbMText
 10
775.4579481081834
 20
90.21297823283033
 30
0.0
 40
3.0
 41
0.0
 71
     5
 72
     1
  1
22.5°
 11
0.9469301294951053
 21
-0.3214394653031625
 31
0.0
 73
     1
 44
1.0
1001
ACAD
1000
MTEXTBEGIN
1070
    73
1070
     1
1070
    44
1040
1.0
1070
    74
1070
     0
1000
MTEXTEND
  0
POINT
  5
229F
330
1F36
100
AcDbEntity
  8
Defpoints
 62
     0
100
AcDbPoint
 10
776.9211992799189
 20
87.20573799255527
 30
0.0
  0
POINT
  5
22A0
330
1F36
100
AcDbEntity
  8
Defpoints
 62
     0
100
AcDbPoint
 10
771.657879787518
 20
68.70057727506284
 30
0.0
  0
POINT
  5
22A1
330
1F36
100
AcDbEntity
  8
Defpoints
 62
     0
100
AcDbPoint
 10
766.1183801247577
 20
76.46537802304036
 30
0.0
  0
POINT
  5
22A2
330
1F36
100
AcDbEntity
  8
Defpoints
 62
     0
100
AcDbPoint
 10
760.482092847007
 20
33.65352575256429
 30
0.0
  0
POINT
  5
22A3
330
1F36
100
AcDbEntity
  8
Defpoints
 62
     0
100
AcDbPoint
 10
773.2828797875181
 20
71.51515983736226
 30
0.0
  0
ENDBLK
  5
1F46
330
1F36
100
AcDbEntity
  8
0
100
AcDbBlockEnd
  0
BLOCK
  5
1F78
330
1F68
100
AcDbEntity
  8
0
100
AcDbBlockBegin
  2
*D24
 70
     1
 10
0.0
 20
0.0
 30
0.0
  3
*D24
  1

  0
LINE
  5
22A4
330
1F68
100
AcDbEntity
  8
AM_5
100
AcDbLine
 10
773.7828797875181
 20
72.38118524114674
 30
0.0
 11
778.8841457754592
 21
81.21683711518304
 31
0.0
  0
LINE
  5
22A5
330
1F68
100
AcDbEntity
  8
AM_5
100
AcDbLine
 10
767.2173013533601
 20
77.00026913525028
 30
0.0
 11
768.6195546481408
 21
84.9528427524398
 31
0.0
  0
ARC
  5
22A6
330
1F68
100
AcDbEntity
  8
AM_5
100
AcDbCircle
 10
763.1578797875192
 20
53.9781454107296
 30
0.0
 40
29.95253197587903
100
AcDbArc
 50
50.43279148562433
 51
55.21639574281186
  0
ARC
  5
22A7
330
1F68
100
AcDbEntity
  8
AM_5
100
AcDbCircle
 10
763.1578797875192
 20
53.9781454107296
 30
0.0
 40
29.95253197587903
100
AcDbArc
 50
84.78360425718886
 51
89.56720851437639
  0
ARC
  5
22A8
330
1F68
100
AcDbEntity
  8
AM_5
100
AcDbCircle
 10
763.1578797875192
 20
53.9781454107296
 30
0.0
 40
29.95253197587903
100
AcDbArc
 50
59.99999999999939
 51
80.00000000000133
  0
SOLID
  5
22A9
330
1F68
100
AcDbEntity
  8
AM_5
100
AcDbTrace
 10
780.0219464063212
 20
78.22669880868218
 30
0.0
 11
780.4683680589744
 21
78.93036929441177
 31
0.0
 12
778.1341457754591
 22
79.91779900950636
 32
0.0
 13
778.1341457754591
 23
79.91779900950636
 33
0.0
  0
SOLID
  5
22AA
330
1F68
100
AcDbEntity
  8
AM_5
100
AcDbTrace
 10
765.9362567860499
 20
84.21962523880054
 30
0.0
 11
765.8259249428238
 21
83.39362806639931
 31
0.0
 12
768.3590823816404
 22
83.47563112292148
 32
0.0
 13
768.3590823816404
 23
83.47563112292148
 33
0.0
  0
MTEXT
  5
22AB
330
1F68
100
AcDbEntity
  8
AM_5
100
AcDbMText
 10
774.1889963867247
 20
84.28588917841825
 30
0.0
 40
3.0
 41
0.0
 71
     5
 72
     1
  1
20°
 11
0.9396926207859117
 21
-0.3420201433256596
 31
0.0
 73
     1
 44
1.0
1001
ACAD
1000
MTEXTBEGIN
1070
    73
1070
     1
1070
    44
1040
1.0
1070
    74
1070
     0
1000
MTEXTEND
  0
POINT
  5
22AC
330
1F68
100
AcDbEntity
  8
Defpoints
 62
     0
100
AcDbPoint
 10
775.0214716448058
 20
81.48104271282816
 30
0.0
  0
POINT
  5
22AD
330
1F68
100
AcDbEntity
  8
Defpoints
 62
     0
100
AcDbPoint
 10
771.6578797875181
 20
68.70057727506287
 30
0.0
  0
POINT
  5
22AE
330
1F68
100
AcDbEntity
  8
Defpoints
 62
     0
100
AcDbPoint
 10
767.0436531756933
 20
76.01546138223807
 30
0.0
  0
POINT
  5
22AF
330
1F68
100
AcDbEntity
  8
Defpoints
 62
     0
100
AcDbPoint
 10
765.4944748356836
 20
67.2296344271943
 30
0.0
  0
POINT
  5
22B0
330
1F68
100
AcDbEntity
  8
Defpoints
 62
     0
100
AcDbPoint
 10
773.2828797875182
 20
71.51515983736229
 30
0.0
  0
ENDBLK
  5
1F79
330
1F68
100
AcDbEntity
  8
0
100
AcDbBlockEnd
  0
BLOCK
  5
1FAC
330
1F9C
100
AcDbEntity
  8
0
100
AcDbBlockBegin
  2
*D25
 70
     1
 10
0.0
 20
0.0
 30
0.0
  3
*D25
  1

  0
LINE
  5
22B1
330
1F9C
100
AcDbEntity
  8
AM_5
100
AcDbLine
 10
781.0659129991024
 20
69.0047694736782
 30
0.0
 11
787.2420910522401
 21
74.18719820015121
 31
0.0
  0
LINE
  5
22B2
330
1F9C
100
AcDbEntity
  8
AM_5
100
AcDbLine
 10
773.782879787518
 20
72.38118524114668
 30
0.0
 11
778.8777322589112
 21
81.20572857866767
 31
0.0
  0
ARC
  5
22B3
330
1F9C
100
AcDbEntity
  8
AM_5
100
AcDbCircle
 10
763.1578797875175
 20
53.97814541072643
 30
0.0
 40
29.9397049427876
100
AcDbArc
 50
30.42869023343831
 51
35.21434511671944
  0
ARC
  5
22B4
330
1F9C
100
AcDbEntity
  8
AM_5
100
AcDbCircle
 10
763.1578797875175
 20
53.97814541072643
 30
0.0
 40
29.9397049427876
100
AcDbArc
 50
64.78565488328126
 51
69.57130976656237
  0
ARC
  5
22B5
330
1F9C
100
AcDbEntity
  8
AM_5
100
AcDbCircle
 10
763.1578797875175
 20
53.97814541072643
 30
0.0
 40
29.9397049427876
100
AcDbArc
 50
40.00000000000057
 51
60.0000000000001
  0
SOLID
  5
22B6
330
1F9C
100
AcDbEntity
  8
AM_5
100
AcDbTrace
 10
787.2885463850523
 20
70.98821516922976
 30
0.0
 11
787.9487240986122
 21
71.49675212065341
 31
0.0
 12
786.0930243875616
 22
73.22301678562138
 32
0.0
 13
786.0930243875616
 23
73.22301678562138
 33
0.0
  0
SOLID
  5
22B7
330
1F9C
100
AcDbEntity
  8
AM_5
100
AcDbTrace
 10
776.1054545599787
 20
81.43443522245377
 30
0.0
 11
775.7192820844196
 21
80.69598057688313
 31
0.0
 12
778.1277322589112
 22
79.90669047299099
 32
0.0
 13
778.1277322589112
 23
79.90669047299099
 33
0.0
  0
MTEXT
  5
22B8
330
1F9C
100
AcDbEntity
  8
AM_5
100
AcDbMText
 10
783.8813524641821
 20
78.67541842416983
 30
0.0
 40
3.0
 41
0.0
 71
     5
 72
     1
  1
20°
 11
0.766044443118986
 21
-0.6427876096865299
 31
0.0
 73
     1
 44
1.0
1001
ACAD
1000
MTEXTBEGIN
1070
    73
1070
     1
1070
    44
1040
1.0
1070
    74
1070
     0
1000
MTEXTEND
  0
POINT
  5
22B9
330
1F9C
100
AcDbEntity
  8
Defpoints
 62
     0
100
AcDbPoint
 10
783.7037519447626
 20
75.75549762258453
 30
0.0
  0
POINT
  5
22BA
330
1F9C
100
AcDbEntity
  8
Defpoints
 62
     0
100
AcDbPoint
 10
780.2998685559835
 20
68.36198186399167
 30
0.0
  0
POINT
  5
22BB
330
1F9C
100
AcDbEntity
  8
Defpoints
 62
     0
100
AcDbPoint
 10
771.6578797875181
 20
68.70057727506287
 30
0.0
  0
POINT
  5
22BC
330
1F9C
100
AcDbEntity
  8
Defpoints
 62
     0
100
AcDbPoint
 10
773.282879787518
 20
71.51515983736226
 30
0.0
  0
POINT
  5
22BD
330
1F9C
100
AcDbEntity
  8
Defpoints
 62
     0
100
AcDbPoint
 10
773.4657083896666
 20
62.62744058902853
 30
0.0
  0
ENDBLK
  5
1FAD
330
1F9C
100
AcDbEntity
  8
0
100
AcDbBlockEnd
  0
BLOCK
  5
2AE3
330
2ADE
100
AcDbEntity
  8
0
100
AcDbBlockBegin
  2
*S26
 70
     1
 10
0.0
 20
0.0
 30
0.0
  3
*S26
  1

  0
LINE
  5
2ADF
330
2ADE
100
AcDbEntity
  8
AM_5
 62
     5
100
AcDbLine
 10
728.9206299162593
 20
165.2822034552864
 30
0.0
 11
711.8745639301359
 21
165.2822034552864
 31
0.0
  0
LINE
  5
2AE0
330
2ADE
100
AcDbEntity
  8
AM_5
 62
     5
100
AcDbLine
 10
711.8745639301359
 20
165.2822034552864
 30
0.0
 11
694.804532569453
 21
148.625314694958
 31
0.0
  0
TRACE
  5
2AE1
330
2ADE
100
AcDbEntity
  8
AM_5
 62
     5
370
    35
100
AcDbTrace
 10
694.4827246238445
 20
148.9551044775936
 30
0.0
 11
695.1263405150615
 21
148.2955249123223
 31
0.0
 12
692.2995304604873
 22
146.1809406576884
 32
0.0
 13
692.2995304604873
 23
146.1809406576884
 33
0.0
  0
MTEXT
  5
2AE2
330
2ADE
100
AcDbEntity
  8
AM_5
 62
     2
100
AcDbMText
 10
728.9206299162593
 20
158.7231093117387
 30
0.0
 40
3.5
 41
0.0
 71
     7
 72
     5
  1

  7
ACISOTS
 73
     1
 44
1.0
1001
ACAD
1000
MTEXTBEGIN
1070
    73
1070
     1
1070
    44
1040
1.0
1070
    74
1070
     0
1000
MTEXTEND
  0
ENDBLK
  5
2AE4
330
2ADE
100
AcDbEntity
  8
0
100
AcDbBlockEnd
  0
BLOCK
  5
2AEB
330
2AE6
100
AcDbEntity
  8
0
100
AcDbBlockBegin
  2
*S27
 70
     1
 10
0.0
 20
0.0
 30
0.0
  3
*S27
  1

  0
LINE
  5
2AE7
330
2AE6
100
AcDbEntity
  8
AM_5
 62
     5
100
AcDbLine
 10
731.6355170911005
 20
113.7892473454822
 30
0.0
 11
715.6413447438012
 21
113.7892473454822
 31
0.0
  0
LINE
  5
2AE8
330
2AE6
100
AcDbEntity
  8
AM_5
 62
     5
100
AcDbLine
 10
715.6413447438012
 20
113.7892473454822
 30
0.0
 11
678.9606158726469
 21
128.6160443581536
 31
0.0
  0
TRACE
  5
2AE9
330
2AE6
100
AcDbEntity
  8
AM_5
 62
     5
370
    35
100
AcDbTrace
 10
679.1332967861424
 20
129.0432480059634
 30
0.0
 11
678.7879349591515
 21
128.1888407103438
 31
0.0
 12
675.7156819933466
 22
129.9276861228777
 32
0.0
 13
675.7156819933466
 23
129.9276861228777
 33
0.0
  0
MTEXT
  5
2AEA
330
2AE6
100
AcDbEntity
  8
AM_5
 62
     2
100
AcDbMText
 10
731.6355170911005
 20
111.3748176299004
 30
0.0
 40
3.5
 41
0.0
 71
     7
 72
     5
  1

  7
ACISOTS
 73
     1
 44
1.0
1001
ACAD
1000
MTEXTBEGIN
1070
    73
1070
     1
1070
    44
1040
1.0
1070
    74
1070
     0
1000
MTEXTEND
  0
ENDBLK
  5
2AEC
330
2AE6
100
AcDbEntity
  8
0
100
AcDbBlockEnd
  0
BLOCK
  5
2AF3
330
2AEE
100
AcDbEntity
  8
0
100
AcDbBlockBegin
  2
*S28
 70
     1
 10
0.0
 20
0.0
 30
0.0
  3
*S28
  1

  0
LINE
  5
2AEF
330
2AEE
100
AcDbEntity
  8
AM_5
 62
     5
100
AcDbLine
 10
656.3627655261935
 20
87.57504324439082
 30
0.0
 11
617.240816242253
 21
87.57504324439082
 31
0.0
  0
LINE
  5
2AF0
330
2AEE
100
AcDbEntity
  8
AM_5
 62
     5
100
AcDbLine
 10
617.240816242253
 20
87.57504324439082
 30
0.0
 11
609.2179749027967
 21
76.0541412242455
 31
0.0
  0
TRACE
  5
2AF1
330
2AEE
100
AcDbEntity
  8
AM_5
 62
     5
370
    35
100
AcDbTrace
 10
608.8398428976256
 20
76.31746201957497
 30
0.0
 11
609.5961069079677
 21
75.79082042891602
 31
0.0
 12
607.2178548797828
 22
73.18194347799977
 32
0.0
 13
607.2178548797828
 23
73.18194347799977
 33
0.0
  0
MTEXT
  5
2AF2
330
2AEE
100
AcDbEntity
  8
AM_5
 62
     2
100
AcDbMText
 10
656.3627655261935
 20
87.69465354592057
 30
0.0
 40
3.5
 41
0.0
 71
     7
 72
     5
  1

  7
ACISOTS
 73
     1
 44
1.0
1001
ACAD
1000
MTEXTBEGIN
1070
    73
1070
     1
1070
    44
1040
1.0
1070
    74
1070
     0
1000
MTEXTEND
  0
ENDBLK
  5
2AF4
330
2AEE
100
AcDbEntity
  8
0
100
AcDbBlockEnd
  0
BLOCK
  5
2AFB
330
2AF6
100
AcDbEntity
  8
0
100
AcDbBlockBegin
  2
*S29
 70
     1
 10
0.0
 20
0.0
 30
0.0
  3
*S29
  1

  0
LINE
  5
2AF7
330
2AF6
100
AcDbEntity
  8
AM_5
 62
     5
100
AcDbLine
 10
619.4612102850755
 20
103.0797046521825
 30
0.0
 11
592.0966940954044
 21
103.0797046521825
 31
0.0
  0
LINE
  5
2AF8
330
2AF6
100
AcDbEntity
  8
AM_5
 62
     5
100
AcDbLine
 10
592.0966940954044
 20
103.0797046521825
 30
0.0
 11
588.1060462782795
 21
74.19745266516635
 31
0.0
  0
TRACE
  5
2AF9
330
2AF6
100
AcDbEntity
  8
AM_5
 62
     5
370
    35
100
AcDbTrace
 10
587.6495989187102
 20
74.260519792339
 30
0.0
 11
588.5624936378489
 21
74.1343855379937
 31
0.0
 12
587.6270038855428
 22
70.7303907410062
 32
0.0
 13
587.6270038855428
 23
70.7303907410062
 33
0.0
  0
MTEXT
  5
2AFA
330
2AF6
100
AcDbEntity
  8
AM_5
 62
     2
100
AcDbMText
 10
619.4612102850755
 20
103.1993149537122
 30
0.0
 40
3.5
 41
0.0
 71
     7
 72
     5
  1

  7
ACISOTS
 73
     1
 44
1.0
1001
ACAD
1000
MTEXTBEGIN
1070
    73
1070
     1
1070
    44
1040
1.0
1070
    74
1070
     0
1000
MTEXTEND
  0
ENDBLK
  5
2AFC
330
2AF6
100
AcDbEntity
  8
0
100
AcDbBlockEnd
  0
BLOCK
  5
2B03
330
2AFE
100
AcDbEntity
  8
0
100
AcDbBlockBegin
  2
*S30
 70
     1
 10
0.0
 20
0.0
 30
0.0
  3
*S30
  1

  0
LINE
  5
2AFF
330
2AFE
100
AcDbEntity
  8
AM_5
 62
     5
100
AcDbLine
 10
705.5224512232086
 20
91.4468070140083
 30
0.0
 11
743.1409437210527
 21
91.4468070140083
 31
0.0
  0
LINE
  5
2B00
330
2AFE
100
AcDbEntity
  8
AM_5
 62
     5
100
AcDbLine
 10
743.1409437210527
 20
91.4468070140083
 30
0.0
 11
752.1427907406255
 21
73.73787724023141
 31
0.0
  0
TRACE
  5
2B01
330
2AFE
100
AcDbEntity
  8
AM_5
 62
     5
370
    35
100
AcDbTrace
 10
751.7320297281615
 20
73.52907818557125
 30
0.0
 11
752.5535517530898
 21
73.94667629489157
 31
0.0
 12
753.7287770258699
 22
70.61783757653848
 32
0.0
 13
753.7287770258699
 23
70.61783757653848
 33
0.0
  0
MTEXT
  5
2B02
330
2AFE
100
AcDbEntity
  8
AM_5
 62
     2
100
AcDbMText
 10
705.5224512232086
 20
86.71140500107958
 30
0.0
 40
3.5
 41
0.0
 71
     7
 72
     5
  1

  7
ACISOTS
 11
-1.0
 21
0.0000000000000001
 31
0.0
 73
     1
 44
1.0
1001
ACAD
1000
MTEXTBEGIN
1070
    73
1070
     1
1070
    44
1040
1.0
1070
    74
1070
     0
1000
MTEXTEND
  0
ENDBLK
  5
2B04
330
2AFE
100
AcDbEntity
  8
0
100
AcDbBlockEnd
  0
ENDSEC
  0
SECTION
  2
ENTITIES
  0
TEXT
  5
AE3
330
1F
100
AcDbEntity
  8
M_1
 62
     4
100
AcDbText
 10
298.4979942115772
 20
71.23545134413652
 30
0.0
 40
5.0
  1

 41
0.75
  7
DAYUS
 11
298.4979942115772
 21
71.23545134413652
 31
0.0
100
AcDbText
 73
     1
  0
LINE
  5
FA5
102
{ACAD_REACTORS
330
1206
330
122C
102
}
330
1F
100
AcDbEntity
  8
AM_7
100
AcDbLine
 10
652.5206480958582
 20
128.2561201557871
 30
0.0
 11
700.5206480958581
 21
128.2561201557871
 31
0.0
  0
LINE
  5
FA6
330
1F
100
AcDbEntity
  8
AM_7
100
AcDbLine
 10
652.5206480958582
 20
53.97814541072739
 30
0.0
 11
700.5206480958581
 21
53.97814541072739
 31
0.0
  0
ARC
  5
FA7
330
1F
100
AcDbEntity
  8
AM_7
100
AcDbCircle
 10
595.5206480958581
 20
53.97814541072739
 30
0.0
 40
17.0
100
AcDbArc
 50
343.5789999999989
 51
16.67730000000231
  0
ARC
  5
FA8
330
1F
100
AcDbEntity
  8
0
  6
Continuous
 62
     7
100
AcDbCircle
 10
595.5206480958581
 20
53.97814541072739
 30
0.0
 40
11.5
100
AcDbArc
 50
195.1220000000013
 51
284.8820000000026
  0
ARC
  5
FA9
330
1F
100
AcDbEntity
  8
0
  6
Continuous
 62
     7
100
AcDbCircle
 10
595.5206480958581
 20
53.97814541072739
 30
0.0
 40
11.5
100
AcDbArc
 50
315.1249999999963
 51
44.87370000000416
  0
ARC
  5
FAA
330
1F
100
AcDbEntity
  8
0
  6
Continuous
 62
     7
100
AcDbCircle
 10
595.5206480958581
 20
53.97814541072739
 30
0.0
 40
18.5
100
AcDbArc
 50
337.6509999999977
 51
347.513
  0
ARC
  5
FAB
330
1F
100
AcDbEntity
  8
0
  6
Continuous
 62
     7
100
AcDbCircle
 10
595.5206480958581
 20
53.97814541072739
 30
0.0
 40
18.5
100
AcDbArc
 50
189.3320000000005
 51
227.5159999999962
  0
ARC
  5
FAC
330
1F
100
AcDbEntity
  8
0
  6
Continuous
 62
     7
100
AcDbCircle
 10
595.5206480958581
 20
53.97814541072739
 30
0.0
 40
21.0
100
AcDbArc
 50
339.8369999999995
 51
20.16280000000236
  0
ARC
  5
FAD
330
1F
100
AcDbEntity
  8
0
  6
Continuous
 62
     7
100
AcDbCircle
 10
595.5206480958581
 20
53.97814541072739
 30
0.0
 40
21.0
100
AcDbArc
 50
188.2130000000002
 51
291.787000000002
  0
LINE
  5
FAE
330
1F
100
AcDbEntity
  8
AM_7
100
AcDbLine
 10
582.0216480958581
 20
77.36114541072737
 30
0.0
 11
609.0216480958581
 21
30.59614541072739
 31
0.0
  0
LINE
  5
FAF
330
1F
100
AcDbEntity
  8
0
  6
Continuous
 62
     7
100
AcDbLine
 10
595.7736480958581
 20
47.54214541072741
 30
0.0
 11
600.9696480958582
 21
50.54214541072742
 31
0.0
  0
LINE
  5
FB0
102
{ACAD_REACTORS
330
1454
102
}
330
1F
100
AcDbEntity
  8
0
  6
Continuous
 62
     7
100
AcDbLine
 10
600.9696480958582
 20
50.54214541072742
 30
0.0
 11
610.1196480958582
 21
34.6941454107274
 31
0.0
  0
LINE
  5
FB1
330
1F
100
AcDbEntity
  8
0
  6
Continuous
 62
     7
100
AcDbLine
 10
571.5196480958582
 20
59.97814541072739
 30
0.0
 11
571.5196480958582
 21
47.97814541072739
 31
0.0
  0
LINE
  5
FB2
330
1F
100
AcDbEntity
  8
AM_7
100
AcDbLine
 10
583.5866480958582
 20
33.30614541072737
 30
0.0
 11
609.0216480958581
 21
77.3601454107274
 31
0.0
  0
ARC
  5
FB3
330
1F
100
AcDbEntity
  8
AM_7
100
AcDbCircle
 10
595.5206480958581
 20
53.97814541072739
 30
0.0
 40
17.0
100
AcDbArc
 50
222.6250000000006
 51
256.6059999999977
  0
ARC
  5
FB4
330
1F
100
AcDbEntity
  8
0
  6
Continuous
 62
     7
100
AcDbCircle
 10
587.0206480958581
 20
39.25614541072742
 30
0.0
 40
4.0
100
AcDbArc
 50
329.9999999999984
 51
149.9999999999984
  0
CIRCLE
  5
FB5
330
1F
100
AcDbEntity
  8
0
  6
Continuous
 62
     7
100
AcDbCircle
 10
587.0206480958581
 20
39.25614541072742
 30
0.0
 40
2.25
  0
LINE
  5
FB6
102
{ACAD_REACTORS
330
14CC
102
}
330
1F
100
AcDbEntity
  8
0
  6
Continuous
 62
     7
100
AcDbLine
 10
575.3956480958581
 20
47.97814541072739
 30
0.0
 11
571.5196480958582
 21
47.97814541072739
 31
0.0
  0
LINE
  5
FB7
330
1F
100
AcDbEntity
  8
0
  6
Continuous
 62
     7
100
AcDbLine
 10
581.7496480958582
 20
38.12414541072741
 30
0.0
 11
583.5566480958582
 21
41.2541454107274
 31
0.0
  0
CIRCLE
  5
FB8
330
1F
100
AcDbEntity
  8
0
  6
Continuous
 62
     2
100
AcDbCircle
 10
602.0206480958582
 20
42.72014541072741
 30
0.0
 40
1.5
  0
LINE
  5
FB9
330
1F
100
AcDbEntity
  8
AM_7
100
AcDbLine
 10
600.0346480958581
 20
41.57314541072742
 30
0.0
 11
603.8566480958581
 21
43.78014541072741
 31
0.0
  0
LINE
  5
FBA
330
1F
100
AcDbEntity
  8
0
  6
Continuous
 62
     7
100
AcDbLine
 10
600.9236480958581
 20
38.6221454107274
 30
0.0
 11
606.1196480958581
 21
41.6221454107274
 31
0.0
  0
LINE
  5
FBB
102
{ACAD_REACTORS
330
1454
102
}
330
1F
100
AcDbEntity
  8
0
  6
Continuous
 62
     7
100
AcDbLine
 10
602.3246480958581
 20
30.1941454107274
 30
0.0
 11
612.7176480958581
 21
36.1941454107274
 31
0.0
  0
LINE
  5
FBC
330
1F
100
AcDbEntity
  8
0
  6
Continuous
 62
     7
100
AcDbLine
 10
601.9236480958582
 20
36.89014541072737
 30
0.0
 11
607.1196480958582
 21
39.89014541072737
 31
0.0
  0
LINE
  5
FBD
102
{ACAD_REACTORS
330
1454
102
}
330
1F
100
AcDbEntity
  8
0
  6
Continuous
 62
     7
100
AcDbLine
 10
595.7736480958581
 20
47.54214541072741
 30
0.0
 11
604.9236480958581
 21
31.6941454107274
 31
0.0
  0
ARC
  5
FBE
330
1F
100
AcDbEntity
  8
0
  6
Continuous
 62
     7
100
AcDbCircle
 10
595.5206480958581
 20
53.97814541072739
 30
0.0
 40
18.5
100
AcDbArc
 50
252.4869999999981
 51
290.6699999999992
  0
LINE
  5
FBF
330
1F
100
AcDbEntity
  8
0
  6
Continuous
 62
     7
100
AcDbLine
 10
588.677648095858
 20
34.12314541072738
 30
0.0
 11
590.4846480958581
 21
37.25414541072741
 31
0.0
  0
LINE
  5
FC0
330
1F
100
AcDbEntity
  8
0
  6
Continuous
 62
     7
100
AcDbLine
 10
600.3876480958581
 20
33.5501454107274
 30
0.0
 11
602.3246480958581
 21
30.1941454107274
 31
0.0
  0
CIRCLE
  5
FC1
330
1F
100
AcDbEntity
  8
0
  6
Continuous
 62
     7
100
AcDbCircle
 10
602.0206480958582
 20
42.72014541072741
 30
0.0
 40
1.2295
  0
LINE
  5
FC2
330
1F
100
AcDbEntity
  8
0
  6
Continuous
 62
     7
100
AcDbLine
 10
597.9236480958582
 20
43.81814541072737
 30
0.0
 11
603.119648095858
 21
46.81814541072736
 31
0.0
  0
ARC
  5
FC3
330
1F
100
AcDbEntity
  8
0
  6
Continuous
 62
     7
100
AcDbCircle
 10
595.5206480958581
 20
53.97814541072739
 30
0.0
 40
21.0
100
AcDbArc
 50
308.212999999996
 51
326.1629999999955
  0
LINE
  5
FC4
330
1F
100
AcDbEntity
  8
0
  6
Continuous
 62
     7
100
AcDbLine
 10
610.7796480958581
 20
39.5501454107274
 30
0.0
 11
612.7176480958581
 21
36.1941454107274
 31
0.0
  0
CIRCLE
  5
FC5
330
1F
100
AcDbEntity
  8
0
  6
Continuous
 62
     7
100
AcDbCircle
 10
606.0206480958582
 20
35.79114541072738
 30
0.0
 40
1.2295
  0
CIRCLE
  5
FC6
330
1F
100
AcDbEntity
  8
0
  6
Continuous
 62
     2
100
AcDbCircle
 10
606.0206480958582
 20
35.79114541072738
 30
0.0
 40
1.5
  0
LINE
  5
FC7
330
1F
100
AcDbEntity
  8
AM_7
100
AcDbLine
 10
603.9646480958581
 20
34.60414541072737
 30
0.0
 11
608.0336480958582
 21
36.95414541072739
 31
0.0
  0
ARC
  5
FC8
330
1F
100
AcDbEntity
  8
0
  6
Continuous
 62
     7
100
AcDbCircle
 10
610.2226480958582
 20
46.48714541072741
 30
0.0
 40
2.0
100
AcDbArc
 50
21.59690000000322
 51
284.4159999999969
  0
LINE
  5
FC9
330
1F
100
AcDbEntity
  8
0
  6
Continuous
 62
     7
100
AcDbLine
 10
610.7206480958581
 20
44.55014541072739
 30
0.0
 11
612.2146480958581
 21
43.78914541072737
 31
0.0
  0
ARC
  5
FCA
330
1F
100
AcDbEntity
  8
0
  6
Continuous
 62
     7
100
AcDbCircle
 10
595.5206480958581
 20
53.97814541072739
 30
0.0
 40
18.5
100
AcDbArc
 50
309.3340000000035
 51
328.3500000000026
  0
POINT
  5
FCB
330
1F
100
AcDbEntity
  8
0
100
AcDbPoint
 10
608.4406480958581
 20
47.39514541072736
 30
0.0
  0
LINE
  5
FCC
330
1F
100
AcDbEntity
  8
0
  6
Continuous
 62
     7
100
AcDbLine
 10
612.2146480958581
 20
43.78914541072737
 30
0.0
 11
611.7606480958581
 21
42.89814541072741
 31
0.0
  0
LINE
  5
FCD
330
1F
100
AcDbEntity
  8
0
  6
Continuous
 62
     7
100
AcDbLine
 10
614.0306480958582
 20
47.35314541072739
 30
0.0
 11
613.5766480958582
 21
46.46214541072737
 31
0.0
  0
LINE
  5
FCE
330
1F
100
AcDbEntity
  8
0
  6
Continuous
 62
     7
100
AcDbLine
 10
611.7606480958581
 20
42.89814541072741
 30
0.0
 11
612.9636480958581
 21
42.2851454107274
 31
0.0
  0
LINE
  5
FCF
330
1F
100
AcDbEntity
  8
0
  6
Continuous
 62
     7
100
AcDbLine
 10
612.0816480958581
 20
47.2231454107274
 30
0.0
 11
613.5766480958582
 21
46.46214541072737
 31
0.0
  0
LINE
  5
FD0
330
1F
100
AcDbEntity
  8
0
  6
Continuous
 62
     7
100
AcDbLine
 10
614.0306480958582
 20
47.35314541072739
 30
0.0
 11
615.2336480958581
 21
46.74014541072739
 31
0.0
  0
CIRCLE
  5
FD1
330
1F
100
AcDbEntity
  8
0
  6
Continuous
 62
     7
100
AcDbCircle
 10
587.0206480958581
 20
68.70014541072738
 30
0.0
 40
2.25
  0
ARC
  5
FD2
330
1F
100
AcDbEntity
  8
AM_7
100
AcDbCircle
 10
595.5206480958581
 20
53.97814541072739
 30
0.0
 40
17.0
100
AcDbArc
 50
102.4939999999979
 51
138.0140000000038
  0
ARC
  5
FD3
330
1F
100
AcDbEntity
  8
0
  6
Continuous
 62
     7
100
AcDbCircle
 10
595.5206480958581
 20
53.97814541072739
 30
0.0
 40
11.5
100
AcDbArc
 50
75.11870000000256
 51
164.8789999999993
  0
ARC
  5
FD4
330
1F
100
AcDbEntity
  8
0
  6
Continuous
 62
     7
100
AcDbCircle
 10
587.0206480958581
 20
68.70014541072738
 30
0.0
 40
4.0
100
AcDbArc
 50
210.0000000000016
 51
30.0000000000016
  0
ARC
  5
FD5
330
1F
100
AcDbEntity
  8
0
  6
Continuous
 62
     7
100
AcDbCircle
 10
595.5206480958581
 20
53.97814541072739
 30
0.0
 40
21.0
100
AcDbArc
 50
68.21069999999974
 51
171.7869999999997
  0
LINE
  5
FD6
330
1F
100
AcDbEntity
  8
AM_7
100
AcDbLine
 10
622.5206480958582
 20
53.97814541072739
 30
0.0
 11
568.5206480958582
 21
53.97814541072739
 31
0.0
  0
LINE
  5
FD7
330
1F
100
AcDbEntity
  8
0
  6
Continuous
 62
     7
100
AcDbLine
 10
589.8196480958581
 20
56.97814541072739
 30
0.0
 11
571.5196480958582
 21
56.97814541072739
 31
0.0
  0
LINE
  5
FD8
330
1F
100
AcDbEntity
  8
0
  6
Continuous
 62
     7
100
AcDbLine
 10
589.8196480958581
 20
50.9781454107274
 30
0.0
 11
571.5196480958582
 21
50.9781454107274
 31
0.0
  0
ARC
  5
FD9
330
1F
100
AcDbEntity
  8
0
  6
Continuous
 62
     7
100
AcDbCircle
 10
595.5206480958581
 20
53.97814541072739
 30
0.0
 40
18.5
100
AcDbArc
 50
132.4869999999991
 51
170.6679999999994
  0
CIRCLE
  5
FDA
330
1F
100
AcDbEntity
  8
0
  6
Continuous
 62
     7
100
AcDbCircle
 10
574.5196480958582
 20
53.97914541072736
 30
0.0
 40
1.2295
  0
LINE
  5
FDB
102
{ACAD_REACTORS
330
147C
102
}
330
1F
100
AcDbEntity
  8
AM_7
100
AcDbLine
 10
574.5196480958582
 20
56.35314541072739
 30
0.0
 11
574.5196480958582
 21
51.65414541072738
 31
0.0
  0
LINE
  5
FDC
330
1F
100
AcDbEntity
  8
0
  6
Continuous
 62
     7
100
AcDbLine
 10
577.5196480958582
 20
56.97814541072739
 30
0.0
 11
577.5196480958582
 21
50.9781454107274
 31
0.0
  0
LINE
  5
FDD
102
{ACAD_REACTORS
330
14CC
102
}
330
1F
100
AcDbEntity
  8
0
  6
Continuous
 62
     7
100
AcDbLine
 10
575.3956480958581
 20
59.97814541072739
 30
0.0
 11
571.5196480958582
 21
59.97814541072739
 31
0.0
  0
CIRCLE
  5
FDE
330
1F
100
AcDbEntity
  8
0
  6
Continuous
 62
     2
100
AcDbCircle
 10
574.5206480958581
 20
53.97814541072739
 30
0.0
 40
1.5
  0
CIRCLE
  5
FDF
330
1F
100
AcDbEntity
  8
0
  6
Continuous
 62
     7
100
AcDbCircle
 10
582.5196480958582
 20
53.97914541072736
 30
0.0
 40
1.2295
  0
LINE
  5
FE0
102
{ACAD_REACTORS
330
147C
330
14A4
102
}
330
1F
100
AcDbEntity
  8
AM_7
100
AcDbLine
 10
582.5196480958582
 20
56.2711454107274
 30
0.0
 11
582.5196480958582
 21
51.85914541072737
 31
0.0
  0
LINE
  5
FE1
102
{ACAD_REACTORS
330
14A4
102
}
330
1F
100
AcDbEntity
  8
0
  6
Continuous
 62
     7
100
AcDbLine
 10
585.5196480958581
 20
56.97814541072739
 30
0.0
 11
585.5196480958581
 21
50.9781454107274
 31
0.0
  0
LINE
  5
FE2
330
1F
100
AcDbEntity
  8
0
  6
Continuous
 62
     7
100
AcDbLine
 10
579.5196480958582
 20
56.97814541072739
 30
0.0
 11
579.5196480958582
 21
50.9781454107274
 31
0.0
  0
CIRCLE
  5
FE3
330
1F
100
AcDbEntity
  8
0
  6
Continuous
 62
     2
100
AcDbCircle
 10
582.5206480958581
 20
53.97814541072739
 30
0.0
 40
1.5
  0
LINE
  5
FE4
330
1F
100
AcDbEntity
  8
0
  6
Continuous
 62
     7
100
AcDbLine
 10
583.5566480958582
 20
66.70114541072741
 30
0.0
 11
581.7496480958582
 21
69.83214541072737
 31
0.0
  0
CIRCLE
  5
FE5
330
1F
100
AcDbEntity
  8
0
  6
Continuous
 62
     7
100
AcDbCircle
 10
606.0206480958582
 20
72.1651454107274
 30
0.0
 40
1.2295
  0
ARC
  5
FE6
330
1F
100
AcDbEntity
  8
0
  6
Continuous
 62
     7
100
AcDbCircle
 10
595.5206480958581
 20
53.97814541072739
 30
0.0
 40
18.5
100
AcDbArc
 50
69.329599999997
 51
107.5130000000019
  0
CIRCLE
  5
FE7
330
1F
100
AcDbEntity
  8
0
  6
Continuous
 62
     2
100
AcDbCircle
 10
606.0206480958582
 20
72.1651454107274
 30
0.0
 40
1.5
  0
LINE
  5
FE8
330
1F
100
AcDbEntity
  8
0
  6
Continuous
 62
     7
100
AcDbLine
 10
590.4856480958581
 20
70.7011454107274
 30
0.0
 11
588.677648095858
 21
73.83214541072738
 31
0.0
  0
LINE
  5
FE9
330
1F
100
AcDbEntity
  8
AM_7
100
AcDbLine
 10
608.0776480958582
 20
70.97614541072738
 30
0.0
 11
604.0086480958582
 21
73.32514541072737
 31
0.0
  0
LINE
  5
FEA
330
1F
100
AcDbEntity
  8
0
  6
Continuous
 62
     7
100
AcDbLine
 10
612.7166480958582
 20
71.76114541072741
 30
0.0
 11
602.3246480958581
 21
77.76114541072741
 31
0.0
  0
LINE
  5
FEB
330
1F
100
AcDbEntity
  8
0
  6
Continuous
 62
     7
100
AcDbLine
 10
600.9696480958582
 20
57.41314541072739
 30
0.0
 11
610.1186480958581
 21
73.2611454107274
 31
0.0
  0
LINE
  5
FEC
330
1F
100
AcDbEntity
  8
0
  6
Continuous
 62
     7
100
AcDbLine
 10
595.7726480958581
 20
60.4131454107274
 30
0.0
 11
604.9226480958582
 21
76.26114541072741
 31
0.0
  0
CIRCLE
  5
FED
330
1F
100
AcDbEntity
  8
0
  6
Continuous
 62
     2
100
AcDbCircle
 10
602.0206480958582
 20
65.23614541072737
 30
0.0
 40
1.5
  0
LINE
  5
FEE
330
1F
100
AcDbEntity
  8
AM_7
100
AcDbLine
 10
604.0076480958582
 20
64.0881454107274
 30
0.0
 11
600.1856480958581
 21
66.2951454107274
 31
0.0
  0
LINE
  5
FEF
330
1F
100
AcDbEntity
  8
0
  6
Continuous
 62
     7
100
AcDbLine
 10
606.1186480958581
 20
66.33314541072741
 30
0.0
 11
600.9226480958582
 21
69.33314541072741
 31
0.0
  0
LINE
  5
FF0
330
1F
100
AcDbEntity
  8
0
  6
Continuous
 62
     7
100
AcDbLine
 10
607.1186480958581
 20
68.06514541072738
 30
0.0
 11
601.9226480958582
 21
71.06514541072738
 31
0.0
  0
LINE
  5
FF1
330
1F
100
AcDbEntity
  8
0
  6
Continuous
 62
     7
100
AcDbLine
 10
589.8196480958581
 20
56.97814541072739
 30
0.0
 11
589.8196480958581
 21
50.9781454107274
 31
0.0
  0
POINT
  5
FF2
330
1F
100
AcDbEntity
  8
AM_7
100
AcDbPoint
 10
595.5206480958581
 20
53.97814541072739
 30
0.0
  0
LINE
  5
FF3
330
1F
100
AcDbEntity
  8
0
  6
Continuous
 62
     7
100
AcDbLine
 10
600.9686480958581
 20
57.41314541072739
 30
0.0
 11
595.7726480958581
 21
60.4131454107274
 31
0.0
  0
CIRCLE
  5
FF4
330
1F
100
AcDbEntity
  8
0
  6
Continuous
 62
     7
100
AcDbCircle
 10
602.0206480958582
 20
65.23514541072739
 30
0.0
 40
1.2295
  0
LINE
  5
FF5
330
1F
100
AcDbEntity
  8
0
  6
Continuous
 62
     7
100
AcDbLine
 10
603.1186480958581
 20
61.13714541072738
 30
0.0
 11
597.9226480958582
 21
64.13714541072739
 31
0.0
  0
ARC
  5
FF6
330
1F
100
AcDbEntity
  8
0
  6
Continuous
 62
     7
100
AcDbCircle
 10
610.2226480958582
 20
61.46914541072738
 30
0.0
 40
2.0
100
AcDbArc
 50
75.56990000000093
 51
338.3889999999968
  0
ARC
  5
FF7
330
1F
100
AcDbEntity
  8
0
  6
Continuous
 62
     7
100
AcDbCircle
 10
595.5206480958581
 20
53.97814541072739
 30
0.0
 40
18.5
100
AcDbArc
 50
12.48679999999958
 51
22.34929999999943
  0
LINE
  5
FF8
330
1F
100
AcDbEntity
  8
0
  6
Continuous
 62
     7
100
AcDbLine
 10
613.5766480958582
 20
61.49414541072741
 30
0.0
 11
614.0306480958582
 21
60.60314541072739
 31
0.0
  0
LINE
  5
FF9
330
1F
100
AcDbEntity
  8
0
  6
Continuous
 62
     7
100
AcDbLine
 10
613.5766480958582
 20
61.49414541072741
 30
0.0
 11
612.0816480958581
 21
60.73214541072741
 31
0.0
  0
LINE
  5
FFA
330
1F
100
AcDbEntity
  8
0
  6
Continuous
 62
     7
100
AcDbLine
 10
614.0306480958582
 20
60.60314541072739
 30
0.0
 11
615.2336480958581
 21
61.21614541072739
 31
0.0
  0
ARC
  5
FFB
330
1F
100
AcDbEntity
  8
0
  6
Continuous
 62
     7
100
AcDbCircle
 10
612.5206480958581
 20
53.97814541072739
 30
0.0
 40
4.0
100
AcDbArc
 50
90.0
 51
270.0
  0
CIRCLE
  5
FFC
330
1F
100
AcDbEntity
  8
0
  6
Continuous
 62
     7
100
AcDbCircle
 10
612.5206480958581
 20
53.97814541072739
 30
0.0
 40
2.25
  0
POINT
  5
FFD
330
1F
100
AcDbEntity
  8
0
100
AcDbPoint
 10
608.4406480958581
 20
60.56114541072742
 30
0.0
  0
LINE
  5
FFE
330
1F
100
AcDbEntity
  8
0
  6
Continuous
 62
     7
100
AcDbLine
 10
616.1366480958581
 20
49.97814541072739
 30
0.0
 11
612.5196480958582
 21
49.97814541072739
 31
0.0
  0
LINE
  5
FFF
330
1F
100
AcDbEntity
  8
0
  6
Continuous
 62
     7
100
AcDbLine
 10
616.1366480958581
 20
57.97814541072739
 30
0.0
 11
612.5196480958582
 21
57.97814541072739
 31
0.0
  0
ARC
  5
1000
330
1F
100
AcDbEntity
  8
0
  6
Continuous
 62
     7
100
AcDbCircle
 10
595.5206480958581
 20
53.97814541072739
 30
0.0
 40
21.0
100
AcDbArc
 50
33.83709999999855
 51
51.78679999999936
  0
LINE
  5
1001
330
1F
100
AcDbEntity
  8
0
  6
Continuous
 62
     7
100
AcDbLine
 10
612.2146480958581
 20
64.16714541072741
 30
0.0
 11
610.7206480958581
 21
63.40614541072739
 31
0.0
  0
LINE
  5
1002
330
1F
100
AcDbEntity
  8
0
  6
Continuous
 62
     7
100
AcDbLine
 10
610.7796480958581
 20
68.40514541072741
 30
0.0
 11
612.7166480958582
 21
71.76114541072741
 31
0.0
  0
ARC
  5
1003
330
1F
100
AcDbEntity
  8
0
  6
Continuous
 62
     7
100
AcDbCircle
 10
595.5206480958581
 20
53.97814541072739
 30
0.0
 40
18.5
100
AcDbArc
 50
31.65069999999781
 51
50.66479999999978
  0
LINE
  5
1004
330
1F
100
AcDbEntity
  8
0
  6
Continuous
 62
     7
100
AcDbLine
 10
611.7606480958581
 20
65.05814541072737
 30
0.0
 11
612.9636480958581
 21
65.67114541072737
 31
0.0
  0
LINE
  5
1005
330
1F
100
AcDbEntity
  8
0
  6
Continuous
 62
     7
100
AcDbLine
 10
611.7606480958581
 20
65.05814541072737
 30
0.0
 11
612.2146480958581
 21
64.16714541072741
 31
0.0
  0
LINE
  5
1006
330
1F
100
AcDbEntity
  8
0
  6
Continuous
 62
     7
100
AcDbLine
 10
600.3876480958581
 20
74.40514541072741
 30
0.0
 11
602.3246480958581
 21
77.76114541072741
 31
0.0
  0
LINE
  5
1007
330
1F
100
AcDbEntity
  8
0
  6
Continuous
 62
     7
100
AcDbLine
 10
658.5206480958581
 20
121.7271201557871
 30
0.0
 11
659.9636480958581
 21
120.4621201557871
 31
0.0
  0
LINE
  5
1008
330
1F
100
AcDbEntity
  8
0
  6
Continuous
 62
     7
100
AcDbLine
 10
695.5206480958581
 20
107.2561201557871
 30
0.0
 11
695.5206480958581
 21
149.2561201557871
 31
0.0
  0
LINE
  5
1009
330
1F
100
AcDbEntity
  8
0
  6
Continuous
 62
     7
100
AcDbLine
 10
659.9636480958581
 20
120.4621201557871
 30
0.0
 11
659.9636480958581
 21
135.100120155787
 31
0.0
  0
LINE
  5
100A
330
1F
100
AcDbEntity
  8
0
  6
Continuous
 62
     7
100
AcDbLine
 10
662.5206480958581
 20
118.8541201557871
 30
0.0
 11
662.5206480958581
 21
123.3901201557871
 31
0.0
  0
LINE
  5
100B
330
1F
100
AcDbEntity
  8
0
  6
Continuous
 62
     7
100
AcDbLine
 10
667.5206480958581
 20
111.0601201557871
 30
0.0
 11
667.5206480958581
 21
123.3901201557871
 31
0.0
  0
LINE
  5
100C
330
1F
100
AcDbEntity
  8
0
  6
Continuous
 62
     7
100
AcDbLine
 10
655.5206480958581
 20
113.6581201557871
 30
0.0
 11
655.5206480958581
 21
125.8541201557872
 31
0.0
  0
CIRCLE
  5
100E
102
{ACAD_REACTORS
330
1D7F
102
}
330
1F
100
AcDbEntity
  8
AM_7
100
AcDbCircle
 10
763.1578797875181
 20
53.97814541072739
 30
0.0
 40
17.0
  0
CIRCLE
  5
100F
330
1F
100
AcDbEntity
  8
0
  6
Continuous
 62
     7
100
AcDbCircle
 10
763.1578797875181
 20
53.97814541072739
 30
0.0
 40
13.0
  0
ARC
  5
1010
330
1F
100
AcDbEntity
  8
0
  6
Continuous
 62
     7
100
AcDbCircle
 10
763.1578797875181
 20
53.97814541072739
 30
0.0
 40
21.0
100
AcDbArc
 50
213.8370000000042
 51
146.1629999999958
  0
ARC
  5
1014
330
1F
100
AcDbEntity
  8
0
  6
Continuous
 62
     7
100
AcDbCircle
 10
763.1578797875181
 20
53.97814541072739
 30
0.0
 40
21.0
100
AcDbArc
 50
159.8379999999978
 51
200.1630000000005
  0
LINE
  5
1015
330
1F
100
AcDbEntity
  8
0
  6
Continuous
 62
     7
100
AcDbLine
 10
658.5206480958581
 20
68.51414541072739
 30
0.0
 11
658.5206480958581
 21
39.44214541072739
 31
0.0
  0
LINE
  5
1016
330
1F
100
AcDbEntity
  8
0
  6
Continuous
 62
     7
100
AcDbLine
 10
695.5206480958581
 20
74.97814541072739
 30
0.0
 11
695.5206480958581
 21
32.97814541072739
 31
0.0
  0
LINE
  5
1017
330
1F
100
AcDbEntity
  8
0
  6
Continuous
 62
     7
100
AcDbLine
 10
659.9636480958581
 20
49.97814541072739
 30
0.0
 11
659.9636480958581
 21
46.73914541072742
 31
0.0
  0
LINE
  5
1019
102
{ACAD_REACTORS
330
142C
102
}
330
1F
100
AcDbEntity
  8
0
  6
Continuous
 62
     7
100
AcDbLine
 10
667.5206480958581
 20
32.97814541072739
 30
0.0
 11
695.5206480958581
 21
32.97814541072739
 31
0.0
  0
LINE
  5
101A
330
1F
100
AcDbEntity
  8
0
  6
Continuous
 62
     7
100
AcDbLine
 10
659.9636480958581
 20
46.73914541072742
 30
0.0
 11
695.5206480958581
 21
46.73914541072742
 31
0.0
  0
LINE
  5
101B
330
1F
100
AcDbEntity
  8
0
  6
Continuous
 62
     7
100
AcDbLine
 10
659.9636480958581
 20
42.28414541072737
 30
0.0
 11
695.5206480958581
 21
42.28414541072737
 31
0.0
  0
LINE
  5
101C
330
1F
100
AcDbEntity
  8
0
  6
Continuous
 62
     7
100
AcDbLine
 10
667.5206480958581
 20
39.5501454107274
 30
0.0
 11
667.5206480958581
 21
30.1941454107274
 31
0.0
  0
LINE
  5
101D
330
1F
100
AcDbEntity
  8
0
  6
Continuous
 62
     7
100
AcDbLine
 10
658.5206480958581
 20
39.44314541072737
 30
0.0
 11
659.9636480958581
 21
37.47814541072739
 31
0.0
  0
LINE
  5
101E
330
1F
100
AcDbEntity
  8
0
  6
Continuous
 62
     7
100
AcDbLine
 10
659.9636480958581
 20
42.28414541072737
 30
0.0
 11
659.9636480958581
 21
37.47814541072739
 31
0.0
  0
LINE
  5
101F
330
1F
100
AcDbEntity
  8
0
  6
Continuous
 62
     7
100
AcDbLine
 10
662.5206480958581
 20
39.5501454107274
 30
0.0
 11
662.5206480958581
 21
34.69514541072738
 31
0.0
  0
LINE
  5
1020
330
1F
100
AcDbEntity
  8
0
  6
Continuous
 62
     7
100
AcDbLine
 10
655.5206480958581
 20
46.81814541072736
 30
0.0
 11
655.5206480958581
 21
31.6941454107274
 31
0.0
  0
LINE
  5
1021
330
1F
100
AcDbEntity
  8
0
  6
Continuous
 62
     7
100
AcDbLine
 10
655.5206480958581
 20
34.69514541072738
 30
0.0
 11
662.5206480958581
 21
34.69514541072738
 31
0.0
  0
LINE
  5
1022
330
1F
100
AcDbEntity
  8
0
  6
Continuous
 62
     7
100
AcDbLine
 10
659.9636480958581
 20
37.47814541072739
 30
0.0
 11
662.5206480958581
 21
37.47814541072739
 31
0.0
  0
LINE
  5
1023
330
1F
100
AcDbEntity
  8
0
  6
Continuous
 62
     7
100
AcDbLine
 10
655.5206480958581
 20
31.6941454107274
 30
0.0
 11
662.5206480958581
 21
31.6941454107274
 31
0.0
  0
LINE
  5
1024
330
1F
100
AcDbEntity
  8
0
  6
Continuous
 62
     7
100
AcDbLine
 10
662.5206480958581
 20
31.6941454107274
 30
0.0
 11
662.5206480958581
 21
30.1941454107274
 31
0.0
  0
LINE
  5
1025
330
1F
100
AcDbEntity
  8
0
  6
Continuous
 62
     7
100
AcDbLine
 10
662.5206480958581
 20
36.19514541072738
 30
0.0
 11
667.5206480958581
 21
36.19514541072738
 31
0.0
  0
LINE
  5
1026
102
{ACAD_REACTORS
330
1404
330
142C
102
}
330
1F
100
AcDbEntity
  8
0
  6
Continuous
 62
     7
100
AcDbLine
 10
662.5206480958581
 20
30.1941454107274
 30
0.0
 11
667.5206480958581
 21
30.1941454107274
 31
0.0
  0
LINE
  5
1027
330
1F
100
AcDbEntity
  8
0
  6
Continuous
 62
     7
100
AcDbLine
 10
658.5206480958581
 20
47.60114541072738
 30
0.0
 11
659.9636480958581
 21
46.74014541072739
 31
0.0
  0
LINE
  5
1028
330
1F
100
AcDbEntity
  8
0
  6
Continuous
 62
     7
100
AcDbLine
 10
659.9636480958581
 20
42.28414541072737
 30
0.0
 11
658.5206480958581
 21
43.67614541072737
 31
0.0
  0
LINE
  5
1029
330
1F
100
AcDbEntity
  8
0
  6
Continuous
 62
     7
100
AcDbLine
 10
655.5206480958581
 20
41.62314541072738
 30
0.0
 11
657.5206480958581
 21
41.62314541072738
 31
0.0
  0
LINE
  5
102A
330
1F
100
AcDbEntity
  8
0
  6
Continuous
 62
     7
100
AcDbLine
 10
655.5206480958581
 20
39.89114541072741
 30
0.0
 11
657.5206480958581
 21
39.89114541072741
 31
0.0
  0
LINE
  5
102B
330
1F
100
AcDbEntity
  8
0
  6
Continuous
 62
     7
100
AcDbLine
 10
657.5206480958581
 20
41.62314541072738
 30
0.0
 11
657.5206480958581
 21
39.89114541072741
 31
0.0
  0
LINE
  5
102C
330
1F
100
AcDbEntity
  8
0
  6
Continuous
 62
     7
100
AcDbLine
 10
655.5206480958581
 20
46.81814541072736
 30
0.0
 11
658.5206480958581
 21
46.81814541072736
 31
0.0
  0
LINE
  5
102D
330
1F
100
AcDbEntity
  8
0
  6
Continuous
 62
     7
100
AcDbLine
 10
662.5206480958581
 20
39.5501454107274
 30
0.0
 11
667.5206480958581
 21
39.5501454107274
 31
0.0
  0
ARC
  5
102E
330
1F
100
AcDbEntity
  8
0
  6
Continuous
 62
     7
100
AcDbCircle
 10
748.4558797875181
 20
46.48714541072741
 30
0.0
 40
2.0
100
AcDbArc
 50
255.5330000000001
 51
158.3519999999996
  0
LINE
  5
102F
330
1F
100
AcDbEntity
  8
0
  6
Continuous
 62
     7
100
AcDbLine
 10
756.3538797875182
 20
30.1941454107274
 30
0.0
 11
745.961879787518
 21
36.1941454107274
 31
0.0
  0
LINE
  5
1030
330
1F
100
AcDbEntity
  8
0
  6
Continuous
 62
     7
100
AcDbLine
 10
747.8988797875181
 20
39.5501454107274
 30
0.0
 11
745.961879787518
 21
36.1941454107274
 31
0.0
  0
LINE
  5
1031
330
1F
100
AcDbEntity
  8
0
  6
Continuous
 62
     7
100
AcDbLine
 10
746.4638797875181
 20
43.79014541072741
 30
0.0
 11
746.9178797875181
 21
42.89814541072741
 31
0.0
  0
LINE
  5
1032
330
1F
100
AcDbEntity
  8
0
  6
Continuous
 62
     7
100
AcDbLine
 10
745.7148797875182
 20
42.28414541072737
 30
0.0
 11
746.9178797875181
 21
42.89814541072741
 31
0.0
  0
LINE
  5
1033
330
1F
100
AcDbEntity
  8
0
  6
Continuous
 62
     7
100
AcDbLine
 10
744.6478797875181
 20
47.35314541072739
 30
0.0
 11
745.1018797875181
 21
46.4631454107274
 31
0.0
  0
LINE
  5
1034
330
1F
100
AcDbEntity
  8
0
  6
Continuous
 62
     7
100
AcDbLine
 10
746.5968797875181
 20
47.2251454107274
 30
0.0
 11
745.1018797875181
 21
46.4631454107274
 31
0.0
  0
LINE
  5
1035
330
1F
100
AcDbEntity
  8
0
  6
Continuous
 62
     7
100
AcDbLine
 10
747.9568797875181
 20
44.55114541072737
 30
0.0
 11
746.4638797875181
 21
43.79014541072741
 31
0.0
  0
POINT
  5
1036
330
1F
100
AcDbEntity
  8
0
100
AcDbPoint
 10
750.2378797875182
 20
47.39614541072739
 30
0.0
  0
LINE
  5
1037
330
1F
100
AcDbEntity
  8
0
  6
Continuous
 62
     7
100
AcDbLine
 10
743.4448797875181
 20
46.74014541072739
 30
0.0
 11
744.6478797875181
 21
47.35314541072739
 31
0.0
  0
LINE
  5
103C
330
1F
100
AcDbEntity
  8
0
  6
Continuous
 62
     7
100
AcDbLine
 10
758.2908797875181
 20
33.5501454107274
 30
0.0
 11
756.3538797875182
 21
30.1941454107274
 31
0.0
  0
LINE
  5
103F
330
1F
100
AcDbEntity
  8
0
  6
Continuous
 62
     7
100
AcDbLine
 10
667.5206480958581
 20
74.97814541072739
 30
0.0
 11
695.5206480958581
 21
74.97814541072739
 31
0.0
  0
LINE
  5
1040
330
1F
100
AcDbEntity
  8
0
  6
Continuous
 62
     7
100
AcDbLine
 10
659.9636480958581
 20
61.21714541072737
 30
0.0
 11
695.5206480958581
 21
61.21714541072737
 31
0.0
  0
LINE
  5
1041
330
1F
100
AcDbEntity
  8
0
  6
Continuous
 62
     7
100
AcDbLine
 10
659.9636480958581
 20
65.67214541072741
 30
0.0
 11
695.5206480958581
 21
65.67214541072741
 31
0.0
  0
LINE
  5
1042
330
1F
100
AcDbEntity
  8
0
  6
Continuous
 62
     7
100
AcDbLine
 10
662.5206480958581
 20
68.40614541072739
 30
0.0
 11
662.5206480958581
 21
73.2611454107274
 31
0.0
  0
LINE
  5
1043
330
1F
100
AcDbEntity
  8
0
  6
Continuous
 62
     7
100
AcDbLine
 10
667.5206480958581
 20
68.40614541072739
 30
0.0
 11
667.5206480958581
 21
77.76214541072739
 31
0.0
  0
LINE
  5
1044
330
1F
100
AcDbEntity
  8
0
  6
Continuous
 62
     7
100
AcDbLine
 10
655.5206480958581
 20
61.13814541072741
 30
0.0
 11
655.5206480958581
 21
76.26214541072738
 31
0.0
  0
LINE
  5
1045
330
1F
100
AcDbEntity
  8
0
  6
Continuous
 62
     7
100
AcDbLine
 10
658.5206480958581
 20
60.3551454107274
 30
0.0
 11
659.9636480958581
 21
61.21614541072739
 31
0.0
  0
LINE
  5
1046
330
1F
100
AcDbEntity
  8
0
  6
Continuous
 62
     7
100
AcDbLine
 10
659.9636480958581
 20
57.97814541072739
 30
0.0
 11
659.9636480958581
 21
61.21714541072737
 31
0.0
  0
LINE
  5
1047
330
1F
100
AcDbEntity
  8
0
  6
Continuous
 62
     7
100
AcDbLine
 10
659.9636480958581
 20
49.97814541072739
 30
0.0
 11
666.5206480958581
 21
49.97814541072739
 31
0.0
  0
LINE
  5
1048
330
1F
100
AcDbEntity
  8
0
  6
Continuous
 62
     7
100
AcDbLine
 10
659.9636480958581
 20
57.97814541072739
 30
0.0
 11
666.5206480958581
 21
57.97814541072739
 31
0.0
  0
LINE
  5
1049
330
1F
100
AcDbEntity
  8
0
  6
Continuous
 62
     7
100
AcDbLine
 10
658.5206480958581
 20
50.45414541072739
 30
0.0
 11
659.9636480958581
 21
49.97814541072739
 31
0.0
  0
LINE
  5
104A
330
1F
100
AcDbEntity
  8
0
  6
Continuous
 62
     7
100
AcDbLine
 10
659.9636480958581
 20
57.97814541072739
 30
0.0
 11
658.5206480958581
 21
57.5021454107274
 31
0.0
  0
LINE
  5
104B
330
1F
100
AcDbEntity
  8
0
  6
Continuous
 62
     7
100
AcDbLine
 10
655.5206480958581
 20
56.97814541072739
 30
0.0
 11
658.5206480958581
 21
56.97814541072739
 31
0.0
  0
LINE
  5
104C
330
1F
100
AcDbEntity
  8
0
  6
Continuous
 62
     7
100
AcDbLine
 10
655.5206480958581
 20
50.9781454107274
 30
0.0
 11
658.5206480958581
 21
50.9781454107274
 31
0.0
  0
LINE
  5
104D
330
1F
100
AcDbEntity
  8
0
  6
Continuous
 62
     7
100
AcDbLine
 10
655.5206480958581
 20
56.97814541072739
 30
0.0
 11
655.5206480958581
 21
50.9781454107274
 31
0.0
  0
LINE
  5
104E
330
1F
100
AcDbEntity
  8
0
  6
Continuous
 62
     7
100
AcDbLine
 10
666.5206480958581
 20
57.97814541072739
 30
0.0
 11
666.5206480958581
 21
49.97814541072739
 31
0.0
  0
LINE
  5
104F
330
1F
100
AcDbEntity
  8
0
  6
Continuous
 62
     7
100
AcDbLine
 10
659.9636480958581
 20
70.47814541072739
 30
0.0
 11
662.5206480958581
 21
70.47814541072739
 31
0.0
  0
LINE
  5
1050
330
1F
100
AcDbEntity
  8
0
  6
Continuous
 62
     7
100
AcDbLine
 10
659.9636480958581
 20
65.67214541072741
 30
0.0
 11
658.5206480958581
 21
64.28014541072741
 31
0.0
  0
LINE
  5
1051
330
1F
100
AcDbEntity
  8
0
  6
Continuous
 62
     7
100
AcDbLine
 10
659.9636480958581
 20
65.67214541072741
 30
0.0
 11
659.9636480958581
 21
70.47814541072739
 31
0.0
  0
LINE
  5
1052
330
1F
100
AcDbEntity
  8
0
  6
Continuous
 62
     7
100
AcDbLine
 10
655.5206480958581
 20
66.33314541072741
 30
0.0
 11
657.5206480958581
 21
66.33314541072741
 31
0.0
  0
LINE
  5
1053
330
1F
100
AcDbEntity
  8
0
  6
Continuous
 62
     7
100
AcDbLine
 10
655.5206480958581
 20
68.06514541072738
 30
0.0
 11
657.5206480958581
 21
68.06514541072738
 31
0.0
  0
LINE
  5
1054
330
1F
100
AcDbEntity
  8
0
  6
Continuous
 62
     7
100
AcDbLine
 10
658.5206480958581
 20
68.51414541072739
 30
0.0
 11
659.9636480958581
 21
70.47814541072739
 31
0.0
  0
LINE
  5
1055
330
1F
100
AcDbEntity
  8
0
  6
Continuous
 62
     7
100
AcDbLine
 10
655.5206480958581
 20
61.13814541072741
 30
0.0
 11
658.5206480958581
 21
61.13814541072741
 31
0.0
  0
LINE
  5
1056
330
1F
100
AcDbEntity
  8
0
  6
Continuous
 62
     7
100
AcDbLine
 10
657.5206480958581
 20
66.33314541072741
 30
0.0
 11
657.5206480958581
 21
68.06514541072738
 31
0.0
  0
LINE
  5
1057
330
1F
100
AcDbEntity
  8
0
  6
Continuous
 62
     7
100
AcDbLine
 10
662.5206480958581
 20
71.76114541072741
 30
0.0
 11
667.5206480958581
 21
71.76114541072741
 31
0.0
  0
LINE
  5
1058
330
1F
100
AcDbEntity
  8
0
  6
Continuous
 62
     7
100
AcDbLine
 10
662.5206480958581
 20
68.40614541072739
 30
0.0
 11
667.5206480958581
 21
68.40614541072739
 31
0.0
  0
LINE
  5
1059
330
1F
100
AcDbEntity
  8
0
  6
Continuous
 62
     7
100
AcDbLine
 10
655.5206480958581
 20
73.2611454107274
 30
0.0
 11
662.5206480958581
 21
73.2611454107274
 31
0.0
  0
LINE
  5
105A
330
1F
100
AcDbEntity
  8
0
  6
Continuous
 62
     7
100
AcDbLine
 10
655.5206480958581
 20
76.26214541072738
 30
0.0
 11
662.5206480958581
 21
76.26214541072738
 31
0.0
  0
LINE
  5
105B
330
1F
100
AcDbEntity
  8
0
  6
Continuous
 62
     7
100
AcDbLine
 10
662.5206480958581
 20
76.26214541072738
 30
0.0
 11
662.5206480958581
 21
77.76214541072739
 31
0.0
  0
LINE
  5
105C
330
1F
100
AcDbEntity
  8
0
  6
Continuous
 62
     7
100
AcDbLine
 10
662.5206480958581
 20
77.76214541072739
 30
0.0
 11
667.5206480958581
 21
77.76214541072739
 31
0.0
  0
POINT
  5
105D
330
1F
100
AcDbEntity
  8
0
100
AcDbPoint
 10
695.5206480958581
 20
53.97814541072739
 30
0.0
  0
LINE
  5
105E
330
1F
100
AcDbEntity
  8
0
  6
Continuous
 62
     7
100
AcDbLine
 10
659.9636480958581
 20
110.8131201557871
 30
0.0
 11
695.5206480958581
 21
110.8131201557871
 31
0.0
  0
LINE
  5
105F
330
1F
100
AcDbEntity
  8
0
  6
Continuous
 62
     7
100
AcDbLine
 10
659.9636480958581
 20
108.5431201557871
 30
0.0
 11
695.5206480958581
 21
108.5431201557871
 31
0.0
  0
LINE
  5
1060
102
{ACAD_REACTORS
330
13DC
102
}
330
1F
100
AcDbEntity
  8
0
  6
Continuous
 62
     7
100
AcDbLine
 10
659.9636480958581
 20
107.2561201557871
 30
0.0
 11
695.5206480958581
 21
107.2561201557871
 31
0.0
  0
LINE
  5
1061
330
1F
100
AcDbEntity
  8
0
  6
Continuous
 62
     7
100
AcDbLine
 10
658.5206480958581
 20
110.8901201557871
 30
0.0
 11
659.9636480958581
 21
108.5431201557871
 31
0.0
  0
LINE
  5
1062
330
1F
100
AcDbEntity
  8
0
  6
Continuous
 62
     7
100
AcDbLine
 10
658.5206480958581
 20
109.7561201557871
 30
0.0
 11
658.5206480958581
 21
113.6581201557871
 31
0.0
  0
LINE
  5
1063
330
1F
100
AcDbEntity
  8
0
  6
Continuous
 62
     7
100
AcDbLine
 10
658.5206480958581
 20
109.7551201557871
 30
0.0
 11
659.9636480958581
 21
107.2561201557871
 31
0.0
  0
LINE
  5
1064
330
1F
100
AcDbEntity
  8
0
  6
Continuous
 62
     7
100
AcDbLine
 10
659.9636480958581
 20
107.2561201557871
 30
0.0
 11
659.9636480958581
 21
108.5431201557871
 31
0.0
  0
LINE
  5
1065
330
1F
100
AcDbEntity
  8
0
  6
Continuous
 62
     7
100
AcDbLine
 10
659.9636480958581
 20
120.4621201557871
 30
0.0
 11
662.5206480958581
 21
120.4621201557871
 31
0.0
  0
LINE
  5
1066
330
1F
100
AcDbEntity
  8
0
  6
Continuous
 62
     7
100
AcDbLine
 10
655.5206480958581
 20
118.8541201557871
 30
0.0
 11
662.5206480958581
 21
118.8541201557871
 31
0.0
  0
LINE
  5
1067
330
1F
100
AcDbEntity
  8
0
  6
Continuous
 62
     7
100
AcDbLine
 10
655.5206480958581
 20
113.6581201557871
 30
0.0
 11
662.5206480958581
 21
113.6581201557871
 31
0.0
  0
LINE
  5
1068
330
1F
100
AcDbEntity
  8
0
  6
Continuous
 62
     7
100
AcDbLine
 10
659.9636480958581
 20
110.8131201557871
 30
0.0
 11
658.5206480958581
 21
112.8891201557871
 31
0.0
  0
LINE
  5
1069
330
1F
100
AcDbEntity
  8
0
  6
Continuous
 62
     7
100
AcDbLine
 10
659.9636480958581
 20
110.8131201557871
 30
0.0
 11
659.9636480958581
 21
113.6581201557871
 31
0.0
  0
LINE
  5
106A
330
1F
100
AcDbEntity
  8
0
  6
Continuous
 62
     7
100
AcDbLine
 10
662.5206480958581
 20
111.0601201557871
 30
0.0
 11
662.5206480958581
 21
113.6581201557871
 31
0.0
  0
LINE
  5
106B
330
1F
100
AcDbEntity
  8
0
  6
Continuous
 62
     7
100
AcDbLine
 10
662.5206480958581
 20
111.0601201557871
 30
0.0
 11
667.5206480958581
 21
111.0601201557871
 31
0.0
  0
LINE
  5
106C
330
1F
100
AcDbEntity
  8
0
  6
Continuous
 62
     7
100
AcDbLine
 10
745.961879787518
 20
71.76314541072741
 30
0.0
 11
756.3538797875182
 21
77.76314541072742
 31
0.0
  0
ARC
  5
106D
330
1F
100
AcDbEntity
  8
0
  6
Continuous
 62
     7
100
AcDbCircle
 10
748.4558797875181
 20
61.46914541072738
 30
0.0
 40
2.0
100
AcDbArc
 50
201.5880000000015
 51
104.4070000000007
  0
LINE
  5
106E
330
1F
100
AcDbEntity
  8
0
  6
Continuous
 62
     7
100
AcDbLine
 10
745.1018797875181
 20
61.49414541072741
 30
0.0
 11
744.6478797875181
 21
60.60314541072739
 31
0.0
  0
LINE
  5
106F
330
1F
100
AcDbEntity
  8
0
  6
Continuous
 62
     7
100
AcDbLine
 10
745.1018797875181
 20
61.49414541072741
 30
0.0
 11
746.5968797875181
 21
60.73314541072739
 31
0.0
  0
LINE
  5
1070
330
1F
100
AcDbEntity
  8
0
  6
Continuous
 62
     7
100
AcDbLine
 10
743.4448797875181
 20
61.21614541072739
 30
0.0
 11
744.6478797875181
 21
60.60314541072739
 31
0.0
  0
POINT
  5
1071
330
1F
100
AcDbEntity
  8
0
100
AcDbPoint
 10
750.2388797875181
 20
60.56114541072742
 30
0.0
  0
LINE
  5
1073
330
1F
100
AcDbEntity
  8
0
  6
Continuous
 62
     7
100
AcDbLine
 10
745.7148797875182
 20
65.67114541072737
 30
0.0
 11
746.9178797875181
 21
65.05814541072737
 31
0.0
  0
LINE
  5
1074
330
1F
100
AcDbEntity
  8
0
  6
Continuous
 62
     7
100
AcDbLine
 10
746.9178797875181
 20
65.05814541072737
 30
0.0
 11
746.4638797875181
 21
64.16814541072739
 31
0.0
  0
LINE
  5
1075
330
1F
100
AcDbEntity
  8
0
  6
Continuous
 62
     7
100
AcDbLine
 10
746.4638797875181
 20
64.16714541072741
 30
0.0
 11
747.9588797875181
 21
63.40614541072739
 31
0.0
  0
LINE
  5
1076
330
1F
100
AcDbEntity
  8
0
  6
Continuous
 62
     7
100
AcDbLine
 10
747.8988797875181
 20
68.40614541072739
 30
0.0
 11
745.961879787518
 21
71.76314541072741
 31
0.0
  0
LINE
  5
107A
330
1F
100
AcDbEntity
  8
0
  6
Continuous
 62
     7
100
AcDbLine
 10
758.2918797875181
 20
74.40614541072739
 30
0.0
 11
756.3538797875182
 21
77.76314541072742
 31
0.0
  0
LINE
  5
107B
330
1F
100
AcDbEntity
  8
0
  6
Continuous
 62
     7
100
AcDbLine
 10
787.1588797875181
 20
59.97814541072739
 30
0.0
 11
787.1588797875181
 21
47.97814541072739
 31
0.0
  0
LINE
  5
107D
330
1F
100
AcDbEntity
  8
0
  6
Continuous
 62
     7
100
AcDbLine
 10
783.2828797875181
 20
47.97814541072739
 30
0.0
 11
787.1588797875181
 21
47.97814541072739
 31
0.0
  0
LINE
  5
1081
330
1F
100
AcDbEntity
  8
0
  6
Continuous
 62
     7
100
AcDbLine
 10
783.2828797875181
 20
59.97814541072739
 30
0.0
 11
787.1588797875181
 21
59.97814541072739
 31
0.0
  0
ARC
  5
1082
330
1F
100
AcDbEntity
  8
0
  6
Continuous
 62
     7
100
AcDbCircle
 10
688.5206480958581
 20
138.8061201557872
 30
0.0
 40
8.287079999999999
100
AcDbArc
 50
62.81919999999797
 51
117.181000000002
  0
ARC
  5
1083
330
1F
100
AcDbEntity
  8
0
  6
Continuous
 62
     7
100
AcDbCircle
 10
688.5206480958581
 20
146.5661201557872
 30
0.0
 40
5.899459999999999
100
AcDbArc
 50
219.8440000000015
 51
320.1559999999986
  0
LINE
  5
1084
330
1F
100
AcDbEntity
  8
AM_7
100
AcDbLine
 10
682.3456480958582
 20
144.3431201557871
 30
0.0
 11
694.7586480958582
 21
144.3431201557871
 31
0.0
  0
LINE
  5
1085
102
{ACAD_REACTORS
330
110A
330
1168
330
1381
330
13DC
102
}
330
1F
100
AcDbEntity
  8
0
  6
Continuous
 62
     7
100
AcDbLine
 10
659.9636480958581
 20
149.2561201557871
 30
0.0
 11
695.5206480958581
 21
149.2561201557871
 31
0.0
  0
ARC
  5
1086
330
1F
100
AcDbEntity
  8
0
  6
Continuous
 62
     7
100
AcDbCircle
 10
685.7706480958581
 20
144.1731201557871
 30
0.0
 40
2.256219999999999
100
AcDbArc
 50
117.1289999999999
 51
217.9389999999981
  0
LINE
  5
1087
330
1F
100
AcDbEntity
  8
0
  6
Continuous
 62
     7
100
AcDbLine
 10
659.9636480958581
 20
142.0281201557872
 30
0.0
 11
659.9636480958581
 21
149.2561201557871
 31
0.0
  0
LINE
  5
1088
330
1F
100
AcDbEntity
  8
0
  6
Continuous
 62
     7
100
AcDbLine
 10
657.5206480958581
 20
144.2561201557871
 30
0.0
 11
657.5206480958581
 21
146.2561201557871
 31
0.0
  0
LINE
  5
1089
330
1F
100
AcDbEntity
  8
0
  6
Continuous
 62
     7
100
AcDbLine
 10
658.5206480958581
 20
121.7271201557871
 30
0.0
 11
658.5206480958581
 21
146.7561201557871
 31
0.0
  0
ARC
  5
108A
330
1F
100
AcDbEntity
  8
0
  6
Continuous
 62
     7
100
AcDbCircle
 10
673.5206480958582
 20
131.9021201557872
 30
0.0
 40
5.0
100
AcDbArc
 50
180.0
 51
0.0
  0
LINE
  5
108B
330
1F
100
AcDbEntity
  8
AM_7
100
AcDbLine
 10
667.6356480958581
 20
131.9021201557872
 30
0.0
 11
679.5856480958582
 21
131.9021201557872
 31
0.0
  0
ARC
  5
108C
330
1F
100
AcDbEntity
  8
0
  6
Continuous
 62
     7
100
AcDbCircle
 10
673.5206480958582
 20
131.7181201557871
 30
0.0
 40
5.00339
100
AcDbArc
 50
2.10974000000059
 51
177.8899999999993
  0
LINE
  5
108D
330
1F
100
AcDbEntity
  8
0
  6
Continuous
 62
     7
100
AcDbLine
 10
657.5206480958581
 20
121.8541201557871
 30
0.0
 11
657.5206480958581
 21
122.8541201557871
 31
0.0
  0
LINE
  5
108E
330
1F
100
AcDbEntity
  8
0
  6
Continuous
 62
     7
100
AcDbLine
 10
655.5206480958581
 20
121.8541201557871
 30
0.0
 11
657.5206480958581
 21
121.8541201557871
 31
0.0
  0
LINE
  5
108F
330
1F
100
AcDbEntity
  8
0
  6
Continuous
 62
     7
100
AcDbLine
 10
655.5206480958581
 20
125.8541201557872
 30
0.0
 11
658.5206480958581
 21
125.8541201557872
 31
0.0
  0
LINE
  5
1090
330
1F
100
AcDbEntity
  8
0
  6
Continuous
 62
     7
100
AcDbLine
 10
655.5206480958581
 20
122.8541201557871
 30
0.0
 11
657.5206480958581
 21
122.8541201557871
 31
0.0
  0
LINE
  5
1091
330
1F
100
AcDbEntity
  8
0
  6
Continuous
 62
     7
100
AcDbLine
 10
662.5206480958581
 20
123.3901201557871
 30
0.0
 11
667.5206480958581
 21
123.3901201557871
 31
0.0
  0
LINE
  5
1092
330
1F
100
AcDbEntity
  8
0
  6
Continuous
 62
     7
100
AcDbLine
 10
662.5206480958581
 20
121.4521201557871
 30
0.0
 11
667.5206480958581
 21
121.4521201557871
 31
0.0
  0
LINE
  5
1093
330
1F
100
AcDbEntity
  8
0
  6
Continuous
 62
     7
100
AcDbLine
 10
659.9636480958581
 20
142.0281201557872
 30
0.0
 11
666.5206480958581
 21
142.0281201557872
 31
0.0
  0
LINE
  5
1094
330
1F
100
AcDbEntity
  8
0
  6
Continuous
 62
     7
100
AcDbLine
 10
659.9636480958581
 20
135.100120155787
 30
0.0
 11
666.5206480958581
 21
135.100120155787
 31
0.0
  0
LINE
  5
1095
330
1F
100
AcDbEntity
  8
0
  6
Continuous
 62
     7
100
AcDbLine
 10
659.9636480958581
 20
142.0281201557872
 30
0.0
 11
658.5206480958581
 21
140.7521201557871
 31
0.0
  0
LINE
  5
1096
330
1F
100
AcDbEntity
  8
0
  6
Continuous
 62
     7
100
AcDbLine
 10
658.5206480958581
 20
133.8241201557871
 30
0.0
 11
659.9636480958581
 21
135.100120155787
 31
0.0
  0
LINE
  5
1097
330
1F
100
AcDbEntity
  8
0
  6
Continuous
 62
     7
100
AcDbLine
 10
655.5206480958581
 20
138.2561201557871
 30
0.0
 11
655.5206480958581
 21
144.2561201557871
 31
0.0
  0
LINE
  5
1098
330
1F
100
AcDbEntity
  8
0
  6
Continuous
 62
     7
100
AcDbLine
 10
655.5206480958581
 20
138.2561201557871
 30
0.0
 11
658.5206480958581
 21
138.2561201557871
 31
0.0
  0
LINE
  5
1099
102
{ACAD_REACTORS
330
122C
330
1254
102
}
330
1F
100
AcDbEntity
  8
0
  6
Continuous
 62
     7
100
AcDbLine
 10
655.5206480958581
 20
144.2561201557871
 30
0.0
 11
657.5206480958581
 21
144.2561201557871
 31
0.0
  0
LINE
  5
109A
330
1F
100
AcDbEntity
  8
0
  6
Continuous
 62
     7
100
AcDbLine
 10
666.5206480958581
 20
135.100120155787
 30
0.0
 11
666.5206480958581
 21
142.0281201557872
 31
0.0
  0
ARC
  5
109B
330
1F
100
AcDbEntity
  8
0
  6
Continuous
 62
     7
100
AcDbCircle
 10
673.5206480958582
 20
131.7191201557872
 30
0.0
 40
2.76955
100
AcDbArc
 50
3.798220000001018
 51
176.2019999999993
  0
LINE
  5
109C
102
{ACAD_REACTORS
330
13B6
102
}
330
1F
100
AcDbEntity
  8
AM_7
100
AcDbLine
 10
673.5206480958582
 20
138.6311201557871
 30
0.0
 11
673.5206480958582
 21
124.9991201557872
 31
0.0
  0
ARC
  5
109D
330
1F
100
AcDbEntity
  8
0
  6
Continuous
 62
     7
100
AcDbCircle
 10
673.5206480958582
 20
132.0861201557872
 30
0.0
 40
2.76955
100
AcDbArc
 50
183.7980000000007
 51
356.2019999999993
  0
LINE
  5
109E
330
1F
100
AcDbEntity
  8
0
  6
Continuous
 62
     7
100
AcDbLine
 10
655.5206480958581
 20
152.2561201557871
 30
0.0
 11
667.5206480958581
 21
152.2561201557871
 31
0.0
  0
LINE
  5
109F
102
{ACAD_REACTORS
330
1140
330
1168
102
}
330
1F
100
AcDbEntity
  8
0
  6
Continuous
 62
     7
100
AcDbLine
 10
658.5206480958581
 20
146.7561201557871
 30
0.0
 11
659.9636480958581
 21
149.2561201557871
 31
0.0
  0
LINE
  5
10A0
102
{ACAD_REACTORS
330
110A
330
1140
330
1206
102
}
330
1F
100
AcDbEntity
  8
0
  6
Continuous
 62
     7
100
AcDbLine
 10
655.5206480958581
 20
146.2561201557871
 30
0.0
 11
655.5206480958581
 21
152.2561201557871
 31
0.0
  0
LINE
  5
10A1
102
{ACAD_REACTORS
330
1254
102
}
330
1F
100
AcDbEntity
  8
0
  6
Continuous
 62
     7
100
AcDbLine
 10
655.5206480958581
 20
146.2561201557871
 30
0.0
 11
657.5206480958581
 21
146.2561201557871
 31
0.0
  0
LINE
  5
10A2
330
1F
100
AcDbEntity
  8
0
  6
Continuous
 62
     7
100
AcDbLine
 10
667.5206480958581
 20
149.2561201557871
 30
0.0
 11
667.5206480958581
 21
152.2561201557871
 31
0.0
  0
LINE
  5
10A3
330
1F
100
AcDbEntity
  8
0
  6
Continuous
 62
     7
100
AcDbLine
 10
662.5206480958581
 20
149.2561201557871
 30
0.0
 11
662.5206480958581
 21
152.2561201557871
 31
0.0
  0
ARC
  5
10A4
330
1F
100
AcDbEntity
  8
0
  6
Continuous
 62
     7
100
AcDbCircle
 10
691.2706480958582
 20
144.1731201557871
 30
0.0
 40
2.256089999999999
100
AcDbArc
 50
322.0599999999978
 51
62.86770000000105
  0
ARC
  5
10A5
330
1F
100
AcDbEntity
  8
0
  6
Continuous
 62
     7
100
AcDbCircle
 10
689.8726480958581
 20
143.7141201557871
 30
0.0
 40
1.41551
100
AcDbArc
 50
316.9040000000024
 51
58.65290000000014
  0
ARC
  5
10A6
330
1F
100
AcDbEntity
  8
0
  6
Continuous
 62
     7
100
AcDbCircle
 10
687.1686480958581
 20
143.7141201557871
 30
0.0
 40
1.41554
100
AcDbArc
 50
121.3490000000024
 51
223.0910000000024
  0
LINE
  5
10A7
102
{ACAD_REACTORS
330
1381
330
13B6
102
}
330
1F
100
AcDbEntity
  8
AM_7
100
AcDbLine
 10
688.5206480958581
 20
148.8271201557871
 30
0.0
 11
688.5206480958581
 21
138.6311201557871
 31
0.0
  0
POINT
  5
10A8
330
1F
100
AcDbEntity
  8
0
100
AcDbPoint
 10
695.5206480958581
 20
128.2561201557871
 30
0.0
  0
ARC
  5
10A9
330
1F
100
AcDbEntity
  8
0
  6
Continuous
 62
     7
100
AcDbCircle
 10
688.5206480958581
 20
145.7101201557872
 30
0.0
 40
3.80359
100
AcDbArc
 50
231.1590000000033
 51
308.8409999999967
  0
ARC
  5
10AA
330
1F
100
AcDbEntity
  8
0
  6
Continuous
 62
     7
100
AcDbCircle
 10
688.5206480958581
 20
141.495120155787
 30
0.0
 40
4.013569999999999
100
AcDbArc
 50
58.65290000000014
 51
121.3490000000024
  0
DIMENSION
  5
10FC
102
{ACAD_XDICTIONARY
360
1109
102
}
102
{ACAD_REACTORS
330
110A
102
}
330
1F
100
AcDbEntity
  8
AM_5
100
AcDbDimension
  2
*D2
 10
695.5206480958581
 20
176.075090718293
 30
0.0
 11
675.5206480958581
 21
178.375090718293
 31
0.0
 70
    32
 71
     5
 42
40.0
  3
AM_ISO$0
100
AcDbAlignedDimension
 13
655.5206480958581
 23
152.2561201557871
 33
0.0
 14
695.5206480958581
 24
149.2561201557871
 34
0.0
100
AcDbRotatedDimension
  0
DIMENSION
  5
1130
102
{ACAD_XDICTIONARY
360
113F
102
}
102
{ACAD_REACTORS
330
1140
102
}
330
1F
100
AcDbEntity
  8
AM_5
100
AcDbDimension
  2
*D3
 10
658.5206480958581
 20
170.075090718293
 30
0.0
 11
649.0585160615022
 21
170.075090718293
 31
0.0
 70
   160
 71
     5
 42
3.0
  3
AM_ISO$0
100
AcDbAlignedDimension
 13
655.5206480958581
 23
152.2561201557871
 33
0.0
 14
658.5206480958581
 24
146.7561201557871
 34
0.0
100
AcDbRotatedDimension
1001
ACAD
1000
DSTYLE
1002
{
1070
    40
1040
1.0
1070
   144
1040
1.0
1002
}
  0
DIMENSION
  5
115A
102
{ACAD_XDICTIONARY
360
1167
102
}
102
{ACAD_REACTORS
330
1168
102
}
330
1F
100
AcDbEntity
  8
AM_5
100
AcDbDimension
  2
*D4
 10
695.5206480958581
 20
170.075090718293
 30
0.0
 11
677.0206480958582
 21
172.375090718293
 31
0.0
 70
    32
 71
     5
 42
37.0
  3
AM_ISO$0
100
AcDbAlignedDimension
 13
658.5206480958581
 23
146.7561201557871
 33
0.0
 14
695.5206480958581
 24
149.2561201557871
 34
0.0
100
AcDbRotatedDimension
  0
DIMENSION
  5
11F8
102
{ACAD_XDICTIONARY
360
1205
102
}
102
{ACAD_REACTORS
330
1206
102
}
330
1F
100
AcDbEntity
  8
AM_5
100
AcDbDimension
  2
*D5
 10
637.5206480958582
 20
152.2561201557871
 30
0.0
 11
635.2203528202677
 21
140.2561201557872
 31
0.0
 70
    32
 71
     5
 42
24.0
  3
AM_ISO$0
100
AcDbAlignedDimension
 13
652.5206480958582
 23
128.2561201557871
 33
0.0
 14
655.5206480958581
 24
152.2561201557871
 34
0.0
 50
90.00000000000003
100
AcDbRotatedDimension
  0
DIMENSION
  5
121E
102
{ACAD_XDICTIONARY
360
122B
102
}
102
{ACAD_REACTORS
330
122C
102
}
330
1F
100
AcDbEntity
  8
AM_5
100
AcDbDimension
  2
*D6
 10
643.5206480958583
 20
144.2561201557871
 30
0.0
 11
641.2206480958583
 21
136.2561201557872
 31
0.0
 70
    32
 71
     5
 42
16.0
  3
AM_ISO$0
100
AcDbAlignedDimension
 13
652.5206480958582
 23
128.2561201557871
 33
0.0
 14
655.5206480958581
 24
144.2561201557871
 34
0.0
 50
90.00000000000003
100
AcDbRotatedDimension
  0
DIMENSION
  5
1244
102
{ACAD_XDICTIONARY
360
1253
102
}
102
{ACAD_REACTORS
330
1254
102
}
330
1F
100
AcDbEntity
  8
AM_5
100
AcDbDimension
  2
*D7
 10
643.5206480958582
 20
146.2561201557871
 30
0.0
 11
643.5206480958582
 21
156.3243367169748
 31
0.0
 70
   160
  1
<>{}{\C2; H9}
 71
     5
 42
2.0
  3
AM_ISO$0
100
AcDbAlignedDimension
 13
655.5206480958581
 23
144.2561201557871
 33
0.0
 14
655.5206480958581
 24
146.2561201557871
 34
0.0
 50
90.00000000000003
100
AcDbRotatedDimension
1001
GENIUS_GENDTOL_13
1000
FitTxt
1000
H9
1000
{$3 $T}
1040
2.0
1001
ACAD
1000
DSTYLE
1002
{
1070
   286
1070
     0
1070
   284
1070
     8
1070
    48
1040
0.1
1070
    47
1040
0.1
1070
   272
1070
     3
1070
   274
1070
     3
1002
}
  0
DIMENSION
  5
1373
102
{ACAD_XDICTIONARY
360
1380
102
}
102
{ACAD_REACTORS
330
1381
102
}
330
1F
100
AcDbEntity
  8
AM_5
100
AcDbDimension
  2
*D8
 10
695.5206480958581
 20
164.075090718293
 30
0.0
 11
692.0206480958581
 21
166.375090718293
 31
0.0
 70
    32
 71
     5
 42
7.0
  3
AM_ISO$0
100
AcDbAlignedDimension
 13
688.5206480958581
 23
148.8271201557871
 33
0.0
 14
695.5206480958581
 24
149.2561201557871
 34
0.0
100
AcDbRotatedDimension
  0
DIMENSION
  5
13A8
102
{ACAD_XDICTIONARY
360
13B5
102
}
102
{ACAD_REACTORS
330
13B6
102
}
330
1F
100
AcDbEntity
  8
AM_5
100
AcDbDimension
  2
*D9
 10
688.5206480958581
 20
164.075090718293
 30
0.0
 11
681.0206480958582
 21
166.375090718293
 31
0.0
 70
    32
 71
     5
 42
15.0
  3
AM_ISO$0
100
AcDbAlignedDimension
 13
673.5206480958582
 23
138.6311201557871
 33
0.0
 14
688.5206480958581
 24
148.8271201557871
 34
0.0
100
AcDbRotatedDimension
  0
DIMENSION
  5
13CE
102
{ACAD_XDICTIONARY
360
13DB
102
}
102
{ACAD_REACTORS
330
13DC
102
}
330
1F
100
AcDbEntity
  8
AM_5
100
AcDbDimension
  2
*D10
 10
707.5206480958581
 20
149.2561201557871
 30
0.0
 11
705.2203528202676
 21
128.2561201557872
 31
0.0
 70
    32
  1
%%c<>
 71
     5
 42
41.99999999999998
  3
AM_ISO$0
100
AcDbAlignedDimension
 13
695.5206480958581
 23
107.2561201557871
 33
0.0
 14
695.5206480958581
 24
149.2561201557871
 34
0.0
 50
90.00000000000003
100
AcDbRotatedDimension
  0
DIMENSION
  5
13F4
102
{ACAD_XDICTIONARY
360
1403
102
}
102
{ACAD_REACTORS
330
1404
102
}
330
1F
100
AcDbEntity
  8
AM_5
100
AcDbDimension
  2
*D11
 10
667.5206480958581
 20
20.97814541072737
 30
0.0
 11
665.0206480958582
 21
23.27814541072737
 31
0.0
 70
    32
 71
     5
 42
5.0
  3
AM_ISO$0
100
AcDbAlignedDimension
 13
662.5206480958581
 23
30.1941454107274
 33
0.0
 14
667.5206480958581
 24
30.1941454107274
 34
0.0
 50
0.0000000000001132
100
AcDbRotatedDimension
1001
ACAD
1000
DSTYLE
1002
{
1070
    40
1040
1.0
1070
   144
1040
1.0
1002
}
  0
DIMENSION
  5
141E
102
{ACAD_XDICTIONARY
360
142B
102
}
102
{ACAD_REACTORS
330
142C
102
}
330
1F
100
AcDbEntity
  8
AM_5
100
AcDbDimension
  2
*D12
 10
695.5206480958581
 20
20.97814541072743
 30
0.0
 11
681.5206480958582
 21
23.27844068631797
 31
0.0
 70
    32
 71
     5
 42
28.0
  3
AM_ISO$0
100
AcDbAlignedDimension
 13
667.5206480958581
 23
30.1941454107274
 33
0.0
 14
695.5206480958581
 24
32.97814541072739
 34
0.0
 50
0.0000000000001132
100
AcDbRotatedDimension
1001
ACAD
1000
DSTYLE
1002
{
1070
    40
1040
1.0
1070
   144
1040
1.0
1002
}
  0
DIMENSION
  5
1444
102
{ACAD_XDICTIONARY
360
1453
102
}
102
{ACAD_REACTORS
330
1454
102
}
330
1F
100
AcDbEntity
  8
AM_5
100
AcDbDimension
  2
*D13
 10
616.1197397038825
 20
24.30185559608606
 30
0.0
 11
612.3717170909063
 21
24.79371989886715
 31
0.0
 70
    32
 71
     5
 42
5.999867998458285
  3
AM_ISO$0
100
AcDbAlignedDimension
 13
604.9236480958583
 23
31.69414541072749
 33
0.0
 14
610.1195855982101
 24
34.69425365802002
 34
0.0
 50
30.0004146783232
100
AcDbRotatedDimension
1001
ACAD
1000
DSTYLE
1002
{
1070
    40
1040
1.0
1070
   144
1040
1.0
1002
}
  0
DIMENSION
  5
146E
102
{ACAD_XDICTIONARY
360
147B
102
}
102
{ACAD_REACTORS
330
147C
102
}
330
1F
100
AcDbEntity
  8
AM_5
100
AcDbDimension
  2
*D14
 10
582.5196480958582
 20
20.97814440072738
 30
0.0
 11
578.5196480958582
 21
23.27814440072739
 31
0.0
 70
    32
 71
     5
 42
8.0
  3
AM_ISO$0
100
AcDbAlignedDimension
 13
574.5196480958582
 23
51.65414541072738
 33
0.0
 14
582.5196480958582
 24
51.85914541072737
 34
0.0
 50
0.0000000000001132
100
AcDbRotatedDimension
1001
ACAD
1000
DSTYLE
1002
{
1070
    40
1040
1.0
1070
   144
1040
1.0
1002
}
  0
DIMENSION
  5
1494
102
{ACAD_XDICTIONARY
360
14A3
102
}
102
{ACAD_REACTORS
330
14A4
102
}
330
1F
100
AcDbEntity
  8
AM_5
100
AcDbDimension
  2
*D15
 10
585.5196480958581
 20
20.97814440072738
 30
0.0
 11
584.0196480958582
 21
23.27814440072739
 31
0.0
 70
    32
 71
     5
 42
3.0
  3
AM_ISO$0
100
AcDbAlignedDimension
 13
582.5196480958582
 23
51.85914541072737
 33
0.0
 14
585.5196480958581
 24
50.9781454107274
 34
0.0
 50
0.0000000000001132
100
AcDbRotatedDimension
1001
ACAD
1000
DSTYLE
1002
{
1070
    40
1040
1.0
1070
   144
1040
1.0
1002
}
  0
DIMENSION
  5
14BE
102
{ACAD_XDICTIONARY
360
14CB
102
}
102
{ACAD_REACTORS
330
14CC
102
}
330
1F
100
AcDbEntity
  8
AM_5
100
AcDbDimension
  2
*D16
 10
564.1812814882317
 20
59.97814541072739
 30
0.0
 11
561.880986212641
 21
53.97814541072748
 31
0.0
 70
    32
 71
     5
 42
12.0
  3
AM_ISO$0
100
AcDbAlignedDimension
 13
571.5196480958582
 23
47.97814541072739
 33
0.0
 14
571.5196480958582
 24
59.97814541072739
 34
0.0
 50
90.00000000000003
100
AcDbRotatedDimension
1001
ACAD
1000
DSTYLE
1002
{
1070
    40
1040
1.0
1070
   144
1040
1.0
1002
}
  0
ARC
  5
19C6
330
1F
100
AcDbEntity
  8
AM_4
100
AcDbCircle
 10
780.1578797875181
 20
53.97814541072739
 30
0.0
 40
2.0
100
AcDbArc
 50
260.0
 51
170.0
  0
CIRCLE
  5
19C7
330
1F
100
AcDbEntity
  8
AM_0
100
AcDbCircle
 10
780.1578797875181
 20
53.97814541072739
 30
0.0
 40
1.621113885844339
  0
LINE
  5
19ED
330
1F
100
AcDbEntity
  8
AM_7
  6
AM_ISO08W050x2
100
AcDbLine
 10
780.1578797875181
 20
53.97814541072739
 30
0.0
 11
783.1578797875181
 21
53.97814541072739
 31
0.0
1001
GENIUS_GENOREF_13
1005
19F1
  0
LINE
  5
19EE
330
1F
100
AcDbEntity
  8
AM_7
  6
AM_ISO08W050x2
100
AcDbLine
 10
780.1578797875181
 20
53.97814541072739
 30
0.0
 11
780.1578797875181
 21
56.97814541072739
 31
0.0
1001
GENIUS_GENOREF_13
1005
19F1
  0
LINE
  5
19EF
330
1F
100
AcDbEntity
  8
AM_7
  6
AM_ISO08W050x2
100
AcDbLine
 10
780.1578797875181
 20
53.97814541072739
 30
0.0
 11
777.1578797875181
 21
53.97814541072739
 31
0.0
1001
GENIUS_GENOREF_13
1005
19F1
  0
LINE
  5
19F0
330
1F
100
AcDbEntity
  8
AM_7
  6
AM_ISO08W050x2
100
AcDbLine
 10
780.1578797875181
 20
53.97814541072739
 30
0.0
 11
780.1578797875181
 21
50.9781454107274
 31
0.0
1001
GENIUS_GENOREF_13
1005
19F1
  0
POINT
  5
19F1
330
1F
100
AcDbEntity
  8
0
 60
     1
100
AcDbPoint
 10
0.0
 20
0.0
 30
0.0
1001
GENIUS_GENODEF_13
1002
{
1000
HIER
1070
    10
1002
}
1002
{
1000
MANEDIT
1070
     0
1002
}
1002
{
1000
NOSEL
1070
     0
1002
}
1002
{
1000
BEHIND
1070
     0
1002
}
1002
{
1000
OTHER
1070
     0
1002
}
1002
{
1000
REACTOR
1002
}
1001
GENIUS_GENOLIS_13
1002
{
1000
ENT
1005
19F0
1005
19EF
1005
19EE
1005
19ED
1002
}
1001
GENIUS_GENOENT_13
1002
{
1000
MYREF
1005
19F1
1002
}
1002
{
1000
GRP
1005
0
1002
}
1001
GENIUS_GENOBJ-N-CRS_13
1002
{
1000
OWNER
1000
GEN
1002
}
  0
ARC
  5
1A15
330
1F
100
AcDbEntity
  8
AM_4
100
AcDbCircle
 10
754.657879787518
 20
68.70057727506292
 30
0.0
 40
2.0
100
AcDbArc
 50
20.00000000000001
 51
290.0
  0
CIRCLE
  5
1A16
330
1F
100
AcDbEntity
  8
AM_0
100
AcDbCircle
 10
754.657879787518
 20
68.70057727506292
 30
0.0
 40
1.621113885844339
  0
LINE
  5
1A17
330
1F
100
AcDbEntity
  8
AM_7
  6
AM_ISO08W050x2
100
AcDbLine
 10
754.6578797875181
 20
68.70057727506287
 30
0.0
 11
753.1578797875181
 21
71.29865348641613
 31
0.0
1001
GENIUS_GENOREF_13
1005
1A1B
  0
LINE
  5
1A18
330
1F
100
AcDbEntity
  8
AM_7
  6
AM_ISO08W050x2
100
AcDbLine
 10
754.6578797875181
 20
68.70057727506287
 30
0.0
 11
752.0598035761647
 21
67.20057727506286
 31
0.0
1001
GENIUS_GENOREF_13
1005
1A1B
  0
LINE
  5
1A19
330
1F
100
AcDbEntity
  8
AM_7
  6
AM_ISO08W050x2
100
AcDbLine
 10
754.6578797875181
 20
68.70057727506287
 30
0.0
 11
756.1578797875181
 21
66.1025010637095
 31
0.0
1001
GENIUS_GENOREF_13
1005
1A1B
  0
LINE
  5
1A1A
330
1F
100
AcDbEntity
  8
AM_7
  6
AM_ISO08W050x2
100
AcDbLine
 10
754.6578797875181
 20
68.70057727506287
 30
0.0
 11
757.2559559988714
 21
70.20057727506287
 31
0.0
1001
GENIUS_GENOREF_13
1005
1A1B
  0
POINT
  5
1A1B
330
1F
100
AcDbEntity
  8
0
 60
     1
100
AcDbPoint
 10
1217.527417318647
 20
-594.9834913132162
 30
0.0
1001
GENIUS_GENODEF_13
1002
{
1000
HIER
1070
    10
1002
}
1002
{
1000
MANEDIT
1070
     0
1002
}
1002
{
1000
NOSEL
1070
     0
1002
}
1002
{
1000
BEHIND
1070
     0
1002
}
1002
{
1000
OTHER
1070
     0
1002
}
1002
{
1000
REACTOR
1002
}
1001
GENIUS_GENOLIS_13
1002
{
1000
ENT
1005
1A1A
1005
1A19
1005
1A18
1005
1A17
1002
}
1001
GENIUS_GENOENT_13
1002
{
1000
MYREF
1005
1A1B
1002
}
1002
{
1000
GRP
1005
0
1002
}
1001
GENIUS_GENOBJ-N-CRS_13
1002
{
1000
OWNER
1000
GEN
1002
}
  0
ARC
  5
1A1C
330
1F
100
AcDbEntity
  8
AM_4
100
AcDbCircle
 10
754.6578797875183
 20
39.25571354639203
 30
0.0
 40
2.0
100
AcDbArc
 50
140.0
 51
50.0
  0
CIRCLE
  5
1A1D
330
1F
100
AcDbEntity
  8
AM_0
100
AcDbCircle
 10
754.6578797875183
 20
39.25571354639203
 30
0.0
 40
1.621113885844339
  0
LINE
  5
1A1E
330
1F
100
AcDbEntity
  8
AM_7
  6
AM_ISO08W050x2
100
AcDbLine
 10
754.6578797875181
 20
39.25571354639203
 30
0.0
 11
753.1578797875181
 21
36.65763733503866
 31
0.0
1001
GENIUS_GENOREF_13
1005
1A22
  0
LINE
  5
1A1F
330
1F
100
AcDbEntity
  8
AM_7
  6
AM_ISO08W050x2
100
AcDbLine
 10
754.6578797875181
 20
39.25571354639203
 30
0.0
 11
757.2559559988714
 21
37.75571354639203
 31
0.0
1001
GENIUS_GENOREF_13
1005
1A22
  0
LINE
  5
1A20
330
1F
100
AcDbEntity
  8
AM_7
  6
AM_ISO08W050x2
100
AcDbLine
 10
754.6578797875181
 20
39.25571354639203
 30
0.0
 11
756.1578797875181
 21
41.85378975774528
 31
0.0
1001
GENIUS_GENOREF_13
1005
1A22
  0
LINE
  5
1A21
330
1F
100
AcDbEntity
  8
AM_7
  6
AM_ISO08W050x2
100
AcDbLine
 10
754.6578797875181
 20
39.25571354639203
 30
0.0
 11
752.0598035761649
 21
40.75571354639203
 31
0.0
1001
GENIUS_GENOREF_13
1005
1A22
  0
POINT
  5
1A22
330
1F
100
AcDbEntity
  8
0
 60
     1
100
AcDbPoint
 10
1124.034526968927
 20
756.9179275453982
 30
0.0
1001
GENIUS_GENODEF_13
1002
{
1000
HIER
1070
    10
1002
}
1002
{
1000
MANEDIT
1070
     0
1002
}
1002
{
1000
NOSEL
1070
     0
1002
}
1002
{
1000
BEHIND
1070
     0
1002
}
1002
{
1000
OTHER
1070
     0
1002
}
1002
{
1000
REACTOR
1002
}
1001
GENIUS_GENOLIS_13
1002
{
1000
ENT
1005
1A21
1005
1A20
1005
1A1F
1005
1A1E
1002
}
1001
GENIUS_GENOENT_13
1002
{
1000
MYREF
1005
1A22
1002
}
1002
{
1000
GRP
1005
0
1002
}
1001
GENIUS_GENOBJ-N-CRS_13
1002
{
1000
OWNER
1000
GEN
1002
}
  0
CIRCLE
  5
1A23
330
1F
100
AcDbEntity
  8
0
100
AcDbCircle
 10
746.1578797875181
 20
53.97814541072739
 30
0.0
 40
2.25
  0
LINE
  5
1A31
330
1F
100
AcDbEntity
  8
AM_7
  6
AM_ISO08W050x2
100
AcDbLine
 10
746.1578797875181
 20
53.97814541072739
 30
0.0
 11
749.4078797875181
 21
53.97814541072739
 31
0.0
1001
GENIUS_GENOREF_13
1005
1A35
  0
LINE
  5
1A33
330
1F
100
AcDbEntity
  8
AM_7
  6
AM_ISO08W050x2
100
AcDbLine
 10
746.1578797875181
 20
53.97814541072739
 30
0.0
 11
742.9078797875181
 21
53.97814541072739
 31
0.0
1001
GENIUS_GENOREF_13
1005
1A35
  0
POINT
  5
1A35
330
1F
100
AcDbEntity
  8
0
 60
     1
100
AcDbPoint
 10
0.0
 20
0.0
 30
0.0
1001
GENIUS_GENOBJ-N-CRS_13
1002
{
1000
OWNER
1000
GEN
1002
}
1001
GENIUS_GENOENT_13
1002
{
1000
MYREF
1005
1A35
1002
}
1002
{
1000
GRP
1005
0
1002
}
1001
GENIUS_GENOLIS_13
1002
{
1000
ENT
1005
1A34
1005
1A33
1005
1A32
1005
1A31
1002
}
1001
GENIUS_GENODEF_13
1002
{
1000
HIER
1070
    10
1002
}
1002
{
1000
MANEDIT
1070
     1
1002
}
1002
{
1000
NOSEL
1070
     0
1002
}
1002
{
1000
BEHIND
1070
     0
1002
}
1002
{
1000
OTHER
1070
     0
1002
}
1002
{
1000
REACTOR
1002
}
  0
LINE
  5
1A44
330
1F
100
AcDbEntity
  8
AM_7
  6
AM_ISO08W050x2
100
AcDbLine
 10
746.1578797875181
 20
53.97814541072739
 30
0.0
 11
749.4078797875181
 21
53.97814541072739
 31
0.0
1001
GENIUS_GENOREF_13
1005
1A48
  0
LINE
  5
1A45
330
1F
100
AcDbEntity
  8
AM_7
  6
AM_ISO08W050x2
100
AcDbLine
 10
746.1578797875181
 20
53.97814541072739
 30
0.0
 11
746.1578797875181
 21
57.2281454107274
 31
0.0
1001
GENIUS_GENOREF_13
1005
1A48
  0
LINE
  5
1A46
330
1F
100
AcDbEntity
  8
AM_7
  6
AM_ISO08W050x2
100
AcDbLine
 10
746.1578797875181
 20
53.97814541072739
 30
0.0
 11
742.9078797875181
 21
53.97814541072739
 31
0.0
1001
GENIUS_GENOREF_13
1005
1A48
  0
LINE
  5
1A47
330
1F
100
AcDbEntity
  8
AM_7
  6
AM_ISO08W050x2
100
AcDbLine
 10
746.1578797875181
 20
53.97814541072739
 30
0.0
 11
746.1578797875181
 21
50.72814541072739
 31
0.0
1001
GENIUS_GENOREF_13
1005
1A48
  0
POINT
  5
1A48
330
1F
100
AcDbEntity
  8
0
 60
     1
100
AcDbPoint
 10
0.0
 20
0.0
 30
0.0
1001
GENIUS_GENODEF_13
1002
{
1000
HIER
1070
    10
1002
}
1002
{
1000
MANEDIT
1070
     0
1002
}
1002
{
1000
NOSEL
1070
     0
1002
}
1002
{
1000
BEHIND
1070
     0
1002
}
1002
{
1000
OTHER
1070
     0
1002
}
1002
{
1000
REACTOR
1002
}
1001
GENIUS_GENOENT_13
1002
{
1000
MYREF
1005
1A48
1002
}
1002
{
1000
GRP
1005
0
1002
}
1001
GENIUS_GENOBJ-N-CRS_13
1002
{
1000
OWNER
1000
GEN
1002
}
1001
GENIUS_GENOLIS_13
1002
{
1000
ENT
1005
1A47
1005
1A46
1005
1A45
1005
1A44
1002
}
  0
CIRCLE
  5
1A49
330
1F
100
AcDbEntity
  8
0
100
AcDbCircle
 10
771.657879787518
 20
39.25571354639198
 30
0.0
 40
2.25
  0
LINE
  5
1A4A
330
1F
100
AcDbEntity
  8
AM_7
  6
AM_ISO08W050x2
100
AcDbLine
 10
771.6578797875181
 20
39.25571354639192
 30
0.0
 11
770.0328797875181
 21
42.0702961086913
 31
0.0
1001
GENIUS_GENOREF_13
1005
1A51
  0
LINE
  5
1A4B
330
1F
100
AcDbEntity
  8
AM_7
  6
AM_ISO08W050x2
100
AcDbLine
 10
771.6578797875181
 20
39.25571354639192
 30
0.0
 11
773.2828797875181
 21
36.44113098409253
 31
0.0
1001
GENIUS_GENOREF_13
1005
1A51
  0
LINE
  5
1A4C
330
1F
100
AcDbEntity
  8
AM_7
  6
AM_ISO08W050x2
100
AcDbLine
 10
771.6578797875181
 20
39.25571354639192
 30
0.0
 11
770.0328797875181
 21
42.0702961086913
 31
0.0
1001
GENIUS_GENOREF_13
1005
1A50
  0
LINE
  5
1A4D
330
1F
100
AcDbEntity
  8
AM_7
  6
AM_ISO08W050x2
100
AcDbLine
 10
771.6578797875181
 20
39.25571354639192
 30
0.0
 11
768.8432972252187
 21
37.63071354639192
 31
0.0
1001
GENIUS_GENOREF_13
1005
1A50
  0
LINE
  5
1A4E
330
1F
100
AcDbEntity
  8
AM_7
  6
AM_ISO08W050x2
100
AcDbLine
 10
771.6578797875181
 20
39.25571354639192
 30
0.0
 11
773.2828797875181
 21
36.44113098409253
 31
0.0
1001
GENIUS_GENOREF_13
1005
1A50
  0
LINE
  5
1A4F
330
1F
100
AcDbEntity
  8
AM_7
  6
AM_ISO08W050x2
100
AcDbLine
 10
771.6578797875181
 20
39.25571354639192
 30
0.0
 11
774.4724623498175
 21
40.88071354639192
 31
0.0
1001
GENIUS_GENOREF_13
1005
1A50
  0
POINT
  5
1A50
330
1F
100
AcDbEntity
  8
0
 60
     1
100
AcDbPoint
 10
1217.527417318647
 20
-594.9834913132162
 30
0.0
1001
GENIUS_GENODEF_13
1002
{
1000
HIER
1070
    10
1002
}
1002
{
1000
MANEDIT
1070
     0
1002
}
1002
{
1000
NOSEL
1070
     0
1002
}
1002
{
1000
BEHIND
1070
     0
1002
}
1002
{
1000
OTHER
1070
     0
1002
}
1002
{
1000
REACTOR
1002
}
1001
GENIUS_GENOENT_13
1002
{
1000
MYREF
1005
1A50
1002
}
1002
{
1000
GRP
1005
0
1002
}
1001
GENIUS_GENOBJ-N-CRS_13
1002
{
1000
OWNER
1000
GEN
1002
}
1001
GENIUS_GENOLIS_13
1002
{
1000
ENT
1005
1A4F
1005
1A4E
1005
1A4D
1005
1A4C
1002
}
  0
POINT
  5
1A51
330
1F
100
AcDbEntity
  8
0
 60
     1
100
AcDbPoint
 10
1217.527417318647
 20
-594.9834913132162
 30
0.0
1001
GENIUS_GENOBJ-N-CRS_13
1002
{
1000
OWNER
1000
GEN
1002
}
1001
GENIUS_GENOENT_13
1002
{
1000
MYREF
1005
1A51
1002
}
1002
{
1000
GRP
1005
0
1002
}
1001
GENIUS_GENOLIS_13
1002
{
1000
ENT
1005
1A34
1005
1A4B
1005
1A32
1005
1A4A
1002
}
1001
GENIUS_GENODEF_13
1002
{
1000
HIER
1070
    10
1002
}
1002
{
1000
MANEDIT
1070
     1
1002
}
1002
{
1000
NOSEL
1070
     0
1002
}
1002
{
1000
BEHIND
1070
     0
1002
}
1002
{
1000
OTHER
1070
     0
1002
}
1002
{
1000
REACTOR
1002
}
  0
CIRCLE
  5
1A52
330
1F
100
AcDbEntity
  8
0
100
AcDbCircle
 10
771.6578797875182
 20
68.70057727506292
 30
0.0
 40
2.25
  0
LINE
  5
1A53
330
1F
100
AcDbEntity
  8
AM_7
  6
AM_ISO08W050x2
100
AcDbLine
 10
771.6578797875181
 20
68.70057727506287
 30
0.0
 11
770.0328797875181
 21
65.88599471276348
 31
0.0
1001
GENIUS_GENOREF_13
1005
1A5A
  0
LINE
  5
1A54
330
1F
100
AcDbEntity
  8
AM_7
  6
AM_ISO08W050x2
100
AcDbLine
 10
771.6578797875181
 20
68.70057727506287
 30
0.0
 11
773.2828797875181
 21
71.51515983736226
 31
0.0
1001
GENIUS_GENOREF_13
1005
1A5A
  0
LINE
  5
1A55
330
1F
100
AcDbEntity
  8
AM_7
  6
AM_ISO08W050x2
100
AcDbLine
 10
771.6578797875181
 20
68.70057727506287
 30
0.0
 11
752.6578797875179
 21
35.79161193125431
 31
0.0
1001
GENIUS_GENOREF_13
1005
1A59
  0
LINE
  5
1A56
330
1F
100
AcDbEntity
  8
AM_7
  6
AM_ISO08W050x2
100
AcDbLine
 10
771.6578797875181
 20
68.70057727506287
 30
0.0
 11
774.4724623498176
 21
67.07557727506287
 31
0.0
1001
GENIUS_GENOREF_13
1005
1A59
  0
LINE
  5
1A57
102
{ACAD_REACTORS
330
1F48
330
1F7B
330
1FAF
102
}
330
1F
100
AcDbEntity
  8
AM_7
  6
AM_ISO08W050x2
100
AcDbLine
 10
771.6578797875181
 20
68.70057727506287
 30
0.0
 11
773.2828797875181
 21
71.51515983736226
 31
0.0
1001
GENIUS_GENOREF_13
1005
1A59
  0
LINE
  5
1A58
330
1F
100
AcDbEntity
  8
AM_7
  6
AM_ISO08W050x2
100
AcDbLine
 10
771.6578797875181
 20
68.70057727506287
 30
0.0
 11
768.8432972252187
 21
70.32557727506286
 31
0.0
1001
GENIUS_GENOREF_13
1005
1A59
  0
POINT
  5
1A59
330
1F
100
AcDbEntity
  8
0
 60
     1
100
AcDbPoint
 10
1124.034526968927
 20
756.9179275453982
 30
0.0
1001
GENIUS_GENODEF_13
1002
{
1000
HIER
1070
    10
1002
}
1002
{
1000
MANEDIT
1070
     0
1002
}
1002
{
1000
NOSEL
1070
     0
1002
}
1002
{
1000
BEHIND
1070
     0
1002
}
1002
{
1000
OTHER
1070
     0
1002
}
1002
{
1000
REACTOR
1002
}
1001
GENIUS_GENOENT_13
1002
{
1000
MYREF
1005
1A59
1002
}
1002
{
1000
GRP
1005
0
1002
}
1001
GENIUS_GENOBJ-N-CRS_13
1002
{
1000
OWNER
1000
GEN
1002
}
1001
GENIUS_GENOLIS_13
1002
{
1000
ENT
1005
1A58
1005
1A57
1005
1A56
1005
1A55
1002
}
  0
POINT
  5
1A5A
330
1F
100
AcDbEntity
  8
0
 60
     1
100
AcDbPoint
 10
1124.034526968927
 20
756.9179275453982
 30
0.0
1001
GENIUS_GENOBJ-N-CRS_13
1002
{
1000
OWNER
1000
GEN
1002
}
1001
GENIUS_GENOENT_13
1002
{
1000
MYREF
1005
1A5A
1002
}
1002
{
1000
GRP
1005
0
1002
}
1001
GENIUS_GENOLIS_13
1002
{
1000
ENT
1005
1A34
1005
1A54
1005
1A32
1005
1A53
1002
}
1001
GENIUS_GENODEF_13
1002
{
1000
HIER
1070
    10
1002
}
1002
{
1000
MANEDIT
1070
     1
1002
}
1002
{
1000
NOSEL
1070
     0
1002
}
1002
{
1000
BEHIND
1070
     0
1002
}
1002
{
1000
OTHER
1070
     0
1002
}
1002
{
1000
REACTOR
1002
}
  0
ARC
  5
1A5B
330
1F
100
AcDbEntity
  8
0
100
AcDbCircle
 10
761.0694607119974
 20
38.11502762874643
 30
0.0
 40
1.5
100
AcDbArc
 50
352.5
 51
172.4999999999999
  0
ARC
  5
1A5C
330
1F
100
AcDbEntity
  8
0
100
AcDbCircle
 10
760.8084083275572
 20
36.13213790599879
 30
0.0
 40
1.5
100
AcDbArc
 50
172.4999999999999
 51
352.5
  0
LINE
  5
1A5D
330
1F
100
AcDbEntity
  8
0
100
AcDbLine
 10
759.5822934199367
 20
38.3108169170765
 30
0.0
 11
759.3212410354965
 21
36.32792719432888
 31
0.0
  0
LINE
  5
1A5E
330
1F
100
AcDbEntity
  8
0
100
AcDbLine
 10
762.5566280040581
 20
37.91923834041635
 30
0.0
 11
762.2955756196179
 21
35.93634861766873
 31
0.0
  0
LINE
  5
1A6C
330
1F
100
AcDbEntity
  8
AM_7
100
AcDbLine
 10
763.1578797875181
 20
53.97814541072739
 30
0.0
 11
785.1578797875181
 21
53.97814541072739
 31
0.0
1001
GENIUS_GENOREF_13
1005
1A70
  0
LINE
  5
1A6D
330
1F
100
AcDbEntity
  8
AM_7
100
AcDbLine
 10
763.1578797875181
 20
53.97814541072739
 30
0.0
 11
763.1578797875181
 21
75.9781454107274
 31
0.0
1001
GENIUS_GENOREF_13
1005
1A70
  0
LINE
  5
1A6E
330
1F
100
AcDbEntity
  8
AM_7
100
AcDbLine
 10
763.1578797875181
 20
53.97814541072739
 30
0.0
 11
741.1578797875181
 21
53.97814541072739
 31
0.0
1001
GENIUS_GENOREF_13
1005
1A70
  0
LINE
  5
1A6F
102
{ACAD_REACTORS
330
1C70
330
1C96
102
}
330
1F
100
AcDbEntity
  8
AM_7
100
AcDbLine
 10
763.1578797875181
 20
53.97814541072739
 30
0.0
 11
763.1578797875181
 21
31.9781454107274
 31
0.0
1001
GENIUS_GENOREF_13
1005
1A70
  0
POINT
  5
1A70
330
1F
100
AcDbEntity
  8
0
 60
     1
100
AcDbPoint
 10
0.0
 20
0.0
 30
0.0
1001
GENIUS_GENOBJ-N-CRS_13
1002
{
1000
OWNER
1000
GEN
1002
}
1001
GENIUS_GENODEF_13
1002
{
1000
HIER
1070
    10
1002
}
1002
{
1000
MANEDIT
1070
     0
1002
}
1002
{
1000
NOSEL
1070
     0
1002
}
1002
{
1000
BEHIND
1070
     0
1002
}
1002
{
1000
OTHER
1070
     0
1002
}
1002
{
1000
REACTOR
1002
}
1001
GENIUS_GENOLIS_13
1002
{
1000
ENT
1005
1A6F
1005
1A6E
1005
1A6D
1005
1A6C
1002
}
1001
GENIUS_GENOENT_13
1002
{
1000
MYREF
1005
1A70
1002
}
1002
{
1000
GRP
1005
0
1002
}
  0
CIRCLE
  5
1A9F
102
{ACAD_REACTORS
330
1C96
102
}
330
1F
100
AcDbEntity
  8
0
100
AcDbCircle
 10
765.376825055259
 20
70.83270805408218
 30
0.0
 40
1.5
  0
LINE
  5
1AAD
330
1F
100
AcDbEntity
  8
AM_7
  6
AM_ISO08W050x2
100
AcDbLine
 10
765.3768250552591
 20
70.83270805408216
 30
0.0
 11
767.8554372086935
 21
70.50639257353203
 31
0.0
1001
GENIUS_GENOREF_13
1005
1AB1
  0
LINE
  5
1AAE
330
1F
100
AcDbEntity
  8
AM_7
  6
AM_ISO08W050x2
100
AcDbLine
 10
765.3768250552591
 20
70.83270805408216
 30
0.0
 11
765.7031405358091
 21
73.3113202075167
 31
0.0
1001
GENIUS_GENOREF_13
1005
1AB1
  0
LINE
  5
1AAF
330
1F
100
AcDbEntity
  8
AM_7
  6
AM_ISO08W050x2
100
AcDbLine
 10
763.1578797875181
 20
70.9781454107274
 30
0.0
 11
760.6578797875181
 21
70.9781454107274
 31
0.0
1001
GENIUS_GENOREF_13
1005
1AB1
  0
LINE
  5
1AB0
330
1F
100
AcDbEntity
  8
AM_7
  6
AM_ISO08W050x2
100
AcDbLine
 10
765.3768250552591
 20
70.83270805408216
 30
0.0
 11
765.0505095747089
 21
68.35409590064762
 31
0.0
1001
GENIUS_GENOREF_13
1005
1AB1
  0
POINT
  5
1AB1
330
1F
100
AcDbEntity
  8
0
 60
     1
100
AcDbPoint
 10
0.0
 20
0.0
 30
0.0
1001
GENIUS_GENOLIS_13
1002
{
1000
ENT
1005
1AB0
1005
1AAF
1005
1AAE
1005
1AAD
1002
}
1001
GENIUS_GENOENT_13
1002
{
1000
MYREF
1005
1AB1
1002
}
1002
{
1000
GRP
1005
0
1002
}
1001
GENIUS_GENOBJ-N-CRS_13
1002
{
1000
OWNER
1000
GEN
1002
}
1001
GENIUS_GENODEF_13
1002
{
1000
HIER
1070
    10
1002
}
1002
{
1000
MANEDIT
1070
     0
1002
}
1002
{
1000
NOSEL
1070
     0
1002
}
1002
{
1000
BEHIND
1070
     0
1002
}
1002
{
1000
OTHER
1070
     0
1002
}
1002
{
1000
REACTOR
1002
}
  0
LINE
  5
1B27
102
{ACAD_REACTORS
330
1F48
102
}
330
1F
100
AcDbEntity
  8
AM_7
  6
AM_ISO08W050x2
100
AcDbLine
 10
766.1183801247577
 20
76.46537802304036
 30
0.0
 11
760.4820928470071
 21
33.65352575256427
 31
0.0
1001
GENIUS_GENODEF_13
1002
{
1000
HIER
1070
     0
1002
}
1002
{
1000
MANEDIT
1070
     0
1002
}
1002
{
1000
NOSEL
1070
     0
1002
}
1002
{
1000
BEHIND
1070
     0
1002
}
1002
{
1000
OTHER
1070
     0
1002
}
1002
{
1000
REACTOR
1002
}
1001
GENIUS_GENOBJ-N-CEN_13
1002
{
1000
OWNER
1000
GEN
1002
}
1001
GENIUS_GENCEN_19
1002
{
1040
1.0
1002
}
  0
DIMENSION
  5
1C02
330
1F
100
AcDbEntity
  8
AM_5
100
AcDbDimension
  2
*D18
 10
760.4231103419672
 20
21.71356278401749
 30
0.0
 11
759.2361532920127
 21
24.18967525350732
 31
0.0
 70
    32
 71
     5
 42
3.0
  3
AM_ISO$0
100
AcDbAlignedDimension
 13
759.3212410354965
 23
36.32792719432881
 33
0.0
 14
762.2955756196179
 24
35.93634861766866
 34
0.0
 50
352.5000000000003
100
AcDbRotatedDimension
1001
ACAD
1000
DSTYLE
1002
{
1070
    40
1040
1.0
1070
   144
1040
1.0
1070
   179
1070
     2
1002
}
  0
DIMENSION
  5
1C38
330
1F
100
AcDbEntity
  8
AM_5
100
AcDbDimension
  2
*D19
 10
728.5475695749918
 20
43.90955926406813
 30
0.0
 11
725.9409309132819
 21
41.73115735273957
 31
0.0
 70
    33
 71
     5
 42
5.0
  3
AM_ISO$0
100
AcDbAlignedDimension
 13
760.6126190392272
 23
34.64497061393806
 33
0.0
 14
761.2652500003273
 24
39.60219492080714
 34
0.0
1001
ACAD
1000
DSTYLE
1002
{
1070
    40
1040
1.0
1070
   144
1040
1.0
1070
   179
1070
     2
1002
}
  0
DIMENSION
  5
1C62
102
{ACAD_XDICTIONARY
360
1C6F
102
}
102
{ACAD_REACTORS
330
1C70
102
}
330
1F
100
AcDbEntity
  8
AM_5
100
AcDbDimension
  2
*D20
 10
730.4401993621824
 20
58.28550975398893
 30
0.0
 11
727.2135612874272
 21
51.39774475113485
 31
0.0
 70
    33
 71
     5
 42
14.5
  3
AM_ISO$0
100
AcDbAlignedDimension
 13
761.2652500003273
 23
39.60219492080714
 33
0.0
 14
763.157879787518
 24
53.97814541072739
 34
0.0
1001
ACAD
1000
DSTYLE
1002
{
1070
    40
1040
1.0
1070
   144
1040
1.0
1070
   179
1070
     2
1002
}
  0
DIMENSION
  5
1C88
102
{ACAD_XDICTIONARY
360
1C95
102
}
102
{ACAD_REACTORS
330
1C96
102
}
330
1F
100
AcDbEntity
  8
AM_5
100
AcDbDimension
  2
*D21
 10
732.659144629923
 20
75.14007239734343
 30
0.0
 11
729.269348814893
 21
67.01300131777212
 31
0.0
 70
    33
 71
     5
 42
16.99999999999997
  3
AM_ISO$0
100
AcDbAlignedDimension
 13
763.1578797875181
 23
53.97814541072739
 33
0.0
 14
765.3768250552587
 24
70.83270805408218
 34
0.0
1001
ACAD
1000
DSTYLE
1002
{
1070
    40
1040
1.0
1070
   144
1040
1.0
1070
   179
1070
     2
1002
}
  0
DIMENSION
  5
1D75
102
{ACAD_XDICTIONARY
360
1D7E
102
}
102
{ACAD_REACTORS
330
1D7F
102
}
330
1F
100
AcDbEntity
  8
AM_5
100
AcDbDimension
  2
*D22
 10
750.7876416908648
 20
65.63907202194053
 30
0.0
 11
787.7151438954094
 21
34.55250521346926
 31
0.0
 70
   163
 71
     5
 42
33.99999999999972
  3
AM_ISO$3
100
AcDbDiametricDimension
 15
775.5281178841717
 25
42.31721879951431
 35
0.0
 40
0.0
1001
ACAD
1000
DSTYLE
1002
{
1070
   141
1040
0.0
1070
   172
1070
     1
1070
   179
1070
     2
1070
   289
1070
     2
1002
}
  0
LINE
  5
1E69
102
{ACAD_REACTORS
330
1F7B
102
}
330
1F
100
AcDbEntity
  8
AM_7
  6
AM_ISO08W050x2
100
AcDbLine
 10
767.0436531756932
 20
76.01546138223806
 30
0.0
 11
765.4944748356834
 21
67.22963442719431
 31
0.0
  0
LINE
  5
1F2A
102
{ACAD_REACTORS
330
1FAF
102
}
330
1F
100
AcDbEntity
  8
AM_7
  6
AM_ISO08W050x2
100
AcDbLine
 10
780.2998685559835
 20
68.36198186399169
 30
0.0
 11
773.4657083896666
 21
62.6274405890285
 31
0.0
  0
DIMENSION
  5
1F35
102
{ACAD_XDICTIONARY
360
1F47
102
}
102
{ACAD_REACTORS
330
1F48
102
}
330
1F
100
AcDbEntity
  8
AM_5
100
AcDbDimension
  2
*D23
 10
773.2828797875181
 20
71.51515983736226
 30
0.0
 11
775.4579481081834
 21
90.21297823283026
 31
0.0
 70
    34
 71
     5
 42
0.3926990816987368
  3
AM_ISO$2
100
AcDb2LineAngularDimension
 13
766.1183801247577
 23
76.46537802304036
 33
0.0
 14
760.4820928470071
 24
33.65352575256427
 34
0.0
 15
771.6578797875181
 25
68.70057727506287
 35
0.0
 16
776.9211992799189
 26
87.20573799255527
 36
0.0
1001
ACAD_DIMASSOC_DIMLFAC
1040
1.0
1001
ACAD_DIMASSOC_CALC_DIMLFAC
1040
1.0
1001
ACAD_DIMASSOC_OVERRIDDEN_DIMLFAC
1040
1.0
1001
ACAD
1000
DSTYLE
1002
{
1070
    40
1040
1.0
1070
   144
1040
1.0
1070
   179
1070
     2
1002
}
  0
DIMENSION
  5
1F67
102
{ACAD_XDICTIONARY
360
1F7A
102
}
102
{ACAD_REACTORS
330
1F7B
102
}
330
1F
100
AcDbEntity
  8
AM_5
100
AcDbDimension
  2
*D24
 10
773.2828797875181
 20
71.51515983736226
 30
0.0
 11
774.1889963867248
 21
84.28588917841821
 31
0.0
 70
    34
 71
     5
 42
0.3490658503988995
  3
AM_ISO$2
100
AcDb2LineAngularDimension
 13
767.0436531756932
 23
76.01546138223806
 33
0.0
 14
765.4944748356834
 24
67.22963442719431
 34
0.0
 15
771.6578797875181
 25
68.70057727506287
 35
0.0
 16
775.0214716448058
 26
81.48104271282816
 36
0.0
1001
ACAD_DIMASSOC_DIMLFAC
1040
1.0
1001
ACAD_DIMASSOC_CALC_DIMLFAC
1040
1.0
1001
ACAD_DIMASSOC_OVERRIDDEN_DIMLFAC
1040
1.0
1001
ACAD
1000
DSTYLE
1002
{
1070
    40
1040
1.0
1070
   144
1040
1.0
1070
   179
1070
     2
1002
}
  0
DIMENSION
  5
1F9B
102
{ACAD_XDICTIONARY
360
1FAE
102
}
102
{ACAD_REACTORS
330
1FAF
102
}
330
1F
100
AcDbEntity
  8
AM_5
100
AcDbDimension
  2
*D25
 10
773.4657083896666
 20
62.6274405890285
 30
0.0
 11
783.8813524641821
 21
78.67541842416966
 31
0.0
 70
    34
 71
     5
 42
0.3490658503988577
  3
AM_ISO$2
100
AcDb2LineAngularDimension
 13
771.6578797875181
 23
68.70057727506287
 33
0.0
 14
773.2828797875181
 24
71.51515983736226
 34
0.0
 15
780.2998685559835
 25
68.36198186399169
 35
0.0
 16
783.7037519447626
 26
75.75549762258453
 36
0.0
1001
ACAD_DIMASSOC_DIMLFAC
1040
1.0
1001
ACAD_DIMASSOC_CALC_DIMLFAC
1040
1.0
1001
ACAD_DIMASSOC_OVERRIDDEN_DIMLFAC
1040
1.0
1001
ACAD
1000
DSTYLE
1002
{
1070
    40
1040
1.0
1070
   144
1040
1.0
1070
   179
1070
     2
1002
}
  0
TEXT
  5
216F
330
1F
100
AcDbEntity
  8
AM_5
100
AcDbText
 10
712.7842201461681
 20
166.2366688378708
 30
0.0
 40
3.5
  1
M5x0.8
100
AcDbText
  0
INSERT
  5
2170
330
1F
100
AcDbEntity
  8
AM_5
100
AcDbBlockReference
  2
*S26
 10
0.0
 20
0.0
 30
0.0
  0
TEXT
  5
2172
330
1F
100
AcDbEntity
  8
AM_5
100
AcDbText
 10
712.7842201461681
 20
160.0717087439209
 30
0.0
 40
3.5
  1
Finger opening port
100
AcDbText
  0
INSERT
  5
2175
330
1F
100
AcDbEntity
  8
AM_5
100
AcDbBlockReference
  2
*S27
 10
0.0
 20
0.0
 30
0.0
  0
TEXT
  5
2176
330
1F
100
AcDbEntity
  8
AM_5
100
AcDbText
 10
716.5510009598333
 20
108.5787526341166
 30
0.0
 40
3.5
  1
Finger closing port
100
AcDbText
  0
TEXT
  5
21CA
330
1F
100
AcDbEntity
  8
AM_5
100
AcDbText
 10
618.150472458285
 20
88.52950862697525
 30
0.0
 40
3.5
  1
6-M3x0.5x6 depth
100
AcDbText
  0
INSERT
  5
21CB
330
1F
100
AcDbEntity
  8
AM_5
100
AcDbBlockReference
  2
*S28
 10
0.0
 20
0.0
 30
0.0
  0
TEXT
  5
21CC
330
1F
100
AcDbEntity
  8
AM_5
100
AcDbText
 10
618.150472458285
 20
83.09965844314751
 30
0.0
 40
3.5
  1
Thread for mounting attachment
100
AcDbText
  0
INSERT
  5
21D0
330
1F
100
AcDbEntity
  8
AM_5
100
AcDbBlockReference
  2
*S29
 10
0.0
 20
0.0
 30
0.0
  0
TEXT
  5
21D3
330
1F
100
AcDbEntity
  8
AM_5
100
AcDbText
 10
593.0063503114365
 20
104.5078862476443
 30
0.0
 40
3.5
  1
%%c8x10 depth
100
AcDbText
  0
TEXT
  5
21D4
330
1F
100
AcDbEntity
  8
AM_5
100
AcDbText
 10
593.0063503114365
 20
109.3037483577859
 30
0.0
 40
3.5
  1
3-%%c4.5
100
AcDbText
  0
TEXT
  5
21D7
330
1F
100
AcDbEntity
  8
AM_5
100
AcDbText
 10
593.6503834963605
 20
98.05781094867734
 30
0.0
 40
3.5
  1
P.C.D 34
100
AcDbText
  0
TEXT
  5
2727
330
1F
100
AcDbEntity
  8
AM_5
100
AcDbText
 10
706.1062464609753
 20
92.58241570555128
 30
0.0
 40
3.5
  1
3-M4x0.7x6 depth
100
AcDbText
  0
INSERT
  5
2728
330
1F
100
AcDbEntity
  8
AM_5
100
AcDbBlockReference
  2
*S30
 10
0.0
 20
0.0
 30
0.0
  0
TEXT
  5
276D
330
1F
100
AcDbEntity
  8
AM_5
100
AcDbText
 10
716.3053588308843
 20
115.5979635510055
 30
0.0
 40
3.5
  1
M5x0.8
100
AcDbText
  0
LINE
  5
2824
330
1F
100
AcDbEntity
  8
LOGO
 62
     1
100
AcDbLine
 10
836.569423199144
 20
1.051255319570216
 30
0.0
 11
539.5694231991442
 21
1.051255319570216
 31
0.0
  0
LWPOLYLINE
  5
2838
330
1F
100
AcDbEntity
  8
0
 62
     4
100
AcDbPolyline
 90
        4
 70
     1
 43
0.0
 10
539.5694231991442
 20
1.051255319570222
 10
836.569423199144
 20
1.051255319570222
 10
836.569423199144
 20
195.4543829213796
 10
539.5694231991442
 20
195.4543829213796
1001
GENIUS_GENREC_14
1002
{
1000
PYDIR
1011
539.5694231991442
1021
195.4543829213796
1031
0.0
1002
}
1002
{
1000
PXDIR
1011
836.569423199144
1021
1.051255319570222
1031
0.0
1002
}
1002
{
1000
PORI
1011
539.5694231991442
1021
1.051255319570222
1031
0.0
1002
}
1002
{
1000
PINS
1011
539.5694231991442
1021
1.051255319570222
1031
0.0
1002
}
1002
{
1000
PINS2
1011
836.569423199144
1021
195.4543829213796
1031
0.0
1002
}
1002
{
1000
C
1070
     1
1002
}
1001
GENIUS_GENODEF_13
1002
{
1000
HIER
1070
     0
1002
}
1002
{
1000
MANEDIT
1070
     0
1002
}
1002
{
1000
NOSEL
1070
     0
1002
}
1002
{
1000
BEHIND
1070
     0
1002
}
1002
{
1000
OTHER
1070
     0
1002
}
1002
{
1000
REACTOR
1002
}
1001
GENIUS_GENOBJ-N-REC_13
1002
{
1000
OWNER
1000
GEN
1002
}
  0
LWPOLYLINE
  5
2872
330
1F
100
AcDbEntity
  8
LOGO
 62
     4
100
AcDbPolyline
 90
        4
 70
     1
 43
0.0
 10
539.5694231991442
 20
1.051255319570222
 10
836.569423199144
 20
1.051255319570222
 10
836.569423199144
 20
-20.5456170786202
 10
539.5694231991442
 20
-20.5456170786202
1001
GENIUS_GENREC_14
1002
{
1000
PYDIR
1011
539.5694231991442
1021
-20.5456170786202
1031
0.0
1002
}
1002
{
1000
PXDIR
1011
836.569423199144
1021
1.051255319570222
1031
0.0
1002
}
1002
{
1000
PORI
1011
539.5694231991442
1021
1.051255319570222
1031
0.0
1002
}
1002
{
1000
PINS
1011
539.5694231991442
1021
1.051255319570222
1031
0.0
1002
}
1002
{
1000
PINS2
1011
836.569423199144
1021
-20.5456170786202
1031
0.0
1002
}
1002
{
1000
C
1070
     1
1002
}
1001
GENIUS_GENOBJ-N-REC_13
1002
{
1000
OWNER
1000
GEN
1002
}
1001
GENIUS_GENODEF_13
1002
{
1000
HIER
1070
     0
1002
}
1002
{
1000
MANEDIT
1070
     0
1002
}
1002
{
1000
NOSEL
1070
     0
1002
}
1002
{
1000
BEHIND
1070
     0
1002
}
1002
{
1000
OTHER
1070
     0
1002
}
1002
{
1000
REACTOR
1002
}
  0
LINE
  5
2873
330
1F
100
AcDbEntity
  8
LOGO
 62
     4
100
AcDbLine
 10
631.1859968731432
 20
-10.82702449943406
 30
0.0
 11
631.1859968731432
 21
-18.74587771210417
 31
0.0
  0
LINE
  5
2874
330
1F
100
AcDbEntity
  8
LOGO
 62
     4
100
AcDbLine
 10
616.7880819410164
 20
-10.82702449943406
 30
0.0
 11
616.7880819410164
 21
-18.74587771210417
 31
0.0
  0
LINE
  5
2875
330
1F
100
AcDbEntity
  8
LOGO
 62
     4
100
AcDbLine
 10
631.1859968731432
 20
-18.74587771210417
 30
0.0
 11
616.7880819410164
 21
-18.74587771210417
 31
0.0
  0
LINE
  5
2876
330
1F
100
AcDbEntity
  8
LOGO
 62
     4
100
AcDbLine
 10
637.8894378738939
 20
-1.108431920248918
 30
0.0
 11
616.7880819410164
 21
-1.108431920248918
 31
0.0
  0
LINE
  5
2877
330
1F
100
AcDbEntity
  8
LOGO
 62
     4
100
AcDbLine
 10
637.8894378738939
 20
-7.587493639705854
 30
0.0
 11
616.7880819410164
 21
-7.587493639705854
 31
0.0
  0
LINE
  5
2878
330
1F
100
AcDbEntity
  8
LOGO
 62
     4
100
AcDbLine
 10
616.7880819410164
 20
-1.108431920248918
 30
0.0
 11
616.7880819410164
 21
-7.587493639705854
 31
0.0
  0
LINE
  5
2879
330
1F
100
AcDbEntity
  8
LOGO
 62
     4
100
AcDbLine
 10
637.8894378738939
 20
-1.108431920248918
 30
0.0
 11
637.8894378738939
 21
-7.587493639705854
 31
0.0
  0
LINE
  5
287A
330
1F
100
AcDbEntity
  8
LOGO
 62
     4
100
AcDbLine
 10
624.7382489355751
 20
-7.587493639705854
 30
0.0
 11
624.7382489355751
 21
-10.82702449943406
 31
0.0
  0
TEXT
  5
287B
330
1F
100
AcDbEntity
  8
LOGO
  6
Continuous
100
AcDbText
 10
617.9393097373588
 20
-6.234998978156468
 30
0.0
 40
3.78
  1
MCHG2
  7
CHINESET
100
AcDbText
  0
LINE
  5
287C
330
1F
100
AcDbEntity
  8
LOGO
 62
     4
100
AcDbLine
 10
631.1859968731432
 20
-10.82702449943406
 30
0.0
 11
616.7880819410164
 21
-10.82702449943406
 31
0.0
  0
TEXT
  5
287D
330
1F
100
AcDbEntity
  8
LOGO
  6
Continuous
100
AcDbText
 10
621.4083272596309
 20
-17.62814837345412
 30
141.5423438208538
 40
1.619999999999999
  1
Model
 41
0.8
  7
CHINESET
100
AcDbText
  0
TEXT
  5
287E
330
1F
100
AcDbEntity
  8
LOGO
100
AcDbText
 10
620.9771359225918
 20
-14.62501750837258
 30
141.5423438208538
 40
2.7
  1
型號
  7
CHINESET
100
AcDbText
  0
LINE
  5
288A
330
1F
100
AcDbEntity
  8
LOGO
  6
Continuous
100
AcDbLine
 10
638.8074469689404
 20
-4.370912640521353
 30
0.0
 11
641.6683642137951
 21
-4.370912640521353
 31
0.0
  0
LINE
  5
288B
330
1F
100
AcDbEntity
  8
LOGO
 62
     4
100
AcDbLine
 10
647.4681334946244
 20
-10.82702449943406
 30
0.0
 11
647.4681334946244
 21
-18.74587771210417
 31
0.0
  0
LINE
  5
288C
330
1F
100
AcDbEntity
  8
LOGO
 62
     4
100
AcDbLine
 10
633.0702185624976
 20
-10.82702449943406
 30
0.0
 11
633.0702185624976
 21
-18.74587771210417
 31
0.0
  0
LINE
  5
288D
330
1F
100
AcDbEntity
  8
LOGO
 62
     4
100
AcDbLine
 10
647.4681334946244
 20
-18.74587771210417
 30
0.0
 11
633.0702185624976
 21
-18.74587771210417
 31
0.0
  0
LINE
  5
288E
330
1F
100
AcDbEntity
  8
LOGO
 62
     4
100
AcDbLine
 10
653.6419069465412
 20
-1.108431920248918
 30
0.0
 11
642.5708327965988
 21
-1.108431920248918
 31
0.0
  0
LINE
  5
288F
330
1F
100
AcDbEntity
  8
LOGO
 62
     4
100
AcDbLine
 10
653.6419069465412
 20
-7.587493639705854
 30
0.0
 11
642.5708327965988
 21
-7.587493639705854
 31
0.0
  0
LINE
  5
2890
330
1F
100
AcDbEntity
  8
LOGO
 62
     4
100
AcDbLine
 10
642.5708327965988
 20
-1.108431920248918
 30
0.0
 11
642.5708327965988
 21
-7.587493639705854
 31
0.0
  0
LINE
  5
2891
330
1F
100
AcDbEntity
  8
LOGO
 62
     4
100
AcDbLine
 10
653.6419069465412
 20
-1.108431920248918
 30
0.0
 11
653.6419069465412
 21
-7.587493639705854
 31
0.0
  0
LINE
  5
2892
330
1F
100
AcDbEntity
  8
LOGO
 62
     4
100
AcDbLine
 10
647.5488158429443
 20
-7.587493639705854
 30
0.0
 11
647.5488158429443
 21
-9.207259069569955
 31
0.0
  0
TEXT
  5
2893
330
1F
100
AcDbEntity
  8
LOGO
  6
Continuous
100
AcDbText
 10
645.3356132611709
 20
-6.234998978156468
 30
0.0
 40
3.78
  1
25
  7
CHINESET
100
AcDbText
  0
LINE
  5
2894
330
1F
100
AcDbEntity
  8
LOGO
 62
     4
100
AcDbLine
 10
647.4681334946244
 20
-10.82702449943406
 30
0.0
 11
633.0702185624976
 21
-10.82702449943406
 31
0.0
  0
LINE
  5
2895
330
1F
100
AcDbEntity
  8
LOGO
  6
Continuous
100
AcDbLine
 10
666.0447484587795
 20
-4.370912640521353
 30
0.0
 11
668.9056657036346
 21
-4.370912640521353
 31
0.0
  0
LINE
  5
2896
330
1F
100
AcDbEntity
  8
LOGO
 62
     4
100
AcDbLine
 10
681.0820225928529
 20
-10.82702449943406
 30
0.0
 11
681.0820225928529
 21
-18.74587771210417
 31
0.0
  0
LINE
  5
2897
330
1F
100
AcDbEntity
  8
LOGO
 62
     4
100
AcDbLine
 10
664.5074860576452
 20
-10.82702449943406
 30
0.0
 11
664.5074860576452
 21
-18.74587771210417
 31
0.0
  0
LINE
  5
2898
330
1F
100
AcDbEntity
  8
LOGO
 62
     4
100
AcDbLine
 10
681.0820225928529
 20
-18.74587771210417
 30
0.0
 11
664.5074860576452
 21
-18.74587771210417
 31
0.0
  0
LINE
  5
2899
330
1F
100
AcDbEntity
  8
LOGO
 62
     4
100
AcDbLine
 10
676.7016760336797
 20
-1.108431920248918
 30
0.0
 11
669.8081342864379
 21
-1.108431920248918
 31
0.0
  0
LINE
  5
289A
330
1F
100
AcDbEntity
  8
LOGO
 62
     4
100
AcDbLine
 10
676.7016760336797
 20
-7.587493639705854
 30
0.0
 11
669.8081342864379
 21
-7.587493639705854
 31
0.0
  0
LINE
  5
289B
330
1F
100
AcDbEntity
  8
LOGO
 62
     4
100
AcDbLine
 10
669.8081342864379
 20
-1.108431920248918
 30
0.0
 11
669.8081342864379
 21
-7.587493639705854
 31
0.0
  0
LINE
  5
289C
330
1F
100
AcDbEntity
  8
LOGO
 62
     4
100
AcDbLine
 10
676.7016760336797
 20
-1.108431920248918
 30
0.0
 11
676.7016760336797
 21
-7.587493639705854
 31
0.0
  0
LINE
  5
289D
330
1F
100
AcDbEntity
  8
LOGO
 62
     4
100
AcDbLine
 10
673.2549051600589
 20
-7.587493639705854
 30
0.0
 11
673.2549051600589
 21
-10.82702449943406
 31
0.0
  0
LINE
  5
289F
330
1F
100
AcDbEntity
  8
LOGO
 62
     4
100
AcDbLine
 10
681.0820225928529
 20
-10.82702449943406
 30
0.0
 11
664.5074860576452
 21
-10.82702449943406
 31
0.0
  0
TEXT
  5
28A2
330
1F
100
AcDbEntity
  8
LOGO
  6
Continuous
100
AcDbText
 10
636.0859932823452
 20
-17.62814837345412
 30
141.5423438208538
 40
1.619999999999999
  1
Tube I.D.
 41
0.8
  7
CHINESET
100
AcDbText
  0
TEXT
  5
28A3
330
1F
100
AcDbEntity
  8
LOGO
100
AcDbText
 10
636.7391947361989
 20
-14.62501750837258
 30
141.5423438208538
 40
2.7
  1
內徑
  7
CHINESET
100
AcDbText
  0
TEXT
  5
28A4
330
1F
100
AcDbEntity
  8
LOGO
  6
Continuous
100
AcDbText
 10
666.0130953801449
 20
-17.62814837345412
 30
141.5423438208538
 40
1.619999999999999
  1
Sensor switch
 41
0.8
  7
CHINESET
100
AcDbText
  0
TEXT
  5
28A5
330
1F
100
AcDbEntity
  8
LOGO
100
AcDbText
 10
665.9007699055317
 20
-14.62501750837258
 30
141.5423438208538
 40
2.7
  1
感應器型式
  7
CHINESET
100
AcDbText
  0
LINE
  5
28A6
330
1F
100
AcDbEntity
  8
LOGO
 62
     4
100
AcDbLine
 10
664.7994680974677
 20
-1.108431920248918
 30
0.0
 11
654.556410905053
 21
-1.108431920248918
 31
0.0
  0
LINE
  5
28A7
330
1F
100
AcDbEntity
  8
LOGO
 62
     4
100
AcDbLine
 10
664.7994680974677
 20
-7.587493639705854
 30
0.0
 11
654.556410905053
 21
-7.587493639705854
 31
0.0
  0
LINE
  5
28A8
330
1F
100
AcDbEntity
  8
LOGO
 62
     4
100
AcDbLine
 10
654.556410905053
 20
-1.108431920248918
 30
0.0
 11
654.556410905053
 21
-7.587493639705854
 31
0.0
  0
LINE
  5
28A9
330
1F
100
AcDbEntity
  8
LOGO
 62
     4
100
AcDbLine
 10
664.7994680974677
 20
-1.108431920248918
 30
0.0
 11
664.7994680974677
 21
-7.587493639705854
 31
0.0
  0
TEXT
  5
28AA
330
1F
100
AcDbEntity
  8
LOGO
  6
Continuous
100
AcDbText
 10
656.0621616852873
 20
-6.234998978156468
 30
0.0
 40
3.78
  1
(M)
  7
CHINESET
100
AcDbText
  0
LINE
  5
28AB
330
1F
100
AcDbEntity
  8
LOGO
 62
     4
100
AcDbLine
 10
662.1408338345664
 20
-10.82702449943406
 30
0.0
 11
662.1408338345664
 21
-18.74587771210417
 31
0.0
  0
LINE
  5
28AC
330
1F
100
AcDbEntity
  8
LOGO
 62
     4
100
AcDbLine
 10
650.4114367906716
 20
-10.82702449943406
 30
0.0
 11
650.4114367906716
 21
-18.74587771210417
 31
0.0
  0
LINE
  5
28AD
330
1F
100
AcDbEntity
  8
LOGO
 62
     4
100
AcDbLine
 10
662.1408338345664
 20
-18.74587771210417
 30
0.0
 11
650.4114367906716
 21
-18.74587771210417
 31
0.0
  0
LINE
  5
28AE
330
1F
100
AcDbEntity
  8
LOGO
 62
     4
100
AcDbLine
 10
662.1408338345664
 20
-10.82702449943406
 30
0.0
 11
650.4114367906716
 21
-10.82702449943406
 31
0.0
  0
TEXT
  5
28AF
330
1F
100
AcDbEntity
  8
LOGO
  6
Continuous
100
AcDbText
 10
652.961105842716
 20
-17.62814837345412
 30
141.5423438208538
 40
1.619999999999999
  1
Magnet
 41
0.8
  7
CHINESET
100
AcDbText
  0
TEXT
  5
28B0
330
1F
100
AcDbEntity
  8
LOGO
100
AcDbText
 10
652.0971846686422
 20
-14.62501750837258
 30
141.5423438208538
 40
2.7
  1
附磁石
  7
CHINESET
100
AcDbText
  0
LINE
  5
28B1
330
1F
100
AcDbEntity
  8
LOGO
 62
     4
100
AcDbLine
 10
659.6779395012609
 20
-7.587493639705854
 30
0.0
 11
659.6779395012609
 21
-9.207259069569959
 31
0.0
  0
LINE
  5
28B9
330
1F
100
AcDbEntity
  8
LOGO
 62
     4
100
AcDbLine
 10
647.5488158429443
 20
-9.207259069569957
 30
0.0
 11
640.2691760285611
 21
-9.207259069569957
 31
0.0
  0
LINE
  5
28BA
330
1F
100
AcDbEntity
  8
LOGO
 62
     4
100
AcDbLine
 10
640.2691760285611
 20
-10.82702449943406
 30
0.0
 11
640.2691760285611
 21
-9.207259069569957
 31
0.0
  0
LINE
  5
28BB
330
1F
100
AcDbEntity
  8
LOGO
 62
     4
100
AcDbLine
 10
659.6779395012609
 20
-9.207259069569957
 30
0.0
 11
656.2761353126191
 21
-9.207259069569959
 31
0.0
  0
LINE
  5
28BC
330
1F
100
AcDbEntity
  8
LOGO
 62
     4
100
AcDbLine
 10
656.2761353126189
 20
-10.82702449943406
 30
0.0
 11
656.2761353126191
 21
-9.207259069569959
 31
0.0
  0
TEXT
  5
299D
330
1F
100
AcDbEntity
  8
LOGO
 62
     7
100
AcDbText
 10
588.3337310497481
 20
-8.409966975889986
 30
0.0
 40
2.879582986425339
  1
Order example:
 41
0.8
  7
CHINESET
100
AcDbText
  0
TEXT
  5
299E
330
1F
100
AcDbEntity
  8
LOGO
 62
     7
100
AcDbText
 10
588.8503520506954
 20
-4.356110356268217
 30
0.0
 40
4.319374479638008
  1
訂購代號:
  7
CHINESET
100
AcDbText
  0
LINE
  5
29A0
330
1F
100
AcDbEntity
  8
LOGO
 62
     4
100
AcDbLine
 10
587.0825424751623
 20
-20.54561707861994
 30
0.0
 11
587.0825424751623
 21
1.051255319570245
 31
0.0
  0
TEXT
  5
29A1
330
1F
100
AcDbEntity
  8
LOGO
  6
Continuous
100
AcDbText
 10
547.3271168443938
 20
-16.30294408851769
 30
0.0
 40
3.239530859728506
  1
金器工業股份有限公司
  7
CHINESET
100
AcDbText
  0
TEXT
  5
29A2
330
1F
100
AcDbEntity
  8
LOGO
  6
Continuous
100
AcDbText
 10
541.3767395646468
 20
-19.54310964230562
 30
0.0
 40
2.159687239819004
  1
MINDMAN INDUSTRIAL CO., LTD.
 41
0.85
  7
CHINESET
100
AcDbText
  0
LINE
  5
29A3
330
1F
100
AcDbEntity
  8
LOGO
100
AcDbLine
 10
587.0825424751623
 20
-3.268119160067797
 30
0.0
 11
555.4071296244834
 21
-3.268119160067797
 31
0.0
  0
LINE
  5
29A4
330
1F
100
AcDbEntity
  8
LOGO
100
AcDbLine
 10
587.0825424751623
 20
-7.587493639705812
 30
0.0
 11
555.4071296244834
 21
-7.587493639705812
 31
0.0
  0
LINE
  5
29A5
330
1F
100
AcDbEntity
  8
LOGO
 62
     4
100
AcDbLine
 10
587.0825424751623
 20
-11.9068681193436
 30
0.0
 11
539.5694231991442
 21
-11.9068681193436
 31
0.0
  0
LINE
  5
29A6
330
1F
100
AcDbEntity
  8
LOGO
 62
     4
100
AcDbLine
 10
555.4071296244834
 20
-11.9068681193436
 30
0.0
 11
555.4071296244834
 21
1.051255319570245
 31
0.0
  0
TEXT
  5
29A7
330
1F
100
AcDbEntity
  8
LOGO
100
AcDbText
 10
577.0557792512085
 20
-10.82702449943445
 30
0.0
 40
2.159687239819004
  1
mm
  7
CHINESET
 72
     1
 11
579.7296777386033
 21
-9.747180879524947
 31
0.0
100
AcDbText
 73
     2
  0
TEXT
  5
29A8
330
1F
100
AcDbEntity
  8
LOGO
100
AcDbText
 10
575.9245145065413
 20
-2.188275540158391
 30
0.0
 40
2.159687239819004
  1
1 : 1
  7
CHINESET
 72
     1
 11
579.7296777386033
 21
-1.108431920248889
 31
0.0
100
AcDbText
 73
     2
  0
LINE
  5
29A9
330
1F
100
AcDbEntity
  8
LOGO
 62
     4
100
AcDbLine
 10
572.6846275430355
 20
-11.9068681193436
 30
0.0
 11
572.6846275430355
 21
1.051255319570245
 31
0.0
  0
CIRCLE
  5
29AA
330
1F
100
AcDbEntity
  8
LOGO
  6
Continuous
100
AcDbCircle
 10
576.68355859697
 20
-5.423186813076554
 30
0.0
 40
1.253965244746282
  0
CIRCLE
  5
29AB
330
1F
100
AcDbEntity
  8
LOGO
  6
Continuous
100
AcDbCircle
 10
576.68355859697
 20
-5.423186813076554
 30
0.0
 40
0.7347126261588449
  0
LINE
  5
29AC
330
1F
100
AcDbEntity
  8
LOGO
100
AcDbLine
 10
584.5636216989296
 20
-6.677152057823107
 30
0.0
 11
584.5636216989296
 21
-4.169221568330058
 31
0.0
  0
LINE
  5
29AD
330
1F
100
AcDbEntity
  8
LOGO
100
AcDbLine
 10
580.6325126376898
 20
-6.157899439235293
 30
0.0
 11
580.6325126376898
 21
-4.688474186917616
 31
0.0
  0
LINE
  5
29AE
330
1F
100
AcDbEntity
  8
LOGO
  6
Continuous
100
AcDbLine
 10
580.6325126376898
 20
-4.688474186917616
 30
0.0
 11
584.5636216989296
 21
-4.169221568330058
 31
0.0
  0
LINE
  5
29AF
330
1F
100
AcDbEntity
  8
LOGO
  6
Continuous
100
AcDbLine
 10
580.6325126376898
 20
-6.157899439235293
 30
0.0
 11
584.5636216989296
 21
-6.677152057823107
 31
0.0
  0
TEXT
  5
29B0
330
1F
100
AcDbEntity
  8
LOGO
100
AcDbText
 10
557.187907451245
 20
-2.187212701949819
 30
141.5423438208538
 40
2.159687239819004
  1
比例 Scale:
 41
0.9
  7
CHINESET
 72
     4
 11
564.0458785837595
 21
-1.108431920248889
 31
141.5423438208538
100
AcDbText
  0
TEXT
  5
29B1
330
1F
100
AcDbEntity
  8
LOGO
100
AcDbText
 10
557.0635326057375
 20
-6.477270561001408
 30
141.5423438208538
 40
2.159687239819004
  1
投影  View:
 41
0.9
  7
CHINESET
 72
     4
 11
564.0458785837595
 21
-5.427806399886932
 31
141.5423438208538
100
AcDbText
  0
TEXT
  5
29B2
330
1F
100
AcDbEntity
  8
LOGO
100
AcDbText
 10
557.2746805992734
 20
-10.82702449943445
 30
141.5423438208538
 40
2.159687239819004
  1
單位  Unit:
 41
0.9
  7
CHINESET
 72
     4
 11
564.0458785837595
 21
-9.747180879524947
 31
141.5423438208538
100
AcDbText
  0
SOLID
  5
29B4
330
1F
100
AcDbEntity
  8
LOGO
 62
     5
100
AcDbTrace
 10
541.8101333708001
 20
-8.316695490416336
 30
0.0
 11
542.7439254631046
 21
-8.316695490416591
 31
0.0
 12
546.640092468927
 22
0.5382295228168204
 32
0.0
 13
547.573884561232
 23
0.5382295228163088
 33
0.0
  0
SOLID
  5
29B5
330
1F
100
AcDbEntity
  8
LOGO
 62
     5
100
AcDbTrace
 10
543.1303221909558
 20
-8.316695490416336
 30
0.0
 11
544.0641142832604
 21
-8.316695490416336
 31
0.0
 12
547.573884561232
 22
-0.1701644782421994
 32
0.0
 13
546.640092468927
 23
-3.594068816692342
 33
0.0
  0
SOLID
  5
29B6
330
1F
100
AcDbEntity
  8
LOGO
 62
     2
100
AcDbTrace
 10
542.7439254631046
 20
-8.316695490416591
 30
0.0
 11
543.1303221909558
 21
-8.316695490416336
 31
0.0
 12
547.573884561232
 22
0.5382295228163088
 32
0.0
 13
547.9602812890828
 23
0.5382295228163088
 33
0.0
  0
SOLID
  5
29B7
330
1F
100
AcDbEntity
  8
LOGO
 62
     5
100
AcDbTrace
 10
540.3130356529648
 20
-11.53666822250083
 30
0.0
 11
540.6350329261735
 21
-11.53666822250083
 31
0.0
 12
541.5418023097934
 22
-9.926681856458699
 32
0.0
 13
541.8637995830013
 23
-9.926681856458699
 33
0.0
  0
SOLID
  5
29B8
330
1F
100
AcDbEntity
  8
LOGO
 62
     5
100
AcDbTrace
 10
541.5418023097934
 20
-9.926681856458699
 30
0.0
 11
541.8637995830013
 21
-9.926681856458699
 31
0.0
 12
541.5418023097934
 22
-11.53666822250083
 32
0.0
 13
541.8637995830013
 23
-11.53666822250083
 33
0.0
  0
SOLID
  5
29B9
330
1F
100
AcDbEntity
  8
LOGO
 62
     5
100
AcDbTrace
 10
541.5418023097934
 20
-11.53666822250083
 30
0.0
 11
541.8637995830013
 21
-11.53666822250083
 31
0.0
 12
542.7705689666225
 22
-9.926681856458699
 32
0.0
 13
543.0925662398307
 23
-9.926681856458699
 33
0.0
  0
SOLID
  5
29BA
330
1F
100
AcDbEntity
  8
LOGO
 62
     5
100
AcDbTrace
 10
542.7705689666225
 20
-9.926681856458699
 30
0.0
 11
543.0925662398307
 21
-9.926681856458699
 31
0.0
 12
542.7705689666225
 22
-11.53666822250083
 32
0.0
 13
543.0925662398307
 23
-11.53666822250083
 33
0.0
  0
POLYLINE
  5
29BB
330
1F
100
AcDbEntity
  8
LOGO
 62
     5
100
AcDb2dPolyline
 66
     1
 10
0.0
 20
0.0
 30
0.0
 40
0.3225132944796379
 41
0.3225132944796379
  0
VERTEX
  5
29BC
330
29BB
100
AcDbEntity
  8
LOGO
 62
     5
100
AcDbVertex
100
AcDb2dVertex
 10
553.5638078748168
 20
-10.5706764028756
 30
0.0
 42
1.0
  0
VERTEX
  5
29BD
330
29BB
100
AcDbEntity
  8
LOGO
 62
     5
100
AcDbVertex
100
AcDb2dVertex
 10
552.5962679913776
 20
-10.5706764028756
 30
0.0
 42
1.0
  0
SEQEND
  5
29BE
330
29BB
100
AcDbEntity
  8
LOGO
 62
     5
  0
POLYLINE
  5
29BF
330
1F
100
AcDbEntity
  8
LOGO
 62
     5
100
AcDb2dPolyline
 66
     1
 10
0.0
 20
0.0
 30
0.0
 70
     1
  0
VERTEX
  5
29C0
330
29BF
100
AcDbEntity
  8
LOGO
 62
     5
100
AcDbVertex
100
AcDb2dVertex
 10
550.7724122749207
 20
-10.73167503948001
 30
0.0
 42
1.000000057330635
  0
VERTEX
  5
29C1
330
29BF
100
AcDbEntity
  8
LOGO
 62
     5
100
AcDbVertex
100
AcDb2dVertex
 10
551.7384040945462
 20
-10.73167503948001
 30
0.0
 42
1.000000057330635
  0
SEQEND
  5
29C2
330
29BF
100
AcDbEntity
  8
LOGO
 62
     5
  0
CIRCLE
  5
29C3
330
1F
100
AcDbEntity
  8
LOGO
 62
     5
100
AcDbCircle
 10
551.2554081847342
 20
-10.73167503948001
 30
0.0
 40
0.4829959098127059
  0
POLYLINE
  5
29C4
330
1F
100
AcDbEntity
  8
LOGO
 62
     5
100
AcDb2dPolyline
 66
     1
 10
0.0
 20
0.0
 30
0.0
 70
     1
 40
0.3225132944796379
 41
0.3225132944796379
  0
VERTEX
  5
29C5
330
29C4
100
AcDbEntity
  8
LOGO
 62
     5
100
AcDbVertex
100
AcDb2dVertex
 10
550.6103815957744
 20
-10.73167503948001
 30
0.0
 42
1.0
  0
VERTEX
  5
29C6
330
29C4
100
AcDbEntity
  8
LOGO
 62
     5
100
AcDbVertex
100
AcDb2dVertex
 10
551.9004347736929
 20
-10.73167503948001
 30
0.0
 42
1.0
  0
SEQEND
  5
29C7
330
29C4
100
AcDbEntity
  8
LOGO
 62
     5
  0
LINE
  5
29C8
330
1F
100
AcDbEntity
  8
LOGO
100
AcDbLine
 10
553.7240324795136
 20
-11.53666822250083
 30
0.0
 11
553.7240324795136
 21
-10.5706764028756
 31
0.0
  0
SOLID
  5
29C9
330
1F
100
AcDbEntity
  8
LOGO
 62
     5
100
AcDbTrace
 10
551.7383718948203
 20
-9.926681856458699
 30
0.0
 11
552.0603691680281
 21
-9.926681856458699
 31
0.0
 12
551.7383718948203
 22
-11.53666822250083
 32
0.0
 13
552.0603691680281
 23
-11.53666822250083
 33
0.0
  0
SOLID
  5
29CA
330
1F
100
AcDbEntity
  8
LOGO
 62
     5
100
AcDbTrace
 10
552.4360433866798
 20
-11.53666822250083
 30
0.0
 11
552.7580406598887
 21
-11.53666822250083
 31
0.0
 12
552.4360433866798
 22
-9.926681856458699
 32
0.0
 13
552.7580406598887
 23
-9.926681856458699
 33
0.0
  0
SOLID
  5
29CB
330
1F
100
AcDbEntity
  8
LOGO
 62
     5
100
AcDbTrace
 10
553.4020352063057
 20
-10.5706764028756
 30
0.0
 11
553.7240324795136
 21
-10.5706764028756
 31
0.0
 12
553.4020352063057
 22
-11.53666822250083
 32
0.0
 13
553.7240324795136
 23
-11.53666822250083
 33
0.0
  0
SOLID
  5
29CC
330
1F
100
AcDbEntity
  8
LOGO
 62
     5
100
AcDbTrace
 10
552.4038436593589
 20
-0.1701644782421994
 30
0.0
 11
551.4700515670548
 21
-3.594068816692342
 31
0.0
 12
552.4038436593589
 22
-8.316695490416591
 32
0.0
 13
551.4700515670548
 23
-8.316695490416591
 33
0.0
  0
SOLID
  5
29CD
330
1F
100
AcDbEntity
  8
LOGO
 62
     5
100
AcDbTrace
 10
552.7902403872095
 20
-8.316695490416591
 30
0.0
 11
553.7240324795136
 21
-8.316695490416591
 31
0.0
 12
552.7902403872095
 22
0.5382295228163088
 32
0.0
 13
553.7240324795136
 23
0.5382295228168204
 33
0.0
  0
SOLID
  5
29CE
330
1F
100
AcDbEntity
  8
LOGO
 62
     2
100
AcDbTrace
 10
552.4038436593589
 20
0.5382295228168204
 30
0.0
 11
552.7902403872095
 21
0.5382295228163088
 31
0.0
 12
552.4038436593589
 22
-8.316695490416591
 32
0.0
 13
552.7902403872095
 23
-8.316695490416591
 33
0.0
  0
POLYLINE
  5
29CF
330
1F
100
AcDbEntity
  8
LOGO
 62
     5
100
AcDb2dPolyline
 66
     1
 10
0.0
 20
0.0
 30
0.0
 40
0.3225132944796379
 41
0.3225132944796379
  0
VERTEX
  5
29D0
330
29CF
100
AcDbEntity
  8
LOGO
 62
     5
100
AcDbVertex
100
AcDb2dVertex
 10
548.9484921590105
 20
-10.5706764028756
 30
0.0
 42
1.0
  0
VERTEX
  5
29D1
330
29CF
100
AcDbEntity
  8
LOGO
 62
     5
100
AcDbVertex
100
AcDb2dVertex
 10
547.9809522755714
 20
-10.5706764028756
 30
0.0
 42
1.0
  0
SEQEND
  5
29D2
330
29CF
100
AcDbEntity
  8
LOGO
 62
     5
  0
POLYLINE
  5
29D3
330
1F
100
AcDbEntity
  8
LOGO
 62
     5
100
AcDb2dPolyline
 66
     1
 10
0.0
 20
0.0
 30
0.0
 40
0.3225132944796379
 41
0.3225132944796379
  0
VERTEX
  5
29D4
330
29D3
100
AcDbEntity
  8
LOGO
 62
     5
100
AcDbVertex
100
AcDb2dVertex
 10
549.914483978635
 20
-10.5706764028756
 30
0.0
 42
1.0
  0
VERTEX
  5
29D5
330
29D3
100
AcDbEntity
  8
LOGO
 62
     5
100
AcDbVertex
100
AcDb2dVertex
 10
548.9469440951963
 20
-10.5706764028756
 30
0.0
 42
1.0
  0
SEQEND
  5
29D6
330
29D3
100
AcDbEntity
  8
LOGO
 62
     5
  0
POLYLINE
  5
29D7
330
1F
100
AcDbEntity
  8
LOGO
 62
     5
100
AcDb2dPolyline
 66
     1
 10
0.0
 20
0.0
 30
0.0
 40
0.3225132944796379
 41
0.3225132944796379
  0
VERTEX
  5
29D8
330
29D7
100
AcDbEntity
  8
LOGO
 62
     5
100
AcDbVertex
100
AcDb2dVertex
 10
545.2991682628288
 20
-10.5706764028756
 30
0.0
 42
1.0
  0
VERTEX
  5
29D9
330
29D7
100
AcDbEntity
  8
LOGO
 62
     5
100
AcDbVertex
100
AcDb2dVertex
 10
544.3316283793903
 20
-10.5706764028756
 30
0.0
 42
1.0
  0
SEQEND
  5
29DA
330
29D7
100
AcDbEntity
  8
LOGO
 62
     5
  0
SOLID
  5
29DB
330
1F
100
AcDbEntity
  8
LOGO
 62
     5
100
AcDbTrace
 10
544.1714037746928
 20
-9.926681856458699
 30
0.0
 11
544.4934010479007
 21
-9.926681856458699
 31
0.0
 12
544.1714037746928
 22
-11.53666822250083
 32
0.0
 13
544.4934010479007
 23
-11.53666822250083
 33
0.0
  0
SOLID
  5
29DC
330
1F
100
AcDbEntity
  8
LOGO
 62
     5
100
AcDbTrace
 10
545.1373955943183
 20
-10.5706764028756
 30
0.0
 11
545.4593928675271
 21
-10.5706764028756
 31
0.0
 12
545.1373955943183
 22
-11.53666822250083
 32
0.0
 13
545.4593928675271
 23
-11.53666822250083
 33
0.0
  0
POLYLINE
  5
29DD
330
1F
100
AcDbEntity
  8
LOGO
 62
     5
100
AcDb2dPolyline
 66
     1
 10
0.0
 20
0.0
 30
0.0
 70
     1
 40
0.3225132944796379
 41
0.3225132944796379
  0
VERTEX
  5
29DE
330
29DD
100
AcDbEntity
  8
LOGO
 62
     5
100
AcDbVertex
100
AcDb2dVertex
 10
545.9950658799678
 20
-10.73167503948001
 30
0.0
 42
1.0
  0
VERTEX
  5
29DF
330
29DD
100
AcDbEntity
  8
LOGO
 62
     5
100
AcDbVertex
100
AcDb2dVertex
 10
547.2851190578867
 20
-10.73167503948001
 30
0.0
 42
1.0
  0
SEQEND
  5
29E0
330
29DD
100
AcDbEntity
  8
LOGO
 62
     5
  0
SOLID
  5
29E1
330
1F
100
AcDbEntity
  8
LOGO
 62
     5
100
AcDbTrace
 10
547.1230561790131
 20
-9.443685946645715
 30
0.0
 11
547.4450534522214
 21
-9.443685946645715
 31
0.0
 12
547.1230561790131
 22
-11.53666822250083
 32
0.0
 13
547.4450534522214
 23
-11.53666822250083
 33
0.0
  0
SOLID
  5
29E2
330
1F
100
AcDbEntity
  8
LOGO
 62
     5
100
AcDbTrace
 10
547.8207276708745
 20
-9.926681856458699
 30
0.0
 11
548.1427249440825
 21
-9.926681856458699
 31
0.0
 12
547.8207276708745
 22
-11.53666822250083
 32
0.0
 13
548.1427249440825
 23
-11.53666822250083
 33
0.0
  0
SOLID
  5
29E3
330
1F
100
AcDbEntity
  8
LOGO
 62
     5
100
AcDbTrace
 10
548.7867194904991
 20
-10.5706764028756
 30
0.0
 11
549.1087167637078
 21
-10.5706764028756
 31
0.0
 12
548.7867194904991
 22
-11.53666822250083
 32
0.0
 13
549.1087167637078
 23
-11.53666822250083
 33
0.0
  0
SOLID
  5
29E4
330
1F
100
AcDbEntity
  8
LOGO
 62
     5
100
AcDbTrace
 10
549.7527113101246
 20
-10.5706764028756
 30
0.0
 11
550.0747085833329
 21
-10.5706764028756
 31
0.0
 12
549.7527113101246
 22
-11.53666822250132
 32
0.0
 13
550.0747085833329
 23
-11.53666822250132
 33
0.0
  0
SOLID
  5
29E5
330
1F
100
AcDbEntity
  8
LOGO
 62
     5
100
AcDbTrace
 10
543.4737322828318
 20
-9.701283765212693
 30
0.0
 11
543.7957295560412
 21
-9.701283765212693
 31
0.0
 12
543.4737322828318
 22
-9.443685946645715
 32
0.0
 13
543.7957295560412
 23
-9.443685946645715
 33
0.0
  0
SOLID
  5
29E6
330
1F
100
AcDbEntity
  8
LOGO
 62
     5
100
AcDbTrace
 10
543.4737322828318
 20
-9.926681856458699
 30
0.0
 11
543.7957295560412
 21
-9.926681856458699
 31
0.0
 12
543.4737322828318
 22
-11.53666822250132
 32
0.0
 13
543.7957295560412
 23
-11.53666822250083
 33
0.0
  0
SOLID
  5
29E7
330
1F
100
AcDbEntity
  8
LOGO
 62
     5
100
AcDbTrace
 10
546.640092468927
 20
-8.316695490416336
 30
0.0
 11
547.573884561232
 21
-8.316695490416336
 31
0.0
 12
546.640092468927
 22
-3.594068816692342
 32
0.0
 13
547.573884561232
 23
-0.1701644782421994
 33
0.0
  0
SOLID
  5
29E8
330
1F
100
AcDbEntity
  8
LOGO
 62
     5
100
AcDbTrace
 10
547.9602812890828
 20
0.5382295228163088
 30
0.0
 11
548.8940733813867
 21
0.5382295228168204
 31
0.0
 12
547.9602812890828
 22
-7.608301489357828
 32
0.0
 13
548.8940733813867
 23
-4.184397150907685
 33
0.0
  0
SOLID
  5
29E9
330
1F
100
AcDbEntity
  8
LOGO
 62
     2
100
AcDbTrace
 10
547.573884561232
 20
0.5382295228163088
 30
0.0
 11
547.9602812890828
 21
0.5382295228163088
 31
0.0
 12
547.573884561232
 22
-8.316695490416336
 32
0.0
 13
547.9602812890828
 23
-8.316695490416336
 33
0.0
  0
SOLID
  5
29EA
330
1F
100
AcDbEntity
  8
LOGO
 62
     5
100
AcDbTrace
 10
547.9602812890828
 20
-7.608301489357828
 30
0.0
 11
548.8940733813867
 21
-4.184397150907685
 31
0.0
 12
552.4038436593589
 22
0.5382295228168204
 32
0.0
 13
551.4700515670548
 23
0.5382295228168204
 33
0.0
  0
SOLID
  5
29EB
330
1F
100
AcDbEntity
  8
LOGO
 62
     5
100
AcDbTrace
 10
547.9602812890828
 20
-8.316695490416336
 30
0.0
 11
548.8940733813867
 21
-8.316695490416336
 31
0.0
 12
552.4038436593589
 22
-0.1701644782421994
 32
0.0
 13
551.4700515670548
 23
-3.594068816692342
 33
0.0
  0
SOLID
  5
29EC
330
1F
100
AcDbEntity
  8
LOGO
 62
     2
100
AcDbTrace
 10
547.573884561232
 20
-8.316695490416336
 30
0.0
 11
547.9602812890828
 21
-8.316695490416336
 31
0.0
 12
552.4038436593589
 22
0.5382295228168204
 32
0.0
 13
552.7902403872095
 23
0.5382295228163088
 33
0.0
  0
TEXT
  5
2A2D
330
1F
100
AcDbEntity
  8
LOGO
100
AcDbText
 10
588.0832009136989
 20
-19.39667199118487
 30
0.0
 40
2.16
  1
10603100
 41
0.7
  7
CHINESET
 72
     1
 11
593.3392009136989
 21
-19.39667199118487
 31
0.0
100
AcDbText
  0
LINE
  5
2A2E
330
1F
100
AcDbEntity
  8
LOGO
 62
     4
100
AcDbLine
 10
600.0425424751613
 20
-16.22624259898141
 30
0.0
 11
600.0425424751623
 21
-20.54561707861969
 31
0.0
  0
LINE
  5
2A2F
330
1F
100
AcDbEntity
  8
LOGO
 62
     4
100
AcDbLine
 10
600.0425424751613
 20
-16.22624259898141
 30
0.0
 11
587.0825424751623
 21
-16.22624259898141
 31
0.0
  0
LINE
  5
2A30
330
1F
100
AcDbEntity
  8
LOGO
  6
AM_ISO08W050x2
 48
0.3
100
AcDbLine
 10
574.9549487304363
 20
-5.423186813076554
 30
0.0
 11
578.4121684635038
 21
-5.423186813076554
 31
0.0
1001
GENIUS_GENOREF_13
1005
2A35
  0
LINE
  5
2A31
330
1F
100
AcDbEntity
  8
LOGO
  6
AM_ISO08W050x2
 48
0.3
100
AcDbLine
 10
576.68355859697
 20
-7.151796679610285
 30
0.0
 11
576.68355859697
 21
-3.694576946542852
 31
0.0
1001
GENIUS_GENOREF_13
1005
2A34
  0
LINE
  5
2A32
330
1F
100
AcDbEntity
  8
LOGO
  6
AM_ISO08W050x2
 48
0.3
100
AcDbLine
 10
580.3181331774557
 20
-5.423186813076554
 30
0.0
 11
584.9594716557403
 21
-5.423186813076554
 31
0.0
1001
GENIUS_GENOREF_13
1005
2A33
  0
POINT
  5
2A33
330
1F
100
AcDbEntity
  8
0
 60
     1
100
AcDbPoint
 10
-1846.718893173345
 20
-1185.064967107847
 30
0.0
1001
GENIUS_GENOBJ-N-CRS_13
1002
{
1000
OWNER
1000
GEN
1002
}
1001
GENIUS_GENOLIS_13
1002
{
1000
ENT
1005
0
1005
0
1005
0
1005
2A32
1002
}
1001
GENIUS_GENOENT_13
1002
{
1000
MYREF
1005
2A33
1002
}
1002
{
1000
GRP
1005
0
1002
}
1001
GENIUS_GENODEF_13
1002
{
1000
HIER
1070
    10
1002
}
1002
{
1000
MANEDIT
1070
     1
1002
}
1002
{
1000
NOSEL
1070
     0
1002
}
1002
{
1000
BEHIND
1070
     0
1002
}
1002
{
1000
OTHER
1070
     0
1002
}
1002
{
1000
REACTOR
1002
}
  0
POINT
  5
2A34
330
1F
100
AcDbEntity
  8
0
 60
     1
100
AcDbPoint
 10
-1858.0434783962
 20
-1176.18938062921
 30
0.0
1001
GENIUS_GENOBJ-N-CRS_13
1002
{
1000
OWNER
1000
GEN
1002
}
1001
GENIUS_GENOLIS_13
1002
{
1000
ENT
1005
0
1005
0
1005
0
1005
2A31
1002
}
1001
GENIUS_GENOENT_13
1002
{
1000
MYREF
1005
2A34
1002
}
1002
{
1000
GRP
1005
0
1002
}
1001
GENIUS_GENODEF_13
1002
{
1000
HIER
1070
    10
1002
}
1002
{
1000
MANEDIT
1070
     1
1002
}
1002
{
1000
NOSEL
1070
     0
1002
}
1002
{
1000
BEHIND
1070
     0
1002
}
1002
{
1000
OTHER
1070
     0
1002
}
1002
{
1000
REACTOR
1002
}
  0
POINT
  5
2A35
330
1F
100
AcDbEntity
  8
0
 60
     1
100
AcDbPoint
 10
-1851.684804698363
 20
-1185.064967107847
 30
0.0
1001
GENIUS_GENOBJ-N-CRS_13
1002
{
1000
OWNER
1000
GEN
1002
}
1001
GENIUS_GENOLIS_13
1002
{
1000
ENT
1005
0
1005
0
1005
0
1005
2A30
1002
}
1001
GENIUS_GENOENT_13
1002
{
1000
MYREF
1005
2A35
1002
}
1002
{
1000
GRP
1005
0
1002
}
1001
GENIUS_GENODEF_13
1002
{
1000
HIER
1070
    10
1002
}
1002
{
1000
MANEDIT
1070
     1
1002
}
1002
{
1000
NOSEL
1070
     0
1002
}
1002
{
1000
BEHIND
1070
     0
1002
}
1002
{
1000
OTHER
1070
     0
1002
}
1002
{
1000
REACTOR
1002
}
  0
ENDSEC
  0
SECTION
  2
OBJECTS
  0
DICTIONARY
  5
C
330
0
100
AcDbDictionary
281
     1
  3
ACAD_COLOR
350
8FD
  3
ACAD_GROUP
350
D
  3
ACAD_LAYOUT
350
1A
  3
ACAD_MATERIAL
350
8FC
  3
ACAD_MLINESTYLE
350
17
  3
ACAD_PLOTSETTINGS
350
19
  3
ACAD_PLOTSTYLENAME
350
E
  3
ACAD_TABLESTYLE
350
8FE
  3
ACDBHEADERROUNDTRIPXREC
350
2BBE
  3
AcDbVariableDictionary
350
82
  3
AcmDictionary
350
45
  3
AMG
350
2B
  3
AMGSNAPSETTINGS
350
2026
  3
DWGPROPS
350
2BBD
  0
DICTIONARY
  5
E05
330
2
100
AcDbDictionary
280
     1
281
     1
  3
ACAD_LAYERFILTERS
360
E57
  3
ACAD_LAYERSTATES
360
E80
  3
ACLYDICTIONARY
360
E56
  3
AMLAYER_GROUPCOLORS
360
1991
  0
DICTIONARY
  5
7D
330
1F
100
AcDbDictionary
280
     1
281
     1
  3
ACAD_SORTENTS
360
19C4
  0
DICTIONARY
  5
1109
330
10FC
100
AcDbDictionary
280
     1
281
     1
  3
ACAD_DIMASSOC
360
110A
  0
DICTIONARY
  5
113F
330
1130
100
AcDbDictionary
280
     1
281
     1
  3
ACAD_DIMASSOC
360
1140
  0
DICTIONARY
  5
1167
330
115A
100
AcDbDictionary
280
     1
281
     1
  3
ACAD_DIMASSOC
360
1168
  0
DICTIONARY
  5
1205
330
11F8
100
AcDbDictionary
280
     1
281
     1
  3
ACAD_DIMASSOC
360
1206
  0
DICTIONARY
  5
122B
330
121E
100
AcDbDictionary
280
     1
281
     1
  3
ACAD_DIMASSOC
360
122C
  0
DICTIONARY
  5
1253
330
1244
100
AcDbDictionary
280
     1
281
     1
  3
ACAD_DIMASSOC
360
1254
  0
DICTIONARY
  5
1380
330
1373
100
AcDbDictionary
280
     1
281
     1
  3
ACAD_DIMASSOC
360
1381
  0
DICTIONARY
  5
13B5
330
13A8
100
AcDbDictionary
280
     1
281
     1
  3
ACAD_DIMASSOC
360
13B6
  0
DICTIONARY
  5
13DB
330
13CE
100
AcDbDictionary
280
     1
281
     1
  3
ACAD_DIMASSOC
360
13DC
  0
DICTIONARY
  5
1403
330
13F4
100
AcDbDictionary
280
     1
281
     1
  3
ACAD_DIMASSOC
360
1404
  0
DICTIONARY
  5
142B
330
141E
100
AcDbDictionary
280
     1
281
     1
  3
ACAD_DIMASSOC
360
142C
  0
DICTIONARY
  5
1453
330
1444
100
AcDbDictionary
280
     1
281
     1
  3
ACAD_DIMASSOC
360
1454
  0
DICTIONARY
  5
147B
330
146E
100
AcDbDictionary
280
     1
281
     1
  3
ACAD_DIMASSOC
360
147C
  0
DICTIONARY
  5
14A3
330
1494
100
AcDbDictionary
280
     1
281
     1
  3
ACAD_DIMASSOC
360
14A4
  0
DICTIONARY
  5
14CB
330
14BE
100
AcDbDictionary
280
     1
281
     1
  3
ACAD_DIMASSOC
360
14CC
  0
DICTIONARY
  5
1C6F
330
1C62
100
AcDbDictionary
280
     1
281
     1
  3
ACAD_DIMASSOC
360
1C70
  0
DICTIONARY
  5
1C95
330
1C88
100
AcDbDictionary
280
     1
281
     1
  3
ACAD_DIMASSOC
360
1C96
  0
DICTIONARY
  5
1D7E
330
1D75
100
AcDbDictionary
280
     1
281
     1
  3
ACAD_DIMASSOC
360
1D7F
  0
DICTIONARY
  5
1F47
330
1F35
100
AcDbDictionary
280
     1
281
     1
  3
ACAD_DIMASSOC
360
1F48
  0
DICTIONARY
  5
1F7A
330
1F67
100
AcDbDictionary
280
     1
281
     1
  3
ACAD_DIMASSOC
360
1F7B
  0
DICTIONARY
  5
1FAE
330
1F9B
100
AcDbDictionary
280
     1
281
     1
  3
ACAD_DIMASSOC
360
1FAF
  0
DICTIONARY
  5
8FD
102
{ACAD_REACTORS
330
C
102
}
330
C
100
AcDbDictionary
281
     1
  0
DICTIONARY
  5
D
102
{ACAD_REACTORS
330
C
102
}
330
C
100
AcDbDictionary
281
     1
  0
DICTIONARY
  5
1A
102
{ACAD_REACTORS
330
C
102
}
330
C
100
AcDbDictionary
281
     1
  3
Layout1
350
1E
  3
Layout2
350
26
  3
Model
350
22
  0
DICTIONARY
  5
8FC
102
{ACAD_REACTORS
330
C
102
}
330
C
100
AcDbDictionary
281
     1
  0
DICTIONARY
  5
17
102
{ACAD_REACTORS
330
C
102
}
330
C
100
AcDbDictionary
281
     1
  3
Standard
350
18
  0
DICTIONARY
  5
19
102
{ACAD_REACTORS
330
C
102
}
330
C
100
AcDbDictionary
281
     1
  0
ACDBDICTIONARYWDFLT
  5
E
102
{ACAD_REACTORS
330
C
102
}
330
C
100
AcDbDictionary
281
     1
  3
Normal
350
F
100
AcDbDictionaryWithDefault
340
F
  0
DICTIONARY
  5
8FE
102
{ACAD_REACTORS
330
C
102
}
330
C
100
AcDbDictionary
281
     1
  3
Standard
350
8FF
  0
DICTIONARY
  5
2BBE
102
{ACAD_REACTORS
330
C
102
}
330
C
100
AcDbDictionary
281
     1
  0
DICTIONARY
  5
82
102
{ACAD_REACTORS
330
C
102
}
330
C
100
AcDbDictionary
281
     1
  3
CTABLESTYLE
350
972
  3
DIMASSOC
350
85
  3
HIDETEXT
350
84
  3
INDEXCTL
350
83
  3
PROJECTNAME
350
973
  0
DICTIONARY
  5
45
102
{ACAD_REACTORS
330
C
102
}
330
C
100
AcDbDictionary
281
     1
  3
AcmStdDictionary
350
4A
  3
AMDTSECTSYM_ARROWCOLOR
350
90B
  0
DICTIONARY
  5
2B
102
{ACAD_REACTORS
330
C
102
}
330
C
100
AcDbDictionary
281
     1
  0
DICTIONARY
  5
2026
102
{ACAD_REACTORS
330
C
102
}
330
C
100
AcDbDictionary
281
     1
  0
XRECORD
  5
2BBD
102
{ACAD_REACTORS
330
C
102
}
330
C
100
AcDbXrecord
280
     1
  1
DWGPROPS COOKIE
  2

  3

  4

  6

  7

  8

  9

300
AmdtFileType=84
301
=
302
=
303
=
304
=
305
=
306
=
307
=
308
=
309
=
 40
0.4289756018518519
 41
2453021.369367211
 42
2454250.661592153
  1

 90
        1
  0
DICTIONARY
  5
E57
102
{ACAD_REACTORS
330
E05
102
}
330
E05
100
AcDbDictionary
281
     1
  0
DICTIONARY
  5
E80
102
{ACAD_REACTORS
330
E05
102
}
330
E05
100
AcDbDictionary
281
     1
  0
DICTIONARY
  5
E56
102
{ACAD_REACTORS
330
E05
102
}
330
E05
100
AcDbDictionary
281
     1
1001
ACAD
1000
<All
  0
DICTIONARY
  5
1991
102
{ACAD_REACTORS
330
E05
102
}
330
E05
100
AcDbDictionary
280
     1
281
     1
  0
SORTENTSTABLE
  5
19C4
102
{ACAD_REACTORS
330
7D
102
}
330
7D
100
AcDbSortentsTable
330
1F
331
1048
  5
1048
331
FD2
  5
FD2
331
1009
  5
1009
331
1087
  5
1087
331
1050
  5
1050
331
FDA
  5
FDA
331
108F
  5
108F
331
FE2
  5
FE2
331
1019
  5
1019
331
1058
  5
1058
331
1097
  5
1097
331
1060
  5
1060
331
FAB
  5
FAB
331
FEA
  5
FEA
331
1021
  5
1021
331
109F
  5
109F
331
1029
  5
1029
331
FB3
  5
FB3
331
FF2
  5
FF2
331
1068
  5
1068
331
10A7
  5
10A7
331
1031
  5
1031
331
FBB
  5
FBB
331
FFA
  5
FFA
331
1070
  5
1070
331
1002
  5
1002
331
FC3
  5
FC3
331
FCB
  5
FCB
331
1041
  5
1041
331
FD3
  5
FD3
331
100A
  5
100A
331
1049
  5
1049
331
1088
  5
1088
331
13F4
  5
13F4
331
1051
  5
1051
331
FDB
  5
FDB
331
1090
  5
1090
331
1059
  5
1059
331
FE3
  5
FE3
331
101A
  5
101A
331
1098
  5
1098
331
1022
  5
1022
331
FAC
  5
FAC
331
FEB
  5
FEB
331
1061
  5
1061
331
10A0
  5
10A0
331
FF3
  5
FF3
331
FB4
  5
FB4
331
102A
  5
102A
331
1069
  5
1069
331
10A8
  5
10A8
331
121E
  5
121E
331
1444
  5
1444
331
1032
  5
1032
331
FBC
  5
FBC
331
FFB
  5
FFB
331
1071
  5
1071
331
1003
  5
1003
331
FC4
  5
FC4
331
1042
  5
1042
331
FCC
  5
FCC
331
1081
  5
1081
331
104A
  5
104A
331
FD4
  5
FD4
331
100B
  5
100B
331
1089
  5
1089
331
FDC
  5
FDC
331
1052
  5
1052
331
1091
  5
1091
331
1494
  5
1494
331
FE4
  5
FE4
331
FA5
  5
FA5
331
101B
  5
101B
331
105A
  5
105A
331
1099
  5
1099
331
1130
  5
1130
331
1062
  5
1062
331
FAD
  5
FAD
331
FEC
  5
FEC
331
1023
  5
1023
331
10A1
  5
10A1
331
102B
  5
102B
331
FB5
  5
FB5
331
FF4
  5
FF4
331
106A
  5
106A
331
10A9
  5
10A9
331
1033
  5
1033
331
FBD
  5
FBD
331
FFC
  5
FFC
331
107A
  5
107A
331
13CE
  5
13CE
331
1004
  5
1004
331
FC5
  5
FC5
331
FCD
  5
FCD
331
1043
  5
1043
331
1082
  5
1082
331
104B
  5
104B
331
FD5
  5
FD5
331
100C
  5
100C
331
108A
  5
108A
331
1053
  5
1053
331
FDD
  5
FDD
331
1014
  5
1014
331
11F8
  5
11F8
331
1092
  5
1092
331
105B
  5
105B
331
FE5
  5
FE5
331
FA6
  5
FA6
331
101C
  5
101C
331
109A
  5
109A
331
141E
  5
141E
331
FED
  5
FED
331
FAE
  5
FAE
331
1024
  5
1024
331
1063
  5
1063
331
10A2
  5
10A2
331
FF5
  5
FF5
331
FB6
  5
FB6
331
102C
  5
102C
331
106B
  5
106B
331
10AA
  5
10AA
331
1034
  5
1034
331
FBE
  5
FBE
331
FFD
  5
FFD
331
1073
  5
1073
331
107B
  5
107B
331
1005
  5
1005
331
103C
  5
103C
331
FC6
  5
FC6
331
1044
  5
1044
331
FCE
  5
FCE
331
146E
  5
146E
331
1083
  5
1083
331
104C
  5
104C
331
FD6
  5
FD6
331
108B
  5
108B
331
FDE
  5
FDE
331
1015
  5
1015
331
1054
  5
1054
331
1093
  5
1093
331
105C
  5
105C
331
FE6
  5
FE6
331
FA7
  5
FA7
331
101D
  5
101D
331
109B
  5
109B
331
13A8
  5
13A8
331
1064
  5
1064
331
FAF
  5
FAF
331
FEE
  5
FEE
331
1025
  5
1025
331
10A3
  5
10A3
331
102D
  5
102D
331
FB7
  5
FB7
331
FF6
  5
FF6
331
106C
  5
106C
331
14BE
  5
14BE
331
1035
  5
1035
331
FBF
  5
FBF
331
FFE
  5
FFE
331
1074
  5
1074
331
115A
  5
115A
331
1006
  5
1006
331
FC7
  5
FC7
331
FCF
  5
FCF
331
1045
  5
1045
331
1084
  5
1084
331
104D
  5
104D
331
FD7
  5
FD7
331
100E
  5
100E
331
108C
  5
108C
331
1055
  5
1055
331
FDF
  5
FDF
331
1016
  5
1016
331
1094
  5
1094
331
105D
  5
105D
331
FA8
  5
FA8
331
FE7
  5
FE7
331
101E
  5
101E
331
109C
  5
109C
331
FEF
  5
FEF
331
1026
  5
1026
331
1065
  5
1065
331
FB0
  5
FB0
331
10A4
  5
10A4
331
106D
  5
106D
331
FF7
  5
FF7
331
FB8
  5
FB8
331
102E
  5
102E
331
1036
  5
1036
331
FC0
  5
FC0
331
FFF
  5
FFF
331
1075
  5
1075
331
1007
  5
1007
331
FC8
  5
FC8
331
107D
  5
107D
331
1046
  5
1046
331
FD0
  5
FD0
331
100F
  5
100F
331
FD8
  5
FD8
331
104E
  5
104E
331
1085
  5
1085
331
10FC
  5
10FC
331
19C6
  5
19C6
331
1017
  5
1017
331
FE0
  5
FE0
331
1056
  5
1056
331
108D
  5
108D
331
105E
  5
105E
331
FA9
  5
FA9
331
FE8
  5
FE8
331
101F
  5
101F
331
1095
  5
1095
331
1066
  5
1066
331
1027
  5
1027
331
109D
  5
109D
331
FB1
  5
FB1
331
FF0
  5
FF0
331
102F
  5
102F
331
FB9
  5
FB9
331
FF8
  5
FF8
331
106E
  5
106E
331
10A5
  5
10A5
331
1000
  5
1000
331
1037
  5
1037
331
FC1
  5
FC1
331
1076
  5
1076
331
FC9
  5
FC9
331
103F
  5
103F
331
1047
  5
1047
331
FD1
  5
FD1
331
1008
  5
1008
331
1373
  5
1373
331
104F
  5
104F
331
FD9
  5
FD9
331
1010
  5
1010
331
1086
  5
1086
331
19C7
  5
19C7
331
FE1
  5
FE1
331
1057
  5
1057
331
108E
  5
108E
331
1020
  5
1020
331
FAA
  5
FAA
331
FE9
  5
FE9
331
105F
  5
105F
331
AE3
  5
AE3
331
1096
  5
1096
331
1067
  5
1067
331
109E
  5
109E
331
FF1
  5
FF1
331
FB2
  5
FB2
331
1028
  5
1028
331
106F
  5
106F
331
1030
  5
1030
331
FBA
  5
FBA
331
FF9
  5
FF9
331
10A6
  5
10A6
331
FC2
  5
FC2
331
1001
  5
1001
331
1244
  5
1244
331
1040
  5
1040
331
FCA
  5
FCA
  0
DIMASSOC
  5
110A
102
{ACAD_REACTORS
330
1109
102
}
330
1109
100
AcDbDimAssoc
330
10FC
 90
        3
 70
     0
 71
     0
  1
AcDbOsnapPointRef
 72
     1
331
10A0
 73
     0
 91
        0
 40
0.0
 10
0.0
 20
0.0
 30
2.000000000000000E+50
 75
     0
  1
AcDbOsnapPointRef
 72
     1
331
1085
 73
     0
 91
        0
 40
0.0
 10
0.0
 20
0.0
 30
2.000000000000000E+50
 75
     0
  0
DIMASSOC
  5
1140
102
{ACAD_REACTORS
330
113F
102
}
330
113F
100
AcDbDimAssoc
330
1130
 90
        3
 70
     0
 71
     0
  1
AcDbOsnapPointRef
 72
     1
331
10A0
 73
     0
 91
        0
 40
0.0
 10
0.0
 20
0.0
 30
2.000000000000000E+50
 75
     0
  1
AcDbOsnapPointRef
 72
    13
331
109F
 73
     0
 91
        0
 40
0.0
 10
0.0
 20
0.0
 30
2.000000000000000E+50
 75
     0
  0
DIMASSOC
  5
1168
102
{ACAD_REACTORS
330
1167
102
}
330
1167
100
AcDbDimAssoc
330
115A
 90
        3
 70
     0
 71
     0
  1
AcDbOsnapPointRef
 72
    13
331
109F
 73
     0
 91
        0
 40
0.0
 10
0.0
 20
0.0
 30
2.000000000000000E+50
 75
     0
  1
AcDbOsnapPointRef
 72
     1
331
1085
 73
     0
 91
        0
 40
0.0
 10
0.0
 20
0.0
 30
2.000000000000000E+50
 75
     0
  0
DIMASSOC
  5
1206
102
{ACAD_REACTORS
330
1205
102
}
330
1205
100
AcDbDimAssoc
330
11F8
 90
        3
 70
     0
 71
     0
  1
AcDbOsnapPointRef
 72
    13
331
FA5
 73
     0
 91
        0
 40
0.0
 10
0.0
 20
0.0
 30
2.000000000000000E+50
 75
     0
  1
AcDbOsnapPointRef
 72
     1
331
10A0
 73
     0
 91
        0
 40
0.0
 10
0.0
 20
0.0
 30
2.000000000000000E+50
 75
     0
  0
DIMASSOC
  5
122C
102
{ACAD_REACTORS
330
122B
102
}
330
122B
100
AcDbDimAssoc
330
121E
 90
        3
 70
     0
 71
     0
  1
AcDbOsnapPointRef
 72
    13
331
FA5
 73
     0
 91
        0
 40
0.0
 10
0.0
 20
0.0
 30
2.000000000000000E+50
 75
     0
  1
AcDbOsnapPointRef
 72
    13
331
1099
 73
     0
 91
        0
 40
0.0
 10
0.0
 20
0.0
 30
2.000000000000000E+50
 75
     0
  0
DIMASSOC
  5
1254
102
{ACAD_REACTORS
330
1253
102
}
330
1253
100
AcDbDimAssoc
330
1244
 90
        3
 70
     0
 71
     0
  1
AcDbOsnapPointRef
 72
    13
331
1099
 73
     0
 91
        0
 40
0.0
 10
0.0
 20
0.0
 30
2.000000000000000E+50
 75
     0
  1
AcDbOsnapPointRef
 72
    13
331
10A1
 73
     0
 91
        0
 40
0.0
 10
0.0
 20
0.0
 30
2.000000000000000E+50
 75
     0
  0
DIMASSOC
  5
1381
102
{ACAD_REACTORS
330
1380
102
}
330
1380
100
AcDbDimAssoc
330
1373
 90
        3
 70
     0
 71
     0
  1
AcDbOsnapPointRef
 72
    13
331
10A7
 73
     0
 91
        0
 40
0.0
 10
0.0
 20
0.0
 30
2.000000000000000E+50
 75
     0
  1
AcDbOsnapPointRef
 72
     1
331
1085
 73
     0
 91
        0
 40
0.0
 10
0.0
 20
0.0
 30
2.000000000000000E+50
 75
     0
  0
DIMASSOC
  5
13B6
102
{ACAD_REACTORS
330
13B5
102
}
330
13B5
100
AcDbDimAssoc
330
13A8
 90
        3
 70
     0
 71
     0
  1
AcDbOsnapPointRef
 72
    13
331
109C
 73
     0
 91
        0
 40
0.0
 10
0.0
 20
0.0
 30
2.000000000000000E+50
 75
     0
  1
AcDbOsnapPointRef
 72
    13
331
10A7
 73
     0
 91
        0
 40
0.0
 10
0.0
 20
0.0
 30
2.000000000000000E+50
 75
     0
  0
DIMASSOC
  5
13DC
102
{ACAD_REACTORS
330
13DB
102
}
330
13DB
100
AcDbDimAssoc
330
13CE
 90
        3
 70
     0
 71
     0
  1
AcDbOsnapPointRef
 72
     1
331
1060
 73
     0
 91
        0
 40
0.0
 10
0.0
 20
0.0
 30
2.000000000000000E+50
 75
     0
  1
AcDbOsnapPointRef
 72
     1
331
1085
 73
     0
 91
        0
 40
0.0
 10
0.0
 20
0.0
 30
2.000000000000000E+50
 75
     0
  0
DIMASSOC
  5
1404
102
{ACAD_REACTORS
330
1403
102
}
330
1403
100
AcDbDimAssoc
330
13F4
 90
        3
 70
     0
 71
     0
  1
AcDbOsnapPointRef
 72
    13
331
1026
 73
     0
 91
        0
 40
0.0
 10
0.0
 20
0.0
 30
2.000000000000000E+50
 75
     0
  1
AcDbOsnapPointRef
 72
     1
331
1026
 73
     0
 91
        0
 40
0.0
 10
0.0
 20
0.0
 30
2.000000000000000E+50
 75
     0
  0
DIMASSOC
  5
142C
102
{ACAD_REACTORS
330
142B
102
}
330
142B
100
AcDbDimAssoc
330
141E
 90
        3
 70
     0
 71
     0
  1
AcDbOsnapPointRef
 72
     1
331
1026
 73
     0
 91
        0
 40
0.0
 10
0.0
 20
0.0
 30
2.000000000000000E+50
 75
     0
  1
AcDbOsnapPointRef
 72
     1
331
1019
 73
     0
 91
        0
 40
0.0
 10
0.0
 20
0.0
 30
2.000000000000000E+50
 75
     0
  0
DIMASSOC
  5
1454
102
{ACAD_REACTORS
330
1453
102
}
330
1453
100
AcDbDimAssoc
330
1444
 90
       15
 70
     0
 71
     1
  1
AcDbOsnapPointRef
 72
     1
331
FBD
 73
     0
 91
        0
 40
0.0
 10
0.0
 20
0.0
 30
2.000000000000000E+50
 75
     0
  1
AcDbOsnapPointRef
 72
     6
331
FBB
 73
     0
 91
        0
 40
0.7500180412154318
 10
0.0
 20
0.0
 30
0.0
332
FB0
 74
     0
 92
        0
 75
     0
  1
AcDbOsnapPointRef
 72
    13
331
FBD
 73
     0
 91
        0
 40
0.0
 10
0.0
 20
0.0
 30
2.000000000000000E+50
 75
     0
  1
AcDbOsnapPointRef
 72
     1
331
FBD
 73
     0
 91
        0
 40
0.0
 10
0.0
 20
0.0
 30
2.000000000000000E+50
 75
     0
  0
DIMASSOC
  5
147C
102
{ACAD_REACTORS
330
147B
102
}
330
147B
100
AcDbDimAssoc
330
146E
 90
        3
 70
     0
 71
     0
  1
AcDbOsnapPointRef
 72
     1
331
FDB
 73
     0
 91
        0
 40
0.0
 10
0.0
 20
0.0
 30
2.000000000000000E+50
 75
     0
  1
AcDbOsnapPointRef
 72
     1
331
FE0
 73
     0
 91
        0
 40
0.0
 10
0.0
 20
0.0
 30
2.000000000000000E+50
 75
     0
  0
DIMASSOC
  5
14A4
102
{ACAD_REACTORS
330
14A3
102
}
330
14A3
100
AcDbDimAssoc
330
1494
 90
        3
 70
     0
 71
     0
  1
AcDbOsnapPointRef
 72
     1
331
FE0
 73
     0
 91
        0
 40
0.0
 10
0.0
 20
0.0
 30
2.000000000000000E+50
 75
     0
  1
AcDbOsnapPointRef
 72
     1
331
FE1
 73
     0
 91
        0
 40
0.0
 10
0.0
 20
0.0
 30
2.000000000000000E+50
 75
     0
  0
DIMASSOC
  5
14CC
102
{ACAD_REACTORS
330
14CB
102
}
330
14CB
100
AcDbDimAssoc
330
14BE
 90
        3
 70
     0
 71
     0
  1
AcDbOsnapPointRef
 72
     1
331
FB6
 73
     0
 91
        0
 40
0.0
 10
0.0
 20
0.0
 30
2.000000000000000E+50
 75
     0
  1
AcDbOsnapPointRef
 72
     1
331
FDD
 73
     0
 91
        0
 40
0.0
 10
0.0
 20
0.0
 30
2.000000000000000E+50
 75
     0
  0
DIMASSOC
  5
1C70
102
{ACAD_REACTORS
330
1C6F
102
}
330
1C6F
100
AcDbDimAssoc
330
1C62
 90
        2
 70
     0
 71
     0
  1
AcDbOsnapPointRef
 72
    13
331
1A6F
 73
     0
 91
        0
 40
0.0
 10
0.0
 20
0.0
 30
2.000000000000000E+50
 75
     0
  0
DIMASSOC
  5
1C96
102
{ACAD_REACTORS
330
1C95
102
}
330
1C95
100
AcDbDimAssoc
330
1C88
 90
        3
 70
     0
 71
     0
  1
AcDbOsnapPointRef
 72
    13
331
1A6F
 73
     0
 91
        0
 40
0.0
 10
0.0
 20
0.0
 30
2.000000000000000E+50
 75
     0
  1
AcDbOsnapPointRef
 72
     3
331
1A9F
 73
     0
 91
        0
 40
0.0
 10
0.0
 20
0.0
 30
0.0
 75
     0
  0
DIMASSOC
  5
1D7F
102
{ACAD_REACTORS
330
1D7E
102
}
330
1D7E
100
AcDbDimAssoc
330
1D75
 90
        2
 70
     0
 71
     0
  1
AcDbOsnapPointRef
 72
     3
331
100E
 73
     2
 91
        0
 40
0.0
 10
0.0
 20
0.0
 30
0.0
 75
     0
  0
DIMASSOC
  5
1F48
102
{ACAD_REACTORS
330
1F47
102
}
330
1F47
100
AcDbDimAssoc
330
1F35
 90
       15
 70
     1
 71
     0
  1
AcDbOsnapPointRef
 72
    13
331
1B27
 73
     2
 91
        0
 40
0.0
 10
0.0
 20
0.0
 30
2.000000000000000E+50
 75
     0
  1
AcDbOsnapPointRef
 72
     1
331
1B27
 73
     2
 91
        0
 40
0.0
 10
0.0
 20
0.0
 30
2.000000000000000E+50
 75
     0
  1
AcDbOsnapPointRef
 72
    13
331
1A57
 73
     2
 91
        0
 40
0.0
 10
0.0
 20
0.0
 30
2.000000000000000E+50
 75
     0
  1
AcDbOsnapPointRef
 72
     1
331
1A57
 73
     2
 91
        0
 40
0.0
 10
0.0
 20
0.0
 30
2.000000000000000E+50
 75
     0
  0
DIMASSOC
  5
1F7B
102
{ACAD_REACTORS
330
1F7A
102
}
330
1F7A
100
AcDbDimAssoc
330
1F67
 90
       15
 70
     1
 71
     0
  1
AcDbOsnapPointRef
 72
    13
331
1E69
 73
     2
 91
        0
 40
0.0
 10
0.0
 20
0.0
 30
2.000000000000000E+50
 75
     0
  1
AcDbOsnapPointRef
 72
     1
331
1E69
 73
     2
 91
        0
 40
0.0
 10
0.0
 20
0.0
 30
2.000000000000000E+50
 75
     0
  1
AcDbOsnapPointRef
 72
    13
331
1A57
 73
     2
 91
        0
 40
0.0
 10
0.0
 20
0.0
 30
2.000000000000000E+50
 75
     0
  1
AcDbOsnapPointRef
 72
     1
331
1A57
 73
     2
 91
        0
 40
0.0
 10
0.0
 20
0.0
 30
2.000000000000000E+50
 75
     0
  0
DIMASSOC
  5
1FAF
102
{ACAD_REACTORS
330
1FAE
102
}
330
1FAE
100
AcDbDimAssoc
330
1F9B
 90
       15
 70
     1
 71
     0
  1
AcDbOsnapPointRef
 72
    13
331
1A57
 73
     2
 91
        0
 40
0.0
 10
0.0
 20
0.0
 30
2.000000000000000E+50
 75
     0
  1
AcDbOsnapPointRef
 72
     1
331
1A57
 73
     2
 91
        0
 40
0.0
 10
0.0
 20
0.0
 30
2.000000000000000E+50
 75
     0
  1
AcDbOsnapPointRef
 72
    13
331
1F2A
 73
     2
 91
        0
 40
0.0
 10
0.0
 20
0.0
 30
2.000000000000000E+50
 75
     0
  1
AcDbOsnapPointRef
 72
     1
331
1F2A
 73
     2
 91
        0
 40
0.0
 10
0.0
 20
0.0
 30
2.000000000000000E+50
 75
     0
  0
LAYOUT
  5
1E
102
{ACAD_XDICTIONARY
360
2BBF
102
}
102
{ACAD_REACTORS
330
1A
102
}
330
1A
100
AcDbPlotSettings
  1

  2
自動 RD 上的 Epson Stylus Photo 750 單色
  4

  6

 40
0.0
 41
0.0
 42
0.0
 43
0.0
 44
0.0
 45
0.0
 46
0.0
 47
0.0
 48
0.0
 49
0.0
140
0.0
141
0.0
142
1.0
143
1.0
 70
   688
 72
     0
 73
     0
 74
     5
  7
彩色出圖.ctb
 75
    16
147
1.0
148
0.0
149
0.0
100
AcDbLayout
  1
Layout1
 70
     1
 71
     1
 10
0.0
 20
0.0
 11
420.0
 21
297.0
 12
0.0
 22
0.0
 32
0.0
 14
1.000000000000000E+20
 24
1.000000000000000E+20
 34
1.000000000000000E+20
 15
-1.000000000000000E+20
 25
-1.000000000000000E+20
 35
-1.000000000000000E+20
146
0.0
 13
0.0
 23
0.0
 33
0.0
 16
1.0
 26
0.0
 36
0.0
 17
0.0
 27
1.0
 37
0.0
 76
     0
330
1B
  0
LAYOUT
  5
26
102
{ACAD_XDICTIONARY
360
2BC3
102
}
102
{ACAD_REACTORS
330
1A
102
}
330
1A
100
AcDbPlotSettings
  1

  2
自動 RD 上的 Epson Stylus Photo 750 單色
  4

  6

 40
0.0
 41
0.0
 42
0.0
 43
0.0
 44
0.0
 45
0.0
 46
0.0
 47
0.0
 48
0.0
 49
0.0
140
0.0
141
0.0
142
1.0
143
1.0
 70
   688
 72
     0
 73
     0
 74
     5
  7
彩色出圖.ctb
 75
    16
147
1.0
148
0.0
149
0.0
100
AcDbLayout
  1
Layout2
 70
     1
 71
     2
 10
0.0
 20
0.0
 11
12.0
 21
9.0
 12
0.0
 22
0.0
 32
0.0
 14
0.0
 24
0.0
 34
0.0
 15
0.0
 25
0.0
 35
0.0
146
0.0
 13
0.0
 23
0.0
 33
0.0
 16
1.0
 26
0.0
 36
0.0
 17
0.0
 27
1.0
 37
0.0
 76
     0
330
23
  0
LAYOUT
  5
22
102
{ACAD_XDICTIONARY
360
2BC1
102
}
102
{ACAD_REACTORS
330
1A
102
}
330
1A
100
AcDbPlotSettings
  1

  2
自動 RD 上的 Epson Stylus Photo 750 單色
  4
A4
  6

 40
3.757083177566528
 41
14.7637300491333
 42
3.757080078125
 43
3.757080078125
 44
209.9733276367187
 45
296.9683227539062
 46
7.54
 47
0.0
 48
0.0
 49
0.0
140
0.0
141
0.0
142
1.0
143
1.817317462545654
 70
 11956
 72
     1
 73
     0
 74
     1
  7
彩色出圖.ctb
 75
     0
147
0.5502615919395967
148
-125.5654918467224
149
222.8859553785132
100
AcDbLayout
  1
Model
 70
     1
 71
     0
 10
0.0
 20
0.0
 11
12.0
 21
9.0
 12
0.0
 22
0.0
 32
0.0
 14
0.0
 24
0.0
 34
0.0
 15
0.0
 25
0.0
 35
0.0
146
0.0
 13
0.0
 23
0.0
 33
0.0
 16
1.0
 26
0.0
 36
0.0
 17
0.0
 27
1.0
 37
0.0
 76
     0
330
1F
  0
MLINESTYLE
  5
18
102
{ACAD_REACTORS
330
17
102
}
330
17
100
AcDbMlineStyle
  2
STANDARD
 70
     0
  3

 62
   256
 51
90.0
 52
90.0
 71
     2
 49
0.5
 62
   256
  6
BYLAYER
 49
-0.5
 62
   256
  6
BYLAYER
  0
ACDBPLACEHOLDER
  5
F
102
{ACAD_REACTORS
330
E
102
}
330
E
  0
TABLESTYLE
  5
8FF
102
{ACAD_REACTORS
330
8FE
102
}
330
8FE
100
AcDbTableStyle
  3
Standard
 70
     0
 71
     0
 40
1.5
 41
1.5
280
     0
281
     0
  7
STANDARD
140
4.5
170
     2
 62
     0
 63
     7
283
     0
274
    -2
284
     1
 64
     0
275
    -2
285
     1
 65
     0
276
    -2
286
     1
 66
     0
277
    -2
287
     1
 67
     0
278
    -2
288
     1
 68
     0
279
    -2
289
     1
 69
     0
  7
STANDARD
140
6.0
170
     5
 62
     0
 63
     7
283
     0
274
    -2
284
     1
 64
     0
275
    -2
285
     1
 65
     0
276
    -2
286
     1
 66
     0
277
    -2
287
     1
 67
     0
278
    -2
288
     1
 68
     0
279
    -2
289
     1
 69
     0
  7
STANDARD
140
4.5
170
     5
 62
     0
 63
     7
283
     0
274
    -2
284
     1
 64
     0
275
    -2
285
     1
 65
     0
276
    -2
286
     1
 66
     0
277
    -2
287
     1
 67
     0
278
    -2
288
     1
 68
     0
279
    -2
289
     1
 69
     0
  0
DICTIONARYVAR
  5
972
102
{ACAD_REACTORS
330
82
102
}
330
82
100
DictionaryVariables
280
     0
  1
STANDARD
  0
DICTIONARYVAR
  5
85
102
{ACAD_REACTORS
330
82
102
}
330
82
100
DictionaryVariables
280
     0
  1
2
  0
DICTIONARYVAR
  5
84
102
{ACAD_REACTORS
330
82
102
}
330
82
100
DictionaryVariables
280
     0
  1
1
  0
DICTIONARYVAR
  5
83
102
{ACAD_REACTORS
330
82
102
}
330
82
100
DictionaryVariables
280
     0
  1
0
  0
DICTIONARYVAR
  5
973
102
{ACAD_REACTORS
330
82
102
}
330
82
100
DictionaryVariables
280
     0
  1

  0
DICTIONARY
  5
4A
102
{ACAD_REACTORS
330
45
102
}
330
45
100
AcDbDictionary
281
     1
  0
XRECORD
  5
90B
102
{ACAD_REACTORS
330
45
102
}
330
45
100
AcDbXrecord
280
     1
 90
-1023410169
  0
DICTIONARY
  5
2BBF
330
1E
100
AcDbDictionary
280
     1
281
     1
  3
ACAD_XREC_ROUNDTRIP
360
2BC0
  0
DICTIONARY
  5
2BC3
330
26
100
AcDbDictionary
280
     1
281
     1
  3
ACAD_XREC_ROUNDTRIP
360
2BC4
  0
DICTIONARY
  5
2BC1
330
22
100
AcDbDictionary
280
     1
281
     1
  3
ACAD_XREC_ROUNDTRIP
360
2BC2
  0
XRECORD
  5
2BC0
102
{ACAD_REACTORS
330
2BBF
102
}
330
2BBF
100
AcDbXrecord
280
     1
102
SHADEPLOT
 70
     0
102
SHADEPLOTRESLEVEL
 70
     2
102
SHADEPLOTCUSTOMDPI
 70
   300
  0
XRECORD
  5
2BC4
102
{ACAD_REACTORS
330
2BC3
102
}
330
2BC3
100
AcDbXrecord
280
     1
102
SHADEPLOT
 70
     0
102
SHADEPLOTRESLEVEL
 70
     2
102
SHADEPLOTCUSTOMDPI
 70
   300
  0
XRECORD
  5
2BC2
102
{ACAD_REACTORS
330
2BC1
102
}
330
2BC1
100
AcDbXrecord
280
     1
102
SHADEPLOT
 70
     0
102
SHADEPLOTRESLEVEL
 70
     2
102
SHADEPLOTCUSTOMDPI
 70
   300
  0
ENDSEC
  0
EOF
