  0
SECTION
  2
HEADER
  9
$ACADVER
  1
AC1015
  9
$ACADMAINTVER
 70
     6
  9
$DWGCODEPAGE
  3
DOS932
  9
$INSBASE
 10
0.0
 20
0.0
 30
0.0
  9
$EXTMIN
 10
0.0
 20
0.0
 30
0.0
  9
$EXTMAX
 10
210.0
 20
297.0
 30
0.0
  9
$LIMMIN
 10
0.0
 20
0.0
  9
$LIMMAX
 10
0.0
 20
0.0
  9
$ORTHOMODE
 70
     0
  9
$REGENMODE
 70
     1
  9
$FILLMODE
 70
     1
  9
$QTEXTMODE
 70
     0
  9
$MIRRTEXT
 70
     1
  9
$LTSCALE
 40
1.0
  9
$ATTMODE
 70
     1
  9
$TEXTSIZE
 40
3.5
  9
$TRACEWID
 40
1.0
  9
$TEXTSTYLE
  7
Standard
  9
$CLAYER
  8
0
  9
$CELTYPE
  6
ByLayer
  9
$CECOLOR
 62
   256
  9
$CELTSCALE
 40
1.0
  9
$DISPSILH
 70
     0
  9
$DIMSCALE
 40
1.0
  9
$DIMASZ
 40
3.0
  9
$DIMEXO
 40
1.0
  9
$DIMDLI
 40
3.75
  9
$DIMRND
 40
0.0
  9
$DIMDLE
 40
0.0
  9
$DIMEXE
 40
1.0
  9
$DIMTP
 40
0.0
  9
$DIMTM
 40
0.0
  9
$DIMTXT
 40
3.5
  9
$DIMCEN
 40
2.5
  9
$DIMTSZ
 40
0.0
  9
$DIMTOL
 70
     0
  9
$DIMLIM
 70
     0
  9
$DIMTIH
 70
     1
  9
$DIMTOH
 70
     1
  9
$DIMSE1
 70
     0
  9
$DIMSE2
 70
     0
  9
$DIMTAD
 70
     1
  9
$DIMZIN
 70
     0
  9
$DIMBLK
  1

  9
$DIMASO
 70
     1
  9
$DIMSHO
 70
     1
  9
$DIMPOST
  1

  9
$DIMAPOST
  1

  9
$DIMALT
 70
     0
  9
$DIMALTD
 70
     3
  9
$DIMALTF
 40
0.0393700787
  9
$DIMLFAC
 40
1.0
  9
$DIMTOFL
 70
     1
  9
$DIMTVP
 40
0.0
  9
$DIMTIX
 70
     0
  9
$DIMSOXD
 70
     0
  9
$DIMSAH
 70
     0
  9
$DIMBLK1
  1

  9
$DIMBLK2
  1

  9
$DIMSTYLE
  2
ISO-25
  9
$DIMCLRD
 70
     0
  9
$DIMCLRE
 70
     0
  9
$DIMCLRT
 70
     0
  9
$DIMTFAC
 40
1.0
  9
$DIMGAP
 40
1.524
  9
$DIMJUST
 70
     0
  9
$DIMSD1
 70
     0
  9
$DIMSD2
 70
     0
  9
$DIMTOLJ
 70
     0
  9
$DIMTZIN
 70
     0
  9
$DIMALTZ
 70
     0
  9
$DIMALTTZ
 70
     0
  9
$DIMUPT
 70
     0
  9
$DIMDEC
 70
     2
  9
$DIMTDEC
 70
     2
  9
$DIMALTU
 70
     2
  9
$DIMALTTD
 70
     3
  9
$DIMTXSTY
  7
Standard
  9
$DIMAUNIT
 70
     0
  9
$DIMADEC
 70
     0
  9
$DIMALTRND
 40
0.0
  9
$DIMAZIN
 70
     0
  9
$DIMDSEP
 70
    44
  9
$DIMATFIT
 70
     3
  9
$DIMFRAC
 70
     0
  9
$DIMLDRBLK
  1

  9
$DIMLUNIT
 70
     2
  9
$DIMLWD
 70
    -2
  9
$DIMLWE
 70
    -2
  9
$DIMTMOVE
 70
     0
  9
$LUNITS
 70
     2
  9
$LUPREC
 70
     1
  9
$SKETCHINC
 40
1.0
  9
$FILLETRAD
 40
10.0
  9
$AUNITS
 70
     0
  9
$AUPREC
 70
     0
  9
$MENU
  1
.
  9
$ELEVATION
 40
0.0
  9
$PELEVATION
 40
0.0
  9
$THICKNESS
 40
0.0
  9
$LIMCHECK
 70
     0
  9
$CHAMFERA
 40
10.0
  9
$CHAMFERB
 40
10.0
  9
$CHAMFERC
 40
20.0
  9
$CHAMFERD
 40
0.0
  9
$SKPOLY
 70
     0
  9
$TDCREATE
 40
2454447.402844144
  9
$TDUCREATE
 40
2454447.027844144
  9
$TDUPDATE
 40
2454447.402844155
  9
$TDUUPDATE
 40
2454447.027844155
  9
$TDINDWG
 40
0.0000000116
  9
$TDUSRTIMER
 40
0.0000000116
  9
$USRTIMER
 70
     1
  9
$ANGBASE
 50
0.0
  9
$ANGDIR
 70
     0
  9
$PDMODE
 70
     0
  9
$PDSIZE
 40
-1.0
  9
$PLINEWID
 40
0.0
  9
$SPLFRAME
 70
     0
  9
$SPLINETYPE
 70
     6
  9
$SPLINESEGS
 70
     8
  9
$HANDSEED
  5
247
  9
$SURFTAB1
 70
     6
  9
$SURFTAB2
 70
     6
  9
$SURFTYPE
 70
     6
  9
$SURFU
 70
     6
  9
$SURFV
 70
     6
  9
$UCSBASE
  2

  9
$UCSNAME
  2

  9
$UCSORG
 10
0.0
 20
0.0
 30
0.0
  9
$UCSXDIR
 10
1.0
 20
0.0
 30
0.0
  9
$UCSYDIR
 10
0.0
 20
1.0
 30
0.0
  9
$UCSORTHOREF
  2

  9
$UCSORTHOVIEW
 70
     0
  9
$UCSORGTOP
 10
0.0
 20
0.0
 30
0.0
  9
$UCSORGBOTTOM
 10
0.0
 20
0.0
 30
0.0
  9
$UCSORGLEFT
 10
0.0
 20
0.0
 30
0.0
  9
$UCSORGRIGHT
 10
0.0
 20
0.0
 30
0.0
  9
$UCSORGFRONT
 10
0.0
 20
0.0
 30
0.0
  9
$UCSORGBACK
 10
0.0
 20
0.0
 30
0.0
  9
$PUCSBASE
  2

  9
$PUCSNAME
  2

  9
$PUCSORG
 10
0.0
 20
0.0
 30
0.0
  9
$PUCSXDIR
 10
1.0
 20
0.0
 30
0.0
  9
$PUCSYDIR
 10
0.0
 20
1.0
 30
0.0
  9
$PUCSORTHOREF
  2

  9
$PUCSORTHOVIEW
 70
     0
  9
$PUCSORGTOP
 10
0.0
 20
0.0
 30
0.0
  9
$PUCSORGBOTTOM
 10
0.0
 20
0.0
 30
0.0
  9
$PUCSORGLEFT
 10
0.0
 20
0.0
 30
0.0
  9
$PUCSORGRIGHT
 10
0.0
 20
0.0
 30
0.0
  9
$PUCSORGFRONT
 10
0.0
 20
0.0
 30
0.0
  9
$PUCSORGBACK
 10
0.0
 20
0.0
 30
0.0
  9
$USERI1
 70
     0
  9
$USERI2
 70
     0
  9
$USERI3
 70
     0
  9
$USERI4
 70
     0
  9
$USERI5
 70
     0
  9
$USERR1
 40
0.0
  9
$USERR2
 40
0.0
  9
$USERR3
 40
0.0
  9
$USERR4
 40
0.0
  9
$USERR5
 40
0.0
  9
$WORLDVIEW
 70
     1
  9
$SHADEDGE
 70
     3
  9
$SHADEDIF
 70
    70
  9
$TILEMODE
 70
     1
  9
$MAXACTVP
 70
    64
  9
$PINSBASE
 10
0.0
 20
0.0
 30
0.0
  9
$PLIMCHECK
 70
     0
  9
$PEXTMIN
 10
1.0000000000E+20
 20
1.0000000000E+20
 30
1.0000000000E+20
  9
$PEXTMAX
 10
-1.0000000000E+20
 20
-1.0000000000E+20
 30
-1.0000000000E+20
  9
$PLIMMIN
 10
0.0
 20
0.0
  9
$PLIMMAX
 10
420.0
 20
297.0
  9
$UNITMODE
 70
     0
  9
$VISRETAIN
 70
     1
  9
$PLINEGEN
 70
     0
  9
$PSLTSCALE
 70
     1
  9
$TREEDEPTH
 70
  3020
  9
$CMLSTYLE
  2
Standard
  9
$CMLJUST
 70
     0
  9
$CMLSCALE
 40
20.0
  9
$PROXYGRAPHICS
 70
     1
  9
$MEASUREMENT
 70
     1
  9
$CELWEIGHT
370
    -1
  9
$ENDCAPS
280
     0
  9
$JOINSTYLE
280
     0
  9
$LWDISPLAY
290
     1
  9
$INSUNITS
 70
     4
  9
$HYPERLINKBASE
  1

  9
$STYLESHEET
  1

  9
$XEDIT
290
     1
  9
$CEPSNTYPE
380
     0
  9
$PSTYLEMODE
290
     1
  9
$FINGERPRINTGUID
  2
{BFCDC0B2-1ACA-4B7D-8AA7-6CA0152FEEA6}
  9
$VERSIONGUID
  2
{FAEB1C32-E019-11D5-929B-00C0DF256EC4}
  9
$EXTNAMES
290
     1
  9
$PSVPSCALE
 40
0.0
  9
$OLESTARTUP
290
     0
  0
ENDSEC
  0
SECTION
  2
CLASSES
  0
CLASS
  1
ACDBDICTIONARYWDFLT
  2
AcDbDictionaryWithDefault
  3
ObjectDBX Classes
 90
        0
280
     0
281
     0
  0
CLASS
  1
ACDBPLACEHOLDER
  2
AcDbPlaceHolder
  3
ObjectDBX Classes
 90
        0
280
     0
281
     0
  0
CLASS
  1
LAYOUT
  2
AcDbLayout
  3
ObjectDBX Classes
 90
        0
280
     0
281
     0
  0
ENDSEC
  0
SECTION
  2
TABLES
  0
TABLE
  2
VPORT
  5
8
330
0
100
AcDbSymbolTable
 70
     1
  0
VPORT
  5
29
330
8
100
AcDbSymbolTableRecord
100
AcDbViewportTableRecord
  2
*Active
 70
     0
 10
0.0
 20
0.0
 11
1.0
 21
1.0
 12
105.0
 22
148.5
 13
0.0
 23
0.0
 14
10.0
 24
10.0
 15
10.0
 25
10.0
 16
0.0
 26
0.0
 36
1.0
 17
0.0
 27
0.0
 37
0.0
 40
297.0
 41
1.9729729729
 42
50.0
 43
0.0
 44
0.0
 50
0.0
 51
0.0
 71
     0
 72
  2000
 73
     1
 74
     3
 75
     0
 76
     0
 77
     0
 78
     0
281
     0
 65
     1
110
0.0
120
0.0
130
0.0
111
1.0
121
0.0
131
0.0
112
0.0
122
1.0
132
0.0
 79
     0
146
0.0
  0
ENDTAB
  0
TABLE
  2
LTYPE
  5
5
330
0
100
AcDbSymbolTable
 70
     6
  0
LTYPE
  5
14
330
5
100
AcDbSymbolTableRecord
100
AcDbLinetypeTableRecord
  2
ByBlock
 70
     0
  3

 72
    65
 73
     0
 40
0.0
  0
LTYPE
  5
15
330
5
100
AcDbSymbolTableRecord
100
AcDbLinetypeTableRecord
  2
ByLayer
 70
     0
  3

 72
    65
 73
     0
 40
0.0
  0
LTYPE
  5
16
330
5
100
AcDbSymbolTableRecord
100
AcDbLinetypeTableRecord
  2
Continuous
 70
     0
  3
Solid line
 72
    65
 73
     0
 40
0.0
  0
LTYPE
  5
2A
330
5
100
AcDbSymbolTableRecord
100
AcDbLinetypeTableRecord
  2
HIDDEN
 70
     0
  3
Hidden __ __ __ __ __ __ __ __ __ __ __ __ __ __
 72
    65
 73
     2
 40
1.905
 49
1.27
 74
     0
 49
-0.635
 74
     0
  0
LTYPE
  5
2B
330
5
100
AcDbSymbolTableRecord
100
AcDbLinetypeTableRecord
  2
PHANTOM
 70
     0
  3
Phantom ______  __  __  ______  __  __  ______
 72
    65
 73
     6
 40
12.7
 49
6.35
 74
     0
 49
-1.27
 74
     0
 49
1.27
 74
     0
 49
-1.27
 74
     0
 49
1.27
 74
     0
 49
-1.27
 74
     0
  0
LTYPE
  5
2C
330
5
100
AcDbSymbolTableRecord
100
AcDbLinetypeTableRecord
  2
CENTER
 70
     0
  3
Center ____ _ ____ _ ____ _ ____ _ ____ _ ____
 72
    65
 73
     4
 40
10.16
 49
6.35
 74
     0
 49
-1.27
 74
     0
 49
1.27
 74
     0
 49
-1.27
 74
     0
  0
LTYPE
  5
2D
330
5
100
AcDbSymbolTableRecord
100
AcDbLinetypeTableRecord
  2
CENTERX2
 70
     0
  3
Center (2x) ________  __  ________  __  _____
 72
    65
 73
     4
 40
20.32
 49
12.7
 74
     0
 49
-2.54
 74
     0
 49
2.54
 74
     0
 49
-2.54
 74
     0
  0
LTYPE
  5
2E
330
5
100
AcDbSymbolTableRecord
100
AcDbLinetypeTableRecord
  2
DOT2
 70
     0
  3
Dot (.5x) ........................................
 72
    65
 73
     2
 40
0.635
 49
0.0
 74
     0
 49
-0.635
 74
     0
  0
ENDTAB
  0
TABLE
  2
LAYER
  5
2
330
0
100
AcDbSymbolTable
 70
     2
  0
LAYER
  5
10
330
2
100
AcDbSymbolTableRecord
100
AcDbLayerTableRecord
  2
0
 70
     0
 62
     7
  6
Continuous
370
    -3
390
F
  0
LAYER
  5
101
330
2
100
AcDbSymbolTableRecord
100
AcDbLayerTableRecord
  2
Defpoints
 70
     0
 62
     7
  6
Continuous
290
     0
370
    -3
390
F
  0
ENDTAB
  0
TABLE
  2
STYLE
  5
3
330
0
100
AcDbSymbolTable
 70
     2
  0
STYLE
  5
11
330
3
100
AcDbSymbolTableRecord
100
AcDbTextStyleTableRecord
  2
Standard
 70
     0
 40
0.0
 41
1.0
 50
0.0
 71
     0
 42
2.5
  3
txt
  4
bigfont
  0
STYLE
  5
37
330
3
100
AcDbSymbolTableRecord
100
AcDbTextStyleTableRecord
  2
SLDTEXTSTYLE0
 70
     0
 40
0.0
 41
0.7
 50
0.0
 71
     0
 42
0.2
  3
TXT
  4
bigfont
  0
ENDTAB
  0
TABLE
  2
VIEW
  5
6
330
0
100
AcDbSymbolTable
 70
     0
  0
ENDTAB
  0
TABLE
  2
UCS
  5
7
330
0
100
AcDbSymbolTable
 70
     0
  0
ENDTAB
  0
TABLE
  2
APPID
  5
9
330
0
100
AcDbSymbolTable
 70
     1
  0
APPID
  5
12
330
9
100
AcDbSymbolTableRecord
100
AcDbRegAppTableRecord
  2
ACAD
 70
     0
  0
ENDTAB
  0
TABLE
  2
DIMSTYLE
  5
A
330
0
100
AcDbSymbolTable
 70
     2
100
AcDbDimStyleTable
  0
DIMSTYLE
105
27
330
A
100
AcDbSymbolTableRecord
100
AcDbDimStyleTableRecord
  2
ISO-25
 70
     0
 41
2.5
 42
0.625
 43
3.75
 44
1.25
 73
     0
 74
     0
 77
     1
 78
     8
140
2.5
141
2.5
143
0.0393700787
147
0.625
171
     3
172
     1
271
     2
272
     2
274
     3
278
    44
283
     0
284
     8
340
11
  0
DIMSTYLE
105
10F
102
{ACAD_REACTORS
330
100
330
11E
330
135
330
1D2
330
1E6
330
1FD
330
211
330
225
102
}
330
A
100
AcDbSymbolTableRecord
100
AcDbDimStyleTableRecord
  2
SLDDIMSTYLE0
 70
     0
 41
3.0
 44
0.0
 73
     0
 74
     0
 77
     3
 78
    12
140
3.5
147
0.875
173
     1
271
     1
272
     3
284
    12
340
37
341
110
343
110
344
110
  0
ENDTAB
  0
TABLE
  2
BLOCK_RECORD
  5
1
330
0
100
AcDbSymbolTable
 70
    11
  0
BLOCK_RECORD
  5
1F
330
1
100
AcDbSymbolTableRecord
100
AcDbBlockTableRecord
  2
*Model_Space
340
22
  0
BLOCK_RECORD
  5
1B
330
1
100
AcDbSymbolTableRecord
100
AcDbBlockTableRecord
  2
*Paper_Space
340
1E
  0
BLOCK_RECORD
  5
23
330
1
100
AcDbSymbolTableRecord
100
AcDbBlockTableRecord
  2
*Paper_Space0
340
26
  0
BLOCK_RECORD
  5
102
330
1
100
AcDbSymbolTableRecord
100
AcDbBlockTableRecord
  2
*D1
340
0
  0
BLOCK_RECORD
  5
110
330
1
100
AcDbSymbolTableRecord
100
AcDbBlockTableRecord
  2
_Open30
340
0
102
{BLKREFS
331
107
331
106
331
116
331
117
331
126
331
125
331
12D
331
12E
331
13B
331
13A
331
142
331
143
331
1D8
331
1D7
331
1E0
331
1E1
331
1ED
331
1EC
331
1F5
331
1F6
331
203
331
202
331
20B
331
20C
331
217
331
216
331
21F
331
220
331
22B
331
22A
331
232
331
233
102
}
  0
BLOCK_RECORD
  5
11F
330
1
100
AcDbSymbolTableRecord
100
AcDbBlockTableRecord
  2
*D3
340
0
  0
BLOCK_RECORD
  5
136
330
1
100
AcDbSymbolTableRecord
100
AcDbBlockTableRecord
  2
*D4
340
0
  0
BLOCK_RECORD
  5
1D3
330
1
100
AcDbSymbolTableRecord
100
AcDbBlockTableRecord
  2
*D5
340
0
  0
BLOCK_RECORD
  5
1E7
330
1
100
AcDbSymbolTableRecord
100
AcDbBlockTableRecord
  2
*D6
340
0
  0
BLOCK_RECORD
  5
1FE
330
1
100
AcDbSymbolTableRecord
100
AcDbBlockTableRecord
  2
*D7
340
0
  0
BLOCK_RECORD
  5
212
330
1
100
AcDbSymbolTableRecord
100
AcDbBlockTableRecord
  2
*D8
340
0
  0
BLOCK_RECORD
  5
226
330
1
100
AcDbSymbolTableRecord
100
AcDbBlockTableRecord
  2
*D9
340
0
  0
BLOCK_RECORD
  5
23A
330
1
100
AcDbSymbolTableRecord
100
AcDbBlockTableRecord
  2
SW_CENTERMARKSYMBOL_0
340
0
102
{BLKREFS
331
245
102
}
  0
ENDTAB
  0
ENDSEC
  0
SECTION
  2
BLOCKS
  0
BLOCK
  5
20
330
1F
100
AcDbEntity
  8
0
100
AcDbBlockBegin
  2
*Model_Space
 70
     0
 71
     0
 10
0.0
 20
0.0
 30
0.0
  3
*Model_Space
  1

  0
ENDBLK
  5
21
330
1F
100
AcDbEntity
  8
0
100
AcDbBlockEnd
  0
BLOCK
  5
1C
330
1B
100
AcDbEntity
 67
     1
  8
0
100
AcDbBlockBegin
  2
*Paper_Space
 70
     0
 71
     0
 10
0.0
 20
0.0
 30
0.0
  3
*Paper_Space
  1

  0
ENDBLK
  5
1D
330
1B
100
AcDbEntity
 67
     1
  8
0
100
AcDbBlockEnd
  0
BLOCK
  5
24
330
23
100
AcDbEntity
  8
0
100
AcDbBlockBegin
  2
*Paper_Space0
 70
     0
 71
     0
 10
0.0
 20
0.0
 30
0.0
  3
*Paper_Space0
  1

  0
ENDBLK
  5
25
330
23
100
AcDbEntity
  8
0
100
AcDbBlockEnd
  0
BLOCK
  5
10D
330
102
100
AcDbEntity
  8
0
100
AcDbBlockBegin
  2
*D1
 70
     1
 71
     0
 10
0.0
 20
0.0
 30
0.0
  3
*D1
  1

  0
INSERT
  5
116
330
102
100
AcDbEntity
  8
0
  6
Continuous
 62
     7
370
     0
100
AcDbBlockReference
  2
_Open30
 10
93.8620647512
 20
142.2314589807
 30
0.1
 41
3.0
 42
3.0
 50
270.0
  0
INSERT
  5
117
330
102
100
AcDbEntity
  8
0
  6
Continuous
 62
     7
370
     0
100
AcDbBlockReference
  2
_Open30
 10
93.8620647512
 20
131.8314589807
 30
0.1
 41
3.0
 42
3.0
 50
90.0
  0
LINE
  5
118
330
102
100
AcDbEntity
  8
0
  6
Continuous
 62
     7
370
     0
100
AcDbLine
 10
80.0540931665
 20
142.2314589807
 30
0.0
 11
94.8620647512
 21
142.2314589807
 31
0.0
  0
LINE
  5
119
330
102
100
AcDbEntity
  8
0
  6
Continuous
 62
     7
370
     0
100
AcDbLine
 10
80.0540931665
 20
131.8314589807
 30
0.0
 11
94.8620647512
 21
131.8314589807
 31
0.0
  0
LINE
  5
11A
330
102
100
AcDbEntity
  8
0
  6
Continuous
 62
     7
370
     0
100
AcDbLine
 10
93.8620647512
 20
142.2314589807
 30
0.0
 11
93.8620647512
 21
147.2314589807
 31
0.0
  0
LINE
  5
11B
330
102
100
AcDbEntity
  8
0
  6
Continuous
 62
     7
370
     0
100
AcDbLine
 10
93.8620647512
 20
142.2314589807
 30
0.0
 11
93.8620647512
 21
131.8314589807
 31
0.0
  0
LINE
  5
11C
330
102
100
AcDbEntity
  8
0
  6
Continuous
 62
     7
370
     0
100
AcDbLine
 10
93.8620647512
 20
131.8314589807
 30
0.0
 11
93.8620647512
 21
126.8314589807
 31
0.0
  0
MTEXT
  5
11D
330
102
100
AcDbEntity
  8
0
  6
Continuous
 62
     7
370
     0
100
AcDbMText
 10
89.7893377113
 20
132.9588097705
 30
0.0
 40
3.5
 41
0.0
 71
     1
 72
     1
  1
10.4
  7
SLDTEXTSTYLE0
 11
-7.044197039909883E-15
 21
1.0
 31
0.0
 73
     1
 44
1.0
  0
ENDBLK
  5
10E
330
102
100
AcDbEntity
  8
0
100
AcDbBlockEnd
  0
BLOCK
  5
111
330
110
100
AcDbEntity
  8
0
100
AcDbBlockBegin
  2
_Open30
 70
     0
 71
     0
 10
0.0
 20
0.0
 30
0.0
  3
_Open30
  1

  0
LINE
  5
113
330
110
100
AcDbEntity
  8
0
  6
ByBlock
 62
     0
370
    -2
100
AcDbLine
 10
-1.0
 20
0.267949
 30
0.0
 11
0.0
 21
0.0
 31
0.0
  0
LINE
  5
114
330
110
100
AcDbEntity
  8
0
  6
ByBlock
 62
     0
370
    -2
100
AcDbLine
 10
0.0
 20
0.0
 30
0.0
 11
-1.0
 21
-0.267949
 31
0.0
  0
LINE
  5
115
330
110
100
AcDbEntity
  8
0
  6
ByBlock
 62
     0
370
    -2
100
AcDbLine
 10
0.0
 20
0.0
 30
0.0
 11
-1.0
 21
0.0
 31
0.0
  0
ENDBLK
  5
112
330
110
100
AcDbEntity
  8
0
100
AcDbBlockEnd
  0
BLOCK
  5
12A
330
11F
100
AcDbEntity
  8
0
100
AcDbBlockBegin
  2
*D3
 70
     1
 71
     0
 10
0.0
 20
0.0
 30
0.0
  3
*D3
  1

  0
INSERT
  5
12D
330
11F
100
AcDbEntity
  8
0
  6
Continuous
 62
     7
370
     0
100
AcDbBlockReference
  2
_Open30
 10
63.5540931665
 20
173.9458191133
 30
0.1
 41
3.0
 42
3.0
 50
180.0
  0
INSERT
  5
12E
330
11F
100
AcDbEntity
  8
0
  6
Continuous
 62
     7
370
     0
100
AcDbBlockReference
  2
_Open30
 10
57.5540931665
 20
173.9458191133
 30
0.1
 41
3.0
 42
3.0
 50
360.0
  0
LINE
  5
12F
330
11F
100
AcDbEntity
  8
0
  6
Continuous
 62
     7
370
     0
100
AcDbLine
 10
63.5540931665
 20
172.2814589807
 30
0.0
 11
63.5540931665
 21
174.9458191133
 31
0.0
  0
LINE
  5
130
330
11F
100
AcDbEntity
  8
0
  6
Continuous
 62
     7
370
     0
100
AcDbLine
 10
57.5540931665
 20
172.2814589807
 30
0.0
 11
57.5540931665
 21
174.9458191133
 31
0.0
  0
LINE
  5
131
330
11F
100
AcDbEntity
  8
0
  6
Continuous
 62
     7
370
     0
100
AcDbLine
 10
63.5540931665
 20
173.9458191133
 30
0.0
 11
68.5540931665
 21
173.9458191133
 31
0.0
  0
LINE
  5
132
330
11F
100
AcDbEntity
  8
0
  6
Continuous
 62
     7
370
     0
100
AcDbLine
 10
63.5540931665
 20
173.9458191133
 30
0.0
 11
57.5540931665
 21
173.9458191133
 31
0.0
  0
LINE
  5
133
330
11F
100
AcDbEntity
  8
0
  6
Continuous
 62
     7
370
     0
100
AcDbLine
 10
57.5540931665
 20
173.9458191133
 30
0.0
 11
52.5540931665
 21
173.9458191133
 31
0.0
  0
MTEXT
  5
134
330
11F
100
AcDbEntity
  8
0
  6
Continuous
 62
     7
370
     0
100
AcDbMText
 10
59.5371590453
 20
178.0185461532
 30
0.0
 40
3.5
 41
0.0
 71
     1
 72
     1
  1
6
  7
SLDTEXTSTYLE0
 73
     1
 44
1.0
  0
ENDBLK
  5
12B
330
11F
100
AcDbEntity
  8
0
100
AcDbBlockEnd
  0
BLOCK
  5
140
330
136
100
AcDbEntity
  8
0
100
AcDbBlockBegin
  2
*D4
 70
     1
 71
     0
 10
0.0
 20
0.0
 30
0.0
  3
*D4
  1

  0
INSERT
  5
142
330
136
100
AcDbEntity
  8
0
  6
Continuous
 62
     7
370
     0
100
AcDbBlockReference
  2
_Open30
 10
81.5540931665
 20
117.1855737517
 30
0.1
 41
3.0
 42
3.0
 50
0.0
  0
INSERT
  5
143
330
136
100
AcDbEntity
  8
0
  6
Continuous
 62
     7
370
     0
100
AcDbBlockReference
  2
_Open30
 10
60.5540931665
 20
117.1855737517
 30
0.1
 41
3.0
 42
3.0
 50
180.0
  0
LINE
  5
144
330
136
100
AcDbEntity
  8
0
  6
Continuous
 62
     7
370
     0
100
AcDbLine
 10
81.5540931665
 20
131.3314589807
 30
0.0
 11
81.5540931665
 21
116.1855737517
 31
0.0
  0
LINE
  5
145
330
136
100
AcDbEntity
  8
0
  6
Continuous
 62
     7
370
     0
100
AcDbLine
 10
60.5540931665
 20
117.522938313
 30
0.0
 11
60.5540931665
 21
116.1855737517
 31
0.0
  0
LINE
  5
146
330
136
100
AcDbEntity
  8
0
  6
Continuous
 62
     7
370
     0
100
AcDbLine
 10
81.5540931665
 20
117.1855737517
 30
0.0
 11
60.5540931665
 21
117.1855737517
 31
0.0
  0
MTEXT
  5
147
330
136
100
AcDbEntity
  8
0
  6
Continuous
 62
     7
370
     0
100
AcDbMText
 10
69.0185873489
 20
121.2583007916
 30
0.0
 40
3.5
 41
0.0
 71
     1
 72
     1
  1
21
  7
SLDTEXTSTYLE0
 73
     1
 44
1.0
  0
ENDBLK
  5
141
330
136
100
AcDbEntity
  8
0
100
AcDbBlockEnd
  0
BLOCK
  5
1DE
330
1D3
100
AcDbEntity
  8
0
100
AcDbBlockBegin
  2
*D5
 70
     1
 71
     0
 10
0.0
 20
0.0
 30
0.0
  3
*D5
  1

  0
INSERT
  5
1E0
330
1D3
100
AcDbEntity
  8
0
  6
Continuous
 62
     7
370
     0
100
AcDbBlockReference
  2
_Open30
 10
180.6327830096
 20
171.5314589807
 30
-7.75
 41
3.0
 42
3.0
 50
90.0
  0
INSERT
  5
1E1
330
1D3
100
AcDbEntity
  8
0
  6
Continuous
 62
     7
370
     0
100
AcDbBlockReference
  2
_Open30
 10
180.6327830096
 20
121.5314589807
 30
-7.75
 41
3.0
 42
3.0
 50
270.0
  0
LINE
  5
1E2
330
1D3
100
AcDbEntity
  8
0
  6
Continuous
 62
     7
370
     0
100
AcDbLine
 10
159.5472769904
 20
171.5314589807
 30
0.0
 11
181.6327830096
 21
171.5314589807
 31
0.0
  0
LINE
  5
1E3
330
1D3
100
AcDbEntity
  8
0
  6
Continuous
 62
     7
370
     0
100
AcDbLine
 10
159.0472769904
 20
121.5314589807
 30
0.0
 11
181.6327830096
 21
121.5314589807
 31
0.0
  0
LINE
  5
1E4
330
1D3
100
AcDbEntity
  8
0
  6
Continuous
 62
     7
370
     0
100
AcDbLine
 10
180.6327830096
 20
171.5314589807
 30
0.0
 11
180.6327830096
 21
121.5314589807
 31
0.0
  0
MTEXT
  5
1E5
330
1D3
100
AcDbEntity
  8
0
  6
Continuous
 62
     7
370
     0
100
AcDbMText
 10
176.5600559697
 20
144.4959531631
 30
0.0
 40
3.5
 41
0.0
 71
     1
 72
     1
  1
50
  7
SLDTEXTSTYLE0
 11
-7.044197039909883E-15
 21
1.0
 31
0.0
 73
     1
 44
1.0
  0
ENDBLK
  5
1DF
330
1D3
100
AcDbEntity
  8
0
100
AcDbBlockEnd
  0
BLOCK
  5
1F3
330
1E7
100
AcDbEntity
  8
0
100
AcDbBlockBegin
  2
*D6
 70
     1
 71
     0
 10
0.0
 20
0.0
 30
0.0
  3
*D6
  1

  0
INSERT
  5
1F5
330
1E7
100
AcDbEntity
  8
0
  6
Continuous
 62
     7
370
     0
100
AcDbBlockReference
  2
_Open30
 10
170.3628122638
 20
121.5314589807
 30
-7.75
 41
3.0
 42
3.0
 50
90.0
  0
INSERT
  5
1F6
330
1E7
100
AcDbEntity
  8
0
  6
Continuous
 62
     7
370
     0
100
AcDbBlockReference
  2
_Open30
 10
170.3628122638
 20
125.0314589807
 30
-7.75
 41
3.0
 42
3.0
 50
270.0
  0
LINE
  5
1F7
330
1E7
100
AcDbEntity
  8
0
  6
Continuous
 62
     7
370
     0
100
AcDbLine
 10
159.0472769904
 20
121.5314589807
 30
0.0
 11
171.3628122638
 21
121.5314589807
 31
0.0
  0
LINE
  5
1F8
330
1E7
100
AcDbEntity
  8
0
  6
Continuous
 62
     7
370
     0
100
AcDbLine
 10
161.7972769904
 20
125.0314589807
 30
0.0
 11
171.3628122638
 21
125.0314589807
 31
0.0
  0
LINE
  5
1F9
330
1E7
100
AcDbEntity
  8
0
  6
Continuous
 62
     7
370
     0
100
AcDbLine
 10
170.3628122638
 20
121.5314589807
 30
0.0
 11
170.3628122638
 21
116.5314589807
 31
0.0
  0
LINE
  5
1FA
330
1E7
100
AcDbEntity
  8
0
  6
Continuous
 62
     7
370
     0
100
AcDbLine
 10
170.3628122638
 20
121.5314589807
 30
0.0
 11
170.3628122638
 21
125.0314589807
 31
0.0
  0
LINE
  5
1FB
330
1E7
100
AcDbEntity
  8
0
  6
Continuous
 62
     7
370
     0
100
AcDbLine
 10
170.3628122638
 20
125.0314589807
 30
0.0
 11
170.3628122638
 21
134.4580709683
 31
0.0
  0
MTEXT
  5
1FC
330
1E7
100
AcDbEntity
  8
0
  6
Continuous
 62
     7
370
     0
100
AcDbMText
 10
166.2900852239
 20
126.7624159405
 30
0.0
 40
3.5
 41
0.0
 71
     1
 72
     1
  1
3.5
  7
SLDTEXTSTYLE0
 11
6.123031769111886E-17
 21
1.0
 31
0.0
 73
     1
 44
1.0
  0
ENDBLK
  5
1F4
330
1E7
100
AcDbEntity
  8
0
100
AcDbBlockEnd
  0
BLOCK
  5
209
330
1FE
100
AcDbEntity
  8
0
100
AcDbBlockBegin
  2
*D7
 70
     1
 71
     0
 10
0.0
 20
0.0
 30
0.0
  3
*D7
  1

  0
INSERT
  5
20B
330
1FE
100
AcDbEntity
  8
0
  6
Continuous
 62
     7
370
     0
100
AcDbBlockReference
  2
_Open30
 10
175.7941286315
 20
137.0314589807
 30
-7.75
 41
3.0
 42
3.0
 50
90.0
  0
INSERT
  5
20C
330
1FE
100
AcDbEntity
  8
0
  6
Continuous
 62
     7
370
     0
100
AcDbBlockReference
  2
_Open30
 10
175.7941286315
 20
121.5314589807
 30
-7.75
 41
3.0
 42
3.0
 50
270.0
  0
LINE
  5
20D
330
1FE
100
AcDbEntity
  8
0
  6
Continuous
 62
     7
370
     0
100
AcDbLine
 10
164.4972769904
 20
137.0314589807
 30
0.0
 11
176.7941286315
 21
137.0314589807
 31
0.0
  0
LINE
  5
20E
330
1FE
100
AcDbEntity
  8
0
  6
Continuous
 62
     7
370
     0
100
AcDbLine
 10
159.0472769904
 20
121.5314589807
 30
0.0
 11
176.7941286315
 21
121.5314589807
 31
0.0
  0
LINE
  5
20F
330
1FE
100
AcDbEntity
  8
0
  6
Continuous
 62
     7
370
     0
100
AcDbLine
 10
175.7941286315
 20
137.0314589807
 30
0.0
 11
175.7941286315
 21
121.5314589807
 31
0.0
  0
MTEXT
  5
210
330
1FE
100
AcDbEntity
  8
0
  6
Continuous
 62
     7
370
     0
100
AcDbMText
 10
171.7214015916
 20
125.2088097705
 30
0.0
 40
3.5
 41
0.0
 71
     1
 72
     1
  1
15.5
  7
SLDTEXTSTYLE0
 11
-7.044197039909883E-15
 21
1.0
 31
0.0
 73
     1
 44
1.0
  0
ENDBLK
  5
20A
330
1FE
100
AcDbEntity
  8
0
100
AcDbBlockEnd
  0
BLOCK
  5
21D
330
212
100
AcDbEntity
  8
0
100
AcDbBlockBegin
  2
*D8
 70
     1
 71
     0
 10
0.0
 20
0.0
 30
0.0
  3
*D8
  1

  0
INSERT
  5
21F
330
212
100
AcDbEntity
  8
0
  6
Continuous
 62
     7
370
     0
100
AcDbBlockReference
  2
_Open30
 10
175.7941286315
 20
154.2314589807
 30
-7.75
 41
3.0
 42
3.0
 50
90.0
  0
INSERT
  5
220
330
212
100
AcDbEntity
  8
0
  6
Continuous
 62
     7
370
     0
100
AcDbBlockReference
  2
_Open30
 10
175.7941286315
 20
137.0314589807
 30
-7.75
 41
3.0
 42
3.0
 50
270.0
  0
LINE
  5
221
330
212
100
AcDbEntity
  8
0
  6
Continuous
 62
     7
370
     0
100
AcDbLine
 10
161.6722769904
 20
154.2314589807
 30
0.0
 11
176.7941286315
 21
154.2314589807
 31
0.0
  0
LINE
  5
222
330
212
100
AcDbEntity
  8
0
  6
Continuous
 62
     7
370
     0
100
AcDbLine
 10
164.4972769904
 20
137.0314589807
 30
0.0
 11
176.7941286315
 21
137.0314589807
 31
0.0
  0
LINE
  5
223
330
212
100
AcDbEntity
  8
0
  6
Continuous
 62
     7
370
     0
100
AcDbLine
 10
175.7941286315
 20
154.2314589807
 30
0.0
 11
175.7941286315
 21
137.0314589807
 31
0.0
  0
MTEXT
  5
224
330
212
100
AcDbEntity
  8
0
  6
Continuous
 62
     7
370
     0
100
AcDbMText
 10
171.7214015916
 20
141.5588097705
 30
0.0
 40
3.5
 41
0.0
 71
     1
 72
     1
  1
17.2
  7
SLDTEXTSTYLE0
 11
-7.044197039909883E-15
 21
1.0
 31
0.0
 73
     1
 44
1.0
  0
ENDBLK
  5
21E
330
212
100
AcDbEntity
  8
0
100
AcDbBlockEnd
  0
BLOCK
  5
230
330
226
100
AcDbEntity
  8
0
100
AcDbBlockBegin
  2
*D9
 70
     1
 71
     0
 10
0.0
 20
0.0
 30
0.0
  3
*D9
  1

  0
INSERT
  5
232
330
226
100
AcDbEntity
  8
0
  6
Continuous
 62
     7
370
     0
100
AcDbBlockReference
  2
_Open30
 10
150.7972769904
 20
180.970258902
 30
-7.75
 41
3.0
 42
3.0
 50
360.0
  0
INSERT
  5
233
330
226
100
AcDbEntity
  8
0
  6
Continuous
 62
     7
370
     0
100
AcDbBlockReference
  2
_Open30
 10
160.7972769904
 20
180.970258902
 30
-7.75
 41
3.0
 42
3.0
 50
180.0
  0
LINE
  5
234
330
226
100
AcDbEntity
  8
0
  6
Continuous
 62
     7
370
     0
100
AcDbLine
 10
150.7972769904
 20
159.0582539
 30
0.0
 11
150.7972769904
 21
181.970258902
 31
0.0
  0
LINE
  5
235
330
226
100
AcDbEntity
  8
0
  6
Continuous
 62
     7
370
     0
100
AcDbLine
 10
160.7972769904
 20
159.0582539
 30
0.0
 11
160.7972769904
 21
181.970258902
 31
0.0
  0
LINE
  5
236
330
226
100
AcDbEntity
  8
0
  6
Continuous
 62
     7
370
     0
100
AcDbLine
 10
150.7972769904
 20
180.970258902
 30
0.0
 11
145.7972769904
 21
180.970258902
 31
0.0
  0
LINE
  5
237
330
226
100
AcDbEntity
  8
0
  6
Continuous
 62
     7
370
     0
100
AcDbLine
 10
150.7972769904
 20
180.970258902
 30
0.0
 11
160.7972769904
 21
180.970258902
 31
0.0
  0
LINE
  5
238
330
226
100
AcDbEntity
  8
0
  6
Continuous
 62
     7
370
     0
100
AcDbLine
 10
160.7972769904
 20
180.970258902
 30
0.0
 11
165.7972769904
 21
180.970258902
 31
0.0
  0
MTEXT
  5
239
330
226
100
AcDbEntity
  8
0
  6
Continuous
 62
     7
370
     0
100
AcDbMText
 10
153.7617711728
 20
185.0429859419
 30
0.0
 40
3.5
 41
0.0
 71
     1
 72
     1
  1
10
  7
SLDTEXTSTYLE0
 73
     1
 44
1.0
  0
ENDBLK
  5
231
330
226
100
AcDbEntity
  8
0
100
AcDbBlockEnd
  0
BLOCK
  5
23B
330
23A
100
AcDbEntity
  8
0
100
AcDbBlockBegin
  2
SW_CENTERMARKSYMBOL_0
 70
     0
 71
     0
 10
0.0
 20
0.0
 30
0.0
  3
SW_CENTERMARKSYMBOL_0
  1

  0
LINE
  5
23D
330
23A
100
AcDbEntity
  8
0
  6
Continuous
 62
     7
370
     0
100
AcDbLine
 10
0.0
 20
0.0
 30
0.0
 11
0.0
 21
2.5
 31
0.0
  0
LINE
  5
23E
330
23A
100
AcDbEntity
  8
0
  6
Continuous
 62
     7
370
     0
100
AcDbLine
 10
0.0
 20
0.0
 30
0.0
 11
-2.5
 21
0.0
 31
0.0
  0
LINE
  5
23F
330
23A
100
AcDbEntity
  8
0
  6
Continuous
 62
     7
370
     0
100
AcDbLine
 10
0.0
 20
0.0
 30
0.0
 11
0.0
 21
-2.5
 31
0.0
  0
LINE
  5
240
330
23A
100
AcDbEntity
  8
0
  6
Continuous
 62
     7
370
     0
100
AcDbLine
 10
0.0
 20
0.0
 30
0.0
 11
2.5
 21
0.0
 31
0.0
  0
LINE
  5
241
330
23A
100
AcDbEntity
  8
0
  6
Continuous
 62
     7
370
     0
100
AcDbLine
 10
0.0
 20
5.0
 30
0.0
 11
0.0
 21
7.7
 31
0.0
  0
LINE
  5
242
330
23A
100
AcDbEntity
  8
0
  6
Continuous
 62
     7
370
     0
100
AcDbLine
 10
-5.0
 20
0.0
 30
0.0
 11
-7.7
 21
0.0
 31
0.0
  0
LINE
  5
243
330
23A
100
AcDbEntity
  8
0
  6
Continuous
 62
     7
370
     0
100
AcDbLine
 10
0.0
 20
-5.0
 30
0.0
 11
0.0
 21
-7.7
 31
0.0
  0
LINE
  5
244
330
23A
100
AcDbEntity
  8
0
  6
Continuous
 62
     7
370
     0
100
AcDbLine
 10
5.0
 20
0.0
 30
0.0
 11
7.7
 21
0.0
 31
0.0
  0
ENDBLK
  5
23C
330
23A
100
AcDbEntity
  8
0
100
AcDbBlockEnd
  0
ENDSEC
  0
SECTION
  2
ENTITIES
  0
LINE
  5
2F
330
1F
100
AcDbEntity
  8
0
  6
Continuous
 62
     7
370
     0
100
AcDbLine
 10
20.2604743903
 20
285.0
 30
0.0
 11
196.7604743903
 21
285.0
 31
0.0
  0
LINE
  5
30
330
1F
100
AcDbEntity
  8
0
  6
Continuous
 62
     7
370
     0
100
AcDbLine
 10
20.2604743903
 20
285.0
 30
0.0
 11
20.2604743903
 21
10.0
 31
0.0
  0
LINE
  5
31
330
1F
100
AcDbEntity
  8
0
  6
Continuous
 62
     7
370
     0
100
AcDbLine
 10
20.2604743903
 20
10.0
 30
0.0
 11
196.7604743903
 21
10.0
 31
0.0
  0
LINE
  5
32
330
1F
100
AcDbEntity
  8
0
  6
Continuous
 62
     7
370
     0
100
AcDbLine
 10
196.7604743903
 20
285.0
 30
0.0
 11
196.7604743903
 21
10.0
 31
0.0
  0
LINE
  5
33
330
1F
100
AcDbEntity
  8
0
  6
Continuous
 62
     7
370
     0
100
AcDbLine
 10
127.0104743903
 20
50.75
 30
0.0
 11
196.7604743903
 21
50.75
 31
0.0
  0
LINE
  5
34
330
1F
100
AcDbEntity
  8
0
  6
Continuous
 62
     7
370
     0
100
AcDbLine
 10
127.0104743903
 20
50.75
 30
0.0
 11
127.0104743903
 21
10.0
 31
0.0
  0
LINE
  5
35
330
1F
100
AcDbEntity
  8
0
  6
Continuous
 62
     7
370
     0
100
AcDbLine
 10
127.0104743903
 20
22.75
 30
0.0
 11
196.7604743903
 21
22.75
 31
0.0
  0
LINE
  5
36
330
1F
100
AcDbEntity
  8
0
  6
Continuous
 62
     7
370
     0
100
AcDbLine
 10
127.0104743903
 20
36.75
 30
0.0
 11
196.7604743903
 21
36.75
 31
0.0
  0
MTEXT
  5
38
330
1F
100
AcDbEntity
  8
0
  6
Continuous
 62
     7
370
     0
100
AcDbMText
 10
144.379362883
 20
29.8861654089
 30
0.0
 40
4.2333333333
 41
0.0
 71
     1
 72
     1
  1
ARJ1020F-M5-04
  7
SLDTEXTSTYLE0
 73
     1
 44
1.0
  0
MTEXT
  5
39
330
1F
100
AcDbEntity
  8
0
  6
Continuous
 62
     7
370
     0
100
AcDbMText
 10
143.5886534511
 20
43.4099788511
 30
0.0
 40
4.2333333333
 41
0.0
 71
     1
 72
     1
  1
ミニチュア減圧弁
  7
SLDTEXTSTYLE0
 73
     1
 44
1.0
  0
MTEXT
  5
3A
330
1F
100
AcDbEntity
  8
0
  6
Continuous
 62
     7
370
     0
100
AcDbMText
 10
155.4249854975
 20
16.2918259049
 30
0.0
 40
4.2333333333
 41
0.0
 71
     1
 72
     1
  1
001382
  7
SLDTEXTSTYLE0
 73
     1
 44
1.0
  0
LINE
  5
3B
330
1F
100
AcDbEntity
  8
0
  6
Continuous
 62
     7
370
     0
100
AcDbLine
 10
55.5540931665
 20
158.2314589807
 30
0.0
 11
55.2540931665
 21
158.0582539
 31
0.0
  0
LINE
  5
3C
330
1F
100
AcDbEntity
  8
0
  6
Continuous
 62
     7
370
     0
100
AcDbLine
 10
55.2540931665
 20
156.4046640615
 30
0.0
 11
55.5540931665
 21
156.2314589807
 31
0.0
  0
LINE
  5
3D
330
1F
100
AcDbEntity
  8
0
  6
Continuous
 62
     7
370
     0
100
AcDbLine
 10
65.8540931665
 20
158.0582539
 30
0.0
 11
65.5540931665
 21
158.2314589807
 31
0.0
  0
LINE
  5
3E
330
1F
100
AcDbEntity
  8
0
  6
Continuous
 62
     7
370
     0
100
AcDbLine
 10
65.5540931665
 20
156.2314589807
 30
0.0
 11
65.8540931665
 21
156.4046640615
 31
0.0
  0
LINE
  5
3F
330
1F
100
AcDbEntity
  8
0
  6
Continuous
 62
     7
370
     0
100
AcDbLine
 10
55.2540931665
 20
158.0582539
 30
0.0
 11
55.2540931665
 21
156.4046640615
 31
0.0
  0
LINE
  5
40
330
1F
100
AcDbEntity
  8
0
  6
Continuous
 62
     7
370
     0
100
AcDbLine
 10
65.8540931665
 20
156.4046640615
 30
0.0
 11
65.8540931665
 21
158.0582539
 31
0.0
  0
LINE
  5
41
330
1F
100
AcDbEntity
  8
0
  6
Continuous
 62
     7
370
     0
100
AcDbLine
 10
65.8540930108
 20
141.0272109428
 30
0.0
 11
65.8540931665
 21
143.8314589807
 31
0.0
  0
LINE
  5
42
330
1F
100
AcDbEntity
  8
0
  6
Continuous
 62
     7
370
     0
100
AcDbLine
 10
65.8540931665
 20
131.3314589807
 30
0.0
 11
65.8540930108
 21
133.0369391584
 31
0.0
  0
LINE
  5
43
330
1F
100
AcDbEntity
  8
0
  6
Continuous
 62
     7
370
     0
100
AcDbLine
 10
55.2540931665
 20
143.8314589807
 30
0.0
 11
55.2540931665
 21
131.3314589807
 31
0.0
  0
LINE
  5
44
330
1F
100
AcDbEntity
  8
0
  6
Continuous
 62
     7
370
     0
100
AcDbLine
 10
65.8540931665
 20
143.8314589807
 30
0.0
 11
65.4290931665
 21
143.9861463303
 31
0.0
  0
LINE
  5
45
330
1F
100
AcDbEntity
  8
0
  6
Continuous
 62
     7
370
     0
100
AcDbLine
 10
55.6790931665
 20
143.9861463303
 30
0.0
 11
55.2540931665
 21
143.8314589807
 31
0.0
  0
ARC
  5
46
330
1F
100
AcDbEntity
  8
0
  6
Continuous
 62
     7
370
     0
100
AcDbCircle
 10
81.0540931665
 20
132.3314589807
 30
0.0
 40
0.5
100
AcDbArc
 50
270.0
 51
0.0
  0
ARC
  5
47
330
1F
100
AcDbEntity
  8
0
  6
Continuous
 62
     7
370
     0
100
AcDbCircle
 10
81.0540931665
 20
141.7314589807
 30
0.0
 40
0.5
100
AcDbArc
 50
0.0
 51
90.0
  0
LINE
  5
48
330
1F
100
AcDbEntity
  8
0
  6
Continuous
 62
     7
370
     0
100
AcDbLine
 10
68.4540931665
 20
142.2314589807
 30
0.0
 11
68.0173288854
 21
141.0314589807
 31
0.0
  0
LINE
  5
49
330
1F
100
AcDbEntity
  8
0
  6
Continuous
 62
     7
370
     0
100
AcDbLine
 10
68.0173288854
 20
133.0314589807
 30
0.0
 11
68.4540931665
 21
131.8314589807
 31
0.0
  0
LINE
  5
4A
330
1F
100
AcDbEntity
  8
0
  6
Continuous
 62
     7
370
     0
100
AcDbLine
 10
80.0540931665
 20
131.8314589807
 30
0.0
 11
81.0540931665
 21
131.8314589807
 31
0.0
  0
LINE
  5
4B
330
1F
100
AcDbEntity
  8
0
  6
Continuous
 62
     7
370
     0
100
AcDbLine
 10
81.0540931665
 20
142.2314589807
 30
0.0
 11
80.0540931665
 21
142.2314589807
 31
0.0
  0
LINE
  5
4C
330
1F
100
AcDbEntity
  8
0
  6
Continuous
 62
     7
370
     0
100
AcDbLine
 10
68.4540931665
 20
131.8314589807
 30
0.0
 11
79.0540931665
 21
131.8314589807
 31
0.0
  0
LINE
  5
4D
330
1F
100
AcDbEntity
  8
0
  6
Continuous
 62
     7
370
     0
100
AcDbLine
 10
79.0540931665
 20
142.2314589807
 30
0.0
 11
68.4540931665
 21
142.2314589807
 31
0.0
  0
LINE
  5
4E
330
1F
100
AcDbEntity
  8
0
  6
Continuous
 62
     7
370
     0
100
AcDbLine
 10
65.4290931665
 20
143.9861463303
 30
0.0
 11
65.4290931665
 21
152.0314589807
 31
0.0
  0
LINE
  5
4F
330
1F
100
AcDbEntity
  8
0
  6
Continuous
 62
     7
370
     0
100
AcDbLine
 10
55.6790931665
 20
152.0314589807
 30
0.0
 11
55.6790931665
 21
143.9861463303
 31
0.0
  0
LINE
  5
50
330
1F
100
AcDbEntity
  8
0
  6
Continuous
 62
     7
370
     0
100
AcDbLine
 10
65.8499658548
 20
133.0314587907
 30
0.0
 11
68.0173288854
 21
133.0314589807
 31
0.0
  0
LINE
  5
51
330
1F
100
AcDbEntity
  8
0
  6
Continuous
 62
     7
370
     0
100
AcDbLine
 10
68.0173288854
 20
141.0314589807
 30
0.0
 11
65.8508953147
 21
141.0314591707
 31
0.0
  0
LINE
  5
52
330
1F
100
AcDbEntity
  8
0
  6
Continuous
 62
     7
370
     0
100
AcDbLine
 10
64.5540933565
 20
154.2314595649
 30
0.0
 11
64.5540933565
 21
156.2314598927
 31
0.0
  0
LINE
  5
53
330
1F
100
AcDbEntity
  8
0
  6
Continuous
 62
     7
370
     0
100
AcDbLine
 10
64.5540933565
 20
158.2314583579
 30
0.0
 11
64.5540931665
 21
159.2814589807
 31
0.0
  0
LINE
  5
54
330
1F
100
AcDbEntity
  8
0
  6
Continuous
 62
     7
370
     0
100
AcDbLine
 10
56.5540931665
 20
159.2814589807
 30
0.0
 11
56.5540929765
 21
158.2314583579
 31
0.0
  0
LINE
  5
55
330
1F
100
AcDbEntity
  8
0
  6
Continuous
 62
     7
370
     0
100
AcDbLine
 10
56.5540929765
 20
156.2314598927
 30
0.0
 11
56.5540929765
 21
154.2314595649
 31
0.0
  0
LINE
  5
56
330
1F
100
AcDbEntity
  8
0
  6
Continuous
 62
     7
370
     0
100
AcDbLine
 10
64.5540931665
 20
159.2814589807
 30
0.0
 11
64.3040931665
 21
159.5314589807
 31
0.0
  0
LINE
  5
57
330
1F
100
AcDbEntity
  8
0
  6
Continuous
 62
     7
370
     0
100
AcDbLine
 10
56.8040931665
 20
159.5314589807
 30
0.0
 11
56.5540931665
 21
159.2814589807
 31
0.0
  0
LINE
  5
58
330
1F
100
AcDbEntity
  8
0
  6
Continuous
 62
     7
370
     0
100
AcDbLine
 10
64.0540931665
 20
161.7814589807
 30
0.0
 11
63.8040931665
 21
162.0314589807
 31
0.0
  0
LINE
  5
59
330
1F
100
AcDbEntity
  8
0
  6
Continuous
 62
     7
370
     0
100
AcDbLine
 10
57.3040931665
 20
162.0314589807
 30
0.0
 11
57.0540931665
 21
161.7814589807
 31
0.0
  0
LINE
  5
5A
330
1F
100
AcDbEntity
  8
0
  6
Continuous
 62
     7
370
     0
100
AcDbLine
 10
64.0540931665
 20
160.2814589807
 30
0.0
 11
64.0540931665
 21
161.7814589807
 31
0.0
  0
LINE
  5
5B
330
1F
100
AcDbEntity
  8
0
  6
Continuous
 62
     7
370
     0
100
AcDbLine
 10
57.0540931665
 20
161.7814589807
 30
0.0
 11
57.0540931665
 21
160.2814589807
 31
0.0
  0
LINE
  5
5C
330
1F
100
AcDbEntity
  8
0
  6
Continuous
 62
     7
370
     0
100
AcDbLine
 10
57.0540931665
 20
160.2814589807
 30
0.0
 11
57.3040931665
 21
160.0314589807
 31
0.0
  0
LINE
  5
5D
330
1F
100
AcDbEntity
  8
0
  6
Continuous
 62
     7
370
     0
100
AcDbLine
 10
63.8040931665
 20
160.0314589807
 30
0.0
 11
64.0540931665
 21
160.2814589807
 31
0.0
  0
LINE
  5
5E
330
1F
100
AcDbEntity
  8
0
  6
Continuous
 62
     7
370
     0
100
AcDbLine
 10
63.5540931665
 20
167.5314589807
 30
0.0
 11
63.5540931665
 21
171.2814589807
 31
0.0
  0
LINE
  5
5F
330
1F
100
AcDbEntity
  8
0
  6
Continuous
 62
     7
370
     0
100
AcDbLine
 10
57.5540931665
 20
171.2814589807
 30
0.0
 11
57.5540931665
 21
167.5314589807
 31
0.0
  0
LINE
  5
60
330
1F
100
AcDbEntity
  8
0
  6
Continuous
 62
     7
370
     0
100
AcDbLine
 10
63.5540931665
 20
171.2814589807
 30
0.0
 11
63.3040931665
 21
171.5314589807
 31
0.0
  0
LINE
  5
61
330
1F
100
AcDbEntity
  8
0
  6
Continuous
 62
     7
370
     0
100
AcDbLine
 10
57.8040931665
 20
171.5314589807
 30
0.0
 11
57.5540931665
 21
171.2814589807
 31
0.0
  0
LINE
  5
62
330
1F
100
AcDbEntity
  8
0
  6
Continuous
 62
     7
370
     0
100
AcDbLine
 10
79.0540934049
 20
134.2814589956
 30
0.0
 11
80.0540935688
 21
134.2814589956
 31
0.0
  0
LINE
  5
63
330
1F
100
AcDbEntity
  8
0
  6
Continuous
 62
     7
370
     0
100
AcDbLine
 10
80.0540935688
 20
139.7814589658
 30
0.0
 11
79.0540934049
 21
139.7814589658
 31
0.0
  0
LINE
  5
64
330
1F
100
AcDbEntity
  8
0
  6
Continuous
 62
     7
370
     0
100
AcDbLine
 10
55.2540931665
 20
125.2046640615
 30
0.0
 11
55.5540931665
 21
125.0314589807
 31
0.0
  0
LINE
  5
65
330
1F
100
AcDbEntity
  8
0
  6
Continuous
 62
     7
370
     0
100
AcDbLine
 10
55.5540932783
 20
131.3314588846
 30
0.0
 11
55.2540931665
 21
131.1582539
 31
0.0
  0
LINE
  5
66
330
1F
100
AcDbEntity
  8
0
  6
Continuous
 62
     7
370
     0
100
AcDbLine
 10
58.0540932224
 20
125.0314588764
 30
0.0
 11
58.0540931665
 21
121.7814589807
 31
0.0
  0
LINE
  5
67
330
1F
100
AcDbEntity
  8
0
  6
Continuous
 62
     7
370
     0
100
AcDbLine
 10
63.0540931665
 20
121.7814589807
 30
0.0
 11
63.0540931106
 21
125.0314588764
 31
0.0
  0
LINE
  5
68
330
1F
100
AcDbEntity
  8
0
  6
Continuous
 62
     7
370
     0
100
AcDbLine
 10
58.0540931665
 20
121.7814589807
 30
0.0
 11
58.3040931665
 21
121.5314589807
 31
0.0
  0
LINE
  5
69
330
1F
100
AcDbEntity
  8
0
  6
Continuous
 62
     7
370
     0
100
AcDbLine
 10
62.8040931665
 20
121.5314589807
 30
0.0
 11
63.0540931665
 21
121.7814589807
 31
0.0
  0
LINE
  5
6A
330
1F
100
AcDbEntity
  8
0
  6
Continuous
 62
     7
370
     0
100
AcDbLine
 10
65.5540931665
 20
125.0314589807
 30
0.0
 11
65.8540931665
 21
125.2046640615
 31
0.0
  0
LINE
  5
6B
330
1F
100
AcDbEntity
  8
0
  6
Continuous
 62
     7
370
     0
100
AcDbLine
 10
65.8540931665
 20
131.1582539
 30
0.0
 11
65.5540930548
 21
131.3314588846
 31
0.0
  0
LINE
  5
6C
330
1F
100
AcDbEntity
  8
0
  6
Continuous
 62
     7
370
     0
100
AcDbLine
 10
65.8540931665
 20
153.9860851163
 30
0.0
 11
65.4290931665
 21
154.2314589807
 31
0.0
  0
LINE
  5
6D
330
1F
100
AcDbEntity
  8
0
  6
Continuous
 62
     7
370
     0
100
AcDbLine
 10
65.4290931665
 20
152.0314589807
 30
0.0
 11
65.8540931665
 21
152.2768328451
 31
0.0
  0
LINE
  5
6E
330
1F
100
AcDbEntity
  8
0
  6
Continuous
 62
     7
370
     0
100
AcDbLine
 10
55.6790931665
 20
154.2314589807
 30
0.0
 11
55.2540931665
 21
153.9860851163
 31
0.0
  0
LINE
  5
6F
330
1F
100
AcDbEntity
  8
0
  6
Continuous
 62
     7
370
     0
100
AcDbLine
 10
55.2540931665
 20
152.2768328451
 30
0.0
 11
55.6790931665
 21
152.0314589807
 31
0.0
  0
LINE
  5
70
330
1F
100
AcDbEntity
  8
0
  6
Continuous
 62
     7
370
     0
100
AcDbLine
 10
62.5540932615
 20
159.5314598748
 30
0.0
 11
62.5540932615
 21
160.0314590254
 31
0.0
  0
LINE
  5
71
330
1F
100
AcDbEntity
  8
0
  6
Continuous
 62
     7
370
     0
100
AcDbLine
 10
58.5540930715
 20
160.0314590254
 30
0.0
 11
58.5540930715
 21
159.5314598748
 31
0.0
  0
LINE
  5
72
330
1F
100
AcDbEntity
  8
0
  6
Continuous
 62
     7
370
     0
100
AcDbLine
 10
61.9540931166
 20
162.0314593533
 30
0.0
 11
61.9540931166
 21
167.5314593235
 31
0.0
  0
LINE
  5
73
330
1F
100
AcDbEntity
  8
0
  6
Continuous
 62
     7
370
     0
100
AcDbLine
 10
59.1540932164
 20
167.5314593235
 30
0.0
 11
59.1540932164
 21
162.0314593533
 31
0.0
  0
LINE
  5
74
330
1F
100
AcDbEntity
  8
0
  6
Continuous
 62
     7
370
     0
100
AcDbLine
 10
55.2540931665
 20
131.1582539
 30
0.0
 11
55.2540931665
 21
125.2046640615
 31
0.0
  0
LINE
  5
75
330
1F
100
AcDbEntity
  8
0
  6
Continuous
 62
     7
370
     0
100
AcDbLine
 10
65.8540931665
 20
125.2046640615
 30
0.0
 11
65.8540931665
 21
131.1582539
 31
0.0
  0
LINE
  5
76
330
1F
100
AcDbEntity
  8
0
  6
Continuous
 62
     7
370
     0
100
AcDbLine
 10
65.8540931665
 20
152.2768328451
 30
0.0
 11
65.8540931665
 21
153.9860851163
 31
0.0
  0
LINE
  5
77
330
1F
100
AcDbEntity
  8
0
  6
Continuous
 62
     7
370
     0
100
AcDbLine
 10
55.2540931665
 20
153.9860851163
 30
0.0
 11
55.2540931665
 21
152.2768328451
 31
0.0
  0
LWPOLYLINE
  5
78
330
1F
100
AcDbEntity
  8
0
  6
Continuous
 62
     7
370
     0
100
AcDbPolyline
 90
        3
 70
   128
 43
0.0
 10
57.1028859795
 20
158.0582547107
 10
56.6674035017
 20
158.1863991091
 10
56.2239661322
 20
158.2314583579
  0
LWPOLYLINE
  5
79
330
1F
100
AcDbEntity
  8
0
  6
Continuous
 62
     7
370
     0
100
AcDbPolyline
 90
        3
 70
   128
 43
0.0
 10
60.5540931665
 20
158.2314583579
 10
59.6751733774
 20
158.1871981838
 10
58.7962535883
 20
158.0582547107
  0
LINE
  5
7A
330
1F
100
AcDbEntity
  8
0
  6
Continuous
 62
     7
370
     0
100
AcDbLine
 10
58.7962535834
 20
158.0582539
 30
0.0
 11
57.1028859392
 21
158.0582539
 31
0.0
  0
LINE
  5
7B
330
1F
100
AcDbEntity
  8
0
  6
Continuous
 62
     7
370
     0
100
AcDbLine
 10
60.5540931665
 20
158.2314589807
 30
0.0
 11
56.2239661476
 21
158.2314589807
 31
0.0
  0
LINE
  5
7C
330
1F
100
AcDbEntity
  8
0
  6
Continuous
 62
     7
370
     0
100
AcDbLine
 10
57.1028859392
 20
158.0582539
 30
0.0
 11
57.1028859392
 21
156.4046640615
 31
0.0
  0
LINE
  5
7D
330
1F
100
AcDbEntity
  8
0
  6
Continuous
 62
     7
370
     0
100
AcDbLine
 10
58.7962535834
 20
156.4046640615
 30
0.0
 11
58.7962535834
 21
158.0582539
 31
0.0
  0
LINE
  5
7E
330
1F
100
AcDbEntity
  8
0
  6
Continuous
 62
     7
370
     0
100
AcDbLine
 10
57.1028859392
 20
156.4046640615
 30
0.0
 11
58.7962535834
 21
156.4046640615
 31
0.0
  0
LWPOLYLINE
  5
7F
330
1F
100
AcDbEntity
  8
0
  6
Continuous
 62
     7
370
     0
100
AcDbPolyline
 90
        3
 70
   128
 43
0.0
 10
58.7962535883
 20
156.4046635398
 10
59.6672183692
 20
156.2765191415
 10
60.5540931665
 20
156.2314598927
  0
ARC
  5
80
330
1F
100
AcDbEntity
  8
0
  6
Continuous
 62
     7
370
     0
100
AcDbCircle
 10
56.2084742634
 20
158.6267091756
 30
0.0
 40
2.395299381117319
100
AcDbArc
 50
270.3705694958
 51
291.9256361577
  0
LINE
  5
81
330
1F
100
AcDbEntity
  8
0
  6
Continuous
 62
     7
370
     0
100
AcDbLine
 10
60.5540931665
 20
156.2314589807
 30
0.0
 11
56.2239661476
 21
156.2314589807
 31
0.0
  0
LWPOLYLINE
  5
82
330
1F
100
AcDbEntity
  8
0
  6
Continuous
 62
     7
370
     0
100
AcDbPolyline
 90
        3
 70
   128
 43
0.0
 10
62.3119327447
 20
158.0582547107
 10
61.3396936769
 20
158.1960438856
 10
60.5540931665
 20
158.2314583579
  0
LINE
  5
83
330
1F
100
AcDbEntity
  8
0
  6
Continuous
 62
     7
370
     0
100
AcDbLine
 10
62.3119327496
 20
158.0582539
 30
0.0
 11
62.3119327496
 21
156.4046640615
 31
0.0
  0
LWPOLYLINE
  5
84
330
1F
100
AcDbEntity
  8
0
  6
Continuous
 62
     7
370
     0
100
AcDbPolyline
 90
        3
 70
   128
 43
0.0
 10
60.5540931665
 20
156.2314598927
 10
61.3396936769
 20
156.2668743649
 10
62.3119327447
 20
156.4046635398
  0
LWPOLYLINE
  5
85
330
1F
100
AcDbEntity
  8
0
  6
Continuous
 62
     7
370
     0
100
AcDbPolyline
 90
        3
 70
   128
 43
0.0
 10
64.0053003535
 20
156.4046635398
 10
64.4407828313
 20
156.2765191415
 10
64.8842202008
 20
156.2314598927
  0
LINE
  5
86
330
1F
100
AcDbEntity
  8
0
  6
Continuous
 62
     7
370
     0
100
AcDbLine
 10
62.3119327496
 20
156.4046640615
 30
0.0
 11
64.0053003939
 21
156.4046640615
 31
0.0
  0
LINE
  5
87
330
1F
100
AcDbEntity
  8
0
  6
Continuous
 62
     7
370
     0
100
AcDbLine
 10
64.8842201854
 20
156.2314589807
 30
0.0
 11
60.5540931665
 21
156.2314589807
 31
0.0
  0
ARC
  5
88
330
1F
100
AcDbEntity
  8
0
  6
Continuous
 62
     7
370
     0
100
AcDbCircle
 10
64.8997120696
 20
155.836209075
 30
0.0
 40
2.395299381117319
100
AcDbArc
 50
90.3705694958
 51
111.9256361577
  0
LINE
  5
89
330
1F
100
AcDbEntity
  8
0
  6
Continuous
 62
     7
370
     0
100
AcDbLine
 10
64.0053003939
 20
158.0582539
 30
0.0
 11
62.3119327496
 21
158.0582539
 31
0.0
  0
LINE
  5
8A
330
1F
100
AcDbEntity
  8
0
  6
Continuous
 62
     7
370
     0
100
AcDbLine
 10
64.8842201854
 20
158.2314589807
 30
0.0
 11
60.5540931665
 21
158.2314589807
 31
0.0
  0
LINE
  5
8B
330
1F
100
AcDbEntity
  8
0
  6
Continuous
 62
     7
370
     0
100
AcDbLine
 10
64.0053003939
 20
156.4046640615
 30
0.0
 11
64.0053003939
 21
158.0582539
 31
0.0
  0
ARC
  5
8C
330
1F
100
AcDbEntity
  8
0
  6
Continuous
 62
     7
370
     0
100
AcDbCircle
 10
56.2394580009
 20
155.836209075
 30
0.0
 40
2.395299381117319
100
AcDbArc
 50
90.3705694958
 51
111.9256361577
  0
LWPOLYLINE
  5
8D
330
1F
100
AcDbEntity
  8
0
  6
Continuous
 62
     7
370
     0
100
AcDbPolyline
 90
        3
 70
   128
 43
0.0
 10
55.3450462849
 20
156.4046635398
 10
55.7805285298
 20
156.2765191415
 10
56.2239661322
 20
156.2314598927
  0
LINE
  5
8E
330
1F
100
AcDbEntity
  8
0
  6
Continuous
 62
     7
370
     0
100
AcDbLine
 10
55.345046356
 20
156.4046640615
 30
0.0
 11
55.345046356
 21
158.0582539
 31
0.0
  0
LWPOLYLINE
  5
8F
330
1F
100
AcDbEntity
  8
0
  6
Continuous
 62
     7
370
     0
100
AcDbPolyline
 90
        3
 70
   128
 43
0.0
 10
65.7631400482
 20
158.0582547107
 10
65.3276578032
 20
158.1863991091
 10
64.8842202008
 20
158.2314583579
  0
LINE
  5
90
330
1F
100
AcDbEntity
  8
0
  6
Continuous
 62
     7
370
     0
100
AcDbLine
 10
65.763139977
 20
158.0582539
 30
0.0
 11
65.763139977
 21
156.4046640615
 31
0.0
  0
ARC
  5
91
330
1F
100
AcDbEntity
  8
0
  6
Continuous
 62
     7
370
     0
100
AcDbCircle
 10
64.8687283321
 20
158.6267091756
 30
0.0
 40
2.395299381117319
100
AcDbArc
 50
270.3705694958
 51
291.9256361577
  0
LINE
  5
92
330
1F
100
AcDbEntity
  8
0
  6
Continuous
 62
     7
370
     0
100
AcDbLine
 10
55.345046356
 20
158.0582539
 30
0.0
 11
55.2540931665
 21
158.0582539
 31
0.0
  0
LINE
  5
93
330
1F
100
AcDbEntity
  8
0
  6
Continuous
 62
     7
370
     0
100
AcDbLine
 10
56.2239661476
 20
158.2314589807
 30
0.0
 11
55.5540931665
 21
158.2314589807
 31
0.0
  0
LINE
  5
94
330
1F
100
AcDbEntity
  8
0
  6
Continuous
 62
     7
370
     0
100
AcDbLine
 10
55.2540931665
 20
156.4046640615
 30
0.0
 11
55.345046356
 21
156.4046640615
 31
0.0
  0
LINE
  5
95
330
1F
100
AcDbEntity
  8
0
  6
Continuous
 62
     7
370
     0
100
AcDbLine
 10
56.2239661476
 20
156.2314589807
 30
0.0
 11
55.5540931665
 21
156.2314589807
 31
0.0
  0
LINE
  5
96
330
1F
100
AcDbEntity
  8
0
  6
Continuous
 62
     7
370
     0
100
AcDbLine
 10
65.8540931665
 20
158.0582539
 30
0.0
 11
65.763139977
 21
158.0582539
 31
0.0
  0
LINE
  5
97
330
1F
100
AcDbEntity
  8
0
  6
Continuous
 62
     7
370
     0
100
AcDbLine
 10
65.5540931665
 20
158.2314589807
 30
0.0
 11
64.8842201854
 21
158.2314589807
 31
0.0
  0
LINE
  5
98
330
1F
100
AcDbEntity
  8
0
  6
Continuous
 62
     7
370
     0
100
AcDbLine
 10
65.763139977
 20
156.4046640615
 30
0.0
 11
65.8540931665
 21
156.4046640615
 31
0.0
  0
LINE
  5
99
330
1F
100
AcDbEntity
  8
0
  6
Continuous
 62
     7
370
     0
100
AcDbLine
 10
65.5540931665
 20
156.2314589807
 30
0.0
 11
64.8842201854
 21
156.2314589807
 31
0.0
  0
LWPOLYLINE
  5
9A
330
1F
100
AcDbEntity
  8
0
  6
Continuous
 62
     7
370
     0
100
AcDbPolyline
 90
       12
 70
   128
 43
0.0
 10
64.0311608531
 20
137.0314589807
 10
64.0735188008
 20
136.4870716574
 10
64.1976396528
 20
135.9426843341
 10
64.4146317591
 20
135.3540330532
 10
64.6823849038
 20
134.8059719534
 10
64.9643805318
 20
134.3184099173
 10
65.2430937134
 20
133.8855528378
 10
65.4764202864
 20
133.5473083531
 10
65.6702243232
 20
133.2784872142
 10
65.7981847853
 20
133.1058388682
 10
65.853236194
 20
133.0325945386
 10
65.8499621295
 20
133.0369391584
  0
ARC
  5
9B
330
1F
100
AcDbEntity
  8
0
  6
Continuous
 62
     7
370
     0
100
AcDbCircle
 10
71.9298191193
 20
135.8465244753
 30
0.0
 40
7.987044020646876
100
AcDbArc
 50
139.5611385425
 51
171.468271239
  0
LINE
  5
9C
330
1F
100
AcDbEntity
  8
0
  6
Continuous
 62
     7
370
     0
100
AcDbLine
 10
65.8540931665
 20
131.3314589807
 30
0.0
 11
55.2540931665
 21
131.3314589807
 31
0.0
  0
LINE
  5
9D
330
1F
100
AcDbEntity
  8
0
  6
Continuous
 62
     7
370
     0
100
AcDbLine
 10
65.8540931665
 20
143.8314589807
 30
0.0
 11
55.2540931665
 21
143.8314589807
 31
0.0
  0
LINE
  5
9E
330
1F
100
AcDbEntity
  8
0
  6
Continuous
 62
     7
370
     0
100
AcDbLine
 10
65.4290931665
 20
143.9861463303
 30
0.0
 11
55.6790931665
 21
143.9861463303
 31
0.0
  0
LINE
  5
9F
330
1F
100
AcDbEntity
  8
0
  6
Continuous
 62
     7
370
     0
100
AcDbLine
 10
81.5540931665
 20
137.0314589807
 30
0.0
 11
81.5540931665
 21
132.3314589807
 31
0.0
  0
LINE
  5
A0
330
1F
100
AcDbEntity
  8
0
  6
Continuous
 62
     7
370
     0
100
AcDbLine
 10
81.5540931665
 20
141.7314589807
 30
0.0
 11
81.5540931665
 21
137.0314589807
 31
0.0
  0
LINE
  5
A1
330
1F
100
AcDbEntity
  8
0
  6
Continuous
 62
     7
370
     0
100
AcDbLine
 10
68.4540931665
 20
137.0314589807
 30
0.0
 11
68.4540931665
 21
142.2314589807
 31
0.0
  0
LINE
  5
A2
330
1F
100
AcDbEntity
  8
0
  6
Continuous
 62
     7
370
     0
100
AcDbLine
 10
68.4540931665
 20
131.8314589807
 30
0.0
 11
68.4540931665
 21
137.0314589807
 31
0.0
  0
LINE
  5
A3
330
1F
100
AcDbEntity
  8
0
  6
Continuous
 62
     7
370
     0
100
AcDbLine
 10
68.0173288854
 20
137.0314589807
 30
0.0
 11
68.0173288854
 21
141.0314589807
 31
0.0
  0
LINE
  5
A4
330
1F
100
AcDbEntity
  8
0
  6
Continuous
 62
     7
370
     0
100
AcDbLine
 10
68.0173288854
 20
133.0314589807
 30
0.0
 11
68.0173288854
 21
137.0314589807
 31
0.0
  0
LINE
  5
A5
330
1F
100
AcDbEntity
  8
0
  6
Continuous
 62
     7
370
     0
100
AcDbLine
 10
80.0540931665
 20
137.0314589807
 30
0.0
 11
80.0540931665
 21
142.2314589807
 31
0.0
  0
LINE
  5
A6
330
1F
100
AcDbEntity
  8
0
  6
Continuous
 62
     7
370
     0
100
AcDbLine
 10
80.0540931665
 20
131.8314589807
 30
0.0
 11
80.0540931665
 21
137.0314589807
 31
0.0
  0
LINE
  5
A7
330
1F
100
AcDbEntity
  8
0
  6
Continuous
 62
     7
370
     0
100
AcDbLine
 10
79.0540931665
 20
137.0314589807
 30
0.0
 11
79.0540931665
 21
142.2314589807
 31
0.0
  0
LINE
  5
A8
330
1F
100
AcDbEntity
  8
0
  6
Continuous
 62
     7
370
     0
100
AcDbLine
 10
79.0540931665
 20
131.8314589807
 30
0.0
 11
79.0540931665
 21
137.0314589807
 31
0.0
  0
LWPOLYLINE
  5
A9
330
1F
100
AcDbEntity
  8
0
  6
Continuous
 62
     7
370
     0
100
AcDbPolyline
 90
        3
 70
   128
 43
0.0
 10
64.0053003535
 20
131.1582538405
 10
64.4407828313
 20
131.2863991701
 10
64.8842202008
 20
131.3314588846
  0
LINE
  5
AA
330
1F
100
AcDbEntity
  8
0
  6
Continuous
 62
     7
370
     0
100
AcDbLine
 10
62.3119327496
 20
131.1582539
 30
0.0
 11
64.0053003939
 21
131.1582539
 31
0.0
  0
LWPOLYLINE
  5
AB
330
1F
100
AcDbEntity
  8
0
  6
Continuous
 62
     7
370
     0
100
AcDbPolyline
 90
        3
 70
   128
 43
0.0
 10
60.5540931665
 20
131.3314588846
 10
61.3396947247
 20
131.2960439467
 10
62.3119327447
 20
131.1582538405
  0
LWPOLYLINE
  5
AC
330
1F
100
AcDbEntity
  8
0
  6
Continuous
 62
     7
370
     0
100
AcDbPolyline
 90
        3
 70
   128
 43
0.0
 10
58.7962535883
 20
131.1582538405
 10
59.6672183692
 20
131.2863991701
 10
60.5540931665
 20
131.3314588846
  0
LINE
  5
AD
330
1F
100
AcDbEntity
  8
0
  6
Continuous
 62
     7
370
     0
100
AcDbLine
 10
57.1028859392
 20
131.1582539
 30
0.0
 11
58.7962535834
 21
131.1582539
 31
0.0
  0
ARC
  5
AE
330
1F
100
AcDbEntity
  8
0
  6
Continuous
 62
     7
370
     0
100
AcDbCircle
 10
56.2084622147
 20
128.9361663829
 30
0.0
 40
2.395342676976457
100
AcDbArc
 50
68.0744700251
 51
89.6291489945
  0
LINE
  5
AF
330
1F
100
AcDbEntity
  8
0
  6
Continuous
 62
     7
370
     0
100
AcDbLine
 10
60.5540931665
 20
125.0314589807
 30
0.0
 11
64.8842201854
 21
125.0314589807
 31
0.0
  0
LWPOLYLINE
  5
B0
330
1F
100
AcDbEntity
  8
0
  6
Continuous
 62
     7
370
     0
100
AcDbPolyline
 90
        3
 70
   128
 43
0.0
 10
62.3119327447
 20
125.2046643862
 10
61.3396947247
 20
125.06687428
 10
60.5540931665
 20
125.0314588764
  0
LINE
  5
B1
330
1F
100
AcDbEntity
  8
0
  6
Continuous
 62
     7
370
     0
100
AcDbLine
 10
64.0053003939
 20
125.2046640615
 30
0.0
 11
62.3119327496
 21
125.2046640615
 31
0.0
  0
ARC
  5
B2
330
1F
100
AcDbEntity
  8
0
  6
Continuous
 62
     7
370
     0
100
AcDbCircle
 10
64.899720594
 20
127.4267275202
 30
0.0
 40
2.395318796775459
100
AcDbArc
 50
248.0743309774
 51
269.6292296
  0
LINE
  5
B3
330
1F
100
AcDbEntity
  8
0
  6
Continuous
 62
     7
370
     0
100
AcDbLine
 10
58.7962535834
 20
125.2046640615
 30
0.0
 11
58.7962535834
 21
131.1582539
 31
0.0
  0
LINE
  5
B4
330
1F
100
AcDbEntity
  8
0
  6
Continuous
 62
     7
370
     0
100
AcDbLine
 10
58.7962535834
 20
125.2046640615
 30
0.0
 11
57.1028859392
 21
125.2046640615
 31
0.0
  0
LINE
  5
B5
330
1F
100
AcDbEntity
  8
0
  6
Continuous
 62
     7
370
     0
100
AcDbLine
 10
57.1028859392
 20
131.1582539
 30
0.0
 11
57.1028859392
 21
125.2046640615
 31
0.0
  0
LINE
  5
B6
330
1F
100
AcDbEntity
  8
0
  6
Continuous
 62
     7
370
     0
100
AcDbLine
 10
56.2239661476
 20
125.0314589807
 30
0.0
 11
60.5540931665
 21
125.0314589807
 31
0.0
  0
LWPOLYLINE
  5
B7
330
1F
100
AcDbEntity
  8
0
  6
Continuous
 62
     7
370
     0
100
AcDbPolyline
 90
        3
 70
   128
 43
0.0
 10
57.1028859795
 20
125.2046643862
 10
56.6674035017
 20
125.0765190565
 10
56.2239661322
 20
125.0314588764
  0
LWPOLYLINE
  5
B8
330
1F
100
AcDbEntity
  8
0
  6
Continuous
 62
     7
370
     0
100
AcDbPolyline
 90
        3
 70
   128
 43
0.0
 10
60.5540931665
 20
125.0314588764
 10
59.6751733774
 20
125.0757199818
 10
58.7962535883
 20
125.2046643862
  0
LINE
  5
B9
330
1F
100
AcDbEntity
  8
0
  6
Continuous
 62
     7
370
     0
100
AcDbLine
 10
62.3119327496
 20
131.1582539
 30
0.0
 11
62.3119327496
 21
125.2046640615
 31
0.0
  0
LINE
  5
BA
330
1F
100
AcDbEntity
  8
0
  6
Continuous
 62
     7
370
     0
100
AcDbLine
 10
64.0053003939
 20
125.2046640615
 30
0.0
 11
64.0053003939
 21
131.1582539
 31
0.0
  0
ARC
  5
BB
330
1F
100
AcDbEntity
  8
0
  6
Continuous
 62
     7
370
     0
100
AcDbCircle
 10
64.8014660116
 20
154.4651409
 30
0.0
 40
2.433815834439021
100
AcDbArc
 50
244.0434491613
 51
269.3997027115
  0
LINE
  5
BC
330
1F
100
AcDbEntity
  8
0
  6
Continuous
 62
     7
370
     0
100
AcDbLine
 10
60.5540931665
 20
152.0314589807
 30
0.0
 11
64.77596701
 21
152.0314589807
 31
0.0
  0
LWPOLYLINE
  5
BD
330
1F
100
AcDbEntity
  8
0
  6
Continuous
 62
     7
370
     0
100
AcDbPolyline
 90
        3
 70
   128
 43
0.0
 10
62.6336063233
 20
152.2768332729
 10
61.320054645
 20
152.0659883612
 10
60.5540931665
 20
152.0314586455
  0
LINE
  5
BE
330
1F
100
AcDbEntity
  8
0
  6
Continuous
 62
     7
370
     0
100
AcDbLine
 10
62.6336063307
 20
152.2768328451
 30
0.0
 11
63.7362104279
 21
152.2768328451
 31
0.0
  0
ARC
  5
BF
330
1F
100
AcDbEntity
  8
0
  6
Continuous
 62
     7
370
     0
100
AcDbCircle
 10
56.3067188947
 20
151.7977629588
 30
0.0
 40
2.433830200154807
100
AcDbArc
 50
64.0435764338
 51
89.3996726654
  0
LINE
  5
C0
330
1F
100
AcDbEntity
  8
0
  6
Continuous
 62
     7
370
     0
100
AcDbLine
 10
56.3322193231
 20
154.2314589807
 30
0.0
 11
60.5540931665
 21
154.2314589807
 31
0.0
  0
LWPOLYLINE
  5
C1
330
1F
100
AcDbEntity
  8
0
  6
Continuous
 62
     7
370
     0
100
AcDbPolyline
 90
        3
 70
   128
 43
0.0
 10
58.4745800097
 20
153.9860858688
 10
59.5012442882
 20
154.1665668705
 10
60.5540931665
 20
154.2314595649
  0
LINE
  5
C2
330
1F
100
AcDbEntity
  8
0
  6
Continuous
 62
     7
370
     0
100
AcDbLine
 10
58.4745800023
 20
153.9860851163
 30
0.0
 11
57.3719759052
 21
153.9860851163
 31
0.0
  0
LWPOLYLINE
  5
C3
330
1F
100
AcDbEntity
  8
0
  6
Continuous
 62
     7
370
     0
100
AcDbPolyline
 90
        3
 70
   128
 43
0.0
 10
60.5540931665
 20
154.2314595649
 10
61.320054645
 20
154.1969298491
 10
62.6336063233
 20
153.9860858688
  0
LINE
  5
C4
330
1F
100
AcDbEntity
  8
0
  6
Continuous
 62
     7
370
     0
100
AcDbLine
 10
60.5540931665
 20
154.2314589807
 30
0.0
 11
64.77596701
 21
154.2314589807
 31
0.0
  0
LWPOLYLINE
  5
C5
330
1F
100
AcDbEntity
  8
0
  6
Continuous
 62
     7
370
     0
100
AcDbPolyline
 90
        3
 70
   128
 43
0.0
 10
63.7362105281
 20
153.9860858688
 10
64.2495424927
 20
154.1665668705
 10
64.7759669901
 20
154.2314595649
  0
LINE
  5
C6
330
1F
100
AcDbEntity
  8
0
  6
Continuous
 62
     7
370
     0
100
AcDbLine
 10
63.7362104279
 20
153.9860851163
 30
0.0
 11
62.6336063307
 21
153.9860851163
 31
0.0
  0
LWPOLYLINE
  5
C7
330
1F
100
AcDbEntity
  8
0
  6
Continuous
 62
     7
370
     0
100
AcDbPolyline
 90
        3
 70
   128
 43
0.0
 10
60.5540931665
 20
152.0314586455
 10
59.5143365881
 20
152.0947643661
 10
58.4745800097
 20
152.2768332729
  0
LINE
  5
C8
330
1F
100
AcDbEntity
  8
0
  6
Continuous
 62
     7
370
     0
100
AcDbLine
 10
56.3322193231
 20
152.0314589807
 30
0.0
 11
60.5540931665
 21
152.0314589807
 31
0.0
  0
LWPOLYLINE
  5
C9
330
1F
100
AcDbEntity
  8
0
  6
Continuous
 62
     7
370
     0
100
AcDbPolyline
 90
        3
 70
   128
 43
0.0
 10
57.3719758049
 20
152.2768332729
 10
56.8586438403
 20
152.0963504085
 10
56.332219343
 20
152.0314586455
  0
LINE
  5
CA
330
1F
100
AcDbEntity
  8
0
  6
Continuous
 62
     7
370
     0
100
AcDbLine
 10
57.3719759052
 20
152.2768328451
 30
0.0
 11
58.4745800023
 21
152.2768328451
 31
0.0
  0
LINE
  5
CB
330
1F
100
AcDbEntity
  8
0
  6
Continuous
 62
     7
370
     0
100
AcDbLine
 10
58.4745800023
 20
153.9860851163
 30
0.0
 11
58.4745800023
 21
152.2768328451
 31
0.0
  0
LINE
  5
CC
330
1F
100
AcDbEntity
  8
0
  6
Continuous
 62
     7
370
     0
100
AcDbLine
 10
62.6336063307
 20
152.2768328451
 30
0.0
 11
62.6336063307
 21
153.9860851163
 31
0.0
  0
LINE
  5
CD
330
1F
100
AcDbEntity
  8
0
  6
Continuous
 62
     7
370
     0
100
AcDbLine
 10
57.3719759052
 20
152.2768328451
 30
0.0
 11
57.3719759052
 21
153.9860851163
 31
0.0
  0
LINE
  5
CE
330
1F
100
AcDbEntity
  8
0
  6
Continuous
 62
     7
370
     0
100
AcDbLine
 10
63.7362104279
 20
153.9860851163
 30
0.0
 11
63.7362104279
 21
152.2768328451
 31
0.0
  0
LINE
  5
CF
330
1F
100
AcDbEntity
  8
0
  6
Continuous
 62
     7
370
     0
100
AcDbLine
 10
64.77596701
 20
152.0314589807
 30
0.0
 11
65.4290931665
 21
152.0314589807
 31
0.0
  0
LINE
  5
D0
330
1F
100
AcDbEntity
  8
0
  6
Continuous
 62
     7
370
     0
100
AcDbLine
 10
55.6790931665
 20
152.0314589807
 30
0.0
 11
56.3322193231
 21
152.0314589807
 31
0.0
  0
ARC
  5
D1
330
1F
100
AcDbEntity
  8
0
  6
Continuous
 62
     7
370
     0
100
AcDbCircle
 10
56.3577180756
 20
154.4651396759
 30
0.0
 40
2.433814607397597
100
AcDbArc
 50
244.043442663
 51
269.3997092098
  0
LINE
  5
D2
330
1F
100
AcDbEntity
  8
0
  6
Continuous
 62
     7
370
     0
100
AcDbLine
 10
55.292462741
 20
153.9860851163
 30
0.0
 11
55.292462741
 21
152.2768328451
 31
0.0
  0
LWPOLYLINE
  5
D3
330
1F
100
AcDbEntity
  8
0
  6
Continuous
 62
     7
370
     0
100
AcDbPolyline
 90
        3
 70
   128
 43
0.0
 10
55.292462881
 20
153.9860858688
 10
55.8057948456
 20
154.1665668705
 10
56.332219343
 20
154.2314595649
  0
ARC
  5
D4
330
1F
100
AcDbEntity
  8
0
  6
Continuous
 62
     7
370
     0
100
AcDbCircle
 10
64.7504668306
 20
151.7977641829
 30
0.0
 40
2.433828973097297
100
AcDbArc
 50
64.0435699355
 51
89.3996791636
  0
LINE
  5
D5
330
1F
100
AcDbEntity
  8
0
  6
Continuous
 62
     7
370
     0
100
AcDbLine
 10
65.8157235921
 20
152.2768328451
 30
0.0
 11
65.8157235921
 21
153.9860851163
 31
0.0
  0
LWPOLYLINE
  5
D6
330
1F
100
AcDbEntity
  8
0
  6
Continuous
 62
     7
370
     0
100
AcDbPolyline
 90
        3
 70
   128
 43
0.0
 10
65.815723452
 20
152.2768332729
 10
65.3023914874
 20
152.0963504085
 10
64.7759669901
 20
152.0314586455
  0
LWPOLYLINE
  5
D7
330
1F
100
AcDbEntity
  8
0
  6
Continuous
 62
     7
370
     0
100
AcDbPolyline
 90
        3
 70
   128
 43
0.0
 10
55.3450462849
 20
131.1582538405
 10
55.7805285298
 20
131.2863991701
 10
56.2239661322
 20
131.3314588846
  0
ARC
  5
D8
330
1F
100
AcDbEntity
  8
0
  6
Continuous
 62
     7
370
     0
100
AcDbCircle
 10
56.2394665254
 20
127.4267275202
 30
0.0
 40
2.39531879677546
100
AcDbArc
 50
248.0743309774
 51
269.6292296
  0
LINE
  5
D9
330
1F
100
AcDbEntity
  8
0
  6
Continuous
 62
     7
370
     0
100
AcDbLine
 10
55.345046356
 20
125.2046640615
 30
0.0
 11
55.345046356
 21
131.1582539
 31
0.0
  0
ARC
  5
DA
330
1F
100
AcDbEntity
  8
0
  6
Continuous
 62
     7
370
     0
100
AcDbCircle
 10
64.8687162834
 20
128.9361663829
 30
0.0
 40
2.395342676976457
100
AcDbArc
 50
68.0744700251
 51
89.6291489945
  0
LINE
  5
DB
330
1F
100
AcDbEntity
  8
0
  6
Continuous
 62
     7
370
     0
100
AcDbLine
 10
65.763139977
 20
131.1582539
 30
0.0
 11
65.763139977
 21
125.2046640615
 31
0.0
  0
LWPOLYLINE
  5
DC
330
1F
100
AcDbEntity
  8
0
  6
Continuous
 62
     7
370
     0
100
AcDbPolyline
 90
        3
 70
   128
 43
0.0
 10
65.7631400482
 20
125.2046643862
 10
65.3276578032
 20
125.0765190565
 10
64.8842202008
 20
125.0314588764
  0
LINE
  5
DD
330
1F
100
AcDbEntity
  8
0
  6
Continuous
 62
     7
370
     0
100
AcDbLine
 10
60.5540931665
 20
159.2814589807
 30
0.0
 11
56.5540931665
 21
159.2814589807
 31
0.0
  0
LINE
  5
DE
330
1F
100
AcDbEntity
  8
0
  6
Continuous
 62
     7
370
     0
100
AcDbLine
 10
64.5540931665
 20
159.2814589807
 30
0.0
 11
60.5540931665
 21
159.2814589807
 31
0.0
  0
LINE
  5
DF
330
1F
100
AcDbEntity
  8
0
  6
Continuous
 62
     7
370
     0
100
AcDbLine
 10
60.5540931665
 20
159.5314589807
 30
0.0
 11
64.3040931665
 21
159.5314589807
 31
0.0
  0
LINE
  5
E0
330
1F
100
AcDbEntity
  8
0
  6
Continuous
 62
     7
370
     0
100
AcDbLine
 10
56.8040931665
 20
159.5314589807
 30
0.0
 11
60.5540931665
 21
159.5314589807
 31
0.0
  0
LINE
  5
E1
330
1F
100
AcDbEntity
  8
0
  6
Continuous
 62
     7
370
     0
100
AcDbLine
 10
60.5540931665
 20
162.0314589807
 30
0.0
 11
63.8040931665
 21
162.0314589807
 31
0.0
  0
LINE
  5
E2
330
1F
100
AcDbEntity
  8
0
  6
Continuous
 62
     7
370
     0
100
AcDbLine
 10
57.3040931665
 20
162.0314589807
 30
0.0
 11
60.5540931665
 21
162.0314589807
 31
0.0
  0
LINE
  5
E3
330
1F
100
AcDbEntity
  8
0
  6
Continuous
 62
     7
370
     0
100
AcDbLine
 10
60.5540931665
 20
161.7814589807
 30
0.0
 11
57.0540931665
 21
161.7814589807
 31
0.0
  0
LINE
  5
E4
330
1F
100
AcDbEntity
  8
0
  6
Continuous
 62
     7
370
     0
100
AcDbLine
 10
64.0540931665
 20
161.7814589807
 30
0.0
 11
60.5540931665
 21
161.7814589807
 31
0.0
  0
LINE
  5
E5
330
1F
100
AcDbEntity
  8
0
  6
Continuous
 62
     7
370
     0
100
AcDbLine
 10
60.5540931665
 20
160.2814589807
 30
0.0
 11
64.0540931665
 21
160.2814589807
 31
0.0
  0
LINE
  5
E6
330
1F
100
AcDbEntity
  8
0
  6
Continuous
 62
     7
370
     0
100
AcDbLine
 10
57.0540931665
 20
160.2814589807
 30
0.0
 11
60.5540931665
 21
160.2814589807
 31
0.0
  0
LINE
  5
E7
330
1F
100
AcDbEntity
  8
0
  6
Continuous
 62
     7
370
     0
100
AcDbLine
 10
60.5540931665
 20
160.0314589807
 30
0.0
 11
57.3040931665
 21
160.0314589807
 31
0.0
  0
LINE
  5
E8
330
1F
100
AcDbEntity
  8
0
  6
Continuous
 62
     7
370
     0
100
AcDbLine
 10
63.8040931665
 20
160.0314589807
 30
0.0
 11
60.5540931665
 21
160.0314589807
 31
0.0
  0
LINE
  5
E9
330
1F
100
AcDbEntity
  8
0
  6
Continuous
 62
     7
370
     0
100
AcDbLine
 10
63.5540931665
 20
167.5314589807
 30
0.0
 11
57.5540931665
 21
167.5314589807
 31
0.0
  0
LINE
  5
EA
330
1F
100
AcDbEntity
  8
0
  6
Continuous
 62
     7
370
     0
100
AcDbLine
 10
60.5540931665
 20
171.2814589807
 30
0.0
 11
57.5540931665
 21
171.2814589807
 31
0.0
  0
LINE
  5
EB
330
1F
100
AcDbEntity
  8
0
  6
Continuous
 62
     7
370
     0
100
AcDbLine
 10
63.5540931665
 20
171.2814589807
 30
0.0
 11
60.5540931665
 21
171.2814589807
 31
0.0
  0
LINE
  5
EC
330
1F
100
AcDbEntity
  8
0
  6
Continuous
 62
     7
370
     0
100
AcDbLine
 10
60.5540931665
 20
171.5314589807
 30
0.0
 11
63.3040931665
 21
171.5314589807
 31
0.0
  0
LINE
  5
ED
330
1F
100
AcDbEntity
  8
0
  6
Continuous
 62
     7
370
     0
100
AcDbLine
 10
57.8040931665
 20
171.5314589807
 30
0.0
 11
60.5540931665
 21
171.5314589807
 31
0.0
  0
LINE
  5
EE
330
1F
100
AcDbEntity
  8
0
  6
Continuous
 62
     7
370
     0
100
AcDbLine
 10
55.345046356
 20
125.2046640615
 30
0.0
 11
55.2540931665
 21
125.2046640615
 31
0.0
  0
LINE
  5
EF
330
1F
100
AcDbEntity
  8
0
  6
Continuous
 62
     7
370
     0
100
AcDbLine
 10
55.5540931665
 20
125.0314589807
 30
0.0
 11
56.2239661476
 21
125.0314589807
 31
0.0
  0
LINE
  5
F0
330
1F
100
AcDbEntity
  8
0
  6
Continuous
 62
     7
370
     0
100
AcDbLine
 10
55.2540931665
 20
131.1582539
 30
0.0
 11
55.345046356
 21
131.1582539
 31
0.0
  0
LINE
  5
F1
330
1F
100
AcDbEntity
  8
0
  6
Continuous
 62
     7
370
     0
100
AcDbLine
 10
60.5540931665
 20
121.7814589807
 30
0.0
 11
63.0540931665
 21
121.7814589807
 31
0.0
  0
LINE
  5
F2
330
1F
100
AcDbEntity
  8
0
  6
Continuous
 62
     7
370
     0
100
AcDbLine
 10
58.0540931665
 20
121.7814589807
 30
0.0
 11
60.5540931665
 21
121.7814589807
 31
0.0
  0
LINE
  5
F3
330
1F
100
AcDbEntity
  8
0
  6
Continuous
 62
     7
370
     0
100
AcDbLine
 10
60.5540931665
 20
121.5314589807
 30
0.0
 11
58.3040931665
 21
121.5314589807
 31
0.0
  0
LINE
  5
F4
330
1F
100
AcDbEntity
  8
0
  6
Continuous
 62
     7
370
     0
100
AcDbLine
 10
62.8040931665
 20
121.5314589807
 30
0.0
 11
60.5540931665
 21
121.5314589807
 31
0.0
  0
LINE
  5
F5
330
1F
100
AcDbEntity
  8
0
  6
Continuous
 62
     7
370
     0
100
AcDbLine
 10
65.8540931665
 20
125.2046640615
 30
0.0
 11
65.763139977
 21
125.2046640615
 31
0.0
  0
LINE
  5
F6
330
1F
100
AcDbEntity
  8
0
  6
Continuous
 62
     7
370
     0
100
AcDbLine
 10
64.8842201854
 20
125.0314589807
 30
0.0
 11
65.5540931665
 21
125.0314589807
 31
0.0
  0
LINE
  5
F7
330
1F
100
AcDbEntity
  8
0
  6
Continuous
 62
     7
370
     0
100
AcDbLine
 10
65.763139977
 20
131.1582539
 30
0.0
 11
65.8540931665
 21
131.1582539
 31
0.0
  0
LINE
  5
F8
330
1F
100
AcDbEntity
  8
0
  6
Continuous
 62
     7
370
     0
100
AcDbLine
 10
65.8540931665
 20
153.9860851163
 30
0.0
 11
65.8157235921
 21
153.9860851163
 31
0.0
  0
LINE
  5
F9
330
1F
100
AcDbEntity
  8
0
  6
Continuous
 62
     7
370
     0
100
AcDbLine
 10
64.77596701
 20
154.2314589807
 30
0.0
 11
65.4290931665
 21
154.2314589807
 31
0.0
  0
LINE
  5
FA
330
1F
100
AcDbEntity
  8
0
  6
Continuous
 62
     7
370
     0
100
AcDbLine
 10
65.8157235921
 20
152.2768328451
 30
0.0
 11
65.8540931665
 21
152.2768328451
 31
0.0
  0
LINE
  5
FB
330
1F
100
AcDbEntity
  8
0
  6
Continuous
 62
     7
370
     0
100
AcDbLine
 10
55.292462741
 20
153.9860851163
 30
0.0
 11
55.2540931665
 21
153.9860851163
 31
0.0
  0
LINE
  5
FC
330
1F
100
AcDbEntity
  8
0
  6
Continuous
 62
     7
370
     0
100
AcDbLine
 10
55.6790931665
 20
154.2314589807
 30
0.0
 11
56.3322193231
 21
154.2314589807
 31
0.0
  0
LINE
  5
FD
330
1F
100
AcDbEntity
  8
0
  6
Continuous
 62
     7
370
     0
100
AcDbLine
 10
55.2540931665
 20
152.2768328451
 30
0.0
 11
55.292462741
 21
152.2768328451
 31
0.0
  0
LINE
  5
FE
330
1F
100
AcDbEntity
  8
0
  6
Continuous
 62
     7
370
     0
100
AcDbLine
 10
81.0540931665
 20
137.0314589807
 30
0.0
 11
81.0540931665
 21
142.2314589807
 31
0.0
  0
LINE
  5
FF
330
1F
100
AcDbEntity
  8
0
  6
Continuous
 62
     7
370
     0
100
AcDbLine
 10
81.0540931665
 20
131.8314589807
 30
0.0
 11
81.0540931665
 21
137.0314589807
 31
0.0
  0
DIMENSION
  5
100
330
1F
100
AcDbEntity
  8
0
  6
Continuous
 62
     7
370
     0
100
AcDbDimension
  2
*D1
 10
93.8620647512
 20
131.8314589807
 30
0.0
 11
93.8620647512
 21
137.0314589807
 31
0.0
 70
   160
 71
     1
 42
10.4
  3
SLDDIMSTYLE0
100
AcDbAlignedDimension
 13
79.0540931665
 23
142.2314589807
 33
0.0
 14
79.0540931665
 24
131.8314589807
 34
0.0
 50
90.0
100
AcDbRotatedDimension
1001
ACAD
1000
DSTYLE
1002
{
1070
    77
1070
     3
1070
   143
1040
0.0393700787
1070
    41
1040
3.0
1070
    44
1040
1.0
1070
    42
1040
1.0
1070
   147
1040
1.524
1070
    73
1070
     0
1070
    74
1070
     0
1070
   140
1040
3.5
1070
   284
1070
    12
1070
    78
1070
    12
1002
}
  0
DIMENSION
  5
11E
330
1F
100
AcDbEntity
  8
0
  6
Continuous
 62
     7
370
     0
100
AcDbDimension
  2
*D3
 10
57.5540931665
 20
173.9458191133
 30
0.0
 11
60.5540931665
 21
173.9458191133
 31
0.0
 70
   160
 71
     1
 42
6.0
  3
SLDDIMSTYLE0
100
AcDbAlignedDimension
 13
63.5540931665
 23
171.2814589807
 33
0.0
 14
57.5540931665
 24
171.2814589807
 34
0.0
100
AcDbRotatedDimension
1001
ACAD
1000
DSTYLE
1002
{
1070
    77
1070
     3
1070
   143
1040
0.0393700787
1070
    41
1040
3.0
1070
    44
1040
1.0
1070
    42
1040
1.0
1070
   147
1040
1.524
1070
    73
1070
     0
1070
    74
1070
     0
1070
   140
1040
3.5
1070
   284
1070
    12
1070
    78
1070
    12
1002
}
  0
DIMENSION
  5
135
330
1F
100
AcDbEntity
  8
0
  6
Continuous
 62
     7
370
     0
100
AcDbDimension
  2
*D4
 10
60.5540931665
 20
117.1855737517
 30
0.0
 11
71.0540931665
 21
117.1855737517
 31
0.0
 70
   160
 71
     1
 42
21.0
  3
SLDDIMSTYLE0
100
AcDbAlignedDimension
 13
81.5540931665
 23
132.3314589807
 33
0.0
 14
60.5540931665
 24
118.522938313
 34
0.0
100
AcDbRotatedDimension
1001
ACAD
1000
DSTYLE
1002
{
1070
    77
1070
     3
1070
   143
1040
0.0393700787
1070
    41
1040
3.0
1070
    44
1040
1.0
1070
    42
1040
1.0
1070
   147
1040
1.524
1070
    73
1070
     0
1070
    74
1070
     0
1070
   140
1040
3.5
1070
   284
1070
    12
1070
    78
1070
    12
1002
}
  0
LINE
  5
148
330
1F
100
AcDbEntity
  8
0
  6
CENTERX2
 62
     7
370
     0
100
AcDbLine
 10
60.5540931665
 20
118.522938313
 30
0.0
 11
60.5540931665
 21
172.6022774776
 31
0.0
  0
LINE
  5
149
330
1F
100
AcDbEntity
  8
0
  6
Continuous
 62
     7
370
     0
100
AcDbLine
 10
161.0972769904
 20
143.8314589807
 30
0.0
 11
160.6722769904
 21
143.9861463303
 31
0.0
  0
LINE
  5
14A
330
1F
100
AcDbEntity
  8
0
  6
Continuous
 62
     7
370
     0
100
AcDbLine
 10
150.9222769904
 20
143.9861463303
 30
0.0
 11
150.4972769904
 21
143.8314589807
 31
0.0
  0
LINE
  5
14B
330
1F
100
AcDbEntity
  8
0
  6
Continuous
 62
     7
370
     0
100
AcDbLine
 10
161.0972769904
 20
131.3314589807
 30
0.0
 11
161.0972769904
 21
143.8314589807
 31
0.0
  0
LINE
  5
14C
330
1F
100
AcDbEntity
  8
0
  6
Continuous
 62
     7
370
     0
100
AcDbLine
 10
150.4972769904
 20
143.8314589807
 30
0.0
 11
150.4972769904
 21
131.3314589807
 31
0.0
  0
LINE
  5
14D
330
1F
100
AcDbEntity
  8
0
  6
Continuous
 62
     7
370
     0
100
AcDbLine
 10
160.6722769904
 20
143.9861463303
 30
0.0
 11
160.6722769904
 21
152.0314589807
 31
0.0
  0
LINE
  5
14E
330
1F
100
AcDbEntity
  8
0
  6
Continuous
 62
     7
370
     0
100
AcDbLine
 10
150.9222769904
 20
152.0314589807
 30
0.0
 11
150.9222769904
 21
143.9861463303
 31
0.0
  0
LINE
  5
14F
330
1F
100
AcDbEntity
  8
0
  6
Continuous
 62
     7
370
     0
100
AcDbLine
 10
159.7972769904
 20
159.2814589807
 30
0.0
 11
159.5472769904
 21
159.5314589807
 31
0.0
  0
LINE
  5
150
330
1F
100
AcDbEntity
  8
0
  6
Continuous
 62
     7
370
     0
100
AcDbLine
 10
152.0472769904
 20
159.5314589807
 30
0.0
 11
151.7972769904
 21
159.2814589807
 31
0.0
  0
LINE
  5
151
330
1F
100
AcDbEntity
  8
0
  6
Continuous
 62
     7
370
     0
100
AcDbLine
 10
159.7972771804
 20
154.2314595649
 30
0.0
 11
159.7972771804
 21
156.2314598927
 31
0.0
  0
LINE
  5
152
330
1F
100
AcDbEntity
  8
0
  6
Continuous
 62
     7
370
     0
100
AcDbLine
 10
159.7972771804
 20
158.2314583579
 30
0.0
 11
159.7972769904
 21
159.2814589807
 31
0.0
  0
LINE
  5
153
330
1F
100
AcDbEntity
  8
0
  6
Continuous
 62
     7
370
     0
100
AcDbLine
 10
151.7972769904
 20
159.2814589807
 30
0.0
 11
151.7972768004
 21
158.2314583579
 31
0.0
  0
LINE
  5
154
330
1F
100
AcDbEntity
  8
0
  6
Continuous
 62
     7
370
     0
100
AcDbLine
 10
151.7972768004
 20
156.2314598927
 30
0.0
 11
151.7972768004
 21
154.2314595649
 31
0.0
  0
LINE
  5
155
330
1F
100
AcDbEntity
  8
0
  6
Continuous
 62
     7
370
     0
100
AcDbLine
 10
159.2972769904
 20
161.7814589807
 30
0.0
 11
159.0472769904
 21
162.0314589807
 31
0.0
  0
LINE
  5
156
330
1F
100
AcDbEntity
  8
0
  6
Continuous
 62
     7
370
     0
100
AcDbLine
 10
152.5472769904
 20
162.0314589807
 30
0.0
 11
152.2972769904
 21
161.7814589807
 31
0.0
  0
LINE
  5
157
330
1F
100
AcDbEntity
  8
0
  6
Continuous
 62
     7
370
     0
100
AcDbLine
 10
159.2972769904
 20
160.2814589807
 30
0.0
 11
159.2972769904
 21
161.7814589807
 31
0.0
  0
LINE
  5
158
330
1F
100
AcDbEntity
  8
0
  6
Continuous
 62
     7
370
     0
100
AcDbLine
 10
152.2972769904
 20
161.7814589807
 30
0.0
 11
152.2972769904
 21
160.2814589807
 31
0.0
  0
LINE
  5
159
330
1F
100
AcDbEntity
  8
0
  6
Continuous
 62
     7
370
     0
100
AcDbLine
 10
152.2972769904
 20
160.2814589807
 30
0.0
 11
152.5472769904
 21
160.0314589807
 31
0.0
  0
LINE
  5
15A
330
1F
100
AcDbEntity
  8
0
  6
Continuous
 62
     7
370
     0
100
AcDbLine
 10
159.0472769904
 20
160.0314589807
 30
0.0
 11
159.2972769904
 21
160.2814589807
 31
0.0
  0
LINE
  5
15B
330
1F
100
AcDbEntity
  8
0
  6
Continuous
 62
     7
370
     0
100
AcDbLine
 10
158.7972769904
 20
167.5314589807
 30
0.0
 11
158.7972769904
 21
171.2814589807
 31
0.0
  0
LINE
  5
15C
330
1F
100
AcDbEntity
  8
0
  6
Continuous
 62
     7
370
     0
100
AcDbLine
 10
152.7972769904
 20
171.2814589807
 30
0.0
 11
152.7972769904
 21
167.5314589807
 31
0.0
  0
LINE
  5
15D
330
1F
100
AcDbEntity
  8
0
  6
Continuous
 62
     7
370
     0
100
AcDbLine
 10
158.7972769904
 20
171.2814589807
 30
0.0
 11
158.5472769904
 21
171.5314589807
 31
0.0
  0
LINE
  5
15E
330
1F
100
AcDbEntity
  8
0
  6
Continuous
 62
     7
370
     0
100
AcDbLine
 10
153.0472769904
 20
171.5314589807
 30
0.0
 11
152.7972769904
 21
171.2814589807
 31
0.0
  0
LINE
  5
15F
330
1F
100
AcDbEntity
  8
0
  6
Continuous
 62
     7
370
     0
100
AcDbLine
 10
153.2972769904
 20
125.0314589807
 30
0.0
 11
153.2972769904
 21
121.7814589807
 31
0.0
  0
LINE
  5
160
330
1F
100
AcDbEntity
  8
0
  6
Continuous
 62
     7
370
     0
100
AcDbLine
 10
158.2972769904
 20
121.7814589807
 30
0.0
 11
158.2972769904
 21
125.0314589807
 31
0.0
  0
LINE
  5
161
330
1F
100
AcDbEntity
  8
0
  6
Continuous
 62
     7
370
     0
100
AcDbLine
 10
153.2972769904
 20
121.7814589807
 30
0.0
 11
153.5472769904
 21
121.5314589807
 31
0.0
  0
LINE
  5
162
330
1F
100
AcDbEntity
  8
0
  6
Continuous
 62
     7
370
     0
100
AcDbLine
 10
158.0472769904
 20
121.5314589807
 30
0.0
 11
158.2972769904
 21
121.7814589807
 31
0.0
  0
LINE
  5
163
330
1F
100
AcDbEntity
  8
0
  6
Continuous
 62
     7
370
     0
100
AcDbLine
 10
157.7972770854
 20
159.5314598748
 30
0.0
 11
157.7972770854
 21
160.0314590254
 31
0.0
  0
LINE
  5
164
330
1F
100
AcDbEntity
  8
0
  6
Continuous
 62
     7
370
     0
100
AcDbLine
 10
153.7972768954
 20
160.0314590254
 30
0.0
 11
153.7972768954
 21
159.5314598748
 31
0.0
  0
LINE
  5
165
330
1F
100
AcDbEntity
  8
0
  6
Continuous
 62
     7
370
     0
100
AcDbLine
 10
157.1972769405
 20
162.0314593533
 30
0.0
 11
157.1972769405
 21
167.5314593235
 31
0.0
  0
LINE
  5
166
330
1F
100
AcDbEntity
  8
0
  6
Continuous
 62
     7
370
     0
100
AcDbLine
 10
154.3972770403
 20
167.5314593235
 30
0.0
 11
154.3972770403
 21
162.0314593533
 31
0.0
  0
LWPOLYLINE
  5
167
330
1F
100
AcDbEntity
  8
0
  6
Continuous
 62
     7
370
     0
100
AcDbPolyline
 90
        3
 70
   128
 43
0.0
 10
156.7749432241
 20
156.4046635398
 10
157.5292209116
 20
156.2765191415
 10
158.2972769345
 20
156.2314598927
  0
LINE
  5
168
330
1F
100
AcDbEntity
  8
0
  6
Continuous
 62
     7
370
     0
100
AcDbLine
 10
158.2972769904
 20
156.2314589807
 30
0.0
 11
153.2972769904
 21
156.2314589807
 31
0.0
  0
ARC
  5
169
330
1F
100
AcDbEntity
  8
0
  6
Continuous
 62
     7
370
     0
100
AcDbCircle
 10
153.2806753543
 20
163.1540798829
 30
0.0
 40
6.922639897121477
100
AcDbArc
 50
270.1374053554
 51
282.8444354153
  0
LINE
  5
16A
330
1F
100
AcDbEntity
  8
0
  6
Continuous
 62
     7
370
     0
100
AcDbLine
 10
154.8196107252
 20
156.4046640615
 30
0.0
 11
156.7749432556
 21
156.4046640615
 31
0.0
  0
LWPOLYLINE
  5
16B
330
1F
100
AcDbEntity
  8
0
  6
Continuous
 62
     7
370
     0
100
AcDbPolyline
 90
        3
 70
   128
 43
0.0
 10
154.8196107567
 20
158.0582547107
 10
154.0653330692
 20
158.1863991091
 10
153.2972770463
 20
158.2314583579
  0
LINE
  5
16C
330
1F
100
AcDbEntity
  8
0
  6
Continuous
 62
     7
370
     0
100
AcDbLine
 10
158.2972769904
 20
158.2314589807
 30
0.0
 11
153.2972769904
 21
158.2314589807
 31
0.0
  0
ARC
  5
16D
330
1F
100
AcDbEntity
  8
0
  6
Continuous
 62
     7
370
     0
100
AcDbCircle
 10
158.3138786265
 20
151.3088383676
 30
0.0
 40
6.922639897121477
100
AcDbArc
 50
90.1374053554
 51
102.8444354153
  0
LINE
  5
16E
330
1F
100
AcDbEntity
  8
0
  6
Continuous
 62
     7
370
     0
100
AcDbLine
 10
156.7749432556
 20
158.0582539
 30
0.0
 11
154.8196107252
 21
158.0582539
 31
0.0
  0
LINE
  5
16F
330
1F
100
AcDbEntity
  8
0
  6
Continuous
 62
     7
370
     0
100
AcDbLine
 10
154.8196107252
 20
158.0582539
 30
0.0
 11
154.8196107252
 21
156.4046640615
 31
0.0
  0
LINE
  5
170
330
1F
100
AcDbEntity
  8
0
  6
Continuous
 62
     7
370
     0
100
AcDbLine
 10
156.7749432556
 20
156.4046640615
 30
0.0
 11
156.7749432556
 21
158.0582539
 31
0.0
  0
LWPOLYLINE
  5
171
330
1F
100
AcDbEntity
  8
0
  6
Continuous
 62
     7
370
     0
100
AcDbPolyline
 90
        3
 70
   128
 43
0.0
 10
159.8196107614
 20
158.0582547107
 10
159.0653330739
 20
158.1863991091
 10
158.2972769345
 20
158.2314583579
  0
LINE
  5
172
330
1F
100
AcDbEntity
  8
0
  6
Continuous
 62
     7
370
     0
100
AcDbLine
 10
159.8196107252
 20
158.0582539
 30
0.0
 11
159.8196107252
 21
156.4046640615
 31
0.0
  0
ARC
  5
173
330
1F
100
AcDbEntity
  8
0
  6
Continuous
 62
     7
370
     0
100
AcDbCircle
 10
158.2806751559
 20
163.1540816787
 30
0.0
 40
6.922641693146946
100
AcDbArc
 50
270.1374060368
 51
282.8444337497
  0
ARC
  5
174
330
1F
100
AcDbEntity
  8
0
  6
Continuous
 62
     7
370
     0
100
AcDbCircle
 10
153.3138788249
 20
151.3088365718
 30
0.0
 40
6.92264169314669
100
AcDbArc
 50
90.1374060368
 51
102.8444337497
  0
LWPOLYLINE
  5
175
330
1F
100
AcDbEntity
  8
0
  6
Continuous
 62
     7
370
     0
100
AcDbPolyline
 90
        3
 70
   128
 43
0.0
 10
151.7749432194
 20
156.4046635398
 10
152.5292209069
 20
156.2765191415
 10
153.2972770463
 20
156.2314598927
  0
LINE
  5
176
330
1F
100
AcDbEntity
  8
0
  6
Continuous
 62
     7
370
     0
100
AcDbLine
 10
151.7749432556
 20
156.4046640615
 30
0.0
 11
151.7749432556
 21
158.0582539
 31
0.0
  0
LINE
  5
177
330
1F
100
AcDbEntity
  8
0
  6
Continuous
 62
     7
370
     0
100
AcDbLine
 10
160.7972769904
 20
156.4046640615
 30
0.0
 11
160.7972769904
 21
156.2314589807
 31
0.0
  0
LINE
  5
178
330
1F
100
AcDbEntity
  8
0
  6
Continuous
 62
     7
370
     0
100
AcDbLine
 10
159.8196107252
 20
156.4046640615
 30
0.0
 11
160.7972769904
 21
156.4046640615
 31
0.0
  0
LINE
  5
179
330
1F
100
AcDbEntity
  8
0
  6
Continuous
 62
     7
370
     0
100
AcDbLine
 10
160.7972769904
 20
156.2314589807
 30
0.0
 11
158.2972769904
 21
156.2314589807
 31
0.0
  0
LINE
  5
17A
330
1F
100
AcDbEntity
  8
0
  6
Continuous
 62
     7
370
     0
100
AcDbLine
 10
160.7972769904
 20
158.2314589807
 30
0.0
 11
160.7972769904
 21
158.0582539
 31
0.0
  0
LINE
  5
17B
330
1F
100
AcDbEntity
  8
0
  6
Continuous
 62
     7
370
     0
100
AcDbLine
 10
160.7972769904
 20
158.0582539
 30
0.0
 11
159.8196107252
 21
158.0582539
 31
0.0
  0
LINE
  5
17C
330
1F
100
AcDbEntity
  8
0
  6
Continuous
 62
     7
370
     0
100
AcDbLine
 10
160.7972769904
 20
158.2314589807
 30
0.0
 11
158.2972769904
 21
158.2314589807
 31
0.0
  0
LINE
  5
17D
330
1F
100
AcDbEntity
  8
0
  6
Continuous
 62
     7
370
     0
100
AcDbLine
 10
150.7972769904
 20
156.2314589807
 30
0.0
 11
150.7972769904
 21
156.4046640615
 31
0.0
  0
LINE
  5
17E
330
1F
100
AcDbEntity
  8
0
  6
Continuous
 62
     7
370
     0
100
AcDbLine
 10
150.7972769904
 20
156.4046640615
 30
0.0
 11
151.7749432556
 21
156.4046640615
 31
0.0
  0
LINE
  5
17F
330
1F
100
AcDbEntity
  8
0
  6
Continuous
 62
     7
370
     0
100
AcDbLine
 10
153.2972769904
 20
156.2314589807
 30
0.0
 11
150.7972769904
 21
156.2314589807
 31
0.0
  0
LINE
  5
180
330
1F
100
AcDbEntity
  8
0
  6
Continuous
 62
     7
370
     0
100
AcDbLine
 10
150.7972769904
 20
158.0582539
 30
0.0
 11
150.7972769904
 21
158.2314589807
 31
0.0
  0
LINE
  5
181
330
1F
100
AcDbEntity
  8
0
  6
Continuous
 62
     7
370
     0
100
AcDbLine
 10
151.7749432556
 20
158.0582539
 30
0.0
 11
150.7972769904
 21
158.0582539
 31
0.0
  0
LINE
  5
182
330
1F
100
AcDbEntity
  8
0
  6
Continuous
 62
     7
370
     0
100
AcDbLine
 10
153.2972769904
 20
158.2314589807
 30
0.0
 11
150.7972769904
 21
158.2314589807
 31
0.0
  0
LINE
  5
183
330
1F
100
AcDbEntity
  8
0
  6
Continuous
 62
     7
370
     0
100
AcDbLine
 10
160.7972769904
 20
156.4046640615
 30
0.0
 11
160.7972769904
 21
158.0582539
 31
0.0
  0
LINE
  5
184
330
1F
100
AcDbEntity
  8
0
  6
Continuous
 62
     7
370
     0
100
AcDbLine
 10
150.7972769904
 20
158.0582539
 30
0.0
 11
150.7972769904
 21
156.4046640615
 31
0.0
  0
CIRCLE
  5
185
330
1F
100
AcDbEntity
  8
0
  6
Continuous
 62
     7
370
     0
100
AcDbCircle
 10
155.7972769904
 20
137.0314589807
 30
0.0
 40
2.500000000000028
  0
CIRCLE
  5
186
330
1F
100
AcDbEntity
  8
0
  6
Continuous
 62
     7
370
     0
100
AcDbCircle
 10
155.7972769904
 20
137.0314589807
 30
0.0
 40
4.699999999999989
  0
CIRCLE
  5
187
330
1F
100
AcDbEntity
  8
0
  6
Continuous
 62
     7
370
     0
100
AcDbCircle
 10
155.7972769904
 20
137.0314589807
 30
0.0
 40
5.199999999999989
  0
CIRCLE
  5
188
330
1F
100
AcDbEntity
  8
0
  6
Continuous
 62
     7
370
     0
100
AcDbCircle
 10
155.7972769904
 20
137.0314589807
 30
0.0
 40
2.000000000000028
  0
CIRCLE
  5
189
330
1F
100
AcDbEntity
  8
0
  6
Continuous
 62
     7
370
     0
100
AcDbCircle
 10
155.7972769904
 20
137.0314589807
 30
0.0
 40
5.199999999999989
  0
CIRCLE
  5
18A
330
1F
100
AcDbEntity
  8
0
  6
Continuous
 62
     7
370
     0
100
AcDbCircle
 10
155.7972769904
 20
137.0314589807
 30
0.0
 40
1.250000000000028
  0
LINE
  5
18B
330
1F
100
AcDbEntity
  8
0
  6
Continuous
 62
     7
370
     0
100
AcDbLine
 10
160.6722769904
 20
143.9861463303
 30
0.0
 11
150.9222769904
 21
143.9861463303
 31
0.0
  0
LINE
  5
18C
330
1F
100
AcDbEntity
  8
0
  6
Continuous
 62
     7
370
     0
100
AcDbLine
 10
161.0972769904
 20
143.8314589807
 30
0.0
 11
150.4972769904
 21
143.8314589807
 31
0.0
  0
LINE
  5
18D
330
1F
100
AcDbEntity
  8
0
  6
Continuous
 62
     7
370
     0
100
AcDbLine
 10
161.0972769904
 20
131.3314589807
 30
0.0
 11
150.4972769904
 21
131.3314589807
 31
0.0
  0
ARC
  5
18E
330
1F
100
AcDbEntity
  8
0
  6
Continuous
 62
     7
370
     0
100
AcDbCircle
 10
153.3324336419
 20
147.2992263863
 30
0.0
 40
6.932287104443255
100
AcDbArc
 50
74.7084758329
 51
89.7740053718
  0
LINE
  5
18F
330
1F
100
AcDbEntity
  8
0
  6
Continuous
 62
     7
370
     0
100
AcDbLine
 10
153.3597769904
 20
154.2314589807
 30
0.0
 11
158.2347769904
 21
154.2314589807
 31
0.0
  0
LWPOLYLINE
  5
190
330
1F
100
AcDbEntity
  8
0
  6
Continuous
 62
     7
370
     0
100
AcDbPolyline
 90
        3
 70
   128
 43
0.0
 10
156.4338657725
 20
153.9860858688
 10
157.3229830199
 20
154.1665668705
 10
158.2347770407
 20
154.2314595649
  0
LINE
  5
191
330
1F
100
AcDbEntity
  8
0
  6
Continuous
 62
     7
370
     0
100
AcDbLine
 10
156.4338657627
 20
153.9860851163
 30
0.0
 11
155.1606882181
 21
153.9860851163
 31
0.0
  0
LINE
  5
192
330
1F
100
AcDbEntity
  8
0
  6
Continuous
 62
     7
370
     0
100
AcDbLine
 10
153.2972769904
 20
125.0314589807
 30
0.0
 11
158.2972769904
 21
125.0314589807
 31
0.0
  0
LWPOLYLINE
  5
193
330
1F
100
AcDbEntity
  8
0
  6
Continuous
 62
     7
370
     0
100
AcDbPolyline
 90
        3
 70
   128
 43
0.0
 10
154.8196107567
 20
125.2046643862
 10
154.0653330692
 20
125.0765190565
 10
153.2972770463
 20
125.0314588764
  0
LINE
  5
194
330
1F
100
AcDbEntity
  8
0
  6
Continuous
 62
     7
370
     0
100
AcDbLine
 10
156.7749432556
 20
125.2046640615
 30
0.0
 11
154.8196107252
 21
125.2046640615
 31
0.0
  0
ARC
  5
195
330
1F
100
AcDbEntity
  8
0
  6
Continuous
 62
     7
370
     0
100
AcDbCircle
 10
158.3138927944
 20
131.9541308078
 30
0.0
 40
6.922691872072987
100
AcDbArc
 50
257.1555423979
 51
269.8624784151
  0
ARC
  5
196
330
1F
100
AcDbEntity
  8
0
  6
Continuous
 62
     7
370
     0
100
AcDbCircle
 10
158.2621178528
 20
158.9636481977
 30
0.0
 40
6.932243468581442
100
AcDbArc
 50
254.7083985279
 51
269.7740244971
  0
LINE
  5
197
330
1F
100
AcDbEntity
  8
0
  6
Continuous
 62
     7
370
     0
100
AcDbLine
 10
153.3597769904
 20
152.0314589807
 30
0.0
 11
158.2347769904
 21
152.0314589807
 31
0.0
  0
LWPOLYLINE
  5
198
330
1F
100
AcDbEntity
  8
0
  6
Continuous
 62
     7
370
     0
100
AcDbPolyline
 90
        3
 70
   128
 43
0.0
 10
155.1606882083
 20
152.2768332729
 10
154.2715709609
 20
152.0963504085
 10
153.3597769401
 20
152.0314586455
  0
LINE
  5
199
330
1F
100
AcDbEntity
  8
0
  6
Continuous
 62
     7
370
     0
100
AcDbLine
 10
155.1606882181
 20
152.2768328451
 30
0.0
 11
156.4338657627
 21
152.2768328451
 31
0.0
  0
LWPOLYLINE
  5
19A
330
1F
100
AcDbEntity
  8
0
  6
Continuous
 62
     7
370
     0
100
AcDbPolyline
 90
        3
 70
   128
 43
0.0
 10
156.7749432241
 20
131.1582538405
 10
157.5292209116
 20
131.2863991701
 10
158.2972769345
 20
131.3314588846
  0
LINE
  5
19B
330
1F
100
AcDbEntity
  8
0
  6
Continuous
 62
     7
370
     0
100
AcDbLine
 10
154.8196107252
 20
131.1582539
 30
0.0
 11
156.7749432556
 21
131.1582539
 31
0.0
  0
ARC
  5
19C
330
1F
100
AcDbEntity
  8
0
  6
Continuous
 62
     7
370
     0
100
AcDbCircle
 10
153.2806552153
 20
124.4087163261
 30
0.0
 40
6.922762513402129
100
AcDbArc
 50
77.1556250183
 51
89.8624303988
  0
LINE
  5
19D
330
1F
100
AcDbEntity
  8
0
  6
Continuous
 62
     7
370
     0
100
AcDbLine
 10
156.7749432556
 20
125.2046640615
 30
0.0
 11
156.7749432556
 21
131.1582539
 31
0.0
  0
LINE
  5
19E
330
1F
100
AcDbEntity
  8
0
  6
Continuous
 62
     7
370
     0
100
AcDbLine
 10
154.8196107252
 20
131.1582539
 30
0.0
 11
154.8196107252
 21
125.2046640615
 31
0.0
  0
LINE
  5
19F
330
1F
100
AcDbEntity
  8
0
  6
Continuous
 62
     7
370
     0
100
AcDbLine
 10
155.1606882181
 20
152.2768328451
 30
0.0
 11
155.1606882181
 21
153.9860851163
 31
0.0
  0
LINE
  5
1A0
330
1F
100
AcDbEntity
  8
0
  6
Continuous
 62
     7
370
     0
100
AcDbLine
 10
156.4338657627
 20
153.9860851163
 30
0.0
 11
156.4338657627
 21
152.2768328451
 31
0.0
  0
ARC
  5
1A1
330
1F
100
AcDbEntity
  8
0
  6
Continuous
 62
     7
370
     0
100
AcDbCircle
 10
158.2074334682
 20
147.2992243733
 30
0.0
 40
6.932289118496587
100
AcDbArc
 50
74.7084780341
 51
89.7740031706
  0
LINE
  5
1A2
330
1F
100
AcDbEntity
  8
0
  6
Continuous
 62
     7
370
     0
100
AcDbLine
 10
160.0356882181
 20
152.2768328451
 30
0.0
 11
160.0356882181
 21
153.9860851163
 31
0.0
  0
LWPOLYLINE
  5
1A3
330
1F
100
AcDbEntity
  8
0
  6
Continuous
 62
     7
370
     0
100
AcDbPolyline
 90
        3
 70
   128
 43
0.0
 10
160.0356883089
 20
152.2768332729
 10
159.1465709451
 20
152.0963504085
 10
158.2347770407
 20
152.0314586455
  0
ARC
  5
1A4
330
1F
100
AcDbEntity
  8
0
  6
Continuous
 62
     7
370
     0
100
AcDbCircle
 10
153.3871180265
 20
158.9636502106
 30
0.0
 40
6.932245482614677
100
AcDbArc
 50
254.7084007291
 51
269.7740222959
  0
LINE
  5
1A5
330
1F
100
AcDbEntity
  8
0
  6
Continuous
 62
     7
370
     0
100
AcDbLine
 10
151.5588657627
 20
153.9860851163
 30
0.0
 11
151.5588657627
 21
152.2768328451
 31
0.0
  0
LWPOLYLINE
  5
1A6
330
1F
100
AcDbEntity
  8
0
  6
Continuous
 62
     7
370
     0
100
AcDbPolyline
 90
        3
 70
   128
 43
0.0
 10
151.5588656719
 20
153.9860858688
 10
152.4479830357
 20
154.1665668705
 10
153.3597769401
 20
154.2314595649
  0
ARC
  5
1A7
330
1F
100
AcDbEntity
  8
0
  6
Continuous
 62
     7
370
     0
100
AcDbCircle
 10
158.2806550169
 20
124.4087145302
 30
0.0
 40
6.922764309459477
100
AcDbArc
 50
77.1556266839
 51
89.8624297174
  0
LINE
  5
1A8
330
1F
100
AcDbEntity
  8
0
  6
Continuous
 62
     7
370
     0
100
AcDbLine
 10
159.8196107252
 20
131.1582539
 30
0.0
 11
159.8196107252
 21
125.2046640615
 31
0.0
  0
LWPOLYLINE
  5
1A9
330
1F
100
AcDbEntity
  8
0
  6
Continuous
 62
     7
370
     0
100
AcDbPolyline
 90
        3
 70
   128
 43
0.0
 10
159.8196107614
 20
125.2046643862
 10
159.0653330739
 20
125.0765190565
 10
158.2972769345
 20
125.0314588764
  0
LWPOLYLINE
  5
1AA
330
1F
100
AcDbEntity
  8
0
  6
Continuous
 62
     7
370
     0
100
AcDbPolyline
 90
        3
 70
   128
 43
0.0
 10
151.7749432194
 20
131.1582538405
 10
152.5292209069
 20
131.2863991701
 10
153.2972770463
 20
131.3314588846
  0
ARC
  5
1AB
330
1F
100
AcDbEntity
  8
0
  6
Continuous
 62
     7
370
     0
100
AcDbCircle
 10
153.3138929928
 20
131.9541326036
 30
0.0
 40
6.922693668097801
100
AcDbArc
 50
257.1555440635
 51
269.8624777337
  0
LINE
  5
1AC
330
1F
100
AcDbEntity
  8
0
  6
Continuous
 62
     7
370
     0
100
AcDbLine
 10
151.7749432556
 20
125.2046640615
 30
0.0
 11
151.7749432556
 21
131.1582539
 31
0.0
  0
LINE
  5
1AD
330
1F
100
AcDbEntity
  8
0
  6
Continuous
 62
     7
370
     0
100
AcDbLine
 10
158.2347769904
 20
152.0314589807
 30
0.0
 11
160.6722769904
 21
152.0314589807
 31
0.0
  0
LINE
  5
1AE
330
1F
100
AcDbEntity
  8
0
  6
Continuous
 62
     7
370
     0
100
AcDbLine
 10
150.9222769904
 20
152.0314589807
 30
0.0
 11
153.3597769904
 21
152.0314589807
 31
0.0
  0
LINE
  5
1AF
330
1F
100
AcDbEntity
  8
0
  6
Continuous
 62
     7
370
     0
100
AcDbLine
 10
160.7972769904
 20
125.2046640615
 30
0.0
 11
159.8196107252
 21
125.2046640615
 31
0.0
  0
LINE
  5
1B0
330
1F
100
AcDbEntity
  8
0
  6
Continuous
 62
     7
370
     0
100
AcDbLine
 10
160.7972769904
 20
125.0314589807
 30
0.0
 11
160.7972769904
 21
125.2046640615
 31
0.0
  0
LINE
  5
1B1
330
1F
100
AcDbEntity
  8
0
  6
Continuous
 62
     7
370
     0
100
AcDbLine
 10
158.2972769904
 20
125.0314589807
 30
0.0
 11
160.7972769904
 21
125.0314589807
 31
0.0
  0
LINE
  5
1B2
330
1F
100
AcDbEntity
  8
0
  6
Continuous
 62
     7
370
     0
100
AcDbLine
 10
160.7972769904
 20
131.1582539
 30
0.0
 11
160.7972768786
 21
131.3314588846
 31
0.0
  0
LINE
  5
1B3
330
1F
100
AcDbEntity
  8
0
  6
Continuous
 62
     7
370
     0
100
AcDbLine
 10
159.8196107252
 20
131.1582539
 30
0.0
 11
160.7972769904
 21
131.1582539
 31
0.0
  0
LINE
  5
1B4
330
1F
100
AcDbEntity
  8
0
  6
Continuous
 62
     7
370
     0
100
AcDbLine
 10
150.7972769904
 20
131.1582539
 30
0.0
 11
151.7749432556
 21
131.1582539
 31
0.0
  0
LINE
  5
1B5
330
1F
100
AcDbEntity
  8
0
  6
Continuous
 62
     7
370
     0
100
AcDbLine
 10
150.7972771021
 20
131.3314588846
 30
0.0
 11
150.7972769904
 21
131.1582539
 31
0.0
  0
LINE
  5
1B6
330
1F
100
AcDbEntity
  8
0
  6
Continuous
 62
     7
370
     0
100
AcDbLine
 10
150.7972769904
 20
125.2046640615
 30
0.0
 11
150.7972769904
 21
125.0314589807
 31
0.0
  0
LINE
  5
1B7
330
1F
100
AcDbEntity
  8
0
  6
Continuous
 62
     7
370
     0
100
AcDbLine
 10
151.7749432556
 20
125.2046640615
 30
0.0
 11
150.7972769904
 21
125.2046640615
 31
0.0
  0
LINE
  5
1B8
330
1F
100
AcDbEntity
  8
0
  6
Continuous
 62
     7
370
     0
100
AcDbLine
 10
150.7972769904
 20
125.0314589807
 30
0.0
 11
153.2972769904
 21
125.0314589807
 31
0.0
  0
LINE
  5
1B9
330
1F
100
AcDbEntity
  8
0
  6
Continuous
 62
     7
370
     0
100
AcDbLine
 10
160.6722769904
 20
152.0314589807
 30
0.0
 11
160.6722769904
 21
152.2768328451
 31
0.0
  0
LINE
  5
1BA
330
1F
100
AcDbEntity
  8
0
  6
Continuous
 62
     7
370
     0
100
AcDbLine
 10
160.0356882181
 20
152.2768328451
 30
0.0
 11
160.6722769904
 21
152.2768328451
 31
0.0
  0
LINE
  5
1BB
330
1F
100
AcDbEntity
  8
0
  6
Continuous
 62
     7
370
     0
100
AcDbLine
 10
160.6722769904
 20
153.9860851163
 30
0.0
 11
160.6722769904
 21
154.2314589807
 31
0.0
  0
LINE
  5
1BC
330
1F
100
AcDbEntity
  8
0
  6
Continuous
 62
     7
370
     0
100
AcDbLine
 10
160.6722769904
 20
153.9860851163
 30
0.0
 11
160.0356882181
 21
153.9860851163
 31
0.0
  0
LINE
  5
1BD
330
1F
100
AcDbEntity
  8
0
  6
Continuous
 62
     7
370
     0
100
AcDbLine
 10
160.6722769904
 20
154.2314589807
 30
0.0
 11
158.2347769904
 21
154.2314589807
 31
0.0
  0
LINE
  5
1BE
330
1F
100
AcDbEntity
  8
0
  6
Continuous
 62
     7
370
     0
100
AcDbLine
 10
150.9222769904
 20
154.2314589807
 30
0.0
 11
150.9222769904
 21
153.9860851163
 31
0.0
  0
LINE
  5
1BF
330
1F
100
AcDbEntity
  8
0
  6
Continuous
 62
     7
370
     0
100
AcDbLine
 10
151.5588657627
 20
153.9860851163
 30
0.0
 11
150.9222769904
 21
153.9860851163
 31
0.0
  0
LINE
  5
1C0
330
1F
100
AcDbEntity
  8
0
  6
Continuous
 62
     7
370
     0
100
AcDbLine
 10
150.9222769904
 20
154.2314589807
 30
0.0
 11
153.3597769904
 21
154.2314589807
 31
0.0
  0
LINE
  5
1C1
330
1F
100
AcDbEntity
  8
0
  6
Continuous
 62
     7
370
     0
100
AcDbLine
 10
150.9222769904
 20
152.2768328451
 30
0.0
 11
150.9222769904
 21
152.0314589807
 31
0.0
  0
LINE
  5
1C2
330
1F
100
AcDbEntity
  8
0
  6
Continuous
 62
     7
370
     0
100
AcDbLine
 10
150.9222769904
 20
152.2768328451
 30
0.0
 11
151.5588657627
 21
152.2768328451
 31
0.0
  0
LINE
  5
1C3
330
1F
100
AcDbEntity
  8
0
  6
Continuous
 62
     7
370
     0
100
AcDbLine
 10
152.0472769904
 20
159.5314589807
 30
0.0
 11
159.5472769904
 21
159.5314589807
 31
0.0
  0
LINE
  5
1C4
330
1F
100
AcDbEntity
  8
0
  6
Continuous
 62
     7
370
     0
100
AcDbLine
 10
159.7972769904
 20
159.2814589807
 30
0.0
 11
151.7972769904
 21
159.2814589807
 31
0.0
  0
LINE
  5
1C5
330
1F
100
AcDbEntity
  8
0
  6
Continuous
 62
     7
370
     0
100
AcDbLine
 10
152.5472769904
 20
162.0314589807
 30
0.0
 11
159.0472769904
 21
162.0314589807
 31
0.0
  0
LINE
  5
1C6
330
1F
100
AcDbEntity
  8
0
  6
Continuous
 62
     7
370
     0
100
AcDbLine
 10
159.2972769904
 20
161.7814589807
 30
0.0
 11
152.2972769904
 21
161.7814589807
 31
0.0
  0
LINE
  5
1C7
330
1F
100
AcDbEntity
  8
0
  6
Continuous
 62
     7
370
     0
100
AcDbLine
 10
152.2972769904
 20
160.2814589807
 30
0.0
 11
159.2972769904
 21
160.2814589807
 31
0.0
  0
LINE
  5
1C8
330
1F
100
AcDbEntity
  8
0
  6
Continuous
 62
     7
370
     0
100
AcDbLine
 10
159.0472769904
 20
160.0314589807
 30
0.0
 11
152.5472769904
 21
160.0314589807
 31
0.0
  0
LINE
  5
1C9
330
1F
100
AcDbEntity
  8
0
  6
Continuous
 62
     7
370
     0
100
AcDbLine
 10
160.7972769904
 20
125.2046640615
 30
0.0
 11
160.7972769904
 21
131.1582539
 31
0.0
  0
LINE
  5
1CA
330
1F
100
AcDbEntity
  8
0
  6
Continuous
 62
     7
370
     0
100
AcDbLine
 10
150.7972769904
 20
131.1582539
 30
0.0
 11
150.7972769904
 21
125.2046640615
 31
0.0
  0
LINE
  5
1CB
330
1F
100
AcDbEntity
  8
0
  6
Continuous
 62
     7
370
     0
100
AcDbLine
 10
160.6722769904
 20
153.9860851163
 30
0.0
 11
160.6722769904
 21
152.2768328451
 31
0.0
  0
LINE
  5
1CC
330
1F
100
AcDbEntity
  8
0
  6
Continuous
 62
     7
370
     0
100
AcDbLine
 10
150.9222769904
 20
152.2768328451
 30
0.0
 11
150.9222769904
 21
153.9860851163
 31
0.0
  0
LINE
  5
1CD
330
1F
100
AcDbEntity
  8
0
  6
Continuous
 62
     7
370
     0
100
AcDbLine
 10
158.7972769904
 20
171.2814589807
 30
0.0
 11
152.7972769904
 21
171.2814589807
 31
0.0
  0
LINE
  5
1CE
330
1F
100
AcDbEntity
  8
0
  6
Continuous
 62
     7
370
     0
100
AcDbLine
 10
158.7972769904
 20
167.5314589807
 30
0.0
 11
152.7972769904
 21
167.5314589807
 31
0.0
  0
LINE
  5
1CF
330
1F
100
AcDbEntity
  8
0
  6
Continuous
 62
     7
370
     0
100
AcDbLine
 10
153.0472769904
 20
171.5314589807
 30
0.0
 11
158.5472769904
 21
171.5314589807
 31
0.0
  0
LINE
  5
1D0
330
1F
100
AcDbEntity
  8
0
  6
Continuous
 62
     7
370
     0
100
AcDbLine
 10
153.2972769904
 20
121.7814589807
 30
0.0
 11
158.2972769904
 21
121.7814589807
 31
0.0
  0
LINE
  5
1D1
330
1F
100
AcDbEntity
  8
0
  6
Continuous
 62
     7
370
     0
100
AcDbLine
 10
158.0472769904
 20
121.5314589807
 30
0.0
 11
153.5472769904
 21
121.5314589807
 31
0.0
  0
DIMENSION
  5
1D2
330
1F
100
AcDbEntity
  8
0
  6
Continuous
 62
     7
370
     0
100
AcDbDimension
  2
*D5
 10
180.6327830096
 20
121.5314589807
 30
0.0
 11
180.6327830096
 21
146.5314589807
 31
0.0
 70
   160
 71
     1
 42
50.0
  3
SLDDIMSTYLE0
100
AcDbAlignedDimension
 13
158.5472769904
 23
171.5314589807
 33
0.0
 14
158.0472769904
 24
121.5314589807
 34
0.0
 50
90.0
100
AcDbRotatedDimension
1001
ACAD
1000
DSTYLE
1002
{
1070
    77
1070
     3
1070
   143
1040
0.0393700787
1070
    41
1040
3.0
1070
    44
1040
1.0
1070
    42
1040
1.0
1070
   147
1040
1.524
1070
    73
1070
     0
1070
    74
1070
     0
1070
   140
1040
3.5
1070
   284
1070
    12
1070
    78
1070
    12
1002
}
  0
DIMENSION
  5
1E6
330
1F
100
AcDbEntity
  8
0
  6
Continuous
 62
     7
370
     0
100
AcDbDimension
  2
*D6
 10
170.3628122638
 20
125.0314589807
 30
0.0
 11
170.3628122638
 21
129.8164934544
 31
0.0
 70
   160
 71
     1
 42
3.5
  3
SLDDIMSTYLE0
100
AcDbAlignedDimension
 13
158.0472769904
 23
121.5314589807
 33
0.0
 14
160.7972769904
 24
125.0314589807
 34
0.0
 50
90.0
100
AcDbRotatedDimension
1001
ACAD
1000
DSTYLE
1002
{
1070
    77
1070
     3
1070
   143
1040
0.0393700787
1070
    41
1040
3.0
1070
    44
1040
1.0
1070
    42
1040
1.0
1070
   147
1040
1.524
1070
    73
1070
     0
1070
    74
1070
     0
1070
   140
1040
3.5
1070
   284
1070
    12
1070
    78
1070
    12
1002
}
  0
DIMENSION
  5
1FD
330
1F
100
AcDbEntity
  8
0
  6
Continuous
 62
     7
370
     0
100
AcDbDimension
  2
*D7
 10
175.7941286315
 20
121.5314589807
 30
0.0
 11
175.7941286315
 21
129.2814589807
 31
0.0
 70
   160
 71
     1
 42
15.5
  3
SLDDIMSTYLE0
100
AcDbAlignedDimension
 13
163.4972769904
 23
137.0314589807
 33
0.0
 14
158.0472769904
 24
121.5314589807
 34
0.0
 50
90.0
100
AcDbRotatedDimension
1001
ACAD
1000
DSTYLE
1002
{
1070
    77
1070
     3
1070
   143
1040
0.0393700787
1070
    41
1040
3.0
1070
    44
1040
1.0
1070
    42
1040
1.0
1070
   147
1040
1.524
1070
    73
1070
     0
1070
    74
1070
     0
1070
   140
1040
3.5
1070
   284
1070
    12
1070
    78
1070
    12
1002
}
  0
DIMENSION
  5
211
330
1F
100
AcDbEntity
  8
0
  6
Continuous
 62
     7
370
     0
100
AcDbDimension
  2
*D8
 10
175.7941286315
 20
137.0314589807
 30
0.0
 11
175.7941286315
 21
145.6314589807
 31
0.0
 70
   160
 71
     1
 42
17.2
  3
SLDDIMSTYLE0
100
AcDbAlignedDimension
 13
160.6722769904
 23
154.2314589807
 33
0.0
 14
163.4972769904
 24
137.0314589807
 34
0.0
 50
90.0
100
AcDbRotatedDimension
1001
ACAD
1000
DSTYLE
1002
{
1070
    77
1070
     3
1070
   143
1040
0.0393700787
1070
    41
1040
3.0
1070
    44
1040
1.0
1070
    42
1040
1.0
1070
   147
1040
1.524
1070
    73
1070
     0
1070
    74
1070
     0
1070
   140
1040
3.5
1070
   284
1070
    12
1070
    78
1070
    12
1002
}
  0
DIMENSION
  5
225
330
1F
100
AcDbEntity
  8
0
  6
Continuous
 62
     7
370
     0
100
AcDbDimension
  2
*D9
 10
160.7972769904
 20
180.970258902
 30
0.0
 11
155.7972769904
 21
180.970258902
 31
0.0
 70
   160
 71
     1
 42
10.0
  3
SLDDIMSTYLE0
100
AcDbAlignedDimension
 13
150.7972769904
 23
158.0582539
 33
0.0
 14
160.7972769904
 24
158.0582539
 34
0.0
 50
0.0
100
AcDbRotatedDimension
1001
ACAD
1000
DSTYLE
1002
{
1070
    77
1070
     3
1070
   143
1040
0.0393700787
1070
    41
1040
3.0
1070
    44
1040
1.0
1070
    42
1040
1.0
1070
   147
1040
1.524
1070
    73
1070
     0
1070
    74
1070
     0
1070
   140
1040
3.5
1070
   284
1070
    12
1070
    78
1070
    12
1002
}
  0
INSERT
  5
245
330
1F
100
AcDbEntity
  8
0
  6
Continuous
 62
     7
370
     0
100
AcDbBlockReference
  2
SW_CENTERMARKSYMBOL_0
 10
155.7972769904
 20
137.0314589807
 30
0.0
  0
LINE
  5
246
330
1F
100
AcDbEntity
  8
0
  6
CENTERX2
 62
     7
370
     0
100
AcDbLine
 10
155.7972769904
 20
173.9825147627
 30
0.0
 11
155.7972769904
 21
118.2425557631
 31
0.0
  0
ENDSEC
  0
SECTION
  2
OBJECTS
  0
DICTIONARY
  5
C
330
0
100
AcDbDictionary
281
     1
  3
ACAD_GROUP
350
D
  3
ACAD_LAYOUT
350
1A
  3
ACAD_MLINESTYLE
350
17
  3
ACAD_PLOTSETTINGS
350
19
  3
ACAD_PLOTSTYLENAME
350
E
  0
DICTIONARY
  5
D
102
{ACAD_REACTORS
330
C
102
}
330
C
100
AcDbDictionary
281
     1
  0
DICTIONARY
  5
1A
102
{ACAD_REACTORS
330
C
102
}
330
C
100
AcDbDictionary
281
     1
  3
Layout1
350
1E
  3
Layout2
350
26
  3
Model
350
22
  0
DICTIONARY
  5
17
102
{ACAD_REACTORS
330
C
102
}
330
C
100
AcDbDictionary
281
     1
  3
Standard
350
18
  0
DICTIONARY
  5
19
102
{ACAD_REACTORS
330
C
102
}
330
C
100
AcDbDictionary
281
     1
  0
ACDBDICTIONARYWDFLT
  5
E
102
{ACAD_REACTORS
330
C
102
}
330
C
100
AcDbDictionary
281
     1
  3
Normal
350
F
100
AcDbDictionaryWithDefault
340
F
  0
LAYOUT
  5
1E
102
{ACAD_REACTORS
330
1A
102
}
330
1A
100
AcDbPlotSettings
  1

  2

  4

  6

 40
0.0
 41
0.0
 42
0.0
 43
0.0
 44
0.0
 45
0.0
 46
0.0
 47
0.0
 48
0.0
 49
0.0
140
0.0
141
0.0
142
1.0
143
1.0
 70
   688
 72
     0
 73
     0
 74
     5
  7

 75
    16
147
1.0
148
0.0
149
0.0
100
AcDbLayout
  1
Layout1
 70
     1
 71
     1
 10
0.0
 20
0.0
 11
0.0
 21
0.0
 12
0.0
 22
0.0
 32
0.0
 14
0.0
 24
0.0
 34
0.0
 15
0.0
 25
0.0
 35
0.0
146
0.0
 13
0.0
 23
0.0
 33
0.0
 16
1.0
 26
0.0
 36
0.0
 17
0.0
 27
1.0
 37
0.0
 76
     0
330
1B
  0
LAYOUT
  5
26
102
{ACAD_REACTORS
330
1A
102
}
330
1A
100
AcDbPlotSettings
  1

  2

  4

  6

 40
0.0
 41
0.0
 42
0.0
 43
0.0
 44
0.0
 45
0.0
 46
0.0
 47
0.0
 48
0.0
 49
0.0
140
0.0
141
0.0
142
1.0
143
1.0
 70
   688
 72
     0
 73
     0
 74
     5
  7

 75
    16
147
1.0
148
0.0
149
0.0
100
AcDbLayout
  1
Layout2
 70
     1
 71
     2
 10
0.0
 20
0.0
 11
0.0
 21
0.0
 12
0.0
 22
0.0
 32
0.0
 14
0.0
 24
0.0
 34
0.0
 15
0.0
 25
0.0
 35
0.0
146
0.0
 13
0.0
 23
0.0
 33
0.0
 16
1.0
 26
0.0
 36
0.0
 17
0.0
 27
1.0
 37
0.0
 76
     0
330
23
  0
LAYOUT
  5
22
102
{ACAD_REACTORS
330
1A
102
}
330
1A
100
AcDbPlotSettings
  1

  2

  4

  6

 40
0.0
 41
0.0
 42
0.0
 43
0.0
 44
0.0
 45
0.0
 46
0.0
 47
0.0
 48
0.0
 49
0.0
140
0.0
141
0.0
142
1.0
143
1.0
 70
  1712
 72
     0
 73
     0
 74
     0
  7

 75
     0
147
1.0
148
0.0
149
0.0
100
AcDbLayout
  1
Model
 70
     1
 71
     0
 10
0.0
 20
0.0
 11
0.0
 21
0.0
 12
0.0
 22
0.0
 32
0.0
 14
0.0
 24
0.0
 34
0.0
 15
210.0
 25
297.0
 35
0.0
146
0.0
 13
0.0
 23
0.0
 33
0.0
 16
1.0
 26
0.0
 36
0.0
 17
0.0
 27
1.0
 37
0.0
 76
     0
330
1F
  0
MLINESTYLE
  5
18
102
{ACAD_REACTORS
330
17
102
}
330
17
100
AcDbMlineStyle
  2
Standard
 70
     0
  3

 62
   256
 51
90.0
 52
90.0
 71
     2
 49
0.5
 62
   256
  6
BYLAYER
 49
-0.5
 62
   256
  6
BYLAYER
  0
ACDBPLACEHOLDER
  5
F
102
{ACAD_REACTORS
330
E
102
}
330
E
  0
ENDSEC
  0
EOF
