  0
SECTION
  2
HEADER
  9
$ACADVER
  1
AC1015
  9
$ACADMAINTVER
 70
     6
  9
$DWGCODEPAGE
  3
DOS932
  9
$INSBASE
 10
0.0
 20
0.0
 30
0.0
  9
$EXTMIN
 10
0.0
 20
0.0
 30
0.0
  9
$EXTMAX
 10
841.0
 20
594.0
 30
0.0
  9
$LIMMIN
 10
0.0
 20
0.0
  9
$LIMMAX
 10
0.0
 20
0.0
  9
$ORTHOMODE
 70
     0
  9
$REGENMODE
 70
     1
  9
$FILLMODE
 70
     1
  9
$QTEXTMODE
 70
     0
  9
$MIRRTEXT
 70
     1
  9
$LTSCALE
 40
1.0
  9
$ATTMODE
 70
     1
  9
$TEXTSIZE
 40
3.5
  9
$TRACEWID
 40
1.0
  9
$TEXTSTYLE
  7
Standard
  9
$CLAYER
  8
0
  9
$CELTYPE
  6
ByLayer
  9
$CECOLOR
 62
   256
  9
$CELTSCALE
 40
1.0
  9
$DISPSILH
 70
     0
  9
$DIMSCALE
 40
1.0
  9
$DIMASZ
 40
3.0
  9
$DIMEXO
 40
1.0
  9
$DIMDLI
 40
3.75
  9
$DIMRND
 40
0.0
  9
$DIMDLE
 40
0.0
  9
$DIMEXE
 40
1.0
  9
$DIMTP
 40
0.0
  9
$DIMTM
 40
0.0
  9
$DIMTXT
 40
9.1722222222
  9
$DIMCEN
 40
2.5
  9
$DIMTSZ
 40
0.0
  9
$DIMTOL
 70
     0
  9
$DIMLIM
 70
     0
  9
$DIMTIH
 70
     1
  9
$DIMTOH
 70
     1
  9
$DIMSE1
 70
     0
  9
$DIMSE2
 70
     0
  9
$DIMTAD
 70
     1
  9
$DIMZIN
 70
     1
  9
$DIMBLK
  1

  9
$DIMASO
 70
     1
  9
$DIMSHO
 70
     1
  9
$DIMPOST
  1

  9
$DIMAPOST
  1

  9
$DIMALT
 70
     0
  9
$DIMALTD
 70
     3
  9
$DIMALTF
 40
0.0393700787
  9
$DIMLFAC
 40
1.0
  9
$DIMTOFL
 70
     1
  9
$DIMTVP
 40
0.0
  9
$DIMTIX
 70
     0
  9
$DIMSOXD
 70
     0
  9
$DIMSAH
 70
     0
  9
$DIMBLK1
  1

  9
$DIMBLK2
  1

  9
$DIMSTYLE
  2
ISO-25
  9
$DIMCLRD
 70
     0
  9
$DIMCLRE
 70
     0
  9
$DIMCLRT
 70
     0
  9
$DIMTFAC
 40
1.0
  9
$DIMGAP
 40
1.524
  9
$DIMJUST
 70
     0
  9
$DIMSD1
 70
     0
  9
$DIMSD2
 70
     0
  9
$DIMTOLJ
 70
     0
  9
$DIMTZIN
 70
     1
  9
$DIMALTZ
 70
     0
  9
$DIMALTTZ
 70
     0
  9
$DIMUPT
 70
     0
  9
$DIMDEC
 70
     2
  9
$DIMTDEC
 70
     2
  9
$DIMALTU
 70
     2
  9
$DIMALTTD
 70
     3
  9
$DIMTXSTY
  7
Standard
  9
$DIMAUNIT
 70
     0
  9
$DIMADEC
 70
     0
  9
$DIMALTRND
 40
0.0
  9
$DIMAZIN
 70
     0
  9
$DIMDSEP
 70
    44
  9
$DIMATFIT
 70
     3
  9
$DIMFRAC
 70
     0
  9
$DIMLDRBLK
  1

  9
$DIMLUNIT
 70
     2
  9
$DIMLWD
 70
    -2
  9
$DIMLWE
 70
    -2
  9
$DIMTMOVE
 70
     0
  9
$LUNITS
 70
     2
  9
$LUPREC
 70
     1
  9
$SKETCHINC
 40
1.0
  9
$FILLETRAD
 40
10.0
  9
$AUNITS
 70
     0
  9
$AUPREC
 70
     0
  9
$MENU
  1
.
  9
$ELEVATION
 40
0.0
  9
$PELEVATION
 40
0.0
  9
$THICKNESS
 40
0.0
  9
$LIMCHECK
 70
     0
  9
$CHAMFERA
 40
10.0
  9
$CHAMFERB
 40
10.0
  9
$CHAMFERC
 40
20.0
  9
$CHAMFERD
 40
0.0
  9
$SKPOLY
 70
     0
  9
$TDCREATE
 40
2454727.625586655
  9
$TDUCREATE
 40
2454727.250586655
  9
$TDUPDATE
 40
2454727.625586667
  9
$TDUUPDATE
 40
2454727.250586667
  9
$TDINDWG
 40
0.0000000116
  9
$TDUSRTIMER
 40
0.0000000116
  9
$USRTIMER
 70
     1
  9
$ANGBASE
 50
0.0
  9
$ANGDIR
 70
     0
  9
$PDMODE
 70
     0
  9
$PDSIZE
 40
-1.0
  9
$PLINEWID
 40
0.0
  9
$SPLFRAME
 70
     0
  9
$SPLINETYPE
 70
     6
  9
$SPLINESEGS
 70
     8
  9
$HANDSEED
  5
788
  9
$SURFTAB1
 70
     6
  9
$SURFTAB2
 70
     6
  9
$SURFTYPE
 70
     6
  9
$SURFU
 70
     6
  9
$SURFV
 70
     6
  9
$UCSBASE
  2

  9
$UCSNAME
  2

  9
$UCSORG
 10
0.0
 20
0.0
 30
0.0
  9
$UCSXDIR
 10
1.0
 20
0.0
 30
0.0
  9
$UCSYDIR
 10
0.0
 20
1.0
 30
0.0
  9
$UCSORTHOREF
  2

  9
$UCSORTHOVIEW
 70
     0
  9
$UCSORGTOP
 10
0.0
 20
0.0
 30
0.0
  9
$UCSORGBOTTOM
 10
0.0
 20
0.0
 30
0.0
  9
$UCSORGLEFT
 10
0.0
 20
0.0
 30
0.0
  9
$UCSORGRIGHT
 10
0.0
 20
0.0
 30
0.0
  9
$UCSORGFRONT
 10
0.0
 20
0.0
 30
0.0
  9
$UCSORGBACK
 10
0.0
 20
0.0
 30
0.0
  9
$PUCSBASE
  2

  9
$PUCSNAME
  2

  9
$PUCSORG
 10
0.0
 20
0.0
 30
0.0
  9
$PUCSXDIR
 10
1.0
 20
0.0
 30
0.0
  9
$PUCSYDIR
 10
0.0
 20
1.0
 30
0.0
  9
$PUCSORTHOREF
  2

  9
$PUCSORTHOVIEW
 70
     0
  9
$PUCSORGTOP
 10
0.0
 20
0.0
 30
0.0
  9
$PUCSORGBOTTOM
 10
0.0
 20
0.0
 30
0.0
  9
$PUCSORGLEFT
 10
0.0
 20
0.0
 30
0.0
  9
$PUCSORGRIGHT
 10
0.0
 20
0.0
 30
0.0
  9
$PUCSORGFRONT
 10
0.0
 20
0.0
 30
0.0
  9
$PUCSORGBACK
 10
0.0
 20
0.0
 30
0.0
  9
$USERI1
 70
     0
  9
$USERI2
 70
     0
  9
$USERI3
 70
     0
  9
$USERI4
 70
     0
  9
$USERI5
 70
     0
  9
$USERR1
 40
0.0
  9
$USERR2
 40
0.0
  9
$USERR3
 40
0.0
  9
$USERR4
 40
0.0
  9
$USERR5
 40
0.0
  9
$WORLDVIEW
 70
     1
  9
$SHADEDGE
 70
     3
  9
$SHADEDIF
 70
    70
  9
$TILEMODE
 70
     1
  9
$MAXACTVP
 70
    64
  9
$PINSBASE
 10
0.0
 20
0.0
 30
0.0
  9
$PLIMCHECK
 70
     0
  9
$PEXTMIN
 10
1.0000000000E+20
 20
1.0000000000E+20
 30
1.0000000000E+20
  9
$PEXTMAX
 10
-1.0000000000E+20
 20
-1.0000000000E+20
 30
-1.0000000000E+20
  9
$PLIMMIN
 10
0.0
 20
0.0
  9
$PLIMMAX
 10
420.0
 20
297.0
  9
$UNITMODE
 70
     0
  9
$VISRETAIN
 70
     1
  9
$PLINEGEN
 70
     0
  9
$PSLTSCALE
 70
     1
  9
$TREEDEPTH
 70
  3020
  9
$CMLSTYLE
  2
Standard
  9
$CMLJUST
 70
     0
  9
$CMLSCALE
 40
20.0
  9
$PROXYGRAPHICS
 70
     1
  9
$MEASUREMENT
 70
     1
  9
$CELWEIGHT
370
    -1
  9
$ENDCAPS
280
     0
  9
$JOINSTYLE
280
     0
  9
$LWDISPLAY
290
     1
  9
$INSUNITS
 70
     4
  9
$HYPERLINKBASE
  1

  9
$STYLESHEET
  1

  9
$XEDIT
290
     1
  9
$CEPSNTYPE
380
     0
  9
$PSTYLEMODE
290
     1
  9
$FINGERPRINTGUID
  2
{639DE51D-1A06-4410-8C68-2B6799252685}
  9
$VERSIONGUID
  2
{FAEB1C32-E019-11D5-929B-00C0DF256EC4}
  9
$EXTNAMES
290
     1
  9
$PSVPSCALE
 40
0.0
  9
$OLESTARTUP
290
     0
  0
ENDSEC
  0
SECTION
  2
CLASSES
  0
CLASS
  1
ACDBDICTIONARYWDFLT
  2
AcDbDictionaryWithDefault
  3
ObjectDBX Classes
 90
        0
280
     0
281
     0
  0
CLASS
  1
ACDBPLACEHOLDER
  2
AcDbPlaceHolder
  3
ObjectDBX Classes
 90
        0
280
     0
281
     0
  0
CLASS
  1
LAYOUT
  2
AcDbLayout
  3
ObjectDBX Classes
 90
        0
280
     0
281
     0
  0
ENDSEC
  0
SECTION
  2
TABLES
  0
TABLE
  2
VPORT
  5
8
330
0
100
AcDbSymbolTable
 70
     1
  0
VPORT
  5
29
330
8
100
AcDbSymbolTableRecord
100
AcDbViewportTableRecord
  2
*Active
 70
     0
 10
0.0
 20
0.0
 11
1.0
 21
1.0
 12
420.5
 22
297.0
 13
0.0
 23
0.0
 14
10.0
 24
10.0
 15
10.0
 25
10.0
 16
0.0
 26
0.0
 36
1.0
 17
0.0
 27
0.0
 37
0.0
 40
594.0
 41
0.9864864864
 42
50.0
 43
0.0
 44
0.0
 50
0.0
 51
0.0
 71
     0
 72
  2000
 73
     1
 74
     3
 75
     0
 76
     0
 77
     0
 78
     0
281
     0
 65
     1
110
0.0
120
0.0
130
0.0
111
1.0
121
0.0
131
0.0
112
0.0
122
1.0
132
0.0
 79
     0
146
0.0
  0
ENDTAB
  0
TABLE
  2
LTYPE
  5
5
330
0
100
AcDbSymbolTable
 70
     6
  0
LTYPE
  5
14
330
5
100
AcDbSymbolTableRecord
100
AcDbLinetypeTableRecord
  2
ByBlock
 70
     0
  3

 72
    65
 73
     0
 40
0.0
  0
LTYPE
  5
15
330
5
100
AcDbSymbolTableRecord
100
AcDbLinetypeTableRecord
  2
ByLayer
 70
     0
  3

 72
    65
 73
     0
 40
0.0
  0
LTYPE
  5
16
330
5
100
AcDbSymbolTableRecord
100
AcDbLinetypeTableRecord
  2
Continuous
 70
     0
  3
Solid line
 72
    65
 73
     0
 40
0.0
  0
LTYPE
  5
2A
330
5
100
AcDbSymbolTableRecord
100
AcDbLinetypeTableRecord
  2
HIDDEN
 70
     0
  3
Hidden __ __ __ __ __ __ __ __ __ __ __ __ __ __
 72
    65
 73
     2
 40
1.905
 49
1.27
 74
     0
 49
-0.635
 74
     0
  0
LTYPE
  5
2B
330
5
100
AcDbSymbolTableRecord
100
AcDbLinetypeTableRecord
  2
PHANTOM
 70
     0
  3
Phantom ______  __  __  ______  __  __  ______
 72
    65
 73
     6
 40
12.7
 49
6.35
 74
     0
 49
-1.27
 74
     0
 49
1.27
 74
     0
 49
-1.27
 74
     0
 49
1.27
 74
     0
 49
-1.27
 74
     0
  0
LTYPE
  5
2C
330
5
100
AcDbSymbolTableRecord
100
AcDbLinetypeTableRecord
  2
CENTER
 70
     0
  3
Center ____ _ ____ _ ____ _ ____ _ ____ _ ____
 72
    65
 73
     4
 40
10.16
 49
6.35
 74
     0
 49
-1.27
 74
     0
 49
1.27
 74
     0
 49
-1.27
 74
     0
  0
LTYPE
  5
2D
330
5
100
AcDbSymbolTableRecord
100
AcDbLinetypeTableRecord
  2
CENTERX2
 70
     0
  3
Center (2x) ________  __  ________  __  _____
 72
    65
 73
     4
 40
20.32
 49
12.7
 74
     0
 49
-2.54
 74
     0
 49
2.54
 74
     0
 49
-2.54
 74
     0
  0
LTYPE
  5
2E
330
5
100
AcDbSymbolTableRecord
100
AcDbLinetypeTableRecord
  2
DOT2
 70
     0
  3
Dot (.5x) ........................................
 72
    65
 73
     2
 40
0.635
 49
0.0
 74
     0
 49
-0.635
 74
     0
  0
ENDTAB
  0
TABLE
  2
LAYER
  5
2
330
0
100
AcDbSymbolTable
 70
     7
  0
LAYER
  5
10
330
2
100
AcDbSymbolTableRecord
100
AcDbLayerTableRecord
  2
0
 70
     0
 62
     7
  6
Continuous
370
    -3
390
F
  0
LAYER
  5
2F
330
2
100
AcDbSymbolTableRecord
100
AcDbLayerTableRecord
  2
SLD-0
 70
     0
 62
   179
  6
Continuous
370
     0
390
F
  0
LAYER
  5
30
330
2
100
AcDbSymbolTableRecord
100
AcDbLayerTableRecord
  2
ﾚｲﾔｰ0
 70
     0
 62
   179
  6
PHANTOM
370
     0
390
F
  0
LAYER
  5
31
330
2
100
AcDbSymbolTableRecord
100
AcDbLayerTableRecord
  2
ﾚｲﾔｰ1
 70
     0
 62
   179
  6
HIDDEN
370
     0
390
F
  0
LAYER
  5
32
330
2
100
AcDbSymbolTableRecord
100
AcDbLayerTableRecord
  2
ﾚｲﾔｰ2
 70
     0
 62
  -179
  6
Continuous
370
     0
390
F
  0
LAYER
  5
33
330
2
100
AcDbSymbolTableRecord
100
AcDbLayerTableRecord
  2
SLD-DEFPOINTS
 70
     0
 62
   179
  6
Continuous
370
     0
390
F
  0
LAYER
  5
3D3
330
2
100
AcDbSymbolTableRecord
100
AcDbLayerTableRecord
  2
Defpoints
 70
     0
 62
     7
  6
Continuous
290
     0
370
    -3
390
F
  0
ENDTAB
  0
TABLE
  2
STYLE
  5
3
330
0
100
AcDbSymbolTable
 70
     3
  0
STYLE
  5
11
330
3
100
AcDbSymbolTableRecord
100
AcDbTextStyleTableRecord
  2
Standard
 70
     0
 40
0.0
 41
1.0
 50
0.0
 71
     0
 42
2.5
  3
txt
  4
bigfont
  0
STYLE
  5
37
330
3
100
AcDbSymbolTableRecord
100
AcDbTextStyleTableRecord
  2
SLDTEXTSTYLE0
 70
     0
 40
0.0
 41
0.7
 50
0.0
 71
     0
 42
0.2
  3
TXT
  4
bigfont
  0
STYLE
  5
3E9
330
3
100
AcDbSymbolTableRecord
100
AcDbTextStyleTableRecord
  2
SLDTEXTSTYLE1
 70
     0
 40
0.0
 41
0.96
 50
0.0
 71
     0
 42
0.2
  3
TXT
  4
bigfont
  0
ENDTAB
  0
TABLE
  2
VIEW
  5
6
330
0
100
AcDbSymbolTable
 70
     0
  0
ENDTAB
  0
TABLE
  2
UCS
  5
7
330
0
100
AcDbSymbolTable
 70
     0
  0
ENDTAB
  0
TABLE
  2
APPID
  5
9
330
0
100
AcDbSymbolTable
 70
     1
  0
APPID
  5
12
330
9
100
AcDbSymbolTableRecord
100
AcDbRegAppTableRecord
  2
ACAD
 70
     0
  0
ENDTAB
  0
TABLE
  2
DIMSTYLE
  5
A
330
0
100
AcDbSymbolTable
 70
     4
100
AcDbDimStyleTable
  0
DIMSTYLE
105
27
330
A
100
AcDbSymbolTableRecord
100
AcDbDimStyleTableRecord
  2
ISO-25
 70
     0
 41
2.5
 42
0.625
 43
3.75
 44
1.25
 73
     0
 74
     0
 77
     1
 78
     8
140
2.5
141
2.5
143
0.0393700787
147
0.625
171
     3
172
     1
271
     2
272
     2
274
     3
278
    44
283
     0
284
     8
340
11
  0
DIMSTYLE
105
3E0
102
{ACAD_REACTORS
330
3D2
330
420
330
433
330
446
330
459
330
46C
330
482
330
496
330
4AA
330
4BE
330
4D2
330
4F7
330
509
330
51C
330
541
330
55B
330
56E
330
583
330
597
330
5AF
330
5C2
330
5D5
330
5E8
330
5FC
330
622
330
650
330
663
330
676
330
689
330
69C
330
6C7
330
6DA
330
6EE
330
728
330
73B
330
74E
330
764
102
}
330
A
100
AcDbSymbolTableRecord
100
AcDbDimStyleTableRecord
  2
SLDDIMSTYLE0
 70
     0
 41
3.0
 44
0.0
 73
     0
 74
     0
 77
     3
 78
    12
140
6.8791666667
147
1.7197916667
173
     1
271
     0
272
     1
284
    12
340
37
341
3E1
343
3E1
344
3E1
  0
DIMSTYLE
105
3FC
102
{ACAD_REACTORS
330
3ED
330
407
330
52E
330
637
330
6AF
330
702
330
715
102
}
330
A
100
AcDbSymbolTableRecord
100
AcDbDimStyleTableRecord
  2
SLDDIMSTYLE1
 70
     0
 41
3.0
 44
0.0
 73
     0
 74
     0
 77
     3
 78
    12
140
6.8791666667
147
1.7197916667
173
     1
271
     1
272
     1
284
    12
340
37
341
3E1
343
3E1
344
3E1
  0
DIMSTYLE
105
4F0
102
{ACAD_REACTORS
330
4E6
330
610
102
}
330
A
100
AcDbSymbolTableRecord
100
AcDbDimStyleTableRecord
  2
SLDDIMSTYLE2
 70
     0
 41
3.0
 44
0.0
 73
     0
 74
     0
 77
     3
 78
    12
140
6.8791666667
147
1.7197916667
172
     1
173
     1
271
     1
272
     1
284
    12
340
37
341
3E1
343
3E1
344
3E1
  0
ENDTAB
  0
TABLE
  2
BLOCK_RECORD
  5
1
330
0
100
AcDbSymbolTable
 70
    55
  0
BLOCK_RECORD
  5
1F
330
1
100
AcDbSymbolTableRecord
100
AcDbBlockTableRecord
  2
*Model_Space
340
22
  0
BLOCK_RECORD
  5
1B
330
1
100
AcDbSymbolTableRecord
100
AcDbBlockTableRecord
  2
*Paper_Space
340
1E
  0
BLOCK_RECORD
  5
23
330
1
100
AcDbSymbolTableRecord
100
AcDbBlockTableRecord
  2
*Paper_Space0
340
26
  0
BLOCK_RECORD
  5
34
330
1
100
AcDbSymbolTableRecord
100
AcDbBlockTableRecord
  2
SW_NOTE_0
340
0
102
{BLKREFS
331
781
102
}
  0
BLOCK_RECORD
  5
3A
330
1
100
AcDbSymbolTableRecord
100
AcDbBlockTableRecord
  2
SW_CENTERMARKSYMBOL_0
340
0
102
{BLKREFS
331
782
102
}
  0
BLOCK_RECORD
  5
45
330
1
100
AcDbSymbolTableRecord
100
AcDbBlockTableRecord
  2
SW_CENTERMARKSYMBOL_1
340
0
102
{BLKREFS
331
783
102
}
  0
BLOCK_RECORD
  5
50
330
1
100
AcDbSymbolTableRecord
100
AcDbBlockTableRecord
  2
SW_CENTERMARKSYMBOL_2
340
0
102
{BLKREFS
331
784
102
}
  0
BLOCK_RECORD
  5
5B
330
1
100
AcDbSymbolTableRecord
100
AcDbBlockTableRecord
  2
SW_CENTERMARKSYMBOL_3
340
0
102
{BLKREFS
331
785
102
}
  0
BLOCK_RECORD
  5
66
330
1
100
AcDbSymbolTableRecord
100
AcDbBlockTableRecord
  2
SW_CENTERMARKSYMBOL_4
340
0
102
{BLKREFS
331
786
102
}
  0
BLOCK_RECORD
  5
71
330
1
100
AcDbSymbolTableRecord
100
AcDbBlockTableRecord
  2
SW_CENTERMARKSYMBOL_5
340
0
102
{BLKREFS
331
787
102
}
  0
BLOCK_RECORD
  5
3D4
330
1
100
AcDbSymbolTableRecord
100
AcDbBlockTableRecord
  2
*D8
340
0
  0
BLOCK_RECORD
  5
3E1
330
1
100
AcDbSymbolTableRecord
100
AcDbBlockTableRecord
  2
_None
340
0
102
{BLKREFS
331
3D9
331
3D8
331
3F4
331
3F3
331
40E
331
40D
331
426
331
425
331
439
331
438
331
44C
331
44B
331
45F
331
45E
331
472
331
471
331
488
331
487
331
49C
331
49B
331
4B0
331
4AF
331
4C4
331
4C3
331
4D8
331
4D7
331
4EA
331
4FD
331
4FC
331
50F
331
50E
331
522
331
521
331
534
331
533
331
547
331
546
331
561
331
560
331
574
331
573
331
589
331
588
331
59E
331
59D
331
5B5
331
5B4
331
5C8
331
5C7
331
5DB
331
5DA
331
5EE
331
5ED
331
602
331
601
331
614
331
628
331
627
331
63E
331
63D
331
656
331
655
331
669
331
668
331
67C
331
67B
331
68F
331
68E
331
6A2
331
6A1
331
6B6
331
6B5
331
6CD
331
6CC
331
6E0
331
6DF
331
6F4
331
6F3
331
708
331
707
331
71B
331
71A
331
72E
331
72D
331
741
331
740
331
754
331
753
331
76B
331
76A
102
}
  0
BLOCK_RECORD
  5
3EE
330
1
100
AcDbSymbolTableRecord
100
AcDbBlockTableRecord
  2
*D10
340
0
  0
BLOCK_RECORD
  5
408
330
1
100
AcDbSymbolTableRecord
100
AcDbBlockTableRecord
  2
*D11
340
0
  0
BLOCK_RECORD
  5
421
330
1
100
AcDbSymbolTableRecord
100
AcDbBlockTableRecord
  2
*D12
340
0
  0
BLOCK_RECORD
  5
434
330
1
100
AcDbSymbolTableRecord
100
AcDbBlockTableRecord
  2
*D13
340
0
  0
BLOCK_RECORD
  5
447
330
1
100
AcDbSymbolTableRecord
100
AcDbBlockTableRecord
  2
*D14
340
0
  0
BLOCK_RECORD
  5
45A
330
1
100
AcDbSymbolTableRecord
100
AcDbBlockTableRecord
  2
*D15
340
0
  0
BLOCK_RECORD
  5
46D
330
1
100
AcDbSymbolTableRecord
100
AcDbBlockTableRecord
  2
*D16
340
0
  0
BLOCK_RECORD
  5
483
330
1
100
AcDbSymbolTableRecord
100
AcDbBlockTableRecord
  2
*D17
340
0
  0
BLOCK_RECORD
  5
497
330
1
100
AcDbSymbolTableRecord
100
AcDbBlockTableRecord
  2
*D18
340
0
  0
BLOCK_RECORD
  5
4AB
330
1
100
AcDbSymbolTableRecord
100
AcDbBlockTableRecord
  2
*D19
340
0
  0
BLOCK_RECORD
  5
4BF
330
1
100
AcDbSymbolTableRecord
100
AcDbBlockTableRecord
  2
*D20
340
0
  0
BLOCK_RECORD
  5
4D3
330
1
100
AcDbSymbolTableRecord
100
AcDbBlockTableRecord
  2
*D21
340
0
  0
BLOCK_RECORD
  5
4E7
330
1
100
AcDbSymbolTableRecord
100
AcDbBlockTableRecord
  2
*D22
340
0
  0
BLOCK_RECORD
  5
4F8
330
1
100
AcDbSymbolTableRecord
100
AcDbBlockTableRecord
  2
*D23
340
0
  0
BLOCK_RECORD
  5
50A
330
1
100
AcDbSymbolTableRecord
100
AcDbBlockTableRecord
  2
*D24
340
0
  0
BLOCK_RECORD
  5
51D
330
1
100
AcDbSymbolTableRecord
100
AcDbBlockTableRecord
  2
*D25
340
0
  0
BLOCK_RECORD
  5
52F
330
1
100
AcDbSymbolTableRecord
100
AcDbBlockTableRecord
  2
*D26
340
0
  0
BLOCK_RECORD
  5
542
330
1
100
AcDbSymbolTableRecord
100
AcDbBlockTableRecord
  2
*D27
340
0
  0
BLOCK_RECORD
  5
55C
330
1
100
AcDbSymbolTableRecord
100
AcDbBlockTableRecord
  2
*D28
340
0
  0
BLOCK_RECORD
  5
56F
330
1
100
AcDbSymbolTableRecord
100
AcDbBlockTableRecord
  2
*D29
340
0
  0
BLOCK_RECORD
  5
584
330
1
100
AcDbSymbolTableRecord
100
AcDbBlockTableRecord
  2
*D30
340
0
  0
BLOCK_RECORD
  5
598
330
1
100
AcDbSymbolTableRecord
100
AcDbBlockTableRecord
  2
*D31
340
0
  0
BLOCK_RECORD
  5
5B0
330
1
100
AcDbSymbolTableRecord
100
AcDbBlockTableRecord
  2
*D32
340
0
  0
BLOCK_RECORD
  5
5C3
330
1
100
AcDbSymbolTableRecord
100
AcDbBlockTableRecord
  2
*D33
340
0
  0
BLOCK_RECORD
  5
5D6
330
1
100
AcDbSymbolTableRecord
100
AcDbBlockTableRecord
  2
*D34
340
0
  0
BLOCK_RECORD
  5
5E9
330
1
100
AcDbSymbolTableRecord
100
AcDbBlockTableRecord
  2
*D35
340
0
  0
BLOCK_RECORD
  5
5FD
330
1
100
AcDbSymbolTableRecord
100
AcDbBlockTableRecord
  2
*D36
340
0
  0
BLOCK_RECORD
  5
611
330
1
100
AcDbSymbolTableRecord
100
AcDbBlockTableRecord
  2
*D37
340
0
  0
BLOCK_RECORD
  5
623
330
1
100
AcDbSymbolTableRecord
100
AcDbBlockTableRecord
  2
*D38
340
0
  0
BLOCK_RECORD
  5
638
330
1
100
AcDbSymbolTableRecord
100
AcDbBlockTableRecord
  2
*D39
340
0
  0
BLOCK_RECORD
  5
651
330
1
100
AcDbSymbolTableRecord
100
AcDbBlockTableRecord
  2
*D40
340
0
  0
BLOCK_RECORD
  5
664
330
1
100
AcDbSymbolTableRecord
100
AcDbBlockTableRecord
  2
*D41
340
0
  0
BLOCK_RECORD
  5
677
330
1
100
AcDbSymbolTableRecord
100
AcDbBlockTableRecord
  2
*D42
340
0
  0
BLOCK_RECORD
  5
68A
330
1
100
AcDbSymbolTableRecord
100
AcDbBlockTableRecord
  2
*D43
340
0
  0
BLOCK_RECORD
  5
69D
330
1
100
AcDbSymbolTableRecord
100
AcDbBlockTableRecord
  2
*D44
340
0
  0
BLOCK_RECORD
  5
6B0
330
1
100
AcDbSymbolTableRecord
100
AcDbBlockTableRecord
  2
*D45
340
0
  0
BLOCK_RECORD
  5
6C8
330
1
100
AcDbSymbolTableRecord
100
AcDbBlockTableRecord
  2
*D46
340
0
  0
BLOCK_RECORD
  5
6DB
330
1
100
AcDbSymbolTableRecord
100
AcDbBlockTableRecord
  2
*D47
340
0
  0
BLOCK_RECORD
  5
6EF
330
1
100
AcDbSymbolTableRecord
100
AcDbBlockTableRecord
  2
*D48
340
0
  0
BLOCK_RECORD
  5
703
330
1
100
AcDbSymbolTableRecord
100
AcDbBlockTableRecord
  2
*D49
340
0
  0
BLOCK_RECORD
  5
716
330
1
100
AcDbSymbolTableRecord
100
AcDbBlockTableRecord
  2
*D50
340
0
  0
BLOCK_RECORD
  5
729
330
1
100
AcDbSymbolTableRecord
100
AcDbBlockTableRecord
  2
*D51
340
0
  0
BLOCK_RECORD
  5
73C
330
1
100
AcDbSymbolTableRecord
100
AcDbBlockTableRecord
  2
*D52
340
0
  0
BLOCK_RECORD
  5
74F
330
1
100
AcDbSymbolTableRecord
100
AcDbBlockTableRecord
  2
*D53
340
0
  0
BLOCK_RECORD
  5
765
330
1
100
AcDbSymbolTableRecord
100
AcDbBlockTableRecord
  2
*D54
340
0
  0
ENDTAB
  0
ENDSEC
  0
SECTION
  2
BLOCKS
  0
BLOCK
  5
20
330
1F
100
AcDbEntity
  8
0
100
AcDbBlockBegin
  2
*Model_Space
 70
     0
 71
     0
 10
0.0
 20
0.0
 30
0.0
  3
*Model_Space
  1

  0
ENDBLK
  5
21
330
1F
100
AcDbEntity
  8
0
100
AcDbBlockEnd
  0
BLOCK
  5
1C
330
1B
100
AcDbEntity
 67
     1
  8
0
100
AcDbBlockBegin
  2
*Paper_Space
 70
     0
 71
     0
 10
0.0
 20
0.0
 30
0.0
  3
*Paper_Space
  1

  0
ENDBLK
  5
1D
330
1B
100
AcDbEntity
 67
     1
  8
0
100
AcDbBlockEnd
  0
BLOCK
  5
24
330
23
100
AcDbEntity
  8
0
100
AcDbBlockBegin
  2
*Paper_Space0
 70
     0
 71
     0
 10
0.0
 20
0.0
 30
0.0
  3
*Paper_Space0
  1

  0
ENDBLK
  5
25
330
23
100
AcDbEntity
  8
0
100
AcDbBlockEnd
  0
BLOCK
  5
35
330
34
100
AcDbEntity
  8
0
100
AcDbBlockBegin
  2
SW_NOTE_0
 70
     0
 71
     0
 10
0.0
 20
0.0
 30
0.0
  3
SW_NOTE_0
  1

  0
MTEXT
  5
38
330
34
100
AcDbEntity
  8
ﾚｲﾔｰ0
100
AcDbMText
 10
0.0
 20
8.0058107245
 30
0.0
 40
6.8791666667
 41
0.0
 71
     1
 72
     1
  1
ツメ（L型）
  7
SLDTEXTSTYLE0
 73
     1
 44
1.0
  0
MTEXT
  5
39
330
34
100
AcDbEntity
  8
ﾚｲﾔｰ0
100
AcDbMText
 10
0.0
 20
-1.1664118525
 30
0.0
 40
6.8791666667
 41
0.0
 71
     1
 72
     1
  1
CP-14
  7
SLDTEXTSTYLE0
 73
     1
 44
1.0
  0
ENDBLK
  5
36
330
34
100
AcDbEntity
  8
0
100
AcDbBlockEnd
  0
BLOCK
  5
3B
330
3A
100
AcDbEntity
  8
0
100
AcDbBlockBegin
  2
SW_CENTERMARKSYMBOL_0
 70
     0
 71
     0
 10
0.0
 20
0.0
 30
0.0
  3
SW_CENTERMARKSYMBOL_0
  1

  0
LINE
  5
3D
330
3A
100
AcDbEntity
  8
ﾚｲﾔｰ0
100
AcDbLine
 10
0.0
 20
0.0
 30
0.0
 11
0.0
 21
5.0
 31
0.0
  0
LINE
  5
3E
330
3A
100
AcDbEntity
  8
ﾚｲﾔｰ0
100
AcDbLine
 10
0.0
 20
0.0
 30
0.0
 11
-5.0
 21
0.0
 31
0.0
  0
LINE
  5
3F
330
3A
100
AcDbEntity
  8
ﾚｲﾔｰ0
100
AcDbLine
 10
0.0
 20
0.0
 30
0.0
 11
0.0
 21
-5.0
 31
0.0
  0
LINE
  5
40
330
3A
100
AcDbEntity
  8
ﾚｲﾔｰ0
100
AcDbLine
 10
0.0
 20
0.0
 30
0.0
 11
5.0
 21
0.0
 31
0.0
  0
LINE
  5
41
330
3A
100
AcDbEntity
  8
ﾚｲﾔｰ0
100
AcDbLine
 10
0.0
 20
10.0
 30
0.0
 11
0.0
 21
11.3
 31
0.0
  0
LINE
  5
42
330
3A
100
AcDbEntity
  8
ﾚｲﾔｰ0
100
AcDbLine
 10
-10.0
 20
0.0
 30
0.0
 11
-11.3
 21
0.0
 31
0.0
  0
LINE
  5
43
330
3A
100
AcDbEntity
  8
ﾚｲﾔｰ0
100
AcDbLine
 10
0.0
 20
-10.0
 30
0.0
 11
0.0
 21
-11.3
 31
0.0
  0
LINE
  5
44
330
3A
100
AcDbEntity
  8
ﾚｲﾔｰ0
100
AcDbLine
 10
10.0
 20
0.0
 30
0.0
 11
11.3
 21
0.0
 31
0.0
  0
ENDBLK
  5
3C
330
3A
100
AcDbEntity
  8
0
100
AcDbBlockEnd
  0
BLOCK
  5
46
330
45
100
AcDbEntity
  8
0
100
AcDbBlockBegin
  2
SW_CENTERMARKSYMBOL_1
 70
     0
 71
     0
 10
0.0
 20
0.0
 30
0.0
  3
SW_CENTERMARKSYMBOL_1
  1

  0
LINE
  5
48
330
45
100
AcDbEntity
  8
ﾚｲﾔｰ0
100
AcDbLine
 10
0.0
 20
0.0
 30
0.0
 11
0.0
 21
5.0
 31
0.0
  0
LINE
  5
49
330
45
100
AcDbEntity
  8
ﾚｲﾔｰ0
100
AcDbLine
 10
0.0
 20
0.0
 30
0.0
 11
-5.0
 21
0.0
 31
0.0
  0
LINE
  5
4A
330
45
100
AcDbEntity
  8
ﾚｲﾔｰ0
100
AcDbLine
 10
0.0
 20
0.0
 30
0.0
 11
0.0
 21
-5.0
 31
0.0
  0
LINE
  5
4B
330
45
100
AcDbEntity
  8
ﾚｲﾔｰ0
100
AcDbLine
 10
0.0
 20
0.0
 30
0.0
 11
5.0
 21
0.0
 31
0.0
  0
LINE
  5
4C
330
45
100
AcDbEntity
  8
ﾚｲﾔｰ0
100
AcDbLine
 10
0.0
 20
10.0
 30
0.0
 11
0.0
 21
11.3
 31
0.0
  0
LINE
  5
4D
330
45
100
AcDbEntity
  8
ﾚｲﾔｰ0
100
AcDbLine
 10
-10.0
 20
0.0
 30
0.0
 11
-11.3
 21
0.0
 31
0.0
  0
LINE
  5
4E
330
45
100
AcDbEntity
  8
ﾚｲﾔｰ0
100
AcDbLine
 10
0.0
 20
-10.0
 30
0.0
 11
0.0
 21
-11.3
 31
0.0
  0
LINE
  5
4F
330
45
100
AcDbEntity
  8
ﾚｲﾔｰ0
100
AcDbLine
 10
10.0
 20
0.0
 30
0.0
 11
11.3
 21
0.0
 31
0.0
  0
ENDBLK
  5
47
330
45
100
AcDbEntity
  8
0
100
AcDbBlockEnd
  0
BLOCK
  5
51
330
50
100
AcDbEntity
  8
0
100
AcDbBlockBegin
  2
SW_CENTERMARKSYMBOL_2
 70
     0
 71
     0
 10
0.0
 20
0.0
 30
0.0
  3
SW_CENTERMARKSYMBOL_2
  1

  0
LINE
  5
53
330
50
100
AcDbEntity
  8
ﾚｲﾔｰ0
100
AcDbLine
 10
0.0
 20
0.0
 30
0.0
 11
0.0
 21
5.0
 31
0.0
  0
LINE
  5
54
330
50
100
AcDbEntity
  8
ﾚｲﾔｰ0
100
AcDbLine
 10
0.0
 20
0.0
 30
0.0
 11
-5.0
 21
0.0
 31
0.0
  0
LINE
  5
55
330
50
100
AcDbEntity
  8
ﾚｲﾔｰ0
100
AcDbLine
 10
0.0
 20
0.0
 30
0.0
 11
0.0
 21
-5.0
 31
0.0
  0
LINE
  5
56
330
50
100
AcDbEntity
  8
ﾚｲﾔｰ0
100
AcDbLine
 10
0.0
 20
0.0
 30
0.0
 11
5.0
 21
0.0
 31
0.0
  0
LINE
  5
57
330
50
100
AcDbEntity
  8
ﾚｲﾔｰ0
100
AcDbLine
 10
0.0
 20
10.0
 30
0.0
 11
0.0
 21
11.3
 31
0.0
  0
LINE
  5
58
330
50
100
AcDbEntity
  8
ﾚｲﾔｰ0
100
AcDbLine
 10
-10.0
 20
0.0
 30
0.0
 11
-11.3
 21
0.0
 31
0.0
  0
LINE
  5
59
330
50
100
AcDbEntity
  8
ﾚｲﾔｰ0
100
AcDbLine
 10
0.0
 20
-10.0
 30
0.0
 11
0.0
 21
-11.3
 31
0.0
  0
LINE
  5
5A
330
50
100
AcDbEntity
  8
ﾚｲﾔｰ0
100
AcDbLine
 10
10.0
 20
0.0
 30
0.0
 11
11.3
 21
0.0
 31
0.0
  0
ENDBLK
  5
52
330
50
100
AcDbEntity
  8
0
100
AcDbBlockEnd
  0
BLOCK
  5
5C
330
5B
100
AcDbEntity
  8
0
100
AcDbBlockBegin
  2
SW_CENTERMARKSYMBOL_3
 70
     0
 71
     0
 10
0.0
 20
0.0
 30
0.0
  3
SW_CENTERMARKSYMBOL_3
  1

  0
LINE
  5
5E
330
5B
100
AcDbEntity
  8
ﾚｲﾔｰ0
100
AcDbLine
 10
0.0
 20
0.0
 30
0.0
 11
0.0
 21
5.0
 31
0.0
  0
LINE
  5
5F
330
5B
100
AcDbEntity
  8
ﾚｲﾔｰ0
100
AcDbLine
 10
0.0
 20
0.0
 30
0.0
 11
-5.0
 21
0.0
 31
0.0
  0
LINE
  5
60
330
5B
100
AcDbEntity
  8
ﾚｲﾔｰ0
100
AcDbLine
 10
0.0
 20
0.0
 30
0.0
 11
0.0
 21
-5.0
 31
0.0
  0
LINE
  5
61
330
5B
100
AcDbEntity
  8
ﾚｲﾔｰ0
100
AcDbLine
 10
0.0
 20
0.0
 30
0.0
 11
5.0
 21
0.0
 31
0.0
  0
LINE
  5
62
330
5B
100
AcDbEntity
  8
ﾚｲﾔｰ0
100
AcDbLine
 10
0.0
 20
10.0
 30
0.0
 11
0.0
 21
11.3
 31
0.0
  0
LINE
  5
63
330
5B
100
AcDbEntity
  8
ﾚｲﾔｰ0
100
AcDbLine
 10
-10.0
 20
0.0
 30
0.0
 11
-11.3
 21
0.0
 31
0.0
  0
LINE
  5
64
330
5B
100
AcDbEntity
  8
ﾚｲﾔｰ0
100
AcDbLine
 10
0.0
 20
-10.0
 30
0.0
 11
0.0
 21
-11.3
 31
0.0
  0
LINE
  5
65
330
5B
100
AcDbEntity
  8
ﾚｲﾔｰ0
100
AcDbLine
 10
10.0
 20
0.0
 30
0.0
 11
11.3
 21
0.0
 31
0.0
  0
ENDBLK
  5
5D
330
5B
100
AcDbEntity
  8
0
100
AcDbBlockEnd
  0
BLOCK
  5
67
330
66
100
AcDbEntity
  8
0
100
AcDbBlockBegin
  2
SW_CENTERMARKSYMBOL_4
 70
     0
 71
     0
 10
0.0
 20
0.0
 30
0.0
  3
SW_CENTERMARKSYMBOL_4
  1

  0
LINE
  5
69
330
66
100
AcDbEntity
  8
ﾚｲﾔｰ0
100
AcDbLine
 10
0.0
 20
0.0
 30
0.0
 11
0.0
 21
5.0
 31
0.0
  0
LINE
  5
6A
330
66
100
AcDbEntity
  8
ﾚｲﾔｰ0
100
AcDbLine
 10
0.0
 20
0.0
 30
0.0
 11
-5.0
 21
0.0
 31
0.0
  0
LINE
  5
6B
330
66
100
AcDbEntity
  8
ﾚｲﾔｰ0
100
AcDbLine
 10
0.0
 20
0.0
 30
0.0
 11
0.0
 21
-5.0
 31
0.0
  0
LINE
  5
6C
330
66
100
AcDbEntity
  8
ﾚｲﾔｰ0
100
AcDbLine
 10
0.0
 20
0.0
 30
0.0
 11
5.0
 21
0.0
 31
0.0
  0
LINE
  5
6D
330
66
100
AcDbEntity
  8
ﾚｲﾔｰ0
100
AcDbLine
 10
0.0
 20
10.0
 30
0.0
 11
0.0
 21
10.2
 31
0.0
  0
LINE
  5
6E
330
66
100
AcDbEntity
  8
ﾚｲﾔｰ0
100
AcDbLine
 10
-10.0
 20
0.0
 30
0.0
 11
-10.2
 21
0.0
 31
0.0
  0
LINE
  5
6F
330
66
100
AcDbEntity
  8
ﾚｲﾔｰ0
100
AcDbLine
 10
0.0
 20
-10.0
 30
0.0
 11
0.0
 21
-10.2
 31
0.0
  0
LINE
  5
70
330
66
100
AcDbEntity
  8
ﾚｲﾔｰ0
100
AcDbLine
 10
10.0
 20
0.0
 30
0.0
 11
10.2
 21
0.0
 31
0.0
  0
ENDBLK
  5
68
330
66
100
AcDbEntity
  8
0
100
AcDbBlockEnd
  0
BLOCK
  5
72
330
71
100
AcDbEntity
  8
0
100
AcDbBlockBegin
  2
SW_CENTERMARKSYMBOL_5
 70
     0
 71
     0
 10
0.0
 20
0.0
 30
0.0
  3
SW_CENTERMARKSYMBOL_5
  1

  0
LINE
  5
74
330
71
100
AcDbEntity
  8
ﾚｲﾔｰ0
100
AcDbLine
 10
0.0
 20
0.0
 30
0.0
 11
0.0
 21
5.0
 31
0.0
  0
LINE
  5
75
330
71
100
AcDbEntity
  8
ﾚｲﾔｰ0
100
AcDbLine
 10
0.0
 20
0.0
 30
0.0
 11
-5.0
 21
0.0
 31
0.0
  0
LINE
  5
76
330
71
100
AcDbEntity
  8
ﾚｲﾔｰ0
100
AcDbLine
 10
0.0
 20
0.0
 30
0.0
 11
0.0
 21
-5.0
 31
0.0
  0
LINE
  5
77
330
71
100
AcDbEntity
  8
ﾚｲﾔｰ0
100
AcDbLine
 10
0.0
 20
0.0
 30
0.0
 11
5.0
 21
0.0
 31
0.0
  0
LINE
  5
78
330
71
100
AcDbEntity
  8
ﾚｲﾔｰ0
100
AcDbLine
 10
0.0
 20
10.0
 30
0.0
 11
0.0
 21
10.2
 31
0.0
  0
LINE
  5
79
330
71
100
AcDbEntity
  8
ﾚｲﾔｰ0
100
AcDbLine
 10
-10.0
 20
0.0
 30
0.0
 11
-10.2
 21
0.0
 31
0.0
  0
LINE
  5
7A
330
71
100
AcDbEntity
  8
ﾚｲﾔｰ0
100
AcDbLine
 10
0.0
 20
-10.0
 30
0.0
 11
0.0
 21
-10.2
 31
0.0
  0
LINE
  5
7B
330
71
100
AcDbEntity
  8
ﾚｲﾔｰ0
100
AcDbLine
 10
10.0
 20
0.0
 30
0.0
 11
10.2
 21
0.0
 31
0.0
  0
ENDBLK
  5
73
330
71
100
AcDbEntity
  8
0
100
AcDbBlockEnd
  0
BLOCK
  5
3DE
330
3D4
100
AcDbEntity
  8
0
100
AcDbBlockBegin
  2
*D8
 70
     1
 71
     0
 10
0.0
 20
0.0
 30
0.0
  3
*D8
  1

  0
ARC
  5
3E4
330
3D4
100
AcDbEntity
  8
ﾚｲﾔｰ0
100
AcDbCircle
 10
325.544973112
 20
434.3175502213
 30
0.0
 40
10.24897516383927
100
AcDbArc
 50
153.4349488229
 51
206.5650511771
  0
ARC
  5
3E5
330
3D4
100
AcDbEntity
  8
ﾚｲﾔｰ0
100
AcDbCircle
 10
324.1428228537
 20
434.3175502213
 30
0.0
 40
10.24897516383927
100
AcDbArc
 50
333.4349488229
 51
26.5650511771
  0
LINE
  5
3E6
330
3D4
100
AcDbEntity
  8
ﾚｲﾔｰ0
100
AcDbLine
 10
179.0255664026
 20
201.5859582465
 30
0.0
 11
179.0255664026
 21
430.7340691881
 31
0.0
  0
LINE
  5
3E7
330
3D4
100
AcDbEntity
  8
ﾚｲﾔｰ0
100
AcDbLine
 10
469.0255664026
 20
201.5859582462
 30
0.0
 11
469.0255664026
 21
430.7340691881
 31
0.0
  0
LINE
  5
3E8
330
3D4
100
AcDbEntity
  8
ﾚｲﾔｰ0
100
AcDbLine
 10
179.0255664026
 20
429.7340691881
 30
0.0
 11
469.0255664026
 21
429.7340691881
 31
0.0
  0
MTEXT
  5
3EA
330
3D4
100
AcDbEntity
  8
ﾚｲﾔｰ0
100
AcDbMText
 10
317.9655110455
 20
437.7389183714
 30
0.1
 40
6.8791666667
 41
0.0
 71
     1
 72
     1
  1
145
  7
SLDTEXTSTYLE1
 73
     1
 44
1.0
  0
SOLID
  5
3EB
330
3D4
100
AcDbEntity
  8
ﾚｲﾔｰ0
100
AcDbTrace
 10
179.0255664026
 20
429.7340691881
 30
0.0
 11
185.0255664026
 21
428.2340691881
 31
0.0
 12
185.0255664026
 22
431.2340691881
 32
0.0
 13
185.0255664026
 23
431.2340691881
 33
0.0
  0
SOLID
  5
3EC
330
3D4
100
AcDbEntity
  8
ﾚｲﾔｰ0
100
AcDbTrace
 10
469.0255664026
 20
429.7340691881
 30
0.0
 11
463.0255664026
 21
431.2340691881
 31
0.0
 12
463.0255664026
 22
428.2340691881
 32
0.0
 13
463.0255664026
 23
428.2340691881
 33
0.0
  0
ENDBLK
  5
3DF
330
3D4
100
AcDbEntity
  8
0
100
AcDbBlockEnd
  0
BLOCK
  5
3E2
330
3E1
100
AcDbEntity
  8
0
100
AcDbBlockBegin
  2
_None
 70
     0
 71
     0
 10
0.0
 20
0.0
 30
0.0
  3
_None
  1

  0
ENDBLK
  5
3E3
330
3E1
100
AcDbEntity
  8
0
100
AcDbBlockEnd
  0
BLOCK
  5
3FA
330
3EE
100
AcDbEntity
  8
0
100
AcDbBlockBegin
  2
*D10
 70
     1
 71
     0
 10
0.0
 20
0.0
 30
0.0
  3
*D10
  1

  0
ARC
  5
3FD
330
3EE
100
AcDbEntity
  8
ﾚｲﾔｰ0
100
AcDbCircle
 10
156.8484689722
 20
414.1648511236
 30
0.0
 40
10.2489751638393
100
AcDbArc
 50
153.4349488229
 51
206.5650511771
  0
ARC
  5
3FE
330
3EE
100
AcDbEntity
  8
ﾚｲﾔｰ0
100
AcDbCircle
 10
155.4463187139
 20
414.1648511236
 30
0.0
 40
10.2489751638393
100
AcDbArc
 50
333.4349488229
 51
26.5650511771
  0
LINE
  5
3FF
330
3EE
100
AcDbEntity
  8
ﾚｲﾔｰ0
100
AcDbLine
 10
179.0255664026
 20
201.5859582465
 30
0.0
 11
179.0255664026
 21
410.5813700904
 31
0.0
  0
LINE
  5
400
330
3EE
100
AcDbEntity
  8
ﾚｲﾔｰ0
100
AcDbLine
 10
194.0255664026
 20
347.5859582462
 30
0.0
 11
194.0255664026
 21
410.5813700904
 31
0.0
  0
LINE
  5
401
330
3EE
100
AcDbEntity
  8
ﾚｲﾔｰ0
100
AcDbLine
 10
179.0255664026
 20
409.5813700904
 30
0.0
 11
146.0940069058
 21
409.5813700904
 31
0.0
  0
LINE
  5
402
330
3EE
100
AcDbEntity
  8
ﾚｲﾔｰ0
100
AcDbLine
 10
179.0255664026
 20
409.5813700904
 30
0.0
 11
194.0255664026
 21
409.5813700904
 31
0.0
  0
LINE
  5
403
330
3EE
100
AcDbEntity
  8
ﾚｲﾔｰ0
100
AcDbLine
 10
194.0255664026
 20
409.5813700904
 30
0.0
 11
206.0255664026
 21
409.5813700904
 31
0.0
  0
MTEXT
  5
404
330
3EE
100
AcDbEntity
  8
ﾚｲﾔｰ0
100
AcDbMText
 10
149.2690069058
 20
417.5862192737
 30
0.1
 40
6.8791666667
 41
0.0
 71
     1
 72
     1
  1
7.5
  7
SLDTEXTSTYLE1
 73
     1
 44
1.0
  0
SOLID
  5
405
330
3EE
100
AcDbEntity
  8
ﾚｲﾔｰ0
100
AcDbTrace
 10
179.0255664026
 20
409.5813700904
 30
0.0
 11
173.0255664026
 21
411.0813700904
 31
0.0
 12
173.0255664026
 22
408.0813700904
 32
0.0
 13
173.0255664026
 23
408.0813700904
 33
0.0
  0
SOLID
  5
406
330
3EE
100
AcDbEntity
  8
ﾚｲﾔｰ0
100
AcDbTrace
 10
194.0255664026
 20
409.5813700904
 30
0.0
 11
200.0255664026
 21
408.0813700904
 31
0.0
 12
200.0255664026
 22
411.0813700904
 32
0.0
 13
200.0255664026
 23
411.0813700904
 33
0.0
  0
ENDBLK
  5
3FB
330
3EE
100
AcDbEntity
  8
0
100
AcDbBlockEnd
  0
BLOCK
  5
414
330
408
100
AcDbEntity
  8
0
100
AcDbBlockBegin
  2
*D11
 70
     1
 71
     0
 10
0.0
 20
0.0
 30
0.0
  3
*D11
  1

  0
ARC
  5
416
330
408
100
AcDbEntity
  8
ﾚｲﾔｰ0
100
AcDbCircle
 10
491.3470750868
 20
414.1648511236
 30
0.0
 40
10.24897516383932
100
AcDbArc
 50
153.4349488229
 51
206.5650511771
  0
ARC
  5
417
330
408
100
AcDbEntity
  8
ﾚｲﾔｰ0
100
AcDbCircle
 10
489.9449248285
 20
414.1648511236
 30
0.0
 40
10.24897516383945
100
AcDbArc
 50
333.4349488229
 51
26.5650511771
  0
LINE
  5
418
330
408
100
AcDbEntity
  8
ﾚｲﾔｰ0
100
AcDbLine
 10
469.0255664026
 20
201.5859582462
 30
0.0
 11
469.0255664026
 21
410.5813700904
 31
0.0
  0
LINE
  5
419
330
408
100
AcDbEntity
  8
ﾚｲﾔｰ0
100
AcDbLine
 10
454.0255664026
 20
347.5859582462
 30
0.0
 11
454.0255664026
 21
410.5813700904
 31
0.0
  0
LINE
  5
41A
330
408
100
AcDbEntity
  8
ﾚｲﾔｰ0
100
AcDbLine
 10
469.0255664026
 20
409.5813700904
 30
0.0
 11
500.6993868949
 21
409.5813700904
 31
0.0
  0
LINE
  5
41B
330
408
100
AcDbEntity
  8
ﾚｲﾔｰ0
100
AcDbLine
 10
469.0255664026
 20
409.5813700904
 30
0.0
 11
454.0255664026
 21
409.5813700904
 31
0.0
  0
LINE
  5
41C
330
408
100
AcDbEntity
  8
ﾚｲﾔｰ0
100
AcDbLine
 10
454.0255664026
 20
409.5813700904
 30
0.0
 11
442.0255664026
 21
409.5813700904
 31
0.0
  0
MTEXT
  5
41D
330
408
100
AcDbEntity
  8
ﾚｲﾔｰ0
100
AcDbMText
 10
483.7676130204
 20
417.5862192737
 30
0.1
 40
6.8791666667
 41
0.0
 71
     1
 72
     1
  1
7.5
  7
SLDTEXTSTYLE1
 73
     1
 44
1.0
  0
SOLID
  5
41E
330
408
100
AcDbEntity
  8
ﾚｲﾔｰ0
100
AcDbTrace
 10
469.0255664026
 20
409.5813700904
 30
0.0
 11
475.0255664026
 21
408.0813700904
 31
0.0
 12
475.0255664026
 22
411.0813700904
 32
0.0
 13
475.0255664026
 23
411.0813700904
 33
0.0
  0
SOLID
  5
41F
330
408
100
AcDbEntity
  8
ﾚｲﾔｰ0
100
AcDbTrace
 10
454.0255664026
 20
409.5813700904
 30
0.0
 11
448.0255664026
 21
411.0813700904
 31
0.0
 12
448.0255664026
 22
408.0813700904
 32
0.0
 13
448.0255664026
 23
408.0813700904
 33
0.0
  0
ENDBLK
  5
415
330
408
100
AcDbEntity
  8
0
100
AcDbBlockEnd
  0
BLOCK
  5
42B
330
421
100
AcDbEntity
  8
0
100
AcDbBlockBegin
  2
*D12
 70
     1
 71
     0
 10
0.0
 20
0.0
 30
0.0
  3
*D12
  1

  0
LINE
  5
42D
330
421
100
AcDbEntity
  8
ﾚｲﾔｰ0
100
AcDbLine
 10
194.0255664026
 20
347.5859582462
 30
0.0
 11
194.0255664026
 21
410.5813700904
 31
0.0
  0
LINE
  5
42E
330
421
100
AcDbEntity
  8
ﾚｲﾔｰ0
100
AcDbLine
 10
454.0255664026
 20
347.5859582462
 30
0.0
 11
454.0255664026
 21
410.5813700904
 31
0.0
  0
LINE
  5
42F
330
421
100
AcDbEntity
  8
ﾚｲﾔｰ0
100
AcDbLine
 10
194.0255664026
 20
409.5813700904
 30
0.0
 11
454.0255664026
 21
409.5813700904
 31
0.0
  0
MTEXT
  5
430
330
421
100
AcDbEntity
  8
ﾚｲﾔｰ0
100
AcDbMText
 10
317.9655110455
 20
417.5862192737
 30
0.1
 40
6.8791666667
 41
0.0
 71
     1
 72
     1
  1
130
  7
SLDTEXTSTYLE1
 73
     1
 44
1.0
  0
SOLID
  5
431
330
421
100
AcDbEntity
  8
ﾚｲﾔｰ0
100
AcDbTrace
 10
194.0255664026
 20
409.5813700904
 30
0.0
 11
200.0255664026
 21
408.0813700904
 31
0.0
 12
200.0255664026
 22
411.0813700904
 32
0.0
 13
200.0255664026
 23
411.0813700904
 33
0.0
  0
SOLID
  5
432
330
421
100
AcDbEntity
  8
ﾚｲﾔｰ0
100
AcDbTrace
 10
454.0255664026
 20
409.5813700904
 30
0.0
 11
448.0255664026
 21
411.0813700904
 31
0.0
 12
448.0255664026
 22
408.0813700904
 32
0.0
 13
448.0255664026
 23
408.0813700904
 33
0.0
  0
ENDBLK
  5
42C
330
421
100
AcDbEntity
  8
0
100
AcDbBlockEnd
  0
BLOCK
  5
43E
330
434
100
AcDbEntity
  8
0
100
AcDbBlockBegin
  2
*D13
 70
     1
 71
     0
 10
0.0
 20
0.0
 30
0.0
  3
*D13
  1

  0
LINE
  5
440
330
434
100
AcDbEntity
  8
ﾚｲﾔｰ0
100
AcDbLine
 10
274.0255664026
 20
354.8859582462
 30
0.0
 11
274.0255664026
 21
386.9395543056
 31
0.0
  0
LINE
  5
441
330
434
100
AcDbEntity
  8
ﾚｲﾔｰ0
100
AcDbLine
 10
374.0255664026
 20
354.8859582462
 30
0.0
 11
374.0255664026
 21
386.9395543056
 31
0.0
  0
LINE
  5
442
330
434
100
AcDbEntity
  8
ﾚｲﾔｰ0
100
AcDbLine
 10
274.0255664026
 20
385.9395543056
 30
0.0
 11
374.0255664026
 21
385.9395543056
 31
0.0
  0
MTEXT
  5
443
330
434
100
AcDbEntity
  8
ﾚｲﾔｰ0
100
AcDbMText
 10
316.0282629123
 20
393.9444034889
 30
0.1
 40
6.8791666667
 41
0.0
 71
     1
 72
     1
  1
50
  7
SLDTEXTSTYLE1
 73
     1
 44
1.0
  0
SOLID
  5
444
330
434
100
AcDbEntity
  8
ﾚｲﾔｰ0
100
AcDbTrace
 10
274.0255664026
 20
385.9395543056
 30
0.0
 11
280.0255664026
 21
384.4395543056
 31
0.0
 12
280.0255664026
 22
387.4395543056
 32
0.0
 13
280.0255664026
 23
387.4395543056
 33
0.0
  0
SOLID
  5
445
330
434
100
AcDbEntity
  8
ﾚｲﾔｰ0
100
AcDbTrace
 10
374.0255664026
 20
385.9395543056
 30
0.0
 11
368.0255664026
 21
387.4395543056
 31
0.0
 12
368.0255664026
 22
384.4395543056
 32
0.0
 13
368.0255664026
 23
384.4395543056
 33
0.0
  0
ENDBLK
  5
43F
330
434
100
AcDbEntity
  8
0
100
AcDbBlockEnd
  0
BLOCK
  5
451
330
447
100
AcDbEntity
  8
0
100
AcDbBlockBegin
  2
*D14
 70
     1
 71
     0
 10
0.0
 20
0.0
 30
0.0
  3
*D14
  1

  0
LINE
  5
453
330
447
100
AcDbEntity
  8
ﾚｲﾔｰ0
100
AcDbLine
 10
274.0255664026
 20
354.8859582462
 30
0.0
 11
274.0255664026
 21
386.9395543056
 31
0.0
  0
LINE
  5
454
330
447
100
AcDbEntity
  8
ﾚｲﾔｰ0
100
AcDbLine
 10
194.0255664026
 20
347.5859582462
 30
0.0
 11
194.0255664026
 21
386.9395543056
 31
0.0
  0
LINE
  5
455
330
447
100
AcDbEntity
  8
ﾚｲﾔｰ0
100
AcDbLine
 10
274.0255664026
 20
385.9395543056
 30
0.0
 11
194.0255664026
 21
385.9395543056
 31
0.0
  0
MTEXT
  5
456
330
447
100
AcDbEntity
  8
ﾚｲﾔｰ0
100
AcDbMText
 10
229.7701360406
 20
393.9444034889
 30
0.1
 40
6.8791666667
 41
0.0
 71
     1
 72
     1
  1
40
  7
SLDTEXTSTYLE1
 73
     1
 44
1.0
  0
SOLID
  5
457
330
447
100
AcDbEntity
  8
ﾚｲﾔｰ0
100
AcDbTrace
 10
274.0255664026
 20
385.9395543056
 30
0.0
 11
268.0255664026
 21
387.4395543056
 31
0.0
 12
268.0255664026
 22
384.4395543056
 32
0.0
 13
268.0255664026
 23
384.4395543056
 33
0.0
  0
SOLID
  5
458
330
447
100
AcDbEntity
  8
ﾚｲﾔｰ0
100
AcDbTrace
 10
194.0255664026
 20
385.9395543056
 30
0.0
 11
200.0255664026
 21
384.4395543056
 31
0.0
 12
200.0255664026
 22
387.4395543056
 32
0.0
 13
200.0255664026
 23
387.4395543056
 33
0.0
  0
ENDBLK
  5
452
330
447
100
AcDbEntity
  8
0
100
AcDbBlockEnd
  0
BLOCK
  5
464
330
45A
100
AcDbEntity
  8
0
100
AcDbBlockBegin
  2
*D15
 70
     1
 71
     0
 10
0.0
 20
0.0
 30
0.0
  3
*D15
  1

  0
LINE
  5
466
330
45A
100
AcDbEntity
  8
ﾚｲﾔｰ0
100
AcDbLine
 10
374.0255664026
 20
354.8859582462
 30
0.0
 11
374.0255664026
 21
386.9395543056
 31
0.0
  0
LINE
  5
467
330
45A
100
AcDbEntity
  8
ﾚｲﾔｰ0
100
AcDbLine
 10
454.0255664026
 20
347.5859582462
 30
0.0
 11
454.0255664026
 21
386.9395543056
 31
0.0
  0
LINE
  5
468
330
45A
100
AcDbEntity
  8
ﾚｲﾔｰ0
100
AcDbLine
 10
374.0255664026
 20
385.9395543056
 30
0.0
 11
454.0255664026
 21
385.9395543056
 31
0.0
  0
MTEXT
  5
469
330
45A
100
AcDbEntity
  8
ﾚｲﾔｰ0
100
AcDbMText
 10
407.4618773963
 20
393.9444034889
 30
0.1
 40
6.8791666667
 41
0.0
 71
     1
 72
     1
  1
40
  7
SLDTEXTSTYLE1
 73
     1
 44
1.0
  0
SOLID
  5
46A
330
45A
100
AcDbEntity
  8
ﾚｲﾔｰ0
100
AcDbTrace
 10
374.0255664026
 20
385.9395543056
 30
0.0
 11
380.0255664026
 21
384.4395543056
 31
0.0
 12
380.0255664026
 22
387.4395543056
 32
0.0
 13
380.0255664026
 23
387.4395543056
 33
0.0
  0
SOLID
  5
46B
330
45A
100
AcDbEntity
  8
ﾚｲﾔｰ0
100
AcDbTrace
 10
454.0255664026
 20
385.9395543056
 30
0.0
 11
448.0255664026
 21
387.4395543056
 31
0.0
 12
448.0255664026
 22
384.4395543056
 32
0.0
 13
448.0255664026
 23
384.4395543056
 33
0.0
  0
ENDBLK
  5
465
330
45A
100
AcDbEntity
  8
0
100
AcDbBlockEnd
  0
BLOCK
  5
478
330
46D
100
AcDbEntity
  8
0
100
AcDbBlockBegin
  2
*D16
 70
     1
 71
     0
 10
0.0
 20
0.0
 30
0.0
  3
*D16
  1

  0
LINE
  5
47A
330
46D
100
AcDbEntity
  8
ﾚｲﾔｰ0
100
AcDbLine
 10
261.7255664026
 20
342.5859582462
 30
0.0
 11
145.4782106235
 21
342.5859582462
 31
0.0
  0
LINE
  5
47B
330
46D
100
AcDbEntity
  8
ﾚｲﾔｰ0
100
AcDbLine
 10
209.0255664026
 20
362.5859582462
 30
0.0
 11
145.4782106235
 21
362.5859582462
 31
0.0
  0
LINE
  5
47C
330
46D
100
AcDbEntity
  8
ﾚｲﾔｰ0
100
AcDbLine
 10
146.4782106235
 20
342.5859582462
 30
0.0
 11
146.4782106235
 21
330.5859582462
 31
0.0
  0
LINE
  5
47D
330
46D
100
AcDbEntity
  8
ﾚｲﾔｰ0
100
AcDbLine
 10
146.4782106235
 20
342.5859582462
 30
0.0
 11
146.4782106235
 21
362.5859582462
 31
0.0
  0
LINE
  5
47E
330
46D
100
AcDbEntity
  8
ﾚｲﾔｰ0
100
AcDbLine
 10
146.4782106235
 20
362.5859582462
 30
0.0
 11
146.4782106235
 21
374.5859582462
 31
0.0
  0
MTEXT
  5
47F
330
46D
100
AcDbEntity
  8
ﾚｲﾔｰ0
100
AcDbMText
 10
138.4733614402
 20
345.85517072
 30
0.1
 40
6.8791666667
 41
0.0
 71
     1
 72
     1
  1
10
  7
SLDTEXTSTYLE1
 11
6.123031769111886E-17
 21
1.0
 31
0.0
 73
     1
 44
1.0
  0
SOLID
  5
480
330
46D
100
AcDbEntity
  8
ﾚｲﾔｰ0
100
AcDbTrace
 10
146.4782106235
 20
342.5859582462
 30
0.0
 11
144.9782106235
 21
336.5859582462
 31
0.0
 12
147.9782106235
 22
336.5859582462
 32
0.0
 13
147.9782106235
 23
336.5859582462
 33
0.0
  0
SOLID
  5
481
330
46D
100
AcDbEntity
  8
ﾚｲﾔｰ0
100
AcDbTrace
 10
146.4782106235
 20
362.5859582462
 30
0.0
 11
147.9782106235
 21
368.5859582462
 31
0.0
 12
144.9782106235
 22
368.5859582462
 32
0.0
 13
144.9782106235
 23
368.5859582462
 33
0.0
  0
ENDBLK
  5
479
330
46D
100
AcDbEntity
  8
0
100
AcDbBlockEnd
  0
BLOCK
  5
48E
330
483
100
AcDbEntity
  8
0
100
AcDbBlockBegin
  2
*D17
 70
     1
 71
     0
 10
0.0
 20
0.0
 30
0.0
  3
*D17
  1

  0
LINE
  5
490
330
483
100
AcDbEntity
  8
ﾚｲﾔｰ0
100
AcDbLine
 10
261.7255664026
 20
342.5859582462
 30
0.0
 11
145.4782106235
 21
342.5859582462
 31
0.0
  0
LINE
  5
491
330
483
100
AcDbEntity
  8
ﾚｲﾔｰ0
100
AcDbLine
 10
261.7255664026
 20
302.5859582462
 30
0.0
 11
145.4782106235
 21
302.5859582462
 31
0.0
  0
LINE
  5
492
330
483
100
AcDbEntity
  8
ﾚｲﾔｰ0
100
AcDbLine
 10
146.4782106235
 20
342.5859582462
 30
0.0
 11
146.4782106235
 21
302.5859582462
 31
0.0
  0
MTEXT
  5
493
330
483
100
AcDbEntity
  8
ﾚｲﾔｰ0
100
AcDbMText
 10
138.4733614402
 20
314.5615818987
 30
0.1
 40
6.8791666667
 41
0.0
 71
     1
 72
     1
  1
20
  7
SLDTEXTSTYLE1
 11
-7.044197039909883E-15
 21
1.0
 31
0.0
 73
     1
 44
1.0
  0
SOLID
  5
494
330
483
100
AcDbEntity
  8
ﾚｲﾔｰ0
100
AcDbTrace
 10
146.4782106235
 20
342.5859582462
 30
0.0
 11
144.9782106235
 21
336.5859582462
 31
0.0
 12
147.9782106235
 22
336.5859582462
 32
0.0
 13
147.9782106235
 23
336.5859582462
 33
0.0
  0
SOLID
  5
495
330
483
100
AcDbEntity
  8
ﾚｲﾔｰ0
100
AcDbTrace
 10
146.4782106235
 20
302.5859582462
 30
0.0
 11
147.9782106235
 21
308.5859582462
 31
0.0
 12
144.9782106235
 22
308.5859582462
 32
0.0
 13
144.9782106235
 23
308.5859582462
 33
0.0
  0
ENDBLK
  5
48F
330
483
100
AcDbEntity
  8
0
100
AcDbBlockEnd
  0
BLOCK
  5
4A2
330
497
100
AcDbEntity
  8
0
100
AcDbBlockBegin
  2
*D18
 70
     1
 71
     0
 10
0.0
 20
0.0
 30
0.0
  3
*D18
  1

  0
LINE
  5
4A4
330
497
100
AcDbEntity
  8
ﾚｲﾔｰ0
100
AcDbLine
 10
261.7255664026
 20
302.5859582462
 30
0.0
 11
145.4782106235
 21
302.5859582462
 31
0.0
  0
LINE
  5
4A5
330
497
100
AcDbEntity
  8
ﾚｲﾔｰ0
100
AcDbLine
 10
209.0255664026
 20
132.5859582462
 30
0.0
 11
145.4782106235
 21
132.5859582462
 31
0.0
  0
LINE
  5
4A6
330
497
100
AcDbEntity
  8
ﾚｲﾔｰ0
100
AcDbLine
 10
146.4782106235
 20
302.5859582462
 30
0.0
 11
146.4782106235
 21
132.5859582462
 31
0.0
  0
MTEXT
  5
4A7
330
497
100
AcDbEntity
  8
ﾚｲﾔｰ0
100
AcDbMText
 10
138.4733614402
 20
206.8195516434
 30
0.1
 40
6.8791666667
 41
0.0
 71
     1
 72
     1
  1
85
  7
SLDTEXTSTYLE1
 11
-7.044197039909883E-15
 21
1.0
 31
0.0
 73
     1
 44
1.0
  0
SOLID
  5
4A8
330
497
100
AcDbEntity
  8
ﾚｲﾔｰ0
100
AcDbTrace
 10
146.4782106235
 20
302.5859582462
 30
0.0
 11
144.9782106235
 21
296.5859582462
 31
0.0
 12
147.9782106235
 22
296.5859582462
 32
0.0
 13
147.9782106235
 23
296.5859582462
 33
0.0
  0
SOLID
  5
4A9
330
497
100
AcDbEntity
  8
ﾚｲﾔｰ0
100
AcDbTrace
 10
146.4782106235
 20
132.5859582462
 30
0.0
 11
147.9782106235
 21
138.5859582462
 31
0.0
 12
144.9782106235
 22
138.5859582462
 32
0.0
 13
144.9782106235
 23
138.5859582462
 33
0.0
  0
ENDBLK
  5
4A3
330
497
100
AcDbEntity
  8
0
100
AcDbBlockEnd
  0
BLOCK
  5
4B6
330
4AB
100
AcDbEntity
  8
0
100
AcDbBlockBegin
  2
*D19
 70
     1
 71
     0
 10
0.0
 20
0.0
 30
0.0
  3
*D19
  1

  0
LINE
  5
4B8
330
4AB
100
AcDbEntity
  8
ﾚｲﾔｰ0
100
AcDbLine
 10
222.8255664026
 20
260.5859582462
 30
0.0
 11
116.8185689378
 21
260.5859582462
 31
0.0
  0
LINE
  5
4B9
330
4AB
100
AcDbEntity
  8
ﾚｲﾔｰ0
100
AcDbLine
 10
209.0255664026
 20
362.5859582462
 30
0.0
 11
116.8185689378
 21
362.5859582462
 31
0.0
  0
LINE
  5
4BA
330
4AB
100
AcDbEntity
  8
ﾚｲﾔｰ0
100
AcDbLine
 10
117.8185689378
 20
260.5859582462
 30
0.0
 11
117.8185689378
 21
362.5859582462
 31
0.0
  0
MTEXT
  5
4BB
330
4AB
100
AcDbEntity
  8
ﾚｲﾔｰ0
100
AcDbMText
 10
109.8137197545
 20
312.4471502216
 30
0.1
 40
6.8791666667
 41
0.0
 71
     1
 72
     1
  1
51
  7
SLDTEXTSTYLE1
 11
6.123031769111886E-17
 21
1.0
 31
0.0
 73
     1
 44
1.0
  0
SOLID
  5
4BC
330
4AB
100
AcDbEntity
  8
ﾚｲﾔｰ0
100
AcDbTrace
 10
117.8185689378
 20
260.5859582462
 30
0.0
 11
119.3185689378
 21
266.5859582462
 31
0.0
 12
116.3185689378
 22
266.5859582462
 32
0.0
 13
116.3185689378
 23
266.5859582462
 33
0.0
  0
SOLID
  5
4BD
330
4AB
100
AcDbEntity
  8
ﾚｲﾔｰ0
100
AcDbTrace
 10
117.8185689378
 20
362.5859582462
 30
0.0
 11
116.3185689378
 21
356.5859582462
 31
0.0
 12
119.3185689378
 22
356.5859582462
 32
0.0
 13
119.3185689378
 23
356.5859582462
 33
0.0
  0
ENDBLK
  5
4B7
330
4AB
100
AcDbEntity
  8
0
100
AcDbBlockEnd
  0
BLOCK
  5
4CA
330
4BF
100
AcDbEntity
  8
0
100
AcDbBlockBegin
  2
*D20
 70
     1
 71
     0
 10
0.0
 20
0.0
 30
0.0
  3
*D20
  1

  0
LINE
  5
4CC
330
4BF
100
AcDbEntity
  8
ﾚｲﾔｰ0
100
AcDbLine
 10
222.8255664026
 20
260.5859582462
 30
0.0
 11
116.8185689378
 21
260.5859582462
 31
0.0
  0
LINE
  5
4CD
330
4BF
100
AcDbEntity
  8
ﾚｲﾔｰ0
100
AcDbLine
 10
209.0255664026
 20
132.5859582462
 30
0.0
 11
116.8185689378
 21
132.5859582462
 31
0.0
  0
LINE
  5
4CE
330
4BF
100
AcDbEntity
  8
ﾚｲﾔｰ0
100
AcDbLine
 10
117.8185689378
 20
260.5859582462
 30
0.0
 11
117.8185689378
 21
132.5859582462
 31
0.0
  0
MTEXT
  5
4CF
330
4BF
100
AcDbEntity
  8
ﾚｲﾔｰ0
100
AcDbMText
 10
109.8137197545
 20
199.5364986637
 30
0.1
 40
6.8791666667
 41
0.0
 71
     1
 72
     1
  1
64
  7
SLDTEXTSTYLE1
 11
-7.044197039909883E-15
 21
1.0
 31
0.0
 73
     1
 44
1.0
  0
SOLID
  5
4D0
330
4BF
100
AcDbEntity
  8
ﾚｲﾔｰ0
100
AcDbTrace
 10
117.8185689378
 20
260.5859582462
 30
0.0
 11
116.3185689378
 21
254.5859582462
 31
0.0
 12
119.3185689378
 22
254.5859582462
 32
0.0
 13
119.3185689378
 23
254.5859582462
 33
0.0
  0
SOLID
  5
4D1
330
4BF
100
AcDbEntity
  8
ﾚｲﾔｰ0
100
AcDbTrace
 10
117.8185689378
 20
132.5859582462
 30
0.0
 11
119.3185689378
 21
138.5859582462
 31
0.0
 12
116.3185689378
 22
138.5859582462
 32
0.0
 13
116.3185689378
 23
138.5859582462
 33
0.0
  0
ENDBLK
  5
4CB
330
4BF
100
AcDbEntity
  8
0
100
AcDbBlockEnd
  0
BLOCK
  5
4DE
330
4D3
100
AcDbEntity
  8
0
100
AcDbBlockBegin
  2
*D21
 70
     1
 71
     0
 10
0.0
 20
0.0
 30
0.0
  3
*D21
  1

  0
LINE
  5
4E0
330
4D3
100
AcDbEntity
  8
ﾚｲﾔｰ0
100
AcDbLine
 10
209.0255664026
 20
362.5859582462
 30
0.0
 11
89.1195139676
 21
362.5859582462
 31
0.0
  0
LINE
  5
4E1
330
4D3
100
AcDbEntity
  8
ﾚｲﾔｰ0
100
AcDbLine
 10
209.0255664026
 20
132.5859582462
 30
0.0
 11
89.1195139676
 21
132.5859582462
 31
0.0
  0
LINE
  5
4E2
330
4D3
100
AcDbEntity
  8
ﾚｲﾔｰ0
100
AcDbLine
 10
90.1195139676
 20
362.5859582462
 30
0.0
 11
90.1195139676
 21
132.5859582462
 31
0.0
  0
MTEXT
  5
4E3
330
4D3
100
AcDbEntity
  8
ﾚｲﾔｰ0
100
AcDbMText
 10
82.1146647843
 20
251.6670641285
 30
0.1
 40
6.8791666667
 41
0.0
 71
     1
 72
     1
  1
115
  7
SLDTEXTSTYLE1
 11
-7.044197039909883E-15
 21
1.0
 31
0.0
 73
     1
 44
1.0
  0
SOLID
  5
4E4
330
4D3
100
AcDbEntity
  8
ﾚｲﾔｰ0
100
AcDbTrace
 10
90.1195139676
 20
362.5859582462
 30
0.0
 11
88.6195139676
 21
356.5859582462
 31
0.0
 12
91.6195139676
 22
356.5859582462
 32
0.0
 13
91.6195139676
 23
356.5859582462
 33
0.0
  0
SOLID
  5
4E5
330
4D3
100
AcDbEntity
  8
ﾚｲﾔｰ0
100
AcDbTrace
 10
90.1195139676
 20
132.5859582462
 30
0.0
 11
91.6195139676
 21
138.5859582462
 31
0.0
 12
88.6195139676
 22
138.5859582462
 32
0.0
 13
88.6195139676
 23
138.5859582462
 33
0.0
  0
ENDBLK
  5
4DF
330
4D3
100
AcDbEntity
  8
0
100
AcDbBlockEnd
  0
BLOCK
  5
4EE
330
4E7
100
AcDbEntity
  8
0
100
AcDbBlockBegin
  2
*D22
 70
     1
 71
     0
 10
0.0
 20
0.0
 30
0.0
  3
*D22
  1

  0
LINE
  5
4F1
330
4E7
100
AcDbEntity
  8
ﾚｲﾔｰ0
100
AcDbLine
 10
229.1900994914
 20
258.6733004748
 30
0.0
 11
79.6839763037
 21
199.5364986637
 31
0.0
  0
LINE
  5
4F2
330
4E7
100
AcDbEntity
  8
ﾚｲﾔｰ0
100
AcDbLine
 10
79.6839763037
 20
199.5364986637
 30
0.0
 11
41.8677633147
 21
199.5364986637
 31
0.0
  0
MTEXT
  5
4F3
330
4E7
100
AcDbEntity
  8
ﾚｲﾔｰ0
100
AcDbMText
 10
43.4552633147
 20
207.541347847
 30
0.1
 40
6.8791666667
 41
0.0
 71
     1
 72
     1
  1
2-
  7
SLDTEXTSTYLE1
 73
     1
 44
1.0
  0
MTEXT
  5
4F4
330
4E7
100
AcDbEntity
  8
ﾚｲﾔｰ0
100
AcDbMText
 10
49.1879025584
 20
207.541347847
 30
0.1
 40
6.8791666667
 41
0.0
 71
     1
 72
     1
  1
%%c
  7
SLDTEXTSTYLE1
 73
     1
 44
1.0
  0
MTEXT
  5
4F5
330
4E7
100
AcDbEntity
  8
ﾚｲﾔｰ0
100
AcDbMText
 10
61.3397024291
 20
207.541347847
 30
0.1
 40
6.8791666667
 41
0.0
 71
     1
 72
     1
  1
5.2
  7
SLDTEXTSTYLE1
 73
     1
 44
1.0
  0
SOLID
  5
4F6
330
4E7
100
AcDbEntity
  8
ﾚｲﾔｰ0
100
AcDbTrace
 10
229.1900994914
 20
258.6733004748
 30
0.0
 11
223.0589863906
 21
257.861233886
 31
0.0
 12
224.1624427972
 22
255.0715414372
 32
0.0
 13
224.1624427972
 23
255.0715414372
 33
0.0
  0
ENDBLK
  5
4EF
330
4E7
100
AcDbEntity
  8
0
100
AcDbBlockEnd
  0
BLOCK
  5
502
330
4F8
100
AcDbEntity
  8
0
100
AcDbBlockBegin
  2
*D23
 70
     1
 71
     0
 10
0.0
 20
0.0
 30
0.0
  3
*D23
  1

  0
LINE
  5
504
330
4F8
100
AcDbEntity
  8
ﾚｲﾔｰ0
100
AcDbLine
 10
234.0255664026
 20
271.7859582462
 30
0.0
 11
234.0255664026
 21
283.291511308
 31
0.0
  0
LINE
  5
505
330
4F8
100
AcDbEntity
  8
ﾚｲﾔｰ0
100
AcDbLine
 10
234.0255664026
 20
282.291511308
 30
0.0
 11
194.0255664026
 21
282.291511308
 31
0.0
  0
MTEXT
  5
506
330
4F8
100
AcDbEntity
  8
ﾚｲﾔｰ0
100
AcDbMText
 10
206.6079078865
 20
290.2963604913
 30
0.1
 40
6.8791666667
 41
0.0
 71
     1
 72
     1
  1
20
  7
SLDTEXTSTYLE1
 73
     1
 44
1.0
  0
SOLID
  5
507
330
4F8
100
AcDbEntity
  8
ﾚｲﾔｰ0
100
AcDbTrace
 10
234.0255664026
 20
282.291511308
 30
0.0
 11
228.0255664026
 21
283.791511308
 31
0.0
 12
228.0255664026
 22
280.791511308
 32
0.0
 13
228.0255664026
 23
280.791511308
 33
0.0
  0
SOLID
  5
508
330
4F8
100
AcDbEntity
  8
ﾚｲﾔｰ0
100
AcDbTrace
 10
194.0255664026
 20
282.291511308
 30
0.0
 11
200.0255664026
 21
280.791511308
 31
0.0
 12
200.0255664026
 22
283.791511308
 32
0.0
 13
200.0255664026
 23
283.791511308
 33
0.0
  0
ENDBLK
  5
503
330
4F8
100
AcDbEntity
  8
0
100
AcDbBlockEnd
  0
BLOCK
  5
514
330
50A
100
AcDbEntity
  8
0
100
AcDbBlockBegin
  2
*D24
 70
     1
 71
     0
 10
0.0
 20
0.0
 30
0.0
  3
*D24
  1

  0
LINE
  5
516
330
50A
100
AcDbEntity
  8
ﾚｲﾔｰ0
100
AcDbLine
 10
234.0255664026
 20
271.7859582462
 30
0.0
 11
234.0255664026
 21
283.291511308
 31
0.0
  0
LINE
  5
517
330
50A
100
AcDbEntity
  8
ﾚｲﾔｰ0
100
AcDbLine
 10
414.0255664026
 20
271.7859582462
 30
0.0
 11
414.0255664026
 21
283.291511308
 31
0.0
  0
LINE
  5
518
330
50A
100
AcDbEntity
  8
ﾚｲﾔｰ0
100
AcDbLine
 10
234.0255664026
 20
282.291511308
 30
0.0
 11
414.0255664026
 21
282.291511308
 31
0.0
  0
MTEXT
  5
519
330
50A
100
AcDbEntity
  8
ﾚｲﾔｰ0
100
AcDbMText
 10
322.2713672206
 20
290.2963604913
 30
0.1
 40
6.8791666667
 41
0.0
 71
     1
 72
     1
  1
90
  7
SLDTEXTSTYLE1
 73
     1
 44
1.0
  0
SOLID
  5
51A
330
50A
100
AcDbEntity
  8
ﾚｲﾔｰ0
100
AcDbTrace
 10
234.0255664026
 20
282.291511308
 30
0.0
 11
240.0255664026
 21
280.791511308
 31
0.0
 12
240.0255664026
 22
283.791511308
 32
0.0
 13
240.0255664026
 23
283.791511308
 33
0.0
  0
SOLID
  5
51B
330
50A
100
AcDbEntity
  8
ﾚｲﾔｰ0
100
AcDbTrace
 10
414.0255664026
 20
282.291511308
 30
0.0
 11
408.0255664026
 21
283.791511308
 31
0.0
 12
408.0255664026
 22
280.791511308
 32
0.0
 13
408.0255664026
 23
280.791511308
 33
0.0
  0
ENDBLK
  5
515
330
50A
100
AcDbEntity
  8
0
100
AcDbBlockEnd
  0
BLOCK
  5
527
330
51D
100
AcDbEntity
  8
0
100
AcDbBlockBegin
  2
*D25
 70
     1
 71
     0
 10
0.0
 20
0.0
 30
0.0
  3
*D25
  1

  0
LINE
  5
529
330
51D
100
AcDbEntity
  8
ﾚｲﾔｰ0
100
AcDbLine
 10
414.0255664026
 20
271.7859582462
 30
0.0
 11
414.0255664026
 21
283.291511308
 31
0.0
  0
LINE
  5
52A
330
51D
100
AcDbEntity
  8
ﾚｲﾔｰ0
100
AcDbLine
 10
414.0255664026
 20
282.291511308
 30
0.0
 11
454.0255664026
 21
282.291511308
 31
0.0
  0
MTEXT
  5
52B
330
51D
100
AcDbEntity
  8
ﾚｲﾔｰ0
100
AcDbMText
 10
425.705036625
 20
290.2963604913
 30
0.1
 40
6.8791666667
 41
0.0
 71
     1
 72
     1
  1
20
  7
SLDTEXTSTYLE1
 73
     1
 44
1.0
  0
SOLID
  5
52C
330
51D
100
AcDbEntity
  8
ﾚｲﾔｰ0
100
AcDbTrace
 10
414.0255664026
 20
282.291511308
 30
0.0
 11
420.0255664026
 21
280.791511308
 31
0.0
 12
420.0255664026
 22
283.791511308
 32
0.0
 13
420.0255664026
 23
283.791511308
 33
0.0
  0
SOLID
  5
52D
330
51D
100
AcDbEntity
  8
ﾚｲﾔｰ0
100
AcDbTrace
 10
454.0255664026
 20
282.291511308
 30
0.0
 11
448.0255664026
 21
283.791511308
 31
0.0
 12
448.0255664026
 22
280.791511308
 32
0.0
 13
448.0255664026
 23
280.791511308
 33
0.0
  0
ENDBLK
  5
528
330
51D
100
AcDbEntity
  8
0
100
AcDbBlockEnd
  0
BLOCK
  5
539
330
52F
100
AcDbEntity
  8
0
100
AcDbBlockBegin
  2
*D26
 70
     1
 71
     0
 10
0.0
 20
0.0
 30
0.0
  3
*D26
  1

  0
LINE
  5
53B
330
52F
100
AcDbEntity
  8
ﾚｲﾔｰ0
100
AcDbLine
 10
179.0255664026
 20
167.5859582462
 30
0.0
 11
179.0255664026
 21
99.3968574635
 31
0.0
  0
LINE
  5
53C
330
52F
100
AcDbEntity
  8
ﾚｲﾔｰ0
100
AcDbLine
 10
262.0255664026
 20
160.5859582462
 30
0.0
 11
262.0255664026
 21
99.3968574635
 31
0.0
  0
LINE
  5
53D
330
52F
100
AcDbEntity
  8
ﾚｲﾔｰ0
100
AcDbLine
 10
179.0255664026
 20
100.3968574635
 30
0.0
 11
262.0255664026
 21
100.3968574635
 31
0.0
  0
MTEXT
  5
53E
330
52F
100
AcDbEntity
  8
ﾚｲﾔｰ0
100
AcDbMText
 10
208.1865953604
 20
108.4017066468
 30
0.1
 40
6.8791666667
 41
0.0
 71
     1
 72
     1
  1
41.5
  7
SLDTEXTSTYLE1
 73
     1
 44
1.0
  0
SOLID
  5
53F
330
52F
100
AcDbEntity
  8
ﾚｲﾔｰ0
100
AcDbTrace
 10
179.0255664026
 20
100.3968574635
 30
0.0
 11
185.0255664026
 21
98.8968574635
 31
0.0
 12
185.0255664026
 22
101.8968574635
 32
0.0
 13
185.0255664026
 23
101.8968574635
 33
0.0
  0
SOLID
  5
540
330
52F
100
AcDbEntity
  8
ﾚｲﾔｰ0
100
AcDbTrace
 10
262.0255664026
 20
100.3968574635
 30
0.0
 11
256.0255664026
 21
101.8968574635
 31
0.0
 12
256.0255664026
 22
98.8968574635
 32
0.0
 13
256.0255664026
 23
98.8968574635
 33
0.0
  0
ENDBLK
  5
53A
330
52F
100
AcDbEntity
  8
0
100
AcDbBlockEnd
  0
BLOCK
  5
54D
330
542
100
AcDbEntity
  8
0
100
AcDbBlockBegin
  2
*D27
 70
     1
 71
     0
 10
0.0
 20
0.0
 30
0.0
  3
*D27
  1

  0
ARC
  5
54F
330
542
100
AcDbEntity
  8
ﾚｲﾔｰ0
100
AcDbCircle
 10
236.2076335305
 20
85.668983061
 30
0.0
 40
10.2489751638393
100
AcDbArc
 50
153.4349488229
 51
206.5650511771
  0
ARC
  5
550
330
542
100
AcDbEntity
  8
ﾚｲﾔｰ0
100
AcDbCircle
 10
234.8054832722
 20
85.668983061
 30
0.0
 40
10.24897516383924
100
AcDbArc
 50
333.4349488229
 51
26.5650511771
  0
LINE
  5
551
330
542
100
AcDbEntity
  8
ﾚｲﾔｰ0
100
AcDbLine
 10
262.0255664026
 20
160.5859582462
 30
0.0
 11
262.0255664026
 21
99.3968574635
 31
0.0
  0
LINE
  5
552
330
542
100
AcDbEntity
  8
ﾚｲﾔｰ0
100
AcDbLine
 10
267.0255664026
 20
149.5859582462
 30
0.0
 11
267.0255664026
 21
99.3968574635
 31
0.0
  0
LINE
  5
553
330
542
100
AcDbEntity
  8
ﾚｲﾔｰ0
100
AcDbLine
 10
262.0255664026
 20
100.3968574635
 30
0.0
 11
250.0255664026
 21
100.3968574635
 31
0.0
  0
LINE
  5
554
330
542
100
AcDbEntity
  8
ﾚｲﾔｰ0
100
AcDbLine
 10
262.0255664026
 20
100.3968574635
 30
0.0
 11
267.0255664026
 21
100.3968574635
 31
0.0
  0
LINE
  5
555
330
542
100
AcDbEntity
  8
ﾚｲﾔｰ0
100
AcDbLine
 10
267.0255664026
 20
100.3968574635
 30
0.0
 11
279.0255664026
 21
100.3968574635
 31
0.0
  0
LINE
  5
556
330
542
100
AcDbEntity
  8
ﾚｲﾔｰ0
100
AcDbLine
 10
264.5255664026
 20
100.3968574635
 30
0.0
 11
245.5599453387
 21
81.0855020278
 31
0.0
  0
LINE
  5
557
330
542
100
AcDbEntity
  8
ﾚｲﾔｰ0
100
AcDbLine
 10
245.5599453387
 20
81.0855020278
 30
0.0
 11
225.4531714641
 21
81.0855020278
 31
0.0
  0
MTEXT
  5
558
330
542
100
AcDbEntity
  8
ﾚｲﾔｰ0
100
AcDbMText
 10
228.6281714641
 20
89.0903512111
 30
0.1
 40
6.8791666667
 41
0.0
 71
     1
 72
     1
  1
2.5
  7
SLDTEXTSTYLE1
 73
     1
 44
1.0
  0
SOLID
  5
559
330
542
100
AcDbEntity
  8
ﾚｲﾔｰ0
100
AcDbTrace
 10
262.0255664026
 20
100.3968574635
 30
0.0
 11
256.0255664026
 21
101.8968574635
 31
0.0
 12
256.0255664026
 22
98.8968574635
 32
0.0
 13
256.0255664026
 23
98.8968574635
 33
0.0
  0
SOLID
  5
55A
330
542
100
AcDbEntity
  8
ﾚｲﾔｰ0
100
AcDbTrace
 10
267.0255664026
 20
100.3968574635
 30
0.0
 11
273.0255664026
 21
98.8968574635
 31
0.0
 12
273.0255664026
 22
101.8968574635
 32
0.0
 13
273.0255664026
 23
101.8968574635
 33
0.0
  0
ENDBLK
  5
54E
330
542
100
AcDbEntity
  8
0
100
AcDbBlockEnd
  0
BLOCK
  5
566
330
55C
100
AcDbEntity
  8
0
100
AcDbBlockBegin
  2
*D28
 70
     1
 71
     0
 10
0.0
 20
0.0
 30
0.0
  3
*D28
  1

  0
LINE
  5
568
330
55C
100
AcDbEntity
  8
ﾚｲﾔｰ0
100
AcDbLine
 10
295.0255664026
 20
143.5859582462
 30
0.0
 11
295.0255664026
 21
99.3968574635
 31
0.0
  0
LINE
  5
569
330
55C
100
AcDbEntity
  8
ﾚｲﾔｰ0
100
AcDbLine
 10
267.0255664026
 20
149.5859582462
 30
0.0
 11
267.0255664026
 21
99.3968574635
 31
0.0
  0
LINE
  5
56A
330
55C
100
AcDbEntity
  8
ﾚｲﾔｰ0
100
AcDbLine
 10
295.0255664026
 20
100.3968574635
 30
0.0
 11
267.0255664026
 21
100.3968574635
 31
0.0
  0
MTEXT
  5
56B
330
55C
100
AcDbEntity
  8
ﾚｲﾔｰ0
100
AcDbMText
 10
277.8981203333
 20
108.4017066468
 30
0.1
 40
6.8791666667
 41
0.0
 71
     1
 72
     1
  1
14
  7
SLDTEXTSTYLE1
 73
     1
 44
1.0
  0
SOLID
  5
56C
330
55C
100
AcDbEntity
  8
ﾚｲﾔｰ0
100
AcDbTrace
 10
295.0255664026
 20
100.3968574635
 30
0.0
 11
289.0255664026
 21
101.8968574635
 31
0.0
 12
289.0255664026
 22
98.8968574635
 32
0.0
 13
289.0255664026
 23
98.8968574635
 33
0.0
  0
SOLID
  5
56D
330
55C
100
AcDbEntity
  8
ﾚｲﾔｰ0
100
AcDbTrace
 10
267.0255664026
 20
100.3968574635
 30
0.0
 11
273.0255664026
 21
98.8968574635
 31
0.0
 12
273.0255664026
 22
101.8968574635
 32
0.0
 13
273.0255664026
 23
101.8968574635
 33
0.0
  0
ENDBLK
  5
567
330
55C
100
AcDbEntity
  8
0
100
AcDbBlockEnd
  0
BLOCK
  5
57A
330
56F
100
AcDbEntity
  8
0
100
AcDbBlockBegin
  2
*D29
 70
     1
 71
     0
 10
0.0
 20
0.0
 30
0.0
  3
*D29
  1

  0
ARC
  5
57C
330
56F
100
AcDbEntity
  8
ﾚｲﾔｰ0
100
AcDbCircle
 10
317.6935333261
 20
243.2332690666
 30
0.0
 40
10.24897516383942
100
AcDbArc
 50
243.4349488229
 51
296.5650511771
  0
ARC
  5
57D
330
56F
100
AcDbEntity
  8
ﾚｲﾔｰ0
100
AcDbCircle
 10
317.6935333261
 20
237.2413070002
 30
0.0
 40
10.24897516383945
100
AcDbArc
 50
63.4349488229
 51
116.5650511771
  0
LINE
  5
57E
330
56F
100
AcDbEntity
  8
ﾚｲﾔｰ0
100
AcDbLine
 10
296.0255664026
 20
224.5859582462
 30
0.0
 11
323.2770143593
 21
224.5859582462
 31
0.0
  0
LINE
  5
57F
330
56F
100
AcDbEntity
  8
ﾚｲﾔｰ0
100
AcDbLine
 10
322.2770143593
 20
224.5859582462
 30
0.0
 11
322.2770143593
 21
252.5859582462
 31
0.0
  0
MTEXT
  5
580
330
56F
100
AcDbEntity
  8
ﾚｲﾔｰ0
100
AcDbMText
 10
314.272165176
 20
235.6538070002
 30
0.1
 40
6.8791666667
 41
0.0
 71
     1
 72
     1
  1
14
  7
SLDTEXTSTYLE1
 11
-3.235728200136345E-14
 21
1.0
 31
0.0
 73
     1
 44
1.0
  0
SOLID
  5
581
330
56F
100
AcDbEntity
  8
ﾚｲﾔｰ0
100
AcDbTrace
 10
322.2770143593
 20
224.5859582462
 30
0.0
 11
323.7770143593
 21
230.5859582462
 31
0.0
 12
320.7770143593
 22
230.5859582462
 32
0.0
 13
320.7770143593
 23
230.5859582462
 33
0.0
  0
SOLID
  5
582
330
56F
100
AcDbEntity
  8
ﾚｲﾔｰ0
100
AcDbTrace
 10
322.2770143593
 20
252.5859582462
 30
0.0
 11
320.7770143593
 21
246.5859582462
 31
0.0
 12
323.7770143593
 22
246.5859582462
 32
0.0
 13
323.7770143593
 23
246.5859582462
 33
0.0
  0
ENDBLK
  5
57B
330
56F
100
AcDbEntity
  8
0
100
AcDbBlockEnd
  0
BLOCK
  5
58F
330
584
100
AcDbEntity
  8
0
100
AcDbBlockBegin
  2
*D30
 70
     1
 71
     0
 10
0.0
 20
0.0
 30
0.0
  3
*D30
  1

  0
LINE
  5
591
330
584
100
AcDbEntity
  8
ﾚｲﾔｰ0
100
AcDbLine
 10
296.0255664026
 20
224.5859582462
 30
0.0
 11
323.2770143593
 21
224.5859582462
 31
0.0
  0
LINE
  5
592
330
584
100
AcDbEntity
  8
ﾚｲﾔｰ0
100
AcDbLine
 10
296.0255664026
 20
144.5859582462
 30
0.0
 11
323.2770143593
 21
144.5859582462
 31
0.0
  0
LINE
  5
593
330
584
100
AcDbEntity
  8
ﾚｲﾔｰ0
100
AcDbLine
 10
322.2770143593
 20
224.5859582462
 30
0.0
 11
322.2770143593
 21
144.5859582462
 31
0.0
  0
MTEXT
  5
594
330
584
100
AcDbEntity
  8
ﾚｲﾔｰ0
100
AcDbMText
 10
314.272165176
 20
183.0548001692
 30
0.1
 40
6.8791666667
 41
0.0
 71
     1
 72
     1
  1
40
  7
SLDTEXTSTYLE1
 11
-3.901862014911439E-14
 21
1.0
 31
0.0
 73
     1
 44
1.0
  0
SOLID
  5
595
330
584
100
AcDbEntity
  8
ﾚｲﾔｰ0
100
AcDbTrace
 10
322.2770143593
 20
224.5859582462
 30
0.0
 11
320.7770143593
 21
218.5859582462
 31
0.0
 12
323.7770143593
 22
218.5859582462
 32
0.0
 13
323.7770143593
 23
218.5859582462
 33
0.0
  0
SOLID
  5
596
330
584
100
AcDbEntity
  8
ﾚｲﾔｰ0
100
AcDbTrace
 10
322.2770143593
 20
144.5859582462
 30
0.0
 11
323.7770143593
 21
150.5859582462
 31
0.0
 12
320.7770143593
 22
150.5859582462
 32
0.0
 13
320.7770143593
 23
150.5859582462
 33
0.0
  0
ENDBLK
  5
590
330
584
100
AcDbEntity
  8
0
100
AcDbBlockEnd
  0
BLOCK
  5
5A3
330
598
100
AcDbEntity
  8
0
100
AcDbBlockBegin
  2
*D31
 70
     1
 71
     0
 10
0.0
 20
0.0
 30
0.0
  3
*D31
  1

  0
ARC
  5
5A5
330
598
100
AcDbEntity
  8
ﾚｲﾔｰ0
100
AcDbCircle
 10
317.6935333261
 20
121.9127236711
 30
0.0
 40
10.2489751638393
100
AcDbArc
 50
243.4349488229
 51
296.5650511771
  0
ARC
  5
5A6
330
598
100
AcDbEntity
  8
ﾚｲﾔｰ0
100
AcDbCircle
 10
317.6935333261
 20
111.3372805714
 30
0.0
 40
10.24897516383928
100
AcDbArc
 50
63.4349488229
 51
116.5650511771
  0
LINE
  5
5A7
330
598
100
AcDbEntity
  8
ﾚｲﾔｰ0
100
AcDbLine
 10
296.0255664026
 20
144.5859582462
 30
0.0
 11
323.2770143593
 21
144.5859582462
 31
0.0
  0
LINE
  5
5A8
330
598
100
AcDbEntity
  8
ﾚｲﾔｰ0
100
AcDbLine
 10
279.0255664026
 20
132.5859582462
 30
0.0
 11
323.2770143593
 21
132.5859582462
 31
0.0
  0
LINE
  5
5A9
330
598
100
AcDbEntity
  8
ﾚｲﾔｰ0
100
AcDbLine
 10
322.2770143593
 20
144.5859582462
 30
0.0
 11
322.2770143593
 21
156.5859582462
 31
0.0
  0
LINE
  5
5AA
330
598
100
AcDbEntity
  8
ﾚｲﾔｰ0
100
AcDbLine
 10
322.2770143593
 20
144.5859582462
 30
0.0
 11
322.2770143593
 21
132.5859582462
 31
0.0
  0
LINE
  5
5AB
330
598
100
AcDbEntity
  8
ﾚｲﾔｰ0
100
AcDbLine
 10
322.2770143593
 20
132.5859582462
 30
0.0
 11
322.2770143593
 21
111.1582616046
 31
0.0
  0
MTEXT
  5
5AC
330
598
100
AcDbEntity
  8
ﾚｲﾔｰ0
100
AcDbMText
 10
314.272165176
 20
114.3332616046
 30
0.1
 40
6.8791666667
 41
0.0
 71
     1
 72
     1
  1
6
  7
SLDTEXTSTYLE1
 11
-7.044197039909883E-15
 21
1.0
 31
0.0
 73
     1
 44
1.0
  0
SOLID
  5
5AD
330
598
100
AcDbEntity
  8
ﾚｲﾔｰ0
100
AcDbTrace
 10
322.2770143593
 20
144.5859582462
 30
0.0
 11
323.7770143593
 21
150.5859582462
 31
0.0
 12
320.7770143593
 22
150.5859582462
 32
0.0
 13
320.7770143593
 23
150.5859582462
 33
0.0
  0
SOLID
  5
5AE
330
598
100
AcDbEntity
  8
ﾚｲﾔｰ0
100
AcDbTrace
 10
322.2770143593
 20
132.5859582462
 30
0.0
 11
320.7770143593
 21
126.5859582462
 31
0.0
 12
323.7770143593
 22
126.5859582462
 32
0.0
 13
323.7770143593
 23
126.5859582462
 33
0.0
  0
ENDBLK
  5
5A4
330
598
100
AcDbEntity
  8
0
100
AcDbBlockEnd
  0
BLOCK
  5
5BA
330
5B0
100
AcDbEntity
  8
0
100
AcDbBlockBegin
  2
*D32
 70
     1
 71
     0
 10
0.0
 20
0.0
 30
0.0
  3
*D32
  1

  0
LINE
  5
5BC
330
5B0
100
AcDbEntity
  8
ﾚｲﾔｰ0
100
AcDbLine
 10
194.0255664026
 20
147.5859582462
 30
0.0
 11
194.0255664026
 21
62.4137447719
 31
0.0
  0
LINE
  5
5BD
330
5B0
100
AcDbEntity
  8
ﾚｲﾔｰ0
100
AcDbLine
 10
294.0255664026
 20
147.5859582462
 30
0.0
 11
294.0255664026
 21
62.4137447719
 31
0.0
  0
LINE
  5
5BE
330
5B0
100
AcDbEntity
  8
ﾚｲﾔｰ0
100
AcDbLine
 10
194.0255664026
 20
63.4137447719
 30
0.0
 11
294.0255664026
 21
63.4137447719
 31
0.0
  0
MTEXT
  5
5BF
330
5B0
100
AcDbEntity
  8
ﾚｲﾔｰ0
100
AcDbMText
 10
238.6759112627
 20
71.4185939552
 30
0.1
 40
6.8791666667
 41
0.0
 71
     1
 72
     1
  1
50
  7
SLDTEXTSTYLE1
 73
     1
 44
1.0
  0
SOLID
  5
5C0
330
5B0
100
AcDbEntity
  8
ﾚｲﾔｰ0
100
AcDbTrace
 10
194.0255664026
 20
63.4137447719
 30
0.0
 11
200.0255664026
 21
61.9137447719
 31
0.0
 12
200.0255664026
 22
64.9137447719
 32
0.0
 13
200.0255664026
 23
64.9137447719
 33
0.0
  0
SOLID
  5
5C1
330
5B0
100
AcDbEntity
  8
ﾚｲﾔｰ0
100
AcDbTrace
 10
294.0255664026
 20
63.4137447719
 30
0.0
 11
288.0255664026
 21
64.9137447719
 31
0.0
 12
288.0255664026
 22
61.9137447719
 32
0.0
 13
288.0255664026
 23
61.9137447719
 33
0.0
  0
ENDBLK
  5
5BB
330
5B0
100
AcDbEntity
  8
0
100
AcDbBlockEnd
  0
BLOCK
  5
5CD
330
5C3
100
AcDbEntity
  8
0
100
AcDbBlockBegin
  2
*D33
 70
     1
 71
     0
 10
0.0
 20
0.0
 30
0.0
  3
*D33
  1

  0
LINE
  5
5CF
330
5C3
100
AcDbEntity
  8
ﾚｲﾔｰ0
100
AcDbLine
 10
294.0255664026
 20
147.5859582462
 30
0.0
 11
294.0255664026
 21
62.4137447719
 31
0.0
  0
LINE
  5
5D0
330
5C3
100
AcDbEntity
  8
ﾚｲﾔｰ0
100
AcDbLine
 10
354.0255664026
 20
147.5859582462
 30
0.0
 11
354.0255664026
 21
62.4137447719
 31
0.0
  0
LINE
  5
5D1
330
5C3
100
AcDbEntity
  8
ﾚｲﾔｰ0
100
AcDbLine
 10
294.0255664026
 20
63.4137447719
 30
0.0
 11
354.0255664026
 21
63.4137447719
 31
0.0
  0
MTEXT
  5
5D2
330
5C3
100
AcDbEntity
  8
ﾚｲﾔｰ0
100
AcDbMText
 10
317.6935333261
 20
71.4185939552
 30
0.1
 40
6.8791666667
 41
0.0
 71
     1
 72
     1
  1
30
  7
SLDTEXTSTYLE1
 73
     1
 44
1.0
  0
SOLID
  5
5D3
330
5C3
100
AcDbEntity
  8
ﾚｲﾔｰ0
100
AcDbTrace
 10
294.0255664026
 20
63.4137447719
 30
0.0
 11
300.0255664026
 21
61.9137447719
 31
0.0
 12
300.0255664026
 22
64.9137447719
 32
0.0
 13
300.0255664026
 23
64.9137447719
 33
0.0
  0
SOLID
  5
5D4
330
5C3
100
AcDbEntity
  8
ﾚｲﾔｰ0
100
AcDbTrace
 10
354.0255664026
 20
63.4137447719
 30
0.0
 11
348.0255664026
 21
64.9137447719
 31
0.0
 12
348.0255664026
 22
61.9137447719
 32
0.0
 13
348.0255664026
 23
61.9137447719
 33
0.0
  0
ENDBLK
  5
5CE
330
5C3
100
AcDbEntity
  8
0
100
AcDbBlockEnd
  0
BLOCK
  5
5E0
330
5D6
100
AcDbEntity
  8
0
100
AcDbBlockBegin
  2
*D34
 70
     1
 71
     0
 10
0.0
 20
0.0
 30
0.0
  3
*D34
  1

  0
LINE
  5
5E2
330
5D6
100
AcDbEntity
  8
ﾚｲﾔｰ0
100
AcDbLine
 10
354.0255664026
 20
147.5859582462
 30
0.0
 11
354.0255664026
 21
62.4137447719
 31
0.0
  0
LINE
  5
5E3
330
5D6
100
AcDbEntity
  8
ﾚｲﾔｰ0
100
AcDbLine
 10
454.0255664026
 20
147.5859582462
 30
0.0
 11
454.0255664026
 21
62.4137447719
 31
0.0
  0
LINE
  5
5E4
330
5D6
100
AcDbEntity
  8
ﾚｲﾔｰ0
100
AcDbLine
 10
354.0255664026
 20
63.4137447719
 30
0.0
 11
454.0255664026
 21
63.4137447719
 31
0.0
  0
MTEXT
  5
5E5
330
5D6
100
AcDbEntity
  8
ﾚｲﾔｰ0
100
AcDbMText
 10
397.3024905784
 20
71.4185939552
 30
0.1
 40
6.8791666667
 41
0.0
 71
     1
 72
     1
  1
50
  7
SLDTEXTSTYLE1
 73
     1
 44
1.0
  0
SOLID
  5
5E6
330
5D6
100
AcDbEntity
  8
ﾚｲﾔｰ0
100
AcDbTrace
 10
354.0255664026
 20
63.4137447719
 30
0.0
 11
360.0255664026
 21
61.9137447719
 31
0.0
 12
360.0255664026
 22
64.9137447719
 32
0.0
 13
360.0255664026
 23
64.9137447719
 33
0.0
  0
SOLID
  5
5E7
330
5D6
100
AcDbEntity
  8
ﾚｲﾔｰ0
100
AcDbTrace
 10
454.0255664026
 20
63.4137447719
 30
0.0
 11
448.0255664026
 21
64.9137447719
 31
0.0
 12
448.0255664026
 22
61.9137447719
 32
0.0
 13
448.0255664026
 23
61.9137447719
 33
0.0
  0
ENDBLK
  5
5E1
330
5D6
100
AcDbEntity
  8
0
100
AcDbBlockEnd
  0
BLOCK
  5
5F4
330
5E9
100
AcDbEntity
  8
0
100
AcDbBlockBegin
  2
*D35
 70
     1
 71
     0
 10
0.0
 20
0.0
 30
0.0
  3
*D35
  1

  0
LINE
  5
5F6
330
5E9
100
AcDbEntity
  8
ﾚｲﾔｰ0
100
AcDbLine
 10
439.0255664026
 20
132.5859582462
 30
0.0
 11
496.2238338521
 21
132.5859582462
 31
0.0
  0
LINE
  5
5F7
330
5E9
100
AcDbEntity
  8
ﾚｲﾔｰ0
100
AcDbLine
 10
339.0255664026
 20
252.5859582462
 30
0.0
 11
496.2238338521
 21
252.5859582462
 31
0.0
  0
LINE
  5
5F8
330
5E9
100
AcDbEntity
  8
ﾚｲﾔｰ0
100
AcDbLine
 10
495.2238338521
 20
132.5859582462
 30
0.0
 11
495.2238338521
 21
252.5859582462
 31
0.0
  0
MTEXT
  5
5F9
330
5E9
100
AcDbEntity
  8
ﾚｲﾔｰ0
100
AcDbMText
 10
487.2189846688
 20
190.5011384886
 30
0.1
 40
6.8791666667
 41
0.0
 71
     1
 72
     1
  1
60
  7
SLDTEXTSTYLE1
 11
6.123031769111886E-17
 21
1.0
 31
0.0
 73
     1
 44
1.0
  0
SOLID
  5
5FA
330
5E9
100
AcDbEntity
  8
ﾚｲﾔｰ0
100
AcDbTrace
 10
495.2238338521
 20
132.5859582462
 30
0.0
 11
496.7238338521
 21
138.5859582462
 31
0.0
 12
493.7238338521
 22
138.5859582462
 32
0.0
 13
493.7238338521
 23
138.5859582462
 33
0.0
  0
SOLID
  5
5FB
330
5E9
100
AcDbEntity
  8
ﾚｲﾔｰ0
100
AcDbTrace
 10
495.2238338521
 20
252.5859582462
 30
0.0
 11
493.7238338521
 21
246.5859582462
 31
0.0
 12
496.7238338521
 22
246.5859582462
 32
0.0
 13
496.7238338521
 23
246.5859582462
 33
0.0
  0
ENDBLK
  5
5F5
330
5E9
100
AcDbEntity
  8
0
100
AcDbBlockEnd
  0
BLOCK
  5
608
330
5FD
100
AcDbEntity
  8
0
100
AcDbBlockBegin
  2
*D36
 70
     1
 71
     0
 10
0.0
 20
0.0
 30
0.0
  3
*D36
  1

  0
LINE
  5
60A
330
5FD
100
AcDbEntity
  8
ﾚｲﾔｰ0
100
AcDbLine
 10
339.0255664026
 20
252.5859582462
 30
0.0
 11
496.2238338521
 21
252.5859582462
 31
0.0
  0
LINE
  5
60B
330
5FD
100
AcDbEntity
  8
ﾚｲﾔｰ0
100
AcDbLine
 10
439.0255664026
 20
362.5859582462
 30
0.0
 11
496.2238338521
 21
362.5859582462
 31
0.0
  0
LINE
  5
60C
330
5FD
100
AcDbEntity
  8
ﾚｲﾔｰ0
100
AcDbLine
 10
495.2238338521
 20
252.5859582462
 30
0.0
 11
495.2238338521
 21
362.5859582462
 31
0.0
  0
MTEXT
  5
60D
330
5FD
100
AcDbEntity
  8
ﾚｲﾔｰ0
100
AcDbMText
 10
487.2189846688
 20
302.8138772583
 30
0.1
 40
6.8791666667
 41
0.0
 71
     1
 72
     1
  1
55
  7
SLDTEXTSTYLE1
 11
6.123031769111886E-17
 21
1.0
 31
0.0
 73
     1
 44
1.0
  0
SOLID
  5
60E
330
5FD
100
AcDbEntity
  8
ﾚｲﾔｰ0
100
AcDbTrace
 10
495.2238338521
 20
252.5859582462
 30
0.0
 11
496.7238338521
 21
258.5859582462
 31
0.0
 12
493.7238338521
 22
258.5859582462
 32
0.0
 13
493.7238338521
 23
258.5859582462
 33
0.0
  0
SOLID
  5
60F
330
5FD
100
AcDbEntity
  8
ﾚｲﾔｰ0
100
AcDbTrace
 10
495.2238338521
 20
362.5859582462
 30
0.0
 11
493.7238338521
 21
356.5859582462
 31
0.0
 12
496.7238338521
 22
356.5859582462
 32
0.0
 13
496.7238338521
 23
356.5859582462
 33
0.0
  0
ENDBLK
  5
609
330
5FD
100
AcDbEntity
  8
0
100
AcDbBlockEnd
  0
BLOCK
  5
618
330
611
100
AcDbEntity
  8
0
100
AcDbBlockBegin
  2
*D37
 70
     1
 71
     0
 10
0.0
 20
0.0
 30
0.0
  3
*D37
  1

  0
LINE
  5
61A
330
611
100
AcDbEntity
  8
ﾚｲﾔｰ0
100
AcDbLine
 10
386.0213265585
 20
345.7445051084
 30
0.0
 11
379.8586261393
 21
344.9661712846
 31
0.0
  0
LINE
  5
61B
330
611
100
AcDbEntity
  8
ﾚｲﾔｰ0
100
AcDbLine
 10
379.8586261393
 20
344.9661712846
 30
0.0
 11
384.8065156948
 21
348.7215765815
 31
0.0
  0
LINE
  5
61C
330
611
100
AcDbEntity
  8
ﾚｲﾔｰ0
100
AcDbLine
 10
379.8586261393
 20
344.9661712846
 30
0.0
 11
385.4139211266
 21
347.2330408449
 31
0.0
  0
LINE
  5
61D
330
611
100
AcDbEntity
  8
ﾚｲﾔｰ0
100
AcDbLine
 10
379.8586261393
 20
344.9661712846
 30
0.0
 11
480.256047223
 21
385.9339071669
 31
0.0
  0
LINE
  5
61E
330
611
100
AcDbEntity
  8
ﾚｲﾔｰ0
100
AcDbLine
 10
480.256047223
 20
385.9339071669
 30
0.0
 11
518.0722602119
 21
385.9339071669
 31
0.0
  0
MTEXT
  5
61F
330
611
100
AcDbEntity
  8
ﾚｲﾔｰ0
100
AcDbMText
 10
484.843547223
 20
393.9387563502
 30
0.1
 40
6.8791666667
 41
0.0
 71
     1
 72
     1
  1
4-
  7
SLDTEXTSTYLE1
 73
     1
 44
1.0
  0
MTEXT
  5
620
330
611
100
AcDbEntity
  8
ﾚｲﾔｰ0
100
AcDbMText
 10
490.5761864667
 20
393.9387563502
 30
0.1
 40
6.8791666667
 41
0.0
 71
     1
 72
     1
  1
%%c
  7
SLDTEXTSTYLE1
 73
     1
 44
1.0
  0
MTEXT
  5
621
330
611
100
AcDbEntity
  8
ﾚｲﾔｰ0
100
AcDbMText
 10
502.7279863374
 20
393.9387563502
 30
0.1
 40
6.8791666667
 41
0.0
 71
     1
 72
     1
  1
6.3
  7
SLDTEXTSTYLE1
 73
     1
 44
1.0
  0
ENDBLK
  5
619
330
611
100
AcDbEntity
  8
0
100
AcDbBlockEnd
  0
BLOCK
  5
62D
330
623
100
AcDbEntity
  8
0
100
AcDbBlockBegin
  2
*D38
 70
     1
 71
     0
 10
0.0
 20
0.0
 30
0.0
  3
*D38
  1

  0
ARC
  5
62F
330
623
100
AcDbEntity
  8
ﾚｲﾔｰ0
100
AcDbCircle
 10
319.4246224988
 20
569.1403282378
 30
0.0
 40
10.24897516383935
100
AcDbArc
 50
153.4349488229
 51
206.5650511771
  0
ARC
  5
630
330
623
100
AcDbEntity
  8
ﾚｲﾔｰ0
100
AcDbCircle
 10
318.0224722405
 20
569.1403282378
 30
0.0
 40
10.2489751638393
100
AcDbArc
 50
333.4349488229
 51
26.5650511771
  0
LINE
  5
631
330
623
100
AcDbEntity
  8
ﾚｲﾔｰ0
100
AcDbLine
 10
179.0255664026
 20
496.3365290211
 30
0.0
 11
179.0255664026
 21
565.5568472046
 31
0.0
  0
LINE
  5
632
330
623
100
AcDbEntity
  8
ﾚｲﾔｰ0
100
AcDbLine
 10
469.0255664026
 20
496.3365290208
 30
0.0
 11
469.0255664026
 21
565.5568472046
 31
0.0
  0
LINE
  5
633
330
623
100
AcDbEntity
  8
ﾚｲﾔｰ0
100
AcDbLine
 10
179.0255664026
 20
564.5568472046
 30
0.0
 11
469.0255664026
 21
564.5568472046
 31
0.0
  0
MTEXT
  5
634
330
623
100
AcDbEntity
  8
ﾚｲﾔｰ0
100
AcDbMText
 10
311.8451604324
 20
572.5616963879
 30
0.1
 40
6.8791666667
 41
0.0
 71
     1
 72
     1
  1
145
  7
SLDTEXTSTYLE1
 73
     1
 44
1.0
  0
SOLID
  5
635
330
623
100
AcDbEntity
  8
ﾚｲﾔｰ0
100
AcDbTrace
 10
179.0255664026
 20
564.5568472046
 30
0.0
 11
185.0255664026
 21
563.0568472046
 31
0.0
 12
185.0255664026
 22
566.0568472046
 32
0.0
 13
185.0255664026
 23
566.0568472046
 33
0.0
  0
SOLID
  5
636
330
623
100
AcDbEntity
  8
ﾚｲﾔｰ0
100
AcDbTrace
 10
469.0255664026
 20
564.5568472046
 30
0.0
 11
463.0255664026
 21
566.0568472046
 31
0.0
 12
463.0255664026
 22
563.0568472046
 32
0.0
 13
463.0255664026
 23
563.0568472046
 33
0.0
  0
ENDBLK
  5
62E
330
623
100
AcDbEntity
  8
0
100
AcDbBlockEnd
  0
BLOCK
  5
644
330
638
100
AcDbEntity
  8
0
100
AcDbBlockBegin
  2
*D39
 70
     1
 71
     0
 10
0.0
 20
0.0
 30
0.0
  3
*D39
  1

  0
ARC
  5
646
330
638
100
AcDbEntity
  8
ﾚｲﾔｰ0
100
AcDbCircle
 10
156.7847633024
 20
544.0264895811
 30
0.0
 40
10.24897516383927
100
AcDbArc
 50
153.4349488229
 51
206.5650511771
  0
ARC
  5
647
330
638
100
AcDbEntity
  8
ﾚｲﾔｰ0
100
AcDbCircle
 10
155.3826130441
 20
544.0264895811
 30
0.0
 40
10.24897516383927
100
AcDbArc
 50
333.4349488229
 51
26.5650511771
  0
LINE
  5
648
330
638
100
AcDbEntity
  8
ﾚｲﾔｰ0
100
AcDbLine
 10
179.0255664026
 20
496.3365290211
 30
0.0
 11
179.0255664026
 21
540.4430085479
 31
0.0
  0
LINE
  5
649
330
638
100
AcDbEntity
  8
ﾚｲﾔｰ0
100
AcDbLine
 10
194.0255664026
 20
517.3365290208
 30
0.0
 11
194.0255664026
 21
540.4430085479
 31
0.0
  0
LINE
  5
64A
330
638
100
AcDbEntity
  8
ﾚｲﾔｰ0
100
AcDbLine
 10
179.0255664026
 20
539.4430085479
 30
0.0
 11
146.030301236
 21
539.4430085478
 31
0.0
  0
LINE
  5
64B
330
638
100
AcDbEntity
  8
ﾚｲﾔｰ0
100
AcDbLine
 10
179.0255664026
 20
539.4430085479
 30
0.0
 11
194.0255664026
 21
539.4430085479
 31
0.0
  0
LINE
  5
64C
330
638
100
AcDbEntity
  8
ﾚｲﾔｰ0
100
AcDbLine
 10
194.0255664026
 20
539.4430085479
 30
0.0
 11
206.0255664026
 21
539.4430085479
 31
0.0
  0
MTEXT
  5
64D
330
638
100
AcDbEntity
  8
ﾚｲﾔｰ0
100
AcDbMText
 10
149.205301236
 20
547.4478577312
 30
0.1
 40
6.8791666667
 41
0.0
 71
     1
 72
     1
  1
7.5
  7
SLDTEXTSTYLE1
 73
     1
 44
1.0
  0
SOLID
  5
64E
330
638
100
AcDbEntity
  8
ﾚｲﾔｰ0
100
AcDbTrace
 10
179.0255664026
 20
539.4430085479
 30
0.0
 11
173.0255664026
 21
540.9430085479
 31
0.0
 12
173.0255664026
 22
537.9430085479
 32
0.0
 13
173.0255664026
 23
537.9430085479
 33
0.0
  0
SOLID
  5
64F
330
638
100
AcDbEntity
  8
ﾚｲﾔｰ0
100
AcDbTrace
 10
194.0255664026
 20
539.4430085479
 30
0.0
 11
200.0255664026
 21
537.9430085479
 31
0.0
 12
200.0255664026
 22
540.9430085479
 32
0.0
 13
200.0255664026
 23
540.9430085479
 33
0.0
  0
ENDBLK
  5
645
330
638
100
AcDbEntity
  8
0
100
AcDbBlockEnd
  0
BLOCK
  5
65B
330
651
100
AcDbEntity
  8
0
100
AcDbBlockBegin
  2
*D40
 70
     1
 71
     0
 10
0.0
 20
0.0
 30
0.0
  3
*D40
  1

  0
LINE
  5
65D
330
651
100
AcDbEntity
  8
ﾚｲﾔｰ0
100
AcDbLine
 10
194.0255664026
 20
517.3365290208
 30
0.0
 11
194.0255664026
 21
540.4430085479
 31
0.0
  0
LINE
  5
65E
330
651
100
AcDbEntity
  8
ﾚｲﾔｰ0
100
AcDbLine
 10
224.0255664026
 20
521.3365290208
 30
0.0
 11
224.0255664026
 21
540.4430085479
 31
0.0
  0
LINE
  5
65F
330
651
100
AcDbEntity
  8
ﾚｲﾔｰ0
100
AcDbLine
 10
194.0255664026
 20
539.4430085479
 30
0.0
 11
224.0255664026
 21
539.4430085479
 31
0.0
  0
MTEXT
  5
660
330
651
100
AcDbEntity
  8
ﾚｲﾔｰ0
100
AcDbMText
 10
204.1972626223
 20
547.4478577312
 30
0.1
 40
6.8791666667
 41
0.0
 71
     1
 72
     1
  1
15
  7
SLDTEXTSTYLE1
 73
     1
 44
1.0
  0
SOLID
  5
661
330
651
100
AcDbEntity
  8
ﾚｲﾔｰ0
100
AcDbTrace
 10
194.0255664026
 20
539.4430085479
 30
0.0
 11
200.0255664026
 21
537.9430085479
 31
0.0
 12
200.0255664026
 22
540.9430085479
 32
0.0
 13
200.0255664026
 23
540.9430085479
 33
0.0
  0
SOLID
  5
662
330
651
100
AcDbEntity
  8
ﾚｲﾔｰ0
100
AcDbTrace
 10
224.0255664026
 20
539.4430085479
 30
0.0
 11
218.0255664026
 21
540.9430085479
 31
0.0
 12
218.0255664026
 22
537.9430085479
 32
0.0
 13
218.0255664026
 23
537.9430085479
 33
0.0
  0
ENDBLK
  5
65C
330
651
100
AcDbEntity
  8
0
100
AcDbBlockEnd
  0
BLOCK
  5
66E
330
664
100
AcDbEntity
  8
0
100
AcDbBlockBegin
  2
*D41
 70
     1
 71
     0
 10
0.0
 20
0.0
 30
0.0
  3
*D41
  1

  0
LINE
  5
670
330
664
100
AcDbEntity
  8
ﾚｲﾔｰ0
100
AcDbLine
 10
224.0255664026
 20
521.3365290208
 30
0.0
 11
224.0255664026
 21
540.4430085479
 31
0.0
  0
LINE
  5
671
330
664
100
AcDbEntity
  8
ﾚｲﾔｰ0
100
AcDbLine
 10
244.0255664026
 20
521.3365290208
 30
0.0
 11
244.0255664026
 21
540.4430085479
 31
0.0
  0
LINE
  5
672
330
664
100
AcDbEntity
  8
ﾚｲﾔｰ0
100
AcDbLine
 10
224.0255664026
 20
539.4430085479
 30
0.0
 11
244.0255664026
 21
539.4430085479
 31
0.0
  0
MTEXT
  5
673
330
664
100
AcDbEntity
  8
ﾚｲﾔｰ0
100
AcDbMText
 10
227.4773775334
 20
547.4478577312
 30
0.1
 40
6.8791666667
 41
0.0
 71
     1
 72
     1
  1
10
  7
SLDTEXTSTYLE1
 73
     1
 44
1.0
  0
SOLID
  5
674
330
664
100
AcDbEntity
  8
ﾚｲﾔｰ0
100
AcDbTrace
 10
224.0255664026
 20
539.4430085479
 30
0.0
 11
230.0255664026
 21
537.9430085479
 31
0.0
 12
230.0255664026
 22
540.9430085479
 32
0.0
 13
230.0255664026
 23
540.9430085479
 33
0.0
  0
SOLID
  5
675
330
664
100
AcDbEntity
  8
ﾚｲﾔｰ0
100
AcDbTrace
 10
244.0255664026
 20
539.4430085479
 30
0.0
 11
238.0255664026
 21
540.9430085479
 31
0.0
 12
238.0255664026
 22
537.9430085479
 32
0.0
 13
238.0255664026
 23
537.9430085479
 33
0.0
  0
ENDBLK
  5
66F
330
664
100
AcDbEntity
  8
0
100
AcDbBlockEnd
  0
BLOCK
  5
681
330
677
100
AcDbEntity
  8
0
100
AcDbBlockBegin
  2
*D42
 70
     1
 71
     0
 10
0.0
 20
0.0
 30
0.0
  3
*D42
  1

  0
LINE
  5
683
330
677
100
AcDbEntity
  8
ﾚｲﾔｰ0
100
AcDbLine
 10
244.0255664026
 20
521.3365290208
 30
0.0
 11
244.0255664026
 21
540.4430085479
 31
0.0
  0
LINE
  5
684
330
677
100
AcDbEntity
  8
ﾚｲﾔｰ0
100
AcDbLine
 10
404.0255664026
 20
521.3365290208
 30
0.0
 11
404.0255664026
 21
540.4430085479
 31
0.0
  0
LINE
  5
685
330
677
100
AcDbEntity
  8
ﾚｲﾔｰ0
100
AcDbLine
 10
244.0255664026
 20
539.4430085479
 30
0.0
 11
404.0255664026
 21
539.4430085479
 31
0.0
  0
MTEXT
  5
686
330
677
100
AcDbEntity
  8
ﾚｲﾔｰ0
100
AcDbMText
 10
314.1400663365
 20
547.4478577312
 30
0.1
 40
6.8791666667
 41
0.0
 71
     1
 72
     1
  1
80
  7
SLDTEXTSTYLE1
 73
     1
 44
1.0
  0
SOLID
  5
687
330
677
100
AcDbEntity
  8
ﾚｲﾔｰ0
100
AcDbTrace
 10
244.0255664026
 20
539.4430085479
 30
0.0
 11
250.0255664026
 21
537.9430085479
 31
0.0
 12
250.0255664026
 22
540.9430085479
 32
0.0
 13
250.0255664026
 23
540.9430085479
 33
0.0
  0
SOLID
  5
688
330
677
100
AcDbEntity
  8
ﾚｲﾔｰ0
100
AcDbTrace
 10
404.0255664026
 20
539.4430085479
 30
0.0
 11
398.0255664026
 21
540.9430085479
 31
0.0
 12
398.0255664026
 22
537.9430085479
 32
0.0
 13
398.0255664026
 23
537.9430085479
 33
0.0
  0
ENDBLK
  5
682
330
677
100
AcDbEntity
  8
0
100
AcDbBlockEnd
  0
BLOCK
  5
694
330
68A
100
AcDbEntity
  8
0
100
AcDbBlockBegin
  2
*D43
 70
     1
 71
     0
 10
0.0
 20
0.0
 30
0.0
  3
*D43
  1

  0
LINE
  5
696
330
68A
100
AcDbEntity
  8
ﾚｲﾔｰ0
100
AcDbLine
 10
404.0255664026
 20
521.3365290208
 30
0.0
 11
404.0255664026
 21
540.4430085479
 31
0.0
  0
LINE
  5
697
330
68A
100
AcDbEntity
  8
ﾚｲﾔｰ0
100
AcDbLine
 10
424.0255664026
 20
521.3365290208
 30
0.0
 11
424.0255664026
 21
540.4430085479
 31
0.0
  0
LINE
  5
698
330
68A
100
AcDbEntity
  8
ﾚｲﾔｰ0
100
AcDbLine
 10
404.0255664026
 20
539.4430085479
 30
0.0
 11
424.0255664026
 21
539.4430085479
 31
0.0
  0
MTEXT
  5
699
330
68A
100
AcDbEntity
  8
ﾚｲﾔｰ0
100
AcDbMText
 10
409.6013104355
 20
547.4478577312
 30
0.1
 40
6.8791666667
 41
0.0
 71
     1
 72
     1
  1
10
  7
SLDTEXTSTYLE1
 73
     1
 44
1.0
  0
SOLID
  5
69A
330
68A
100
AcDbEntity
  8
ﾚｲﾔｰ0
100
AcDbTrace
 10
404.0255664026
 20
539.4430085479
 30
0.0
 11
410.0255664026
 21
537.9430085479
 31
0.0
 12
410.0255664026
 22
540.9430085479
 32
0.0
 13
410.0255664026
 23
540.9430085479
 33
0.0
  0
SOLID
  5
69B
330
68A
100
AcDbEntity
  8
ﾚｲﾔｰ0
100
AcDbTrace
 10
424.0255664026
 20
539.4430085479
 30
0.0
 11
418.0255664026
 21
540.9430085479
 31
0.0
 12
418.0255664026
 22
537.9430085479
 32
0.0
 13
418.0255664026
 23
537.9430085479
 33
0.0
  0
ENDBLK
  5
695
330
68A
100
AcDbEntity
  8
0
100
AcDbBlockEnd
  0
BLOCK
  5
6A7
330
69D
100
AcDbEntity
  8
0
100
AcDbBlockBegin
  2
*D44
 70
     1
 71
     0
 10
0.0
 20
0.0
 30
0.0
  3
*D44
  1

  0
LINE
  5
6A9
330
69D
100
AcDbEntity
  8
ﾚｲﾔｰ0
100
AcDbLine
 10
424.0255664026
 20
521.3365290208
 30
0.0
 11
424.0255664026
 21
540.4430085479
 31
0.0
  0
LINE
  5
6AA
330
69D
100
AcDbEntity
  8
ﾚｲﾔｰ0
100
AcDbLine
 10
454.0255664026
 20
517.3365290208
 30
0.0
 11
454.0255664026
 21
540.4430085479
 31
0.0
  0
LINE
  5
6AB
330
69D
100
AcDbEntity
  8
ﾚｲﾔｰ0
100
AcDbLine
 10
424.0255664026
 20
539.4430085479
 30
0.0
 11
454.0255664026
 21
539.4430085479
 31
0.0
  0
MTEXT
  5
6AC
330
69D
100
AcDbEntity
  8
ﾚｲﾔｰ0
100
AcDbMText
 10
435.8416344321
 20
547.4478577312
 30
0.1
 40
6.8791666667
 41
0.0
 71
     1
 72
     1
  1
15
  7
SLDTEXTSTYLE1
 73
     1
 44
1.0
  0
SOLID
  5
6AD
330
69D
100
AcDbEntity
  8
ﾚｲﾔｰ0
100
AcDbTrace
 10
424.0255664026
 20
539.4430085479
 30
0.0
 11
430.0255664026
 21
537.9430085479
 31
0.0
 12
430.0255664026
 22
540.9430085479
 32
0.0
 13
430.0255664026
 23
540.9430085479
 33
0.0
  0
SOLID
  5
6AE
330
69D
100
AcDbEntity
  8
ﾚｲﾔｰ0
100
AcDbTrace
 10
454.0255664026
 20
539.4430085479
 30
0.0
 11
448.0255664026
 21
540.9430085479
 31
0.0
 12
448.0255664026
 22
537.9430085479
 32
0.0
 13
448.0255664026
 23
537.9430085479
 33
0.0
  0
ENDBLK
  5
6A8
330
69D
100
AcDbEntity
  8
0
100
AcDbBlockEnd
  0
BLOCK
  5
6BC
330
6B0
100
AcDbEntity
  8
0
100
AcDbBlockBegin
  2
*D45
 70
     1
 71
     0
 10
0.0
 20
0.0
 30
0.0
  3
*D45
  1

  0
ARC
  5
6BE
330
6B0
100
AcDbEntity
  8
ﾚｲﾔｰ0
100
AcDbCircle
 10
485.8325351705
 20
544.0264895811
 30
0.0
 40
10.24897516383919
100
AcDbArc
 50
153.4349488229
 51
206.5650511771
  0
ARC
  5
6BF
330
6B0
100
AcDbEntity
  8
ﾚｲﾔｰ0
100
AcDbCircle
 10
484.4303849122
 20
544.0264895811
 30
0.0
 40
10.24897516383919
100
AcDbArc
 50
333.4349488229
 51
26.5650511771
  0
LINE
  5
6C0
330
6B0
100
AcDbEntity
  8
ﾚｲﾔｰ0
100
AcDbLine
 10
454.0255664026
 20
517.3365290208
 30
0.0
 11
454.0255664026
 21
540.4430085479
 31
0.0
  0
LINE
  5
6C1
330
6B0
100
AcDbEntity
  8
ﾚｲﾔｰ0
100
AcDbLine
 10
469.0255664026
 20
496.3365290208
 30
0.0
 11
469.0255664026
 21
540.4430085479
 31
0.0
  0
LINE
  5
6C2
330
6B0
100
AcDbEntity
  8
ﾚｲﾔｰ0
100
AcDbLine
 10
454.0255664026
 20
539.4430085479
 30
0.0
 11
469.0255664026
 21
539.4430085479
 31
0.0
  0
LINE
  5
6C3
330
6B0
100
AcDbEntity
  8
ﾚｲﾔｰ0
100
AcDbLine
 10
469.0255664026
 20
539.4430085479
 30
0.0
 11
495.1848469786
 21
539.4430085479
 31
0.0
  0
MTEXT
  5
6C4
330
6B0
100
AcDbEntity
  8
ﾚｲﾔｰ0
100
AcDbMText
 10
478.2530731041
 20
547.4478577312
 30
0.1
 40
6.8791666667
 41
0.0
 71
     1
 72
     1
  1
7.5
  7
SLDTEXTSTYLE1
 73
     1
 44
1.0
  0
SOLID
  5
6C5
330
6B0
100
AcDbEntity
  8
ﾚｲﾔｰ0
100
AcDbTrace
 10
454.0255664026
 20
539.4430085479
 30
0.0
 11
460.0255664026
 21
537.9430085479
 31
0.0
 12
460.0255664026
 22
540.9430085479
 32
0.0
 13
460.0255664026
 23
540.9430085479
 33
0.0
  0
SOLID
  5
6C6
330
6B0
100
AcDbEntity
  8
ﾚｲﾔｰ0
100
AcDbTrace
 10
469.0255664026
 20
539.4430085479
 30
0.0
 11
463.0255664026
 21
540.9430085479
 31
0.0
 12
463.0255664026
 22
537.9430085479
 32
0.0
 13
463.0255664026
 23
537.9430085479
 33
0.0
  0
ENDBLK
  5
6BD
330
6B0
100
AcDbEntity
  8
0
100
AcDbBlockEnd
  0
BLOCK
  5
6D2
330
6C8
100
AcDbEntity
  8
0
100
AcDbBlockBegin
  2
*D46
 70
     1
 71
     0
 10
0.0
 20
0.0
 30
0.0
  3
*D46
  1

  0
LINE
  5
6D4
330
6C8
100
AcDbEntity
  8
ﾚｲﾔｰ0
100
AcDbLine
 10
295.0255664026
 20
504.362935892
 30
0.0
 11
295.0255664026
 21
457.677689534
 31
0.0
  0
LINE
  5
6D5
330
6C8
100
AcDbEntity
  8
ﾚｲﾔｰ0
100
AcDbLine
 10
353.0255664026
 20
501.9365290208
 30
0.0
 11
353.0255664026
 21
457.677689534
 31
0.0
  0
LINE
  5
6D6
330
6C8
100
AcDbEntity
  8
ﾚｲﾔｰ0
100
AcDbLine
 10
295.0255664026
 20
458.677689534
 30
0.0
 11
353.0255664026
 21
458.677689534
 31
0.0
  0
MTEXT
  5
6D7
330
6C8
100
AcDbEntity
  8
ﾚｲﾔｰ0
100
AcDbMText
 10
317.5876689524
 20
466.6825387173
 30
0.1
 40
6.8791666667
 41
0.0
 71
     1
 72
     1
  1
29
  7
SLDTEXTSTYLE1
 73
     1
 44
1.0
  0
SOLID
  5
6D8
330
6C8
100
AcDbEntity
  8
ﾚｲﾔｰ0
100
AcDbTrace
 10
295.0255664026
 20
458.677689534
 30
0.0
 11
301.0255664026
 21
457.177689534
 31
0.0
 12
301.0255664026
 22
460.177689534
 32
0.0
 13
301.0255664026
 23
460.177689534
 33
0.0
  0
SOLID
  5
6D9
330
6C8
100
AcDbEntity
  8
ﾚｲﾔｰ0
100
AcDbTrace
 10
353.0255664026
 20
458.677689534
 30
0.0
 11
347.0255664026
 21
460.177689534
 31
0.0
 12
347.0255664026
 22
457.177689534
 32
0.0
 13
347.0255664026
 23
457.177689534
 33
0.0
  0
ENDBLK
  5
6D3
330
6C8
100
AcDbEntity
  8
0
100
AcDbBlockEnd
  0
BLOCK
  5
6E6
330
6DB
100
AcDbEntity
  8
0
100
AcDbBlockBegin
  2
*D47
 70
     1
 71
     0
 10
0.0
 20
0.0
 30
0.0
  3
*D47
  1

  0
LINE
  5
6E8
330
6DB
100
AcDbEntity
  8
ﾚｲﾔｰ0
100
AcDbLine
 10
599.2289741294
 20
184.5859581888
 30
0.0
 11
647.5164632203
 21
184.5859580428
 31
0.0
  0
LINE
  5
6E9
330
6DB
100
AcDbEntity
  8
ﾚｲﾔｰ0
100
AcDbLine
 10
618.2289741292
 20
132.5859582432
 30
0.0
 11
647.516463063
 21
132.5859581546
 31
0.0
  0
LINE
  5
6EA
330
6DB
100
AcDbEntity
  8
ﾚｲﾔｰ0
100
AcDbLine
 10
646.5164632203
 20
184.5859580458
 30
0.0
 11
646.516463063
 21
132.5859581577
 31
0.0
  0
MTEXT
  5
6EB
330
6DB
100
AcDbEntity
  8
ﾚｲﾔｰ0
100
AcDbMText
 10
638.5116139494
 20
155.6211210132
 30
0.1
 40
6.8791666667
 41
0.0
 71
     1
 72
     1
  1
26
  7
SLDTEXTSTYLE1
 11
3.023419798022084E-9
 21
1.0
 31
0.0
 73
     1
 44
1.0
  0
SOLID
  5
6EC
330
6DB
100
AcDbEntity
  8
ﾚｲﾔｰ0
100
AcDbTrace
 10
646.5164632203
 20
184.5859580458
 30
0.0
 11
645.0164632021
 21
178.5859580503
 31
0.0
 12
648.0164632021
 22
178.5859580413
 32
0.0
 13
648.0164632021
 23
178.5859580413
 33
0.0
  0
SOLID
  5
6ED
330
6DB
100
AcDbEntity
  8
ﾚｲﾔｰ0
100
AcDbTrace
 10
646.516463063
 20
132.5859581577
 30
0.0
 11
648.0164630812
 21
138.5859581531
 31
0.0
 12
645.0164630812
 22
138.5859581622
 32
0.0
 13
645.0164630812
 23
138.5859581622
 33
0.0
  0
ENDBLK
  5
6E7
330
6DB
100
AcDbEntity
  8
0
100
AcDbBlockEnd
  0
BLOCK
  5
6FA
330
6EF
100
AcDbEntity
  8
0
100
AcDbBlockBegin
  2
*D48
 70
     1
 71
     0
 10
0.0
 20
0.0
 30
0.0
  3
*D48
  1

  0
LINE
  5
6FC
330
6EF
100
AcDbEntity
  8
ﾚｲﾔｰ0
100
AcDbLine
 10
622.2289741292
 20
134.5859582462
 30
0.0
 11
672.3259713964
 21
134.5859582462
 31
0.0
  0
LINE
  5
6FD
330
6EF
100
AcDbEntity
  8
ﾚｲﾔｰ0
100
AcDbLine
 10
622.2289741292
 20
234.5859582462
 30
0.0
 11
672.3259713964
 21
234.5859582462
 31
0.0
  0
LINE
  5
6FE
330
6EF
100
AcDbEntity
  8
ﾚｲﾔｰ0
100
AcDbLine
 10
671.3259713964
 20
134.5859582462
 30
0.0
 11
671.3259713964
 21
234.5859582462
 31
0.0
  0
MTEXT
  5
6FF
330
6EF
100
AcDbEntity
  8
ﾚｲﾔｰ0
100
AcDbMText
 10
663.3211222131
 20
174.8611477949
 30
0.1
 40
6.8791666667
 41
0.0
 71
     1
 72
     1
  1
50
  7
SLDTEXTSTYLE1
 11
6.123031769111886E-17
 21
1.0
 31
0.0
 73
     1
 44
1.0
  0
SOLID
  5
700
330
6EF
100
AcDbEntity
  8
ﾚｲﾔｰ0
100
AcDbTrace
 10
671.3259713964
 20
134.5859582462
 30
0.0
 11
672.8259713964
 21
140.5859582462
 31
0.0
 12
669.8259713964
 22
140.5859582462
 32
0.0
 13
669.8259713964
 23
140.5859582462
 33
0.0
  0
SOLID
  5
701
330
6EF
100
AcDbEntity
  8
ﾚｲﾔｰ0
100
AcDbTrace
 10
671.3259713964
 20
234.5859582462
 30
0.0
 11
669.8259713964
 21
228.5859582462
 31
0.0
 12
672.8259713964
 22
228.5859582462
 32
0.0
 13
672.8259713964
 23
228.5859582462
 33
0.0
  0
ENDBLK
  5
6FB
330
6EF
100
AcDbEntity
  8
0
100
AcDbBlockEnd
  0
BLOCK
  5
70D
330
703
100
AcDbEntity
  8
0
100
AcDbBlockBegin
  2
*D49
 70
     1
 71
     0
 10
0.0
 20
0.0
 30
0.0
  3
*D49
  1

  0
LINE
  5
70F
330
703
100
AcDbEntity
  8
ﾚｲﾔｰ0
100
AcDbLine
 10
555.2289741292
 20
167.5859582456
 30
0.0
 11
555.2289741292
 21
105.9017057367
 31
0.0
  0
LINE
  5
710
330
703
100
AcDbEntity
  8
ﾚｲﾔｰ0
100
AcDbLine
 10
580.2289741292
 20
165.585958246
 30
0.0
 11
580.2289741292
 21
105.9017057367
 31
0.0
  0
LINE
  5
711
330
703
100
AcDbEntity
  8
ﾚｲﾔｰ0
100
AcDbLine
 10
555.2289741292
 20
106.9017057367
 30
0.0
 11
580.2289741292
 21
106.9017057367
 31
0.0
  0
MTEXT
  5
712
330
703
100
AcDbEntity
  8
ﾚｲﾔｰ0
100
AcDbMText
 10
557.4670128818
 20
114.90655492
 30
0.1
 40
6.8791666667
 41
0.0
 71
     1
 72
     1
  1
12.5
  7
SLDTEXTSTYLE1
 73
     1
 44
1.0
  0
SOLID
  5
713
330
703
100
AcDbEntity
  8
ﾚｲﾔｰ0
100
AcDbTrace
 10
555.2289741292
 20
106.9017057367
 30
0.0
 11
561.2289741292
 21
105.4017057367
 31
0.0
 12
561.2289741292
 22
108.4017057367
 32
0.0
 13
561.2289741292
 23
108.4017057367
 33
0.0
  0
SOLID
  5
714
330
703
100
AcDbEntity
  8
ﾚｲﾔｰ0
100
AcDbTrace
 10
580.2289741292
 20
106.9017057367
 30
0.0
 11
574.2289741292
 21
108.4017057367
 31
0.0
 12
574.2289741292
 22
105.4017057367
 32
0.0
 13
574.2289741292
 23
105.4017057367
 33
0.0
  0
ENDBLK
  5
70E
330
703
100
AcDbEntity
  8
0
100
AcDbBlockEnd
  0
BLOCK
  5
720
330
716
100
AcDbEntity
  8
0
100
AcDbBlockBegin
  2
*D50
 70
     1
 71
     0
 10
0.0
 20
0.0
 30
0.0
  3
*D50
  1

  0
LINE
  5
722
330
716
100
AcDbEntity
  8
ﾚｲﾔｰ0
100
AcDbLine
 10
580.2289741292
 20
165.585958246
 30
0.0
 11
580.2289741292
 21
105.9017057367
 31
0.0
  0
LINE
  5
723
330
716
100
AcDbEntity
  8
ﾚｲﾔｰ0
100
AcDbLine
 10
611.2289741292
 20
131.5859582462
 30
0.0
 11
611.2289741292
 21
105.9017057367
 31
0.0
  0
LINE
  5
724
330
716
100
AcDbEntity
  8
ﾚｲﾔｰ0
100
AcDbLine
 10
580.2289741292
 20
106.9017057367
 30
0.0
 11
611.2289741292
 21
106.9017057367
 31
0.0
  0
MTEXT
  5
725
330
716
100
AcDbEntity
  8
ﾚｲﾔｰ0
100
AcDbMText
 10
587.0758794857
 20
114.90655492
 30
0.1
 40
6.8791666667
 41
0.0
 71
     1
 72
     1
  1
15.5
  7
SLDTEXTSTYLE1
 73
     1
 44
1.0
  0
SOLID
  5
726
330
716
100
AcDbEntity
  8
ﾚｲﾔｰ0
100
AcDbTrace
 10
580.2289741292
 20
106.9017057367
 30
0.0
 11
586.2289741292
 21
105.4017057367
 31
0.0
 12
586.2289741292
 22
108.4017057367
 32
0.0
 13
586.2289741292
 23
108.4017057367
 33
0.0
  0
SOLID
  5
727
330
716
100
AcDbEntity
  8
ﾚｲﾔｰ0
100
AcDbTrace
 10
611.2289741292
 20
106.9017057367
 30
0.0
 11
605.2289741292
 21
108.4017057367
 31
0.0
 12
605.2289741292
 22
105.4017057367
 32
0.0
 13
605.2289741292
 23
105.4017057367
 33
0.0
  0
ENDBLK
  5
721
330
716
100
AcDbEntity
  8
0
100
AcDbBlockEnd
  0
BLOCK
  5
733
330
729
100
AcDbEntity
  8
0
100
AcDbBlockBegin
  2
*D51
 70
     1
 71
     0
 10
0.0
 20
0.0
 30
0.0
  3
*D51
  1

  0
LINE
  5
735
330
729
100
AcDbEntity
  8
ﾚｲﾔｰ0
100
AcDbLine
 10
555.2289741292
 20
167.5859582456
 30
0.0
 11
555.2289741292
 21
81.4787010635
 31
0.0
  0
LINE
  5
736
330
729
100
AcDbEntity
  8
ﾚｲﾔｰ0
100
AcDbLine
 10
611.2289741292
 20
131.5859582462
 30
0.0
 11
611.2289741292
 21
81.4787010635
 31
0.0
  0
LINE
  5
737
330
729
100
AcDbEntity
  8
ﾚｲﾔｰ0
100
AcDbLine
 10
555.2289741292
 20
82.4787010635
 30
0.0
 11
611.2289741292
 21
82.4787010635
 31
0.0
  0
MTEXT
  5
738
330
729
100
AcDbEntity
  8
ﾚｲﾔｰ0
100
AcDbMText
 10
578.6100383993
 20
90.4835502468
 30
0.1
 40
6.8791666667
 41
0.0
 71
     1
 72
     1
  1
28
  7
SLDTEXTSTYLE1
 73
     1
 44
1.0
  0
SOLID
  5
739
330
729
100
AcDbEntity
  8
ﾚｲﾔｰ0
100
AcDbTrace
 10
555.2289741292
 20
82.4787010635
 30
0.0
 11
561.2289741292
 21
80.9787010635
 31
0.0
 12
561.2289741292
 22
83.9787010635
 32
0.0
 13
561.2289741292
 23
83.9787010635
 33
0.0
  0
SOLID
  5
73A
330
729
100
AcDbEntity
  8
ﾚｲﾔｰ0
100
AcDbTrace
 10
611.2289741292
 20
82.4787010635
 30
0.0
 11
605.2289741292
 21
83.9787010635
 31
0.0
 12
605.2289741292
 22
80.9787010635
 32
0.0
 13
605.2289741292
 23
80.9787010635
 33
0.0
  0
ENDBLK
  5
734
330
729
100
AcDbEntity
  8
0
100
AcDbBlockEnd
  0
BLOCK
  5
746
330
73C
100
AcDbEntity
  8
0
100
AcDbBlockBegin
  2
*D52
 70
     1
 71
     0
 10
0.0
 20
0.0
 30
0.0
  3
*D52
  1

  0
LINE
  5
748
330
73C
100
AcDbEntity
  8
ﾚｲﾔｰ0
100
AcDbLine
 10
555.2289741292
 20
167.5859582456
 30
0.0
 11
555.2289741292
 21
55.7742460783
 31
0.0
  0
LINE
  5
749
330
73C
100
AcDbEntity
  8
ﾚｲﾔｰ0
100
AcDbLine
 10
621.2289741292
 20
133.5859582462
 30
0.0
 11
621.2289741292
 21
55.7742460783
 31
0.0
  0
LINE
  5
74A
330
73C
100
AcDbEntity
  8
ﾚｲﾔｰ0
100
AcDbLine
 10
555.2289741292
 20
56.7742460783
 30
0.0
 11
621.2289741292
 21
56.7742460783
 31
0.0
  0
MTEXT
  5
74B
330
73C
100
AcDbEntity
  8
ﾚｲﾔｰ0
100
AcDbMText
 10
584.7706528774
 20
64.7790952616
 30
0.1
 40
6.8791666667
 41
0.0
 71
     1
 72
     1
  1
33
  7
SLDTEXTSTYLE1
 73
     1
 44
1.0
  0
SOLID
  5
74C
330
73C
100
AcDbEntity
  8
ﾚｲﾔｰ0
100
AcDbTrace
 10
555.2289741292
 20
56.7742460783
 30
0.0
 11
561.2289741292
 21
55.2742460783
 31
0.0
 12
561.2289741292
 22
58.2742460783
 32
0.0
 13
561.2289741292
 23
58.2742460783
 33
0.0
  0
SOLID
  5
74D
330
73C
100
AcDbEntity
  8
ﾚｲﾔｰ0
100
AcDbTrace
 10
621.2289741292
 20
56.7742460783
 30
0.0
 11
615.2289741292
 21
58.2742460783
 31
0.0
 12
615.2289741292
 22
55.2742460783
 32
0.0
 13
615.2289741292
 23
55.2742460783
 33
0.0
  0
ENDBLK
  5
747
330
73C
100
AcDbEntity
  8
0
100
AcDbBlockEnd
  0
BLOCK
  5
75A
330
74F
100
AcDbEntity
  8
0
100
AcDbBlockBegin
  2
*D53
 70
     1
 71
     0
 10
0.0
 20
0.0
 30
0.0
  3
*D53
  1

  0
LINE
  5
75C
330
74F
100
AcDbEntity
  8
ﾚｲﾔｰ0
100
AcDbLine
 10
611.2289741292
 20
131.5859582462
 30
0.0
 11
611.2289741292
 21
81.4787010635
 31
0.0
  0
LINE
  5
75D
330
74F
100
AcDbEntity
  8
ﾚｲﾔｰ0
100
AcDbLine
 10
617.2289741292
 20
131.5859582462
 30
0.0
 11
617.2289741292
 21
81.4787010635
 31
0.0
  0
LINE
  5
75E
330
74F
100
AcDbEntity
  8
ﾚｲﾔｰ0
100
AcDbLine
 10
611.2289741292
 20
82.4787010635
 30
0.0
 11
599.2289741292
 21
82.4787010635
 31
0.0
  0
LINE
  5
75F
330
74F
100
AcDbEntity
  8
ﾚｲﾔｰ0
100
AcDbLine
 10
611.2289741292
 20
82.4787010635
 30
0.0
 11
617.2289741292
 21
82.4787010635
 31
0.0
  0
LINE
  5
760
330
74F
100
AcDbEntity
  8
ﾚｲﾔｰ0
100
AcDbLine
 10
617.2289741292
 20
82.4787010635
 30
0.0
 11
629.2289741292
 21
82.4787010635
 31
0.0
  0
LINE
  5
761
330
74F
100
AcDbEntity
  8
ﾚｲﾔｰ0
100
AcDbLine
 10
614.2289741292
 20
82.4787010635
 30
0.0
 11
636.659923185
 21
104.679197384
 31
0.0
  0
LINE
  5
762
330
74F
100
AcDbEntity
  8
ﾚｲﾔｰ0
100
AcDbLine
 10
636.659923185
 20
104.679197384
 30
0.0
 11
644.4184042182
 21
104.679197384
 31
0.0
  0
MTEXT
  5
763
330
74F
100
AcDbEntity
  8
ﾚｲﾔｰ0
100
AcDbMText
 10
638.247423185
 20
112.6840465673
 30
0.1
 40
6.8791666667
 41
0.0
 71
     1
 72
     1
  1
3
  7
SLDTEXTSTYLE1
 73
     1
 44
1.0
  0
ENDBLK
  5
75B
330
74F
100
AcDbEntity
  8
0
100
AcDbBlockEnd
  0
BLOCK
  5
772
330
765
100
AcDbEntity
  8
0
100
AcDbBlockBegin
  2
*D54
 70
     1
 71
     0
 10
0.0
 20
0.0
 30
0.0
  3
*D54
  1

  0
LINE
  5
774
330
765
100
AcDbEntity
  8
ﾚｲﾔｰ0
100
AcDbLine
 10
621.2289741292
 20
133.5859582462
 30
0.0
 11
621.2289741292
 21
81.4787010635
 31
0.0
  0
LINE
  5
775
330
765
100
AcDbEntity
  8
ﾚｲﾔｰ0
100
AcDbLine
 10
617.2289741292
 20
133.5859582462
 30
0.0
 11
617.2289741292
 21
81.4787010635
 31
0.0
  0
LINE
  5
776
330
765
100
AcDbEntity
  8
ﾚｲﾔｰ0
100
AcDbLine
 10
621.2289741292
 20
82.4787010635
 30
0.0
 11
644.4184042182
 21
82.4787010635
 31
0.0
  0
LINE
  5
777
330
765
100
AcDbEntity
  8
ﾚｲﾔｰ0
100
AcDbLine
 10
621.2289741292
 20
82.4787010635
 30
0.0
 11
617.2289741292
 21
82.4787010635
 31
0.0
  0
LINE
  5
778
330
765
100
AcDbEntity
  8
ﾚｲﾔｰ0
100
AcDbLine
 10
617.2289741292
 20
82.4787010635
 30
0.0
 11
605.2289741292
 21
82.4787010635
 31
0.0
  0
MTEXT
  5
779
330
765
100
AcDbEntity
  8
ﾚｲﾔｰ0
100
AcDbMText
 10
638.247423185
 20
90.4835502468
 30
0.1
 40
6.8791666667
 41
0.0
 71
     1
 72
     1
  1
2
  7
SLDTEXTSTYLE1
 73
     1
 44
1.0
  0
SOLID
  5
77A
330
765
100
AcDbEntity
  8
ﾚｲﾔｰ0
100
AcDbTrace
 10
621.2289741292
 20
82.4787010635
 30
0.0
 11
627.2289741292
 21
80.9787010635
 31
0.0
 12
627.2289741292
 22
83.9787010635
 32
0.0
 13
627.2289741292
 23
83.9787010635
 33
0.0
  0
ENDBLK
  5
773
330
765
100
AcDbEntity
  8
0
100
AcDbBlockEnd
  0
ENDSEC
  0
SECTION
  2
ENTITIES
  0
LINE
  5
7C
330
1F
100
AcDbEntity
  8
SLD-0
  6
Continuous
 62
   179
370
    40
100
AcDbLine
 10
18.7069139466
 20
584.6369732938
 30
0.0
 11
823.1069139466
 21
584.6369732938
 31
0.0
  0
LINE
  5
7D
330
1F
100
AcDbEntity
  8
SLD-0
  6
Continuous
 62
   179
370
    40
100
AcDbLine
 10
18.7069139466
 20
584.6369732938
 30
0.0
 11
18.7069139466
 21
14.7369732938
 31
0.0
  0
LINE
  5
7E
330
1F
100
AcDbEntity
  8
SLD-0
  6
Continuous
 62
   179
370
    40
100
AcDbLine
 10
18.7069139466
 20
14.7369732938
 30
0.0
 11
823.1069139466
 21
14.7369732938
 31
0.0
  0
LINE
  5
7F
330
1F
100
AcDbEntity
  8
SLD-0
  6
Continuous
 62
   179
370
    40
100
AcDbLine
 10
823.1069139466
 20
584.6369732938
 30
0.0
 11
823.1069139466
 21
14.7369732938
 31
0.0
  0
LINE
  5
80
330
1F
100
AcDbEntity
  8
ﾚｲﾔｰ0
  6
Continuous
 62
   179
370
     0
100
AcDbLine
 10
754.6069139466
 20
55.4869732938
 30
0.0
 11
822.9795981037
 21
55.4869732938
 31
0.0
  0
LINE
  5
81
330
1F
100
AcDbEntity
  8
SLD-0
  6
Continuous
 62
   179
370
     0
100
AcDbLine
 10
754.6069139466
 20
55.4869732938
 30
0.0
 11
754.6069139466
 21
14.7369732938
 31
0.0
  0
LINE
  5
82
330
1F
100
AcDbEntity
  8
SLD-0
  6
Continuous
 62
   179
370
     0
100
AcDbLine
 10
754.6069139466
 20
27.4869732938
 30
0.0
 11
823.1069139466
 21
27.4869732938
 31
0.0
  0
LINE
  5
83
330
1F
100
AcDbEntity
  8
SLD-0
  6
Continuous
 62
   179
370
     0
100
AcDbLine
 10
754.6069139466
 20
39.1725805678
 30
0.0
 11
823.1069139466
 21
39.1725805678
 31
0.0
  0
LINE
  5
84
330
1F
100
AcDbEntity
  8
SLD-0
  6
Continuous
 62
   179
370
    15
100
AcDbLine
 10
286.0255664026
 20
191.5859582462
 30
0.0
 11
278.4255656189
 21
191.5859603807
 31
0.0
  0
LINE
  5
85
330
1F
100
AcDbEntity
  8
SLD-0
  6
Continuous
 62
   179
370
    15
100
AcDbLine
 10
278.4255656189
 20
177.5859618113
 30
0.0
 11
286.0255664026
 21
177.5859582462
 31
0.0
  0
LINE
  5
86
330
1F
100
AcDbEntity
  8
SLD-0
  6
Continuous
 62
   179
370
    15
100
AcDbLine
 10
362.0255664026
 20
177.5859582462
 30
0.0
 11
369.6255652941
 21
177.5859618113
 31
0.0
  0
LINE
  5
87
330
1F
100
AcDbEntity
  8
SLD-0
  6
Continuous
 62
   179
370
    15
100
AcDbLine
 10
369.6255652941
 20
191.5859603807
 30
0.0
 11
362.0255664026
 21
191.5859582462
 31
0.0
  0
LINE
  5
88
330
1F
100
AcDbEntity
  8
SLD-0
  6
Continuous
 62
   179
370
    15
100
AcDbLine
 10
278.4255664026
 20
192.1859582462
 30
0.0
 11
276.4255671538
 21
192.1859556362
 31
0.0
  0
LINE
  5
89
330
1F
100
AcDbEntity
  8
SLD-0
  6
Continuous
 62
   179
370
    15
100
AcDbLine
 10
276.4255671538
 20
176.9859591052
 30
0.0
 11
278.4255664026
 21
176.9859582462
 31
0.0
  0
LINE
  5
8A
330
1F
100
AcDbEntity
  8
SLD-0
  6
Continuous
 62
   179
370
    15
100
AcDbLine
 10
369.6255664026
 20
176.9859582462
 30
0.0
 11
371.6255693472
 21
176.9859591052
 31
0.0
  0
LINE
  5
8B
330
1F
100
AcDbEntity
  8
SLD-0
  6
Continuous
 62
   179
370
    15
100
AcDbLine
 10
371.6255693472
 20
192.1859556362
 30
0.0
 11
369.6255664026
 21
192.1859582462
 31
0.0
  0
LINE
  5
8C
330
1F
100
AcDbEntity
  8
SLD-0
  6
Continuous
 62
   179
370
    15
100
AcDbLine
 10
276.4255664026
 20
193.5859582462
 30
0.0
 11
274.8255664026
 21
193.5859582462
 31
0.0
  0
LINE
  5
8D
330
1F
100
AcDbEntity
  8
SLD-0
  6
Continuous
 62
   179
370
    15
100
AcDbLine
 10
274.8255664026
 20
175.5859582462
 30
0.0
 11
276.4255664026
 21
175.5859582462
 31
0.0
  0
LINE
  5
8E
330
1F
100
AcDbEntity
  8
SLD-0
  6
Continuous
 62
   179
370
    15
100
AcDbLine
 10
371.6255664026
 20
175.5859582462
 30
0.0
 11
373.2255664026
 21
175.5859582462
 31
0.0
  0
LINE
  5
8F
330
1F
100
AcDbEntity
  8
SLD-0
  6
Continuous
 62
   179
370
    15
100
AcDbLine
 10
373.2255664026
 20
193.5859582462
 30
0.0
 11
371.6255664026
 21
193.5859582462
 31
0.0
  0
LINE
  5
90
330
1F
100
AcDbEntity
  8
SLD-0
  6
Continuous
 62
   179
370
    15
100
AcDbLine
 10
274.8255664026
 20
193.5859582462
 30
0.0
 11
273.425566662
 21
193.5859569833
 31
0.0
  0
LINE
  5
91
330
1F
100
AcDbEntity
  8
SLD-0
  6
Continuous
 62
   179
370
    15
100
AcDbLine
 10
273.425566662
 20
175.5859577581
 30
0.0
 11
274.8255664026
 21
175.5859582462
 31
0.0
  0
LINE
  5
92
330
1F
100
AcDbEntity
  8
SLD-0
  6
Continuous
 62
   179
370
    15
100
AcDbLine
 10
373.2255664026
 20
175.5859582462
 30
0.0
 11
374.6255679763
 21
175.5859577581
 31
0.0
  0
LINE
  5
93
330
1F
100
AcDbEntity
  8
SLD-0
  6
Continuous
 62
   179
370
    15
100
AcDbLine
 10
374.6255679763
 20
193.5859569833
 30
0.0
 11
373.2255664026
 21
193.5859582462
 31
0.0
  0
LINE
  5
94
330
1F
100
AcDbEntity
  8
SLD-0
  6
Continuous
 62
   179
370
    15
100
AcDbLine
 10
462.0255664026
 20
155.5859582462
 30
0.0
 11
462.0255664026
 21
158.5859582462
 31
0.0
  0
LINE
  5
95
330
1F
100
AcDbEntity
  8
SLD-0
  6
Continuous
 62
   179
370
    15
100
AcDbLine
 10
446.0255664026
 20
158.5859582462
 30
0.0
 11
446.0255664026
 21
155.5859582462
 31
0.0
  0
LINE
  5
96
330
1F
100
AcDbEntity
  8
SLD-0
  6
Continuous
 62
   179
370
    15
100
AcDbLine
 10
446.0255664026
 20
212.7859582462
 30
0.0
 11
446.0255664026
 21
210.5859582462
 31
0.0
  0
LINE
  5
97
330
1F
100
AcDbEntity
  8
SLD-0
  6
Continuous
 62
   179
370
    15
100
AcDbLine
 10
462.0255664026
 20
210.5859582462
 30
0.0
 11
462.0255664026
 21
212.7859582462
 31
0.0
  0
LINE
  5
98
330
1F
100
AcDbEntity
  8
SLD-0
  6
Continuous
 62
   179
370
    15
100
AcDbLine
 10
386.0255672372
 20
192.5859549567
 30
0.0
 11
381.025564555
 21
192.5859549567
 31
0.0
  0
LINE
  5
99
330
1F
100
AcDbEntity
  8
SLD-0
  6
Continuous
 62
   179
370
    15
100
AcDbLine
 10
381.025564555
 20
176.5859597847
 30
0.0
 11
386.0255672372
 21
176.5859597847
 31
0.0
  0
LINE
  5
9A
330
1F
100
AcDbEntity
  8
SLD-0
  6
Continuous
 62
   179
370
    15
100
AcDbLine
 10
457.5255664026
 20
226.7859582462
 30
0.0
 11
457.0255664026
 21
231.7859582462
 31
0.0
  0
LINE
  5
9B
330
1F
100
AcDbEntity
  8
SLD-0
  6
Continuous
 62
   179
370
    15
100
AcDbLine
 10
451.0255664026
 20
231.7859582462
 30
0.0
 11
450.5255664026
 21
226.7859582462
 31
0.0
  0
LINE
  5
9C
330
1F
100
AcDbEntity
  8
SLD-0
  6
Continuous
 62
   179
370
    15
100
AcDbLine
 10
457.5255664026
 20
221.7859582462
 30
0.0
 11
457.0255621112
 21
226.7859564647
 31
0.0
  0
LINE
  5
9D
330
1F
100
AcDbEntity
  8
SLD-0
  6
Continuous
 62
   179
370
    15
100
AcDbLine
 10
451.025564853
 20
226.7859564647
 30
0.0
 11
450.5255664026
 21
221.7859582462
 31
0.0
  0
LINE
  5
9E
330
1F
100
AcDbEntity
  8
SLD-0
  6
Continuous
 62
   179
370
    15
100
AcDbLine
 10
450.8255614675
 20
221.7859575078
 30
0.0
 11
450.8255614675
 21
217.7859568522
 31
0.0
  0
LINE
  5
9F
330
1F
100
AcDbEntity
  8
SLD-0
  6
Continuous
 62
   179
370
    15
100
AcDbLine
 10
457.2255654967
 20
217.7859568522
 30
0.0
 11
457.2255654967
 21
221.7859575078
 31
0.0
  0
LINE
  5
A0
330
1F
100
AcDbEntity
  8
ﾚｲﾔｰ0
100
AcDbLine
 10
194.0255653627
 20
150.5859596566
 30
0.0
 11
194.0255653627
 21
143.4713575181
 31
0.0
  0
LINE
  5
A1
330
1F
100
AcDbEntity
  8
SLD-0
  6
Continuous
 62
   179
370
    15
100
AcDbLine
 10
262.0255655385
 20
176.5859597847
 30
0.0
 11
267.0255682207
 21
176.5859597847
 31
0.0
  0
LINE
  5
A2
330
1F
100
AcDbEntity
  8
SLD-0
  6
Continuous
 62
   179
370
    15
100
AcDbLine
 10
267.0255682207
 20
192.5859549567
 30
0.0
 11
262.0255655385
 21
192.5859549567
 31
0.0
  0
LINE
  5
A3
330
1F
100
AcDbEntity
  8
SLD-0
  6
Continuous
 62
   179
370
    15
100
AcDbLine
 10
286.4255664026
 20
191.1859582462
 30
0.0
 11
286.4255664026
 21
177.9859582462
 31
0.0
  0
LINE
  5
A4
330
1F
100
AcDbEntity
  8
SLD-0
  6
Continuous
 62
   179
370
    15
100
AcDbLine
 10
361.6255664026
 20
184.5859582462
 30
0.0
 11
361.6255664026
 21
191.1859582462
 31
0.0
  0
LINE
  5
A5
330
1F
100
AcDbEntity
  8
SLD-0
  6
Continuous
 62
   179
370
    15
100
AcDbLine
 10
361.6255664026
 20
177.9859582462
 30
0.0
 11
361.6255664026
 21
184.5859582462
 31
0.0
  0
LINE
  5
A6
330
1F
100
AcDbEntity
  8
SLD-0
  6
Continuous
 62
   179
370
    15
100
AcDbLine
 10
369.6255664026
 20
183.9896691187
 30
0.0
 11
369.6255664026
 21
185.1822473738
 31
0.0
  0
LINE
  5
A7
330
1F
100
AcDbEntity
  8
SLD-0
  6
Continuous
 62
   179
370
    15
100
AcDbLine
 10
414.0255643762
 20
150.132040076
 30
0.0
 11
410.9545691646
 21
148.3590030596
 31
0.0
  0
LINE
  5
A8
330
1F
100
AcDbEntity
  8
SLD-0
  6
Continuous
 62
   179
370
    15
100
AcDbLine
 10
410.9545691646
 20
148.3590030596
 30
0.0
 11
410.9545691646
 21
144.8129141256
 31
0.0
  0
LINE
  5
A9
330
1F
100
AcDbEntity
  8
SLD-0
  6
Continuous
 62
   179
370
    15
100
AcDbLine
 10
414.0255643762
 20
143.0398696587
 30
0.0
 11
410.9545691646
 21
144.8129141256
 31
0.0
  0
LINE
  5
AA
330
1F
100
AcDbEntity
  8
SLD-0
  6
Continuous
 62
   179
370
    15
100
AcDbLine
 10
417.0965670384
 20
144.8129141256
 30
0.0
 11
414.0255643762
 21
143.0398696587
 31
0.0
  0
LINE
  5
AB
330
1F
100
AcDbEntity
  8
SLD-0
  6
Continuous
 62
   179
370
    15
100
AcDbLine
 10
414.0255643762
 20
150.132040076
 30
0.0
 11
417.0965670384
 21
148.3590030596
 31
0.0
  0
LINE
  5
AC
330
1F
100
AcDbEntity
  8
SLD-0
  6
Continuous
 62
   179
370
    15
100
AcDbLine
 10
417.0965670384
 20
144.8129141256
 30
0.0
 11
417.0965670384
 21
148.3590030596
 31
0.0
  0
LINE
  5
AD
330
1F
100
AcDbEntity
  8
SLD-0
  6
Continuous
 62
   179
370
    15
100
AcDbLine
 10
234.0255646742
 20
226.1320450828
 30
0.0
 11
230.9545694626
 21
224.3590006158
 31
0.0
  0
LINE
  5
AE
330
1F
100
AcDbEntity
  8
SLD-0
  6
Continuous
 62
   179
370
    15
100
AcDbLine
 10
230.9545694626
 20
224.3590006158
 30
0.0
 11
230.9545694626
 21
220.8129154071
 31
0.0
  0
LINE
  5
AF
330
1F
100
AcDbEntity
  8
SLD-0
  6
Continuous
 62
   179
370
    15
100
AcDbLine
 10
234.0255646742
 20
219.0398746655
 30
0.0
 11
230.9545694626
 21
220.8129154071
 31
0.0
  0
LINE
  5
B0
330
1F
100
AcDbEntity
  8
SLD-0
  6
Continuous
 62
   179
370
    15
100
AcDbLine
 10
237.0965673364
 20
220.8129154071
 30
0.0
 11
234.0255646742
 21
219.0398746655
 31
0.0
  0
LINE
  5
B1
330
1F
100
AcDbEntity
  8
SLD-0
  6
Continuous
 62
   179
370
    15
100
AcDbLine
 10
237.0965673364
 20
220.8129154071
 30
0.0
 11
237.0965673364
 21
224.3590006158
 31
0.0
  0
LINE
  5
B2
330
1F
100
AcDbEntity
  8
SLD-0
  6
Continuous
 62
   179
370
    15
100
AcDbLine
 10
234.0255646742
 20
226.1320450828
 30
0.0
 11
237.0965673364
 21
224.3590006158
 31
0.0
  0
LINE
  5
B3
330
1F
100
AcDbEntity
  8
SLD-0
  6
Continuous
 62
   179
370
    15
100
AcDbLine
 10
234.0255646742
 20
150.132040076
 30
0.0
 11
230.9545694626
 21
148.3590030596
 31
0.0
  0
LINE
  5
B4
330
1F
100
AcDbEntity
  8
SLD-0
  6
Continuous
 62
   179
370
    15
100
AcDbLine
 10
230.9545694626
 20
148.3590030596
 30
0.0
 11
230.9545694626
 21
144.8129141256
 31
0.0
  0
LINE
  5
B5
330
1F
100
AcDbEntity
  8
SLD-0
  6
Continuous
 62
   179
370
    15
100
AcDbLine
 10
234.0255646742
 20
143.0398696587
 30
0.0
 11
230.9545694626
 21
144.8129141256
 31
0.0
  0
LINE
  5
B6
330
1F
100
AcDbEntity
  8
SLD-0
  6
Continuous
 62
   179
370
    15
100
AcDbLine
 10
237.0965673364
 20
144.8129141256
 30
0.0
 11
234.0255646742
 21
143.0398696587
 31
0.0
  0
LINE
  5
B7
330
1F
100
AcDbEntity
  8
SLD-0
  6
Continuous
 62
   179
370
    15
100
AcDbLine
 10
237.0965673364
 20
144.8129141256
 30
0.0
 11
237.0965673364
 21
148.3590030596
 31
0.0
  0
LINE
  5
B8
330
1F
100
AcDbEntity
  8
SLD-0
  6
Continuous
 62
   179
370
    15
100
AcDbLine
 10
234.0255646742
 20
150.132040076
 30
0.0
 11
237.0965673364
 21
148.3590030596
 31
0.0
  0
LINE
  5
B9
330
1F
100
AcDbEntity
  8
SLD-0
  6
Continuous
 62
   179
370
    15
100
AcDbLine
 10
414.0255643762
 20
226.1320450828
 30
0.0
 11
410.9545691646
 21
224.3590006158
 31
0.0
  0
LINE
  5
BA
330
1F
100
AcDbEntity
  8
SLD-0
  6
Continuous
 62
   179
370
    15
100
AcDbLine
 10
410.9545691646
 20
224.3590006158
 30
0.0
 11
410.9545691646
 21
220.8129154071
 31
0.0
  0
LINE
  5
BB
330
1F
100
AcDbEntity
  8
SLD-0
  6
Continuous
 62
   179
370
    15
100
AcDbLine
 10
414.0255643762
 20
219.0398746655
 30
0.0
 11
410.9545691646
 21
220.8129154071
 31
0.0
  0
LINE
  5
BC
330
1F
100
AcDbEntity
  8
SLD-0
  6
Continuous
 62
   179
370
    15
100
AcDbLine
 10
417.0965670384
 20
220.8129154071
 30
0.0
 11
414.0255643762
 21
219.0398746655
 31
0.0
  0
LINE
  5
BD
330
1F
100
AcDbEntity
  8
SLD-0
  6
Continuous
 62
   179
370
    15
100
AcDbLine
 10
417.0965670384
 20
220.8129154071
 30
0.0
 11
417.0965670384
 21
224.3590006158
 31
0.0
  0
LINE
  5
BE
330
1F
100
AcDbEntity
  8
SLD-0
  6
Continuous
 62
   179
370
    15
100
AcDbLine
 10
414.0255643762
 20
226.1320450828
 30
0.0
 11
417.0965670384
 21
224.3590006158
 31
0.0
  0
LINE
  5
BF
330
1F
100
AcDbEntity
  8
SLD-0
  6
Continuous
 62
   179
370
    15
100
AcDbLine
 10
421.0039867795
 20
146.0367464945
 30
0.0
 11
421.602138139
 21
145.9896691187
 31
0.0
  0
LINE
  5
C0
330
1F
100
AcDbEntity
  8
SLD-0
  6
Continuous
 62
   179
370
    15
100
AcDbLine
 10
421.0039867795
 20
147.1351706907
 30
0.0
 11
421.602138139
 21
147.1822473737
 31
0.0
  0
LINE
  5
C1
330
1F
100
AcDbEntity
  8
SLD-0
  6
Continuous
 62
   179
370
    15
100
AcDbLine
 10
278.4255664026
 20
192.1859582462
 30
0.0
 11
278.4255664026
 21
176.9859582462
 31
0.0
  0
LINE
  5
C2
330
1F
100
AcDbEntity
  8
SLD-0
  6
Continuous
 62
   179
370
    15
100
AcDbLine
 10
241.0039870775
 20
146.0367464945
 30
0.0
 11
241.602138139
 21
145.9896691187
 31
0.0
  0
LINE
  5
C3
330
1F
100
AcDbEntity
  8
SLD-0
  6
Continuous
 62
   179
370
    15
100
AcDbLine
 10
241.0039870775
 20
147.1351706907
 30
0.0
 11
241.602138139
 21
147.1822473737
 31
0.0
  0
LINE
  5
C4
330
1F
100
AcDbEntity
  8
SLD-0
  6
Continuous
 62
   179
370
    15
100
AcDbLine
 10
241.0039870775
 20
222.0367440507
 30
0.0
 11
241.602138139
 21
221.9896691187
 31
0.0
  0
LINE
  5
C5
330
1F
100
AcDbEntity
  8
SLD-0
  6
Continuous
 62
   179
370
    15
100
AcDbLine
 10
241.0039870775
 20
223.1351719722
 30
0.0
 11
241.602138139
 21
223.1822473737
 31
0.0
  0
LINE
  5
C6
330
1F
100
AcDbEntity
  8
SLD-0
  6
Continuous
 62
   179
370
    15
100
AcDbLine
 10
421.0039867795
 20
222.0367440507
 30
0.0
 11
421.602138139
 21
221.9896691187
 31
0.0
  0
LINE
  5
C7
330
1F
100
AcDbEntity
  8
SLD-0
  6
Continuous
 62
   179
370
    15
100
AcDbLine
 10
421.0039867795
 20
223.1351719722
 30
0.0
 11
421.602138139
 21
223.1822473737
 31
0.0
  0
LINE
  5
C8
330
1F
100
AcDbEntity
  8
SLD-0
  6
Continuous
 62
   179
370
    15
100
AcDbLine
 10
369.6255664026
 20
183.9896691187
 30
0.0
 11
371.6255693472
 21
183.9896687791
 31
0.0
  0
LINE
  5
C9
330
1F
100
AcDbEntity
  8
SLD-0
  6
Continuous
 62
   179
370
    15
100
AcDbLine
 10
369.6255652941
 20
184.0367415473
 30
0.0
 11
369.6255664026
 21
183.9896691187
 31
0.0
  0
LINE
  5
CA
330
1F
100
AcDbEntity
  8
SLD-0
  6
Continuous
 62
   179
370
    15
100
AcDbLine
 10
371.6255693472
 20
184.2642748281
 30
0.0
 11
369.7609944976
 21
184.2642748281
 31
0.0
  0
LINE
  5
CB
330
1F
100
AcDbEntity
  8
SLD-0
  6
Continuous
 62
   179
370
    15
100
AcDbLine
 10
371.6255693472
 20
184.9076399133
 30
0.0
 11
369.7609944976
 21
184.9076399133
 31
0.0
  0
LINE
  5
CC
330
1F
100
AcDbEntity
  8
SLD-0
  6
Continuous
 62
   179
370
    15
100
AcDbLine
 10
369.6255664026
 20
185.1822473738
 30
0.0
 11
371.6255693472
 21
185.1822459623
 31
0.0
  0
LINE
  5
CD
330
1F
100
AcDbEntity
  8
SLD-0
  6
Continuous
 62
   179
370
    15
100
AcDbLine
 10
369.6255652941
 20
185.1351731941
 30
0.0
 11
369.6255664026
 21
185.1822473738
 31
0.0
  0
LINE
  5
CE
330
1F
100
AcDbEntity
  8
SLD-0
  6
Continuous
 62
   179
370
    15
100
AcDbLine
 10
369.6255664026
 20
185.1822473738
 30
0.0
 11
369.6255664026
 21
192.1859582462
 31
0.0
  0
LINE
  5
CF
330
1F
100
AcDbEntity
  8
SLD-0
  6
Continuous
 62
   179
370
    15
100
AcDbLine
 10
369.6255664026
 20
176.9859582462
 30
0.0
 11
369.6255664026
 21
183.9896691187
 31
0.0
  0
LINE
  5
D0
330
1F
100
AcDbEntity
  8
SLD-0
  6
Continuous
 62
   179
370
    15
100
AcDbLine
 10
274.8255664026
 20
193.5859582462
 30
0.0
 11
274.8255664026
 21
175.5859582462
 31
0.0
  0
LINE
  5
D1
330
1F
100
AcDbEntity
  8
SLD-0
  6
Continuous
 62
   179
370
    15
100
AcDbLine
 10
276.4255664026
 20
193.5859582462
 30
0.0
 11
276.4255664026
 21
175.5859582462
 31
0.0
  0
LINE
  5
D2
330
1F
100
AcDbEntity
  8
SLD-0
  6
Continuous
 62
   179
370
    15
100
AcDbLine
 10
373.2255664026
 20
184.5859582462
 30
0.0
 11
373.2255664026
 21
193.5859582462
 31
0.0
  0
LINE
  5
D3
330
1F
100
AcDbEntity
  8
SLD-0
  6
Continuous
 62
   179
370
    15
100
AcDbLine
 10
373.2255664026
 20
175.5859582462
 30
0.0
 11
373.2255664026
 21
184.5859582462
 31
0.0
  0
LINE
  5
D4
330
1F
100
AcDbEntity
  8
SLD-0
  6
Continuous
 62
   179
370
    15
100
AcDbLine
 10
371.6255664026
 20
184.5859582462
 30
0.0
 11
371.6255664026
 21
193.5859582462
 31
0.0
  0
LINE
  5
D5
330
1F
100
AcDbEntity
  8
SLD-0
  6
Continuous
 62
   179
370
    15
100
AcDbLine
 10
371.6255664026
 20
175.5859582462
 30
0.0
 11
371.6255664026
 21
184.5859582462
 31
0.0
  0
LINE
  5
D6
330
1F
100
AcDbEntity
  8
SLD-0
  6
Continuous
 62
   179
370
    15
100
AcDbLine
 10
273.4255664026
 20
224.5859582462
 30
0.0
 11
273.4255664026
 21
218.5859582462
 31
0.0
  0
LINE
  5
D7
330
1F
100
AcDbEntity
  8
SLD-0
  6
Continuous
 62
   179
370
    15
100
AcDbLine
 10
273.4255664026
 20
218.5859582462
 30
0.0
 11
267.0255664026
 21
218.5859582462
 31
0.0
  0
LINE
  5
D8
330
1F
100
AcDbEntity
  8
SLD-0
  6
Continuous
 62
   179
370
    15
100
AcDbLine
 10
273.4255664026
 20
224.5859582462
 30
0.0
 11
267.0255664026
 21
224.5859582462
 31
0.0
  0
LINE
  5
D9
330
1F
100
AcDbEntity
  8
SLD-0
  6
Continuous
 62
   179
370
    15
100
AcDbLine
 10
267.0255664026
 20
224.5859582462
 30
0.0
 11
267.0255664026
 21
218.5859582462
 31
0.0
  0
LINE
  5
DA
330
1F
100
AcDbEntity
  8
SLD-0
  6
Continuous
 62
   179
370
    15
100
AcDbLine
 10
267.0255664026
 20
150.5859582462
 30
0.0
 11
273.4255664026
 21
150.5859582462
 31
0.0
  0
LINE
  5
DB
330
1F
100
AcDbEntity
  8
SLD-0
  6
Continuous
 62
   179
370
    15
100
AcDbLine
 10
273.4255664026
 20
144.5859582462
 30
0.0
 11
273.4255664026
 21
150.5859582462
 31
0.0
  0
LINE
  5
DC
330
1F
100
AcDbEntity
  8
SLD-0
  6
Continuous
 62
   179
370
    15
100
AcDbLine
 10
267.0255664026
 20
144.5859582462
 30
0.0
 11
273.4255664026
 21
144.5859582462
 31
0.0
  0
LINE
  5
DD
330
1F
100
AcDbEntity
  8
SLD-0
  6
Continuous
 62
   179
370
    15
100
AcDbLine
 10
267.0255664026
 20
150.5859582462
 30
0.0
 11
267.0255664026
 21
144.5859582462
 31
0.0
  0
LINE
  5
DE
330
1F
100
AcDbEntity
  8
SLD-0
  6
Continuous
 62
   179
370
    15
100
AcDbLine
 10
273.4255664026
 20
150.5859582462
 30
0.0
 11
273.4255664026
 21
218.5859582462
 31
0.0
  0
LINE
  5
DF
330
1F
100
AcDbEntity
  8
SLD-0
  6
Continuous
 62
   179
370
    15
100
AcDbLine
 10
267.0255664026
 20
218.5859582462
 30
0.0
 11
267.0255664026
 21
150.5859582462
 31
0.0
  0
LINE
  5
E0
330
1F
100
AcDbEntity
  8
SLD-0
  6
Continuous
 62
   179
370
    15
100
AcDbLine
 10
273.425566662
 20
191.2941658422
 30
0.0
 11
274.8255664026
 21
191.2941621787
 31
0.0
  0
LINE
  5
E1
330
1F
100
AcDbEntity
  8
SLD-0
  6
Continuous
 62
   179
370
    15
100
AcDbLine
 10
274.8255664026
 20
193.5859582462
 30
0.0
 11
274.8255664026
 21
191.2941621787
 31
0.0
  0
LINE
  5
E2
330
1F
100
AcDbEntity
  8
SLD-0
  6
Continuous
 62
   179
370
    15
100
AcDbLine
 10
273.425566662
 20
177.8777563498
 30
0.0
 11
274.8255664026
 21
177.8777543137
 31
0.0
  0
LINE
  5
E3
330
1F
100
AcDbEntity
  8
SLD-0
  6
Continuous
 62
   179
370
    15
100
AcDbLine
 10
274.8255664026
 20
177.8777543137
 30
0.0
 11
274.8255664026
 21
175.5859582462
 31
0.0
  0
LINE
  5
E4
330
1F
100
AcDbEntity
  8
SLD-0
  6
Continuous
 62
   179
370
    15
100
AcDbLine
 10
295.025566291
 20
193.0712410733
 30
0.0
 11
293.5255665108
 21
188.8285973594
 31
0.0
  0
LINE
  5
E5
330
1F
100
AcDbEntity
  8
SLD-0
  6
Continuous
 62
   179
370
    15
100
AcDbLine
 10
293.5255665108
 20
188.8285973594
 30
0.0
 11
295.025566291
 21
184.585961096
 31
0.0
  0
LINE
  5
E6
330
1F
100
AcDbEntity
  8
SLD-0
  6
Continuous
 62
   179
370
    15
100
AcDbLine
 10
295.025566291
 20
184.585961096
 30
0.0
 11
293.5255665108
 21
180.3433173821
 31
0.0
  0
LINE
  5
E7
330
1F
100
AcDbEntity
  8
SLD-0
  6
Continuous
 62
   179
370
    15
100
AcDbLine
 10
293.5255665108
 20
180.3433173821
 30
0.0
 11
295.025566291
 21
176.1006736681
 31
0.0
  0
LINE
  5
E8
330
1F
100
AcDbEntity
  8
SLD-0
  6
Continuous
 62
   179
370
    15
100
AcDbLine
 10
295.025566291
 20
176.1006736681
 30
0.0
 11
293.5255665108
 21
171.8580374047
 31
0.0
  0
LINE
  5
E9
330
1F
100
AcDbEntity
  8
SLD-0
  6
Continuous
 62
   179
370
    15
100
AcDbLine
 10
293.5255665108
 20
171.8580374047
 30
0.0
 11
295.025566291
 21
167.6153936908
 31
0.0
  0
LINE
  5
EA
330
1F
100
AcDbEntity
  8
SLD-0
  6
Continuous
 62
   179
370
    15
100
AcDbLine
 10
295.025566291
 20
167.6153936908
 30
0.0
 11
293.5255665108
 21
163.3727574274
 31
0.0
  0
LINE
  5
EB
330
1F
100
AcDbEntity
  8
SLD-0
  6
Continuous
 62
   179
370
    15
100
AcDbLine
 10
293.5255665108
 20
163.3727574274
 30
0.0
 11
295.025566291
 21
159.1301137135
 31
0.0
  0
LINE
  5
EC
330
1F
100
AcDbEntity
  8
SLD-0
  6
Continuous
 62
   179
370
    15
100
AcDbLine
 10
295.025566291
 20
159.1301137135
 30
0.0
 11
293.5255665108
 21
154.8874699995
 31
0.0
  0
LINE
  5
ED
330
1F
100
AcDbEntity
  8
SLD-0
  6
Continuous
 62
   179
370
    15
100
AcDbLine
 10
293.5255665108
 20
154.8874699995
 30
0.0
 11
295.025566291
 21
150.6448337361
 31
0.0
  0
LINE
  5
EE
330
1F
100
AcDbEntity
  8
SLD-0
  6
Continuous
 62
   179
370
    15
100
AcDbLine
 10
295.025566291
 20
150.6448337361
 30
0.0
 11
293.5255665108
 21
146.4021900222
 31
0.0
  0
LINE
  5
EF
330
1F
100
AcDbEntity
  8
SLD-0
  6
Continuous
 62
   179
370
    15
100
AcDbLine
 10
293.5255665108
 20
146.4021900222
 30
0.0
 11
294.1677022501
 21
144.5859545395
 31
0.0
  0
LINE
  5
F0
330
1F
100
AcDbEntity
  8
SLD-0
  6
Continuous
 62
   179
370
    15
100
AcDbLine
 10
294.1677022501
 20
224.5859564766
 30
0.0
 11
293.5255665108
 21
222.7697247192
 31
0.0
  0
LINE
  5
F1
330
1F
100
AcDbEntity
  8
SLD-0
  6
Continuous
 62
   179
370
    15
100
AcDbLine
 10
293.5255665108
 20
222.7697247192
 30
0.0
 11
295.025566291
 21
218.5270847306
 31
0.0
  0
LINE
  5
F2
330
1F
100
AcDbEntity
  8
SLD-0
  6
Continuous
 62
   179
370
    15
100
AcDbLine
 10
295.025566291
 20
218.5270847306
 30
0.0
 11
293.5255665108
 21
214.2844447419
 31
0.0
  0
LINE
  5
F3
330
1F
100
AcDbEntity
  8
SLD-0
  6
Continuous
 62
   179
370
    15
100
AcDbLine
 10
293.5255665108
 20
214.2844447419
 30
0.0
 11
295.025566291
 21
210.041801028
 31
0.0
  0
LINE
  5
F4
330
1F
100
AcDbEntity
  8
SLD-0
  6
Continuous
 62
   179
370
    15
100
AcDbLine
 10
295.025566291
 20
210.041801028
 30
0.0
 11
293.5255665108
 21
205.7991610393
 31
0.0
  0
LINE
  5
F5
330
1F
100
AcDbEntity
  8
SLD-0
  6
Continuous
 62
   179
370
    15
100
AcDbLine
 10
293.5255665108
 20
205.7991610393
 30
0.0
 11
295.025566291
 21
201.5565210506
 31
0.0
  0
LINE
  5
F6
330
1F
100
AcDbEntity
  8
SLD-0
  6
Continuous
 62
   179
370
    15
100
AcDbLine
 10
295.025566291
 20
201.5565210506
 30
0.0
 11
293.5255665108
 21
197.313881062
 31
0.0
  0
LINE
  5
F7
330
1F
100
AcDbEntity
  8
SLD-0
  6
Continuous
 62
   179
370
    15
100
AcDbLine
 10
293.5255665108
 20
197.313881062
 30
0.0
 11
295.025566291
 21
193.0712410733
 31
0.0
  0
LINE
  5
F8
330
1F
100
AcDbEntity
  8
SLD-0
  6
Continuous
 62
   179
370
    15
100
AcDbLine
 10
294.1677022501
 20
144.5859545395
 30
0.0
 11
273.4255664026
 21
144.5859582462
 31
0.0
  0
LINE
  5
F9
330
1F
100
AcDbEntity
  8
SLD-0
  6
Continuous
 62
   179
370
    15
100
AcDbLine
 10
294.1677022501
 20
224.5859564766
 30
0.0
 11
273.4255664026
 21
224.5859582462
 31
0.0
  0
LINE
  5
FA
330
1F
100
AcDbEntity
  8
SLD-0
  6
Continuous
 62
   179
370
    15
100
AcDbLine
 10
295.025566291
 20
220.6123644039
 30
0.0
 11
295.025566291
 21
224.5859564766
 31
0.0
  0
LINE
  5
FB
330
1F
100
AcDbEntity
  8
SLD-0
  6
Continuous
 62
   179
370
    15
100
AcDbLine
 10
294.6569371744
 20
219.5697227046
 30
0.0
 11
295.025566291
 21
220.6123644039
 31
0.0
  0
LINE
  5
FC
330
1F
100
AcDbEntity
  8
SLD-0
  6
Continuous
 62
   179
370
    15
100
AcDbLine
 10
294.1677022501
 20
224.5859564766
 30
0.0
 11
295.025566291
 21
224.5859564766
 31
0.0
  0
LINE
  5
FD
330
1F
100
AcDbEntity
  8
SLD-0
  6
Continuous
 62
   179
370
    15
100
AcDbLine
 10
295.025566291
 20
203.641800724
 30
0.0
 11
295.025566291
 21
210.041801028
 31
0.0
  0
LINE
  5
FE
330
1F
100
AcDbEntity
  8
SLD-0
  6
Continuous
 62
   179
370
    15
100
AcDbLine
 10
294.6569371744
 20
202.59916275
 30
0.0
 11
295.025566291
 21
203.641800724
 31
0.0
  0
LINE
  5
FF
330
1F
100
AcDbEntity
  8
SLD-0
  6
Continuous
 62
   179
370
    15
100
AcDbLine
 10
294.6569371744
 20
211.0844427273
 30
0.0
 11
295.025566291
 21
212.1270844266
 31
0.0
  0
LINE
  5
100
330
1F
100
AcDbEntity
  8
SLD-0
  6
Continuous
 62
   179
370
    15
100
AcDbLine
 10
295.025566291
 20
212.1270844266
 30
0.0
 11
295.025566291
 21
218.5270847306
 31
0.0
  0
LINE
  5
101
330
1F
100
AcDbEntity
  8
SLD-0
  6
Continuous
 62
   179
370
    15
100
AcDbLine
 10
294.6569371744
 20
151.6874754354
 30
0.0
 11
295.025566291
 21
152.7301171348
 31
0.0
  0
LINE
  5
102
330
1F
100
AcDbEntity
  8
SLD-0
  6
Continuous
 62
   179
370
    15
100
AcDbLine
 10
295.025566291
 20
152.7301171348
 30
0.0
 11
295.025566291
 21
159.1301137135
 31
0.0
  0
LINE
  5
103
330
1F
100
AcDbEntity
  8
SLD-0
  6
Continuous
 62
   179
370
    15
100
AcDbLine
 10
295.025566291
 20
161.2153971121
 30
0.0
 11
295.025566291
 21
167.6153936908
 31
0.0
  0
LINE
  5
104
330
1F
100
AcDbEntity
  8
SLD-0
  6
Continuous
 62
   179
370
    15
100
AcDbLine
 10
294.6569371744
 20
160.1727554128
 30
0.0
 11
295.025566291
 21
161.2153971121
 31
0.0
  0
LINE
  5
105
330
1F
100
AcDbEntity
  8
SLD-0
  6
Continuous
 62
   179
370
    15
100
AcDbLine
 10
295.025566291
 20
169.7006770894
 30
0.0
 11
295.025566291
 21
176.1006736681
 31
0.0
  0
LINE
  5
106
330
1F
100
AcDbEntity
  8
SLD-0
  6
Continuous
 62
   179
370
    15
100
AcDbLine
 10
294.6569371744
 20
168.6580353901
 30
0.0
 11
295.025566291
 21
169.7006770894
 31
0.0
  0
LINE
  5
107
330
1F
100
AcDbEntity
  8
SLD-0
  6
Continuous
 62
   179
370
    15
100
AcDbLine
 10
294.6569371744
 20
194.1138827726
 30
0.0
 11
295.025566291
 21
195.156524472
 31
0.0
  0
LINE
  5
108
330
1F
100
AcDbEntity
  8
SLD-0
  6
Continuous
 62
   179
370
    15
100
AcDbLine
 10
295.025566291
 20
195.156524472
 30
0.0
 11
295.025566291
 21
201.5565210506
 31
0.0
  0
LINE
  5
109
330
1F
100
AcDbEntity
  8
SLD-0
  6
Continuous
 62
   179
370
    15
100
AcDbLine
 10
295.025566291
 20
186.671237044
 30
0.0
 11
295.025566291
 21
193.0712410733
 31
0.0
  0
LINE
  5
10A
330
1F
100
AcDbEntity
  8
SLD-0
  6
Continuous
 62
   179
370
    15
100
AcDbLine
 10
294.6569371744
 20
185.6285953447
 30
0.0
 11
295.025566291
 21
186.671237044
 31
0.0
  0
LINE
  5
10B
330
1F
100
AcDbEntity
  8
SLD-0
  6
Continuous
 62
   179
370
    15
100
AcDbLine
 10
294.6569371744
 20
177.1433153674
 30
0.0
 11
295.025566291
 21
178.1859570667
 31
0.0
  0
LINE
  5
10C
330
1F
100
AcDbEntity
  8
SLD-0
  6
Continuous
 62
   179
370
    15
100
AcDbLine
 10
295.025566291
 20
184.585961096
 30
0.0
 11
295.025566291
 21
178.1859570667
 31
0.0
  0
LINE
  5
10D
330
1F
100
AcDbEntity
  8
SLD-0
  6
Continuous
 62
   179
370
    15
100
AcDbLine
 10
295.025566291
 20
144.5859545395
 30
0.0
 11
295.025566291
 21
150.6448337361
 31
0.0
  0
LINE
  5
10E
330
1F
100
AcDbEntity
  8
SLD-0
  6
Continuous
 62
   179
370
    15
100
AcDbLine
 10
294.1677022501
 20
144.5859545395
 30
0.0
 11
295.025566291
 21
144.5859545395
 31
0.0
  0
LINE
  5
10F
330
1F
100
AcDbEntity
  8
SLD-0
  6
Continuous
 62
   179
370
    15
100
AcDbLine
 10
374.6255664026
 20
144.5859582462
 30
0.0
 11
374.6255664026
 21
150.5859582462
 31
0.0
  0
LINE
  5
110
330
1F
100
AcDbEntity
  8
SLD-0
  6
Continuous
 62
   179
370
    15
100
AcDbLine
 10
374.6255664026
 20
150.5859582462
 30
0.0
 11
381.0255664026
 21
150.5859582462
 31
0.0
  0
LINE
  5
111
330
1F
100
AcDbEntity
  8
SLD-0
  6
Continuous
 62
   179
370
    15
100
AcDbLine
 10
381.0255664026
 20
144.5859582462
 30
0.0
 11
381.0255664026
 21
150.5859582462
 31
0.0
  0
LINE
  5
112
330
1F
100
AcDbEntity
  8
SLD-0
  6
Continuous
 62
   179
370
    15
100
AcDbLine
 10
374.6255664026
 20
144.5859582462
 30
0.0
 11
381.0255664026
 21
144.5859582462
 31
0.0
  0
LINE
  5
113
330
1F
100
AcDbEntity
  8
SLD-0
  6
Continuous
 62
   179
370
    15
100
AcDbLine
 10
381.0255664026
 20
218.5859582462
 30
0.0
 11
381.0255664026
 21
224.5859582462
 31
0.0
  0
LINE
  5
114
330
1F
100
AcDbEntity
  8
SLD-0
  6
Continuous
 62
   179
370
    15
100
AcDbLine
 10
381.0255664026
 20
218.5859582462
 30
0.0
 11
374.6255664026
 21
218.5859582462
 31
0.0
  0
LINE
  5
115
330
1F
100
AcDbEntity
  8
SLD-0
  6
Continuous
 62
   179
370
    15
100
AcDbLine
 10
381.0255664026
 20
224.5859582462
 30
0.0
 11
374.6255664026
 21
224.5859582462
 31
0.0
  0
LINE
  5
116
330
1F
100
AcDbEntity
  8
SLD-0
  6
Continuous
 62
   179
370
    15
100
AcDbLine
 10
374.6255664026
 20
224.5859582462
 30
0.0
 11
374.6255664026
 21
218.5859582462
 31
0.0
  0
LINE
  5
117
330
1F
100
AcDbEntity
  8
SLD-0
  6
Continuous
 62
   179
370
    15
100
AcDbLine
 10
381.0255664026
 20
150.5859582462
 30
0.0
 11
381.0255664026
 21
218.5859582462
 31
0.0
  0
LINE
  5
118
330
1F
100
AcDbEntity
  8
SLD-0
  6
Continuous
 62
   179
370
    15
100
AcDbLine
 10
374.6255664026
 20
218.5859582462
 30
0.0
 11
374.6255664026
 21
150.5859582462
 31
0.0
  0
LINE
  5
119
330
1F
100
AcDbEntity
  8
SLD-0
  6
Continuous
 62
   179
370
    15
100
AcDbLine
 10
374.6255679763
 20
191.2941658422
 30
0.0
 11
373.2255664026
 21
191.2941621787
 31
0.0
  0
LINE
  5
11A
330
1F
100
AcDbEntity
  8
SLD-0
  6
Continuous
 62
   179
370
    15
100
AcDbLine
 10
374.6255679763
 20
177.8777563498
 30
0.0
 11
373.2255664026
 21
177.8777543137
 31
0.0
  0
LINE
  5
11B
330
1F
100
AcDbEntity
  8
SLD-0
  6
Continuous
 62
   179
370
    15
100
AcDbLine
 10
373.2255664026
 20
175.5859582462
 30
0.0
 11
373.2255664026
 21
177.8777543137
 31
0.0
  0
LINE
  5
11C
330
1F
100
AcDbEntity
  8
SLD-0
  6
Continuous
 62
   179
370
    15
100
AcDbLine
 10
373.2255664026
 20
191.2941621787
 30
0.0
 11
373.2255664026
 21
193.5859582462
 31
0.0
  0
LINE
  5
11D
330
1F
100
AcDbEntity
  8
SLD-0
  6
Continuous
 62
   179
370
    15
100
AcDbLine
 10
353.025567416
 20
176.1006736681
 30
0.0
 11
354.5255667306
 21
180.3433173821
 31
0.0
  0
LINE
  5
11E
330
1F
100
AcDbEntity
  8
SLD-0
  6
Continuous
 62
   179
370
    15
100
AcDbLine
 10
354.5255667306
 20
180.3433173821
 30
0.0
 11
353.025567416
 21
184.585961096
 31
0.0
  0
LINE
  5
11F
330
1F
100
AcDbEntity
  8
SLD-0
  6
Continuous
 62
   179
370
    15
100
AcDbLine
 10
353.025567416
 20
184.585961096
 30
0.0
 11
354.5255667306
 21
188.8285973594
 31
0.0
  0
LINE
  5
120
330
1F
100
AcDbEntity
  8
SLD-0
  6
Continuous
 62
   179
370
    15
100
AcDbLine
 10
354.5255667306
 20
188.8285973594
 30
0.0
 11
353.025567416
 21
193.0712410733
 31
0.0
  0
LINE
  5
121
330
1F
100
AcDbEntity
  8
SLD-0
  6
Continuous
 62
   179
370
    15
100
AcDbLine
 10
353.025567416
 20
193.0712410733
 30
0.0
 11
354.5255667306
 21
197.313881062
 31
0.0
  0
LINE
  5
122
330
1F
100
AcDbEntity
  8
SLD-0
  6
Continuous
 62
   179
370
    15
100
AcDbLine
 10
354.5255667306
 20
197.313881062
 30
0.0
 11
353.025567416
 21
201.5565210506
 31
0.0
  0
LINE
  5
123
330
1F
100
AcDbEntity
  8
SLD-0
  6
Continuous
 62
   179
370
    15
100
AcDbLine
 10
353.025567416
 20
201.5565210506
 30
0.0
 11
354.5255667306
 21
205.7991610393
 31
0.0
  0
LINE
  5
124
330
1F
100
AcDbEntity
  8
SLD-0
  6
Continuous
 62
   179
370
    15
100
AcDbLine
 10
354.5255667306
 20
205.7991610393
 30
0.0
 11
353.025567416
 21
210.041801028
 31
0.0
  0
LINE
  5
125
330
1F
100
AcDbEntity
  8
SLD-0
  6
Continuous
 62
   179
370
    15
100
AcDbLine
 10
353.025567416
 20
210.041801028
 30
0.0
 11
354.5255667306
 21
214.2844447419
 31
0.0
  0
LINE
  5
126
330
1F
100
AcDbEntity
  8
SLD-0
  6
Continuous
 62
   179
370
    15
100
AcDbLine
 10
354.5255667306
 20
214.2844447419
 30
0.0
 11
353.025567416
 21
218.5270847306
 31
0.0
  0
LINE
  5
127
330
1F
100
AcDbEntity
  8
SLD-0
  6
Continuous
 62
   179
370
    15
100
AcDbLine
 10
353.025567416
 20
218.5270847306
 30
0.0
 11
354.5255667306
 21
222.7697247192
 31
0.0
  0
LINE
  5
128
330
1F
100
AcDbEntity
  8
SLD-0
  6
Continuous
 62
   179
370
    15
100
AcDbLine
 10
354.5255667306
 20
222.7697247192
 30
0.0
 11
353.8834309912
 21
224.5859564766
 31
0.0
  0
LINE
  5
129
330
1F
100
AcDbEntity
  8
SLD-0
  6
Continuous
 62
   179
370
    15
100
AcDbLine
 10
353.8834309912
 20
144.5859545395
 30
0.0
 11
354.5255667306
 21
146.4021900222
 31
0.0
  0
LINE
  5
12A
330
1F
100
AcDbEntity
  8
SLD-0
  6
Continuous
 62
   179
370
    15
100
AcDbLine
 10
354.5255667306
 20
146.4021900222
 30
0.0
 11
353.025567416
 21
150.6448337361
 31
0.0
  0
LINE
  5
12B
330
1F
100
AcDbEntity
  8
SLD-0
  6
Continuous
 62
   179
370
    15
100
AcDbLine
 10
353.025567416
 20
150.6448337361
 30
0.0
 11
354.5255667306
 21
154.8874699995
 31
0.0
  0
LINE
  5
12C
330
1F
100
AcDbEntity
  8
SLD-0
  6
Continuous
 62
   179
370
    15
100
AcDbLine
 10
354.5255667306
 20
154.8874699995
 30
0.0
 11
353.025567416
 21
159.1301137135
 31
0.0
  0
LINE
  5
12D
330
1F
100
AcDbEntity
  8
SLD-0
  6
Continuous
 62
   179
370
    15
100
AcDbLine
 10
353.025567416
 20
159.1301137135
 30
0.0
 11
354.5255667306
 21
163.3727574274
 31
0.0
  0
LINE
  5
12E
330
1F
100
AcDbEntity
  8
SLD-0
  6
Continuous
 62
   179
370
    15
100
AcDbLine
 10
354.5255667306
 20
163.3727574274
 30
0.0
 11
353.025567416
 21
167.6153936908
 31
0.0
  0
LINE
  5
12F
330
1F
100
AcDbEntity
  8
SLD-0
  6
Continuous
 62
   179
370
    15
100
AcDbLine
 10
353.025567416
 20
167.6153936908
 30
0.0
 11
354.5255667306
 21
171.8580374047
 31
0.0
  0
LINE
  5
130
330
1F
100
AcDbEntity
  8
SLD-0
  6
Continuous
 62
   179
370
    15
100
AcDbLine
 10
354.5255667306
 20
171.8580374047
 30
0.0
 11
353.025567416
 21
176.1006736681
 31
0.0
  0
LINE
  5
131
330
1F
100
AcDbEntity
  8
SLD-0
  6
Continuous
 62
   179
370
    15
100
AcDbLine
 10
353.8834309912
 20
144.5859545395
 30
0.0
 11
374.6255664026
 21
144.5859582462
 31
0.0
  0
LINE
  5
132
330
1F
100
AcDbEntity
  8
SLD-0
  6
Continuous
 62
   179
370
    15
100
AcDbLine
 10
353.8834309912
 20
224.5859564766
 30
0.0
 11
374.6255664026
 21
224.5859582462
 31
0.0
  0
LINE
  5
133
330
1F
100
AcDbEntity
  8
SLD-0
  6
Continuous
 62
   179
370
    15
100
AcDbLine
 10
353.025567416
 20
148.5595503375
 30
0.0
 11
353.025567416
 21
144.5859545395
 31
0.0
  0
LINE
  5
134
330
1F
100
AcDbEntity
  8
SLD-0
  6
Continuous
 62
   179
370
    15
100
AcDbLine
 10
353.3941960669
 20
149.6021920368
 30
0.0
 11
353.025567416
 21
148.5595503375
 31
0.0
  0
LINE
  5
135
330
1F
100
AcDbEntity
  8
SLD-0
  6
Continuous
 62
   179
370
    15
100
AcDbLine
 10
353.8834309912
 20
144.5859545395
 30
0.0
 11
353.025567416
 21
144.5859545395
 31
0.0
  0
LINE
  5
136
330
1F
100
AcDbEntity
  8
SLD-0
  6
Continuous
 62
   179
370
    15
100
AcDbLine
 10
353.025567416
 20
165.5301177427
 30
0.0
 11
353.025567416
 21
159.1301137135
 31
0.0
  0
LINE
  5
137
330
1F
100
AcDbEntity
  8
SLD-0
  6
Continuous
 62
   179
370
    15
100
AcDbLine
 10
353.3941960669
 20
166.5727519915
 30
0.0
 11
353.025567416
 21
165.5301177427
 31
0.0
  0
LINE
  5
138
330
1F
100
AcDbEntity
  8
SLD-0
  6
Continuous
 62
   179
370
    15
100
AcDbLine
 10
353.3941960669
 20
158.0874720141
 30
0.0
 11
353.025567416
 21
157.0448303148
 31
0.0
  0
LINE
  5
139
330
1F
100
AcDbEntity
  8
SLD-0
  6
Continuous
 62
   179
370
    15
100
AcDbLine
 10
353.025567416
 20
157.0448303148
 30
0.0
 11
353.025567416
 21
150.6448337361
 31
0.0
  0
LINE
  5
13A
330
1F
100
AcDbEntity
  8
SLD-0
  6
Continuous
 62
   179
370
    15
100
AcDbLine
 10
353.3941960669
 20
217.4844430313
 30
0.0
 11
353.025567416
 21
216.4418013319
 31
0.0
  0
LINE
  5
13B
330
1F
100
AcDbEntity
  8
SLD-0
  6
Continuous
 62
   179
370
    15
100
AcDbLine
 10
353.025567416
 20
216.4418013319
 30
0.0
 11
353.025567416
 21
210.041801028
 31
0.0
  0
LINE
  5
13C
330
1F
100
AcDbEntity
  8
SLD-0
  6
Continuous
 62
   179
370
    15
100
AcDbLine
 10
353.025567416
 20
207.9565213546
 30
0.0
 11
353.025567416
 21
201.5565210506
 31
0.0
  0
LINE
  5
13D
330
1F
100
AcDbEntity
  8
SLD-0
  6
Continuous
 62
   179
370
    15
100
AcDbLine
 10
353.3941960669
 20
208.9991630539
 30
0.0
 11
353.025567416
 21
207.9565213546
 31
0.0
  0
LINE
  5
13E
330
1F
100
AcDbEntity
  8
SLD-0
  6
Continuous
 62
   179
370
    15
100
AcDbLine
 10
353.3941960669
 20
200.5138793513
 30
0.0
 11
353.025567416
 21
199.4712413773
 31
0.0
  0
LINE
  5
13F
330
1F
100
AcDbEntity
  8
SLD-0
  6
Continuous
 62
   179
370
    15
100
AcDbLine
 10
353.025567416
 20
199.4712413773
 30
0.0
 11
353.025567416
 21
193.0712410733
 31
0.0
  0
LINE
  5
140
330
1F
100
AcDbEntity
  8
SLD-0
  6
Continuous
 62
   179
370
    15
100
AcDbLine
 10
353.025567416
 20
182.5006776974
 30
0.0
 11
353.025567416
 21
176.1006736681
 31
0.0
  0
LINE
  5
141
330
1F
100
AcDbEntity
  8
SLD-0
  6
Continuous
 62
   179
370
    15
100
AcDbLine
 10
353.3941960669
 20
183.5433193967
 30
0.0
 11
353.025567416
 21
182.5006776974
 31
0.0
  0
LINE
  5
142
330
1F
100
AcDbEntity
  8
SLD-0
  6
Continuous
 62
   179
370
    15
100
AcDbLine
 10
353.3941960669
 20
175.0580394194
 30
0.0
 11
353.025567416
 21
174.0153977201
 31
0.0
  0
LINE
  5
143
330
1F
100
AcDbEntity
  8
SLD-0
  6
Continuous
 62
   179
370
    15
100
AcDbLine
 10
353.025567416
 20
174.0153977201
 30
0.0
 11
353.025567416
 21
167.6153936908
 31
0.0
  0
LINE
  5
144
330
1F
100
AcDbEntity
  8
SLD-0
  6
Continuous
 62
   179
370
    15
100
AcDbLine
 10
353.3941960669
 20
192.028599374
 30
0.0
 11
353.025567416
 21
190.9859576747
 31
0.0
  0
LINE
  5
145
330
1F
100
AcDbEntity
  8
SLD-0
  6
Continuous
 62
   179
370
    15
100
AcDbLine
 10
353.025567416
 20
184.585961096
 30
0.0
 11
353.025567416
 21
190.9859576747
 31
0.0
  0
LINE
  5
146
330
1F
100
AcDbEntity
  8
SLD-0
  6
Continuous
 62
   179
370
    15
100
AcDbLine
 10
353.025567416
 20
224.5859564766
 30
0.0
 11
353.025567416
 21
218.5270847306
 31
0.0
  0
LINE
  5
147
330
1F
100
AcDbEntity
  8
SLD-0
  6
Continuous
 62
   179
370
    15
100
AcDbLine
 10
353.8834309912
 20
224.5859564766
 30
0.0
 11
353.025567416
 21
224.5859564766
 31
0.0
  0
LINE
  5
148
330
1F
100
AcDbEntity
  8
SLD-0
  6
Continuous
 62
   179
370
    15
100
AcDbLine
 10
469.0255664026
 20
200.5859582462
 30
0.0
 11
467.0255664026
 21
200.5859582462
 31
0.0
  0
LINE
  5
149
330
1F
100
AcDbEntity
  8
SLD-0
  6
Continuous
 62
   179
370
    15
100
AcDbLine
 10
469.0255664026
 20
168.5859582459
 30
0.0
 11
469.0255664026
 21
200.5859582462
 31
0.0
  0
LINE
  5
14A
330
1F
100
AcDbEntity
  8
SLD-0
  6
Continuous
 62
   179
370
    15
100
AcDbLine
 10
469.0255664026
 20
168.5859582459
 30
0.0
 11
467.0255664026
 21
168.5859582456
 31
0.0
  0
LINE
  5
14B
330
1F
100
AcDbEntity
  8
SLD-0
  6
Continuous
 62
   179
370
    15
100
AcDbLine
 10
467.0255664026
 20
168.5859582456
 30
0.0
 11
467.0255664026
 21
200.5859582462
 31
0.0
  0
LINE
  5
14C
330
1F
100
AcDbEntity
  8
SLD-0
  6
Continuous
 62
   179
370
    15
100
AcDbLine
 10
467.0255664026
 20
168.5859582456
 30
0.0
 11
388.0255664026
 21
168.5859582462
 31
0.0
  0
LINE
  5
14D
330
1F
100
AcDbEntity
  8
SLD-0
  6
Continuous
 62
   179
370
    15
100
AcDbLine
 10
467.0255664026
 20
159.5859582462
 30
0.0
 11
467.0255664026
 21
168.5859582456
 31
0.0
  0
LINE
  5
14E
330
1F
100
AcDbEntity
  8
SLD-0
  6
Continuous
 62
   179
370
    15
100
AcDbLine
 10
467.0255664026
 20
159.5859582462
 30
0.0
 11
388.0255664026
 21
159.5859582462
 31
0.0
  0
LINE
  5
14F
330
1F
100
AcDbEntity
  8
SLD-0
  6
Continuous
 62
   179
370
    15
100
AcDbLine
 10
388.0255664026
 20
159.5859582462
 30
0.0
 11
388.0255664026
 21
168.5859582462
 31
0.0
  0
LINE
  5
150
330
1F
100
AcDbEntity
  8
SLD-0
  6
Continuous
 62
   179
370
    15
100
AcDbLine
 10
467.0255664026
 20
200.5859582462
 30
0.0
 11
388.0255664026
 21
200.5859582468
 31
0.0
  0
LINE
  5
151
330
1F
100
AcDbEntity
  8
SLD-0
  6
Continuous
 62
   179
370
    15
100
AcDbLine
 10
388.0255664026
 20
168.5859582462
 30
0.0
 11
388.0255664026
 21
200.5859582468
 31
0.0
  0
LINE
  5
152
330
1F
100
AcDbEntity
  8
SLD-0
  6
Continuous
 62
   179
370
    15
100
AcDbLine
 10
469.0255664026
 20
161.585958343
 30
0.0
 11
469.0255664026
 21
168.5859582459
 31
0.0
  0
LINE
  5
153
330
1F
100
AcDbEntity
  8
SLD-0
  6
Continuous
 62
   179
370
    15
100
AcDbLine
 10
467.0255664026
 20
209.5859582462
 30
0.0
 11
388.0255664026
 21
209.5859582462
 31
0.0
  0
LINE
  5
154
330
1F
100
AcDbEntity
  8
SLD-0
  6
Continuous
 62
   179
370
    15
100
AcDbLine
 10
467.0255664026
 20
200.5859582462
 30
0.0
 11
467.0255664026
 21
209.5859582462
 31
0.0
  0
LINE
  5
155
330
1F
100
AcDbEntity
  8
SLD-0
  6
Continuous
 62
   179
370
    15
100
AcDbLine
 10
388.0255664026
 20
200.5859582468
 30
0.0
 11
388.0255664026
 21
209.5859582462
 31
0.0
  0
LINE
  5
156
330
1F
100
AcDbEntity
  8
SLD-0
  6
Continuous
 62
   179
370
    15
100
AcDbLine
 10
388.0255664026
 20
168.5859582462
 30
0.0
 11
386.0255664026
 21
168.5859582462
 31
0.0
  0
LINE
  5
157
330
1F
100
AcDbEntity
  8
SLD-0
  6
Continuous
 62
   179
370
    15
100
AcDbLine
 10
386.0255664026
 20
168.5859582462
 30
0.0
 11
386.0255664026
 21
200.5859582465
 31
0.0
  0
LINE
  5
158
330
1F
100
AcDbEntity
  8
SLD-0
  6
Continuous
 62
   179
370
    15
100
AcDbLine
 10
388.0255664026
 20
200.5859582468
 30
0.0
 11
386.0255664026
 21
200.5859582465
 31
0.0
  0
LINE
  5
159
330
1F
100
AcDbEntity
  8
SLD-0
  6
Continuous
 62
   179
370
    15
100
AcDbLine
 10
386.0255664026
 20
200.5859582465
 30
0.0
 11
386.0255664026
 21
207.5859582462
 31
0.0
  0
LINE
  5
15A
330
1F
100
AcDbEntity
  8
SLD-0
  6
Continuous
 62
   179
370
    15
100
AcDbLine
 10
469.0255664026
 20
200.5859582462
 30
0.0
 11
469.0255664026
 21
207.5859582462
 31
0.0
  0
LINE
  5
15B
330
1F
100
AcDbEntity
  8
SLD-0
  6
Continuous
 62
   179
370
    15
100
AcDbLine
 10
386.0255664026
 20
161.5859582462
 30
0.0
 11
386.0255664026
 21
168.5859582462
 31
0.0
  0
LINE
  5
15C
330
1F
100
AcDbEntity
  8
SLD-0
  6
Continuous
 62
   179
370
    15
100
AcDbLine
 10
458.0255664026
 20
155.5859582462
 30
0.0
 11
450.0255664026
 21
155.5859582462
 31
0.0
  0
LINE
  5
15D
330
1F
100
AcDbEntity
  8
SLD-0
  6
Continuous
 62
   179
370
    15
100
AcDbLine
 10
450.0255664026
 20
155.5859582462
 30
0.0
 11
446.0255664026
 21
155.5859582462
 31
0.0
  0
LINE
  5
15E
330
1F
100
AcDbEntity
  8
SLD-0
  6
Continuous
 62
   179
370
    15
100
AcDbLine
 10
462.0255664026
 20
155.5859582462
 30
0.0
 11
458.0255664026
 21
155.5859582462
 31
0.0
  0
LINE
  5
15F
330
1F
100
AcDbEntity
  8
SLD-0
  6
Continuous
 62
   179
370
    15
100
AcDbLine
 10
450.0255664026
 20
212.7859582462
 30
0.0
 11
458.0255664026
 21
212.7859582462
 31
0.0
  0
LINE
  5
160
330
1F
100
AcDbEntity
  8
SLD-0
  6
Continuous
 62
   179
370
    15
100
AcDbLine
 10
458.0255664026
 20
212.7859582462
 30
0.0
 11
462.0255664026
 21
212.7859582462
 31
0.0
  0
LINE
  5
161
330
1F
100
AcDbEntity
  8
SLD-0
  6
Continuous
 62
   179
370
    15
100
AcDbLine
 10
446.0255664026
 20
212.7859582462
 30
0.0
 11
450.0255664026
 21
212.7859582462
 31
0.0
  0
LINE
  5
162
330
1F
100
AcDbEntity
  8
SLD-0
  6
Continuous
 62
   179
370
    15
100
AcDbLine
 10
458.0255664026
 20
212.7859582462
 30
0.0
 11
458.0255641378
 21
217.7859568522
 31
0.0
  0
LINE
  5
163
330
1F
100
AcDbEntity
  8
SLD-0
  6
Continuous
 62
   179
370
    15
100
AcDbLine
 10
450.0255664026
 20
212.7859582462
 30
0.0
 11
450.0255628265
 21
217.7859568522
 31
0.0
  0
LINE
  5
164
330
1F
100
AcDbEntity
  8
SLD-0
  6
Continuous
 62
   179
370
    15
100
AcDbLine
 10
450.0255628265
 20
217.7859568522
 30
0.0
 11
458.0255641378
 21
217.7859568522
 31
0.0
  0
LINE
  5
165
330
1F
100
AcDbEntity
  8
SLD-0
  6
Continuous
 62
   179
370
    15
100
AcDbLine
 10
446.0255664026
 20
212.7859582462
 30
0.0
 11
446.0255696214
 21
217.7859568522
 31
0.0
  0
LINE
  5
166
330
1F
100
AcDbEntity
  8
SLD-0
  6
Continuous
 62
   179
370
    15
100
AcDbLine
 10
446.0255696214
 20
217.7859568522
 30
0.0
 11
450.0255628265
 21
217.7859568522
 31
0.0
  0
LINE
  5
167
330
1F
100
AcDbEntity
  8
SLD-0
  6
Continuous
 62
   179
370
    15
100
AcDbLine
 10
462.025572244
 20
217.7859568522
 30
0.0
 11
462.0255664026
 21
212.7859582462
 31
0.0
  0
LINE
  5
168
330
1F
100
AcDbEntity
  8
SLD-0
  6
Continuous
 62
   179
370
    15
100
AcDbLine
 10
458.0255641378
 20
217.7859568522
 30
0.0
 11
462.025572244
 21
217.7859568522
 31
0.0
  0
LINE
  5
169
330
1F
100
AcDbEntity
  8
SLD-0
  6
Continuous
 62
   179
370
    15
100
AcDbLine
 10
450.0255664026
 20
155.5859582462
 30
0.0
 11
450.0255628265
 21
150.5859592483
 31
0.0
  0
LINE
  5
16A
330
1F
100
AcDbEntity
  8
SLD-0
  6
Continuous
 62
   179
370
    15
100
AcDbLine
 10
458.0255664026
 20
155.5859582462
 30
0.0
 11
458.0255641378
 21
150.5859592483
 31
0.0
  0
LINE
  5
16B
330
1F
100
AcDbEntity
  8
SLD-0
  6
Continuous
 62
   179
370
    15
100
AcDbLine
 10
458.0255641378
 20
150.5859592483
 30
0.0
 11
450.0255628265
 21
150.5859592483
 31
0.0
  0
LINE
  5
16C
330
1F
100
AcDbEntity
  8
SLD-0
  6
Continuous
 62
   179
370
    15
100
AcDbLine
 10
446.0255696214
 20
150.5859592483
 30
0.0
 11
446.0255664026
 21
155.5859582462
 31
0.0
  0
LINE
  5
16D
330
1F
100
AcDbEntity
  8
SLD-0
  6
Continuous
 62
   179
370
    15
100
AcDbLine
 10
450.0255628265
 20
150.5859592483
 30
0.0
 11
446.0255696214
 21
150.5859592483
 31
0.0
  0
LINE
  5
16E
330
1F
100
AcDbEntity
  8
SLD-0
  6
Continuous
 62
   179
370
    15
100
AcDbLine
 10
462.0255664026
 20
155.5859582462
 30
0.0
 11
462.025572244
 21
150.5859592483
 31
0.0
  0
LINE
  5
16F
330
1F
100
AcDbEntity
  8
SLD-0
  6
Continuous
 62
   179
370
    15
100
AcDbLine
 10
462.025572244
 20
150.5859592483
 30
0.0
 11
458.0255641378
 21
150.5859592483
 31
0.0
  0
LINE
  5
170
330
1F
100
AcDbEntity
  8
SLD-0
  6
Continuous
 62
   179
370
    15
100
AcDbLine
 10
381.025564555
 20
189.8774602935
 30
0.0
 11
386.0255672372
 21
189.8774602935
 31
0.0
  0
LINE
  5
171
330
1F
100
AcDbEntity
  8
SLD-0
  6
Continuous
 62
   179
370
    15
100
AcDbLine
 10
386.0255672372
 20
179.2944544479
 30
0.0
 11
381.025564555
 21
179.2944544479
 31
0.0
  0
LINE
  5
172
330
1F
100
AcDbEntity
  8
SLD-0
  6
Continuous
 62
   179
370
    15
100
AcDbLine
 10
451.0255664026
 20
231.7859582462
 30
0.0
 11
457.0255664026
 21
231.7859582462
 31
0.0
  0
LINE
  5
173
330
1F
100
AcDbEntity
  8
SLD-0
  6
Continuous
 62
   179
370
    15
100
AcDbLine
 10
450.5255664026
 20
226.7859582462
 30
0.0
 11
457.5255664026
 21
226.7859582462
 31
0.0
  0
LINE
  5
174
330
1F
100
AcDbEntity
  8
SLD-0
  6
Continuous
 62
   179
370
    15
100
AcDbLine
 10
450.5255664026
 20
221.7859582462
 30
0.0
 11
457.5255664026
 21
221.7859582462
 31
0.0
  0
LINE
  5
175
330
1F
100
AcDbEntity
  8
SLD-0
  6
Continuous
 62
   179
370
    15
100
AcDbLine
 10
403.0255664026
 20
212.5859582462
 30
0.0
 11
435.0255664026
 21
212.5859582462
 31
0.0
  0
LINE
  5
176
330
1F
100
AcDbEntity
  8
SLD-0
  6
Continuous
 62
   179
370
    15
100
AcDbLine
 10
435.0255664026
 20
209.5859582462
 30
0.0
 11
435.0255664026
 21
212.5859582462
 31
0.0
  0
LINE
  5
177
330
1F
100
AcDbEntity
  8
SLD-0
  6
Continuous
 62
   179
370
    15
100
AcDbLine
 10
403.0255664026
 20
212.5859582462
 30
0.0
 11
403.0255664026
 21
209.5859582462
 31
0.0
  0
LINE
  5
178
330
1F
100
AcDbEntity
  8
SLD-0
  6
Continuous
 62
   179
370
    15
100
AcDbLine
 10
435.0255664026
 20
156.5859582462
 30
0.0
 11
403.0255664026
 21
156.5859582462
 31
0.0
  0
LINE
  5
179
330
1F
100
AcDbEntity
  8
SLD-0
  6
Continuous
 62
   179
370
    15
100
AcDbLine
 10
403.0255664026
 20
159.5859582462
 30
0.0
 11
403.0255664026
 21
156.5859582462
 31
0.0
  0
LINE
  5
17A
330
1F
100
AcDbEntity
  8
SLD-0
  6
Continuous
 62
   179
370
    15
100
AcDbLine
 10
435.0255664026
 20
156.5859582462
 30
0.0
 11
435.0255664026
 21
159.5859582462
 31
0.0
  0
LINE
  5
17B
330
1F
100
AcDbEntity
  8
SLD-0
  6
Continuous
 62
   179
370
    15
100
AcDbLine
 10
407.0255664026
 20
232.5859582462
 30
0.0
 11
431.0255664026
 21
232.5859582462
 31
0.0
  0
LINE
  5
17C
330
1F
100
AcDbEntity
  8
SLD-0
  6
Continuous
 62
   179
370
    15
100
AcDbLine
 10
421.8197955526
 20
218.0859582052
 30
0.0
 11
424.0255664026
 21
218.0859582462
 31
0.0
  0
LINE
  5
17D
330
1F
100
AcDbEntity
  8
SLD-0
  6
Continuous
 62
   179
370
    15
100
AcDbLine
 10
424.0255664026
 20
227.0859582462
 30
0.0
 11
421.8197955526
 21
227.0859578177
 31
0.0
  0
LINE
  5
17E
330
1F
100
AcDbEntity
  8
SLD-0
  6
Continuous
 62
   179
370
    15
100
AcDbLine
 10
435.0255664026
 20
212.5859582462
 30
0.0
 11
435.0255664026
 21
228.5859582462
 31
0.0
  0
LINE
  5
17F
330
1F
100
AcDbEntity
  8
SLD-0
  6
Continuous
 62
   179
370
    15
100
AcDbLine
 10
403.0255664026
 20
228.5859582462
 30
0.0
 11
403.0255664026
 21
212.5859582462
 31
0.0
  0
LINE
  5
180
330
1F
100
AcDbEntity
  8
SLD-0
  6
Continuous
 62
   179
370
    15
100
AcDbLine
 10
431.0255664026
 20
136.5859582462
 30
0.0
 11
407.0255664026
 21
136.5859582462
 31
0.0
  0
LINE
  5
181
330
1F
100
AcDbEntity
  8
SLD-0
  6
Continuous
 62
   179
370
    15
100
AcDbLine
 10
421.8197955526
 20
142.0859569237
 30
0.0
 11
424.0255664026
 21
142.0859582462
 31
0.0
  0
LINE
  5
182
330
1F
100
AcDbEntity
  8
SLD-0
  6
Continuous
 62
   179
370
    15
100
AcDbLine
 10
424.0255664026
 20
151.0859582462
 30
0.0
 11
421.8197955526
 21
151.0859602615
 31
0.0
  0
LINE
  5
183
330
1F
100
AcDbEntity
  8
SLD-0
  6
Continuous
 62
   179
370
    15
100
AcDbLine
 10
403.0255664026
 20
156.5859582462
 30
0.0
 11
403.0255664026
 21
140.5859582462
 31
0.0
  0
LINE
  5
184
330
1F
100
AcDbEntity
  8
SLD-0
  6
Continuous
 62
   179
370
    15
100
AcDbLine
 10
435.0255664026
 20
140.5859582462
 30
0.0
 11
435.0255664026
 21
156.5859582462
 31
0.0
  0
LINE
  5
185
330
1F
100
AcDbEntity
  8
SLD-0
  6
Continuous
 62
   179
370
    15
100
AcDbLine
 10
181.0255664026
 20
168.5859582462
 30
0.0
 11
260.0255664026
 21
168.5859582462
 31
0.0
  0
LINE
  5
186
330
1F
100
AcDbEntity
  8
SLD-0
  6
Continuous
 62
   179
370
    15
100
AcDbLine
 10
181.0255664026
 20
200.5859582468
 30
0.0
 11
181.0255664026
 21
168.5859582462
 31
0.0
  0
LINE
  5
187
330
1F
100
AcDbEntity
  8
SLD-0
  6
Continuous
 62
   179
370
    15
100
AcDbLine
 10
181.0255664026
 20
200.5859582468
 30
0.0
 11
260.0255664026
 21
200.5859582462
 31
0.0
  0
LINE
  5
188
330
1F
100
AcDbEntity
  8
SLD-0
  6
Continuous
 62
   179
370
    15
100
AcDbLine
 10
260.0255664026
 20
200.5859582462
 30
0.0
 11
260.0255664026
 21
168.5859582462
 31
0.0
  0
LINE
  5
189
330
1F
100
AcDbEntity
  8
SLD-0
  6
Continuous
 62
   179
370
    15
100
AcDbLine
 10
179.0255664026
 20
200.5859582465
 30
0.0
 11
181.0255664026
 21
200.5859582468
 31
0.0
  0
LINE
  5
18A
330
1F
100
AcDbEntity
  8
SLD-0
  6
Continuous
 62
   179
370
    15
100
AcDbLine
 10
179.0255664026
 20
207.5859581495
 30
0.0
 11
179.0255664026
 21
200.5859582465
 31
0.0
  0
LINE
  5
18B
330
1F
100
AcDbEntity
  8
SLD-0
  6
Continuous
 62
   179
370
    15
100
AcDbLine
 10
181.0255664026
 20
209.5859582462
 30
0.0
 11
181.0255664026
 21
200.5859582468
 31
0.0
  0
LINE
  5
18C
330
1F
100
AcDbEntity
  8
SLD-0
  6
Continuous
 62
   179
370
    15
100
AcDbLine
 10
179.0255664026
 20
168.5859582462
 30
0.0
 11
181.0255664026
 21
168.5859582462
 31
0.0
  0
LINE
  5
18D
330
1F
100
AcDbEntity
  8
SLD-0
  6
Continuous
 62
   179
370
    15
100
AcDbLine
 10
179.0255664026
 20
200.5859582465
 30
0.0
 11
179.0255664026
 21
168.5859582462
 31
0.0
  0
LINE
  5
18E
330
1F
100
AcDbEntity
  8
SLD-0
  6
Continuous
 62
   179
370
    15
100
AcDbLine
 10
181.0255664026
 20
209.5859582462
 30
0.0
 11
260.0255664026
 21
209.5859582462
 31
0.0
  0
LINE
  5
18F
330
1F
100
AcDbEntity
  8
SLD-0
  6
Continuous
 62
   179
370
    15
100
AcDbLine
 10
260.0255664026
 20
209.5859582462
 30
0.0
 11
260.0255664026
 21
200.5859582462
 31
0.0
  0
LINE
  5
190
330
1F
100
AcDbEntity
  8
SLD-0
  6
Continuous
 62
   179
370
    15
100
AcDbLine
 10
181.0255664026
 20
159.5859582462
 30
0.0
 11
260.0255664026
 21
159.5859582462
 31
0.0
  0
LINE
  5
191
330
1F
100
AcDbEntity
  8
SLD-0
  6
Continuous
 62
   179
370
    15
100
AcDbLine
 10
181.0255664026
 20
168.5859582462
 30
0.0
 11
181.0255664026
 21
159.5859582462
 31
0.0
  0
LINE
  5
192
330
1F
100
AcDbEntity
  8
SLD-0
  6
Continuous
 62
   179
370
    15
100
AcDbLine
 10
260.0255664026
 20
168.5859582462
 30
0.0
 11
260.0255664026
 21
159.5859582462
 31
0.0
  0
LINE
  5
193
330
1F
100
AcDbEntity
  8
SLD-0
  6
Continuous
 62
   179
370
    15
100
AcDbLine
 10
260.0255664026
 20
200.5859582462
 30
0.0
 11
262.0255664026
 21
200.5859582462
 31
0.0
  0
LINE
  5
194
330
1F
100
AcDbEntity
  8
SLD-0
  6
Continuous
 62
   179
370
    15
100
AcDbLine
 10
262.0255664026
 20
200.5859582462
 30
0.0
 11
262.0255664026
 21
168.585958246
 31
0.0
  0
LINE
  5
195
330
1F
100
AcDbEntity
  8
SLD-0
  6
Continuous
 62
   179
370
    15
100
AcDbLine
 10
260.0255664026
 20
168.5859582462
 30
0.0
 11
262.0255664026
 21
168.585958246
 31
0.0
  0
LINE
  5
196
330
1F
100
AcDbEntity
  8
SLD-0
  6
Continuous
 62
   179
370
    15
100
AcDbLine
 10
262.0255664026
 20
168.585958246
 30
0.0
 11
262.0255664026
 21
161.5859582462
 31
0.0
  0
LINE
  5
197
330
1F
100
AcDbEntity
  8
SLD-0
  6
Continuous
 62
   179
370
    15
100
AcDbLine
 10
179.0255664026
 20
168.5859582462
 30
0.0
 11
179.0255664026
 21
161.5859582462
 31
0.0
  0
LINE
  5
198
330
1F
100
AcDbEntity
  8
SLD-0
  6
Continuous
 62
   179
370
    15
100
AcDbLine
 10
262.0255664026
 20
207.5859582462
 30
0.0
 11
262.0255664026
 21
200.5859582462
 31
0.0
  0
LINE
  5
199
330
1F
100
AcDbEntity
  8
SLD-0
  6
Continuous
 62
   179
370
    15
100
AcDbLine
 10
267.0255682207
 20
179.2944544479
 30
0.0
 11
262.0255655385
 21
179.2944544479
 31
0.0
  0
LINE
  5
19A
330
1F
100
AcDbEntity
  8
SLD-0
  6
Continuous
 62
   179
370
    15
100
AcDbLine
 10
262.0255655385
 20
189.8774602935
 30
0.0
 11
267.0255682207
 21
189.8774602935
 31
0.0
  0
LINE
  5
19B
330
1F
100
AcDbEntity
  8
SLD-0
  6
Continuous
 62
   179
370
    15
100
AcDbLine
 10
213.0255664026
 20
212.5859582462
 30
0.0
 11
245.0255664026
 21
212.5859582462
 31
0.0
  0
LINE
  5
19C
330
1F
100
AcDbEntity
  8
SLD-0
  6
Continuous
 62
   179
370
    15
100
AcDbLine
 10
245.0255664026
 20
209.5859582462
 30
0.0
 11
245.0255664026
 21
212.5859582462
 31
0.0
  0
LINE
  5
19D
330
1F
100
AcDbEntity
  8
SLD-0
  6
Continuous
 62
   179
370
    15
100
AcDbLine
 10
213.0255664026
 20
212.5859582462
 30
0.0
 11
213.0255664026
 21
209.5859582462
 31
0.0
  0
LINE
  5
19E
330
1F
100
AcDbEntity
  8
SLD-0
  6
Continuous
 62
   179
370
    15
100
AcDbLine
 10
245.0255664026
 20
156.5859582462
 30
0.0
 11
213.0255664026
 21
156.5859582462
 31
0.0
  0
LINE
  5
19F
330
1F
100
AcDbEntity
  8
SLD-0
  6
Continuous
 62
   179
370
    15
100
AcDbLine
 10
213.0255664026
 20
159.5859582462
 30
0.0
 11
213.0255664026
 21
156.5859582462
 31
0.0
  0
LINE
  5
1A0
330
1F
100
AcDbEntity
  8
SLD-0
  6
Continuous
 62
   179
370
    15
100
AcDbLine
 10
245.0255664026
 20
156.5859582462
 30
0.0
 11
245.0255664026
 21
159.5859582462
 31
0.0
  0
LINE
  5
1A1
330
1F
100
AcDbEntity
  8
SLD-0
  6
Continuous
 62
   179
370
    15
100
AcDbLine
 10
241.0255664026
 20
136.5859582462
 30
0.0
 11
217.0255664026
 21
136.5859582462
 31
0.0
  0
LINE
  5
1A2
330
1F
100
AcDbEntity
  8
SLD-0
  6
Continuous
 62
   179
370
    15
100
AcDbLine
 10
226.2313409484
 20
151.0859602615
 30
0.0
 11
224.0255664026
 21
151.0859582462
 31
0.0
  0
LINE
  5
1A3
330
1F
100
AcDbEntity
  8
SLD-0
  6
Continuous
 62
   179
370
    15
100
AcDbLine
 10
224.0255664026
 20
142.0859582462
 30
0.0
 11
226.2313409484
 21
142.0859569237
 31
0.0
  0
LINE
  5
1A4
330
1F
100
AcDbEntity
  8
SLD-0
  6
Continuous
 62
   179
370
    15
100
AcDbLine
 10
213.0255664026
 20
156.5859582462
 30
0.0
 11
213.0255664026
 21
140.5859582462
 31
0.0
  0
LINE
  5
1A5
330
1F
100
AcDbEntity
  8
SLD-0
  6
Continuous
 62
   179
370
    15
100
AcDbLine
 10
245.0255664026
 20
140.5859582462
 30
0.0
 11
245.0255664026
 21
156.5859582462
 31
0.0
  0
LINE
  5
1A6
330
1F
100
AcDbEntity
  8
SLD-0
  6
Continuous
 62
   179
370
    15
100
AcDbLine
 10
217.0255664026
 20
232.5859582462
 30
0.0
 11
241.0255664026
 21
232.5859582462
 31
0.0
  0
LINE
  5
1A7
330
1F
100
AcDbEntity
  8
SLD-0
  6
Continuous
 62
   179
370
    15
100
AcDbLine
 10
226.2313409484
 20
227.0859578177
 30
0.0
 11
224.0255664026
 21
227.0859582462
 31
0.0
  0
LINE
  5
1A8
330
1F
100
AcDbEntity
  8
SLD-0
  6
Continuous
 62
   179
370
    15
100
AcDbLine
 10
224.0255664026
 20
218.0859582462
 30
0.0
 11
226.2313409484
 21
218.0859582052
 31
0.0
  0
LINE
  5
1A9
330
1F
100
AcDbEntity
  8
SLD-0
  6
Continuous
 62
   179
370
    15
100
AcDbLine
 10
245.0255664026
 20
212.5859582462
 30
0.0
 11
245.0255664026
 21
228.5859582462
 31
0.0
  0
LINE
  5
1AA
330
1F
100
AcDbEntity
  8
SLD-0
  6
Continuous
 62
   179
370
    15
100
AcDbLine
 10
213.0255664026
 20
228.5859582462
 30
0.0
 11
213.0255664026
 21
212.5859582462
 31
0.0
  0
LINE
  5
1AB
330
1F
100
AcDbEntity
  8
SLD-0
  6
Continuous
 62
   179
370
    15
100
AcDbLine
 10
438.0255664026
 20
362.5859582462
 30
0.0
 11
210.0255664026
 21
362.5859582462
 31
0.0
  0
LINE
  5
1AC
330
1F
100
AcDbEntity
  8
SLD-0
  6
Continuous
 62
   179
370
    15
100
AcDbLine
 10
310.0255664026
 20
252.5859582462
 30
0.0
 11
338.0255664026
 21
252.5859582462
 31
0.0
  0
LINE
  5
1AD
330
1F
100
AcDbEntity
  8
SLD-0
  6
Continuous
 62
   179
370
    15
100
AcDbLine
 10
294.0255665927
 20
224.5859564766
 30
0.0
 11
294.0255664026
 21
236.5859582462
 31
0.0
  0
LINE
  5
1AE
330
1F
100
AcDbEntity
  8
SLD-0
  6
Continuous
 62
   179
370
    15
100
AcDbLine
 10
370.0255664026
 20
132.5859582462
 30
0.0
 11
438.0255664026
 21
132.5859582462
 31
0.0
  0
LINE
  5
1AF
330
1F
100
AcDbEntity
  8
SLD-0
  6
Continuous
 62
   179
370
    15
100
AcDbLine
 10
354.0255664026
 20
236.5859582462
 30
0.0
 11
354.0255657173
 21
224.5859564766
 31
0.0
  0
LINE
  5
1B0
330
1F
100
AcDbEntity
  8
SLD-0
  6
Continuous
 62
   179
370
    15
100
AcDbLine
 10
194.0255664026
 20
346.5859582462
 30
0.0
 11
194.0255666879
 21
231.7859605806
 31
0.0
  0
LINE
  5
1B1
330
1F
100
AcDbEntity
  8
SLD-0
  6
Continuous
 62
   179
370
    15
100
AcDbLine
 10
454.0255664026
 20
148.5859582462
 30
0.0
 11
454.0255709327
 21
150.5859592483
 31
0.0
  0
LINE
  5
1B2
330
1F
100
AcDbEntity
  8
SLD-0
  6
Continuous
 62
   179
370
    15
100
AcDbLine
 10
454.0255709327
 20
231.7859591469
 30
0.0
 11
454.0255664026
 21
346.5859582462
 31
0.0
  0
LINE
  5
1B3
330
1F
100
AcDbEntity
  8
SLD-0
  6
Continuous
 62
   179
370
    15
100
AcDbLine
 10
210.0255664026
 20
132.5859582462
 30
0.0
 11
278.0255664026
 21
132.5859582462
 31
0.0
  0
LINE
  5
1B4
330
1F
100
AcDbEntity
  8
SLD-0
  6
Continuous
 62
   179
370
    15
100
AcDbLine
 10
286.0255664026
 20
177.5859582462
 30
0.0
 11
286.0255664026
 21
191.5859582462
 31
0.0
  0
LINE
  5
1B5
330
1F
100
AcDbEntity
  8
SLD-0
  6
Continuous
 62
   179
370
    15
100
AcDbLine
 10
362.0255664026
 20
184.5859582462
 30
0.0
 11
362.0255664026
 21
177.5859582462
 31
0.0
  0
LINE
  5
1B6
330
1F
100
AcDbEntity
  8
SLD-0
  6
Continuous
 62
   179
370
    15
100
AcDbLine
 10
362.0255664026
 20
191.5859582462
 30
0.0
 11
362.0255664026
 21
184.5859582462
 31
0.0
  0
LINE
  5
1B7
330
1F
100
AcDbEntity
  8
SLD-0
  6
Continuous
 62
   179
370
    15
100
AcDbLine
 10
370.0255664026
 20
184.9076405387
 30
0.0
 11
370.0255664026
 21
184.2642759537
 31
0.0
  0
LINE
  5
1B8
330
1F
100
AcDbEntity
  8
SLD-0
  6
Continuous
 62
   179
370
    15
100
AcDbLine
 10
462.0255664026
 20
158.5859582462
 30
0.0
 11
446.0255664026
 21
158.5859582462
 31
0.0
  0
LINE
  5
1B9
330
1F
100
AcDbEntity
  8
SLD-0
  6
Continuous
 62
   179
370
    15
100
AcDbLine
 10
446.0255664026
 20
210.5859582462
 30
0.0
 11
462.0255664026
 21
210.5859582462
 31
0.0
  0
LINE
  5
1BA
330
1F
100
AcDbEntity
  8
SLD-0
  6
Continuous
 62
     7
370
     0
100
AcDbLine
 10
188.5257228857
 20
175.012147058
 30
0.0
 11
187.8482438179
 21
174.2766050044
 31
0.0
  0
LINE
  5
1BB
330
1F
100
AcDbEntity
  8
ﾚｲﾔｰ0
100
AcDbLine
 10
187.8482438179
 20
174.2766050044
 30
0.0
 11
124.0233490775
 21
104.9816313653
 31
0.0
  0
LINE
  5
1BC
330
1F
100
AcDbEntity
  8
ﾚｲﾔｰ0
100
AcDbLine
 10
124.0233490775
 20
104.9816313653
 30
0.0
 11
59.3166299631
 21
104.9816313653
 31
0.0
  0
LINE
  5
1BD
330
1F
100
AcDbEntity
  8
SLD-0
  6
Continuous
 62
     7
370
     0
100
AcDbLine
 10
378.4052941935
 20
161.6874010195
 30
0.0
 11
379.2035299933
 21
161.0850559292
 31
0.0
  0
LINE
  5
1BE
330
1F
100
AcDbEntity
  8
ﾚｲﾔｰ0
100
AcDbLine
 10
379.2035299933
 20
161.0850559292
 30
0.0
 11
466.8920497417
 21
94.915699262
 31
0.0
  0
LINE
  5
1BF
330
1F
100
AcDbEntity
  8
ﾚｲﾔｰ0
100
AcDbLine
 10
466.8920497417
 20
94.915699262
 30
0.0
 11
531.5987688561
 21
94.915699262
 31
0.0
  0
LINE
  5
1C0
330
1F
100
AcDbEntity
  8
ﾚｲﾔｰ0
  6
Continuous
 62
   179
370
    15
100
AcDbLine
 10
202.0255665598
 20
210.5859605322
 30
0.0
 11
186.0255665597
 21
210.5859606289
 31
0.0
  0
LINE
  5
1C1
330
1F
100
AcDbEntity
  8
ﾚｲﾔｰ0
  6
Continuous
 62
   179
370
    15
100
AcDbLine
 10
197.5255666577
 20
226.7859605594
 30
0.0
 11
190.5255666577
 21
226.7859606017
 31
0.0
  0
LINE
  5
1C2
330
1F
100
AcDbEntity
  8
ﾚｲﾔｰ0
  6
Continuous
 62
   179
370
    15
100
AcDbLine
 10
197.0255666879
 20
231.7859605625
 30
0.0
 11
191.0255666879
 21
231.7859605987
 31
0.0
  0
LINE
  5
1C3
330
1F
100
AcDbEntity
  8
ﾚｲﾔｰ0
  6
Continuous
 62
   179
370
    15
100
AcDbLine
 10
197.5255666275
 20
221.7859605594
 30
0.0
 11
190.5255666275
 21
221.7859606017
 31
0.0
  0
LINE
  5
1C4
330
1F
100
AcDbEntity
  8
ﾚｲﾔｰ0
  6
Continuous
 62
   179
370
    15
100
AcDbLine
 10
190.0255651133
 20
217.7859609617
 30
0.0
 11
186.0255644577
 21
217.7859609858
 31
0.0
  0
LINE
  5
1C5
330
1F
100
AcDbEntity
  8
ﾚｲﾔｰ0
  6
Continuous
 62
   179
370
    15
100
AcDbLine
 10
186.0255644577
 20
217.7859609858
 30
0.0
 11
186.0255665731
 21
212.7859606289
 31
0.0
  0
LINE
  5
1C6
330
1F
100
AcDbEntity
  8
ﾚｲﾔｰ0
  6
Continuous
 62
   179
370
    15
100
AcDbLine
 10
202.0255670803
 20
217.7859608891
 30
0.0
 11
198.0255664246
 21
217.7859609133
 31
0.0
  0
LINE
  5
1C7
330
1F
100
AcDbEntity
  8
ﾚｲﾔｰ0
  6
Continuous
 62
   179
370
    15
100
AcDbLine
 10
202.0255665731
 20
212.7859605322
 30
0.0
 11
202.0255670803
 21
217.7859608891
 31
0.0
  0
LINE
  5
1C8
330
1F
100
AcDbEntity
  8
ﾚｲﾔｰ0
  6
Continuous
 62
   179
370
    15
100
AcDbLine
 10
198.0255664246
 20
217.7859609133
 30
0.0
 11
190.0255651133
 21
217.7859609617
 31
0.0
  0
LINE
  5
1C9
330
1F
100
AcDbEntity
  8
ﾚｲﾔｰ0
  6
Continuous
 62
   179
370
    15
100
AcDbLine
 10
198.0255665731
 20
212.7859605564
 30
0.0
 11
198.0255664246
 21
217.7859609133
 31
0.0
  0
LINE
  5
1CA
330
1F
100
AcDbEntity
  8
ﾚｲﾔｰ0
  6
Continuous
 62
   179
370
    15
100
AcDbLine
 10
190.0255665731
 20
212.7859606048
 30
0.0
 11
190.0255651133
 21
217.7859609617
 31
0.0
  0
LINE
  5
1CB
330
1F
100
AcDbEntity
  8
ﾚｲﾔｰ0
  6
Continuous
 62
   179
370
    15
100
AcDbLine
 10
202.0255665731
 20
212.7859605322
 30
0.0
 11
198.0255665731
 21
212.7859605564
 31
0.0
  0
LINE
  5
1CC
330
1F
100
AcDbEntity
  8
ﾚｲﾔｰ0
  6
Continuous
 62
   179
370
    15
100
AcDbLine
 10
190.0255665731
 20
212.7859606048
 30
0.0
 11
186.0255665731
 21
212.7859606289
 31
0.0
  0
LINE
  5
1CD
330
1F
100
AcDbEntity
  8
ﾚｲﾔｰ0
  6
Continuous
 62
   179
370
    15
100
AcDbLine
 10
198.0255665731
 20
212.7859605564
 30
0.0
 11
190.0255665731
 21
212.7859606048
 31
0.0
  0
LINE
  5
1CE
330
1F
100
AcDbEntity
  8
ﾚｲﾔｰ0
  6
Continuous
 62
   179
370
    15
100
AcDbLine
 10
190.8255637543
 20
217.7859609568
 30
0.0
 11
190.8255637785
 21
221.7859616125
 31
0.0
  0
LINE
  5
1CF
330
1F
100
AcDbEntity
  8
ﾚｲﾔｰ0
  6
Continuous
 62
   179
370
    15
100
AcDbLine
 10
197.2255678078
 20
221.7859615738
 30
0.0
 11
197.2255677836
 21
217.7859609181
 31
0.0
  0
LINE
  5
1D0
330
1F
100
AcDbEntity
  8
ﾚｲﾔｰ0
  6
Continuous
 62
   179
370
    15
100
AcDbLine
 10
197.0255666879
 20
231.7859605625
 30
0.0
 11
197.5255666577
 21
226.7859605594
 31
0.0
  0
LINE
  5
1D1
330
1F
100
AcDbEntity
  8
ﾚｲﾔｰ0
  6
Continuous
 62
   179
370
    15
100
AcDbLine
 10
190.5255666577
 20
226.7859606017
 30
0.0
 11
191.0255666879
 21
231.7859605987
 31
0.0
  0
LINE
  5
1D2
330
1F
100
AcDbEntity
  8
ﾚｲﾔｰ0
  6
Continuous
 62
   179
370
    15
100
AcDbLine
 10
197.0255644525
 20
226.7859642573
 30
0.0
 11
197.5255666275
 21
221.7859605594
 31
0.0
  0
LINE
  5
1D3
330
1F
100
AcDbEntity
  8
ﾚｲﾔｰ0
  6
Continuous
 62
   179
370
    15
100
AcDbLine
 10
190.5255666275
 20
221.7859606017
 30
0.0
 11
191.0255671943
 21
226.7859642935
 31
0.0
  0
LINE
  5
1D4
330
1F
100
AcDbEntity
  8
ﾚｲﾔｰ0
  6
Continuous
 62
   179
370
    15
100
AcDbLine
 10
186.0255665597
 20
210.5859606289
 30
0.0
 11
186.0255665731
 21
212.7859606289
 31
0.0
  0
LINE
  5
1D5
330
1F
100
AcDbEntity
  8
ﾚｲﾔｰ0
  6
Continuous
 62
   179
370
    15
100
AcDbLine
 10
202.0255665731
 20
212.7859605322
 30
0.0
 11
202.0255665598
 21
210.5859605322
 31
0.0
  0
LINE
  5
1D6
330
1F
100
AcDbEntity
  8
ﾚｲﾔｰ0
  6
Continuous
 62
   179
370
    15
100
AcDbLine
 10
186.0255662273
 20
158.5859606289
 30
0.0
 11
202.0255662273
 21
158.5859606289
 31
0.0
  0
LINE
  5
1D7
330
1F
100
AcDbEntity
  8
ﾚｲﾔｰ0
  6
Continuous
 62
   179
370
    15
100
AcDbLine
 10
186.0255640515
 20
150.5859596566
 30
0.0
 11
190.0255647071
 21
150.5859596566
 31
0.0
  0
LINE
  5
1D8
330
1F
100
AcDbEntity
  8
ﾚｲﾔｰ0
  6
Continuous
 62
   179
370
    15
100
AcDbLine
 10
186.0255662273
 20
155.5859606289
 30
0.0
 11
186.0255640515
 21
150.5859596566
 31
0.0
  0
LINE
  5
1D9
330
1F
100
AcDbEntity
  8
ﾚｲﾔｰ0
  6
Continuous
 62
   179
370
    15
100
AcDbLine
 10
198.0255660184
 20
150.5859596566
 30
0.0
 11
202.0255666741
 21
150.5859596566
 31
0.0
  0
LINE
  5
1DA
330
1F
100
AcDbEntity
  8
ﾚｲﾔｰ0
  6
Continuous
 62
   179
370
    15
100
AcDbLine
 10
202.0255666741
 20
150.5859596566
 30
0.0
 11
202.0255662273
 21
155.5859606289
 31
0.0
  0
LINE
  5
1DB
330
1F
100
AcDbEntity
  8
ﾚｲﾔｰ0
  6
Continuous
 62
   179
370
    15
100
AcDbLine
 10
190.0255647071
 20
150.5859596566
 30
0.0
 11
198.0255660184
 21
150.5859596566
 31
0.0
  0
LINE
  5
1DC
330
1F
100
AcDbEntity
  8
ﾚｲﾔｰ0
  6
Continuous
 62
   179
370
    15
100
AcDbLine
 10
190.0255662273
 20
155.5859606289
 30
0.0
 11
190.0255647071
 21
150.5859596566
 31
0.0
  0
LINE
  5
1DD
330
1F
100
AcDbEntity
  8
ﾚｲﾔｰ0
  6
Continuous
 62
   179
370
    15
100
AcDbLine
 10
198.0255662273
 20
155.5859606289
 30
0.0
 11
198.0255660184
 21
150.5859596566
 31
0.0
  0
LINE
  5
1DE
330
1F
100
AcDbEntity
  8
ﾚｲﾔｰ0
  6
Continuous
 62
   179
370
    15
100
AcDbLine
 10
186.0255662273
 20
155.5859606289
 30
0.0
 11
190.0255662273
 21
155.5859606289
 31
0.0
  0
LINE
  5
1DF
330
1F
100
AcDbEntity
  8
ﾚｲﾔｰ0
  6
Continuous
 62
   179
370
    15
100
AcDbLine
 10
198.0255662273
 20
155.5859606289
 30
0.0
 11
202.0255662273
 21
155.5859606289
 31
0.0
  0
LINE
  5
1E0
330
1F
100
AcDbEntity
  8
ﾚｲﾔｰ0
  6
Continuous
 62
   179
370
    15
100
AcDbLine
 10
190.0255662273
 20
155.5859606289
 30
0.0
 11
198.0255662273
 21
155.5859606289
 31
0.0
  0
LINE
  5
1E1
330
1F
100
AcDbEntity
  8
ﾚｲﾔｰ0
  6
Continuous
 62
   179
370
    15
100
AcDbLine
 10
202.0255662273
 20
158.5859606289
 30
0.0
 11
202.0255662273
 21
155.5859606289
 31
0.0
  0
LINE
  5
1E2
330
1F
100
AcDbEntity
  8
ﾚｲﾔｰ0
  6
Continuous
 62
   179
370
    15
100
AcDbLine
 10
186.0255662273
 20
155.5859606289
 30
0.0
 11
186.0255662273
 21
158.5859606289
 31
0.0
  0
LINE
  5
1E3
330
1F
100
AcDbEntity
  8
SLD-0
  6
Continuous
 62
   179
370
    15
100
AcDbLine
 10
286.0255664026
 20
486.3365290208
 30
0.0
 11
278.4255656189
 21
486.3365296914
 31
0.0
  0
LINE
  5
1E4
330
1F
100
AcDbEntity
  8
SLD-0
  6
Continuous
 62
   179
370
    15
100
AcDbLine
 10
278.4255656189
 20
472.3365292592
 30
0.0
 11
286.0255664026
 21
472.3365290208
 31
0.0
  0
LINE
  5
1E5
330
1F
100
AcDbEntity
  8
SLD-0
  6
Continuous
 62
   179
370
    15
100
AcDbLine
 10
362.0255664026
 20
472.3365290208
 30
0.0
 11
369.6255652941
 21
472.3365292592
 31
0.0
  0
LINE
  5
1E6
330
1F
100
AcDbEntity
  8
SLD-0
  6
Continuous
 62
   179
370
    15
100
AcDbLine
 10
369.6255652941
 20
486.3365296914
 30
0.0
 11
362.0255664026
 21
486.3365290208
 31
0.0
  0
LINE
  5
1E7
330
1F
100
AcDbEntity
  8
SLD-0
  6
Continuous
 62
   179
370
    15
100
AcDbLine
 10
241.0255664026
 20
492.1365290208
 30
0.0
 11
241.0255676842
 21
499.7365292801
 31
0.0
  0
LINE
  5
1E8
330
1F
100
AcDbEntity
  8
SLD-0
  6
Continuous
 62
   179
370
    15
100
AcDbLine
 10
227.0255653895
 20
499.7365292801
 30
0.0
 11
227.0255664026
 21
492.1365290208
 31
0.0
  0
LINE
  5
1E9
330
1F
100
AcDbEntity
  8
SLD-0
  6
Continuous
 62
   179
370
    15
100
AcDbLine
 10
421.0255664026
 20
492.1365290208
 30
0.0
 11
421.0255636609
 21
499.7365292801
 31
0.0
  0
LINE
  5
1EA
330
1F
100
AcDbEntity
  8
SLD-0
  6
Continuous
 62
   179
370
    15
100
AcDbLine
 10
407.0255650914
 20
499.7365292801
 30
0.0
 11
407.0255664026
 21
492.1365290208
 31
0.0
  0
LINE
  5
1EB
330
1F
100
AcDbEntity
  8
SLD-0
  6
Continuous
 62
   179
370
    15
100
AcDbLine
 10
278.4255664026
 20
486.9365290208
 30
0.0
 11
276.4255671538
 21
486.9365286721
 31
0.0
  0
LINE
  5
1EC
330
1F
100
AcDbEntity
  8
SLD-0
  6
Continuous
 62
   179
370
    15
100
AcDbLine
 10
276.4255671538
 20
471.7365302785
 30
0.0
 11
278.4255664026
 21
471.7365290208
 31
0.0
  0
LINE
  5
1ED
330
1F
100
AcDbEntity
  8
SLD-0
  6
Continuous
 62
   179
370
    15
100
AcDbLine
 10
226.4255626834
 20
501.7365286766
 30
0.0
 11
226.4255664026
 21
499.7365290208
 31
0.0
  0
LINE
  5
1EE
330
1F
100
AcDbEntity
  8
SLD-0
  6
Continuous
 62
   179
370
    15
100
AcDbLine
 10
406.425569836
 20
501.7365286766
 30
0.0
 11
406.4255664026
 21
499.7365290208
 31
0.0
  0
LINE
  5
1EF
330
1F
100
AcDbEntity
  8
SLD-0
  6
Continuous
 62
   179
370
    15
100
AcDbLine
 10
371.6255693472
 20
486.9365286721
 30
0.0
 11
369.6255664026
 21
486.9365290208
 31
0.0
  0
LINE
  5
1F0
330
1F
100
AcDbEntity
  8
SLD-0
  6
Continuous
 62
   179
370
    15
100
AcDbLine
 10
276.4255664026
 20
488.3365290208
 30
0.0
 11
274.8255664026
 21
488.3365290208
 31
0.0
  0
LINE
  5
1F1
330
1F
100
AcDbEntity
  8
SLD-0
  6
Continuous
 62
   179
370
    15
100
AcDbLine
 10
274.8255664026
 20
470.3365290208
 30
0.0
 11
276.4255664026
 21
470.3365290208
 31
0.0
  0
LINE
  5
1F2
330
1F
100
AcDbEntity
  8
SLD-0
  6
Continuous
 62
   179
370
    15
100
AcDbLine
 10
371.6255664026
 20
470.3365290208
 30
0.0
 11
373.2255664026
 21
470.3365290208
 31
0.0
  0
LINE
  5
1F3
330
1F
100
AcDbEntity
  8
SLD-0
  6
Continuous
 62
   179
370
    15
100
AcDbLine
 10
373.2255664026
 20
488.3365290208
 30
0.0
 11
371.6255664026
 21
488.3365290208
 31
0.0
  0
LINE
  5
1F4
330
1F
100
AcDbEntity
  8
SLD-0
  6
Continuous
 62
   179
370
    15
100
AcDbLine
 10
423.0255664026
 20
501.7365290208
 30
0.0
 11
423.025567714
 21
503.3365287526
 31
0.0
  0
LINE
  5
1F5
330
1F
100
AcDbEntity
  8
SLD-0
  6
Continuous
 62
   179
370
    15
100
AcDbLine
 10
405.0255684889
 20
503.3365287526
 30
0.0
 11
405.0255664026
 21
501.7365290208
 31
0.0
  0
LINE
  5
1F6
330
1F
100
AcDbEntity
  8
SLD-0
  6
Continuous
 62
   179
370
    15
100
AcDbLine
 10
243.0255664026
 20
501.7365290208
 30
0.0
 11
243.0255680121
 21
503.3365287526
 31
0.0
  0
LINE
  5
1F7
330
1F
100
AcDbEntity
  8
SLD-0
  6
Continuous
 62
   179
370
    15
100
AcDbLine
 10
225.0255687869
 20
503.3365287526
 30
0.0
 11
225.0255664026
 21
501.7365290208
 31
0.0
  0
LINE
  5
1F8
330
1F
100
AcDbEntity
  8
SLD-0
  6
Continuous
 62
   179
370
    15
100
AcDbLine
 10
408.0255664026
 20
520.3365290208
 30
0.0
 11
408.025567118
 21
516.3365290208
 31
0.0
  0
LINE
  5
1F9
330
1F
100
AcDbEntity
  8
SLD-0
  6
Continuous
 62
   179
370
    15
100
AcDbLine
 10
404.0255664026
 20
520.3365290208
 30
0.0
 11
404.0255664623
 21
516.3365290208
 31
0.0
  0
LINE
  5
1FA
330
1F
100
AcDbEntity
  8
SLD-0
  6
Continuous
 62
   179
370
    15
100
AcDbLine
 10
408.0255664026
 20
520.3365290208
 30
0.0
 11
404.0255664026
 21
520.3365290208
 31
0.0
  0
LINE
  5
1FB
330
1F
100
AcDbEntity
  8
SLD-0
  6
Continuous
 62
   179
370
    15
100
AcDbLine
 10
424.0255664026
 20
520.3365290208
 30
0.0
 11
424.0255697406
 21
516.3365290208
 31
0.0
  0
LINE
  5
1FC
330
1F
100
AcDbEntity
  8
SLD-0
  6
Continuous
 62
   179
370
    15
100
AcDbLine
 10
420.0255664026
 20
520.3365290208
 30
0.0
 11
420.0255690849
 21
516.3365290208
 31
0.0
  0
LINE
  5
1FD
330
1F
100
AcDbEntity
  8
SLD-0
  6
Continuous
 62
   179
370
    15
100
AcDbLine
 10
424.0255664026
 20
520.3365290208
 30
0.0
 11
420.0255664026
 21
520.3365290208
 31
0.0
  0
LINE
  5
1FE
330
1F
100
AcDbEntity
  8
SLD-0
  6
Continuous
 62
   179
370
    15
100
AcDbLine
 10
420.0255664026
 20
520.3365290208
 30
0.0
 11
408.0255664026
 21
520.3365290208
 31
0.0
  0
LINE
  5
1FF
330
1F
100
AcDbEntity
  8
SLD-0
  6
Continuous
 62
   179
370
    15
100
AcDbLine
 10
244.0255664026
 20
520.3365290208
 30
0.0
 11
240.0255664026
 21
520.3365290208
 31
0.0
  0
LINE
  5
200
330
1F
100
AcDbEntity
  8
SLD-0
  6
Continuous
 62
   179
370
    15
100
AcDbLine
 10
244.0255664026
 20
520.3365290208
 30
0.0
 11
244.0255663133
 21
516.3365290208
 31
0.0
  0
LINE
  5
201
330
1F
100
AcDbEntity
  8
SLD-0
  6
Continuous
 62
   179
370
    15
100
AcDbLine
 10
240.0255664026
 20
520.3365290208
 30
0.0
 11
240.0255656577
 21
516.3365290208
 31
0.0
  0
LINE
  5
202
330
1F
100
AcDbEntity
  8
SLD-0
  6
Continuous
 62
   179
370
    15
100
AcDbLine
 10
228.0255664026
 20
520.3365290208
 30
0.0
 11
224.0255664026
 21
520.3365290208
 31
0.0
  0
LINE
  5
203
330
1F
100
AcDbEntity
  8
SLD-0
  6
Continuous
 62
   179
370
    15
100
AcDbLine
 10
228.0255664026
 20
520.3365290208
 30
0.0
 11
228.025567416
 21
516.3365290208
 31
0.0
  0
LINE
  5
204
330
1F
100
AcDbEntity
  8
SLD-0
  6
Continuous
 62
   179
370
    15
100
AcDbLine
 10
224.0255664026
 20
520.3365290208
 30
0.0
 11
224.0255667604
 21
516.3365290208
 31
0.0
  0
LINE
  5
205
330
1F
100
AcDbEntity
  8
SLD-0
  6
Continuous
 62
   179
370
    15
100
AcDbLine
 10
240.0255664026
 20
520.3365290208
 30
0.0
 11
228.0255664026
 21
520.3365290208
 31
0.0
  0
LINE
  5
206
330
1F
100
AcDbEntity
  8
SLD-0
  6
Continuous
 62
   179
370
    15
100
AcDbLine
 10
286.4255664026
 20
485.9365290208
 30
0.0
 11
286.4255664026
 21
472.7365290208
 31
0.0
  0
LINE
  5
207
330
1F
100
AcDbEntity
  8
SLD-0
  6
Continuous
 62
   179
370
    15
100
AcDbLine
 10
361.6255664026
 20
472.7365290208
 30
0.0
 11
361.6255664026
 21
485.9365290208
 31
0.0
  0
LINE
  5
208
330
1F
100
AcDbEntity
  8
SLD-0
  6
Continuous
 62
   179
370
    15
100
AcDbLine
 10
240.6255664026
 20
491.7365290208
 30
0.0
 11
227.4255664026
 21
491.7365290208
 31
0.0
  0
LINE
  5
209
330
1F
100
AcDbEntity
  8
SLD-0
  6
Continuous
 62
   179
370
    15
100
AcDbLine
 10
420.6255664026
 20
491.7365290208
 30
0.0
 11
407.4255664026
 21
491.7365290208
 31
0.0
  0
LINE
  5
20A
330
1F
100
AcDbEntity
  8
SLD-0
  6
Continuous
 62
   179
370
    15
100
AcDbLine
 10
278.4255664026
 20
486.9365290208
 30
0.0
 11
278.4255664026
 21
471.7365290208
 31
0.0
  0
LINE
  5
20B
330
1F
100
AcDbEntity
  8
SLD-0
  6
Continuous
 62
   179
370
    15
100
AcDbLine
 10
241.602138139
 20
499.7365290208
 30
0.0
 11
241.6021383143
 21
501.7365286766
 31
0.0
  0
LINE
  5
20C
330
1F
100
AcDbEntity
  8
SLD-0
  6
Continuous
 62
   179
370
    15
100
AcDbLine
 10
241.602138139
 20
499.7365290208
 30
0.0
 11
226.4255664026
 21
499.7365290208
 31
0.0
  0
LINE
  5
20D
330
1F
100
AcDbEntity
  8
SLD-0
  6
Continuous
 62
   179
370
    15
100
AcDbLine
 10
421.602138139
 20
499.7365290208
 30
0.0
 11
421.6021417416
 21
501.7365286766
 31
0.0
  0
LINE
  5
20E
330
1F
100
AcDbEntity
  8
SLD-0
  6
Continuous
 62
   179
370
    15
100
AcDbLine
 10
421.602138139
 20
499.7365290208
 30
0.0
 11
406.4255664026
 21
499.7365290208
 31
0.0
  0
LINE
  5
20F
330
1F
100
AcDbEntity
  8
SLD-0
  6
Continuous
 62
   179
370
    15
100
AcDbLine
 10
369.6255664026
 20
471.7599572844
 30
0.0
 11
371.6255693472
 21
471.7599586292
 31
0.0
  0
LINE
  5
210
330
1F
100
AcDbEntity
  8
SLD-0
  6
Continuous
 62
   179
370
    15
100
AcDbLine
 10
369.6255664026
 20
471.7599572844
 30
0.0
 11
369.6255664026
 21
486.9365290208
 31
0.0
  0
LINE
  5
211
330
1F
100
AcDbEntity
  8
SLD-0
  6
Continuous
 62
   179
370
    15
100
AcDbLine
 10
274.8255664026
 20
488.3365290208
 30
0.0
 11
274.8255664026
 21
470.3365290208
 31
0.0
  0
LINE
  5
212
330
1F
100
AcDbEntity
  8
SLD-0
  6
Continuous
 62
   179
370
    15
100
AcDbLine
 10
276.4255664026
 20
488.3365290208
 30
0.0
 11
276.4255664026
 21
470.3365290208
 31
0.0
  0
LINE
  5
213
330
1F
100
AcDbEntity
  8
SLD-0
  6
Continuous
 62
   179
370
    15
100
AcDbLine
 10
373.2255664026
 20
470.3365290208
 30
0.0
 11
373.2255664026
 21
488.3365290208
 31
0.0
  0
LINE
  5
214
330
1F
100
AcDbEntity
  8
SLD-0
  6
Continuous
 62
   179
370
    15
100
AcDbLine
 10
371.6255664026
 20
470.3365290208
 30
0.0
 11
371.6255664026
 21
488.3365290208
 31
0.0
  0
LINE
  5
215
330
1F
100
AcDbEntity
  8
SLD-0
  6
Continuous
 62
   179
370
    15
100
AcDbLine
 10
423.0255664026
 20
501.7365290208
 30
0.0
 11
405.0255664026
 21
501.7365290208
 31
0.0
  0
LINE
  5
216
330
1F
100
AcDbEntity
  8
SLD-0
  6
Continuous
 62
   179
370
    15
100
AcDbLine
 10
243.0255664026
 20
501.7365290208
 30
0.0
 11
225.0255664026
 21
501.7365290208
 31
0.0
  0
LINE
  5
217
330
1F
100
AcDbEntity
  8
SLD-0
  6
Continuous
 62
   179
370
    15
100
AcDbLine
 10
294.1677022501
 20
502.9365294321
 30
0.0
 11
295.025566291
 21
505.3629358007
 31
0.0
  0
LINE
  5
218
330
1F
100
AcDbEntity
  8
SLD-0
  6
Continuous
 62
   179
370
    15
100
AcDbLine
 10
294.1677022501
 20
502.9365294321
 30
0.0
 11
273.425566662
 21
502.9365294321
 31
0.0
  0
LINE
  5
219
330
1F
100
AcDbEntity
  8
SLD-0
  6
Continuous
 62
   179
370
    15
100
AcDbLine
 10
273.425566662
 20
502.9365294321
 30
0.0
 11
273.4255664026
 21
473.3365290208
 31
0.0
  0
LINE
  5
21A
330
1F
100
AcDbEntity
  8
SLD-0
  6
Continuous
 62
   179
370
    15
100
AcDbLine
 10
273.4255664026
 20
473.3365290208
 30
0.0
 11
267.0255664026
 21
473.3365290208
 31
0.0
  0
LINE
  5
21B
330
1F
100
AcDbEntity
  8
SLD-0
  6
Continuous
 62
   179
370
    15
100
AcDbLine
 10
267.0255664026
 20
473.3365290208
 30
0.0
 11
267.0255664026
 21
503.3365290208
 31
0.0
  0
LINE
  5
21C
330
1F
100
AcDbEntity
  8
SLD-0
  6
Continuous
 62
   179
370
    15
100
AcDbLine
 10
273.0255664026
 20
509.3365290208
 30
0.0
 11
293.6206890046
 21
509.3365288047
 31
0.0
  0
LINE
  5
21D
330
1F
100
AcDbEntity
  8
SLD-0
  6
Continuous
 62
   179
370
    15
100
AcDbLine
 10
293.6206890046
 20
509.3365288047
 30
0.0
 11
295.025566291
 21
505.3629358007
 31
0.0
  0
LINE
  5
21E
330
1F
100
AcDbEntity
  8
SLD-0
  6
Continuous
 62
   179
370
    15
100
AcDbLine
 10
273.4255664026
 20
467.3365290208
 30
0.0
 11
267.0255664026
 21
467.3365290208
 31
0.0
  0
LINE
  5
21F
330
1F
100
AcDbEntity
  8
SLD-0
  6
Continuous
 62
   179
370
    15
100
AcDbLine
 10
267.0255664026
 20
473.3365290208
 30
0.0
 11
267.0255664026
 21
467.3365290208
 31
0.0
  0
LINE
  5
220
330
1F
100
AcDbEntity
  8
SLD-0
  6
Continuous
 62
   179
370
    15
100
AcDbLine
 10
273.4255664026
 20
473.3365290208
 30
0.0
 11
273.4255664026
 21
467.3365290208
 31
0.0
  0
LINE
  5
221
330
1F
100
AcDbEntity
  8
SLD-0
  6
Continuous
 62
   179
370
    15
100
AcDbLine
 10
293.6206890046
 20
509.3365288047
 30
0.0
 11
295.025566291
 21
509.3365288047
 31
0.0
  0
LINE
  5
222
330
1F
100
AcDbEntity
  8
SLD-0
  6
Continuous
 62
   179
370
    15
100
AcDbLine
 10
295.025566291
 20
509.3365288047
 30
0.0
 11
295.025566291
 21
505.3629358007
 31
0.0
  0
LINE
  5
223
330
1F
100
AcDbEntity
  8
SLD-0
  6
Continuous
 62
   179
370
    15
100
AcDbLine
 10
295.025566291
 20
505.3629358007
 30
0.0
 11
295.025566291
 21
502.9365294321
 31
0.0
  0
LINE
  5
224
330
1F
100
AcDbEntity
  8
SLD-0
  6
Continuous
 62
   179
370
    15
100
AcDbLine
 10
294.1677022501
 20
502.9365294321
 30
0.0
 11
295.025566291
 21
502.9365294321
 31
0.0
  0
LINE
  5
225
330
1F
100
AcDbEntity
  8
SLD-0
  6
Continuous
 62
   179
370
    15
100
AcDbLine
 10
273.4255664026
 20
473.3365290208
 30
0.0
 11
274.8255664026
 21
473.3365290208
 31
0.0
  0
LINE
  5
226
330
1F
100
AcDbEntity
  8
SLD-0
  6
Continuous
 62
   179
370
    15
100
AcDbLine
 10
274.8255664026
 20
485.3365290208
 30
0.0
 11
273.425566662
 21
485.3365295275
 31
0.0
  0
LINE
  5
227
330
1F
100
AcDbEntity
  8
SLD-0
  6
Continuous
 62
   179
370
    15
100
AcDbLine
 10
274.8255664026
 20
485.3365290208
 30
0.0
 11
274.8255664026
 21
473.3365290208
 31
0.0
  0
LINE
  5
228
330
1F
100
AcDbEntity
  8
SLD-0
  6
Continuous
 62
   179
370
    15
100
AcDbLine
 10
374.6255679763
 20
502.9365294321
 30
0.0
 11
374.6255664026
 21
473.3365290208
 31
0.0
  0
LINE
  5
229
330
1F
100
AcDbEntity
  8
SLD-0
  6
Continuous
 62
   179
370
    15
100
AcDbLine
 10
353.8834309912
 20
502.9365294321
 30
0.0
 11
374.6255679763
 21
502.9365294321
 31
0.0
  0
LINE
  5
22A
330
1F
100
AcDbEntity
  8
SLD-0
  6
Continuous
 62
   179
370
    15
100
AcDbLine
 10
353.8834309912
 20
502.9365294321
 30
0.0
 11
354.5255667306
 21
504.7527630521
 31
0.0
  0
LINE
  5
22B
330
1F
100
AcDbEntity
  8
SLD-0
  6
Continuous
 62
   179
370
    15
100
AcDbLine
 10
354.5255667306
 20
504.7527630521
 30
0.0
 11
353.025567416
 21
508.9954035065
 31
0.0
  0
LINE
  5
22C
330
1F
100
AcDbEntity
  8
SLD-0
  6
Continuous
 62
   179
370
    15
100
AcDbLine
 10
353.1461736894
 20
509.3365288047
 30
0.0
 11
353.025567416
 21
508.9954035065
 31
0.0
  0
LINE
  5
22D
330
1F
100
AcDbEntity
  8
SLD-0
  6
Continuous
 62
   179
370
    15
100
AcDbLine
 10
375.0255664026
 20
509.3365290208
 30
0.0
 11
353.1461736894
 21
509.3365288047
 31
0.0
  0
LINE
  5
22E
330
1F
100
AcDbEntity
  8
SLD-0
  6
Continuous
 62
   179
370
    15
100
AcDbLine
 10
381.0255664026
 20
473.3365290208
 30
0.0
 11
381.0255664026
 21
503.3365290208
 31
0.0
  0
LINE
  5
22F
330
1F
100
AcDbEntity
  8
SLD-0
  6
Continuous
 62
   179
370
    15
100
AcDbLine
 10
381.0255664026
 20
473.3365290208
 30
0.0
 11
374.6255664026
 21
473.3365290208
 31
0.0
  0
LINE
  5
230
330
1F
100
AcDbEntity
  8
SLD-0
  6
Continuous
 62
   179
370
    15
100
AcDbLine
 10
381.0255664026
 20
467.3365290208
 30
0.0
 11
374.6255664026
 21
467.3365290208
 31
0.0
  0
LINE
  5
231
330
1F
100
AcDbEntity
  8
SLD-0
  6
Continuous
 62
   179
370
    15
100
AcDbLine
 10
381.0255664026
 20
467.3365290208
 30
0.0
 11
381.0255664026
 21
473.3365290208
 31
0.0
  0
LINE
  5
232
330
1F
100
AcDbEntity
  8
SLD-0
  6
Continuous
 62
   179
370
    15
100
AcDbLine
 10
374.6255664026
 20
473.3365290208
 30
0.0
 11
374.6255664026
 21
467.3365290208
 31
0.0
  0
LINE
  5
233
330
1F
100
AcDbEntity
  8
SLD-0
  6
Continuous
 62
   179
370
    15
100
AcDbLine
 10
353.025567416
 20
508.9954035065
 30
0.0
 11
353.025567416
 21
502.9365294321
 31
0.0
  0
LINE
  5
234
330
1F
100
AcDbEntity
  8
SLD-0
  6
Continuous
 62
   179
370
    15
100
AcDbLine
 10
353.025567416
 20
502.9365294321
 30
0.0
 11
353.8834309912
 21
502.9365294321
 31
0.0
  0
LINE
  5
235
330
1F
100
AcDbEntity
  8
SLD-0
  6
Continuous
 62
   179
370
    15
100
AcDbLine
 10
353.025567416
 20
509.3365288047
 30
0.0
 11
353.025567416
 21
508.9954035065
 31
0.0
  0
LINE
  5
236
330
1F
100
AcDbEntity
  8
SLD-0
  6
Continuous
 62
   179
370
    15
100
AcDbLine
 10
353.1461736894
 20
509.3365288047
 30
0.0
 11
353.025567416
 21
509.3365288047
 31
0.0
  0
LINE
  5
237
330
1F
100
AcDbEntity
  8
SLD-0
  6
Continuous
 62
   179
370
    15
100
AcDbLine
 10
374.6255679763
 20
485.3365295275
 30
0.0
 11
373.2255664026
 21
485.3365290208
 31
0.0
  0
LINE
  5
238
330
1F
100
AcDbEntity
  8
SLD-0
  6
Continuous
 62
   179
370
    15
100
AcDbLine
 10
374.6255664026
 20
473.3365290208
 30
0.0
 11
373.2255664026
 21
473.3365290208
 31
0.0
  0
LINE
  5
239
330
1F
100
AcDbEntity
  8
SLD-0
  6
Continuous
 62
   179
370
    15
100
AcDbLine
 10
373.2255664026
 20
473.3365290208
 30
0.0
 11
373.2255664026
 21
485.3365290208
 31
0.0
  0
LINE
  5
23A
330
1F
100
AcDbEntity
  8
SLD-0
  6
Continuous
 62
   179
370
    15
100
AcDbLine
 10
431.0255664026
 20
503.3365290208
 30
0.0
 11
431.0255690253
 21
510.3365289687
 31
0.0
  0
LINE
  5
23B
330
1F
100
AcDbEntity
  8
SLD-0
  6
Continuous
 62
   179
370
    15
100
AcDbLine
 10
407.0255664026
 20
503.3365290208
 30
0.0
 11
431.0255664026
 21
503.3365290208
 31
0.0
  0
LINE
  5
23C
330
1F
100
AcDbEntity
  8
SLD-0
  6
Continuous
 62
   179
370
    15
100
AcDbLine
 10
407.0255650914
 20
510.3365289687
 30
0.0
 11
407.0255664026
 21
503.3365290208
 31
0.0
  0
LINE
  5
23D
330
1F
100
AcDbEntity
  8
SLD-0
  6
Continuous
 62
   179
370
    15
100
AcDbLine
 10
431.0255664026
 20
503.3365290208
 30
0.0
 11
435.0255664026
 21
503.3365290208
 31
0.0
  0
LINE
  5
23E
330
1F
100
AcDbEntity
  8
SLD-0
  6
Continuous
 62
   179
370
    15
100
AcDbLine
 10
435.0255664026
 20
503.3365290208
 30
0.0
 11
435.0255622304
 21
510.3365289687
 31
0.0
  0
LINE
  5
23F
330
1F
100
AcDbEntity
  8
SLD-0
  6
Continuous
 62
   179
370
    15
100
AcDbLine
 10
403.0255664026
 20
503.3365290208
 30
0.0
 11
407.0255664026
 21
503.3365290208
 31
0.0
  0
LINE
  5
240
330
1F
100
AcDbEntity
  8
SLD-0
  6
Continuous
 62
   179
370
    15
100
AcDbLine
 10
403.0255644358
 20
510.3365289687
 30
0.0
 11
403.0255664026
 21
503.3365290208
 31
0.0
  0
LINE
  5
241
330
1F
100
AcDbEntity
  8
SLD-0
  6
Continuous
 62
   179
370
    15
100
AcDbLine
 10
458.0255664026
 20
472.4083257905
 30
0.0
 11
462.0255664026
 21
479.3365290208
 31
0.0
  0
LINE
  5
242
330
1F
100
AcDbEntity
  8
SLD-0
  6
Continuous
 62
   179
370
    15
100
AcDbLine
 10
450.0255664026
 20
472.4083257905
 30
0.0
 11
458.0255664026
 21
472.4083257905
 31
0.0
  0
LINE
  5
243
330
1F
100
AcDbEntity
  8
SLD-0
  6
Continuous
 62
   179
370
    15
100
AcDbLine
 10
446.0255664026
 20
479.3365290208
 30
0.0
 11
450.0255664026
 21
472.4083257905
 31
0.0
  0
LINE
  5
244
330
1F
100
AcDbEntity
  8
SLD-0
  6
Continuous
 62
   179
370
    15
100
AcDbLine
 10
458.0255664026
 20
486.264732251
 30
0.0
 11
450.0255664026
 21
486.264732251
 31
0.0
  0
LINE
  5
245
330
1F
100
AcDbEntity
  8
SLD-0
  6
Continuous
 62
   179
370
    15
100
AcDbLine
 10
462.0255664026
 20
479.3365290208
 30
0.0
 11
458.0255664026
 21
486.264732251
 31
0.0
  0
LINE
  5
246
330
1F
100
AcDbEntity
  8
SLD-0
  6
Continuous
 62
   179
370
    15
100
AcDbLine
 10
450.0255664026
 20
486.264732251
 30
0.0
 11
446.0255664026
 21
479.3365290208
 31
0.0
  0
LINE
  5
247
330
1F
100
AcDbEntity
  8
SLD-0
  6
Continuous
 62
   179
370
    15
100
AcDbLine
 10
435.0255664026
 20
500.3365290208
 30
0.0
 11
435.0255664026
 21
503.3365290208
 31
0.0
  0
LINE
  5
248
330
1F
100
AcDbEntity
  8
SLD-0
  6
Continuous
 62
   179
370
    15
100
AcDbLine
 10
403.0255664026
 20
503.3365290208
 30
0.0
 11
403.0255664026
 21
500.3365290208
 31
0.0
  0
LINE
  5
249
330
1F
100
AcDbEntity
  8
SLD-0
  6
Continuous
 62
   179
370
    15
100
AcDbLine
 10
467.0255664026
 20
495.3365290208
 30
0.0
 11
435.0255622304
 21
495.3365293039
 31
0.0
  0
LINE
  5
24A
330
1F
100
AcDbEntity
  8
SLD-0
  6
Continuous
 62
   179
370
    15
100
AcDbLine
 10
467.0255664026
 20
463.3365290201
 30
0.0
 11
467.0255664026
 21
495.3365290208
 31
0.0
  0
LINE
  5
24B
330
1F
100
AcDbEntity
  8
SLD-0
  6
Continuous
 62
   179
370
    15
100
AcDbLine
 10
467.0255664026
 20
463.3365290201
 30
0.0
 11
388.0255664026
 21
463.3365290208
 31
0.0
  0
LINE
  5
24C
330
1F
100
AcDbEntity
  8
SLD-0
  6
Continuous
 62
   179
370
    15
100
AcDbLine
 10
388.0255664026
 20
463.3365290208
 30
0.0
 11
388.0255664026
 21
495.3365290213
 31
0.0
  0
LINE
  5
24D
330
1F
100
AcDbEntity
  8
SLD-0
  6
Continuous
 62
   179
370
    15
100
AcDbLine
 10
388.0255664026
 20
495.3365290213
 30
0.0
 11
403.0255644358
 21
495.3365293039
 31
0.0
  0
LINE
  5
24E
330
1F
100
AcDbEntity
  8
SLD-0
  6
Continuous
 62
   179
370
    15
100
AcDbLine
 10
435.0255664026
 20
500.3365290208
 30
0.0
 11
435.0255622304
 21
495.3365293039
 31
0.0
  0
LINE
  5
24F
330
1F
100
AcDbEntity
  8
SLD-0
  6
Continuous
 62
   179
370
    15
100
AcDbLine
 10
403.0255644358
 20
495.3365293039
 30
0.0
 11
403.0255664026
 21
500.3365290208
 31
0.0
  0
LINE
  5
250
330
1F
100
AcDbEntity
  8
SLD-0
  6
Continuous
 62
   179
370
    15
100
AcDbLine
 10
469.0255664026
 20
495.3365290208
 30
0.0
 11
467.0255664026
 21
495.3365290208
 31
0.0
  0
LINE
  5
251
330
1F
100
AcDbEntity
  8
SLD-0
  6
Continuous
 62
   179
370
    15
100
AcDbLine
 10
469.0255664026
 20
463.3365290205
 30
0.0
 11
469.0255664026
 21
495.3365290208
 31
0.0
  0
LINE
  5
252
330
1F
100
AcDbEntity
  8
SLD-0
  6
Continuous
 62
   179
370
    15
100
AcDbLine
 10
469.0255664026
 20
463.3365290205
 30
0.0
 11
467.0255664026
 21
463.3365290201
 31
0.0
  0
LINE
  5
253
330
1F
100
AcDbEntity
  8
SLD-0
  6
Continuous
 62
   179
370
    15
100
AcDbLine
 10
467.0255664026
 20
454.3365290208
 30
0.0
 11
467.0255664026
 21
463.3365290201
 31
0.0
  0
LINE
  5
254
330
1F
100
AcDbEntity
  8
SLD-0
  6
Continuous
 62
   179
370
    15
100
AcDbLine
 10
467.0255664026
 20
454.3365290208
 30
0.0
 11
388.0255664026
 21
454.3365290208
 31
0.0
  0
LINE
  5
255
330
1F
100
AcDbEntity
  8
SLD-0
  6
Continuous
 62
   179
370
    15
100
AcDbLine
 10
388.0255664026
 20
454.3365290208
 30
0.0
 11
388.0255664026
 21
463.3365290208
 31
0.0
  0
LINE
  5
256
330
1F
100
AcDbEntity
  8
SLD-0
  6
Continuous
 62
   179
370
    15
100
AcDbLine
 10
469.0255664026
 20
456.3365291175
 30
0.0
 11
469.0255664026
 21
463.3365290205
 31
0.0
  0
LINE
  5
257
330
1F
100
AcDbEntity
  8
SLD-0
  6
Continuous
 62
   179
370
    15
100
AcDbLine
 10
388.0255664026
 20
495.3365290213
 30
0.0
 11
388.0255664026
 21
504.3365290208
 31
0.0
  0
LINE
  5
258
330
1F
100
AcDbEntity
  8
SLD-0
  6
Continuous
 62
   179
370
    15
100
AcDbLine
 10
403.0255644358
 20
504.3365289165
 30
0.0
 11
388.0255664026
 21
504.3365290208
 31
0.0
  0
LINE
  5
259
330
1F
100
AcDbEntity
  8
SLD-0
  6
Continuous
 62
   179
370
    15
100
AcDbLine
 10
386.0255664026
 20
495.336529021
 30
0.0
 11
388.0255664026
 21
495.3365290213
 31
0.0
  0
LINE
  5
25A
330
1F
100
AcDbEntity
  8
SLD-0
  6
Continuous
 62
   179
370
    15
100
AcDbLine
 10
386.0255664026
 20
495.336529021
 30
0.0
 11
386.0255664026
 21
502.3365290208
 31
0.0
  0
LINE
  5
25B
330
1F
100
AcDbEntity
  8
SLD-0
  6
Continuous
 62
   179
370
    15
100
AcDbLine
 10
388.0255664026
 20
463.3365290208
 30
0.0
 11
386.0255664026
 21
463.3365290208
 31
0.0
  0
LINE
  5
25C
330
1F
100
AcDbEntity
  8
SLD-0
  6
Continuous
 62
   179
370
    15
100
AcDbLine
 10
386.0255664026
 20
463.3365290208
 30
0.0
 11
386.0255664026
 21
495.336529021
 31
0.0
  0
LINE
  5
25D
330
1F
100
AcDbEntity
  8
SLD-0
  6
Continuous
 62
   179
370
    15
100
AcDbLine
 10
469.0255664026
 20
495.3365290208
 30
0.0
 11
469.0255664026
 21
502.3365290208
 31
0.0
  0
LINE
  5
25E
330
1F
100
AcDbEntity
  8
SLD-0
  6
Continuous
 62
   179
370
    15
100
AcDbLine
 10
467.0255664026
 20
495.3365290208
 30
0.0
 11
467.0255664026
 21
504.3365290208
 31
0.0
  0
LINE
  5
25F
330
1F
100
AcDbEntity
  8
SLD-0
  6
Continuous
 62
   179
370
    15
100
AcDbLine
 10
467.0255664026
 20
504.3365290208
 30
0.0
 11
435.0255622304
 21
504.3365289165
 31
0.0
  0
LINE
  5
260
330
1F
100
AcDbEntity
  8
SLD-0
  6
Continuous
 62
   179
370
    15
100
AcDbLine
 10
386.0255664026
 20
456.3365290208
 30
0.0
 11
386.0255664026
 21
463.3365290208
 31
0.0
  0
LINE
  5
261
330
1F
100
AcDbEntity
  8
SLD-0
  6
Continuous
 62
   179
370
    15
100
AcDbLine
 10
386.0255672372
 20
485.3365295275
 30
0.0
 11
381.025564555
 21
485.3365295275
 31
0.0
  0
LINE
  5
262
330
1F
100
AcDbEntity
  8
SLD-0
  6
Continuous
 62
   179
370
    15
100
AcDbLine
 10
381.0255664026
 20
473.3365290208
 30
0.0
 11
386.0255672372
 21
473.3365275605
 31
0.0
  0
LINE
  5
263
330
1F
100
AcDbEntity
  8
SLD-0
  6
Continuous
 62
   179
370
    15
100
AcDbLine
 10
241.0255664026
 20
503.3365290208
 30
0.0
 11
245.0255664026
 21
503.3365290208
 31
0.0
  0
LINE
  5
264
330
1F
100
AcDbEntity
  8
SLD-0
  6
Continuous
 62
   179
370
    15
100
AcDbLine
 10
241.0255664026
 20
503.3365290208
 30
0.0
 11
241.0255676842
 21
510.3365289687
 31
0.0
  0
LINE
  5
265
330
1F
100
AcDbEntity
  8
SLD-0
  6
Continuous
 62
   179
370
    15
100
AcDbLine
 10
245.0255664026
 20
503.3365290208
 30
0.0
 11
245.0255646146
 21
510.3365289687
 31
0.0
  0
LINE
  5
266
330
1F
100
AcDbEntity
  8
SLD-0
  6
Continuous
 62
   179
370
    15
100
AcDbLine
 10
217.0255664026
 20
503.3365290208
 30
0.0
 11
241.0255664026
 21
503.3365290208
 31
0.0
  0
LINE
  5
267
330
1F
100
AcDbEntity
  8
SLD-0
  6
Continuous
 62
   179
370
    15
100
AcDbLine
 10
217.0255674756
 20
510.3365289687
 30
0.0
 11
217.0255664026
 21
503.3365290208
 31
0.0
  0
LINE
  5
268
330
1F
100
AcDbEntity
  8
SLD-0
  6
Continuous
 62
   179
370
    15
100
AcDbLine
 10
213.0255664026
 20
503.3365290208
 30
0.0
 11
217.0255664026
 21
503.3365290208
 31
0.0
  0
LINE
  5
269
330
1F
100
AcDbEntity
  8
SLD-0
  6
Continuous
 62
   179
370
    15
100
AcDbLine
 10
213.02556682
 20
510.3365289687
 30
0.0
 11
213.0255664026
 21
503.3365290208
 31
0.0
  0
LINE
  5
26A
330
1F
100
AcDbEntity
  8
SLD-0
  6
Continuous
 62
   179
370
    15
100
AcDbLine
 10
198.0255664026
 20
472.4083257905
 30
0.0
 11
202.0255664026
 21
479.3365290208
 31
0.0
  0
LINE
  5
26B
330
1F
100
AcDbEntity
  8
SLD-0
  6
Continuous
 62
   179
370
    15
100
AcDbLine
 10
190.0255664026
 20
472.4083257905
 30
0.0
 11
198.0255664026
 21
472.4083257905
 31
0.0
  0
LINE
  5
26C
330
1F
100
AcDbEntity
  8
SLD-0
  6
Continuous
 62
   179
370
    15
100
AcDbLine
 10
186.0255664026
 20
479.3365290208
 30
0.0
 11
190.0255664026
 21
472.4083257905
 31
0.0
  0
LINE
  5
26D
330
1F
100
AcDbEntity
  8
SLD-0
  6
Continuous
 62
   179
370
    15
100
AcDbLine
 10
190.0255664026
 20
486.264732251
 30
0.0
 11
186.0255664026
 21
479.3365290208
 31
0.0
  0
LINE
  5
26E
330
1F
100
AcDbEntity
  8
SLD-0
  6
Continuous
 62
   179
370
    15
100
AcDbLine
 10
198.0255664026
 20
486.264732251
 30
0.0
 11
190.0255664026
 21
486.264732251
 31
0.0
  0
LINE
  5
26F
330
1F
100
AcDbEntity
  8
SLD-0
  6
Continuous
 62
   179
370
    15
100
AcDbLine
 10
202.0255664026
 20
479.3365290208
 30
0.0
 11
198.0255664026
 21
486.264732251
 31
0.0
  0
LINE
  5
270
330
1F
100
AcDbEntity
  8
SLD-0
  6
Continuous
 62
   179
370
    15
100
AcDbLine
 10
213.0255664026
 20
503.3365290208
 30
0.0
 11
213.0255664026
 21
500.3365290208
 31
0.0
  0
LINE
  5
271
330
1F
100
AcDbEntity
  8
SLD-0
  6
Continuous
 62
   179
370
    15
100
AcDbLine
 10
245.0255664026
 20
500.3365290208
 30
0.0
 11
245.0255664026
 21
503.3365290208
 31
0.0
  0
LINE
  5
272
330
1F
100
AcDbEntity
  8
SLD-0
  6
Continuous
 62
   179
370
    15
100
AcDbLine
 10
179.0255664026
 20
495.3365290211
 30
0.0
 11
181.0255664026
 21
495.3365290214
 31
0.0
  0
LINE
  5
273
330
1F
100
AcDbEntity
  8
SLD-0
  6
Continuous
 62
   179
370
    15
100
AcDbLine
 10
179.0255664026
 20
502.336528924
 30
0.0
 11
179.0255664026
 21
495.3365290211
 31
0.0
  0
LINE
  5
274
330
1F
100
AcDbEntity
  8
SLD-0
  6
Continuous
 62
   179
370
    15
100
AcDbLine
 10
181.0255664026
 20
504.3365290208
 30
0.0
 11
181.0255664026
 21
495.3365290214
 31
0.0
  0
LINE
  5
275
330
1F
100
AcDbEntity
  8
SLD-0
  6
Continuous
 62
   179
370
    15
100
AcDbLine
 10
181.0255664026
 20
495.3365290214
 30
0.0
 11
213.02556682
 21
495.3365293039
 31
0.0
  0
LINE
  5
276
330
1F
100
AcDbEntity
  8
SLD-0
  6
Continuous
 62
   179
370
    15
100
AcDbLine
 10
213.02556682
 20
504.3365289165
 30
0.0
 11
181.0255664026
 21
504.3365290208
 31
0.0
  0
LINE
  5
277
330
1F
100
AcDbEntity
  8
SLD-0
  6
Continuous
 62
   179
370
    15
100
AcDbLine
 10
181.0255664026
 20
463.3365290208
 30
0.0
 11
260.0255664026
 21
463.3365290202
 31
0.0
  0
LINE
  5
278
330
1F
100
AcDbEntity
  8
SLD-0
  6
Continuous
 62
   179
370
    15
100
AcDbLine
 10
181.0255664026
 20
495.3365290214
 30
0.0
 11
181.0255664026
 21
463.3365290208
 31
0.0
  0
LINE
  5
279
330
1F
100
AcDbEntity
  8
SLD-0
  6
Continuous
 62
   179
370
    15
100
AcDbLine
 10
245.0255646146
 20
495.3365293039
 30
0.0
 11
260.0255664026
 21
495.3365290208
 31
0.0
  0
LINE
  5
27A
330
1F
100
AcDbEntity
  8
SLD-0
  6
Continuous
 62
   179
370
    15
100
AcDbLine
 10
260.0255664026
 20
495.3365290208
 30
0.0
 11
260.0255664026
 21
463.3365290202
 31
0.0
  0
LINE
  5
27B
330
1F
100
AcDbEntity
  8
SLD-0
  6
Continuous
 62
   179
370
    15
100
AcDbLine
 10
213.02556682
 20
495.3365293039
 30
0.0
 11
213.0255664026
 21
500.3365290208
 31
0.0
  0
LINE
  5
27C
330
1F
100
AcDbEntity
  8
SLD-0
  6
Continuous
 62
   179
370
    15
100
AcDbLine
 10
245.0255664026
 20
500.3365290208
 30
0.0
 11
245.0255646146
 21
495.3365293039
 31
0.0
  0
LINE
  5
27D
330
1F
100
AcDbEntity
  8
SLD-0
  6
Continuous
 62
   179
370
    15
100
AcDbLine
 10
179.0255664026
 20
463.3365290208
 30
0.0
 11
181.0255664026
 21
463.3365290208
 31
0.0
  0
LINE
  5
27E
330
1F
100
AcDbEntity
  8
SLD-0
  6
Continuous
 62
   179
370
    15
100
AcDbLine
 10
179.0255664026
 20
495.3365290211
 30
0.0
 11
179.0255664026
 21
463.3365290208
 31
0.0
  0
LINE
  5
27F
330
1F
100
AcDbEntity
  8
SLD-0
  6
Continuous
 62
   179
370
    15
100
AcDbLine
 10
260.0255664026
 20
495.3365290208
 30
0.0
 11
262.0255664026
 21
495.3365290208
 31
0.0
  0
LINE
  5
280
330
1F
100
AcDbEntity
  8
SLD-0
  6
Continuous
 62
   179
370
    15
100
AcDbLine
 10
262.0255664026
 20
495.3365290208
 30
0.0
 11
262.0255664026
 21
463.3365290205
 31
0.0
  0
LINE
  5
281
330
1F
100
AcDbEntity
  8
SLD-0
  6
Continuous
 62
   179
370
    15
100
AcDbLine
 10
260.0255664026
 20
463.3365290202
 30
0.0
 11
262.0255664026
 21
463.3365290205
 31
0.0
  0
LINE
  5
282
330
1F
100
AcDbEntity
  8
SLD-0
  6
Continuous
 62
   179
370
    15
100
AcDbLine
 10
262.0255664026
 20
463.3365290205
 30
0.0
 11
262.0255664026
 21
456.3365290208
 31
0.0
  0
LINE
  5
283
330
1F
100
AcDbEntity
  8
SLD-0
  6
Continuous
 62
   179
370
    15
100
AcDbLine
 10
260.0255664026
 20
463.3365290202
 30
0.0
 11
260.0255664026
 21
454.3365290208
 31
0.0
  0
LINE
  5
284
330
1F
100
AcDbEntity
  8
SLD-0
  6
Continuous
 62
   179
370
    15
100
AcDbLine
 10
181.0255664026
 20
454.3365290208
 30
0.0
 11
260.0255664026
 21
454.3365290208
 31
0.0
  0
LINE
  5
285
330
1F
100
AcDbEntity
  8
SLD-0
  6
Continuous
 62
   179
370
    15
100
AcDbLine
 10
181.0255664026
 20
463.3365290208
 30
0.0
 11
181.0255664026
 21
454.3365290208
 31
0.0
  0
LINE
  5
286
330
1F
100
AcDbEntity
  8
SLD-0
  6
Continuous
 62
   179
370
    15
100
AcDbLine
 10
179.0255664026
 20
463.3365290208
 30
0.0
 11
179.0255664026
 21
456.3365290208
 31
0.0
  0
LINE
  5
287
330
1F
100
AcDbEntity
  8
SLD-0
  6
Continuous
 62
   179
370
    15
100
AcDbLine
 10
260.0255664026
 20
504.3365290208
 30
0.0
 11
245.0255646146
 21
504.3365289165
 31
0.0
  0
LINE
  5
288
330
1F
100
AcDbEntity
  8
SLD-0
  6
Continuous
 62
   179
370
    15
100
AcDbLine
 10
260.0255664026
 20
504.3365290208
 30
0.0
 11
260.0255664026
 21
495.3365290208
 31
0.0
  0
LINE
  5
289
330
1F
100
AcDbEntity
  8
SLD-0
  6
Continuous
 62
   179
370
    15
100
AcDbLine
 10
262.0255664026
 20
502.3365290208
 30
0.0
 11
262.0255664026
 21
495.3365290208
 31
0.0
  0
LINE
  5
28A
330
1F
100
AcDbEntity
  8
SLD-0
  6
Continuous
 62
   179
370
    15
100
AcDbLine
 10
262.0255655385
 20
473.3365275605
 30
0.0
 11
267.0255664026
 21
473.3365290208
 31
0.0
  0
LINE
  5
28B
330
1F
100
AcDbEntity
  8
SLD-0
  6
Continuous
 62
   179
370
    15
100
AcDbLine
 10
262.0255655385
 20
485.3365295275
 30
0.0
 11
267.0255682207
 21
485.3365295275
 31
0.0
  0
LINE
  5
28C
330
1F
100
AcDbEntity
  8
SLD-0
  6
Continuous
 62
   179
370
    15
100
AcDbLine
 10
438.0255664026
 20
510.3365290208
 30
0.0
 11
438.0255664026
 21
516.3365290208
 31
0.0
  0
LINE
  5
28D
330
1F
100
AcDbEntity
  8
SLD-0
  6
Continuous
 62
   179
370
    15
100
AcDbLine
 10
438.0255664026
 20
510.3365290208
 30
0.0
 11
210.0255664026
 21
510.3365290208
 31
0.0
  0
LINE
  5
28E
330
1F
100
AcDbEntity
  8
SLD-0
  6
Continuous
 62
   179
370
    15
100
AcDbLine
 10
210.0255664026
 20
510.3365290208
 30
0.0
 11
210.0255664026
 21
516.3365290208
 31
0.0
  0
LINE
  5
28F
330
1F
100
AcDbEntity
  8
SLD-0
  6
Continuous
 62
   179
370
    15
100
AcDbLine
 10
438.0255664026
 20
516.3365290208
 30
0.0
 11
210.0255664026
 21
516.3365290208
 31
0.0
  0
LINE
  5
290
330
1F
100
AcDbEntity
  8
SLD-0
  6
Continuous
 62
   179
370
    15
100
AcDbLine
 10
210.0255664026
 20
510.3365290208
 30
0.0
 11
194.0255664026
 21
510.3365290208
 31
0.0
  0
LINE
  5
291
330
1F
100
AcDbEntity
  8
SLD-0
  6
Continuous
 62
   179
370
    15
100
AcDbLine
 10
194.0255664026
 20
510.3365290208
 30
0.0
 11
194.0255664026
 21
516.3365290208
 31
0.0
  0
LINE
  5
292
330
1F
100
AcDbEntity
  8
SLD-0
  6
Continuous
 62
   179
370
    15
100
AcDbLine
 10
210.0255664026
 20
516.3365290208
 30
0.0
 11
194.0255664026
 21
516.3365290208
 31
0.0
  0
LINE
  5
293
330
1F
100
AcDbEntity
  8
SLD-0
  6
Continuous
 62
   179
370
    15
100
AcDbLine
 10
454.0255664026
 20
510.3365290208
 30
0.0
 11
454.0255664026
 21
516.3365290208
 31
0.0
  0
LINE
  5
294
330
1F
100
AcDbEntity
  8
SLD-0
  6
Continuous
 62
   179
370
    15
100
AcDbLine
 10
454.0255664026
 20
510.3365290208
 30
0.0
 11
438.0255664026
 21
510.3365290208
 31
0.0
  0
LINE
  5
295
330
1F
100
AcDbEntity
  8
SLD-0
  6
Continuous
 62
   179
370
    15
100
AcDbLine
 10
454.0255664026
 20
516.3365290208
 30
0.0
 11
438.0255664026
 21
516.3365290208
 31
0.0
  0
LINE
  5
296
330
1F
100
AcDbEntity
  8
SLD-0
  6
Continuous
 62
   179
370
    15
100
AcDbLine
 10
286.0255664026
 20
472.3365290208
 30
0.0
 11
286.0255664026
 21
486.3365290208
 31
0.0
  0
LINE
  5
297
330
1F
100
AcDbEntity
  8
SLD-0
  6
Continuous
 62
   179
370
    15
100
AcDbLine
 10
362.0255664026
 20
486.3365290208
 30
0.0
 11
362.0255664026
 21
472.3365290208
 31
0.0
  0
LINE
  5
298
330
1F
100
AcDbEntity
  8
SLD-0
  6
Continuous
 62
   179
370
    15
100
AcDbLine
 10
227.0255664026
 20
492.1365290208
 30
0.0
 11
241.0255664026
 21
492.1365290208
 31
0.0
  0
LINE
  5
299
330
1F
100
AcDbEntity
  8
SLD-0
  6
Continuous
 62
   179
370
    15
100
AcDbLine
 10
407.0255664026
 20
492.1365290208
 30
0.0
 11
421.0255664026
 21
492.1365290208
 31
0.0
  0
LINE
  5
29A
330
1F
100
AcDbEntity
  8
SLD-0
  6
Continuous
 62
   179
370
    15
100
AcDbLine
 10
403.0255664026
 20
500.3365290208
 30
0.0
 11
406.425569836
 21
500.3365282609
 31
0.0
  0
LINE
  5
29B
330
1F
100
AcDbEntity
  8
SLD-0
  6
Continuous
 62
   179
370
    15
100
AcDbLine
 10
421.6021417416
 20
500.3365282609
 30
0.0
 11
435.0255664026
 21
500.3365290208
 31
0.0
  0
LINE
  5
29C
330
1F
100
AcDbEntity
  8
SLD-0
  6
Continuous
 62
   179
370
    15
100
AcDbLine
 10
213.0255664026
 20
500.3365290208
 30
0.0
 11
226.4255626834
 21
500.3365282609
 31
0.0
  0
LINE
  5
29D
330
1F
100
AcDbEntity
  8
SLD-0
  6
Continuous
 62
   179
370
    15
100
AcDbLine
 10
241.6021383143
 20
500.3365282609
 30
0.0
 11
245.0255664026
 21
500.3365290208
 31
0.0
  0
LINE
  5
29E
330
1F
100
AcDbEntity
  8
SLD-0
  6
Continuous
 62
   179
370
    15
100
AcDbLine
 10
593.0289741292
 20
139.5859582462
 30
0.0
 11
600.6289743885
 21
139.5859593079
 31
0.0
  0
LINE
  5
29F
330
1F
100
AcDbEntity
  8
SLD-0
  6
Continuous
 62
   179
370
    15
100
AcDbLine
 10
600.6289743885
 20
153.5859578774
 30
0.0
 11
593.0289741292
 21
153.5859582462
 31
0.0
  0
LINE
  5
2A0
330
1F
100
AcDbEntity
  8
SLD-0
  6
Continuous
 62
   179
370
    15
100
AcDbLine
 10
593.0289741292
 20
215.5859582462
 30
0.0
 11
600.6289743885
 21
215.5859568641
 31
0.0
  0
LINE
  5
2A1
330
1F
100
AcDbEntity
  8
SLD-0
  6
Continuous
 62
   179
370
    15
100
AcDbLine
 10
600.6289743885
 20
229.5859591589
 30
0.0
 11
593.0289741292
 21
229.5859582462
 31
0.0
  0
LINE
  5
2A2
330
1F
100
AcDbEntity
  8
SLD-0
  6
Continuous
 62
   179
370
    15
100
AcDbLine
 10
600.6289741292
 20
138.9859582462
 30
0.0
 11
602.628973785
 21
138.9859566018
 31
0.0
  0
LINE
  5
2A3
330
1F
100
AcDbEntity
  8
SLD-0
  6
Continuous
 62
   179
370
    15
100
AcDbLine
 10
602.628973785
 20
154.1859605834
 30
0.0
 11
600.6289741292
 21
154.1859582462
 31
0.0
  0
LINE
  5
2A4
330
1F
100
AcDbEntity
  8
SLD-0
  6
Continuous
 62
   179
370
    15
100
AcDbLine
 10
600.6289741292
 20
214.9859582462
 30
0.0
 11
602.628973785
 21
214.9859578833
 31
0.0
  0
LINE
  5
2A5
330
1F
100
AcDbEntity
  8
SLD-0
  6
Continuous
 62
   179
370
    15
100
AcDbLine
 10
602.628973785
 20
230.1859581396
 30
0.0
 11
600.6289741292
 21
230.1859582462
 31
0.0
  0
LINE
  5
2A6
330
1F
100
AcDbEntity
  8
SLD-0
  6
Continuous
 62
   179
370
    15
100
AcDbLine
 10
602.6289741292
 20
213.5859582462
 30
0.0
 11
604.228973861
 21
213.5859565362
 31
0.0
  0
LINE
  5
2A7
330
1F
100
AcDbEntity
  8
SLD-0
  6
Continuous
 62
   179
370
    15
100
AcDbLine
 10
604.228973861
 20
231.585957624
 30
0.0
 11
602.6289741292
 21
231.5859582462
 31
0.0
  0
LINE
  5
2A8
330
1F
100
AcDbEntity
  8
SLD-0
  6
Continuous
 62
   179
370
    15
100
AcDbLine
 10
602.6289741292
 20
137.5859582462
 30
0.0
 11
604.228973861
 21
137.5859552547
 31
0.0
  0
LINE
  5
2A9
330
1F
100
AcDbEntity
  8
SLD-0
  6
Continuous
 62
   179
370
    15
100
AcDbLine
 10
604.228973861
 20
155.5859619305
 30
0.0
 11
602.6289741292
 21
155.5859582462
 31
0.0
  0
LINE
  5
2AA
330
1F
100
AcDbEntity
  8
SLD-0
  6
Continuous
 62
   179
370
    15
100
AcDbLine
 10
572.2289741292
 20
212.7859582462
 30
0.0
 11
572.2289741292
 21
210.5859582462
 31
0.0
  0
LINE
  5
2AB
330
1F
100
AcDbEntity
  8
SLD-0
  6
Continuous
 62
   179
370
    15
100
AcDbLine
 10
588.2289741292
 20
210.5859582462
 30
0.0
 11
588.2289741292
 21
212.7859582462
 31
0.0
  0
LINE
  5
2AC
330
1F
100
AcDbEntity
  8
SLD-0
  6
Continuous
 62
   179
370
    15
100
AcDbLine
 10
588.2289741292
 20
155.5859582462
 30
0.0
 11
588.2289741292
 21
158.5859582462
 31
0.0
  0
LINE
  5
2AD
330
1F
100
AcDbEntity
  8
SLD-0
  6
Continuous
 62
   179
370
    15
100
AcDbLine
 10
572.2289741292
 20
158.5859582462
 30
0.0
 11
572.2289741292
 21
155.5859582462
 31
0.0
  0
LINE
  5
2AE
330
1F
100
AcDbEntity
  8
SLD-0
  6
Continuous
 62
   179
370
    15
100
AcDbLine
 10
583.7289741292
 20
221.7859582462
 30
0.0
 11
583.2289722815
 21
226.7859564647
 31
0.0
  0
LINE
  5
2AF
330
1F
100
AcDbEntity
  8
SLD-0
  6
Continuous
 62
   179
370
    15
100
AcDbLine
 10
577.2289750233
 20
226.7859564647
 30
0.0
 11
576.7289741292
 21
221.7859582462
 31
0.0
  0
LINE
  5
2B0
330
1F
100
AcDbEntity
  8
SLD-0
  6
Continuous
 62
   179
370
    15
100
AcDbLine
 10
583.7289741292
 20
226.7859582462
 30
0.0
 11
583.2289741292
 21
231.7859582462
 31
0.0
  0
LINE
  5
2B1
330
1F
100
AcDbEntity
  8
SLD-0
  6
Continuous
 62
   179
370
    15
100
AcDbLine
 10
577.2289741292
 20
231.7859582462
 30
0.0
 11
576.7289741292
 21
226.7859582462
 31
0.0
  0
LINE
  5
2B2
330
1F
100
AcDbEntity
  8
SLD-0
  6
Continuous
 62
   179
370
    15
100
AcDbLine
 10
577.0289753631
 20
221.7859575078
 30
0.0
 11
577.0289753631
 21
217.7859568522
 31
0.0
  0
LINE
  5
2B3
330
1F
100
AcDbEntity
  8
SLD-0
  6
Continuous
 62
   179
370
    15
100
AcDbLine
 10
583.428975667
 20
217.7859568522
 30
0.0
 11
583.428975667
 21
221.7859575078
 31
0.0
  0
LINE
  5
2B4
330
1F
100
AcDbEntity
  8
SLD-0
  6
Continuous
 62
   179
370
    15
100
AcDbLine
 10
577.0089742795
 20
144.5859545395
 30
0.0
 11
577.2289750233
 21
142.3859545514
 31
0.0
  0
LINE
  5
2B5
330
1F
100
AcDbEntity
  8
SLD-0
  6
Continuous
 62
   179
370
    15
100
AcDbLine
 10
583.2289722815
 20
142.3859545514
 30
0.0
 11
583.4489730254
 21
144.5859545395
 31
0.0
  0
LINE
  5
2B6
330
1F
100
AcDbEntity
  8
SLD-0
  6
Continuous
 62
   179
370
    15
100
AcDbLine
 10
576.7289741292
 20
142.3859582462
 30
0.0
 11
577.2289741292
 21
137.3859582462
 31
0.0
  0
LINE
  5
2B7
330
1F
100
AcDbEntity
  8
SLD-0
  6
Continuous
 62
   179
370
    15
100
AcDbLine
 10
583.2289741292
 20
137.3859582462
 30
0.0
 11
583.7289741292
 21
142.3859582462
 31
0.0
  0
LINE
  5
2B8
330
1F
100
AcDbEntity
  8
SLD-0
  6
Continuous
 62
   179
370
    15
100
AcDbLine
 10
621.2289741292
 20
134.5859582462
 30
0.0
 11
621.2289741292
 21
138.5859582462
 31
0.0
  0
LINE
  5
2B9
330
1F
100
AcDbEntity
  8
SLD-0
  6
Continuous
 62
   179
370
    15
100
AcDbLine
 10
621.2289741292
 20
134.5859582462
 30
0.0
 11
617.2289741292
 21
134.5859566257
 31
0.0
  0
LINE
  5
2BA
330
1F
100
AcDbEntity
  8
SLD-0
  6
Continuous
 62
   179
370
    15
100
AcDbLine
 10
621.2289741292
 20
138.5859582462
 30
0.0
 11
617.2289741292
 21
138.5859572813
 31
0.0
  0
LINE
  5
2BB
330
1F
100
AcDbEntity
  8
SLD-0
  6
Continuous
 62
   179
370
    15
100
AcDbLine
 10
621.2289741292
 20
138.5859582462
 30
0.0
 11
621.2289741292
 21
230.5859582462
 31
0.0
  0
LINE
  5
2BC
330
1F
100
AcDbEntity
  8
SLD-0
  6
Continuous
 62
   179
370
    15
100
AcDbLine
 10
621.2289741292
 20
230.5859582462
 30
0.0
 11
617.2289741292
 21
230.5859574601
 31
0.0
  0
LINE
  5
2BD
330
1F
100
AcDbEntity
  8
SLD-0
  6
Continuous
 62
   179
370
    15
100
AcDbLine
 10
621.2289741292
 20
234.5859582462
 30
0.0
 11
617.2289741292
 21
234.5859581158
 31
0.0
  0
LINE
  5
2BE
330
1F
100
AcDbEntity
  8
SLD-0
  6
Continuous
 62
   179
370
    15
100
AcDbLine
 10
621.2289741292
 20
230.5859582462
 30
0.0
 11
621.2289741292
 21
234.5859582462
 31
0.0
  0
LINE
  5
2BF
330
1F
100
AcDbEntity
  8
SLD-0
  6
Continuous
 62
   179
370
    15
100
AcDbLine
 10
600.6289741292
 20
146.0367445761
 30
0.0
 11
600.6289741292
 21
147.1351719163
 31
0.0
  0
LINE
  5
2C0
330
1F
100
AcDbEntity
  8
SLD-0
  6
Continuous
 62
   179
370
    15
100
AcDbLine
 10
592.6289741292
 20
146.5859582462
 30
0.0
 11
592.6289741292
 21
153.1859582462
 31
0.0
  0
LINE
  5
2C1
330
1F
100
AcDbEntity
  8
SLD-0
  6
Continuous
 62
   179
370
    15
100
AcDbLine
 10
592.6289741292
 20
139.9859582462
 30
0.0
 11
592.6289741292
 21
146.5859582462
 31
0.0
  0
LINE
  5
2C2
330
1F
100
AcDbEntity
  8
SLD-0
  6
Continuous
 62
   179
370
    15
100
AcDbLine
 10
600.6289741292
 20
221.9896691187
 30
0.0
 11
600.6289741292
 21
223.1822473737
 31
0.0
  0
LINE
  5
2C3
330
1F
100
AcDbEntity
  8
SLD-0
  6
Continuous
 62
   179
370
    15
100
AcDbLine
 10
592.6289741292
 20
222.5859582462
 30
0.0
 11
592.6289741292
 21
229.1859582462
 31
0.0
  0
LINE
  5
2C4
330
1F
100
AcDbEntity
  8
SLD-0
  6
Continuous
 62
   179
370
    15
100
AcDbLine
 10
592.6289741292
 20
215.9859582462
 30
0.0
 11
592.6289741292
 21
222.5859582462
 31
0.0
  0
LINE
  5
2C5
330
1F
100
AcDbEntity
  8
SLD-0
  6
Continuous
 62
   179
370
    15
100
AcDbLine
 10
600.6289741292
 20
145.9896691187
 30
0.0
 11
602.628973785
 21
145.9896662757
 31
0.0
  0
LINE
  5
2C6
330
1F
100
AcDbEntity
  8
SLD-0
  6
Continuous
 62
   179
370
    15
100
AcDbLine
 10
600.6289741292
 20
147.1822473737
 30
0.0
 11
602.628973785
 21
147.1822509095
 31
0.0
  0
LINE
  5
2C7
330
1F
100
AcDbEntity
  8
SLD-0
  6
Continuous
 62
   179
370
    15
100
AcDbLine
 10
600.6289741292
 20
147.1822473737
 30
0.0
 11
600.6289741292
 21
154.1859582462
 31
0.0
  0
LINE
  5
2C8
330
1F
100
AcDbEntity
  8
SLD-0
  6
Continuous
 62
   179
370
    15
100
AcDbLine
 10
600.6289741292
 20
138.9859582462
 30
0.0
 11
600.6289741292
 21
145.9896691187
 31
0.0
  0
LINE
  5
2C9
330
1F
100
AcDbEntity
  8
SLD-0
  6
Continuous
 62
   179
370
    15
100
AcDbLine
 10
602.628973785
 20
146.2642723248
 30
0.0
 11
600.7643998667
 21
146.2642723248
 31
0.0
  0
LINE
  5
2CA
330
1F
100
AcDbEntity
  8
SLD-0
  6
Continuous
 62
   179
370
    15
100
AcDbLine
 10
600.6289741292
 20
146.0367445761
 30
0.0
 11
600.6289741292
 21
145.9896691187
 31
0.0
  0
LINE
  5
2CB
330
1F
100
AcDbEntity
  8
SLD-0
  6
Continuous
 62
   179
370
    15
100
AcDbLine
 10
602.628973785
 20
146.9076374099
 30
0.0
 11
600.7643998667
 21
146.9076374099
 31
0.0
  0
LINE
  5
2CC
330
1F
100
AcDbEntity
  8
SLD-0
  6
Continuous
 62
   179
370
    15
100
AcDbLine
 10
600.6289741292
 20
147.1351719163
 30
0.0
 11
600.6289741292
 21
147.1822473737
 31
0.0
  0
LINE
  5
2CD
330
1F
100
AcDbEntity
  8
SLD-0
  6
Continuous
 62
   179
370
    15
100
AcDbLine
 10
600.6289741292
 20
221.9896691187
 30
0.0
 11
602.628973785
 21
221.9896675572
 31
0.0
  0
LINE
  5
2CE
330
1F
100
AcDbEntity
  8
SLD-0
  6
Continuous
 62
   179
370
    15
100
AcDbLine
 10
600.6289743885
 20
222.0367440507
 30
0.0
 11
600.6289741292
 21
221.9896691187
 31
0.0
  0
LINE
  5
2CF
330
1F
100
AcDbEntity
  8
SLD-0
  6
Continuous
 62
   179
370
    15
100
AcDbLine
 10
602.628973785
 20
222.2642773315
 30
0.0
 11
600.7643998667
 21
222.2642773315
 31
0.0
  0
LINE
  5
2D0
330
1F
100
AcDbEntity
  8
SLD-0
  6
Continuous
 62
   179
370
    15
100
AcDbLine
 10
600.6289741292
 20
223.1822473737
 30
0.0
 11
602.628973785
 21
223.1822484657
 31
0.0
  0
LINE
  5
2D1
330
1F
100
AcDbEntity
  8
SLD-0
  6
Continuous
 62
   179
370
    15
100
AcDbLine
 10
600.6289741292
 20
223.1822473737
 30
0.0
 11
600.6289741292
 21
230.1859582462
 31
0.0
  0
LINE
  5
2D2
330
1F
100
AcDbEntity
  8
SLD-0
  6
Continuous
 62
   179
370
    15
100
AcDbLine
 10
600.6289741292
 20
214.9859582462
 30
0.0
 11
600.6289741292
 21
221.9896691187
 31
0.0
  0
LINE
  5
2D3
330
1F
100
AcDbEntity
  8
SLD-0
  6
Continuous
 62
   179
370
    15
100
AcDbLine
 10
602.628973785
 20
222.9076386914
 30
0.0
 11
600.7643998667
 21
222.9076386914
 31
0.0
  0
LINE
  5
2D4
330
1F
100
AcDbEntity
  8
SLD-0
  6
Continuous
 62
   179
370
    15
100
AcDbLine
 10
600.6289743885
 20
223.1351719722
 30
0.0
 11
600.6289741292
 21
223.1822473737
 31
0.0
  0
LINE
  5
2D5
330
1F
100
AcDbEntity
  8
SLD-0
  6
Continuous
 62
   179
370
    15
100
AcDbLine
 10
602.6289741292
 20
222.5859582462
 30
0.0
 11
602.6289741292
 21
231.5859582462
 31
0.0
  0
LINE
  5
2D6
330
1F
100
AcDbEntity
  8
SLD-0
  6
Continuous
 62
   179
370
    15
100
AcDbLine
 10
602.6289741292
 20
213.5859582462
 30
0.0
 11
602.6289741292
 21
222.5859582462
 31
0.0
  0
LINE
  5
2D7
330
1F
100
AcDbEntity
  8
SLD-0
  6
Continuous
 62
   179
370
    15
100
AcDbLine
 10
602.6289741292
 20
146.5859582462
 30
0.0
 11
602.6289741292
 21
155.5859582462
 31
0.0
  0
LINE
  5
2D8
330
1F
100
AcDbEntity
  8
SLD-0
  6
Continuous
 62
   179
370
    15
100
AcDbLine
 10
602.6289741292
 20
137.5859582462
 30
0.0
 11
602.6289741292
 21
146.5859582462
 31
0.0
  0
LINE
  5
2D9
330
1F
100
AcDbEntity
  8
SLD-0
  6
Continuous
 62
   179
370
    15
100
AcDbLine
 10
610.2289739132
 20
167.4173051044
 30
0.0
 11
610.2289739132
 21
201.7546133623
 31
0.0
  0
LINE
  5
2DA
330
1F
100
AcDbEntity
  8
SLD-0
  6
Continuous
 62
   179
370
    15
100
AcDbLine
 10
568.2289741292
 20
150.5859582462
 30
0.0
 11
568.2289754107
 21
159.5859551355
 31
0.0
  0
LINE
  5
2DB
330
1F
100
AcDbEntity
  8
SLD-0
  6
Continuous
 62
   179
370
    15
100
AcDbLine
 10
568.2289754107
 20
209.5859596059
 30
0.0
 11
568.2289741292
 21
218.5859582462
 31
0.0
  0
LINE
  5
2DC
330
1F
100
AcDbEntity
  8
SLD-0
  6
Continuous
 62
   179
370
    15
100
AcDbLine
 10
574.2289741292
 20
144.5859582462
 30
0.0
 11
592.6289749399
 21
144.5859545395
 31
0.0
  0
LINE
  5
2DD
330
1F
100
AcDbEntity
  8
SLD-0
  6
Continuous
 62
   179
370
    15
100
AcDbLine
 10
574.2289741292
 20
224.5859582462
 30
0.0
 11
577.0089742795
 21
224.5859564766
 31
0.0
  0
LINE
  5
2DE
330
1F
100
AcDbEntity
  8
SLD-0
  6
Continuous
 62
   179
370
    15
100
AcDbLine
 10
583.4489730254
 20
224.5859564766
 30
0.0
 11
592.6289749399
 21
224.5859564766
 31
0.0
  0
LINE
  5
2DF
330
1F
100
AcDbEntity
  8
SLD-0
  6
Continuous
 62
   179
370
    15
100
AcDbLine
 10
603.2289741292
 20
200.5859582465
 30
0.0
 11
605.2289741292
 21
200.5859582468
 31
0.0
  0
LINE
  5
2E0
330
1F
100
AcDbEntity
  8
SLD-0
  6
Continuous
 62
   179
370
    15
100
AcDbLine
 10
596.2289744124
 20
207.585959278
 30
0.0
 11
596.2289741292
 21
209.5859582462
 31
0.0
  0
LINE
  5
2E1
330
1F
100
AcDbEntity
  8
SLD-0
  6
Continuous
 62
   179
370
    15
100
AcDbLine
 10
605.2289741292
 20
168.5859582462
 30
0.0
 11
603.2289740325
 21
168.5859582462
 31
0.0
  0
LINE
  5
2E2
330
1F
100
AcDbEntity
  8
SLD-0
  6
Continuous
 62
   179
370
    15
100
AcDbLine
 10
603.2289741292
 20
200.5859582465
 30
0.0
 11
603.2289740325
 21
168.5859582462
 31
0.0
  0
LINE
  5
2E3
330
1F
100
AcDbEntity
  8
SLD-0
  6
Continuous
 62
   179
370
    15
100
AcDbLine
 10
605.2289741292
 20
200.5859582468
 30
0.0
 11
605.2289741292
 21
168.5859582462
 31
0.0
  0
LINE
  5
2E4
330
1F
100
AcDbEntity
  8
SLD-0
  6
Continuous
 62
   179
370
    15
100
AcDbLine
 10
596.2289741295
 20
161.5859582462
 30
0.0
 11
596.22897413
 21
159.5859582462
 31
0.0
  0
LINE
  5
2E5
330
1F
100
AcDbEntity
  8
SLD-0
  6
Continuous
 62
   179
370
    15
100
AcDbLine
 10
564.2289741292
 20
161.585958343
 30
0.0
 11
564.2289741292
 21
159.5859582462
 31
0.0
  0
LINE
  5
2E6
330
1F
100
AcDbEntity
  8
SLD-0
  6
Continuous
 62
   179
370
    15
100
AcDbLine
 10
596.2289741295
 20
161.5859582462
 30
0.0
 11
564.2289741292
 21
161.585958343
 31
0.0
  0
LINE
  5
2E7
330
1F
100
AcDbEntity
  8
SLD-0
  6
Continuous
 62
   179
370
    15
100
AcDbLine
 10
596.22897413
 20
159.5859582462
 30
0.0
 11
564.2289741292
 21
159.5859582462
 31
0.0
  0
LINE
  5
2E8
330
1F
100
AcDbEntity
  8
SLD-0
  6
Continuous
 62
   179
370
    15
100
AcDbLine
 10
564.2289741289
 20
207.5859582462
 30
0.0
 11
596.2289744124
 21
207.585959278
 31
0.0
  0
LINE
  5
2E9
330
1F
100
AcDbEntity
  8
SLD-0
  6
Continuous
 62
   179
370
    15
100
AcDbLine
 10
564.2289741289
 20
207.5859582462
 30
0.0
 11
564.2289741286
 21
209.5859582462
 31
0.0
  0
LINE
  5
2EA
330
1F
100
AcDbEntity
  8
SLD-0
  6
Continuous
 62
   179
370
    15
100
AcDbLine
 10
564.2289741286
 20
209.5859582462
 30
0.0
 11
596.2289741292
 21
209.5859582462
 31
0.0
  0
LINE
  5
2EB
330
1F
100
AcDbEntity
  8
SLD-0
  6
Continuous
 62
   179
370
    15
100
AcDbLine
 10
557.2289741292
 20
168.5859582459
 30
0.0
 11
555.2289741292
 21
168.5859582456
 31
0.0
  0
LINE
  5
2EC
330
1F
100
AcDbEntity
  8
SLD-0
  6
Continuous
 62
   179
370
    15
100
AcDbLine
 10
557.228974226
 20
200.5859582462
 30
0.0
 11
555.2289741292
 21
200.5859582462
 31
0.0
  0
LINE
  5
2ED
330
1F
100
AcDbEntity
  8
SLD-0
  6
Continuous
 62
   179
370
    15
100
AcDbLine
 10
557.2289741292
 20
168.5859582459
 30
0.0
 11
557.228974226
 21
200.5859582462
 31
0.0
  0
LINE
  5
2EE
330
1F
100
AcDbEntity
  8
SLD-0
  6
Continuous
 62
   179
370
    15
100
AcDbLine
 10
555.2289741292
 20
168.5859582456
 30
0.0
 11
555.2289741292
 21
200.5859582462
 31
0.0
  0
LINE
  5
2EF
330
1F
100
AcDbEntity
  8
SLD-0
  6
Continuous
 62
   179
370
    15
100
AcDbLine
 10
580.2289741292
 20
155.5859582462
 30
0.0
 11
580.2289736524
 21
150.5859592483
 31
0.0
  0
LINE
  5
2F0
330
1F
100
AcDbEntity
  8
SLD-0
  6
Continuous
 62
   179
370
    15
100
AcDbLine
 10
587.1571773595
 20
155.5859582462
 30
0.0
 11
587.1571772799
 21
150.5859592483
 31
0.0
  0
LINE
  5
2F1
330
1F
100
AcDbEntity
  8
SLD-0
  6
Continuous
 62
   179
370
    15
100
AcDbLine
 10
587.1571772799
 20
150.5859592483
 30
0.0
 11
580.2289736524
 21
150.5859592483
 31
0.0
  0
LINE
  5
2F2
330
1F
100
AcDbEntity
  8
SLD-0
  6
Continuous
 62
   179
370
    15
100
AcDbLine
 10
573.3007708989
 20
155.5859582462
 30
0.0
 11
573.3007718876
 21
150.5859592483
 31
0.0
  0
LINE
  5
2F3
330
1F
100
AcDbEntity
  8
SLD-0
  6
Continuous
 62
   179
370
    15
100
AcDbLine
 10
580.2289736524
 20
150.5859592483
 30
0.0
 11
573.3007718876
 21
150.5859592483
 31
0.0
  0
LINE
  5
2F4
330
1F
100
AcDbEntity
  8
SLD-0
  6
Continuous
 62
   179
370
    15
100
AcDbLine
 10
587.1571773595
 20
212.7859582462
 30
0.0
 11
587.1571772799
 21
217.7859568522
 31
0.0
  0
LINE
  5
2F5
330
1F
100
AcDbEntity
  8
SLD-0
  6
Continuous
 62
   179
370
    15
100
AcDbLine
 10
580.2289736524
 20
217.7859568522
 30
0.0
 11
580.2289741292
 21
212.7859582462
 31
0.0
  0
LINE
  5
2F6
330
1F
100
AcDbEntity
  8
SLD-0
  6
Continuous
 62
   179
370
    15
100
AcDbLine
 10
580.2289736524
 20
217.7859568522
 30
0.0
 11
587.1571772799
 21
217.7859568522
 31
0.0
  0
LINE
  5
2F7
330
1F
100
AcDbEntity
  8
SLD-0
  6
Continuous
 62
   179
370
    15
100
AcDbLine
 10
573.3007708989
 20
212.7859582462
 30
0.0
 11
573.3007718876
 21
217.7859568522
 31
0.0
  0
LINE
  5
2F8
330
1F
100
AcDbEntity
  8
SLD-0
  6
Continuous
 62
   179
370
    15
100
AcDbLine
 10
573.3007718876
 20
217.7859568522
 30
0.0
 11
580.2289736524
 21
217.7859568522
 31
0.0
  0
LINE
  5
2F9
330
1F
100
AcDbEntity
  8
SLD-0
  6
Continuous
 62
   179
370
    15
100
AcDbLine
 10
572.2289741292
 20
212.7859582462
 30
0.0
 11
573.3007708989
 21
212.7859582462
 31
0.0
  0
LINE
  5
2FA
330
1F
100
AcDbEntity
  8
SLD-0
  6
Continuous
 62
   179
370
    15
100
AcDbLine
 10
573.3007708989
 20
212.7859582462
 30
0.0
 11
580.2289741292
 21
212.7859582462
 31
0.0
  0
LINE
  5
2FB
330
1F
100
AcDbEntity
  8
SLD-0
  6
Continuous
 62
   179
370
    15
100
AcDbLine
 10
580.2289741292
 20
212.7859582462
 30
0.0
 11
587.1571773595
 21
212.7859582462
 31
0.0
  0
LINE
  5
2FC
330
1F
100
AcDbEntity
  8
SLD-0
  6
Continuous
 62
   179
370
    15
100
AcDbLine
 10
587.1571773595
 20
212.7859582462
 30
0.0
 11
588.2289741292
 21
212.7859582462
 31
0.0
  0
LINE
  5
2FD
330
1F
100
AcDbEntity
  8
SLD-0
  6
Continuous
 62
   179
370
    15
100
AcDbLine
 10
573.3007708989
 20
155.5859582462
 30
0.0
 11
572.2289741292
 21
155.5859582462
 31
0.0
  0
LINE
  5
2FE
330
1F
100
AcDbEntity
  8
SLD-0
  6
Continuous
 62
   179
370
    15
100
AcDbLine
 10
588.2289741292
 20
155.5859582462
 30
0.0
 11
587.1571773595
 21
155.5859582462
 31
0.0
  0
LINE
  5
2FF
330
1F
100
AcDbEntity
  8
SLD-0
  6
Continuous
 62
   179
370
    15
100
AcDbLine
 10
587.1571773595
 20
155.5859582462
 30
0.0
 11
580.2289741292
 21
155.5859582462
 31
0.0
  0
LINE
  5
300
330
1F
100
AcDbEntity
  8
SLD-0
  6
Continuous
 62
   179
370
    15
100
AcDbLine
 10
580.2289741292
 20
155.5859582462
 30
0.0
 11
573.3007708989
 21
155.5859582462
 31
0.0
  0
LINE
  5
301
330
1F
100
AcDbEntity
  8
SLD-0
  6
Continuous
 62
   179
370
    15
100
AcDbLine
 10
580.2289741292
 20
221.7859582462
 30
0.0
 11
583.7289741292
 21
221.7859582462
 31
0.0
  0
LINE
  5
302
330
1F
100
AcDbEntity
  8
SLD-0
  6
Continuous
 62
   179
370
    15
100
AcDbLine
 10
576.7289741292
 20
221.7859582462
 30
0.0
 11
580.2289741292
 21
221.7859582462
 31
0.0
  0
LINE
  5
303
330
1F
100
AcDbEntity
  8
SLD-0
  6
Continuous
 62
   179
370
    15
100
AcDbLine
 10
580.2289741292
 20
231.7859582462
 30
0.0
 11
583.2289741292
 21
231.7859582462
 31
0.0
  0
LINE
  5
304
330
1F
100
AcDbEntity
  8
SLD-0
  6
Continuous
 62
   179
370
    15
100
AcDbLine
 10
577.2289741292
 20
231.7859582462
 30
0.0
 11
580.2289741292
 21
231.7859582462
 31
0.0
  0
LINE
  5
305
330
1F
100
AcDbEntity
  8
SLD-0
  6
Continuous
 62
   179
370
    15
100
AcDbLine
 10
580.2289741292
 20
226.7859582462
 30
0.0
 11
583.7289741292
 21
226.7859582462
 31
0.0
  0
LINE
  5
306
330
1F
100
AcDbEntity
  8
SLD-0
  6
Continuous
 62
   179
370
    15
100
AcDbLine
 10
576.7289741292
 20
226.7859582462
 30
0.0
 11
580.2289741292
 21
226.7859582462
 31
0.0
  0
LINE
  5
307
330
1F
100
AcDbEntity
  8
SLD-0
  6
Continuous
 62
   179
370
    15
100
AcDbLine
 10
604.2289741292
 20
212.5859582462
 30
0.0
 11
604.2289741292
 21
228.5859582462
 31
0.0
  0
LINE
  5
308
330
1F
100
AcDbEntity
  8
SLD-0
  6
Continuous
 62
   179
370
    15
100
AcDbLine
 10
604.2289741292
 20
228.5859582462
 30
0.0
 11
611.2289740771
 21
228.5859589949
 31
0.0
  0
LINE
  5
309
330
1F
100
AcDbEntity
  8
SLD-0
  6
Continuous
 62
   179
370
    15
100
AcDbLine
 10
609.4716148163
 20
200.8285989333
 30
0.0
 11
608.1579063173
 21
199.5148904344
 31
0.0
  0
LINE
  5
30A
330
1F
100
AcDbEntity
  8
SLD-0
  6
Continuous
 62
   179
370
    15
100
AcDbLine
 10
601.2289741292
 20
209.5859582462
 30
0.0
 11
596.2289741292
 21
209.5859582462
 31
0.0
  0
LINE
  5
30B
330
1F
100
AcDbEntity
  8
SLD-0
  6
Continuous
 62
   179
370
    15
100
AcDbLine
 10
604.2289741292
 20
232.5859582462
 30
0.0
 11
604.2289741292
 21
228.5859582462
 31
0.0
  0
LINE
  5
30C
330
1F
100
AcDbEntity
  8
SLD-0
  6
Continuous
 62
   179
370
    15
100
AcDbLine
 10
604.2289741292
 20
232.5859582462
 30
0.0
 11
611.2289740771
 21
232.5859577879
 31
0.0
  0
LINE
  5
30D
330
1F
100
AcDbEntity
  8
SLD-0
  6
Continuous
 62
   179
370
    15
100
AcDbLine
 10
611.2289740771
 20
136.5859606788
 30
0.0
 11
604.2289741292
 21
136.5859582462
 31
0.0
  0
LINE
  5
30E
330
1F
100
AcDbEntity
  8
SLD-0
  6
Continuous
 62
   179
370
    15
100
AcDbLine
 10
604.2289741292
 20
140.5859582462
 30
0.0
 11
604.2289741292
 21
136.5859582462
 31
0.0
  0
LINE
  5
30F
330
1F
100
AcDbEntity
  8
SLD-0
  6
Continuous
 62
   179
370
    15
100
AcDbLine
 10
611.2289740771
 20
140.5859613344
 30
0.0
 11
604.2289741292
 21
140.5859582462
 31
0.0
  0
LINE
  5
310
330
1F
100
AcDbEntity
  8
SLD-0
  6
Continuous
 62
   179
370
    15
100
AcDbLine
 10
604.2289741292
 20
140.5859582462
 30
0.0
 11
604.2289741292
 21
156.5859582462
 31
0.0
  0
LINE
  5
311
330
1F
100
AcDbEntity
  8
SLD-0
  6
Continuous
 62
   179
370
    15
100
AcDbLine
 10
609.4716148163
 20
168.3433175591
 30
0.0
 11
608.1579063173
 21
169.6570260581
 31
0.0
  0
LINE
  5
312
330
1F
100
AcDbEntity
  8
SLD-0
  6
Continuous
 62
   179
370
    15
100
AcDbLine
 10
596.22897413
 20
159.5859582462
 30
0.0
 11
601.2289741292
 21
159.5859582462
 31
0.0
  0
LINE
  5
313
330
1F
100
AcDbEntity
  8
SLD-0
  6
Continuous
 62
   179
370
    15
100
AcDbLine
 10
583.2289741292
 20
137.3859582462
 30
0.0
 11
577.2289741292
 21
137.3859582462
 31
0.0
  0
LINE
  5
314
330
1F
100
AcDbEntity
  8
SLD-0
  6
Continuous
 62
   179
370
    15
100
AcDbLine
 10
583.7289741292
 20
142.3859582462
 30
0.0
 11
576.7289741292
 21
142.3859582462
 31
0.0
  0
LINE
  5
315
330
1F
100
AcDbEntity
  8
SLD-0
  6
Continuous
 62
   179
370
    15
100
AcDbLine
 10
611.2289741292
 20
148.5859582462
 30
0.0
 11
617.2289741292
 21
148.5859582462
 31
0.0
  0
LINE
  5
316
330
1F
100
AcDbEntity
  8
SLD-0
  6
Continuous
 62
   179
370
    15
100
AcDbLine
 10
611.2289741292
 20
148.5859582462
 30
0.0
 11
611.2289741292
 21
346.5859582462
 31
0.0
  0
LINE
  5
317
330
1F
100
AcDbEntity
  8
SLD-0
  6
Continuous
 62
   179
370
    15
100
AcDbLine
 10
611.2289741292
 20
346.5859582462
 30
0.0
 11
617.2289741292
 21
346.5859582462
 31
0.0
  0
LINE
  5
318
330
1F
100
AcDbEntity
  8
SLD-0
  6
Continuous
 62
   179
370
    15
100
AcDbLine
 10
617.2289741292
 20
148.5859582462
 30
0.0
 11
617.2289741292
 21
346.5859582462
 31
0.0
  0
LINE
  5
319
330
1F
100
AcDbEntity
  8
SLD-0
  6
Continuous
 62
   179
370
    15
100
AcDbLine
 10
611.2289741292
 20
132.5859582462
 30
0.0
 11
617.2289741292
 21
132.5859582462
 31
0.0
  0
LINE
  5
31A
330
1F
100
AcDbEntity
  8
SLD-0
  6
Continuous
 62
   179
370
    15
100
AcDbLine
 10
611.2289741292
 20
132.5859582462
 30
0.0
 11
611.2289741292
 21
148.5859582462
 31
0.0
  0
LINE
  5
31B
330
1F
100
AcDbEntity
  8
SLD-0
  6
Continuous
 62
   179
370
    15
100
AcDbLine
 10
617.2289741292
 20
132.5859582462
 30
0.0
 11
617.2289741292
 21
148.5859582462
 31
0.0
  0
LINE
  5
31C
330
1F
100
AcDbEntity
  8
SLD-0
  6
Continuous
 62
   179
370
    15
100
AcDbLine
 10
611.2289741292
 20
362.5859582462
 30
0.0
 11
617.2289741292
 21
362.5859582462
 31
0.0
  0
LINE
  5
31D
330
1F
100
AcDbEntity
  8
SLD-0
  6
Continuous
 62
   179
370
    15
100
AcDbLine
 10
611.2289741292
 20
346.5859582462
 30
0.0
 11
611.2289741292
 21
362.5859582462
 31
0.0
  0
LINE
  5
31E
330
1F
100
AcDbEntity
  8
SLD-0
  6
Continuous
 62
   179
370
    15
100
AcDbLine
 10
617.2289741292
 20
346.5859582462
 30
0.0
 11
617.2289741292
 21
362.5859582462
 31
0.0
  0
LINE
  5
31F
330
1F
100
AcDbEntity
  8
SLD-0
  6
Continuous
 62
   179
370
    15
100
AcDbLine
 10
593.0289741292
 20
146.5859582462
 30
0.0
 11
593.0289741292
 21
139.5859582462
 31
0.0
  0
LINE
  5
320
330
1F
100
AcDbEntity
  8
SLD-0
  6
Continuous
 62
   179
370
    15
100
AcDbLine
 10
593.0289741292
 20
153.5859582462
 30
0.0
 11
593.0289741292
 21
146.5859582462
 31
0.0
  0
LINE
  5
321
330
1F
100
AcDbEntity
  8
SLD-0
  6
Continuous
 62
   179
370
    15
100
AcDbLine
 10
601.0289741292
 20
146.9076405387
 30
0.0
 11
601.0289741292
 21
146.2642759537
 31
0.0
  0
LINE
  5
322
330
1F
100
AcDbEntity
  8
SLD-0
  6
Continuous
 62
   179
370
    15
100
AcDbLine
 10
593.0289741292
 20
222.5859582462
 30
0.0
 11
593.0289741292
 21
215.5859582462
 31
0.0
  0
LINE
  5
323
330
1F
100
AcDbEntity
  8
SLD-0
  6
Continuous
 62
   179
370
    15
100
AcDbLine
 10
593.0289741292
 20
229.5859582462
 30
0.0
 11
593.0289741292
 21
222.5859582462
 31
0.0
  0
LINE
  5
324
330
1F
100
AcDbEntity
  8
SLD-0
  6
Continuous
 62
   179
370
    15
100
AcDbLine
 10
601.0289741292
 20
222.9076405387
 30
0.0
 11
601.0289741292
 21
222.2642759537
 31
0.0
  0
LINE
  5
325
330
1F
100
AcDbEntity
  8
SLD-0
  6
Continuous
 62
   179
370
    15
100
AcDbLine
 10
580.2289741292
 20
158.5859582462
 30
0.0
 11
572.2289741292
 21
158.5859582462
 31
0.0
  0
LINE
  5
326
330
1F
100
AcDbEntity
  8
SLD-0
  6
Continuous
 62
   179
370
    15
100
AcDbLine
 10
588.2289741292
 20
158.5859582462
 30
0.0
 11
580.2289741292
 21
158.5859582462
 31
0.0
  0
LINE
  5
327
330
1F
100
AcDbEntity
  8
SLD-0
  6
Continuous
 62
   179
370
    15
100
AcDbLine
 10
572.2289741292
 20
210.5859582462
 30
0.0
 11
588.2289741292
 21
210.5859582462
 31
0.0
  0
LINE
  5
328
330
1F
100
AcDbEntity
  8
ﾚｲﾔｰ0
  6
CENTERX2
 62
   179
370
     0
100
AcDbLine
 10
609.2289741292
 20
236.5859582462
 30
0.0
 11
619.2289741292
 21
236.5859582462
 31
0.0
  0
LINE
  5
329
330
1F
100
AcDbEntity
  8
ﾚｲﾔｰ0
  6
CENTERX2
 62
   179
370
     0
100
AcDbLine
 10
609.2289741292
 20
346.5859582462
 30
0.0
 11
619.2289741292
 21
346.5859582462
 31
0.0
  0
LINE
  5
32A
330
1F
100
AcDbEntity
  8
ﾚｲﾔｰ0
  6
CENTERX2
 62
   179
370
     0
100
AcDbLine
 10
590.6289741292
 20
222.5859582462
 30
0.0
 11
623.2289741292
 21
222.5859582462
 31
0.0
  0
LINE
  5
32B
330
1F
100
AcDbEntity
  8
ﾚｲﾔｰ0
  6
CENTERX2
 62
   179
370
     0
100
AcDbLine
 10
615.2289741292
 20
138.5859582462
 30
0.0
 11
623.2289741292
 21
138.5859582462
 31
0.0
  0
LINE
  5
32C
330
1F
100
AcDbEntity
  8
ﾚｲﾔｰ0
  6
CENTERX2
 62
   179
370
     0
100
AcDbLine
 10
615.2289741292
 20
230.5859582462
 30
0.0
 11
623.2289741292
 21
230.5859582462
 31
0.0
  0
LINE
  5
32D
330
1F
100
AcDbEntity
  8
ﾚｲﾔｰ0
  6
CENTERX2
 62
   179
370
     0
100
AcDbLine
 10
590.6289741292
 20
146.5859582462
 30
0.0
 11
622.6289741292
 21
146.5859582462
 31
0.0
  0
LINE
  5
32E
330
1F
100
AcDbEntity
  8
ﾚｲﾔｰ0
  6
CENTERX2
 62
   179
370
     0
100
AcDbLine
 10
580.2289741292
 20
142.3859582462
 30
0.0
 11
580.2289741292
 21
135.3859582462
 31
0.0
  0
LINE
  5
32F
330
1F
100
AcDbEntity
  8
ﾚｲﾔｰ0
  6
CENTERX2
 62
   179
370
     0
100
AcDbLine
 10
580.2289741292
 20
147.3859582462
 30
0.0
 11
580.2289741292
 21
142.3859582462
 31
0.0
  0
LINE
  5
330
330
1F
100
AcDbEntity
  8
ﾚｲﾔｰ0
  6
CENTERX2
 62
   179
370
     0
100
AcDbLine
 10
580.2289741292
 20
153.3859582462
 30
0.0
 11
580.2289741292
 21
147.3859582462
 31
0.0
  0
LINE
  5
331
330
1F
100
AcDbEntity
  8
ﾚｲﾔｰ0
  6
CENTERX2
 62
   179
370
     0
100
AcDbLine
 10
580.2289741292
 20
208.5859582462
 30
0.0
 11
580.2289741292
 21
215.5859582462
 31
0.0
  0
LINE
  5
332
330
1F
100
AcDbEntity
  8
ﾚｲﾔｰ0
  6
CENTERX2
 62
   179
370
     0
100
AcDbLine
 10
613.2289741292
 20
140.5859582462
 30
0.0
 11
602.2289741292
 21
140.5859582462
 31
0.0
  0
LINE
  5
333
330
1F
100
AcDbEntity
  8
ﾚｲﾔｰ0
  6
CENTERX2
 62
   179
370
     0
100
AcDbLine
 10
602.2289741292
 20
228.5859582462
 30
0.0
 11
613.2289741292
 21
228.5859582462
 31
0.0
  0
LINE
  5
334
330
1F
100
AcDbEntity
  8
ﾚｲﾔｰ0
  6
CENTERX2
 62
   179
370
     0
100
AcDbLine
 10
557.2289741292
 20
166.5859582462
 30
0.0
 11
557.2289741292
 21
202.5859582468
 31
0.0
  0
LINE
  5
335
330
1F
100
AcDbEntity
  8
ﾚｲﾔｰ0
  6
CENTERX2
 62
   179
370
     0
100
AcDbLine
 10
603.2289741292
 20
202.5859582462
 30
0.0
 11
603.2289741292
 21
166.5859582456
 31
0.0
  0
LINE
  5
336
330
1F
100
AcDbEntity
  8
ﾚｲﾔｰ0
  6
CENTERX2
 62
   179
370
     0
100
AcDbLine
 10
604.2289741292
 20
226.5859582462
 30
0.0
 11
604.2289741292
 21
142.5859582462
 31
0.0
  0
LINE
  5
337
330
1F
100
AcDbEntity
  8
ﾚｲﾔｰ0
  6
CENTERX2
 62
   179
370
     0
100
AcDbLine
 10
580.2289741292
 20
226.7859582462
 30
0.0
 11
580.2289741292
 21
233.7859582462
 31
0.0
  0
LINE
  5
338
330
1F
100
AcDbEntity
  8
ﾚｲﾔｰ0
  6
CENTERX2
 62
   179
370
     0
100
AcDbLine
 10
580.2289741292
 20
221.7859582462
 30
0.0
 11
580.2289741292
 21
226.7859582462
 31
0.0
  0
LINE
  5
339
330
1F
100
AcDbEntity
  8
ﾚｲﾔｰ0
  6
CENTERX2
 62
   179
370
     0
100
AcDbLine
 10
580.2289741292
 20
215.7859582462
 30
0.0
 11
580.2289741292
 21
221.7859582462
 31
0.0
  0
LINE
  5
33A
330
1F
100
AcDbEntity
  8
ﾚｲﾔｰ0
  6
CENTERX2
 62
   179
370
     0
100
AcDbLine
 10
580.2289741292
 20
160.5859582462
 30
0.0
 11
580.2289741292
 21
153.5859582462
 31
0.0
  0
LINE
  5
33B
330
1F
100
AcDbEntity
  8
ﾚｲﾔｰ0
  6
CENTERX2
370
     0
100
AcDbLine
 10
580.2289741292
 20
202.5859582465
 30
0.0
 11
580.2289741292
 21
166.585958246
 31
0.0
  0
LINE
  5
33C
330
1F
100
AcDbEntity
  8
ﾚｲﾔｰ0
  6
CENTERX2
 62
   179
370
     0
100
AcDbLine
 10
562.2289741289
 20
207.5859582523
 30
0.0
 11
598.2289741292
 21
207.5859581434
 31
0.0
  0
LINE
  5
33D
330
1F
100
AcDbEntity
  8
ﾚｲﾔｰ0
  6
CENTERX2
 62
   179
370
     0
100
AcDbLine
 10
598.2289741295
 20
161.5859582402
 30
0.0
 11
562.2289741292
 21
161.585958349
 31
0.0
  0
LINE
  5
33E
330
1F
100
AcDbEntity
  8
ﾚｲﾔｰ0
  6
CENTERX2
370
     0
100
AcDbLine
 10
598.2289741294
 20
184.5859581918
 30
0.0
 11
562.228974129
 21
184.5859583006
 31
0.0
  0
ARC
  5
33F
330
1F
100
AcDbEntity
  8
SLD-0
  6
Continuous
 62
   179
370
    15
100
AcDbCircle
 10
286.0255664026
 20
191.1859582462
 30
0.0
 40
0.4000000000000341
100
AcDbArc
 50
0.0
 51
90.0
  0
ARC
  5
340
330
1F
100
AcDbEntity
  8
SLD-0
  6
Continuous
 62
   179
370
    15
100
AcDbCircle
 10
286.0255664026
 20
177.9859582462
 30
0.0
 40
0.400000000000091
100
AcDbArc
 50
270.0
 51
0.0
  0
ARC
  5
341
330
1F
100
AcDbEntity
  8
SLD-0
  6
Continuous
 62
   179
370
    15
100
AcDbCircle
 10
362.0255664026
 20
177.9859582462
 30
0.0
 40
0.4000000000000057
100
AcDbArc
 50
180.0
 51
270.0
  0
ARC
  5
342
330
1F
100
AcDbEntity
  8
SLD-0
  6
Continuous
 62
   179
370
    15
100
AcDbCircle
 10
362.0255664026
 20
191.1859582462
 30
0.0
 40
0.4000000000000341
100
AcDbArc
 50
90.0
 51
180.0
  0
ARC
  5
343
330
1F
100
AcDbEntity
  8
SLD-0
  6
Continuous
 62
   179
370
    15
100
AcDbCircle
 10
463.0255664026
 20
158.5859582462
 30
0.0
 40
0.9999999999943725
100
AcDbArc
 50
90.0000125757
 51
180.0
  0
ARC
  5
344
330
1F
100
AcDbEntity
  8
SLD-0
  6
Continuous
 62
   179
370
    15
100
AcDbCircle
 10
445.0255664026
 20
158.5859582462
 30
0.0
 40
0.9999999999943725
100
AcDbArc
 50
0.0
 51
89.9999874243
  0
ARC
  5
345
330
1F
100
AcDbEntity
  8
SLD-0
  6
Continuous
 62
   179
370
    15
100
AcDbCircle
 10
445.0255664026
 20
210.5859582462
 30
0.0
 40
0.9999999999849365
100
AcDbArc
 50
270.0000125761
 51
0.0
  0
ARC
  5
346
330
1F
100
AcDbEntity
  8
SLD-0
  6
Continuous
 62
   179
370
    15
100
AcDbCircle
 10
463.0255664026
 20
210.5859582462
 30
0.0
 40
0.9999999999849365
100
AcDbArc
 50
180.0
 51
269.9999874239
  0
CIRCLE
  5
347
330
1F
100
AcDbEntity
  8
SLD-0
  6
Continuous
 62
   179
370
    15
100
AcDbCircle
 10
414.0255664026
 20
146.5859582462
 30
0.0
 40
6.599999999999966
  0
CIRCLE
  5
348
330
1F
100
AcDbEntity
  8
SLD-0
  6
Continuous
 62
   179
370
    15
100
AcDbCircle
 10
414.0255664026
 20
146.5859582462
 30
0.0
 40
7.0
  0
ARC
  5
349
330
1F
100
AcDbEntity
  8
SLD-0
  6
Continuous
 62
   179
370
    15
100
AcDbCircle
 10
414.0255664026
 20
146.5859582462
 30
0.0
 40
3.071000000000026
100
AcDbArc
 50
300.0
 51
0.0
  0
ARC
  5
34A
330
1F
100
AcDbEntity
  8
SLD-0
  6
Continuous
 62
   179
370
    15
100
AcDbCircle
 10
414.0255664026
 20
146.5859582462
 30
0.0
 40
3.071000000000021
100
AcDbArc
 50
60.0
 51
120.0
  0
ARC
  5
34B
330
1F
100
AcDbEntity
  8
SLD-0
  6
Continuous
 62
   179
370
    15
100
AcDbCircle
 10
414.0255664026
 20
146.5859582462
 30
0.0
 40
3.071000000000026
100
AcDbArc
 50
0.0
 51
60.0
  0
ARC
  5
34C
330
1F
100
AcDbEntity
  8
SLD-0
  6
Continuous
 62
   179
370
    15
100
AcDbCircle
 10
414.0255664026
 20
146.5859582462
 30
0.0
 40
3.071000000000021
100
AcDbArc
 50
240.0
 51
300.0
  0
ARC
  5
34D
330
1F
100
AcDbEntity
  8
SLD-0
  6
Continuous
 62
   179
370
    15
100
AcDbCircle
 10
414.0255664026
 20
146.5859582462
 30
0.0
 40
3.071000000000021
100
AcDbArc
 50
180.0
 51
240.0
  0
ARC
  5
34E
330
1F
100
AcDbEntity
  8
SLD-0
  6
Continuous
 62
   179
370
    15
100
AcDbCircle
 10
414.0255664026
 20
146.5859582462
 30
0.0
 40
3.071000000000021
100
AcDbArc
 50
120.0
 51
180.0
  0
CIRCLE
  5
34F
330
1F
100
AcDbEntity
  8
SLD-0
  6
Continuous
 62
   179
370
    15
100
AcDbCircle
 10
234.0255664026
 20
222.5859582462
 30
0.0
 40
6.599999999999994
  0
CIRCLE
  5
350
330
1F
100
AcDbEntity
  8
SLD-0
  6
Continuous
 62
   179
370
    15
100
AcDbCircle
 10
234.0255664026
 20
222.5859582462
 30
0.0
 40
7.0
  0
ARC
  5
351
330
1F
100
AcDbEntity
  8
SLD-0
  6
Continuous
 62
   179
370
    15
100
AcDbCircle
 10
234.0255664026
 20
222.5859582462
 30
0.0
 40
3.070999999999982
100
AcDbArc
 50
180.0
 51
240.0
  0
ARC
  5
352
330
1F
100
AcDbEntity
  8
SLD-0
  6
Continuous
 62
   179
370
    15
100
AcDbCircle
 10
234.0255664026
 20
222.5859582462
 30
0.0
 40
3.071000000000035
100
AcDbArc
 50
300.0
 51
0.0
  0
ARC
  5
353
330
1F
100
AcDbEntity
  8
SLD-0
  6
Continuous
 62
   179
370
    15
100
AcDbCircle
 10
234.0255664026
 20
222.5859582462
 30
0.0
 40
3.071000000000035
100
AcDbArc
 50
240.0
 51
300.0
  0
ARC
  5
354
330
1F
100
AcDbEntity
  8
SLD-0
  6
Continuous
 62
   179
370
    15
100
AcDbCircle
 10
234.0255664026
 20
222.5859582462
 30
0.0
 40
3.071000000000021
100
AcDbArc
 50
120.0
 51
180.0
  0
ARC
  5
355
330
1F
100
AcDbEntity
  8
SLD-0
  6
Continuous
 62
   179
370
    15
100
AcDbCircle
 10
234.0255664026
 20
222.5859582462
 30
0.0
 40
3.071000000000035
100
AcDbArc
 50
60.0
 51
120.0
  0
ARC
  5
356
330
1F
100
AcDbEntity
  8
SLD-0
  6
Continuous
 62
   179
370
    15
100
AcDbCircle
 10
234.0255664026
 20
222.5859582462
 30
0.0
 40
3.071000000000035
100
AcDbArc
 50
0.0
 51
60.0
  0
CIRCLE
  5
357
330
1F
100
AcDbEntity
  8
SLD-0
  6
Continuous
 62
   179
370
    15
100
AcDbCircle
 10
234.0255664026
 20
146.5859582462
 30
0.0
 40
6.599999999999994
  0
CIRCLE
  5
358
330
1F
100
AcDbEntity
  8
SLD-0
  6
Continuous
 62
   179
370
    15
100
AcDbCircle
 10
234.0255664026
 20
146.5859582462
 30
0.0
 40
7.0
  0
ARC
  5
359
330
1F
100
AcDbEntity
  8
SLD-0
  6
Continuous
 62
   179
370
    15
100
AcDbCircle
 10
234.0255664026
 20
146.5859582462
 30
0.0
 40
3.071000000000035
100
AcDbArc
 50
300.0
 51
0.0
  0
ARC
  5
35A
330
1F
100
AcDbEntity
  8
SLD-0
  6
Continuous
 62
   179
370
    15
100
AcDbCircle
 10
234.0255664026
 20
146.5859582462
 30
0.0
 40
3.071000000000035
100
AcDbArc
 50
240.0
 51
300.0
  0
ARC
  5
35B
330
1F
100
AcDbEntity
  8
SLD-0
  6
Continuous
 62
   179
370
    15
100
AcDbCircle
 10
234.0255664026
 20
146.5859582462
 30
0.0
 40
3.071000000000021
100
AcDbArc
 50
180.0
 51
240.0
  0
ARC
  5
35C
330
1F
100
AcDbEntity
  8
SLD-0
  6
Continuous
 62
   179
370
    15
100
AcDbCircle
 10
234.0255664026
 20
146.5859582462
 30
0.0
 40
3.071000000000007
100
AcDbArc
 50
120.0
 51
180.0
  0
ARC
  5
35D
330
1F
100
AcDbEntity
  8
SLD-0
  6
Continuous
 62
   179
370
    15
100
AcDbCircle
 10
234.0255664026
 20
146.5859582462
 30
0.0
 40
3.071000000000021
100
AcDbArc
 50
60.0
 51
120.0
  0
ARC
  5
35E
330
1F
100
AcDbEntity
  8
SLD-0
  6
Continuous
 62
   179
370
    15
100
AcDbCircle
 10
234.0255664026
 20
146.5859582462
 30
0.0
 40
3.071000000000026
100
AcDbArc
 50
0.0
 51
60.0
  0
CIRCLE
  5
35F
330
1F
100
AcDbEntity
  8
SLD-0
  6
Continuous
 62
   179
370
    15
100
AcDbCircle
 10
414.0255664026
 20
222.5859582462
 30
0.0
 40
6.599999999999909
  0
CIRCLE
  5
360
330
1F
100
AcDbEntity
  8
SLD-0
  6
Continuous
 62
   179
370
    15
100
AcDbCircle
 10
414.0255664026
 20
222.5859582462
 30
0.0
 40
7.0
  0
ARC
  5
361
330
1F
100
AcDbEntity
  8
SLD-0
  6
Continuous
 62
   179
370
    15
100
AcDbCircle
 10
414.0255664026
 20
222.5859582462
 30
0.0
 40
3.071000000000021
100
AcDbArc
 50
60.0
 51
120.0
  0
ARC
  5
362
330
1F
100
AcDbEntity
  8
SLD-0
  6
Continuous
 62
   179
370
    15
100
AcDbCircle
 10
414.0255664026
 20
222.5859582462
 30
0.0
 40
3.07099999999997
100
AcDbArc
 50
300.0
 51
0.0
  0
ARC
  5
363
330
1F
100
AcDbEntity
  8
SLD-0
  6
Continuous
 62
   179
370
    15
100
AcDbCircle
 10
414.0255664026
 20
222.5859582462
 30
0.0
 40
3.070999999999996
100
AcDbArc
 50
240.0
 51
300.0
  0
ARC
  5
364
330
1F
100
AcDbEntity
  8
SLD-0
  6
Continuous
 62
   179
370
    15
100
AcDbCircle
 10
414.0255664026
 20
222.5859582462
 30
0.0
 40
3.070999999999996
100
AcDbArc
 50
180.0
 51
240.0
  0
ARC
  5
365
330
1F
100
AcDbEntity
  8
SLD-0
  6
Continuous
 62
   179
370
    15
100
AcDbCircle
 10
414.0255664026
 20
222.5859582462
 30
0.0
 40
3.071000000000021
100
AcDbArc
 50
120.0
 51
180.0
  0
ARC
  5
366
330
1F
100
AcDbEntity
  8
SLD-0
  6
Continuous
 62
   179
370
    15
100
AcDbCircle
 10
414.0255664026
 20
222.5859582462
 30
0.0
 40
3.071000000000021
100
AcDbArc
 50
0.0
 51
60.0
  0
ARC
  5
367
330
1F
100
AcDbEntity
  8
SLD-0
  6
Continuous
 62
   179
370
    15
100
AcDbCircle
 10
414.0255664026
 20
146.5859582462
 30
0.0
 40
7.600000000025615
100
AcDbArc
 50
4.5000000025
 51
355.5000000003
  0
ARC
  5
368
330
1F
100
AcDbEntity
  8
SLD-0
  6
Continuous
 62
   179
370
    15
100
AcDbCircle
 10
234.0255664026
 20
146.5859582462
 30
0.0
 40
7.600000000025672
100
AcDbArc
 50
4.5000000025
 51
355.5000000003
  0
ARC
  5
369
330
1F
100
AcDbEntity
  8
SLD-0
  6
Continuous
 62
   179
370
    15
100
AcDbCircle
 10
234.0255664026
 20
222.5859582462
 30
0.0
 40
7.600000000025672
100
AcDbArc
 50
4.5000000025
 51
355.5000000003
  0
ARC
  5
36A
330
1F
100
AcDbEntity
  8
SLD-0
  6
Continuous
 62
   179
370
    15
100
AcDbCircle
 10
414.0255664026
 20
222.5859582462
 30
0.0
 40
7.599999999999931
100
AcDbArc
 50
4.5
 51
355.5
  0
CIRCLE
  5
36B
330
1F
100
AcDbEntity
  8
SLD-0
  6
Continuous
 62
   179
370
    15
100
AcDbCircle
 10
234.0255664026
 20
146.5859582462
 30
0.0
 40
9.000000000000028
  0
CIRCLE
  5
36C
330
1F
100
AcDbEntity
  8
SLD-0
  6
Continuous
 62
   179
370
    15
100
AcDbCircle
 10
414.0255664026
 20
222.5859582462
 30
0.0
 40
9.0
  0
CIRCLE
  5
36D
330
1F
100
AcDbEntity
  8
SLD-0
  6
Continuous
 62
   179
370
    15
100
AcDbCircle
 10
414.0255664026
 20
146.5859582462
 30
0.0
 40
9.0
  0
CIRCLE
  5
36E
330
1F
100
AcDbEntity
  8
SLD-0
  6
Continuous
 62
   179
370
    15
100
AcDbCircle
 10
234.0255664026
 20
222.5859582462
 30
0.0
 40
9.000000000000028
  0
ARC
  5
36F
330
1F
100
AcDbEntity
  8
SLD-0
  6
Continuous
 62
   179
370
    15
100
AcDbCircle
 10
467.0255664026
 20
161.5859582462
 30
0.0
 40
2.000000000000002
100
AcDbArc
 50
270.0
 51
0.0
  0
ARC
  5
370
330
1F
100
AcDbEntity
  8
SLD-0
  6
Continuous
 62
   179
370
    15
100
AcDbCircle
 10
388.0255664026
 20
207.5859582462
 30
0.0
 40
2.0
100
AcDbArc
 50
90.0
 51
180.0
  0
ARC
  5
371
330
1F
100
AcDbEntity
  8
SLD-0
  6
Continuous
 62
   179
370
    15
100
AcDbCircle
 10
467.0255664026
 20
207.5859582462
 30
0.0
 40
2.0
100
AcDbArc
 50
0.0
 51
90.0
  0
ARC
  5
372
330
1F
100
AcDbEntity
  8
SLD-0
  6
Continuous
 62
   179
370
    15
100
AcDbCircle
 10
388.0255664026
 20
161.5859582462
 30
0.0
 40
2.0
100
AcDbArc
 50
180.0
 51
270.0
  0
ARC
  5
373
330
1F
100
AcDbEntity
  8
SLD-0
  6
Continuous
 62
   179
370
    15
100
AcDbCircle
 10
407.0255664026
 20
228.5859582462
 30
0.0
 40
4.000000000018446
100
AcDbArc
 50
90.0000000001
 51
180.0
  0
ARC
  5
374
330
1F
100
AcDbEntity
  8
SLD-0
  6
Continuous
 62
   179
370
    15
100
AcDbCircle
 10
431.0255664026
 20
228.5859582462
 30
0.0
 40
4.000000000018531
100
AcDbArc
 50
0.0
 51
90.0
  0
ARC
  5
375
330
1F
100
AcDbEntity
  8
SLD-0
  6
Continuous
 62
   179
370
    15
100
AcDbCircle
 10
424.0255664026
 20
222.5859582462
 30
0.0
 40
4.500000000000057
100
AcDbArc
 50
270.0
 51
90.0000000001
  0
ARC
  5
376
330
1F
100
AcDbEntity
  8
SLD-0
  6
Continuous
 62
   179
370
    15
100
AcDbCircle
 10
431.0255664026
 20
140.5859582462
 30
0.0
 40
4.000000000018531
100
AcDbArc
 50
270.0000000001
 51
0.0
  0
ARC
  5
377
330
1F
100
AcDbEntity
  8
SLD-0
  6
Continuous
 62
   179
370
    15
100
AcDbCircle
 10
407.0255664026
 20
140.5859582462
 30
0.0
 40
4.000000000018417
100
AcDbArc
 50
180.0
 51
270.0
  0
ARC
  5
378
330
1F
100
AcDbEntity
  8
SLD-0
  6
Continuous
 62
   179
370
    15
100
AcDbCircle
 10
424.0255664026
 20
146.5859582462
 30
0.0
 40
4.5
100
AcDbArc
 50
270.0
 51
90.0000000001
  0
ARC
  5
379
330
1F
100
AcDbEntity
  8
SLD-0
  6
Continuous
 62
   179
370
    15
100
AcDbCircle
 10
181.0255664026
 20
207.5859582462
 30
0.0
 40
2.000000000000031
100
AcDbArc
 50
89.9999999995
 51
180.0
  0
ARC
  5
37A
330
1F
100
AcDbEntity
  8
SLD-0
  6
Continuous
 62
   179
370
    15
100
AcDbCircle
 10
260.0255664026
 20
161.5859582462
 30
0.0
 40
2.0
100
AcDbArc
 50
270.0
 51
0.0
  0
ARC
  5
37B
330
1F
100
AcDbEntity
  8
SLD-0
  6
Continuous
 62
   179
370
    15
100
AcDbCircle
 10
181.0255664026
 20
161.5859582462
 30
0.0
 40
2.0
100
AcDbArc
 50
180.0
 51
270.0
  0
ARC
  5
37C
330
1F
100
AcDbEntity
  8
SLD-0
  6
Continuous
 62
   179
370
    15
100
AcDbCircle
 10
260.0255664026
 20
207.5859582462
 30
0.0
 40
2.0
100
AcDbArc
 50
0.0
 51
90.0
  0
ARC
  5
37D
330
1F
100
AcDbEntity
  8
SLD-0
  6
Continuous
 62
   179
370
    15
100
AcDbCircle
 10
241.0255664026
 20
140.5859582462
 30
0.0
 40
4.000000000018503
100
AcDbArc
 50
270.0000000001
 51
0.0
  0
ARC
  5
37E
330
1F
100
AcDbEntity
  8
SLD-0
  6
Continuous
 62
   179
370
    15
100
AcDbCircle
 10
217.0255664026
 20
140.5859582462
 30
0.0
 40
4.000000000018559
100
AcDbArc
 50
180.0
 51
270.0
  0
ARC
  5
37F
330
1F
100
AcDbEntity
  8
SLD-0
  6
Continuous
 62
   179
370
    15
100
AcDbCircle
 10
224.0255664026
 20
146.5859582462
 30
0.0
 40
4.500000000000028
100
AcDbArc
 50
90.0
 51
270.0000000001
  0
ARC
  5
380
330
1F
100
AcDbEntity
  8
SLD-0
  6
Continuous
 62
   179
370
    15
100
AcDbCircle
 10
217.0255664026
 20
228.5859582462
 30
0.0
 40
4.000000000018559
100
AcDbArc
 50
90.0000000001
 51
180.0
  0
ARC
  5
381
330
1F
100
AcDbEntity
  8
SLD-0
  6
Continuous
 62
   179
370
    15
100
AcDbCircle
 10
241.0255664026
 20
228.5859582462
 30
0.0
 40
4.000000000018503
100
AcDbArc
 50
0.0
 51
90.0
  0
ARC
  5
382
330
1F
100
AcDbEntity
  8
SLD-0
  6
Continuous
 62
   179
370
    15
100
AcDbCircle
 10
224.0255664026
 20
222.5859582462
 30
0.0
 40
4.500000000000028
100
AcDbArc
 50
90.0
 51
270.0000000001
  0
CIRCLE
  5
383
330
1F
100
AcDbEntity
  8
SLD-0
  6
Continuous
 62
   179
370
    15
100
AcDbCircle
 10
234.0255664026
 20
260.5859582462
 30
0.0
 40
5.200000000000017
  0
CIRCLE
  5
384
330
1F
100
AcDbEntity
  8
SLD-0
  6
Continuous
 62
   179
370
    15
100
AcDbCircle
 10
374.0255664026
 20
302.5859582462
 30
0.0
 40
6.300000000000068
  0
CIRCLE
  5
385
330
1F
100
AcDbEntity
  8
SLD-0
  6
Continuous
 62
   179
370
    15
100
AcDbCircle
 10
274.0255664026
 20
302.5859582462
 30
0.0
 40
6.300000000000011
  0
ARC
  5
386
330
1F
100
AcDbEntity
  8
SLD-0
  6
Continuous
 62
   179
370
    15
100
AcDbCircle
 10
438.0255664026
 20
346.5859582462
 30
0.0
 40
16.00000000000011
100
AcDbArc
 50
0.0
 51
90.0
  0
ARC
  5
387
330
1F
100
AcDbEntity
  8
SLD-0
  6
Continuous
 62
   179
370
    15
100
AcDbCircle
 10
278.0255664026
 20
148.5859582462
 30
0.0
 40
16.00000000000002
100
AcDbArc
 50
270.0
 51
345.522487814
  0
CIRCLE
  5
388
330
1F
100
AcDbEntity
  8
SLD-0
  6
Continuous
 62
   179
370
    15
100
AcDbCircle
 10
374.0255664026
 20
342.5859582462
 30
0.0
 40
6.300000000000068
  0
ARC
  5
389
330
1F
100
AcDbEntity
  8
SLD-0
  6
Continuous
 62
   179
370
    15
100
AcDbCircle
 10
438.0255664026
 20
148.5859582462
 30
0.0
 40
16.00000000000011
100
AcDbArc
 50
270.0
 51
0.0
  0
ARC
  5
38A
330
1F
100
AcDbEntity
  8
SLD-0
  6
Continuous
 62
   179
370
    15
100
AcDbCircle
 10
370.0255664026
 20
148.5859582462
 30
0.0
 40
16.00000000000003
100
AcDbArc
 50
194.4775121859
 51
270.0
  0
ARC
  5
38B
330
1F
100
AcDbEntity
  8
SLD-0
  6
Continuous
 62
   179
370
    15
100
AcDbCircle
 10
338.0255664026
 20
236.5859582462
 30
0.0
 40
16.0
100
AcDbArc
 50
0.0
 51
90.0
  0
ARC
  5
38C
330
1F
100
AcDbEntity
  8
SLD-0
  6
Continuous
 62
   179
370
    15
100
AcDbCircle
 10
310.0255664026
 20
236.5859582462
 30
0.0
 40
16.0
100
AcDbArc
 50
90.0
 51
180.0
  0
ARC
  5
38D
330
1F
100
AcDbEntity
  8
SLD-0
  6
Continuous
 62
   179
370
    15
100
AcDbCircle
 10
210.0255664026
 20
346.5859582462
 30
0.0
 40
16.0
100
AcDbArc
 50
90.0
 51
180.0
  0
CIRCLE
  5
38E
330
1F
100
AcDbEntity
  8
SLD-0
  6
Continuous
 62
   179
370
    15
100
AcDbCircle
 10
274.0255664026
 20
342.5859582462
 30
0.0
 40
6.300000000000011
  0
CIRCLE
  5
38F
330
1F
100
AcDbEntity
  8
SLD-0
  6
Continuous
 62
   179
370
    15
100
AcDbCircle
 10
414.0255664026
 20
260.5859582462
 30
0.0
 40
5.199999999999989
  0
ARC
  5
390
330
1F
100
AcDbEntity
  8
SLD-0
  6
Continuous
 62
   179
370
    15
100
AcDbCircle
 10
209.9496157017
 20
148.5857779793
 30
0.0
 40
16.00000000000001
100
AcDbArc
 50
185.5848627266
 51
270.2719794346
  0
CIRCLE
  5
391
330
1F
100
AcDbEntity
  8
SLD-0
  6
Continuous
 62
     7
370
   100
100
AcDbCircle
 10
189.2032019536
 20
175.7476891116
 30
0.0
 40
0.4999999999999957
  0
CIRCLE
  5
392
330
1F
100
AcDbEntity
  8
SLD-0
  6
Continuous
 62
     7
370
   100
100
AcDbCircle
 10
377.6070583936
 20
162.2897461098
 30
0.0
 40
0.50000000000002
  0
ARC
  5
393
330
1F
100
AcDbEntity
  8
SLD-0
  6
Continuous
 62
   179
370
    15
100
AcDbCircle
 10
286.0255664026
 20
485.9365290208
 30
0.0
 40
0.400000000000091
100
AcDbArc
 50
0.0
 51
90.0
  0
ARC
  5
394
330
1F
100
AcDbEntity
  8
SLD-0
  6
Continuous
 62
   179
370
    15
100
AcDbCircle
 10
286.0255664026
 20
472.7365290208
 30
0.0
 40
0.4000000000000341
100
AcDbArc
 50
270.0
 51
0.0
  0
ARC
  5
395
330
1F
100
AcDbEntity
  8
SLD-0
  6
Continuous
 62
   179
370
    15
100
AcDbCircle
 10
362.0255664026
 20
472.7365290208
 30
0.0
 40
0.3999999999999773
100
AcDbArc
 50
180.0
 51
270.0
  0
ARC
  5
396
330
1F
100
AcDbEntity
  8
SLD-0
  6
Continuous
 62
   179
370
    15
100
AcDbCircle
 10
362.0255664026
 20
485.9365290208
 30
0.0
 40
0.400000000000091
100
AcDbArc
 50
90.0
 51
180.0
  0
ARC
  5
397
330
1F
100
AcDbEntity
  8
SLD-0
  6
Continuous
 62
   179
370
    15
100
AcDbCircle
 10
240.6255664026
 20
492.1365290208
 30
0.0
 40
0.4000000000000341
100
AcDbArc
 50
270.0
 51
0.0
  0
ARC
  5
398
330
1F
100
AcDbEntity
  8
SLD-0
  6
Continuous
 62
   179
370
    15
100
AcDbCircle
 10
227.4255664026
 20
492.1365290208
 30
0.0
 40
0.4000000000000341
100
AcDbArc
 50
180.0
 51
270.0
  0
ARC
  5
399
330
1F
100
AcDbEntity
  8
SLD-0
  6
Continuous
 62
   179
370
    15
100
AcDbCircle
 10
420.6255664026
 20
492.1365290208
 30
0.0
 40
0.400000000000091
100
AcDbArc
 50
270.0
 51
0.0
  0
ARC
  5
39A
330
1F
100
AcDbEntity
  8
SLD-0
  6
Continuous
 62
   179
370
    15
100
AcDbCircle
 10
407.4255664026
 20
492.1365290208
 30
0.0
 40
0.4000000000000341
100
AcDbArc
 50
180.0
 51
270.0
  0
ARC
  5
39B
330
1F
100
AcDbEntity
  8
SLD-0
  6
Continuous
 62
   179
370
    15
100
AcDbCircle
 10
273.0255664026
 20
503.3365290208
 30
0.0
 40
6.0
100
AcDbArc
 50
90.0
 51
180.0
  0
ARC
  5
39C
330
1F
100
AcDbEntity
  8
SLD-0
  6
Continuous
 62
   179
370
    15
100
AcDbCircle
 10
375.0255664026
 20
503.3365290208
 30
0.0
 40
6.0
100
AcDbArc
 50
0.0
 51
90.0
  0
CIRCLE
  5
39D
330
1F
100
AcDbEntity
  8
SLD-0
  6
Continuous
 62
   179
370
    15
100
AcDbCircle
 10
454.0255664026
 20
479.3365290208
 30
0.0
 40
3.000000000001364
  0
CIRCLE
  5
39E
330
1F
100
AcDbEntity
  8
SLD-0
  6
Continuous
 62
   179
370
    15
100
AcDbCircle
 10
454.0255664026
 20
479.3365290208
 30
0.0
 40
1.999999999999659
  0
CIRCLE
  5
39F
330
1F
100
AcDbEntity
  8
SLD-0
  6
Continuous
 62
   179
370
    15
100
AcDbCircle
 10
454.0255664026
 20
479.3365290208
 30
0.0
 40
3.499999999998693
  0
ARC
  5
3A0
330
1F
100
AcDbEntity
  8
SLD-0
  6
Continuous
 62
   179
370
    15
100
AcDbCircle
 10
454.0255664026
 20
479.3365290208
 30
0.0
 40
8.000000000000057
100
AcDbArc
 50
120.0
 51
180.0
  0
ARC
  5
3A1
330
1F
100
AcDbEntity
  8
SLD-0
  6
Continuous
 62
   179
370
    15
100
AcDbCircle
 10
454.0255664026
 20
479.3365290208
 30
0.0
 40
7.999999999934642
100
AcDbArc
 50
59.9999999997
 51
120.0000000003
  0
ARC
  5
3A2
330
1F
100
AcDbEntity
  8
SLD-0
  6
Continuous
 62
   179
370
    15
100
AcDbCircle
 10
454.0255664026
 20
479.3365290208
 30
0.0
 40
7.999999999999943
100
AcDbArc
 50
0.0
 51
60.0
  0
ARC
  5
3A3
330
1F
100
AcDbEntity
  8
SLD-0
  6
Continuous
 62
   179
370
    15
100
AcDbCircle
 10
454.0255664026
 20
479.3365290208
 30
0.0
 40
8.000000000021185
100
AcDbArc
 50
180.0
 51
240.0000000001
  0
ARC
  5
3A4
330
1F
100
AcDbEntity
  8
SLD-0
  6
Continuous
 62
   179
370
    15
100
AcDbCircle
 10
454.0255664026
 20
479.3365290208
 30
0.0
 40
8.000000000021156
100
AcDbArc
 50
299.9999999999
 51
0.0
  0
ARC
  5
3A5
330
1F
100
AcDbEntity
  8
SLD-0
  6
Continuous
 62
   179
370
    15
100
AcDbCircle
 10
454.0255664026
 20
479.3365290208
 30
0.0
 40
8.000000000021185
100
AcDbArc
 50
240.0000000001
 51
299.9999999999
  0
CIRCLE
  5
3A6
330
1F
100
AcDbEntity
  8
SLD-0
  6
Continuous
 62
   179
370
    15
100
AcDbCircle
 10
454.0255664026
 20
479.3365290208
 30
0.0
 40
8.999999561001459
  0
ARC
  5
3A7
330
1F
100
AcDbEntity
  8
SLD-0
  6
Continuous
 62
   179
370
    15
100
AcDbCircle
 10
467.0255664026
 20
456.3365290208
 30
0.0
 40
2.000000000000002
100
AcDbArc
 50
270.0
 51
0.0
  0
ARC
  5
3A8
330
1F
100
AcDbEntity
  8
SLD-0
  6
Continuous
 62
   179
370
    15
100
AcDbCircle
 10
388.0255664026
 20
502.3365290208
 30
0.0
 40
2.0
100
AcDbArc
 50
90.0
 51
180.0
  0
ARC
  5
3A9
330
1F
100
AcDbEntity
  8
SLD-0
  6
Continuous
 62
   179
370
    15
100
AcDbCircle
 10
467.0255664026
 20
502.3365290208
 30
0.0
 40
1.999999999994429
100
AcDbArc
 50
0.0
 51
90.0000000004
  0
ARC
  5
3AA
330
1F
100
AcDbEntity
  8
SLD-0
  6
Continuous
 62
   179
370
    15
100
AcDbCircle
 10
388.0255664026
 20
456.3365290208
 30
0.0
 40
2.0
100
AcDbArc
 50
180.0
 51
270.0
  0
ARC
  5
3AB
330
1F
100
AcDbEntity
  8
SLD-0
  6
Continuous
 62
   179
370
    15
100
AcDbCircle
 10
194.0255664026
 20
479.3365290208
 30
0.0
 40
8.0
100
AcDbArc
 50
0.0
 51
60.0
  0
ARC
  5
3AC
330
1F
100
AcDbEntity
  8
SLD-0
  6
Continuous
 62
   179
370
    15
100
AcDbCircle
 10
194.0255664026
 20
479.3365290208
 30
0.0
 40
7.999999999934642
100
AcDbArc
 50
59.9999999997
 51
120.0000000003
  0
ARC
  5
3AD
330
1F
100
AcDbEntity
  8
SLD-0
  6
Continuous
 62
   179
370
    15
100
AcDbCircle
 10
194.0255664026
 20
479.3365290208
 30
0.0
 40
8.0
100
AcDbArc
 50
120.0
 51
180.0
  0
ARC
  5
3AE
330
1F
100
AcDbEntity
  8
SLD-0
  6
Continuous
 62
   179
370
    15
100
AcDbCircle
 10
194.0255664026
 20
479.3365290208
 30
0.0
 40
8.000000000021185
100
AcDbArc
 50
299.9999999999
 51
0.0
  0
ARC
  5
3AF
330
1F
100
AcDbEntity
  8
SLD-0
  6
Continuous
 62
   179
370
    15
100
AcDbCircle
 10
194.0255664026
 20
479.3365290208
 30
0.0
 40
8.000000000021185
100
AcDbArc
 50
180.0
 51
240.0000000001
  0
ARC
  5
3B0
330
1F
100
AcDbEntity
  8
SLD-0
  6
Continuous
 62
   179
370
    15
100
AcDbCircle
 10
194.0255664026
 20
479.3365290208
 30
0.0
 40
8.000000000021185
100
AcDbArc
 50
240.0000000001
 51
299.9999999999
  0
CIRCLE
  5
3B1
330
1F
100
AcDbEntity
  8
SLD-0
  6
Continuous
 62
   179
370
    15
100
AcDbCircle
 10
194.0255664026
 20
479.3365290208
 30
0.0
 40
8.999999561011492
  0
ARC
  5
3B2
330
1F
100
AcDbEntity
  8
SLD-0
  6
Continuous
 62
   179
370
    15
100
AcDbCircle
 10
181.0255664026
 20
502.3365290208
 30
0.0
 40
2.000000000000031
100
AcDbArc
 50
89.9999999996
 51
180.0
  0
ARC
  5
3B3
330
1F
100
AcDbEntity
  8
SLD-0
  6
Continuous
 62
   179
370
    15
100
AcDbCircle
 10
260.0255664026
 20
456.3365290208
 30
0.0
 40
2.0
100
AcDbArc
 50
269.9999999999
 51
0.0
  0
ARC
  5
3B4
330
1F
100
AcDbEntity
  8
SLD-0
  6
Continuous
 62
   179
370
    15
100
AcDbCircle
 10
181.0255664026
 20
456.3365290208
 30
0.0
 40
2.0
100
AcDbArc
 50
180.0
 51
270.0
  0
ARC
  5
3B5
330
1F
100
AcDbEntity
  8
SLD-0
  6
Continuous
 62
   179
370
    15
100
AcDbCircle
 10
260.0255664026
 20
502.3365290208
 30
0.0
 40
2.0
100
AcDbArc
 50
0.0
 51
90.0
  0
ARC
  5
3B6
330
1F
100
AcDbEntity
  8
SLD-0
  6
Continuous
 62
   179
370
    15
100
AcDbCircle
 10
593.0289741292
 20
139.9859582462
 30
0.0
 40
0.4000000000000057
100
AcDbArc
 50
180.0
 51
270.0
  0
ARC
  5
3B7
330
1F
100
AcDbEntity
  8
SLD-0
  6
Continuous
 62
   179
370
    15
100
AcDbCircle
 10
593.0289741292
 20
153.1859582462
 30
0.0
 40
0.4000000000000057
100
AcDbArc
 50
90.0
 51
180.0
  0
ARC
  5
3B8
330
1F
100
AcDbEntity
  8
SLD-0
  6
Continuous
 62
   179
370
    15
100
AcDbCircle
 10
593.0289741292
 20
215.9859582462
 30
0.0
 40
0.4000000000000057
100
AcDbArc
 50
180.0
 51
270.0
  0
ARC
  5
3B9
330
1F
100
AcDbEntity
  8
SLD-0
  6
Continuous
 62
   179
370
    15
100
AcDbCircle
 10
593.0289741292
 20
229.1859582462
 30
0.0
 40
0.4000000000000341
100
AcDbArc
 50
90.0
 51
180.0
  0
ARC
  5
3BA
330
1F
100
AcDbEntity
  8
SLD-0
  6
Continuous
 62
   179
370
    15
100
AcDbCircle
 10
589.2289741292
 20
158.5859582462
 30
0.0
 40
0.9999999999943682
100
AcDbArc
 50
90.0000125757
 51
180.0
  0
ARC
  5
3BB
330
1F
100
AcDbEntity
  8
SLD-0
  6
Continuous
 62
   179
370
    15
100
AcDbCircle
 10
571.2289741292
 20
158.5859582462
 30
0.0
 40
0.9999999999943682
100
AcDbArc
 50
0.0
 51
89.9999874243
  0
ARC
  5
3BC
330
1F
100
AcDbEntity
  8
SLD-0
  6
Continuous
 62
   179
370
    15
100
AcDbCircle
 10
571.2289741292
 20
210.5859582462
 30
0.0
 40
0.9999999999849322
100
AcDbArc
 50
270.0000125761
 51
0.0
  0
ARC
  5
3BD
330
1F
100
AcDbEntity
  8
SLD-0
  6
Continuous
 62
   179
370
    15
100
AcDbCircle
 10
589.2289741292
 20
210.5859582462
 30
0.0
 40
0.9999999999863576
100
AcDbArc
 50
180.0
 51
269.9999874239
  0
ARC
  5
3BE
330
1F
100
AcDbEntity
  8
SLD-0
  6
Continuous
 62
   179
370
    15
100
AcDbCircle
 10
574.2289741292
 20
150.5859582462
 30
0.0
 40
5.999999999994202
100
AcDbArc
 50
180.0
 51
270.0
  0
ARC
  5
3BF
330
1F
100
AcDbEntity
  8
SLD-0
  6
Continuous
 62
   179
370
    15
100
AcDbCircle
 10
574.2289741292
 20
218.5859582462
 30
0.0
 40
6.0
100
AcDbArc
 50
90.0
 51
180.0
  0
ARC
  5
3C0
330
1F
100
AcDbEntity
  8
SLD-0
  6
Continuous
 62
   179
370
    15
100
AcDbCircle
 10
596.2282715226
 20
200.5852571035
 30
0.0
 40
7.000702209809019
100
AcDbArc
 50
0.0
 51
89.994247346
  0
ARC
  5
3C1
330
1F
100
AcDbEntity
  8
SLD-0
  6
Continuous
 62
   179
370
    15
100
AcDbCircle
 10
596.2289741292
 20
200.5859582462
 30
0.0
 40
9.0
100
AcDbArc
 50
0.0
 51
90.0
  0
ARC
  5
3C2
330
1F
100
AcDbEntity
  8
SLD-0
  6
Continuous
 62
   179
370
    15
100
AcDbCircle
 10
596.2282740403
 20
168.5866588454
 30
0.0
 40
7.000700634205419
100
AcDbArc
 50
270.0057297346
 51
0.0297289398
  0
ARC
  5
3C3
330
1F
100
AcDbEntity
  8
SLD-0
  6
Continuous
 62
   179
370
    15
100
AcDbCircle
 10
596.2289741292
 20
168.5859582462
 30
0.0
 40
9.0
100
AcDbArc
 50
270.0000000051
 51
0.0
  0
ARC
  5
3C4
330
1F
100
AcDbEntity
  8
SLD-0
  6
Continuous
 62
   179
370
    15
100
AcDbCircle
 10
564.2296681888
 20
168.5866519071
 30
0.0
 40
7.000693598505076
100
AcDbArc
 50
179.9718376383
 51
269.9943196077
  0
ARC
  5
3C5
330
1F
100
AcDbEntity
  8
SLD-0
  6
Continuous
 62
   179
370
    15
100
AcDbCircle
 10
564.2289741292
 20
168.5859582462
 30
0.0
 40
9.000000000000114
100
AcDbArc
 50
180.0
 51
270.0
  0
ARC
  5
3C6
330
1F
100
AcDbEntity
  8
SLD-0
  6
Continuous
 62
   179
370
    15
100
AcDbCircle
 10
564.2296739621
 20
200.5852607863
 30
0.0
 40
7.00069852667184
100
AcDbArc
 50
90.0057276411
 51
180.0
  0
ARC
  5
3C7
330
1F
100
AcDbEntity
  8
SLD-0
  6
Continuous
 62
   179
370
    15
100
AcDbCircle
 10
564.2289741292
 20
200.5859582462
 30
0.0
 40
9.000000000000114
100
AcDbArc
 50
90.0000000038
 51
180.0
  0
ARC
  5
3C8
330
1F
100
AcDbEntity
  8
SLD-0
  6
Continuous
 62
   179
370
    15
100
AcDbCircle
 10
615.2289741292
 20
192.4438226225
 30
0.0
 40
10.00000000001501
100
AcDbArc
 50
135.0
 51
180.0
  0
ARC
  5
3C9
330
1F
100
AcDbEntity
  8
SLD-0
  6
Continuous
 62
   179
370
    15
100
AcDbCircle
 10
601.2289741292
 20
212.5859582462
 30
0.0
 40
2.999999999993179
100
AcDbArc
 50
269.9999999999
 51
0.0
  0
ARC
  5
3CA
330
1F
100
AcDbEntity
  8
SLD-0
  6
Continuous
 62
   179
370
    15
100
AcDbCircle
 10
605.2289741292
 20
205.0712396204
 30
0.0
 40
5.999999999968964
100
AcDbArc
 50
315.0
 51
0.0
  0
ARC
  5
3CB
330
1F
100
AcDbEntity
  8
SLD-0
  6
Continuous
 62
   179
370
    15
100
AcDbCircle
 10
601.2289741292
 20
156.5859582462
 30
0.0
 40
3.0
100
AcDbArc
 50
0.0
 51
90.0000000001
  0
ARC
  5
3CC
330
1F
100
AcDbEntity
  8
SLD-0
  6
Continuous
 62
   179
370
    15
100
AcDbCircle
 10
605.2289741292
 20
164.100676872
 30
0.0
 40
5.999999999972716
100
AcDbArc
 50
0.0
 51
45.0
  0
ARC
  5
3CD
330
1F
100
AcDbEntity
  8
SLD-0
  6
Continuous
 62
   179
370
    15
100
AcDbCircle
 10
615.2289741292
 20
176.7280938699
 30
0.0
 40
10.00000000001501
100
AcDbArc
 50
180.0
 51
224.9999999998
  0
ARC
  5
3CE
330
1F
100
AcDbEntity
  8
ﾚｲﾔｰ0
  6
Continuous
 62
   179
370
    15
100
AcDbCircle
 10
185.0255665598
 20
210.585960635
 30
0.0
 40
0.9999999999849365
100
AcDbArc
 50
270.0000122298
 51
360.0
  0
ARC
  5
3CF
330
1F
100
AcDbEntity
  8
ﾚｲﾔｰ0
  6
Continuous
 62
   179
370
    15
100
AcDbCircle
 10
203.0255665598
 20
210.5859605262
 30
0.0
 40
0.9999999999849365
100
AcDbArc
 50
180.0
 51
269.9999870776
  0
ARC
  5
3D0
330
1F
100
AcDbEntity
  8
ﾚｲﾔｰ0
  6
Continuous
 62
   179
370
    15
100
AcDbCircle
 10
203.0255662273
 20
158.5859606229
 30
0.0
 40
0.9999999999943668
100
AcDbArc
 50
90.0000122294
 51
180.0
  0
ARC
  5
3D1
330
1F
100
AcDbEntity
  8
ﾚｲﾔｰ0
  6
Continuous
 62
   179
370
    15
100
AcDbCircle
 10
185.0255662273
 20
158.585960635
 30
0.0
 40
0.9999999999943979
100
AcDbArc
 50
360.0
 51
89.999987078
  0
DIMENSION
  5
3D2
330
1F
100
AcDbEntity
  8
ﾚｲﾔｰ0
100
AcDbDimension
  2
*D8
 10
179.0255664026
 20
429.7340691881
 30
0.0
 11
324.0255664026
 21
429.7340691881
 31
0.0
 70
   160
  1
(<>)
 71
     1
 42
290.0
  3
SLDDIMSTYLE0
100
AcDbAlignedDimension
 13
469.0255664026
 23
200.5859582462
 33
0.0
 14
179.0255664026
 24
200.5859582465
 34
0.0
100
AcDbRotatedDimension
1001
ACAD
1000
DSTYLE
1002
{
1070
    77
1070
     3
1070
   143
1040
0.0393700787
1070
    41
1040
3.0
1070
    44
1040
1.0
1070
    42
1040
1.0
1070
   147
1040
1.524
1070
    73
1070
     0
1070
    74
1070
     0
1070
   140
1040
9.1722222222
1070
   284
1070
    12
1070
    78
1070
    12
1002
}
  0
DIMENSION
  5
3ED
330
1F
100
AcDbEntity
  8
ﾚｲﾔｰ0
100
AcDbDimension
  2
*D10
 10
179.0255664026
 20
409.5813700904
 30
0.0
 11
156.147393843
 21
409.5813700904
 31
0.0
 70
   160
  1
(<>)
 71
     1
 42
15.0
  3
SLDDIMSTYLE1
100
AcDbAlignedDimension
 13
194.0255664026
 23
346.5859582462
 33
0.0
 14
179.0255664026
 24
200.5859582465
 34
0.0
100
AcDbRotatedDimension
1001
ACAD
1000
DSTYLE
1002
{
1070
    77
1070
     3
1070
   143
1040
0.0393700787
1070
    41
1040
3.0
1070
    44
1040
1.0
1070
    42
1040
1.0
1070
   147
1040
1.524
1070
    73
1070
     0
1070
    74
1070
     0
1070
   140
1040
9.1722222222
1070
   284
1070
    12
1070
    78
1070
    12
1002
}
  0
DIMENSION
  5
407
330
1F
100
AcDbEntity
  8
ﾚｲﾔｰ0
100
AcDbDimension
  2
*D11
 10
469.0255664026
 20
409.5813700904
 30
0.0
 11
490.6459999576
 21
409.5813700904
 31
0.0
 70
   160
  1
(<>)
 71
     1
 42
15.0
  3
SLDDIMSTYLE1
100
AcDbAlignedDimension
 13
454.0255664026
 23
346.5859582462
 33
0.0
 14
469.0255664026
 24
200.5859582462
 34
0.0
100
AcDbRotatedDimension
1001
ACAD
1000
DSTYLE
1002
{
1070
    77
1070
     3
1070
   143
1040
0.0393700787
1070
    41
1040
3.0
1070
    44
1040
1.0
1070
    42
1040
1.0
1070
   147
1040
1.524
1070
    73
1070
     0
1070
    74
1070
     0
1070
   140
1040
9.1722222222
1070
   284
1070
    12
1070
    78
1070
    12
1002
}
  0
DIMENSION
  5
420
330
1F
100
AcDbEntity
  8
ﾚｲﾔｰ0
100
AcDbDimension
  2
*D12
 10
194.0255664026
 20
409.5813700904
 30
0.0
 11
324.0255664026
 21
409.5813700904
 31
0.0
 70
   160
 71
     1
 42
260.0
  3
SLDDIMSTYLE0
100
AcDbAlignedDimension
 13
454.0255664026
 23
346.5859582462
 33
0.0
 14
194.0255664026
 24
346.5859582462
 34
0.0
100
AcDbRotatedDimension
1001
ACAD
1000
DSTYLE
1002
{
1070
    77
1070
     3
1070
   143
1040
0.0393700787
1070
    41
1040
3.0
1070
    44
1040
1.0
1070
    42
1040
1.0
1070
   147
1040
1.524
1070
    73
1070
     0
1070
    74
1070
     0
1070
   140
1040
9.1722222222
1070
   284
1070
    12
1070
    78
1070
    12
1002
}
  0
DIMENSION
  5
433
330
1F
100
AcDbEntity
  8
ﾚｲﾔｰ0
100
AcDbDimension
  2
*D13
 10
274.0255664026
 20
385.9395543056
 30
0.0
 11
324.0255664026
 21
385.9395543056
 31
0.0
 70
   160
 71
     1
 42
100.0
  3
SLDDIMSTYLE0
100
AcDbAlignedDimension
 13
374.0255664026
 23
353.8859582462
 33
0.0
 14
274.0255664026
 24
353.8859582462
 34
0.0
100
AcDbRotatedDimension
1001
ACAD
1000
DSTYLE
1002
{
1070
    77
1070
     3
1070
   143
1040
0.0393700787
1070
    41
1040
3.0
1070
    44
1040
1.0
1070
    42
1040
1.0
1070
   147
1040
1.524
1070
    73
1070
     0
1070
    74
1070
     0
1070
   140
1040
9.1722222222
1070
   284
1070
    12
1070
    78
1070
    12
1002
}
  0
DIMENSION
  5
446
330
1F
100
AcDbEntity
  8
ﾚｲﾔｰ0
100
AcDbDimension
  2
*D14
 10
274.0255664026
 20
385.9395543056
 30
0.0
 11
234.0255664026
 21
385.9395543056
 31
0.0
 70
   160
 71
     1
 42
80.0
  3
SLDDIMSTYLE0
100
AcDbAlignedDimension
 13
194.0255664026
 23
346.5859582462
 33
0.0
 14
274.0255664026
 24
353.8859582462
 34
0.0
100
AcDbRotatedDimension
1001
ACAD
1000
DSTYLE
1002
{
1070
    77
1070
     3
1070
   143
1040
0.0393700787
1070
    41
1040
3.0
1070
    44
1040
1.0
1070
    42
1040
1.0
1070
   147
1040
1.524
1070
    73
1070
     0
1070
    74
1070
     0
1070
   140
1040
9.1722222222
1070
   284
1070
    12
1070
    78
1070
    12
1002
}
  0
DIMENSION
  5
459
330
1F
100
AcDbEntity
  8
ﾚｲﾔｰ0
100
AcDbDimension
  2
*D15
 10
374.0255664026
 20
385.9395543056
 30
0.0
 11
414.0255664026
 21
385.9395543056
 31
0.0
 70
   160
 71
     1
 42
80.0
  3
SLDDIMSTYLE0
100
AcDbAlignedDimension
 13
454.0255664026
 23
346.5859582462
 33
0.0
 14
374.0255664026
 24
353.8859582462
 34
0.0
100
AcDbRotatedDimension
1001
ACAD
1000
DSTYLE
1002
{
1070
    77
1070
     3
1070
   143
1040
0.0393700787
1070
    41
1040
3.0
1070
    44
1040
1.0
1070
    42
1040
1.0
1070
   147
1040
1.524
1070
    73
1070
     0
1070
    74
1070
     0
1070
   140
1040
9.1722222222
1070
   284
1070
    12
1070
    78
1070
    12
1002
}
  0
DIMENSION
  5
46C
330
1F
100
AcDbEntity
  8
ﾚｲﾔｰ0
100
AcDbDimension
  2
*D16
 10
146.4782106235
 20
342.5859582462
 30
0.0
 11
146.4782106235
 21
352.5859582462
 31
0.0
 70
   160
 71
     1
 42
20.0
  3
SLDDIMSTYLE0
100
AcDbAlignedDimension
 13
210.0255664026
 23
362.5859582462
 33
0.0
 14
262.7255664026
 24
342.5859582462
 34
0.0
 50
90.0
100
AcDbRotatedDimension
1001
ACAD
1000
DSTYLE
1002
{
1070
    77
1070
     3
1070
   143
1040
0.0393700787
1070
    41
1040
3.0
1070
    44
1040
1.0
1070
    42
1040
1.0
1070
   147
1040
1.524
1070
    73
1070
     0
1070
    74
1070
     0
1070
   140
1040
9.1722222222
1070
   284
1070
    12
1070
    78
1070
    12
1002
}
  0
DIMENSION
  5
482
330
1F
100
AcDbEntity
  8
ﾚｲﾔｰ0
100
AcDbDimension
  2
*D17
 10
146.4782106235
 20
342.5859582462
 30
0.0
 11
146.4782106235
 21
322.5859582462
 31
0.0
 70
   160
 71
     1
 42
40.0
  3
SLDDIMSTYLE0
100
AcDbAlignedDimension
 13
262.7255664026
 23
302.5859582462
 33
0.0
 14
262.7255664026
 24
342.5859582462
 34
0.0
 50
90.0
100
AcDbRotatedDimension
1001
ACAD
1000
DSTYLE
1002
{
1070
    77
1070
     3
1070
   143
1040
0.0393700787
1070
    41
1040
3.0
1070
    44
1040
1.0
1070
    42
1040
1.0
1070
   147
1040
1.524
1070
    73
1070
     0
1070
    74
1070
     0
1070
   140
1040
9.1722222222
1070
   284
1070
    12
1070
    78
1070
    12
1002
}
  0
DIMENSION
  5
496
330
1F
100
AcDbEntity
  8
ﾚｲﾔｰ0
100
AcDbDimension
  2
*D18
 10
146.4782106235
 20
302.5859582462
 30
0.0
 11
146.4782106235
 21
217.5859582462
 31
0.0
 70
   160
 71
     1
 42
170.0
  3
SLDDIMSTYLE0
100
AcDbAlignedDimension
 13
210.0255664026
 23
132.5859582462
 33
0.0
 14
262.7255664026
 24
302.5859582462
 34
0.0
 50
90.0
100
AcDbRotatedDimension
1001
ACAD
1000
DSTYLE
1002
{
1070
    77
1070
     3
1070
   143
1040
0.0393700787
1070
    41
1040
3.0
1070
    44
1040
1.0
1070
    42
1040
1.0
1070
   147
1040
1.524
1070
    73
1070
     0
1070
    74
1070
     0
1070
   140
1040
9.1722222222
1070
   284
1070
    12
1070
    78
1070
    12
1002
}
  0
DIMENSION
  5
4AA
330
1F
100
AcDbEntity
  8
ﾚｲﾔｰ0
100
AcDbDimension
  2
*D19
 10
117.8185689378
 20
260.5859582462
 30
0.0
 11
117.8185689378
 21
311.5859582462
 31
0.0
 70
   160
 71
     1
 42
102.0
  3
SLDDIMSTYLE0
100
AcDbAlignedDimension
 13
210.0255664026
 23
362.5859582462
 33
0.0
 14
223.8255664026
 24
260.5859582462
 34
0.0
 50
90.0
100
AcDbRotatedDimension
1001
ACAD
1000
DSTYLE
1002
{
1070
    77
1070
     3
1070
   143
1040
0.0393700787
1070
    41
1040
3.0
1070
    44
1040
1.0
1070
    42
1040
1.0
1070
   147
1040
1.524
1070
    73
1070
     0
1070
    74
1070
     0
1070
   140
1040
9.1722222222
1070
   284
1070
    12
1070
    78
1070
    12
1002
}
  0
DIMENSION
  5
4BE
330
1F
100
AcDbEntity
  8
ﾚｲﾔｰ0
100
AcDbDimension
  2
*D20
 10
117.8185689378
 20
260.5859582462
 30
0.0
 11
117.8185689378
 21
196.5859582462
 31
0.0
 70
   160
 71
     1
 42
128.0
  3
SLDDIMSTYLE0
100
AcDbAlignedDimension
 13
210.0255664026
 23
132.5859582462
 33
0.0
 14
223.8255664026
 24
260.5859582462
 34
0.0
 50
90.0
100
AcDbRotatedDimension
1001
ACAD
1000
DSTYLE
1002
{
1070
    77
1070
     3
1070
   143
1040
0.0393700787
1070
    41
1040
3.0
1070
    44
1040
1.0
1070
    42
1040
1.0
1070
   147
1040
1.524
1070
    73
1070
     0
1070
    74
1070
     0
1070
   140
1040
9.1722222222
1070
   284
1070
    12
1070
    78
1070
    12
1002
}
  0
DIMENSION
  5
4D2
330
1F
100
AcDbEntity
  8
ﾚｲﾔｰ0
100
AcDbDimension
  2
*D21
 10
90.1195139676
 20
362.5859582462
 30
0.0
 11
90.1195139676
 21
247.5859582462
 31
0.0
 70
   160
 71
     1
 42
230.0
  3
SLDDIMSTYLE0
100
AcDbAlignedDimension
 13
210.0255664026
 23
132.5859582462
 33
0.0
 14
210.0255664026
 24
362.5859582462
 34
0.0
 50
90.0
100
AcDbRotatedDimension
1001
ACAD
1000
DSTYLE
1002
{
1070
    77
1070
     3
1070
   143
1040
0.0393700787
1070
    41
1040
3.0
1070
    44
1040
1.0
1070
    42
1040
1.0
1070
   147
1040
1.524
1070
    73
1070
     0
1070
    74
1070
     0
1070
   140
1040
9.1722222222
1070
   284
1070
    12
1070
    78
1070
    12
1002
}
  0
DIMENSION
  5
4E6
330
1F
100
AcDbEntity
  8
ﾚｲﾔｰ0
100
AcDbDimension
  2
*D22
 10
6.9489969408
 20
7.7376632583
 30
0.0
 11
24.2448200734
 21
26.9964507231
 31
0.0
 70
   163
  1
2-<>
 71
     1
 42
10.3999995761
  3
SLDDIMSTYLE2
100
AcDbDiametricDimension
 15
0.0
 25
0.0
 35
0.0
 40
0.0
1001
ACAD
1000
DSTYLE
1002
{
1070
    77
1070
     3
1070
   143
1040
0.0393700787
1070
    41
1040
3.0
1070
    44
1040
1.0
1070
    42
1040
1.0
1070
   147
1040
1.524
1070
    73
1070
     0
1070
    74
1070
     0
1070
   140
1040
9.1722222222
1070
   284
1070
    12
1070
    78
1070
    12
1002
}
  0
DIMENSION
  5
4F7
330
1F
100
AcDbEntity
  8
ﾚｲﾔｰ0
100
AcDbDimension
  2
*D23
 10
234.0255664026
 20
282.291511308
 30
0.0
 11
214.0255664026
 21
282.291511308
 31
0.0
 70
   160
 71
     1
 42
40.0
  3
SLDDIMSTYLE0
100
AcDbAlignedDimension
 13
194.0255664026
 23
346.5859582462
 33
0.0
 14
234.0255664026
 24
270.7859582462
 34
0.0
100
AcDbRotatedDimension
1001
ACAD
1000
DSTYLE
1002
{
1070
    77
1070
     3
1070
   143
1040
0.0393700787
1070
    41
1040
3.0
1070
    44
1040
1.0
1070
    42
1040
1.0
1070
   147
1040
1.524
1070
    73
1070
     0
1070
    74
1070
     0
1070
   140
1040
9.1722222222
1070
   284
1070
    12
1070
    78
1070
    12
1002
}
  0
DIMENSION
  5
509
330
1F
100
AcDbEntity
  8
ﾚｲﾔｰ0
100
AcDbDimension
  2
*D24
 10
234.0255664026
 20
282.291511308
 30
0.0
 11
324.0255664026
 21
282.291511308
 31
0.0
 70
   160
 71
     1
 42
180.0
  3
SLDDIMSTYLE0
100
AcDbAlignedDimension
 13
414.0255664026
 23
270.7859582462
 33
0.0
 14
234.0255664026
 24
270.7859582462
 34
0.0
 50
0.0
100
AcDbRotatedDimension
1001
ACAD
1000
DSTYLE
1002
{
1070
    77
1070
     3
1070
   143
1040
0.0393700787
1070
    41
1040
3.0
1070
    44
1040
1.0
1070
    42
1040
1.0
1070
   147
1040
1.524
1070
    73
1070
     0
1070
    74
1070
     0
1070
   140
1040
9.1722222222
1070
   284
1070
    12
1070
    78
1070
    12
1002
}
  0
DIMENSION
  5
51C
330
1F
100
AcDbEntity
  8
ﾚｲﾔｰ0
100
AcDbDimension
  2
*D25
 10
414.0255664026
 20
282.291511308
 30
0.0
 11
434.0255664026
 21
282.291511308
 31
0.0
 70
   160
 71
     1
 42
40.0
  3
SLDDIMSTYLE0
100
AcDbAlignedDimension
 13
454.0255664026
 23
346.5859582462
 33
0.0
 14
414.0255664026
 24
270.7859582462
 34
0.0
100
AcDbRotatedDimension
1001
ACAD
1000
DSTYLE
1002
{
1070
    77
1070
     3
1070
   143
1040
0.0393700787
1070
    41
1040
3.0
1070
    44
1040
1.0
1070
    42
1040
1.0
1070
   147
1040
1.524
1070
    73
1070
     0
1070
    74
1070
     0
1070
   140
1040
9.1722222222
1070
   284
1070
    12
1070
    78
1070
    12
1002
}
  0
DIMENSION
  5
52E
330
1F
100
AcDbEntity
  8
ﾚｲﾔｰ0
100
AcDbDimension
  2
*D26
 10
179.0255664026
 20
100.3968574635
 30
0.0
 11
220.5255664026
 21
100.3968574635
 31
0.0
 70
   160
 71
     1
 42
83.0
  3
SLDDIMSTYLE1
100
AcDbAlignedDimension
 13
262.0255664026
 23
161.5859582462
 33
0.0
 14
179.0255664026
 24
168.5859582462
 34
0.0
100
AcDbRotatedDimension
1001
ACAD
1000
DSTYLE
1002
{
1070
    77
1070
     3
1070
   143
1040
0.0393700787
1070
    41
1040
3.0
1070
    44
1040
1.0
1070
    42
1040
1.0
1070
   147
1040
1.524
1070
    73
1070
     0
1070
    74
1070
     0
1070
   140
1040
9.1722222222
1070
   284
1070
    12
1070
    78
1070
    12
1002
}
  0
DIMENSION
  5
541
330
1F
100
AcDbEntity
  8
ﾚｲﾔｰ0
100
AcDbDimension
  2
*D27
 10
262.0255664026
 20
100.3968574635
 30
0.0
 11
264.5255664026
 21
100.3968574635
 31
0.0
 70
   160
  1
(2.<>)
 71
     1
 42
5.0
  3
SLDDIMSTYLE0
100
AcDbAlignedDimension
 13
267.0255664026
 23
150.5859582462
 33
0.0
 14
262.0255664026
 24
161.5859582462
 34
0.0
100
AcDbRotatedDimension
1001
ACAD
1000
DSTYLE
1002
{
1070
    77
1070
     3
1070
   143
1040
0.0393700787
1070
    41
1040
3.0
1070
    44
1040
1.0
1070
    42
1040
1.0
1070
   147
1040
1.524
1070
    73
1070
     0
1070
    74
1070
     0
1070
   140
1040
9.1722222222
1070
   284
1070
    12
1070
    78
1070
    12
1002
}
  0
DIMENSION
  5
55B
330
1F
100
AcDbEntity
  8
ﾚｲﾔｰ0
100
AcDbDimension
  2
*D28
 10
295.0255664026
 20
100.3968574635
 30
0.0
 11
281.0255664026
 21
100.3968574635
 31
0.0
 70
   160
 71
     1
 42
28.0
  3
SLDDIMSTYLE0
100
AcDbAlignedDimension
 13
267.0255664026
 23
150.5859582462
 33
0.0
 14
295.0255664026
 24
144.5859582462
 34
0.0
100
AcDbRotatedDimension
1001
ACAD
1000
DSTYLE
1002
{
1070
    77
1070
     3
1070
   143
1040
0.0393700787
1070
    41
1040
3.0
1070
    44
1040
1.0
1070
    42
1040
1.0
1070
   147
1040
1.524
1070
    73
1070
     0
1070
    74
1070
     0
1070
   140
1040
9.1722222222
1070
   284
1070
    12
1070
    78
1070
    12
1002
}
  0
DIMENSION
  5
56E
330
1F
100
AcDbEntity
  8
ﾚｲﾔｰ0
100
AcDbDimension
  2
*D29
 10
322.2770143593
 20
224.5859582462
 30
0.0
 11
322.2770143593
 21
238.5859582462
 31
0.0
 70
   160
  1
(<>)
 71
     1
 42
28.0
  3
SLDDIMSTYLE0
100
AcDbAlignedDimension
 13
310.0255664026
 23
252.5859582462
 33
0.0
 14
295.0255664026
 24
224.5859582462
 34
0.0
 50
90.0
100
AcDbRotatedDimension
1001
ACAD
1000
DSTYLE
1002
{
1070
    77
1070
     3
1070
   143
1040
0.0393700787
1070
    41
1040
3.0
1070
    44
1040
1.0
1070
    42
1040
1.0
1070
   147
1040
1.524
1070
    73
1070
     0
1070
    74
1070
     0
1070
   140
1040
9.1722222222
1070
   284
1070
    12
1070
    78
1070
    12
1002
}
  0
DIMENSION
  5
583
330
1F
100
AcDbEntity
  8
ﾚｲﾔｰ0
100
AcDbDimension
  2
*D30
 10
322.2770143593
 20
224.5859582462
 30
0.0
 11
322.2770143593
 21
184.5859582462
 31
0.0
 70
   160
 71
     1
 42
80.0
  3
SLDDIMSTYLE0
100
AcDbAlignedDimension
 13
295.0255664026
 23
144.5859582462
 33
0.0
 14
295.0255664026
 24
224.5859582462
 34
0.0
 50
90.0
100
AcDbRotatedDimension
1001
ACAD
1000
DSTYLE
1002
{
1070
    77
1070
     3
1070
   143
1040
0.0393700787
1070
    41
1040
3.0
1070
    44
1040
1.0
1070
    42
1040
1.0
1070
   147
1040
1.524
1070
    73
1070
     0
1070
    74
1070
     0
1070
   140
1040
9.1722222222
1070
   284
1070
    12
1070
    78
1070
    12
1002
}
  0
DIMENSION
  5
597
330
1F
100
AcDbEntity
  8
ﾚｲﾔｰ0
100
AcDbDimension
  2
*D31
 10
322.2770143593
 20
144.5859582462
 30
0.0
 11
322.2770143593
 21
116.6250021213
 31
0.0
 70
   160
  1
(<>)
 71
     1
 42
12.0
  3
SLDDIMSTYLE0
100
AcDbAlignedDimension
 13
278.0255664026
 23
132.5859582462
 33
0.0
 14
295.0255664026
 24
144.5859582462
 34
0.0
 50
90.0
100
AcDbRotatedDimension
1001
ACAD
1000
DSTYLE
1002
{
1070
    77
1070
     3
1070
   143
1040
0.0393700787
1070
    41
1040
3.0
1070
    44
1040
1.0
1070
    42
1040
1.0
1070
   147
1040
1.524
1070
    73
1070
     0
1070
    74
1070
     0
1070
   140
1040
9.1722222222
1070
   284
1070
    12
1070
    78
1070
    12
1002
}
  0
DIMENSION
  5
5AF
330
1F
100
AcDbEntity
  8
ﾚｲﾔｰ0
100
AcDbDimension
  2
*D32
 10
194.0255664026
 20
63.4137447719
 30
0.0
 11
244.0255664026
 21
63.4137447719
 31
0.0
 70
   160
 71
     1
 42
100.0
  3
SLDDIMSTYLE0
100
AcDbAlignedDimension
 13
294.0255664026
 23
148.5859582462
 33
0.0
 14
194.0255664026
 24
148.5859582462
 34
0.0
100
AcDbRotatedDimension
1001
ACAD
1000
DSTYLE
1002
{
1070
    77
1070
     3
1070
   143
1040
0.0393700787
1070
    41
1040
3.0
1070
    44
1040
1.0
1070
    42
1040
1.0
1070
   147
1040
1.524
1070
    73
1070
     0
1070
    74
1070
     0
1070
   140
1040
9.1722222222
1070
   284
1070
    12
1070
    78
1070
    12
1002
}
  0
DIMENSION
  5
5C2
330
1F
100
AcDbEntity
  8
ﾚｲﾔｰ0
100
AcDbDimension
  2
*D33
 10
294.0255664026
 20
63.4137447719
 30
0.0
 11
324.0255664026
 21
63.4137447719
 31
0.0
 70
   160
 71
     1
 42
60.0
  3
SLDDIMSTYLE0
100
AcDbAlignedDimension
 13
354.0255664026
 23
148.5859582462
 33
0.0
 14
294.0255664026
 24
148.5859582462
 34
0.0
100
AcDbRotatedDimension
1001
ACAD
1000
DSTYLE
1002
{
1070
    77
1070
     3
1070
   143
1040
0.0393700787
1070
    41
1040
3.0
1070
    44
1040
1.0
1070
    42
1040
1.0
1070
   147
1040
1.524
1070
    73
1070
     0
1070
    74
1070
     0
1070
   140
1040
9.1722222222
1070
   284
1070
    12
1070
    78
1070
    12
1002
}
  0
DIMENSION
  5
5D5
330
1F
100
AcDbEntity
  8
ﾚｲﾔｰ0
100
AcDbDimension
  2
*D34
 10
354.0255664026
 20
63.4137447719
 30
0.0
 11
404.0255664026
 21
63.4137447719
 31
0.0
 70
   160
 71
     1
 42
100.0
  3
SLDDIMSTYLE0
100
AcDbAlignedDimension
 13
454.0255664026
 23
148.5859582462
 33
0.0
 14
354.0255664026
 24
148.5859582462
 34
0.0
100
AcDbRotatedDimension
1001
ACAD
1000
DSTYLE
1002
{
1070
    77
1070
     3
1070
   143
1040
0.0393700787
1070
    41
1040
3.0
1070
    44
1040
1.0
1070
    42
1040
1.0
1070
   147
1040
1.524
1070
    73
1070
     0
1070
    74
1070
     0
1070
   140
1040
9.1722222222
1070
   284
1070
    12
1070
    78
1070
    12
1002
}
  0
DIMENSION
  5
5E8
330
1F
100
AcDbEntity
  8
ﾚｲﾔｰ0
100
AcDbDimension
  2
*D35
 10
495.2238338521
 20
132.5859582462
 30
0.0
 11
495.2238338521
 21
192.5859582462
 31
0.0
 70
   160
 71
     1
 42
120.0
  3
SLDDIMSTYLE0
100
AcDbAlignedDimension
 13
338.0255664026
 23
252.5859582462
 33
0.0
 14
438.0255664026
 24
132.5859582462
 34
0.0
 50
90.0
100
AcDbRotatedDimension
1001
ACAD
1000
DSTYLE
1002
{
1070
    77
1070
     3
1070
   143
1040
0.0393700787
1070
    41
1040
3.0
1070
    44
1040
1.0
1070
    42
1040
1.0
1070
   147
1040
1.524
1070
    73
1070
     0
1070
    74
1070
     0
1070
   140
1040
9.1722222222
1070
   284
1070
    12
1070
    78
1070
    12
1002
}
  0
DIMENSION
  5
5FC
330
1F
100
AcDbEntity
  8
ﾚｲﾔｰ0
100
AcDbDimension
  2
*D36
 10
495.2238338521
 20
252.5859582462
 30
0.0
 11
495.2238338521
 21
307.5859582462
 31
0.0
 70
   160
 71
     1
 42
110.0
  3
SLDDIMSTYLE0
100
AcDbAlignedDimension
 13
438.0255664026
 23
362.5859582462
 33
0.0
 14
338.0255664026
 24
252.5859582462
 34
0.0
 50
90.0
100
AcDbRotatedDimension
1001
ACAD
1000
DSTYLE
1002
{
1070
    77
1070
     3
1070
   143
1040
0.0393700787
1070
    41
1040
3.0
1070
    44
1040
1.0
1070
    42
1040
1.0
1070
   147
1040
1.524
1070
    73
1070
     0
1070
    74
1070
     0
1070
   140
1040
9.1722222222
1070
   284
1070
    12
1070
    78
1070
    12
1002
}
  0
DIMENSION
  5
610
330
1F
100
AcDbEntity
  8
ﾚｲﾔｰ0
100
AcDbDimension
  2
*D37
 10
9.2914922978
 20
8.510473824
 30
0.0
 11
270.2367973863
 21
247.521400947
 31
0.0
 70
   163
  1
4-<>
 71
     1
 42
12.5999997551
  3
SLDDIMSTYLE2
100
AcDbDiametricDimension
 15
0.0
 25
0.0
 35
0.0
 40
0.0
1001
ACAD
1000
DSTYLE
1002
{
1070
    77
1070
     3
1070
   143
1040
0.0393700787
1070
    41
1040
3.0
1070
    44
1040
1.0
1070
    42
1040
1.0
1070
   147
1040
1.524
1070
    73
1070
     0
1070
    74
1070
     0
1070
   140
1040
9.1722222222
1070
   284
1070
    12
1070
    78
1070
    12
1002
}
  0
DIMENSION
  5
622
330
1F
100
AcDbEntity
  8
ﾚｲﾔｰ0
100
AcDbDimension
  2
*D38
 10
179.0255664026
 20
564.5568472046
 30
0.0
 11
324.0255664026
 21
564.5568472046
 31
0.0
 70
   160
  1
(<>)
 71
     1
 42
290.0
  3
SLDDIMSTYLE0
100
AcDbAlignedDimension
 13
469.0255664026
 23
495.3365290208
 33
0.0
 14
179.0255664026
 24
495.3365290211
 34
0.0
100
AcDbRotatedDimension
1001
ACAD
1000
DSTYLE
1002
{
1070
    77
1070
     3
1070
   143
1040
0.0393700787
1070
    41
1040
3.0
1070
    44
1040
1.0
1070
    42
1040
1.0
1070
   147
1040
1.524
1070
    73
1070
     0
1070
    74
1070
     0
1070
   140
1040
9.1722222222
1070
   284
1070
    12
1070
    78
1070
    12
1002
}
  0
DIMENSION
  5
637
330
1F
100
AcDbEntity
  8
ﾚｲﾔｰ0
100
AcDbDimension
  2
*D39
 10
179.0255664026
 20
539.4430085478
 30
0.0
 11
156.0836881733
 21
539.4430085478
 31
0.0
 70
   160
  1
(<>)
 71
     1
 42
15.0
  3
SLDDIMSTYLE1
100
AcDbAlignedDimension
 13
194.0255664026
 23
516.3365290208
 33
0.0
 14
179.0255664026
 24
495.3365290211
 34
0.0
100
AcDbRotatedDimension
1001
ACAD
1000
DSTYLE
1002
{
1070
    77
1070
     3
1070
   143
1040
0.0393700787
1070
    41
1040
3.0
1070
    44
1040
1.0
1070
    42
1040
1.0
1070
   147
1040
1.524
1070
    73
1070
     0
1070
    74
1070
     0
1070
   140
1040
9.1722222222
1070
   284
1070
    12
1070
    78
1070
    12
1002
}
  0
DIMENSION
  5
650
330
1F
100
AcDbEntity
  8
ﾚｲﾔｰ0
100
AcDbDimension
  2
*D40
 10
194.0255664026
 20
539.4430085479
 30
0.0
 11
209.0255664026
 21
539.4430085479
 31
0.0
 70
   160
 71
     1
 42
30.0
  3
SLDDIMSTYLE0
100
AcDbAlignedDimension
 13
224.0255664026
 23
520.3365290208
 33
0.0
 14
194.0255664026
 24
516.3365290208
 34
0.0
100
AcDbRotatedDimension
1001
ACAD
1000
DSTYLE
1002
{
1070
    77
1070
     3
1070
   143
1040
0.0393700787
1070
    41
1040
3.0
1070
    44
1040
1.0
1070
    42
1040
1.0
1070
   147
1040
1.524
1070
    73
1070
     0
1070
    74
1070
     0
1070
   140
1040
9.1722222222
1070
   284
1070
    12
1070
    78
1070
    12
1002
}
  0
DIMENSION
  5
663
330
1F
100
AcDbEntity
  8
ﾚｲﾔｰ0
100
AcDbDimension
  2
*D41
 10
224.0255664026
 20
539.4430085479
 30
0.0
 11
234.0255664026
 21
539.4430085479
 31
0.0
 70
   160
 71
     1
 42
20.0
  3
SLDDIMSTYLE0
100
AcDbAlignedDimension
 13
244.0255664026
 23
520.3365290208
 33
0.0
 14
224.0255664026
 24
520.3365290208
 34
0.0
100
AcDbRotatedDimension
1001
ACAD
1000
DSTYLE
1002
{
1070
    77
1070
     3
1070
   143
1040
0.0393700787
1070
    41
1040
3.0
1070
    44
1040
1.0
1070
    42
1040
1.0
1070
   147
1040
1.524
1070
    73
1070
     0
1070
    74
1070
     0
1070
   140
1040
9.1722222222
1070
   284
1070
    12
1070
    78
1070
    12
1002
}
  0
DIMENSION
  5
676
330
1F
100
AcDbEntity
  8
ﾚｲﾔｰ0
100
AcDbDimension
  2
*D42
 10
244.0255664026
 20
539.4430085479
 30
0.0
 11
324.0255664026
 21
539.4430085479
 31
0.0
 70
   160
 71
     1
 42
160.0
  3
SLDDIMSTYLE0
100
AcDbAlignedDimension
 13
404.0255664026
 23
520.3365290208
 33
0.0
 14
244.0255664026
 24
520.3365290208
 34
0.0
100
AcDbRotatedDimension
1001
ACAD
1000
DSTYLE
1002
{
1070
    77
1070
     3
1070
   143
1040
0.0393700787
1070
    41
1040
3.0
1070
    44
1040
1.0
1070
    42
1040
1.0
1070
   147
1040
1.524
1070
    73
1070
     0
1070
    74
1070
     0
1070
   140
1040
9.1722222222
1070
   284
1070
    12
1070
    78
1070
    12
1002
}
  0
DIMENSION
  5
689
330
1F
100
AcDbEntity
  8
ﾚｲﾔｰ0
100
AcDbDimension
  2
*D43
 10
404.0255664026
 20
539.4430085479
 30
0.0
 11
414.0255664026
 21
539.4430085479
 31
0.0
 70
   160
 71
     1
 42
20.0
  3
SLDDIMSTYLE0
100
AcDbAlignedDimension
 13
424.0255664026
 23
520.3365290208
 33
0.0
 14
404.0255664026
 24
520.3365290208
 34
0.0
100
AcDbRotatedDimension
1001
ACAD
1000
DSTYLE
1002
{
1070
    77
1070
     3
1070
   143
1040
0.0393700787
1070
    41
1040
3.0
1070
    44
1040
1.0
1070
    42
1040
1.0
1070
   147
1040
1.524
1070
    73
1070
     0
1070
    74
1070
     0
1070
   140
1040
9.1722222222
1070
   284
1070
    12
1070
    78
1070
    12
1002
}
  0
DIMENSION
  5
69C
330
1F
100
AcDbEntity
  8
ﾚｲﾔｰ0
100
AcDbDimension
  2
*D44
 10
424.0255664026
 20
539.4430085479
 30
0.0
 11
439.0255664026
 21
539.4430085479
 31
0.0
 70
   160
 71
     1
 42
30.0
  3
SLDDIMSTYLE0
100
AcDbAlignedDimension
 13
454.0255664026
 23
516.3365290208
 33
0.0
 14
424.0255664026
 24
520.3365290208
 34
0.0
100
AcDbRotatedDimension
1001
ACAD
1000
DSTYLE
1002
{
1070
    77
1070
     3
1070
   143
1040
0.0393700787
1070
    41
1040
3.0
1070
    44
1040
1.0
1070
    42
1040
1.0
1070
   147
1040
1.524
1070
    73
1070
     0
1070
    74
1070
     0
1070
   140
1040
9.1722222222
1070
   284
1070
    12
1070
    78
1070
    12
1002
}
  0
DIMENSION
  5
6AF
330
1F
100
AcDbEntity
  8
ﾚｲﾔｰ0
100
AcDbDimension
  2
*D45
 10
454.0255664026
 20
539.4430085479
 30
0.0
 11
485.1314600414
 21
539.4430085479
 31
0.0
 70
   160
  1
(<>)
 71
     1
 42
15.0
  3
SLDDIMSTYLE1
100
AcDbAlignedDimension
 13
469.0255664026
 23
495.3365290208
 33
0.0
 14
454.0255664026
 24
516.3365290208
 34
0.0
100
AcDbRotatedDimension
1001
ACAD
1000
DSTYLE
1002
{
1070
    77
1070
     3
1070
   143
1040
0.0393700787
1070
    41
1040
3.0
1070
    44
1040
1.0
1070
    42
1040
1.0
1070
   147
1040
1.524
1070
    73
1070
     0
1070
    74
1070
     0
1070
   140
1040
9.1722222222
1070
   284
1070
    12
1070
    78
1070
    12
1002
}
  0
DIMENSION
  5
6C7
330
1F
100
AcDbEntity
  8
ﾚｲﾔｰ0
100
AcDbDimension
  2
*D46
 10
295.0255664026
 20
458.677689534
 30
0.0
 11
324.0255664026
 21
458.677689534
 31
0.0
 70
   160
 71
     1
 42
58.0
  3
SLDDIMSTYLE0
100
AcDbAlignedDimension
 13
353.0255664026
 23
502.9365290208
 33
0.0
 14
295.0255664026
 24
505.362935892
 34
0.0
100
AcDbRotatedDimension
1001
ACAD
1000
DSTYLE
1002
{
1070
    77
1070
     3
1070
   143
1040
0.0393700787
1070
    41
1040
3.0
1070
    44
1040
1.0
1070
    42
1040
1.0
1070
   147
1040
1.524
1070
    73
1070
     0
1070
    74
1070
     0
1070
   140
1040
9.1722222222
1070
   284
1070
    12
1070
    78
1070
    12
1002
}
  0
DIMENSION
  5
6DA
330
1F
100
AcDbEntity
  8
ﾚｲﾔｰ0
100
AcDbDimension
  2
*D47
 10
646.5164632203
 20
184.5859580458
 30
0.0
 11
646.5164631417
 21
158.5859581017
 31
0.0
 70
   160
 71
     1
 42
51.9999998882
  3
SLDDIMSTYLE0
100
AcDbAlignedDimension
 13
617.2289741292
 23
132.5859582462
 33
0.0
 14
598.2289741294
 24
184.5859581918
 34
0.0
 50
89.9999998268
100
AcDbRotatedDimension
1001
ACAD
1000
DSTYLE
1002
{
1070
    77
1070
     3
1070
   143
1040
0.0393700787
1070
    41
1040
3.0
1070
    44
1040
1.0
1070
    42
1040
1.0
1070
   147
1040
1.524
1070
    73
1070
     0
1070
    74
1070
     0
1070
   140
1040
9.1722222222
1070
   284
1070
    12
1070
    78
1070
    12
1002
}
  0
DIMENSION
  5
6EE
330
1F
100
AcDbEntity
  8
ﾚｲﾔｰ0
100
AcDbDimension
  2
*D48
 10
671.3259713964
 20
134.5859582462
 30
0.0
 11
671.3259713964
 21
184.5859582462
 31
0.0
 70
   160
 71
     1
 42
100.0
  3
SLDDIMSTYLE0
100
AcDbAlignedDimension
 13
621.2289741292
 23
234.5859582462
 33
0.0
 14
621.2289741292
 24
134.5859582462
 34
0.0
 50
90.0
100
AcDbRotatedDimension
1001
ACAD
1000
DSTYLE
1002
{
1070
    77
1070
     3
1070
   143
1040
0.0393700787
1070
    41
1040
3.0
1070
    44
1040
1.0
1070
    42
1040
1.0
1070
   147
1040
1.524
1070
    73
1070
     0
1070
    74
1070
     0
1070
   140
1040
9.1722222222
1070
   284
1070
    12
1070
    78
1070
    12
1002
}
  0
DIMENSION
  5
702
330
1F
100
AcDbEntity
  8
ﾚｲﾔｰ0
100
AcDbDimension
  2
*D49
 10
555.2289741292
 20
106.9017057367
 30
0.0
 11
567.7289741292
 21
106.9017057367
 31
0.0
 70
   160
 71
     1
 42
25.0
  3
SLDDIMSTYLE1
100
AcDbAlignedDimension
 13
580.2289741292
 23
166.585958246
 33
0.0
 14
555.2289741292
 24
168.5859582456
 34
0.0
100
AcDbRotatedDimension
1001
ACAD
1000
DSTYLE
1002
{
1070
    77
1070
     3
1070
   143
1040
0.0393700787
1070
    41
1040
3.0
1070
    44
1040
1.0
1070
    42
1040
1.0
1070
   147
1040
1.524
1070
    73
1070
     0
1070
    74
1070
     0
1070
   140
1040
9.1722222222
1070
   284
1070
    12
1070
    78
1070
    12
1002
}
  0
DIMENSION
  5
715
330
1F
100
AcDbEntity
  8
ﾚｲﾔｰ0
100
AcDbDimension
  2
*D50
 10
580.2289741292
 20
106.9017057367
 30
0.0
 11
595.7289741292
 21
106.9017057367
 31
0.0
 70
   160
 71
     1
 42
31.0
  3
SLDDIMSTYLE1
100
AcDbAlignedDimension
 13
611.2289741292
 23
132.5859582462
 33
0.0
 14
580.2289741292
 24
166.585958246
 34
0.0
100
AcDbRotatedDimension
1001
ACAD
1000
DSTYLE
1002
{
1070
    77
1070
     3
1070
   143
1040
0.0393700787
1070
    41
1040
3.0
1070
    44
1040
1.0
1070
    42
1040
1.0
1070
   147
1040
1.524
1070
    73
1070
     0
1070
    74
1070
     0
1070
   140
1040
9.1722222222
1070
   284
1070
    12
1070
    78
1070
    12
1002
}
  0
DIMENSION
  5
728
330
1F
100
AcDbEntity
  8
ﾚｲﾔｰ0
100
AcDbDimension
  2
*D51
 10
555.2289741292
 20
82.4787010635
 30
0.0
 11
583.2289741292
 21
82.4787010635
 31
0.0
 70
   160
 71
     1
 42
56.0
  3
SLDDIMSTYLE0
100
AcDbAlignedDimension
 13
611.2289741292
 23
132.5859582462
 33
0.0
 14
555.2289741292
 24
168.5859582456
 34
0.0
100
AcDbRotatedDimension
1001
ACAD
1000
DSTYLE
1002
{
1070
    77
1070
     3
1070
   143
1040
0.0393700787
1070
    41
1040
3.0
1070
    44
1040
1.0
1070
    42
1040
1.0
1070
   147
1040
1.524
1070
    73
1070
     0
1070
    74
1070
     0
1070
   140
1040
9.1722222222
1070
   284
1070
    12
1070
    78
1070
    12
1002
}
  0
DIMENSION
  5
73B
330
1F
100
AcDbEntity
  8
ﾚｲﾔｰ0
100
AcDbDimension
  2
*D52
 10
555.2289741292
 20
56.7742460783
 30
0.0
 11
588.2289741292
 21
56.7742460783
 31
0.0
 70
   160
 71
     1
 42
66.0
  3
SLDDIMSTYLE0
100
AcDbAlignedDimension
 13
621.2289741292
 23
134.5859582462
 33
0.0
 14
555.2289741292
 24
168.5859582456
 34
0.0
100
AcDbRotatedDimension
1001
ACAD
1000
DSTYLE
1002
{
1070
    77
1070
     3
1070
   143
1040
0.0393700787
1070
    41
1040
3.0
1070
    44
1040
1.0
1070
    42
1040
1.0
1070
   147
1040
1.524
1070
    73
1070
     0
1070
    74
1070
     0
1070
   140
1040
9.1722222222
1070
   284
1070
    12
1070
    78
1070
    12
1002
}
  0
DIMENSION
  5
74E
330
1F
100
AcDbEntity
  8
ﾚｲﾔｰ0
100
AcDbDimension
  2
*D53
 10
611.2289741292
 20
82.4787010635
 30
0.0
 11
614.2289741292
 21
82.4787010635
 31
0.0
 70
   160
 71
     1
 42
6.0
  3
SLDDIMSTYLE0
100
AcDbAlignedDimension
 13
617.2289741292
 23
132.5859582462
 33
0.0
 14
611.2289741292
 24
132.5859582462
 34
0.0
100
AcDbRotatedDimension
1001
ACAD
1000
DSTYLE
1002
{
1070
    77
1070
     3
1070
   143
1040
0.0393700787
1070
    41
1040
3.0
1070
    44
1040
1.0
1070
    42
1040
1.0
1070
   147
1040
1.524
1070
    73
1070
     0
1070
    74
1070
     0
1070
   140
1040
9.1722222222
1070
   284
1070
    12
1070
    78
1070
    12
1002
}
  0
DIMENSION
  5
764
330
1F
100
AcDbEntity
  8
ﾚｲﾔｰ0
100
AcDbDimension
  2
*D54
 10
621.2289741292
 20
82.4787010635
 30
0.0
 11
640.5391637016
 21
82.4787010635
 31
0.0
 70
   160
 71
     1
 42
4.0
  3
SLDDIMSTYLE0
100
AcDbAlignedDimension
 13
617.2289741292
 23
134.5859582462
 33
0.0
 14
621.2289741292
 24
134.5859582462
 34
0.0
100
AcDbRotatedDimension
1001
ACAD
1000
DSTYLE
1002
{
1070
    77
1070
     3
1070
   143
1040
0.0393700787
1070
    41
1040
3.0
1070
    44
1040
1.0
1070
    42
1040
1.0
1070
   147
1040
1.524
1070
    73
1070
     0
1070
    74
1070
     0
1070
   140
1040
9.1722222222
1070
   284
1070
    12
1070
    78
1070
    12
1002
}
  0
MTEXT
  5
77B
330
1F
100
AcDbEntity
  8
ﾚｲﾔｰ0
100
AcDbMText
 10
66.677399452
 20
101.0092023177
 30
0.0
 40
6.8791666667
 41
0.0
 71
     1
 72
     1
  1
ＭＣＤ-10
  7
SLDTEXTSTYLE0
 73
     1
 44
1.0
  0
MTEXT
  5
77C
330
1F
100
AcDbEntity
  8
ﾚｲﾔｰ0
100
AcDbMText
 10
774.4570146502
 20
34.8025380461
 30
0.0
 40
3.7041666667
 41
0.0
 71
     1
 72
     1
  1
CHK-MCD01
  7
SLDTEXTSTYLE0
 73
     1
 44
1.0
  0
MTEXT
  5
77D
330
1F
100
AcDbEntity
  8
ﾚｲﾔｰ0
100
AcDbMText
 10
756.6239487288
 20
48.5759334126
 30
0.0
 40
3.5
 41
0.0
 71
     1
 72
     1
  1
ミニシリンダー用チヤツクプレート
  7
SLDTEXTSTYLE0
 73
     1
 44
1.0
  0
MTEXT
  5
77E
330
1F
100
AcDbEntity
  8
ﾚｲﾔｰ0
100
AcDbMText
 10
779.1486219054
 20
21.8976122163
 30
0.0
 40
3.7041666667
 41
0.0
 71
     1
 72
     1
  1
022892
  7
SLDTEXTSTYLE0
 73
     1
 44
1.0
  0
MTEXT
  5
77F
330
1F
100
AcDbEntity
  8
ﾚｲﾔｰ0
100
AcDbMText
 10
59.3196075431
 20
112.9909327239
 30
0.0
 40
6.8791666667
 41
0.0
 71
     1
 72
     1
  1
ミニシリンダー
  7
SLDTEXTSTYLE0
 73
     1
 44
1.0
  0
MTEXT
  5
780
330
1F
100
AcDbEntity
  8
ﾚｲﾔｰ0
100
AcDbMText
 10
467.3939051562
 20
102.9272819537
 30
0.0
 40
6.8791666667
 41
0.0
 71
     1
 72
     1
  1
ミニシリンダー
  7
SLDTEXTSTYLE0
 73
     1
 44
1.0
  0
INSERT
  5
781
330
1F
100
AcDbEntity
  8
0
  6
Continuous
 62
     7
370
     0
100
AcDbBlockReference
  2
SW_NOTE_0
 10
471.6808986042
 20
80.8245915379
 30
0.0
  0
INSERT
  5
782
330
1F
100
AcDbEntity
  8
0
  6
Continuous
 62
     7
370
     0
100
AcDbBlockReference
  2
SW_CENTERMARKSYMBOL_0
 10
274.0255664026
 20
302.5859582462
 30
0.0
  0
INSERT
  5
783
330
1F
100
AcDbEntity
  8
0
  6
Continuous
 62
     7
370
     0
100
AcDbBlockReference
  2
SW_CENTERMARKSYMBOL_1
 10
274.0255664026
 20
342.5859582462
 30
0.0
  0
INSERT
  5
784
330
1F
100
AcDbEntity
  8
0
  6
Continuous
 62
     7
370
     0
100
AcDbBlockReference
  2
SW_CENTERMARKSYMBOL_2
 10
374.0255664026
 20
342.5859582462
 30
0.0
  0
INSERT
  5
785
330
1F
100
AcDbEntity
  8
0
  6
Continuous
 62
     7
370
     0
100
AcDbBlockReference
  2
SW_CENTERMARKSYMBOL_3
 10
374.0255664026
 20
302.5859582462
 30
0.0
  0
INSERT
  5
786
330
1F
100
AcDbEntity
  8
0
  6
Continuous
 62
     7
370
     0
100
AcDbBlockReference
  2
SW_CENTERMARKSYMBOL_4
 10
234.0255664026
 20
260.5859582462
 30
0.0
  0
INSERT
  5
787
330
1F
100
AcDbEntity
  8
0
  6
Continuous
 62
     7
370
     0
100
AcDbBlockReference
  2
SW_CENTERMARKSYMBOL_5
 10
414.0255664026
 20
260.5859582462
 30
0.0
  0
ENDSEC
  0
SECTION
  2
OBJECTS
  0
DICTIONARY
  5
C
330
0
100
AcDbDictionary
281
     1
  3
ACAD_GROUP
350
D
  3
ACAD_LAYOUT
350
1A
  3
ACAD_MLINESTYLE
350
17
  3
ACAD_PLOTSETTINGS
350
19
  3
ACAD_PLOTSTYLENAME
350
E
  0
DICTIONARY
  5
D
102
{ACAD_REACTORS
330
C
102
}
330
C
100
AcDbDictionary
281
     1
  0
DICTIONARY
  5
1A
102
{ACAD_REACTORS
330
C
102
}
330
C
100
AcDbDictionary
281
     1
  3
Layout1
350
1E
  3
Layout2
350
26
  3
Model
350
22
  0
DICTIONARY
  5
17
102
{ACAD_REACTORS
330
C
102
}
330
C
100
AcDbDictionary
281
     1
  3
Standard
350
18
  0
DICTIONARY
  5
19
102
{ACAD_REACTORS
330
C
102
}
330
C
100
AcDbDictionary
281
     1
  0
ACDBDICTIONARYWDFLT
  5
E
102
{ACAD_REACTORS
330
C
102
}
330
C
100
AcDbDictionary
281
     1
  3
Normal
350
F
100
AcDbDictionaryWithDefault
340
F
  0
LAYOUT
  5
1E
102
{ACAD_REACTORS
330
1A
102
}
330
1A
100
AcDbPlotSettings
  1

  2

  4

  6

 40
0.0
 41
0.0
 42
0.0
 43
0.0
 44
0.0
 45
0.0
 46
0.0
 47
0.0
 48
0.0
 49
0.0
140
0.0
141
0.0
142
1.0
143
1.0
 70
   688
 72
     0
 73
     0
 74
     5
  7

 75
    16
147
1.0
148
0.0
149
0.0
100
AcDbLayout
  1
Layout1
 70
     1
 71
     1
 10
0.0
 20
0.0
 11
0.0
 21
0.0
 12
0.0
 22
0.0
 32
0.0
 14
0.0
 24
0.0
 34
0.0
 15
0.0
 25
0.0
 35
0.0
146
0.0
 13
0.0
 23
0.0
 33
0.0
 16
1.0
 26
0.0
 36
0.0
 17
0.0
 27
1.0
 37
0.0
 76
     0
330
1B
  0
LAYOUT
  5
26
102
{ACAD_REACTORS
330
1A
102
}
330
1A
100
AcDbPlotSettings
  1

  2

  4

  6

 40
0.0
 41
0.0
 42
0.0
 43
0.0
 44
0.0
 45
0.0
 46
0.0
 47
0.0
 48
0.0
 49
0.0
140
0.0
141
0.0
142
1.0
143
1.0
 70
   688
 72
     0
 73
     0
 74
     5
  7

 75
    16
147
1.0
148
0.0
149
0.0
100
AcDbLayout
  1
Layout2
 70
     1
 71
     2
 10
0.0
 20
0.0
 11
0.0
 21
0.0
 12
0.0
 22
0.0
 32
0.0
 14
0.0
 24
0.0
 34
0.0
 15
0.0
 25
0.0
 35
0.0
146
0.0
 13
0.0
 23
0.0
 33
0.0
 16
1.0
 26
0.0
 36
0.0
 17
0.0
 27
1.0
 37
0.0
 76
     0
330
23
  0
LAYOUT
  5
22
102
{ACAD_REACTORS
330
1A
102
}
330
1A
100
AcDbPlotSettings
  1

  2

  4

  6

 40
0.0
 41
0.0
 42
0.0
 43
0.0
 44
0.0
 45
0.0
 46
0.0
 47
0.0
 48
0.0
 49
0.0
140
0.0
141
0.0
142
1.0
143
1.0
 70
  1712
 72
     0
 73
     0
 74
     0
  7

 75
     0
147
1.0
148
0.0
149
0.0
100
AcDbLayout
  1
Model
 70
     1
 71
     0
 10
0.0
 20
0.0
 11
0.0
 21
0.0
 12
0.0
 22
0.0
 32
0.0
 14
0.0
 24
0.0
 34
0.0
 15
841.0
 25
594.0
 35
0.0
146
0.0
 13
0.0
 23
0.0
 33
0.0
 16
1.0
 26
0.0
 36
0.0
 17
0.0
 27
1.0
 37
0.0
 76
     0
330
1F
  0
MLINESTYLE
  5
18
102
{ACAD_REACTORS
330
17
102
}
330
17
100
AcDbMlineStyle
  2
Standard
 70
     0
  3

 62
   256
 51
90.0
 52
90.0
 71
     2
 49
0.5
 62
   256
  6
BYLAYER
 49
-0.5
 62
   256
  6
BYLAYER
  0
ACDBPLACEHOLDER
  5
F
102
{ACAD_REACTORS
330
E
102
}
330
E
  0
ENDSEC
  0
EOF
