  0
SECTION
  2
HEADER
  9
$ACADVER
  1
AC1015
  9
$ACADMAINTVER
 70
     6
  9
$DWGCODEPAGE
  3
DOS932
  9
$INSBASE
 10
0.0
 20
0.0
 30
0.0
  9
$EXTMIN
 10
0.0
 20
0.0
 30
0.0
  9
$EXTMAX
 10
210.0
 20
297.0
 30
0.0
  9
$LIMMIN
 10
0.0
 20
0.0
  9
$LIMMAX
 10
210.0
 20
297.0
  9
$ORTHOMODE
 70
     0
  9
$REGENMODE
 70
     1
  9
$FILLMODE
 70
     1
  9
$QTEXTMODE
 70
     0
  9
$MIRRTEXT
 70
     1
  9
$LTSCALE
 40
1.0
  9
$ATTMODE
 70
     1
  9
$TEXTSIZE
 40
3.5
  9
$TRACEWID
 40
1.0
  9
$TEXTSTYLE
  7
Standard
  9
$CLAYER
  8
0
  9
$CELTYPE
  6
ByLayer
  9
$CECOLOR
 62
   256
  9
$CELTSCALE
 40
1.0
  9
$DISPSILH
 70
     0
  9
$DIMSCALE
 40
1.0
  9
$DIMASZ
 40
3.0
  9
$DIMEXO
 40
1.0
  9
$DIMDLI
 40
3.75
  9
$DIMRND
 40
0.0
  9
$DIMDLE
 40
0.0
  9
$DIMEXE
 40
1.0
  9
$DIMTP
 40
0.0
  9
$DIMTM
 40
0.0
  9
$DIMTXT
 40
3.5
  9
$DIMCEN
 40
2.5
  9
$DIMTSZ
 40
0.0
  9
$DIMTOL
 70
     0
  9
$DIMLIM
 70
     0
  9
$DIMTIH
 70
     1
  9
$DIMTOH
 70
     1
  9
$DIMSE1
 70
     0
  9
$DIMSE2
 70
     0
  9
$DIMTAD
 70
     1
  9
$DIMZIN
 70
     0
  9
$DIMBLK
  1

  9
$DIMASO
 70
     1
  9
$DIMSHO
 70
     1
  9
$DIMPOST
  1

  9
$DIMAPOST
  1

  9
$DIMALT
 70
     0
  9
$DIMALTD
 70
     3
  9
$DIMALTF
 40
0.0393700787
  9
$DIMLFAC
 40
2.0
  9
$DIMTOFL
 70
     1
  9
$DIMTVP
 40
0.0
  9
$DIMTIX
 70
     0
  9
$DIMSOXD
 70
     0
  9
$DIMSAH
 70
     0
  9
$DIMBLK1
  1

  9
$DIMBLK2
  1

  9
$DIMSTYLE
  2
ISO-25
  9
$DIMCLRD
 70
     0
  9
$DIMCLRE
 70
     0
  9
$DIMCLRT
 70
     0
  9
$DIMTFAC
 40
1.0
  9
$DIMGAP
 40
1.524
  9
$DIMJUST
 70
     0
  9
$DIMSD1
 70
     0
  9
$DIMSD2
 70
     0
  9
$DIMTOLJ
 70
     0
  9
$DIMTZIN
 70
     0
  9
$DIMALTZ
 70
     0
  9
$DIMALTTZ
 70
     0
  9
$DIMUPT
 70
     0
  9
$DIMDEC
 70
     1
  9
$DIMTDEC
 70
     3
  9
$DIMALTU
 70
     2
  9
$DIMALTTD
 70
     3
  9
$DIMTXSTY
  7
Standard
  9
$DIMAUNIT
 70
     0
  9
$DIMADEC
 70
     2
  9
$DIMALTRND
 40
0.0
  9
$DIMAZIN
 70
     0
  9
$DIMDSEP
 70
    44
  9
$DIMATFIT
 70
     3
  9
$DIMFRAC
 70
     0
  9
$DIMLDRBLK
  1

  9
$DIMLUNIT
 70
     2
  9
$DIMLWD
 70
    -2
  9
$DIMLWE
 70
    -2
  9
$DIMTMOVE
 70
     0
  9
$LUNITS
 70
     2
  9
$LUPREC
 70
     1
  9
$SKETCHINC
 40
1.0
  9
$FILLETRAD
 40
10.0
  9
$AUNITS
 70
     0
  9
$AUPREC
 70
     2
  9
$MENU
  1
.
  9
$ELEVATION
 40
0.0
  9
$PELEVATION
 40
0.0
  9
$THICKNESS
 40
0.0
  9
$LIMCHECK
 70
     0
  9
$CHAMFERA
 40
0.0
  9
$CHAMFERB
 40
0.0
  9
$CHAMFERC
 40
0.0
  9
$CHAMFERD
 40
0.0
  9
$SKPOLY
 70
     0
  9
$TDCREATE
 40
2457984.671889363
  9
$TDUCREATE
 40
2457984.296889363
  9
$TDUPDATE
 40
2457984.671891215
  9
$TDUUPDATE
 40
2457984.296891215
  9
$TDINDWG
 40
0.0000000116
  9
$TDUSRTIMER
 40
0.0000000116
  9
$USRTIMER
 70
     1
  9
$ANGBASE
 50
0.0
  9
$ANGDIR
 70
     0
  9
$PDMODE
 70
     0
  9
$PDSIZE
 40
-1.0
  9
$PLINEWID
 40
0.0
  9
$SPLFRAME
 70
     0
  9
$SPLINETYPE
 70
     6
  9
$SPLINESEGS
 70
     8
  9
$HANDSEED
  5
375
  9
$SURFTAB1
 70
     6
  9
$SURFTAB2
 70
     6
  9
$SURFTYPE
 70
     6
  9
$SURFU
 70
     6
  9
$SURFV
 70
     6
  9
$UCSBASE
  2

  9
$UCSNAME
  2

  9
$UCSORG
 10
0.0
 20
0.0
 30
0.0
  9
$UCSXDIR
 10
1.0
 20
0.0
 30
0.0
  9
$UCSYDIR
 10
0.0
 20
1.0
 30
0.0
  9
$UCSORTHOREF
  2

  9
$UCSORTHOVIEW
 70
     0
  9
$UCSORGTOP
 10
0.0
 20
0.0
 30
0.0
  9
$UCSORGBOTTOM
 10
0.0
 20
0.0
 30
0.0
  9
$UCSORGLEFT
 10
0.0
 20
0.0
 30
0.0
  9
$UCSORGRIGHT
 10
0.0
 20
0.0
 30
0.0
  9
$UCSORGFRONT
 10
0.0
 20
0.0
 30
0.0
  9
$UCSORGBACK
 10
0.0
 20
0.0
 30
0.0
  9
$PUCSBASE
  2

  9
$PUCSNAME
  2

  9
$PUCSORG
 10
0.0
 20
0.0
 30
0.0
  9
$PUCSXDIR
 10
1.0
 20
0.0
 30
0.0
  9
$PUCSYDIR
 10
0.0
 20
1.0
 30
0.0
  9
$PUCSORTHOREF
  2

  9
$PUCSORTHOVIEW
 70
     0
  9
$PUCSORGTOP
 10
0.0
 20
0.0
 30
0.0
  9
$PUCSORGBOTTOM
 10
0.0
 20
0.0
 30
0.0
  9
$PUCSORGLEFT
 10
0.0
 20
0.0
 30
0.0
  9
$PUCSORGRIGHT
 10
0.0
 20
0.0
 30
0.0
  9
$PUCSORGFRONT
 10
0.0
 20
0.0
 30
0.0
  9
$PUCSORGBACK
 10
0.0
 20
0.0
 30
0.0
  9
$USERI1
 70
     0
  9
$USERI2
 70
     0
  9
$USERI3
 70
     0
  9
$USERI4
 70
     0
  9
$USERI5
 70
     0
  9
$USERR1
 40
0.0
  9
$USERR2
 40
0.0
  9
$USERR3
 40
0.0
  9
$USERR4
 40
0.0
  9
$USERR5
 40
0.0
  9
$WORLDVIEW
 70
     1
  9
$SHADEDGE
 70
     3
  9
$SHADEDIF
 70
    70
  9
$TILEMODE
 70
     1
  9
$MAXACTVP
 70
    64
  9
$PINSBASE
 10
0.0
 20
0.0
 30
0.0
  9
$PLIMCHECK
 70
     0
  9
$PEXTMIN
 10
1.0000000000E+20
 20
1.0000000000E+20
 30
1.0000000000E+20
  9
$PEXTMAX
 10
-1.0000000000E+20
 20
-1.0000000000E+20
 30
-1.0000000000E+20
  9
$PLIMMIN
 10
0.0
 20
0.0
  9
$PLIMMAX
 10
420.0
 20
297.0
  9
$UNITMODE
 70
     0
  9
$VISRETAIN
 70
     1
  9
$PLINEGEN
 70
     0
  9
$PSLTSCALE
 70
     1
  9
$TREEDEPTH
 70
  3020
  9
$CMLSTYLE
  2
Standard
  9
$CMLJUST
 70
     0
  9
$CMLSCALE
 40
20.0
  9
$PROXYGRAPHICS
 70
     1
  9
$MEASUREMENT
 70
     1
  9
$CELWEIGHT
370
    -1
  9
$ENDCAPS
280
     0
  9
$JOINSTYLE
280
     0
  9
$LWDISPLAY
290
     1
  9
$INSUNITS
 70
     4
  9
$HYPERLINKBASE
  1

  9
$STYLESHEET
  1

  9
$XEDIT
290
     1
  9
$CEPSNTYPE
380
     0
  9
$PSTYLEMODE
290
     1
  9
$FINGERPRINTGUID
  2
{2EE636FE-BE53-4ED1-90F5-E555FEE3210E}
  9
$VERSIONGUID
  2
{FAEB1C32-E019-11D5-929B-00C0DF256EC4}
  9
$EXTNAMES
290
     1
  9
$PSVPSCALE
 40
0.0
  9
$OLESTARTUP
290
     0
  0
ENDSEC
  0
SECTION
  2
CLASSES
  0
CLASS
  1
ACDBDICTIONARYWDFLT
  2
AcDbDictionaryWithDefault
  3
ObjectDBX Classes
 90
        0
280
     0
281
     0
  0
CLASS
  1
VISUALSTYLE
  2
AcDbVisualStyle
  3
ObjectDBX Classes
 90
     4095
280
     0
281
     0
  0
CLASS
  1
MATERIAL
  2
AcDbMaterial
  3
ObjectDBX Classes
 90
     1153
280
     0
281
     0
  0
CLASS
  1
SCALE
  2
AcDbScale
  3
ObjectDBX Classes
 90
     1153
280
     0
281
     0
  0
CLASS
  1
TABLESTYLE
  2
AcDbTableStyle
  3
ObjectDBX Classes
 90
     4095
280
     0
281
     0
  0
CLASS
  1
MLEADERSTYLE
  2
AcDbMLeaderStyle
  3
ACDB_MLEADERSTYLE_CLASS
 90
     4095
280
     0
281
     0
  0
CLASS
  1
SUN
  2
AcDbSun
  3
SCENEOE
 90
     1153
280
     0
281
     0
  0
CLASS
  1
ACDBPLACEHOLDER
  2
AcDbPlaceHolder
  3
ObjectDBX Classes
 90
        0
280
     0
281
     0
  0
CLASS
  1
LAYOUT
  2
AcDbLayout
  3
ObjectDBX Classes
 90
        0
280
     0
281
     0
  0
ENDSEC
  0
SECTION
  2
TABLES
  0
TABLE
  2
VPORT
  5
8
330
0
100
AcDbSymbolTable
 70
     1
  0
VPORT
  5
29
330
8
100
AcDbSymbolTableRecord
100
AcDbViewportTableRecord
  2
*Active
 70
     0
 10
0.0
 20
0.0
 11
1.0
 21
1.0
 12
105.0
 22
148.5
 13
0.0
 23
0.0
 14
10.0
 24
10.0
 15
10.0
 25
10.0
 16
0.0
 26
0.0
 36
1.0
 17
0.0
 27
0.0
 37
0.0
 40
297.0
 41
0.7070707071
 42
50.0
 43
0.0
 44
0.0
 50
0.0
 51
0.0
 71
     0
 72
  2000
 73
     1
 74
     3
 75
     0
 76
     0
 77
     0
 78
     0
281
     0
 65
     1
110
0.0
120
0.0
130
0.0
111
1.0
121
0.0
131
0.0
112
0.0
122
1.0
132
0.0
 79
     0
146
0.0
  0
ENDTAB
  0
TABLE
  2
LTYPE
  5
5
330
0
100
AcDbSymbolTable
 70
     6
  0
LTYPE
  5
14
330
5
100
AcDbSymbolTableRecord
100
AcDbLinetypeTableRecord
  2
ByBlock
 70
     0
  3

 72
    65
 73
     0
 40
0.0
  0
LTYPE
  5
15
330
5
100
AcDbSymbolTableRecord
100
AcDbLinetypeTableRecord
  2
ByLayer
 70
     0
  3

 72
    65
 73
     0
 40
0.0
  0
LTYPE
  5
16
330
5
100
AcDbSymbolTableRecord
100
AcDbLinetypeTableRecord
  2
Continuous
 70
     0
  3
Solid line
 72
    65
 73
     0
 40
0.0
  0
LTYPE
  5
6E
330
5
100
AcDbSymbolTableRecord
100
AcDbLinetypeTableRecord
  2
HIDDEN
 70
     0
  3
Hidden __ __ __ __ __ __ __ __ __ __ __ __ __ __
 72
    65
 73
     2
 40
1.905
 49
1.27
 74
     0
 49
-0.635
 74
     0
  0
LTYPE
  5
6F
330
5
100
AcDbSymbolTableRecord
100
AcDbLinetypeTableRecord
  2
PHANTOM
 70
     0
  3
Phantom ______  __  __  ______  __  __  ______
 72
    65
 73
     6
 40
12.7
 49
6.35
 74
     0
 49
-1.27
 74
     0
 49
1.27
 74
     0
 49
-1.27
 74
     0
 49
1.27
 74
     0
 49
-1.27
 74
     0
  0
LTYPE
  5
70
330
5
100
AcDbSymbolTableRecord
100
AcDbLinetypeTableRecord
  2
CENTER
 70
     0
  3
Center ____ _ ____ _ ____ _ ____ _ ____ _ ____
 72
    65
 73
     4
 40
10.16
 49
6.35
 74
     0
 49
-1.27
 74
     0
 49
1.27
 74
     0
 49
-1.27
 74
     0
  0
LTYPE
  5
71
330
5
100
AcDbSymbolTableRecord
100
AcDbLinetypeTableRecord
  2
CENTERX2
 70
     0
  3
Center (2x) ________  __  ________  __  _____
 72
    65
 73
     4
 40
20.32
 49
12.7
 74
     0
 49
-2.54
 74
     0
 49
2.54
 74
     0
 49
-2.54
 74
     0
  0
LTYPE
  5
72
330
5
100
AcDbSymbolTableRecord
100
AcDbLinetypeTableRecord
  2
DOT2
 70
     0
  3
Dot (.5x) ........................................
 72
    65
 73
     2
 40
0.635
 49
0.0
 74
     0
 49
-0.635
 74
     0
  0
ENDTAB
  0
TABLE
  2
LAYER
  5
2
330
0
100
AcDbSymbolTable
 70
     1
  0
LAYER
  5
10
330
2
100
AcDbSymbolTableRecord
100
AcDbLayerTableRecord
  2
0
 70
     0
 62
     7
  6
Continuous
370
    -3
390
F
  0
ENDTAB
  0
TABLE
  2
STYLE
  5
3
330
0
100
AcDbSymbolTable
 70
     2
  0
STYLE
  5
11
330
3
100
AcDbSymbolTableRecord
100
AcDbTextStyleTableRecord
  2
Standard
 70
     0
 40
0.0
 41
1.0
 50
0.0
 71
     0
 42
3.5
  3
txt
  4
bigfont
  0
STYLE
  5
7B
330
3
100
AcDbSymbolTableRecord
100
AcDbTextStyleTableRecord
  2
SLDTEXTSTYLE0
 70
     0
 40
0.0
 41
0.7
 50
0.0
 71
     0
 42
3.5
  3
TXT
  4
bigfont
  0
ENDTAB
  0
TABLE
  2
VIEW
  5
6
330
0
100
AcDbSymbolTable
 70
     0
  0
ENDTAB
  0
TABLE
  2
UCS
  5
7
330
0
100
AcDbSymbolTable
 70
     0
  0
ENDTAB
  0
TABLE
  2
APPID
  5
9
330
0
100
AcDbSymbolTable
 70
     1
  0
APPID
  5
12
330
9
100
AcDbSymbolTableRecord
100
AcDbRegAppTableRecord
  2
ACAD
 70
     0
  0
ENDTAB
  0
TABLE
  2
DIMSTYLE
  5
A
330
0
100
AcDbSymbolTable
 70
     5
100
AcDbDimStyleTable
  0
DIMSTYLE
105
27
330
A
100
AcDbSymbolTableRecord
100
AcDbDimStyleTableRecord
  2
ISO-25
 70
     0
 41
2.5
 42
0.625
 43
3.75
 44
1.25
 73
     0
 74
     0
 77
     1
 78
     8
140
2.5
141
2.5
143
0.0393700787
147
0.625
171
     3
172
     1
178
     0
271
     2
272
     2
274
     3
278
    44
283
     0
284
     8
340
11
  0
DIMSTYLE
105
155
102
{ACAD_REACTORS
330
154
330
177
330
35F
102
}
330
A
100
AcDbSymbolTableRecord
100
AcDbDimStyleTableRecord
  2
SLDDIMSTYLE0
 70
     0
 41
3.0
 44
0.0
 45
0.000000001
 73
     0
 74
     0
 77
     3
 78
    12
 79
     3
140
3.5
147
0.875
172
     1
173
     1
178
     0
271
     1
272
     3
276
     2
284
    12
289
     0
340
7B
  0
DIMSTYLE
105
163
102
{ACAD_REACTORS
330
162
330
16D
330
183
330
18D
330
197
330
1A1
330
1AD
330
244
330
250
330
36B
102
}
330
A
100
AcDbSymbolTableRecord
100
AcDbDimStyleTableRecord
  2
SLDDIMSTYLE1
 70
     0
 41
3.0
 44
0.0
 45
0.000000001
 73
     0
 74
     0
 77
     3
 78
    12
 79
     3
140
3.5
147
0.875
173
     1
178
     0
271
     1
272
     3
276
     2
284
    12
340
7B
  0
DIMSTYLE
105
1BA
102
{ACAD_REACTORS
330
1B9
102
}
330
A
100
AcDbSymbolTableRecord
100
AcDbDimStyleTableRecord
  2
SLDDIMSTYLE2
 70
     0
 41
3.0
 44
0.0
 45
0.000000001
 78
    12
 79
     3
140
3.5
141
0.0
147
0.875
173
     1
178
     0
271
     1
272
     3
276
     2
284
    12
340
7B
  0
DIMSTYLE
105
1CB
330
A
100
AcDbSymbolTableRecord
100
AcDbDimStyleTableRecord
  2
SLDDIMSTYLE3
 70
     0
 41
3.0
 44
0.0
 45
0.000000001
146
3.0
147
0.0
173
     1
178
     0
271
     0
272
     0
276
     2
340
11
  0
ENDTAB
  0
TABLE
  2
BLOCK_RECORD
  5
1
330
0
100
AcDbSymbolTable
 70
    22
  0
BLOCK_RECORD
  5
1F
330
1
100
AcDbSymbolTableRecord
100
AcDbBlockTableRecord
  2
*Model_Space
340
22
  0
BLOCK_RECORD
  5
1B
330
1
100
AcDbSymbolTableRecord
100
AcDbBlockTableRecord
  2
*Paper_Space
340
1E
  0
BLOCK_RECORD
  5
23
330
1
100
AcDbSymbolTableRecord
100
AcDbBlockTableRecord
  2
*Paper_Space0
340
26
  0
BLOCK_RECORD
  5
156
330
1
100
AcDbSymbolTableRecord
100
AcDbBlockTableRecord
  2
_D
340
0
  0
BLOCK_RECORD
  5
164
330
1
100
AcDbSymbolTableRecord
100
AcDbBlockTableRecord
  2
_D_1
340
0
  0
BLOCK_RECORD
  5
16E
330
1
100
AcDbSymbolTableRecord
100
AcDbBlockTableRecord
  2
_D_2
340
0
  0
BLOCK_RECORD
  5
178
330
1
100
AcDbSymbolTableRecord
100
AcDbBlockTableRecord
  2
_D_3
340
0
  0
BLOCK_RECORD
  5
184
330
1
100
AcDbSymbolTableRecord
100
AcDbBlockTableRecord
  2
_D_4
340
0
  0
BLOCK_RECORD
  5
18E
330
1
100
AcDbSymbolTableRecord
100
AcDbBlockTableRecord
  2
_D_5
340
0
  0
BLOCK_RECORD
  5
198
330
1
100
AcDbSymbolTableRecord
100
AcDbBlockTableRecord
  2
_D_6
340
0
  0
BLOCK_RECORD
  5
1A2
330
1
100
AcDbSymbolTableRecord
100
AcDbBlockTableRecord
  2
_D_7
340
0
  0
BLOCK_RECORD
  5
1AE
330
1
100
AcDbSymbolTableRecord
100
AcDbBlockTableRecord
  2
_D_8
340
0
  0
BLOCK_RECORD
  5
1BB
330
1
100
AcDbSymbolTableRecord
100
AcDbBlockTableRecord
  2
_D_9
340
0
  0
BLOCK_RECORD
  5
1C5
330
1
100
AcDbSymbolTableRecord
100
AcDbBlockTableRecord
  2
SW_NOTE_0
340
0
102
{BLKREFS
331
1CA
102
}
  0
BLOCK_RECORD
  5
1CD
330
1
100
AcDbSymbolTableRecord
100
AcDbBlockTableRecord
  2
SW_CENTERMARKSYMBOL_0
340
0
102
{BLKREFS
331
1D8
102
}
  0
BLOCK_RECORD
  5
1D9
330
1
100
AcDbSymbolTableRecord
100
AcDbBlockTableRecord
  2
SW_CENTERMARKSYMBOL_1
340
0
102
{BLKREFS
331
1E4
102
}
  0
BLOCK_RECORD
  5
1E5
330
1
100
AcDbSymbolTableRecord
100
AcDbBlockTableRecord
  2
SW_CENTERMARKSYMBOL_2
340
0
102
{BLKREFS
331
1F0
102
}
  0
BLOCK_RECORD
  5
1F1
330
1
100
AcDbSymbolTableRecord
100
AcDbBlockTableRecord
  2
SW_CENTERMARKSYMBOL_3
340
0
102
{BLKREFS
331
1FC
102
}
  0
BLOCK_RECORD
  5
1FD
330
1
100
AcDbSymbolTableRecord
100
AcDbBlockTableRecord
  2
SW_CENTERMARKSYMBOL_4
340
0
102
{BLKREFS
331
208
102
}
  0
BLOCK_RECORD
  5
245
330
1
100
AcDbSymbolTableRecord
100
AcDbBlockTableRecord
  2
_D_10
340
0
  0
BLOCK_RECORD
  5
251
330
1
100
AcDbSymbolTableRecord
100
AcDbBlockTableRecord
  2
_D_11
340
0
  0
BLOCK_RECORD
  5
25C
330
1
100
AcDbSymbolTableRecord
100
AcDbBlockTableRecord
  2
SW_CENTERMARKSYMBOL_5
340
0
102
{BLKREFS
331
267
102
}
  0
BLOCK_RECORD
  5
360
330
1
100
AcDbSymbolTableRecord
100
AcDbBlockTableRecord
  2
_D_12
340
0
  0
BLOCK_RECORD
  5
36C
330
1
100
AcDbSymbolTableRecord
100
AcDbBlockTableRecord
  2
_D_13
340
0
  0
ENDTAB
  0
ENDSEC
  0
SECTION
  2
BLOCKS
  0
BLOCK
  5
20
330
1F
100
AcDbEntity
  8
0
100
AcDbBlockBegin
  2
*Model_Space
 70
     0
 10
0.0
 20
0.0
 30
0.0
  3
*Model_Space
  1

  0
ENDBLK
  5
21
330
1F
100
AcDbEntity
  8
0
100
AcDbBlockEnd
  0
BLOCK
  5
1C
330
1B
100
AcDbEntity
 67
     1
  8
0
100
AcDbBlockBegin
  2
*Paper_Space
 70
     0
 10
0.0
 20
0.0
 30
0.0
  3
*Paper_Space
  1

  0
ENDBLK
  5
1D
330
1B
100
AcDbEntity
 67
     1
  8
0
100
AcDbBlockEnd
  0
BLOCK
  5
24
330
23
100
AcDbEntity
  8
0
100
AcDbBlockBegin
  2
*Paper_Space0
 70
     0
 10
0.0
 20
0.0
 30
0.0
  3
*Paper_Space0
  1

  0
ENDBLK
  5
25
330
23
100
AcDbEntity
  8
0
100
AcDbBlockEnd
  0
BLOCK
  5
157
330
156
100
AcDbEntity
  8
0
100
AcDbBlockBegin
  2
_D
 70
     0
 10
0.0
 20
0.0
 30
0.0
  3
_D
  1

  0
SOLID
  5
159
330
156
100
AcDbEntity
  8
0
  6
Continuous
 62
     7
370
     0
100
AcDbTrace
 10
80.6296943443
 20
119.7450647059
 30
0.0
 11
77.6296943443
 21
120.4950647059
 31
0.0
 12
77.6296943443
 22
118.9950647059
 32
0.0
 13
77.6296943443
 23
118.9950647059
 33
0.0
  0
SOLID
  5
15A
330
156
100
AcDbEntity
  8
0
  6
Continuous
 62
     7
370
     0
100
AcDbTrace
 10
92.6296943443
 20
119.7450647059
 30
0.0
 11
95.6296943443
 21
118.9950647059
 31
0.0
 12
95.6296943443
 22
120.4950647059
 32
0.0
 13
95.6296943443
 23
120.4950647059
 33
0.0
  0
LINE
  5
15B
330
156
100
AcDbEntity
  8
0
  6
Continuous
 62
     7
370
     0
100
AcDbLine
 10
80.6296943443
 20
139.7450647059
 30
0.0
 11
80.6296943443
 21
118.7450647059
 31
0.0
  0
LINE
  5
15C
330
156
100
AcDbEntity
  8
0
  6
Continuous
 62
     7
370
     0
100
AcDbLine
 10
92.6296943443
 20
139.7450647059
 30
0.0
 11
92.6296943443
 21
118.7450647059
 31
0.0
  0
LINE
  5
15D
330
156
100
AcDbEntity
  8
0
  6
Continuous
 62
     7
370
     0
100
AcDbLine
 10
80.6296943443
 20
119.7450647059
 30
0.0
 11
75.6296943443
 21
119.7450647059
 31
0.0
  0
LINE
  5
15E
330
156
100
AcDbEntity
  8
0
  6
Continuous
 62
     7
370
     0
100
AcDbLine
 10
80.6296943443
 20
119.7450647059
 30
0.0
 11
92.6296943443
 21
119.7450647059
 31
0.0
  0
LINE
  5
15F
330
156
100
AcDbEntity
  8
0
  6
Continuous
 62
     7
370
     0
100
AcDbLine
 10
92.6296943443
 20
119.7450647059
 30
0.0
 11
97.6296943443
 21
119.7450647059
 31
0.0
  0
MTEXT
  5
160
330
156
100
AcDbEntity
  8
0
  6
Continuous
 62
     7
370
     0
100
AcDbMText
 10
82.6579234728
 20
124.256802028
 30
0.0
 40
3.5
 41
0.0
 71
     1
 72
     1
  1
%%c
  7
SLDTEXTSTYLE0
 73
     1
 44
1.0
  0
MTEXT
  5
161
330
156
100
AcDbEntity
  8
0
  6
Continuous
 62
     7
370
     0
100
AcDbMText
 10
86.5278539879
 20
124.256802028
 30
0.0
 40
3.5
 41
0.0
 71
     1
 72
     1
  1
12
  7
SLDTEXTSTYLE0
 73
     1
 44
1.0
  0
ENDBLK
  5
158
330
156
100
AcDbEntity
  8
0
100
AcDbBlockEnd
  0
BLOCK
  5
165
330
164
100
AcDbEntity
  8
0
100
AcDbBlockBegin
  2
_D_1
 70
     0
 10
0.0
 20
0.0
 30
0.0
  3
_D_1
  1

  0
SOLID
  5
167
330
164
100
AcDbEntity
  8
0
  6
Continuous
 62
     7
370
     0
100
AcDbTrace
 10
74.1296943443
 20
113.7450647059
 30
0.0
 11
77.1296943443
 21
112.9950647059
 31
0.0
 12
77.1296943443
 22
114.4950647059
 32
0.0
 13
77.1296943443
 23
114.4950647059
 33
0.0
  0
SOLID
  5
168
330
164
100
AcDbEntity
  8
0
  6
Continuous
 62
     7
370
     0
100
AcDbTrace
 10
99.1296943443
 20
113.7450647059
 30
0.0
 11
96.1296943443
 21
114.4950647059
 31
0.0
 12
96.1296943443
 22
112.9950647059
 32
0.0
 13
96.1296943443
 23
112.9950647059
 33
0.0
  0
LINE
  5
169
330
164
100
AcDbEntity
  8
0
  6
Continuous
 62
     7
370
     0
100
AcDbLine
 10
74.1296943442
 20
159.2450647059
 30
0.0
 11
74.1296943443
 21
112.7450647059
 31
0.0
  0
LINE
  5
16A
330
164
100
AcDbEntity
  8
0
  6
Continuous
 62
     7
370
     0
100
AcDbLine
 10
99.1296943442
 20
159.2450647059
 30
0.0
 11
99.1296943443
 21
112.7450647059
 31
0.0
  0
LINE
  5
16B
330
164
100
AcDbEntity
  8
0
  6
Continuous
 62
     7
370
     0
100
AcDbLine
 10
74.1296943443
 20
113.7450647059
 30
0.0
 11
99.1296943443
 21
113.7450647059
 31
0.0
  0
MTEXT
  5
16C
330
164
100
AcDbEntity
  8
0
  6
Continuous
 62
     7
370
     0
100
AcDbMText
 10
84.5928888468
 20
118.2568015623
 30
0.0
 40
3.5
 41
0.0
 71
     1
 72
     1
  1
25
  7
SLDTEXTSTYLE0
 73
     1
 44
1.0
  0
ENDBLK
  5
166
330
164
100
AcDbEntity
  8
0
100
AcDbBlockEnd
  0
BLOCK
  5
16F
330
16E
100
AcDbEntity
  8
0
100
AcDbBlockBegin
  2
_D_2
 70
     0
 10
0.0
 20
0.0
 30
0.0
  3
_D_2
  1

  0
SOLID
  5
171
330
16E
100
AcDbEntity
  8
0
  6
Continuous
 62
     7
370
     0
100
AcDbTrace
 10
67.1296943443
 20
107.7450647059
 30
0.0
 11
70.1296943443
 21
106.9950647059
 31
0.0
 12
70.1296943443
 22
108.4950647059
 32
0.0
 13
70.1296943443
 23
108.4950647059
 33
0.0
  0
SOLID
  5
172
330
16E
100
AcDbEntity
  8
0
  6
Continuous
 62
     7
370
     0
100
AcDbTrace
 10
106.1296943443
 20
107.7450647059
 30
0.0
 11
103.1296943443
 21
108.4950647059
 31
0.0
 12
103.1296943443
 22
106.9950647059
 32
0.0
 13
103.1296943443
 23
106.9950647059
 33
0.0
  0
LINE
  5
173
330
16E
100
AcDbEntity
  8
0
  6
Continuous
 62
     7
370
     0
100
AcDbLine
 10
67.1296943443
 20
154.7450647059
 30
0.0
 11
67.1296943443
 21
106.7450647059
 31
0.0
  0
LINE
  5
174
330
16E
100
AcDbEntity
  8
0
  6
Continuous
 62
     7
370
     0
100
AcDbLine
 10
106.1296943443
 20
154.7450647059
 30
0.0
 11
106.1296943443
 21
106.7450647059
 31
0.0
  0
LINE
  5
175
330
16E
100
AcDbEntity
  8
0
  6
Continuous
 62
     7
370
     0
100
AcDbLine
 10
67.1296943443
 20
107.7450647059
 30
0.0
 11
106.1296943443
 21
107.7450647059
 31
0.0
  0
MTEXT
  5
176
330
16E
100
AcDbEntity
  8
0
  6
Continuous
 62
     7
370
     0
100
AcDbMText
 10
84.5928888468
 20
112.2568015623
 30
0.0
 40
3.5
 41
0.0
 71
     1
 72
     1
  1
39
  7
SLDTEXTSTYLE0
 73
     1
 44
1.0
  0
ENDBLK
  5
170
330
16E
100
AcDbEntity
  8
0
100
AcDbBlockEnd
  0
BLOCK
  5
179
330
178
100
AcDbEntity
  8
0
100
AcDbBlockBegin
  2
_D_3
 70
     0
 10
0.0
 20
0.0
 30
0.0
  3
_D_3
  1

  0
SOLID
  5
17B
330
178
100
AcDbEntity
  8
0
  6
Continuous
 62
     7
370
     0
100
AcDbTrace
 10
113.1913190948
 20
155.7450647059
 30
0.0
 11
112.4413190948
 21
152.7450647059
 31
0.0
 12
113.9413190948
 22
152.7450647059
 32
0.0
 13
113.9413190948
 23
152.7450647059
 33
0.0
  0
SOLID
  5
17C
330
178
100
AcDbEntity
  8
0
  6
Continuous
 62
     7
370
     0
100
AcDbTrace
 10
113.1913190948
 20
160.2450647059
 30
0.0
 11
113.9413190948
 21
163.2450647059
 31
0.0
 12
112.4413190948
 22
163.2450647059
 32
0.0
 13
112.4413190948
 23
163.2450647059
 33
0.0
  0
LINE
  5
17D
330
178
100
AcDbEntity
  8
0
  6
Continuous
 62
     7
370
     0
100
AcDbLine
 10
107.1296943443
 20
155.7450647059
 30
0.0
 11
114.1913190948
 21
155.7450647059
 31
0.0
  0
LINE
  5
17E
330
178
100
AcDbEntity
  8
0
  6
Continuous
 62
     7
370
     0
100
AcDbLine
 10
100.1296943442
 20
160.2450647059
 30
0.0
 11
114.1913190948
 21
160.2450647059
 31
0.0
  0
LINE
  5
17F
330
178
100
AcDbEntity
  8
0
  6
Continuous
 62
     7
370
     0
100
AcDbLine
 10
113.1913190948
 20
155.7450647059
 30
0.0
 11
113.1913190948
 21
146.9650334351
 31
0.0
  0
LINE
  5
180
330
178
100
AcDbEntity
  8
0
  6
Continuous
 62
     7
370
     0
100
AcDbLine
 10
113.1913190948
 20
155.7450647059
 30
0.0
 11
113.1913190948
 21
160.2450647059
 31
0.0
  0
LINE
  5
181
330
178
100
AcDbEntity
  8
0
  6
Continuous
 62
     7
370
     0
100
AcDbLine
 10
113.1913190948
 20
160.2450647059
 30
0.0
 11
113.1913190948
 21
165.2450647059
 31
0.0
  0
MTEXT
  5
182
330
178
100
AcDbEntity
  8
0
  6
Continuous
 62
     7
370
     0
100
AcDbMText
 10
108.6795822385
 20
146.9650334351
 30
0.0
 40
3.5
 41
0.0
 71
     1
 72
     1
  1
4.5
  7
SLDTEXTSTYLE0
 11
-1.059690869644414E-14
 21
1.0
 31
0.0
 73
     1
 44
1.0
  0
ENDBLK
  5
17A
330
178
100
AcDbEntity
  8
0
100
AcDbBlockEnd
  0
BLOCK
  5
185
330
184
100
AcDbEntity
  8
0
100
AcDbBlockBegin
  2
_D_4
 70
     0
 10
0.0
 20
0.0
 30
0.0
  3
_D_4
  1

  0
SOLID
  5
187
330
184
100
AcDbEntity
  8
0
  6
Continuous
 62
     7
370
     0
100
AcDbTrace
 10
113.1913190948
 20
160.2450647059
 30
0.0
 11
113.9413190948
 21
163.2450647059
 31
0.0
 12
112.4413190948
 22
163.2450647059
 32
0.0
 13
112.4413190948
 23
163.2450647059
 33
0.0
  0
SOLID
  5
188
330
184
100
AcDbEntity
  8
0
  6
Continuous
 62
     7
370
     0
100
AcDbTrace
 10
113.1913190948
 20
191.7450647059
 30
0.0
 11
112.4413190948
 21
188.7450647059
 31
0.0
 12
113.9413190948
 22
188.7450647059
 32
0.0
 13
113.9413190948
 23
188.7450647059
 33
0.0
  0
LINE
  5
189
330
184
100
AcDbEntity
  8
0
  6
Continuous
 62
     7
370
     0
100
AcDbLine
 10
100.1296943442
 20
160.2450647059
 30
0.0
 11
114.1913190948
 21
160.2450647059
 31
0.0
  0
LINE
  5
18A
330
184
100
AcDbEntity
  8
0
  6
Continuous
 62
     7
370
     0
100
AcDbLine
 10
87.6296943442
 20
191.7450647059
 30
0.0
 11
114.1913190948
 21
191.7450647059
 31
0.0
  0
LINE
  5
18B
330
184
100
AcDbEntity
  8
0
  6
Continuous
 62
     7
370
     0
100
AcDbLine
 10
113.1913190948
 20
160.2450647059
 30
0.0
 11
113.1913190948
 21
191.7450647059
 31
0.0
  0
MTEXT
  5
18C
330
184
100
AcDbEntity
  8
0
  6
Continuous
 62
     7
370
     0
100
AcDbMText
 10
108.6795822385
 20
171.921453711
 30
0.0
 40
3.5
 41
0.0
 71
     1
 72
     1
  1
31.5
  7
SLDTEXTSTYLE0
 11
6.123233995736766E-17
 21
1.0
 31
0.0
 73
     1
 44
1.0
  0
ENDBLK
  5
186
330
184
100
AcDbEntity
  8
0
100
AcDbBlockEnd
  0
BLOCK
  5
18F
330
18E
100
AcDbEntity
  8
0
100
AcDbBlockBegin
  2
_D_5
 70
     0
 10
0.0
 20
0.0
 30
0.0
  3
_D_5
  1

  0
SOLID
  5
191
330
18E
100
AcDbEntity
  8
0
  6
Continuous
 62
     7
370
     0
100
AcDbTrace
 10
123.7586693688
 20
209.1450647059
 30
0.0
 11
123.0086693688
 21
206.1450647059
 31
0.0
 12
124.5086693688
 22
206.1450647059
 32
0.0
 13
124.5086693688
 23
206.1450647059
 33
0.0
  0
SOLID
  5
192
330
18E
100
AcDbEntity
  8
0
  6
Continuous
 62
     7
370
     0
100
AcDbTrace
 10
123.7586693688
 20
155.7450647059
 30
0.0
 11
124.5086693688
 21
158.7450647059
 31
0.0
 12
123.0086693688
 22
158.7450647059
 32
0.0
 13
123.0086693688
 23
158.7450647059
 33
0.0
  0
LINE
  5
193
330
18E
100
AcDbEntity
  8
0
  6
Continuous
 62
     7
370
     0
100
AcDbLine
 10
92.6296943442
 20
209.1450647059
 30
0.0
 11
124.7586693688
 21
209.1450647059
 31
0.0
  0
LINE
  5
194
330
18E
100
AcDbEntity
  8
0
  6
Continuous
 62
     7
370
     0
100
AcDbLine
 10
107.1296943443
 20
155.7450647059
 30
0.0
 11
124.7586693688
 21
155.7450647059
 31
0.0
  0
LINE
  5
195
330
18E
100
AcDbEntity
  8
0
  6
Continuous
 62
     7
370
     0
100
AcDbLine
 10
123.7586693688
 20
209.1450647059
 30
0.0
 11
123.7586693688
 21
155.7450647059
 31
0.0
  0
MTEXT
  5
196
330
18E
100
AcDbEntity
  8
0
  6
Continuous
 62
     7
370
     0
100
AcDbMText
 10
119.2469325124
 20
178.371453711
 30
0.0
 40
3.5
 41
0.0
 71
     1
 72
     1
  1
53.4
  7
SLDTEXTSTYLE0
 11
-1.770233605404514E-14
 21
1.0
 31
0.0
 73
     1
 44
1.0
  0
ENDBLK
  5
190
330
18E
100
AcDbEntity
  8
0
100
AcDbBlockEnd
  0
BLOCK
  5
199
330
198
100
AcDbEntity
  8
0
100
AcDbBlockBegin
  2
_D_6
 70
     0
 10
0.0
 20
0.0
 30
0.0
  3
_D_6
  1

  0
SOLID
  5
19B
330
198
100
AcDbEntity
  8
0
  6
Continuous
 62
     7
370
     0
100
AcDbTrace
 10
123.7586693688
 20
155.7450647059
 30
0.0
 11
123.0086693688
 21
152.7450647059
 31
0.0
 12
124.5086693688
 22
152.7450647059
 32
0.0
 13
124.5086693688
 23
152.7450647059
 33
0.0
  0
SOLID
  5
19C
330
198
100
AcDbEntity
  8
0
  6
Continuous
 62
     7
370
     0
100
AcDbTrace
 10
123.7586693688
 20
139.7450647059
 30
0.0
 11
124.5086693688
 21
142.7450647059
 31
0.0
 12
123.0086693688
 22
142.7450647059
 32
0.0
 13
123.0086693688
 23
142.7450647059
 33
0.0
  0
LINE
  5
19D
330
198
100
AcDbEntity
  8
0
  6
Continuous
 62
     7
370
     0
100
AcDbLine
 10
107.1296943443
 20
155.7450647059
 30
0.0
 11
124.7586693688
 21
155.7450647059
 31
0.0
  0
LINE
  5
19E
330
198
100
AcDbEntity
  8
0
  6
Continuous
 62
     7
370
     0
100
AcDbLine
 10
90.834025085
 20
139.7450647059
 30
0.0
 11
124.7586693688
 21
139.7450647059
 31
0.0
  0
LINE
  5
19F
330
198
100
AcDbEntity
  8
0
  6
Continuous
 62
     7
370
     0
100
AcDbLine
 10
123.7586693688
 20
155.7450647059
 30
0.0
 11
123.7586693688
 21
139.7450647059
 31
0.0
  0
MTEXT
  5
1A0
330
198
100
AcDbEntity
  8
0
  6
Continuous
 62
     7
370
     0
100
AcDbMText
 10
119.2469325124
 20
145.7082592084
 30
0.0
 40
3.5
 41
0.0
 71
     1
 72
     1
  1
16
  7
SLDTEXTSTYLE0
 11
-1.770233605404514E-14
 21
1.0
 31
0.0
 73
     1
 44
1.0
  0
ENDBLK
  5
19A
330
198
100
AcDbEntity
  8
0
100
AcDbBlockEnd
  0
BLOCK
  5
1A3
330
1A2
100
AcDbEntity
  8
0
100
AcDbBlockBegin
  2
_D_7
 70
     0
 10
0.0
 20
0.0
 30
0.0
  3
_D_7
  1

  0
ARC
  5
1A5
330
1A2
100
AcDbEntity
  8
0
  6
Continuous
 62
     7
370
     0
100
AcDbCircle
 10
131.5637559055
 20
188.7046712308
 30
0.0
 40
4.554435549315953
100
AcDbArc
 50
243.4349488229
 51
296.5650511771
  0
ARC
  5
1A6
330
1A2
100
AcDbEntity
  8
0
  6
Continuous
 62
     7
370
     0
100
AcDbCircle
 10
131.5637559055
 20
186.6678659662
 30
0.0
 40
4.554435549315978
100
AcDbArc
 50
63.4349488229
 51
116.5650511771
  0
SOLID
  5
1A7
330
1A2
100
AcDbEntity
  8
0
  6
Continuous
 62
     7
370
     0
100
AcDbTrace
 10
133.600561403
 20
245.6274726075
 30
0.0
 11
132.850561403
 21
242.6274726075
 31
0.0
 12
134.350561403
 22
242.6274726075
 32
0.0
 13
134.350561403
 23
242.6274726075
 33
0.0
  0
SOLID
  5
1A8
330
1A2
100
AcDbEntity
  8
0
  6
Continuous
 62
     7
370
     0
100
AcDbTrace
 10
133.600561403
 20
129.7450647059
 30
0.0
 11
134.350561403
 21
132.7450647059
 31
0.0
 12
132.850561403
 22
132.7450647059
 32
0.0
 13
132.850561403
 23
132.7450647059
 33
0.0
  0
LINE
  5
1A9
330
1A2
100
AcDbEntity
  8
0
  6
Continuous
 62
     7
370
     0
100
AcDbLine
 10
96.1509605853
 20
245.6274726075
 30
0.0
 11
134.600561403
 21
245.6274726075
 31
0.0
  0
LINE
  5
1AA
330
1A2
100
AcDbEntity
  8
0
  6
Continuous
 62
     7
370
     0
100
AcDbLine
 10
89.1296943443
 20
129.7450647059
 30
0.0
 11
134.600561403
 21
129.7450647059
 31
0.0
  0
LINE
  5
1AB
330
1A2
100
AcDbEntity
  8
0
  6
Continuous
 62
     7
370
     0
100
AcDbLine
 10
133.600561403
 20
245.6274726075
 30
0.0
 11
133.600561403
 21
129.7450647059
 31
0.0
  0
MTEXT
  5
1AC
330
1A2
100
AcDbEntity
  8
0
  6
Continuous
 62
     7
370
     0
100
AcDbMText
 10
129.0888245466
 20
184.6310602359
 30
0.0
 40
3.5
 41
0.0
 71
     1
 72
     1
  1
116
  7
SLDTEXTSTYLE0
 11
-7.044195017643634E-15
 21
1.0
 31
0.0
 73
     1
 44
1.0
  0
ENDBLK
  5
1A4
330
1A2
100
AcDbEntity
  8
0
100
AcDbBlockEnd
  0
BLOCK
  5
1AF
330
1AE
100
AcDbEntity
  8
0
100
AcDbBlockBegin
  2
_D_8
 70
     0
 10
0.0
 20
0.0
 30
0.0
  3
_D_8
  1

  0
ARC
  5
1B1
330
1AE
100
AcDbEntity
  8
0
  6
Continuous
 62
     7
370
     0
100
AcDbCircle
 10
88.6664997835
 20
263.8490780236
 30
0.0
 40
4.554435549315978
100
AcDbArc
 50
153.4349488229
 51
206.5650511771
  0
ARC
  5
1B2
330
1AE
100
AcDbEntity
  8
0
  6
Continuous
 62
     7
370
     0
100
AcDbCircle
 10
84.5928887886
 20
263.8490780236
 30
0.0
 40
4.554435549315966
100
AcDbArc
 50
333.4349488229
 51
26.5650511771
  0
SOLID
  5
1B3
330
1AE
100
AcDbEntity
  8
0
  6
Continuous
 62
     7
370
     0
100
AcDbTrace
 10
78.1084281031
 20
261.8122725261
 30
0.0
 11
81.1084281031
 21
261.0622725261
 31
0.0
 12
81.1084281031
 22
262.5622725261
 32
0.0
 13
81.1084281031
 23
262.5622725261
 33
0.0
  0
SOLID
  5
1B4
330
1AE
100
AcDbEntity
  8
0
  6
Continuous
 62
     7
370
     0
100
AcDbTrace
 10
95.1509605853
 20
261.8122725261
 30
0.0
 11
92.1509605853
 21
262.5622725261
 31
0.0
 12
92.1509605853
 22
261.0622725261
 32
0.0
 13
92.1509605853
 23
261.0622725261
 33
0.0
  0
LINE
  5
1B5
330
1AE
100
AcDbEntity
  8
0
  6
Continuous
 62
     7
370
     0
100
AcDbLine
 10
78.1084281032
 20
246.6274726075
 30
0.0
 11
78.1084281031
 21
262.8122725261
 31
0.0
  0
LINE
  5
1B6
330
1AE
100
AcDbEntity
  8
0
  6
Continuous
 62
     7
370
     0
100
AcDbLine
 10
95.1509605853
 20
246.6274726075
 30
0.0
 11
95.1509605853
 21
262.8122725261
 31
0.0
  0
LINE
  5
1B7
330
1AE
100
AcDbEntity
  8
0
  6
Continuous
 62
     7
370
     0
100
AcDbLine
 10
78.1084281031
 20
261.8122725261
 30
0.0
 11
95.1509605853
 21
261.8122725261
 31
0.0
  0
MTEXT
  5
1B8
330
1AE
100
AcDbEntity
  8
0
  6
Continuous
 62
     7
370
     0
100
AcDbMText
 10
84.5928887886
 20
266.3240093825
 30
0.0
 40
3.5
 41
0.0
 71
     1
 72
     1
  1
17
  7
SLDTEXTSTYLE0
 73
     1
 44
1.0
  0
ENDBLK
  5
1B0
330
1AE
100
AcDbEntity
  8
0
100
AcDbBlockEnd
  0
BLOCK
  5
1BC
330
1BB
100
AcDbEntity
  8
0
100
AcDbBlockBegin
  2
_D_9
 70
     0
 10
0.0
 20
0.0
 30
0.0
  3
_D_9
  1

  0
SOLID
  5
1BE
330
1BB
100
AcDbEntity
  8
0
  6
Continuous
 62
     7
370
     0
100
AcDbTrace
 10
72.3619273913
 20
162.0128316589
 30
0.0
 11
70.7709371336
 21
164.6644820883
 31
0.0
 12
69.7102769618
 22
163.6038219166
 32
0.0
 13
69.7102769618
 23
163.6038219166
 33
0.0
  0
LINE
  5
1BF
330
1BB
100
AcDbEntity
  8
0
  6
Continuous
 62
     7
370
     0
100
AcDbLine
 10
72.3619273913
 20
162.0128316589
 30
0.0
 11
59.1968520651
 21
175.177906985
 31
0.0
  0
LINE
  5
1C0
330
1BB
100
AcDbEntity
  8
0
  6
Continuous
 62
     7
370
     0
100
AcDbLine
 10
59.1968520651
 20
175.177906985
 30
0.0
 11
25.0204678307
 21
175.177906985
 31
0.0
  0
MTEXT
  5
1C1
330
1BB
100
AcDbEntity
  8
0
  6
Continuous
 62
     7
370
     0
100
AcDbMText
 10
31.1308826933
 20
183.7632548364
 30
0.0
 40
3.5
 41
0.0
 71
     1
 72
     1
  1
3-
  7
SLDTEXTSTYLE0
 73
     1
 44
1.0
  0
MTEXT
  5
1C2
330
1BB
100
AcDbEntity
  8
0
  6
Continuous
 62
     7
370
     0
100
AcDbMText
 10
35.2044936883
 20
183.7632548364
 30
0.0
 40
3.5
 41
0.0
 71
     1
 72
     1
  1
M5
  7
SLDTEXTSTYLE0
 73
     1
 44
1.0
  0
MTEXT
  5
1C3
330
1BB
100
AcDbEntity
  8
0
  6
Continuous
 62
     7
370
     0
100
AcDbMText
 10
39.2781046833
 20
183.7632548364
 30
0.0
 40
3.5
 41
0.0
 71
     1
 72
     1
  1
取付穴
  7
SLDTEXTSTYLE0
 73
     1
 44
1.0
  0
MTEXT
  5
1C4
330
1BB
100
AcDbEntity
  8
0
  6
Continuous
 62
     7
370
     0
100
AcDbMText
 10
25.0204678307
 20
179.6896438414
 30
0.0
 40
3.5
 41
0.0
 71
     1
 72
     1
  1
(両側口元面取有)
  7
SLDTEXTSTYLE0
 73
     1
 44
1.0
  0
ENDBLK
  5
1BD
330
1BB
100
AcDbEntity
  8
0
100
AcDbBlockEnd
  0
BLOCK
  5
1C6
330
1C5
100
AcDbEntity
  8
0
100
AcDbBlockBegin
  2
SW_NOTE_0
 70
     0
 10
0.0
 20
0.0
 30
0.0
  3
SW_NOTE_0
  1

  0
LINE
  5
1C8
330
1C5
100
AcDbEntity
  8
0
  6
Continuous
 62
     0
370
     0
100
AcDbLine
 10
-8.2682873652
 20
0.0
 30
0.0
 11
0.0
 21
0.0
 31
0.0
  0
MTEXT
  5
1C9
330
1C5
100
AcDbEntity
  8
0
  6
Continuous
 62
     0
370
     0
100
AcDbMText
 10
-8.6604407002
 20
4.5682003017
 30
0.0
 40
3.5
 41
0.0
 71
     1
 72
     1
  1
BF-5
  7
SLDTEXTSTYLE0
 73
     1
 44
1.0
  0
ENDBLK
  5
1C7
330
1C5
100
AcDbEntity
  8
0
100
AcDbBlockEnd
  0
BLOCK
  5
1CE
330
1CD
100
AcDbEntity
  8
0
100
AcDbBlockBegin
  2
SW_CENTERMARKSYMBOL_0
 70
     0
 10
0.0
 20
0.0
 30
0.0
  3
SW_CENTERMARKSYMBOL_0
  1

  0
LINE
  5
1D0
330
1CD
100
AcDbEntity
  8
0
  6
Continuous
 62
     0
370
     0
100
AcDbLine
 10
0.0
 20
0.0
 30
0.0
 11
0.0
 21
2.5
 31
0.0
  0
LINE
  5
1D1
330
1CD
100
AcDbEntity
  8
0
  6
Continuous
 62
     0
370
     0
100
AcDbLine
 10
0.0
 20
0.0
 30
0.0
 11
-2.5
 21
0.0
 31
0.0
  0
LINE
  5
1D2
330
1CD
100
AcDbEntity
  8
0
  6
Continuous
 62
     0
370
     0
100
AcDbLine
 10
0.0
 20
0.0
 30
0.0
 11
0.0
 21
-2.5
 31
0.0
  0
LINE
  5
1D3
330
1CD
100
AcDbEntity
  8
0
  6
Continuous
 62
     0
370
     0
100
AcDbLine
 10
0.0
 20
0.0
 30
0.0
 11
2.5
 21
0.0
 31
0.0
  0
LINE
  5
1D4
330
1CD
100
AcDbEntity
  8
0
  6
Continuous
 62
     0
370
     0
100
AcDbLine
 10
0.0
 20
2.5
 30
0.0
 11
0.0
 21
4.8
 31
0.0
  0
LINE
  5
1D5
330
1CD
100
AcDbEntity
  8
0
  6
Continuous
 62
     0
370
     0
100
AcDbLine
 10
-2.5
 20
0.0
 30
0.0
 11
-4.8
 21
0.0
 31
0.0
  0
LINE
  5
1D6
330
1CD
100
AcDbEntity
  8
0
  6
Continuous
 62
     0
370
     0
100
AcDbLine
 10
0.0
 20
-2.5
 30
0.0
 11
0.0
 21
-4.8
 31
0.0
  0
LINE
  5
1D7
330
1CD
100
AcDbEntity
  8
0
  6
Continuous
 62
     0
370
     0
100
AcDbLine
 10
2.5
 20
0.0
 30
0.0
 11
4.8
 21
0.0
 31
0.0
  0
ENDBLK
  5
1CF
330
1CD
100
AcDbEntity
  8
0
100
AcDbBlockEnd
  0
BLOCK
  5
1DA
330
1D9
100
AcDbEntity
  8
0
100
AcDbBlockBegin
  2
SW_CENTERMARKSYMBOL_1
 70
     0
 10
0.0
 20
0.0
 30
0.0
  3
SW_CENTERMARKSYMBOL_1
  1

  0
LINE
  5
1DC
330
1D9
100
AcDbEntity
  8
0
  6
Continuous
 62
     0
370
     0
100
AcDbLine
 10
0.0
 20
0.0
 30
0.0
 11
0.0
 21
2.5
 31
0.0
  0
LINE
  5
1DD
330
1D9
100
AcDbEntity
  8
0
  6
Continuous
 62
     0
370
     0
100
AcDbLine
 10
0.0
 20
0.0
 30
0.0
 11
-2.5
 21
0.0
 31
0.0
  0
LINE
  5
1DE
330
1D9
100
AcDbEntity
  8
0
  6
Continuous
 62
     0
370
     0
100
AcDbLine
 10
0.0
 20
0.0
 30
0.0
 11
0.0
 21
-2.5
 31
0.0
  0
LINE
  5
1DF
330
1D9
100
AcDbEntity
  8
0
  6
Continuous
 62
     0
370
     0
100
AcDbLine
 10
0.0
 20
0.0
 30
0.0
 11
2.5
 21
0.0
 31
0.0
  0
LINE
  5
1E0
330
1D9
100
AcDbEntity
  8
0
  6
Continuous
 62
     0
370
     0
100
AcDbLine
 10
0.0
 20
5.0
 30
0.0
 11
0.0
 21
5.125
 31
0.0
  0
LINE
  5
1E1
330
1D9
100
AcDbEntity
  8
0
  6
Continuous
 62
     0
370
     0
100
AcDbLine
 10
-5.0
 20
0.0
 30
0.0
 11
-5.125
 21
0.0
 31
0.0
  0
LINE
  5
1E2
330
1D9
100
AcDbEntity
  8
0
  6
Continuous
 62
     0
370
     0
100
AcDbLine
 10
0.0
 20
-5.0
 30
0.0
 11
0.0
 21
-5.125
 31
0.0
  0
LINE
  5
1E3
330
1D9
100
AcDbEntity
  8
0
  6
Continuous
 62
     0
370
     0
100
AcDbLine
 10
5.0
 20
0.0
 30
0.0
 11
5.125
 21
0.0
 31
0.0
  0
ENDBLK
  5
1DB
330
1D9
100
AcDbEntity
  8
0
100
AcDbBlockEnd
  0
BLOCK
  5
1E6
330
1E5
100
AcDbEntity
  8
0
100
AcDbBlockBegin
  2
SW_CENTERMARKSYMBOL_2
 70
     0
 10
0.0
 20
0.0
 30
0.0
  3
SW_CENTERMARKSYMBOL_2
  1

  0
LINE
  5
1E8
330
1E5
100
AcDbEntity
  8
0
  6
Continuous
 62
     0
370
     0
100
AcDbLine
 10
0.0
 20
0.0
 30
0.0
 11
0.0
 21
2.5
 31
0.0
  0
LINE
  5
1E9
330
1E5
100
AcDbEntity
  8
0
  6
Continuous
 62
     0
370
     0
100
AcDbLine
 10
0.0
 20
0.0
 30
0.0
 11
-2.5
 21
0.0
 31
0.0
  0
LINE
  5
1EA
330
1E5
100
AcDbEntity
  8
0
  6
Continuous
 62
     0
370
     0
100
AcDbLine
 10
0.0
 20
0.0
 30
0.0
 11
0.0
 21
-2.5
 31
0.0
  0
LINE
  5
1EB
330
1E5
100
AcDbEntity
  8
0
  6
Continuous
 62
     0
370
     0
100
AcDbLine
 10
0.0
 20
0.0
 30
0.0
 11
2.5
 21
0.0
 31
0.0
  0
LINE
  5
1EC
330
1E5
100
AcDbEntity
  8
0
  6
Continuous
 62
     0
370
     0
100
AcDbLine
 10
0.0
 20
2.5
 30
0.0
 11
0.0
 21
4.8
 31
0.0
  0
LINE
  5
1ED
330
1E5
100
AcDbEntity
  8
0
  6
Continuous
 62
     0
370
     0
100
AcDbLine
 10
-2.5
 20
0.0
 30
0.0
 11
-4.8
 21
0.0
 31
0.0
  0
LINE
  5
1EE
330
1E5
100
AcDbEntity
  8
0
  6
Continuous
 62
     0
370
     0
100
AcDbLine
 10
0.0
 20
-2.5
 30
0.0
 11
0.0
 21
-4.8
 31
0.0
  0
LINE
  5
1EF
330
1E5
100
AcDbEntity
  8
0
  6
Continuous
 62
     0
370
     0
100
AcDbLine
 10
2.5
 20
0.0
 30
0.0
 11
4.8
 21
0.0
 31
0.0
  0
ENDBLK
  5
1E7
330
1E5
100
AcDbEntity
  8
0
100
AcDbBlockEnd
  0
BLOCK
  5
1F2
330
1F1
100
AcDbEntity
  8
0
100
AcDbBlockBegin
  2
SW_CENTERMARKSYMBOL_3
 70
     0
 10
0.0
 20
0.0
 30
0.0
  3
SW_CENTERMARKSYMBOL_3
  1

  0
LINE
  5
1F4
330
1F1
100
AcDbEntity
  8
0
  6
Continuous
 62
     0
370
     0
100
AcDbLine
 10
0.0
 20
0.0
 30
0.0
 11
0.0
 21
2.5
 31
0.0
  0
LINE
  5
1F5
330
1F1
100
AcDbEntity
  8
0
  6
Continuous
 62
     0
370
     0
100
AcDbLine
 10
0.0
 20
0.0
 30
0.0
 11
-2.5
 21
0.0
 31
0.0
  0
LINE
  5
1F6
330
1F1
100
AcDbEntity
  8
0
  6
Continuous
 62
     0
370
     0
100
AcDbLine
 10
0.0
 20
0.0
 30
0.0
 11
0.0
 21
-2.5
 31
0.0
  0
LINE
  5
1F7
330
1F1
100
AcDbEntity
  8
0
  6
Continuous
 62
     0
370
     0
100
AcDbLine
 10
0.0
 20
0.0
 30
0.0
 11
2.5
 21
0.0
 31
0.0
  0
LINE
  5
1F8
330
1F1
100
AcDbEntity
  8
0
  6
Continuous
 62
     0
370
     0
100
AcDbLine
 10
0.0
 20
5.0
 30
0.0
 11
0.0
 21
5.125
 31
0.0
  0
LINE
  5
1F9
330
1F1
100
AcDbEntity
  8
0
  6
Continuous
 62
     0
370
     0
100
AcDbLine
 10
-5.0
 20
0.0
 30
0.0
 11
-5.125
 21
0.0
 31
0.0
  0
LINE
  5
1FA
330
1F1
100
AcDbEntity
  8
0
  6
Continuous
 62
     0
370
     0
100
AcDbLine
 10
0.0
 20
-5.0
 30
0.0
 11
0.0
 21
-5.125
 31
0.0
  0
LINE
  5
1FB
330
1F1
100
AcDbEntity
  8
0
  6
Continuous
 62
     0
370
     0
100
AcDbLine
 10
5.0
 20
0.0
 30
0.0
 11
5.125
 21
0.0
 31
0.0
  0
ENDBLK
  5
1F3
330
1F1
100
AcDbEntity
  8
0
100
AcDbBlockEnd
  0
BLOCK
  5
1FE
330
1FD
100
AcDbEntity
  8
0
100
AcDbBlockBegin
  2
SW_CENTERMARKSYMBOL_4
 70
     0
 10
0.0
 20
0.0
 30
0.0
  3
SW_CENTERMARKSYMBOL_4
  1

  0
LINE
  5
200
330
1FD
100
AcDbEntity
  8
0
  6
Continuous
 62
     0
370
     0
100
AcDbLine
 10
0.0
 20
0.0
 30
0.0
 11
0.0
 21
2.5
 31
0.0
  0
LINE
  5
201
330
1FD
100
AcDbEntity
  8
0
  6
Continuous
 62
     0
370
     0
100
AcDbLine
 10
0.0
 20
0.0
 30
0.0
 11
-2.5
 21
0.0
 31
0.0
  0
LINE
  5
202
330
1FD
100
AcDbEntity
  8
0
  6
Continuous
 62
     0
370
     0
100
AcDbLine
 10
0.0
 20
0.0
 30
0.0
 11
0.0
 21
-2.5
 31
0.0
  0
LINE
  5
203
330
1FD
100
AcDbEntity
  8
0
  6
Continuous
 62
     0
370
     0
100
AcDbLine
 10
0.0
 20
0.0
 30
0.0
 11
2.5
 21
0.0
 31
0.0
  0
LINE
  5
204
330
1FD
100
AcDbEntity
  8
0
  6
Continuous
 62
     0
370
     0
100
AcDbLine
 10
0.0
 20
5.0
 30
0.0
 11
0.0
 21
5.125
 31
0.0
  0
LINE
  5
205
330
1FD
100
AcDbEntity
  8
0
  6
Continuous
 62
     0
370
     0
100
AcDbLine
 10
-5.0
 20
0.0
 30
0.0
 11
-5.125
 21
0.0
 31
0.0
  0
LINE
  5
206
330
1FD
100
AcDbEntity
  8
0
  6
Continuous
 62
     0
370
     0
100
AcDbLine
 10
0.0
 20
-5.0
 30
0.0
 11
0.0
 21
-5.125
 31
0.0
  0
LINE
  5
207
330
1FD
100
AcDbEntity
  8
0
  6
Continuous
 62
     0
370
     0
100
AcDbLine
 10
5.0
 20
0.0
 30
0.0
 11
5.125
 21
0.0
 31
0.0
  0
ENDBLK
  5
1FF
330
1FD
100
AcDbEntity
  8
0
100
AcDbBlockEnd
  0
BLOCK
  5
246
330
245
100
AcDbEntity
  8
0
100
AcDbBlockBegin
  2
_D_10
 70
     0
 10
0.0
 20
0.0
 30
0.0
  3
_D_10
  1

  0
ARC
  5
248
330
245
100
AcDbEntity
  8
0
  6
Continuous
 62
     7
370
     0
100
AcDbCircle
 10
90.541718248
 20
51.1785965423
 30
0.0
 40
4.554435549315966
100
AcDbArc
 50
153.4349488229
 51
206.5650511771
  0
ARC
  5
249
330
245
100
AcDbEntity
  8
0
  6
Continuous
 62
     7
370
     0
100
AcDbCircle
 10
86.4681072531
 20
51.1785965423
 30
0.0
 40
4.554435549315966
100
AcDbArc
 50
333.4349488229
 51
26.5650511771
  0
SOLID
  5
24A
330
245
100
AcDbEntity
  8
0
  6
Continuous
 62
     7
370
     0
100
AcDbTrace
 10
111.5937837466
 20
49.1417910448
 30
0.0
 11
108.5937837466
 21
49.8917910448
 31
0.0
 12
108.5937837466
 22
48.3917910448
 32
0.0
 13
108.5937837466
 23
48.3917910448
 33
0.0
  0
SOLID
  5
24B
330
245
100
AcDbEntity
  8
0
  6
Continuous
 62
     7
370
     0
100
AcDbTrace
 10
65.416041871
 20
49.1417910448
 30
0.0
 11
68.416041871
 21
48.3917910448
 31
0.0
 12
68.416041871
 22
49.8917910448
 32
0.0
 13
68.416041871
 23
49.8917910448
 33
0.0
  0
LINE
  5
24C
330
245
100
AcDbEntity
  8
0
  6
Continuous
 62
     7
370
     0
100
AcDbLine
 10
111.5937837466
 20
68.6417910448
 30
0.0
 11
111.5937837466
 21
48.1417910448
 31
0.0
  0
LINE
  5
24D
330
245
100
AcDbEntity
  8
0
  6
Continuous
 62
     7
370
     0
100
AcDbLine
 10
65.416041871
 20
68.1417910448
 30
0.0
 11
65.416041871
 21
48.1417910448
 31
0.0
  0
LINE
  5
24E
330
245
100
AcDbEntity
  8
0
  6
Continuous
 62
     7
370
     0
100
AcDbLine
 10
111.5937837466
 20
49.1417910448
 30
0.0
 11
65.416041871
 21
49.1417910448
 31
0.0
  0
MTEXT
  5
24F
330
245
100
AcDbEntity
  8
0
  6
Continuous
 62
     7
370
     0
100
AcDbMText
 10
86.4681072531
 20
53.6535279011
 30
0.0
 40
3.5
 41
0.0
 71
     1
 72
     1
  1
47
  7
SLDTEXTSTYLE0
 73
     1
 44
1.0
  0
ENDBLK
  5
247
330
245
100
AcDbEntity
  8
0
100
AcDbBlockEnd
  0
BLOCK
  5
252
330
251
100
AcDbEntity
  8
0
100
AcDbBlockBegin
  2
_D_11
 70
     0
 10
0.0
 20
0.0
 30
0.0
  3
_D_11
  1

  0
ARC
  5
254
330
251
100
AcDbEntity
  8
0
  6
Continuous
 62
     7
370
     0
100
AcDbCircle
 10
76.0228680494
 20
59.3064614663
 30
0.0
 40
4.554435549315966
100
AcDbArc
 50
153.4349488229
 51
206.5650511771
  0
ARC
  5
255
330
251
100
AcDbEntity
  8
0
  6
Continuous
 62
     7
370
     0
100
AcDbCircle
 10
76.0228680494
 20
59.3064614663
 30
0.0
 40
4.554435549315966
100
AcDbArc
 50
333.4349488229
 51
26.5650511771
  0
SOLID
  5
256
330
251
100
AcDbEntity
  8
0
  6
Continuous
 62
     7
370
     0
100
AcDbTrace
 10
65.416041871
 20
57.2696559688
 30
0.0
 11
68.416041871
 21
56.5196559688
 31
0.0
 12
68.416041871
 22
58.0196559688
 32
0.0
 13
68.416041871
 23
58.0196559688
 33
0.0
  0
SOLID
  5
257
330
251
100
AcDbEntity
  8
0
  6
Continuous
 62
     7
370
     0
100
AcDbTrace
 10
86.6296943443
 20
57.2696559688
 30
0.0
 11
83.6296943443
 21
58.0196559688
 31
0.0
 12
83.6296943443
 22
56.5196559688
 32
0.0
 13
83.6296943443
 23
56.5196559688
 33
0.0
  0
LINE
  5
258
330
251
100
AcDbEntity
  8
0
  6
Continuous
 62
     7
370
     0
100
AcDbLine
 10
65.416041871
 20
68.1417910448
 30
0.0
 11
65.416041871
 21
56.2696559688
 31
0.0
  0
LINE
  5
259
330
251
100
AcDbEntity
  8
0
  6
Continuous
 62
     7
370
     0
100
AcDbLine
 10
86.6296943443
 20
63.6417910448
 30
0.0
 11
86.6296943443
 21
56.2696559688
 31
0.0
  0
LINE
  5
25A
330
251
100
AcDbEntity
  8
0
  6
Continuous
 62
     7
370
     0
100
AcDbLine
 10
65.416041871
 20
57.2696559688
 30
0.0
 11
86.6296943443
 21
57.2696559688
 31
0.0
  0
MTEXT
  5
25B
330
251
100
AcDbEntity
  8
0
  6
Continuous
 62
     7
370
     0
100
AcDbMText
 10
71.9492570544
 20
61.7813928251
 30
0.0
 40
3.5
 41
0.0
 71
     1
 72
     1
  1
21.5
  7
SLDTEXTSTYLE0
 73
     1
 44
1.0
  0
ENDBLK
  5
253
330
251
100
AcDbEntity
  8
0
100
AcDbBlockEnd
  0
BLOCK
  5
25D
330
25C
100
AcDbEntity
  8
0
100
AcDbBlockBegin
  2
SW_CENTERMARKSYMBOL_5
 70
     0
 10
0.0
 20
0.0
 30
0.0
  3
SW_CENTERMARKSYMBOL_5
  1

  0
LINE
  5
25F
330
25C
100
AcDbEntity
  8
0
  6
Continuous
 62
     0
370
     0
100
AcDbLine
 10
0.0
 20
0.0
 30
0.0
 11
0.0
 21
2.5
 31
0.0
  0
LINE
  5
260
330
25C
100
AcDbEntity
  8
0
  6
Continuous
 62
     0
370
     0
100
AcDbLine
 10
0.0
 20
0.0
 30
0.0
 11
-2.5
 21
0.0
 31
0.0
  0
LINE
  5
261
330
25C
100
AcDbEntity
  8
0
  6
Continuous
 62
     0
370
     0
100
AcDbLine
 10
0.0
 20
0.0
 30
0.0
 11
0.0
 21
-2.5
 31
0.0
  0
LINE
  5
262
330
25C
100
AcDbEntity
  8
0
  6
Continuous
 62
     0
370
     0
100
AcDbLine
 10
0.0
 20
0.0
 30
0.0
 11
2.5
 21
0.0
 31
0.0
  0
LINE
  5
263
330
25C
100
AcDbEntity
  8
0
  6
Continuous
 62
     0
370
     0
100
AcDbLine
 10
0.0
 20
5.0
 30
0.0
 11
0.0
 21
8.5
 31
0.0
  0
LINE
  5
264
330
25C
100
AcDbEntity
  8
0
  6
Continuous
 62
     0
370
     0
100
AcDbLine
 10
-5.0
 20
0.0
 30
0.0
 11
-8.5
 21
0.0
 31
0.0
  0
LINE
  5
265
330
25C
100
AcDbEntity
  8
0
  6
Continuous
 62
     0
370
     0
100
AcDbLine
 10
0.0
 20
-5.0
 30
0.0
 11
0.0
 21
-8.5
 31
0.0
  0
LINE
  5
266
330
25C
100
AcDbEntity
  8
0
  6
Continuous
 62
     0
370
     0
100
AcDbLine
 10
5.0
 20
0.0
 30
0.0
 11
8.5
 21
0.0
 31
0.0
  0
ENDBLK
  5
25E
330
25C
100
AcDbEntity
  8
0
100
AcDbBlockEnd
  0
BLOCK
  5
361
330
360
100
AcDbEntity
  8
0
100
AcDbBlockBegin
  2
_D_12
 70
     0
 10
0.0
 20
0.0
 30
0.0
  3
_D_12
  1

  0
SOLID
  5
363
330
360
100
AcDbEntity
  8
0
  6
Continuous
 62
     7
370
     0
100
AcDbTrace
 10
160.243301637
 20
262.4979679706
 30
0.0
 11
157.243301637
 21
263.2479679706
 31
0.0
 12
157.243301637
 22
261.7479679706
 32
0.0
 13
157.243301637
 23
261.7479679706
 33
0.0
  0
SOLID
  5
364
330
360
100
AcDbEntity
  8
0
  6
Continuous
 62
     7
370
     0
100
AcDbTrace
 10
168.243301637
 20
262.4979679706
 30
0.0
 11
171.243301637
 21
261.7479679706
 31
0.0
 12
171.243301637
 22
263.2479679706
 32
0.0
 13
171.243301637
 23
263.2479679706
 33
0.0
  0
LINE
  5
365
330
360
100
AcDbEntity
  8
0
  6
Continuous
 62
     7
370
     0
100
AcDbLine
 10
160.243301637
 20
244.3306318369
 30
0.0
 11
160.243301637
 21
263.4979679706
 31
0.0
  0
LINE
  5
366
330
360
100
AcDbEntity
  8
0
  6
Continuous
 62
     7
370
     0
100
AcDbLine
 10
168.243301637
 20
244.3306318369
 30
0.0
 11
168.243301637
 21
263.4979679706
 31
0.0
  0
LINE
  5
367
330
360
100
AcDbEntity
  8
0
  6
Continuous
 62
     7
370
     0
100
AcDbLine
 10
160.243301637
 20
262.4979679706
 30
0.0
 11
155.243301637
 21
262.4979679706
 31
0.0
  0
LINE
  5
368
330
360
100
AcDbEntity
  8
0
  6
Continuous
 62
     7
370
     0
100
AcDbLine
 10
160.243301637
 20
262.4979679706
 30
0.0
 11
168.243301637
 21
262.4979679706
 31
0.0
  0
LINE
  5
369
330
360
100
AcDbEntity
  8
0
  6
Continuous
 62
     7
370
     0
100
AcDbLine
 10
168.243301637
 20
262.4979679706
 30
0.0
 11
173.243301637
 21
262.4979679706
 31
0.0
  0
MTEXT
  5
36A
330
360
100
AcDbEntity
  8
0
  6
Continuous
 62
     7
370
     0
100
AcDbMText
 10
163.2248988882
 20
267.009704827
 30
0.0
 40
3.5
 41
0.0
 71
     1
 72
     1
  1
8
  7
SLDTEXTSTYLE0
 73
     1
 44
1.0
  0
ENDBLK
  5
362
330
360
100
AcDbEntity
  8
0
100
AcDbBlockEnd
  0
BLOCK
  5
36D
330
36C
100
AcDbEntity
  8
0
100
AcDbBlockBegin
  2
_D_13
 70
     0
 10
0.0
 20
0.0
 30
0.0
  3
_D_13
  1

  0
SOLID
  5
36F
330
36C
100
AcDbEntity
  8
0
  6
Continuous
 62
     7
370
     0
100
AcDbTrace
 10
156.243301637
 20
111.8763423422
 30
0.0
 11
159.243301637
 21
111.1263423422
 31
0.0
 12
159.243301637
 22
112.6263423422
 32
0.0
 13
159.243301637
 23
112.6263423422
 33
0.0
  0
SOLID
  5
370
330
36C
100
AcDbEntity
  8
0
  6
Continuous
 62
     7
370
     0
100
AcDbTrace
 10
172.243301637
 20
111.8763423422
 30
0.0
 11
169.243301637
 21
112.6263423422
 31
0.0
 12
169.243301637
 22
111.1263423422
 32
0.0
 13
169.243301637
 23
111.1263423422
 33
0.0
  0
LINE
  5
371
330
36C
100
AcDbEntity
  8
0
  6
Continuous
 62
     7
370
     0
100
AcDbLine
 10
156.243301637
 20
154.7450647059
 30
0.0
 11
156.243301637
 21
110.8763423422
 31
0.0
  0
LINE
  5
372
330
36C
100
AcDbEntity
  8
0
  6
Continuous
 62
     7
370
     0
100
AcDbLine
 10
172.243301637
 20
154.7450647059
 30
0.0
 11
172.243301637
 21
110.8763423422
 31
0.0
  0
LINE
  5
373
330
36C
100
AcDbEntity
  8
0
  6
Continuous
 62
     7
370
     0
100
AcDbLine
 10
156.243301637
 20
111.8763423422
 30
0.0
 11
172.243301637
 21
111.8763423422
 31
0.0
  0
MTEXT
  5
374
330
36C
100
AcDbEntity
  8
0
  6
Continuous
 62
     7
370
     0
100
AcDbMText
 10
162.2064961395
 20
116.3880791986
 30
0.0
 40
3.5
 41
0.0
 71
     1
 72
     1
  1
16
  7
SLDTEXTSTYLE0
 73
     1
 44
1.0
  0
ENDBLK
  5
36E
330
36C
100
AcDbEntity
  8
0
100
AcDbBlockEnd
  0
ENDSEC
  0
SECTION
  2
ENTITIES
  0
LINE
  5
73
330
1F
100
AcDbEntity
  8
0
  6
Continuous
 62
     7
370
     0
100
AcDbLine
 10
20.2604743903
 20
285.0
 30
0.0
 11
196.7604743903
 21
285.0
 31
0.0
  0
LINE
  5
74
330
1F
100
AcDbEntity
  8
0
  6
Continuous
 62
     7
370
     0
100
AcDbLine
 10
20.2604743903
 20
285.0
 30
0.0
 11
20.2604743903
 21
10.0
 31
0.0
  0
LINE
  5
75
330
1F
100
AcDbEntity
  8
0
  6
Continuous
 62
     7
370
     0
100
AcDbLine
 10
20.2604743903
 20
10.0
 30
0.0
 11
196.7604743903
 21
10.0
 31
0.0
  0
LINE
  5
76
330
1F
100
AcDbEntity
  8
0
  6
Continuous
 62
     7
370
     0
100
AcDbLine
 10
196.7604743903
 20
285.0
 30
0.0
 11
196.7604743903
 21
10.0
 31
0.0
  0
LINE
  5
77
330
1F
100
AcDbEntity
  8
0
  6
Continuous
 62
     7
370
     0
100
AcDbLine
 10
127.0104743903
 20
50.75
 30
0.0
 11
196.7604743903
 21
50.75
 31
0.0
  0
LINE
  5
78
330
1F
100
AcDbEntity
  8
0
  6
Continuous
 62
     7
370
     0
100
AcDbLine
 10
127.0104743903
 20
50.75
 30
0.0
 11
127.0104743903
 21
10.0
 31
0.0
  0
LINE
  5
79
330
1F
100
AcDbEntity
  8
0
  6
Continuous
 62
     7
370
     0
100
AcDbLine
 10
127.0104743903
 20
22.75
 30
0.0
 11
196.7604743903
 21
22.75
 31
0.0
  0
LINE
  5
7A
330
1F
100
AcDbEntity
  8
0
  6
Continuous
 62
     7
370
     0
100
AcDbLine
 10
127.0104743903
 20
36.75
 30
0.0
 11
196.7604743903
 21
36.75
 31
0.0
  0
MTEXT
  5
7C
330
1F
100
AcDbEntity
  8
0
  6
Continuous
 62
     7
370
     0
100
AcDbMText
 10
161.5194629509
 20
30.4171582345
 30
0.0
 40
4.2333333333
 41
0.0
 71
     2
 72
     1
  1
CHK-EL1-12-C
  7
SLDTEXTSTYLE0
 73
     1
 44
1.0
  0
MTEXT
  5
7D
330
1F
100
AcDbEntity
  8
0
  6
Continuous
 62
     7
370
     0
100
AcDbMText
 10
159.3284417666
 20
46.1450780474
 30
0.0
 40
3.175
 41
0.0
 71
     2
 72
     1
  1
ランナーチャックEL(近接センサー付)
  7
SLDTEXTSTYLE0
 73
     1
 44
1.0
  0
MTEXT
  5
7E
330
1F
100
AcDbEntity
  8
0
  6
Continuous
 62
     7
370
     0
100
AcDbMText
 10
162.481030988
 20
16.8228189052
 30
0.0
 40
4.2333333333
 41
0.0
 71
     2
 72
     1
  1
023000
  7
SLDTEXTSTYLE0
 73
     1
 44
1.0
  0
LINE
  5
7F
330
1F
100
AcDbEntity
  8
0
  6
Continuous
 62
     7
370
     0
100
AcDbLine
 10
80.6296942685
 20
155.7450652238
 30
0.0
 11
80.6296942685
 21
140.7450646277
 31
0.0
  0
LINE
  5
80
330
1F
100
AcDbEntity
  8
0
  6
Continuous
 62
     7
370
     0
100
AcDbLine
 10
92.6296943728
 20
140.7450646277
 30
0.0
 11
92.6296943728
 21
155.7450652238
 31
0.0
  0
LINE
  5
81
330
1F
100
AcDbEntity
  8
0
  6
Continuous
 62
     7
370
     0
100
AcDbLine
 10
80.6296942685
 20
140.7450646277
 30
0.0
 11
81.6296944324
 21
139.7450663264
 31
0.0
  0
LINE
  5
82
330
1F
100
AcDbEntity
  8
0
  6
Continuous
 62
     7
370
     0
100
AcDbLine
 10
91.6296942089
 20
139.7450663264
 30
0.0
 11
92.6296943728
 21
140.7450646277
 31
0.0
  0
LINE
  5
83
330
1F
100
AcDbEntity
  8
0
  6
Continuous
 62
     7
370
     0
100
AcDbLine
 10
88.4296942897
 20
134.2450663562
 30
0.0
 11
88.4296942897
 21
134.7450636442
 31
0.0
  0
LINE
  5
84
330
1F
100
AcDbEntity
  8
0
  6
Continuous
 62
     7
370
     0
100
AcDbLine
 10
84.8296943515
 20
134.7450636442
 30
0.0
 11
84.8296943515
 21
134.2450663562
 31
0.0
  0
LINE
  5
85
330
1F
100
AcDbEntity
  8
0
  6
Continuous
 62
     7
370
     0
100
AcDbLine
 10
88.4296942897
 20
131.7450650151
 30
0.0
 11
88.4296942897
 21
132.2450660284
 31
0.0
  0
LINE
  5
86
330
1F
100
AcDbEntity
  8
0
  6
Continuous
 62
     7
370
     0
100
AcDbLine
 10
84.8296943515
 20
132.2450660284
 30
0.0
 11
84.8296943515
 21
131.7450650151
 31
0.0
  0
LINE
  5
87
330
1F
100
AcDbEntity
  8
0
  6
Continuous
 62
     7
370
     0
100
AcDbLine
 10
84.8296943515
 20
134.2450663562
 30
0.0
 11
85.029694361
 21
132.2450660284
 31
0.0
  0
LINE
  5
88
330
1F
100
AcDbEntity
  8
0
  6
Continuous
 62
     7
370
     0
100
AcDbLine
 10
88.2296943966
 20
132.2450660284
 30
0.0
 11
88.4296942897
 21
134.2450663562
 31
0.0
  0
LINE
  5
89
330
1F
100
AcDbEntity
  8
0
  6
Continuous
 62
     7
370
     0
100
AcDbLine
 10
84.8296943515
 20
131.7450650151
 30
0.0
 11
85.1296943658
 21
129.7450646873
 31
0.0
  0
LINE
  5
8A
330
1F
100
AcDbEntity
  8
0
  6
Continuous
 62
     7
370
     0
100
AcDbLine
 10
88.1296943337
 20
129.7450646873
 30
0.0
 11
88.4296942897
 21
131.7450650151
 31
0.0
  0
LINE
  5
8B
330
1F
100
AcDbEntity
  8
0
  6
Continuous
 62
     7
370
     0
100
AcDbLine
 10
88.2296943966
 20
134.7450636442
 30
0.0
 11
88.2296943966
 21
136.7450639721
 31
0.0
  0
LINE
  5
8C
330
1F
100
AcDbEntity
  8
0
  6
Continuous
 62
     7
370
     0
100
AcDbLine
 10
85.029694361
 20
136.7450639721
 30
0.0
 11
85.029694361
 21
134.7450636442
 31
0.0
  0
LINE
  5
8D
330
1F
100
AcDbEntity
  8
0
  6
Continuous
 62
     7
370
     0
100
AcDbLine
 10
103.1388216581
 20
222.0000200089
 30
0.0
 11
102.9750280943
 21
221.0135221596
 31
0.0
  0
LINE
  5
8E
330
1F
100
AcDbEntity
  8
0
  6
Continuous
 62
     7
370
     0
100
AcDbLine
 10
103.5175998624
 20
220.9234371896
 30
0.0
 11
102.6986339059
 21
215.9909628447
 31
0.0
  0
LINE
  5
8F
330
1F
100
AcDbEntity
  8
0
  6
Continuous
 62
     7
370
     0
100
AcDbLine
 10
105.5594687279
 20
215.5159622546
 30
0.0
 11
106.3784346845
 21
220.4484365996
 31
0.0
  0
LINE
  5
90
330
1F
100
AcDbEntity
  8
0
  6
Continuous
 62
     7
370
     0
100
AcDbLine
 10
105.1296950247
 20
155.7450652238
 30
0.0
 11
105.1296950247
 21
203.7450637783
 31
0.0
  0
LINE
  5
91
330
1F
100
AcDbEntity
  8
0
  6
Continuous
 62
     7
370
     0
100
AcDbLine
 10
68.1296945479
 20
155.7450652238
 30
0.0
 11
105.1296950247
 21
155.7450652238
 31
0.0
  0
LINE
  5
92
330
1F
100
AcDbEntity
  8
0
  6
Continuous
 62
     7
370
     0
100
AcDbLine
 10
68.1296945479
 20
203.7450637783
 30
0.0
 11
68.1296945479
 21
155.7450652238
 31
0.0
  0
LINE
  5
93
330
1F
100
AcDbEntity
  8
0
  6
Continuous
 62
     7
370
     0
100
AcDbLine
 10
70.5296941962
 20
206.1450652893
 30
0.0
 11
68.1296945479
 21
203.7450637783
 31
0.0
  0
LINE
  5
94
330
1F
100
AcDbEntity
  8
0
  6
Continuous
 62
     7
370
     0
100
AcDbLine
 10
102.7296935137
 20
206.1450652893
 30
0.0
 11
70.5296941962
 21
206.1450652893
 31
0.0
  0
LINE
  5
95
330
1F
100
AcDbEntity
  8
0
  6
Continuous
 62
     7
370
     0
100
AcDbLine
 10
105.1296950247
 20
203.7450637783
 30
0.0
 11
102.7296935137
 21
206.1450652893
 31
0.0
  0
CIRCLE
  5
96
330
1F
100
AcDbEntity
  8
0
  6
Continuous
 62
     7
370
     0
100
AcDbCircle
 10
73.1296943442
 20
196.2450647059
 30
0.0
 40
2.30000000000004
  0
CIRCLE
  5
97
330
1F
100
AcDbEntity
  8
0
  6
Continuous
 62
     7
370
     0
100
AcDbCircle
 10
100.1296943442
 20
196.2450647059
 30
0.0
 40
2.300000000000011
  0
CIRCLE
  5
98
330
1F
100
AcDbEntity
  8
0
  6
Continuous
 62
     7
370
     0
100
AcDbCircle
 10
86.6296943442
 20
191.7450647059
 30
0.0
 40
2.624999999999972
  0
CIRCLE
  5
99
330
1F
100
AcDbEntity
  8
0
  6
Continuous
 62
     7
370
     0
100
AcDbCircle
 10
99.1296943442
 20
160.2450647059
 30
0.0
 40
2.624999999999972
  0
CIRCLE
  5
9A
330
1F
100
AcDbEntity
  8
0
  6
Continuous
 62
     7
370
     0
100
AcDbCircle
 10
74.1296943442
 20
160.2450647059
 30
0.0
 40
2.625
  0
LINE
  5
9B
330
1F
100
AcDbEntity
  8
0
  6
Continuous
 62
     7
370
     0
100
AcDbLine
 10
67.1296943839
 20
155.7450652238
 30
0.0
 11
67.1296943839
 21
202.7450654771
 31
0.0
  0
LINE
  5
9C
330
1F
100
AcDbEntity
  8
0
  6
Continuous
 62
     7
370
     0
100
AcDbLine
 10
67.1296943839
 20
202.7450654771
 30
0.0
 11
68.1296945479
 21
203.7450637783
 31
0.0
  0
LINE
  5
9D
330
1F
100
AcDbEntity
  8
0
  6
Continuous
 62
     7
370
     0
100
AcDbLine
 10
68.1296945479
 20
155.7450652238
 30
0.0
 11
67.1296943839
 21
155.7450652238
 31
0.0
  0
CIRCLE
  5
9E
330
1F
100
AcDbEntity
  8
0
  6
Continuous
 62
     7
370
     0
100
AcDbCircle
 10
99.1296943442
 20
160.2450647059
 30
0.0
 40
2.099999999999994
  0
CIRCLE
  5
9F
330
1F
100
AcDbEntity
  8
0
  6
Continuous
 62
     7
370
     0
100
AcDbCircle
 10
86.6296943442
 20
191.7450647059
 30
0.0
 40
2.099999999999994
  0
CIRCLE
  5
A0
330
1F
100
AcDbEntity
  8
0
  6
Continuous
 62
     7
370
     0
100
AcDbCircle
 10
74.1296943442
 20
160.2450647059
 30
0.0
 40
2.099999999999994
  0
CIRCLE
  5
A1
330
1F
100
AcDbEntity
  8
0
  6
Continuous
 62
     7
370
     0
100
AcDbCircle
 10
73.1296943442
 20
196.2450647059
 30
0.0
 40
2.0
  0
LINE
  5
A2
330
1F
100
AcDbEntity
  8
0
  6
Continuous
 62
     7
370
     0
100
AcDbLine
 10
106.1296951886
 20
202.7450654771
 30
0.0
 11
106.1296951886
 21
155.7450652238
 31
0.0
  0
LINE
  5
A3
330
1F
100
AcDbEntity
  8
0
  6
Continuous
 62
     7
370
     0
100
AcDbLine
 10
105.1296950247
 20
203.7450637783
 30
0.0
 11
106.1296951886
 21
202.7450654771
 31
0.0
  0
LINE
  5
A4
330
1F
100
AcDbEntity
  8
0
  6
Continuous
 62
     7
370
     0
100
AcDbLine
 10
106.1296951886
 20
155.7450652238
 30
0.0
 11
105.1296950247
 21
155.7450652238
 31
0.0
  0
CIRCLE
  5
A5
330
1F
100
AcDbEntity
  8
0
  6
Continuous
 62
     7
370
     0
100
AcDbCircle
 10
100.1296943442
 20
196.2450647059
 30
0.0
 40
2.0
  0
LINE
  5
A6
330
1F
100
AcDbEntity
  8
0
  6
Continuous
 62
     7
370
     0
100
AcDbLine
 10
72.1296942722
 20
207.7450662966
 30
0.0
 11
81.6296944324
 21
207.7450662966
 31
0.0
  0
LINE
  5
A7
330
1F
100
AcDbEntity
  8
0
  6
Continuous
 62
     7
370
     0
100
AcDbLine
 10
81.6296944324
 20
207.7450662966
 30
0.0
 11
81.6296944324
 21
209.1450639184
 31
0.0
  0
LINE
  5
A8
330
1F
100
AcDbEntity
  8
0
  6
Continuous
 62
     7
370
     0
100
AcDbLine
 10
81.6296944324
 20
209.1450639184
 30
0.0
 11
91.6296942089
 21
209.1450639184
 31
0.0
  0
LINE
  5
A9
330
1F
100
AcDbEntity
  8
0
  6
Continuous
 62
     7
370
     0
100
AcDbLine
 10
91.6296942089
 20
209.1450639184
 30
0.0
 11
91.6296942089
 21
207.7450662966
 31
0.0
  0
LINE
  5
AA
330
1F
100
AcDbEntity
  8
0
  6
Continuous
 62
     7
370
     0
100
AcDbLine
 10
91.6296942089
 20
207.7450662966
 30
0.0
 11
101.129694369
 21
207.7450662966
 31
0.0
  0
LINE
  5
AB
330
1F
100
AcDbEntity
  8
0
  6
Continuous
 62
     7
370
     0
100
AcDbLine
 10
101.129694369
 20
207.7450662966
 30
0.0
 11
102.7296935137
 21
206.1450652893
 31
0.0
  0
LINE
  5
AC
330
1F
100
AcDbEntity
  8
0
  6
Continuous
 62
     7
370
     0
100
AcDbLine
 10
70.5296941962
 20
206.1450652893
 30
0.0
 11
72.1296942722
 21
207.7450662966
 31
0.0
  0
LINE
  5
AD
330
1F
100
AcDbEntity
  8
0
  6
Continuous
 62
     7
370
     0
100
AcDbLine
 10
80.6296942685
 20
140.7450646277
 30
0.0
 11
92.6296943728
 21
140.7450646277
 31
0.0
  0
LINE
  5
AE
330
1F
100
AcDbEntity
  8
0
  6
Continuous
 62
     7
370
     0
100
AcDbLine
 10
91.6296942089
 20
139.7450663264
 30
0.0
 11
81.6296944324
 21
139.7450663264
 31
0.0
  0
LINE
  5
AF
330
1F
100
AcDbEntity
  8
0
  6
Continuous
 62
     7
370
     0
100
AcDbLine
 10
67.1296943839
 20
180.4872010018
 30
0.0
 11
65.4160422202
 21
190.8081941422
 31
0.0
  0
LINE
  5
B0
330
1F
100
AcDbEntity
  8
0
  6
Continuous
 62
     7
370
     0
100
AcDbLine
 10
65.4160422202
 20
190.8081941422
 30
0.0
 11
67.1296943839
 21
202.0376030471
 31
0.0
  0
LINE
  5
B1
330
1F
100
AcDbEntity
  8
0
  6
Continuous
 62
     7
370
     0
100
AcDbLine
 10
67.2570974495
 20
202.8724685426
 30
0.0
 11
73.5937734064
 21
244.3961225565
 31
0.0
  0
LINE
  5
B2
330
1F
100
AcDbEntity
  8
0
  6
Continuous
 62
     7
370
     0
100
AcDbLine
 10
74.4401947524
 20
245.0184173997
 30
0.0
 11
73.5937734064
 21
244.3961225565
 31
0.0
  0
LINE
  5
B3
330
1F
100
AcDbEntity
  8
0
  6
Continuous
 62
     7
370
     0
100
AcDbLine
 10
74.4401947524
 20
245.0184173997
 30
0.0
 11
78.108428039
 21
245.6274725612
 31
0.0
  0
LINE
  5
B4
330
1F
100
AcDbEntity
  8
0
  6
Continuous
 62
     7
370
     0
100
AcDbLine
 10
78.108428039
 20
245.6274725612
 30
0.0
 11
83.8411922961
 21
211.100159597
 31
0.0
  0
LINE
  5
B5
330
1F
100
AcDbEntity
  8
0
  6
Continuous
 62
     7
370
     0
100
AcDbLine
 10
83.8411922961
 20
211.100159597
 30
0.0
 11
76.9357294705
 21
209.9536046501
 31
0.0
  0
ARC
  5
B6
330
1F
100
AcDbEntity
  8
0
  6
Continuous
 62
     7
370
     0
100
AcDbCircle
 10
77.2633159287
 20
207.9806163588
 30
0.0
 40
2.000000000000027
100
AcDbArc
 50
99.427139692
 51
186.7637565217
  0
LINE
  5
B7
330
1F
100
AcDbEntity
  8
0
  6
Continuous
 62
     7
370
     0
100
AcDbLine
 10
89.4181965779
 20
211.100159597
 30
0.0
 11
96.3236591708
 21
209.9536046501
 31
0.0
  0
LINE
  5
B8
330
1F
100
AcDbEntity
  8
0
  6
Continuous
 62
     7
370
     0
100
AcDbLine
 10
95.1509601366
 20
245.6274725612
 30
0.0
 11
89.4181965779
 21
211.100159597
 31
0.0
  0
LINE
  5
B9
330
1F
100
AcDbEntity
  8
0
  6
Continuous
 62
     7
370
     0
100
AcDbLine
 10
102.0564236607
 20
244.4809176143
 30
0.0
 11
95.1509601366
 21
245.6274725612
 31
0.0
  0
LINE
  5
BA
330
1F
100
AcDbEntity
  8
0
  6
Continuous
 62
     7
370
     0
100
AcDbLine
 10
102.8791242208
 20
243.3306299265
 30
0.0
 11
102.0564236607
 21
244.4809176143
 31
0.0
  0
LINE
  5
BB
330
1F
100
AcDbEntity
  8
0
  6
Continuous
 62
     7
370
     0
100
AcDbLine
 10
102.8791242208
 20
243.3306299265
 30
0.0
 11
101.8144679185
 21
236.9184143956
 31
0.0
  0
LINE
  5
BC
330
1F
100
AcDbEntity
  8
0
  6
Continuous
 62
     7
370
     0
100
AcDbLine
 10
101.8144679185
 20
236.9184143956
 30
0.0
 11
101.3212208565
 21
237.0003111776
 31
0.0
  0
ARC
  5
BD
330
1F
100
AcDbEntity
  8
0
  6
Continuous
 62
     7
370
     0
100
AcDbCircle
 10
100.8298415047
 20
234.0408289389
 30
0.0
 40
3.000000000000005
100
AcDbArc
 50
80.572860308
 51
170.572860308
  0
LINE
  5
BE
330
1F
100
AcDbEntity
  8
0
  6
Continuous
 62
     7
370
     0
100
AcDbLine
 10
97.8703577932
 20
234.5322094973
 30
0.0
 11
96.2324249487
 21
224.6672608073
 31
0.0
  0
ARC
  5
BF
330
1F
100
AcDbEntity
  8
0
  6
Continuous
 62
     7
370
     0
100
AcDbCircle
 10
99.1919089005
 20
224.1758820671
 30
0.0
 40
3.000000000000002
100
AcDbArc
 50
170.572860308
 51
260.572860308
  0
LINE
  5
C0
330
1F
100
AcDbEntity
  8
0
  6
Continuous
 62
     7
370
     0
100
AcDbLine
 10
98.700529423
 20
221.216397744
 30
0.0
 11
102.1532607194
 21
220.6431202706
 31
0.0
  0
LINE
  5
C1
330
1F
100
AcDbEntity
  8
0
  6
Continuous
 62
     7
370
     0
100
AcDbLine
 10
101.7588102188
 20
218.2674281414
 30
0.0
 11
102.1532607194
 21
220.6431202706
 31
0.0
  0
ARC
  5
C2
330
1F
100
AcDbEntity
  8
0
  6
Continuous
 62
     7
370
     0
100
AcDbCircle
 10
111.6237579385
 20
216.629497259
 30
0.0
 40
10.00000000000001
100
AcDbArc
 50
170.572860308
 51
194.2022380386
  0
LINE
  5
C3
330
1F
100
AcDbEntity
  8
0
  6
Continuous
 62
     7
370
     0
100
AcDbLine
 10
104.3793898936
 20
204.4953689094
 30
0.0
 11
101.9294005748
 21
214.1760461147
 31
0.0
  0
ARC
  5
C4
330
1F
100
AcDbEntity
  8
0
  6
Continuous
 62
     7
370
     0
100
AcDbCircle
 10
95.9960727598
 20
207.9806163588
 30
0.0
 40
1.999999999999992
100
AcDbArc
 50
353.2362434783
 51
80.572860308
  0
CIRCLE
  5
C5
330
1F
100
AcDbEntity
  8
0
  6
Continuous
 62
     7
370
     0
100
AcDbCircle
 10
98.6390652298
 20
240.993562165
 30
0.0
 40
1.00000000000001
  0
CIRCLE
  5
C6
330
1F
100
AcDbEntity
  8
0
  6
Continuous
 62
     7
370
     0
100
AcDbCircle
 10
93.2301525111
 20
214.5219988715
 30
0.0
 40
1.500000000000004
  0
LINE
  5
C7
330
1F
100
AcDbEntity
  8
0
  6
Continuous
 62
     7
370
     0
100
AcDbLine
 10
106.1296951886
 20
180.4872010018
 30
0.0
 11
107.8433473524
 21
190.8081941422
 31
0.0
  0
LINE
  5
C8
330
1F
100
AcDbEntity
  8
0
  6
Continuous
 62
     7
370
     0
100
AcDbLine
 10
107.8433473524
 20
190.8081941422
 30
0.0
 11
106.1296951886
 21
197.579369333
 31
0.0
  0
LINE
  5
C9
330
1F
100
AcDbEntity
  8
0
  6
Continuous
 62
     7
370
     0
100
AcDbLine
 10
101.8144679185
 20
236.9184143956
 30
0.0
 11
101.5687794354
 21
235.4386732097
 31
0.0
  0
LINE
  5
CA
330
1F
100
AcDbEntity
  8
0
  6
Continuous
 62
     7
370
     0
100
AcDbLine
 10
102.3989510651
 20
222.1228651817
 30
0.0
 11
102.1532607194
 21
220.6431202706
 31
0.0
  0
CIRCLE
  5
CB
330
1F
100
AcDbEntity
  8
0
  6
Continuous
 62
     7
370
     0
100
AcDbCircle
 10
100.1296943442
 20
196.2450647059
 30
0.0
 40
1.5
  0
CIRCLE
  5
CC
330
1F
100
AcDbEntity
  8
0
  6
Continuous
 62
     7
370
     0
100
AcDbCircle
 10
73.1296943442
 20
196.2450647059
 30
0.0
 40
1.5
  0
LINE
  5
CD
330
1F
100
AcDbEntity
  8
0
  6
Continuous
 62
     7
370
     0
100
AcDbLine
 10
85.7485759263
 20
137.0450653251
 30
0.0
 11
87.0132768689
 21
137.0450653251
 31
0.0
  0
LINE
  5
CE
330
1F
100
AcDbEntity
  8
0
  6
Continuous
 62
     7
370
     0
100
AcDbLine
 10
85.7485759263
 20
137.0450653251
 30
0.0
 11
85.7485759263
 21
139.7450663264
 31
0.0
  0
LINE
  5
CF
330
1F
100
AcDbEntity
  8
0
  6
Continuous
 62
     7
370
     0
100
AcDbLine
 10
87.0132768689
 20
139.7450663264
 30
0.0
 11
87.0132768689
 21
137.0450653251
 31
0.0
  0
SPLINE
  5
D0
330
1F
100
AcDbEntity
  8
0
  6
Continuous
 62
     7
370
     0
100
AcDbSpline
210
0.0
220
0.0
230
1.0
 70
     8
 71
     3
 72
     8
 73
     4
 74
     0
 42
0.000000001
 43
0.00000001
 40
0.0
 40
0.0
 40
0.0
 40
0.0
 40
1.0
 40
1.0
 40
1.0
 40
1.0
 10
87.01327687929093
 20
137.0450647057886
 30
0.0
 10
87.4686255287322
 20
136.8581081841058
 30
0.0
 10
87.93653382210222
 20
136.7450647058176
 30
0.0
 10
88.42365098196844
 20
136.7450647058074
 30
0.0
  0
LINE
  5
D1
330
1F
100
AcDbEntity
  8
0
  6
Continuous
 62
     7
370
     0
100
AcDbLine
 10
84.4304992281
 20
136.7450639721
 30
0.0
 11
88.4236509375
 21
136.7450639721
 31
0.0
  0
SPLINE
  5
D2
330
1F
100
AcDbEntity
  8
0
  6
Continuous
 62
     7
370
     0
100
AcDbSpline
210
0.0
220
0.0
230
1.0
 70
     8
 71
     3
 72
     8
 73
     4
 74
     0
 42
0.000000001
 43
0.00000001
 40
0.0
 40
0.0
 40
0.0
 40
0.0
 40
1.0
 40
1.0
 40
1.0
 40
1.0
 10
84.43049926898865
 20
136.7450647059267
 30
0.0
 10
84.8857385959331
 20
136.7450647059023
 30
0.0
 10
85.3230261192966
 20
136.8581081841014
 30
0.0
 10
85.74857592493161
 20
137.0450647057699
 30
0.0
  0
LINE
  5
D3
330
1F
100
AcDbEntity
  8
0
  6
Continuous
 62
     7
370
     0
100
AcDbLine
 10
89.8340251226
 20
137.0450653251
 30
0.0
 11
89.8340251226
 21
139.7450663264
 31
0.0
  0
SPLINE
  5
D4
330
1F
100
AcDbEntity
  8
0
  6
Continuous
 62
     7
370
     0
100
AcDbSpline
210
0.0
220
0.0
230
1.0
 70
     8
 71
     3
 72
     8
 73
     4
 74
     0
 42
0.000000001
 43
0.00000001
 40
0.0
 40
0.0
 40
0.0
 40
0.0
 40
1.0
 40
1.0
 40
1.0
 40
1.0
 10
88.42365098195701
 20
136.7450647058226
 30
0.0
 10
88.91076814174178
 20
136.7450647058131
 30
0.0
 10
89.378676434797
 20
136.8581081839515
 30
0.0
 10
89.83402508418571
 20
137.0450647055445
 30
0.0
  0
SPLINE
  5
D5
330
1F
100
AcDbEntity
  8
0
  6
Continuous
 62
     7
370
     0
100
AcDbSpline
210
0.0
220
0.0
230
1.0
 70
     8
 71
     3
 72
     8
 73
     4
 74
     0
 42
0.000000001
 43
0.00000001
 40
0.0
 40
0.0
 40
0.0
 40
0.0
 40
1.0
 40
1.0
 40
1.0
 40
1.0
 10
83.11242261308129
 20
137.045064705886
 30
0.0
 10
83.53797241865406
 20
136.8581081842124
 30
0.0
 10
83.97525994210112
 20
136.7450647059512
 30
0.0
 10
84.43049926898865
 20
136.7450647059267
 30
0.0
  0
LINE
  5
D6
330
1F
100
AcDbEntity
  8
0
  6
Continuous
 62
     7
370
     0
100
AcDbLine
 10
83.1124226026
 20
139.7450663264
 30
0.0
 11
83.1124226026
 21
137.0450653251
 31
0.0
  0
LINE
  5
D7
330
1F
100
AcDbEntity
  8
0
  6
Continuous
 62
     7
370
     0
100
AcDbLine
 10
89.8340251226
 20
137.0450653251
 30
0.0
 11
90.5305487033
 21
137.0450653251
 31
0.0
  0
SPLINE
  5
D8
330
1F
100
AcDbEntity
  8
0
  6
Continuous
 62
     7
370
     0
100
AcDbSpline
210
0.0
220
0.0
230
1.0
 70
     8
 71
     3
 72
     8
 73
     4
 74
     0
 42
0.000000001
 43
0.00000001
 40
0.0
 40
0.0
 40
0.0
 40
0.0
 40
1.0
 40
1.0
 40
1.0
 40
1.0
 10
90.53054861055497
 20
137.0450647058936
 30
0.0
 10
90.56034745440824
 20
136.858108184203
 30
0.0
 10
90.59096822411668
 20
136.745064705931
 30
0.0
 10
90.62284605707637
 20
136.7450647058075
 30
0.0
  0
LINE
  5
D9
330
1F
100
AcDbEntity
  8
0
  6
Continuous
 62
     7
370
     0
100
AcDbLine
 10
88.4236509375
 20
136.7450639721
 30
0.0
 11
90.6228460301
 21
136.7450639721
 31
0.0
  0
LINE
  5
DA
330
1F
100
AcDbEntity
  8
0
  6
Continuous
 62
     7
370
     0
100
AcDbLine
 10
82.5442452844
 20
137.0450653251
 30
0.0
 11
83.1124226026
 21
137.0450653251
 31
0.0
  0
SPLINE
  5
DB
330
1F
100
AcDbEntity
  8
0
  6
Continuous
 62
     7
370
     0
100
AcDbSpline
210
0.0
220
0.0
230
1.0
 70
     8
 71
     3
 72
     8
 73
     4
 74
     0
 42
0.000000001
 43
0.00000001
 40
0.0
 40
0.0
 40
0.0
 40
0.0
 40
1.0
 40
1.0
 40
1.0
 40
1.0
 10
82.63654263142439
 20
136.7450647058225
 30
0.0
 10
82.60466479845677
 20
136.7450647057831
 30
0.0
 10
82.57404402862353
 20
136.858108183997
 30
0.0
 10
82.54424518476168
 20
137.0450647056724
 30
0.0
  0
LINE
  5
DC
330
1F
100
AcDbEntity
  8
0
  6
Continuous
 62
     7
370
     0
100
AcDbLine
 10
82.6365426112
 20
136.7450639721
 30
0.0
 11
84.4304992281
 21
136.7450639721
 31
0.0
  0
LINE
  5
DD
330
1F
100
AcDbEntity
  8
0
  6
Continuous
 62
     7
370
     0
100
AcDbLine
 10
90.5305487033
 20
139.7450663264
 30
0.0
 11
90.5305487033
 21
137.0450653251
 31
0.0
  0
LINE
  5
DE
330
1F
100
AcDbEntity
  8
0
  6
Continuous
 62
     7
370
     0
100
AcDbLine
 10
82.5442452844
 20
137.0450653251
 30
0.0
 11
82.5442452844
 21
139.7450663264
 31
0.0
  0
LINE
  5
DF
330
1F
100
AcDbEntity
  8
0
  6
Continuous
 62
     7
370
     0
100
AcDbLine
 10
90.7151433568
 20
137.0450653251
 30
0.0
 11
90.7151433568
 21
139.7450663264
 31
0.0
  0
SPLINE
  5
E0
330
1F
100
AcDbEntity
  8
0
  6
Continuous
 62
     7
370
     0
100
AcDbSpline
210
0.0
220
0.0
230
1.0
 70
     8
 71
     3
 72
     8
 73
     4
 74
     0
 42
0.000000001
 43
0.00000001
 40
0.0
 40
0.0
 40
0.0
 40
0.0
 40
1.0
 40
1.0
 40
1.0
 40
1.0
 10
90.62284605706346
 20
136.7450647058129
 30
0.0
 10
90.6547238900582
 20
136.7450647056896
 30
0.0
 10
90.68534465989408
 20
136.8581081840335
 30
0.0
 10
90.71514350377954
 20
137.0450647059285
 30
0.0
  0
LINE
  5
E1
330
1F
100
AcDbEntity
  8
0
  6
Continuous
 62
     7
370
     0
100
AcDbLine
 10
85.640056561
 20
134.2450663562
 30
0.0
 11
88.4296942897
 21
134.2450663562
 31
0.0
  0
LINE
  5
E2
330
1F
100
AcDbEntity
  8
0
  6
Continuous
 62
     7
370
     0
100
AcDbLine
 10
84.8296943515
 20
134.2450663562
 30
0.0
 11
85.640056561
 21
134.2450663562
 31
0.0
  0
LINE
  5
E3
330
1F
100
AcDbEntity
  8
0
  6
Continuous
 62
     7
370
     0
100
AcDbLine
 10
88.1332291685
 20
134.7450636442
 30
0.0
 11
88.4296942897
 21
134.7450636442
 31
0.0
  0
LINE
  5
E4
330
1F
100
AcDbEntity
  8
0
  6
Continuous
 62
     7
370
     0
100
AcDbLine
 10
84.8296943515
 20
134.7450636442
 30
0.0
 11
88.1332291685
 21
134.7450636442
 31
0.0
  0
LINE
  5
E5
330
1F
100
AcDbEntity
  8
0
  6
Continuous
 62
     7
370
     0
100
AcDbLine
 10
85.640056561
 20
131.7450650151
 30
0.0
 11
88.4296942897
 21
131.7450650151
 31
0.0
  0
LINE
  5
E6
330
1F
100
AcDbEntity
  8
0
  6
Continuous
 62
     7
370
     0
100
AcDbLine
 10
84.8296943515
 20
131.7450650151
 30
0.0
 11
85.640056561
 21
131.7450650151
 31
0.0
  0
LINE
  5
E7
330
1F
100
AcDbEntity
  8
0
  6
Continuous
 62
     7
370
     0
100
AcDbLine
 10
88.1332291685
 20
132.2450660284
 30
0.0
 11
88.4296942897
 21
132.2450660284
 31
0.0
  0
LINE
  5
E8
330
1F
100
AcDbEntity
  8
0
  6
Continuous
 62
     7
370
     0
100
AcDbLine
 10
84.8296943515
 20
132.2450660284
 30
0.0
 11
88.1332291685
 21
132.2450660284
 31
0.0
  0
LINE
  5
E9
330
1F
100
AcDbEntity
  8
0
  6
Continuous
 62
     7
370
     0
100
AcDbLine
 10
85.80499619
 20
129.7450646873
 30
0.0
 11
88.1296943337
 21
129.7450646873
 31
0.0
  0
LINE
  5
EA
330
1F
100
AcDbEntity
  8
0
  6
Continuous
 62
     7
370
     0
100
AcDbLine
 10
85.1296943658
 20
129.7450646873
 30
0.0
 11
85.80499619
 21
129.7450646873
 31
0.0
  0
ARC
  5
EB
330
1F
100
AcDbEntity
  8
0
  6
Continuous
 62
     7
370
     0
100
AcDbCircle
 10
94.9019983684
 20
243.9854567523
 30
0.0
 40
1.000000000000006
100
AcDbArc
 50
88.3062575984
 51
172.2972516409
  0
LINE
  5
EC
330
1F
100
AcDbEntity
  8
0
  6
Continuous
 62
     7
370
     0
100
AcDbLine
 10
102.8686840948
 20
242.749447387
 30
0.0
 11
102.795515668
 21
242.8270749863
 31
0.0
  0
LINE
  5
ED
330
1F
100
AcDbEntity
  8
0
  6
Continuous
 62
     7
370
     0
100
AcDbLine
 10
101.0845755156
 20
244.6422822889
 30
0.0
 11
100.9286721166
 21
244.8076851781
 31
0.0
  0
LINE
  5
EE
330
1F
100
AcDbEntity
  8
0
  6
Continuous
 62
     7
370
     0
100
AcDbLine
 10
93.9110214751
 20
244.1194899495
 30
0.0
 11
90.1906210858
 21
216.6127510484
 31
0.0
  0
LINE
  5
EF
330
1F
100
AcDbEntity
  8
0
  6
Continuous
 62
     7
370
     0
100
AcDbLine
 10
101.8739161011
 20
237.2764594968
 30
0.0
 11
102.2063386556
 21
237.2666247304
 31
0.0
  0
ARC
  5
F0
330
1F
100
AcDbEntity
  8
0
  6
Continuous
 62
     7
370
     0
100
AcDbCircle
 10
102.2211174854
 20
237.7664078515
 30
0.0
 40
0.5000000000000028
100
AcDbArc
 50
268.3062575984
 51
358.3062575984
  0
LINE
  5
F1
330
1F
100
AcDbEntity
  8
0
  6
Continuous
 62
     7
370
     0
100
AcDbLine
 10
90.1906210858
 20
216.6127510484
 30
0.0
 11
90.1596648548
 21
215.5658774193
 31
0.0
  0
LINE
  5
F2
330
1F
100
AcDbEntity
  8
0
  6
Continuous
 62
     7
370
     0
100
AcDbLine
 10
100.9286721166
 20
244.8076851781
 30
0.0
 11
99.9063015844
 21
244.8379196342
 31
0.0
  0
LINE
  5
F3
330
1F
100
AcDbEntity
  8
0
  6
Continuous
 62
     7
370
     0
100
AcDbLine
 10
95.0437397625
 20
244.9817009385
 30
0.0
 11
94.9315554391
 21
244.9850164469
 31
0.0
  0
LINE
  5
F4
330
1F
100
AcDbEntity
  8
0
  6
Continuous
 62
     7
370
     0
100
AcDbLine
 10
102.7208981033
 20
237.751627725
 30
0.0
 11
102.8686840948
 21
242.749447387
 31
0.0
  0
SPLINE
  5
F5
330
1F
100
AcDbEntity
  8
0
  6
Continuous
 62
     7
370
     0
100
AcDbSpline
210
0.0
220
0.0
230
1.0
 70
    24
 71
     3
 72
     8
 73
     4
 74
     0
 42
0.000000001
 43
0.00000001
 40
0.0
 40
0.0
 40
0.0
 40
0.0
 40
1.0
 40
1.0
 40
1.0
 40
1.0
 10
100.390664498889
 20
226.1661723764051
 30
0.0
 10
100.4186341647254
 20
226.127772224608
 30
0.0
 10
100.4475130366069
 20
226.0881238044064
 30
0.0
 10
100.4788285255665
 20
226.04513010056
 30
0.0
  0
ARC
  5
F6
330
1F
100
AcDbEntity
  8
0
  6
Continuous
 62
     7
370
     0
100
AcDbCircle
 10
100.4240934783
 20
225.4918308374
 30
0.0
 40
0.6751696141507156
100
AcDbArc
 50
69.2992431804
 51
92.8379873915
  0
SPLINE
  5
F7
330
1F
100
AcDbEntity
  8
0
  6
Continuous
 62
     7
370
     0
100
AcDbSpline
210
0.0
220
0.0
230
1.0
 70
    24
 71
     3
 72
     8
 73
     4
 74
     0
 42
0.000000001
 43
0.00000001
 40
0.0
 40
0.0
 40
0.0
 40
0.0
 40
1.0
 40
1.0
 40
1.0
 40
1.0
 10
100.6627572947247
 20
226.1234110703149
 30
0.0
 10
100.6243571429275
 20
226.0954414044784
 30
0.0
 10
100.5847087227259
 20
226.0665625325969
 30
0.0
 10
100.5417150188796
 20
226.0352470436373
 30
0.0
  0
ARC
  5
F8
330
1F
100
AcDbEntity
  8
0
  6
Continuous
 62
     7
370
     0
100
AcDbCircle
 10
100.4240934783
 20
225.4918308374
 30
0.0
 40
0.556000000000008
100
AcDbArc
 50
77.7868256677
 51
84.3504049043
  0
ARC
  5
F9
330
1F
100
AcDbEntity
  8
0
  6
Continuous
 62
     7
370
     0
100
AcDbCircle
 10
100.4240934783
 20
225.4918308374
 30
0.0
 40
0.6751696141506924
100
AcDbArc
 50
249.2992431804
 51
272.8379873915
  0
SPLINE
  5
FA
330
1F
100
AcDbEntity
  8
0
  6
Continuous
 62
     7
370
     0
100
AcDbSpline
210
0.0
220
0.0
230
1.0
 70
    24
 71
     3
 72
     8
 73
     4
 74
     0
 42
0.000000001
 43
0.00000001
 40
0.0
 40
0.0
 40
0.0
 40
0.0
 40
1.0
 40
1.0
 40
1.0
 40
1.0
 10
100.1854296618314
 20
224.8602506045125
 30
0.0
 10
100.2238298136285
 20
224.8882202703489
 30
0.0
 10
100.2634782338301
 20
224.9170991422304
 30
0.0
 10
100.3064719376765
 20
224.94841463119
 30
0.0
  0
ARC
  5
FB
330
1F
100
AcDbEntity
  8
0
  6
Continuous
 62
     7
370
     0
100
AcDbCircle
 10
100.4240934783
 20
225.4918308374
 30
0.0
 40
0.5559999999999803
100
AcDbArc
 50
257.7868256677
 51
264.3504049043
  0
SPLINE
  5
FC
330
1F
100
AcDbEntity
  8
0
  6
Continuous
 62
     7
370
     0
100
AcDbSpline
210
0.0
220
0.0
230
1.0
 70
    24
 71
     3
 72
     8
 73
     4
 74
     0
 42
0.000000001
 43
0.00000001
 40
0.0
 40
0.0
 40
0.0
 40
0.0
 40
1.0
 40
1.0
 40
1.0
 40
1.0
 10
100.4575224576671
 20
224.8174892984222
 30
0.0
 10
100.4295527918306
 20
224.8558894502194
 30
0.0
 10
100.4006739199492
 20
224.895537870421
 30
0.0
 10
100.3693584309895
 20
224.9385315742673
 30
0.0
  0
ARC
  5
FD
330
1F
100
AcDbEntity
  8
0
  6
Continuous
 62
     7
370
     0
100
AcDbCircle
 10
100.4240934783
 20
225.4918308374
 30
0.0
 40
0.5560000000000002
100
AcDbArc
 50
167.7868256677
 51
174.3504049043
  0
ARC
  5
FE
330
1F
100
AcDbEntity
  8
0
  6
Continuous
 62
     7
370
     0
100
AcDbCircle
 10
100.4240934783
 20
225.4918308374
 30
0.0
 40
0.6751696141507073
100
AcDbArc
 50
159.2992431804
 51
182.8379873915
  0
SPLINE
  5
FF
330
1F
100
AcDbEntity
  8
0
  6
Continuous
 62
     7
370
     0
100
AcDbSpline
210
0.0
220
0.0
230
1.0
 70
    24
 71
     3
 72
     8
 73
     4
 74
     0
 42
0.000000001
 43
0.00000001
 40
0.0
 40
0.0
 40
0.0
 40
0.0
 40
1.0
 40
1.0
 40
1.0
 40
1.0
 10
99.79251324537685
 20
225.7304946538603
 30
0.0
 10
99.82048291121328
 20
225.6920945020632
 30
0.0
 10
99.84936178309475
 20
225.6524460818616
 30
0.0
 10
99.88067727205438
 20
225.6094523780152
 30
0.0
  0
SPLINE
  5
100
330
1F
100
AcDbEntity
  8
0
  6
Continuous
 62
     7
370
     0
100
AcDbSpline
210
0.0
220
0.0
230
1.0
 70
    24
 71
     3
 72
     8
 73
     4
 74
     0
 42
0.000000001
 43
0.00000001
 40
0.0
 40
0.0
 40
0.0
 40
0.0
 40
1.0
 40
1.0
 40
1.0
 40
1.0
 10
99.74975193928655
 20
225.4584018580246
 30
0.0
 10
99.78815209108373
 20
225.4863715238611
 30
0.0
 10
99.82780051128532
 20
225.5152503957426
 30
0.0
 10
99.87079421513165
 20
225.5465658847022
 30
0.0
  0
ARC
  5
101
330
1F
100
AcDbEntity
  8
0
  6
Continuous
 62
     7
370
     0
100
AcDbCircle
 10
94.7353132681
 20
233.3021057747
 30
0.0
 40
10.97500311636428
100
AcDbArc
 50
304.1365596751
 51
308.0005100962
  0
ARC
  5
102
330
1F
100
AcDbEntity
  8
0
  6
Continuous
 62
     7
370
     0
100
AcDbCircle
 10
100.4240934783
 20
225.4918308374
 30
0.0
 40
0.6751696141506924
100
AcDbArc
 50
339.2992431804
 51
2.8379873915
  0
ARC
  5
103
330
1F
100
AcDbEntity
  8
0
  6
Continuous
 62
     7
370
     0
100
AcDbCircle
 10
92.6145995976
 20
219.8035908567
 30
0.0
 40
10.97405463866707
100
AcDbArc
 50
34.1365063422
 51
38.0007965766
  0
LWPOLYLINE
  5
104
330
1F
100
AcDbEntity
  8
0
  6
Continuous
 62
     7
370
     0
100
AcDbPolyline
 90
        9
 70
   128
 43
0.0
 10
101.2621787306
 20
226.5600137528
 10
101.188297842
 20
226.5062019344
 10
101.1140639823
 20
226.4521293457
 10
101.0395041596
 20
226.3978220637
 10
100.964644451
 20
226.3432987149
 10
100.8895137276
 20
226.2885742005
 10
100.8141371351
 20
226.233670872
 10
100.738542613
 20
226.1786110814
 10
100.6627571698
 20
226.1234097298
  0
ARC
  5
105
330
1F
100
AcDbEntity
  8
0
  6
Continuous
 62
     7
370
     0
100
AcDbCircle
 10
106.1123692365
 20
217.682250206
 30
0.0
 40
10.97414619568712
100
AcDbArc
 50
124.1364087588
 51
128.0006610125
  0
ARC
  5
106
330
1F
100
AcDbEntity
  8
0
  6
Continuous
 62
     7
370
     0
100
AcDbCircle
 10
108.232547964
 20
231.1793147462
 30
0.0
 40
10.97276905482687
100
AcDbArc
 50
214.1362798837
 51
218.001023035
  0
LWPOLYLINE
  5
107
330
1F
100
AcDbEntity
  8
0
  6
Continuous
 62
     7
370
     0
100
AcDbPolyline
 90
        9
 70
   128
 43
0.0
 10
99.5860085752
 20
224.4236491736
 10
99.6598894637
 20
224.4774609919
 10
99.7341233235
 20
224.5315298553
 10
99.8086831461
 20
224.5858371373
 10
99.8835419234
 20
224.6403642114
 10
99.9586735781
 20
224.6950887259
 10
100.0340492394
 20
224.749988329
 10
100.1096437614
 20
224.8050518449
 10
100.1854292046
 20
224.8602494713
  0
CIRCLE
  5
108
330
1F
100
AcDbEntity
  8
0
  6
Continuous
 62
     7
370
     0
100
AcDbCircle
 10
100.4240934783
 20
225.4918308374
 30
0.0
 40
2.674418604651177
  0
LWPOLYLINE
  5
109
330
1F
100
AcDbEntity
  8
0
  6
Continuous
 62
     7
370
     0
100
AcDbPolyline
 90
        9
 70
   128
 43
0.0
 10
100.3906647604
 20
226.1661723371
 10
100.3354643401
 20
226.241959643
 10
100.2804026868
 20
226.3175532337
 10
100.225501221
 20
226.3929307576
 10
100.1707776379
 20
226.468058687
 10
100.1162524264
 20
226.5429183956
 10
100.0619451444
 20
226.6174800809
 10
100.0078744184
 20
226.6917139407
 10
99.9540616687
 20
226.7655938979
  0
LWPOLYLINE
  5
10A
330
1F
100
AcDbEntity
  8
0
  6
Continuous
 62
     7
370
     0
100
AcDbPolyline
 90
        9
 70
   128
 43
0.0
 10
101.0984354581
 20
225.525258493
 10
101.1742209013
 20
225.5804598447
 10
101.2498154234
 20
225.6355196353
 10
101.3251910846
 20
225.6904229637
 10
101.4003227394
 20
225.7451474782
 10
101.4751815166
 20
225.799670827
 10
101.5497413393
 20
225.8539781089
 10
101.6239751991
 20
225.9080506976
 10
101.6978570189
 20
225.961862516
  0
LWPOLYLINE
  5
10B
330
1F
100
AcDbEntity
  8
0
  6
Continuous
 62
     7
370
     0
100
AcDbPolyline
 90
        9
 70
   128
 43
0.0
 10
101.4922768738
 20
224.6537454541
 10
101.4384631928
 20
224.7276254113
 10
101.3843933981
 20
224.8018592711
 10
101.3300861161
 20
224.8764209564
 10
101.2755609046
 20
224.951280665
 10
101.2208373215
 20
225.0264123197
 10
101.1659349244
 20
225.1017861183
 10
101.1108742025
 20
225.1773797091
 10
101.0556737821
 20
225.2531670149
  0
LWPOLYLINE
  5
10C
330
1F
100
AcDbEntity
  8
0
  6
Continuous
 62
     7
370
     0
100
AcDbPolyline
 90
        9
 70
   128
 43
0.0
 10
100.4575225454
 20
224.8174905892
 10
100.5127229657
 20
224.7417032834
 10
100.5677836876
 20
224.6661096926
 10
100.6226860847
 20
224.5907321687
 10
100.6774096679
 20
224.515600514
 10
100.7319348793
 20
224.4407445307
 10
100.7862421613
 20
224.3661828454
 10
100.840311956
 20
224.2919489856
 10
100.894125637
 20
224.2180690284
  0
LWPOLYLINE
  5
10D
330
1F
100
AcDbEntity
  8
0
  6
Continuous
 62
     7
370
     0
100
AcDbPolyline
 90
        9
 70
   128
 43
0.0
 10
99.3559104319
 20
226.3299174722
 10
99.4097231816
 20
226.2560337897
 10
99.4637939077
 20
226.1817999299
 10
99.5181011896
 20
226.1072419699
 10
99.5726264011
 20
226.0323822613
 10
99.6273499843
 20
225.9572506066
 10
99.68225145
 20
225.8818730827
 10
99.7373131033
 20
225.806279492
 10
99.7925135236
 20
225.7304959114
  0
LWPOLYLINE
  5
10E
330
1F
100
AcDbEntity
  8
0
  6
Continuous
 62
     7
370
     0
100
AcDbPolyline
 90
        9
 70
   128
 43
0.0
 10
99.7497518476
 20
225.458400708
 10
99.6739664044
 20
225.4032030817
 10
99.5983718823
 20
225.3481395658
 10
99.5229952898
 20
225.2932399626
 10
99.4478645664
 20
225.2385154482
 10
99.3730057891
 20
225.1839883741
 10
99.2984459664
 20
225.1296810921
 10
99.2242121067
 20
225.0756122287
 10
99.1503302868
 20
225.0218004103
  0
ARC
  5
10F
330
1F
100
AcDbEntity
  8
0
  6
Continuous
 62
     7
370
     0
100
AcDbCircle
 10
100.4240934783
 20
225.4918308374
 30
0.0
 40
0.5560000000000057
100
AcDbArc
 50
347.7868256677
 51
354.3504049043
  0
SPLINE
  5
110
330
1F
100
AcDbEntity
  8
0
  6
Continuous
 62
     7
370
     0
100
AcDbSpline
210
0.0
220
0.0
230
1.0
 70
    24
 71
     3
 72
     8
 73
     4
 74
     0
 42
0.000000001
 43
0.00000001
 40
0.0
 40
0.0
 40
0.0
 40
0.0
 40
1.0
 40
1.0
 40
1.0
 40
1.0
 10
101.0984350172695
 20
225.5252598168027
 30
0.0
 10
101.0600348654723
 20
225.4972901509663
 30
0.0
 10
101.0203864452708
 20
225.4684112790848
 30
0.0
 10
100.9773927414244
 20
225.4370957901252
 30
0.0
  0
SPLINE
  5
111
330
1F
100
AcDbEntity
  8
0
  6
Continuous
 62
     7
370
     0
100
AcDbSpline
210
0.0
220
0.0
230
1.0
 70
    24
 71
     3
 72
     8
 73
     4
 74
     0
 42
0.000000001
 43
0.00000001
 40
0.0
 40
0.0
 40
0.0
 40
0.0
 40
1.0
 40
1.0
 40
1.0
 40
1.0
 10
101.0556737111792
 20
225.253167020967
 30
0.0
 10
101.0277040453428
 20
225.2915671727642
 30
0.0
 10
100.9988251734613
 20
225.3312155929657
 30
0.0
 10
100.9675096845017
 20
225.3742092968121
 30
0.0
  0
LINE
  5
112
330
1F
100
AcDbEntity
  8
0
  6
Continuous
 62
     7
370
     0
100
AcDbLine
 10
100.8767359819
 20
225.1689531024
 30
0.0
 11
101.0337262343
 21
225.2833008881
 31
0.0
  0
LINE
  5
113
330
1F
100
AcDbEntity
  8
0
  6
Continuous
 62
     7
370
     0
100
AcDbLine
 10
100.4355749976
 20
224.8476207371
 30
0.0
 11
100.59256525
 21
224.9619685229
 31
0.0
  0
ELLIPSE
  5
114
330
1F
100
AcDbEntity
  8
0
  6
Continuous
 62
     7
370
     0
100
AcDbEllipse
 10
100.4646942184
 20
225.4360892138
 30
0.0
 11
-0.2894852640288122
 21
0.3974405038217697
 31
0.0
210
0.0
220
0.0
230
1.0
 40
0.9901159119
 41
2.772178939412996
 42
3.511006367766579
  0
LINE
  5
115
330
1F
100
AcDbEntity
  8
0
  6
Continuous
 62
     7
370
     0
100
AcDbLine
 10
100.1012143608
 20
225.0391900654
 30
0.0
 11
100.2155621465
 21
224.8821988817
 31
0.0
  0
LINE
  5
116
330
1F
100
AcDbEntity
  8
0
  6
Continuous
 62
     7
370
     0
100
AcDbLine
 10
99.7798838582
 20
225.4803501185
 30
0.0
 11
99.8942316439
 21
225.3233589347
 31
0.0
  0
ELLIPSE
  5
117
330
1F
100
AcDbEntity
  8
0
  6
Continuous
 62
     7
370
     0
100
AcDbEllipse
 10
100.3683518547
 20
225.4512300973
 30
0.0
 11
0.3974405038217838
 21
0.2894852640288264
 31
0.0
210
0.0
220
0.0
230
1.0
 40
0.9901159119
 41
2.772178939412961
 42
3.511006367766564
  0
LINE
  5
118
330
1F
100
AcDbEntity
  8
0
  6
Continuous
 62
     7
370
     0
100
AcDbLine
 10
100.7469729449
 20
225.9444728609
 30
0.0
 11
100.6326251592
 21
226.1014640446
 31
0.0
  0
LINE
  5
119
330
1F
100
AcDbEntity
  8
0
  6
Continuous
 62
     7
370
     0
100
AcDbLine
 10
101.0683025162
 20
225.5033128079
 30
0.0
 11
100.9539547305
 21
225.6603039916
 31
0.0
  0
ELLIPSE
  5
11A
330
1F
100
AcDbEntity
  8
0
  6
Continuous
 62
     7
370
     0
100
AcDbEllipse
 10
100.4798351019
 20
225.5324315776
 30
0.0
 11
0.3974405038217838
 21
0.2894852640288264
 31
0.0
210
0.0
220
0.0
230
1.0
 40
0.9901159119
 41
5.913771593002811
 42
6.652599021356381
  0
LINE
  5
11B
330
1F
100
AcDbEntity
  8
0
  6
Continuous
 62
     7
370
     0
100
AcDbLine
 10
99.9714513238
 20
225.8147098239
 30
0.0
 11
99.8144610714
 21
225.7003620382
 31
0.0
  0
LINE
  5
11C
330
1F
100
AcDbEntity
  8
0
  6
Continuous
 62
     7
370
     0
100
AcDbLine
 10
100.4126123082
 20
226.1360384639
 30
0.0
 11
100.2556211244
 21
226.0216906782
 31
0.0
  0
ELLIPSE
  5
11D
330
1F
100
AcDbEntity
  8
0
  6
Continuous
 62
     7
370
     0
100
AcDbEllipse
 10
100.3834927381
 20
225.547572461
 30
0.0
 11
-0.2894852640288264
 21
0.3974405038217981
 31
0.0
210
0.0
220
0.0
230
1.0
 40
0.9901159119
 41
5.913771593002839
 42
6.652599021356354
  0
CIRCLE
  5
11E
330
1F
100
AcDbEntity
  8
0
  6
Continuous
 62
     7
370
     0
100
AcDbCircle
 10
100.4240934783
 20
225.4918308374
 30
0.0
 40
2.799999999999999
  0
ARC
  5
11F
330
1F
100
AcDbEntity
  8
0
  6
Continuous
 62
     7
370
     0
100
AcDbCircle
 10
100.4240934783
 20
225.4918308374
 30
0.0
 40
0.5559999999999928
100
AcDbArc
 50
197.6383277584
 51
234.4989028135
  0
ARC
  5
120
330
1F
100
AcDbEntity
  8
0
  6
Continuous
 62
     7
370
     0
100
AcDbCircle
 10
100.4240934783
 20
225.4918308374
 30
0.0
 40
0.5559999999999878
100
AcDbArc
 50
287.6383277584
 51
324.4989028135
  0
ARC
  5
121
330
1F
100
AcDbEntity
  8
0
  6
Continuous
 62
     7
370
     0
100
AcDbCircle
 10
100.4240934783
 20
225.4918308374
 30
0.0
 40
0.5560000000000161
100
AcDbArc
 50
17.6383277584
 51
54.4989028135
  0
ARC
  5
122
330
1F
100
AcDbEntity
  8
0
  6
Continuous
 62
     7
370
     0
100
AcDbCircle
 10
100.4240934783
 20
225.4918308374
 30
0.0
 40
0.5560000000000294
100
AcDbArc
 50
107.6383277584
 51
144.4989028135
  0
ARC
  5
123
330
1F
100
AcDbEntity
  8
0
  6
Continuous
 62
     7
370
     0
100
AcDbCircle
 10
100.4240934783
 20
225.4918308374
 30
0.0
 40
0.5559999999999878
100
AcDbArc
 50
264.3504049043
 51
287.6383277584
  0
ARC
  5
124
330
1F
100
AcDbEntity
  8
0
  6
Continuous
 62
     7
370
     0
100
AcDbCircle
 10
100.4240934783
 20
225.4918308374
 30
0.0
 40
0.5560000000000057
100
AcDbArc
 50
84.3504049043
 51
107.6383277584
  0
ARC
  5
125
330
1F
100
AcDbEntity
  8
0
  6
Continuous
 62
     7
370
     0
100
AcDbCircle
 10
100.4240934783
 20
225.4918308374
 30
0.0
 40
0.5559999999999943
100
AcDbArc
 50
174.3504049043
 51
197.6383277584
  0
ARC
  5
126
330
1F
100
AcDbEntity
  8
0
  6
Continuous
 62
     7
370
     0
100
AcDbCircle
 10
100.4240934783
 20
225.4918308374
 30
0.0
 40
0.5560000000000161
100
AcDbArc
 50
54.4989028135
 51
77.7868256677
  0
ARC
  5
127
330
1F
100
AcDbEntity
  8
0
  6
Continuous
 62
     7
370
     0
100
AcDbCircle
 10
100.4240934783
 20
225.4918308374
 30
0.0
 40
0.5560000000000294
100
AcDbArc
 50
144.4989028135
 51
167.7868256677
  0
ARC
  5
128
330
1F
100
AcDbEntity
  8
0
  6
Continuous
 62
     7
370
     0
100
AcDbCircle
 10
100.4240934783
 20
225.4918308374
 30
0.0
 40
0.5559999999999803
100
AcDbArc
 50
234.4989028135
 51
257.7868256677
  0
ARC
  5
129
330
1F
100
AcDbEntity
  8
0
  6
Continuous
 62
     7
370
     0
100
AcDbCircle
 10
100.4240934783
 20
225.4918308374
 30
0.0
 40
0.55600000000001
100
AcDbArc
 50
354.3504049043
 51
17.6383277584
  0
ARC
  5
12A
330
1F
100
AcDbEntity
  8
0
  6
Continuous
 62
     7
370
     0
100
AcDbCircle
 10
100.4240934783
 20
225.4918308374
 30
0.0
 40
0.5559999999999881
100
AcDbArc
 50
324.4989028135
 51
347.7868256677
  0
LINE
  5
12B
330
1F
100
AcDbEntity
  8
0
  6
Continuous
 62
     7
370
     0
100
AcDbLine
 10
104.5282636698
 20
234.9472962435
 30
0.0
 11
105.5110231902
 21
240.8662609871
 31
0.0
  0
LINE
  5
12C
330
1F
100
AcDbEntity
  8
0
  6
Continuous
 62
     7
370
     0
100
AcDbLine
 10
105.5110231902
 20
240.8662609871
 30
0.0
 11
106.4975173142
 21
240.7024674233
 31
0.0
  0
LINE
  5
12D
330
1F
100
AcDbEntity
  8
0
  6
Continuous
 62
     7
370
     0
100
AcDbLine
 10
107.6608770456
 20
220.2355064567
 30
0.0
 11
104.9480182048
 21
220.6859387572
 31
0.0
  0
LINE
  5
12E
330
1F
100
AcDbEntity
  8
0
  6
Continuous
 62
     7
370
     0
100
AcDbLine
 10
104.9480182048
 20
220.6859387572
 30
0.0
 11
105.111809906
 21
221.6724328812
 31
0.0
  0
LINE
  5
12F
330
1F
100
AcDbEntity
  8
0
  6
Continuous
 62
     7
370
     0
100
AcDbLine
 10
107.6608770456
 20
220.2355064567
 30
0.0
 11
107.8246706094
 21
221.2220005806
 31
0.0
  0
LWPOLYLINE
  5
130
330
1F
100
AcDbEntity
  8
0
  6
Continuous
 62
     7
370
     0
100
AcDbPolyline
 90
        7
 70
   128
 43
0.0
 10
104.9480182048
 20
220.6859387572
 10
104.4373703118
 20
220.7707226391
 10
103.9615222182
 20
220.8497323211
 10
103.5529025759
 20
220.917577308
 10
103.23935793
 20
220.9696345146
 10
103.0422565456
 20
221.0023611899
 10
102.9750280943
 20
221.0135221596
  0
LWPOLYLINE
  5
131
330
1F
100
AcDbEntity
  8
0
  6
Continuous
 62
     7
370
     0
100
AcDbPolyline
 90
       13
 70
   128
 43
0.0
 10
105.5594687279
 20
215.5159622546
 10
105.5434928205
 20
215.5186146613
 10
105.4178127017
 20
215.5394837375
 10
105.1776208844
 20
215.5793629702
 10
104.8442595567
 20
215.6347133334
 10
104.4473485019
 20
215.7006137188
 10
104.0221569057
 20
215.7712116953
 10
103.6064610746
 20
215.8402338739
 10
103.2372009869
 20
215.9015447016
 10
102.9471852746
 20
215.9496940787
 10
102.7621836331
 20
215.9804128225
 10
102.6986339059
 20
215.9909628447
 10
102.6986339059
 20
215.9909628447
  0
SPLINE
  5
132
330
1F
100
AcDbEntity
  8
0
  6
Continuous
 62
     7
370
     0
100
AcDbSpline
210
0.0
220
0.0
230
1.0
 70
     8
 71
     3
 72
    14
 73
    10
 74
     0
 42
0.000000001
 43
0.00000001
 40
0.0
 40
0.0
 40
0.0
 40
0.0
 40
0.499999999999996
 40
0.499999999999996
 40
0.7500000000000006
 40
0.7500000000000006
 40
0.8750000000000003
 40
0.8750000000000003
 40
1.0
 40
1.0
 40
1.0
 40
1.0
 10
98.42030573665576
 20
241.8315026665449
 30
0.0
 10
98.40945968010463
 20
241.8540116301077
 30
0.0
 10
98.39326961421555
 20
241.8750189183321
 30
0.0
 10
98.35381075876893
 20
241.900685138031
 30
0.0
 10
98.3382150044792
 20
241.9083492757142
 30
0.0
 10
98.30658308658082
 20
241.9152455343039
 30
0.0
 10
98.29463035354308
 20
241.9168433518786
 30
0.0
 10
98.26459736422504
 20
241.9157290902896
 30
0.0
 10
98.24462206937031
 20
241.9127980795822
 30
0.0
 10
98.2227240427455
 20
241.9027706207065
 30
0.0
  0
ARC
  5
133
330
1F
100
AcDbEntity
  8
0
  6
Continuous
 62
     7
370
     0
100
AcDbCircle
 10
98.6390652298
 20
240.993562165
 30
0.0
 40
0.8660254037844456
100
AcDbArc
 50
104.6315212283
 51
75.3684787717
  0
SPLINE
  5
134
330
1F
100
AcDbEntity
  8
0
  6
Continuous
 62
     7
370
     0
100
AcDbSpline
210
0.0
220
0.0
230
1.0
 70
     8
 71
     3
 72
    14
 73
    10
 74
     0
 42
0.000000001
 43
0.00000001
 40
0.0
 40
0.0
 40
0.0
 40
0.0
 40
0.1249999999999984
 40
0.1249999999999984
 40
0.2499999999999968
 40
0.2499999999999968
 40
0.4999999999999987
 40
0.4999999999999987
 40
1.0
 40
1.0
 40
1.0
 40
1.0
 10
99.0554064168622
 20
241.9027706207065
 30
0.0
 10
99.03321871284558
 20
241.9129307275228
 30
0.0
 10
99.01321536563844
 20
241.915783018548
 30
0.0
 10
98.98297158270799
 20
241.916819624737
 30
0.0
 10
98.97112436740036
 20
241.915182476286
 30
0.0
 10
98.93957623279199
 20
241.908215317626
 30
0.0
 10
98.92398590536938
 20
241.900501173937
 30
0.0
 10
98.88485005756702
 20
241.8749447223991
 30
0.0
 10
98.86866504039342
 20
241.853999719658
 30
0.0
 10
98.85782472295195
 20
241.8315026665449
 30
0.0
  0
LINE
  5
135
330
1F
100
AcDbEntity
  8
0
  6
Continuous
 62
     7
370
     0
100
AcDbLine
 10
98.4304365631
 20
241.8037898954
 30
0.0
 11
98.4558244165
 21
241.7051963623
 31
0.0
  0
LINE
  5
136
330
1F
100
AcDbEntity
  8
0
  6
Continuous
 62
     7
370
     0
100
AcDbLine
 10
98.8223054375
 20
241.7051963623
 30
0.0
 11
98.8476932909
 21
241.8037898954
 31
0.0
  0
ARC
  5
137
330
1F
100
AcDbEntity
  8
0
  6
Continuous
 62
     7
370
     0
100
AcDbCircle
 10
98.3105631878
 20
241.667792399
 30
0.0
 40
0.1499999999999958
100
AcDbArc
 50
295.9765162648
 51
14.439557232
  0
ARC
  5
138
330
1F
100
AcDbEntity
  8
0
  6
Continuous
 62
     7
370
     0
100
AcDbCircle
 10
98.9675672718
 20
241.667792399
 30
0.0
 40
0.1500000000000096
100
AcDbArc
 50
165.560442768
 51
244.0234837352
  0
ARC
  5
139
330
1F
100
AcDbEntity
  8
0
  6
Continuous
 62
     7
370
     0
100
AcDbCircle
 10
98.6390652298
 20
240.993562165
 30
0.0
 40
0.6000000000000124
100
AcDbArc
 50
115.9765162648
 51
64.0234837352
  0
ARC
  5
13A
330
1F
100
AcDbEntity
  8
0
  6
Continuous
 62
     7
370
     0
100
AcDbCircle
 10
98.2851752208
 20
241.7663893523
 30
0.0
 40
0.1500000000000175
100
AcDbArc
 50
14.439557232
 51
25.7273245114
  0
ARC
  5
13B
330
1F
100
AcDbEntity
  8
0
  6
Continuous
 62
     7
370
     0
100
AcDbCircle
 10
98.9929552388
 20
241.7663893523
 30
0.0
 40
0.1500000000000047
100
AcDbArc
 50
154.2726754886
 51
165.560442768
  0
SPLINE
  5
13C
330
1F
100
AcDbEntity
  8
0
  6
Continuous
 62
     7
370
     0
100
AcDbSpline
210
0.0
220
0.0
230
1.0
 70
     8
 71
     3
 72
    14
 73
    10
 74
     0
 42
0.000000001
 43
0.00000001
 40
0.0
 40
0.0
 40
0.0
 40
0.0
 40
0.1250000000000001
 40
0.1250000000000001
 40
0.2500000000000002
 40
0.2500000000000002
 40
0.5000000000000004
 40
0.5000000000000004
 40
1.0
 40
1.0
 40
1.0
 40
1.0
 10
93.84659321186233
 20
215.8894786199442
 30
0.0
 10
93.8238368494392
 20
215.8997368691176
 30
0.0
 10
93.8021360422315
 20
215.9042992966171
 30
0.0
 10
93.76811119240783
 20
215.9078437734733
 30
0.0
 10
93.75408110663062
 20
215.9072665210432
 30
0.0
 10
93.71709989731622
 20
215.9030518306242
 30
0.0
 10
93.69827326108349
 20
215.8967461379961
 30
0.0
 10
93.64935135263134
 20
215.8746142854537
 30
0.0
 10
93.62723419678659
 20
215.8552304759695
 30
0.0
 10
93.6099196805803
 20
215.8341735171698
 30
0.0
  0
ARC
  5
13D
330
1F
100
AcDbEntity
  8
0
  6
Continuous
 62
     7
370
     0
100
AcDbCircle
 10
93.2301525111
 20
214.5219988715
 30
0.0
 40
1.366025403784439
100
AcDbArc
 50
106.1414033176
 51
73.8585966824
  0
SPLINE
  5
13E
330
1F
100
AcDbEntity
  8
0
  6
Continuous
 62
     7
370
     0
100
AcDbSpline
210
0.0
220
0.0
230
1.0
 70
     8
 71
     3
 72
    14
 73
    10
 74
     0
 42
0.000000001
 43
0.00000001
 40
0.0
 40
0.0
 40
0.0
 40
0.0
 40
0.5000000000000028
 40
0.5000000000000028
 40
0.7500000000000014
 40
0.7500000000000014
 40
0.8750000000000008
 40
0.8750000000000008
 40
1.0
 40
1.0
 40
1.0
 40
1.0
 10
92.85038534159047
 20
215.8341735171697
 30
0.0
 10
92.83307821686064
 20
215.8552214868638
 30
0.0
 10
92.81097139492569
 20
215.8745484590088
 30
0.0
 10
92.76242609808297
 20
215.8965962886429
 30
0.0
 10
92.74367188165029
 20
215.9029722793717
 30
0.0
 10
92.70630046912129
 20
215.9072708109691
 30
0.0
 10
92.69232312190155
 20
215.9078360652949
 30
0.0
 10
92.65852950532182
 20
215.9043577258874
 30
0.0
 10
92.63661490208409
 20
215.8998030126528
 30
0.0
 10
92.61371181030846
 20
215.8894786199442
 30
0.0
  0
ARC
  5
13F
330
1F
100
AcDbEntity
  8
0
  6
Continuous
 62
     7
370
     0
100
AcDbCircle
 10
92.7498262804
 20
215.5115880348
 30
0.0
 40
0.1999999999999911
100
AcDbArc
 50
295.8909827371
 51
15.4153010407
  0
ARC
  5
140
330
1F
100
AcDbEntity
  8
0
  6
Continuous
 62
     7
370
     0
100
AcDbCircle
 10
93.2301525111
 20
214.5219988715
 30
0.0
 40
0.9000000000000107
100
AcDbArc
 50
115.8909827371
 51
64.1090172629
  0
ARC
  5
141
330
1F
100
AcDbEntity
  8
0
  6
Continuous
 62
     7
370
     0
100
AcDbCircle
 10
93.7104787418
 20
215.5115880348
 30
0.0
 40
0.1999999999999911
100
AcDbArc
 50
164.5846989593
 51
244.1090172629
  0
LINE
  5
142
330
1F
100
AcDbEntity
  8
0
  6
Continuous
 62
     7
370
     0
100
AcDbLine
 10
93.5176736604
 20
215.5647523816
 30
0.0
 11
93.5715963062
 21
215.7603114958
 31
0.0
  0
LINE
  5
143
330
1F
100
AcDbEntity
  8
0
  6
Continuous
 62
     7
370
     0
100
AcDbLine
 10
92.8887086849
 20
215.7603114958
 30
0.0
 11
92.9426313307
 21
215.5647523816
 31
0.0
  0
ARC
  5
144
330
1F
100
AcDbEntity
  8
0
  6
Continuous
 62
     7
370
     0
100
AcDbCircle
 10
93.7644011184
 20
215.7071479868
 30
0.0
 40
0.2000000000000109
100
AcDbArc
 50
140.5705471975
 51
164.5846989593
  0
ARC
  5
145
330
1F
100
AcDbEntity
  8
0
  6
Continuous
 62
     7
370
     0
100
AcDbCircle
 10
92.6959039037
 20
215.7071479868
 30
0.0
 40
0.2000000000000059
100
AcDbArc
 50
15.4153010407
 51
39.4294528025
  0
ARC
  5
146
330
1F
100
AcDbEntity
  8
0
  6
Continuous
 62
     7
370
     0
100
AcDbCircle
 10
104.6920560609
 20
235.9337892453
 30
0.0
 40
1.000000000000012
100
AcDbArc
 50
260.572860308
 51
350.572860308
  0
LINE
  5
147
330
1F
100
AcDbEntity
  8
0
  6
Continuous
 62
     7
370
     0
100
AcDbLine
 10
108.3179176714
 20
221.1401037987
 30
0.0
 11
98.6502706002
 21
222.7452792342
 31
0.0
  0
LINE
  5
148
330
1F
100
AcDbEntity
  8
0
  6
Continuous
 62
     7
370
     0
100
AcDbLine
 10
105.6785513576
 20
235.7699968036
 30
0.0
 11
106.661310878
 21
241.6889615472
 31
0.0
  0
LINE
  5
149
330
1F
100
AcDbEntity
  8
0
  6
Continuous
 62
     7
370
     0
100
AcDbLine
 10
97.6630286243
 20
224.1256222244
 30
0.0
 11
97.7513217296
 21
224.6573925133
 31
0.0
  0
LINE
  5
14A
330
1F
100
AcDbEntity
  8
0
  6
Continuous
 62
     7
370
     0
100
AcDbLine
 10
98.1643921625
 20
227.1452382322
 30
0.0
 11
99.3992374208
 21
234.5824673887
 31
0.0
  0
LINE
  5
14B
330
1F
100
AcDbEntity
  8
0
  6
Continuous
 62
     7
370
     0
100
AcDbLine
 10
100.7795832049
 20
235.569710296
 30
0.0
 11
99.3992374208
 21
234.5824673887
 31
0.0
  0
CIRCLE
  5
14C
330
1F
100
AcDbEntity
  8
0
  6
Continuous
 62
     7
370
     0
100
AcDbCircle
 10
106.9647289661
 20
229.4743033628
 30
0.0
 40
1.749999999999999
  0
LINE
  5
14D
330
1F
100
AcDbEntity
  8
0
  6
Continuous
 62
     7
370
     0
100
AcDbLine
 10
100.7795832049
 20
235.569710296
 30
0.0
 11
104.5282636698
 21
234.9472962435
 31
0.0
  0
LINE
  5
14E
330
1F
100
AcDbEntity
  8
0
  6
Continuous
 62
     7
370
     0
100
AcDbLine
 10
97.6630286243
 20
224.1256222244
 30
0.0
 11
98.6502706002
 21
222.7452792342
 31
0.0
  0
LINE
  5
14F
330
1F
100
AcDbEntity
  8
0
  6
Continuous
 62
     7
370
     0
100
AcDbLine
 10
111.5937833603
 20
240.8700011786
 30
0.0
 11
106.661310878
 21
241.6889615472
 31
0.0
  0
LINE
  5
150
330
1F
100
AcDbEntity
  8
0
  6
Continuous
 62
     7
370
     0
100
AcDbLine
 10
108.3179176714
 20
221.1401037987
 30
0.0
 11
111.5937833603
 21
240.8700011786
 31
0.0
  0
LINE
  5
151
330
1F
100
AcDbEntity
  8
0
  6
Continuous
 62
     7
370
     0
100
AcDbLine
 10
106.7432076599
 20
242.1822123345
 30
0.0
 11
106.661310878
 21
241.6889615472
 31
0.0
  0
LINE
  5
152
330
1F
100
AcDbEntity
  8
0
  6
Continuous
 62
     7
370
     0
100
AcDbLine
 10
106.7432076599
 20
242.1822123345
 30
0.0
 11
111.1824330803
 21
241.4451412972
 31
0.0
  0
ARC
  5
153
330
1F
100
AcDbEntity
  8
0
  6
Continuous
 62
     7
370
     0
100
AcDbCircle
 10
111.100536403
 20
240.9518944361
 30
0.0
 40
0.5000000000000098
100
AcDbArc
 50
350.572860308
 51
80.572860308
  0
DIMENSION
  5
154
330
1F
100
AcDbEntity
  8
0
  6
Continuous
 62
     7
370
     0
100
AcDbDimension
  2
_D
 10
92.6296943443
 20
119.7450647059
 30
0.0
 11
86.6296943443
 21
119.7450647059
 31
0.0
 70
   160
  1
%%c<>
 71
     2
 42
-1.0
  3
SLDDIMSTYLE0
100
AcDbAlignedDimension
 13
80.6296943443
 23
140.7450647059
 33
0.0
 14
92.6296943443
 24
140.7450647059
 34
0.0
 50
0.0
100
AcDbRotatedDimension
  0
DIMENSION
  5
162
330
1F
100
AcDbEntity
  8
0
  6
Continuous
 62
     7
370
     0
100
AcDbDimension
  2
_D_1
 10
99.1296943443
 20
113.7450647059
 30
0.0
 11
86.6296943443
 21
113.7450647059
 31
0.0
 70
   160
  1
<>
 71
     2
 42
-1.0
  3
SLDDIMSTYLE1
100
AcDbAlignedDimension
 13
74.1296943442
 23
160.2450647059
 33
0.0
 14
99.1296943442
 24
160.2450647059
 34
0.0
 50
0.0
100
AcDbRotatedDimension
  0
DIMENSION
  5
16D
330
1F
100
AcDbEntity
  8
0
  6
Continuous
 62
     7
370
     0
100
AcDbDimension
  2
_D_2
 10
106.1296943443
 20
107.7450647059
 30
0.0
 11
86.6296943443
 21
107.7450647059
 31
0.0
 70
   160
  1
<>
 71
     2
 42
-1.0
  3
SLDDIMSTYLE1
100
AcDbAlignedDimension
 13
67.1296943443
 23
155.7450647059
 33
0.0
 14
106.1296943443
 24
155.7450647059
 34
0.0
 50
0.0
100
AcDbRotatedDimension
  0
DIMENSION
  5
177
330
1F
100
AcDbEntity
  8
0
  6
Continuous
 62
     7
370
     0
100
AcDbDimension
  2
_D_3
 10
113.1913190948
 20
160.2450647059
 30
0.0
 11
113.1913190948
 21
150.0202417977
 31
0.0
 70
   160
  1
<>
 71
     2
 42
-1.0
  3
SLDDIMSTYLE0
100
AcDbAlignedDimension
 13
106.1296943443
 23
155.7450647059
 33
0.0
 14
99.1296943442
 24
160.2450647059
 34
0.0
 50
90.0
100
AcDbRotatedDimension
  0
DIMENSION
  5
183
330
1F
100
AcDbEntity
  8
0
  6
Continuous
 62
     7
370
     0
100
AcDbDimension
  2
_D_4
 10
113.1913190948
 20
191.7450647059
 30
0.0
 11
113.1913190948
 21
175.9950647059
 31
0.0
 70
   160
  1
<>
 71
     2
 42
-1.0
  3
SLDDIMSTYLE1
100
AcDbAlignedDimension
 13
99.1296943442
 23
160.2450647059
 33
0.0
 14
86.6296943442
 24
191.7450647059
 34
0.0
 50
90.0
100
AcDbRotatedDimension
  0
DIMENSION
  5
18D
330
1F
100
AcDbEntity
  8
0
  6
Continuous
 62
     7
370
     0
100
AcDbDimension
  2
_D_5
 10
123.7586693688
 20
155.7450647059
 30
0.0
 11
123.7586693688
 21
182.4450647059
 31
0.0
 70
   160
  1
<>
 71
     2
 42
-1.0
  3
SLDDIMSTYLE1
100
AcDbAlignedDimension
 13
91.6296943442
 23
209.1450647059
 33
0.0
 14
106.1296943443
 24
155.7450647059
 34
0.0
 50
90.0
100
AcDbRotatedDimension
  0
DIMENSION
  5
197
330
1F
100
AcDbEntity
  8
0
  6
Continuous
 62
     7
370
     0
100
AcDbDimension
  2
_D_6
 10
123.7586693688
 20
139.7450647059
 30
0.0
 11
123.7586693688
 21
147.7450647059
 31
0.0
 70
   160
  1
<>
 71
     2
 42
-1.0
  3
SLDDIMSTYLE1
100
AcDbAlignedDimension
 13
106.1296943443
 23
155.7450647059
 33
0.0
 14
89.834025085
 24
139.7450647059
 34
0.0
 50
90.0
100
AcDbRotatedDimension
  0
DIMENSION
  5
1A1
330
1F
100
AcDbEntity
  8
0
  6
Continuous
 62
     7
370
     0
100
AcDbDimension
  2
_D_7
 10
133.600561403
 20
129.7450647059
 30
0.0
 11
133.600561403
 21
187.6862686567
 31
0.0
 70
   160
  1
(<>)
 71
     2
 42
-1.0
  3
SLDDIMSTYLE1
100
AcDbAlignedDimension
 13
95.1509605853
 23
245.6274726075
 33
0.0
 14
88.1296943443
 24
129.7450647059
 34
0.0
 50
90.0
100
AcDbRotatedDimension
  0
DIMENSION
  5
1AD
330
1F
100
AcDbEntity
  8
0
  6
Continuous
 62
     7
370
     0
100
AcDbDimension
  2
_D_8
 10
95.1509605853
 20
261.8122725261
 30
0.0
 11
86.6296943442
 21
261.8122725261
 31
0.0
 70
   160
  1
(<>)
 71
     2
 42
-1.0
  3
SLDDIMSTYLE1
100
AcDbAlignedDimension
 13
78.1084281032
 23
245.6274726075
 33
0.0
 14
95.1509605853
 24
245.6274726075
 34
0.0
 50
0.0
100
AcDbRotatedDimension
  0
DIMENSION
  5
1B9
330
1F
100
AcDbEntity
  8
0
  6
Continuous
 62
     7
370
     0
100
AcDbDimension
  2
_D_9
 10
75.8974612972
 20
158.477297753
 30
0.0
 11
41.3149099479
 21
179.25151798
 31
0.0
 70
   163
  1
3-<>取付穴\P(両側口元面取有)
 71
     1
 42
-1.0
  3
SLDDIMSTYLE2
100
AcDbDiametricDimension
 15
72.3619273913
 25
162.0128316589
 35
0.0
 40
0.0
  0
INSERT
  5
1CA
330
1F
100
AcDbEntity
  8
0
  6
Continuous
 62
     7
370
     0
100
AcDbBlockReference
  2
SW_NOTE_0
 10
39.0346311909
 20
154.2167072155
 30
0.0
  0
LEADER
  5
1CC
330
1F
100
AcDbEntity
  8
0
  6
Continuous
 62
     7
370
     0
100
AcDbLeader
  3
SLDDIMSTYLE3
 76
     2
 10
85.4044303304
 20
133.0250765971
 30
0.0
 10
39.0346311909
 20
154.2167072155
 30
0.0
  0
INSERT
  5
1D8
330
1F
100
AcDbEntity
  8
0
  6
Continuous
 62
     7
370
     0
100
AcDbBlockReference
  2
SW_CENTERMARKSYMBOL_0
 10
73.1296943442
 20
196.2450647059
 30
0.0
  0
INSERT
  5
1E4
330
1F
100
AcDbEntity
  8
0
  6
Continuous
 62
     7
370
     0
100
AcDbBlockReference
  2
SW_CENTERMARKSYMBOL_1
 10
86.6296943442
 20
191.7450647059
 30
0.0
  0
INSERT
  5
1F0
330
1F
100
AcDbEntity
  8
0
  6
Continuous
 62
     7
370
     0
100
AcDbBlockReference
  2
SW_CENTERMARKSYMBOL_2
 10
100.1296943442
 20
196.2450647059
 30
0.0
  0
INSERT
  5
1FC
330
1F
100
AcDbEntity
  8
0
  6
Continuous
 62
     7
370
     0
100
AcDbBlockReference
  2
SW_CENTERMARKSYMBOL_3
 10
99.1296943442
 20
160.2450647059
 30
0.0
  0
INSERT
  5
208
330
1F
100
AcDbEntity
  8
0
  6
Continuous
 62
     7
370
     0
100
AcDbBlockReference
  2
SW_CENTERMARKSYMBOL_4
 10
74.1296943442
 20
160.2450647059
 30
0.0
  0
CIRCLE
  5
209
330
1F
100
AcDbEntity
  8
0
  6
Continuous
 62
     7
370
     0
100
AcDbCircle
 10
74.1296943442
 20
160.2450647059
 30
0.0
 40
2.500000085665775
  0
CIRCLE
  5
20A
330
1F
100
AcDbEntity
  8
0
  6
Continuous
 62
     7
370
     0
100
AcDbCircle
 10
99.1296943442
 20
160.2450647059
 30
0.0
 40
2.500000085665761
  0
CIRCLE
  5
20B
330
1F
100
AcDbEntity
  8
0
  6
Continuous
 62
     7
370
     0
100
AcDbCircle
 10
86.6296943442
 20
191.7450647059
 30
0.0
 40
2.500000510348841
  0
LINE
  5
20C
330
1F
100
AcDbEntity
  8
0
  6
CENTERX2
 62
     7
370
     0
100
AcDbLine
 10
86.6296943443
 20
127.4189684362
 30
0.0
 11
86.6296943442
 21
244.9566828087
 31
0.0
  0
LINE
  5
20D
330
1F
100
AcDbEntity
  8
0
  6
Continuous
 62
     7
370
     0
100
AcDbLine
 10
111.6005373116
 20
70.4417909747
 30
0.0
 11
111.6005373116
 21
75.8417911148
 31
0.0
  0
CIRCLE
  5
20E
330
1F
100
AcDbEntity
  8
0
  6
Continuous
 62
     7
370
     0
100
AcDbCircle
 10
86.6296943443
 20
73.1417910448
 30
0.0
 40
5.0
  0
CIRCLE
  5
20F
330
1F
100
AcDbEntity
  8
0
  6
Continuous
 62
     7
370
     0
100
AcDbCircle
 10
86.6296943443
 20
73.1417910448
 30
0.0
 40
6.0
  0
CIRCLE
  5
210
330
1F
100
AcDbEntity
  8
0
  6
Continuous
 62
     7
370
     0
100
AcDbCircle
 10
86.6296943443
 20
73.1417910448
 30
0.0
 40
1.0
  0
LINE
  5
211
330
1F
100
AcDbEntity
  8
0
  6
Continuous
 62
     7
370
     0
100
AcDbLine
 10
105.1296950247
 20
65.1417906648
 30
0.0
 11
106.1296951886
 21
66.1417908287
 31
0.0
  0
LINE
  5
212
330
1F
100
AcDbEntity
  8
0
  6
Continuous
 62
     7
370
     0
100
AcDbLine
 10
68.1296945479
 20
65.1417906648
 30
0.0
 11
105.1296950247
 21
65.1417906648
 31
0.0
  0
LINE
  5
213
330
1F
100
AcDbEntity
  8
0
  6
Continuous
 62
     7
370
     0
100
AcDbLine
 10
67.1296943839
 20
66.1417908287
 30
0.0
 11
68.1296945479
 21
65.1417906648
 31
0.0
  0
LINE
  5
214
330
1F
100
AcDbEntity
  8
0
  6
Continuous
 62
     7
370
     0
100
AcDbLine
 10
67.1296943839
 20
80.1417912608
 30
0.0
 11
67.1296943839
 21
66.1417908287
 31
0.0
  0
LINE
  5
215
330
1F
100
AcDbEntity
  8
0
  6
Continuous
 62
     7
370
     0
100
AcDbLine
 10
68.1296945479
 20
81.1417914248
 30
0.0
 11
67.1296943839
 21
80.1417912608
 31
0.0
  0
LINE
  5
216
330
1F
100
AcDbEntity
  8
0
  6
Continuous
 62
     7
370
     0
100
AcDbLine
 10
68.1296945479
 20
81.1417914248
 30
0.0
 11
105.1296950247
 21
81.1417914248
 31
0.0
  0
LINE
  5
217
330
1F
100
AcDbEntity
  8
0
  6
Continuous
 62
     7
370
     0
100
AcDbLine
 10
106.1296951886
 20
80.1417912608
 30
0.0
 11
105.1296950247
 21
81.1417914248
 31
0.0
  0
LINE
  5
218
330
1F
100
AcDbEntity
  8
0
  6
Continuous
 62
     7
370
     0
100
AcDbLine
 10
106.1296951886
 20
80.1417912608
 30
0.0
 11
106.1296951886
 21
66.1417908287
 31
0.0
  0
LINE
  5
219
330
1F
100
AcDbEntity
  8
0
  6
Continuous
 62
     7
370
     0
100
AcDbLine
 10
65.4160422202
 20
69.1417908548
 30
0.0
 11
65.4160422202
 21
77.1417912348
 31
0.0
  0
LINE
  5
21A
330
1F
100
AcDbEntity
  8
0
  6
Continuous
 62
     7
370
     0
100
AcDbLine
 10
67.1296943839
 20
77.1417912348
 30
0.0
 11
65.4160422202
 21
77.1417912348
 31
0.0
  0
LINE
  5
21B
330
1F
100
AcDbEntity
  8
0
  6
Continuous
 62
     7
370
     0
100
AcDbLine
 10
67.1296943839
 20
69.1417908548
 30
0.0
 11
65.4160422202
 21
69.1417908548
 31
0.0
  0
LINE
  5
21C
330
1F
100
AcDbEntity
  8
0
  6
Continuous
 62
     7
370
     0
100
AcDbLine
 10
107.8433473524
 20
77.1417912348
 30
0.0
 11
107.8433473524
 21
69.1417908548
 31
0.0
  0
LINE
  5
21D
330
1F
100
AcDbEntity
  8
0
  6
Continuous
 62
     7
370
     0
100
AcDbLine
 10
106.1296951886
 20
77.1417912348
 30
0.0
 11
107.8433473524
 21
77.1417912348
 31
0.0
  0
LINE
  5
21E
330
1F
100
AcDbEntity
  8
0
  6
Continuous
 62
     7
370
     0
100
AcDbLine
 10
106.1296951886
 20
69.1417908548
 30
0.0
 11
107.8433473524
 21
69.1417908548
 31
0.0
  0
CIRCLE
  5
21F
330
1F
100
AcDbEntity
  8
0
  6
Continuous
 62
     7
370
     0
100
AcDbCircle
 10
86.6296943443
 20
73.1417910448
 30
0.0
 40
1.799999999999981
  0
CIRCLE
  5
220
330
1F
100
AcDbEntity
  8
0
  6
Continuous
 62
     7
370
     0
100
AcDbCircle
 10
86.6296943443
 20
73.1417910448
 30
0.0
 40
1.500000000000002
  0
CIRCLE
  5
221
330
1F
100
AcDbEntity
  8
0
  6
Continuous
 62
     7
370
     0
100
AcDbCircle
 10
86.6296943443
 20
73.1417910448
 30
0.0
 40
1.050000000000008
  0
ARC
  5
222
330
1F
100
AcDbEntity
  8
0
  6
Continuous
 62
     7
370
     0
100
AcDbCircle
 10
86.6296943443
 20
73.1417910448
 30
0.0
 40
4.299999999970415
100
AcDbArc
 50
204.882113171
 51
221.8243043567
  0
SPLINE
  5
223
330
1F
100
AcDbEntity
  8
0
  6
Continuous
 62
     7
370
     0
100
AcDbSpline
210
0.0
220
0.0
230
1.0
 70
    24
 71
     3
 72
     8
 73
     4
 74
     0
 42
0.000000001
 43
0.00000001
 40
0.0
 40
0.0
 40
0.0
 40
0.0
 40
1.0
 40
1.0
 40
1.0
 40
1.0
 10
82.72884007797846
 20
71.33255474428319
 30
0.0
 10
82.69904123412522
 20
71.84114170433486
 30
0.0
 10
82.66842046434661
 20
72.36375675251735
 30
0.0
 10
82.63654263138827
 20
72.90782652371925
 30
0.0
  0
ARC
  5
224
330
1F
100
AcDbEntity
  8
0
  6
Continuous
 62
     7
370
     0
100
AcDbCircle
 10
86.6296943443
 20
73.1417910448
 30
0.0
 40
3.999999999940362
100
AcDbArc
 50
183.3532087641
 51
243.3532087571
  0
SPLINE
  5
225
330
1F
100
AcDbEntity
  8
0
  6
Continuous
 62
     7
370
     0
100
AcDbSpline
210
0.0
220
0.0
230
1.0
 70
    24
 71
     3
 72
     8
 73
     4
 74
     0
 42
0.000000001
 43
0.00000001
 40
0.0
 40
0.0
 40
0.0
 40
0.0
 40
1.0
 40
1.0
 40
1.0
 40
1.0
 10
84.83573770581015
 20
69.56663796020055
 30
0.0
 10
84.34862054604226
 20
69.81106583262499
 30
0.0
 10
83.88071225301927
 20
70.04585499215277
 30
0.0
 10
83.42536360366846
 20
70.27434191637688
 30
0.0
  0
ARC
  5
226
330
1F
100
AcDbEntity
  8
0
  6
Continuous
 62
     7
370
     0
100
AcDbCircle
 10
86.6296943443
 20
73.1417910448
 30
0.0
 40
4.300000000035604
100
AcDbArc
 50
144.8821131696
 51
161.8243043573
  0
SPLINE
  5
227
330
1F
100
AcDbEntity
  8
0
  6
Continuous
 62
     7
370
     0
100
AcDbSpline
210
0.0
220
0.0
230
1.0
 70
    24
 71
     3
 72
     8
 73
     4
 74
     0
 42
0.000000001
 43
0.00000001
 40
0.0
 40
0.0
 40
0.0
 40
0.0
 40
1.0
 40
1.0
 40
1.0
 40
1.0
 10
83.11242261308129
 20
75.61541178546588
 30
0.0
 10
83.53797241865406
 20
75.89551182131994
 30
0.0
 10
83.97525994210112
 20
76.1833377100692
 30
0.0
 10
84.43049926898865
 20
76.48297960888704
 30
0.0
  0
ARC
  5
228
330
1F
100
AcDbEntity
  8
0
  6
Continuous
 62
     7
370
     0
100
AcDbCircle
 10
86.6296943443
 20
73.1417910448
 30
0.0
 40
3.999999999999989
100
AcDbArc
 50
123.353208768
 51
183.3532087641
  0
SPLINE
  5
229
330
1F
100
AcDbEntity
  8
0
  6
Continuous
 62
     7
370
     0
100
AcDbSpline
210
0.0
220
0.0
230
1.0
 70
    24
 71
     3
 72
     8
 73
     4
 74
     0
 42
0.000000001
 43
0.00000001
 40
0.0
 40
0.0
 40
0.0
 40
0.0
 40
1.0
 40
1.0
 40
1.0
 40
1.0
 10
82.63654263142439
 20
72.90782652372692
 30
0.0
 10
82.60466479845677
 20
73.45189629508742
 30
0.0
 10
82.57404402862353
 20
73.97451134357809
 30
0.0
 10
82.54424518476168
 20
74.48309830377663
 30
0.0
  0
ARC
  5
22A
330
1F
100
AcDbEntity
  8
0
  6
Continuous
 62
     7
370
     0
100
AcDbCircle
 10
86.6296943443
 20
73.1417910448
 30
0.0
 40
4.300000000089874
100
AcDbArc
 50
264.8821131727
 51
281.8243043543
  0
ARC
  5
22B
330
1F
100
AcDbEntity
  8
0
  6
Continuous
 62
     7
370
     0
100
AcDbCircle
 10
86.6296943443
 20
73.1417910448
 30
0.0
 40
4.000000000000007
100
AcDbArc
 50
243.3532087571
 51
303.3532087452
  0
SPLINE
  5
22C
330
1F
100
AcDbEntity
  8
0
  6
Continuous
 62
     7
370
     0
100
AcDbSpline
210
0.0
220
0.0
230
1.0
 70
    24
 71
     3
 72
     8
 73
     4
 74
     0
 42
0.000000001
 43
0.00000001
 40
0.0
 40
0.0
 40
0.0
 40
0.0
 40
1.0
 40
1.0
 40
1.0
 40
1.0
 10
88.82888941867648
 20
69.80060248011546
 30
0.0
 10
88.37365009193103
 20
69.50096058139117
 30
0.0
 10
87.93636256838445
 20
69.21313469257642
 30
0.0
 10
87.51081276295601
 20
68.93303465681734
 30
0.0
  0
SPLINE
  5
22D
330
1F
100
AcDbEntity
  8
0
  6
Continuous
 62
     7
370
     0
100
AcDbSpline
210
0.0
220
0.0
230
1.0
 70
    24
 71
     3
 72
     8
 73
     4
 74
     0
 42
0.000000001
 43
0.00000001
 40
0.0
 40
0.0
 40
0.0
 40
0.0
 40
1.0
 40
1.0
 40
1.0
 40
1.0
 10
86.24611180856323
 20
68.85893400363574
 30
0.0
 10
85.79076315908405
 20
69.08742092792427
 30
0.0
 10
85.32285486568182
 20
69.3222100876832
 30
0.0
 10
84.83573770579872
 20
69.56663796016545
 30
0.0
  0
ARC
  5
22E
330
1F
100
AcDbEntity
  8
0
  6
Continuous
 62
     7
370
     0
100
AcDbCircle
 10
86.6296943443
 20
73.1417910448
 30
0.0
 40
4.299999999977217
100
AcDbArc
 50
84.8821131727
 51
101.8243043587
  0
SPLINE
  5
22F
330
1F
100
AcDbEntity
  8
0
  6
Continuous
 62
     7
370
     0
100
AcDbSpline
210
0.0
220
0.0
230
1.0
 70
    24
 71
     3
 72
     8
 73
     4
 74
     0
 42
0.000000001
 43
0.00000001
 40
0.0
 40
0.0
 40
0.0
 40
0.0
 40
1.0
 40
1.0
 40
1.0
 40
1.0
 10
87.01327687929093
 20
77.42464808624084
 30
0.0
 10
87.4686255287322
 20
77.1961611619713
 30
0.0
 10
87.93653382210222
 20
76.96137200222856
 30
0.0
 10
88.42365098196844
 20
76.7169441297548
 30
0.0
  0
ARC
  5
230
330
1F
100
AcDbEntity
  8
0
  6
Continuous
 62
     7
370
     0
100
AcDbCircle
 10
86.6296943443
 20
73.1417910448
 30
0.0
 40
3.999999999999989
100
AcDbArc
 50
63.3532087689
 51
123.353208768
  0
SPLINE
  5
231
330
1F
100
AcDbEntity
  8
0
  6
Continuous
 62
     7
370
     0
100
AcDbSpline
210
0.0
220
0.0
230
1.0
 70
    24
 71
     3
 72
     8
 73
     4
 74
     0
 42
0.000000001
 43
0.00000001
 40
0.0
 40
0.0
 40
0.0
 40
0.0
 40
1.0
 40
1.0
 40
1.0
 40
1.0
 10
84.43049926898865
 20
76.48297960888704
 30
0.0
 10
84.8857385959331
 20
76.78262150774232
 30
0.0
 10
85.3230261192966
 20
77.07044739643656
 30
0.0
 10
85.74857592493161
 20
77.35054743233161
 30
0.0
  0
ARC
  5
232
330
1F
100
AcDbEntity
  8
0
  6
Continuous
 62
     7
370
     0
100
AcDbCircle
 10
86.6296943443
 20
73.1417910448
 30
0.0
 40
4.300000000147953
100
AcDbArc
 50
324.8821131734
 51
341.824304353
  0
SPLINE
  5
233
330
1F
100
AcDbEntity
  8
0
  6
Continuous
 62
     7
370
     0
100
AcDbSpline
210
0.0
220
0.0
230
1.0
 70
    24
 71
     3
 72
     8
 73
     4
 74
     0
 42
0.000000001
 43
0.00000001
 40
0.0
 40
0.0
 40
0.0
 40
0.0
 40
1.0
 40
1.0
 40
1.0
 40
1.0
 10
90.14696607602086
 20
70.66817030448637
 30
0.0
 10
89.72141627000816
 20
70.38807026834273
 30
0.0
 10
89.28412874606207
 20
70.10024437926111
 30
0.0
 10
88.82888941867648
 20
69.80060248011546
 30
0.0
  0
ARC
  5
234
330
1F
100
AcDbEntity
  8
0
  6
Continuous
 62
     7
370
     0
100
AcDbCircle
 10
86.6296943443
 20
73.1417910448
 30
0.0
 40
4.000000000000007
100
AcDbArc
 50
303.3532087452
 51
3.3532087738
  0
SPLINE
  5
235
330
1F
100
AcDbEntity
  8
0
  6
Continuous
 62
     7
370
     0
100
AcDbSpline
210
0.0
220
0.0
230
1.0
 70
    24
 71
     3
 72
     8
 73
     4
 74
     0
 42
0.000000001
 43
0.00000001
 40
0.0
 40
0.0
 40
0.0
 40
0.0
 40
1.0
 40
1.0
 40
1.0
 40
1.0
 10
90.62284605706346
 20
73.37575556644089
 30
0.0
 10
90.6547238900582
 20
72.83168579461784
 30
0.0
 10
90.68534465989408
 20
72.30907074568071
 30
0.0
 10
90.71514350377954
 20
71.80048378507914
 30
0.0
  0
ARC
  5
236
330
1F
100
AcDbEntity
  8
0
  6
Continuous
 62
     7
370
     0
100
AcDbCircle
 10
86.6296943443
 20
73.1417910448
 30
0.0
 40
4.299999999970391
100
AcDbArc
 50
24.882113171
 51
41.8243043611
  0
SPLINE
  5
237
330
1F
100
AcDbEntity
  8
0
  6
Continuous
 62
     7
370
     0
100
AcDbSpline
210
0.0
220
0.0
230
1.0
 70
    24
 71
     3
 72
     8
 73
     4
 74
     0
 42
0.000000001
 43
0.00000001
 40
0.0
 40
0.0
 40
0.0
 40
0.0
 40
1.0
 40
1.0
 40
1.0
 40
1.0
 10
90.53054861055497
 20
74.95102734600727
 30
0.0
 10
90.56034745440824
 20
74.44244038595502
 30
0.0
 10
90.59096822411668
 20
73.91982533766881
 30
0.0
 10
90.62284605707637
 20
73.37575556644363
 30
0.0
  0
ARC
  5
238
330
1F
100
AcDbEntity
  8
0
  6
Continuous
 62
     7
370
     0
100
AcDbCircle
 10
86.6296943443
 20
73.1417910448
 30
0.0
 40
3.999999999940345
100
AcDbArc
 50
3.3532087738
 51
63.3532087689
  0
SPLINE
  5
239
330
1F
100
AcDbEntity
  8
0
  6
Continuous
 62
     7
370
     0
100
AcDbSpline
210
0.0
220
0.0
230
1.0
 70
    24
 71
     3
 72
     8
 73
     4
 74
     0
 42
0.000000001
 43
0.00000001
 40
0.0
 40
0.0
 40
0.0
 40
0.0
 40
1.0
 40
1.0
 40
1.0
 40
1.0
 10
88.42365098195701
 20
76.71694412971968
 30
0.0
 10
88.91076814174178
 20
76.47251625728677
 30
0.0
 10
89.378676434797
 20
76.23772709774283
 30
0.0
 10
89.83402508418571
 20
76.00924017349969
 30
0.0
  0
LINE
  5
23A
330
1F
100
AcDbEntity
  8
0
  6
Continuous
 62
     7
370
     0
100
AcDbLine
 10
108.3179176714
 20
76.6417911528
 30
0.0
 11
107.8433473524
 21
76.6417911528
 31
0.0
  0
LINE
  5
23B
330
1F
100
AcDbEntity
  8
0
  6
Continuous
 62
     7
370
     0
100
AcDbLine
 10
108.3179176714
 20
69.6417909367
 30
0.0
 11
108.3179176714
 21
76.6417911528
 31
0.0
  0
LINE
  5
23C
330
1F
100
AcDbEntity
  8
0
  6
Continuous
 62
     7
370
     0
100
AcDbLine
 10
107.8433473524
 20
69.6417909367
 30
0.0
 11
108.3179176714
 21
69.6417909367
 31
0.0
  0
LINE
  5
23D
330
1F
100
AcDbEntity
  8
0
  6
Continuous
 62
     7
370
     0
100
AcDbLine
 10
111.5937833603
 20
75.8417911148
 30
0.0
 11
111.5937833603
 21
76.6417911528
 31
0.0
  0
LINE
  5
23E
330
1F
100
AcDbEntity
  8
0
  6
Continuous
 62
     7
370
     0
100
AcDbLine
 10
111.5937833603
 20
70.4417909747
 30
0.0
 11
111.5937833603
 21
75.8417911148
 31
0.0
  0
LINE
  5
23F
330
1F
100
AcDbEntity
  8
0
  6
Continuous
 62
     7
370
     0
100
AcDbLine
 10
111.5937833603
 20
69.6417909367
 30
0.0
 11
111.5937833603
 21
70.4417909747
 31
0.0
  0
LINE
  5
240
330
1F
100
AcDbEntity
  8
0
  6
Continuous
 62
     7
370
     0
100
AcDbLine
 10
108.3179176714
 20
76.6417911528
 30
0.0
 11
111.5937833603
 21
76.6417911528
 31
0.0
  0
LINE
  5
241
330
1F
100
AcDbEntity
  8
0
  6
Continuous
 62
     7
370
     0
100
AcDbLine
 10
108.3179176714
 20
69.6417909367
 30
0.0
 11
111.5937833603
 21
69.6417909367
 31
0.0
  0
LINE
  5
242
330
1F
100
AcDbEntity
  8
0
  6
Continuous
 62
     7
370
     0
100
AcDbLine
 10
111.5937833603
 20
75.8417911148
 30
0.0
 11
111.6005373116
 21
75.8417911148
 31
0.0
  0
LINE
  5
243
330
1F
100
AcDbEntity
  8
0
  6
Continuous
 62
     7
370
     0
100
AcDbLine
 10
111.6005373116
 20
70.4417909747
 30
0.0
 11
111.5937833603
 21
70.4417909747
 31
0.0
  0
DIMENSION
  5
244
330
1F
100
AcDbEntity
  8
0
  6
Continuous
 62
     7
370
     0
100
AcDbDimension
  2
_D_10
 10
65.416041871
 20
49.1417910448
 30
0.0
 11
88.5049128088
 21
49.1417910448
 31
0.0
 70
   160
  1
(<>)
 71
     2
 42
-1.0
  3
SLDDIMSTYLE1
100
AcDbAlignedDimension
 13
111.5937837466
 23
69.6417910448
 33
0.0
 14
65.416041871
 24
69.1417910448
 34
0.0
100
AcDbRotatedDimension
  0
DIMENSION
  5
250
330
1F
100
AcDbEntity
  8
0
  6
Continuous
 62
     7
370
     0
100
AcDbDimension
  2
_D_11
 10
86.6296943443
 20
57.2696559688
 30
0.0
 11
76.0228681076
 21
57.2696559688
 31
0.0
 70
   160
  1
(<>)
 71
     2
 42
-1.0
  3
SLDDIMSTYLE1
100
AcDbAlignedDimension
 13
65.416041871
 23
69.1417910448
 33
0.0
 14
86.6296943443
 24
64.6417910448
 34
0.0
100
AcDbRotatedDimension
  0
INSERT
  5
267
330
1F
100
AcDbEntity
  8
0
  6
Continuous
 62
     7
370
     0
100
AcDbBlockReference
  2
SW_CENTERMARKSYMBOL_5
 10
86.6296943443
 20
73.1417910448
 30
0.0
  0
LINE
  5
268
330
1F
100
AcDbEntity
  8
0
  6
Continuous
 62
     7
370
     0
100
AcDbLine
 10
158.2433015848
 20
140.7450646277
 30
0.0
 11
159.2433017487
 21
139.7450663264
 31
0.0
  0
LINE
  5
269
330
1F
100
AcDbEntity
  8
0
  6
Continuous
 62
     7
370
     0
100
AcDbLine
 10
169.2433015252
 20
139.7450663264
 30
0.0
 11
170.2433016891
 21
140.7450646277
 31
0.0
  0
LINE
  5
26A
330
1F
100
AcDbEntity
  8
0
  6
Continuous
 62
     7
370
     0
100
AcDbLine
 10
158.2433015848
 20
155.7450652238
 30
0.0
 11
158.2433015848
 21
140.7450646277
 31
0.0
  0
LINE
  5
26B
330
1F
100
AcDbEntity
  8
0
  6
Continuous
 62
     7
370
     0
100
AcDbLine
 10
170.2433016891
 20
140.7450646277
 30
0.0
 11
170.2433016891
 21
155.7450652238
 31
0.0
  0
LINE
  5
26C
330
1F
100
AcDbEntity
  8
0
  6
Continuous
 62
     7
370
     0
100
AcDbLine
 10
168.243301827
 20
136.7450639721
 30
0.0
 11
168.543301783
 21
137.0450653251
 31
0.0
  0
LINE
  5
26D
330
1F
100
AcDbEntity
  8
0
  6
Continuous
 62
     7
370
     0
100
AcDbLine
 10
162.4433016679
 20
131.7450650151
 30
0.0
 11
162.7433016239
 21
129.7450646873
 31
0.0
  0
LINE
  5
26E
330
1F
100
AcDbEntity
  8
0
  6
Continuous
 62
     7
370
     0
100
AcDbLine
 10
165.74330165
 20
129.7450646873
 30
0.0
 11
166.0433016061
 21
131.7450650151
 31
0.0
  0
LINE
  5
26F
330
1F
100
AcDbEntity
  8
0
  6
Continuous
 62
     7
370
     0
100
AcDbLine
 10
166.0433016061
 20
131.7450650151
 30
0.0
 11
166.0433016061
 21
132.2450660284
 31
0.0
  0
LINE
  5
270
330
1F
100
AcDbEntity
  8
0
  6
Continuous
 62
     7
370
     0
100
AcDbLine
 10
162.4433016679
 20
132.2450660284
 30
0.0
 11
162.4433016679
 21
131.7450650151
 31
0.0
  0
LINE
  5
271
330
1F
100
AcDbEntity
  8
0
  6
Continuous
 62
     7
370
     0
100
AcDbLine
 10
162.4433016679
 20
134.2450663562
 30
0.0
 11
162.6433016774
 21
132.2450660284
 31
0.0
  0
LINE
  5
272
330
1F
100
AcDbEntity
  8
0
  6
Continuous
 62
     7
370
     0
100
AcDbLine
 10
165.8433015966
 20
132.2450660284
 30
0.0
 11
166.0433016061
 21
134.2450663562
 31
0.0
  0
LINE
  5
273
330
1F
100
AcDbEntity
  8
0
  6
Continuous
 62
     7
370
     0
100
AcDbLine
 10
166.0433016061
 20
134.2450663562
 30
0.0
 11
166.0433016061
 21
134.7450636442
 31
0.0
  0
LINE
  5
274
330
1F
100
AcDbEntity
  8
0
  6
Continuous
 62
     7
370
     0
100
AcDbLine
 10
162.4433016679
 20
134.7450636442
 30
0.0
 11
162.4433016679
 21
134.2450663562
 31
0.0
  0
LINE
  5
275
330
1F
100
AcDbEntity
  8
0
  6
Continuous
 62
     7
370
     0
100
AcDbLine
 10
159.9433014909
 20
137.0450653251
 30
0.0
 11
160.243301447
 21
136.7450639721
 31
0.0
  0
LINE
  5
276
330
1F
100
AcDbEntity
  8
0
  6
Continuous
 62
     7
370
     0
100
AcDbLine
 10
165.8433015966
 20
134.7450636442
 30
0.0
 11
165.8433015966
 21
136.7450639721
 31
0.0
  0
LINE
  5
277
330
1F
100
AcDbEntity
  8
0
  6
Continuous
 62
     7
370
     0
100
AcDbLine
 10
162.6433016774
 20
136.7450639721
 30
0.0
 11
162.6433016774
 21
134.7450636442
 31
0.0
  0
LINE
  5
278
330
1F
100
AcDbEntity
  8
0
  6
Continuous
 62
     7
370
     0
100
AcDbLine
 10
168.543301783
 20
137.0450653251
 30
0.0
 11
168.543301783
 21
139.7450663264
 31
0.0
  0
LINE
  5
279
330
1F
100
AcDbEntity
  8
0
  6
Continuous
 62
     7
370
     0
100
AcDbLine
 10
159.9433014909
 20
139.7450663264
 30
0.0
 11
159.9433014909
 21
137.0450653251
 31
0.0
  0
LINE
  5
27A
330
1F
100
AcDbEntity
  8
0
  6
Continuous
 62
     7
370
     0
100
AcDbLine
 10
166.143301669
 20
244.9854560311
 30
0.0
 11
162.3433016049
 21
244.9854560311
 31
0.0
  0
LINE
  5
27B
330
1F
100
AcDbEntity
  8
0
  6
Continuous
 62
     7
370
     0
100
AcDbLine
 10
159.3468033517
 20
222.6918324943
 30
0.0
 11
160.7433015289
 21
222.6918324943
 31
0.0
  0
LINE
  5
27C
330
1F
100
AcDbEntity
  8
0
  6
Continuous
 62
     7
370
     0
100
AcDbLine
 10
160.7433015289
 20
228.291830432
 30
0.0
 11
159.3468033517
 21
228.291830432
 31
0.0
  0
ARC
  5
27D
330
1F
100
AcDbEntity
  8
0
  6
Continuous
 62
     7
370
     0
100
AcDbCircle
 10
159.3468031696
 20
222.9618308374
 30
0.0
 40
0.269999999999983
100
AcDbArc
 50
212.3360259976
 51
270.0
  0
ARC
  5
27E
330
1F
100
AcDbEntity
  8
0
  6
Continuous
 62
     7
370
     0
100
AcDbCircle
 10
159.3468031696
 20
228.0218308374
 30
0.0
 40
0.2699999999999982
100
AcDbArc
 50
90.0
 51
147.6639740024
  0
ARC
  5
27F
330
1F
100
AcDbEntity
  8
0
  6
Continuous
 62
     7
370
     0
100
AcDbCircle
 10
163.343301637
 20
225.4918308374
 30
0.0
 40
4.999999999999988
100
AcDbArc
 50
187.7605814854
 51
212.3360259976
  0
ARC
  5
280
330
1F
100
AcDbEntity
  8
0
  6
Continuous
 62
     7
370
     0
100
AcDbCircle
 10
163.343301637
 20
225.4918308374
 30
0.0
 40
5.000000000000011
100
AcDbArc
 50
147.6639740024
 51
172.2394185146
  0
LINE
  5
281
330
1F
100
AcDbEntity
  8
0
  6
Continuous
 62
     7
370
     0
100
AcDbLine
 10
170.143301859
 20
223.9918321486
 30
0.0
 11
170.7433017711
 21
223.9918321486
 31
0.0
  0
LINE
  5
282
330
1F
100
AcDbEntity
  8
0
  6
Continuous
 62
     7
370
     0
100
AcDbLine
 10
170.7433017711
 20
226.9918307777
 30
0.0
 11
170.143301859
 21
226.9918307777
 31
0.0
  0
LINE
  5
283
330
1F
100
AcDbEntity
  8
0
  6
Continuous
 62
     7
370
     0
100
AcDbLine
 10
162.7933016554
 20
220.2355064567
 30
0.0
 11
162.7933016554
 21
215.7534644123
 31
0.0
  0
LINE
  5
284
330
1F
100
AcDbEntity
  8
0
  6
Continuous
 62
     7
370
     0
100
AcDbLine
 10
165.6933016185
 20
215.7534644123
 30
0.0
 11
165.6933016185
 21
220.2355064567
 31
0.0
  0
LINE
  5
285
330
1F
100
AcDbEntity
  8
0
  6
Continuous
 62
     7
370
     0
100
AcDbLine
 10
160.243301447
 20
190.8081941422
 30
0.0
 11
168.243301827
 21
190.8081941422
 31
0.0
  0
LINE
  5
286
330
1F
100
AcDbEntity
  8
0
  6
Continuous
 62
     7
370
     0
100
AcDbLine
 10
160.243301447
 20
168.1188157875
 30
0.0
 11
168.243301827
 21
168.1188157875
 31
0.0
  0
LINE
  5
287
330
1F
100
AcDbEntity
  8
0
  6
Continuous
 62
     7
370
     0
100
AcDbLine
 10
160.243301447
 20
168.1188157875
 30
0.0
 11
160.243301447
 21
190.8081941422
 31
0.0
  0
LINE
  5
288
330
1F
100
AcDbEntity
  8
0
  6
Continuous
 62
     7
370
     0
100
AcDbLine
 10
168.243301827
 20
168.1188157875
 30
0.0
 11
168.243301827
 21
190.8081941422
 31
0.0
  0
LINE
  5
289
330
1F
100
AcDbEntity
  8
0
  6
Continuous
 62
     7
370
     0
100
AcDbLine
 10
160.243301447
 20
201.3089232262
 30
0.0
 11
160.243301447
 21
204.1812058653
 31
0.0
  0
LINE
  5
28A
330
1F
100
AcDbEntity
  8
0
  6
Continuous
 62
     7
370
     0
100
AcDbLine
 10
160.243301447
 20
204.4953689094
 30
0.0
 11
160.243301447
 21
214.1760461147
 31
0.0
  0
LINE
  5
28B
330
1F
100
AcDbEntity
  8
0
  6
Continuous
 62
     7
370
     0
100
AcDbLine
 10
168.243301827
 20
214.1760461147
 30
0.0
 11
160.243301447
 21
214.1760461147
 31
0.0
  0
LINE
  5
28C
330
1F
100
AcDbEntity
  8
0
  6
Continuous
 62
     7
370
     0
100
AcDbLine
 10
168.243301827
 20
204.4953689094
 30
0.0
 11
168.243301827
 21
214.1760461147
 31
0.0
  0
LINE
  5
28D
330
1F
100
AcDbEntity
  8
0
  6
Continuous
 62
     7
370
     0
100
AcDbLine
 10
168.243301827
 20
201.3089232262
 30
0.0
 11
168.243301827
 21
204.1812058653
 31
0.0
  0
LINE
  5
28E
330
1F
100
AcDbEntity
  8
0
  6
Continuous
 62
     7
370
     0
100
AcDbLine
 10
160.243301447
 20
190.8081941422
 30
0.0
 11
160.243301447
 21
197.579369333
 31
0.0
  0
LINE
  5
28F
330
1F
100
AcDbEntity
  8
0
  6
Continuous
 62
     7
370
     0
100
AcDbLine
 10
168.243301827
 20
190.8081941422
 30
0.0
 11
168.243301827
 21
197.579369333
 31
0.0
  0
ARC
  5
290
330
1F
100
AcDbEntity
  8
0
  6
Continuous
 62
     7
370
     0
100
AcDbCircle
 10
164.243301637
 20
202.7450647059
 30
0.0
 40
4.250000000000028
100
AcDbArc
 50
180.0
 51
199.7499227956
  0
LINE
  5
291
330
1F
100
AcDbEntity
  8
0
  6
Continuous
 62
     7
370
     0
100
AcDbLine
 10
160.243301447
 20
197.579369333
 30
0.0
 11
160.243301447
 21
201.3089232262
 31
0.0
  0
ARC
  5
292
330
1F
100
AcDbEntity
  8
0
  6
Continuous
 62
     7
370
     0
100
AcDbCircle
 10
164.243301637
 20
180.2450647059
 30
0.0
 40
6.0
100
AcDbArc
 50
131.8103148958
 51
180.0
  0
LINE
  5
293
330
1F
100
AcDbEntity
  8
0
  6
Continuous
 62
     7
370
     0
100
AcDbLine
 10
158.2433015848
 20
170.7450646557
 30
0.0
 11
158.2433015848
 21
180.245064583
 31
0.0
  0
ARC
  5
294
330
1F
100
AcDbEntity
  8
0
  6
Continuous
 62
     7
370
     0
100
AcDbCircle
 10
164.243301637
 20
170.7450647059
 30
0.0
 40
6.0
100
AcDbArc
 50
180.0
 51
0.0
  0
LINE
  5
295
330
1F
100
AcDbEntity
  8
0
  6
Continuous
 62
     7
370
     0
100
AcDbLine
 10
170.2433016891
 20
180.245064583
 30
0.0
 11
170.2433016891
 21
170.7450646557
 31
0.0
  0
ARC
  5
296
330
1F
100
AcDbEntity
  8
0
  6
Continuous
 62
     7
370
     0
100
AcDbCircle
 10
164.243301637
 20
180.2450647059
 30
0.0
 40
6.0
100
AcDbArc
 50
0.0
 51
48.1896851042
  0
LINE
  5
297
330
1F
100
AcDbEntity
  8
0
  6
Continuous
 62
     7
370
     0
100
AcDbLine
 10
168.243301827
 20
201.3089232262
 30
0.0
 11
168.243301827
 21
197.579369333
 31
0.0
  0
ARC
  5
298
330
1F
100
AcDbEntity
  8
0
  6
Continuous
 62
     7
370
     0
100
AcDbCircle
 10
164.243301637
 20
202.7450647059
 30
0.0
 40
4.250000000000001
100
AcDbArc
 50
340.2500772044
 51
0.0
  0
LINE
  5
299
330
1F
100
AcDbEntity
  8
0
  6
Continuous
 62
     7
370
     0
100
AcDbLine
 10
171.243301853
 20
202.7450654771
 30
0.0
 11
168.4933018679
 21
202.7450654771
 31
0.0
  0
LINE
  5
29A
330
1F
100
AcDbEntity
  8
0
  6
Continuous
 62
     7
370
     0
100
AcDbLine
 10
171.243301853
 20
155.7450652238
 30
0.0
 11
171.243301853
 21
202.7450654771
 31
0.0
  0
LINE
  5
29B
330
1F
100
AcDbEntity
  8
0
  6
Continuous
 62
     7
370
     0
100
AcDbLine
 10
157.2433014209
 20
155.7450652238
 30
0.0
 11
171.243301853
 21
155.7450652238
 31
0.0
  0
LINE
  5
29C
330
1F
100
AcDbEntity
  8
0
  6
Continuous
 62
     7
370
     0
100
AcDbLine
 10
157.2433014209
 20
202.7450654771
 30
0.0
 11
157.2433014209
 21
155.7450652238
 31
0.0
  0
LINE
  5
29D
330
1F
100
AcDbEntity
  8
0
  6
Continuous
 62
     7
370
     0
100
AcDbLine
 10
159.993301406
 20
202.7450654771
 30
0.0
 11
157.2433014209
 21
202.7450654771
 31
0.0
  0
LINE
  5
29E
330
1F
100
AcDbEntity
  8
0
  6
Continuous
 62
     7
370
     0
100
AcDbLine
 10
171.243301853
 20
202.7450654771
 30
0.0
 11
172.243302017
 21
203.7450637783
 31
0.0
  0
LINE
  5
29F
330
1F
100
AcDbEntity
  8
0
  6
Continuous
 62
     7
370
     0
100
AcDbLine
 10
172.243302017
 20
203.7450637783
 30
0.0
 11
172.243302017
 21
155.7450652238
 31
0.0
  0
LINE
  5
2A0
330
1F
100
AcDbEntity
  8
0
  6
Continuous
 62
     7
370
     0
100
AcDbLine
 10
172.243302017
 20
155.7450652238
 30
0.0
 11
171.243301853
 21
155.7450652238
 31
0.0
  0
LINE
  5
2A1
330
1F
100
AcDbEntity
  8
0
  6
Continuous
 62
     7
370
     0
100
AcDbLine
 10
156.243301257
 20
155.7450652238
 30
0.0
 11
156.243301257
 21
203.7450637783
 31
0.0
  0
LINE
  5
2A2
330
1F
100
AcDbEntity
  8
0
  6
Continuous
 62
     7
370
     0
100
AcDbLine
 10
156.243301257
 20
203.7450637783
 30
0.0
 11
157.2433014209
 21
202.7450654771
 31
0.0
  0
LINE
  5
2A3
330
1F
100
AcDbEntity
  8
0
  6
Continuous
 62
     7
370
     0
100
AcDbLine
 10
157.2433014209
 20
155.7450652238
 30
0.0
 11
156.243301257
 21
155.7450652238
 31
0.0
  0
LINE
  5
2A4
330
1F
100
AcDbEntity
  8
0
  6
Continuous
 62
     7
370
     0
100
AcDbLine
 10
168.243301827
 20
204.4953689094
 30
0.0
 11
168.243301827
 21
204.1812058653
 31
0.0
  0
LINE
  5
2A5
330
1F
100
AcDbEntity
  8
0
  6
Continuous
 62
     7
370
     0
100
AcDbLine
 10
168.243301827
 20
207.7450662966
 30
0.0
 11
170.6433014753
 21
207.7450662966
 31
0.0
  0
LINE
  5
2A6
330
1F
100
AcDbEntity
  8
0
  6
Continuous
 62
     7
370
     0
100
AcDbLine
 10
172.243302017
 20
206.1450652893
 30
0.0
 11
170.6433014753
 21
207.7450662966
 31
0.0
  0
LINE
  5
2A7
330
1F
100
AcDbEntity
  8
0
  6
Continuous
 62
     7
370
     0
100
AcDbLine
 10
172.243302017
 20
206.1450652893
 30
0.0
 11
172.243302017
 21
203.7450637783
 31
0.0
  0
ARC
  5
2A8
330
1F
100
AcDbEntity
  8
0
  6
Continuous
 62
     7
370
     0
100
AcDbCircle
 10
164.243301637
 20
202.7450647059
 30
0.0
 40
4.250000000000001
100
AcDbArc
 50
0.0
 51
19.7499227956
  0
LINE
  5
2A9
330
1F
100
AcDbEntity
  8
0
  6
Continuous
 62
     7
370
     0
100
AcDbLine
 10
160.243301447
 20
204.1812058653
 30
0.0
 11
160.243301447
 21
204.4953689094
 31
0.0
  0
LINE
  5
2AA
330
1F
100
AcDbEntity
  8
0
  6
Continuous
 62
     7
370
     0
100
AcDbLine
 10
156.243301257
 20
203.7450637783
 30
0.0
 11
156.243301257
 21
206.1450652893
 31
0.0
  0
LINE
  5
2AB
330
1F
100
AcDbEntity
  8
0
  6
Continuous
 62
     7
370
     0
100
AcDbLine
 10
157.8433017987
 20
207.7450662966
 30
0.0
 11
156.243301257
 21
206.1450652893
 31
0.0
  0
LINE
  5
2AC
330
1F
100
AcDbEntity
  8
0
  6
Continuous
 62
     7
370
     0
100
AcDbLine
 10
157.8433017987
 20
207.7450662966
 30
0.0
 11
160.243301447
 21
207.7450662966
 31
0.0
  0
ARC
  5
2AD
330
1F
100
AcDbEntity
  8
0
  6
Continuous
 62
     7
370
     0
100
AcDbCircle
 10
164.243301637
 20
202.7450647059
 30
0.0
 40
4.250000000000028
100
AcDbArc
 50
160.2500772044
 51
180.0
  0
LINE
  5
2AE
330
1F
100
AcDbEntity
  8
0
  6
Continuous
 62
     7
370
     0
100
AcDbLine
 10
166.243301732
 20
166.4734132703
 30
0.0
 11
162.243301542
 21
166.4734132703
 31
0.0
  0
LINE
  5
2AF
330
1F
100
AcDbEntity
  8
0
  6
Continuous
 62
     7
370
     0
100
AcDbLine
 10
162.243301542
 20
166.4734132703
 30
0.0
 11
160.243301447
 21
168.1188157875
 31
0.0
  0
LINE
  5
2B0
330
1F
100
AcDbEntity
  8
0
  6
Continuous
 62
     7
370
     0
100
AcDbLine
 10
168.243301827
 20
168.1188157875
 30
0.0
 11
166.243301732
 21
166.4734132703
 31
0.0
  0
LINE
  5
2B1
330
1F
100
AcDbEntity
  8
0
  6
Continuous
 62
     7
370
     0
100
AcDbLine
 10
168.243301827
 20
243.3306299265
 30
0.0
 11
166.243301732
 21
243.3306299265
 31
0.0
  0
LINE
  5
2B2
330
1F
100
AcDbEntity
  8
0
  6
Continuous
 62
     7
370
     0
100
AcDbLine
 10
167.743301745
 20
236.9184143956
 30
0.0
 11
168.243301827
 21
236.9184143956
 31
0.0
  0
LINE
  5
2B3
330
1F
100
AcDbEntity
  8
0
  6
Continuous
 62
     7
370
     0
100
AcDbLine
 10
166.243301732
 20
242.1822123345
 30
0.0
 11
166.243301732
 21
243.3306299265
 31
0.0
  0
LINE
  5
2B4
330
1F
100
AcDbEntity
  8
0
  6
Continuous
 62
     7
370
     0
100
AcDbLine
 10
168.243301827
 20
243.3306299265
 30
0.0
 11
168.243301827
 21
236.9184143956
 31
0.0
  0
LINE
  5
2B5
330
1F
100
AcDbEntity
  8
0
  6
Continuous
 62
     7
370
     0
100
AcDbLine
 10
162.243301542
 20
243.3306299265
 30
0.0
 11
160.243301447
 21
243.3306299265
 31
0.0
  0
LINE
  5
2B6
330
1F
100
AcDbEntity
  8
0
  6
Continuous
 62
     7
370
     0
100
AcDbLine
 10
160.243301447
 20
236.9184143956
 30
0.0
 11
160.7433015289
 21
236.9184143956
 31
0.0
  0
LINE
  5
2B7
330
1F
100
AcDbEntity
  8
0
  6
Continuous
 62
     7
370
     0
100
AcDbLine
 10
162.243301542
 20
243.3306299265
 30
0.0
 11
162.243301542
 21
242.1822123345
 31
0.0
  0
LINE
  5
2B8
330
1F
100
AcDbEntity
  8
0
  6
Continuous
 62
     7
370
     0
100
AcDbLine
 10
160.243301447
 20
243.3306299265
 30
0.0
 11
160.243301447
 21
236.9184143956
 31
0.0
  0
LINE
  5
2B9
330
1F
100
AcDbEntity
  8
0
  6
Continuous
 62
     7
370
     0
100
AcDbLine
 10
166.243301732
 20
244.4809176143
 30
0.0
 11
168.243301827
 21
244.4809176143
 31
0.0
  0
LINE
  5
2BA
330
1F
100
AcDbEntity
  8
0
  6
Continuous
 62
     7
370
     0
100
AcDbLine
 10
166.243301732
 20
243.3306299265
 30
0.0
 11
166.243301732
 21
244.4809176143
 31
0.0
  0
LINE
  5
2BB
330
1F
100
AcDbEntity
  8
0
  6
Continuous
 62
     7
370
     0
100
AcDbLine
 10
168.243301827
 20
244.4809176143
 30
0.0
 11
168.243301827
 21
243.3306299265
 31
0.0
  0
LINE
  5
2BC
330
1F
100
AcDbEntity
  8
0
  6
Continuous
 62
     7
370
     0
100
AcDbLine
 10
160.243301447
 20
244.4809176143
 30
0.0
 11
162.243301542
 21
244.4809176143
 31
0.0
  0
LINE
  5
2BD
330
1F
100
AcDbEntity
  8
0
  6
Continuous
 62
     7
370
     0
100
AcDbLine
 10
162.243301542
 20
244.4809176143
 30
0.0
 11
162.243301542
 21
243.3306299265
 31
0.0
  0
LINE
  5
2BE
330
1F
100
AcDbEntity
  8
0
  6
Continuous
 62
     7
370
     0
100
AcDbLine
 10
160.243301447
 20
243.3306299265
 30
0.0
 11
160.243301447
 21
244.4809176143
 31
0.0
  0
LINE
  5
2BF
330
1F
100
AcDbEntity
  8
0
  6
Continuous
 62
     7
370
     0
100
AcDbLine
 10
161.2433016109
 20
220.6431202706
 30
0.0
 11
160.243301447
 21
220.6431202706
 31
0.0
  0
LINE
  5
2C0
330
1F
100
AcDbEntity
  8
0
  6
Continuous
 62
     7
370
     0
100
AcDbLine
 10
168.243301827
 20
220.6431202706
 30
0.0
 11
167.2433016631
 21
220.6431202706
 31
0.0
  0
LINE
  5
2C1
330
1F
100
AcDbEntity
  8
0
  6
Continuous
 62
     7
370
     0
100
AcDbLine
 10
161.2433016109
 20
221.1401037987
 30
0.0
 11
161.2433016109
 21
220.6431202706
 31
0.0
  0
LINE
  5
2C2
330
1F
100
AcDbEntity
  8
0
  6
Continuous
 62
     7
370
     0
100
AcDbLine
 10
167.2433016631
 20
221.1401037987
 30
0.0
 11
167.2433016631
 21
220.6431202706
 31
0.0
  0
LINE
  5
2C3
330
1F
100
AcDbEntity
  8
0
  6
Continuous
 62
     7
370
     0
100
AcDbLine
 10
160.243301447
 20
218.2674281414
 30
0.0
 11
160.243301447
 21
220.6431202706
 31
0.0
  0
LINE
  5
2C4
330
1F
100
AcDbEntity
  8
0
  6
Continuous
 62
     7
370
     0
100
AcDbLine
 10
168.243301827
 20
218.2674281414
 30
0.0
 11
168.243301827
 21
220.6431202706
 31
0.0
  0
LINE
  5
2C5
330
1F
100
AcDbEntity
  8
0
  6
Continuous
 62
     7
370
     0
100
AcDbLine
 10
168.243301827
 20
220.6431202706
 30
0.0
 11
168.243301827
 21
221.216397744
 31
0.0
  0
LINE
  5
2C6
330
1F
100
AcDbEntity
  8
0
  6
Continuous
 62
     7
370
     0
100
AcDbLine
 10
160.243301447
 20
221.216397744
 30
0.0
 11
160.243301447
 21
220.6431202706
 31
0.0
  0
LINE
  5
2C7
330
1F
100
AcDbEntity
  8
0
  6
Continuous
 62
     7
370
     0
100
AcDbLine
 10
166.243301732
 20
245.6274725612
 30
0.0
 11
168.243301827
 21
245.6274725612
 31
0.0
  0
LINE
  5
2C8
330
1F
100
AcDbEntity
  8
0
  6
Continuous
 62
     7
370
     0
100
AcDbLine
 10
166.243301732
 20
245.6274725612
 30
0.0
 11
166.243301732
 21
244.4809176143
 31
0.0
  0
LINE
  5
2C9
330
1F
100
AcDbEntity
  8
0
  6
Continuous
 62
     7
370
     0
100
AcDbLine
 10
168.243301827
 20
244.4809176143
 30
0.0
 11
168.243301827
 21
245.6274725612
 31
0.0
  0
LINE
  5
2CA
330
1F
100
AcDbEntity
  8
0
  6
Continuous
 62
     7
370
     0
100
AcDbLine
 10
160.243301447
 20
245.6274725612
 30
0.0
 11
162.243301542
 21
245.6274725612
 31
0.0
  0
LINE
  5
2CB
330
1F
100
AcDbEntity
  8
0
  6
Continuous
 62
     7
370
     0
100
AcDbLine
 10
162.243301542
 20
245.6274725612
 30
0.0
 11
162.243301542
 21
244.4809176143
 31
0.0
  0
LINE
  5
2CC
330
1F
100
AcDbEntity
  8
0
  6
Continuous
 62
     7
370
     0
100
AcDbLine
 10
160.243301447
 20
244.4809176143
 30
0.0
 11
160.243301447
 21
245.6274725612
 31
0.0
  0
LINE
  5
2CD
330
1F
100
AcDbEntity
  8
0
  6
Continuous
 62
     7
370
     0
100
AcDbLine
 10
160.243301447
 20
214.1760461147
 30
0.0
 11
160.243301447
 21
218.2674281414
 31
0.0
  0
LINE
  5
2CE
330
1F
100
AcDbEntity
  8
0
  6
Continuous
 62
     7
370
     0
100
AcDbLine
 10
168.243301827
 20
218.2674281414
 30
0.0
 11
168.243301827
 21
214.1760461147
 31
0.0
  0
LINE
  5
2CF
330
1F
100
AcDbEntity
  8
0
  6
Continuous
 62
     7
370
     0
100
AcDbLine
 10
168.243301827
 20
234.5322094973
 30
0.0
 11
168.243301827
 21
236.9184143956
 31
0.0
  0
LINE
  5
2D0
330
1F
100
AcDbEntity
  8
0
  6
Continuous
 62
     7
370
     0
100
AcDbLine
 10
160.243301447
 20
236.9184143956
 30
0.0
 11
160.243301447
 21
234.5322094973
 31
0.0
  0
LINE
  5
2D1
330
1F
100
AcDbEntity
  8
0
  6
Continuous
 62
     7
370
     0
100
AcDbLine
 10
168.243301827
 20
221.216397744
 30
0.0
 11
168.243301827
 21
222.7395385619
 31
0.0
  0
LINE
  5
2D2
330
1F
100
AcDbEntity
  8
0
  6
Continuous
 62
     7
370
     0
100
AcDbLine
 10
160.243301447
 20
222.6918324943
 30
0.0
 11
160.243301447
 21
221.216397744
 31
0.0
  0
LINE
  5
2D3
330
1F
100
AcDbEntity
  8
0
  6
Continuous
 62
     7
370
     0
100
AcDbLine
 10
168.243301827
 20
228.2441206391
 30
0.0
 11
168.243301827
 21
234.5322094973
 31
0.0
  0
LINE
  5
2D4
330
1F
100
AcDbEntity
  8
0
  6
Continuous
 62
     7
370
     0
100
AcDbLine
 10
160.243301447
 20
234.5322094973
 30
0.0
 11
160.243301447
 21
228.291830432
 31
0.0
  0
LINE
  5
2D5
330
1F
100
AcDbEntity
  8
0
  6
Continuous
 62
     7
370
     0
100
AcDbLine
 10
164.243301637
 20
139.7450663264
 30
0.0
 11
159.2433017487
 21
139.7450663264
 31
0.0
  0
LINE
  5
2D6
330
1F
100
AcDbEntity
  8
0
  6
Continuous
 62
     7
370
     0
100
AcDbLine
 10
169.2433015252
 20
139.7450663264
 30
0.0
 11
164.243301637
 21
139.7450663264
 31
0.0
  0
LINE
  5
2D7
330
1F
100
AcDbEntity
  8
0
  6
Continuous
 62
     7
370
     0
100
AcDbLine
 10
164.243301637
 20
140.7450646277
 30
0.0
 11
170.2433016891
 21
140.7450646277
 31
0.0
  0
LINE
  5
2D8
330
1F
100
AcDbEntity
  8
0
  6
Continuous
 62
     7
370
     0
100
AcDbLine
 10
158.2433015848
 20
140.7450646277
 30
0.0
 11
164.243301637
 21
140.7450646277
 31
0.0
  0
LINE
  5
2D9
330
1F
100
AcDbEntity
  8
0
  6
Continuous
 62
     7
370
     0
100
AcDbLine
 10
159.2433017487
 20
209.1450639184
 30
0.0
 11
160.243301447
 21
209.1450639184
 31
0.0
  0
LINE
  5
2DA
330
1F
100
AcDbEntity
  8
0
  6
Continuous
 62
     7
370
     0
100
AcDbLine
 10
168.243301827
 20
209.1450639184
 30
0.0
 11
169.2433015252
 21
209.1450639184
 31
0.0
  0
LINE
  5
2DB
330
1F
100
AcDbEntity
  8
0
  6
Continuous
 62
     7
370
     0
100
AcDbLine
 10
159.2433017487
 20
209.1450639184
 30
0.0
 11
157.8433017987
 21
207.7450662966
 31
0.0
  0
LINE
  5
2DC
330
1F
100
AcDbEntity
  8
0
  6
Continuous
 62
     7
370
     0
100
AcDbLine
 10
170.6433014753
 20
207.7450662966
 30
0.0
 11
169.2433015252
 21
209.1450639184
 31
0.0
  0
LINE
  5
2DD
330
1F
100
AcDbEntity
  8
0
  6
Continuous
 62
     7
370
     0
100
AcDbLine
 10
166.243301732
 20
245.6274725612
 30
0.0
 11
162.243301542
 21
245.6274725612
 31
0.0
  0
ARC
  5
2DE
330
1F
100
AcDbEntity
  8
0
  6
Continuous
 62
     7
370
     0
100
AcDbCircle
 10
164.243301637
 20
175.4950647059
 30
0.0
 40
5.123475382979808
100
AcDbArc
 50
141.3265506239
 51
218.6734493761
  0
ARC
  5
2DF
330
1F
100
AcDbEntity
  8
0
  6
Continuous
 62
     7
370
     0
100
AcDbCircle
 10
164.243301637
 20
175.4950647059
 30
0.0
 40
5.123475382979812
100
AcDbArc
 50
321.3265506239
 51
38.6734493761
  0
LINE
  5
2E0
330
1F
100
AcDbEntity
  8
0
  6
Continuous
 62
     7
370
     0
100
AcDbLine
 10
158.3365148673
 20
170.7450646557
 30
0.0
 11
158.3365148673
 21
180.245064583
 31
0.0
  0
SPLINE
  5
2E1
330
1F
100
AcDbEntity
  8
0
  6
Continuous
 62
     7
370
     0
100
AcDbSpline
210
0.0
220
0.0
230
1.0
 70
    24
 71
     3
 72
    10
 73
     6
 74
     0
 42
0.000000001
 43
0.00000001
 40
0.0
 40
0.0
 40
0.0
 40
0.0
 40
0.5
 40
0.5
 40
1.0
 40
1.0
 40
1.0
 40
1.0
 10
158.6364691090474
 20
180.2450647059268
 30
0.0
 10
158.5588019572924
 20
180.2450647059258
 30
0.0
 10
158.4815924605074
 20
180.2450647059252
 30
0.0
 10
158.3708001987597
 20
180.2450647059252
 30
0.0
 10
158.3378702790416
 20
180.2450647059258
 30
0.0
 10
158.3365148003744
 20
180.2450647059268
 30
0.0
  0
LINE
  5
2E2
330
1F
100
AcDbEntity
  8
0
  6
Continuous
 62
     7
370
     0
100
AcDbLine
 10
158.6364691886
 20
170.7450646557
 30
0.0
 11
158.6364691886
 21
180.245064583
 31
0.0
  0
SPLINE
  5
2E3
330
1F
100
AcDbEntity
  8
0
  6
Continuous
 62
     7
370
     0
100
AcDbSpline
210
0.0
220
0.0
230
1.0
 70
    24
 71
     3
 72
    10
 73
     6
 74
     0
 42
0.000000001
 43
0.00000001
 40
0.0
 40
0.0
 40
0.0
 40
0.0
 40
0.5
 40
0.5
 40
1.0
 40
1.0
 40
1.0
 40
1.0
 10
158.6364691090474
 20
170.7450647059268
 30
0.0
 10
158.5588019573336
 20
170.7450647059268
 30
0.0
 10
158.4815924606018
 20
170.7450647059268
 30
0.0
 10
158.3708001989131
 20
170.7450647059268
 30
0.0
 10
158.337870279199
 20
170.7450647059268
 30
0.0
 10
158.3365148005005
 20
170.7450647059268
 30
0.0
  0
SPLINE
  5
2E4
330
1F
100
AcDbEntity
  8
0
  6
Continuous
 62
     7
370
     0
100
AcDbSpline
210
0.0
220
0.0
230
1.0
 70
    24
 71
     3
 72
    10
 73
     6
 74
     0
 42
0.000000001
 43
0.00000001
 40
0.0
 40
0.0
 40
0.0
 40
0.0
 40
0.5
 40
0.5
 40
1.0
 40
1.0
 40
1.0
 40
1.0
 10
169.8501341649052
 20
180.2450647059268
 30
0.0
 10
169.9278013166189
 20
180.2450647059268
 30
0.0
 10
170.0050108133508
 20
180.2450647059268
 30
0.0
 10
170.1158030750395
 20
180.2450647059268
 30
0.0
 10
170.1487329947535
 20
180.2450647059268
 30
0.0
 10
170.1500884734521
 20
180.2450647059268
 30
0.0
  0
LINE
  5
2E5
330
1F
100
AcDbEntity
  8
0
  6
Continuous
 62
     7
370
     0
100
AcDbLine
 10
169.8501340854
 20
180.245064583
 30
0.0
 11
169.8501340854
 21
170.7450646557
 31
0.0
  0
SPLINE
  5
2E6
330
1F
100
AcDbEntity
  8
0
  6
Continuous
 62
     7
370
     0
100
AcDbSpline
210
0.0
220
0.0
230
1.0
 70
     8
 71
     3
 72
    14
 73
    10
 74
     0
 42
0.000000001
 43
0.00000001
 40
0.0
 40
0.0
 40
0.0
 40
0.0
 40
0.25
 40
0.25
 40
0.5
 40
0.5
 40
0.75
 40
0.75
 40
1.0
 40
1.0
 40
1.0
 40
1.0
 10
169.8501341649052
 20
170.7450647059268
 30
0.0
 10
169.8501341649052
 20
170.0111320442747
 30
0.0
 10
169.7042033218342
 20
169.2774881537846
 30
0.0
 10
169.1424755816625
 20
167.9213574251009
 30
0.0
 10
168.7268997004406
 20
167.2994041664394
 30
0.0
 10
167.6889621764636
 20
166.2614666424625
 30
0.0
 10
167.0670089178022
 20
165.8458907612406
 30
0.0
 10
165.7108781891185
 20
165.2841630210689
 30
0.0
 10
164.9772342986283
 20
165.1382321779979
 30
0.0
 10
164.2433016369763
 20
165.1382321779979
 30
0.0
  0
SPLINE
  5
2E7
330
1F
100
AcDbEntity
  8
0
  6
Continuous
 62
     7
370
     0
100
AcDbSpline
210
0.0
220
0.0
230
1.0
 70
     8
 71
     3
 72
    14
 73
    10
 74
     0
 42
0.000000001
 43
0.00000001
 40
0.0
 40
0.0
 40
0.0
 40
0.0
 40
0.2499999999999999
 40
0.2499999999999999
 40
0.4999999999999999
 40
0.4999999999999999
 40
0.7499999999999999
 40
0.7499999999999999
 40
1.0
 40
1.0
 40
1.0
 40
1.0
 10
164.2433016369763
 20
165.1382321779979
 30
0.0
 10
163.5093689753242
 20
165.1382321779979
 30
0.0
 10
162.7757250848341
 20
165.2841630210689
 30
0.0
 10
161.4195943561503
 20
165.8458907612406
 30
0.0
 10
160.7976410974889
 20
166.2614666424625
 30
0.0
 10
159.759703573512
 20
167.2994041664394
 30
0.0
 10
159.3441276922901
 20
167.9213574251009
 30
0.0
 10
158.7823999521184
 20
169.2774881537846
 30
0.0
 10
158.6364691090474
 20
170.0111320442747
 30
0.0
 10
158.6364691090474
 20
170.7450647059268
 30
0.0
  0
LINE
  5
2E8
330
1F
100
AcDbEntity
  8
0
  6
Continuous
 62
     7
370
     0
100
AcDbLine
 10
170.1500884066
 20
180.245064583
 30
0.0
 11
170.1500884066
 21
170.7450646557
 31
0.0
  0
SPLINE
  5
2E9
330
1F
100
AcDbEntity
  8
0
  6
Continuous
 62
     7
370
     0
100
AcDbSpline
210
0.0
220
0.0
230
1.0
 70
    24
 71
     3
 72
    10
 73
     6
 74
     0
 42
0.000000001
 43
0.00000001
 40
0.0
 40
0.0
 40
0.0
 40
0.0
 40
0.5
 40
0.5
 40
1.0
 40
1.0
 40
1.0
 40
1.0
 10
170.1500884734521
 20
170.7450647059268
 30
0.0
 10
170.1487329947535
 20
170.7450647059268
 30
0.0
 10
170.1158030750395
 20
170.7450647059268
 30
0.0
 10
170.0050108133507
 20
170.7450647059268
 30
0.0
 10
169.9278013166189
 20
170.7450647059268
 30
0.0
 10
169.8501341649052
 20
170.7450647059268
 30
0.0
  0
SPLINE
  5
2EA
330
1F
100
AcDbEntity
  8
0
  6
Continuous
 62
     7
370
     0
100
AcDbSpline
210
0.0
220
0.0
230
1.0
 70
     8
 71
     3
 72
    14
 73
    10
 74
     0
 42
0.000000001
 43
0.00000001
 40
0.0
 40
0.0
 40
0.0
 40
0.0
 40
0.2499999999999999
 40
0.2499999999999999
 40
0.4999999999999999
 40
0.4999999999999999
 40
0.7499999999999999
 40
0.7499999999999999
 40
1.0
 40
1.0
 40
1.0
 40
1.0
 10
170.1500884734521
 20
170.7450647059268
 30
0.0
 10
170.1500884734521
 20
169.9718681171021
 30
0.0
 10
169.9963506226078
 20
169.198975748118
 30
0.0
 10
169.4045715735989
 20
167.7702947420726
 30
0.0
 10
168.96676321522
 20
167.1150682299795
 30
0.0
 10
167.8732981129234
 20
166.021603127683
 30
0.0
 10
167.2180716008303
 20
165.5837947693041
 30
0.0
 10
165.7893905947849
 20
164.9920157202952
 30
0.0
 10
165.0164982258008
 20
164.838277869451
 30
0.0
 10
164.2433016369761
 20
164.838277869451
 30
0.0
  0
SPLINE
  5
2EB
330
1F
100
AcDbEntity
  8
0
  6
Continuous
 62
     7
370
     0
100
AcDbSpline
210
0.0
220
0.0
230
1.0
 70
     8
 71
     3
 72
    14
 73
    10
 74
     0
 42
0.000000001
 43
0.00000001
 40
0.0
 40
0.0
 40
0.0
 40
0.0
 40
0.2499999999999999
 40
0.2499999999999999
 40
0.5
 40
0.5
 40
0.75
 40
0.75
 40
1.0
 40
1.0
 40
1.0
 40
1.0
 10
164.2433016369761
 20
164.838277869451
 30
0.0
 10
163.4701050481514
 20
164.838277869451
 30
0.0
 10
162.6972126791673
 20
164.9920157202953
 30
0.0
 10
161.2685316731219
 20
165.5837947693042
 30
0.0
 10
160.613305161029
 20
166.0216031276831
 30
0.0
 10
159.5198400587325
 20
167.1150682299797
 30
0.0
 10
159.0820317003536
 20
167.7702947420727
 30
0.0
 10
158.4902526513447
 20
169.1989757481181
 30
0.0
 10
158.3365148005005
 20
169.9718681171021
 30
0.0
 10
158.3365148005005
 20
170.7450647059268
 30
0.0
  0
LINE
  5
2EC
330
1F
100
AcDbEntity
  8
0
  6
Continuous
 62
     7
370
     0
100
AcDbLine
 10
170.1883015032
 20
170.7450646557
 30
0.0
 11
170.1500884066
 21
170.7450646557
 31
0.0
  0
ARC
  5
2ED
330
1F
100
AcDbEntity
  8
0
  6
Continuous
 62
     7
370
     0
100
AcDbCircle
 10
164.243301637
 20
170.7450647059
 30
0.0
 40
5.945000000000192
100
AcDbArc
 50
180.0
 51
0.0
  0
LINE
  5
2EE
330
1F
100
AcDbEntity
  8
0
  6
Continuous
 62
     7
370
     0
100
AcDbLine
 10
158.3365148673
 20
170.7450646557
 30
0.0
 11
158.2983017708
 21
170.7450646557
 31
0.0
  0
LINE
  5
2EF
330
1F
100
AcDbEntity
  8
0
  6
Continuous
 62
     7
370
     0
100
AcDbLine
 10
170.1500884066
 20
180.245064583
 30
0.0
 11
170.1883015032
 21
180.245064583
 31
0.0
  0
LINE
  5
2F0
330
1F
100
AcDbEntity
  8
0
  6
Continuous
 62
     7
370
     0
100
AcDbLine
 10
170.1883015032
 20
180.245064583
 30
0.0
 11
170.1883015032
 21
170.7450646557
 31
0.0
  0
LINE
  5
2F1
330
1F
100
AcDbEntity
  8
0
  6
Continuous
 62
     7
370
     0
100
AcDbLine
 10
158.3365148673
 20
180.245064583
 30
0.0
 11
158.2983017708
 21
180.245064583
 31
0.0
  0
LINE
  5
2F2
330
1F
100
AcDbEntity
  8
0
  6
Continuous
 62
     7
370
     0
100
AcDbLine
 10
158.2983017708
 20
170.7450646557
 30
0.0
 11
158.2983017708
 21
180.245064583
 31
0.0
  0
ARC
  5
2F3
330
1F
100
AcDbEntity
  8
0
  6
Continuous
 62
     7
370
     0
100
AcDbCircle
 10
164.243301637
 20
180.2450647059
 30
0.0
 40
5.944999999999999
100
AcDbArc
 50
132.2861972684
 51
180.0
  0
ARC
  5
2F4
330
1F
100
AcDbEntity
  8
0
  6
Continuous
 62
     7
370
     0
100
AcDbCircle
 10
164.243301637
 20
180.2450647059
 30
0.0
 40
5.944999999999993
100
AcDbArc
 50
0.0
 51
47.7138027316
  0
LINE
  5
2F5
330
1F
100
AcDbEntity
  8
0
  6
Continuous
 62
     7
370
     0
100
AcDbLine
 10
166.7169223348
 20
137.0450653251
 30
0.0
 11
165.5846089399
 21
137.0450653251
 31
0.0
  0
SPLINE
  5
2F6
330
1F
100
AcDbEntity
  8
0
  6
Continuous
 62
     7
370
     0
100
AcDbSpline
210
0.0
220
0.0
230
1.0
 70
     8
 71
     3
 72
     8
 73
     4
 74
     0
 42
0.000000001
 43
0.00000001
 40
0.0
 40
0.0
 40
0.0
 40
0.0
 40
1.0
 40
1.0
 40
1.0
 40
1.0
 10
166.716922377266
 20
137.0450647061528
 30
0.0
 10
166.9970224134097
 20
136.8581081842117
 30
0.0
 10
167.2848483024913
 20
136.745064705815
 30
0.0
 10
167.584490201637
 20
136.7450647059267
 30
0.0
  0
LINE
  5
2F7
330
1F
100
AcDbEntity
  8
0
  6
Continuous
 62
     7
370
     0
100
AcDbLine
 10
167.5844902913
 20
136.7450639721
 30
0.0
 11
164.0093371226
 21
136.7450639721
 31
0.0
  0
SPLINE
  5
2F8
330
1F
100
AcDbEntity
  8
0
  6
Continuous
 62
     7
370
     0
100
AcDbSpline
210
0.0
220
0.0
230
1.0
 70
     8
 71
     3
 72
     8
 73
     4
 74
     0
 42
0.000000001
 43
0.00000001
 40
0.0
 40
0.0
 40
0.0
 40
0.0
 40
1.0
 40
1.0
 40
1.0
 40
1.0
 10
164.0093371153116
 20
136.7450647058129
 30
0.0
 10
164.5534068871346
 20
136.7450647056896
 30
0.0
 10
165.0760219360717
 20
136.8581081840335
 30
0.0
 10
165.5846088966733
 20
137.0450647059285
 30
0.0
  0
LINE
  5
2F9
330
1F
100
AcDbEntity
  8
0
  6
Continuous
 62
     7
370
     0
100
AcDbLine
 10
165.5846089399
 20
137.0450653251
 30
0.0
 11
165.5846089399
 21
139.7450663264
 31
0.0
  0
SPLINE
  5
2FA
330
1F
100
AcDbEntity
  8
0
  6
Continuous
 62
     7
370
     0
100
AcDbSpline
210
0.0
220
0.0
230
1.0
 70
     8
 71
     3
 72
     8
 73
     4
 74
     0
 42
0.000000001
 43
0.00000001
 40
0.0
 40
0.0
 40
0.0
 40
0.0
 40
1.0
 40
1.0
 40
1.0
 40
1.0
 10
162.4340653357451
 20
137.0450647058936
 30
0.0
 10
162.9426522957974
 20
136.858108184203
 30
0.0
 10
163.4652673440836
 20
136.745064705931
 30
0.0
 10
164.0093371153088
 20
136.7450647058075
 30
0.0
  0
LINE
  5
2FB
330
1F
100
AcDbEntity
  8
0
  6
Continuous
 62
     7
370
     0
100
AcDbLine
 10
162.4340653927
 20
139.7450663264
 30
0.0
 11
162.4340653927
 21
137.0450653251
 31
0.0
  0
LINE
  5
2FC
330
1F
100
AcDbEntity
  8
0
  6
Continuous
 62
     7
370
     0
100
AcDbLine
 10
161.375852562
 20
137.0450653251
 30
0.0
 11
162.4340653927
 21
137.0450653251
 31
0.0
  0
LINE
  5
2FD
330
1F
100
AcDbEntity
  8
0
  6
Continuous
 62
     7
370
     0
100
AcDbLine
 10
160.6681484538
 20
136.7450639721
 30
0.0
 11
164.0093371226
 21
136.7450639721
 31
0.0
  0
SPLINE
  5
2FE
330
1F
100
AcDbEntity
  8
0
  6
Continuous
 62
     7
370
     0
100
AcDbSpline
210
0.0
220
0.0
230
1.0
 70
     8
 71
     3
 72
     8
 73
     4
 74
     0
 42
0.000000001
 43
0.00000001
 40
0.0
 40
0.0
 40
0.0
 40
0.0
 40
1.0
 40
1.0
 40
1.0
 40
1.0
 10
160.6681485520327
 20
136.7450647058226
 30
0.0
 10
160.9125764244656
 20
136.7450647058131
 30
0.0
 10
161.1473655840096
 20
136.8581081839515
 30
0.0
 10
161.3758525082527
 20
137.0450647055445
 30
0.0
  0
LINE
  5
2FF
330
1F
100
AcDbEntity
  8
0
  6
Continuous
 62
     7
370
     0
100
AcDbLine
 10
166.7169223348
 20
139.7450663264
 30
0.0
 11
166.7169223348
 21
137.0450653251
 31
0.0
  0
LINE
  5
300
330
1F
100
AcDbEntity
  8
0
  6
Continuous
 62
     7
370
     0
100
AcDbLine
 10
161.375852562
 20
137.0450653251
 30
0.0
 11
161.375852562
 21
139.7450663264
 31
0.0
  0
LINE
  5
301
330
1F
100
AcDbEntity
  8
0
  6
Continuous
 62
     7
370
     0
100
AcDbLine
 10
168.4520582477
 20
137.0450653251
 30
0.0
 11
168.4520582477
 21
139.7450663264
 31
0.0
  0
SPLINE
  5
302
330
1F
100
AcDbEntity
  8
0
  6
Continuous
 62
     7
370
     0
100
AcDbSpline
210
0.0
220
0.0
230
1.0
 70
     8
 71
     3
 72
     8
 73
     4
 74
     0
 42
0.000000001
 43
0.00000001
 40
0.0
 40
0.0
 40
0.0
 40
0.0
 40
1.0
 40
1.0
 40
1.0
 40
1.0
 10
167.584490201637
 20
136.7450647059267
 30
0.0
 10
167.8841321003612
 20
136.7450647060385
 30
0.0
 10
168.171957989176
 20
136.8581081843861
 30
0.0
 10
168.4520580249351
 20
137.0450647060391
 30
0.0
  0
SPLINE
  5
303
330
1F
100
AcDbEntity
  8
0
  6
Continuous
 62
     7
370
     0
100
AcDbSpline
210
0.0
220
0.0
230
1.0
 70
     8
 71
     3
 72
     8
 73
     4
 74
     0
 42
0.000000001
 43
0.00000001
 40
0.0
 40
0.0
 40
0.0
 40
0.0
 40
1.0
 40
1.0
 40
1.0
 40
1.0
 10
159.9604445955116
 20
137.0450647057886
 30
0.0
 10
160.1889315197811
 20
136.8581081841058
 30
0.0
 10
160.4237206795239
 20
136.7450647058176
 30
0.0
 10
160.6681485519976
 20
136.7450647058074
 30
0.0
  0
LINE
  5
304
330
1F
100
AcDbEntity
  8
0
  6
Continuous
 62
     7
370
     0
100
AcDbLine
 10
159.9604448112
 20
139.7450663264
 30
0.0
 11
159.9604448112
 21
137.0450653251
 31
0.0
  0
LINE
  5
305
330
1F
100
AcDbEntity
  8
0
  6
Continuous
 62
     7
370
     0
100
AcDbLine
 10
168.4520582477
 20
137.0450653251
 30
0.0
 11
168.543301783
 21
137.0450653251
 31
0.0
  0
LINE
  5
306
330
1F
100
AcDbEntity
  8
0
  6
Continuous
 62
     7
370
     0
100
AcDbLine
 10
167.5844902913
 20
136.7450639721
 30
0.0
 11
168.243301827
 21
136.7450639721
 31
0.0
  0
LINE
  5
307
330
1F
100
AcDbEntity
  8
0
  6
Continuous
 62
     7
370
     0
100
AcDbLine
 10
162.4433016679
 20
131.7450650151
 30
0.0
 11
166.0433016061
 21
131.7450650151
 31
0.0
  0
LINE
  5
308
330
1F
100
AcDbEntity
  8
0
  6
Continuous
 62
     7
370
     0
100
AcDbLine
 10
162.7433016239
 20
129.7450646873
 30
0.0
 11
165.74330165
 21
129.7450646873
 31
0.0
  0
LINE
  5
309
330
1F
100
AcDbEntity
  8
0
  6
Continuous
 62
     7
370
     0
100
AcDbLine
 10
163.2536638337
 20
132.2450660284
 30
0.0
 11
166.0433016061
 21
132.2450660284
 31
0.0
  0
LINE
  5
30A
330
1F
100
AcDbEntity
  8
0
  6
Continuous
 62
     7
370
     0
100
AcDbLine
 10
162.4433016679
 20
132.2450660284
 30
0.0
 11
163.2536638337
 21
132.2450660284
 31
0.0
  0
LINE
  5
30B
330
1F
100
AcDbEntity
  8
0
  6
Continuous
 62
     7
370
     0
100
AcDbLine
 10
162.4433016679
 20
134.2450663562
 30
0.0
 11
166.0433016061
 21
134.2450663562
 31
0.0
  0
LINE
  5
30C
330
1F
100
AcDbEntity
  8
0
  6
Continuous
 62
     7
370
     0
100
AcDbLine
 10
163.2536638337
 20
134.7450636442
 30
0.0
 11
166.0433016061
 21
134.7450636442
 31
0.0
  0
LINE
  5
30D
330
1F
100
AcDbEntity
  8
0
  6
Continuous
 62
     7
370
     0
100
AcDbLine
 10
162.4433016679
 20
134.7450636442
 30
0.0
 11
163.2536638337
 21
134.7450636442
 31
0.0
  0
LINE
  5
30E
330
1F
100
AcDbEntity
  8
0
  6
Continuous
 62
     7
370
     0
100
AcDbLine
 10
159.9433014909
 20
137.0450653251
 30
0.0
 11
159.9604448112
 21
137.0450653251
 31
0.0
  0
LINE
  5
30F
330
1F
100
AcDbEntity
  8
0
  6
Continuous
 62
     7
370
     0
100
AcDbLine
 10
160.243301447
 20
136.7450639721
 30
0.0
 11
160.6681484538
 21
136.7450639721
 31
0.0
  0
LINE
  5
310
330
1F
100
AcDbEntity
  8
0
  6
Continuous
 62
     7
370
     0
100
AcDbLine
 10
166.143301669
 20
242.749447387
 30
0.0
 11
162.3433016049
 21
242.749447387
 31
0.0
  0
LINE
  5
311
330
1F
100
AcDbEntity
  8
0
  6
Continuous
 62
     7
370
     0
100
AcDbLine
 10
162.3433016049
 20
242.1822123345
 30
0.0
 11
162.3433016049
 21
242.749447387
 31
0.0
  0
LINE
  5
312
330
1F
100
AcDbEntity
  8
0
  6
Continuous
 62
     7
370
     0
100
AcDbLine
 10
166.143301669
 20
242.1822123345
 30
0.0
 11
166.143301669
 21
242.749447387
 31
0.0
  0
LINE
  5
313
330
1F
100
AcDbEntity
  8
0
  6
Continuous
 62
     7
370
     0
100
AcDbLine
 10
162.3433016049
 20
244.8076851781
 30
0.0
 11
166.143301669
 21
244.8076851781
 31
0.0
  0
LINE
  5
314
330
1F
100
AcDbEntity
  8
0
  6
Continuous
 62
     7
370
     0
100
AcDbLine
 10
162.3433016049
 20
242.749447387
 30
0.0
 11
162.3433016049
 21
244.8076851781
 31
0.0
  0
LINE
  5
315
330
1F
100
AcDbEntity
  8
0
  6
Continuous
 62
     7
370
     0
100
AcDbLine
 10
166.143301669
 20
244.8076851781
 30
0.0
 11
166.143301669
 21
242.749447387
 31
0.0
  0
LINE
  5
316
330
1F
100
AcDbEntity
  8
0
  6
Continuous
 62
     7
370
     0
100
AcDbLine
 10
166.143301669
 20
244.9850164469
 30
0.0
 11
162.3433016049
 21
244.9850164469
 31
0.0
  0
LINE
  5
317
330
1F
100
AcDbEntity
  8
0
  6
Continuous
 62
     7
370
     0
100
AcDbLine
 10
162.3433016049
 20
244.8076851781
 30
0.0
 11
162.3433016049
 21
244.9850164469
 31
0.0
  0
LINE
  5
318
330
1F
100
AcDbEntity
  8
0
  6
Continuous
 62
     7
370
     0
100
AcDbLine
 10
166.143301669
 20
244.8076851781
 30
0.0
 11
166.143301669
 21
244.9850164469
 31
0.0
  0
LINE
  5
319
330
1F
100
AcDbEntity
  8
0
  6
Continuous
 62
     7
370
     0
100
AcDbLine
 10
162.3433016049
 20
244.9850164469
 30
0.0
 11
162.3433016049
 21
244.9854560311
 31
0.0
  0
LINE
  5
31A
330
1F
100
AcDbEntity
  8
0
  6
Continuous
 62
     7
370
     0
100
AcDbLine
 10
166.143301669
 20
244.9854560311
 30
0.0
 11
166.143301669
 21
244.9850164469
 31
0.0
  0
ARC
  5
31B
330
1F
100
AcDbEntity
  8
0
  6
Continuous
 62
     7
370
     0
100
AcDbCircle
 10
161.7085294322
 20
225.2877131316
 30
0.0
 40
3.352572407339339
100
AcDbArc
 50
188.0627317071
 51
198.6055886155
  0
ARC
  5
31C
330
1F
100
AcDbEntity
  8
0
  6
Continuous
 62
     7
370
     0
100
AcDbCircle
 10
160.421137509
 20
224.4359072413
 30
0.0
 40
1.902478617197244
100
AcDbArc
 50
173.4250796078
 51
186.5749203922
  0
ARC
  5
31D
330
1F
100
AcDbEntity
  8
0
  6
Continuous
 62
     7
370
     0
100
AcDbCircle
 10
161.7085952165
 20
225.7234051495
 30
0.0
 40
3.352639728240594
100
AcDbArc
 50
188.0628378569
 51
198.6054824657
  0
LINE
  5
31E
330
1F
100
AcDbEntity
  8
0
  6
Continuous
 62
     7
370
     0
100
AcDbLine
 10
158.3890968742
 20
225.2531670149
 30
0.0
 11
158.3890968742
 21
225.525258493
 31
0.0
  0
ARC
  5
31F
330
1F
100
AcDbEntity
  8
0
  6
Continuous
 62
     7
370
     0
100
AcDbCircle
 10
160.2621776145
 20
225.1571602792
 30
0.0
 40
1.908907476691881
100
AcDbArc
 50
155.0674399978
 51
168.8819043029
  0
ARC
  5
320
330
1F
100
AcDbEntity
  8
0
  6
Continuous
 62
     7
370
     0
100
AcDbCircle
 10
162.099363125
 20
226.2609381344
 30
0.0
 40
3.58070349014411
100
AcDbArc
 50
175.208830444
 51
184.791169556
  0
ARC
  5
321
330
1F
100
AcDbEntity
  8
0
  6
Continuous
 62
     7
370
     0
100
AcDbCircle
 10
160.2621776145
 20
225.755311516
 30
0.0
 40
1.908907476691881
100
AcDbArc
 50
155.0674399978
 51
168.8819043029
  0
LINE
  5
322
330
1F
100
AcDbEntity
  8
0
  6
Continuous
 62
     7
370
     0
100
AcDbLine
 10
158.3890968742
 20
226.1234097298
 30
0.0
 11
158.3890968742
 21
226.1669993516
 31
0.0
  0
ARC
  5
323
330
1F
100
AcDbEntity
  8
0
  6
Continuous
 62
     7
370
     0
100
AcDbCircle
 10
161.6889788666
 20
225.2640785451
 30
0.0
 40
3.332681551425045
100
AcDbArc
 50
164.384929889
 51
171.9548979963
  0
LINE
  5
324
330
1F
100
AcDbEntity
  8
0
  6
Continuous
 62
     7
370
     0
100
AcDbLine
 10
158.3890968742
 20
225.7304959114
 30
0.0
 11
158.3890968742
 21
225.525258493
 31
0.0
  0
LINE
  5
325
330
1F
100
AcDbEntity
  8
0
  6
Continuous
 62
     7
370
     0
100
AcDbLine
 10
158.3890968742
 20
224.8602494713
 30
0.0
 11
158.3890968742
 21
224.8166598495
 31
0.0
  0
LINE
  5
326
330
1F
100
AcDbEntity
  8
0
  6
Continuous
 62
     7
370
     0
100
AcDbLine
 10
170.7433017711
 20
226.3749599572
 30
0.0
 11
170.7433017711
 21
226.9918307777
 31
0.0
  0
LINE
  5
327
330
1F
100
AcDbEntity
  8
0
  6
Continuous
 62
     7
370
     0
100
AcDbLine
 10
170.7433017711
 20
223.9918321486
 30
0.0
 11
170.7433017711
 21
226.3749599572
 31
0.0
  0
LINE
  5
328
330
1F
100
AcDbEntity
  8
0
  6
Continuous
 62
     7
370
     0
100
AcDbLine
 10
158.3890968742
 20
226.1234097298
 30
0.0
 11
158.53117153
 21
226.1163875576
 31
0.0
  0
LINE
  5
329
330
1F
100
AcDbEntity
  8
0
  6
Continuous
 62
     7
370
     0
100
AcDbLine
 10
158.4907255876
 20
224.8243861015
 30
0.0
 11
158.3890968742
 21
224.8174905892
 31
0.0
  0
LINE
  5
32A
330
1F
100
AcDbEntity
  8
0
  6
Continuous
 62
     7
370
     0
100
AcDbLine
 10
158.3890968742
 20
224.8602494713
 30
0.0
 11
158.4811469349
 21
224.864801776
 31
0.0
  0
LINE
  5
32B
330
1F
100
AcDbEntity
  8
0
  6
Continuous
 62
     7
370
     0
100
AcDbLine
 10
166.243301732
 20
220.2355064567
 30
0.0
 11
166.243301732
 21
221.1401037987
 31
0.0
  0
LINE
  5
32C
330
1F
100
AcDbEntity
  8
0
  6
Continuous
 62
     7
370
     0
100
AcDbLine
 10
166.243301732
 20
220.2355064567
 30
0.0
 11
162.243301542
 21
220.2355064567
 31
0.0
  0
LINE
  5
32D
330
1F
100
AcDbEntity
  8
0
  6
Continuous
 62
     7
370
     0
100
AcDbLine
 10
162.243301542
 20
220.2355064567
 30
0.0
 11
162.243301542
 21
221.1401037987
 31
0.0
  0
ARC
  5
32E
330
1F
100
AcDbEntity
  8
0
  6
Continuous
 62
     7
370
     0
100
AcDbCircle
 10
164.243301637
 20
218.9437336063
 30
0.0
 40
3.504328391685157
100
AcDbArc
 50
245.5578667744
 51
294.4421332256
  0
LINE
  5
32F
330
1F
100
AcDbEntity
  8
0
  6
Continuous
 62
     7
370
     0
100
AcDbLine
 10
166.943301707
 20
240.8700011786
 30
0.0
 11
161.5433015669
 21
240.8700011786
 31
0.0
  0
LINE
  5
330
330
1F
100
AcDbEntity
  8
0
  6
Continuous
 62
     7
370
     0
100
AcDbLine
 10
161.5433015669
 20
240.8700011786
 30
0.0
 11
161.5433015669
 21
241.4451412972
 31
0.0
  0
LINE
  5
331
330
1F
100
AcDbEntity
  8
0
  6
Continuous
 62
     7
370
     0
100
AcDbLine
 10
161.5433015669
 20
241.4451412972
 30
0.0
 11
166.943301707
 21
241.4451412972
 31
0.0
  0
LINE
  5
332
330
1F
100
AcDbEntity
  8
0
  6
Continuous
 62
     7
370
     0
100
AcDbLine
 10
166.943301707
 20
241.4451412972
 30
0.0
 11
166.943301707
 21
240.8700011786
 31
0.0
  0
LINE
  5
333
330
1F
100
AcDbEntity
  8
0
  6
Continuous
 62
     7
370
     0
100
AcDbLine
 10
167.743301745
 20
221.1401037987
 30
0.0
 11
167.743301745
 21
240.8700011786
 31
0.0
  0
LINE
  5
334
330
1F
100
AcDbEntity
  8
0
  6
Continuous
 62
     7
370
     0
100
AcDbLine
 10
167.743301745
 20
221.1401037987
 30
0.0
 11
160.7433015289
 21
221.1401037987
 31
0.0
  0
LINE
  5
335
330
1F
100
AcDbEntity
  8
0
  6
Continuous
 62
     7
370
     0
100
AcDbLine
 10
160.7433015289
 20
221.1401037987
 30
0.0
 11
160.7433015289
 21
240.8700011786
 31
0.0
  0
LINE
  5
336
330
1F
100
AcDbEntity
  8
0
  6
Continuous
 62
     7
370
     0
100
AcDbLine
 10
161.5433015669
 20
240.8700011786
 30
0.0
 11
160.7433015289
 21
240.8700011786
 31
0.0
  0
LINE
  5
337
330
1F
100
AcDbEntity
  8
0
  6
Continuous
 62
     7
370
     0
100
AcDbLine
 10
167.743301745
 20
240.8700011786
 30
0.0
 11
166.943301707
 21
240.8700011786
 31
0.0
  0
LINE
  5
338
330
1F
100
AcDbEntity
  8
0
  6
Continuous
 62
     7
370
     0
100
AcDbLine
 10
167.743301745
 20
241.6889615472
 30
0.0
 11
167.743301745
 21
240.8700011786
 31
0.0
  0
LINE
  5
339
330
1F
100
AcDbEntity
  8
0
  6
Continuous
 62
     7
370
     0
100
AcDbLine
 10
166.943301707
 20
240.9518979605
 30
0.0
 11
167.2433016631
 21
240.9518979605
 31
0.0
  0
LINE
  5
33A
330
1F
100
AcDbEntity
  8
0
  6
Continuous
 62
     7
370
     0
100
AcDbLine
 10
167.2433016631
 20
240.9518979605
 30
0.0
 11
167.2433016631
 21
241.6889615472
 31
0.0
  0
LINE
  5
33B
330
1F
100
AcDbEntity
  8
0
  6
Continuous
 62
     7
370
     0
100
AcDbLine
 10
167.743301745
 20
241.6889615472
 30
0.0
 11
167.2433016631
 21
241.6889615472
 31
0.0
  0
LINE
  5
33C
330
1F
100
AcDbEntity
  8
0
  6
Continuous
 62
     7
370
     0
100
AcDbLine
 10
161.2433016109
 20
241.6889615472
 30
0.0
 11
161.2433016109
 21
240.9518979605
 31
0.0
  0
LINE
  5
33D
330
1F
100
AcDbEntity
  8
0
  6
Continuous
 62
     7
370
     0
100
AcDbLine
 10
161.2433016109
 20
240.9518979605
 30
0.0
 11
161.5433015669
 21
240.9518979605
 31
0.0
  0
LINE
  5
33E
330
1F
100
AcDbEntity
  8
0
  6
Continuous
 62
     7
370
     0
100
AcDbLine
 10
160.7433015289
 20
240.8700011786
 30
0.0
 11
160.7433015289
 21
241.6889615472
 31
0.0
  0
LINE
  5
33F
330
1F
100
AcDbEntity
  8
0
  6
Continuous
 62
     7
370
     0
100
AcDbLine
 10
161.2433016109
 20
241.6889615472
 30
0.0
 11
160.7433015289
 21
241.6889615472
 31
0.0
  0
LINE
  5
340
330
1F
100
AcDbEntity
  8
0
  6
Continuous
 62
     7
370
     0
100
AcDbLine
 10
166.943301707
 20
242.1822123345
 30
0.0
 11
161.5433015669
 21
242.1822123345
 31
0.0
  0
LINE
  5
341
330
1F
100
AcDbEntity
  8
0
  6
Continuous
 62
     7
370
     0
100
AcDbLine
 10
161.5433015669
 20
242.1822123345
 30
0.0
 11
161.5433015669
 21
241.4451412972
 31
0.0
  0
LINE
  5
342
330
1F
100
AcDbEntity
  8
0
  6
Continuous
 62
     7
370
     0
100
AcDbLine
 10
166.943301707
 20
242.1822123345
 30
0.0
 11
166.943301707
 21
241.4451412972
 31
0.0
  0
LINE
  5
343
330
1F
100
AcDbEntity
  8
0
  6
Continuous
 62
     7
370
     0
100
AcDbLine
 10
167.743301745
 20
225.4964210208
 30
0.0
 11
169.8976813624
 21
225.4964210208
 31
0.0
  0
SPLINE
  5
344
330
1F
100
AcDbEntity
  8
0
  6
Continuous
 62
     7
370
     0
100
AcDbSpline
210
0.0
220
0.0
230
1.0
 70
     8
 71
     3
 72
    10
 73
     6
 74
     0
 42
0.000000001
 43
0.00000001
 40
0.0
 40
0.0
 40
0.0
 40
0.0
 40
0.5
 40
0.5
 40
1.0
 40
1.0
 40
1.0
 40
1.0
 10
170.1433016369763
 20
224.1202739251816
 30
0.0
 10
170.1433016369763
 20
224.3529580944068
 30
0.0
 10
170.1196019461073
 20
224.5888061174437
 30
0.0
 10
170.0335102480604
 20
225.048470737043
 30
0.0
 10
169.9717914886776
 20
225.273904605981
 30
0.0
 10
169.8976815439144
 20
225.4964197067648
 30
0.0
  0
SPLINE
  5
345
330
1F
100
AcDbEntity
  8
0
  6
Continuous
 62
     7
370
     0
100
AcDbSpline
210
0.0
220
0.0
230
1.0
 70
     8
 71
     3
 72
    10
 73
     6
 74
     0
 42
0.000000001
 43
0.00000001
 40
0.0
 40
0.0
 40
0.0
 40
0.0
 40
0.5
 40
0.5
 40
1.0
 40
1.0
 40
1.0
 40
1.0
 10
169.8976815439144
 20
222.7441281435983
 30
0.0
 10
169.9722257473335
 20
222.9679471059472
 30
0.0
 10
170.0347485916916
 20
223.1971816310725
 30
0.0
 10
170.1202398956076
 20
223.6566885287702
 30
0.0
 10
170.1433016369763
 20
223.8877279197391
 30
0.0
 10
170.1433016369763
 20
224.1202739251816
 30
0.0
  0
LINE
  5
346
330
1F
100
AcDbEntity
  8
0
  6
Continuous
 62
     7
370
     0
100
AcDbLine
 10
167.743301745
 20
222.7441281195
 30
0.0
 11
169.8976813624
 21
222.7441281195
 31
0.0
  0
SPLINE
  5
347
330
1F
100
AcDbEntity
  8
0
  6
Continuous
 62
     7
370
     0
100
AcDbSpline
210
0.0
220
0.0
230
1.0
 70
     8
 71
     3
 72
     8
 73
     4
 74
     0
 42
0.000000001
 43
0.00000001
 40
0.0
 40
0.0
 40
0.0
 40
0.0
 40
1.0
 40
1.0
 40
1.0
 40
1.0
 10
169.8976815439157
 20
225.4964197067646
 30
0.0
 10
170.0476356405683
 20
225.945906188933
 30
0.0
 10
170.1433016369763
 20
226.4021419034119
 30
0.0
 10
170.1433016369763
 20
226.8702710536725
 30
0.0
  0
LINE
  5
348
330
1F
100
AcDbEntity
  8
0
  6
Continuous
 62
     7
370
     0
100
AcDbLine
 10
170.143301859
 20
224.1202727075
 30
0.0
 11
170.143301859
 21
226.87027083
 31
0.0
  0
LINE
  5
349
330
1F
100
AcDbEntity
  8
0
  6
Continuous
 62
     7
370
     0
100
AcDbLine
 10
167.743301745
 20
228.2441206392
 30
0.0
 11
169.8976813624
 21
228.2441206392
 31
0.0
  0
SPLINE
  5
34A
330
1F
100
AcDbEntity
  8
0
  6
Continuous
 62
     7
370
     0
100
AcDbSpline
210
0.0
220
0.0
230
1.0
 70
     8
 71
     3
 72
    10
 73
     6
 74
     0
 42
0.000000001
 43
0.00000001
 40
0.0
 40
0.0
 40
0.0
 40
0.0
 40
0.5
 40
0.5
 40
1.0
 40
1.0
 40
1.0
 40
1.0
 10
170.1433016369763
 20
226.8702710536725
 30
0.0
 10
170.1433016369763
 20
227.1034612395967
 30
0.0
 10
170.1197820324082
 20
227.3363467133101
 30
0.0
 10
170.0342122065122
 20
227.7938867203266
 30
0.0
 10
169.9724715695123
 20
228.0199397589759
 30
0.0
 10
169.897681543915
 20
228.2441224005803
 30
0.0
  0
SPLINE
  5
34B
330
1F
100
AcDbEntity
  8
0
  6
Continuous
 62
     7
370
     0
100
AcDbSpline
210
0.0
220
0.0
230
1.0
 70
     8
 71
     3
 72
    10
 73
     6
 74
     0
 42
0.000000001
 43
0.00000001
 40
0.0
 40
0.0
 40
0.0
 40
0.0
 40
0.4999999999999984
 40
0.4999999999999984
 40
1.0
 40
1.0
 40
1.0
 40
1.0
 10
170.1433016369762
 20
222.7418337089227
 30
0.0
 10
170.1433016369762
 20
222.7422231540033
 30
0.0
 10
170.1197820324082
 20
222.7426120901918
 30
0.0
 10
170.0342122065122
 20
222.7433762162815
 30
0.0
 10
169.9724715695123
 20
222.7437537417915
 30
0.0
 10
169.897681543915
 20
222.7441281435983
 30
0.0
  0
LINE
  5
34C
330
1F
100
AcDbEntity
  8
0
  6
Continuous
 62
     7
370
     0
100
AcDbLine
 10
170.143301859
 20
222.7418333407
 30
0.0
 11
170.143301859
 21
224.1202727075
 31
0.0
  0
SPLINE
  5
34D
330
1F
100
AcDbEntity
  8
0
  6
Continuous
 62
     7
370
     0
100
AcDbSpline
210
0.0
220
0.0
230
1.0
 70
     8
 71
     3
 72
     8
 73
     4
 74
     0
 42
0.000000001
 43
0.00000001
 40
0.0
 40
0.0
 40
0.0
 40
0.0
 40
1.0
 40
1.0
 40
1.0
 40
1.0
 10
169.8976815439157
 20
228.2441224005802
 30
0.0
 10
170.0476356405683
 20
228.2433717244804
 30
0.0
 10
170.1433016369763
 20
228.2426097766569
 30
0.0
 10
170.1433016369763
 20
228.2418279659046
 30
0.0
  0
LINE
  5
34E
330
1F
100
AcDbEntity
  8
0
  6
Continuous
 62
     7
370
     0
100
AcDbLine
 10
170.143301859
 20
226.87027083
 30
0.0
 11
170.143301859
 21
228.2418295856
 31
0.0
  0
SPLINE
  5
34F
330
1F
100
AcDbEntity
  8
0
  6
Continuous
 62
     7
370
     0
100
AcDbSpline
210
0.0
220
0.0
230
1.0
 70
     8
 71
     3
 72
     8
 73
     4
 74
     0
 42
0.000000001
 43
0.00000001
 40
0.0
 40
0.0
 40
0.0
 40
0.0
 40
1.0
 40
1.0
 40
1.0
 40
1.0
 10
169.8976815439157
 20
222.7395392742471
 30
0.0
 10
170.0476356405683
 20
222.740289950347
 30
0.0
 10
170.1433016369762
 20
222.7410518981704
 30
0.0
 10
170.1433016369762
 20
222.7418337089227
 30
0.0
  0
LINE
  5
350
330
1F
100
AcDbEntity
  8
0
  6
Continuous
 62
     7
370
     0
100
AcDbLine
 10
167.743301745
 20
222.7395385619
 30
0.0
 11
169.8976813624
 21
222.7395385619
 31
0.0
  0
LINE
  5
351
330
1F
100
AcDbEntity
  8
0
  6
Continuous
 62
     8
370
     0
100
AcDbLine
 10
160.243301447
 20
218.2674281414
 30
0.0
 11
162.7933016554
 21
218.2674281414
 31
0.0
  0
LINE
  5
352
330
1F
100
AcDbEntity
  8
0
  6
Continuous
 62
     8
370
     0
100
AcDbLine
 10
165.6933016185
 20
218.2674281414
 30
0.0
 11
168.243301827
 21
218.2674281414
 31
0.0
  0
LINE
  5
353
330
1F
100
AcDbEntity
  8
0
  6
Continuous
 62
     8
370
     0
100
AcDbLine
 10
167.743301745
 20
221.216397744
 30
0.0
 11
168.243301827
 21
221.216397744
 31
0.0
  0
LINE
  5
354
330
1F
100
AcDbEntity
  8
0
  6
Continuous
 62
     8
370
     0
100
AcDbLine
 10
160.7433015289
 20
221.216397744
 30
0.0
 11
160.243301447
 21
221.216397744
 31
0.0
  0
LINE
  5
355
330
1F
100
AcDbEntity
  8
0
  6
Continuous
 62
     8
370
     0
100
AcDbLine
 10
167.743301745
 20
234.5322094973
 30
0.0
 11
168.243301827
 21
234.5322094973
 31
0.0
  0
LINE
  5
356
330
1F
100
AcDbEntity
  8
0
  6
Continuous
 62
     8
370
     0
100
AcDbLine
 10
160.7433015289
 20
234.5322094973
 30
0.0
 11
160.243301447
 21
234.5322094973
 31
0.0
  0
SPLINE
  5
357
330
1F
100
AcDbEntity
  8
0
  6
Continuous
 62
     8
370
     0
100
AcDbSpline
210
0.0
220
0.0
230
1.0
 70
     8
 71
     3
 72
    12
 73
     8
 74
     0
 42
0.000000001
 43
0.00000001
 40
0.0
 40
0.0
 40
0.0
 40
0.0
 40
0.2382403641560844
 40
0.4764807418872615
 40
0.7147210891867863
 40
0.9529614533345484
 40
1.0
 40
1.0
 40
1.0
 40
1.0
 10
158.3365148673477
 20
180.2450645830081
 30
0.0
 10
158.35867753323
 20
180.6314501831068
 30
0.0
 10
158.4030028662572
 20
181.4042214053206
 30
0.0
 10
158.7515450196959
 20
182.5225799167795
 30
0.0
 10
159.3076691771693
 20
183.538424860684
 30
0.0
 10
159.8218971634437
 20
184.2309813668957
 30
0.0
 10
160.1836529253384
 20
184.5192929996808
 30
0.0
 10
160.2433014469865
 20
184.5668316002534
 30
0.0
  0
SPLINE
  5
358
330
1F
100
AcDbEntity
  8
0
  6
Continuous
 62
     8
370
     0
100
AcDbSpline
210
0.0
220
0.0
230
1.0
 70
     8
 71
     3
 72
    12
 73
     8
 74
     0
 42
0.000000001
 43
0.00000001
 40
0.0
 40
0.0
 40
0.0
 40
0.0
 40
0.0470385466654516
 40
0.2852789108132137
 40
0.5235192581127386
 40
0.7617596358439157
 40
1.0
 40
1.0
 40
1.0
 40
1.0
 10
168.2433018269661
 20
184.5668316002534
 30
0.0
 10
168.3029503486141
 20
184.5192929996808
 30
0.0
 10
168.6647061105088
 20
184.2309813668956
 30
0.0
 10
169.1789340967833
 20
183.538424860684
 30
0.0
 10
169.7350582542566
 20
182.5225799167795
 30
0.0
 10
170.0836004076953
 20
181.4042214053206
 30
0.0
 10
170.1279257407226
 20
180.6314501831068
 30
0.0
 10
170.1500884066048
 20
180.2450645830081
 30
0.0
  0
SPLINE
  5
359
330
1F
100
AcDbEntity
  8
0
  6
Continuous
 62
     8
370
     0
100
AcDbSpline
210
0.0
220
0.0
230
1.0
 70
     8
 71
     3
 72
    11
 73
     7
 74
     0
 42
0.000000001
 43
0.00000001
 40
0.0
 40
0.0
 40
0.0
 40
0.0
 40
0.2403666243805524
 40
0.4935776462902664
 40
0.7467887562197978
 40
1.0
 40
1.0
 40
1.0
 40
1.0
 10
168.2433018269661
 20
184.1665947924899
 30
0.0
 10
168.4755303526027
 20
183.906061259061
 30
0.0
 10
168.9523969283204
 20
183.3710721417454
 30
0.0
 10
169.4520447703965
 20
182.402512205319
 30
0.0
 10
169.7880561860435
 20
181.346461257019
 30
0.0
 10
169.8294414486146
 20
180.6121968723687
 30
0.0
 10
169.8501340853694
 20
180.2450645830081
 30
0.0
  0
SPLINE
  5
35A
330
1F
100
AcDbEntity
  8
0
  6
Continuous
 62
     8
370
     0
100
AcDbSpline
210
0.0
220
0.0
230
1.0
 70
     8
 71
     3
 72
    11
 73
     7
 74
     0
 42
0.000000001
 43
0.00000001
 40
0.0
 40
0.0
 40
0.0
 40
0.0
 40
0.2532112437802023
 40
0.5064223537097337
 40
0.7596333756194477
 40
1.0
 40
1.0
 40
1.0
 40
1.0
 10
158.6364691885832
 20
180.2450645830081
 30
0.0
 10
158.6571618253379
 20
180.6121968723687
 30
0.0
 10
158.698547087909
 20
181.346461257019
 30
0.0
 10
159.034558503556
 20
182.402512205319
 30
0.0
 10
159.5342063456322
 20
183.3710721417454
 30
0.0
 10
160.0110729213499
 20
183.906061259061
 30
0.0
 10
160.2433014469865
 20
184.1665947924899
 30
0.0
  0
LINE
  5
35B
330
1F
100
AcDbEntity
  8
0
  6
Continuous
 62
     8
370
     0
100
AcDbLine
 10
159.3468033517
 20
227.1403394755
 30
0.0
 11
159.3468033517
 21
228.291830432
 31
0.0
  0
LINE
  5
35C
330
1F
100
AcDbEntity
  8
0
  6
Continuous
 62
     8
370
     0
100
AcDbLine
 10
159.3468033517
 20
222.6918324943
 30
0.0
 11
159.3468033517
 21
227.1403394755
 31
0.0
  0
LINE
  5
35D
330
1F
100
AcDbEntity
  8
0
  6
Continuous
 62
     8
370
     0
100
AcDbLine
 10
159.1186730931
 20
227.0664036389
 30
0.0
 11
159.1186730931
 21
228.166250896
 31
0.0
  0
LINE
  5
35E
330
1F
100
AcDbEntity
  8
0
  6
Continuous
 62
     8
370
     0
100
AcDbLine
 10
159.1186730931
 20
222.8174120303
 30
0.0
 11
159.1186730931
 21
227.0664036389
 31
0.0
  0
DIMENSION
  5
35F
330
1F
100
AcDbEntity
  8
0
  6
Continuous
 62
     7
370
     0
100
AcDbDimension
  2
_D_12
 10
168.243301637
 20
262.4979679706
 30
0.0
 11
164.243301637
 21
262.4979679706
 31
0.0
 70
   160
  1
<>
 71
     2
 42
-1.0
  3
SLDDIMSTYLE0
100
AcDbAlignedDimension
 13
160.243301637
 23
243.3306318369
 33
0.0
 14
168.243301637
 24
243.3306318369
 34
0.0
100
AcDbRotatedDimension
  0
DIMENSION
  5
36B
330
1F
100
AcDbEntity
  8
0
  6
Continuous
 62
     7
370
     0
100
AcDbDimension
  2
_D_13
 10
172.243301637
 20
111.8763423422
 30
0.0
 11
164.243301637
 21
111.8763423422
 31
0.0
 70
   160
  1
<>
 71
     2
 42
-1.0
  3
SLDDIMSTYLE1
100
AcDbAlignedDimension
 13
156.243301637
 23
155.7450647059
 33
0.0
 14
172.243301637
 24
155.7450647059
 34
0.0
100
AcDbRotatedDimension
  0
ENDSEC
  0
SECTION
  2
OBJECTS
  0
DICTIONARY
  5
C
330
0
100
AcDbDictionary
281
     1
  3
ACAD_GROUP
350
D
  3
ACAD_LAYOUT
350
1A
  3
ACAD_MLINESTYLE
350
17
  3
ACAD_PLOTSETTINGS
350
19
  3
ACAD_PLOTSTYLENAME
350
E
  3
ACAD_SCALELIST
350
47
  0
DICTIONARY
  5
D
102
{ACAD_REACTORS
330
C
102
}
330
C
100
AcDbDictionary
281
     1
  0
DICTIONARY
  5
1A
102
{ACAD_REACTORS
330
C
102
}
330
C
100
AcDbDictionary
281
     1
  3
Layout1
350
1E
  3
Layout2
350
26
  3
Model
350
22
  0
DICTIONARY
  5
17
102
{ACAD_REACTORS
330
C
102
}
330
C
100
AcDbDictionary
281
     1
  3
Standard
350
18
  0
DICTIONARY
  5
19
102
{ACAD_REACTORS
330
C
102
}
330
C
100
AcDbDictionary
281
     1
  0
ACDBDICTIONARYWDFLT
  5
E
102
{ACAD_REACTORS
330
C
102
}
330
C
100
AcDbDictionary
281
     1
  3
Normal
350
F
100
AcDbDictionaryWithDefault
340
F
  0
DICTIONARY
  5
47
102
{ACAD_REACTORS
330
C
102
}
330
C
100
AcDbDictionary
281
     1
  3
A0
350
48
  3
A1
350
49
  3
A2
350
4A
  3
A3
350
4B
  3
A4
350
4C
  3
A5
350
4D
  3
A6
350
4E
  3
A7
350
4F
  3
A8
350
50
  3
A9
350
51
  3
B0
350
52
  3
B1
350
53
  3
B2
350
54
  3
B3
350
55
  3
B4
350
56
  3
B5
350
57
  3
B6
350
58
  3
B7
350
59
  3
B8
350
5A
  3
B9
350
5B
  3
C0
350
5C
  3
C1
350
5D
  3
C2
350
5E
  3
C3
350
5F
  3
C4
350
60
  3
C5
350
61
  3
C6
350
62
  3
C7
350
63
  3
C8
350
64
  3
C9
350
65
  3
D0
350
66
  3
D1
350
67
  3
D2
350
68
  0
LAYOUT
  5
1E
102
{ACAD_REACTORS
330
1A
102
}
330
1A
100
AcDbPlotSettings
  1

  2
none_device
  4

  6

 40
0.0
 41
0.0
 42
0.0
 43
0.0
 44
0.0
 45
0.0
 46
0.0
 47
0.0
 48
0.0
 49
0.0
140
0.0
141
0.0
142
1.0
143
1.0
 70
   688
 72
     1
 73
     0
 74
     5
  7

 75
    16
147
1.0
148
0.0
149
0.0
100
AcDbLayout
  1
Layout1
 70
     1
 71
     1
 10
0.0
 20
0.0
 11
420.0
 21
297.0
 12
0.0
 22
0.0
 32
0.0
 14
1.0000000000E+20
 24
1.0000000000E+20
 34
1.0000000000E+20
 15
-1.0000000000E+20
 25
-1.0000000000E+20
 35
-1.0000000000E+20
146
0.0
 13
0.0
 23
0.0
 33
0.0
 16
1.0
 26
0.0
 36
0.0
 17
0.0
 27
1.0
 37
0.0
 76
     0
330
1B
  0
LAYOUT
  5
26
102
{ACAD_REACTORS
330
1A
102
}
330
1A
100
AcDbPlotSettings
  1

  2
none_device
  4

  6

 40
0.0
 41
0.0
 42
0.0
 43
0.0
 44
0.0
 45
0.0
 46
0.0
 47
0.0
 48
0.0
 49
0.0
140
0.0
141
0.0
142
1.0
143
1.0
 70
   688
 72
     1
 73
     0
 74
     5
  7

 75
    16
147
1.0
148
0.0
149
0.0
100
AcDbLayout
  1
Layout2
 70
     1
 71
     2
 10
0.0
 20
0.0
 11
0.0
 21
0.0
 12
0.0
 22
0.0
 32
0.0
 14
0.0
 24
0.0
 34
0.0
 15
0.0
 25
0.0
 35
0.0
146
0.0
 13
0.0
 23
0.0
 33
0.0
 16
1.0
 26
0.0
 36
0.0
 17
0.0
 27
1.0
 37
0.0
 76
     0
330
23
  0
LAYOUT
  5
22
102
{ACAD_REACTORS
330
1A
102
}
330
1A
100
AcDbPlotSettings
  1

  2
none_device
  4
Letter_(8.50_x_11.00_Inches)
  6

 40
6.35
 41
6.35
 42
6.35000508
 43
6.35000508
 44
215.9
 45
279.4
 46
0.0
 47
0.0
 48
0.0
 49
0.0
140
0.0
141
0.0
142
1.0
143
1.0
 70
  1712
 72
     1
 73
     0
 74
     0
  7

 75
     0
147
1.0
148
0.0
149
0.0
100
AcDbLayout
  1
Model
 70
     1
 71
     0
 10
0.0
 20
0.0
 11
210.0
 21
297.0
 12
0.0
 22
0.0
 32
0.0
 14
0.0
 24
0.0
 34
0.0
 15
210.0
 25
297.0
 35
0.0
146
0.0
 13
0.0
 23
0.0
 33
0.0
 16
1.0
 26
0.0
 36
0.0
 17
0.0
 27
1.0
 37
0.0
 76
     0
330
1F
331
29
  0
MLINESTYLE
  5
18
102
{ACAD_REACTORS
330
17
102
}
330
17
100
AcDbMlineStyle
  2
Standard
 70
     0
  3

 62
   256
 51
90.0
 52
90.0
 71
     2
 49
0.5
 62
   256
  6
BYLAYER
 49
-0.5
 62
   256
  6
BYLAYER
  0
ACDBPLACEHOLDER
  5
F
102
{ACAD_REACTORS
330
E
102
}
330
E
  0
SCALE
  5
48
102
{ACAD_REACTORS
330
47
102
}
330
47
100
AcDbScale
 70
     0
300
1:1
140
1.0
141
1.0
290
     1
  0
SCALE
  5
49
102
{ACAD_REACTORS
330
47
102
}
330
47
100
AcDbScale
 70
     0
300
1:2
140
1.0
141
2.0
290
     0
  0
SCALE
  5
4A
102
{ACAD_REACTORS
330
47
102
}
330
47
100
AcDbScale
 70
     0
300
1:4
140
1.0
141
4.0
290
     0
  0
SCALE
  5
4B
102
{ACAD_REACTORS
330
47
102
}
330
47
100
AcDbScale
 70
     0
300
1:5
140
1.0
141
5.0
290
     0
  0
SCALE
  5
4C
102
{ACAD_REACTORS
330
47
102
}
330
47
100
AcDbScale
 70
     0
300
1:8
140
1.0
141
8.0
290
     0
  0
SCALE
  5
4D
102
{ACAD_REACTORS
330
47
102
}
330
47
100
AcDbScale
 70
     0
300
1:10
140
1.0
141
10.0
290
     0
  0
SCALE
  5
4E
102
{ACAD_REACTORS
330
47
102
}
330
47
100
AcDbScale
 70
     0
300
1:16
140
1.0
141
16.0
290
     0
  0
SCALE
  5
4F
102
{ACAD_REACTORS
330
47
102
}
330
47
100
AcDbScale
 70
     0
300
1:20
140
1.0
141
20.0
290
     0
  0
SCALE
  5
50
102
{ACAD_REACTORS
330
47
102
}
330
47
100
AcDbScale
 70
     0
300
1:30
140
1.0
141
30.0
290
     0
  0
SCALE
  5
51
102
{ACAD_REACTORS
330
47
102
}
330
47
100
AcDbScale
 70
     0
300
1:40
140
1.0
141
40.0
290
     0
  0
SCALE
  5
52
102
{ACAD_REACTORS
330
47
102
}
330
47
100
AcDbScale
 70
     0
300
1:50
140
1.0
141
50.0
290
     0
  0
SCALE
  5
53
102
{ACAD_REACTORS
330
47
102
}
330
47
100
AcDbScale
 70
     0
300
1:100
140
1.0
141
100.0
290
     0
  0
SCALE
  5
54
102
{ACAD_REACTORS
330
47
102
}
330
47
100
AcDbScale
 70
     0
300
2:1
140
2.0
141
1.0
290
     0
  0
SCALE
  5
55
102
{ACAD_REACTORS
330
47
102
}
330
47
100
AcDbScale
 70
     0
300
4:1
140
4.0
141
1.0
290
     0
  0
SCALE
  5
56
102
{ACAD_REACTORS
330
47
102
}
330
47
100
AcDbScale
 70
     0
300
8:1
140
8.0
141
1.0
290
     0
  0
SCALE
  5
57
102
{ACAD_REACTORS
330
47
102
}
330
47
100
AcDbScale
 70
     0
300
10:1
140
10.0
141
1.0
290
     0
  0
SCALE
  5
58
102
{ACAD_REACTORS
330
47
102
}
330
47
100
AcDbScale
 70
     0
300
100:1
140
100.0
141
1.0
290
     0
  0
SCALE
  5
59
102
{ACAD_REACTORS
330
47
102
}
330
47
100
AcDbScale
 70
     0
300
1/128" = 1'-0"
140
0.0078125
141
12.0
290
     0
  0
SCALE
  5
5A
102
{ACAD_REACTORS
330
47
102
}
330
47
100
AcDbScale
 70
     0
300
1/64" = 1'-0"
140
0.015625
141
12.0
290
     0
  0
SCALE
  5
5B
102
{ACAD_REACTORS
330
47
102
}
330
47
100
AcDbScale
 70
     0
300
1/32" = 1'-0"
140
0.03125
141
12.0
290
     0
  0
SCALE
  5
5C
102
{ACAD_REACTORS
330
47
102
}
330
47
100
AcDbScale
 70
     0
300
1/16" = 1'-0"
140
0.0625
141
12.0
290
     0
  0
SCALE
  5
5D
102
{ACAD_REACTORS
330
47
102
}
330
47
100
AcDbScale
 70
     0
300
3/32" = 1'-0"
140
0.09375
141
12.0
290
     0
  0
SCALE
  5
5E
102
{ACAD_REACTORS
330
47
102
}
330
47
100
AcDbScale
 70
     0
300
1/8" = 1'-0"
140
0.125
141
12.0
290
     0
  0
SCALE
  5
5F
102
{ACAD_REACTORS
330
47
102
}
330
47
100
AcDbScale
 70
     0
300
3/16" = 1'-0"
140
0.1875
141
12.0
290
     0
  0
SCALE
  5
60
102
{ACAD_REACTORS
330
47
102
}
330
47
100
AcDbScale
 70
     0
300
1/4" = 1'-0"
140
0.25
141
12.0
290
     0
  0
SCALE
  5
61
102
{ACAD_REACTORS
330
47
102
}
330
47
100
AcDbScale
 70
     0
300
3/8" = 1'-0"
140
0.375
141
12.0
290
     0
  0
SCALE
  5
62
102
{ACAD_REACTORS
330
47
102
}
330
47
100
AcDbScale
 70
     0
300
1/2" = 1'-0"
140
0.5
141
12.0
290
     0
  0
SCALE
  5
63
102
{ACAD_REACTORS
330
47
102
}
330
47
100
AcDbScale
 70
     0
300
3/4" = 1'-0"
140
0.75
141
12.0
290
     0
  0
SCALE
  5
64
102
{ACAD_REACTORS
330
47
102
}
330
47
100
AcDbScale
 70
     0
300
1" = 1'-0"
140
1.0
141
12.0
290
     0
  0
SCALE
  5
65
102
{ACAD_REACTORS
330
47
102
}
330
47
100
AcDbScale
 70
     0
300
1-1/2" = 1'-0"
140
1.5
141
12.0
290
     0
  0
SCALE
  5
66
102
{ACAD_REACTORS
330
47
102
}
330
47
100
AcDbScale
 70
     0
300
3" = 1'-0"
140
3.0
141
12.0
290
     0
  0
SCALE
  5
67
102
{ACAD_REACTORS
330
47
102
}
330
47
100
AcDbScale
 70
     0
300
6" = 1'-0"
140
6.0
141
12.0
290
     0
  0
SCALE
  5
68
102
{ACAD_REACTORS
330
47
102
}
330
47
100
AcDbScale
 70
     0
300
1'-0" = 1'-0"
140
12.0
141
12.0
290
     0
  0
ENDSEC
  0
EOF
