  0
SECTION
  2
HEADER
  9
$ACADVER
  1
AC1015
  9
$ACADMAINTVER
 70
     6
  9
$DWGCODEPAGE
  3
DOS932
  9
$INSBASE
 10
0.0
 20
0.0
 30
0.0
  9
$EXTMIN
 10
0.0
 20
0.0
 30
0.0
  9
$EXTMAX
 10
210.0
 20
297.0
 30
0.0
  9
$LIMMIN
 10
0.0
 20
0.0
  9
$LIMMAX
 10
210.0
 20
297.0
  9
$ORTHOMODE
 70
     0
  9
$REGENMODE
 70
     1
  9
$FILLMODE
 70
     1
  9
$QTEXTMODE
 70
     0
  9
$MIRRTEXT
 70
     1
  9
$LTSCALE
 40
1.0
  9
$ATTMODE
 70
     1
  9
$TEXTSIZE
 40
3.5
  9
$TRACEWID
 40
1.0
  9
$TEXTSTYLE
  7
Standard
  9
$CLAYER
  8
0
  9
$CELTYPE
  6
ByLayer
  9
$CECOLOR
 62
   256
  9
$CELTSCALE
 40
1.0
  9
$DISPSILH
 70
     0
  9
$DIMSCALE
 40
1.0
  9
$DIMASZ
 40
3.0
  9
$DIMEXO
 40
1.0
  9
$DIMDLI
 40
3.75
  9
$DIMRND
 40
0.0
  9
$DIMDLE
 40
0.0
  9
$DIMEXE
 40
1.0
  9
$DIMTP
 40
0.0
  9
$DIMTM
 40
0.0
  9
$DIMTXT
 40
3.5
  9
$DIMCEN
 40
2.5
  9
$DIMTSZ
 40
0.0
  9
$DIMTOL
 70
     0
  9
$DIMLIM
 70
     0
  9
$DIMTIH
 70
     1
  9
$DIMTOH
 70
     1
  9
$DIMSE1
 70
     0
  9
$DIMSE2
 70
     0
  9
$DIMTAD
 70
     1
  9
$DIMZIN
 70
     0
  9
$DIMBLK
  1

  9
$DIMASO
 70
     1
  9
$DIMSHO
 70
     1
  9
$DIMPOST
  1

  9
$DIMAPOST
  1

  9
$DIMALT
 70
     0
  9
$DIMALTD
 70
     3
  9
$DIMALTF
 40
0.0393700787
  9
$DIMLFAC
 40
2.0
  9
$DIMTOFL
 70
     1
  9
$DIMTVP
 40
0.0
  9
$DIMTIX
 70
     0
  9
$DIMSOXD
 70
     0
  9
$DIMSAH
 70
     0
  9
$DIMBLK1
  1

  9
$DIMBLK2
  1

  9
$DIMSTYLE
  2
ISO-25
  9
$DIMCLRD
 70
     0
  9
$DIMCLRE
 70
     0
  9
$DIMCLRT
 70
     0
  9
$DIMTFAC
 40
1.0
  9
$DIMGAP
 40
1.524
  9
$DIMJUST
 70
     0
  9
$DIMSD1
 70
     0
  9
$DIMSD2
 70
     0
  9
$DIMTOLJ
 70
     0
  9
$DIMTZIN
 70
     0
  9
$DIMALTZ
 70
     0
  9
$DIMALTTZ
 70
     0
  9
$DIMUPT
 70
     0
  9
$DIMDEC
 70
     1
  9
$DIMTDEC
 70
     3
  9
$DIMALTU
 70
     2
  9
$DIMALTTD
 70
     3
  9
$DIMTXSTY
  7
Standard
  9
$DIMAUNIT
 70
     0
  9
$DIMADEC
 70
     2
  9
$DIMALTRND
 40
0.0
  9
$DIMAZIN
 70
     0
  9
$DIMDSEP
 70
    44
  9
$DIMATFIT
 70
     3
  9
$DIMFRAC
 70
     0
  9
$DIMLDRBLK
  1

  9
$DIMLUNIT
 70
     2
  9
$DIMLWD
 70
    -2
  9
$DIMLWE
 70
    -2
  9
$DIMTMOVE
 70
     0
  9
$LUNITS
 70
     2
  9
$LUPREC
 70
     1
  9
$SKETCHINC
 40
1.0
  9
$FILLETRAD
 40
10.0
  9
$AUNITS
 70
     0
  9
$AUPREC
 70
     2
  9
$MENU
  1
.
  9
$ELEVATION
 40
0.0
  9
$PELEVATION
 40
0.0
  9
$THICKNESS
 40
0.0
  9
$LIMCHECK
 70
     0
  9
$CHAMFERA
 40
0.0
  9
$CHAMFERB
 40
0.0
  9
$CHAMFERC
 40
0.0
  9
$CHAMFERD
 40
0.0
  9
$SKPOLY
 70
     0
  9
$TDCREATE
 40
2457984.673879386
  9
$TDUCREATE
 40
2457984.298879386
  9
$TDUPDATE
 40
2457984.673881354
  9
$TDUUPDATE
 40
2457984.298881354
  9
$TDINDWG
 40
0.0000000116
  9
$TDUSRTIMER
 40
0.0000000116
  9
$USRTIMER
 70
     1
  9
$ANGBASE
 50
0.0
  9
$ANGDIR
 70
     0
  9
$PDMODE
 70
     0
  9
$PDSIZE
 40
-1.0
  9
$PLINEWID
 40
0.0
  9
$SPLFRAME
 70
     0
  9
$SPLINETYPE
 70
     6
  9
$SPLINESEGS
 70
     8
  9
$HANDSEED
  5
329
  9
$SURFTAB1
 70
     6
  9
$SURFTAB2
 70
     6
  9
$SURFTYPE
 70
     6
  9
$SURFU
 70
     6
  9
$SURFV
 70
     6
  9
$UCSBASE
  2

  9
$UCSNAME
  2

  9
$UCSORG
 10
0.0
 20
0.0
 30
0.0
  9
$UCSXDIR
 10
1.0
 20
0.0
 30
0.0
  9
$UCSYDIR
 10
0.0
 20
1.0
 30
0.0
  9
$UCSORTHOREF
  2

  9
$UCSORTHOVIEW
 70
     0
  9
$UCSORGTOP
 10
0.0
 20
0.0
 30
0.0
  9
$UCSORGBOTTOM
 10
0.0
 20
0.0
 30
0.0
  9
$UCSORGLEFT
 10
0.0
 20
0.0
 30
0.0
  9
$UCSORGRIGHT
 10
0.0
 20
0.0
 30
0.0
  9
$UCSORGFRONT
 10
0.0
 20
0.0
 30
0.0
  9
$UCSORGBACK
 10
0.0
 20
0.0
 30
0.0
  9
$PUCSBASE
  2

  9
$PUCSNAME
  2

  9
$PUCSORG
 10
0.0
 20
0.0
 30
0.0
  9
$PUCSXDIR
 10
1.0
 20
0.0
 30
0.0
  9
$PUCSYDIR
 10
0.0
 20
1.0
 30
0.0
  9
$PUCSORTHOREF
  2

  9
$PUCSORTHOVIEW
 70
     0
  9
$PUCSORGTOP
 10
0.0
 20
0.0
 30
0.0
  9
$PUCSORGBOTTOM
 10
0.0
 20
0.0
 30
0.0
  9
$PUCSORGLEFT
 10
0.0
 20
0.0
 30
0.0
  9
$PUCSORGRIGHT
 10
0.0
 20
0.0
 30
0.0
  9
$PUCSORGFRONT
 10
0.0
 20
0.0
 30
0.0
  9
$PUCSORGBACK
 10
0.0
 20
0.0
 30
0.0
  9
$USERI1
 70
     0
  9
$USERI2
 70
     0
  9
$USERI3
 70
     0
  9
$USERI4
 70
     0
  9
$USERI5
 70
     0
  9
$USERR1
 40
0.0
  9
$USERR2
 40
0.0
  9
$USERR3
 40
0.0
  9
$USERR4
 40
0.0
  9
$USERR5
 40
0.0
  9
$WORLDVIEW
 70
     1
  9
$SHADEDGE
 70
     3
  9
$SHADEDIF
 70
    70
  9
$TILEMODE
 70
     1
  9
$MAXACTVP
 70
    64
  9
$PINSBASE
 10
0.0
 20
0.0
 30
0.0
  9
$PLIMCHECK
 70
     0
  9
$PEXTMIN
 10
1.0000000000E+20
 20
1.0000000000E+20
 30
1.0000000000E+20
  9
$PEXTMAX
 10
-1.0000000000E+20
 20
-1.0000000000E+20
 30
-1.0000000000E+20
  9
$PLIMMIN
 10
0.0
 20
0.0
  9
$PLIMMAX
 10
420.0
 20
297.0
  9
$UNITMODE
 70
     0
  9
$VISRETAIN
 70
     1
  9
$PLINEGEN
 70
     0
  9
$PSLTSCALE
 70
     1
  9
$TREEDEPTH
 70
  3020
  9
$CMLSTYLE
  2
Standard
  9
$CMLJUST
 70
     0
  9
$CMLSCALE
 40
20.0
  9
$PROXYGRAPHICS
 70
     1
  9
$MEASUREMENT
 70
     1
  9
$CELWEIGHT
370
    -1
  9
$ENDCAPS
280
     0
  9
$JOINSTYLE
280
     0
  9
$LWDISPLAY
290
     1
  9
$INSUNITS
 70
     4
  9
$HYPERLINKBASE
  1

  9
$STYLESHEET
  1

  9
$XEDIT
290
     1
  9
$CEPSNTYPE
380
     0
  9
$PSTYLEMODE
290
     1
  9
$FINGERPRINTGUID
  2
{27EB9CFF-6507-4C60-8D21-30B1DE89A885}
  9
$VERSIONGUID
  2
{FAEB1C32-E019-11D5-929B-00C0DF256EC4}
  9
$EXTNAMES
290
     1
  9
$PSVPSCALE
 40
0.0
  9
$OLESTARTUP
290
     0
  0
ENDSEC
  0
SECTION
  2
CLASSES
  0
CLASS
  1
ACDBDICTIONARYWDFLT
  2
AcDbDictionaryWithDefault
  3
ObjectDBX Classes
 90
        0
280
     0
281
     0
  0
CLASS
  1
VISUALSTYLE
  2
AcDbVisualStyle
  3
ObjectDBX Classes
 90
     4095
280
     0
281
     0
  0
CLASS
  1
MATERIAL
  2
AcDbMaterial
  3
ObjectDBX Classes
 90
     1153
280
     0
281
     0
  0
CLASS
  1
SCALE
  2
AcDbScale
  3
ObjectDBX Classes
 90
     1153
280
     0
281
     0
  0
CLASS
  1
TABLESTYLE
  2
AcDbTableStyle
  3
ObjectDBX Classes
 90
     4095
280
     0
281
     0
  0
CLASS
  1
MLEADERSTYLE
  2
AcDbMLeaderStyle
  3
ACDB_MLEADERSTYLE_CLASS
 90
     4095
280
     0
281
     0
  0
CLASS
  1
SUN
  2
AcDbSun
  3
SCENEOE
 90
     1153
280
     0
281
     0
  0
CLASS
  1
ACDBPLACEHOLDER
  2
AcDbPlaceHolder
  3
ObjectDBX Classes
 90
        0
280
     0
281
     0
  0
CLASS
  1
LAYOUT
  2
AcDbLayout
  3
ObjectDBX Classes
 90
        0
280
     0
281
     0
  0
ENDSEC
  0
SECTION
  2
TABLES
  0
TABLE
  2
VPORT
  5
8
330
0
100
AcDbSymbolTable
 70
     1
  0
VPORT
  5
29
330
8
100
AcDbSymbolTableRecord
100
AcDbViewportTableRecord
  2
*Active
 70
     0
 10
0.0
 20
0.0
 11
1.0
 21
1.0
 12
105.0
 22
148.5
 13
0.0
 23
0.0
 14
10.0
 24
10.0
 15
10.0
 25
10.0
 16
0.0
 26
0.0
 36
1.0
 17
0.0
 27
0.0
 37
0.0
 40
297.0
 41
0.7070707071
 42
50.0
 43
0.0
 44
0.0
 50
0.0
 51
0.0
 71
     0
 72
  2000
 73
     1
 74
     3
 75
     0
 76
     0
 77
     0
 78
     0
281
     0
 65
     1
110
0.0
120
0.0
130
0.0
111
1.0
121
0.0
131
0.0
112
0.0
122
1.0
132
0.0
 79
     0
146
0.0
  0
ENDTAB
  0
TABLE
  2
LTYPE
  5
5
330
0
100
AcDbSymbolTable
 70
     6
  0
LTYPE
  5
14
330
5
100
AcDbSymbolTableRecord
100
AcDbLinetypeTableRecord
  2
ByBlock
 70
     0
  3

 72
    65
 73
     0
 40
0.0
  0
LTYPE
  5
15
330
5
100
AcDbSymbolTableRecord
100
AcDbLinetypeTableRecord
  2
ByLayer
 70
     0
  3

 72
    65
 73
     0
 40
0.0
  0
LTYPE
  5
16
330
5
100
AcDbSymbolTableRecord
100
AcDbLinetypeTableRecord
  2
Continuous
 70
     0
  3
Solid line
 72
    65
 73
     0
 40
0.0
  0
LTYPE
  5
6E
330
5
100
AcDbSymbolTableRecord
100
AcDbLinetypeTableRecord
  2
HIDDEN
 70
     0
  3
Hidden __ __ __ __ __ __ __ __ __ __ __ __ __ __
 72
    65
 73
     2
 40
1.905
 49
1.27
 74
     0
 49
-0.635
 74
     0
  0
LTYPE
  5
6F
330
5
100
AcDbSymbolTableRecord
100
AcDbLinetypeTableRecord
  2
PHANTOM
 70
     0
  3
Phantom ______  __  __  ______  __  __  ______
 72
    65
 73
     6
 40
12.7
 49
6.35
 74
     0
 49
-1.27
 74
     0
 49
1.27
 74
     0
 49
-1.27
 74
     0
 49
1.27
 74
     0
 49
-1.27
 74
     0
  0
LTYPE
  5
70
330
5
100
AcDbSymbolTableRecord
100
AcDbLinetypeTableRecord
  2
CENTER
 70
     0
  3
Center ____ _ ____ _ ____ _ ____ _ ____ _ ____
 72
    65
 73
     4
 40
10.16
 49
6.35
 74
     0
 49
-1.27
 74
     0
 49
1.27
 74
     0
 49
-1.27
 74
     0
  0
LTYPE
  5
71
330
5
100
AcDbSymbolTableRecord
100
AcDbLinetypeTableRecord
  2
CENTERX2
 70
     0
  3
Center (2x) ________  __  ________  __  _____
 72
    65
 73
     4
 40
20.32
 49
12.7
 74
     0
 49
-2.54
 74
     0
 49
2.54
 74
     0
 49
-2.54
 74
     0
  0
LTYPE
  5
72
330
5
100
AcDbSymbolTableRecord
100
AcDbLinetypeTableRecord
  2
DOT2
 70
     0
  3
Dot (.5x) ........................................
 72
    65
 73
     2
 40
0.635
 49
0.0
 74
     0
 49
-0.635
 74
     0
  0
ENDTAB
  0
TABLE
  2
LAYER
  5
2
330
0
100
AcDbSymbolTable
 70
     1
  0
LAYER
  5
10
330
2
100
AcDbSymbolTableRecord
100
AcDbLayerTableRecord
  2
0
 70
     0
 62
     7
  6
Continuous
370
    -3
390
F
  0
ENDTAB
  0
TABLE
  2
STYLE
  5
3
330
0
100
AcDbSymbolTable
 70
     2
  0
STYLE
  5
11
330
3
100
AcDbSymbolTableRecord
100
AcDbTextStyleTableRecord
  2
Standard
 70
     0
 40
0.0
 41
1.0
 50
0.0
 71
     0
 42
3.5
  3
txt
  4
bigfont
  0
STYLE
  5
7B
330
3
100
AcDbSymbolTableRecord
100
AcDbTextStyleTableRecord
  2
SLDTEXTSTYLE0
 70
     0
 40
0.0
 41
0.7
 50
0.0
 71
     0
 42
3.5
  3
TXT
  4
bigfont
  0
ENDTAB
  0
TABLE
  2
VIEW
  5
6
330
0
100
AcDbSymbolTable
 70
     0
  0
ENDTAB
  0
TABLE
  2
UCS
  5
7
330
0
100
AcDbSymbolTable
 70
     0
  0
ENDTAB
  0
TABLE
  2
APPID
  5
9
330
0
100
AcDbSymbolTable
 70
     1
  0
APPID
  5
12
330
9
100
AcDbSymbolTableRecord
100
AcDbRegAppTableRecord
  2
ACAD
 70
     0
  0
ENDTAB
  0
TABLE
  2
DIMSTYLE
  5
A
330
0
100
AcDbSymbolTable
 70
     6
100
AcDbDimStyleTable
  0
DIMSTYLE
105
27
330
A
100
AcDbSymbolTableRecord
100
AcDbDimStyleTableRecord
  2
ISO-25
 70
     0
 41
2.5
 42
0.625
 43
3.75
 44
1.25
 73
     0
 74
     0
 77
     1
 78
     8
140
2.5
141
2.5
143
0.0393700787
147
0.625
171
     3
172
     1
178
     0
271
     2
272
     2
274
     3
278
    44
283
     0
284
     8
340
11
  0
DIMSTYLE
105
13E
102
{ACAD_REACTORS
330
13D
330
149
330
153
330
16A
330
174
330
17E
330
188
330
194
330
31F
102
}
330
A
100
AcDbSymbolTableRecord
100
AcDbDimStyleTableRecord
  2
SLDDIMSTYLE0
 70
     0
 41
3.0
 44
0.0
 45
0.000000001
 73
     0
 74
     0
 77
     3
 78
    12
 79
     3
140
3.5
147
0.875
173
     1
178
     0
271
     1
272
     3
276
     2
284
    12
340
7B
  0
DIMSTYLE
105
15E
102
{ACAD_REACTORS
330
15D
330
313
102
}
330
A
100
AcDbSymbolTableRecord
100
AcDbDimStyleTableRecord
  2
SLDDIMSTYLE1
 70
     0
 41
3.0
 44
0.0
 45
0.000000001
 73
     0
 74
     0
 77
     3
 78
    12
 79
     3
140
3.5
147
0.875
172
     1
173
     1
178
     0
271
     1
272
     3
276
     2
284
    12
289
     0
340
7B
  0
DIMSTYLE
105
1A1
102
{ACAD_REACTORS
330
1A0
102
}
330
A
100
AcDbSymbolTableRecord
100
AcDbDimStyleTableRecord
  2
SLDDIMSTYLE2
 70
     0
 41
3.0
 44
0.0
 45
0.000000001
 78
    12
 79
     3
140
3.5
141
0.0
147
0.875
173
     1
178
     0
271
     1
272
     3
276
     2
284
    12
340
7B
  0
DIMSTYLE
105
1B2
330
A
100
AcDbSymbolTableRecord
100
AcDbDimStyleTableRecord
  2
SLDDIMSTYLE3
 70
     0
 41
3.0
 44
0.0
 45
0.000000001
146
3.0
147
0.0
173
     1
178
     0
271
     0
272
     0
276
     2
340
11
  0
DIMSTYLE
105
21E
102
{ACAD_REACTORS
330
21D
330
22A
102
}
330
A
100
AcDbSymbolTableRecord
100
AcDbDimStyleTableRecord
  2
SLDDIMSTYLE4
 70
     0
 41
3.0
 44
0.0
 45
0.000000001
 73
     0
 74
     0
 77
     3
 78
    12
 79
     3
140
3.5
147
0.875
173
     1
178
     0
271
     0
272
     3
276
     2
284
    12
340
7B
  0
ENDTAB
  0
TABLE
  2
BLOCK_RECORD
  5
1
330
0
100
AcDbSymbolTable
 70
    22
  0
BLOCK_RECORD
  5
1F
330
1
100
AcDbSymbolTableRecord
100
AcDbBlockTableRecord
  2
*Model_Space
340
22
  0
BLOCK_RECORD
  5
1B
330
1
100
AcDbSymbolTableRecord
100
AcDbBlockTableRecord
  2
*Paper_Space
340
1E
  0
BLOCK_RECORD
  5
23
330
1
100
AcDbSymbolTableRecord
100
AcDbBlockTableRecord
  2
*Paper_Space0
340
26
  0
BLOCK_RECORD
  5
13F
330
1
100
AcDbSymbolTableRecord
100
AcDbBlockTableRecord
  2
_D
340
0
  0
BLOCK_RECORD
  5
14A
330
1
100
AcDbSymbolTableRecord
100
AcDbBlockTableRecord
  2
_D_1
340
0
  0
BLOCK_RECORD
  5
154
330
1
100
AcDbSymbolTableRecord
100
AcDbBlockTableRecord
  2
_D_2
340
0
  0
BLOCK_RECORD
  5
15F
330
1
100
AcDbSymbolTableRecord
100
AcDbBlockTableRecord
  2
_D_3
340
0
  0
BLOCK_RECORD
  5
16B
330
1
100
AcDbSymbolTableRecord
100
AcDbBlockTableRecord
  2
_D_4
340
0
  0
BLOCK_RECORD
  5
175
330
1
100
AcDbSymbolTableRecord
100
AcDbBlockTableRecord
  2
_D_5
340
0
  0
BLOCK_RECORD
  5
17F
330
1
100
AcDbSymbolTableRecord
100
AcDbBlockTableRecord
  2
_D_6
340
0
  0
BLOCK_RECORD
  5
189
330
1
100
AcDbSymbolTableRecord
100
AcDbBlockTableRecord
  2
_D_7
340
0
  0
BLOCK_RECORD
  5
195
330
1
100
AcDbSymbolTableRecord
100
AcDbBlockTableRecord
  2
_D_8
340
0
  0
BLOCK_RECORD
  5
1A2
330
1
100
AcDbSymbolTableRecord
100
AcDbBlockTableRecord
  2
_D_9
340
0
  0
BLOCK_RECORD
  5
1AC
330
1
100
AcDbSymbolTableRecord
100
AcDbBlockTableRecord
  2
SW_NOTE_0
340
0
102
{BLKREFS
331
1B1
102
}
  0
BLOCK_RECORD
  5
1B4
330
1
100
AcDbSymbolTableRecord
100
AcDbBlockTableRecord
  2
SW_CENTERMARKSYMBOL_0
340
0
102
{BLKREFS
331
1BF
102
}
  0
BLOCK_RECORD
  5
1C0
330
1
100
AcDbSymbolTableRecord
100
AcDbBlockTableRecord
  2
SW_CENTERMARKSYMBOL_1
340
0
102
{BLKREFS
331
1CB
102
}
  0
BLOCK_RECORD
  5
1CC
330
1
100
AcDbSymbolTableRecord
100
AcDbBlockTableRecord
  2
SW_CENTERMARKSYMBOL_2
340
0
102
{BLKREFS
331
1D7
102
}
  0
BLOCK_RECORD
  5
1D8
330
1
100
AcDbSymbolTableRecord
100
AcDbBlockTableRecord
  2
SW_CENTERMARKSYMBOL_3
340
0
102
{BLKREFS
331
1E3
102
}
  0
BLOCK_RECORD
  5
1E4
330
1
100
AcDbSymbolTableRecord
100
AcDbBlockTableRecord
  2
SW_CENTERMARKSYMBOL_4
340
0
102
{BLKREFS
331
1EF
102
}
  0
BLOCK_RECORD
  5
21F
330
1
100
AcDbSymbolTableRecord
100
AcDbBlockTableRecord
  2
_D_10
340
0
  0
BLOCK_RECORD
  5
22B
330
1
100
AcDbSymbolTableRecord
100
AcDbBlockTableRecord
  2
_D_11
340
0
  0
BLOCK_RECORD
  5
236
330
1
100
AcDbSymbolTableRecord
100
AcDbBlockTableRecord
  2
SW_CENTERMARKSYMBOL_5
340
0
102
{BLKREFS
331
241
102
}
  0
BLOCK_RECORD
  5
314
330
1
100
AcDbSymbolTableRecord
100
AcDbBlockTableRecord
  2
_D_12
340
0
  0
BLOCK_RECORD
  5
320
330
1
100
AcDbSymbolTableRecord
100
AcDbBlockTableRecord
  2
_D_13
340
0
  0
ENDTAB
  0
ENDSEC
  0
SECTION
  2
BLOCKS
  0
BLOCK
  5
20
330
1F
100
AcDbEntity
  8
0
100
AcDbBlockBegin
  2
*Model_Space
 70
     0
 10
0.0
 20
0.0
 30
0.0
  3
*Model_Space
  1

  0
ENDBLK
  5
21
330
1F
100
AcDbEntity
  8
0
100
AcDbBlockEnd
  0
BLOCK
  5
1C
330
1B
100
AcDbEntity
 67
     1
  8
0
100
AcDbBlockBegin
  2
*Paper_Space
 70
     0
 10
0.0
 20
0.0
 30
0.0
  3
*Paper_Space
  1

  0
ENDBLK
  5
1D
330
1B
100
AcDbEntity
 67
     1
  8
0
100
AcDbBlockEnd
  0
BLOCK
  5
24
330
23
100
AcDbEntity
  8
0
100
AcDbBlockBegin
  2
*Paper_Space0
 70
     0
 10
0.0
 20
0.0
 30
0.0
  3
*Paper_Space0
  1

  0
ENDBLK
  5
25
330
23
100
AcDbEntity
  8
0
100
AcDbBlockEnd
  0
BLOCK
  5
140
330
13F
100
AcDbEntity
  8
0
100
AcDbBlockBegin
  2
_D
 70
     0
 10
0.0
 20
0.0
 30
0.0
  3
_D
  1

  0
SOLID
  5
142
330
13F
100
AcDbEntity
  8
0
  6
Continuous
 62
     7
370
     0
100
AcDbTrace
 10
72.4796449206
 20
101.5774376455
 30
0.0
 11
75.4796449206
 21
100.8274376455
 31
0.0
 12
75.4796449206
 22
102.3274376455
 32
0.0
 13
75.4796449206
 23
102.3274376455
 33
0.0
  0
SOLID
  5
143
330
13F
100
AcDbEntity
  8
0
  6
Continuous
 62
     7
370
     0
100
AcDbTrace
 10
92.4796449206
 20
101.5774376455
 30
0.0
 11
89.4796449206
 21
102.3274376455
 31
0.0
 12
89.4796449206
 22
100.8274376455
 32
0.0
 13
89.4796449206
 23
100.8274376455
 33
0.0
  0
LINE
  5
144
330
13F
100
AcDbEntity
  8
0
  6
Continuous
 62
     7
370
     0
100
AcDbLine
 10
72.4796449206
 20
121.5774376455
 30
0.0
 11
72.4796449206
 21
100.5774376455
 31
0.0
  0
LINE
  5
145
330
13F
100
AcDbEntity
  8
0
  6
Continuous
 62
     7
370
     0
100
AcDbLine
 10
92.4796449206
 20
121.5774376455
 30
0.0
 11
92.4796449206
 21
100.5774376455
 31
0.0
  0
LINE
  5
146
330
13F
100
AcDbEntity
  8
0
  6
Continuous
 62
     7
370
     0
100
AcDbLine
 10
72.4796449206
 20
101.5774376455
 30
0.0
 11
92.4796449206
 21
101.5774376455
 31
0.0
  0
MTEXT
  5
147
330
13F
100
AcDbEntity
  8
0
  6
Continuous
 62
     7
370
     0
100
AcDbMText
 10
78.5078740491
 20
106.0891749675
 30
0.0
 40
3.5
 41
0.0
 71
     1
 72
     1
  1
%%c
  7
SLDTEXTSTYLE0
 73
     1
 44
1.0
  0
MTEXT
  5
148
330
13F
100
AcDbEntity
  8
0
  6
Continuous
 62
     7
370
     0
100
AcDbMText
 10
82.3778045642
 20
106.0891749675
 30
0.0
 40
3.5
 41
0.0
 71
     1
 72
     1
  1
20
  7
SLDTEXTSTYLE0
 73
     1
 44
1.0
  0
ENDBLK
  5
141
330
13F
100
AcDbEntity
  8
0
100
AcDbBlockEnd
  0
BLOCK
  5
14B
330
14A
100
AcDbEntity
  8
0
100
AcDbBlockBegin
  2
_D_1
 70
     0
 10
0.0
 20
0.0
 30
0.0
  3
_D_1
  1

  0
SOLID
  5
14D
330
14A
100
AcDbEntity
  8
0
  6
Continuous
 62
     7
370
     0
100
AcDbTrace
 10
66.4796449206
 20
95.5774376455
 30
0.0
 11
69.4796449206
 21
94.8274376455
 31
0.0
 12
69.4796449206
 22
96.3274376455
 32
0.0
 13
69.4796449206
 23
96.3274376455
 33
0.0
  0
SOLID
  5
14E
330
14A
100
AcDbEntity
  8
0
  6
Continuous
 62
     7
370
     0
100
AcDbTrace
 10
98.4796449206
 20
95.5774376455
 30
0.0
 11
95.4796449206
 21
96.3274376455
 31
0.0
 12
95.4796449206
 22
94.8274376455
 32
0.0
 13
95.4796449206
 23
94.8274376455
 33
0.0
  0
LINE
  5
14F
330
14A
100
AcDbEntity
  8
0
  6
Continuous
 62
     7
370
     0
100
AcDbLine
 10
66.4796449206
 20
150.5774376455
 30
0.0
 11
66.4796449206
 21
94.5774376455
 31
0.0
  0
LINE
  5
150
330
14A
100
AcDbEntity
  8
0
  6
Continuous
 62
     7
370
     0
100
AcDbLine
 10
98.4796449206
 20
150.5774376455
 30
0.0
 11
98.4796449206
 21
94.5774376455
 31
0.0
  0
LINE
  5
151
330
14A
100
AcDbEntity
  8
0
  6
Continuous
 62
     7
370
     0
100
AcDbLine
 10
66.4796449206
 20
95.5774376455
 30
0.0
 11
98.4796449206
 21
95.5774376455
 31
0.0
  0
MTEXT
  5
152
330
14A
100
AcDbEntity
  8
0
  6
Continuous
 62
     7
370
     0
100
AcDbMText
 10
80.4428394231
 20
100.0891745018
 30
0.0
 40
3.5
 41
0.0
 71
     1
 72
     1
  1
32
  7
SLDTEXTSTYLE0
 73
     1
 44
1.0
  0
ENDBLK
  5
14C
330
14A
100
AcDbEntity
  8
0
100
AcDbBlockEnd
  0
BLOCK
  5
155
330
154
100
AcDbEntity
  8
0
100
AcDbBlockBegin
  2
_D_2
 70
     0
 10
0.0
 20
0.0
 30
0.0
  3
_D_2
  1

  0
SOLID
  5
157
330
154
100
AcDbEntity
  8
0
  6
Continuous
 62
     7
370
     0
100
AcDbTrace
 10
103.4796449206
 20
89.5774376455
 30
0.0
 11
100.4796449206
 21
90.3274376455
 31
0.0
 12
100.4796449206
 22
88.8274376455
 32
0.0
 13
100.4796449206
 23
88.8274376455
 33
0.0
  0
SOLID
  5
158
330
154
100
AcDbEntity
  8
0
  6
Continuous
 62
     7
370
     0
100
AcDbTrace
 10
61.4796449206
 20
89.5774376455
 30
0.0
 11
64.4796449206
 21
88.8274376455
 31
0.0
 12
64.4796449206
 22
90.3274376455
 32
0.0
 13
64.4796449206
 23
90.3274376455
 33
0.0
  0
LINE
  5
159
330
154
100
AcDbEntity
  8
0
  6
Continuous
 62
     7
370
     0
100
AcDbLine
 10
103.4796449206
 20
145.5774376455
 30
0.0
 11
103.4796449206
 21
88.5774376455
 31
0.0
  0
LINE
  5
15A
330
154
100
AcDbEntity
  8
0
  6
Continuous
 62
     7
370
     0
100
AcDbLine
 10
61.4796449206
 20
145.5774376455
 30
0.0
 11
61.4796449206
 21
88.5774376455
 31
0.0
  0
LINE
  5
15B
330
154
100
AcDbEntity
  8
0
  6
Continuous
 62
     7
370
     0
100
AcDbLine
 10
103.4796449206
 20
89.5774376455
 30
0.0
 11
61.4796449206
 21
89.5774376455
 31
0.0
  0
MTEXT
  5
15C
330
154
100
AcDbEntity
  8
0
  6
Continuous
 62
     7
370
     0
100
AcDbMText
 10
80.4428394231
 20
94.0891745018
 30
0.0
 40
3.5
 41
0.0
 71
     1
 72
     1
  1
42
  7
SLDTEXTSTYLE0
 73
     1
 44
1.0
  0
ENDBLK
  5
156
330
154
100
AcDbEntity
  8
0
100
AcDbBlockEnd
  0
BLOCK
  5
160
330
15F
100
AcDbEntity
  8
0
100
AcDbBlockBegin
  2
_D_3
 70
     0
 10
0.0
 20
0.0
 30
0.0
  3
_D_3
  1

  0
SOLID
  5
162
330
15F
100
AcDbEntity
  8
0
  6
Continuous
 62
     7
370
     0
100
AcDbTrace
 10
114.2667439287
 20
146.5774376455
 30
0.0
 11
113.5167439287
 21
143.5774376455
 31
0.0
 12
115.0167439287
 22
143.5774376455
 32
0.0
 13
115.0167439287
 23
143.5774376455
 33
0.0
  0
SOLID
  5
163
330
15F
100
AcDbEntity
  8
0
  6
Continuous
 62
     7
370
     0
100
AcDbTrace
 10
114.2667439287
 20
151.5774376455
 30
0.0
 11
115.0167439287
 21
154.5774376455
 31
0.0
 12
113.5167439287
 22
154.5774376455
 32
0.0
 13
113.5167439287
 23
154.5774376455
 33
0.0
  0
LINE
  5
164
330
15F
100
AcDbEntity
  8
0
  6
Continuous
 62
     7
370
     0
100
AcDbLine
 10
104.4796449206
 20
146.5774376455
 30
0.0
 11
115.2667439287
 21
146.5774376455
 31
0.0
  0
LINE
  5
165
330
15F
100
AcDbEntity
  8
0
  6
Continuous
 62
     7
370
     0
100
AcDbLine
 10
99.4796449206
 20
151.5774376455
 30
0.0
 11
115.2667439287
 21
151.5774376455
 31
0.0
  0
LINE
  5
166
330
15F
100
AcDbEntity
  8
0
  6
Continuous
 62
     7
370
     0
100
AcDbLine
 10
114.2667439287
 20
146.5774376455
 30
0.0
 11
114.2667439287
 21
141.5774376455
 31
0.0
  0
LINE
  5
167
330
15F
100
AcDbEntity
  8
0
  6
Continuous
 62
     7
370
     0
100
AcDbLine
 10
114.2667439287
 20
146.5774376455
 30
0.0
 11
114.2667439287
 21
151.5774376455
 31
0.0
  0
LINE
  5
168
330
15F
100
AcDbEntity
  8
0
  6
Continuous
 62
     7
370
     0
100
AcDbLine
 10
114.2667439287
 20
151.5774376455
 30
0.0
 11
114.2667439287
 21
156.5774376455
 31
0.0
  0
MTEXT
  5
169
330
15F
100
AcDbEntity
  8
0
  6
Continuous
 62
     7
370
     0
100
AcDbMText
 10
109.7550070723
 20
148.0590348967
 30
0.0
 40
3.5
 41
0.0
 71
     1
 72
     1
  1
5
  7
SLDTEXTSTYLE0
 11
-1.037486409151910E-14
 21
1.0
 31
0.0
 73
     1
 44
1.0
  0
ENDBLK
  5
161
330
15F
100
AcDbEntity
  8
0
100
AcDbBlockEnd
  0
BLOCK
  5
16C
330
16B
100
AcDbEntity
  8
0
100
AcDbBlockBegin
  2
_D_4
 70
     0
 10
0.0
 20
0.0
 30
0.0
  3
_D_4
  1

  0
SOLID
  5
16E
330
16B
100
AcDbEntity
  8
0
  6
Continuous
 62
     7
370
     0
100
AcDbTrace
 10
114.2667439287
 20
151.5774376455
 30
0.0
 11
115.0167439287
 21
154.5774376455
 31
0.0
 12
113.5167439287
 22
154.5774376455
 32
0.0
 13
113.5167439287
 23
154.5774376455
 33
0.0
  0
SOLID
  5
16F
330
16B
100
AcDbEntity
  8
0
  6
Continuous
 62
     7
370
     0
100
AcDbTrace
 10
114.2667439287
 20
194.5774376455
 30
0.0
 11
113.5167439287
 21
191.5774376455
 31
0.0
 12
115.0167439287
 22
191.5774376455
 32
0.0
 13
115.0167439287
 23
191.5774376455
 33
0.0
  0
LINE
  5
170
330
16B
100
AcDbEntity
  8
0
  6
Continuous
 62
     7
370
     0
100
AcDbLine
 10
99.4796449206
 20
151.5774376455
 30
0.0
 11
115.2667439287
 21
151.5774376455
 31
0.0
  0
LINE
  5
171
330
16B
100
AcDbEntity
  8
0
  6
Continuous
 62
     7
370
     0
100
AcDbLine
 10
83.4796449206
 20
194.5774376455
 30
0.0
 11
115.2667439287
 21
194.5774376455
 31
0.0
  0
LINE
  5
172
330
16B
100
AcDbEntity
  8
0
  6
Continuous
 62
     7
370
     0
100
AcDbLine
 10
114.2667439287
 20
151.5774376455
 30
0.0
 11
114.2667439287
 21
194.5774376455
 31
0.0
  0
MTEXT
  5
173
330
16B
100
AcDbEntity
  8
0
  6
Continuous
 62
     7
370
     0
100
AcDbMText
 10
109.7550070723
 20
171.040632148
 30
0.0
 40
3.5
 41
0.0
 71
     1
 72
     1
  1
43
  7
SLDTEXTSTYLE0
 11
6.123233995736766E-17
 21
1.0
 31
0.0
 73
     1
 44
1.0
  0
ENDBLK
  5
16D
330
16B
100
AcDbEntity
  8
0
100
AcDbBlockEnd
  0
BLOCK
  5
176
330
175
100
AcDbEntity
  8
0
100
AcDbBlockBegin
  2
_D_5
 70
     0
 10
0.0
 20
0.0
 30
0.0
  3
_D_5
  1

  0
SOLID
  5
178
330
175
100
AcDbEntity
  8
0
  6
Continuous
 62
     7
370
     0
100
AcDbTrace
 10
125.3536234728
 20
216.7691043055
 30
0.0
 11
124.6036234728
 21
213.7691043055
 31
0.0
 12
126.1036234728
 22
213.7691043055
 32
0.0
 13
126.1036234728
 23
213.7691043055
 33
0.0
  0
SOLID
  5
179
330
175
100
AcDbEntity
  8
0
  6
Continuous
 62
     7
370
     0
100
AcDbTrace
 10
125.3536234728
 20
146.5774376455
 30
0.0
 11
126.1036234728
 21
149.5774376455
 31
0.0
 12
124.6036234728
 22
149.5774376455
 32
0.0
 13
124.6036234728
 23
149.5774376455
 33
0.0
  0
LINE
  5
17A
330
175
100
AcDbEntity
  8
0
  6
Continuous
 62
     7
370
     0
100
AcDbLine
 10
89.4796449206
 20
216.7691043055
 30
0.0
 11
126.3536234728
 21
216.7691043055
 31
0.0
  0
LINE
  5
17B
330
175
100
AcDbEntity
  8
0
  6
Continuous
 62
     7
370
     0
100
AcDbLine
 10
104.4796449206
 20
146.5774376455
 30
0.0
 11
126.3536234728
 21
146.5774376455
 31
0.0
  0
LINE
  5
17C
330
175
100
AcDbEntity
  8
0
  6
Continuous
 62
     7
370
     0
100
AcDbLine
 10
125.3536234728
 20
216.7691043055
 30
0.0
 11
125.3536234728
 21
146.5774376455
 31
0.0
  0
MTEXT
  5
17D
330
175
100
AcDbEntity
  8
0
  6
Continuous
 62
     7
370
     0
100
AcDbMText
 10
120.8418866165
 20
177.5996599805
 30
0.0
 40
3.5
 41
0.0
 71
     1
 72
     1
  1
70.2
  7
SLDTEXTSTYLE0
 11
-1.770233605404514E-14
 21
1.0
 31
0.0
 73
     1
 44
1.0
  0
ENDBLK
  5
177
330
175
100
AcDbEntity
  8
0
100
AcDbBlockEnd
  0
BLOCK
  5
180
330
17F
100
AcDbEntity
  8
0
100
AcDbBlockBegin
  2
_D_6
 70
     0
 10
0.0
 20
0.0
 30
0.0
  3
_D_6
  1

  0
SOLID
  5
182
330
17F
100
AcDbEntity
  8
0
  6
Continuous
 62
     7
370
     0
100
AcDbTrace
 10
125.3536234728
 20
146.5774376455
 30
0.0
 11
124.6036234728
 21
143.5774376455
 31
0.0
 12
126.1036234728
 22
143.5774376455
 32
0.0
 13
126.1036234728
 23
143.5774376455
 33
0.0
  0
SOLID
  5
183
330
17F
100
AcDbEntity
  8
0
  6
Continuous
 62
     7
370
     0
100
AcDbTrace
 10
125.3536234728
 20
121.5774376455
 30
0.0
 11
126.1036234728
 21
124.5774376455
 31
0.0
 12
124.6036234728
 22
124.5774376455
 32
0.0
 13
124.6036234728
 23
124.5774376455
 33
0.0
  0
LINE
  5
184
330
17F
100
AcDbEntity
  8
0
  6
Continuous
 62
     7
370
     0
100
AcDbLine
 10
104.4796449206
 20
146.5774376455
 30
0.0
 11
126.3536234728
 21
146.5774376455
 31
0.0
  0
LINE
  5
185
330
17F
100
AcDbEntity
  8
0
  6
Continuous
 62
     7
370
     0
100
AcDbLine
 10
92.4796449206
 20
121.5774376455
 30
0.0
 11
126.3536234728
 21
121.5774376455
 31
0.0
  0
LINE
  5
186
330
17F
100
AcDbEntity
  8
0
  6
Continuous
 62
     7
370
     0
100
AcDbLine
 10
125.3536234728
 20
146.5774376455
 30
0.0
 11
125.3536234728
 21
121.5774376455
 31
0.0
  0
MTEXT
  5
187
330
17F
100
AcDbEntity
  8
0
  6
Continuous
 62
     7
370
     0
100
AcDbMText
 10
120.8418866165
 20
132.040632148
 30
0.0
 40
3.5
 41
0.0
 71
     1
 72
     1
  1
25
  7
SLDTEXTSTYLE0
 11
-1.770233605404514E-14
 21
1.0
 31
0.0
 73
     1
 44
1.0
  0
ENDBLK
  5
181
330
17F
100
AcDbEntity
  8
0
100
AcDbBlockEnd
  0
BLOCK
  5
18A
330
189
100
AcDbEntity
  8
0
100
AcDbBlockBegin
  2
_D_7
 70
     0
 10
0.0
 20
0.0
 30
0.0
  3
_D_7
  1

  0
ARC
  5
18C
330
189
100
AcDbEntity
  8
0
  6
Continuous
 62
     7
370
     0
100
AcDbCircle
 10
135.3168179754
 20
186.0671339174
 30
0.0
 40
4.554435549315966
100
AcDbArc
 50
243.4349488229
 51
296.5650511771
  0
ARC
  5
18D
330
189
100
AcDbEntity
  8
0
  6
Continuous
 62
     7
370
     0
100
AcDbCircle
 10
135.3168179754
 20
184.0303286528
 30
0.0
 40
4.554435549315966
100
AcDbArc
 50
63.4349488229
 51
116.5650511771
  0
SOLID
  5
18E
330
189
100
AcDbEntity
  8
0
  6
Continuous
 62
     7
370
     0
100
AcDbTrace
 10
137.3536234728
 20
111.5774376455
 30
0.0
 11
138.1036234728
 21
114.5774376455
 31
0.0
 12
136.6036234728
 22
114.5774376455
 32
0.0
 13
136.6036234728
 23
114.5774376455
 33
0.0
  0
SOLID
  5
18F
330
189
100
AcDbEntity
  8
0
  6
Continuous
 62
     7
370
     0
100
AcDbTrace
 10
137.3536234728
 20
258.5200250411
 30
0.0
 11
136.6036234728
 21
255.5200250411
 31
0.0
 12
138.1036234728
 22
255.5200250411
 32
0.0
 13
138.1036234728
 23
255.5200250411
 33
0.0
  0
LINE
  5
190
330
189
100
AcDbEntity
  8
0
  6
Continuous
 62
     7
370
     0
100
AcDbLine
 10
85.5017591954
 20
111.5774376455
 30
0.0
 11
138.3536234728
 21
111.5774376455
 31
0.0
  0
LINE
  5
191
330
189
100
AcDbEntity
  8
0
  6
Continuous
 62
     7
370
     0
100
AcDbLine
 10
93.975360951
 20
258.5200250411
 30
0.0
 11
138.3536234728
 21
258.5200250411
 31
0.0
  0
LINE
  5
192
330
189
100
AcDbEntity
  8
0
  6
Continuous
 62
     7
370
     0
100
AcDbLine
 10
137.3536234728
 20
111.5774376455
 30
0.0
 11
137.3536234728
 21
258.5200250411
 31
0.0
  0
MTEXT
  5
193
330
189
100
AcDbEntity
  8
0
  6
Continuous
 62
     7
370
     0
100
AcDbMText
 10
132.8418866165
 20
181.9935229224
 30
0.0
 40
3.5
 41
0.0
 71
     1
 72
     1
  1
147
  7
SLDTEXTSTYLE0
 11
6.123233995736766E-17
 21
1.0
 31
0.0
 73
     1
 44
1.0
  0
ENDBLK
  5
18B
330
189
100
AcDbEntity
  8
0
100
AcDbBlockEnd
  0
BLOCK
  5
196
330
195
100
AcDbEntity
  8
0
100
AcDbBlockBegin
  2
_D_8
 70
     0
 10
0.0
 20
0.0
 30
0.0
  3
_D_8
  1

  0
ARC
  5
198
330
195
100
AcDbEntity
  8
0
  6
Continuous
 62
     7
370
     0
100
AcDbCircle
 10
84.5164503598
 20
269.7228085258
 30
0.0
 40
4.554435549315978
100
AcDbArc
 50
153.4349488229
 51
206.5650511771
  0
ARC
  5
199
330
195
100
AcDbEntity
  8
0
  6
Continuous
 62
     7
370
     0
100
AcDbCircle
 10
80.4428393649
 20
269.7228085258
 30
0.0
 40
4.554435549315966
100
AcDbArc
 50
333.4349488229
 51
26.5650511771
  0
SOLID
  5
19A
330
195
100
AcDbEntity
  8
0
  6
Continuous
 62
     7
370
     0
100
AcDbTrace
 10
71.9839288902
 20
267.6860030283
 30
0.0
 11
74.9839288902
 21
266.9360030283
 31
0.0
 12
74.9839288902
 22
268.4360030283
 32
0.0
 13
74.9839288902
 23
268.4360030283
 33
0.0
  0
SOLID
  5
19B
330
195
100
AcDbEntity
  8
0
  6
Continuous
 62
     7
370
     0
100
AcDbTrace
 10
92.975360951
 20
267.6860030283
 30
0.0
 11
89.975360951
 21
268.4360030283
 31
0.0
 12
89.975360951
 22
266.9360030283
 32
0.0
 13
89.975360951
 23
266.9360030283
 33
0.0
  0
LINE
  5
19C
330
195
100
AcDbEntity
  8
0
  6
Continuous
 62
     7
370
     0
100
AcDbLine
 10
71.9839288902
 20
259.5200250411
 30
0.0
 11
71.9839288902
 21
268.6860030283
 31
0.0
  0
LINE
  5
19D
330
195
100
AcDbEntity
  8
0
  6
Continuous
 62
     7
370
     0
100
AcDbLine
 10
92.975360951
 20
259.5200250411
 30
0.0
 11
92.975360951
 21
268.6860030283
 31
0.0
  0
LINE
  5
19E
330
195
100
AcDbEntity
  8
0
  6
Continuous
 62
     7
370
     0
100
AcDbLine
 10
71.9839288902
 20
267.6860030283
 30
0.0
 11
92.975360951
 21
267.6860030283
 31
0.0
  0
MTEXT
  5
19F
330
195
100
AcDbEntity
  8
0
  6
Continuous
 62
     7
370
     0
100
AcDbMText
 10
80.4428393649
 20
272.1977398847
 30
0.0
 40
3.5
 41
0.0
 71
     1
 72
     1
  1
21
  7
SLDTEXTSTYLE0
 73
     1
 44
1.0
  0
ENDBLK
  5
197
330
195
100
AcDbEntity
  8
0
100
AcDbBlockEnd
  0
BLOCK
  5
1A3
330
1A2
100
AcDbEntity
  8
0
100
AcDbBlockBegin
  2
_D_9
 70
     0
 10
0.0
 20
0.0
 30
0.0
  3
_D_9
  1

  0
SOLID
  5
1A5
330
1A2
100
AcDbEntity
  8
0
  6
Continuous
 62
     7
370
     0
100
AcDbTrace
 10
64.358324577
 20
153.698757989
 30
0.0
 11
62.7673343193
 21
156.3504084185
 31
0.0
 12
61.7066741475
 22
155.2897482467
 32
0.0
 13
61.7066741475
 23
155.2897482467
 33
0.0
  0
LINE
  5
1A6
330
1A2
100
AcDbEntity
  8
0
  6
Continuous
 62
     7
370
     0
100
AcDbLine
 10
64.358324577
 20
153.698757989
 30
0.0
 11
58.2947095116
 21
159.7623730544
 31
0.0
  0
LINE
  5
1A7
330
1A2
100
AcDbEntity
  8
0
  6
Continuous
 62
     7
370
     0
100
AcDbLine
 10
58.2947095116
 20
159.7623730544
 30
0.0
 11
24.1183252772
 21
159.7623730544
 31
0.0
  0
MTEXT
  5
1A8
330
1A2
100
AcDbEntity
  8
0
  6
Continuous
 62
     7
370
     0
100
AcDbMText
 10
30.2287401398
 20
168.3477209057
 30
0.0
 40
3.5
 41
0.0
 71
     1
 72
     1
  1
3-
  7
SLDTEXTSTYLE0
 73
     1
 44
1.0
  0
MTEXT
  5
1A9
330
1A2
100
AcDbEntity
  8
0
  6
Continuous
 62
     7
370
     0
100
AcDbMText
 10
34.3023511348
 20
168.3477209057
 30
0.0
 40
3.5
 41
0.0
 71
     1
 72
     1
  1
M6
  7
SLDTEXTSTYLE0
 73
     1
 44
1.0
  0
MTEXT
  5
1AA
330
1A2
100
AcDbEntity
  8
0
  6
Continuous
 62
     7
370
     0
100
AcDbMText
 10
38.3759621298
 20
168.3477209057
 30
0.0
 40
3.5
 41
0.0
 71
     1
 72
     1
  1
取付穴
  7
SLDTEXTSTYLE0
 73
     1
 44
1.0
  0
MTEXT
  5
1AB
330
1A2
100
AcDbEntity
  8
0
  6
Continuous
 62
     7
370
     0
100
AcDbMText
 10
24.1183252772
 20
164.2741099108
 30
0.0
 40
3.5
 41
0.0
 71
     1
 72
     1
  1
(両側口元面取有)
  7
SLDTEXTSTYLE0
 73
     1
 44
1.0
  0
ENDBLK
  5
1A4
330
1A2
100
AcDbEntity
  8
0
100
AcDbBlockEnd
  0
BLOCK
  5
1AD
330
1AC
100
AcDbEntity
  8
0
100
AcDbBlockBegin
  2
SW_NOTE_0
 70
     0
 10
0.0
 20
0.0
 30
0.0
  3
SW_NOTE_0
  1

  0
LINE
  5
1AF
330
1AC
100
AcDbEntity
  8
0
  6
Continuous
 62
     0
370
     0
100
AcDbLine
 10
-8.2682873652
 20
0.0
 30
0.0
 11
0.0
 21
0.0
 31
0.0
  0
MTEXT
  5
1B0
330
1AC
100
AcDbEntity
  8
0
  6
Continuous
 62
     0
370
     0
100
AcDbMText
 10
-8.7147699533
 20
4.5508917836
 30
0.0
 40
3.5
 41
0.0
 71
     1
 72
     1
  1
BF-6
  7
SLDTEXTSTYLE0
 73
     1
 44
1.0
  0
ENDBLK
  5
1AE
330
1AC
100
AcDbEntity
  8
0
100
AcDbBlockEnd
  0
BLOCK
  5
1B5
330
1B4
100
AcDbEntity
  8
0
100
AcDbBlockBegin
  2
SW_CENTERMARKSYMBOL_0
 70
     0
 10
0.0
 20
0.0
 30
0.0
  3
SW_CENTERMARKSYMBOL_0
  1

  0
LINE
  5
1B7
330
1B4
100
AcDbEntity
  8
0
  6
Continuous
 62
     0
370
     0
100
AcDbLine
 10
0.0
 20
0.0
 30
0.0
 11
0.0
 21
2.5
 31
0.0
  0
LINE
  5
1B8
330
1B4
100
AcDbEntity
  8
0
  6
Continuous
 62
     0
370
     0
100
AcDbLine
 10
0.0
 20
0.0
 30
0.0
 11
-2.5
 21
0.0
 31
0.0
  0
LINE
  5
1B9
330
1B4
100
AcDbEntity
  8
0
  6
Continuous
 62
     0
370
     0
100
AcDbLine
 10
0.0
 20
0.0
 30
0.0
 11
0.0
 21
-2.5
 31
0.0
  0
LINE
  5
1BA
330
1B4
100
AcDbEntity
  8
0
  6
Continuous
 62
     0
370
     0
100
AcDbLine
 10
0.0
 20
0.0
 30
0.0
 11
2.5
 21
0.0
 31
0.0
  0
LINE
  5
1BB
330
1B4
100
AcDbEntity
  8
0
  6
Continuous
 62
     0
370
     0
100
AcDbLine
 10
0.0
 20
5.0
 30
0.0
 11
0.0
 21
5.5
 31
0.0
  0
LINE
  5
1BC
330
1B4
100
AcDbEntity
  8
0
  6
Continuous
 62
     0
370
     0
100
AcDbLine
 10
-5.0
 20
0.0
 30
0.0
 11
-5.5
 21
0.0
 31
0.0
  0
LINE
  5
1BD
330
1B4
100
AcDbEntity
  8
0
  6
Continuous
 62
     0
370
     0
100
AcDbLine
 10
0.0
 20
-5.0
 30
0.0
 11
0.0
 21
-5.5
 31
0.0
  0
LINE
  5
1BE
330
1B4
100
AcDbEntity
  8
0
  6
Continuous
 62
     0
370
     0
100
AcDbLine
 10
5.0
 20
0.0
 30
0.0
 11
5.5
 21
0.0
 31
0.0
  0
ENDBLK
  5
1B6
330
1B4
100
AcDbEntity
  8
0
100
AcDbBlockEnd
  0
BLOCK
  5
1C1
330
1C0
100
AcDbEntity
  8
0
100
AcDbBlockBegin
  2
SW_CENTERMARKSYMBOL_1
 70
     0
 10
0.0
 20
0.0
 30
0.0
  3
SW_CENTERMARKSYMBOL_1
  1

  0
LINE
  5
1C3
330
1C0
100
AcDbEntity
  8
0
  6
Continuous
 62
     0
370
     0
100
AcDbLine
 10
0.0
 20
0.0
 30
0.0
 11
0.0
 21
2.5
 31
0.0
  0
LINE
  5
1C4
330
1C0
100
AcDbEntity
  8
0
  6
Continuous
 62
     0
370
     0
100
AcDbLine
 10
0.0
 20
0.0
 30
0.0
 11
-2.5
 21
0.0
 31
0.0
  0
LINE
  5
1C5
330
1C0
100
AcDbEntity
  8
0
  6
Continuous
 62
     0
370
     0
100
AcDbLine
 10
0.0
 20
0.0
 30
0.0
 11
0.0
 21
-2.5
 31
0.0
  0
LINE
  5
1C6
330
1C0
100
AcDbEntity
  8
0
  6
Continuous
 62
     0
370
     0
100
AcDbLine
 10
0.0
 20
0.0
 30
0.0
 11
2.5
 21
0.0
 31
0.0
  0
LINE
  5
1C7
330
1C0
100
AcDbEntity
  8
0
  6
Continuous
 62
     0
370
     0
100
AcDbLine
 10
0.0
 20
5.0
 30
0.0
 11
0.0
 21
5.75
 31
0.0
  0
LINE
  5
1C8
330
1C0
100
AcDbEntity
  8
0
  6
Continuous
 62
     0
370
     0
100
AcDbLine
 10
-5.0
 20
0.0
 30
0.0
 11
-5.75
 21
0.0
 31
0.0
  0
LINE
  5
1C9
330
1C0
100
AcDbEntity
  8
0
  6
Continuous
 62
     0
370
     0
100
AcDbLine
 10
0.0
 20
-5.0
 30
0.0
 11
0.0
 21
-5.75
 31
0.0
  0
LINE
  5
1CA
330
1C0
100
AcDbEntity
  8
0
  6
Continuous
 62
     0
370
     0
100
AcDbLine
 10
5.0
 20
0.0
 30
0.0
 11
5.75
 21
0.0
 31
0.0
  0
ENDBLK
  5
1C2
330
1C0
100
AcDbEntity
  8
0
100
AcDbBlockEnd
  0
BLOCK
  5
1CD
330
1CC
100
AcDbEntity
  8
0
100
AcDbBlockBegin
  2
SW_CENTERMARKSYMBOL_2
 70
     0
 10
0.0
 20
0.0
 30
0.0
  3
SW_CENTERMARKSYMBOL_2
  1

  0
LINE
  5
1CF
330
1CC
100
AcDbEntity
  8
0
  6
Continuous
 62
     0
370
     0
100
AcDbLine
 10
0.0
 20
0.0
 30
0.0
 11
0.0
 21
2.5
 31
0.0
  0
LINE
  5
1D0
330
1CC
100
AcDbEntity
  8
0
  6
Continuous
 62
     0
370
     0
100
AcDbLine
 10
0.0
 20
0.0
 30
0.0
 11
-2.5
 21
0.0
 31
0.0
  0
LINE
  5
1D1
330
1CC
100
AcDbEntity
  8
0
  6
Continuous
 62
     0
370
     0
100
AcDbLine
 10
0.0
 20
0.0
 30
0.0
 11
0.0
 21
-2.5
 31
0.0
  0
LINE
  5
1D2
330
1CC
100
AcDbEntity
  8
0
  6
Continuous
 62
     0
370
     0
100
AcDbLine
 10
0.0
 20
0.0
 30
0.0
 11
2.5
 21
0.0
 31
0.0
  0
LINE
  5
1D3
330
1CC
100
AcDbEntity
  8
0
  6
Continuous
 62
     0
370
     0
100
AcDbLine
 10
0.0
 20
2.5
 30
0.0
 11
0.0
 21
4.5
 31
0.0
  0
LINE
  5
1D4
330
1CC
100
AcDbEntity
  8
0
  6
Continuous
 62
     0
370
     0
100
AcDbLine
 10
-2.5
 20
0.0
 30
0.0
 11
-4.5
 21
0.0
 31
0.0
  0
LINE
  5
1D5
330
1CC
100
AcDbEntity
  8
0
  6
Continuous
 62
     0
370
     0
100
AcDbLine
 10
0.0
 20
-2.5
 30
0.0
 11
0.0
 21
-4.5
 31
0.0
  0
LINE
  5
1D6
330
1CC
100
AcDbEntity
  8
0
  6
Continuous
 62
     0
370
     0
100
AcDbLine
 10
2.5
 20
0.0
 30
0.0
 11
4.5
 21
0.0
 31
0.0
  0
ENDBLK
  5
1CE
330
1CC
100
AcDbEntity
  8
0
100
AcDbBlockEnd
  0
BLOCK
  5
1D9
330
1D8
100
AcDbEntity
  8
0
100
AcDbBlockBegin
  2
SW_CENTERMARKSYMBOL_3
 70
     0
 10
0.0
 20
0.0
 30
0.0
  3
SW_CENTERMARKSYMBOL_3
  1

  0
LINE
  5
1DB
330
1D8
100
AcDbEntity
  8
0
  6
Continuous
 62
     0
370
     0
100
AcDbLine
 10
0.0
 20
0.0
 30
0.0
 11
0.0
 21
2.5
 31
0.0
  0
LINE
  5
1DC
330
1D8
100
AcDbEntity
  8
0
  6
Continuous
 62
     0
370
     0
100
AcDbLine
 10
0.0
 20
0.0
 30
0.0
 11
-2.5
 21
0.0
 31
0.0
  0
LINE
  5
1DD
330
1D8
100
AcDbEntity
  8
0
  6
Continuous
 62
     0
370
     0
100
AcDbLine
 10
0.0
 20
0.0
 30
0.0
 11
0.0
 21
-2.5
 31
0.0
  0
LINE
  5
1DE
330
1D8
100
AcDbEntity
  8
0
  6
Continuous
 62
     0
370
     0
100
AcDbLine
 10
0.0
 20
0.0
 30
0.0
 11
2.5
 21
0.0
 31
0.0
  0
LINE
  5
1DF
330
1D8
100
AcDbEntity
  8
0
  6
Continuous
 62
     0
370
     0
100
AcDbLine
 10
0.0
 20
5.0
 30
0.0
 11
0.0
 21
5.75
 31
0.0
  0
LINE
  5
1E0
330
1D8
100
AcDbEntity
  8
0
  6
Continuous
 62
     0
370
     0
100
AcDbLine
 10
-5.0
 20
0.0
 30
0.0
 11
-5.75
 21
0.0
 31
0.0
  0
LINE
  5
1E1
330
1D8
100
AcDbEntity
  8
0
  6
Continuous
 62
     0
370
     0
100
AcDbLine
 10
0.0
 20
-5.0
 30
0.0
 11
0.0
 21
-5.75
 31
0.0
  0
LINE
  5
1E2
330
1D8
100
AcDbEntity
  8
0
  6
Continuous
 62
     0
370
     0
100
AcDbLine
 10
5.0
 20
0.0
 30
0.0
 11
5.75
 21
0.0
 31
0.0
  0
ENDBLK
  5
1DA
330
1D8
100
AcDbEntity
  8
0
100
AcDbBlockEnd
  0
BLOCK
  5
1E5
330
1E4
100
AcDbEntity
  8
0
100
AcDbBlockBegin
  2
SW_CENTERMARKSYMBOL_4
 70
     0
 10
0.0
 20
0.0
 30
0.0
  3
SW_CENTERMARKSYMBOL_4
  1

  0
LINE
  5
1E7
330
1E4
100
AcDbEntity
  8
0
  6
Continuous
 62
     0
370
     0
100
AcDbLine
 10
0.0
 20
0.0
 30
0.0
 11
0.0
 21
2.5
 31
0.0
  0
LINE
  5
1E8
330
1E4
100
AcDbEntity
  8
0
  6
Continuous
 62
     0
370
     0
100
AcDbLine
 10
0.0
 20
0.0
 30
0.0
 11
-2.5
 21
0.0
 31
0.0
  0
LINE
  5
1E9
330
1E4
100
AcDbEntity
  8
0
  6
Continuous
 62
     0
370
     0
100
AcDbLine
 10
0.0
 20
0.0
 30
0.0
 11
0.0
 21
-2.5
 31
0.0
  0
LINE
  5
1EA
330
1E4
100
AcDbEntity
  8
0
  6
Continuous
 62
     0
370
     0
100
AcDbLine
 10
0.0
 20
0.0
 30
0.0
 11
2.5
 21
0.0
 31
0.0
  0
LINE
  5
1EB
330
1E4
100
AcDbEntity
  8
0
  6
Continuous
 62
     0
370
     0
100
AcDbLine
 10
0.0
 20
5.0
 30
0.0
 11
0.0
 21
5.75
 31
0.0
  0
LINE
  5
1EC
330
1E4
100
AcDbEntity
  8
0
  6
Continuous
 62
     0
370
     0
100
AcDbLine
 10
-5.0
 20
0.0
 30
0.0
 11
-5.75
 21
0.0
 31
0.0
  0
LINE
  5
1ED
330
1E4
100
AcDbEntity
  8
0
  6
Continuous
 62
     0
370
     0
100
AcDbLine
 10
0.0
 20
-5.0
 30
0.0
 11
0.0
 21
-5.75
 31
0.0
  0
LINE
  5
1EE
330
1E4
100
AcDbEntity
  8
0
  6
Continuous
 62
     0
370
     0
100
AcDbLine
 10
5.0
 20
0.0
 30
0.0
 11
5.75
 21
0.0
 31
0.0
  0
ENDBLK
  5
1E6
330
1E4
100
AcDbEntity
  8
0
100
AcDbBlockEnd
  0
BLOCK
  5
220
330
21F
100
AcDbEntity
  8
0
100
AcDbBlockBegin
  2
_D_10
 70
     0
 10
0.0
 20
0.0
 30
0.0
  3
_D_10
  1

  0
ARC
  5
222
330
21F
100
AcDbEntity
  8
0
  6
Continuous
 62
     7
370
     0
100
AcDbCircle
 10
84.5164503598
 20
29.6736972746
 30
0.0
 40
4.554435549315966
100
AcDbArc
 50
153.4349488229
 51
206.5650511771
  0
ARC
  5
223
330
21F
100
AcDbEntity
  8
0
  6
Continuous
 62
     7
370
     0
100
AcDbCircle
 10
80.4428393649
 20
29.6736972746
 30
0.0
 40
4.554435549315966
100
AcDbArc
 50
333.4349488229
 51
26.5650511771
  0
SOLID
  5
224
330
21F
100
AcDbEntity
  8
0
  6
Continuous
 62
     7
370
     0
100
AcDbTrace
 10
55.6056663683
 20
27.6368917771
 30
0.0
 11
58.6056663683
 21
26.8868917771
 31
0.0
 12
58.6056663683
 22
28.3868917771
 32
0.0
 13
58.6056663683
 23
28.3868917771
 33
0.0
  0
SOLID
  5
225
330
21F
100
AcDbEntity
  8
0
  6
Continuous
 62
     7
370
     0
100
AcDbTrace
 10
109.3536234728
 20
27.6368917771
 30
0.0
 11
106.3536234728
 21
28.3868917771
 31
0.0
 12
106.3536234728
 22
26.8868917771
 32
0.0
 13
106.3536234728
 23
26.8868917771
 33
0.0
  0
LINE
  5
226
330
21F
100
AcDbEntity
  8
0
  6
Continuous
 62
     7
370
     0
100
AcDbLine
 10
55.6056663683
 20
51.693358209
 30
0.0
 11
55.6056663683
 21
26.6368917771
 31
0.0
  0
LINE
  5
227
330
21F
100
AcDbEntity
  8
0
  6
Continuous
 62
     7
370
     0
100
AcDbLine
 10
109.3536234728
 20
51.693358209
 30
0.0
 11
109.3536234728
 21
26.6368917771
 31
0.0
  0
LINE
  5
228
330
21F
100
AcDbEntity
  8
0
  6
Continuous
 62
     7
370
     0
100
AcDbLine
 10
55.6056663683
 20
27.6368917771
 30
0.0
 11
109.3536234728
 21
27.6368917771
 31
0.0
  0
MTEXT
  5
229
330
21F
100
AcDbEntity
  8
0
  6
Continuous
 62
     7
370
     0
100
AcDbMText
 10
80.4428393649
 20
32.1486286335
 30
0.0
 40
3.5
 41
0.0
 71
     1
 72
     1
  1
54
  7
SLDTEXTSTYLE0
 73
     1
 44
1.0
  0
ENDBLK
  5
221
330
21F
100
AcDbEntity
  8
0
100
AcDbBlockEnd
  0
BLOCK
  5
22C
330
22B
100
AcDbEntity
  8
0
100
AcDbBlockBegin
  2
_D_11
 70
     0
 10
0.0
 20
0.0
 30
0.0
  3
_D_11
  1

  0
ARC
  5
22E
330
22B
100
AcDbEntity
  8
0
  6
Continuous
 62
     7
370
     0
100
AcDbCircle
 10
71.0794610837
 20
39.7301637064
 30
0.0
 40
4.554435549315978
100
AcDbArc
 50
153.4349488229
 51
206.5650511771
  0
ARC
  5
22F
330
22B
100
AcDbEntity
  8
0
  6
Continuous
 62
     7
370
     0
100
AcDbCircle
 10
67.0058500887
 20
39.7301637064
 30
0.0
 40
4.554435549315966
100
AcDbArc
 50
333.4349488229
 51
26.5650511771
  0
SOLID
  5
230
330
22B
100
AcDbEntity
  8
0
  6
Continuous
 62
     7
370
     0
100
AcDbTrace
 10
55.6056663683
 20
37.693358209
 30
0.0
 11
58.6056663683
 21
36.943358209
 31
0.0
 12
58.6056663683
 22
38.443358209
 32
0.0
 13
58.6056663683
 23
38.443358209
 33
0.0
  0
SOLID
  5
231
330
22B
100
AcDbEntity
  8
0
  6
Continuous
 62
     7
370
     0
100
AcDbTrace
 10
82.4796449206
 20
37.693358209
 30
0.0
 11
79.4796449206
 21
38.443358209
 31
0.0
 12
79.4796449206
 22
36.943358209
 32
0.0
 13
79.4796449206
 23
36.943358209
 33
0.0
  0
LINE
  5
232
330
22B
100
AcDbEntity
  8
0
  6
Continuous
 62
     7
370
     0
100
AcDbLine
 10
55.6056663683
 20
51.693358209
 30
0.0
 11
55.6056663683
 21
36.693358209
 31
0.0
  0
LINE
  5
233
330
22B
100
AcDbEntity
  8
0
  6
Continuous
 62
     7
370
     0
100
AcDbLine
 10
82.4796449206
 20
45.193358209
 30
0.0
 11
82.4796449206
 21
36.693358209
 31
0.0
  0
LINE
  5
234
330
22B
100
AcDbEntity
  8
0
  6
Continuous
 62
     7
370
     0
100
AcDbLine
 10
55.6056663683
 20
37.693358209
 30
0.0
 11
82.4796449206
 21
37.693358209
 31
0.0
  0
MTEXT
  5
235
330
22B
100
AcDbEntity
  8
0
  6
Continuous
 62
     7
370
     0
100
AcDbMText
 10
67.0058500887
 20
42.2050950653
 30
0.0
 40
3.5
 41
0.0
 71
     1
 72
     1
  1
27
  7
SLDTEXTSTYLE0
 73
     1
 44
1.0
  0
ENDBLK
  5
22D
330
22B
100
AcDbEntity
  8
0
100
AcDbBlockEnd
  0
BLOCK
  5
237
330
236
100
AcDbEntity
  8
0
100
AcDbBlockBegin
  2
SW_CENTERMARKSYMBOL_5
 70
     0
 10
0.0
 20
0.0
 30
0.0
  3
SW_CENTERMARKSYMBOL_5
  1

  0
LINE
  5
239
330
236
100
AcDbEntity
  8
0
  6
Continuous
 62
     0
370
     0
100
AcDbLine
 10
0.0
 20
0.0
 30
0.0
 11
0.0
 21
2.5
 31
0.0
  0
LINE
  5
23A
330
236
100
AcDbEntity
  8
0
  6
Continuous
 62
     0
370
     0
100
AcDbLine
 10
0.0
 20
0.0
 30
0.0
 11
-2.5
 21
0.0
 31
0.0
  0
LINE
  5
23B
330
236
100
AcDbEntity
  8
0
  6
Continuous
 62
     0
370
     0
100
AcDbLine
 10
0.0
 20
0.0
 30
0.0
 11
0.0
 21
-2.5
 31
0.0
  0
LINE
  5
23C
330
236
100
AcDbEntity
  8
0
  6
Continuous
 62
     0
370
     0
100
AcDbLine
 10
0.0
 20
0.0
 30
0.0
 11
2.5
 21
0.0
 31
0.0
  0
LINE
  5
23D
330
236
100
AcDbEntity
  8
0
  6
Continuous
 62
     0
370
     0
100
AcDbLine
 10
0.0
 20
5.0
 30
0.0
 11
0.0
 21
11.5
 31
0.0
  0
LINE
  5
23E
330
236
100
AcDbEntity
  8
0
  6
Continuous
 62
     0
370
     0
100
AcDbLine
 10
-5.0
 20
0.0
 30
0.0
 11
-11.5
 21
0.0
 31
0.0
  0
LINE
  5
23F
330
236
100
AcDbEntity
  8
0
  6
Continuous
 62
     0
370
     0
100
AcDbLine
 10
0.0
 20
-5.0
 30
0.0
 11
0.0
 21
-11.5
 31
0.0
  0
LINE
  5
240
330
236
100
AcDbEntity
  8
0
  6
Continuous
 62
     0
370
     0
100
AcDbLine
 10
5.0
 20
0.0
 30
0.0
 11
11.5
 21
0.0
 31
0.0
  0
ENDBLK
  5
238
330
236
100
AcDbEntity
  8
0
100
AcDbBlockEnd
  0
BLOCK
  5
315
330
314
100
AcDbEntity
  8
0
100
AcDbBlockBegin
  2
_D_12
 70
     0
 10
0.0
 20
0.0
 30
0.0
  3
_D_12
  1

  0
SOLID
  5
317
330
314
100
AcDbEntity
  8
0
  6
Continuous
 62
     7
370
     0
100
AcDbTrace
 10
161.1272568609
 20
269.2892743854
 30
0.0
 11
158.1272568609
 21
270.0392743854
 31
0.0
 12
158.1272568609
 22
268.5392743854
 32
0.0
 13
158.1272568609
 23
268.5392743854
 33
0.0
  0
SOLID
  5
318
330
314
100
AcDbEntity
  8
0
  6
Continuous
 62
     7
370
     0
100
AcDbTrace
 10
171.1272568609
 20
269.2892743854
 30
0.0
 11
174.1272568609
 21
268.5392743854
 31
0.0
 12
174.1272568609
 22
270.0392743854
 32
0.0
 13
174.1272568609
 23
270.0392743854
 33
0.0
  0
LINE
  5
319
330
314
100
AcDbEntity
  8
0
  6
Continuous
 62
     7
370
     0
100
AcDbLine
 10
161.1272568609
 20
259.5200250411
 30
0.0
 11
161.1272568609
 21
270.2892743854
 31
0.0
  0
LINE
  5
31A
330
314
100
AcDbEntity
  8
0
  6
Continuous
 62
     7
370
     0
100
AcDbLine
 10
171.1272568609
 20
257.2117964545
 30
0.0
 11
171.1272568609
 21
270.2892743854
 31
0.0
  0
LINE
  5
31B
330
314
100
AcDbEntity
  8
0
  6
Continuous
 62
     7
370
     0
100
AcDbLine
 10
161.1272568609
 20
269.2892743854
 30
0.0
 11
156.1272568609
 21
269.2892743854
 31
0.0
  0
LINE
  5
31C
330
314
100
AcDbEntity
  8
0
  6
Continuous
 62
     7
370
     0
100
AcDbLine
 10
161.1272568609
 20
269.2892743854
 30
0.0
 11
171.1272568609
 21
269.2892743854
 31
0.0
  0
LINE
  5
31D
330
314
100
AcDbEntity
  8
0
  6
Continuous
 62
     7
370
     0
100
AcDbLine
 10
171.1272568609
 20
269.2892743854
 30
0.0
 11
176.1272568609
 21
269.2892743854
 31
0.0
  0
MTEXT
  5
31E
330
314
100
AcDbEntity
  8
0
  6
Continuous
 62
     7
370
     0
100
AcDbMText
 10
164.0904513634
 20
273.8010112417
 30
0.0
 40
3.5
 41
0.0
 71
     1
 72
     1
  1
10
  7
SLDTEXTSTYLE0
 73
     1
 44
1.0
  0
ENDBLK
  5
316
330
314
100
AcDbEntity
  8
0
100
AcDbBlockEnd
  0
BLOCK
  5
321
330
320
100
AcDbEntity
  8
0
100
AcDbBlockBegin
  2
_D_13
 70
     0
 10
0.0
 20
0.0
 30
0.0
  3
_D_13
  1

  0
SOLID
  5
323
330
320
100
AcDbEntity
  8
0
  6
Continuous
 62
     7
370
     0
100
AcDbTrace
 10
156.1272568609
 20
92.738417022
 30
0.0
 11
159.1272568609
 21
91.988417022
 31
0.0
 12
159.1272568609
 22
93.488417022
 32
0.0
 13
159.1272568609
 23
93.488417022
 33
0.0
  0
SOLID
  5
324
330
320
100
AcDbEntity
  8
0
  6
Continuous
 62
     7
370
     0
100
AcDbTrace
 10
176.1272568609
 20
92.738417022
 30
0.0
 11
173.1272568609
 21
93.488417022
 31
0.0
 12
173.1272568609
 22
91.988417022
 32
0.0
 13
173.1272568609
 23
91.988417022
 33
0.0
  0
LINE
  5
325
330
320
100
AcDbEntity
  8
0
  6
Continuous
 62
     7
370
     0
100
AcDbLine
 10
156.1272568609
 20
121.5774376455
 30
0.0
 11
156.1272568609
 21
91.738417022
 31
0.0
  0
LINE
  5
326
330
320
100
AcDbEntity
  8
0
  6
Continuous
 62
     7
370
     0
100
AcDbLine
 10
176.1272568609
 20
121.5774376455
 30
0.0
 11
176.1272568609
 21
91.738417022
 31
0.0
  0
LINE
  5
327
330
320
100
AcDbEntity
  8
0
  6
Continuous
 62
     7
370
     0
100
AcDbLine
 10
156.1272568609
 20
92.738417022
 30
0.0
 11
176.1272568609
 21
92.738417022
 31
0.0
  0
MTEXT
  5
328
330
320
100
AcDbEntity
  8
0
  6
Continuous
 62
     7
370
     0
100
AcDbMText
 10
164.0904513634
 20
97.2501538784
 30
0.0
 40
3.5
 41
0.0
 71
     1
 72
     1
  1
20
  7
SLDTEXTSTYLE0
 73
     1
 44
1.0
  0
ENDBLK
  5
322
330
320
100
AcDbEntity
  8
0
100
AcDbBlockEnd
  0
ENDSEC
  0
SECTION
  2
ENTITIES
  0
LINE
  5
73
330
1F
100
AcDbEntity
  8
0
  6
Continuous
 62
     7
370
     0
100
AcDbLine
 10
20.2604743903
 20
285.0
 30
0.0
 11
196.7604743903
 21
285.0
 31
0.0
  0
LINE
  5
74
330
1F
100
AcDbEntity
  8
0
  6
Continuous
 62
     7
370
     0
100
AcDbLine
 10
20.2604743903
 20
285.0
 30
0.0
 11
20.2604743903
 21
10.0
 31
0.0
  0
LINE
  5
75
330
1F
100
AcDbEntity
  8
0
  6
Continuous
 62
     7
370
     0
100
AcDbLine
 10
20.2604743903
 20
10.0
 30
0.0
 11
196.7604743903
 21
10.0
 31
0.0
  0
LINE
  5
76
330
1F
100
AcDbEntity
  8
0
  6
Continuous
 62
     7
370
     0
100
AcDbLine
 10
196.7604743903
 20
285.0
 30
0.0
 11
196.7604743903
 21
10.0
 31
0.0
  0
LINE
  5
77
330
1F
100
AcDbEntity
  8
0
  6
Continuous
 62
     7
370
     0
100
AcDbLine
 10
127.0104743903
 20
50.75
 30
0.0
 11
196.7604743903
 21
50.75
 31
0.0
  0
LINE
  5
78
330
1F
100
AcDbEntity
  8
0
  6
Continuous
 62
     7
370
     0
100
AcDbLine
 10
127.0104743903
 20
50.75
 30
0.0
 11
127.0104743903
 21
10.0
 31
0.0
  0
LINE
  5
79
330
1F
100
AcDbEntity
  8
0
  6
Continuous
 62
     7
370
     0
100
AcDbLine
 10
127.0104743903
 20
22.75
 30
0.0
 11
196.7604743903
 21
22.75
 31
0.0
  0
LINE
  5
7A
330
1F
100
AcDbEntity
  8
0
  6
Continuous
 62
     7
370
     0
100
AcDbLine
 10
127.0104743903
 20
36.75
 30
0.0
 11
196.7604743903
 21
36.75
 31
0.0
  0
MTEXT
  5
7C
330
1F
100
AcDbEntity
  8
0
  6
Continuous
 62
     7
370
     0
100
AcDbMText
 10
161.4239204306
 20
30.4171582345
 30
0.0
 40
4.2333333333
 41
0.0
 71
     2
 72
     1
  1
CHK-EX1-20-C
  7
SLDTEXTSTYLE0
 73
     1
 44
1.0
  0
MTEXT
  5
7D
330
1F
100
AcDbEntity
  8
0
  6
Continuous
 62
     7
370
     0
100
AcDbMText
 10
159.5363397587
 20
45.5201716115
 30
0.0
 40
3.175
 41
0.0
 71
     2
 72
     1
  1
ランナーチャックEX(近接センサー付)
  7
SLDTEXTSTYLE0
 73
     1
 44
1.0
  0
MTEXT
  5
7E
330
1F
100
AcDbEntity
  8
0
  6
Continuous
 62
     7
370
     0
100
AcDbMText
 10
162.559916804
 20
16.8228189052
 30
0.0
 40
4.2333333333
 41
0.0
 71
     2
 72
     1
  1
023001
  7
SLDTEXTSTYLE0
 73
     1
 44
1.0
  0
LINE
  5
7F
330
1F
100
AcDbEntity
  8
0
  6
Continuous
 62
     7
370
     0
100
AcDbLine
 10
72.4796444786
 20
146.5774377709
 30
0.0
 11
72.4796444786
 21
122.5774375623
 31
0.0
  0
LINE
  5
80
330
1F
100
AcDbEntity
  8
0
  6
Continuous
 62
     7
370
     0
100
AcDbLine
 10
92.4796477569
 20
122.5774375623
 30
0.0
 11
92.4796477569
 21
146.5774377709
 31
0.0
  0
LINE
  5
81
330
1F
100
AcDbEntity
  8
0
  6
Continuous
 62
     7
370
     0
100
AcDbLine
 10
72.4796444786
 20
122.5774375623
 30
0.0
 11
73.4796465052
 21
121.5774373983
 31
0.0
  0
LINE
  5
82
330
1F
100
AcDbEntity
  8
0
  6
Continuous
 62
     7
370
     0
100
AcDbLine
 10
91.4796457303
 20
121.5774373983
 30
0.0
 11
92.4796477569
 21
122.5774375623
 31
0.0
  0
LINE
  5
83
330
1F
100
AcDbEntity
  8
0
  6
Continuous
 62
     7
370
     0
100
AcDbLine
 10
80.151760639
 20
114.0774371003
 30
0.0
 11
80.5017591131
 21
111.5774376219
 31
0.0
  0
LINE
  5
84
330
1F
100
AcDbEntity
  8
0
  6
Continuous
 62
     7
370
     0
100
AcDbLine
 10
84.5017597688
 20
111.5774376219
 30
0.0
 11
84.8517582429
 21
114.0774371003
 31
0.0
  0
LINE
  5
85
330
1F
100
AcDbEntity
  8
0
  6
Continuous
 62
     7
370
     0
100
AcDbLine
 10
80.151760639
 20
116.5774384414
 30
0.0
 11
80.5017591131
 21
114.0774371003
 31
0.0
  0
LINE
  5
86
330
1F
100
AcDbEntity
  8
0
  6
Continuous
 62
     7
370
     0
100
AcDbLine
 10
84.5017597688
 20
114.0774371003
 30
0.0
 11
84.8517582429
 21
116.5774384414
 31
0.0
  0
LINE
  5
87
330
1F
100
AcDbEntity
  8
0
  6
Continuous
 62
     7
370
     0
100
AcDbLine
 10
84.6017577363
 20
116.5774384414
 30
0.0
 11
84.6017577363
 21
119.0774379199
 31
0.0
  0
LINE
  5
88
330
1F
100
AcDbEntity
  8
0
  6
Continuous
 62
     7
370
     0
100
AcDbLine
 10
80.4017574204
 20
119.0774379199
 30
0.0
 11
80.4017574204
 21
116.5774384414
 31
0.0
  0
LINE
  5
89
330
1F
100
AcDbEntity
  8
0
  6
Continuous
 62
     7
370
     0
100
AcDbLine
 10
100.8457631481
 20
234.3876952206
 30
0.0
 11
100.6805167211
 21
233.4014469658
 31
0.0
  0
LINE
  5
8A
330
1F
100
AcDbEntity
  8
0
  6
Continuous
 62
     7
370
     0
100
AcDbLine
 10
101.2229562414
 20
233.3105573331
 30
0.0
 11
100.3967241061
 21
228.3793011581
 31
0.0
  0
LINE
  5
8B
330
1F
100
AcDbEntity
  8
0
  6
Continuous
 62
     7
370
     0
100
AcDbLine
 10
103.2568529857
 20
227.9000798141
 30
0.0
 11
104.0830925715
 21
232.8313434397
 31
0.0
  0
LINE
  5
8C
330
1F
100
AcDbEntity
  8
0
  6
Continuous
 62
     7
370
     0
100
AcDbLine
 10
72.4796444786
 20
122.5774375623
 30
0.0
 11
92.4796477569
 21
122.5774375623
 31
0.0
  0
LINE
  5
8D
330
1F
100
AcDbEntity
  8
0
  6
Continuous
 62
     7
370
     0
100
AcDbLine
 10
62.4796465648
 20
210.5691054737
 30
0.0
 11
62.4796465648
 21
146.5774377709
 31
0.0
  0
LINE
  5
8E
330
1F
100
AcDbEntity
  8
0
  6
Continuous
 62
     7
370
     0
100
AcDbLine
 10
62.4796465648
 20
146.5774377709
 30
0.0
 11
61.4796445382
 21
146.5774377709
 31
0.0
  0
LINE
  5
8F
330
1F
100
AcDbEntity
  8
0
  6
Continuous
 62
     7
370
     0
100
AcDbLine
 10
61.4796445382
 20
146.5774377709
 30
0.0
 11
61.4796445382
 21
209.5691034471
 31
0.0
  0
LINE
  5
90
330
1F
100
AcDbEntity
  8
0
  6
Continuous
 62
     7
370
     0
100
AcDbLine
 10
61.4796445382
 20
209.5691034471
 30
0.0
 11
62.4796465648
 21
210.5691054737
 31
0.0
  0
LINE
  5
91
330
1F
100
AcDbEntity
  8
0
  6
Continuous
 62
     7
370
     0
100
AcDbLine
 10
99.2796436561
 20
213.7691074883
 30
0.0
 11
65.6796448541
 21
213.7691074883
 31
0.0
  0
LINE
  5
92
330
1F
100
AcDbEntity
  8
0
  6
Continuous
 62
     7
370
     0
100
AcDbLine
 10
99.2796436561
 20
213.7691074883
 30
0.0
 11
102.4796456707
 21
210.5691054737
 31
0.0
  0
LINE
  5
93
330
1F
100
AcDbEntity
  8
0
  6
Continuous
 62
     7
370
     0
100
AcDbLine
 10
102.4796456707
 20
146.5774377709
 30
0.0
 11
102.4796456707
 21
210.5691054737
 31
0.0
  0
LINE
  5
94
330
1F
100
AcDbEntity
  8
0
  6
Continuous
 62
     7
370
     0
100
AcDbLine
 10
102.4796456707
 20
146.5774377709
 30
0.0
 11
82.4796461177
 21
146.5774377709
 31
0.0
  0
LINE
  5
95
330
1F
100
AcDbEntity
  8
0
  6
Continuous
 62
     7
370
     0
100
AcDbLine
 10
82.4796461177
 20
146.5774377709
 30
0.0
 11
62.4796465648
 21
146.5774377709
 31
0.0
  0
LINE
  5
96
330
1F
100
AcDbEntity
  8
0
  6
Continuous
 62
     7
370
     0
100
AcDbLine
 10
62.4796465648
 20
210.5691054737
 30
0.0
 11
65.6796448541
 21
213.7691074883
 31
0.0
  0
CIRCLE
  5
97
330
1F
100
AcDbEntity
  8
0
  6
Continuous
 62
     7
370
     0
100
AcDbCircle
 10
98.4796449206
 20
197.5725652255
 30
0.0
 40
3.0
  0
CIRCLE
  5
98
330
1F
100
AcDbEntity
  8
0
  6
Continuous
 62
     7
370
     0
100
AcDbCircle
 10
66.4796449206
 20
197.5725652255
 30
0.0
 40
3.000000000000028
  0
CIRCLE
  5
99
330
1F
100
AcDbEntity
  8
0
  6
Continuous
 62
     7
370
     0
100
AcDbCircle
 10
82.4796449206
 20
194.5774376455
 30
0.0
 40
3.25
  0
CIRCLE
  5
9A
330
1F
100
AcDbEntity
  8
0
  6
Continuous
 62
     7
370
     0
100
AcDbCircle
 10
98.4796449206
 20
151.5774376455
 30
0.0
 40
3.25
  0
CIRCLE
  5
9B
330
1F
100
AcDbEntity
  8
0
  6
Continuous
 62
     7
370
     0
100
AcDbCircle
 10
66.4796449206
 20
151.5774376455
 30
0.0
 40
3.249999999999972
  0
LINE
  5
9C
330
1F
100
AcDbEntity
  8
0
  6
Continuous
 62
     7
370
     0
100
AcDbLine
 10
91.4796457303
 20
121.5774373983
 30
0.0
 11
73.4796465052
 21
121.5774373983
 31
0.0
  0
CIRCLE
  5
9D
330
1F
100
AcDbEntity
  8
0
  6
Continuous
 62
     7
370
     0
100
AcDbCircle
 10
98.4796449206
 20
197.5725652255
 30
0.0
 40
2.5
  0
CIRCLE
  5
9E
330
1F
100
AcDbEntity
  8
0
  6
Continuous
 62
     7
370
     0
100
AcDbCircle
 10
66.4796449206
 20
197.5725652255
 30
0.0
 40
2.5
  0
CIRCLE
  5
9F
330
1F
100
AcDbEntity
  8
0
  6
Continuous
 62
     7
370
     0
100
AcDbCircle
 10
82.4796449206
 20
194.5774376455
 30
0.0
 40
2.5
  0
CIRCLE
  5
A0
330
1F
100
AcDbEntity
  8
0
  6
Continuous
 62
     7
370
     0
100
AcDbCircle
 10
98.4796449206
 20
151.5774376455
 30
0.0
 40
2.499999999999972
  0
LINE
  5
A1
330
1F
100
AcDbEntity
  8
0
  6
Continuous
 62
     7
370
     0
100
AcDbLine
 10
67.4796455217
 20
215.5691007053
 30
0.0
 11
76.4796451343
 21
215.5691007053
 31
0.0
  0
LINE
  5
A2
330
1F
100
AcDbEntity
  8
0
  6
Continuous
 62
     7
370
     0
100
AcDbLine
 10
76.4796451343
 20
215.5691007053
 30
0.0
 11
76.4796451343
 21
216.7691061174
 31
0.0
  0
LINE
  5
A3
330
1F
100
AcDbEntity
  8
0
  6
Continuous
 62
     7
370
     0
100
AcDbLine
 10
76.4796451343
 20
216.7691061174
 30
0.0
 11
88.4796433759
 21
216.7691061174
 31
0.0
  0
LINE
  5
A4
330
1F
100
AcDbEntity
  8
0
  6
Continuous
 62
     7
370
     0
100
AcDbLine
 10
88.4796433759
 20
216.7691061174
 30
0.0
 11
88.4796433759
 21
215.5691007053
 31
0.0
  0
LINE
  5
A5
330
1F
100
AcDbEntity
  8
0
  6
Continuous
 62
     7
370
     0
100
AcDbLine
 10
88.4796433759
 20
215.5691007053
 30
0.0
 11
97.4796429885
 21
215.5691007053
 31
0.0
  0
LINE
  5
A6
330
1F
100
AcDbEntity
  8
0
  6
Continuous
 62
     7
370
     0
100
AcDbLine
 10
97.4796429885
 20
215.5691007053
 30
0.0
 11
99.2796436561
 21
213.7691074883
 31
0.0
  0
LINE
  5
A7
330
1F
100
AcDbEntity
  8
0
  6
Continuous
 62
     7
370
     0
100
AcDbLine
 10
65.6796448541
 20
213.7691074883
 30
0.0
 11
67.4796455217
 21
215.5691007053
 31
0.0
  0
CIRCLE
  5
A8
330
1F
100
AcDbEntity
  8
0
  6
Continuous
 62
     7
370
     0
100
AcDbCircle
 10
66.4796449206
 20
151.5774376455
 30
0.0
 40
2.499999999999972
  0
LINE
  5
A9
330
1F
100
AcDbEntity
  8
0
  6
Continuous
 62
     7
370
     0
100
AcDbLine
 10
103.4796476973
 20
209.5691034471
 30
0.0
 11
103.4796476973
 21
146.5774377709
 31
0.0
  0
LINE
  5
AA
330
1F
100
AcDbEntity
  8
0
  6
Continuous
 62
     7
370
     0
100
AcDbLine
 10
102.4796456707
 20
210.5691054737
 30
0.0
 11
103.4796476973
 21
209.5691034471
 31
0.0
  0
LINE
  5
AB
330
1F
100
AcDbEntity
  8
0
  6
Continuous
 62
     7
370
     0
100
AcDbLine
 10
103.4796476973
 20
146.5774377709
 30
0.0
 11
102.4796456707
 21
146.5774377709
 31
0.0
  0
LINE
  5
AC
330
1F
100
AcDbEntity
  8
0
  6
Continuous
 62
     7
370
     0
100
AcDbLine
 10
71.9839275492
 20
258.5200214659
 30
0.0
 11
78.5938107086
 21
219.0699348127
 31
0.0
  0
LINE
  5
AD
330
1F
100
AcDbEntity
  8
0
  6
Continuous
 62
     7
370
     0
100
AcDbLine
 10
78.5938107086
 20
219.0699348127
 30
0.0
 11
71.1969189954
 21
217.8305828845
 31
0.0
  0
ARC
  5
AE
330
1F
100
AcDbEntity
  8
0
  6
Continuous
 62
     7
370
     0
100
AcDbCircle
 10
71.6926603948
 20
214.8718273388
 30
0.0
 40
3.000000000000018
100
AcDbArc
 50
99.5115862628
 51
166.5600775879
  0
LINE
  5
AF
330
1F
100
AcDbEntity
  8
0
  6
Continuous
 62
     7
370
     0
100
AcDbLine
 10
59.9020884049
 20
161.1853999918
 30
0.0
 11
61.4796445382
 21
161.4497205143
 31
0.0
  0
LINE
  5
B0
330
1F
100
AcDbEntity
  8
0
  6
Continuous
 62
     7
370
     0
100
AcDbLine
 10
59.9020884049
 20
161.1853999918
 30
0.0
 11
55.6056664002
 21
186.8279570614
 31
0.0
  0
LINE
  5
B1
330
1F
100
AcDbEntity
  8
0
  6
Continuous
 62
     7
370
     0
100
AcDbLine
 10
55.6056664002
 20
186.8279570614
 30
0.0
 11
66.4219014955
 21
256.7217567836
 31
0.0
  0
LINE
  5
B2
330
1F
100
AcDbEntity
  8
0
  6
Continuous
 62
     7
370
     0
100
AcDbLine
 10
67.9568365825
 20
257.8452819859
 30
0.0
 11
66.4219014955
 21
256.7217567836
 31
0.0
  0
LINE
  5
B3
330
1F
100
AcDbEntity
  8
0
  6
Continuous
 62
     7
370
     0
100
AcDbLine
 10
67.9568365825
 20
257.8452819859
 30
0.0
 11
71.9839275492
 21
258.5200214659
 31
0.0
  0
LINE
  5
B4
330
1F
100
AcDbEntity
  8
0
  6
Continuous
 62
     7
370
     0
100
AcDbLine
 10
59.9020884049
 20
161.1853999918
 30
0.0
 11
61.4796445382
 21
160.060623092
 31
0.0
  0
LINE
  5
B5
330
1F
100
AcDbEntity
  8
0
  6
Continuous
 62
     7
370
     0
100
AcDbLine
 10
103.4796476973
 20
161.4497205143
 30
0.0
 11
105.0572038305
 21
161.1853999918
 31
0.0
  0
LINE
  5
B6
330
1F
100
AcDbEntity
  8
0
  6
Continuous
 62
     7
370
     0
100
AcDbLine
 10
105.0572038305
 20
161.1853999918
 30
0.0
 11
103.4796476973
 21
160.060623092
 31
0.0
  0
CIRCLE
  5
B7
330
1F
100
AcDbEntity
  8
0
  6
Continuous
 62
     7
370
     0
100
AcDbCircle
 10
90.0678473777
 20
223.0123305958
 30
0.0
 40
1.500000000000004
  0
LINE
  5
B8
330
1F
100
AcDbEntity
  8
0
  6
Continuous
 62
     7
370
     0
100
AcDbLine
 10
99.2195100201
 20
229.220285443
 30
0.0
 11
99.8582035912
 21
233.0322557961
 31
0.0
  0
ARC
  5
B9
330
1F
100
AcDbEntity
  8
0
  6
Continuous
 62
     7
370
     0
100
AcDbCircle
 10
109.082030461
 20
227.567812926
 30
0.0
 40
10.0
100
AcDbArc
 50
170.4884137372
 51
194.5906482383
  0
LINE
  5
BA
330
1F
100
AcDbEntity
  8
0
  6
Continuous
 62
     7
370
     0
100
AcDbLine
 10
109.3536258352
 20
186.8279570614
 30
0.0
 11
103.4796476973
 21
209.3936050211
 31
0.0
  0
LINE
  5
BB
330
1F
100
AcDbEntity
  8
0
  6
Continuous
 62
     7
370
     0
100
AcDbLine
 10
103.4178823841
 20
209.6308613097
 30
0.0
 11
99.404530288
 21
225.0486979162
 31
0.0
  0
LINE
  5
BC
330
1F
100
AcDbEntity
  8
0
  6
Continuous
 62
     7
370
     0
100
AcDbLine
 10
105.0572038305
 20
161.1853999918
 30
0.0
 11
109.3536258352
 21
186.8279570614
 31
0.0
  0
ARC
  5
BD
330
1F
100
AcDbEntity
  8
0
  6
Continuous
 62
     7
370
     0
100
AcDbCircle
 10
93.2666294463
 20
214.8718273388
 30
0.0
 40
3.000000000000009
100
AcDbArc
 50
13.4399224121
 51
80.4884137372
  0
LINE
  5
BE
330
1F
100
AcDbEntity
  8
0
  6
Continuous
 62
     7
370
     0
100
AcDbLine
 10
86.3654778016
 20
219.0699348127
 30
0.0
 11
93.7623695148
 21
217.8305828845
 31
0.0
  0
LINE
  5
BF
330
1F
100
AcDbEntity
  8
0
  6
Continuous
 62
     7
370
     0
100
AcDbLine
 10
92.9753572357
 20
258.5200214659
 30
0.0
 11
86.3654778016
 21
219.0699348127
 31
0.0
  0
LINE
  5
C0
330
1F
100
AcDbEntity
  8
0
  6
Continuous
 62
     7
370
     0
100
AcDbLine
 10
99.8791248215
 20
257.3632964765
 30
0.0
 11
92.9753572357
 21
258.5200214659
 31
0.0
  0
LINE
  5
C1
330
1F
100
AcDbEntity
  8
0
  6
Continuous
 62
     7
370
     0
100
AcDbLine
 10
99.5434016598
 20
249.3080342089
 30
0.0
 11
100.7001340998
 21
256.2117943441
 31
0.0
  0
LINE
  5
C2
330
1F
100
AcDbEntity
  8
0
  6
Continuous
 62
     7
370
     0
100
AcDbLine
 10
99.5434016598
 20
249.3080342089
 30
0.0
 11
99.0502775324
 21
249.3906536972
 31
0.0
  0
ARC
  5
C3
330
1F
100
AcDbEntity
  8
0
  6
Continuous
 62
     7
370
     0
100
AcDbCircle
 10
98.55453497
 20
246.4318979213
 30
0.0
 40
3.000000000000014
100
AcDbArc
 50
80.4884137372
 51
170.4884137372
  0
ARC
  5
C4
330
1F
100
AcDbEntity
  8
0
  6
Continuous
 62
     7
370
     0
100
AcDbCircle
 10
96.9020644938
 20
236.5693758642
 30
0.0
 40
3.000000000000011
100
AcDbArc
 50
170.4884137372
 51
260.4884137372
  0
LINE
  5
C5
330
1F
100
AcDbEntity
  8
0
  6
Continuous
 62
     7
370
     0
100
AcDbLine
 10
96.4063197983
 20
233.6106220161
 30
0.0
 11
99.8582035912
 21
233.0322557961
 31
0.0
  0
LINE
  5
C6
330
1F
100
AcDbEntity
  8
0
  6
Continuous
 62
     7
370
     0
100
AcDbLine
 10
95.5957785857
 20
246.9276407634
 30
0.0
 11
93.9433068646
 21
237.0651135122
 31
0.0
  0
LINE
  5
C7
330
1F
100
AcDbEntity
  8
0
  6
Continuous
 62
     7
370
     0
100
AcDbLine
 10
100.7001340998
 20
256.2117943441
 30
0.0
 11
99.8791248215
 21
257.3632964765
 31
0.0
  0
CIRCLE
  5
C8
330
1F
100
AcDbEntity
  8
0
  6
Continuous
 62
     7
370
     0
100
AcDbCircle
 10
96.3900101974
 20
252.8782017079
 30
0.0
 40
1.00000000000005
  0
LINE
  5
C9
330
1F
100
AcDbEntity
  8
0
  6
Continuous
 62
     7
370
     0
100
AcDbLine
 10
99.5434016598
 20
249.3080342089
 30
0.0
 11
99.2955282939
 21
247.8286543762
 31
0.0
  0
LINE
  5
CA
330
1F
100
AcDbEntity
  8
0
  6
Continuous
 62
     7
370
     0
100
AcDbLine
 10
100.106076957
 20
234.5116356288
 30
0.0
 11
99.8582035912
 21
233.0322557961
 31
0.0
  0
ARC
  5
CB
330
1F
100
AcDbEntity
  8
0
  6
Continuous
 62
     7
370
     0
100
AcDbCircle
 10
99.7290599729
 20
249.0242696083
 30
0.0
 40
0.5000000000000122
100
AcDbArc
 50
262.9593771575
 51
352.9593771575
  0
LINE
  5
CC
330
1F
100
AcDbEntity
  8
0
  6
Continuous
 62
     7
370
     0
100
AcDbLine
 10
99.4178817285
 20
248.5589006816
 30
0.0
 11
99.6677742017
 21
248.5280403768
 31
0.0
  0
LINE
  5
CD
330
1F
100
AcDbEntity
  8
0
  6
Continuous
 62
     7
370
     0
100
AcDbLine
 10
87.4581874025
 20
226.3574296509
 30
0.0
 11
87.0983988655
 21
223.4442600881
 31
0.0
  0
LINE
  5
CE
330
1F
100
AcDbEntity
  8
0
  6
Continuous
 62
     7
370
     0
100
AcDbLine
 10
91.6728690875
 20
256.5922433411
 30
0.0
 11
87.4581874025
 21
226.3574296509
 31
0.0
  0
ARC
  5
CF
330
1F
100
AcDbEntity
  8
0
  6
Continuous
 62
     7
370
     0
100
AcDbCircle
 10
93.1585053395
 20
256.3851471228
 30
0.0
 40
1.500000000000011
100
AcDbArc
 50
101.3189960833
 51
172.0642034473
  0
LINE
  5
D0
330
1F
100
AcDbEntity
  8
0
  6
Continuous
 62
     7
370
     0
100
AcDbLine
 10
100.8381561053
 20
253.9252782141
 30
0.0
 11
100.4091591251
 21
254.4751757657
 31
0.0
  0
LINE
  5
D1
330
1F
100
AcDbEntity
  8
0
  6
Continuous
 62
     7
370
     0
100
AcDbLine
 10
100.2252862466
 20
248.9629829203
 30
0.0
 11
100.8381561053
 21
253.9252782141
 31
0.0
  0
LINE
  5
D2
330
1F
100
AcDbEntity
  8
0
  6
Continuous
 62
     7
370
     0
100
AcDbLine
 10
80.4767586899
 20
119.0774379199
 30
0.0
 11
80.4767586899
 21
121.5774373983
 31
0.0
  0
LINE
  5
D3
330
1F
100
AcDbEntity
  8
0
  6
Continuous
 62
     7
370
     0
100
AcDbLine
 10
78.4517579389
 20
119.0774379199
 30
0.0
 11
80.4767586899
 21
119.0774379199
 31
0.0
  0
LINE
  5
D4
330
1F
100
AcDbEntity
  8
0
  6
Continuous
 62
     7
370
     0
100
AcDbLine
 10
78.4517579389
 20
119.0774379199
 30
0.0
 11
78.4517579389
 21
121.5774373983
 31
0.0
  0
LINE
  5
D5
330
1F
100
AcDbEntity
  8
0
  6
Continuous
 62
     7
370
     0
100
AcDbLine
 10
84.526760192
 20
119.0774379199
 30
0.0
 11
84.526760192
 21
121.5774373983
 31
0.0
  0
LINE
  5
D6
330
1F
100
AcDbEntity
  8
0
  6
Continuous
 62
     7
370
     0
100
AcDbLine
 10
80.4767586899
 20
119.0774379199
 30
0.0
 11
84.526760192
 21
119.0774379199
 31
0.0
  0
LINE
  5
D7
330
1F
100
AcDbEntity
  8
0
  6
Continuous
 62
     7
370
     0
100
AcDbLine
 10
86.551760943
 20
119.0774379199
 30
0.0
 11
86.551760943
 21
121.5774373983
 31
0.0
  0
LINE
  5
D8
330
1F
100
AcDbEntity
  8
0
  6
Continuous
 62
     7
370
     0
100
AcDbLine
 10
84.526760192
 20
119.0774379199
 30
0.0
 11
86.551760943
 21
119.0774379199
 31
0.0
  0
LINE
  5
D9
330
1F
100
AcDbEntity
  8
0
  6
Continuous
 62
     7
370
     0
100
AcDbLine
 10
83.6767607046
 20
114.0774371003
 30
0.0
 11
80.151760639
 21
114.0774371003
 31
0.0
  0
LINE
  5
DA
330
1F
100
AcDbEntity
  8
0
  6
Continuous
 62
     7
370
     0
100
AcDbLine
 10
84.8517582429
 20
114.0774371003
 30
0.0
 11
83.6767607046
 21
114.0774371003
 31
0.0
  0
LINE
  5
DB
330
1F
100
AcDbEntity
  8
0
  6
Continuous
 62
     7
370
     0
100
AcDbLine
 10
83.5017577422
 20
111.5774376219
 30
0.0
 11
80.5017591131
 21
111.5774376219
 31
0.0
  0
LINE
  5
DC
330
1F
100
AcDbEntity
  8
0
  6
Continuous
 62
     7
370
     0
100
AcDbLine
 10
84.5017597688
 20
111.5774376219
 30
0.0
 11
83.5017577422
 21
111.5774376219
 31
0.0
  0
LINE
  5
DD
330
1F
100
AcDbEntity
  8
0
  6
Continuous
 62
     7
370
     0
100
AcDbLine
 10
84.8517582429
 20
116.5774384414
 30
0.0
 11
80.151760639
 21
116.5774384414
 31
0.0
  0
SPLINE
  5
DE
330
1F
100
AcDbEntity
  8
0
  6
Continuous
 62
     7
370
     0
100
AcDbSpline
210
0.0
220
0.0
230
1.0
 70
     8
 71
     3
 72
    14
 73
    10
 74
     0
 42
0.000000001
 43
0.00000001
 40
0.0
 40
0.0
 40
0.0
 40
0.0
 40
0.1250000000000016
 40
0.1250000000000016
 40
0.2500000000000033
 40
0.2500000000000033
 40
0.4999999999999986
 40
0.4999999999999986
 40
1.0
 40
1.0
 40
1.0
 40
1.0
 10
90.68428807851659
 20
224.3798103442569
 30
0.0
 10
90.66153171609348
 20
224.3900685934304
 30
0.0
 10
90.63983090888576
 20
224.3946310209298
 30
0.0
 10
90.60580605906208
 20
224.398175497786
 30
0.0
 10
90.5917759732849
 20
224.397598245356
 30
0.0
 10
90.55479476397049
 20
224.3933835549369
 30
0.0
 10
90.53596812773775
 20
224.3870778623088
 30
0.0
 10
90.4870462192856
 20
224.3649460097664
 30
0.0
 10
90.46492906344083
 20
224.3455622002822
 30
0.0
 10
90.44761454723458
 20
224.3245052414826
 30
0.0
  0
ARC
  5
DF
330
1F
100
AcDbEntity
  8
0
  6
Continuous
 62
     7
370
     0
100
AcDbCircle
 10
90.0678473777
 20
223.0123305958
 30
0.0
 40
1.366025403784459
100
AcDbArc
 50
106.1414033176
 51
73.8585966824
  0
SPLINE
  5
E0
330
1F
100
AcDbEntity
  8
0
  6
Continuous
 62
     7
370
     0
100
AcDbSpline
210
0.0
220
0.0
230
1.0
 70
     8
 71
     3
 72
    14
 73
    10
 74
     0
 42
0.000000001
 43
0.00000001
 40
0.0
 40
0.0
 40
0.0
 40
0.0
 40
0.5000000000000082
 40
0.5000000000000082
 40
0.7500000000000042
 40
0.7500000000000042
 40
0.8750000000000021
 40
0.8750000000000021
 40
1.0
 40
1.0
 40
1.0
 40
1.0
 10
89.68808020824473
 20
224.3245052414824
 30
0.0
 10
89.67077308351493
 20
224.3455532111765
 30
0.0
 10
89.64866626157993
 20
224.3648801833216
 30
0.0
 10
89.60012096473724
 20
224.3869280129557
 30
0.0
 10
89.58136674830455
 20
224.3933040036844
 30
0.0
 10
89.54399533577556
 20
224.3976025352819
 30
0.0
 10
89.53001798855584
 20
224.3981677896076
 30
0.0
 10
89.4962243719761
 20
224.3946894502002
 30
0.0
 10
89.47430976873838
 20
224.3901347369656
 30
0.0
 10
89.45140667696272
 20
224.3798103442569
 30
0.0
  0
ARC
  5
E1
330
1F
100
AcDbEntity
  8
0
  6
Continuous
 62
     7
370
     0
100
AcDbCircle
 10
89.587521147
 20
224.0019197591
 30
0.0
 40
0.2000000000000128
100
AcDbArc
 50
295.8909827371
 51
15.4153010407
  0
ARC
  5
E2
330
1F
100
AcDbEntity
  8
0
  6
Continuous
 62
     7
370
     0
100
AcDbCircle
 10
90.0678473777
 20
223.0123305958
 30
0.0
 40
0.9000000000000045
100
AcDbArc
 50
115.8909827371
 51
64.1090172629
  0
ARC
  5
E3
330
1F
100
AcDbEntity
  8
0
  6
Continuous
 62
     7
370
     0
100
AcDbCircle
 10
90.5481736084
 20
224.0019197591
 30
0.0
 40
0.1999999999999911
100
AcDbArc
 50
164.5846989593
 51
244.1090172629
  0
LINE
  5
E4
330
1F
100
AcDbEntity
  8
0
  6
Continuous
 62
     7
370
     0
100
AcDbLine
 10
90.3553680194
 20
224.0550810372
 30
0.0
 11
90.4092878712
 21
224.2506438767
 31
0.0
  0
LINE
  5
E5
330
1F
100
AcDbEntity
  8
0
  6
Continuous
 62
     7
370
     0
100
AcDbLine
 10
89.7264049066
 20
224.2506438767
 30
0.0
 11
89.7803247583
 21
224.0550810372
 31
0.0
  0
ARC
  5
E6
330
1F
100
AcDbEntity
  8
0
  6
Continuous
 62
     7
370
     0
100
AcDbCircle
 10
90.6020959851
 20
224.1974797111
 30
0.0
 40
0.2000000000000059
100
AcDbArc
 50
140.5705471975
 51
164.5846989593
  0
ARC
  5
E7
330
1F
100
AcDbEntity
  8
0
  6
Continuous
 62
     7
370
     0
100
AcDbCircle
 10
89.5335987704
 20
224.1974797111
 30
0.0
 40
0.1999999999999949
100
AcDbArc
 50
15.4153010407
 51
39.4294528025
  0
SPLINE
  5
E8
330
1F
100
AcDbEntity
  8
0
  6
Continuous
 62
     7
370
     0
100
AcDbSpline
210
0.0
220
0.0
230
1.0
 70
     8
 71
     3
 72
    12
 73
     8
 74
     0
 42
0.000000001
 43
0.00000001
 40
0.0
 40
0.0
 40
0.0
 40
0.0
 40
0.5
 40
0.5
 40
0.75
 40
0.75
 40
1.0
 40
1.0
 40
1.0
 40
1.0
 10
96.65207996848088
 20
252.0940401979767
 30
0.0
 10
96.67310000743981
 20
252.0618204621756
 30
0.0
 10
96.70329322774087
 20
252.0335607976432
 30
0.0
 10
96.77114784697403
 20
252.0077711233271
 30
0.0
 10
96.79751103011425
 20
252.0021917065103
 30
0.0
 10
96.85876758602362
 20
252.0048141327844
 30
0.0
 10
96.8948529521561
 20
252.0141507791316
 30
0.0
 10
96.92697874470846
 20
252.0345994442211
 30
0.0
  0
ARC
  5
E9
330
1F
100
AcDbEntity
  8
0
  6
Continuous
 62
     7
370
     0
100
AcDbCircle
 10
96.3900101974
 20
252.8782017079
 30
0.0
 40
0.8267949192430464
100
AcDbArc
 50
288.4798247181
 51
251.5201752819
  0
SPLINE
  5
EA
330
1F
100
AcDbEntity
  8
0
  6
Continuous
 62
     7
370
     0
100
AcDbSpline
210
0.0
220
0.0
230
1.0
 70
     8
 71
     3
 72
    12
 73
     8
 74
     0
 42
0.000000001
 43
0.00000001
 40
0.0
 40
0.0
 40
0.0
 40
0.0
 40
0.2499999999999818
 40
0.2499999999999818
 40
0.4999999999999636
 40
0.4999999999999636
 40
1.0
 40
1.0
 40
1.0
 40
1.0
 10
95.85304165010626
 20
252.034599444221
 30
0.0
 10
95.88518604832407
 20
252.0141389362792
 30
0.0
 10
95.92108758032644
 20
252.0048515414771
 30
0.0
 10
95.98228039105163
 20
252.0021713686068
 30
0.0
 10
96.0087225263831
 20
252.0077594433332
 30
0.0
 10
96.0760432716045
 20
252.0332111768217
 30
0.0
 10
96.10691392656996
 20
252.0618105589862
 30
0.0
 10
96.12794042633382
 20
252.0940401979767
 30
0.0
  0
ARC
  5
EB
330
1F
100
AcDbEntity
  8
0
  6
Continuous
 62
     7
370
     0
100
AcDbCircle
 10
96.3900101974
 20
252.8782017079
 30
0.0
 40
0.5999999999999659
100
AcDbArc
 50
302.4775121859
 51
237.5224878141
  0
ARC
  5
EC
330
1F
100
AcDbEntity
  8
0
  6
Continuous
 62
     7
370
     0
100
AcDbCircle
 10
95.9604353596
 20
252.2033198969
 30
0.0
 40
0.1999999999999968
100
AcDbArc
 50
342.0
 51
57.5224878141
  0
ARC
  5
ED
330
1F
100
AcDbEntity
  8
0
  6
Continuous
 62
     7
370
     0
100
AcDbCircle
 10
96.8195850352
 20
252.2033198969
 30
0.0
 40
0.2000000000000239
100
AcDbArc
 50
122.4775121859
 51
198.0
  0
ARC
  5
EE
330
1F
100
AcDbEntity
  8
0
  6
Continuous
 62
     7
370
     0
100
AcDbCircle
 10
95.9604353596
 20
252.2033198969
 30
0.0
 40
0.1999999999999978
100
AcDbArc
 50
326.8797162241
 51
342.0
  0
ARC
  5
EF
330
1F
100
AcDbEntity
  8
0
  6
Continuous
 62
     7
370
     0
100
AcDbCircle
 10
96.8195850352
 20
252.2033198969
 30
0.0
 40
0.2000000000000239
100
AcDbArc
 50
198.0
 51
213.1202837759
  0
CIRCLE
  5
F0
330
1F
100
AcDbEntity
  8
0
  6
Continuous
 62
     7
370
     0
100
AcDbCircle
 10
98.4796449206
 20
197.5725652255
 30
0.0
 40
1.999999999999984
  0
CIRCLE
  5
F1
330
1F
100
AcDbEntity
  8
0
  6
Continuous
 62
     7
370
     0
100
AcDbCircle
 10
66.4796449206
 20
197.5725652255
 30
0.0
 40
2.000000000000011
  0
LINE
  5
F2
330
1F
100
AcDbEntity
  8
0
  6
Continuous
 62
     7
370
     0
100
AcDbLine
 10
102.2542879594
 20
247.332915095
 30
0.0
 11
103.2457739723
 21
253.2504269754
 31
0.0
  0
LINE
  5
F3
330
1F
100
AcDbEntity
  8
0
  6
Continuous
 62
     7
370
     0
100
AcDbLine
 10
103.2457739723
 20
253.2504269754
 30
0.0
 11
104.2320222271
 21
253.0851805483
 31
0.0
  0
LINE
  5
F4
330
1F
100
AcDbEntity
  8
0
  6
Continuous
 62
     7
370
     0
100
AcDbLine
 10
105.365218283
 20
232.6165208494
 30
0.0
 11
102.6530206812
 21
233.0709541117
 31
0.0
  0
LINE
  5
F5
330
1F
100
AcDbEntity
  8
0
  6
Continuous
 62
     7
370
     0
100
AcDbLine
 10
102.6530206812
 20
233.0709541117
 30
0.0
 11
102.8182671083
 21
234.0572023665
 31
0.0
  0
LINE
  5
F6
330
1F
100
AcDbEntity
  8
0
  6
Continuous
 62
     7
370
     0
100
AcDbLine
 10
105.365218283
 20
232.6165208494
 30
0.0
 11
105.53046471
 21
233.6027765547
 31
0.0
  0
LWPOLYLINE
  5
F7
330
1F
100
AcDbEntity
  8
0
  6
Continuous
 62
     7
370
     0
100
AcDbPolyline
 90
        7
 70
   128
 43
0.0
 10
102.6530206812
 20
233.0709541117
 10
102.0973042262
 20
233.1640640174
 10
101.5866041792
 20
233.249626485
 10
101.1623010648
 20
233.3207199251
 10
100.8587718618
 20
233.3715775882
 10
100.7005960358
 20
233.3980793034
 10
100.6805167211
 20
233.4014469658
  0
LWPOLYLINE
  5
F8
330
1F
100
AcDbEntity
  8
0
  6
Continuous
 62
     7
370
     0
100
AcDbPolyline
 90
       11
 70
   128
 43
0.0
 10
103.2568529857
 20
227.9000798141
 10
103.1706125153
 20
227.9145339405
 10
102.922284664
 20
227.9561379825
 10
102.5418207658
 20
228.0198851501
 10
102.0751163972
 20
228.098086444
 10
101.5784606946
 20
228.1812945282
 10
101.111756326
 20
228.2594958221
 10
100.7312924278
 20
228.3232429897
 10
100.4829645765
 20
228.3648470317
 10
100.3967241061
 20
228.3793011581
 10
100.3967241061
 20
228.3793011581
  0
ARC
  5
F9
330
1F
100
AcDbEntity
  8
0
  6
Continuous
 62
     7
370
     0
100
AcDbCircle
 10
98.1442599257
 20
247.5423188448
 30
0.0
 40
10.97138468102385
100
AcDbArc
 50
268.01950638
 51
271.8847324296
  0
LWPOLYLINE
  5
FA
330
1F
100
AcDbEntity
  8
0
  6
Continuous
 62
     7
370
     0
100
AcDbPolyline
 90
        9
 70
   128
 43
0.0
 10
98.5050961984
 20
236.5768695151
 10
98.5051707042
 20
236.6682657873
 10
98.50524521
 20
236.7601090943
 10
98.5053271664
 20
236.8523472821
 10
98.5054016722
 20
236.9449579989
 10
98.5054836286
 20
237.0379039918
 10
98.5055581344
 20
237.1311554586
 10
98.5056400908
 20
237.2246825968
 10
98.5057145966
 20
237.3184407031
  0
ARC
  5
FB
330
1F
100
AcDbEntity
  8
0
  6
Continuous
 62
     7
370
     0
100
AcDbCircle
 10
98.1361872709
 20
237.8835071252
 30
0.0
 40
0.6751696141507024
100
AcDbArc
 50
303.1827369516
 51
326.7214811628
  0
LWPOLYLINE
  5
FC
330
1F
100
AcDbEntity
  8
0
  6
Continuous
 62
     7
370
     0
100
AcDbPolyline
 90
        9
 70
   128
 43
0.0
 10
98.7006366861
 20
237.5130349671
 10
98.7943947924
 20
237.5129604613
 10
98.88791448
 20
237.5128785049
 10
98.9811659468
 20
237.5128039991
 10
99.0741193903
 20
237.5127220427
 10
99.1667301071
 20
237.5126475369
 10
99.2589682949
 20
237.5125655805
 10
99.3508041513
 20
237.5124910747
 10
99.4422078741
 20
237.5124165689
  0
ARC
  5
FD
330
1F
100
AcDbEntity
  8
0
  6
Continuous
 62
     7
370
     0
100
AcDbCircle
 10
88.4773769425
 20
237.8915794116
 30
0.0
 40
10.97138468103913
100
AcDbArc
 50
358.01950638
 51
1.8847324296
  0
LWPOLYLINE
  5
FE
330
1F
100
AcDbEntity
  8
0
  6
Continuous
 62
     7
370
     0
100
AcDbPolyline
 90
        9
 70
   128
 43
0.0
 10
99.4428262723
 20
238.2524156844
 10
99.3514225495
 20
238.2524901902
 10
99.2595866931
 20
238.252564696
 10
99.1673485053
 20
238.2526466524
 10
99.0747377885
 20
238.2527211582
 10
98.981784345
 20
238.2528031146
 10
98.8885328782
 20
238.2528776204
 10
98.7950131906
 20
238.2529595768
 10
98.7012550843
 20
238.2530340826
  0
ARC
  5
FF
330
1F
100
AcDbEntity
  8
0
  6
Continuous
 62
     7
370
     0
100
AcDbCircle
 10
98.1361872709
 20
237.8835071252
 30
0.0
 40
0.6751696141507102
100
AcDbArc
 50
33.1827369516
 51
56.7214811628
  0
ARC
  5
100
330
1F
100
AcDbEntity
  8
0
  6
Continuous
 62
     7
370
     0
100
AcDbCircle
 10
98.1281163757
 20
228.2246964285
 30
0.0
 40
10.97138468102388
100
AcDbArc
 50
88.01950638
 51
91.8847324296
  0
LWPOLYLINE
  5
101
330
1F
100
AcDbEntity
  8
0
  6
Continuous
 62
     7
370
     0
100
AcDbPolyline
 90
        9
 70
   128
 43
0.0
 10
97.767280103
 20
239.1901457583
 10
97.7672055972
 20
239.0987420355
 10
97.7671236408
 20
239.0069061791
 10
97.767049135
 20
238.9146679913
 10
97.7669746292
 20
238.8220572745
 10
97.7668926728
 20
238.729103831
 10
97.766818167
 20
238.6358523642
 10
97.7667362106
 20
238.5423326766
 10
97.7666617048
 20
238.4485745703
  0
ARC
  5
102
330
1F
100
AcDbEntity
  8
0
  6
Continuous
 62
     7
370
     0
100
AcDbCircle
 10
98.1361872709
 20
237.8835071252
 30
0.0
 40
0.6751696141506942
100
AcDbArc
 50
123.1827369516
 51
146.7214811628
  0
LWPOLYLINE
  5
103
330
1F
100
AcDbEntity
  8
0
  6
Continuous
 62
     7
370
     0
100
AcDbPolyline
 90
        9
 70
   128
 43
0.0
 10
97.5717396153
 20
238.2539803063
 10
97.477981509
 20
238.2540548121
 10
97.3844543708
 20
238.2541367685
 10
97.291202904
 20
238.2542112743
 10
97.1982569111
 20
238.2542932307
 10
97.1056461943
 20
238.2543677365
 10
97.0134080065
 20
238.2544422423
 10
96.9215646995
 20
238.2545241987
 10
96.8301684273
 20
238.2545987045
  0
ARC
  5
104
330
1F
100
AcDbEntity
  8
0
  6
Continuous
 62
     7
370
     0
100
AcDbCircle
 10
107.7891814184
 20
237.8754407236
 30
0.0
 40
10.96557004970087
100
AcDbArc
 50
178.0184811986
 51
181.8857576111
  0
LWPOLYLINE
  5
105
330
1F
100
AcDbEntity
  8
0
  6
Continuous
 62
     7
370
     0
100
AcDbPolyline
 90
        9
 70
   128
 43
0.0
 10
96.8295500291
 20
237.514599589
 10
96.9209463013
 20
237.5145250832
 10
97.0127896083
 20
237.5144431268
 10
97.1050277961
 20
237.514368621
 10
97.1976385129
 20
237.5142941152
 10
97.2905845058
 20
237.5142121588
 10
97.3838359726
 20
237.514137653
 10
97.4773631108
 20
237.5140556966
 10
97.5711212171
 20
237.5139811908
  0
ARC
  5
106
330
1F
100
AcDbEntity
  8
0
  6
Continuous
 62
     7
370
     0
100
AcDbCircle
 10
98.1361872709
 20
237.8835071252
 30
0.0
 40
0.6751696141506787
100
AcDbArc
 50
213.1827369516
 51
236.7214811628
  0
CIRCLE
  5
107
330
1F
100
AcDbEntity
  8
0
  6
Continuous
 62
     7
370
     0
100
AcDbCircle
 10
98.1361872709
 20
237.8835071252
 30
0.0
 40
2.674418604651167
  0
LWPOLYLINE
  5
108
330
1F
100
AcDbEntity
  8
0
  6
Continuous
 62
     7
370
     0
100
AcDbPolyline
 90
        9
 70
   128
 43
0.0
 10
97.7657154811
 20
237.3190591013
 10
97.7656335247
 20
237.225300995
 10
97.7655590189
 20
237.1317738568
 10
97.7654845131
 20
237.03852239
 10
97.7654025567
 20
236.9455763971
 10
97.7653280509
 20
236.8529656803
 10
97.7652460945
 20
236.7607274925
 10
97.7651715887
 20
236.6688841855
 10
97.7650970829
 20
236.5774879133
  0
LWPOLYLINE
  5
109
330
1F
100
AcDbEntity
  8
0
  6
Continuous
 62
     7
370
     0
100
AcDbPolyline
 90
        9
 70
   128
 43
0.0
 10
98.5066608203
 20
238.4479561721
 10
98.5067353261
 20
238.5417142784
 10
98.5068172825
 20
238.635233966
 10
98.5068917883
 20
238.7284854328
 10
98.5069737447
 20
238.8214388763
 10
98.5070482505
 20
238.9140495931
 10
98.5071227563
 20
239.0062877809
 10
98.5072047127
 20
239.0981236373
 10
98.5072792185
 20
239.1895273601
  0
SPLINE
  5
10A
330
1F
100
AcDbEntity
  8
0
  6
Continuous
 62
     7
370
     0
100
AcDbSpline
210
0.0
220
0.0
230
1.0
 70
    24
 71
     3
 72
     8
 73
     4
 74
     0
 42
0.000000001
 43
0.00000001
 40
0.0
 40
0.0
 40
0.0
 40
0.0
 40
1.0
 40
1.0
 40
1.0
 40
1.0
 10
98.70125647287922
 20
238.2530349386057
 30
0.0
 10
98.65374992292791
 20
238.2530746471849
 30
0.0
 10
98.6046990841514
 20
238.2531156465653
 30
0.0
 10
98.55150964494929
 20
238.2531601052149
 30
0.0
  0
ARC
  5
10B
330
1F
100
AcDbEntity
  8
0
  6
Continuous
 62
     7
370
     0
100
AcDbCircle
 10
98.1361872709
 20
237.8835071252
 30
0.0
 40
0.5560000000000287
100
AcDbArc
 50
41.6703194389
 51
48.2338986755
  0
SPLINE
  5
10C
330
1F
100
AcDbEntity
  8
0
  6
Continuous
 62
     7
370
     0
100
AcDbSpline
210
0.0
220
0.0
230
1.0
 70
    24
 71
     3
 72
     8
 73
     4
 74
     0
 42
0.000000001
 43
0.00000001
 40
0.0
 40
0.0
 40
0.0
 40
0.0
 40
1.0
 40
1.0
 40
1.0
 40
1.0
 10
98.5066591990139
 20
238.4479577947525
 30
0.0
 10
98.50661949043474
 20
238.4004512448012
 30
0.0
 10
98.5065784910543
 20
238.3514004060247
 30
0.0
 10
98.50653403240473
 20
238.2982109668226
 30
0.0
  0
ARC
  5
10D
330
1F
100
AcDbEntity
  8
0
  6
Continuous
 62
     7
370
     0
100
AcDbCircle
 10
98.1361872709
 20
237.8835071252
 30
0.0
 40
0.5560000000000024
100
AcDbArc
 50
311.6703194389
 51
318.2338986755
  0
SPLINE
  5
10E
330
1F
100
AcDbEntity
  8
0
  6
Continuous
 62
     7
370
     0
100
AcDbSpline
210
0.0
220
0.0
230
1.0
 70
    24
 71
     3
 72
     8
 73
     4
 74
     0
 42
0.000000001
 43
0.00000001
 40
0.0
 40
0.0
 40
0.0
 40
0.0
 40
1.0
 40
1.0
 40
1.0
 40
1.0
 10
98.70063794052226
 20
237.5130351971073
 30
0.0
 10
98.65313139057095
 20
237.5130749056865
 30
0.0
 10
98.60408055179444
 20
237.5131159050669
 30
0.0
 10
98.55089111259232
 20
237.5131603637165
 30
0.0
  0
SPLINE
  5
10F
330
1F
100
AcDbEntity
  8
0
  6
Continuous
 62
     7
370
     0
100
AcDbSpline
210
0.0
220
0.0
230
1.0
 70
    24
 71
     3
 72
     8
 73
     4
 74
     0
 42
0.000000001
 43
0.00000001
 40
0.0
 40
0.0
 40
0.0
 40
0.0
 40
1.0
 40
1.0
 40
1.0
 40
1.0
 10
98.50571508437547
 20
237.318437923242
 30
0.0
 10
98.50575479295463
 20
237.3659444731933
 30
0.0
 10
98.50579579233506
 20
237.4149953119698
 30
0.0
 10
98.50584025098465
 20
237.4681847511719
 30
0.0
  0
SPLINE
  5
110
330
1F
100
AcDbEntity
  8
0
  6
Continuous
 62
     7
370
     0
100
AcDbSpline
210
0.0
220
0.0
230
1.0
 70
    24
 71
     3
 72
     8
 73
     4
 74
     0
 42
0.000000001
 43
0.00000001
 40
0.0
 40
0.0
 40
0.0
 40
0.0
 40
1.0
 40
1.0
 40
1.0
 40
1.0
 10
97.57111806901175
 20
237.5139793117457
 30
0.0
 10
97.61862461896305
 20
237.5139396031666
 30
0.0
 10
97.66767545773955
 20
237.5138986037862
 30
0.0
 10
97.72086489694166
 20
237.5138541451366
 30
0.0
  0
ARC
  5
111
330
1F
100
AcDbEntity
  8
0
  6
Continuous
 62
     7
370
     0
100
AcDbCircle
 10
98.1361872709
 20
237.8835071252
 30
0.0
 40
0.5559999999999885
100
AcDbArc
 50
221.6703194389
 51
228.2338986755
  0
SPLINE
  5
112
330
1F
100
AcDbEntity
  8
0
  6
Continuous
 62
     7
370
     0
100
AcDbSpline
210
0.0
220
0.0
230
1.0
 70
    24
 71
     3
 72
     8
 73
     4
 74
     0
 42
0.000000001
 43
0.00000001
 40
0.0
 40
0.0
 40
0.0
 40
0.0
 40
1.0
 40
1.0
 40
1.0
 40
1.0
 10
97.76571534287706
 20
237.319056455599
 30
0.0
 10
97.76575505145622
 20
237.3665630055503
 30
0.0
 10
97.76579605083666
 20
237.4156138443268
 30
0.0
 10
97.76584050948624
 20
237.4688032835289
 30
0.0
  0
ARC
  5
113
330
1F
100
AcDbEntity
  8
0
  6
Continuous
 62
     7
370
     0
100
AcDbCircle
 10
98.1361872709
 20
237.8835071252
 30
0.0
 40
0.5560000000000075
100
AcDbArc
 50
131.6703194389
 51
138.2338986755
  0
SPLINE
  5
114
330
1F
100
AcDbEntity
  8
0
  6
Continuous
 62
     7
370
     0
100
AcDbSpline
210
0.0
220
0.0
230
1.0
 70
    24
 71
     3
 72
     8
 73
     4
 74
     0
 42
0.000000001
 43
0.00000001
 40
0.0
 40
0.0
 40
0.0
 40
0.0
 40
1.0
 40
1.0
 40
1.0
 40
1.0
 10
97.76665945751549
 20
238.4485763271095
 30
0.0
 10
97.76661974893634
 20
238.4010697771582
 30
0.0
 10
97.76657874955589
 20
238.3520189383817
 30
0.0
 10
97.76653429090632
 20
238.2988294991796
 30
0.0
  0
SPLINE
  5
115
330
1F
100
AcDbEntity
  8
0
  6
Continuous
 62
     7
370
     0
100
AcDbSpline
210
0.0
220
0.0
230
1.0
 70
    24
 71
     3
 72
     8
 73
     4
 74
     0
 42
0.000000001
 43
0.00000001
 40
0.0
 40
0.0
 40
0.0
 40
0.0
 40
1.0
 40
1.0
 40
1.0
 40
1.0
 10
97.57173660136871
 20
238.2539790532442
 30
0.0
 10
97.61924315132002
 20
238.253939344665
 30
0.0
 10
97.66829399009652
 20
238.2538983452846
 30
0.0
 10
97.72148342929863
 20
238.253853886635
 30
0.0
  0
LINE
  5
116
330
1F
100
AcDbEntity
  8
0
  6
Continuous
 62
     7
370
     0
100
AcDbLine
 10
98.3115226639
 20
237.3558798706
 30
0.0
 11
98.5057443989
 21
237.3557159578
 31
0.0
  0
LINE
  5
117
330
1F
100
AcDbEntity
  8
0
  6
Continuous
 62
     7
370
     0
100
AcDbLine
 10
97.7657452834
 20
237.356334356
 30
0.0
 11
97.9599670184
 21
237.3561704432
 31
0.0
  0
ELLIPSE
  5
118
330
1F
100
AcDbEntity
  8
0
  6
Continuous
 62
     7
370
     0
100
AcDbEllipse
 10
98.13612963
 20
237.8145466627
 30
0.0
 11
0.0004109826906670833
 21
0.4916914716172869
 31
0.0
210
0.0
220
0.0
230
1.0
 40
0.9901159119
 41
2.772178939413061
 42
3.511006367766633
  0
LINE
  5
119
330
1F
100
AcDbEntity
  8
0
  6
Continuous
 62
     7
370
     0
100
AcDbLine
 10
98.6638159168
 20
238.0588496005
 30
0.0
 11
98.6639798296
 21
238.2530638849
 31
0.0
  0
LINE
  5
11A
330
1F
100
AcDbEntity
  8
0
  6
Continuous
 62
     7
370
     0
100
AcDbLine
 10
98.6633614314
 20
237.5130647694
 30
0.0
 11
98.6635253442
 21
237.7072865044
 31
0.0
  0
ELLIPSE
  5
11B
330
1F
100
AcDbEntity
  8
0
  6
Continuous
 62
     7
370
     0
100
AcDbEllipse
 10
98.2051477334
 20
237.8834494842
 30
0.0
 11
0.4916914716172869
 21
-0.0004109826906528724
 31
0.0
210
0.0
220
0.0
230
1.0
 40
0.9901159119
 41
5.913771593002813
 42
6.652599021356372
  0
LINE
  5
11C
330
1F
100
AcDbEntity
  8
0
  6
Continuous
 62
     7
370
     0
100
AcDbLine
 10
97.9608461869
 20
238.4111354028
 30
0.0
 11
97.7666319025
 21
238.4112993156
 31
0.0
  0
LINE
  5
11D
330
1F
100
AcDbEntity
  8
0
  6
Continuous
 62
     7
370
     0
100
AcDbLine
 10
98.506631018
 20
238.4106809174
 30
0.0
 11
98.312409283
 21
238.4108448302
 31
0.0
  0
ELLIPSE
  5
11E
330
1F
100
AcDbEntity
  8
0
  6
Continuous
 62
     7
370
     0
100
AcDbEllipse
 10
98.1362449119
 20
237.9524675876
 30
0.0
 11
0.0004109826906528724
 21
0.4916914716172869
 31
0.0
210
0.0
220
0.0
230
1.0
 40
0.9901159119
 41
5.913771593002796
 42
6.652599021356345
  0
LINE
  5
11F
330
1F
100
AcDbEntity
  8
0
  6
Continuous
 62
     7
370
     0
100
AcDbLine
 10
97.6085603846
 20
237.7081656729
 30
0.0
 11
97.6083964718
 21
237.5139513885
 31
0.0
  0
LINE
  5
120
330
1F
100
AcDbEntity
  8
0
  6
Continuous
 62
     7
370
     0
100
AcDbLine
 10
97.60901487
 20
238.253950504
 30
0.0
 11
97.6088509572
 21
238.059728769
 31
0.0
  0
ELLIPSE
  5
121
330
1F
100
AcDbEntity
  8
0
  6
Continuous
 62
     7
370
     0
100
AcDbEllipse
 10
98.0672268085
 20
237.8835647661
 30
0.0
 11
0.4916914716172869
 21
-0.0004109826906528724
 31
0.0
210
0.0
220
0.0
230
1.0
 40
0.9901159119
 41
2.772178939413016
 42
3.511006367766593
  0
CIRCLE
  5
122
330
1F
100
AcDbEntity
  8
0
  6
Continuous
 62
     7
370
     0
100
AcDbCircle
 10
98.1361872709
 20
237.8835071252
 30
0.0
 40
2.800000000000009
  0
ARC
  5
123
330
1F
100
AcDbEntity
  8
0
  6
Continuous
 62
     7
370
     0
100
AcDbCircle
 10
98.1361872709
 20
237.8835071252
 30
0.0
 40
0.556000000000009
100
AcDbArc
 50
341.5218215297
 51
18.3823965847
  0
ARC
  5
124
330
1F
100
AcDbEntity
  8
0
  6
Continuous
 62
     7
370
     0
100
AcDbCircle
 10
98.1361872709
 20
237.8835071252
 30
0.0
 40
0.5559999999999914
100
AcDbArc
 50
251.5218215297
 51
288.3823965847
  0
ARC
  5
125
330
1F
100
AcDbEntity
  8
0
  6
Continuous
 62
     7
370
     0
100
AcDbCircle
 10
98.1361872709
 20
237.8835071252
 30
0.0
 40
0.5560000000000275
100
AcDbArc
 50
71.5218215297
 51
108.3823965847
  0
ARC
  5
126
330
1F
100
AcDbEntity
  8
0
  6
Continuous
 62
     7
370
     0
100
AcDbCircle
 10
98.1361872709
 20
237.8835071252
 30
0.0
 40
0.5560000000000005
100
AcDbArc
 50
161.5218215297
 51
198.3823965847
  0
ARC
  5
127
330
1F
100
AcDbEntity
  8
0
  6
Continuous
 62
     7
370
     0
100
AcDbCircle
 10
98.1361872709
 20
237.8835071252
 30
0.0
 40
0.5559999999999992
100
AcDbArc
 50
318.2338986755
 51
341.5218215297
  0
ARC
  5
128
330
1F
100
AcDbEntity
  8
0
  6
Continuous
 62
     7
370
     0
100
AcDbCircle
 10
98.1361872709
 20
237.8835071252
 30
0.0
 40
0.5560000000000024
100
AcDbArc
 50
288.3823965847
 51
311.6703194389
  0
ARC
  5
129
330
1F
100
AcDbEntity
  8
0
  6
Continuous
 62
     7
370
     0
100
AcDbCircle
 10
98.1361872709
 20
237.8835071252
 30
0.0
 40
0.5559999999999914
100
AcDbArc
 50
228.2338986755
 51
251.5218215297
  0
ARC
  5
12A
330
1F
100
AcDbEntity
  8
0
  6
Continuous
 62
     7
370
     0
100
AcDbCircle
 10
98.1361872709
 20
237.8835071252
 30
0.0
 40
0.5559999999999866
100
AcDbArc
 50
198.3823965847
 51
221.6703194389
  0
ARC
  5
12B
330
1F
100
AcDbEntity
  8
0
  6
Continuous
 62
     7
370
     0
100
AcDbCircle
 10
98.1361872709
 20
237.8835071252
 30
0.0
 40
0.5560000000000075
100
AcDbArc
 50
138.2338986755
 51
161.5218215297
  0
ARC
  5
12C
330
1F
100
AcDbEntity
  8
0
  6
Continuous
 62
     7
370
     0
100
AcDbCircle
 10
98.1361872709
 20
237.8835071252
 30
0.0
 40
0.5560000000000136
100
AcDbArc
 50
108.3823965847
 51
131.6703194389
  0
ARC
  5
12D
330
1F
100
AcDbEntity
  8
0
  6
Continuous
 62
     7
370
     0
100
AcDbCircle
 10
98.1361872709
 20
237.8835071252
 30
0.0
 40
0.5560000000000287
100
AcDbArc
 50
48.2338986755
 51
71.5218215297
  0
ARC
  5
12E
330
1F
100
AcDbEntity
  8
0
  6
Continuous
 62
     7
370
     0
100
AcDbCircle
 10
98.1361872709
 20
237.8835071252
 30
0.0
 40
0.556000000000013
100
AcDbArc
 50
18.3823965847
 51
41.6703194389
  0
LINE
  5
12F
330
1F
100
AcDbEntity
  8
0
  6
Continuous
 62
     7
370
     0
100
AcDbLine
 10
98.5065267098
 20
247.9608500277
 30
0.0
 11
97.1247271312
 21
246.9756448542
 31
0.0
  0
LINE
  5
130
330
1F
100
AcDbEntity
  8
0
  6
Continuous
 62
     7
370
     0
100
AcDbLine
 10
98.5065267098
 20
247.9608500277
 30
0.0
 11
102.2542879594
 21
247.332915095
 31
0.0
  0
ARC
  5
131
330
1F
100
AcDbEntity
  8
0
  6
Continuous
 62
     7
370
     0
100
AcDbCircle
 10
102.419535309
 20
248.3191637689
 30
0.0
 40
0.999999999999992
100
AcDbArc
 50
260.4884137372
 51
350.4884137372
  0
LINE
  5
132
330
1F
100
AcDbEntity
  8
0
  6
Continuous
 62
     7
370
     0
100
AcDbLine
 10
103.4057900918
 20
248.1539169227
 30
0.0
 11
104.3972686542
 21
254.0714288031
 31
0.0
  0
LINE
  5
133
330
1F
100
AcDbEntity
  8
0
  6
Continuous
 62
     7
370
     0
100
AcDbLine
 10
95.373110534
 20
236.5213701402
 30
0.0
 11
96.3583157075
 21
235.1395705616
 31
0.0
  0
LINE
  5
134
330
1F
100
AcDbEntity
  8
0
  6
Continuous
 62
     7
370
     0
100
AcDbLine
 10
95.373110534
 20
236.5213701402
 30
0.0
 11
95.4621896756
 21
237.0530063187
 31
0.0
  0
LINE
  5
135
330
1F
100
AcDbEntity
  8
0
  6
Continuous
 62
     7
370
     0
100
AcDbLine
 10
95.8789230001
 20
239.54024109
 30
0.0
 11
97.1247271312
 21
246.9756448542
 31
0.0
  0
CIRCLE
  5
136
330
1F
100
AcDbEntity
  8
0
  6
Continuous
 62
     7
370
     0
100
AcDbCircle
 10
104.6826853021
 20
241.8563352775
 30
0.0
 40
1.75000000000001
  0
LINE
  5
137
330
1F
100
AcDbEntity
  8
0
  6
Continuous
 62
     7
370
     0
100
AcDbLine
 10
106.0235888374
 20
233.5201496159
 30
0.0
 11
96.3583157075
 21
235.1395705616
 31
0.0
  0
LINE
  5
138
330
1F
100
AcDbEntity
  8
0
  6
Continuous
 62
     7
370
     0
100
AcDbLine
 10
109.3285322798
 20
253.2451966678
 30
0.0
 11
104.3972686542
 21
254.0714288031
 31
0.0
  0
LINE
  5
139
330
1F
100
AcDbEntity
  8
0
  6
Continuous
 62
     7
370
     0
100
AcDbLine
 10
106.0235888374
 20
233.5201496159
 30
0.0
 11
109.3285322798
 21
253.2451966678
 31
0.0
  0
LINE
  5
13A
330
1F
100
AcDbEntity
  8
0
  6
Continuous
 62
     7
370
     0
100
AcDbLine
 10
104.479895593
 20
254.5645529305
 30
0.0
 11
104.3972686542
 21
254.0714288031
 31
0.0
  0
LINE
  5
13B
330
1F
100
AcDbEntity
  8
0
  6
Continuous
 62
     7
370
     0
100
AcDbLine
 10
104.479895593
 20
254.5645529305
 30
0.0
 11
108.9180276406
 21
253.820947734
 31
0.0
  0
ARC
  5
13C
330
1F
100
AcDbEntity
  8
0
  6
Continuous
 62
     7
370
     0
100
AcDbCircle
 10
108.835404726
 20
253.3278182412
 30
0.0
 40
0.5000000000000661
100
AcDbArc
 50
350.4884137372
 51
80.4884137372
  0
DIMENSION
  5
13D
330
1F
100
AcDbEntity
  8
0
  6
Continuous
 62
     7
370
     0
100
AcDbDimension
  2
_D
 10
92.4796449206
 20
101.5774376455
 30
0.0
 11
82.4796449206
 21
101.5774376455
 31
0.0
 70
   160
  1
%%c<>
 71
     2
 42
-1.0
  3
SLDDIMSTYLE0
100
AcDbAlignedDimension
 13
72.4796449206
 23
122.5774376455
 33
0.0
 14
92.4796449206
 24
122.5774376455
 34
0.0
 50
0.0
100
AcDbRotatedDimension
  0
DIMENSION
  5
149
330
1F
100
AcDbEntity
  8
0
  6
Continuous
 62
     7
370
     0
100
AcDbDimension
  2
_D_1
 10
98.4796449206
 20
95.5774376455
 30
0.0
 11
82.4796449206
 21
95.5774376455
 31
0.0
 70
   160
  1
<>
 71
     2
 42
-1.0
  3
SLDDIMSTYLE0
100
AcDbAlignedDimension
 13
66.4796449206
 23
151.5774376455
 33
0.0
 14
98.4796449206
 24
151.5774376455
 34
0.0
 50
0.0
100
AcDbRotatedDimension
  0
DIMENSION
  5
153
330
1F
100
AcDbEntity
  8
0
  6
Continuous
 62
     7
370
     0
100
AcDbDimension
  2
_D_2
 10
61.4796449206
 20
89.5774376455
 30
0.0
 11
82.4796449206
 21
89.5774376455
 31
0.0
 70
   160
  1
<>
 71
     2
 42
-1.0
  3
SLDDIMSTYLE0
100
AcDbAlignedDimension
 13
103.4796449206
 23
146.5774376455
 33
0.0
 14
61.4796449206
 24
146.5774376455
 34
0.0
 50
0.0
100
AcDbRotatedDimension
  0
DIMENSION
  5
15D
330
1F
100
AcDbEntity
  8
0
  6
Continuous
 62
     7
370
     0
100
AcDbDimension
  2
_D_3
 10
114.2667439287
 20
151.5774376455
 30
0.0
 11
114.2667439287
 21
149.0774376455
 31
0.0
 70
   160
  1
<>
 71
     2
 42
-1.0
  3
SLDDIMSTYLE1
100
AcDbAlignedDimension
 13
103.4796449206
 23
146.5774376455
 33
0.0
 14
98.4796449206
 24
151.5774376455
 34
0.0
 50
90.0
100
AcDbRotatedDimension
  0
DIMENSION
  5
16A
330
1F
100
AcDbEntity
  8
0
  6
Continuous
 62
     7
370
     0
100
AcDbDimension
  2
_D_4
 10
114.2667439287
 20
194.5774376455
 30
0.0
 11
114.2667439287
 21
173.0774376455
 31
0.0
 70
   160
  1
<>
 71
     2
 42
-1.0
  3
SLDDIMSTYLE0
100
AcDbAlignedDimension
 13
98.4796449206
 23
151.5774376455
 33
0.0
 14
82.4796449206
 24
194.5774376455
 34
0.0
 50
90.0
100
AcDbRotatedDimension
  0
DIMENSION
  5
174
330
1F
100
AcDbEntity
  8
0
  6
Continuous
 62
     7
370
     0
100
AcDbDimension
  2
_D_5
 10
125.3536234728
 20
146.5774376455
 30
0.0
 11
125.3536234728
 21
181.6732709755
 31
0.0
 70
   160
  1
<>
 71
     2
 42
-1.0
  3
SLDDIMSTYLE0
100
AcDbAlignedDimension
 13
88.4796449206
 23
216.7691043055
 33
0.0
 14
103.4796449206
 24
146.5774376455
 34
0.0
 50
90.0
100
AcDbRotatedDimension
  0
DIMENSION
  5
17E
330
1F
100
AcDbEntity
  8
0
  6
Continuous
 62
     7
370
     0
100
AcDbDimension
  2
_D_6
 10
125.3536234728
 20
121.5774376455
 30
0.0
 11
125.3536234728
 21
134.0774376455
 31
0.0
 70
   160
  1
<>
 71
     2
 42
-1.0
  3
SLDDIMSTYLE0
100
AcDbAlignedDimension
 13
103.4796449206
 23
146.5774376455
 33
0.0
 14
91.4796449206
 24
121.5774376455
 34
0.0
 50
90.0
100
AcDbRotatedDimension
  0
DIMENSION
  5
188
330
1F
100
AcDbEntity
  8
0
  6
Continuous
 62
     7
370
     0
100
AcDbDimension
  2
_D_7
 10
137.3536234728
 20
258.5200250411
 30
0.0
 11
137.3536234728
 21
185.0487313433
 31
0.0
 70
   160
  1
(<>)
 71
     2
 42
-1.0
  3
SLDDIMSTYLE0
100
AcDbAlignedDimension
 13
84.5017591954
 23
111.5774376455
 33
0.0
 14
92.975360951
 24
258.5200250411
 34
0.0
 50
90.0
100
AcDbRotatedDimension
  0
DIMENSION
  5
194
330
1F
100
AcDbEntity
  8
0
  6
Continuous
 62
     7
370
     0
100
AcDbDimension
  2
_D_8
 10
92.975360951
 20
267.6860030283
 30
0.0
 11
82.4796449206
 21
267.6860030283
 31
0.0
 70
   160
  1
(<>)
 71
     2
 42
-1.0
  3
SLDDIMSTYLE0
100
AcDbAlignedDimension
 13
71.9839288902
 23
258.5200250411
 33
0.0
 14
92.975360951
 24
258.5200250411
 34
0.0
 50
0.0
100
AcDbRotatedDimension
  0
DIMENSION
  5
1A0
330
1F
100
AcDbEntity
  8
0
  6
Continuous
 62
     7
370
     0
100
AcDbDimension
  2
_D_9
 10
68.6009652641
 20
149.4561173019
 30
0.0
 11
40.4127673944
 21
163.8359840493
 31
0.0
 70
   163
  1
3-<>取付穴\P(両側口元面取有)
 71
     1
 42
-1.0
  3
SLDDIMSTYLE2
100
AcDbDiametricDimension
 15
64.358324577
 25
153.698757989
 35
0.0
 40
0.0
  0
INSERT
  5
1B1
330
1F
100
AcDbEntity
  8
0
  6
Continuous
 62
     7
370
     0
100
AcDbBlockReference
  2
SW_NOTE_0
 10
51.9886263483
 20
130.1246975303
 30
0.0
  0
LEADER
  5
1B3
330
1F
100
AcDbEntity
  8
0
  6
Continuous
 62
     7
370
     0
100
AcDbLeader
  3
SLDDIMSTYLE3
 76
     2
 10
81.0576633773
 20
112.7289988191
 30
0.0
 10
51.9886263483
 20
130.1246975303
 30
0.0
  0
INSERT
  5
1BF
330
1F
100
AcDbEntity
  8
0
  6
Continuous
 62
     7
370
     0
100
AcDbBlockReference
  2
SW_CENTERMARKSYMBOL_0
 10
66.4796449206
 20
197.5725652255
 30
0.0
  0
INSERT
  5
1CB
330
1F
100
AcDbEntity
  8
0
  6
Continuous
 62
     7
370
     0
100
AcDbBlockReference
  2
SW_CENTERMARKSYMBOL_1
 10
82.4796449206
 20
194.5774376455
 30
0.0
  0
INSERT
  5
1D7
330
1F
100
AcDbEntity
  8
0
  6
Continuous
 62
     7
370
     0
100
AcDbBlockReference
  2
SW_CENTERMARKSYMBOL_2
 10
98.4796449206
 20
197.5725652255
 30
0.0
  0
INSERT
  5
1E3
330
1F
100
AcDbEntity
  8
0
  6
Continuous
 62
     7
370
     0
100
AcDbBlockReference
  2
SW_CENTERMARKSYMBOL_3
 10
66.4796449206
 20
151.5774376455
 30
0.0
  0
INSERT
  5
1EF
330
1F
100
AcDbEntity
  8
0
  6
Continuous
 62
     7
370
     0
100
AcDbBlockReference
  2
SW_CENTERMARKSYMBOL_4
 10
98.4796449206
 20
151.5774376455
 30
0.0
  0
CIRCLE
  5
1F0
330
1F
100
AcDbEntity
  8
0
  6
Continuous
 62
     7
370
     0
100
AcDbCircle
 10
66.4796449206
 20
151.5774376455
 30
0.0
 40
2.999999546756115
  0
CIRCLE
  5
1F1
330
1F
100
AcDbEntity
  8
0
  6
Continuous
 62
     7
370
     0
100
AcDbCircle
 10
98.4796449206
 20
151.5774376455
 30
0.0
 40
2.999999546755788
  0
CIRCLE
  5
1F2
330
1F
100
AcDbEntity
  8
0
  6
Continuous
 62
     7
370
     0
100
AcDbCircle
 10
82.4796449206
 20
194.5774376455
 30
0.0
 40
2.999999949087382
  0
LINE
  5
1F3
330
1F
100
AcDbEntity
  8
0
  6
CENTERX2
 62
     7
370
     0
100
AcDbLine
 10
82.4796449206
 20
105.9226119403
 30
0.0
 11
82.4796449206
 21
259.6269007264
 31
0.0
  0
CIRCLE
  5
1F4
330
1F
100
AcDbEntity
  8
0
  6
Continuous
 62
     7
370
     0
100
AcDbCircle
 10
82.4796449206
 20
57.693358209
 30
0.0
 40
9.0
  0
CIRCLE
  5
1F5
330
1F
100
AcDbEntity
  8
0
  6
Continuous
 62
     7
370
     0
100
AcDbCircle
 10
82.4796449206
 20
57.693358209
 30
0.0
 40
10.0
  0
LINE
  5
1F6
330
1F
100
AcDbEntity
  8
0
  6
Continuous
 62
     7
370
     0
100
AcDbLine
 10
82.4796461177
 20
47.6933584325
 30
0.0
 11
62.4796465648
 21
47.6933584325
 31
0.0
  0
LINE
  5
1F7
330
1F
100
AcDbEntity
  8
0
  6
Continuous
 62
     7
370
     0
100
AcDbLine
 10
61.4796445382
 20
66.6933578215
 30
0.0
 11
61.4796445382
 21
48.6933585964
 31
0.0
  0
LINE
  5
1F8
330
1F
100
AcDbEntity
  8
0
  6
Continuous
 62
     7
370
     0
100
AcDbLine
 10
62.4796465648
 20
67.6933579854
 30
0.0
 11
61.4796445382
 21
66.6933578215
 31
0.0
  0
LINE
  5
1F9
330
1F
100
AcDbEntity
  8
0
  6
Continuous
 62
     7
370
     0
100
AcDbLine
 10
82.4796461177
 20
67.6933579854
 30
0.0
 11
62.4796465648
 21
67.6933579854
 31
0.0
  0
LINE
  5
1FA
330
1F
100
AcDbEntity
  8
0
  6
Continuous
 62
     7
370
     0
100
AcDbLine
 10
61.4796445382
 20
48.6933585964
 30
0.0
 11
62.4796465648
 21
47.6933584325
 31
0.0
  0
LINE
  5
1FB
330
1F
100
AcDbEntity
  8
0
  6
Continuous
 62
     7
370
     0
100
AcDbLine
 10
103.4796476973
 20
66.6933578215
 30
0.0
 11
102.4796456707
 21
67.6933579854
 31
0.0
  0
LINE
  5
1FC
330
1F
100
AcDbEntity
  8
0
  6
Continuous
 62
     7
370
     0
100
AcDbLine
 10
103.4796476973
 20
66.6933578215
 30
0.0
 11
103.4796476973
 21
48.6933585964
 31
0.0
  0
LINE
  5
1FD
330
1F
100
AcDbEntity
  8
0
  6
Continuous
 62
     7
370
     0
100
AcDbLine
 10
102.4796456707
 20
47.6933584325
 30
0.0
 11
103.4796476973
 21
48.6933585964
 31
0.0
  0
LINE
  5
1FE
330
1F
100
AcDbEntity
  8
0
  6
Continuous
 62
     7
370
     0
100
AcDbLine
 10
102.4796456707
 20
67.6933579854
 30
0.0
 11
82.4796461177
 21
67.6933579854
 31
0.0
  0
LINE
  5
1FF
330
1F
100
AcDbEntity
  8
0
  6
Continuous
 62
     7
370
     0
100
AcDbLine
 10
102.4796456707
 20
47.6933584325
 30
0.0
 11
82.4796461177
 21
47.6933584325
 31
0.0
  0
LINE
  5
200
330
1F
100
AcDbEntity
  8
0
  6
Continuous
 62
     7
370
     0
100
AcDbLine
 10
59.9020884049
 20
52.6933583207
 30
0.0
 11
59.9020884049
 21
62.6933580972
 31
0.0
  0
LINE
  5
201
330
1F
100
AcDbEntity
  8
0
  6
Continuous
 62
     7
370
     0
100
AcDbLine
 10
59.9020884049
 20
62.6933580972
 30
0.0
 11
61.4796445382
 21
61.3233569786
 31
0.0
  0
LINE
  5
202
330
1F
100
AcDbEntity
  8
0
  6
Continuous
 62
     7
370
     0
100
AcDbLine
 10
59.9020884049
 20
52.6933583207
 30
0.0
 11
61.4796445382
 21
54.0633594393
 31
0.0
  0
LINE
  5
203
330
1F
100
AcDbEntity
  8
0
  6
Continuous
 62
     7
370
     0
100
AcDbLine
 10
61.4796445382
 20
52.6933583207
 30
0.0
 11
59.9020884049
 21
52.6933583207
 31
0.0
  0
LINE
  5
204
330
1F
100
AcDbEntity
  8
0
  6
Continuous
 62
     7
370
     0
100
AcDbLine
 10
59.9020884049
 20
62.6933580972
 30
0.0
 11
61.4796445382
 21
62.6933580972
 31
0.0
  0
LINE
  5
205
330
1F
100
AcDbEntity
  8
0
  6
Continuous
 62
     7
370
     0
100
AcDbLine
 10
55.6056664002
 20
52.6933583207
 30
0.0
 11
55.6056664002
 21
62.6933580972
 31
0.0
  0
LINE
  5
206
330
1F
100
AcDbEntity
  8
0
  6
Continuous
 62
     7
370
     0
100
AcDbLine
 10
59.9020884049
 20
62.6933580972
 30
0.0
 11
55.6056664002
 21
62.6933580972
 31
0.0
  0
LINE
  5
207
330
1F
100
AcDbEntity
  8
0
  6
Continuous
 62
     7
370
     0
100
AcDbLine
 10
59.9020884049
 20
52.6933583207
 30
0.0
 11
55.6056664002
 21
52.6933583207
 31
0.0
  0
LINE
  5
208
330
1F
100
AcDbEntity
  8
0
  6
Continuous
 62
     7
370
     0
100
AcDbLine
 10
105.0572038305
 20
52.6933583207
 30
0.0
 11
103.4796476973
 21
54.0633594393
 31
0.0
  0
LINE
  5
209
330
1F
100
AcDbEntity
  8
0
  6
Continuous
 62
     7
370
     0
100
AcDbLine
 10
105.0572038305
 20
52.6933583207
 30
0.0
 11
103.4796476973
 21
52.6933583207
 31
0.0
  0
LINE
  5
20A
330
1F
100
AcDbEntity
  8
0
  6
Continuous
 62
     7
370
     0
100
AcDbLine
 10
103.4796476973
 20
62.6933580972
 30
0.0
 11
105.0572038305
 21
62.6933580972
 31
0.0
  0
LINE
  5
20B
330
1F
100
AcDbEntity
  8
0
  6
Continuous
 62
     7
370
     0
100
AcDbLine
 10
105.0572038305
 20
62.6933580972
 30
0.0
 11
103.4796476973
 21
61.3233569786
 31
0.0
  0
LINE
  5
20C
330
1F
100
AcDbEntity
  8
0
  6
Continuous
 62
     7
370
     0
100
AcDbLine
 10
105.0572038305
 20
62.6933580972
 30
0.0
 11
105.0572038305
 21
52.6933583207
 31
0.0
  0
LINE
  5
20D
330
1F
100
AcDbEntity
  8
0
  6
Continuous
 62
     7
370
     0
100
AcDbLine
 10
109.3536258352
 20
62.6933580972
 30
0.0
 11
109.3536258352
 21
52.6933583207
 31
0.0
  0
LINE
  5
20E
330
1F
100
AcDbEntity
  8
0
  6
Continuous
 62
     7
370
     0
100
AcDbLine
 10
105.0572038305
 20
62.6933580972
 30
0.0
 11
109.3536258352
 21
62.6933580972
 31
0.0
  0
LINE
  5
20F
330
1F
100
AcDbEntity
  8
0
  6
Continuous
 62
     7
370
     0
100
AcDbLine
 10
105.0572038305
 20
52.6933583207
 30
0.0
 11
109.3536258352
 21
52.6933583207
 31
0.0
  0
CIRCLE
  5
210
330
1F
100
AcDbEntity
  8
0
  6
Continuous
 62
     7
370
     0
100
AcDbCircle
 10
82.5017591954
 20
57.6313548875
 30
0.0
 40
2.349999999999977
  0
CIRCLE
  5
211
330
1F
100
AcDbEntity
  8
0
  6
Continuous
 62
     7
370
     0
100
AcDbCircle
 10
82.5017591954
 20
57.6313548875
 30
0.0
 40
2.000000000000055
  0
ARC
  5
212
330
1F
100
AcDbEntity
  8
0
  6
Continuous
 62
     7
370
     0
100
AcDbCircle
 10
82.5017591954
 20
57.6313548875
 30
0.0
 40
1.499999999999727
100
AcDbArc
 50
330.0
 51
150.0
  0
ARC
  5
213
330
1F
100
AcDbEntity
  8
0
  6
Continuous
 62
     7
370
     0
100
AcDbCircle
 10
82.5017591954
 20
57.6313548875
 30
0.0
 40
1.499999999999727
100
AcDbArc
 50
150.0
 51
330.0
  0
LINE
  5
214
330
1F
100
AcDbEntity
  8
0
  6
Continuous
 62
     7
370
     0
100
AcDbLine
 10
86.551760943
 20
57.6313548847
 30
0.0
 11
84.526760192
 21
54.1239519845
 31
0.0
  0
LINE
  5
215
330
1F
100
AcDbEntity
  8
0
  6
Continuous
 62
     7
370
     0
100
AcDbLine
 10
84.526760192
 20
54.1239519845
 30
0.0
 11
80.4767586899
 21
54.1239519845
 31
0.0
  0
LINE
  5
216
330
1F
100
AcDbEntity
  8
0
  6
Continuous
 62
     7
370
     0
100
AcDbLine
 10
80.4767586899
 20
54.1239519845
 30
0.0
 11
78.4517579389
 21
57.6313548847
 31
0.0
  0
LINE
  5
217
330
1F
100
AcDbEntity
  8
0
  6
Continuous
 62
     7
370
     0
100
AcDbLine
 10
78.4517579389
 20
57.6313548847
 30
0.0
 11
80.4767586899
 21
61.1387576684
 31
0.0
  0
LINE
  5
218
330
1F
100
AcDbEntity
  8
0
  6
Continuous
 62
     7
370
     0
100
AcDbLine
 10
80.4767586899
 20
61.1387576684
 30
0.0
 11
84.526760192
 21
61.1387576684
 31
0.0
  0
LINE
  5
219
330
1F
100
AcDbEntity
  8
0
  6
Continuous
 62
     7
370
     0
100
AcDbLine
 10
84.526760192
 20
61.1387576684
 30
0.0
 11
86.551760943
 21
57.6313548847
 31
0.0
  0
LINE
  5
21A
330
1F
100
AcDbEntity
  8
0
  6
Continuous
 62
     7
370
     0
100
AcDbLine
 10
83.9796454323
 20
57.8879748102
 30
0.0
 11
83.9796454323
 21
57.3747349737
 31
0.0
  0
LINE
  5
21B
330
1F
100
AcDbEntity
  8
0
  6
Continuous
 62
     7
370
     0
100
AcDbLine
 10
83.479644419
 20
56.4939282378
 30
0.0
 11
83.479644419
 21
58.768781648
 31
0.0
  0
LINE
  5
21C
330
1F
100
AcDbEntity
  8
0
  6
Continuous
 62
     7
370
     0
100
AcDbLine
 10
81.4796440912
 20
58.7292084712
 30
0.0
 11
81.4796440912
 21
56.5335012981
 31
0.0
  0
DIMENSION
  5
21D
330
1F
100
AcDbEntity
  8
0
  6
Continuous
 62
     7
370
     0
100
AcDbDimension
  2
_D_10
 10
109.3536234728
 20
27.6368917771
 30
0.0
 11
82.4796449206
 21
27.6368917771
 31
0.0
 70
   160
  1
(<>)
 71
     2
 42
-1.0
  3
SLDDIMSTYLE4
100
AcDbAlignedDimension
 13
55.6056663683
 23
52.693358209
 33
0.0
 14
109.3536234728
 24
52.693358209
 34
0.0
100
AcDbRotatedDimension
  0
DIMENSION
  5
22A
330
1F
100
AcDbEntity
  8
0
  6
Continuous
 62
     7
370
     0
100
AcDbDimension
  2
_D_11
 10
82.4796449206
 20
37.693358209
 30
0.0
 11
69.0426556444
 21
37.693358209
 31
0.0
 70
   160
  1
(<>)
 71
     2
 42
-1.0
  3
SLDDIMSTYLE4
100
AcDbAlignedDimension
 13
55.6056663683
 23
52.693358209
 33
0.0
 14
82.4796449206
 24
46.193358209
 34
0.0
100
AcDbRotatedDimension
  0
INSERT
  5
241
330
1F
100
AcDbEntity
  8
0
  6
Continuous
 62
     7
370
     0
100
AcDbBlockReference
  2
SW_CENTERMARKSYMBOL_5
 10
82.4796449206
 20
57.693358209
 30
0.0
  0
LINE
  5
242
330
1F
100
AcDbEntity
  8
0
  6
Continuous
 62
     7
370
     0
100
AcDbLine
 10
156.1272570844
 20
122.5774375623
 30
0.0
 11
157.1272572483
 21
121.5774373983
 31
0.0
  0
LINE
  5
243
330
1F
100
AcDbEntity
  8
0
  6
Continuous
 62
     7
370
     0
100
AcDbLine
 10
175.1272564734
 20
121.5774373983
 30
0.0
 11
176.1272566373
 21
122.5774375623
 31
0.0
  0
LINE
  5
244
330
1F
100
AcDbEntity
  8
0
  6
Continuous
 62
     7
370
     0
100
AcDbLine
 10
156.1272570844
 20
146.5774377709
 30
0.0
 11
156.1272570844
 21
122.5774375623
 31
0.0
  0
LINE
  5
245
330
1F
100
AcDbEntity
  8
0
  6
Continuous
 62
     7
370
     0
100
AcDbLine
 10
176.1272566373
 20
122.5774375623
 30
0.0
 11
176.1272566373
 21
146.5774377709
 31
0.0
  0
LINE
  5
246
330
1F
100
AcDbEntity
  8
0
  6
Continuous
 62
     7
370
     0
100
AcDbLine
 10
168.0272568929
 20
257.8851500427
 30
0.0
 11
164.2272568288
 21
257.8851500427
 31
0.0
  0
LINE
  5
247
330
1F
100
AcDbEntity
  8
0
  6
Continuous
 62
     7
370
     0
100
AcDbLine
 10
163.8392601608
 20
114.0774371003
 30
0.0
 11
164.1892601483
 21
111.5774376219
 31
0.0
  0
LINE
  5
248
330
1F
100
AcDbEntity
  8
0
  6
Continuous
 62
     7
370
     0
100
AcDbLine
 10
168.1892602219
 20
111.5774376219
 30
0.0
 11
168.539260093
 21
114.0774371003
 31
0.0
  0
LINE
  5
249
330
1F
100
AcDbEntity
  8
0
  6
Continuous
 62
     7
370
     0
100
AcDbLine
 10
163.8392601608
 20
116.5774384414
 30
0.0
 11
164.1892601483
 21
114.0774371003
 31
0.0
  0
LINE
  5
24A
330
1F
100
AcDbEntity
  8
0
  6
Continuous
 62
     7
370
     0
100
AcDbLine
 10
168.1892602219
 20
114.0774371003
 30
0.0
 11
168.539260093
 21
116.5774384414
 31
0.0
  0
LINE
  5
24B
330
1F
100
AcDbEntity
  8
0
  6
Continuous
 62
     7
370
     0
100
AcDbLine
 10
168.2892602849
 20
116.5774384414
 30
0.0
 11
168.2892602849
 21
119.0774379199
 31
0.0
  0
LINE
  5
24C
330
1F
100
AcDbEntity
  8
0
  6
Continuous
 62
     7
370
     0
100
AcDbLine
 10
164.0892602018
 20
119.0774379199
 30
0.0
 11
164.0892602018
 21
116.5774384414
 31
0.0
  0
LINE
  5
24D
330
1F
100
AcDbEntity
  8
0
  6
Continuous
 62
     7
370
     0
100
AcDbLine
 10
164.6772568793
 20
232.6165208494
 30
0.0
 11
164.6772568793
 21
228.1396904861
 31
0.0
  0
LINE
  5
24E
330
1F
100
AcDbEntity
  8
0
  6
Continuous
 62
     7
370
     0
100
AcDbLine
 10
167.5772568424
 20
228.1396904861
 30
0.0
 11
167.5772568424
 21
232.6165208494
 31
0.0
  0
ARC
  5
24F
330
1F
100
AcDbEntity
  8
0
  6
Continuous
 62
     7
370
     0
100
AcDbCircle
 10
161.2307583934
 20
235.3535071252
 30
0.0
 40
0.2700000000000102
100
AcDbArc
 50
212.3360259976
 51
270.0
  0
ARC
  5
250
330
1F
100
AcDbEntity
  8
0
  6
Continuous
 62
     7
370
     0
100
AcDbCircle
 10
161.2307583934
 20
240.4135071252
 30
0.0
 40
0.2700000000000135
100
AcDbArc
 50
90.0
 51
147.6639740024
  0
LINE
  5
251
330
1F
100
AcDbEntity
  8
0
  6
Continuous
 62
     7
370
     0
100
AcDbLine
 10
161.2307585756
 20
235.0835049426
 30
0.0
 11
162.6272567528
 21
235.0835049426
 31
0.0
  0
LINE
  5
252
330
1F
100
AcDbEntity
  8
0
  6
Continuous
 62
     7
370
     0
100
AcDbLine
 10
162.6272567528
 20
240.6835103308
 30
0.0
 11
161.2307585756
 21
240.6835103308
 31
0.0
  0
ARC
  5
253
330
1F
100
AcDbEntity
  8
0
  6
Continuous
 62
     7
370
     0
100
AcDbCircle
 10
165.2272568609
 20
237.8835071252
 30
0.0
 40
4.999999999999996
100
AcDbArc
 50
195.2192827798
 51
212.3360259976
  0
ARC
  5
254
330
1F
100
AcDbEntity
  8
0
  6
Continuous
 62
     7
370
     0
100
AcDbCircle
 10
165.2272568609
 20
237.8835071252
 30
0.0
 40
5.000000000000015
100
AcDbArc
 50
147.6639740024
 51
164.7807172202
  0
LINE
  5
255
330
1F
100
AcDbEntity
  8
0
  6
Continuous
 62
     7
370
     0
100
AcDbLine
 10
172.0272570829
 20
236.3835045969
 30
0.0
 11
172.627256995
 21
236.3835045969
 31
0.0
  0
LINE
  5
256
330
1F
100
AcDbEntity
  8
0
  6
Continuous
 62
     7
370
     0
100
AcDbLine
 10
172.627256995
 20
239.3835106765
 30
0.0
 11
172.0272570829
 21
239.3835106765
 31
0.0
  0
LINE
  5
257
330
1F
100
AcDbEntity
  8
0
  6
Continuous
 62
     7
370
     0
100
AcDbLine
 10
175.1272564734
 20
146.5774377709
 30
0.0
 11
175.1272564734
 21
209.5691034471
 31
0.0
  0
LINE
  5
258
330
1F
100
AcDbEntity
  8
0
  6
Continuous
 62
     7
370
     0
100
AcDbLine
 10
175.1272564734
 20
209.5691034471
 30
0.0
 11
176.1272566373
 21
210.5691054737
 31
0.0
  0
LINE
  5
259
330
1F
100
AcDbEntity
  8
0
  6
Continuous
 62
     7
370
     0
100
AcDbLine
 10
176.1272566373
 20
210.5691054737
 30
0.0
 11
176.1272566373
 21
146.5774377709
 31
0.0
  0
LINE
  5
25A
330
1F
100
AcDbEntity
  8
0
  6
Continuous
 62
     7
370
     0
100
AcDbLine
 10
176.1272566373
 20
146.5774377709
 30
0.0
 11
175.1272564734
 21
146.5774377709
 31
0.0
  0
LINE
  5
25B
330
1F
100
AcDbEntity
  8
0
  6
Continuous
 62
     7
370
     0
100
AcDbLine
 10
175.1272564734
 20
209.5691034471
 30
0.0
 11
171.6044822688
 21
209.5691034471
 31
0.0
  0
LINE
  5
25C
330
1F
100
AcDbEntity
  8
0
  6
Continuous
 62
     7
370
     0
100
AcDbLine
 10
157.1272572483
 20
209.5691034471
 30
0.0
 11
157.1272572483
 21
146.5774377709
 31
0.0
  0
LINE
  5
25D
330
1F
100
AcDbEntity
  8
0
  6
Continuous
 62
     7
370
     0
100
AcDbLine
 10
160.6500314529
 20
209.5691034471
 30
0.0
 11
157.1272572483
 21
209.5691034471
 31
0.0
  0
ARC
  5
25E
330
1F
100
AcDbEntity
  8
0
  6
Continuous
 62
     7
370
     0
100
AcDbCircle
 10
166.1272568609
 20
209.0691043055
 30
0.0
 40
5.500000000000015
100
AcDbArc
 50
174.7840914295
 51
204.6199773287
  0
ARC
  5
25F
330
1F
100
AcDbEntity
  8
0
  6
Continuous
 62
     7
370
     0
100
AcDbCircle
 10
166.1272568609
 20
177.4725652255
 30
0.0
 40
8.0
100
AcDbArc
 50
128.6821874535
 51
180.0
  0
LINE
  5
260
330
1F
100
AcDbEntity
  8
0
  6
Continuous
 62
     7
370
     0
100
AcDbLine
 10
158.1272564809
 20
177.4725647544
 30
0.0
 11
158.1272564809
 21
164.8725638067
 31
0.0
  0
ARC
  5
261
330
1F
100
AcDbEntity
  8
0
  6
Continuous
 62
     7
370
     0
100
AcDbCircle
 10
166.1272568609
 20
164.8725652255
 30
0.0
 40
8.0
100
AcDbArc
 50
180.0
 51
0.0
  0
LINE
  5
262
330
1F
100
AcDbEntity
  8
0
  6
Continuous
 62
     7
370
     0
100
AcDbLine
 10
174.1272572408
 20
164.8725638067
 30
0.0
 11
174.1272572408
 21
177.4725647544
 31
0.0
  0
ARC
  5
263
330
1F
100
AcDbEntity
  8
0
  6
Continuous
 62
     7
370
     0
100
AcDbCircle
 10
166.1272568609
 20
177.4725652255
 30
0.0
 40
8.0
100
AcDbArc
 50
0.0
 51
51.3178125465
  0
ARC
  5
264
330
1F
100
AcDbEntity
  8
0
  6
Continuous
 62
     7
370
     0
100
AcDbCircle
 10
166.1272568609
 20
209.0691043055
 30
0.0
 40
5.499999999999987
100
AcDbArc
 50
335.3800226713
 51
5.2159085705
  0
LINE
  5
265
330
1F
100
AcDbEntity
  8
0
  6
Continuous
 62
     7
370
     0
100
AcDbLine
 10
157.1272572483
 20
146.5774377709
 30
0.0
 11
175.1272564734
 21
146.5774377709
 31
0.0
  0
LINE
  5
266
330
1F
100
AcDbEntity
  8
0
  6
Continuous
 62
     7
370
     0
100
AcDbLine
 10
156.1272570844
 20
146.5774377709
 30
0.0
 11
156.1272570844
 21
210.5691054737
 31
0.0
  0
LINE
  5
267
330
1F
100
AcDbEntity
  8
0
  6
Continuous
 62
     7
370
     0
100
AcDbLine
 10
156.1272570844
 20
210.5691054737
 30
0.0
 11
157.1272572483
 21
209.5691034471
 31
0.0
  0
LINE
  5
268
330
1F
100
AcDbEntity
  8
0
  6
Continuous
 62
     7
370
     0
100
AcDbLine
 10
157.1272572483
 20
146.5774377709
 30
0.0
 11
156.1272570844
 21
146.5774377709
 31
0.0
  0
LINE
  5
269
330
1F
100
AcDbEntity
  8
0
  6
Continuous
 62
     7
370
     0
100
AcDbLine
 10
174.3272569011
 20
215.5691007053
 30
0.0
 11
171.1272567491
 21
215.5691007053
 31
0.0
  0
LINE
  5
26A
330
1F
100
AcDbEntity
  8
0
  6
Continuous
 62
     7
370
     0
100
AcDbLine
 10
176.1272566373
 20
213.7691074883
 30
0.0
 11
174.3272569011
 21
215.5691007053
 31
0.0
  0
LINE
  5
26B
330
1F
100
AcDbEntity
  8
0
  6
Continuous
 62
     7
370
     0
100
AcDbLine
 10
176.1272566373
 20
213.7691074883
 30
0.0
 11
176.1272566373
 21
210.5691054737
 31
0.0
  0
ARC
  5
26C
330
1F
100
AcDbEntity
  8
0
  6
Continuous
 62
     7
370
     0
100
AcDbCircle
 10
166.1272568609
 20
209.0691043055
 30
0.0
 40
5.499999999999999
100
AcDbArc
 50
5.2159085705
 51
24.6199773287
  0
LINE
  5
26D
330
1F
100
AcDbEntity
  8
0
  6
Continuous
 62
     7
370
     0
100
AcDbLine
 10
156.1272570844
 20
213.7691074883
 30
0.0
 11
156.1272570844
 21
210.5691054737
 31
0.0
  0
LINE
  5
26E
330
1F
100
AcDbEntity
  8
0
  6
Continuous
 62
     7
370
     0
100
AcDbLine
 10
157.9272568206
 20
215.5691007053
 30
0.0
 11
156.1272570844
 21
213.7691074883
 31
0.0
  0
LINE
  5
26F
330
1F
100
AcDbEntity
  8
0
  6
Continuous
 62
     7
370
     0
100
AcDbLine
 10
161.1272569726
 20
215.5691007053
 30
0.0
 11
157.9272568206
 21
215.5691007053
 31
0.0
  0
ARC
  5
270
330
1F
100
AcDbEntity
  8
0
  6
Continuous
 62
     7
370
     0
100
AcDbCircle
 10
166.1272568609
 20
209.0691043055
 30
0.0
 40
5.500000000000015
100
AcDbArc
 50
155.3800226713
 51
174.7840914295
  0
LINE
  5
271
330
1F
100
AcDbEntity
  8
0
  6
Continuous
 62
     7
370
     0
100
AcDbLine
 10
175.1272564734
 20
121.5774373983
 30
0.0
 11
157.1272572483
 21
121.5774373983
 31
0.0
  0
LINE
  5
272
330
1F
100
AcDbEntity
  8
0
  6
Continuous
 62
     7
370
     0
100
AcDbLine
 10
156.1272570844
 20
122.5774375623
 30
0.0
 11
176.1272566373
 21
122.5774375623
 31
0.0
  0
LINE
  5
273
330
1F
100
AcDbEntity
  8
0
  6
Continuous
 62
     7
370
     0
100
AcDbLine
 10
159.1272566448
 20
216.7691061174
 30
0.0
 11
161.1272569726
 21
216.7691061174
 31
0.0
  0
LINE
  5
274
330
1F
100
AcDbEntity
  8
0
  6
Continuous
 62
     7
370
     0
100
AcDbLine
 10
171.1272567491
 20
216.7691061174
 30
0.0
 11
173.1272570769
 21
216.7691061174
 31
0.0
  0
LINE
  5
275
330
1F
100
AcDbEntity
  8
0
  6
Continuous
 62
     7
370
     0
100
AcDbLine
 10
159.1272566448
 20
216.7691061174
 30
0.0
 11
157.9272568206
 21
215.5691007053
 31
0.0
  0
LINE
  5
276
330
1F
100
AcDbEntity
  8
0
  6
Continuous
 62
     7
370
     0
100
AcDbLine
 10
174.3272569011
 20
215.5691007053
 30
0.0
 11
173.1272570769
 21
216.7691061174
 31
0.0
  0
LINE
  5
277
330
1F
100
AcDbEntity
  8
0
  6
Continuous
 62
     7
370
     0
100
AcDbLine
 10
168.1272569559
 20
258.5200214659
 30
0.0
 11
164.1272567659
 21
258.5200214659
 31
0.0
  0
LINE
  5
278
330
1F
100
AcDbEntity
  8
0
  6
Continuous
 62
     7
370
     0
100
AcDbLine
 10
161.1272569726
 20
186.8279570614
 30
0.0
 11
171.1272567491
 21
186.8279570614
 31
0.0
  0
LINE
  5
279
330
1F
100
AcDbEntity
  8
0
  6
Continuous
 62
     7
370
     0
100
AcDbLine
 10
171.1272567491
 20
161.1853999918
 30
0.0
 11
171.1272567491
 21
186.8279570614
 31
0.0
  0
LINE
  5
27A
330
1F
100
AcDbEntity
  8
0
  6
Continuous
 62
     7
370
     0
100
AcDbLine
 10
161.1272569726
 20
161.1853999918
 30
0.0
 11
171.1272567491
 21
161.1853999918
 31
0.0
  0
LINE
  5
27B
330
1F
100
AcDbEntity
  8
0
  6
Continuous
 62
     7
370
     0
100
AcDbLine
 10
161.1272569726
 20
161.1853999918
 30
0.0
 11
161.1272569726
 21
186.8279570614
 31
0.0
  0
LINE
  5
27C
330
1F
100
AcDbEntity
  8
0
  6
Continuous
 62
     7
370
     0
100
AcDbLine
 10
171.1272567491
 20
225.0486979162
 30
0.0
 11
161.1272569726
 21
225.0486979162
 31
0.0
  0
LINE
  5
27D
330
1F
100
AcDbEntity
  8
0
  6
Continuous
 62
     7
370
     0
100
AcDbLine
 10
161.1272569726
 20
186.8279570614
 30
0.0
 11
161.1272569726
 21
225.0486979162
 31
0.0
  0
LINE
  5
27E
330
1F
100
AcDbEntity
  8
0
  6
Continuous
 62
     7
370
     0
100
AcDbLine
 10
171.1272567491
 20
186.8279570614
 30
0.0
 11
171.1272567491
 21
225.0486979162
 31
0.0
  0
LINE
  5
27F
330
1F
100
AcDbEntity
  8
0
  6
Continuous
 62
     7
370
     0
100
AcDbLine
 10
171.1272567491
 20
161.1853999918
 30
0.0
 11
169.1272568869
 21
159.5433907484
 31
0.0
  0
LINE
  5
280
330
1F
100
AcDbEntity
  8
0
  6
Continuous
 62
     7
370
     0
100
AcDbLine
 10
169.1272568869
 20
159.5433907484
 30
0.0
 11
163.1272568348
 21
159.5433907484
 31
0.0
  0
LINE
  5
281
330
1F
100
AcDbEntity
  8
0
  6
Continuous
 62
     7
370
     0
100
AcDbLine
 10
161.1272569726
 20
161.1853999918
 30
0.0
 11
163.1272568348
 21
159.5433907484
 31
0.0
  0
LINE
  5
282
330
1F
100
AcDbEntity
  8
0
  6
Continuous
 62
     7
370
     0
100
AcDbLine
 10
168.1272569559
 20
254.5645529305
 30
0.0
 11
168.1272569559
 21
256.2117943441
 31
0.0
  0
LINE
  5
283
330
1F
100
AcDbEntity
  8
0
  6
Continuous
 62
     7
370
     0
100
AcDbLine
 10
171.1272567491
 20
256.2117943441
 30
0.0
 11
168.1272569559
 21
256.2117943441
 31
0.0
  0
LINE
  5
284
330
1F
100
AcDbEntity
  8
0
  6
Continuous
 62
     7
370
     0
100
AcDbLine
 10
169.6272569689
 20
249.3080342089
 30
0.0
 11
171.1272567491
 21
249.3080342089
 31
0.0
  0
LINE
  5
285
330
1F
100
AcDbEntity
  8
0
  6
Continuous
 62
     7
370
     0
100
AcDbLine
 10
171.1272567491
 20
249.3080342089
 30
0.0
 11
171.1272567491
 21
256.2117943441
 31
0.0
  0
LINE
  5
286
330
1F
100
AcDbEntity
  8
0
  6
Continuous
 62
     7
370
     0
100
AcDbLine
 10
164.1272567659
 20
256.2117943441
 30
0.0
 11
161.1272569726
 21
256.2117943441
 31
0.0
  0
LINE
  5
287
330
1F
100
AcDbEntity
  8
0
  6
Continuous
 62
     7
370
     0
100
AcDbLine
 10
164.1272567659
 20
256.2117943441
 30
0.0
 11
164.1272567659
 21
254.5645529305
 31
0.0
  0
LINE
  5
288
330
1F
100
AcDbEntity
  8
0
  6
Continuous
 62
     7
370
     0
100
AcDbLine
 10
161.1272569726
 20
249.3080342089
 30
0.0
 11
162.6272567528
 21
249.3080342089
 31
0.0
  0
LINE
  5
289
330
1F
100
AcDbEntity
  8
0
  6
Continuous
 62
     7
370
     0
100
AcDbLine
 10
161.1272569726
 20
249.3080342089
 30
0.0
 11
161.1272569726
 21
256.2117943441
 31
0.0
  0
LINE
  5
28A
330
1F
100
AcDbEntity
  8
0
  6
Continuous
 62
     7
370
     0
100
AcDbLine
 10
168.1272569559
 20
257.3632964765
 30
0.0
 11
171.1272567491
 21
257.3632964765
 31
0.0
  0
LINE
  5
28B
330
1F
100
AcDbEntity
  8
0
  6
Continuous
 62
     7
370
     0
100
AcDbLine
 10
168.1272569559
 20
256.2117943441
 30
0.0
 11
168.1272569559
 21
257.3632964765
 31
0.0
  0
LINE
  5
28C
330
1F
100
AcDbEntity
  8
0
  6
Continuous
 62
     7
370
     0
100
AcDbLine
 10
171.1272567491
 20
257.3632964765
 30
0.0
 11
171.1272567491
 21
256.2117943441
 31
0.0
  0
LINE
  5
28D
330
1F
100
AcDbEntity
  8
0
  6
Continuous
 62
     7
370
     0
100
AcDbLine
 10
161.1272569726
 20
257.3632964765
 30
0.0
 11
164.1272567659
 21
257.3632964765
 31
0.0
  0
LINE
  5
28E
330
1F
100
AcDbEntity
  8
0
  6
Continuous
 62
     7
370
     0
100
AcDbLine
 10
164.1272567659
 20
257.3632964765
 30
0.0
 11
164.1272567659
 21
256.2117943441
 31
0.0
  0
LINE
  5
28F
330
1F
100
AcDbEntity
  8
0
  6
Continuous
 62
     7
370
     0
100
AcDbLine
 10
161.1272569726
 20
256.2117943441
 30
0.0
 11
161.1272569726
 21
257.3632964765
 31
0.0
  0
LINE
  5
290
330
1F
100
AcDbEntity
  8
0
  6
Continuous
 62
     7
370
     0
100
AcDbLine
 10
163.1272568348
 20
233.0322557961
 30
0.0
 11
161.1272569726
 21
233.0322557961
 31
0.0
  0
LINE
  5
291
330
1F
100
AcDbEntity
  8
0
  6
Continuous
 62
     7
370
     0
100
AcDbLine
 10
171.1272567491
 20
233.0322557961
 30
0.0
 11
169.1272568869
 21
233.0322557961
 31
0.0
  0
LINE
  5
292
330
1F
100
AcDbEntity
  8
0
  6
Continuous
 62
     7
370
     0
100
AcDbLine
 10
163.1272568348
 20
233.5201496159
 30
0.0
 11
163.1272568348
 21
233.0322557961
 31
0.0
  0
LINE
  5
293
330
1F
100
AcDbEntity
  8
0
  6
Continuous
 62
     7
370
     0
100
AcDbLine
 10
169.1272568869
 20
233.5201496159
 30
0.0
 11
169.1272568869
 21
233.0322557961
 31
0.0
  0
LINE
  5
294
330
1F
100
AcDbEntity
  8
0
  6
Continuous
 62
     7
370
     0
100
AcDbLine
 10
161.1272569726
 20
229.220285443
 30
0.0
 11
161.1272569726
 21
233.0322557961
 31
0.0
  0
LINE
  5
295
330
1F
100
AcDbEntity
  8
0
  6
Continuous
 62
     7
370
     0
100
AcDbLine
 10
171.1272567491
 20
229.220285443
 30
0.0
 11
171.1272567491
 21
233.0322557961
 31
0.0
  0
LINE
  5
296
330
1F
100
AcDbEntity
  8
0
  6
Continuous
 62
     7
370
     0
100
AcDbLine
 10
168.1272569559
 20
258.5200214659
 30
0.0
 11
171.1272567491
 21
258.5200214659
 31
0.0
  0
LINE
  5
297
330
1F
100
AcDbEntity
  8
0
  6
Continuous
 62
     7
370
     0
100
AcDbLine
 10
168.1272569559
 20
258.5200214659
 30
0.0
 11
168.1272569559
 21
257.3632964765
 31
0.0
  0
LINE
  5
298
330
1F
100
AcDbEntity
  8
0
  6
Continuous
 62
     7
370
     0
100
AcDbLine
 10
171.1272567491
 20
257.3632964765
 30
0.0
 11
171.1272567491
 21
258.5200214659
 31
0.0
  0
LINE
  5
299
330
1F
100
AcDbEntity
  8
0
  6
Continuous
 62
     7
370
     0
100
AcDbLine
 10
161.1272569726
 20
258.5200214659
 30
0.0
 11
164.1272567659
 21
258.5200214659
 31
0.0
  0
LINE
  5
29A
330
1F
100
AcDbEntity
  8
0
  6
Continuous
 62
     7
370
     0
100
AcDbLine
 10
164.1272567659
 20
258.5200214659
 30
0.0
 11
164.1272567659
 21
257.3632964765
 31
0.0
  0
LINE
  5
29B
330
1F
100
AcDbEntity
  8
0
  6
Continuous
 62
     7
370
     0
100
AcDbLine
 10
161.1272569726
 20
257.3632964765
 30
0.0
 11
161.1272569726
 21
258.5200214659
 31
0.0
  0
LINE
  5
29C
330
1F
100
AcDbEntity
  8
0
  6
Continuous
 62
     7
370
     0
100
AcDbLine
 10
171.1272567491
 20
233.0322557961
 30
0.0
 11
171.1272567491
 21
233.6106220161
 31
0.0
  0
LINE
  5
29D
330
1F
100
AcDbEntity
  8
0
  6
Continuous
 62
     7
370
     0
100
AcDbLine
 10
161.1272569726
 20
233.6106220161
 30
0.0
 11
161.1272569726
 21
233.0322557961
 31
0.0
  0
LINE
  5
29E
330
1F
100
AcDbEntity
  8
0
  6
Continuous
 62
     7
370
     0
100
AcDbLine
 10
161.1272569726
 20
225.0486979162
 30
0.0
 11
161.1272569726
 21
229.220285443
 31
0.0
  0
LINE
  5
29F
330
1F
100
AcDbEntity
  8
0
  6
Continuous
 62
     7
370
     0
100
AcDbLine
 10
171.1272567491
 20
229.220285443
 30
0.0
 11
171.1272567491
 21
225.0486979162
 31
0.0
  0
LINE
  5
2A0
330
1F
100
AcDbEntity
  8
0
  6
Continuous
 62
     7
370
     0
100
AcDbLine
 10
171.1272567491
 20
246.9276407634
 30
0.0
 11
171.1272567491
 21
249.3080342089
 31
0.0
  0
LINE
  5
2A1
330
1F
100
AcDbEntity
  8
0
  6
Continuous
 62
     7
370
     0
100
AcDbLine
 10
161.1272569726
 20
249.3080342089
 30
0.0
 11
161.1272569726
 21
246.9276407634
 31
0.0
  0
LINE
  5
2A2
330
1F
100
AcDbEntity
  8
0
  6
Continuous
 62
     7
370
     0
100
AcDbLine
 10
171.1272567491
 20
233.6106220161
 30
0.0
 11
171.1272567491
 21
235.1323956524
 31
0.0
  0
LINE
  5
2A3
330
1F
100
AcDbEntity
  8
0
  6
Continuous
 62
     7
370
     0
100
AcDbLine
 10
161.1272569726
 20
235.1041356002
 30
0.0
 11
161.1272569726
 21
233.6106220161
 31
0.0
  0
LINE
  5
2A4
330
1F
100
AcDbEntity
  8
0
  6
Continuous
 62
     7
370
     0
100
AcDbLine
 10
171.1272567491
 20
240.6346196209
 30
0.0
 11
171.1272567491
 21
246.9276407634
 31
0.0
  0
LINE
  5
2A5
330
1F
100
AcDbEntity
  8
0
  6
Continuous
 62
     7
370
     0
100
AcDbLine
 10
161.1272569726
 20
246.9276407634
 30
0.0
 11
161.1272569726
 21
240.6628796732
 31
0.0
  0
LINE
  5
2A6
330
1F
100
AcDbEntity
  8
0
  6
Continuous
 62
     7
370
     0
100
AcDbLine
 10
164.2272568288
 20
257.2703802859
 30
0.0
 11
168.0272568929
 21
257.2703802859
 31
0.0
  0
LINE
  5
2A7
330
1F
100
AcDbEntity
  8
0
  6
Continuous
 62
     7
370
     0
100
AcDbLine
 10
168.0272568929
 20
257.2703802859
 30
0.0
 11
168.0272568929
 21
254.5645529305
 31
0.0
  0
LINE
  5
2A8
330
1F
100
AcDbEntity
  8
0
  6
Continuous
 62
     7
370
     0
100
AcDbLine
 10
164.2272568288
 20
254.5645529305
 30
0.0
 11
164.2272568288
 21
257.2703802859
 31
0.0
  0
LINE
  5
2A9
330
1F
100
AcDbEntity
  8
0
  6
Continuous
 62
     7
370
     0
100
AcDbLine
 10
168.0272568929
 20
257.8738400613
 30
0.0
 11
164.2272568288
 21
257.8738400613
 31
0.0
  0
LINE
  5
2AA
330
1F
100
AcDbEntity
  8
0
  6
Continuous
 62
     7
370
     0
100
AcDbLine
 10
168.0272568929
 20
257.2703802859
 30
0.0
 11
168.0272568929
 21
257.8738400613
 31
0.0
  0
LINE
  5
2AB
330
1F
100
AcDbEntity
  8
0
  6
Continuous
 62
     7
370
     0
100
AcDbLine
 10
164.2272568288
 20
257.2703802859
 30
0.0
 11
164.2272568288
 21
257.8738400613
 31
0.0
  0
LINE
  5
2AC
330
1F
100
AcDbEntity
  8
0
  6
Continuous
 62
     7
370
     0
100
AcDbLine
 10
168.0272568929
 20
257.8851500427
 30
0.0
 11
168.0272568929
 21
257.8738400613
 31
0.0
  0
LINE
  5
2AD
330
1F
100
AcDbEntity
  8
0
  6
Continuous
 62
     7
370
     0
100
AcDbLine
 10
164.2272568288
 20
257.8738400613
 30
0.0
 11
164.2272568288
 21
257.8851500427
 31
0.0
  0
LINE
  5
2AE
330
1F
100
AcDbEntity
  8
0
  6
Continuous
 62
     7
370
     0
100
AcDbLine
 10
169.6966630853
 20
121.5774373983
 30
0.0
 11
169.6966630853
 21
119.0774379199
 31
0.0
  0
LINE
  5
2AF
330
1F
100
AcDbEntity
  8
0
  6
Continuous
 62
     7
370
     0
100
AcDbLine
 10
166.1892601851
 20
119.0774379199
 30
0.0
 11
169.6966630853
 21
119.0774379199
 31
0.0
  0
LINE
  5
2B0
330
1F
100
AcDbEntity
  8
0
  6
Continuous
 62
     7
370
     0
100
AcDbLine
 10
166.1892601851
 20
119.0774379199
 30
0.0
 11
166.1892601851
 21
121.5774373983
 31
0.0
  0
LINE
  5
2B1
330
1F
100
AcDbEntity
  8
0
  6
Continuous
 62
     7
370
     0
100
AcDbLine
 10
162.6818574014
 20
119.0774379199
 30
0.0
 11
166.1892601851
 21
119.0774379199
 31
0.0
  0
LINE
  5
2B2
330
1F
100
AcDbEntity
  8
0
  6
Continuous
 62
     7
370
     0
100
AcDbLine
 10
162.6818574014
 20
119.0774379199
 30
0.0
 11
162.6818574014
 21
121.5774373983
 31
0.0
  0
LINE
  5
2B3
330
1F
100
AcDbEntity
  8
0
  6
Continuous
 62
     7
370
     0
100
AcDbLine
 10
164.1541005093
 20
114.0774371003
 30
0.0
 11
163.8392601608
 21
114.0774371003
 31
0.0
  0
LINE
  5
2B4
330
1F
100
AcDbEntity
  8
0
  6
Continuous
 62
     7
370
     0
100
AcDbLine
 10
168.539260093
 20
114.0774371003
 30
0.0
 11
164.1541005093
 21
114.0774371003
 31
0.0
  0
LINE
  5
2B5
330
1F
100
AcDbEntity
  8
0
  6
Continuous
 62
     7
370
     0
100
AcDbLine
 10
164.4572093365
 20
111.5774376219
 30
0.0
 11
164.1892601483
 21
111.5774376219
 31
0.0
  0
LINE
  5
2B6
330
1F
100
AcDbEntity
  8
0
  6
Continuous
 62
     7
370
     0
100
AcDbLine
 10
168.1892602219
 20
111.5774376219
 30
0.0
 11
164.4572093365
 21
111.5774376219
 31
0.0
  0
LINE
  5
2B7
330
1F
100
AcDbEntity
  8
0
  6
Continuous
 62
     7
370
     0
100
AcDbLine
 10
167.3642602264
 20
116.5774384414
 30
0.0
 11
163.8392601608
 21
116.5774384414
 31
0.0
  0
LINE
  5
2B8
330
1F
100
AcDbEntity
  8
0
  6
Continuous
 62
     7
370
     0
100
AcDbLine
 10
168.539260093
 20
116.5774384414
 30
0.0
 11
167.3642602264
 21
116.5774384414
 31
0.0
  0
ARC
  5
2B9
330
1F
100
AcDbEntity
  8
0
  6
Continuous
 62
     7
370
     0
100
AcDbCircle
 10
166.1272568609
 20
171.1725652255
 30
0.0
 40
7.141428428542836
100
AcDbArc
 50
314.4382406712
 51
45.5617593289
  0
ARC
  5
2BA
330
1F
100
AcDbEntity
  8
0
  6
Continuous
 62
     7
370
     0
100
AcDbCircle
 10
166.1272568609
 20
171.1725652255
 30
0.0
 40
7.141428428542835
100
AcDbArc
 50
134.4382406712
 51
225.5617593289
  0
SPLINE
  5
2BB
330
1F
100
AcDbEntity
  8
0
  6
Continuous
 62
     7
370
     0
100
AcDbSpline
210
0.0
220
0.0
230
1.0
 70
     8
 71
     3
 72
    14
 73
    10
 74
     0
 42
0.000000001
 43
0.00000001
 40
0.0
 40
0.0
 40
0.0
 40
0.0
 40
0.25
 40
0.25
 40
0.5
 40
0.5
 40
0.75
 40
0.75
 40
1.0
 40
1.0
 40
1.0
 40
1.0
 10
174.0217267268956
 20
164.8725652254518
 30
0.0
 10
174.0217267268956
 20
163.8391815364879
 30
0.0
 10
173.8162548071599
 20
162.8062044398781
 30
0.0
 10
173.0253371730743
 20
160.8967603609487
 30
0.0
 10
172.4402026510396
 20
160.021044663337
 30
0.0
 10
170.9787774229719
 20
158.5596194352692
 30
0.0
 10
170.1030617253602
 20
157.9744849132345
 30
0.0
 10
168.1936176464308
 20
157.1835672791489
 30
0.0
 10
167.160640549821
 20
156.9780953594133
 30
0.0
 10
166.1272568608571
 20
156.9780953594133
 30
0.0
  0
SPLINE
  5
2BC
330
1F
100
AcDbEntity
  8
0
  6
Continuous
 62
     7
370
     0
100
AcDbSpline
210
0.0
220
0.0
230
1.0
 70
     8
 71
     3
 72
    14
 73
    10
 74
     0
 42
0.000000001
 43
0.00000001
 40
0.0
 40
0.0
 40
0.0
 40
0.0
 40
0.25
 40
0.25
 40
0.5
 40
0.5
 40
0.75
 40
0.75
 40
1.0
 40
1.0
 40
1.0
 40
1.0
 10
166.1272568608571
 20
156.9780953594133
 30
0.0
 10
165.0938731718933
 20
156.9780953594133
 30
0.0
 10
164.0608960752835
 20
157.1835672791489
 30
0.0
 10
162.1514519963541
 20
157.9744849132345
 30
0.0
 10
161.2757362987424
 20
158.5596194352692
 30
0.0
 10
159.8143110706746
 20
160.021044663337
 30
0.0
 10
159.2291765486399
 20
160.8967603609487
 30
0.0
 10
158.4382589145543
 20
162.8062044398781
 30
0.0
 10
158.2327869948187
 20
163.8391815364879
 30
0.0
 10
158.2327869948187
 20
164.8725652254518
 30
0.0
  0
SPLINE
  5
2BD
330
1F
100
AcDbEntity
  8
0
  6
Continuous
 62
     7
370
     0
100
AcDbSpline
210
0.0
220
0.0
230
1.0
 70
    24
 71
     3
 72
    10
 73
     6
 74
     0
 42
0.000000001
 43
0.00000001
 40
0.0
 40
0.0
 40
0.0
 40
0.0
 40
0.5
 40
0.5
 40
1.0
 40
1.0
 40
1.0
 40
1.0
 10
158.7327108423969
 20
164.8725652254518
 30
0.0
 10
158.6032655895407
 20
164.8725652254518
 30
0.0
 10
158.4745830949876
 20
164.8725652254518
 30
0.0
 10
158.2899293255064
 20
164.8725652254518
 30
0.0
 10
158.235046125983
 20
164.8725652254518
 30
0.0
 10
158.2327869948187
 20
164.8725652254518
 30
0.0
  0
SPLINE
  5
2BE
330
1F
100
AcDbEntity
  8
0
  6
Continuous
 62
     7
370
     0
100
AcDbSpline
210
0.0
220
0.0
230
1.0
 70
     8
 71
     3
 72
    14
 73
    10
 74
     0
 42
0.000000001
 43
0.00000001
 40
0.0
 40
0.0
 40
0.0
 40
0.0
 40
0.2500000000000001
 40
0.2500000000000001
 40
0.5000000000000001
 40
0.5000000000000001
 40
0.75
 40
0.75
 40
1.0
 40
1.0
 40
1.0
 40
1.0
 10
166.1272568608572
 20
157.4780192069915
 30
0.0
 10
165.1593130505144
 20
157.4780192069915
 30
0.0
 10
164.1917500847278
 20
157.670479447105
 30
0.0
 10
162.4032231347345
 20
158.411311566462
 30
0.0
 10
161.5829628595089
 20
158.9593919599016
 30
0.0
 10
160.214083595307
 20
160.3282712241034
 30
0.0
 10
159.6660032018674
 20
161.1485314993291
 30
0.0
 10
158.9251710825104
 20
162.9370584493224
 30
0.0
 10
158.7327108423969
 20
163.904621415109
 30
0.0
 10
158.7327108423969
 20
164.8725652254518
 30
0.0
  0
SPLINE
  5
2BF
330
1F
100
AcDbEntity
  8
0
  6
Continuous
 62
     7
370
     0
100
AcDbSpline
210
0.0
220
0.0
230
1.0
 70
     8
 71
     3
 72
    14
 73
    10
 74
     0
 42
0.000000001
 43
0.00000001
 40
0.0
 40
0.0
 40
0.0
 40
0.0
 40
0.25
 40
0.25
 40
0.5
 40
0.5
 40
0.75
 40
0.75
 40
1.0
 40
1.0
 40
1.0
 40
1.0
 10
173.5218028793174
 20
164.8725652254518
 30
0.0
 10
173.5218028793174
 20
163.904621415109
 30
0.0
 10
173.3293426392039
 20
162.9370584493224
 30
0.0
 10
172.5885105198469
 20
161.1485314993291
 30
0.0
 10
172.0404301264073
 20
160.3282712241034
 30
0.0
 10
170.6715508622055
 20
158.9593919599016
 30
0.0
 10
169.8512905869798
 20
158.411311566462
 30
0.0
 10
168.0627636369865
 20
157.670479447105
 30
0.0
 10
167.0952006711999
 20
157.4780192069915
 30
0.0
 10
166.1272568608572
 20
157.4780192069915
 30
0.0
  0
SPLINE
  5
2C0
330
1F
100
AcDbEntity
  8
0
  6
Continuous
 62
     7
370
     0
100
AcDbSpline
210
0.0
220
0.0
230
1.0
 70
    24
 71
     3
 72
    10
 73
     6
 74
     0
 42
0.000000001
 43
0.00000001
 40
0.0
 40
0.0
 40
0.0
 40
0.0
 40
0.4999999999999989
 40
0.4999999999999989
 40
1.0
 40
1.0
 40
1.0
 40
1.0
 10
173.5218028793174
 20
164.8725652254518
 30
0.0
 10
173.6512481336175
 20
164.8725652254963
 30
0.0
 10
173.7799306300286
 20
164.8725652255221
 30
0.0
 10
173.9645844015695
 20
164.872565225522
 30
0.0
 10
174.0194676012348
 20
164.8725652254962
 30
0.0
 10
174.021726731303
 20
164.8725652254518
 30
0.0
  0
LINE
  5
2C1
330
1F
100
AcDbEntity
  8
0
  6
Continuous
 62
     7
370
     0
100
AcDbLine
 10
174.0217262859
 20
177.4725647544
 30
0.0
 11
174.0217262859
 21
164.8725638067
 31
0.0
  0
LINE
  5
2C2
330
1F
100
AcDbEntity
  8
0
  6
Continuous
 62
     7
370
     0
100
AcDbLine
 10
173.5218030381
 20
177.4725647544
 30
0.0
 11
173.5218030381
 21
164.8725638067
 31
0.0
  0
SPLINE
  5
2C3
330
1F
100
AcDbEntity
  8
0
  6
Continuous
 62
     7
370
     0
100
AcDbSpline
210
0.0
220
0.0
230
1.0
 70
    24
 71
     3
 72
    10
 73
     6
 74
     0
 42
0.000000001
 43
0.00000001
 40
0.0
 40
0.0
 40
0.0
 40
0.0
 40
0.5
 40
0.5
 40
1.0
 40
1.0
 40
1.0
 40
1.0
 10
173.5218028793174
 20
177.4725652254517
 30
0.0
 10
173.6512481321736
 20
177.4725652254517
 30
0.0
 10
173.7799306267267
 20
177.4725652254517
 30
0.0
 10
173.9645843962079
 20
177.4725652254517
 30
0.0
 10
174.0194675957313
 20
177.4725652254517
 30
0.0
 10
174.0217267268956
 20
177.4725652254517
 30
0.0
  0
LINE
  5
2C4
330
1F
100
AcDbEntity
  8
0
  6
Continuous
 62
     7
370
     0
100
AcDbLine
 10
158.7327106836
 20
164.8725638067
 30
0.0
 11
158.7327106836
 21
177.4725647544
 31
0.0
  0
LINE
  5
2C5
330
1F
100
AcDbEntity
  8
0
  6
Continuous
 62
     7
370
     0
100
AcDbLine
 10
158.2327874358
 20
164.8725638067
 30
0.0
 11
158.2327874358
 21
177.4725647544
 31
0.0
  0
SPLINE
  5
2C6
330
1F
100
AcDbEntity
  8
0
  6
Continuous
 62
     7
370
     0
100
AcDbSpline
210
0.0
220
0.0
230
1.0
 70
    24
 71
     3
 72
    10
 73
     6
 74
     0
 42
0.000000001
 43
0.00000001
 40
0.0
 40
0.0
 40
0.0
 40
0.0
 40
0.5000000000000012
 40
0.5000000000000012
 40
1.0
 40
1.0
 40
1.0
 40
1.0
 10
158.2327869948187
 20
177.4725652254517
 30
0.0
 10
158.2350461259829
 20
177.4725652254517
 30
0.0
 10
158.2899293255064
 20
177.4725652254517
 30
0.0
 10
158.4745830949876
 20
177.4725652254517
 30
0.0
 10
158.6032655895407
 20
177.4725652254517
 30
0.0
 10
158.7327108423969
 20
177.4725652254517
 30
0.0
  0
LINE
  5
2C7
330
1F
100
AcDbEntity
  8
0
  6
Continuous
 62
     7
370
     0
100
AcDbLine
 10
174.0217262859
 20
164.8725638067
 30
0.0
 11
174.0722570549
 21
164.8725638067
 31
0.0
  0
ARC
  5
2C8
330
1F
100
AcDbEntity
  8
0
  6
Continuous
 62
     7
370
     0
100
AcDbCircle
 10
166.1272568609
 20
164.8725652255
 30
0.0
 40
7.945000000000022
100
AcDbArc
 50
180.0
 51
0.0
  0
LINE
  5
2C9
330
1F
100
AcDbEntity
  8
0
  6
Continuous
 62
     7
370
     0
100
AcDbLine
 10
158.2327874358
 20
164.8725638067
 30
0.0
 11
158.1822566668
 21
164.8725638067
 31
0.0
  0
LINE
  5
2CA
330
1F
100
AcDbEntity
  8
0
  6
Continuous
 62
     7
370
     0
100
AcDbLine
 10
174.0217262859
 20
177.4725647544
 30
0.0
 11
174.0722570549
 21
177.4725647544
 31
0.0
  0
LINE
  5
2CB
330
1F
100
AcDbEntity
  8
0
  6
Continuous
 62
     7
370
     0
100
AcDbLine
 10
174.0722570549
 20
177.4725647544
 30
0.0
 11
174.0722570549
 21
164.8725638067
 31
0.0
  0
LINE
  5
2CC
330
1F
100
AcDbEntity
  8
0
  6
Continuous
 62
     7
370
     0
100
AcDbLine
 10
158.1822566668
 20
177.4725647544
 30
0.0
 11
158.2327874358
 21
177.4725647544
 31
0.0
  0
LINE
  5
2CD
330
1F
100
AcDbEntity
  8
0
  6
Continuous
 62
     7
370
     0
100
AcDbLine
 10
158.1822566668
 20
164.8725638067
 30
0.0
 11
158.1822566668
 21
177.4725647544
 31
0.0
  0
ARC
  5
2CE
330
1F
100
AcDbEntity
  8
0
  6
Continuous
 62
     7
370
     0
100
AcDbCircle
 10
166.1272568609
 20
177.4725652255
 30
0.0
 40
7.945000000000007
100
AcDbArc
 50
129.0004592744
 51
180.0
  0
ARC
  5
2CF
330
1F
100
AcDbEntity
  8
0
  6
Continuous
 62
     7
370
     0
100
AcDbCircle
 10
166.1272568609
 20
177.4725652255
 30
0.0
 40
7.945000000000221
100
AcDbArc
 50
0.0
 51
50.9995407256
  0
LINE
  5
2D0
330
1F
100
AcDbEntity
  8
0
  6
Continuous
 62
     7
370
     0
100
AcDbLine
 10
168.1272569559
 20
232.6165208494
 30
0.0
 11
168.1272569559
 21
233.5201496159
 31
0.0
  0
LINE
  5
2D1
330
1F
100
AcDbEntity
  8
0
  6
Continuous
 62
     7
370
     0
100
AcDbLine
 10
168.1272569559
 20
232.6165208494
 30
0.0
 11
164.1272567659
 21
232.6165208494
 31
0.0
  0
LINE
  5
2D2
330
1F
100
AcDbEntity
  8
0
  6
Continuous
 62
     7
370
     0
100
AcDbLine
 10
164.1272567659
 20
232.6165208494
 30
0.0
 11
164.1272567659
 21
233.5201496159
 31
0.0
  0
LWPOLYLINE
  5
2D3
330
1F
100
AcDbEntity
  8
0
  6
Continuous
 62
     7
370
     0
100
AcDbPolyline
 90
       11
 70
   128
 43
0.0
 10
167.5772568424
 20
228.1396904861
 10
167.5552281531
 20
228.098086444
 10
167.3829936636
 20
228.0198851501
 10
167.0592988822
 20
227.9561379825
 10
166.6231860736
 20
227.9145339405
 10
166.1272568609
 20
227.9000798141
 10
165.6313276481
 20
227.9145339405
 10
165.1952148396
 20
227.9561379825
 10
164.8715200582
 20
228.0198851501
 10
164.6992855686
 20
228.098086444
 10
164.6772568793
 20
228.1396904861
  0
LWPOLYLINE
  5
2D4
330
1F
100
AcDbEntity
  8
0
  6
Continuous
 62
     7
370
     0
100
AcDbPolyline
 90
        9
 70
   128
 43
0.0
 10
160.4151267539
 20
236.5768695151
 10
160.4096547681
 20
236.5742171084
 10
160.4057446103
 20
236.5723470127
 10
160.403398143
 20
236.5712517773
 10
160.4026158321
 20
236.5709388529
 10
160.403398143
 20
236.5714082395
 10
160.4057446103
 20
236.5726524865
 10
160.4096547681
 20
236.5746790444
 10
160.4151267539
 20
236.5774879133
  0
ARC
  5
2D5
330
1F
100
AcDbEntity
  8
0
  6
Continuous
 62
     7
370
     0
100
AcDbCircle
 10
165.2269200553
 20
237.8831370856
 30
0.0
 40
4.985949231710408
100
AcDbArc
 50
186.5031332516
 51
195.1881594216
  0
LINE
  5
2D6
330
1F
100
AcDbEntity
  8
0
  6
Continuous
 62
     7
370
     0
100
AcDbLine
 10
160.2730520981
 20
237.3184407031
 30
0.0
 11
160.2730520981
 21
237.5130349671
 31
0.0
  0
ARC
  5
2D7
330
1F
100
AcDbEntity
  8
0
  6
Continuous
 62
     7
370
     0
100
AcDbCircle
 10
160.5050261169
 20
274.4873245633
 30
0.0
 40
36.97501728317364
100
AcDbArc
 50
269.6405351396
 51
269.8606935294
  0
ARC
  5
2D8
330
1F
100
AcDbEntity
  8
0
  6
Continuous
 62
     7
370
     0
100
AcDbCircle
 10
165.8797889291
 20
237.8824161266
 30
0.0
 40
5.47717375677898
100
AcDbArc
 50
176.1265479569
 51
183.8734520431
  0
ARC
  5
2D9
330
1F
100
AcDbEntity
  8
0
  6
Continuous
 62
     7
370
     0
100
AcDbCircle
 10
160.5050261169
 20
275.2273236788
 30
0.0
 40
36.97501728317364
100
AcDbArc
 50
269.6405351396
 51
269.8606935294
  0
LINE
  5
2DA
330
1F
100
AcDbEntity
  8
0
  6
Continuous
 62
     7
370
     0
100
AcDbLine
 10
160.2730520981
 20
238.2530340826
 30
0.0
 11
160.2730520981
 21
238.4479561721
 31
0.0
  0
ARC
  5
2DB
330
1F
100
AcDbEntity
  8
0
  6
Continuous
 62
     7
370
     0
100
AcDbCircle
 10
165.22709094
 20
237.8832270504
 30
0.0
 40
4.986122724859172
100
AcDbArc
 50
164.811991967
 51
173.4967153598
  0
LWPOLYLINE
  5
2DC
330
1F
100
AcDbEntity
  8
0
  6
Continuous
 62
     7
370
     0
100
AcDbPolyline
 90
        6
 70
   128
 43
0.0
 10
160.4026158321
 20
239.1960764205
 10
160.4026158321
 20
239.1960764205
 10
160.403398143
 20
239.1956070339
 10
160.4057446103
 20
239.1943627869
 10
160.4096547681
 20
239.192336229
 10
160.4151267539
 20
239.1895273601
  0
ARC
  5
2DD
330
1F
100
AcDbEntity
  8
0
  6
Continuous
 62
     7
370
     0
100
AcDbCircle
 10
165.8813556479
 20
237.8845556262
 30
0.0
 40
5.478739837015082
100
AcDbArc
 50
176.1272006876
 51
180.0050380158
  0
ARC
  5
2DE
330
1F
100
AcDbEntity
  8
0
  6
Continuous
 62
     7
370
     0
100
AcDbCircle
 10
160.5156220491
 20
198.1053160605
 30
0.0
 40
39.40941166188538
100
AcDbArc
 50
90.1461062796
 51
90.3526650513
  0
LINE
  5
2DF
330
1F
100
AcDbEntity
  8
0
  6
Continuous
 62
     7
370
     0
100
AcDbLine
 10
172.627256995
 20
237.8822559392
 30
0.0
 11
172.627256995
 21
239.3835106765
 31
0.0
  0
LINE
  5
2E0
330
1F
100
AcDbEntity
  8
0
  6
Continuous
 62
     7
370
     0
100
AcDbLine
 10
172.627256995
 20
236.3835045969
 30
0.0
 11
172.627256995
 21
237.8822559392
 31
0.0
  0
LINE
  5
2E1
330
1F
100
AcDbEntity
  8
0
  6
Continuous
 62
     7
370
     0
100
AcDbLine
 10
160.4151267539
 20
237.5130424177
 30
0.0
 11
160.2730520981
 21
237.5130349671
 31
0.0
  0
LINE
  5
2E2
330
1F
100
AcDbEntity
  8
0
  6
Continuous
 62
     7
370
     0
100
AcDbLine
 10
160.2730520981
 20
237.5139811908
 30
0.0
 11
160.4151267539
 21
237.5139662897
 31
0.0
  0
LINE
  5
2E3
330
1F
100
AcDbEntity
  8
0
  6
Continuous
 62
     7
370
     0
100
AcDbLine
 10
168.8272569309
 20
253.2451966678
 30
0.0
 11
163.4272567908
 21
253.2451966678
 31
0.0
  0
LINE
  5
2E4
330
1F
100
AcDbEntity
  8
0
  6
Continuous
 62
     7
370
     0
100
AcDbLine
 10
163.4272567908
 20
253.2451966678
 30
0.0
 11
163.4272567908
 21
253.820947734
 31
0.0
  0
LINE
  5
2E5
330
1F
100
AcDbEntity
  8
0
  6
Continuous
 62
     7
370
     0
100
AcDbLine
 10
163.4272567908
 20
253.820947734
 30
0.0
 11
168.8272569309
 21
253.820947734
 31
0.0
  0
LINE
  5
2E6
330
1F
100
AcDbEntity
  8
0
  6
Continuous
 62
     7
370
     0
100
AcDbLine
 10
168.8272569309
 20
253.820947734
 30
0.0
 11
168.8272569309
 21
253.2451966678
 31
0.0
  0
LINE
  5
2E7
330
1F
100
AcDbEntity
  8
0
  6
Continuous
 62
     7
370
     0
100
AcDbLine
 10
169.6272569689
 20
233.5201496159
 30
0.0
 11
169.6272569689
 21
253.2451966678
 31
0.0
  0
LINE
  5
2E8
330
1F
100
AcDbEntity
  8
0
  6
Continuous
 62
     7
370
     0
100
AcDbLine
 10
169.6272569689
 20
233.5201496159
 30
0.0
 11
162.6272567528
 21
233.5201496159
 31
0.0
  0
LINE
  5
2E9
330
1F
100
AcDbEntity
  8
0
  6
Continuous
 62
     7
370
     0
100
AcDbLine
 10
162.6272567528
 20
233.5201496159
 30
0.0
 11
162.6272567528
 21
253.2451966678
 31
0.0
  0
LINE
  5
2EA
330
1F
100
AcDbEntity
  8
0
  6
Continuous
 62
     7
370
     0
100
AcDbLine
 10
163.4272567908
 20
253.2451966678
 30
0.0
 11
162.6272567528
 21
253.2451966678
 31
0.0
  0
LINE
  5
2EB
330
1F
100
AcDbEntity
  8
0
  6
Continuous
 62
     7
370
     0
100
AcDbLine
 10
169.6272569689
 20
253.2451966678
 30
0.0
 11
168.8272569309
 21
253.2451966678
 31
0.0
  0
LINE
  5
2EC
330
1F
100
AcDbEntity
  8
0
  6
Continuous
 62
     7
370
     0
100
AcDbLine
 10
169.6272569689
 20
254.0714288031
 30
0.0
 11
169.6272569689
 21
253.2451966678
 31
0.0
  0
LINE
  5
2ED
330
1F
100
AcDbEntity
  8
0
  6
Continuous
 62
     7
370
     0
100
AcDbLine
 10
168.8272569309
 20
253.3278161561
 30
0.0
 11
169.1272568869
 21
253.3278161561
 31
0.0
  0
LINE
  5
2EE
330
1F
100
AcDbEntity
  8
0
  6
Continuous
 62
     7
370
     0
100
AcDbLine
 10
169.1272568869
 20
253.3278161561
 30
0.0
 11
169.1272568869
 21
254.0714288031
 31
0.0
  0
LINE
  5
2EF
330
1F
100
AcDbEntity
  8
0
  6
Continuous
 62
     7
370
     0
100
AcDbLine
 10
169.6272569689
 20
254.0714288031
 30
0.0
 11
169.1272568869
 21
254.0714288031
 31
0.0
  0
LINE
  5
2F0
330
1F
100
AcDbEntity
  8
0
  6
Continuous
 62
     7
370
     0
100
AcDbLine
 10
163.1272568348
 20
254.0714288031
 30
0.0
 11
163.1272568348
 21
253.3278161561
 31
0.0
  0
LINE
  5
2F1
330
1F
100
AcDbEntity
  8
0
  6
Continuous
 62
     7
370
     0
100
AcDbLine
 10
163.1272568348
 20
253.3278161561
 30
0.0
 11
163.4272567908
 21
253.3278161561
 31
0.0
  0
LINE
  5
2F2
330
1F
100
AcDbEntity
  8
0
  6
Continuous
 62
     7
370
     0
100
AcDbLine
 10
162.6272567528
 20
253.2451966678
 30
0.0
 11
162.6272567528
 21
254.0714288031
 31
0.0
  0
LINE
  5
2F3
330
1F
100
AcDbEntity
  8
0
  6
Continuous
 62
     7
370
     0
100
AcDbLine
 10
163.1272568348
 20
254.0714288031
 30
0.0
 11
162.6272567528
 21
254.0714288031
 31
0.0
  0
LINE
  5
2F4
330
1F
100
AcDbEntity
  8
0
  6
Continuous
 62
     7
370
     0
100
AcDbLine
 10
168.8272569309
 20
254.5645529305
 30
0.0
 11
163.4272567908
 21
254.5645529305
 31
0.0
  0
LINE
  5
2F5
330
1F
100
AcDbEntity
  8
0
  6
Continuous
 62
     7
370
     0
100
AcDbLine
 10
163.4272567908
 20
254.5645529305
 30
0.0
 11
163.4272567908
 21
253.820947734
 31
0.0
  0
LINE
  5
2F6
330
1F
100
AcDbEntity
  8
0
  6
Continuous
 62
     7
370
     0
100
AcDbLine
 10
168.8272569309
 20
254.5645529305
 30
0.0
 11
168.8272569309
 21
253.820947734
 31
0.0
  0
LINE
  5
2F7
330
1F
100
AcDbEntity
  8
0
  6
Continuous
 62
     7
370
     0
100
AcDbLine
 10
169.6272569689
 20
237.8812799131
 30
0.0
 11
171.7816365863
 21
237.8812799131
 31
0.0
  0
SPLINE
  5
2F8
330
1F
100
AcDbEntity
  8
0
  6
Continuous
 62
     7
370
     0
100
AcDbSpline
210
0.0
220
0.0
230
1.0
 70
     8
 71
     3
 72
    10
 73
     6
 74
     0
 42
0.000000001
 43
0.00000001
 40
0.0
 40
0.0
 40
0.0
 40
0.0
 40
0.5
 40
0.5
 40
1.0
 40
1.0
 40
1.0
 40
1.0
 10
172.0272568608571
 20
236.5068390263393
 30
0.0
 10
172.0272568608571
 20
236.7401297240788
 30
0.0
 10
172.0037372562891
 20
236.9731155782676
 30
0.0
 10
171.918167430393
 20
237.4308527984579
 30
0.0
 10
171.8564267933931
 20
237.6570032726025
 30
0.0
 10
171.7816367677959
 20
237.8812825435062
 30
0.0
  0
SPLINE
  5
2F9
330
1F
100
AcDbEntity
  8
0
  6
Continuous
 62
     7
370
     0
100
AcDbSpline
210
0.0
220
0.0
230
1.0
 70
     8
 71
     3
 72
     8
 73
     4
 74
     0
 42
0.000000001
 43
0.00000001
 40
0.0
 40
0.0
 40
0.0
 40
0.0
 40
1.0
 40
1.0
 40
1.0
 40
1.0
 10
171.7816367677965
 20
235.1323955091723
 30
0.0
 10
171.9315908644491
 20
235.5820757332089
 30
0.0
 10
172.0272568608571
 20
236.0385080986732
 30
0.0
 10
172.0272568608571
 20
236.5068390263393
 30
0.0
  0
LINE
  5
2FA
330
1F
100
AcDbEntity
  8
0
  6
Continuous
 62
     7
370
     0
100
AcDbLine
 10
169.6272569689
 20
235.1323956524
 30
0.0
 11
171.7816365863
 21
235.1323956524
 31
0.0
  0
SPLINE
  5
2FB
330
1F
100
AcDbEntity
  8
0
  6
Continuous
 62
     7
370
     0
100
AcDbSpline
210
0.0
220
0.0
230
1.0
 70
     8
 71
     3
 72
    10
 73
     6
 74
     0
 42
0.000000001
 43
0.00000001
 40
0.0
 40
0.0
 40
0.0
 40
0.0
 40
0.5
 40
0.5
 40
1.0
 40
1.0
 40
1.0
 40
1.0
 10
172.0272568608571
 20
239.2568383515078
 30
0.0
 10
172.0272568608571
 20
239.0242539373481
 30
0.0
 10
172.0035571699882
 20
238.7885070257668
 30
0.0
 10
171.9174654719413
 20
238.3290394710318
 30
0.0
 10
171.8557467125585
 20
238.103702248851
 30
0.0
 10
171.7816367677952
 20
237.8812825435062
 30
0.0
  0
LINE
  5
2FC
330
1F
100
AcDbEntity
  8
0
  6
Continuous
 62
     7
370
     0
100
AcDbLine
 10
172.0272570829
 20
239.2568359052
 30
0.0
 11
172.0272570829
 21
236.5068415081
 31
0.0
  0
LINE
  5
2FD
330
1F
100
AcDbEntity
  8
0
  6
Continuous
 62
     7
370
     0
100
AcDbLine
 10
169.6272569689
 20
240.6323918973
 30
0.0
 11
171.7816365863
 21
240.6323918973
 31
0.0
  0
SPLINE
  5
2FE
330
1F
100
AcDbEntity
  8
0
  6
Continuous
 62
     7
370
     0
100
AcDbSpline
210
0.0
220
0.0
230
1.0
 70
     8
 71
     3
 72
    10
 73
     6
 74
     0
 42
0.000000001
 43
0.00000001
 40
0.0
 40
0.0
 40
0.0
 40
0.0
 40
0.5
 40
0.5
 40
1.0
 40
1.0
 40
1.0
 40
1.0
 10
171.7816367677952
 20
240.6323941595095
 30
0.0
 10
171.8561809712143
 20
240.4086711515839
 30
0.0
 10
171.9187038155724
 20
240.1795349026118
 30
0.0
 10
172.0041951194885
 20
239.720225002161
 30
0.0
 10
172.0272568608571
 20
239.4892846611175
 30
0.0
 10
172.0272568608571
 20
239.2568383515078
 30
0.0
  0
SPLINE
  5
2FF
330
1F
100
AcDbEntity
  8
0
  6
Continuous
 62
     7
370
     0
100
AcDbSpline
210
0.0
220
0.0
230
1.0
 70
     8
 71
     3
 72
     8
 73
     4
 74
     0
 42
0.000000001
 43
0.00000001
 40
0.0
 40
0.0
 40
0.0
 40
0.0
 40
1.0
 40
1.0
 40
1.0
 40
1.0
 10
171.7816367677965
 20
240.6323941595095
 30
0.0
 10
171.9315908644491
 20
240.6327580705655
 30
0.0
 10
172.0272568608571
 20
240.6331274459021
 30
0.0
 10
172.0272568608571
 20
240.6335064503443
 30
0.0
  0
LINE
  5
300
330
1F
100
AcDbEntity
  8
0
  6
Continuous
 62
     7
370
     0
100
AcDbLine
 10
172.0272570829
 20
239.2568359052
 30
0.0
 11
172.0272570829
 21
240.6335094844
 31
0.0
  0
SPLINE
  5
301
330
1F
100
AcDbEntity
  8
0
  6
Continuous
 62
     7
370
     0
100
AcDbSpline
210
0.0
220
0.0
230
1.0
 70
     8
 71
     3
 72
    10
 73
     6
 74
     0
 42
0.000000001
 43
0.00000001
 40
0.0
 40
0.0
 40
0.0
 40
0.0
 40
0.5
 40
0.5
 40
1.0
 40
1.0
 40
1.0
 40
1.0
 10
172.0272568608571
 20
235.1335078000072
 30
0.0
 10
172.0272568608571
 20
235.1333190057049
 30
0.0
 10
172.0037372562891
 20
235.1331304581022
 30
0.0
 10
171.918167430393
 20
235.1327600267906
 30
0.0
 10
171.8564267933931
 20
235.1325770108306
 30
0.0
 10
171.7816367677959
 20
235.1323955091724
 30
0.0
  0
LINE
  5
302
330
1F
100
AcDbEntity
  8
0
  6
Continuous
 62
     7
370
     0
100
AcDbLine
 10
172.0272570829
 20
235.1335057889
 30
0.0
 11
172.0272570829
 21
236.5068415081
 31
0.0
  0
LINE
  5
303
330
1F
100
AcDbEntity
  8
0
  6
Continuous
 62
     7
370
     0
100
AcDbLine
 10
169.6272569689
 20
240.6346196209
 30
0.0
 11
171.7816365863
 21
240.6346196209
 31
0.0
  0
SPLINE
  5
304
330
1F
100
AcDbEntity
  8
0
  6
Continuous
 62
     7
370
     0
100
AcDbSpline
210
0.0
220
0.0
230
1.0
 70
     8
 71
     3
 72
    10
 73
     6
 74
     0
 42
0.000000001
 43
0.00000001
 40
0.0
 40
0.0
 40
0.0
 40
0.0
 40
0.5
 40
0.5
 40
1.0
 40
1.0
 40
1.0
 40
1.0
 10
172.0272568608571
 20
240.6335064503443
 30
0.0
 10
172.0272568608571
 20
240.6336952446466
 30
0.0
 10
172.0037372562891
 20
240.6338837922493
 30
0.0
 10
171.918167430393
 20
240.6342542235609
 30
0.0
 10
171.8564267933931
 20
240.6344372395209
 30
0.0
 10
171.7816367677959
 20
240.6346187411791
 30
0.0
  0
LINE
  5
305
330
1F
100
AcDbEntity
  8
0
  6
Continuous
 62
     8
370
     0
100
AcDbLine
 10
161.1272569726
 20
229.220285443
 30
0.0
 11
164.6772568793
 21
229.220285443
 31
0.0
  0
LINE
  5
306
330
1F
100
AcDbEntity
  8
0
  6
Continuous
 62
     8
370
     0
100
AcDbLine
 10
167.5772568424
 20
229.220285443
 30
0.0
 11
171.1272567491
 21
229.220285443
 31
0.0
  0
LINE
  5
307
330
1F
100
AcDbEntity
  8
0
  6
Continuous
 62
     8
370
     0
100
AcDbLine
 10
169.6272569689
 20
233.6106220161
 30
0.0
 11
171.1272567491
 21
233.6106220161
 31
0.0
  0
LINE
  5
308
330
1F
100
AcDbEntity
  8
0
  6
Continuous
 62
     8
370
     0
100
AcDbLine
 10
162.6272567528
 20
233.6106220161
 30
0.0
 11
161.1272569726
 21
233.6106220161
 31
0.0
  0
LINE
  5
309
330
1F
100
AcDbEntity
  8
0
  6
Continuous
 62
     8
370
     0
100
AcDbLine
 10
169.6272569689
 20
246.9276407634
 30
0.0
 11
171.1272567491
 21
246.9276407634
 31
0.0
  0
LINE
  5
30A
330
1F
100
AcDbEntity
  8
0
  6
Continuous
 62
     8
370
     0
100
AcDbLine
 10
162.6272567528
 20
246.9276407634
 30
0.0
 11
161.1272569726
 21
246.9276407634
 31
0.0
  0
SPLINE
  5
30B
330
1F
100
AcDbEntity
  8
0
  6
Continuous
 62
     8
370
     0
100
AcDbSpline
210
0.0
220
0.0
230
1.0
 70
     8
 71
     3
 72
    12
 73
     8
 74
     0
 42
0.000000001
 43
0.00000001
 40
0.0
 40
0.0
 40
0.0
 40
0.0
 40
0.2378614143733123
 40
0.4757232025881849
 40
0.7135846677931458
 40
0.9514462857629419
 40
1.0
 40
1.0
 40
1.0
 40
1.0
 10
158.7327106836189
 20
177.4725647543938
 30
0.0
 10
158.7604532612873
 20
177.9562729606536
 30
0.0
 10
158.8159384602263
 20
178.9236901334068
 30
0.0
 10
159.2523069401779
 20
180.3236904340201
 30
0.0
 10
159.9483552419231
 20
181.5955623629823
 30
0.0
 10
160.594471037006
 20
182.4647452044306
 30
0.0
 10
161.0500297292578
 20
182.8275162264776
 30
0.0
 10
161.1272569726158
 20
182.8890139137775
 30
0.0
  0
SPLINE
  5
30C
330
1F
100
AcDbEntity
  8
0
  6
Continuous
 62
     8
370
     0
100
AcDbSpline
210
0.0
220
0.0
230
1.0
 70
     8
 71
     3
 72
    12
 73
     8
 74
     0
 42
0.000000001
 43
0.00000001
 40
0.0
 40
0.0
 40
0.0
 40
0.0
 40
0.0485537142370581
 40
0.2864153322068542
 40
0.5242767974118151
 40
0.7621385856266877
 40
0.9999999999999999
 40
0.9999999999999999
 40
0.9999999999999999
 40
0.9999999999999999
 10
171.1272567490984
 20
182.8890139137775
 30
0.0
 10
171.2044839924564
 20
182.8275162264776
 30
0.0
 10
171.6600426847083
 20
182.4647452044306
 30
0.0
 10
172.3061584797912
 20
181.5955623629822
 30
0.0
 10
173.0022067815364
 20
180.3236904340201
 30
0.0
 10
173.4385752614879
 20
178.9236901334068
 30
0.0
 10
173.494060460427
 20
177.9562729606536
 30
0.0
 10
173.5218030380954
 20
177.4725647543938
 30
0.0
  0
SPLINE
  5
30D
330
1F
100
AcDbEntity
  8
0
  6
Continuous
 62
     8
370
     0
100
AcDbSpline
210
0.0
220
0.0
230
1.0
 70
     8
 71
     3
 72
    12
 73
     8
 74
     0
 42
0.000000001
 43
0.00000001
 40
0.0
 40
0.0
 40
0.0
 40
0.0
 40
0.2228813392827209
 40
0.4457625533077534
 40
0.6686437488027895
 40
0.8915247621439378
 40
0.9999999999999999
 40
0.9999999999999999
 40
0.9999999999999999
 40
0.9999999999999999
 10
158.2327874357749
 20
177.4725647543938
 30
0.0
 10
158.2623112158117
 20
177.9890782719239
 30
0.0
 10
158.3213587592932
 20
179.0221050167073
 30
0.0
 10
158.7886395443138
 20
180.5152152221552
 30
0.0
 10
159.5263890927146
 20
181.8789243258209
 30
0.0
 10
160.3212065012709
 20
182.9077108859328
 30
0.0
 10
160.9284614821171
 20
183.3785029042233
 30
0.0
 10
161.1272569726158
 20
183.5326248680622
 30
0.0
  0
SPLINE
  5
30E
330
1F
100
AcDbEntity
  8
0
  6
Continuous
 62
     8
370
     0
100
AcDbSpline
210
0.0
220
0.0
230
1.0
 70
     8
 71
     3
 72
    12
 73
     8
 74
     0
 42
0.000000001
 43
0.00000001
 40
0.0
 40
0.0
 40
0.0
 40
0.0
 40
0.1084752378560621
 40
0.3313562511972103
 40
0.5542374466922465
 40
0.7771186607172791
 40
0.9999999999999999
 40
0.9999999999999999
 40
0.9999999999999999
 40
0.9999999999999999
 10
171.1272567490984
 20
183.5326248680622
 30
0.0
 10
171.3260522395971
 20
183.3785029042233
 30
0.0
 10
171.9333072204434
 20
182.9077108859328
 30
0.0
 10
172.7281246289997
 20
181.8789243258209
 30
0.0
 10
173.4658741774005
 20
180.5152152221552
 30
0.0
 10
173.9331549624211
 20
179.0221050167074
 30
0.0
 10
173.9922025059025
 20
177.9890782719239
 30
0.0
 10
174.0217262859393
 20
177.4725647543938
 30
0.0
  0
LINE
  5
30F
330
1F
100
AcDbEntity
  8
0
  6
Continuous
 62
     8
370
     0
100
AcDbLine
 10
161.002628317
 20
237.8812724625
 30
0.0
 11
161.002628317
 21
240.5579233443
 31
0.0
  0
LINE
  5
310
330
1F
100
AcDbEntity
  8
0
  6
Continuous
 62
     8
370
     0
100
AcDbLine
 10
161.002628317
 20
235.2090919291
 30
0.0
 11
161.002628317
 21
237.8812724625
 31
0.0
  0
LINE
  5
311
330
1F
100
AcDbEntity
  8
0
  6
Continuous
 62
     8
370
     0
100
AcDbLine
 10
161.2307585756
 20
237.8811681544
 30
0.0
 11
161.2307585756
 21
240.6835103308
 31
0.0
  0
LINE
  5
312
330
1F
100
AcDbEntity
  8
0
  6
Continuous
 62
     8
370
     0
100
AcDbLine
 10
161.2307585756
 20
235.0835049426
 30
0.0
 11
161.2307585756
 21
237.8811681544
 31
0.0
  0
DIMENSION
  5
313
330
1F
100
AcDbEntity
  8
0
  6
Continuous
 62
     7
370
     0
100
AcDbDimension
  2
_D_12
 10
171.1272568609
 20
269.2892743854
 30
0.0
 11
166.1272568609
 21
269.2892743854
 31
0.0
 70
   160
  1
<>
 71
     2
 42
-1.0
  3
SLDDIMSTYLE1
100
AcDbAlignedDimension
 13
161.1272568609
 23
258.5200250411
 33
0.0
 14
171.1272568609
 24
256.2117964545
 34
0.0
100
AcDbRotatedDimension
  0
DIMENSION
  5
31F
330
1F
100
AcDbEntity
  8
0
  6
Continuous
 62
     7
370
     0
100
AcDbDimension
  2
_D_13
 10
176.1272568609
 20
92.738417022
 30
0.0
 11
166.1272568609
 21
92.738417022
 31
0.0
 70
   160
  1
<>
 71
     2
 42
-1.0
  3
SLDDIMSTYLE0
100
AcDbAlignedDimension
 13
156.1272568609
 23
122.5774376455
 33
0.0
 14
176.1272568609
 24
122.5774376455
 34
0.0
100
AcDbRotatedDimension
  0
ENDSEC
  0
SECTION
  2
OBJECTS
  0
DICTIONARY
  5
C
330
0
100
AcDbDictionary
281
     1
  3
ACAD_GROUP
350
D
  3
ACAD_LAYOUT
350
1A
  3
ACAD_MLINESTYLE
350
17
  3
ACAD_PLOTSETTINGS
350
19
  3
ACAD_PLOTSTYLENAME
350
E
  3
ACAD_SCALELIST
350
47
  0
DICTIONARY
  5
D
102
{ACAD_REACTORS
330
C
102
}
330
C
100
AcDbDictionary
281
     1
  0
DICTIONARY
  5
1A
102
{ACAD_REACTORS
330
C
102
}
330
C
100
AcDbDictionary
281
     1
  3
Layout1
350
1E
  3
Layout2
350
26
  3
Model
350
22
  0
DICTIONARY
  5
17
102
{ACAD_REACTORS
330
C
102
}
330
C
100
AcDbDictionary
281
     1
  3
Standard
350
18
  0
DICTIONARY
  5
19
102
{ACAD_REACTORS
330
C
102
}
330
C
100
AcDbDictionary
281
     1
  0
ACDBDICTIONARYWDFLT
  5
E
102
{ACAD_REACTORS
330
C
102
}
330
C
100
AcDbDictionary
281
     1
  3
Normal
350
F
100
AcDbDictionaryWithDefault
340
F
  0
DICTIONARY
  5
47
102
{ACAD_REACTORS
330
C
102
}
330
C
100
AcDbDictionary
281
     1
  3
A0
350
48
  3
A1
350
49
  3
A2
350
4A
  3
A3
350
4B
  3
A4
350
4C
  3
A5
350
4D
  3
A6
350
4E
  3
A7
350
4F
  3
A8
350
50
  3
A9
350
51
  3
B0
350
52
  3
B1
350
53
  3
B2
350
54
  3
B3
350
55
  3
B4
350
56
  3
B5
350
57
  3
B6
350
58
  3
B7
350
59
  3
B8
350
5A
  3
B9
350
5B
  3
C0
350
5C
  3
C1
350
5D
  3
C2
350
5E
  3
C3
350
5F
  3
C4
350
60
  3
C5
350
61
  3
C6
350
62
  3
C7
350
63
  3
C8
350
64
  3
C9
350
65
  3
D0
350
66
  3
D1
350
67
  3
D2
350
68
  0
LAYOUT
  5
1E
102
{ACAD_REACTORS
330
1A
102
}
330
1A
100
AcDbPlotSettings
  1

  2
none_device
  4

  6

 40
0.0
 41
0.0
 42
0.0
 43
0.0
 44
0.0
 45
0.0
 46
0.0
 47
0.0
 48
0.0
 49
0.0
140
0.0
141
0.0
142
1.0
143
1.0
 70
   688
 72
     1
 73
     0
 74
     5
  7

 75
    16
147
1.0
148
0.0
149
0.0
100
AcDbLayout
  1
Layout1
 70
     1
 71
     1
 10
0.0
 20
0.0
 11
420.0
 21
297.0
 12
0.0
 22
0.0
 32
0.0
 14
1.0000000000E+20
 24
1.0000000000E+20
 34
1.0000000000E+20
 15
-1.0000000000E+20
 25
-1.0000000000E+20
 35
-1.0000000000E+20
146
0.0
 13
0.0
 23
0.0
 33
0.0
 16
1.0
 26
0.0
 36
0.0
 17
0.0
 27
1.0
 37
0.0
 76
     0
330
1B
  0
LAYOUT
  5
26
102
{ACAD_REACTORS
330
1A
102
}
330
1A
100
AcDbPlotSettings
  1

  2
none_device
  4

  6

 40
0.0
 41
0.0
 42
0.0
 43
0.0
 44
0.0
 45
0.0
 46
0.0
 47
0.0
 48
0.0
 49
0.0
140
0.0
141
0.0
142
1.0
143
1.0
 70
   688
 72
     1
 73
     0
 74
     5
  7

 75
    16
147
1.0
148
0.0
149
0.0
100
AcDbLayout
  1
Layout2
 70
     1
 71
     2
 10
0.0
 20
0.0
 11
0.0
 21
0.0
 12
0.0
 22
0.0
 32
0.0
 14
0.0
 24
0.0
 34
0.0
 15
0.0
 25
0.0
 35
0.0
146
0.0
 13
0.0
 23
0.0
 33
0.0
 16
1.0
 26
0.0
 36
0.0
 17
0.0
 27
1.0
 37
0.0
 76
     0
330
23
  0
LAYOUT
  5
22
102
{ACAD_REACTORS
330
1A
102
}
330
1A
100
AcDbPlotSettings
  1

  2
none_device
  4
Letter_(8.50_x_11.00_Inches)
  6

 40
6.35
 41
6.35
 42
6.35000508
 43
6.35000508
 44
215.9
 45
279.4
 46
0.0
 47
0.0
 48
0.0
 49
0.0
140
0.0
141
0.0
142
1.0
143
1.0
 70
  1712
 72
     1
 73
     0
 74
     0
  7

 75
     0
147
1.0
148
0.0
149
0.0
100
AcDbLayout
  1
Model
 70
     1
 71
     0
 10
0.0
 20
0.0
 11
210.0
 21
297.0
 12
0.0
 22
0.0
 32
0.0
 14
0.0
 24
0.0
 34
0.0
 15
210.0
 25
297.0
 35
0.0
146
0.0
 13
0.0
 23
0.0
 33
0.0
 16
1.0
 26
0.0
 36
0.0
 17
0.0
 27
1.0
 37
0.0
 76
     0
330
1F
331
29
  0
MLINESTYLE
  5
18
102
{ACAD_REACTORS
330
17
102
}
330
17
100
AcDbMlineStyle
  2
Standard
 70
     0
  3

 62
   256
 51
90.0
 52
90.0
 71
     2
 49
0.5
 62
   256
  6
BYLAYER
 49
-0.5
 62
   256
  6
BYLAYER
  0
ACDBPLACEHOLDER
  5
F
102
{ACAD_REACTORS
330
E
102
}
330
E
  0
SCALE
  5
48
102
{ACAD_REACTORS
330
47
102
}
330
47
100
AcDbScale
 70
     0
300
1:1
140
1.0
141
1.0
290
     1
  0
SCALE
  5
49
102
{ACAD_REACTORS
330
47
102
}
330
47
100
AcDbScale
 70
     0
300
1:2
140
1.0
141
2.0
290
     0
  0
SCALE
  5
4A
102
{ACAD_REACTORS
330
47
102
}
330
47
100
AcDbScale
 70
     0
300
1:4
140
1.0
141
4.0
290
     0
  0
SCALE
  5
4B
102
{ACAD_REACTORS
330
47
102
}
330
47
100
AcDbScale
 70
     0
300
1:5
140
1.0
141
5.0
290
     0
  0
SCALE
  5
4C
102
{ACAD_REACTORS
330
47
102
}
330
47
100
AcDbScale
 70
     0
300
1:8
140
1.0
141
8.0
290
     0
  0
SCALE
  5
4D
102
{ACAD_REACTORS
330
47
102
}
330
47
100
AcDbScale
 70
     0
300
1:10
140
1.0
141
10.0
290
     0
  0
SCALE
  5
4E
102
{ACAD_REACTORS
330
47
102
}
330
47
100
AcDbScale
 70
     0
300
1:16
140
1.0
141
16.0
290
     0
  0
SCALE
  5
4F
102
{ACAD_REACTORS
330
47
102
}
330
47
100
AcDbScale
 70
     0
300
1:20
140
1.0
141
20.0
290
     0
  0
SCALE
  5
50
102
{ACAD_REACTORS
330
47
102
}
330
47
100
AcDbScale
 70
     0
300
1:30
140
1.0
141
30.0
290
     0
  0
SCALE
  5
51
102
{ACAD_REACTORS
330
47
102
}
330
47
100
AcDbScale
 70
     0
300
1:40
140
1.0
141
40.0
290
     0
  0
SCALE
  5
52
102
{ACAD_REACTORS
330
47
102
}
330
47
100
AcDbScale
 70
     0
300
1:50
140
1.0
141
50.0
290
     0
  0
SCALE
  5
53
102
{ACAD_REACTORS
330
47
102
}
330
47
100
AcDbScale
 70
     0
300
1:100
140
1.0
141
100.0
290
     0
  0
SCALE
  5
54
102
{ACAD_REACTORS
330
47
102
}
330
47
100
AcDbScale
 70
     0
300
2:1
140
2.0
141
1.0
290
     0
  0
SCALE
  5
55
102
{ACAD_REACTORS
330
47
102
}
330
47
100
AcDbScale
 70
     0
300
4:1
140
4.0
141
1.0
290
     0
  0
SCALE
  5
56
102
{ACAD_REACTORS
330
47
102
}
330
47
100
AcDbScale
 70
     0
300
8:1
140
8.0
141
1.0
290
     0
  0
SCALE
  5
57
102
{ACAD_REACTORS
330
47
102
}
330
47
100
AcDbScale
 70
     0
300
10:1
140
10.0
141
1.0
290
     0
  0
SCALE
  5
58
102
{ACAD_REACTORS
330
47
102
}
330
47
100
AcDbScale
 70
     0
300
100:1
140
100.0
141
1.0
290
     0
  0
SCALE
  5
59
102
{ACAD_REACTORS
330
47
102
}
330
47
100
AcDbScale
 70
     0
300
1/128" = 1'-0"
140
0.0078125
141
12.0
290
     0
  0
SCALE
  5
5A
102
{ACAD_REACTORS
330
47
102
}
330
47
100
AcDbScale
 70
     0
300
1/64" = 1'-0"
140
0.015625
141
12.0
290
     0
  0
SCALE
  5
5B
102
{ACAD_REACTORS
330
47
102
}
330
47
100
AcDbScale
 70
     0
300
1/32" = 1'-0"
140
0.03125
141
12.0
290
     0
  0
SCALE
  5
5C
102
{ACAD_REACTORS
330
47
102
}
330
47
100
AcDbScale
 70
     0
300
1/16" = 1'-0"
140
0.0625
141
12.0
290
     0
  0
SCALE
  5
5D
102
{ACAD_REACTORS
330
47
102
}
330
47
100
AcDbScale
 70
     0
300
3/32" = 1'-0"
140
0.09375
141
12.0
290
     0
  0
SCALE
  5
5E
102
{ACAD_REACTORS
330
47
102
}
330
47
100
AcDbScale
 70
     0
300
1/8" = 1'-0"
140
0.125
141
12.0
290
     0
  0
SCALE
  5
5F
102
{ACAD_REACTORS
330
47
102
}
330
47
100
AcDbScale
 70
     0
300
3/16" = 1'-0"
140
0.1875
141
12.0
290
     0
  0
SCALE
  5
60
102
{ACAD_REACTORS
330
47
102
}
330
47
100
AcDbScale
 70
     0
300
1/4" = 1'-0"
140
0.25
141
12.0
290
     0
  0
SCALE
  5
61
102
{ACAD_REACTORS
330
47
102
}
330
47
100
AcDbScale
 70
     0
300
3/8" = 1'-0"
140
0.375
141
12.0
290
     0
  0
SCALE
  5
62
102
{ACAD_REACTORS
330
47
102
}
330
47
100
AcDbScale
 70
     0
300
1/2" = 1'-0"
140
0.5
141
12.0
290
     0
  0
SCALE
  5
63
102
{ACAD_REACTORS
330
47
102
}
330
47
100
AcDbScale
 70
     0
300
3/4" = 1'-0"
140
0.75
141
12.0
290
     0
  0
SCALE
  5
64
102
{ACAD_REACTORS
330
47
102
}
330
47
100
AcDbScale
 70
     0
300
1" = 1'-0"
140
1.0
141
12.0
290
     0
  0
SCALE
  5
65
102
{ACAD_REACTORS
330
47
102
}
330
47
100
AcDbScale
 70
     0
300
1-1/2" = 1'-0"
140
1.5
141
12.0
290
     0
  0
SCALE
  5
66
102
{ACAD_REACTORS
330
47
102
}
330
47
100
AcDbScale
 70
     0
300
3" = 1'-0"
140
3.0
141
12.0
290
     0
  0
SCALE
  5
67
102
{ACAD_REACTORS
330
47
102
}
330
47
100
AcDbScale
 70
     0
300
6" = 1'-0"
140
6.0
141
12.0
290
     0
  0
SCALE
  5
68
102
{ACAD_REACTORS
330
47
102
}
330
47
100
AcDbScale
 70
     0
300
1'-0" = 1'-0"
140
12.0
141
12.0
290
     0
  0
ENDSEC
  0
EOF
