  0
SECTION
  2
HEADER
  9
$ACADVER
  1
AC1015
  9
$ACADMAINTVER
 70
     6
  9
$DWGCODEPAGE
  3
DOS932
  9
$INSBASE
 10
0.0
 20
0.0
 30
0.0
  9
$EXTMIN
 10
0.0
 20
0.0
 30
0.0
  9
$EXTMAX
 10
210.0
 20
297.0
 30
0.0
  9
$LIMMIN
 10
0.0
 20
0.0
  9
$LIMMAX
 10
210.0
 20
297.0
  9
$ORTHOMODE
 70
     0
  9
$REGENMODE
 70
     1
  9
$FILLMODE
 70
     1
  9
$QTEXTMODE
 70
     0
  9
$MIRRTEXT
 70
     1
  9
$LTSCALE
 40
1.0
  9
$ATTMODE
 70
     1
  9
$TEXTSIZE
 40
3.5
  9
$TRACEWID
 40
1.0
  9
$TEXTSTYLE
  7
Standard
  9
$CLAYER
  8
0
  9
$CELTYPE
  6
ByLayer
  9
$CECOLOR
 62
   256
  9
$CELTSCALE
 40
1.0
  9
$DISPSILH
 70
     0
  9
$DIMSCALE
 40
1.0
  9
$DIMASZ
 40
3.0
  9
$DIMEXO
 40
1.0
  9
$DIMDLI
 40
3.75
  9
$DIMRND
 40
0.0
  9
$DIMDLE
 40
0.0
  9
$DIMEXE
 40
1.0
  9
$DIMTP
 40
0.0
  9
$DIMTM
 40
0.0
  9
$DIMTXT
 40
3.5
  9
$DIMCEN
 40
2.5
  9
$DIMTSZ
 40
0.0
  9
$DIMTOL
 70
     0
  9
$DIMLIM
 70
     0
  9
$DIMTIH
 70
     1
  9
$DIMTOH
 70
     1
  9
$DIMSE1
 70
     0
  9
$DIMSE2
 70
     0
  9
$DIMTAD
 70
     1
  9
$DIMZIN
 70
     0
  9
$DIMBLK
  1

  9
$DIMASO
 70
     1
  9
$DIMSHO
 70
     1
  9
$DIMPOST
  1

  9
$DIMAPOST
  1

  9
$DIMALT
 70
     0
  9
$DIMALTD
 70
     3
  9
$DIMALTF
 40
0.0393700787
  9
$DIMLFAC
 40
1.0
  9
$DIMTOFL
 70
     1
  9
$DIMTVP
 40
0.0
  9
$DIMTIX
 70
     0
  9
$DIMSOXD
 70
     0
  9
$DIMSAH
 70
     0
  9
$DIMBLK1
  1

  9
$DIMBLK2
  1

  9
$DIMSTYLE
  2
ISO-25
  9
$DIMCLRD
 70
     0
  9
$DIMCLRE
 70
     0
  9
$DIMCLRT
 70
     0
  9
$DIMTFAC
 40
1.0
  9
$DIMGAP
 40
1.524
  9
$DIMJUST
 70
     0
  9
$DIMSD1
 70
     0
  9
$DIMSD2
 70
     0
  9
$DIMTOLJ
 70
     0
  9
$DIMTZIN
 70
     0
  9
$DIMALTZ
 70
     0
  9
$DIMALTTZ
 70
     0
  9
$DIMUPT
 70
     0
  9
$DIMDEC
 70
     1
  9
$DIMTDEC
 70
     3
  9
$DIMALTU
 70
     2
  9
$DIMALTTD
 70
     3
  9
$DIMTXSTY
  7
Standard
  9
$DIMAUNIT
 70
     0
  9
$DIMADEC
 70
     2
  9
$DIMALTRND
 40
0.0
  9
$DIMAZIN
 70
     0
  9
$DIMDSEP
 70
    44
  9
$DIMATFIT
 70
     3
  9
$DIMFRAC
 70
     0
  9
$DIMLDRBLK
  1

  9
$DIMLUNIT
 70
     2
  9
$DIMLWD
 70
    -2
  9
$DIMLWE
 70
    -2
  9
$DIMTMOVE
 70
     0
  9
$LUNITS
 70
     2
  9
$LUPREC
 70
     1
  9
$SKETCHINC
 40
1.0
  9
$FILLETRAD
 40
10.0
  9
$AUNITS
 70
     0
  9
$AUPREC
 70
     2
  9
$MENU
  1
.
  9
$ELEVATION
 40
0.0
  9
$PELEVATION
 40
0.0
  9
$THICKNESS
 40
0.0
  9
$LIMCHECK
 70
     0
  9
$CHAMFERA
 40
0.0
  9
$CHAMFERB
 40
0.0
  9
$CHAMFERC
 40
0.0
  9
$CHAMFERD
 40
0.0
  9
$SKPOLY
 70
     0
  9
$TDCREATE
 40
2457984.670141134
  9
$TDUCREATE
 40
2457984.295141134
  9
$TDUPDATE
 40
2457984.670143218
  9
$TDUUPDATE
 40
2457984.295143218
  9
$TDINDWG
 40
0.0000000116
  9
$TDUSRTIMER
 40
0.0000000116
  9
$USRTIMER
 70
     1
  9
$ANGBASE
 50
0.0
  9
$ANGDIR
 70
     0
  9
$PDMODE
 70
     0
  9
$PDSIZE
 40
-1.0
  9
$PLINEWID
 40
0.0
  9
$SPLFRAME
 70
     0
  9
$SPLINETYPE
 70
     6
  9
$SPLINESEGS
 70
     8
  9
$HANDSEED
  5
3C7
  9
$SURFTAB1
 70
     6
  9
$SURFTAB2
 70
     6
  9
$SURFTYPE
 70
     6
  9
$SURFU
 70
     6
  9
$SURFV
 70
     6
  9
$UCSBASE
  2

  9
$UCSNAME
  2

  9
$UCSORG
 10
0.0
 20
0.0
 30
0.0
  9
$UCSXDIR
 10
1.0
 20
0.0
 30
0.0
  9
$UCSYDIR
 10
0.0
 20
1.0
 30
0.0
  9
$UCSORTHOREF
  2

  9
$UCSORTHOVIEW
 70
     0
  9
$UCSORGTOP
 10
0.0
 20
0.0
 30
0.0
  9
$UCSORGBOTTOM
 10
0.0
 20
0.0
 30
0.0
  9
$UCSORGLEFT
 10
0.0
 20
0.0
 30
0.0
  9
$UCSORGRIGHT
 10
0.0
 20
0.0
 30
0.0
  9
$UCSORGFRONT
 10
0.0
 20
0.0
 30
0.0
  9
$UCSORGBACK
 10
0.0
 20
0.0
 30
0.0
  9
$PUCSBASE
  2

  9
$PUCSNAME
  2

  9
$PUCSORG
 10
0.0
 20
0.0
 30
0.0
  9
$PUCSXDIR
 10
1.0
 20
0.0
 30
0.0
  9
$PUCSYDIR
 10
0.0
 20
1.0
 30
0.0
  9
$PUCSORTHOREF
  2

  9
$PUCSORTHOVIEW
 70
     0
  9
$PUCSORGTOP
 10
0.0
 20
0.0
 30
0.0
  9
$PUCSORGBOTTOM
 10
0.0
 20
0.0
 30
0.0
  9
$PUCSORGLEFT
 10
0.0
 20
0.0
 30
0.0
  9
$PUCSORGRIGHT
 10
0.0
 20
0.0
 30
0.0
  9
$PUCSORGFRONT
 10
0.0
 20
0.0
 30
0.0
  9
$PUCSORGBACK
 10
0.0
 20
0.0
 30
0.0
  9
$USERI1
 70
     0
  9
$USERI2
 70
     0
  9
$USERI3
 70
     0
  9
$USERI4
 70
     0
  9
$USERI5
 70
     0
  9
$USERR1
 40
0.0
  9
$USERR2
 40
0.0
  9
$USERR3
 40
0.0
  9
$USERR4
 40
0.0
  9
$USERR5
 40
0.0
  9
$WORLDVIEW
 70
     1
  9
$SHADEDGE
 70
     3
  9
$SHADEDIF
 70
    70
  9
$TILEMODE
 70
     1
  9
$MAXACTVP
 70
    64
  9
$PINSBASE
 10
0.0
 20
0.0
 30
0.0
  9
$PLIMCHECK
 70
     0
  9
$PEXTMIN
 10
1.0000000000E+20
 20
1.0000000000E+20
 30
1.0000000000E+20
  9
$PEXTMAX
 10
-1.0000000000E+20
 20
-1.0000000000E+20
 30
-1.0000000000E+20
  9
$PLIMMIN
 10
0.0
 20
0.0
  9
$PLIMMAX
 10
420.0
 20
297.0
  9
$UNITMODE
 70
     0
  9
$VISRETAIN
 70
     1
  9
$PLINEGEN
 70
     0
  9
$PSLTSCALE
 70
     1
  9
$TREEDEPTH
 70
  3020
  9
$CMLSTYLE
  2
Standard
  9
$CMLJUST
 70
     0
  9
$CMLSCALE
 40
20.0
  9
$PROXYGRAPHICS
 70
     1
  9
$MEASUREMENT
 70
     1
  9
$CELWEIGHT
370
    -1
  9
$ENDCAPS
280
     0
  9
$JOINSTYLE
280
     0
  9
$LWDISPLAY
290
     1
  9
$INSUNITS
 70
     4
  9
$HYPERLINKBASE
  1

  9
$STYLESHEET
  1

  9
$XEDIT
290
     1
  9
$CEPSNTYPE
380
     0
  9
$PSTYLEMODE
290
     1
  9
$FINGERPRINTGUID
  2
{FAD0904C-C6A1-48E1-8C84-93B1F9E9B7BE}
  9
$VERSIONGUID
  2
{FAEB1C32-E019-11D5-929B-00C0DF256EC4}
  9
$EXTNAMES
290
     1
  9
$PSVPSCALE
 40
0.0
  9
$OLESTARTUP
290
     0
  0
ENDSEC
  0
SECTION
  2
CLASSES
  0
CLASS
  1
ACDBDICTIONARYWDFLT
  2
AcDbDictionaryWithDefault
  3
ObjectDBX Classes
 90
        0
280
     0
281
     0
  0
CLASS
  1
VISUALSTYLE
  2
AcDbVisualStyle
  3
ObjectDBX Classes
 90
     4095
280
     0
281
     0
  0
CLASS
  1
MATERIAL
  2
AcDbMaterial
  3
ObjectDBX Classes
 90
     1153
280
     0
281
     0
  0
CLASS
  1
SCALE
  2
AcDbScale
  3
ObjectDBX Classes
 90
     1153
280
     0
281
     0
  0
CLASS
  1
TABLESTYLE
  2
AcDbTableStyle
  3
ObjectDBX Classes
 90
     4095
280
     0
281
     0
  0
CLASS
  1
MLEADERSTYLE
  2
AcDbMLeaderStyle
  3
ACDB_MLEADERSTYLE_CLASS
 90
     4095
280
     0
281
     0
  0
CLASS
  1
SUN
  2
AcDbSun
  3
SCENEOE
 90
     1153
280
     0
281
     0
  0
CLASS
  1
ACDBPLACEHOLDER
  2
AcDbPlaceHolder
  3
ObjectDBX Classes
 90
        0
280
     0
281
     0
  0
CLASS
  1
LAYOUT
  2
AcDbLayout
  3
ObjectDBX Classes
 90
        0
280
     0
281
     0
  0
ENDSEC
  0
SECTION
  2
TABLES
  0
TABLE
  2
VPORT
  5
8
330
0
100
AcDbSymbolTable
 70
     1
  0
VPORT
  5
29
330
8
100
AcDbSymbolTableRecord
100
AcDbViewportTableRecord
  2
*Active
 70
     0
 10
0.0
 20
0.0
 11
1.0
 21
1.0
 12
105.0
 22
148.5
 13
0.0
 23
0.0
 14
10.0
 24
10.0
 15
10.0
 25
10.0
 16
0.0
 26
0.0
 36
1.0
 17
0.0
 27
0.0
 37
0.0
 40
297.0
 41
0.7070707071
 42
50.0
 43
0.0
 44
0.0
 50
0.0
 51
0.0
 71
     0
 72
  2000
 73
     1
 74
     3
 75
     0
 76
     0
 77
     0
 78
     0
281
     0
 65
     1
110
0.0
120
0.0
130
0.0
111
1.0
121
0.0
131
0.0
112
0.0
122
1.0
132
0.0
 79
     0
146
0.0
  0
ENDTAB
  0
TABLE
  2
LTYPE
  5
5
330
0
100
AcDbSymbolTable
 70
     6
  0
LTYPE
  5
14
330
5
100
AcDbSymbolTableRecord
100
AcDbLinetypeTableRecord
  2
ByBlock
 70
     0
  3

 72
    65
 73
     0
 40
0.0
  0
LTYPE
  5
15
330
5
100
AcDbSymbolTableRecord
100
AcDbLinetypeTableRecord
  2
ByLayer
 70
     0
  3

 72
    65
 73
     0
 40
0.0
  0
LTYPE
  5
16
330
5
100
AcDbSymbolTableRecord
100
AcDbLinetypeTableRecord
  2
Continuous
 70
     0
  3
Solid line
 72
    65
 73
     0
 40
0.0
  0
LTYPE
  5
6E
330
5
100
AcDbSymbolTableRecord
100
AcDbLinetypeTableRecord
  2
HIDDEN
 70
     0
  3
Hidden __ __ __ __ __ __ __ __ __ __ __ __ __ __
 72
    65
 73
     2
 40
1.905
 49
1.27
 74
     0
 49
-0.635
 74
     0
  0
LTYPE
  5
6F
330
5
100
AcDbSymbolTableRecord
100
AcDbLinetypeTableRecord
  2
PHANTOM
 70
     0
  3
Phantom ______  __  __  ______  __  __  ______
 72
    65
 73
     6
 40
12.7
 49
6.35
 74
     0
 49
-1.27
 74
     0
 49
1.27
 74
     0
 49
-1.27
 74
     0
 49
1.27
 74
     0
 49
-1.27
 74
     0
  0
LTYPE
  5
70
330
5
100
AcDbSymbolTableRecord
100
AcDbLinetypeTableRecord
  2
CENTER
 70
     0
  3
Center ____ _ ____ _ ____ _ ____ _ ____ _ ____
 72
    65
 73
     4
 40
10.16
 49
6.35
 74
     0
 49
-1.27
 74
     0
 49
1.27
 74
     0
 49
-1.27
 74
     0
  0
LTYPE
  5
71
330
5
100
AcDbSymbolTableRecord
100
AcDbLinetypeTableRecord
  2
CENTERX2
 70
     0
  3
Center (2x) ________  __  ________  __  _____
 72
    65
 73
     4
 40
20.32
 49
12.7
 74
     0
 49
-2.54
 74
     0
 49
2.54
 74
     0
 49
-2.54
 74
     0
  0
LTYPE
  5
72
330
5
100
AcDbSymbolTableRecord
100
AcDbLinetypeTableRecord
  2
DOT2
 70
     0
  3
Dot (.5x) ........................................
 72
    65
 73
     2
 40
0.635
 49
0.0
 74
     0
 49
-0.635
 74
     0
  0
ENDTAB
  0
TABLE
  2
LAYER
  5
2
330
0
100
AcDbSymbolTable
 70
     1
  0
LAYER
  5
10
330
2
100
AcDbSymbolTableRecord
100
AcDbLayerTableRecord
  2
0
 70
     0
 62
     7
  6
Continuous
370
    -3
390
F
  0
ENDTAB
  0
TABLE
  2
STYLE
  5
3
330
0
100
AcDbSymbolTable
 70
     2
  0
STYLE
  5
11
330
3
100
AcDbSymbolTableRecord
100
AcDbTextStyleTableRecord
  2
Standard
 70
     0
 40
0.0
 41
1.0
 50
0.0
 71
     0
 42
3.5
  3
txt
  4
bigfont
  0
STYLE
  5
7B
330
3
100
AcDbSymbolTableRecord
100
AcDbTextStyleTableRecord
  2
SLDTEXTSTYLE0
 70
     0
 40
0.0
 41
0.7
 50
0.0
 71
     0
 42
3.5
  3
TXT
  4
bigfont
  0
ENDTAB
  0
TABLE
  2
VIEW
  5
6
330
0
100
AcDbSymbolTable
 70
     0
  0
ENDTAB
  0
TABLE
  2
UCS
  5
7
330
0
100
AcDbSymbolTable
 70
     0
  0
ENDTAB
  0
TABLE
  2
APPID
  5
9
330
0
100
AcDbSymbolTable
 70
     1
  0
APPID
  5
12
330
9
100
AcDbSymbolTableRecord
100
AcDbRegAppTableRecord
  2
ACAD
 70
     0
  0
ENDTAB
  0
TABLE
  2
DIMSTYLE
  5
A
330
0
100
AcDbSymbolTable
 70
     6
100
AcDbDimStyleTable
  0
DIMSTYLE
105
27
330
A
100
AcDbSymbolTableRecord
100
AcDbDimStyleTableRecord
  2
ISO-25
 70
     0
 41
2.5
 42
0.625
 43
3.75
 44
1.25
 73
     0
 74
     0
 77
     1
 78
     8
140
2.5
141
2.5
143
0.0393700787
147
0.625
171
     3
172
     1
178
     0
271
     2
272
     2
274
     3
278
    44
283
     0
284
     8
340
11
  0
DIMSTYLE
105
15B
102
{ACAD_REACTORS
330
15A
330
17D
330
1B3
330
3AF
330
3BB
102
}
330
A
100
AcDbSymbolTableRecord
100
AcDbDimStyleTableRecord
  2
SLDDIMSTYLE0
 70
     0
 41
3.0
 44
0.0
 45
0.000000001
 73
     0
 74
     0
 77
     3
 78
    12
 79
     3
140
3.5
147
0.875
172
     1
173
     1
178
     0
271
     1
272
     3
276
     2
284
    12
289
     0
340
7B
  0
DIMSTYLE
105
169
102
{ACAD_REACTORS
330
168
330
173
330
189
330
193
330
19D
330
1A7
102
}
330
A
100
AcDbSymbolTableRecord
100
AcDbDimStyleTableRecord
  2
SLDDIMSTYLE1
 70
     0
 41
3.0
 44
0.0
 45
0.000000001
 73
     0
 74
     0
 77
     3
 78
    12
 79
     3
140
3.5
147
0.875
173
     1
178
     0
271
     1
272
     3
276
     2
284
    12
340
7B
  0
DIMSTYLE
105
1C2
102
{ACAD_REACTORS
330
1C1
102
}
330
A
100
AcDbSymbolTableRecord
100
AcDbDimStyleTableRecord
  2
SLDDIMSTYLE2
 70
     0
 41
3.0
 44
0.0
 45
0.000000001
 78
    12
 79
     3
140
3.5
141
0.0
147
0.875
173
     1
178
     0
271
     1
272
     3
276
     2
284
    12
340
7B
  0
DIMSTYLE
105
1D3
330
A
100
AcDbSymbolTableRecord
100
AcDbDimStyleTableRecord
  2
SLDDIMSTYLE3
 70
     0
 41
3.0
 44
0.0
 45
0.000000001
146
3.0
147
0.0
173
     1
178
     0
271
     0
272
     0
276
     2
340
11
  0
DIMSTYLE
105
2AE
102
{ACAD_REACTORS
330
2AD
330
2BA
102
}
330
A
100
AcDbSymbolTableRecord
100
AcDbDimStyleTableRecord
  2
SLDDIMSTYLE4
 70
     0
 41
3.0
 44
0.0
 45
0.000000001
 73
     0
 74
     0
 77
     3
 78
    12
 79
     3
140
3.5
147
0.875
173
     1
178
     0
271
     0
272
     3
276
     2
284
    12
340
7B
  0
ENDTAB
  0
TABLE
  2
BLOCK_RECORD
  5
1
330
0
100
AcDbSymbolTable
 70
    22
  0
BLOCK_RECORD
  5
1F
330
1
100
AcDbSymbolTableRecord
100
AcDbBlockTableRecord
  2
*Model_Space
340
22
  0
BLOCK_RECORD
  5
1B
330
1
100
AcDbSymbolTableRecord
100
AcDbBlockTableRecord
  2
*Paper_Space
340
1E
  0
BLOCK_RECORD
  5
23
330
1
100
AcDbSymbolTableRecord
100
AcDbBlockTableRecord
  2
*Paper_Space0
340
26
  0
BLOCK_RECORD
  5
15C
330
1
100
AcDbSymbolTableRecord
100
AcDbBlockTableRecord
  2
_D
340
0
  0
BLOCK_RECORD
  5
16A
330
1
100
AcDbSymbolTableRecord
100
AcDbBlockTableRecord
  2
_D_1
340
0
  0
BLOCK_RECORD
  5
174
330
1
100
AcDbSymbolTableRecord
100
AcDbBlockTableRecord
  2
_D_2
340
0
  0
BLOCK_RECORD
  5
17E
330
1
100
AcDbSymbolTableRecord
100
AcDbBlockTableRecord
  2
_D_3
340
0
  0
BLOCK_RECORD
  5
18A
330
1
100
AcDbSymbolTableRecord
100
AcDbBlockTableRecord
  2
_D_4
340
0
  0
BLOCK_RECORD
  5
194
330
1
100
AcDbSymbolTableRecord
100
AcDbBlockTableRecord
  2
_D_5
340
0
  0
BLOCK_RECORD
  5
19E
330
1
100
AcDbSymbolTableRecord
100
AcDbBlockTableRecord
  2
_D_6
340
0
  0
BLOCK_RECORD
  5
1A8
330
1
100
AcDbSymbolTableRecord
100
AcDbBlockTableRecord
  2
_D_7
340
0
  0
BLOCK_RECORD
  5
1B4
330
1
100
AcDbSymbolTableRecord
100
AcDbBlockTableRecord
  2
_D_8
340
0
  0
BLOCK_RECORD
  5
1C3
330
1
100
AcDbSymbolTableRecord
100
AcDbBlockTableRecord
  2
_D_9
340
0
  0
BLOCK_RECORD
  5
1CD
330
1
100
AcDbSymbolTableRecord
100
AcDbBlockTableRecord
  2
SW_NOTE_0
340
0
102
{BLKREFS
331
1D2
102
}
  0
BLOCK_RECORD
  5
1D5
330
1
100
AcDbSymbolTableRecord
100
AcDbBlockTableRecord
  2
SW_CENTERMARKSYMBOL_0
340
0
102
{BLKREFS
331
1E0
102
}
  0
BLOCK_RECORD
  5
1E1
330
1
100
AcDbSymbolTableRecord
100
AcDbBlockTableRecord
  2
SW_CENTERMARKSYMBOL_1
340
0
102
{BLKREFS
331
1EC
102
}
  0
BLOCK_RECORD
  5
1ED
330
1
100
AcDbSymbolTableRecord
100
AcDbBlockTableRecord
  2
SW_CENTERMARKSYMBOL_2
340
0
102
{BLKREFS
331
1F8
102
}
  0
BLOCK_RECORD
  5
1F9
330
1
100
AcDbSymbolTableRecord
100
AcDbBlockTableRecord
  2
SW_CENTERMARKSYMBOL_3
340
0
102
{BLKREFS
331
204
102
}
  0
BLOCK_RECORD
  5
205
330
1
100
AcDbSymbolTableRecord
100
AcDbBlockTableRecord
  2
SW_CENTERMARKSYMBOL_4
340
0
102
{BLKREFS
331
210
102
}
  0
BLOCK_RECORD
  5
2AF
330
1
100
AcDbSymbolTableRecord
100
AcDbBlockTableRecord
  2
_D_10
340
0
  0
BLOCK_RECORD
  5
2BB
330
1
100
AcDbSymbolTableRecord
100
AcDbBlockTableRecord
  2
_D_11
340
0
  0
BLOCK_RECORD
  5
2C6
330
1
100
AcDbSymbolTableRecord
100
AcDbBlockTableRecord
  2
SW_CENTERMARKSYMBOL_5
340
0
102
{BLKREFS
331
2D1
102
}
  0
BLOCK_RECORD
  5
3B0
330
1
100
AcDbSymbolTableRecord
100
AcDbBlockTableRecord
  2
_D_12
340
0
  0
BLOCK_RECORD
  5
3BC
330
1
100
AcDbSymbolTableRecord
100
AcDbBlockTableRecord
  2
_D_13
340
0
  0
ENDTAB
  0
ENDSEC
  0
SECTION
  2
BLOCKS
  0
BLOCK
  5
20
330
1F
100
AcDbEntity
  8
0
100
AcDbBlockBegin
  2
*Model_Space
 70
     0
 10
0.0
 20
0.0
 30
0.0
  3
*Model_Space
  1

  0
ENDBLK
  5
21
330
1F
100
AcDbEntity
  8
0
100
AcDbBlockEnd
  0
BLOCK
  5
1C
330
1B
100
AcDbEntity
 67
     1
  8
0
100
AcDbBlockBegin
  2
*Paper_Space
 70
     0
 10
0.0
 20
0.0
 30
0.0
  3
*Paper_Space
  1

  0
ENDBLK
  5
1D
330
1B
100
AcDbEntity
 67
     1
  8
0
100
AcDbBlockEnd
  0
BLOCK
  5
24
330
23
100
AcDbEntity
  8
0
100
AcDbBlockBegin
  2
*Paper_Space0
 70
     0
 10
0.0
 20
0.0
 30
0.0
  3
*Paper_Space0
  1

  0
ENDBLK
  5
25
330
23
100
AcDbEntity
  8
0
100
AcDbBlockEnd
  0
BLOCK
  5
15D
330
15C
100
AcDbEntity
  8
0
100
AcDbBlockBegin
  2
_D
 70
     0
 10
0.0
 20
0.0
 30
0.0
  3
_D
  1

  0
SOLID
  5
15F
330
15C
100
AcDbEntity
  8
0
  6
Continuous
 62
     7
370
     0
100
AcDbTrace
 10
71.1429132787
 20
138.9791383091
 30
0.0
 11
68.1429132787
 21
139.7291383091
 31
0.0
 12
68.1429132787
 22
138.2291383091
 32
0.0
 13
68.1429132787
 23
138.2291383091
 33
0.0
  0
SOLID
  5
160
330
15C
100
AcDbEntity
  8
0
  6
Continuous
 62
     7
370
     0
100
AcDbTrace
 10
83.1429132787
 20
138.9791383091
 30
0.0
 11
86.1429132787
 21
138.2291383091
 31
0.0
 12
86.1429132787
 22
139.7291383091
 32
0.0
 13
86.1429132787
 23
139.7291383091
 33
0.0
  0
LINE
  5
161
330
15C
100
AcDbEntity
  8
0
  6
Continuous
 62
     7
370
     0
100
AcDbLine
 10
71.1429132787
 20
156.7353609746
 30
0.0
 11
71.1429132787
 21
137.9791383091
 31
0.0
  0
LINE
  5
162
330
15C
100
AcDbEntity
  8
0
  6
Continuous
 62
     7
370
     0
100
AcDbLine
 10
83.1429132787
 20
156.7353609746
 30
0.0
 11
83.1429132787
 21
137.9791383091
 31
0.0
  0
LINE
  5
163
330
15C
100
AcDbEntity
  8
0
  6
Continuous
 62
     7
370
     0
100
AcDbLine
 10
71.1429132787
 20
138.9791383091
 30
0.0
 11
66.1429132787
 21
138.9791383091
 31
0.0
  0
LINE
  5
164
330
15C
100
AcDbEntity
  8
0
  6
Continuous
 62
     7
370
     0
100
AcDbLine
 10
71.1429132787
 20
138.9791383091
 30
0.0
 11
83.1429132787
 21
138.9791383091
 31
0.0
  0
LINE
  5
165
330
15C
100
AcDbEntity
  8
0
  6
Continuous
 62
     7
370
     0
100
AcDbLine
 10
83.1429132787
 20
138.9791383091
 30
0.0
 11
88.1429132787
 21
138.9791383091
 31
0.0
  0
MTEXT
  5
166
330
15C
100
AcDbEntity
  8
0
  6
Continuous
 62
     7
370
     0
100
AcDbMText
 10
73.1711424073
 20
143.4908756312
 30
0.0
 40
3.5
 41
0.0
 71
     1
 72
     1
  1
%%c
  7
SLDTEXTSTYLE0
 73
     1
 44
1.0
  0
MTEXT
  5
167
330
15C
100
AcDbEntity
  8
0
  6
Continuous
 62
     7
370
     0
100
AcDbMText
 10
77.0410729224
 20
143.4908756312
 30
0.0
 40
3.5
 41
0.0
 71
     1
 72
     1
  1
12
  7
SLDTEXTSTYLE0
 73
     1
 44
1.0
  0
ENDBLK
  5
15E
330
15C
100
AcDbEntity
  8
0
100
AcDbBlockEnd
  0
BLOCK
  5
16B
330
16A
100
AcDbEntity
  8
0
100
AcDbBlockBegin
  2
_D_1
 70
     0
 10
0.0
 20
0.0
 30
0.0
  3
_D_1
  1

  0
SOLID
  5
16D
330
16A
100
AcDbEntity
  8
0
  6
Continuous
 62
     7
370
     0
100
AcDbTrace
 10
69.1429132787
 20
133.6680961528
 30
0.0
 11
72.1429132787
 21
132.9180961528
 31
0.0
 12
72.1429132787
 22
134.4180961528
 32
0.0
 13
72.1429132787
 23
134.4180961528
 33
0.0
  0
SOLID
  5
16E
330
16A
100
AcDbEntity
  8
0
  6
Continuous
 62
     7
370
     0
100
AcDbTrace
 10
85.1429132787
 20
133.6680961528
 30
0.0
 11
82.1429132787
 21
134.4180961528
 31
0.0
 12
82.1429132787
 22
132.9180961528
 32
0.0
 13
82.1429132787
 23
132.9180961528
 33
0.0
  0
LINE
  5
16F
330
16A
100
AcDbEntity
  8
0
  6
Continuous
 62
     7
370
     0
100
AcDbLine
 10
69.1429132787
 20
176.2353609746
 30
0.0
 11
69.1429132787
 21
132.6680961528
 31
0.0
  0
LINE
  5
170
330
16A
100
AcDbEntity
  8
0
  6
Continuous
 62
     7
370
     0
100
AcDbLine
 10
85.1429132787
 20
176.2353609746
 30
0.0
 11
85.1429132787
 21
132.6680961528
 31
0.0
  0
LINE
  5
171
330
16A
100
AcDbEntity
  8
0
  6
Continuous
 62
     7
370
     0
100
AcDbLine
 10
69.1429132787
 20
133.6680961528
 30
0.0
 11
85.1429132787
 21
133.6680961528
 31
0.0
  0
MTEXT
  5
172
330
16A
100
AcDbEntity
  8
0
  6
Continuous
 62
     7
370
     0
100
AcDbMText
 10
75.1061077813
 20
138.1798330092
 30
0.0
 40
3.5
 41
0.0
 71
     1
 72
     1
  1
16
  7
SLDTEXTSTYLE0
 73
     1
 44
1.0
  0
ENDBLK
  5
16C
330
16A
100
AcDbEntity
  8
0
100
AcDbBlockEnd
  0
BLOCK
  5
175
330
174
100
AcDbEntity
  8
0
100
AcDbBlockBegin
  2
_D_2
 70
     0
 10
0.0
 20
0.0
 30
0.0
  3
_D_2
  1

  0
SOLID
  5
177
330
174
100
AcDbEntity
  8
0
  6
Continuous
 62
     7
370
     0
100
AcDbTrace
 10
64.1429132787
 20
128.5653301594
 30
0.0
 11
67.1429132787
 21
127.8153301594
 31
0.0
 12
67.1429132787
 22
129.3153301594
 32
0.0
 13
67.1429132787
 23
129.3153301594
 33
0.0
  0
SOLID
  5
178
330
174
100
AcDbEntity
  8
0
  6
Continuous
 62
     7
370
     0
100
AcDbTrace
 10
90.1429132787
 20
128.5653301594
 30
0.0
 11
87.1429132787
 21
129.3153301594
 31
0.0
 12
87.1429132787
 22
127.8153301594
 32
0.0
 13
87.1429132787
 23
127.8153301594
 33
0.0
  0
LINE
  5
179
330
174
100
AcDbEntity
  8
0
  6
Continuous
 62
     7
370
     0
100
AcDbLine
 10
64.1429132787
 20
172.2353609746
 30
0.0
 11
64.1429132787
 21
127.5653301594
 31
0.0
  0
LINE
  5
17A
330
174
100
AcDbEntity
  8
0
  6
Continuous
 62
     7
370
     0
100
AcDbLine
 10
90.1429132787
 20
172.2353609746
 30
0.0
 11
90.1429132787
 21
127.5653301594
 31
0.0
  0
LINE
  5
17B
330
174
100
AcDbEntity
  8
0
  6
Continuous
 62
     7
370
     0
100
AcDbLine
 10
64.1429132787
 20
128.5653301594
 30
0.0
 11
90.1429132787
 21
128.5653301594
 31
0.0
  0
MTEXT
  5
17C
330
174
100
AcDbEntity
  8
0
  6
Continuous
 62
     7
370
     0
100
AcDbMText
 10
75.1061077813
 20
133.0770670158
 30
0.0
 40
3.5
 41
0.0
 71
     1
 72
     1
  1
26
  7
SLDTEXTSTYLE0
 73
     1
 44
1.0
  0
ENDBLK
  5
176
330
174
100
AcDbEntity
  8
0
100
AcDbBlockEnd
  0
BLOCK
  5
17F
330
17E
100
AcDbEntity
  8
0
100
AcDbBlockBegin
  2
_D_3
 70
     0
 10
0.0
 20
0.0
 30
0.0
  3
_D_3
  1

  0
SOLID
  5
181
330
17E
100
AcDbEntity
  8
0
  6
Continuous
 62
     7
370
     0
100
AcDbTrace
 10
98.0606281981
 20
173.2353609746
 30
0.0
 11
97.3106281981
 21
170.2353609746
 31
0.0
 12
98.8106281981
 22
170.2353609746
 32
0.0
 13
98.8106281981
 23
170.2353609746
 33
0.0
  0
SOLID
  5
182
330
17E
100
AcDbEntity
  8
0
  6
Continuous
 62
     7
370
     0
100
AcDbTrace
 10
98.0606281981
 20
177.2353609746
 30
0.0
 11
98.8106281981
 21
180.2353609746
 31
0.0
 12
97.3106281981
 22
180.2353609746
 32
0.0
 13
97.3106281981
 23
180.2353609746
 33
0.0
  0
LINE
  5
183
330
17E
100
AcDbEntity
  8
0
  6
Continuous
 62
     7
370
     0
100
AcDbLine
 10
91.1429132787
 20
173.2353609746
 30
0.0
 11
99.0606281981
 21
173.2353609746
 31
0.0
  0
LINE
  5
184
330
17E
100
AcDbEntity
  8
0
  6
Continuous
 62
     7
370
     0
100
AcDbLine
 10
86.1429132787
 20
177.2353609746
 30
0.0
 11
99.0606281981
 21
177.2353609746
 31
0.0
  0
LINE
  5
185
330
17E
100
AcDbEntity
  8
0
  6
Continuous
 62
     7
370
     0
100
AcDbLine
 10
98.0606281981
 20
173.2353609746
 30
0.0
 11
98.0606281981
 21
168.2353609746
 31
0.0
  0
LINE
  5
186
330
17E
100
AcDbEntity
  8
0
  6
Continuous
 62
     7
370
     0
100
AcDbLine
 10
98.0606281981
 20
173.2353609746
 30
0.0
 11
98.0606281981
 21
177.2353609746
 31
0.0
  0
LINE
  5
187
330
17E
100
AcDbEntity
  8
0
  6
Continuous
 62
     7
370
     0
100
AcDbLine
 10
98.0606281981
 20
177.2353609746
 30
0.0
 11
98.0606281981
 21
182.2353609746
 31
0.0
  0
MTEXT
  5
188
330
17E
100
AcDbEntity
  8
0
  6
Continuous
 62
     7
370
     0
100
AcDbMText
 10
93.5488913418
 20
174.2169582259
 30
0.0
 40
3.5
 41
0.0
 71
     1
 72
     1
  1
4
  7
SLDTEXTSTYLE0
 11
-1.059690869644414E-14
 21
1.0
 31
0.0
 73
     1
 44
1.0
  0
ENDBLK
  5
180
330
17E
100
AcDbEntity
  8
0
100
AcDbBlockEnd
  0
BLOCK
  5
18B
330
18A
100
AcDbEntity
  8
0
100
AcDbBlockBegin
  2
_D_4
 70
     0
 10
0.0
 20
0.0
 30
0.0
  3
_D_4
  1

  0
SOLID
  5
18D
330
18A
100
AcDbEntity
  8
0
  6
Continuous
 62
     7
370
     0
100
AcDbTrace
 10
98.0606281981
 20
177.2353609746
 30
0.0
 11
98.8106281981
 21
180.2353609746
 31
0.0
 12
97.3106281981
 22
180.2353609746
 32
0.0
 13
97.3106281981
 23
180.2353609746
 33
0.0
  0
SOLID
  5
18E
330
18A
100
AcDbEntity
  8
0
  6
Continuous
 62
     7
370
     0
100
AcDbTrace
 10
98.0606281981
 20
203.2353609746
 30
0.0
 11
97.3106281981
 21
200.2353609746
 31
0.0
 12
98.8106281981
 22
200.2353609746
 32
0.0
 13
98.8106281981
 23
200.2353609746
 33
0.0
  0
LINE
  5
18F
330
18A
100
AcDbEntity
  8
0
  6
Continuous
 62
     7
370
     0
100
AcDbLine
 10
86.1429132787
 20
177.2353609746
 30
0.0
 11
99.0606281981
 21
177.2353609746
 31
0.0
  0
LINE
  5
190
330
18A
100
AcDbEntity
  8
0
  6
Continuous
 62
     7
370
     0
100
AcDbLine
 10
78.1429132787
 20
203.2353609746
 30
0.0
 11
99.0606281981
 21
203.2353609746
 31
0.0
  0
LINE
  5
191
330
18A
100
AcDbEntity
  8
0
  6
Continuous
 62
     7
370
     0
100
AcDbLine
 10
98.0606281981
 20
177.2353609746
 30
0.0
 11
98.0606281981
 21
203.2353609746
 31
0.0
  0
MTEXT
  5
192
330
18A
100
AcDbEntity
  8
0
  6
Continuous
 62
     7
370
     0
100
AcDbMText
 10
93.5488913418
 20
188.1985554771
 30
0.0
 40
3.5
 41
0.0
 71
     1
 72
     1
  1
26
  7
SLDTEXTSTYLE0
 11
6.123233995736766E-17
 21
1.0
 31
0.0
 73
     1
 44
1.0
  0
ENDBLK
  5
18C
330
18A
100
AcDbEntity
  8
0
100
AcDbBlockEnd
  0
BLOCK
  5
195
330
194
100
AcDbEntity
  8
0
100
AcDbBlockBegin
  2
_D_5
 70
     0
 10
0.0
 20
0.0
 30
0.0
  3
_D_5
  1

  0
SOLID
  5
197
330
194
100
AcDbEntity
  8
0
  6
Continuous
 62
     7
370
     0
100
AcDbTrace
 10
106.0019159362
 20
217.4353609746
 30
0.0
 11
105.2519159362
 21
214.4353609746
 31
0.0
 12
106.7519159362
 22
214.4353609746
 32
0.0
 13
106.7519159362
 23
214.4353609746
 33
0.0
  0
SOLID
  5
198
330
194
100
AcDbEntity
  8
0
  6
Continuous
 62
     7
370
     0
100
AcDbTrace
 10
106.0019159362
 20
173.2353609746
 30
0.0
 11
106.7519159362
 21
176.2353609746
 31
0.0
 12
105.2519159362
 22
176.2353609746
 32
0.0
 13
105.2519159362
 23
176.2353609746
 33
0.0
  0
LINE
  5
199
330
194
100
AcDbEntity
  8
0
  6
Continuous
 62
     7
370
     0
100
AcDbLine
 10
81.1429132787
 20
217.4353609746
 30
0.0
 11
107.0019159362
 21
217.4353609746
 31
0.0
  0
LINE
  5
19A
330
194
100
AcDbEntity
  8
0
  6
Continuous
 62
     7
370
     0
100
AcDbLine
 10
91.1429132787
 20
173.2353609746
 30
0.0
 11
107.0019159362
 21
173.2353609746
 31
0.0
  0
LINE
  5
19B
330
194
100
AcDbEntity
  8
0
  6
Continuous
 62
     7
370
     0
100
AcDbLine
 10
106.0019159362
 20
217.4353609746
 30
0.0
 11
106.0019159362
 21
173.2353609746
 31
0.0
  0
MTEXT
  5
19C
330
194
100
AcDbEntity
  8
0
  6
Continuous
 62
     7
370
     0
100
AcDbMText
 10
101.4901790798
 20
191.2617499797
 30
0.0
 40
3.5
 41
0.0
 71
     1
 72
     1
  1
44.2
  7
SLDTEXTSTYLE0
 11
-1.770233605404514E-14
 21
1.0
 31
0.0
 73
     1
 44
1.0
  0
ENDBLK
  5
196
330
194
100
AcDbEntity
  8
0
100
AcDbBlockEnd
  0
BLOCK
  5
19F
330
19E
100
AcDbEntity
  8
0
100
AcDbBlockBegin
  2
_D_6
 70
     0
 10
0.0
 20
0.0
 30
0.0
  3
_D_6
  1

  0
SOLID
  5
1A1
330
19E
100
AcDbEntity
  8
0
  6
Continuous
 62
     7
370
     0
100
AcDbTrace
 10
106.0019159362
 20
173.2353609746
 30
0.0
 11
105.2519159362
 21
170.2353609746
 31
0.0
 12
106.7519159362
 22
170.2353609746
 32
0.0
 13
106.7519159362
 23
170.2353609746
 33
0.0
  0
SOLID
  5
1A2
330
19E
100
AcDbEntity
  8
0
  6
Continuous
 62
     7
370
     0
100
AcDbTrace
 10
106.0019159362
 20
157.2353609746
 30
0.0
 11
106.7519159362
 21
160.2353609746
 31
0.0
 12
105.2519159362
 22
160.2353609746
 32
0.0
 13
105.2519159362
 23
160.2353609746
 33
0.0
  0
LINE
  5
1A3
330
19E
100
AcDbEntity
  8
0
  6
Continuous
 62
     7
370
     0
100
AcDbLine
 10
91.1429132787
 20
173.2353609746
 30
0.0
 11
107.0019159362
 21
173.2353609746
 31
0.0
  0
LINE
  5
1A4
330
19E
100
AcDbEntity
  8
0
  6
Continuous
 62
     7
370
     0
100
AcDbLine
 10
83.6429132787
 20
157.2353609746
 30
0.0
 11
107.0019159362
 21
157.2353609746
 31
0.0
  0
LINE
  5
1A5
330
19E
100
AcDbEntity
  8
0
  6
Continuous
 62
     7
370
     0
100
AcDbLine
 10
106.0019159362
 20
173.2353609746
 30
0.0
 11
106.0019159362
 21
157.2353609746
 31
0.0
  0
MTEXT
  5
1A6
330
19E
100
AcDbEntity
  8
0
  6
Continuous
 62
     7
370
     0
100
AcDbMText
 10
101.4901790798
 20
163.1985554771
 30
0.0
 40
3.5
 41
0.0
 71
     1
 72
     1
  1
16
  7
SLDTEXTSTYLE0
 11
-1.770233605404514E-14
 21
1.0
 31
0.0
 73
     1
 44
1.0
  0
ENDBLK
  5
1A0
330
19E
100
AcDbEntity
  8
0
100
AcDbBlockEnd
  0
BLOCK
  5
1A9
330
1A8
100
AcDbEntity
  8
0
100
AcDbBlockBegin
  2
_D_7
 70
     0
 10
0.0
 20
0.0
 30
0.0
  3
_D_7
  1

  0
ARC
  5
1AB
330
1A8
100
AcDbEntity
  8
0
  6
Continuous
 62
     7
370
     0
100
AcDbCircle
 10
113.8347187448
 20
198.3892681258
 30
0.0
 40
4.554435549315966
100
AcDbArc
 50
243.4349488229
 51
296.5650511771
  0
ARC
  5
1AC
330
1A8
100
AcDbEntity
  8
0
  6
Continuous
 62
     7
370
     0
100
AcDbCircle
 10
113.8347187448
 20
194.3156571309
 30
0.0
 40
4.554435549315966
100
AcDbArc
 50
63.4349488229
 51
116.5650511771
  0
SOLID
  5
1AD
330
1A8
100
AcDbEntity
  8
0
  6
Continuous
 62
     7
370
     0
100
AcDbTrace
 10
115.8715242423
 20
147.2353609746
 30
0.0
 11
116.6215242423
 21
150.2353609746
 31
0.0
 12
115.1215242423
 22
150.2353609746
 32
0.0
 13
115.1215242423
 23
150.2353609746
 33
0.0
  0
SOLID
  5
1AE
330
1A8
100
AcDbEntity
  8
0
  6
Continuous
 62
     7
370
     0
100
AcDbTrace
 10
115.8715242423
 20
245.4695643985
 30
0.0
 11
115.1215242423
 21
242.4695643985
 31
0.0
 12
116.6215242423
 22
242.4695643985
 32
0.0
 13
116.6215242423
 23
242.4695643985
 33
0.0
  0
LINE
  5
1AF
330
1A8
100
AcDbEntity
  8
0
  6
Continuous
 62
     7
370
     0
100
AcDbLine
 10
79.6429132787
 20
147.2353609746
 30
0.0
 11
116.8715242423
 21
147.2353609746
 31
0.0
  0
LINE
  5
1B0
330
1A8
100
AcDbEntity
  8
0
  6
Continuous
 62
     7
370
     0
100
AcDbLine
 10
84.796051298
 20
245.4695643985
 30
0.0
 11
116.8715242423
 21
245.4695643985
 31
0.0
  0
LINE
  5
1B1
330
1A8
100
AcDbEntity
  8
0
  6
Continuous
 62
     7
370
     0
100
AcDbLine
 10
115.8715242423
 20
147.2353609746
 30
0.0
 11
115.8715242423
 21
245.4695643985
 31
0.0
  0
MTEXT
  5
1B2
330
1A8
100
AcDbEntity
  8
0
  6
Continuous
 62
     7
370
     0
100
AcDbMText
 10
111.3597873859
 20
194.3156571309
 30
0.0
 40
3.5
 41
0.0
 71
     1
 72
     1
  1
99
  7
SLDTEXTSTYLE0
 11
6.123233995736766E-17
 21
1.0
 31
0.0
 73
     1
 44
1.0
  0
ENDBLK
  5
1AA
330
1A8
100
AcDbEntity
  8
0
100
AcDbBlockEnd
  0
BLOCK
  5
1B5
330
1B4
100
AcDbEntity
  8
0
100
AcDbBlockBegin
  2
_D_8
 70
     0
 10
0.0
 20
0.0
 30
0.0
  3
_D_8
  1

  0
ARC
  5
1B7
330
1B4
100
AcDbEntity
  8
0
  6
Continuous
 62
     7
370
     0
100
AcDbCircle
 10
77.1429132205
 20
263.506369896
 30
0.0
 40
4.554435549315992
100
AcDbArc
 50
153.4349488229
 51
206.5650511771
  0
ARC
  5
1B8
330
1B4
100
AcDbEntity
  8
0
  6
Continuous
 62
     7
370
     0
100
AcDbCircle
 10
77.1429132205
 20
263.506369896
 30
0.0
 40
4.554435549315966
100
AcDbArc
 50
333.4349488229
 51
26.5650511771
  0
SOLID
  5
1B9
330
1B4
100
AcDbEntity
  8
0
  6
Continuous
 62
     7
370
     0
100
AcDbTrace
 10
70.4897752595
 20
261.4695643985
 30
0.0
 11
67.4897752595
 21
262.2195643985
 31
0.0
 12
67.4897752595
 22
260.7195643985
 32
0.0
 13
67.4897752595
 23
260.7195643985
 33
0.0
  0
SOLID
  5
1BA
330
1B4
100
AcDbEntity
  8
0
  6
Continuous
 62
     7
370
     0
100
AcDbTrace
 10
83.796051298
 20
261.4695643985
 30
0.0
 11
86.796051298
 21
260.7195643985
 31
0.0
 12
86.796051298
 22
262.2195643985
 32
0.0
 13
86.796051298
 23
262.2195643985
 33
0.0
  0
LINE
  5
1BB
330
1B4
100
AcDbEntity
  8
0
  6
Continuous
 62
     7
370
     0
100
AcDbLine
 10
70.4897752595
 20
246.4695643985
 30
0.0
 11
70.4897752595
 21
262.4695643985
 31
0.0
  0
LINE
  5
1BC
330
1B4
100
AcDbEntity
  8
0
  6
Continuous
 62
     7
370
     0
100
AcDbLine
 10
83.796051298
 20
246.4695643985
 30
0.0
 11
83.796051298
 21
262.4695643985
 31
0.0
  0
LINE
  5
1BD
330
1B4
100
AcDbEntity
  8
0
  6
Continuous
 62
     7
370
     0
100
AcDbLine
 10
70.4897752595
 20
261.4695643985
 30
0.0
 11
65.4897752595
 21
261.4695643985
 31
0.0
  0
LINE
  5
1BE
330
1B4
100
AcDbEntity
  8
0
  6
Continuous
 62
     7
370
     0
100
AcDbLine
 10
70.4897752595
 20
261.4695643985
 30
0.0
 11
83.796051298
 21
261.4695643985
 31
0.0
  0
LINE
  5
1BF
330
1B4
100
AcDbEntity
  8
0
  6
Continuous
 62
     7
370
     0
100
AcDbLine
 10
83.796051298
 20
261.4695643985
 30
0.0
 11
88.796051298
 21
261.4695643985
 31
0.0
  0
MTEXT
  5
1C0
330
1B4
100
AcDbEntity
  8
0
  6
Continuous
 62
     7
370
     0
100
AcDbMText
 10
73.0693022256
 20
265.9813012549
 30
0.0
 40
3.5
 41
0.0
 71
     1
 72
     1
  1
13.5
  7
SLDTEXTSTYLE0
 73
     1
 44
1.0
  0
ENDBLK
  5
1B6
330
1B4
100
AcDbEntity
  8
0
100
AcDbBlockEnd
  0
BLOCK
  5
1C4
330
1C3
100
AcDbEntity
  8
0
100
AcDbBlockBegin
  2
_D_9
 70
     0
 10
0.0
 20
0.0
 30
0.0
  3
_D_9
  1

  0
SOLID
  5
1C6
330
1C3
100
AcDbEntity
  8
0
  6
Continuous
 62
     7
370
     0
100
AcDbTrace
 10
67.3572470633
 20
178.136136289
 30
0.0
 11
65.016538483
 21
180.1569240913
 31
0.0
 12
64.3409569972
 22
178.8176744297
 32
0.0
 13
64.3409569972
 23
178.8176744297
 33
0.0
  0
LINE
  5
1C7
330
1C3
100
AcDbEntity
  8
0
  6
Continuous
 62
     7
370
     0
100
AcDbLine
 10
67.3572470633
 20
178.136136289
 30
0.0
 11
56.8123670044
 21
183.4554773661
 31
0.0
  0
LINE
  5
1C8
330
1C3
100
AcDbEntity
  8
0
  6
Continuous
 62
     7
370
     0
100
AcDbLine
 10
56.8123670044
 20
183.4554773661
 30
0.0
 11
22.63598277
 21
183.4554773661
 31
0.0
  0
MTEXT
  5
1C9
330
1C3
100
AcDbEntity
  8
0
  6
Continuous
 62
     7
370
     0
100
AcDbMText
 10
28.7463976326
 20
192.0408252175
 30
0.0
 40
3.5
 41
0.0
 71
     1
 72
     1
  1
3-
  7
SLDTEXTSTYLE0
 73
     1
 44
1.0
  0
MTEXT
  5
1CA
330
1C3
100
AcDbEntity
  8
0
  6
Continuous
 62
     7
370
     0
100
AcDbMText
 10
32.8200086276
 20
192.0408252175
 30
0.0
 40
3.5
 41
0.0
 71
     1
 72
     1
  1
M4
  7
SLDTEXTSTYLE0
 73
     1
 44
1.0
  0
MTEXT
  5
1CB
330
1C3
100
AcDbEntity
  8
0
  6
Continuous
 62
     7
370
     0
100
AcDbMText
 10
36.8936196226
 20
192.0408252175
 30
0.0
 40
3.5
 41
0.0
 71
     1
 72
     1
  1
取付穴
  7
SLDTEXTSTYLE0
 73
     1
 44
1.0
  0
MTEXT
  5
1CC
330
1C3
100
AcDbEntity
  8
0
  6
Continuous
 62
     7
370
     0
100
AcDbMText
 10
22.63598277
 20
187.9672142225
 30
0.0
 40
3.5
 41
0.0
 71
     1
 72
     1
  1
(両側口元面取有)
  7
SLDTEXTSTYLE0
 73
     1
 44
1.0
  0
ENDBLK
  5
1C5
330
1C3
100
AcDbEntity
  8
0
100
AcDbBlockEnd
  0
BLOCK
  5
1CE
330
1CD
100
AcDbEntity
  8
0
100
AcDbBlockBegin
  2
SW_NOTE_0
 70
     0
 10
0.0
 20
0.0
 30
0.0
  3
SW_NOTE_0
  1

  0
LINE
  5
1D0
330
1CD
100
AcDbEntity
  8
0
  6
Continuous
 62
     0
370
     0
100
AcDbLine
 10
-8.2682873652
 20
0.0
 30
0.0
 11
0.0
 21
0.0
 31
0.0
  0
MTEXT
  5
1D1
330
1CD
100
AcDbEntity
  8
0
  6
Continuous
 62
     0
370
     0
100
AcDbMText
 10
-8.6572361848
 20
4.5220341657
 30
0.0
 40
3.5
 41
0.0
 71
     1
 72
     1
  1
BF-5
  7
SLDTEXTSTYLE0
 73
     1
 44
1.0
  0
ENDBLK
  5
1CF
330
1CD
100
AcDbEntity
  8
0
100
AcDbBlockEnd
  0
BLOCK
  5
1D6
330
1D5
100
AcDbEntity
  8
0
100
AcDbBlockBegin
  2
SW_CENTERMARKSYMBOL_0
 70
     0
 10
0.0
 20
0.0
 30
0.0
  3
SW_CENTERMARKSYMBOL_0
  1

  0
LINE
  5
1D8
330
1D5
100
AcDbEntity
  8
0
  6
Continuous
 62
     0
370
     0
100
AcDbLine
 10
0.0
 20
0.0
 30
0.0
 11
0.0
 21
2.5
 31
0.0
  0
LINE
  5
1D9
330
1D5
100
AcDbEntity
  8
0
  6
Continuous
 62
     0
370
     0
100
AcDbLine
 10
0.0
 20
0.0
 30
0.0
 11
-2.5
 21
0.0
 31
0.0
  0
LINE
  5
1DA
330
1D5
100
AcDbEntity
  8
0
  6
Continuous
 62
     0
370
     0
100
AcDbLine
 10
0.0
 20
0.0
 30
0.0
 11
0.0
 21
-2.5
 31
0.0
  0
LINE
  5
1DB
330
1D5
100
AcDbEntity
  8
0
  6
Continuous
 62
     0
370
     0
100
AcDbLine
 10
0.0
 20
0.0
 30
0.0
 11
2.5
 21
0.0
 31
0.0
  0
LINE
  5
1DC
330
1D5
100
AcDbEntity
  8
0
  6
Continuous
 62
     0
370
     0
100
AcDbLine
 10
0.0
 20
2.5
 30
0.0
 11
0.0
 21
4.75
 31
0.0
  0
LINE
  5
1DD
330
1D5
100
AcDbEntity
  8
0
  6
Continuous
 62
     0
370
     0
100
AcDbLine
 10
-2.5
 20
0.0
 30
0.0
 11
-4.75
 21
0.0
 31
0.0
  0
LINE
  5
1DE
330
1D5
100
AcDbEntity
  8
0
  6
Continuous
 62
     0
370
     0
100
AcDbLine
 10
0.0
 20
-2.5
 30
0.0
 11
0.0
 21
-4.75
 31
0.0
  0
LINE
  5
1DF
330
1D5
100
AcDbEntity
  8
0
  6
Continuous
 62
     0
370
     0
100
AcDbLine
 10
2.5
 20
0.0
 30
0.0
 11
4.75
 21
0.0
 31
0.0
  0
ENDBLK
  5
1D7
330
1D5
100
AcDbEntity
  8
0
100
AcDbBlockEnd
  0
BLOCK
  5
1E2
330
1E1
100
AcDbEntity
  8
0
100
AcDbBlockBegin
  2
SW_CENTERMARKSYMBOL_1
 70
     0
 10
0.0
 20
0.0
 30
0.0
  3
SW_CENTERMARKSYMBOL_1
  1

  0
LINE
  5
1E4
330
1E1
100
AcDbEntity
  8
0
  6
Continuous
 62
     0
370
     0
100
AcDbLine
 10
0.0
 20
0.0
 30
0.0
 11
0.0
 21
2.5
 31
0.0
  0
LINE
  5
1E5
330
1E1
100
AcDbEntity
  8
0
  6
Continuous
 62
     0
370
     0
100
AcDbLine
 10
0.0
 20
0.0
 30
0.0
 11
-2.5
 21
0.0
 31
0.0
  0
LINE
  5
1E6
330
1E1
100
AcDbEntity
  8
0
  6
Continuous
 62
     0
370
     0
100
AcDbLine
 10
0.0
 20
0.0
 30
0.0
 11
0.0
 21
-2.5
 31
0.0
  0
LINE
  5
1E7
330
1E1
100
AcDbEntity
  8
0
  6
Continuous
 62
     0
370
     0
100
AcDbLine
 10
0.0
 20
0.0
 30
0.0
 11
2.5
 21
0.0
 31
0.0
  0
LINE
  5
1E8
330
1E1
100
AcDbEntity
  8
0
  6
Continuous
 62
     0
370
     0
100
AcDbLine
 10
0.0
 20
2.5
 30
0.0
 11
0.0
 21
4.3
 31
0.0
  0
LINE
  5
1E9
330
1E1
100
AcDbEntity
  8
0
  6
Continuous
 62
     0
370
     0
100
AcDbLine
 10
-2.5
 20
0.0
 30
0.0
 11
-4.3
 21
0.0
 31
0.0
  0
LINE
  5
1EA
330
1E1
100
AcDbEntity
  8
0
  6
Continuous
 62
     0
370
     0
100
AcDbLine
 10
0.0
 20
-2.5
 30
0.0
 11
0.0
 21
-4.3
 31
0.0
  0
LINE
  5
1EB
330
1E1
100
AcDbEntity
  8
0
  6
Continuous
 62
     0
370
     0
100
AcDbLine
 10
2.5
 20
0.0
 30
0.0
 11
4.3
 21
0.0
 31
0.0
  0
ENDBLK
  5
1E3
330
1E1
100
AcDbEntity
  8
0
100
AcDbBlockEnd
  0
BLOCK
  5
1EE
330
1ED
100
AcDbEntity
  8
0
100
AcDbBlockBegin
  2
SW_CENTERMARKSYMBOL_2
 70
     0
 10
0.0
 20
0.0
 30
0.0
  3
SW_CENTERMARKSYMBOL_2
  1

  0
LINE
  5
1F0
330
1ED
100
AcDbEntity
  8
0
  6
Continuous
 62
     0
370
     0
100
AcDbLine
 10
0.0
 20
0.0
 30
0.0
 11
0.0
 21
2.5
 31
0.0
  0
LINE
  5
1F1
330
1ED
100
AcDbEntity
  8
0
  6
Continuous
 62
     0
370
     0
100
AcDbLine
 10
0.0
 20
0.0
 30
0.0
 11
-2.5
 21
0.0
 31
0.0
  0
LINE
  5
1F2
330
1ED
100
AcDbEntity
  8
0
  6
Continuous
 62
     0
370
     0
100
AcDbLine
 10
0.0
 20
0.0
 30
0.0
 11
0.0
 21
-2.5
 31
0.0
  0
LINE
  5
1F3
330
1ED
100
AcDbEntity
  8
0
  6
Continuous
 62
     0
370
     0
100
AcDbLine
 10
0.0
 20
0.0
 30
0.0
 11
2.5
 21
0.0
 31
0.0
  0
LINE
  5
1F4
330
1ED
100
AcDbEntity
  8
0
  6
Continuous
 62
     0
370
     0
100
AcDbLine
 10
0.0
 20
2.5
 30
0.0
 11
0.0
 21
4.0
 31
0.0
  0
LINE
  5
1F5
330
1ED
100
AcDbEntity
  8
0
  6
Continuous
 62
     0
370
     0
100
AcDbLine
 10
-2.5
 20
0.0
 30
0.0
 11
-4.0
 21
0.0
 31
0.0
  0
LINE
  5
1F6
330
1ED
100
AcDbEntity
  8
0
  6
Continuous
 62
     0
370
     0
100
AcDbLine
 10
0.0
 20
-2.5
 30
0.0
 11
0.0
 21
-4.0
 31
0.0
  0
LINE
  5
1F7
330
1ED
100
AcDbEntity
  8
0
  6
Continuous
 62
     0
370
     0
100
AcDbLine
 10
2.5
 20
0.0
 30
0.0
 11
4.0
 21
0.0
 31
0.0
  0
ENDBLK
  5
1EF
330
1ED
100
AcDbEntity
  8
0
100
AcDbBlockEnd
  0
BLOCK
  5
1FA
330
1F9
100
AcDbEntity
  8
0
100
AcDbBlockBegin
  2
SW_CENTERMARKSYMBOL_3
 70
     0
 10
0.0
 20
0.0
 30
0.0
  3
SW_CENTERMARKSYMBOL_3
  1

  0
LINE
  5
1FC
330
1F9
100
AcDbEntity
  8
0
  6
Continuous
 62
     0
370
     0
100
AcDbLine
 10
0.0
 20
0.0
 30
0.0
 11
0.0
 21
2.5
 31
0.0
  0
LINE
  5
1FD
330
1F9
100
AcDbEntity
  8
0
  6
Continuous
 62
     0
370
     0
100
AcDbLine
 10
0.0
 20
0.0
 30
0.0
 11
-2.5
 21
0.0
 31
0.0
  0
LINE
  5
1FE
330
1F9
100
AcDbEntity
  8
0
  6
Continuous
 62
     0
370
     0
100
AcDbLine
 10
0.0
 20
0.0
 30
0.0
 11
0.0
 21
-2.5
 31
0.0
  0
LINE
  5
1FF
330
1F9
100
AcDbEntity
  8
0
  6
Continuous
 62
     0
370
     0
100
AcDbLine
 10
0.0
 20
0.0
 30
0.0
 11
2.5
 21
0.0
 31
0.0
  0
LINE
  5
200
330
1F9
100
AcDbEntity
  8
0
  6
Continuous
 62
     0
370
     0
100
AcDbLine
 10
0.0
 20
2.5
 30
0.0
 11
0.0
 21
4.75
 31
0.0
  0
LINE
  5
201
330
1F9
100
AcDbEntity
  8
0
  6
Continuous
 62
     0
370
     0
100
AcDbLine
 10
-2.5
 20
0.0
 30
0.0
 11
-4.75
 21
0.0
 31
0.0
  0
LINE
  5
202
330
1F9
100
AcDbEntity
  8
0
  6
Continuous
 62
     0
370
     0
100
AcDbLine
 10
0.0
 20
-2.5
 30
0.0
 11
0.0
 21
-4.75
 31
0.0
  0
LINE
  5
203
330
1F9
100
AcDbEntity
  8
0
  6
Continuous
 62
     0
370
     0
100
AcDbLine
 10
2.5
 20
0.0
 30
0.0
 11
4.75
 21
0.0
 31
0.0
  0
ENDBLK
  5
1FB
330
1F9
100
AcDbEntity
  8
0
100
AcDbBlockEnd
  0
BLOCK
  5
206
330
205
100
AcDbEntity
  8
0
100
AcDbBlockBegin
  2
SW_CENTERMARKSYMBOL_4
 70
     0
 10
0.0
 20
0.0
 30
0.0
  3
SW_CENTERMARKSYMBOL_4
  1

  0
LINE
  5
208
330
205
100
AcDbEntity
  8
0
  6
Continuous
 62
     0
370
     0
100
AcDbLine
 10
0.0
 20
0.0
 30
0.0
 11
0.0
 21
2.5
 31
0.0
  0
LINE
  5
209
330
205
100
AcDbEntity
  8
0
  6
Continuous
 62
     0
370
     0
100
AcDbLine
 10
0.0
 20
0.0
 30
0.0
 11
-2.5
 21
0.0
 31
0.0
  0
LINE
  5
20A
330
205
100
AcDbEntity
  8
0
  6
Continuous
 62
     0
370
     0
100
AcDbLine
 10
0.0
 20
0.0
 30
0.0
 11
0.0
 21
-2.5
 31
0.0
  0
LINE
  5
20B
330
205
100
AcDbEntity
  8
0
  6
Continuous
 62
     0
370
     0
100
AcDbLine
 10
0.0
 20
0.0
 30
0.0
 11
2.5
 21
0.0
 31
0.0
  0
LINE
  5
20C
330
205
100
AcDbEntity
  8
0
  6
Continuous
 62
     0
370
     0
100
AcDbLine
 10
0.0
 20
2.5
 30
0.0
 11
0.0
 21
4.75
 31
0.0
  0
LINE
  5
20D
330
205
100
AcDbEntity
  8
0
  6
Continuous
 62
     0
370
     0
100
AcDbLine
 10
-2.5
 20
0.0
 30
0.0
 11
-4.75
 21
0.0
 31
0.0
  0
LINE
  5
20E
330
205
100
AcDbEntity
  8
0
  6
Continuous
 62
     0
370
     0
100
AcDbLine
 10
0.0
 20
-2.5
 30
0.0
 11
0.0
 21
-4.75
 31
0.0
  0
LINE
  5
20F
330
205
100
AcDbEntity
  8
0
  6
Continuous
 62
     0
370
     0
100
AcDbLine
 10
2.5
 20
0.0
 30
0.0
 11
4.75
 21
0.0
 31
0.0
  0
ENDBLK
  5
207
330
205
100
AcDbEntity
  8
0
100
AcDbBlockEnd
  0
BLOCK
  5
2B0
330
2AF
100
AcDbEntity
  8
0
100
AcDbBlockBegin
  2
_D_10
 70
     0
 10
0.0
 20
0.0
 30
0.0
  3
_D_10
  1

  0
ARC
  5
2B2
330
2AF
100
AcDbEntity
  8
0
  6
Continuous
 62
     7
370
     0
100
AcDbCircle
 10
85.5897642467
 20
70.684450743
 30
0.0
 40
4.554435549315966
100
AcDbArc
 50
153.4349488229
 51
206.5650511771
  0
ARC
  5
2B3
330
2AF
100
AcDbEntity
  8
0
  6
Continuous
 62
     7
370
     0
100
AcDbCircle
 10
81.5161532517
 20
70.684450743
 30
0.0
 40
4.554435549315966
100
AcDbArc
 50
333.4349488229
 51
26.5650511771
  0
SOLID
  5
2B4
330
2AF
100
AcDbEntity
  8
0
  6
Continuous
 62
     7
370
     0
100
AcDbTrace
 10
61.2408572833
 20
68.6476452455
 30
0.0
 11
64.2408572833
 21
67.8976452455
 31
0.0
 12
64.2408572833
 22
69.3976452455
 32
0.0
 13
64.2408572833
 23
69.3976452455
 33
0.0
  0
SOLID
  5
2B5
330
2AF
100
AcDbEntity
  8
0
  6
Continuous
 62
     7
370
     0
100
AcDbTrace
 10
105.8650603316
 20
68.6476452455
 30
0.0
 11
102.8650603316
 21
69.3976452455
 31
0.0
 12
102.8650603316
 22
67.8976452455
 32
0.0
 13
102.8650603316
 23
67.8976452455
 33
0.0
  0
LINE
  5
2B6
330
2AF
100
AcDbEntity
  8
0
  6
Continuous
 62
     7
370
     0
100
AcDbLine
 10
61.2408572833
 20
88.7349253731
 30
0.0
 11
61.2408572833
 21
67.6476452455
 31
0.0
  0
LINE
  5
2B7
330
2AF
100
AcDbEntity
  8
0
  6
Continuous
 62
     7
370
     0
100
AcDbLine
 10
105.8650603316
 20
88.2349253731
 30
0.0
 11
105.8650603316
 21
67.6476452455
 31
0.0
  0
LINE
  5
2B8
330
2AF
100
AcDbEntity
  8
0
  6
Continuous
 62
     7
370
     0
100
AcDbLine
 10
61.2408572833
 20
68.6476452455
 30
0.0
 11
105.8650603316
 21
68.6476452455
 31
0.0
  0
MTEXT
  5
2B9
330
2AF
100
AcDbEntity
  8
0
  6
Continuous
 62
     7
370
     0
100
AcDbMText
 10
81.5161532517
 20
73.1593821019
 30
0.0
 40
3.5
 41
0.0
 71
     1
 72
     1
  1
45
  7
SLDTEXTSTYLE0
 73
     1
 44
1.0
  0
ENDBLK
  5
2B1
330
2AF
100
AcDbEntity
  8
0
100
AcDbBlockEnd
  0
BLOCK
  5
2BC
330
2BB
100
AcDbEntity
  8
0
100
AcDbBlockBegin
  2
_D_11
 70
     0
 10
0.0
 20
0.0
 30
0.0
  3
_D_11
  1

  0
ARC
  5
2BE
330
2BB
100
AcDbEntity
  8
0
  6
Continuous
 62
     7
370
     0
100
AcDbCircle
 10
71.2286907203
 20
79.8488351726
 30
0.0
 40
4.554435549315966
100
AcDbArc
 50
153.4349488229
 51
206.5650511771
  0
ARC
  5
2BF
330
2BB
100
AcDbEntity
  8
0
  6
Continuous
 62
     7
370
     0
100
AcDbCircle
 10
67.1550797253
 20
79.8488351726
 30
0.0
 40
4.554435549315966
100
AcDbArc
 50
333.4349488229
 51
26.5650511771
  0
SOLID
  5
2C0
330
2BB
100
AcDbEntity
  8
0
  6
Continuous
 62
     7
370
     0
100
AcDbTrace
 10
61.2408572833
 20
77.8120296751
 30
0.0
 11
64.2408572833
 21
77.0620296751
 31
0.0
 12
64.2408572833
 22
78.5620296751
 32
0.0
 13
64.2408572833
 23
78.5620296751
 33
0.0
  0
SOLID
  5
2C1
330
2BB
100
AcDbEntity
  8
0
  6
Continuous
 62
     7
370
     0
100
AcDbTrace
 10
77.1429132787
 20
77.8120296751
 30
0.0
 11
74.1429132787
 21
78.5620296751
 31
0.0
 12
74.1429132787
 22
77.0620296751
 32
0.0
 13
74.1429132787
 23
77.0620296751
 33
0.0
  0
LINE
  5
2C2
330
2BB
100
AcDbEntity
  8
0
  6
Continuous
 62
     7
370
     0
100
AcDbLine
 10
61.2408572833
 20
88.7349253731
 30
0.0
 11
61.2408572833
 21
76.8120296751
 31
0.0
  0
LINE
  5
2C3
330
2BB
100
AcDbEntity
  8
0
  6
Continuous
 62
     7
370
     0
100
AcDbLine
 10
77.1429132787
 20
83.7349253731
 30
0.0
 11
77.1429132787
 21
76.8120296751
 31
0.0
  0
LINE
  5
2C4
330
2BB
100
AcDbEntity
  8
0
  6
Continuous
 62
     7
370
     0
100
AcDbLine
 10
61.2408572833
 20
77.8120296751
 30
0.0
 11
77.1429132787
 21
77.8120296751
 31
0.0
  0
MTEXT
  5
2C5
330
2BB
100
AcDbEntity
  8
0
  6
Continuous
 62
     7
370
     0
100
AcDbMText
 10
67.1550797253
 20
82.3237665315
 30
0.0
 40
3.5
 41
0.0
 71
     1
 72
     1
  1
17
  7
SLDTEXTSTYLE0
 73
     1
 44
1.0
  0
ENDBLK
  5
2BD
330
2BB
100
AcDbEntity
  8
0
100
AcDbBlockEnd
  0
BLOCK
  5
2C7
330
2C6
100
AcDbEntity
  8
0
100
AcDbBlockBegin
  2
SW_CENTERMARKSYMBOL_5
 70
     0
 10
0.0
 20
0.0
 30
0.0
  3
SW_CENTERMARKSYMBOL_5
  1

  0
LINE
  5
2C9
330
2C6
100
AcDbEntity
  8
0
  6
Continuous
 62
     0
370
     0
100
AcDbLine
 10
0.0
 20
0.0
 30
0.0
 11
0.0
 21
2.5
 31
0.0
  0
LINE
  5
2CA
330
2C6
100
AcDbEntity
  8
0
  6
Continuous
 62
     0
370
     0
100
AcDbLine
 10
0.0
 20
0.0
 30
0.0
 11
-2.5
 21
0.0
 31
0.0
  0
LINE
  5
2CB
330
2C6
100
AcDbEntity
  8
0
  6
Continuous
 62
     0
370
     0
100
AcDbLine
 10
0.0
 20
0.0
 30
0.0
 11
0.0
 21
-2.5
 31
0.0
  0
LINE
  5
2CC
330
2C6
100
AcDbEntity
  8
0
  6
Continuous
 62
     0
370
     0
100
AcDbLine
 10
0.0
 20
0.0
 30
0.0
 11
2.5
 21
0.0
 31
0.0
  0
LINE
  5
2CD
330
2C6
100
AcDbEntity
  8
0
  6
Continuous
 62
     0
370
     0
100
AcDbLine
 10
0.0
 20
5.0
 30
0.0
 11
0.0
 21
8.0
 31
0.0
  0
LINE
  5
2CE
330
2C6
100
AcDbEntity
  8
0
  6
Continuous
 62
     0
370
     0
100
AcDbLine
 10
-5.0
 20
0.0
 30
0.0
 11
-8.0
 21
0.0
 31
0.0
  0
LINE
  5
2CF
330
2C6
100
AcDbEntity
  8
0
  6
Continuous
 62
     0
370
     0
100
AcDbLine
 10
0.0
 20
-5.0
 30
0.0
 11
0.0
 21
-8.0
 31
0.0
  0
LINE
  5
2D0
330
2C6
100
AcDbEntity
  8
0
  6
Continuous
 62
     0
370
     0
100
AcDbLine
 10
5.0
 20
0.0
 30
0.0
 11
8.0
 21
0.0
 31
0.0
  0
ENDBLK
  5
2C8
330
2C6
100
AcDbEntity
  8
0
100
AcDbBlockEnd
  0
BLOCK
  5
3B1
330
3B0
100
AcDbEntity
  8
0
100
AcDbBlockBegin
  2
_D_12
 70
     0
 10
0.0
 20
0.0
 30
0.0
  3
_D_12
  1

  0
SOLID
  5
3B3
330
3B0
100
AcDbEntity
  8
0
  6
Continuous
 62
     7
370
     0
100
AcDbTrace
 10
163.0986001444
 20
265.6313215838
 30
0.0
 11
166.0986001444
 21
264.8813215838
 31
0.0
 12
166.0986001444
 22
266.3813215838
 32
0.0
 13
166.0986001444
 23
266.3813215838
 33
0.0
  0
SOLID
  5
3B4
330
3B0
100
AcDbEntity
  8
0
  6
Continuous
 62
     7
370
     0
100
AcDbTrace
 10
157.0986001444
 20
265.6313215838
 30
0.0
 11
154.0986001444
 21
266.3813215838
 31
0.0
 12
154.0986001444
 22
264.8813215838
 32
0.0
 13
154.0986001444
 23
264.8813215838
 33
0.0
  0
LINE
  5
3B5
330
3B0
100
AcDbEntity
  8
0
  6
Continuous
 62
     7
370
     0
100
AcDbLine
 10
163.0986001444
 20
246.4695643985
 30
0.0
 11
163.0986001444
 21
266.6313215838
 31
0.0
  0
LINE
  5
3B6
330
3B0
100
AcDbEntity
  8
0
  6
Continuous
 62
     7
370
     0
100
AcDbLine
 10
157.0986001444
 20
246.4695643985
 30
0.0
 11
157.0986001444
 21
266.6313215838
 31
0.0
  0
LINE
  5
3B7
330
3B0
100
AcDbEntity
  8
0
  6
Continuous
 62
     7
370
     0
100
AcDbLine
 10
163.0986001444
 20
265.6313215838
 30
0.0
 11
168.0986001444
 21
265.6313215838
 31
0.0
  0
LINE
  5
3B8
330
3B0
100
AcDbEntity
  8
0
  6
Continuous
 62
     7
370
     0
100
AcDbLine
 10
163.0986001444
 20
265.6313215838
 30
0.0
 11
157.0986001444
 21
265.6313215838
 31
0.0
  0
LINE
  5
3B9
330
3B0
100
AcDbEntity
  8
0
  6
Continuous
 62
     7
370
     0
100
AcDbLine
 10
157.0986001444
 20
265.6313215838
 30
0.0
 11
152.0986001444
 21
265.6313215838
 31
0.0
  0
MTEXT
  5
3BA
330
3B0
100
AcDbEntity
  8
0
  6
Continuous
 62
     7
370
     0
100
AcDbMText
 10
159.0801973957
 20
270.1430584402
 30
0.0
 40
3.5
 41
0.0
 71
     1
 72
     1
  1
6
  7
SLDTEXTSTYLE0
 73
     1
 44
1.0
  0
ENDBLK
  5
3B2
330
3B0
100
AcDbEntity
  8
0
100
AcDbBlockEnd
  0
BLOCK
  5
3BD
330
3BC
100
AcDbEntity
  8
0
100
AcDbBlockBegin
  2
_D_13
 70
     0
 10
0.0
 20
0.0
 30
0.0
  3
_D_13
  1

  0
SOLID
  5
3BF
330
3BC
100
AcDbEntity
  8
0
  6
Continuous
 62
     7
370
     0
100
AcDbTrace
 10
153.5986001444
 20
131.2353609746
 30
0.0
 11
150.5986001444
 21
131.9853609746
 31
0.0
 12
150.5986001444
 22
130.4853609746
 32
0.0
 13
150.5986001444
 23
130.4853609746
 33
0.0
  0
SOLID
  5
3C0
330
3BC
100
AcDbEntity
  8
0
  6
Continuous
 62
     7
370
     0
100
AcDbTrace
 10
166.5986001444
 20
131.2353609746
 30
0.0
 11
169.5986001444
 21
130.4853609746
 31
0.0
 12
169.5986001444
 22
131.9853609746
 32
0.0
 13
169.5986001444
 23
131.9853609746
 33
0.0
  0
LINE
  5
3C1
330
3BC
100
AcDbEntity
  8
0
  6
Continuous
 62
     7
370
     0
100
AcDbLine
 10
153.5986001444
 20
172.2353609746
 30
0.0
 11
153.5986001444
 21
130.2353609746
 31
0.0
  0
LINE
  5
3C2
330
3BC
100
AcDbEntity
  8
0
  6
Continuous
 62
     7
370
     0
100
AcDbLine
 10
166.5986001444
 20
172.2353609746
 30
0.0
 11
166.5986001444
 21
130.2353609746
 31
0.0
  0
LINE
  5
3C3
330
3BC
100
AcDbEntity
  8
0
  6
Continuous
 62
     7
370
     0
100
AcDbLine
 10
153.5986001444
 20
131.2353609746
 30
0.0
 11
148.5986001444
 21
131.2353609746
 31
0.0
  0
LINE
  5
3C4
330
3BC
100
AcDbEntity
  8
0
  6
Continuous
 62
     7
370
     0
100
AcDbLine
 10
153.5986001444
 20
131.2353609746
 30
0.0
 11
166.5986001444
 21
131.2353609746
 31
0.0
  0
LINE
  5
3C5
330
3BC
100
AcDbEntity
  8
0
  6
Continuous
 62
     7
370
     0
100
AcDbLine
 10
166.5986001444
 20
131.2353609746
 30
0.0
 11
171.5986001444
 21
131.2353609746
 31
0.0
  0
MTEXT
  5
3C6
330
3BC
100
AcDbEntity
  8
0
  6
Continuous
 62
     7
370
     0
100
AcDbMText
 10
158.061794647
 20
135.747097831
 30
0.0
 40
3.5
 41
0.0
 71
     1
 72
     1
  1
13
  7
SLDTEXTSTYLE0
 73
     1
 44
1.0
  0
ENDBLK
  5
3BE
330
3BC
100
AcDbEntity
  8
0
100
AcDbBlockEnd
  0
ENDSEC
  0
SECTION
  2
ENTITIES
  0
LINE
  5
73
330
1F
100
AcDbEntity
  8
0
  6
Continuous
 62
     7
370
     0
100
AcDbLine
 10
20.2604743903
 20
285.0
 30
0.0
 11
196.7604743903
 21
285.0
 31
0.0
  0
LINE
  5
74
330
1F
100
AcDbEntity
  8
0
  6
Continuous
 62
     7
370
     0
100
AcDbLine
 10
20.2604743903
 20
285.0
 30
0.0
 11
20.2604743903
 21
10.0
 31
0.0
  0
LINE
  5
75
330
1F
100
AcDbEntity
  8
0
  6
Continuous
 62
     7
370
     0
100
AcDbLine
 10
20.2604743903
 20
10.0
 30
0.0
 11
196.7604743903
 21
10.0
 31
0.0
  0
LINE
  5
76
330
1F
100
AcDbEntity
  8
0
  6
Continuous
 62
     7
370
     0
100
AcDbLine
 10
196.7604743903
 20
285.0
 30
0.0
 11
196.7604743903
 21
10.0
 31
0.0
  0
LINE
  5
77
330
1F
100
AcDbEntity
  8
0
  6
Continuous
 62
     7
370
     0
100
AcDbLine
 10
127.0104743903
 20
50.75
 30
0.0
 11
196.7604743903
 21
50.75
 31
0.0
  0
LINE
  5
78
330
1F
100
AcDbEntity
  8
0
  6
Continuous
 62
     7
370
     0
100
AcDbLine
 10
127.0104743903
 20
50.75
 30
0.0
 11
127.0104743903
 21
10.0
 31
0.0
  0
LINE
  5
79
330
1F
100
AcDbEntity
  8
0
  6
Continuous
 62
     7
370
     0
100
AcDbLine
 10
127.0104743903
 20
22.75
 30
0.0
 11
196.7604743903
 21
22.75
 31
0.0
  0
LINE
  5
7A
330
1F
100
AcDbEntity
  8
0
  6
Continuous
 62
     7
370
     0
100
AcDbLine
 10
127.0104743903
 20
36.75
 30
0.0
 11
196.7604743903
 21
36.75
 31
0.0
  0
MTEXT
  5
7C
330
1F
100
AcDbEntity
  8
0
  6
Continuous
 62
     7
370
     0
100
AcDbMText
 10
161.3964816738
 20
30.4171582345
 30
0.0
 40
4.2333333333
 41
0.0
 71
     2
 72
     1
  1
CHK-EM1-12-C1
  7
SLDTEXTSTYLE0
 73
     1
 44
1.0
  0
MTEXT
  5
7D
330
1F
100
AcDbEntity
  8
0
  6
Continuous
 62
     7
370
     0
100
AcDbMText
 10
158.4475169293
 20
46.0267784669
 30
0.0
 40
3.7041666667
 41
0.0
 71
     2
 72
     1
  1
ランナーチャックEM(リミットSW付)
  7
SLDTEXTSTYLE0
 73
     1
 44
1.0
  0
MTEXT
  5
7E
330
1F
100
AcDbEntity
  8
0
  6
Continuous
 62
     7
370
     0
100
AcDbMText
 10
162.4923009225
 20
16.8228189052
 30
0.0
 40
4.2333333333
 41
0.0
 71
     2
 72
     1
  1
023005
  7
SLDTEXTSTYLE0
 73
     1
 44
1.0
  0
LINE
  5
7F
330
1F
100
AcDbEntity
  8
0
  6
Continuous
 62
     7
370
     0
100
AcDbLine
 10
71.1429132863
 20
173.2353608941
 30
0.0
 11
71.1429132863
 21
157.7353611475
 31
0.0
  0
LINE
  5
80
330
1F
100
AcDbEntity
  8
0
  6
Continuous
 62
     7
370
     0
100
AcDbLine
 10
83.1429133906
 20
157.7353611475
 30
0.0
 11
83.1429133906
 21
173.2353608941
 31
0.0
  0
LINE
  5
81
330
1F
100
AcDbEntity
  8
0
  6
Continuous
 62
     7
370
     0
100
AcDbLine
 10
71.1429132863
 20
157.7353611475
 30
0.0
 11
71.6429133682
 21
157.2353601342
 31
0.0
  0
LINE
  5
82
330
1F
100
AcDbEntity
  8
0
  6
Continuous
 62
     7
370
     0
100
AcDbLine
 10
82.6429133086
 20
157.2353601342
 30
0.0
 11
83.1429133906
 21
157.7353611475
 31
0.0
  0
LINE
  5
83
330
1F
100
AcDbEntity
  8
0
  6
Continuous
 62
     7
370
     0
100
AcDbLine
 10
81.1429132956
 20
154.2353615051
 30
0.0
 11
81.4429132516
 21
154.5353591328
 31
0.0
  0
LINE
  5
84
330
1F
100
AcDbEntity
  8
0
  6
Continuous
 62
     7
370
     0
100
AcDbLine
 10
72.8429131924
 20
154.5353591328
 30
0.0
 11
73.1429131484
 21
154.2353615051
 31
0.0
  0
LINE
  5
85
330
1F
100
AcDbEntity
  8
0
  6
Continuous
 62
     7
370
     0
100
AcDbLine
 10
78.9429133075
 20
151.735360164
 30
0.0
 11
78.9429133075
 21
152.2353611773
 31
0.0
  0
LINE
  5
86
330
1F
100
AcDbEntity
  8
0
  6
Continuous
 62
     7
370
     0
100
AcDbLine
 10
75.3429133693
 20
152.2353611773
 30
0.0
 11
75.3429133693
 21
151.735360164
 31
0.0
  0
LINE
  5
87
330
1F
100
AcDbEntity
  8
0
  6
Continuous
 62
     7
370
     0
100
AcDbLine
 10
75.3429133693
 20
149.2353625482
 30
0.0
 11
75.6429133254
 21
147.2353622203
 31
0.0
  0
LINE
  5
88
330
1F
100
AcDbEntity
  8
0
  6
Continuous
 62
     7
370
     0
100
AcDbLine
 10
78.6429132932
 20
147.2353622203
 30
0.0
 11
78.9429133075
 21
149.2353625482
 31
0.0
  0
LINE
  5
89
330
1F
100
AcDbEntity
  8
0
  6
Continuous
 62
     7
370
     0
100
AcDbLine
 10
78.9429133075
 20
149.2353625482
 30
0.0
 11
78.9429133075
 21
149.7353598362
 31
0.0
  0
LINE
  5
8A
330
1F
100
AcDbEntity
  8
0
  6
Continuous
 62
     7
370
     0
100
AcDbLine
 10
75.3429133693
 20
149.7353598362
 30
0.0
 11
75.3429133693
 21
149.2353625482
 31
0.0
  0
LINE
  5
8B
330
1F
100
AcDbEntity
  8
0
  6
Continuous
 62
     7
370
     0
100
AcDbLine
 10
75.3429133693
 20
151.735360164
 30
0.0
 11
75.5429132624
 21
149.7353598362
 31
0.0
  0
LINE
  5
8C
330
1F
100
AcDbEntity
  8
0
  6
Continuous
 62
     7
370
     0
100
AcDbLine
 10
78.742913298
 20
149.7353598362
 30
0.0
 11
78.9429133075
 21
151.735360164
 31
0.0
  0
LINE
  5
8D
330
1F
100
AcDbEntity
  8
0
  6
Continuous
 62
     7
370
     0
100
AcDbLine
 10
78.742913298
 20
152.2353611773
 30
0.0
 11
78.742913298
 21
154.2353615051
 31
0.0
  0
LINE
  5
8E
330
1F
100
AcDbEntity
  8
0
  6
Continuous
 62
     7
370
     0
100
AcDbLine
 10
75.5429132624
 20
154.2353615051
 30
0.0
 11
75.5429132624
 21
152.2353611773
 31
0.0
  0
LINE
  5
8F
330
1F
100
AcDbEntity
  8
0
  6
Continuous
 62
     7
370
     0
100
AcDbLine
 10
81.4429132516
 20
154.5353591328
 30
0.0
 11
81.4429132516
 21
157.2353601342
 31
0.0
  0
LINE
  5
90
330
1F
100
AcDbEntity
  8
0
  6
Continuous
 62
     7
370
     0
100
AcDbLine
 10
72.8429131924
 20
157.2353601342
 30
0.0
 11
72.8429131924
 21
154.5353591328
 31
0.0
  0
LINE
  5
91
330
1F
100
AcDbEntity
  8
0
  6
Continuous
 62
     7
370
     0
100
AcDbLine
 10
91.4985313794
 20
241.7393758779
 30
0.0
 11
91.3011068261
 21
241.771368671
 31
0.0
  0
LWPOLYLINE
  5
92
330
1F
100
AcDbEntity
  8
0
  6
Continuous
 62
     7
370
     0
100
AcDbPolyline
 90
        3
 70
   128
 43
0.0
 10
90.575787217
 20
238.5458595937
 10
90.5733397013
 20
238.5067291444
 10
90.574057751
 20
238.4954899436
  0
ARC
  5
93
330
1F
100
AcDbEntity
  8
0
  6
Continuous
 62
     7
370
     0
100
AcDbCircle
 10
91.2691131674
 20
241.5739455394
 30
0.0
 40
0.199999999999997
100
AcDbArc
 50
80.7949532904
 51
170.7949532904
  0
LINE
  5
94
330
1F
100
AcDbEntity
  8
0
  6
Continuous
 62
     7
370
     0
100
AcDbLine
 10
91.0556921518
 20
241.5072269624
 30
0.0
 11
90.2659939385
 21
241.63520186
 31
0.0
  0
LINE
  5
95
330
1F
100
AcDbEntity
  8
0
  6
Continuous
 62
     7
370
     0
100
AcDbLine
 10
89.8020863316
 20
238.7725472336
 30
0.0
 11
90.5917845449
 21
238.644572336
 31
0.0
  0
LINE
  5
96
330
1F
100
AcDbEntity
  8
0
  6
Continuous
 62
     7
370
     0
100
AcDbLine
 10
100.5978127724
 20
223.498883087
 30
0.0
 11
100.405850426
 21
222.3143376296
 31
0.0
  0
LINE
  5
97
330
1F
100
AcDbEntity
  8
0
  6
Continuous
 62
     7
370
     0
100
AcDbLine
 10
101.787821368
 20
222.0903806275
 30
0.0
 11
101.9797837144
 21
223.2749298101
 31
0.0
  0
LINE
  5
98
330
1F
100
AcDbEntity
  8
0
  6
Continuous
 62
     7
370
     0
100
AcDbLine
 10
98.6235672391
 20
223.8188184684
 30
0.0
 11
98.4316067553
 21
222.634273011
 31
0.0
  0
LINE
  5
99
330
1F
100
AcDbEntity
  8
0
  6
Continuous
 62
     7
370
     0
100
AcDbLine
 10
99.8135776973
 20
222.4103160089
 30
0.0
 11
100.0055400437
 21
223.5948651915
 31
0.0
  0
LINE
  5
9A
330
1F
100
AcDbEntity
  8
0
  6
Continuous
 62
     7
370
     0
100
AcDbLine
 10
100.7513431615
 20
222.2583465164
 30
0.0
 11
99.9515028453
 21
217.3227373397
 31
0.0
  0
LINE
  5
9B
330
1F
100
AcDbEntity
  8
0
  6
Continuous
 62
     7
370
     0
100
AcDbLine
 10
100.6424883163
 20
217.2107588386
 30
0.0
 11
101.4423286325
 21
222.1463717406
 31
0.0
  0
LINE
  5
9C
330
1F
100
AcDbEntity
  8
0
  6
Continuous
 62
     7
370
     0
100
AcDbLine
 10
98.7770994908
 20
222.5782856231
 30
0.0
 11
97.9772591746
 21
217.6426727211
 31
0.0
  0
LINE
  5
9D
330
1F
100
AcDbEntity
  8
0
  6
Continuous
 62
     7
370
     0
100
AcDbLine
 10
98.6682446456
 20
217.5306960827
 30
0.0
 11
99.4680849618
 21
222.4663071221
 31
0.0
  0
LINE
  5
9E
330
1F
100
AcDbEntity
  8
0
  6
Continuous
 62
     7
370
     0
100
AcDbLine
 10
89.1429129771
 20
173.2353608941
 30
0.0
 11
89.1429129771
 21
214.235360164
 31
0.0
  0
LINE
  5
9F
330
1F
100
AcDbEntity
  8
0
  6
Continuous
 62
     7
370
     0
100
AcDbLine
 10
89.1429129771
 20
214.235360164
 30
0.0
 11
90.142913141
 21
213.2353618627
 31
0.0
  0
LINE
  5
A0
330
1F
100
AcDbEntity
  8
0
  6
Continuous
 62
     7
370
     0
100
AcDbLine
 10
90.142913141
 20
213.2353618627
 30
0.0
 11
90.142913141
 21
173.2353608941
 31
0.0
  0
LINE
  5
A1
330
1F
100
AcDbEntity
  8
0
  6
Continuous
 62
     7
370
     0
100
AcDbLine
 10
90.142913141
 20
173.2353608941
 30
0.0
 11
89.1429129771
 21
173.2353608941
 31
0.0
  0
LINE
  5
A2
330
1F
100
AcDbEntity
  8
0
  6
Continuous
 62
     7
370
     0
100
AcDbLine
 10
89.1429129771
 20
214.235360164
 30
0.0
 11
65.1429136998
 21
214.235360164
 31
0.0
  0
LINE
  5
A3
330
1F
100
AcDbEntity
  8
0
  6
Continuous
 62
     7
370
     0
100
AcDbLine
 10
65.1429136998
 20
214.235360164
 30
0.0
 11
67.1429130963
 21
216.2353604918
 31
0.0
  0
LINE
  5
A4
330
1F
100
AcDbEntity
  8
0
  6
Continuous
 62
     7
370
     0
100
AcDbLine
 10
67.1429130963
 20
216.2353604918
 30
0.0
 11
74.1429133123
 21
216.2353604918
 31
0.0
  0
LINE
  5
A5
330
1F
100
AcDbEntity
  8
0
  6
Continuous
 62
     7
370
     0
100
AcDbLine
 10
74.1429133123
 20
217.435360316
 30
0.0
 11
74.1429133123
 21
216.2353604918
 31
0.0
  0
LINE
  5
A6
330
1F
100
AcDbEntity
  8
0
  6
Continuous
 62
     7
370
     0
100
AcDbLine
 10
80.1429133645
 20
217.435360316
 30
0.0
 11
74.1429133123
 21
217.435360316
 31
0.0
  0
LINE
  5
A7
330
1F
100
AcDbEntity
  8
0
  6
Continuous
 62
     7
370
     0
100
AcDbLine
 10
80.1429133645
 20
216.2353604918
 30
0.0
 11
80.1429133645
 21
217.435360316
 31
0.0
  0
LINE
  5
A8
330
1F
100
AcDbEntity
  8
0
  6
Continuous
 62
     7
370
     0
100
AcDbLine
 10
80.1429133645
 20
216.2353604918
 30
0.0
 11
87.1429135806
 21
216.2353604918
 31
0.0
  0
LINE
  5
A9
330
1F
100
AcDbEntity
  8
0
  6
Continuous
 62
     7
370
     0
100
AcDbLine
 10
87.1429135806
 20
216.2353604918
 30
0.0
 11
89.1429129771
 21
214.235360164
 31
0.0
  0
LINE
  5
AA
330
1F
100
AcDbEntity
  8
0
  6
Continuous
 62
     7
370
     0
100
AcDbLine
 10
65.1429136998
 20
214.235360164
 30
0.0
 11
65.1429136998
 21
173.2353608941
 31
0.0
  0
CIRCLE
  5
AB
330
1F
100
AcDbEntity
  8
0
  6
Continuous
 62
     7
370
     0
100
AcDbCircle
 10
67.1429132787
 20
206.7353609746
 30
0.0
 40
1.80000000000004
  0
CIRCLE
  5
AC
330
1F
100
AcDbEntity
  8
0
  6
Continuous
 62
     7
370
     0
100
AcDbCircle
 10
87.1429132787
 20
206.7353609746
 30
0.0
 40
1.80000000000004
  0
CIRCLE
  5
AD
330
1F
100
AcDbEntity
  8
0
  6
Continuous
 62
     7
370
     0
100
AcDbCircle
 10
77.1429132787
 20
203.2353609746
 30
0.0
 40
2.249999999999972
  0
CIRCLE
  5
AE
330
1F
100
AcDbEntity
  8
0
  6
Continuous
 62
     7
370
     0
100
AcDbCircle
 10
85.1429132787
 20
177.2353609746
 30
0.0
 40
2.249999999999943
  0
CIRCLE
  5
AF
330
1F
100
AcDbEntity
  8
0
  6
Continuous
 62
     7
370
     0
100
AcDbCircle
 10
69.1429132787
 20
177.2353609746
 30
0.0
 40
2.249999999999943
  0
LINE
  5
B0
330
1F
100
AcDbEntity
  8
0
  6
Continuous
 62
     7
370
     0
100
AcDbLine
 10
65.1429136998
 20
173.2353608941
 30
0.0
 11
89.1429129771
 21
173.2353608941
 31
0.0
  0
LINE
  5
B1
330
1F
100
AcDbEntity
  8
0
  6
Continuous
 62
     7
370
     0
100
AcDbLine
 10
64.1429135359
 20
173.2353608941
 30
0.0
 11
64.1429135359
 21
213.2353618627
 31
0.0
  0
LINE
  5
B2
330
1F
100
AcDbEntity
  8
0
  6
Continuous
 62
     7
370
     0
100
AcDbLine
 10
64.1429135359
 20
213.2353618627
 30
0.0
 11
65.1429136998
 21
214.235360164
 31
0.0
  0
LINE
  5
B3
330
1F
100
AcDbEntity
  8
0
  6
Continuous
 62
     7
370
     0
100
AcDbLine
 10
65.1429136998
 20
173.2353608941
 30
0.0
 11
64.1429135359
 21
173.2353608941
 31
0.0
  0
CIRCLE
  5
B4
330
1F
100
AcDbEntity
  8
0
  6
Continuous
 62
     7
370
     0
100
AcDbCircle
 10
87.1429132787
 20
206.7353609746
 30
0.0
 40
1.5
  0
CIRCLE
  5
B5
330
1F
100
AcDbEntity
  8
0
  6
Continuous
 62
     7
370
     0
100
AcDbCircle
 10
67.1429132787
 20
206.7353609746
 30
0.0
 40
1.5
  0
CIRCLE
  5
B6
330
1F
100
AcDbEntity
  8
0
  6
Continuous
 62
     7
370
     0
100
AcDbCircle
 10
85.1429132787
 20
177.2353609746
 30
0.0
 40
1.649999999999977
  0
CIRCLE
  5
B7
330
1F
100
AcDbEntity
  8
0
  6
Continuous
 62
     7
370
     0
100
AcDbCircle
 10
77.1429132787
 20
203.2353609746
 30
0.0
 40
1.649999999999977
  0
CIRCLE
  5
B8
330
1F
100
AcDbEntity
  8
0
  6
Continuous
 62
     7
370
     0
100
AcDbCircle
 10
69.1429132787
 20
177.2353609746
 30
0.0
 40
1.650000000000006
  0
LINE
  5
B9
330
1F
100
AcDbEntity
  8
0
  6
Continuous
 62
     7
370
     0
100
AcDbLine
 10
71.1429132863
 20
157.7353611475
 30
0.0
 11
83.1429133906
 21
157.7353611475
 31
0.0
  0
LINE
  5
BA
330
1F
100
AcDbEntity
  8
0
  6
Continuous
 62
     7
370
     0
100
AcDbLine
 10
82.6429133086
 20
157.2353601342
 30
0.0
 11
71.6429133682
 21
157.2353601342
 31
0.0
  0
LINE
  5
BB
330
1F
100
AcDbEntity
  8
0
  6
Continuous
 62
     7
370
     0
100
AcDbLine
 10
63.6403793252
 20
184.5898818111
 30
0.0
 11
64.1429135359
 21
184.6713199166
 31
0.0
  0
LINE
  5
BC
330
1F
100
AcDbEntity
  8
0
  6
Continuous
 62
     7
370
     0
100
AcDbLine
 10
63.6403793252
 20
184.5898818111
 30
0.0
 11
61.240856514
 21
199.396713998
 31
0.0
  0
LINE
  5
BD
330
1F
100
AcDbEntity
  8
0
  6
Continuous
 62
     7
370
     0
100
AcDbLine
 10
74.8089148911
 20
218.8172660654
 30
0.0
 11
70.3668650022
 21
218.0974095946
 31
0.0
  0
ARC
  5
BE
330
1F
100
AcDbEntity
  8
0
  6
Continuous
 62
     7
370
     0
100
AcDbCircle
 10
70.6868013912
 20
216.1231646073
 30
0.0
 40
2.000000000000004
100
AcDbArc
 50
99.2050467096
 51
176.784122601
  0
LINE
  5
BF
330
1F
100
AcDbEntity
  8
0
  6
Continuous
 62
     7
370
     0
100
AcDbLine
 10
67.2579863823
 20
244.9458375459
 30
0.0
 11
66.4833467236
 21
244.3330608194
 31
0.0
  0
LINE
  5
C0
330
1F
100
AcDbEntity
  8
0
  6
Continuous
 62
     7
370
     0
100
AcDbLine
 10
70.4897753677
 20
245.4695649331
 30
0.0
 11
74.8089148911
 21
218.8172660654
 31
0.0
  0
LINE
  5
C1
330
1F
100
AcDbEntity
  8
0
  6
Continuous
 62
     7
370
     0
100
AcDbLine
 10
61.240856514
 20
199.396713998
 30
0.0
 11
66.4833467236
 21
244.3330608194
 31
0.0
  0
LINE
  5
C2
330
1F
100
AcDbEntity
  8
0
  6
Continuous
 62
     7
370
     0
100
AcDbLine
 10
67.2579863823
 20
244.9458375459
 30
0.0
 11
70.4897753677
 21
245.4695649331
 31
0.0
  0
ARC
  5
C3
330
1F
100
AcDbEntity
  8
0
  6
Continuous
 62
     7
370
     0
100
AcDbCircle
 10
83.5990251662
 20
216.1231646073
 30
0.0
 40
2.000000000000008
100
AcDbArc
 50
3.215877399
 51
80.7949532904
  0
LINE
  5
C4
330
1F
100
AcDbEntity
  8
0
  6
Continuous
 62
     7
370
     0
100
AcDbLine
 10
79.4769116693
 20
218.8172660654
 30
0.0
 11
83.9189612089
 21
218.0974095946
 31
0.0
  0
LINE
  5
C5
330
1F
100
AcDbEntity
  8
0
  6
Continuous
 62
     7
370
     0
100
AcDbLine
 10
83.7960513091
 20
245.4695649331
 30
0.0
 11
79.4769116693
 21
218.8172660654
 31
0.0
  0
LINE
  5
C6
330
1F
100
AcDbEntity
  8
0
  6
Continuous
 62
     7
370
     0
100
AcDbLine
 10
90.2123451016
 20
244.4297730809
 30
0.0
 11
83.7960513091
 21
245.4695649331
 31
0.0
  0
LINE
  5
C7
330
1F
100
AcDbEntity
  8
0
  6
Continuous
 62
     7
370
     0
100
AcDbLine
 10
90.6259221739
 20
243.8562273865
 30
0.0
 11
90.2123451016
 21
244.4297730809
 31
0.0
  0
LINE
  5
C8
330
1F
100
AcDbEntity
  8
0
  6
Continuous
 62
     7
370
     0
100
AcDbLine
 10
90.6259221739
 20
243.8562273865
 30
0.0
 11
89.7780917368
 21
238.6244781202
 31
0.0
  0
ARC
  5
C9
330
1F
100
AcDbEntity
  8
0
  6
Continuous
 62
     7
370
     0
100
AcDbCircle
 10
99.596138826
 20
224.1941825137
 30
0.0
 40
9.999999999999996
100
AcDbArc
 50
173.8107294509
 51
188.1489779267
  0
LINE
  5
CA
330
1F
100
AcDbEntity
  8
0
  6
Continuous
 62
     7
370
     0
100
AcDbLine
 10
93.0449692315
 20
199.396713998
 30
0.0
 11
89.6971104449
 21
222.7767094856
 31
0.0
  0
LINE
  5
CB
330
1F
100
AcDbEntity
  8
0
  6
Continuous
 62
     7
370
     0
100
AcDbLine
 10
90.6454473517
 20
184.5898818111
 30
0.0
 11
93.0449692315
 21
199.396713998
 31
0.0
  0
LINE
  5
CC
330
1F
100
AcDbEntity
  8
0
  6
Continuous
 62
     7
370
     0
100
AcDbLine
 10
90.142913141
 20
184.6713199166
 30
0.0
 11
90.6454473517
 21
184.5898818111
 31
0.0
  0
CIRCLE
  5
CD
330
1F
100
AcDbEntity
  8
0
  6
Continuous
 62
     7
370
     0
100
AcDbCircle
 10
85.538537461
 20
241.8441344969
 30
0.0
 40
1.000000000000004
  0
CIRCLE
  5
CE
330
1F
100
AcDbEntity
  8
0
  6
Continuous
 62
     7
370
     0
100
AcDbCircle
 10
82.5365991825
 20
222.069697297
 30
0.0
 40
1.499999999999978
  0
LINE
  5
CF
330
1F
100
AcDbEntity
  8
0
  6
Continuous
 62
     7
370
     0
100
AcDbLine
 10
63.6403793252
 20
184.5898818111
 30
0.0
 11
64.1429135359
 21
184.2275097852
 31
0.0
  0
LINE
  5
D0
330
1F
100
AcDbEntity
  8
0
  6
Continuous
 62
     7
370
     0
100
AcDbLine
 10
90.6454473517
 20
184.5898818111
 30
0.0
 11
90.142913141
 21
184.2275097852
 31
0.0
  0
LWPOLYLINE
  5
D1
330
1F
100
AcDbEntity
  8
0
  6
Continuous
 62
     7
370
     0
100
AcDbPolyline
 90
        9
 70
   128
 43
0.0
 10
88.5628536126
 20
228.4927762931
 10
88.5841212949
 20
228.5732835417
 10
88.6053191281
 20
228.6535225695
 10
88.6264350048
 20
228.7334561234
 10
88.6474605432
 20
228.8130469506
 10
88.6683864302
 20
228.8922577983
 10
88.6892033524
 20
228.9710588639
 10
88.7099019966
 20
229.0494091695
 10
88.7304721183
 20
229.1272789126
  0
ARC
  5
D2
330
1F
100
AcDbEntity
  8
0
  6
Continuous
 62
     7
370
     0
100
AcDbCircle
 10
86.1175166787
 20
220.6847763786
 30
0.0
 40
8.837611960573948
100
AcDbArc
 50
72.8026980973
 51
77.6016464093
  0
LWPOLYLINE
  5
D3
330
1F
100
AcDbEntity
  8
0
  6
Continuous
 62
     7
370
     0
100
AcDbPolyline
 90
        9
 70
   128
 43
0.0
 10
88.0150161466
 20
229.3162815159
 10
87.9944460249
 20
229.2384154981
 10
87.9737473807
 20
229.1600651925
 10
87.9529304585
 20
229.0812641268
 10
87.9320045716
 20
229.0020495539
 10
87.9109790331
 20
228.922462452
 10
87.8898631564
 20
228.8425288981
 10
87.8686662546
 20
228.7622898703
 10
87.847397641
 20
228.6817788964
  0
ARC
  5
D4
330
1F
100
AcDbEntity
  8
0
  6
Continuous
 62
     7
370
     0
100
AcDbCircle
 10
88.0664323092
 20
228.062271501
 30
0.0
 40
0.6570903894995308
100
AcDbArc
 50
109.4716653595
 51
130.9323574682
  0
ARC
  5
D5
330
1F
100
AcDbEntity
  8
0
  6
Continuous
 62
     7
370
     0
100
AcDbCircle
 10
95.4434304646
 20
226.1134669387
 30
0.0
 40
8.837104004788012
100
AcDbArc
 50
162.8024346122
 51
167.6016678589
  0
LWPOLYLINE
  5
D6
330
1F
100
AcDbEntity
  8
0
  6
Continuous
 62
     7
370
     0
100
AcDbPolyline
 90
        9
 70
   128
 43
0.0
 10
86.8124207264
 20
228.0108541136
 10
86.8902886069
 20
227.9902830606
 10
86.9686398438
 20
227.9695853477
 10
87.0474399781
 20
227.9487684255
 10
87.1266526884
 20
227.9278434699
 10
87.2062425843
 20
227.9068179315
 10
87.2861752069
 20
227.8857029861
 10
87.3664142347
 20
227.8645060843
 10
87.4469233459
 20
227.843238402
  0
ARC
  5
D7
330
1F
100
AcDbEntity
  8
0
  6
Continuous
 62
     7
370
     0
100
AcDbCircle
 10
88.0664323092
 20
228.062271501
 30
0.0
 40
0.6570903894995073
100
AcDbArc
 50
199.4716653595
 51
220.9323574682
  0
LWPOLYLINE
  5
D8
330
1F
100
AcDbEntity
  8
0
  6
Continuous
 62
     7
370
     0
100
AcDbPolyline
 90
        9
 70
   128
 43
0.0
 10
87.570011594
 20
227.6317685729
 10
87.5487429804
 20
227.5512575989
 10
87.5275460786
 20
227.4710185712
 10
87.5064302018
 20
227.3910850173
 10
87.4854037321
 20
227.3114979153
 10
87.4644778452
 20
227.2322833424
 10
87.4436618543
 20
227.1534822767
 10
87.4229632101
 20
227.0751319712
 10
87.402392157
 20
226.9972659534
  0
ARC
  5
D9
330
1F
100
AcDbEntity
  8
0
  6
Continuous
 62
     7
370
     0
100
AcDbCircle
 10
90.0148166019
 20
235.437588358
 30
0.0
 40
8.835372305365246
100
AcDbArc
 50
252.8018075469
 51
257.6019792191
  0
LWPOLYLINE
  5
DA
330
1F
100
AcDbEntity
  8
0
  6
Continuous
 62
     7
370
     0
100
AcDbPolyline
 90
        9
 70
   128
 43
0.0
 10
88.1178481287
 20
226.8082596248
 10
88.1384191817
 20
226.8861293679
 10
88.1591178259
 20
226.9644796734
 10
88.1799338168
 20
227.0432807391
 10
88.2008597037
 20
227.1224915867
 10
88.2218861735
 20
227.202082414
 10
88.2430020502
 20
227.2820159679
 10
88.264198952
 20
227.3622549956
 10
88.2854675657
 20
227.4427622443
  0
ARC
  5
DB
330
1F
100
AcDbEntity
  8
0
  6
Continuous
 62
     7
370
     0
100
AcDbCircle
 10
88.0664323092
 20
228.062271501
 30
0.0
 40
0.6570903894994972
100
AcDbArc
 50
289.4716653595
 51
310.9323574682
  0
LWPOLYLINE
  5
DC
330
1F
100
AcDbEntity
  8
0
  6
Continuous
 62
     7
370
     0
100
AcDbPolyline
 90
        9
 70
   128
 43
0.0
 10
88.4969364634
 20
227.565849561
 10
88.5774455747
 20
227.5445818787
 10
88.6576846025
 20
227.5233849769
 10
88.7376172251
 20
227.5022700315
 10
88.817207121
 20
227.4812444931
 10
88.8964198312
 20
227.4603158122
 10
88.9752199656
 20
227.43949889
 10
89.0535712025
 20
227.4188011771
 10
89.1314390829
 20
227.3982301241
  0
ARC
  5
DD
330
1F
100
AcDbEntity
  8
0
  6
Continuous
 62
     7
370
     0
100
AcDbCircle
 10
80.6883199953
 20
230.0113796787
 30
0.0
 40
8.838258342211954
100
AcDbArc
 50
342.8026777128
 51
347.6012853233
  0
LWPOLYLINE
  5
DE
330
1F
100
AcDbEntity
  8
0
  6
Continuous
 62
     7
370
     0
100
AcDbPolyline
 90
        9
 70
   128
 43
0.0
 10
89.3204444802
 20
228.113687027
 10
89.2425756684
 20
228.1342580801
 10
89.1642244315
 20
228.154955793
 10
89.0854242972
 20
228.1757727152
 10
89.0062125182
 20
228.1966976708
 10
88.926621691
 20
228.2177232092
 10
88.8466890684
 20
228.2388418799
 10
88.766450972
 20
228.2600387817
 10
88.6859409294
 20
228.281306464
  0
ARC
  5
DF
330
1F
100
AcDbEntity
  8
0
  6
Continuous
 62
     7
370
     0
100
AcDbCircle
 10
88.0664323092
 20
228.062271501
 30
0.0
 40
0.65709038949953
100
AcDbArc
 50
19.4716653595
 51
40.9323574682
  0
CIRCLE
  5
E0
330
1F
100
AcDbEntity
  8
0
  6
Continuous
 62
     7
370
     0
100
AcDbCircle
 10
88.0664323092
 20
228.062271501
 30
0.0
 40
2.404255319148949
  0
LWPOLYLINE
  5
E1
330
1F
100
AcDbEntity
  8
0
  6
Continuous
 62
     7
370
     0
100
AcDbPolyline
 90
        9
 70
   128
 43
0.0
 10
87.6359278119
 20
228.5586915796
 10
87.5554187006
 20
228.579959262
 10
87.4751796729
 20
228.6011561638
 10
87.3952479816
 20
228.6222748345
 10
87.3156571543
 20
228.6433003729
 10
87.2364444441
 20
228.6642253285
 10
87.157645241
 20
228.6850422507
 10
87.0792930728
 20
228.7057399636
 10
87.0014251924
 20
228.7263110166
  0
SPLINE
  5
E2
330
1F
100
AcDbEntity
  8
0
  6
Continuous
 62
     7
370
     0
100
AcDbSpline
210
0.0
220
0.0
230
1.0
 70
    24
 71
     3
 72
     8
 73
     4
 74
     0
 42
0.000000001
 43
0.00000001
 40
0.0
 40
0.0
 40
0.0
 40
0.0
 40
1.0
 40
1.0
 40
1.0
 40
1.0
 10
87.84739737079677
 20
228.68178056126
 30
0.0
 10
87.83697924271908
 20
228.6423439234342
 30
0.0
 10
87.82622865918881
 20
228.6016488133399
 30
0.0
 10
87.8147036264709
 20
228.5580221140099
 30
0.0
  0
ARC
  5
E3
330
1F
100
AcDbEntity
  8
0
  6
Continuous
 62
     7
370
     0
100
AcDbCircle
 10
88.0664323092
 20
228.062271501
 30
0.0
 40
0.5560000000000319
100
AcDbArc
 50
116.9202217955
 51
123.4838010321
  0
SPLINE
  5
E4
330
1F
100
AcDbEntity
  8
0
  6
Continuous
 62
     7
370
     0
100
AcDbSpline
210
0.0
220
0.0
230
1.0
 70
    24
 71
     3
 72
     8
 73
     4
 74
     0
 42
0.000000001
 43
0.00000001
 40
0.0
 40
0.0
 40
0.0
 40
0.0
 40
1.0
 40
1.0
 40
1.0
 40
1.0
 10
87.63592799330877
 20
228.5586925057682
 30
0.0
 10
87.67536463113457
 20
228.5482743776905
 30
0.0
 10
87.71605974122888
 20
228.5375237941603
 30
0.0
 10
87.75968644055882
 20
228.5259987614424
 30
0.0
  0
SPLINE
  5
E5
330
1F
100
AcDbEntity
  8
0
  6
Continuous
 62
     7
370
     0
100
AcDbSpline
210
0.0
220
0.0
230
1.0
 70
    24
 71
     3
 72
     8
 73
     4
 74
     0
 42
0.000000001
 43
0.00000001
 40
0.0
 40
0.0
 40
0.0
 40
0.0
 40
1.0
 40
1.0
 40
1.0
 40
1.0
 10
88.56285331396654
 20
228.49277581692
 30
0.0
 10
88.55243518588884
 20
228.4533391790942
 30
0.0
 10
88.54168460235859
 20
228.4126440689999
 30
0.0
 10
88.53015956964067
 20
228.3690173696699
 30
0.0
  0
SPLINE
  5
E6
330
1F
100
AcDbEntity
  8
0
  6
Continuous
 62
     7
370
     0
100
AcDbSpline
210
0.0
220
0.0
230
1.0
 70
    24
 71
     3
 72
     8
 73
     4
 74
     0
 42
0.000000001
 43
0.00000001
 40
0.0
 40
0.0
 40
0.0
 40
0.0
 40
1.0
 40
1.0
 40
1.0
 40
1.0
 10
88.68594136945833
 20
228.2813064394319
 30
0.0
 10
88.64650473163253
 20
228.2917245675096
 30
0.0
 10
88.60580962153821
 20
228.3024751510399
 30
0.0
 10
88.56218292220827
 20
228.3140001837578
 30
0.0
  0
ARC
  5
E7
330
1F
100
AcDbEntity
  8
0
  6
Continuous
 62
     7
370
     0
100
AcDbCircle
 10
88.0664323092
 20
228.062271501
 30
0.0
 40
0.556000000000012
100
AcDbArc
 50
26.9202217955
 51
33.4838010321
  0
SPLINE
  5
E8
330
1F
100
AcDbEntity
  8
0
  6
Continuous
 62
     7
370
     0
100
AcDbSpline
210
0.0
220
0.0
230
1.0
 70
    24
 71
     3
 72
     8
 73
     4
 74
     0
 42
0.000000001
 43
0.00000001
 40
0.0
 40
0.0
 40
0.0
 40
0.0
 40
1.0
 40
1.0
 40
1.0
 40
1.0
 10
87.44692324896873
 20
227.8432365625984
 30
0.0
 10
87.48635988679453
 20
227.8328184345207
 30
0.0
 10
87.52705499688884
 20
227.8220678509905
 30
0.0
 10
87.57068169621878
 20
227.8105428182726
 30
0.0
  0
ARC
  5
E9
330
1F
100
AcDbEntity
  8
0
  6
Continuous
 62
     7
370
     0
100
AcDbCircle
 10
88.0664323092
 20
228.062271501
 30
0.0
 40
0.5559999999999975
100
AcDbArc
 50
206.9202217955
 51
213.4838010321
  0
SPLINE
  5
EA
330
1F
100
AcDbEntity
  8
0
  6
Continuous
 62
     7
370
     0
100
AcDbSpline
210
0.0
220
0.0
230
1.0
 70
    24
 71
     3
 72
     8
 73
     4
 74
     0
 42
0.000000001
 43
0.00000001
 40
0.0
 40
0.0
 40
0.0
 40
0.0
 40
1.0
 40
1.0
 40
1.0
 40
1.0
 10
87.57001130446052
 20
227.6317671851104
 30
0.0
 10
87.58042943253821
 20
227.6712038229362
 30
0.0
 10
87.59118001606848
 20
227.7118989330305
 30
0.0
 10
87.60270504878638
 20
227.7555256323605
 30
0.0
  0
ARC
  5
EB
330
1F
100
AcDbEntity
  8
0
  6
Continuous
 62
     7
370
     0
100
AcDbCircle
 10
88.0664323092
 20
228.062271501
 30
0.0
 40
0.5559999999999913
100
AcDbArc
 50
296.9202217955
 51
303.4838010321
  0
SPLINE
  5
EC
330
1F
100
AcDbEntity
  8
0
  6
Continuous
 62
     7
370
     0
100
AcDbSpline
210
0.0
220
0.0
230
1.0
 70
    24
 71
     3
 72
     8
 73
     4
 74
     0
 42
0.000000001
 43
0.00000001
 40
0.0
 40
0.0
 40
0.0
 40
0.0
 40
1.0
 40
1.0
 40
1.0
 40
1.0
 10
88.4969366251183
 20
227.5658504962622
 30
0.0
 10
88.4574999872925
 20
227.5762686243399
 30
0.0
 10
88.41680487719819
 20
227.5870192078701
 30
0.0
 10
88.37317817786823
 20
227.598544240588
 30
0.0
  0
SPLINE
  5
ED
330
1F
100
AcDbEntity
  8
0
  6
Continuous
 62
     7
370
     0
100
AcDbSpline
210
0.0
220
0.0
230
1.0
 70
    24
 71
     3
 72
     8
 73
     4
 74
     0
 42
0.000000001
 43
0.00000001
 40
0.0
 40
0.0
 40
0.0
 40
0.0
 40
1.0
 40
1.0
 40
1.0
 40
1.0
 10
88.28546724763028
 20
227.4427624407704
 30
0.0
 10
88.29588537570798
 20
227.4821990785962
 30
0.0
 10
88.30663595923824
 20
227.5228941886905
 30
0.0
 10
88.31816099195616
 20
227.5665208880204
 30
0.0
  0
LINE
  5
EE
330
1F
100
AcDbEntity
  8
0
  6
Continuous
 62
     7
370
     0
100
AcDbLine
 10
88.6169783554
 20
227.9845870917
 30
0.0
 11
88.6947493783
 21
228.2789781576
 31
0.0
  0
LINE
  5
EF
330
1F
100
AcDbEntity
  8
0
  6
Continuous
 62
     7
370
     0
100
AcDbLine
 10
88.5057449123
 20
227.5635249799
 30
0.0
 11
88.5835159353
 21
227.8579160457
 31
0.0
  0
ELLIPSE
  5
F0
330
1F
100
AcDbEntity
  8
0
  6
Continuous
 62
     7
370
     0
100
AcDbEllipse
 10
88.1326274266
 20
228.0447844826
 30
0.0
 11
0.4719744258013208
 21
-0.1246832967637488
 31
0.0
210
0.0
220
0.0
230
1.0
 40
0.9901159119
 41
6.147238359929569
 42
6.419132254429681
  0
LINE
  5
F1
330
1F
100
AcDbEntity
  8
0
  6
Continuous
 62
     7
370
     0
100
AcDbLine
 10
87.5158859199
 20
228.1399577742
 30
0.0
 11
87.438114897
 21
227.8455629831
 31
0.0
  0
LINE
  5
F2
330
1F
100
AcDbEntity
  8
0
  6
Continuous
 62
     7
370
     0
100
AcDbLine
 10
87.6271202943
 20
228.5610198861
 30
0.0
 11
87.5493483401
 21
228.266625095
 31
0.0
  0
ELLIPSE
  5
F3
330
1F
100
AcDbEntity
  8
0
  6
Continuous
 62
     7
370
     0
100
AcDbEllipse
 10
88.0002371919
 20
228.0797585194
 30
0.0
 11
0.471974425801335
 21
-0.1246832967637488
 31
0.0
210
0.0
220
0.0
230
1.0
 40
0.9901159119
 41
3.00564570633975
 42
3.277539600839844
  0
LINE
  5
F4
330
1F
100
AcDbEntity
  8
0
  6
Continuous
 62
     7
370
     0
100
AcDbLine
 10
88.1441188759
 20
228.6128163224
 30
0.0
 11
87.8497240848
 21
228.6905892079
 31
0.0
  0
LINE
  5
F5
330
1F
100
AcDbEntity
  8
0
  6
Continuous
 62
     7
370
     0
100
AcDbLine
 10
88.5651800564
 20
228.5015828794
 30
0.0
 11
88.2707861966
 21
228.5793557649
 31
0.0
  0
ELLIPSE
  5
F6
330
1F
100
AcDbEntity
  8
0
  6
Continuous
 62
     7
370
     0
100
AcDbEllipse
 10
88.0839193276
 20
228.1284666184
 30
0.0
 11
0.1246832967637488
 21
0.471974425801335
 31
0.0
210
0.0
220
0.0
230
1.0
 40
0.9901159119
 41
6.147238359929593
 42
6.419132254429628
  0
LINE
  5
F7
330
1F
100
AcDbEntity
  8
0
  6
Continuous
 62
     7
370
     0
100
AcDbLine
 10
87.9887463308
 20
227.5117248183
 30
0.0
 11
88.2831401906
 21
227.433955658
 31
0.0
  0
LINE
  5
F8
330
1F
100
AcDbEntity
  8
0
  6
Continuous
 62
     7
370
     0
100
AcDbLine
 10
87.5676842189
 20
227.6229582613
 30
0.0
 11
87.86207901
 21
227.545189101
 31
0.0
  0
ELLIPSE
  5
F9
330
1F
100
AcDbEntity
  8
0
  6
Continuous
 62
     7
370
     0
100
AcDbEllipse
 10
88.0489452908
 20
227.9960763837
 30
0.0
 11
0.1246832967637488
 21
0.471974425801335
 31
0.0
210
0.0
220
0.0
230
1.0
 40
0.9901159119
 41
3.005645706339788
 42
3.277539600839869
  0
CIRCLE
  5
FA
330
1F
100
AcDbEntity
  8
0
  6
Continuous
 62
     7
370
     0
100
AcDbCircle
 10
88.0664323092
 20
228.062271501
 30
0.0
 40
2.499999999999992
  0
ARC
  5
FB
330
1F
100
AcDbEntity
  8
0
  6
Continuous
 62
     7
370
     0
100
AcDbCircle
 10
88.0664323092
 20
228.062271501
 30
0.0
 40
0.556000000000033
100
AcDbArc
 50
68.4358562223
 51
81.9681666054
  0
ARC
  5
FC
330
1F
100
AcDbEntity
  8
0
  6
Continuous
 62
     7
370
     0
100
AcDbCircle
 10
88.0664323092
 20
228.062271501
 30
0.0
 40
0.5559999999999989
100
AcDbArc
 50
338.4358562223
 51
351.9681666054
  0
ARC
  5
FD
330
1F
100
AcDbEntity
  8
0
  6
Continuous
 62
     7
370
     0
100
AcDbCircle
 10
88.0664323092
 20
228.062271501
 30
0.0
 40
0.5560000000000069
100
AcDbArc
 50
158.4358562223
 51
171.9681666054
  0
ARC
  5
FE
330
1F
100
AcDbEntity
  8
0
  6
Continuous
 62
     7
370
     0
100
AcDbCircle
 10
88.0664323092
 20
228.062271501
 30
0.0
 40
0.5559999999999837
100
AcDbArc
 50
248.4358562223
 51
261.9681666054
  0
ARC
  5
FF
330
1F
100
AcDbEntity
  8
0
  6
Continuous
 62
     7
370
     0
100
AcDbCircle
 10
88.0664323092
 20
228.062271501
 30
0.0
 40
0.5560000000000319
100
AcDbArc
 50
123.4838010321
 51
158.4358562223
  0
ARC
  5
100
330
1F
100
AcDbEntity
  8
0
  6
Continuous
 62
     7
370
     0
100
AcDbCircle
 10
88.0664323092
 20
228.062271501
 30
0.0
 40
0.556000000000033
100
AcDbArc
 50
81.9681666054
 51
116.9202217955
  0
ARC
  5
101
330
1F
100
AcDbEntity
  8
0
  6
Continuous
 62
     7
370
     0
100
AcDbCircle
 10
88.0664323092
 20
228.062271501
 30
0.0
 40
0.556000000000012
100
AcDbArc
 50
33.4838010321
 51
68.4358562223
  0
ARC
  5
102
330
1F
100
AcDbEntity
  8
0
  6
Continuous
 62
     7
370
     0
100
AcDbCircle
 10
88.0664323092
 20
228.062271501
 30
0.0
 40
0.5559999999999989
100
AcDbArc
 50
351.9681666054
 51
26.9202217955
  0
ARC
  5
103
330
1F
100
AcDbEntity
  8
0
  6
Continuous
 62
     7
370
     0
100
AcDbCircle
 10
88.0664323092
 20
228.062271501
 30
0.0
 40
0.5559999999999969
100
AcDbArc
 50
303.4838010321
 51
338.4358562223
  0
ARC
  5
104
330
1F
100
AcDbEntity
  8
0
  6
Continuous
 62
     7
370
     0
100
AcDbCircle
 10
88.0664323092
 20
228.062271501
 30
0.0
 40
0.5559999999999913
100
AcDbArc
 50
261.9681666054
 51
296.9202217955
  0
ARC
  5
105
330
1F
100
AcDbEntity
  8
0
  6
Continuous
 62
     7
370
     0
100
AcDbCircle
 10
88.0664323092
 20
228.062271501
 30
0.0
 40
0.5559999999999963
100
AcDbArc
 50
213.4838010321
 51
248.4358562223
  0
ARC
  5
106
330
1F
100
AcDbEntity
  8
0
  6
Continuous
 62
     7
370
     0
100
AcDbCircle
 10
88.0664323092
 20
228.062271501
 30
0.0
 40
0.5560000000000069
100
AcDbArc
 50
171.9681666054
 51
206.9202217955
  0
LINE
  5
107
330
1F
100
AcDbEntity
  8
0
  6
Continuous
 62
     7
370
     0
100
AcDbLine
 10
78.6861119342
 20
154.5353591328
 30
0.0
 11
78.6861119342
 21
157.2353601342
 31
0.0
  0
SPLINE
  5
108
330
1F
100
AcDbEntity
  8
0
  6
Continuous
 62
     7
370
     0
100
AcDbSpline
210
0.0
220
0.0
230
1.0
 70
     8
 71
     3
 72
     8
 73
     4
 74
     0
 42
0.000000001
 43
0.00000001
 40
0.0
 40
0.0
 40
0.0
 40
0.0
 40
1.0
 40
1.0
 40
1.0
 40
1.0
 10
77.1081979908192
 20
154.235360974632
 30
0.0
 10
77.65318032044996
 20
154.2353609746075
 30
0.0
 10
78.17667194144117
 20
154.3484044528066
 30
0.0
 10
78.68611194524203
 20
154.5353609744751
 30
0.0
  0
SPLINE
  5
109
330
1F
100
AcDbEntity
  8
0
  6
Continuous
 62
     7
370
     0
100
AcDbSpline
210
0.0
220
0.0
230
1.0
 70
     8
 71
     3
 72
     8
 73
     4
 74
     0
 42
0.000000001
 43
0.00000001
 40
0.0
 40
0.0
 40
0.0
 40
0.0
 40
1.0
 40
1.0
 40
1.0
 40
1.0
 10
75.53028403643903
 20
154.5353609745913
 30
0.0
 10
76.03972404016534
 20
154.3484044529177
 30
0.0
 10
76.56321566125659
 20
154.2353609746564
 30
0.0
 10
77.1081979908192
 20
154.235360974632
 30
0.0
  0
LINE
  5
10A
330
1F
100
AcDbEntity
  8
0
  6
Continuous
 62
     7
370
     0
100
AcDbLine
 10
75.5302840626
 20
157.2353601342
 30
0.0
 11
75.5302840626
 21
154.5353591328
 31
0.0
  0
LINE
  5
10B
330
1F
100
AcDbEntity
  8
0
  6
Continuous
 62
     7
370
     0
100
AcDbLine
 10
78.6861119342
 20
154.5353591328
 30
0.0
 11
79.7887097361
 21
154.5353591328
 31
0.0
  0
SPLINE
  5
10C
330
1F
100
AcDbEntity
  8
0
  6
Continuous
 62
     7
370
     0
100
AcDbSpline
210
0.0
220
0.0
230
1.0
 70
     8
 71
     3
 72
     8
 73
     4
 74
     0
 42
0.000000001
 43
0.00000001
 40
0.0
 40
0.0
 40
0.0
 40
0.0
 40
1.0
 40
1.0
 40
1.0
 40
1.0
 10
79.78870963404451
 20
154.5353609744938
 30
0.0
 10
80.04725877208689
 20
154.348404452811
 30
0.0
 10
80.31293933594085
 20
154.2353609745229
 30
0.0
 10
80.589526785939
 20
154.2353609745127
 30
0.0
  0
LINE
  5
10D
330
1F
100
AcDbEntity
  8
0
  6
Continuous
 62
     7
370
     0
100
AcDbLine
 10
77.1081979984
 20
154.2353615051
 30
0.0
 11
80.5895267768
 21
154.2353615051
 31
0.0
  0
LINE
  5
10E
330
1F
100
AcDbEntity
  8
0
  6
Continuous
 62
     7
370
     0
100
AcDbLine
 10
74.4386813386
 20
154.5353591328
 30
0.0
 11
75.5302840626
 21
154.5353591328
 31
0.0
  0
LINE
  5
10F
330
1F
100
AcDbEntity
  8
0
  6
Continuous
 62
     7
370
     0
100
AcDbLine
 10
73.6615843854
 20
154.2353615051
 30
0.0
 11
77.1081979984
 21
154.2353615051
 31
0.0
  0
SPLINE
  5
110
330
1F
100
AcDbEntity
  8
0
  6
Continuous
 62
     7
370
     0
100
AcDbSpline
210
0.0
220
0.0
230
1.0
 70
     8
 71
     3
 72
     8
 73
     4
 74
     0
 42
0.000000001
 43
0.00000001
 40
0.0
 40
0.0
 40
0.0
 40
0.0
 40
1.0
 40
1.0
 40
1.0
 40
1.0
 10
73.66158448365046
 20
154.2353609745278
 30
0.0
 10
73.92997936326158
 20
154.2353609744883
 30
0.0
 10
74.18779042057349
 20
154.3484044527023
 30
0.0
 10
74.4386812863037
 20
154.5353609743776
 30
0.0
  0
LINE
  5
111
330
1F
100
AcDbEntity
  8
0
  6
Continuous
 62
     7
370
     0
100
AcDbLine
 10
79.7887097361
 20
157.2353601342
 30
0.0
 11
79.7887097361
 21
154.5353591328
 31
0.0
  0
LINE
  5
112
330
1F
100
AcDbEntity
  8
0
  6
Continuous
 62
     7
370
     0
100
AcDbLine
 10
74.4386813386
 20
154.5353591328
 30
0.0
 11
74.4386813386
 21
157.2353601342
 31
0.0
  0
LINE
  5
113
330
1F
100
AcDbEntity
  8
0
  6
Continuous
 62
     7
370
     0
100
AcDbLine
 10
81.3903440504
 20
154.5353591328
 30
0.0
 11
81.3903440504
 21
157.2353601342
 31
0.0
  0
SPLINE
  5
114
330
1F
100
AcDbEntity
  8
0
  6
Continuous
 62
     7
370
     0
100
AcDbSpline
210
0.0
220
0.0
230
1.0
 70
     8
 71
     3
 72
     8
 73
     4
 74
     0
 42
0.000000001
 43
0.00000001
 40
0.0
 40
0.0
 40
0.0
 40
0.0
 40
1.0
 40
1.0
 40
1.0
 40
1.0
 10
80.58952678591037
 20
154.2353609745278
 30
0.0
 10
80.86611423586227
 20
154.2353609745183
 30
0.0
 10
81.13179479955963
 20
154.3484044526568
 30
0.0
 10
81.39034393757218
 20
154.5353609742498
 30
0.0
  0
SPLINE
  5
115
330
1F
100
AcDbEntity
  8
0
  6
Continuous
 62
     7
370
     0
100
AcDbSpline
210
0.0
220
0.0
230
1.0
 70
     8
 71
     3
 72
     8
 73
     4
 74
     0
 42
0.000000001
 43
0.00000001
 40
0.0
 40
0.0
 40
0.0
 40
0.0
 40
1.0
 40
1.0
 40
1.0
 40
1.0
 10
72.88448768123465
 20
154.5353609743659
 30
0.0
 10
73.13537854689244
 20
154.3484044527478
 30
0.0
 10
73.39318960408305
 20
154.2353609745528
 30
0.0
 10
73.66158448361594
 20
154.2353609745126
 30
0.0
  0
LINE
  5
116
330
1F
100
AcDbEntity
  8
0
  6
Continuous
 62
     7
370
     0
100
AcDbLine
 10
72.8844878978
 20
157.2353601342
 30
0.0
 11
72.8844878978
 21
154.5353591328
 31
0.0
  0
LINE
  5
117
330
1F
100
AcDbEntity
  8
0
  6
Continuous
 62
     7
370
     0
100
AcDbLine
 10
81.3903440504
 20
154.5353591328
 30
0.0
 11
81.4429132516
 21
154.5353591328
 31
0.0
  0
LINE
  5
118
330
1F
100
AcDbEntity
  8
0
  6
Continuous
 62
     7
370
     0
100
AcDbLine
 10
80.5895267768
 20
154.2353615051
 30
0.0
 11
81.1429132956
 21
154.2353615051
 31
0.0
  0
LINE
  5
119
330
1F
100
AcDbEntity
  8
0
  6
Continuous
 62
     7
370
     0
100
AcDbLine
 10
72.8429131924
 20
154.5353591328
 30
0.0
 11
72.8844878978
 21
154.5353591328
 31
0.0
  0
LINE
  5
11A
330
1F
100
AcDbEntity
  8
0
  6
Continuous
 62
     7
370
     0
100
AcDbLine
 10
73.1429131484
 20
154.2353615051
 30
0.0
 11
73.6615843854
 21
154.2353615051
 31
0.0
  0
LINE
  5
11B
330
1F
100
AcDbEntity
  8
0
  6
Continuous
 62
     7
370
     0
100
AcDbLine
 10
77.1272913918
 20
151.735360164
 30
0.0
 11
78.9429133075
 21
151.735360164
 31
0.0
  0
LINE
  5
11C
330
1F
100
AcDbEntity
  8
0
  6
Continuous
 62
     7
370
     0
100
AcDbLine
 10
75.3429133693
 20
151.735360164
 30
0.0
 11
77.1272913918
 21
151.735360164
 31
0.0
  0
LINE
  5
11D
330
1F
100
AcDbEntity
  8
0
  6
Continuous
 62
     7
370
     0
100
AcDbLine
 10
75.3429133693
 20
152.2353611773
 30
0.0
 11
78.9428454374
 21
152.2353611773
 31
0.0
  0
LINE
  5
11E
330
1F
100
AcDbEntity
  8
0
  6
Continuous
 62
     7
370
     0
100
AcDbLine
 10
77.1272913918
 20
149.2353625482
 30
0.0
 11
78.9429133075
 21
149.2353625482
 31
0.0
  0
LINE
  5
11F
330
1F
100
AcDbEntity
  8
0
  6
Continuous
 62
     7
370
     0
100
AcDbLine
 10
75.3429133693
 20
149.2353625482
 30
0.0
 11
77.1272913918
 21
149.2353625482
 31
0.0
  0
LINE
  5
120
330
1F
100
AcDbEntity
  8
0
  6
Continuous
 62
     7
370
     0
100
AcDbLine
 10
77.1298950204
 20
147.2353622203
 30
0.0
 11
78.6429132932
 21
147.2353622203
 31
0.0
  0
LINE
  5
121
330
1F
100
AcDbEntity
  8
0
  6
Continuous
 62
     7
370
     0
100
AcDbLine
 10
75.6429133254
 20
147.2353622203
 30
0.0
 11
77.1298950204
 21
147.2353622203
 31
0.0
  0
LINE
  5
122
330
1F
100
AcDbEntity
  8
0
  6
Continuous
 62
     7
370
     0
100
AcDbLine
 10
75.3429133693
 20
149.7353598362
 30
0.0
 11
78.9428454374
 21
149.7353598362
 31
0.0
  0
ARC
  5
123
330
1F
100
AcDbEntity
  8
0
  6
Continuous
 62
     7
370
     0
100
AcDbCircle
 10
97.0426078468
 20
239.0681005347
 30
0.0
 40
1.600000000000019
100
AcDbArc
 50
260.7949532904
 51
80.7949532904
  0
LINE
  5
124
330
1F
100
AcDbEntity
  8
0
  6
Continuous
 62
     7
370
     0
100
AcDbLine
 10
97.2985559857
 20
240.6474970167
 30
0.0
 11
92.2642340666
 21
241.4633318668
 31
0.0
  0
LINE
  5
125
330
1F
100
AcDbEntity
  8
0
  6
Continuous
 62
     7
370
     0
100
AcDbLine
 10
92.2642340666
 20
241.4633318668
 30
0.0
 11
92.4401990852
 21
242.5491683071
 31
0.0
  0
LINE
  5
126
330
1F
100
AcDbEntity
  8
0
  6
Continuous
 62
     7
370
     0
100
AcDbLine
 10
84.8651136986
 20
227.0614936834
 30
0.0
 11
85.6922678432
 21
225.9144022947
 31
0.0
  0
LINE
  5
127
330
1F
100
AcDbEntity
  8
0
  6
Continuous
 62
     7
370
     0
100
AcDbLine
 10
84.8651136986
 20
227.0614936834
 30
0.0
 11
86.4967889866
 21
237.1301375216
 31
0.0
  0
LINE
  5
128
330
1F
100
AcDbEntity
  8
0
  6
Continuous
 62
     7
370
     0
100
AcDbLine
 10
88.7909689701
 20
238.7844458109
 30
0.0
 11
86.4967889866
 21
237.1301375216
 31
0.0
  0
LINE
  5
129
330
1F
100
AcDbEntity
  8
0
  6
Continuous
 62
     7
370
     0
100
AcDbLine
 10
88.7909689701
 20
238.7844458109
 30
0.0
 11
96.7866582579
 21
237.4887041634
 31
0.0
  0
LINE
  5
12A
330
1F
100
AcDbEntity
  8
0
  6
Continuous
 62
     7
370
     0
100
AcDbLine
 10
103.0656182921
 20
223.0989619976
 30
0.0
 11
85.6922678432
 21
225.9144022947
 31
0.0
  0
LINE
  5
12B
330
1F
100
AcDbEntity
  8
0
  6
Continuous
 62
     7
370
     0
100
AcDbLine
 10
105.8650603301
 20
240.3736024981
 30
0.0
 11
92.4401990852
 21
242.5491683071
 31
0.0
  0
LINE
  5
12C
330
1F
100
AcDbEntity
  8
0
  6
Continuous
 62
     7
370
     0
100
AcDbLine
 10
103.0656182921
 20
223.0989619976
 30
0.0
 11
105.8650603301
 21
240.3736024981
 31
0.0
  0
LINE
  5
12D
330
1F
100
AcDbEntity
  8
0
  6
Continuous
 62
     7
370
     0
100
AcDbLine
 10
92.5201829306
 20
243.0427282935
 30
0.0
 11
92.4401990852
 21
242.5491683071
 31
0.0
  0
LINE
  5
12E
330
1F
100
AcDbEntity
  8
0
  6
Continuous
 62
     7
370
     0
100
AcDbLine
 10
92.5201829306
 20
243.0427282935
 30
0.0
 11
105.4514841891
 21
240.9471481925
 31
0.0
  0
ARC
  5
12F
330
1F
100
AcDbEntity
  8
0
  6
Continuous
 62
     7
370
     0
100
AcDbCircle
 10
105.3714992423
 20
240.4535853313
 30
0.0
 40
0.5000000000000324
100
AcDbArc
 50
350.7949532904
 51
80.7949532904
  0
SPLINE
  5
130
330
1F
100
AcDbEntity
  8
0
  6
Continuous
 62
     7
370
     0
100
AcDbSpline
210
0.0
220
0.0
230
1.0
 70
     8
 71
     3
 72
    14
 73
    10
 74
     0
 42
0.000000001
 43
0.00000001
 40
0.0
 40
0.0
 40
0.0
 40
0.0
 40
0.1249999999999984
 40
0.1249999999999984
 40
0.2499999999999967
 40
0.2499999999999967
 40
0.4999999999999954
 40
0.4999999999999954
 40
1.0
 40
1.0
 40
1.0
 40
1.0
 10
85.9548786480592
 20
242.7533429525886
 30
0.0
 10
85.93269094404258
 20
242.7635030594048
 30
0.0
 10
85.91268759683543
 20
242.76635535043
 30
0.0
 10
85.88244381390498
 20
242.767391956619
 30
0.0
 10
85.87059659859736
 20
242.765754808168
 30
0.0
 10
85.839048463989
 20
242.758787649508
 30
0.0
 10
85.82345813656639
 20
242.7510735058191
 30
0.0
 10
85.784322288764
 20
242.7255170542811
 30
0.0
 10
85.7681372715904
 20
242.7045720515401
 30
0.0
 10
85.75729695414894
 20
242.6820749984269
 30
0.0
  0
SPLINE
  5
131
330
1F
100
AcDbEntity
  8
0
  6
Continuous
 62
     7
370
     0
100
AcDbSpline
210
0.0
220
0.0
230
1.0
 70
     8
 71
     3
 72
    14
 73
    10
 74
     0
 42
0.000000001
 43
0.00000001
 40
0.0
 40
0.0
 40
0.0
 40
0.0
 40
0.5000000000000047
 40
0.5000000000000047
 40
0.750000000000003
 40
0.750000000000003
 40
0.8750000000000014
 40
0.8750000000000014
 40
1.0
 40
1.0
 40
1.0
 40
1.0
 10
85.31977796785276
 20
242.6820749984269
 30
0.0
 10
85.30893191130164
 20
242.7045839619897
 30
0.0
 10
85.29274184541256
 20
242.7255912502141
 30
0.0
 10
85.25328298996594
 20
242.7512574699131
 30
0.0
 10
85.23768723567619
 20
242.7589216075963
 30
0.0
 10
85.20605531777782
 20
242.765817866186
 30
0.0
 10
85.19410258474008
 20
242.7674156837606
 30
0.0
 10
85.16406959542203
 20
242.7663014221716
 30
0.0
 10
85.1440943005673
 20
242.7633704114643
 30
0.0
 10
85.1221962739425
 20
242.7533429525886
 30
0.0
  0
ARC
  5
132
330
1F
100
AcDbEntity
  8
0
  6
Continuous
 62
     7
370
     0
100
AcDbCircle
 10
85.538537461
 20
241.8441344969
 30
0.0
 40
0.8660254037844181
100
AcDbArc
 50
104.6315212283
 51
75.3684787717
  0
ARC
  5
133
330
1F
100
AcDbEntity
  8
0
  6
Continuous
 62
     7
370
     0
100
AcDbCircle
 10
85.210035419
 20
242.5183647309
 30
0.0
 40
0.1499999999999984
100
AcDbArc
 50
295.9765162648
 51
14.439557232
  0
ARC
  5
134
330
1F
100
AcDbEntity
  8
0
  6
Continuous
 62
     7
370
     0
100
AcDbCircle
 10
85.867039503
 20
242.5183647309
 30
0.0
 40
0.1500000000000302
100
AcDbArc
 50
165.560442768
 51
244.0234837352
  0
ARC
  5
135
330
1F
100
AcDbEntity
  8
0
  6
Continuous
 62
     7
370
     0
100
AcDbCircle
 10
85.538537461
 20
241.8441344969
 30
0.0
 40
0.5999999999999931
100
AcDbArc
 50
115.9765162648
 51
64.0234837352
  0
LINE
  5
136
330
1F
100
AcDbEntity
  8
0
  6
Continuous
 62
     7
370
     0
100
AcDbLine
 10
85.7217777303
 20
242.5557695215
 30
0.0
 11
85.7471655837
 21
242.6543667799
 31
0.0
  0
LINE
  5
137
330
1F
100
AcDbEntity
  8
0
  6
Continuous
 62
     7
370
     0
100
AcDbLine
 10
85.3299093215
 20
242.6543667799
 30
0.0
 11
85.3552971749
 21
242.5557695215
 31
0.0
  0
ARC
  5
138
330
1F
100
AcDbEntity
  8
0
  6
Continuous
 62
     7
370
     0
100
AcDbCircle
 10
85.184647452
 20
242.6169616842
 30
0.0
 40
0.1499999999999958
100
AcDbArc
 50
14.439557232
 51
25.7273245114
  0
ARC
  5
139
330
1F
100
AcDbEntity
  8
0
  6
Continuous
 62
     7
370
     0
100
AcDbCircle
 10
85.89242747
 20
242.6169616842
 30
0.0
 40
0.1500000000000096
100
AcDbArc
 50
154.2726754886
 51
165.560442768
  0
SPLINE
  5
13A
330
1F
100
AcDbEntity
  8
0
  6
Continuous
 62
     7
370
     0
100
AcDbSpline
210
0.0
220
0.0
230
1.0
 70
     8
 71
     3
 72
    14
 73
    10
 74
     0
 42
0.000000001
 43
0.00000001
 40
0.0
 40
0.0
 40
0.0
 40
0.0
 40
0.1249999999999993
 40
0.1249999999999993
 40
0.2499999999999987
 40
0.2499999999999987
 40
0.5000000000000016
 40
0.5000000000000016
 40
1.0
 40
1.0
 40
1.0
 40
1.0
 10
83.1530398832906
 20
223.437177045433
 30
0.0
 10
83.13028352086748
 20
223.4474352946065
 30
0.0
 10
83.10858271365977
 20
223.4519977221059
 30
0.0
 10
83.0745578638361
 20
223.4555421989621
 30
0.0
 10
83.0605277780589
 20
223.454964946532
 30
0.0
 10
83.0235465687445
 20
223.450750256113
 30
0.0
 10
83.00471993251176
 20
223.4444445634849
 30
0.0
 10
82.95579802405963
 20
223.4223127109425
 30
0.0
 10
82.93368086821486
 20
223.4029289014583
 30
0.0
 10
82.91636635200858
 20
223.3818719426586
 30
0.0
  0
ARC
  5
13B
330
1F
100
AcDbEntity
  8
0
  6
Continuous
 62
     7
370
     0
100
AcDbCircle
 10
82.5365991825
 20
222.069697297
 30
0.0
 40
1.366025403784435
100
AcDbArc
 50
106.1414033176
 51
73.8585966824
  0
SPLINE
  5
13C
330
1F
100
AcDbEntity
  8
0
  6
Continuous
 62
     7
370
     0
100
AcDbSpline
210
0.0
220
0.0
230
1.0
 70
     8
 71
     3
 72
    14
 73
    10
 74
     0
 42
0.000000001
 43
0.00000001
 40
0.0
 40
0.0
 40
0.0
 40
0.0
 40
0.5000000000000027
 40
0.5000000000000027
 40
0.7500000000000013
 40
0.7500000000000013
 40
0.8750000000000007
 40
0.8750000000000007
 40
1.0
 40
1.0
 40
1.0
 40
1.0
 10
82.15683201301876
 20
223.3818719426585
 30
0.0
 10
82.13952488828892
 20
223.4029199123526
 30
0.0
 10
82.11741806635396
 20
223.4222468844977
 30
0.0
 10
82.06887276951124
 20
223.4442947141318
 30
0.0
 10
82.05011855307856
 20
223.4506707048605
 30
0.0
 10
82.01274714054956
 20
223.454969236458
 30
0.0
 10
81.99876979332983
 20
223.4555344907837
 30
0.0
 10
81.96497617675011
 20
223.4520561513763
 30
0.0
 10
81.94306157351238
 20
223.4475014381416
 30
0.0
 10
81.92015848173673
 20
223.437177045433
 30
0.0
  0
ARC
  5
13D
330
1F
100
AcDbEntity
  8
0
  6
Continuous
 62
     7
370
     0
100
AcDbCircle
 10
82.5365991825
 20
222.069697297
 30
0.0
 40
0.9000000000000107
100
AcDbArc
 50
115.8909827371
 51
64.1090172629
  0
LINE
  5
13E
330
1F
100
AcDbEntity
  8
0
  6
Continuous
 62
     7
370
     0
100
AcDbLine
 10
82.1951553008
 20
223.308010388
 30
0.0
 11
82.2490779466
 21
223.1124475485
 31
0.0
  0
LINE
  5
13F
330
1F
100
AcDbEntity
  8
0
  6
Continuous
 62
     7
370
     0
100
AcDbLine
 10
82.824120742
 20
223.1124475485
 30
0.0
 11
82.878042922
 21
223.308010388
 31
0.0
  0
ARC
  5
140
330
1F
100
AcDbEntity
  8
0
  6
Continuous
 62
     7
370
     0
100
AcDbCircle
 10
83.0169254132
 20
223.0592864603
 30
0.0
 40
0.1999999999999942
100
AcDbArc
 50
164.5846989593
 51
244.1090172629
  0
ARC
  5
141
330
1F
100
AcDbEntity
  8
0
  6
Continuous
 62
     7
370
     0
100
AcDbCircle
 10
82.0562729518
 20
223.0592864603
 30
0.0
 40
0.2000000000000066
100
AcDbArc
 50
295.8909827371
 51
15.4153010407
  0
ARC
  5
142
330
1F
100
AcDbEntity
  8
0
  6
Continuous
 62
     7
370
     0
100
AcDbCircle
 10
83.0708477899
 20
223.2548464123
 30
0.0
 40
0.2000000000000048
100
AcDbArc
 50
140.5705471975
 51
164.5846989593
  0
ARC
  5
143
330
1F
100
AcDbEntity
  8
0
  6
Continuous
 62
     7
370
     0
100
AcDbCircle
 10
82.0023505752
 20
223.2548464123
 30
0.0
 40
0.2000000000000059
100
AcDbArc
 50
15.4153010407
 51
39.4294528025
  0
CIRCLE
  5
144
330
1F
100
AcDbEntity
  8
0
  6
Continuous
 62
     7
370
     0
100
AcDbCircle
 10
87.1429132787
 20
206.7353609746
 30
0.0
 40
1.199999999999984
  0
CIRCLE
  5
145
330
1F
100
AcDbEntity
  8
0
  6
Continuous
 62
     7
370
     0
100
AcDbCircle
 10
67.1429132787
 20
206.7353609746
 30
0.0
 40
1.19999999999999
  0
CIRCLE
  5
146
330
1F
100
AcDbEntity
  8
0
  6
Continuous
 62
     7
370
     0
100
AcDbCircle
 10
97.0506062536
 20
239.1174566436
 30
0.0
 40
1.199999999999999
  0
CIRCLE
  5
147
330
1F
100
AcDbEntity
  8
0
  6
Continuous
 62
     7
370
     0
100
AcDbCircle
 10
97.0506062536
 20
239.1174566436
 30
0.0
 40
1.500000000000006
  0
LINE
  5
148
330
1F
100
AcDbEntity
  8
0
  6
Continuous
 62
     7
370
     0
100
AcDbLine
 10
91.7523354075
 20
238.3045427387
 30
0.0
 11
92.2642340666
 21
241.4633318668
 31
0.0
  0
LINE
  5
149
330
1F
100
AcDbEntity
  8
0
  6
Continuous
 62
     7
370
     0
100
AcDbLine
 10
91.6425026736
 20
242.6277868336
 30
0.0
 11
92.4321999556
 21
242.499811936
 31
0.0
  0
LINE
  5
14A
330
1F
100
AcDbEntity
  8
0
  6
Continuous
 62
     7
370
     0
100
AcDbLine
 10
91.6425026736
 20
242.6277868336
 30
0.0
 11
90.9626381254
 21
238.4325176364
 31
0.0
  0
LWPOLYLINE
  5
14B
330
1F
100
AcDbEntity
  8
0
  6
Continuous
 62
     7
370
     0
100
AcDbPolyline
 90
       14
 70
   128
 43
0.0
 10
90.575787217
 20
238.5458595937
 10
90.5763655684
 20
238.5494284218
 10
90.5901035077
 20
238.6342048531
 10
90.6211696348
 20
238.8259045666
 10
90.6672598577
 20
239.1103118544
 10
90.7249543599
 20
239.4663303977
 10
90.7899755767
 20
239.867559064
 10
90.85750112
 20
240.2842402344
 10
90.9225223369
 20
240.6854689007
 10
90.980216839
 20
241.041487444
 10
91.0263061306
 20
241.3258947318
 10
91.0573722577
 20
241.5175944453
 10
91.0711111284
 20
241.6023708766
 10
91.0716885483
 20
241.6059397047
  0
LWPOLYLINE
  5
14C
330
1F
100
AcDbEntity
  8
0
  6
Continuous
 62
     7
370
     0
100
AcDbPolyline
 90
        5
 70
   128
 43
0.0
 10
101.096835897
 20
222.2023591285
 10
100.832407341
 20
222.2452111428
 10
100.6082361347
 20
222.2815401738
 10
100.4584496623
 20
222.3058141654
 10
100.405850426
 20
222.3143376296
  0
LWPOLYLINE
  5
14D
330
1F
100
AcDbEntity
  8
0
  6
Continuous
 62
     7
370
     0
100
AcDbPolyline
 90
        5
 70
   128
 43
0.0
 10
101.787821368
 20
222.0903806275
 10
101.7352239943
 20
222.0989040917
 10
101.585437522
 20
222.1231780832
 10
101.361264453
 20
222.1595071142
 10
101.096835897
 20
222.2023591285
  0
LWPOLYLINE
  5
14E
330
1F
100
AcDbEntity
  8
0
  6
Continuous
 62
     7
370
     0
100
AcDbPolyline
 90
        5
 70
   128
 43
0.0
 10
99.1225922263
 20
222.5222945099
 10
98.8581636703
 20
222.5651465243
 10
98.6339906013
 20
222.6014755552
 10
98.484204129
 20
222.6257495468
 10
98.4316067553
 20
222.634273011
  0
LWPOLYLINE
  5
14F
330
1F
100
AcDbEntity
  8
0
  6
Continuous
 62
     7
370
     0
100
AcDbPolyline
 90
        5
 70
   128
 43
0.0
 10
99.8135776973
 20
222.4103160089
 10
99.7609784609
 20
222.4188431984
 10
99.6111919886
 20
222.4431134647
 10
99.3870207823
 20
222.4794424956
 10
99.1225922263
 20
222.5222945099
  0
LWPOLYLINE
  5
150
330
1F
100
AcDbEntity
  8
0
  6
Continuous
 62
     7
370
     0
100
AcDbPolyline
 90
        5
 70
   128
 43
0.0
 10
100.2969955808
 20
217.2667480891
 10
100.1647813028
 20
217.2881740963
 10
100.0526947683
 20
217.3063386118
 10
99.9778015322
 20
217.3184756076
 10
99.9515028453
 20
217.3227373397
  0
LWPOLYLINE
  5
151
330
1F
100
AcDbEntity
  8
0
  6
Continuous
 62
     7
370
     0
100
AcDbPolyline
 90
        5
 70
   128
 43
0.0
 10
100.6424883163
 20
217.2107588386
 10
100.6161896295
 20
217.2150205707
 10
100.5412963933
 20
217.2271575665
 10
100.4292098588
 20
217.245322082
 10
100.2969955808
 20
217.2667480891
  0
LWPOLYLINE
  5
152
330
1F
100
AcDbEntity
  8
0
  6
Continuous
 62
     7
370
     0
100
AcDbPolyline
 90
        5
 70
   128
 43
0.0
 10
98.3227519101
 20
217.5866853332
 10
98.1905376321
 20
217.6081113403
 10
98.0784510976
 20
217.6262739932
 10
98.0035578615
 20
217.638410989
 10
97.9772591746
 20
217.6426727211
  0
LWPOLYLINE
  5
153
330
1F
100
AcDbEntity
  8
0
  6
Continuous
 62
     7
370
     0
100
AcDbPolyline
 90
        5
 70
   128
 43
0.0
 10
98.6682446456
 20
217.5306960827
 10
98.6419440961
 20
217.5349578148
 10
98.5670508599
 20
217.5470948105
 10
98.4549661881
 20
217.565259326
 10
98.3227519101
 20
217.5866853332
  0
LINE
  5
154
330
1F
100
AcDbEntity
  8
0
  6
Continuous
 62
     7
370
     0
100
AcDbLine
 10
87.2253970957
 20
244.9138224011
 30
0.0
 11
87.0232367671
 21
245.1122686153
 31
0.0
  0
LINE
  5
155
330
1F
100
AcDbEntity
  8
0
  6
Continuous
 62
     7
370
     0
100
AcDbLine
 10
82.5245510569
 20
244.1913843041
 30
0.0
 11
80.1191420543
 21
222.7803043907
 31
0.0
  0
ARC
  5
156
330
1F
100
AcDbEntity
  8
0
  6
Continuous
 62
     7
370
     0
100
AcDbCircle
 10
83.5182997089
 20
244.0797408079
 30
0.0
 40
0.9999999999999976
100
AcDbArc
 50
90.5310154507
 51
173.5900320219
  0
LINE
  5
157
330
1F
100
AcDbEntity
  8
0
  6
Continuous
 62
     7
370
     0
100
AcDbLine
 10
87.0232367671
 20
245.1122686153
 30
0.0
 11
86.0561430237
 21
245.1033055668
 31
0.0
  0
LINE
  5
158
330
1F
100
AcDbEntity
  8
0
  6
Continuous
 62
     7
370
     0
100
AcDbLine
 10
83.7332079901
 20
245.0817771142
 30
0.0
 11
83.5090316615
 21
245.0796984022
 31
0.0
  0
LWPOLYLINE
  5
159
330
1F
100
AcDbEntity
  8
0
  6
Continuous
 62
     8
370
     0
100
AcDbPolyline
 90
       13
 70
   128
 43
0.0
 10
91.3011068261
 20
241.771368671
 10
91.2961484647
 20
241.7407728618
 10
91.2744635499
 20
241.6069604343
 10
91.2368632636
 20
241.3749381786
 10
91.1857094398
 20
241.0592831557
 10
91.1242170042
 20
240.6798288112
 10
91.0562490827
 20
240.2604132777
 10
90.9860757894
 20
239.8273967093
 10
90.9181078679
 20
239.407984901
 10
90.8566154322
 20
239.0285268312
 10
90.8054616085
 20
238.7128718084
 10
90.7678613222
 20
238.4808495527
 10
90.7652135721
 20
238.4645104294
  0
DIMENSION
  5
15A
330
1F
100
AcDbEntity
  8
0
  6
Continuous
 62
     7
370
     0
100
AcDbDimension
  2
_D
 10
83.1429132787
 20
138.9791383091
 30
0.0
 11
77.1429132787
 21
138.9791383091
 31
0.0
 70
   160
  1
%%c<>
 71
     2
 42
-1.0
  3
SLDDIMSTYLE0
100
AcDbAlignedDimension
 13
71.1429132787
 23
157.7353609746
 33
0.0
 14
83.1429132787
 24
157.7353609746
 34
0.0
 50
0.0
100
AcDbRotatedDimension
  0
DIMENSION
  5
168
330
1F
100
AcDbEntity
  8
0
  6
Continuous
 62
     7
370
     0
100
AcDbDimension
  2
_D_1
 10
85.1429132787
 20
133.6680961528
 30
0.0
 11
77.1429132787
 21
133.6680961528
 31
0.0
 70
   160
  1
<>
 71
     2
 42
-1.0
  3
SLDDIMSTYLE1
100
AcDbAlignedDimension
 13
69.1429132787
 23
177.2353609746
 33
0.0
 14
85.1429132787
 24
177.2353609746
 34
0.0
 50
0.0
100
AcDbRotatedDimension
  0
DIMENSION
  5
173
330
1F
100
AcDbEntity
  8
0
  6
Continuous
 62
     7
370
     0
100
AcDbDimension
  2
_D_2
 10
90.1429132787
 20
128.5653301594
 30
0.0
 11
77.1429132787
 21
128.5653301594
 31
0.0
 70
   160
  1
<>
 71
     2
 42
-1.0
  3
SLDDIMSTYLE1
100
AcDbAlignedDimension
 13
64.1429132787
 23
173.2353609746
 33
0.0
 14
90.1429132787
 24
173.2353609746
 34
0.0
 50
0.0
100
AcDbRotatedDimension
  0
DIMENSION
  5
17D
330
1F
100
AcDbEntity
  8
0
  6
Continuous
 62
     7
370
     0
100
AcDbDimension
  2
_D_3
 10
98.0606281981
 20
177.2353609746
 30
0.0
 11
98.0606281981
 21
175.2353609746
 31
0.0
 70
   160
  1
<>
 71
     2
 42
-1.0
  3
SLDDIMSTYLE0
100
AcDbAlignedDimension
 13
90.1429132787
 23
173.2353609746
 33
0.0
 14
85.1429132787
 24
177.2353609746
 34
0.0
 50
90.0
100
AcDbRotatedDimension
  0
DIMENSION
  5
189
330
1F
100
AcDbEntity
  8
0
  6
Continuous
 62
     7
370
     0
100
AcDbDimension
  2
_D_4
 10
98.0606281981
 20
203.2353609746
 30
0.0
 11
98.0606281981
 21
190.2353609746
 31
0.0
 70
   160
  1
<>
 71
     2
 42
-1.0
  3
SLDDIMSTYLE1
100
AcDbAlignedDimension
 13
85.1429132787
 23
177.2353609746
 33
0.0
 14
77.1429132787
 24
203.2353609746
 34
0.0
 50
90.0
100
AcDbRotatedDimension
  0
DIMENSION
  5
193
330
1F
100
AcDbEntity
  8
0
  6
Continuous
 62
     7
370
     0
100
AcDbDimension
  2
_D_5
 10
106.0019159362
 20
173.2353609746
 30
0.0
 11
106.0019159362
 21
195.3353609746
 31
0.0
 70
   160
  1
<>
 71
     2
 42
-1.0
  3
SLDDIMSTYLE1
100
AcDbAlignedDimension
 13
80.1429132787
 23
217.4353609746
 33
0.0
 14
90.1429132787
 24
173.2353609746
 34
0.0
 50
90.0
100
AcDbRotatedDimension
  0
DIMENSION
  5
19D
330
1F
100
AcDbEntity
  8
0
  6
Continuous
 62
     7
370
     0
100
AcDbDimension
  2
_D_6
 10
106.0019159362
 20
157.2353609746
 30
0.0
 11
106.0019159362
 21
165.2353609746
 31
0.0
 70
   160
  1
<>
 71
     2
 42
-1.0
  3
SLDDIMSTYLE1
100
AcDbAlignedDimension
 13
90.1429132787
 23
173.2353609746
 33
0.0
 14
82.6429132787
 24
157.2353609746
 34
0.0
 50
90.0
100
AcDbRotatedDimension
  0
DIMENSION
  5
1A7
330
1F
100
AcDbEntity
  8
0
  6
Continuous
 62
     7
370
     0
100
AcDbDimension
  2
_D_7
 10
115.8715242423
 20
245.4695643985
 30
0.0
 11
115.8715242423
 21
196.3524626866
 31
0.0
 70
   160
  1
(<>)
 71
     2
 42
-1.0
  3
SLDDIMSTYLE1
100
AcDbAlignedDimension
 13
78.6429132787
 23
147.2353609746
 33
0.0
 14
83.796051298
 24
245.4695643985
 34
0.0
 50
90.0
100
AcDbRotatedDimension
  0
DIMENSION
  5
1B3
330
1F
100
AcDbEntity
  8
0
  6
Continuous
 62
     7
370
     0
100
AcDbDimension
  2
_D_8
 10
83.796051298
 20
261.4695643985
 30
0.0
 11
77.1429132787
 21
261.4695643985
 31
0.0
 70
   160
  1
(<>)
 71
     2
 42
-1.0
  3
SLDDIMSTYLE0
100
AcDbAlignedDimension
 13
70.4897752595
 23
245.4695643985
 33
0.0
 14
83.796051298
 24
245.4695643985
 34
0.0
 50
0.0
100
AcDbRotatedDimension
  0
DIMENSION
  5
1C1
330
1F
100
AcDbEntity
  8
0
  6
Continuous
 62
     7
370
     0
100
AcDbDimension
  2
_D_9
 10
70.9285794942
 20
176.3345856603
 30
0.0
 11
38.9304248872
 21
187.5290883611
 31
0.0
 70
   163
  1
3-<>取付穴\P(両側口元面取有)
 71
     1
 42
-1.0
  3
SLDDIMSTYLE2
100
AcDbDiametricDimension
 15
67.3572470633
 25
178.136136289
 35
0.0
 40
0.0
  0
INSERT
  5
1D2
330
1F
100
AcDbEntity
  8
0
  6
Continuous
 62
     7
370
     0
100
AcDbBlockReference
  2
SW_NOTE_0
 10
43.5140500771
 20
161.9648912349
 30
0.0
  0
LEADER
  5
1D4
330
1F
100
AcDbEntity
  8
0
  6
Continuous
 62
     7
370
     0
100
AcDbLeader
  3
SLDDIMSTYLE3
 76
     2
 10
76.2526922028
 20
151.0451975845
 30
0.0
 10
43.5140500771
 20
161.9648912349
 30
0.0
  0
INSERT
  5
1E0
330
1F
100
AcDbEntity
  8
0
  6
Continuous
 62
     7
370
     0
100
AcDbBlockReference
  2
SW_CENTERMARKSYMBOL_0
 10
77.1429132787
 20
203.2353609746
 30
0.0
  0
INSERT
  5
1EC
330
1F
100
AcDbEntity
  8
0
  6
Continuous
 62
     7
370
     0
100
AcDbBlockReference
  2
SW_CENTERMARKSYMBOL_1
 10
67.1429132787
 20
206.7353609746
 30
0.0
  0
INSERT
  5
1F8
330
1F
100
AcDbEntity
  8
0
  6
Continuous
 62
     7
370
     0
100
AcDbBlockReference
  2
SW_CENTERMARKSYMBOL_2
 10
87.1429132787
 20
206.7353609746
 30
0.0
  0
INSERT
  5
204
330
1F
100
AcDbEntity
  8
0
  6
Continuous
 62
     7
370
     0
100
AcDbBlockReference
  2
SW_CENTERMARKSYMBOL_3
 10
85.1429132787
 20
177.2353609746
 30
0.0
  0
INSERT
  5
210
330
1F
100
AcDbEntity
  8
0
  6
Continuous
 62
     7
370
     0
100
AcDbBlockReference
  2
SW_CENTERMARKSYMBOL_4
 10
69.1429132787
 20
177.2353609746
 30
0.0
  0
CIRCLE
  5
211
330
1F
100
AcDbEntity
  8
0
  6
Continuous
 62
     7
370
     0
100
AcDbCircle
 10
69.1429132787
 20
177.2353609746
 30
0.0
 40
1.999999752660798
  0
CIRCLE
  5
212
330
1F
100
AcDbEntity
  8
0
  6
Continuous
 62
     7
370
     0
100
AcDbCircle
 10
85.1429132787
 20
177.2353609746
 30
0.0
 40
1.999999752660798
  0
CIRCLE
  5
213
330
1F
100
AcDbEntity
  8
0
  6
Continuous
 62
     7
370
     0
100
AcDbCircle
 10
77.1429132787
 20
203.2353609746
 30
0.0
 40
2.00000014754157
  0
LINE
  5
214
330
1F
100
AcDbEntity
  8
0
  6
CENTERX2
 62
     7
370
     0
100
AcDbLine
 10
77.1429132787
 20
144.0290442102
 30
0.0
 11
77.1429132787
 21
247.3181000558
 31
0.0
  0
ARC
  5
215
330
1F
100
AcDbEntity
  8
0
  6
Continuous
 62
     7
370
     0
100
AcDbCircle
 10
90.3264323092
 20
97.3399212134
 30
0.0
 40
0.2400000000000091
100
AcDbArc
 50
0.0
 51
53.0538731033
  0
LINE
  5
216
330
1F
100
AcDbEntity
  8
0
  6
Continuous
 62
     7
370
     0
100
AcDbLine
 10
90.5664320818
 20
96.2349254812
 30
0.0
 11
90.5664320818
 21
97.3399210895
 31
0.0
  0
ARC
  5
217
330
1F
100
AcDbEntity
  8
0
  6
Continuous
 62
     7
370
     0
100
AcDbCircle
 10
88.0664323092
 20
94.3349253731
 30
0.0
 40
4.000000000000013
100
AcDbArc
 50
53.0538731033
 51
58.7267424205
  0
LINE
  5
218
330
1F
100
AcDbEntity
  8
0
  6
Continuous
 62
     7
370
     0
100
AcDbLine
 10
89.3164323426
 20
86.234925239
 30
0.0
 11
89.3164323426
 21
86.4084446045
 31
0.0
  0
LINE
  5
219
330
1F
100
AcDbEntity
  8
0
  6
Continuous
 62
     7
370
     0
100
AcDbLine
 10
105.8714994943
 20
90.0349253031
 30
0.0
 11
105.8714994943
 21
95.4349254432
 31
0.0
  0
LINE
  5
21A
330
1F
100
AcDbEntity
  8
0
  6
Continuous
 62
     7
370
     0
100
AcDbLine
 10
101.096835897
 20
93.0849253607
 30
0.0
 11
100.2969955808
 21
93.0849253607
 31
0.0
  0
LINE
  5
21B
330
1F
100
AcDbEntity
  8
0
  6
Continuous
 62
     7
370
     0
100
AcDbLine
 10
100.2969955808
 20
92.3849253856
 30
0.0
 11
101.096835897
 21
92.3849253856
 31
0.0
  0
LINE
  5
21C
330
1F
100
AcDbEntity
  8
0
  6
Continuous
 62
     7
370
     0
100
AcDbLine
 10
99.1225922263
 20
93.0849253607
 30
0.0
 11
98.3227519101
 21
93.0849253607
 31
0.0
  0
LINE
  5
21D
330
1F
100
AcDbEntity
  8
0
  6
Continuous
 62
     7
370
     0
100
AcDbLine
 10
98.3227519101
 20
92.3849253856
 30
0.0
 11
99.1225922263
 21
92.3849253856
 31
0.0
  0
LINE
  5
21E
330
1F
100
AcDbEntity
  8
0
  6
Continuous
 62
     7
370
     0
100
AcDbLine
 10
101.5767408318
 20
93.4349253482
 30
0.0
 11
101.096835897
 21
93.4349253482
 31
0.0
  0
LINE
  5
21F
330
1F
100
AcDbEntity
  8
0
  6
Continuous
 62
     7
370
     0
100
AcDbLine
 10
101.096835897
 20
92.0349253981
 30
0.0
 11
101.5767408318
 21
92.0349253981
 31
0.0
  0
LINE
  5
220
330
1F
100
AcDbEntity
  8
0
  6
Continuous
 62
     7
370
     0
100
AcDbLine
 10
99.6024971611
 20
93.4349253482
 30
0.0
 11
99.1225922263
 21
93.4349253482
 31
0.0
  0
LINE
  5
221
330
1F
100
AcDbEntity
  8
0
  6
Continuous
 62
     7
370
     0
100
AcDbLine
 10
99.1225922263
 20
92.0349253981
 30
0.0
 11
99.6024971611
 21
92.0349253981
 31
0.0
  0
LINE
  5
222
330
1F
100
AcDbEntity
  8
0
  6
Continuous
 62
     7
370
     0
100
AcDbLine
 10
98.4914945221
 20
95.1310621283
 30
0.0
 11
98.4914945221
 21
93.0849253607
 31
0.0
  0
LINE
  5
223
330
1F
100
AcDbEntity
  8
0
  6
Continuous
 62
     7
370
     0
100
AcDbLine
 10
98.4914945221
 20
92.3849253856
 30
0.0
 11
98.4914945221
 21
90.338788618
 31
0.0
  0
SPLINE
  5
224
330
1F
100
AcDbEntity
  8
0
  6
Continuous
 62
     7
370
     0
100
AcDbSpline
210
0.0
220
0.0
230
1.0
 70
     8
 71
     3
 72
    12
 73
     8
 74
     0
 42
0.000000001
 43
0.00000001
 40
0.0
 40
0.0
 40
0.0
 40
0.0
 40
0.1679099129943309
 40
0.3872769976106196
 40
0.6133861560944933
 40
0.8237208799513444
 40
1.0
 40
1.0
 40
1.0
 40
1.0
 10
98.49272014262426
 20
90.34495676742226
 30
0.0
 10
98.49309748748648
 20
90.32684621412629
 30
0.0
 10
98.49396781719302
 20
90.28507500133458
 30
0.0
 10
98.52270471470817
 20
90.22232487087932
 30
0.0
 10
98.57309100377203
 20
90.17027393883066
 30
0.0
 10
98.63460142916895
 20
90.1398100228875
 30
0.0
 10
98.67633061307612
 20
90.13645507607768
 30
0.0
 10
98.6953573084091
 20
90.13492536605627
 30
0.0
  0
SPLINE
  5
225
330
1F
100
AcDbEntity
  8
0
  6
Continuous
 62
     7
370
     0
100
AcDbSpline
210
0.0
220
0.0
230
1.0
 70
     8
 71
     3
 72
    12
 73
     8
 74
     0
 42
0.000000001
 43
0.00000001
 40
0.0
 40
0.0
 40
0.0
 40
0.0
 40
0.2023080353704905
 40
0.4249986122948121
 40
0.6506342032956896
 40
0.8495483647067645
 40
1.0
 40
1.0
 40
1.0
 40
1.0
 10
98.6953573084091
 20
95.33492538021237
 30
0.0
 10
98.6734801739108
 20
95.33290901802864
 30
0.0
 10
98.62752178285761
 20
95.32867314510152
 30
0.0
 10
98.5637652720899
 20
95.29270915693036
 30
0.0
 10
98.51730018903632
 20
95.23833110629951
 30
0.0
 10
98.49345114114269
 20
95.17872584490296
 30
0.0
 10
98.4925652170646
 20
95.14111354093271
 30
0.0
 10
98.49218370082129
 20
95.12491609775752
 30
0.0
  0
LINE
  5
226
330
1F
100
AcDbEntity
  8
0
  6
Continuous
 62
     7
370
     0
100
AcDbLine
 10
95.5506069368
 20
88.8349254789
 30
0.0
 11
95.8506064272
 21
88.5349255229
 31
0.0
  0
LINE
  5
227
330
1F
100
AcDbEntity
  8
0
  6
Continuous
 62
     7
370
     0
100
AcDbLine
 10
98.2506060755
 20
88.5349255229
 30
0.0
 11
98.5506055659
 21
88.8349254789
 31
0.0
  0
LINE
  5
228
330
1F
100
AcDbEntity
  8
0
  6
Continuous
 62
     7
370
     0
100
AcDbLine
 10
95.5506069368
 20
90.0349253031
 30
0.0
 11
95.5506069368
 21
89.7349253471
 31
0.0
  0
LINE
  5
229
330
1F
100
AcDbEntity
  8
0
  6
Continuous
 62
     7
370
     0
100
AcDbLine
 10
95.5506069368
 20
89.2349252651
 30
0.0
 11
95.5506069368
 21
88.8349254789
 31
0.0
  0
LINE
  5
22A
330
1F
100
AcDbEntity
  8
0
  6
Continuous
 62
     7
370
     0
100
AcDbLine
 10
98.5506055659
 20
88.8349254789
 30
0.0
 11
98.5506055659
 21
89.2349252651
 31
0.0
  0
LINE
  5
22B
330
1F
100
AcDbEntity
  8
0
  6
Continuous
 62
     7
370
     0
100
AcDbLine
 10
98.5506055659
 20
89.7349253471
 30
0.0
 11
98.5506055659
 21
90.0349253031
 31
0.0
  0
LINE
  5
22C
330
1F
100
AcDbEntity
  8
0
  6
Continuous
 62
     7
370
     0
100
AcDbLine
 10
98.5506055659
 20
95.4349254432
 30
0.0
 11
98.5506055659
 21
95.7349253992
 31
0.0
  0
LINE
  5
22D
330
1F
100
AcDbEntity
  8
0
  6
Continuous
 62
     7
370
     0
100
AcDbLine
 10
98.5506055659
 20
96.2349254812
 30
0.0
 11
98.5506055659
 21
96.6349252673
 31
0.0
  0
LINE
  5
22E
330
1F
100
AcDbEntity
  8
0
  6
Continuous
 62
     7
370
     0
100
AcDbLine
 10
95.5506069368
 20
96.6349252673
 30
0.0
 11
95.5506069368
 21
96.2349254812
 31
0.0
  0
LINE
  5
22F
330
1F
100
AcDbEntity
  8
0
  6
Continuous
 62
     7
370
     0
100
AcDbLine
 10
95.5506069368
 20
95.7349253992
 30
0.0
 11
95.5506069368
 21
95.4349254432
 31
0.0
  0
LINE
  5
230
330
1F
100
AcDbEntity
  8
0
  6
Continuous
 62
     7
370
     0
100
AcDbLine
 10
98.5506055659
 20
96.6349252673
 30
0.0
 11
98.2506060755
 21
96.9349252234
 31
0.0
  0
LINE
  5
231
330
1F
100
AcDbEntity
  8
0
  6
Continuous
 62
     7
370
     0
100
AcDbLine
 10
95.8506064272
 20
96.9349252234
 30
0.0
 11
95.5506069368
 21
96.6349252673
 31
0.0
  0
LINE
  5
232
330
1F
100
AcDbEntity
  8
0
  6
Continuous
 62
     7
370
     0
100
AcDbLine
 10
90.2664325914
 20
87.2349254029
 30
0.0
 11
90.7310200638
 21
87.503155152
 31
0.0
  0
CIRCLE
  5
233
330
1F
100
AcDbEntity
  8
0
  6
Continuous
 62
     7
370
     0
100
AcDbCircle
 10
77.1429132787
 20
92.7349253731
 30
0.0
 40
5.500000000000014
  0
CIRCLE
  5
234
330
1F
100
AcDbEntity
  8
0
  6
Continuous
 62
     7
370
     0
100
AcDbCircle
 10
77.1429132787
 20
92.7349253731
 30
0.0
 40
6.0
  0
CIRCLE
  5
235
330
1F
100
AcDbEntity
  8
0
  6
Continuous
 62
     7
370
     0
100
AcDbCircle
 10
77.1429132787
 20
92.7349253731
 30
0.0
 40
1.0
  0
LINE
  5
236
330
1F
100
AcDbEntity
  8
0
  6
Continuous
 62
     7
370
     0
100
AcDbLine
 10
89.1429129771
 20
86.234925239
 30
0.0
 11
90.142913141
 21
87.2349254029
 31
0.0
  0
LINE
  5
237
330
1F
100
AcDbEntity
  8
0
  6
Continuous
 62
     7
370
     0
100
AcDbLine
 10
65.1429136998
 20
86.234925239
 30
0.0
 11
89.1429129771
 21
86.234925239
 31
0.0
  0
LINE
  5
238
330
1F
100
AcDbEntity
  8
0
  6
Continuous
 62
     7
370
     0
100
AcDbLine
 10
64.1429135359
 20
98.2349253433
 30
0.0
 11
64.1429135359
 21
87.2349254029
 31
0.0
  0
LINE
  5
239
330
1F
100
AcDbEntity
  8
0
  6
Continuous
 62
     7
370
     0
100
AcDbLine
 10
65.1429136998
 20
99.2349255072
 30
0.0
 11
64.1429135359
 21
98.2349253433
 31
0.0
  0
LINE
  5
23A
330
1F
100
AcDbEntity
  8
0
  6
Continuous
 62
     7
370
     0
100
AcDbLine
 10
65.1429136998
 20
99.2349255072
 30
0.0
 11
89.1429129771
 21
99.2349255072
 31
0.0
  0
LINE
  5
23B
330
1F
100
AcDbEntity
  8
0
  6
Continuous
 62
     7
370
     0
100
AcDbLine
 10
90.142913141
 20
98.2349253433
 30
0.0
 11
89.1429129771
 21
99.2349255072
 31
0.0
  0
LINE
  5
23C
330
1F
100
AcDbEntity
  8
0
  6
Continuous
 62
     7
370
     0
100
AcDbLine
 10
90.142913141
 20
98.2349253433
 30
0.0
 11
90.142913141
 21
87.2349254029
 31
0.0
  0
LINE
  5
23D
330
1F
100
AcDbEntity
  8
0
  6
Continuous
 62
     7
370
     0
100
AcDbLine
 10
64.1429135359
 20
87.2349254029
 30
0.0
 11
65.1429136998
 21
86.234925239
 31
0.0
  0
LINE
  5
23E
330
1F
100
AcDbEntity
  8
0
  6
Continuous
 62
     7
370
     0
100
AcDbLine
 10
63.6403793252
 20
89.7349253471
 30
0.0
 11
63.6403793252
 21
95.7349253992
 31
0.0
  0
LINE
  5
23F
330
1F
100
AcDbEntity
  8
0
  6
Continuous
 62
     7
370
     0
100
AcDbLine
 10
63.6403793252
 20
95.7349253992
 30
0.0
 11
64.1429135359
 21
95.2968307945
 31
0.0
  0
LINE
  5
240
330
1F
100
AcDbEntity
  8
0
  6
Continuous
 62
     7
370
     0
100
AcDbLine
 10
63.6403793252
 20
89.7349253471
 30
0.0
 11
64.1429135359
 21
90.1730199518
 31
0.0
  0
LINE
  5
241
330
1F
100
AcDbEntity
  8
0
  6
Continuous
 62
     7
370
     0
100
AcDbLine
 10
64.1429135359
 20
89.7349253471
 30
0.0
 11
63.6403793252
 21
89.7349253471
 31
0.0
  0
LINE
  5
242
330
1F
100
AcDbEntity
  8
0
  6
Continuous
 62
     7
370
     0
100
AcDbLine
 10
63.6403793252
 20
95.7349253992
 30
0.0
 11
64.1429135359
 21
95.7349253992
 31
0.0
  0
LINE
  5
243
330
1F
100
AcDbEntity
  8
0
  6
Continuous
 62
     7
370
     0
100
AcDbLine
 10
90.6454473517
 20
89.7349253471
 30
0.0
 11
90.142913141
 21
90.1730199518
 31
0.0
  0
LINE
  5
244
330
1F
100
AcDbEntity
  8
0
  6
Continuous
 62
     7
370
     0
100
AcDbLine
 10
90.6454473517
 20
89.7349253471
 30
0.0
 11
90.142913141
 21
89.7349253471
 31
0.0
  0
LINE
  5
245
330
1F
100
AcDbEntity
  8
0
  6
Continuous
 62
     7
370
     0
100
AcDbLine
 10
90.142913141
 20
95.7349253992
 30
0.0
 11
90.6454473517
 21
95.7349253992
 31
0.0
  0
LINE
  5
246
330
1F
100
AcDbEntity
  8
0
  6
Continuous
 62
     7
370
     0
100
AcDbLine
 10
90.6454473517
 20
95.7349253992
 30
0.0
 11
90.142913141
 21
95.2968307945
 31
0.0
  0
LINE
  5
247
330
1F
100
AcDbEntity
  8
0
  6
Continuous
 62
     7
370
     0
100
AcDbLine
 10
90.6454473517
 20
95.7349253992
 30
0.0
 11
90.6454473517
 21
89.7349253471
 31
0.0
  0
LINE
  5
248
330
1F
100
AcDbEntity
  8
0
  6
Continuous
 62
     7
370
     0
100
AcDbLine
 10
61.240856514
 20
89.7349253471
 30
0.0
 11
61.240856514
 21
95.7349253992
 31
0.0
  0
LINE
  5
249
330
1F
100
AcDbEntity
  8
0
  6
Continuous
 62
     7
370
     0
100
AcDbLine
 10
63.6403793252
 20
95.7349253992
 30
0.0
 11
61.240856514
 21
95.7349253992
 31
0.0
  0
LINE
  5
24A
330
1F
100
AcDbEntity
  8
0
  6
Continuous
 62
     7
370
     0
100
AcDbLine
 10
63.6403793252
 20
89.7349253471
 30
0.0
 11
61.240856514
 21
89.7349253471
 31
0.0
  0
LINE
  5
24B
330
1F
100
AcDbEntity
  8
0
  6
Continuous
 62
     7
370
     0
100
AcDbLine
 10
93.0449692315
 20
95.7349253992
 30
0.0
 11
93.0449692315
 21
89.7349253471
 31
0.0
  0
LINE
  5
24C
330
1F
100
AcDbEntity
  8
0
  6
Continuous
 62
     7
370
     0
100
AcDbLine
 10
90.6454473517
 20
95.7349253992
 30
0.0
 11
93.0449692315
 21
95.7349253992
 31
0.0
  0
LINE
  5
24D
330
1F
100
AcDbEntity
  8
0
  6
Continuous
 62
     7
370
     0
100
AcDbLine
 10
90.6454473517
 20
89.7349253471
 30
0.0
 11
93.0449692315
 21
89.7349253471
 31
0.0
  0
LINE
  5
24E
330
1F
100
AcDbEntity
  8
0
  6
Continuous
 62
     7
370
     0
100
AcDbLine
 10
89.1429129771
 20
86.234925239
 30
0.0
 11
89.3164323426
 21
86.234925239
 31
0.0
  0
CIRCLE
  5
24F
330
1F
100
AcDbEntity
  8
0
  6
Continuous
 62
     7
370
     0
100
AcDbCircle
 10
77.1429132787
 20
92.7349253731
 30
0.0
 40
1.799999999999998
  0
CIRCLE
  5
250
330
1F
100
AcDbEntity
  8
0
  6
Continuous
 62
     7
370
     0
100
AcDbCircle
 10
77.1429132787
 20
92.7349253731
 30
0.0
 40
1.499999999999984
  0
CIRCLE
  5
251
330
1F
100
AcDbEntity
  8
0
  6
Continuous
 62
     7
370
     0
100
AcDbCircle
 10
77.1429132787
 20
92.7349253731
 30
0.0
 40
1.050000000000006
  0
ARC
  5
252
330
1F
100
AcDbEntity
  8
0
  6
Continuous
 62
     7
370
     0
100
AcDbCircle
 10
77.1429132787
 20
92.7349253731
 30
0.0
 40
4.299999999970397
100
AcDbArc
 50
172.0261705189
 51
188.9683617045
  0
SPLINE
  5
253
330
1F
100
AcDbEntity
  8
0
  6
Continuous
 62
     7
370
     0
100
AcDbSpline
210
0.0
220
0.0
230
1.0
 70
    24
 71
     3
 72
     8
 73
     4
 74
     0
 42
0.000000001
 43
0.00000001
 40
0.0
 40
0.0
 40
0.0
 40
0.0
 40
1.0
 40
1.0
 40
1.0
 40
1.0
 10
72.88448768123465
 20
93.33142468430643
 30
0.0
 10
73.13537854689244
 20
93.77482342196713
 30
0.0
 10
73.39318960408305
 20
94.2304521951135
 30
0.0
 10
73.66158448361594
 20
94.70478572841084
 30
0.0
  0
ARC
  5
254
330
1F
100
AcDbEntity
  8
0
  6
Continuous
 62
     7
370
     0
100
AcDbCircle
 10
77.1429132787
 20
92.7349253731
 30
0.0
 40
3.999999999940356
100
AcDbArc
 50
150.4972661119
 51
210.4972661049
  0
SPLINE
  5
255
330
1F
100
AcDbEntity
  8
0
  6
Continuous
 62
     7
370
     0
100
AcDbSpline
210
0.0
220
0.0
230
1.0
 70
    24
 71
     3
 72
     8
 73
     4
 74
     0
 42
0.000000001
 43
0.00000001
 40
0.0
 40
0.0
 40
0.0
 40
0.0
 40
1.0
 40
1.0
 40
1.0
 40
1.0
 10
73.69629977115198
 20
90.7049363761026
 30
0.0
 10
73.41971232120967
 20
91.17453992665632
 30
0.0
 10
73.15403175753059
 20
91.62562523809376
 30
0.0
 10
72.89548261953956
 20
92.06460247013558
 30
0.0
  0
ARC
  5
256
330
1F
100
AcDbEntity
  8
0
  6
Continuous
 62
     7
370
     0
100
AcDbCircle
 10
77.1429132787
 20
92.7349253731
 30
0.0
 40
4.300000000089873
100
AcDbArc
 50
232.0261705205
 51
248.9683617021
  0
ARC
  5
257
330
1F
100
AcDbEntity
  8
0
  6
Continuous
 62
     7
370
     0
100
AcDbCircle
 10
77.1429132787
 20
92.7349253731
 30
0.0
 40
4.00000000000002
100
AcDbArc
 50
210.4972661049
 51
270.497266093
  0
SPLINE
  5
258
330
1F
100
AcDbEntity
  8
0
  6
Continuous
 62
     7
370
     0
100
AcDbSpline
210
0.0
220
0.0
230
1.0
 70
    24
 71
     3
 72
     8
 73
     4
 74
     0
 42
0.000000001
 43
0.00000001
 40
0.0
 40
0.0
 40
0.0
 40
0.0
 40
1.0
 40
1.0
 40
1.0
 40
1.0
 10
77.17762856565952
 20
88.73507601986435
 30
0.0
 10
76.63264623626702
 20
88.73034603713064
 30
0.0
 10
76.10915461505664
 20
88.72580257545121
 30
0.0
 10
75.59971461150307
 20
88.72138106985237
 30
0.0
  0
SPLINE
  5
259
330
1F
100
AcDbEntity
  8
0
  6
Continuous
 62
     7
370
     0
100
AcDbSpline
210
0.0
220
0.0
230
1.0
 70
    24
 71
     3
 72
     8
 73
     4
 74
     0
 42
0.000000001
 43
0.00000001
 40
0.0
 40
0.0
 40
0.0
 40
0.0
 40
1.0
 40
1.0
 40
1.0
 40
1.0
 10
74.49711692306724
 20
89.34527028141153
 30
0.0
 10
74.23856778500333
 20
89.78424751357711
 30
0.0
 10
73.97288722113107
 20
90.23533282541447
 30
0.0
 10
73.69629977112334
 20
90.70493637607927
 30
0.0
  0
ARC
  5
25A
330
1F
100
AcDbEntity
  8
0
  6
Continuous
 62
     7
370
     0
100
AcDbCircle
 10
77.1429132787
 20
92.7349253731
 30
0.0
 40
4.300000000035592
100
AcDbArc
 50
112.0261705174
 51
128.9683617051
  0
SPLINE
  5
25B
330
1F
100
AcDbEntity
  8
0
  6
Continuous
 62
     7
370
     0
100
AcDbSpline
210
0.0
220
0.0
230
1.0
 70
    24
 71
     3
 72
     8
 73
     4
 74
     0
 42
0.000000001
 43
0.00000001
 40
0.0
 40
0.0
 40
0.0
 40
0.0
 40
1.0
 40
1.0
 40
1.0
 40
1.0
 10
75.53028403643903
 20
96.72107977638166
 30
0.0
 10
76.03972404016534
 20
96.72550128198199
 30
0.0
 10
76.56321566125659
 20
96.7300447436604
 30
0.0
 10
77.1081979908192
 20
96.73477472639559
 30
0.0
  0
ARC
  5
25C
330
1F
100
AcDbEntity
  8
0
  6
Continuous
 62
     7
370
     0
100
AcDbCircle
 10
77.1429132787
 20
92.7349253731
 30
0.0
 40
3.999999999999991
100
AcDbArc
 50
90.4972661158
 51
150.4972661119
  0
SPLINE
  5
25D
330
1F
100
AcDbEntity
  8
0
  6
Continuous
 62
     7
370
     0
100
AcDbSpline
210
0.0
220
0.0
230
1.0
 70
    24
 71
     3
 72
     8
 73
     4
 74
     0
 42
0.000000001
 43
0.00000001
 40
0.0
 40
0.0
 40
0.0
 40
0.0
 40
1.0
 40
1.0
 40
1.0
 40
1.0
 10
73.66158448365046
 20
94.70478572839771
 30
0.0
 10
73.92997936326158
 20
95.17911926183329
 30
0.0
 10
74.18779042057349
 20
95.6347480352682
 30
0.0
 10
74.4386812863037
 20
96.07814677305691
 30
0.0
  0
ARC
  5
25E
330
1F
100
AcDbEntity
  8
0
  6
Continuous
 62
     7
370
     0
100
AcDbCircle
 10
77.1429132787
 20
92.7349253731
 30
0.0
 40
4.300000000147949
100
AcDbArc
 50
292.0261705212
 51
308.9683617008
  0
SPLINE
  5
25F
330
1F
100
AcDbEntity
  8
0
  6
Continuous
 62
     7
370
     0
100
AcDbSpline
210
0.0
220
0.0
230
1.0
 70
    24
 71
     3
 72
     8
 73
     4
 74
     0
 42
0.000000001
 43
0.00000001
 40
0.0
 40
0.0
 40
0.0
 40
0.0
 40
1.0
 40
1.0
 40
1.0
 40
1.0
 10
78.75554252176217
 20
88.74877096989646
 30
0.0
 10
78.24610251750914
 20
88.74434946429156
 30
0.0
 10
77.72261089581838
 20
88.73980600260471
 30
0.0
 10
77.17762856565952
 20
88.73507601986435
 30
0.0
  0
ARC
  5
260
330
1F
100
AcDbEntity
  8
0
  6
Continuous
 62
     7
370
     0
100
AcDbCircle
 10
77.1429132787
 20
92.7349253731
 30
0.0
 40
4.00000000000002
100
AcDbArc
 50
270.497266093
 51
330.4972661216
  0
SPLINE
  5
261
330
1F
100
AcDbEntity
  8
0
  6
Continuous
 62
     7
370
     0
100
AcDbSpline
210
0.0
220
0.0
230
1.0
 70
    24
 71
     3
 72
     8
 73
     4
 74
     0
 42
0.000000001
 43
0.00000001
 40
0.0
 40
0.0
 40
0.0
 40
0.0
 40
1.0
 40
1.0
 40
1.0
 40
1.0
 10
80.62424207415162
 20
90.7650650183948
 30
0.0
 10
80.3558471943123
 20
90.29073148455592
 30
0.0
 10
80.09803613676041
 20
89.83510271074455
 30
0.0
 10
79.84714527083138
 20
89.39170397260445
 30
0.0
  0
ARC
  5
262
330
1F
100
AcDbEntity
  8
0
  6
Continuous
 62
     7
370
     0
100
AcDbCircle
 10
77.1429132787
 20
92.7349253731
 30
0.0
 40
4.29999999997721
100
AcDbArc
 50
52.0261705205
 51
68.9683617065
  0
SPLINE
  5
263
330
1F
100
AcDbEntity
  8
0
  6
Continuous
 62
     7
370
     0
100
AcDbSpline
210
0.0
220
0.0
230
1.0
 70
    24
 71
     3
 72
     8
 73
     4
 74
     0
 42
0.000000001
 43
0.00000001
 40
0.0
 40
0.0
 40
0.0
 40
0.0
 40
1.0
 40
1.0
 40
1.0
 40
1.0
 10
79.78870963404451
 20
96.1245804654801
 30
0.0
 10
80.04725877208689
 20
95.68560323335107
 30
0.0
 10
80.31293933594085
 20
95.23451792154476
 30
0.0
 10
80.589526785939
 20
94.76491437089625
 30
0.0
  0
ARC
  5
264
330
1F
100
AcDbEntity
  8
0
  6
Continuous
 62
     7
370
     0
100
AcDbCircle
 10
77.1429132787
 20
92.7349253731
 30
0.0
 40
3.999999999999991
100
AcDbArc
 50
30.4972661167
 51
90.4972661158
  0
SPLINE
  5
265
330
1F
100
AcDbEntity
  8
0
  6
Continuous
 62
     7
370
     0
100
AcDbSpline
210
0.0
220
0.0
230
1.0
 70
    24
 71
     3
 72
     8
 73
     4
 74
     0
 42
0.000000001
 43
0.00000001
 40
0.0
 40
0.0
 40
0.0
 40
0.0
 40
1.0
 40
1.0
 40
1.0
 40
1.0
 10
77.1081979908192
 20
96.73477472639559
 30
0.0
 10
77.65318032044996
 20
96.73950470913135
 30
0.0
 10
78.17667194144117
 20
96.7440481708089
 30
0.0
 10
78.68611194524203
 20
96.74846967640988
 30
0.0
  0
ARC
  5
266
330
1F
100
AcDbEntity
  8
0
  6
Continuous
 62
     7
370
     0
100
AcDbCircle
 10
77.1429132787
 20
92.7349253731
 30
0.0
 40
4.2999999999704
100
AcDbArc
 50
352.0261705189
 51
8.9683617089
  0
ARC
  5
267
330
1F
100
AcDbEntity
  8
0
  6
Continuous
 62
     7
370
     0
100
AcDbCircle
 10
77.1429132787
 20
92.7349253731
 30
0.0
 40
3.999999999940362
100
AcDbArc
 50
330.4972661216
 51
30.4972661167
  0
SPLINE
  5
268
330
1F
100
AcDbEntity
  8
0
  6
Continuous
 62
     7
370
     0
100
AcDbSpline
210
0.0
220
0.0
230
1.0
 70
    24
 71
     3
 72
     8
 73
     4
 74
     0
 42
0.000000001
 43
0.00000001
 40
0.0
 40
0.0
 40
0.0
 40
0.0
 40
1.0
 40
1.0
 40
1.0
 40
1.0
 10
80.58952678591037
 20
94.76491437087293
 30
0.0
 10
80.86611423586227
 20
94.29531082030292
 30
0.0
 10
81.13179479955963
 20
93.84422550883443
 30
0.0
 10
81.39034393757218
 20
93.40524827675604
 30
0.0
  0
SPLINE
  5
269
330
1F
100
AcDbEntity
  8
0
  6
Continuous
 62
     7
370
     0
100
AcDbSpline
210
0.0
220
0.0
230
1.0
 70
    24
 71
     3
 72
     8
 73
     4
 74
     0
 42
0.000000001
 43
0.00000001
 40
0.0
 40
0.0
 40
0.0
 40
0.0
 40
1.0
 40
1.0
 40
1.0
 40
1.0
 10
81.40133887667223
 20
92.13842606256435
 30
0.0
 10
81.15044801101419
 20
91.69502732490317
 30
0.0
 10
80.89263695370835
 20
91.23939855170774
 30
0.0
 10
80.62424207416396
 20
90.7650650183901
 30
0.0
  0
LINE
  5
26A
330
1F
100
AcDbEntity
  8
0
  6
Continuous
 62
     7
370
     0
100
AcDbLine
 10
102.5720564431
 20
95.7349253992
 30
0.0
 11
102.5720564431
 21
89.7349253471
 31
0.0
  0
LINE
  5
26B
330
1F
100
AcDbEntity
  8
0
  6
Continuous
 62
     7
370
     0
100
AcDbLine
 10
93.0449692315
 20
95.7349253992
 30
0.0
 11
102.5720564431
 21
95.7349253992
 31
0.0
  0
LINE
  5
26C
330
1F
100
AcDbEntity
  8
0
  6
Continuous
 62
     7
370
     0
100
AcDbLine
 10
103.0656182921
 20
96.2349254812
 30
0.0
 11
90.142913141
 21
96.2349254812
 31
0.0
  0
LINE
  5
26D
330
1F
100
AcDbEntity
  8
0
  6
Continuous
 62
     7
370
     0
100
AcDbLine
 10
103.0656182921
 20
89.2349252651
 30
0.0
 11
103.0656182921
 21
96.2349254812
 31
0.0
  0
LINE
  5
26E
330
1F
100
AcDbEntity
  8
0
  6
Continuous
 62
     7
370
     0
100
AcDbLine
 10
102.5720564431
 20
89.7349253471
 30
0.0
 11
93.0449692315
 21
89.7349253471
 31
0.0
  0
LINE
  5
26F
330
1F
100
AcDbEntity
  8
0
  6
Continuous
 62
     7
370
     0
100
AcDbLine
 10
90.142913141
 20
89.2349252651
 30
0.0
 11
103.0656182921
 21
89.2349252651
 31
0.0
  0
LINE
  5
270
330
1F
100
AcDbEntity
  8
0
  6
Continuous
 62
     7
370
     0
100
AcDbLine
 10
105.8650603301
 20
95.4349254432
 30
0.0
 11
105.8650603301
 21
96.2349254812
 31
0.0
  0
LINE
  5
271
330
1F
100
AcDbEntity
  8
0
  6
Continuous
 62
     7
370
     0
100
AcDbLine
 10
105.8650603301
 20
90.0349253031
 30
0.0
 11
105.8650603301
 21
95.4349254432
 31
0.0
  0
LINE
  5
272
330
1F
100
AcDbEntity
  8
0
  6
Continuous
 62
     7
370
     0
100
AcDbLine
 10
105.8650603301
 20
89.2349252651
 30
0.0
 11
105.8650603301
 21
90.0349253031
 31
0.0
  0
LINE
  5
273
330
1F
100
AcDbEntity
  8
0
  6
Continuous
 62
     7
370
     0
100
AcDbLine
 10
103.0656182921
 20
96.2349254812
 30
0.0
 11
105.8650603301
 21
96.2349254812
 31
0.0
  0
LINE
  5
274
330
1F
100
AcDbEntity
  8
0
  6
Continuous
 62
     7
370
     0
100
AcDbLine
 10
103.0656182921
 20
89.2349252651
 30
0.0
 11
105.8650603301
 21
89.2349252651
 31
0.0
  0
LINE
  5
275
330
1F
100
AcDbEntity
  8
0
  6
Continuous
 62
     7
370
     0
100
AcDbLine
 10
105.8650603301
 20
95.4349254432
 30
0.0
 11
105.8714994943
 21
95.4349254432
 31
0.0
  0
LINE
  5
276
330
1F
100
AcDbEntity
  8
0
  6
Continuous
 62
     7
370
     0
100
AcDbLine
 10
105.8714994943
 20
90.0349253031
 30
0.0
 11
105.8650603301
 21
90.0349253031
 31
0.0
  0
LINE
  5
277
330
1F
100
AcDbEntity
  8
0
  6
Continuous
 62
     7
370
     0
100
AcDbLine
 10
101.1268747753
 20
95.4349254432
 30
0.0
 11
102.5720564431
 21
95.4349254432
 31
0.0
  0
LINE
  5
278
330
1F
100
AcDbEntity
  8
0
  6
Continuous
 62
     7
370
     0
100
AcDbLine
 10
101.1268747753
 20
90.0349253031
 30
0.0
 11
102.5720564431
 21
90.0349253031
 31
0.0
  0
ARC
  5
279
330
1F
100
AcDbEntity
  8
0
  6
Continuous
 62
     7
370
     0
100
AcDbCircle
 10
101.0931854549
 20
92.7349253731
 30
0.0
 40
0.3500190237572951
100
AcDbArc
 50
270.5975638624
 51
89.4024361376
  0
CIRCLE
  5
27A
330
1F
100
AcDbEntity
  8
0
  6
Continuous
 62
     7
370
     0
100
AcDbCircle
 10
100.2958381628
 20
92.7377972294
 30
0.0
 40
0.3471300608642552
  0
CIRCLE
  5
27B
330
1F
100
AcDbEntity
  8
0
  6
Continuous
 62
     7
370
     0
100
AcDbCircle
 10
98.3215944921
 20
92.7377972294
 30
0.0
 40
0.3471300608642554
  0
ARC
  5
27C
330
1F
100
AcDbEntity
  8
0
  6
Continuous
 62
     7
370
     0
100
AcDbCircle
 10
99.1189417841
 20
92.7349253731
 30
0.0
 40
0.3500190237572951
100
AcDbArc
 50
270.5975638624
 51
89.4024361376
  0
ARC
  5
27D
330
1F
100
AcDbEntity
  8
0
  6
Continuous
 62
     7
370
     0
100
AcDbCircle
 10
101.0987968947
 20
92.7450086748
 30
0.0
 40
0.6899194603165673
100
AcDbArc
 50
90.1628553085
 51
150.4824331844
  0
ARC
  5
27E
330
1F
100
AcDbEntity
  8
0
  6
Continuous
 62
     7
370
     0
100
AcDbCircle
 10
101.0979507898
 20
92.7387686811
 30
0.0
 40
0.69615755978345
100
AcDbArc
 50
210.5493608114
 51
90.0917589372
  0
ARC
  5
27F
330
1F
100
AcDbEntity
  8
0
  6
Continuous
 62
     7
370
     0
100
AcDbCircle
 10
101.5694386894
 20
92.7349253731
 30
0.0
 40
0.7000380606364541
100
AcDbArc
 50
270.5976668256
 51
89.4023331744
  0
ARC
  5
280
330
1F
100
AcDbEntity
  8
0
  6
Continuous
 62
     7
370
     0
100
AcDbCircle
 10
99.6004851232
 20
92.7250065586
 30
0.0
 40
0.6900840936688138
100
AcDbArc
 50
270.1670541938
 51
331.6067170579
  0
ARC
  5
281
330
1F
100
AcDbEntity
  8
0
  6
Continuous
 62
     7
370
     0
100
AcDbCircle
 10
99.6004851232
 20
92.7448441877
 30
0.0
 40
0.6900840936688424
100
AcDbArc
 50
28.3932829421
 51
89.8329458062
  0
ARC
  5
282
330
1F
100
AcDbEntity
  8
0
  6
Continuous
 62
     7
370
     0
100
AcDbCircle
 10
99.1245527755
 20
92.7450062466
 30
0.0
 40
0.6899218872146305
100
AcDbArc
 50
90.162817485
 51
150.4823155649
  0
ARC
  5
283
330
1F
100
AcDbEntity
  8
0
  6
Continuous
 62
     7
370
     0
100
AcDbCircle
 10
99.1237052452
 20
92.7387686856
 30
0.0
 40
0.6961575523730612
100
AcDbArc
 50
210.549361593
 51
90.0916047144
  0
LINE
  5
284
330
1F
100
AcDbEntity
  8
0
  6
Continuous
 62
     7
370
     0
100
AcDbLine
 10
102.3664390451
 20
90.634925448
 30
0.0
 11
102.3664390451
 21
94.8349252983
 31
0.0
  0
ARC
  5
285
330
1F
100
AcDbEntity
  8
0
  6
Continuous
 62
     7
370
     0
100
AcDbCircle
 10
103.2078085361
 20
90.513119905
 30
0.0
 40
0.8501407005521372
100
AcDbArc
 50
171.7624877241
 51
206.4144532122
  0
ARC
  5
286
330
1F
100
AcDbEntity
  8
0
  6
Continuous
 62
     7
370
     0
100
AcDbCircle
 10
103.2078085361
 20
94.9567308413
 30
0.0
 40
0.8501407005521393
100
AcDbArc
 50
153.5855467878
 51
188.2375122759
  0
LINE
  5
287
330
1F
100
AcDbEntity
  8
0
  6
Continuous
 62
     7
370
     0
100
AcDbLine
 10
102.4464228904
 20
90.1349253661
 30
0.0
 11
98.6953573084
 21
90.1349253661
 31
0.0
  0
ELLIPSE
  5
288
330
1F
100
AcDbEntity
  8
0
  6
Continuous
 62
     7
370
     0
100
AcDbEllipse
 10
98.9914948649
 20
90.6349253731
 30
0.0
 11
0.3010654471657688
 21
0.4987398002742793
 31
0.0
210
0.0
220
0.0
230
1.0
 40
0.117837889
 41
1.641809831132945
 42
3.212606157927612
  0
LINE
  5
289
330
1F
100
AcDbEntity
  8
0
  6
Continuous
 62
     7
370
     0
100
AcDbLine
 10
98.91151169
 20
90.634925448
 30
0.0
 11
102.3664390451
 21
90.634925448
 31
0.0
  0
LINE
  5
28A
330
1F
100
AcDbEntity
  8
0
  6
Continuous
 62
     7
370
     0
100
AcDbLine
 10
102.3664390451
 20
94.8349252983
 30
0.0
 11
98.91151169
 21
94.8349252983
 31
0.0
  0
ELLIPSE
  5
28B
330
1F
100
AcDbEntity
  8
0
  6
Continuous
 62
     7
370
     0
100
AcDbEllipse
 10
98.9914948649
 20
94.8349253731
 30
0.0
 11
-0.301065447165783
 21
0.4987398002742794
 31
0.0
210
0.0
220
0.0
230
1.0
 40
0.117837889
 41
6.212171802841831
 42
7.782968129636425
  0
LINE
  5
28C
330
1F
100
AcDbEntity
  8
0
  6
Continuous
 62
     7
370
     0
100
AcDbLine
 10
98.6953573084
 20
95.3349253802
 30
0.0
 11
102.4464228904
 21
95.3349253802
 31
0.0
  0
LINE
  5
28D
330
1F
100
AcDbEntity
  8
0
  6
Continuous
 62
     7
370
     0
100
AcDbLine
 10
102.5720564431
 20
90.1349253661
 30
0.0
 11
102.4464228904
 21
90.1349253661
 31
0.0
  0
LINE
  5
28E
330
1F
100
AcDbEntity
  8
0
  6
Continuous
 62
     7
370
     0
100
AcDbLine
 10
102.4464228904
 20
95.3349253802
 30
0.0
 11
102.5720564431
 21
95.3349253802
 31
0.0
  0
ELLIPSE
  5
28F
330
1F
100
AcDbEntity
  8
0
  6
Continuous
 62
     7
370
     0
100
AcDbEllipse
 10
98.9914948649
 20
90.6349253731
 30
0.0
 11
0.4995533307662043
 21
0.2979001630449574
 31
0.0
210
0.0
220
0.0
230
1.0
 40
0.0709292331
 41
3.099320404815645
 42
3.259978777697954
  0
ELLIPSE
  5
290
330
1F
100
AcDbEntity
  8
0
  6
Continuous
 62
     7
370
     0
100
AcDbEllipse
 10
98.9914948649
 20
94.8349253731
 30
0.0
 11
0.4995533307662043
 21
-0.2979001630449432
 31
0.0
210
0.0
220
0.0
230
1.0
 40
0.0709292331
 41
3.023206529481276
 42
3.183864902363831
  0
LINE
  5
291
330
1F
100
AcDbEntity
  8
0
  6
Continuous
 62
     7
370
     0
100
AcDbLine
 10
98.9992981559
 20
90.0349253031
 30
0.0
 11
93.0449692315
 21
90.0349253031
 31
0.0
  0
LINE
  5
292
330
1F
100
AcDbEntity
  8
0
  6
Continuous
 62
     7
370
     0
100
AcDbLine
 10
98.9992981559
 20
95.4349254432
 30
0.0
 11
93.0449692315
 21
95.4349254432
 31
0.0
  0
LINE
  5
293
330
1F
100
AcDbEntity
  8
0
  6
Continuous
 62
     7
370
     0
100
AcDbLine
 10
98.9992981559
 20
95.3349253802
 30
0.0
 11
98.9992981559
 21
95.4349254432
 31
0.0
  0
LINE
  5
294
330
1F
100
AcDbEntity
  8
0
  6
Continuous
 62
     7
370
     0
100
AcDbLine
 10
98.9992981559
 20
90.0349253031
 30
0.0
 11
98.9992981559
 21
90.1349253661
 31
0.0
  0
LINE
  5
295
330
1F
100
AcDbEntity
  8
0
  6
Continuous
 62
     7
370
     0
100
AcDbLine
 10
101.1268747753
 20
90.0349253031
 30
0.0
 11
101.1268747753
 21
90.1349253661
 31
0.0
  0
LINE
  5
296
330
1F
100
AcDbEntity
  8
0
  6
Continuous
 62
     7
370
     0
100
AcDbLine
 10
101.1268747753
 20
90.0349253031
 30
0.0
 11
98.9992981559
 21
90.0349253031
 31
0.0
  0
LINE
  5
297
330
1F
100
AcDbEntity
  8
0
  6
Continuous
 62
     7
370
     0
100
AcDbLine
 10
101.1268747753
 20
95.3349253802
 30
0.0
 11
101.1268747753
 21
95.4349254432
 31
0.0
  0
LINE
  5
298
330
1F
100
AcDbEntity
  8
0
  6
Continuous
 62
     7
370
     0
100
AcDbLine
 10
101.1268747753
 20
95.4349254432
 30
0.0
 11
98.9992981559
 21
95.4349254432
 31
0.0
  0
LINE
  5
299
330
1F
100
AcDbEntity
  8
0
  6
Continuous
 62
     7
370
     0
100
AcDbLine
 10
96.8586439049
 20
88.5349255229
 30
0.0
 11
95.8506064272
 21
88.5349255229
 31
0.0
  0
LINE
  5
29A
330
1F
100
AcDbEntity
  8
0
  6
Continuous
 62
     7
370
     0
100
AcDbLine
 10
98.2506060755
 20
88.5349255229
 30
0.0
 11
96.8586439049
 21
88.5349255229
 31
0.0
  0
LINE
  5
29B
330
1F
100
AcDbEntity
  8
0
  6
Continuous
 62
     7
370
     0
100
AcDbLine
 10
96.8106547153
 20
88.8349254789
 30
0.0
 11
98.5506055659
 21
88.8349254789
 31
0.0
  0
LINE
  5
29C
330
1F
100
AcDbEntity
  8
0
  6
Continuous
 62
     7
370
     0
100
AcDbLine
 10
95.5506069368
 20
88.8349254789
 30
0.0
 11
96.8106547153
 21
88.8349254789
 31
0.0
  0
LINE
  5
29D
330
1F
100
AcDbEntity
  8
0
  6
Continuous
 62
     7
370
     0
100
AcDbLine
 10
98.5506055659
 20
96.6349252673
 30
0.0
 11
95.5506069368
 21
96.6349252673
 31
0.0
  0
LINE
  5
29E
330
1F
100
AcDbEntity
  8
0
  6
Continuous
 62
     7
370
     0
100
AcDbLine
 10
95.8506064272
 20
96.9349252234
 30
0.0
 11
98.2506060755
 21
96.9349252234
 31
0.0
  0
SPLINE
  5
29F
330
1F
100
AcDbEntity
  8
0
  6
Continuous
 62
     7
370
     0
100
AcDbSpline
210
0.0
220
0.0
230
1.0
 70
     8
 71
     3
 72
    10
 73
     6
 74
     0
 42
0.000000001
 43
0.00000001
 40
0.0
 40
0.0
 40
0.0
 40
0.0
 40
0.309747354946663
 40
0.917108788862865
 40
1.0
 40
1.0
 40
1.0
 40
1.0
 10
90.91899448694932
 20
87.63907050588459
 30
0.0
 10
90.84031328617677
 20
87.60660999257392
 30
0.0
 10
90.60735174641091
 20
87.51049998042122
 30
0.0
 10
90.34672784449495
 20
87.4224675851763
 30
0.0
 10
90.16476476339469
 20
87.42455301401334
 30
0.0
 10
90.14291314097392
 20
87.42480344944924
 30
0.0
  0
LINE
  5
2A0
330
1F
100
AcDbEntity
  8
0
  6
Continuous
 62
     7
370
     0
100
AcDbLine
 10
90.7280351749
 20
87.5083235266
 30
0.0
 11
90.9189944869
 21
87.6390705059
 31
0.0
  0
LINE
  5
2A1
330
1F
100
AcDbEntity
  8
0
  6
Continuous
 62
     7
370
     0
100
AcDbLine
 10
90.142913141
 20
87.2349254029
 30
0.0
 11
90.2664325914
 21
87.2349254029
 31
0.0
  0
LINE
  5
2A2
330
1F
100
AcDbEntity
  8
0
  6
Continuous
 62
     7
370
     0
100
AcDbLine
 10
90.9189944869
 20
87.6390705059
 30
0.0
 11
90.9189944869
 21
89.2349252651
 31
0.0
  0
LINE
  5
2A3
330
1F
100
AcDbEntity
  8
0
  6
Continuous
 62
     8
370
     0
100
AcDbLine
 10
90.142913141
 20
97.531729302
 30
0.0
 11
90.4706874645
 21
97.531729302
 31
0.0
  0
LINE
  5
2A4
330
1F
100
AcDbEntity
  8
0
  6
Continuous
 62
     8
370
     0
100
AcDbLine
 10
90.142913141
 20
97.3399210895
 30
0.0
 11
90.5664320818
 21
97.3399210895
 31
0.0
  0
LINE
  5
2A5
330
1F
100
AcDbEntity
  8
0
  6
Continuous
 62
     8
370
     0
100
AcDbLine
 10
102.3664390451
 20
90.634925448
 30
0.0
 11
102.5720564431
 21
90.634925448
 31
0.0
  0
LINE
  5
2A6
330
1F
100
AcDbEntity
  8
0
  6
Continuous
 62
     8
370
     0
100
AcDbLine
 10
102.5720564431
 20
94.8349252983
 30
0.0
 11
102.3664390451
 21
94.8349252983
 31
0.0
  0
LWPOLYLINE
  5
2A7
330
1F
100
AcDbEntity
  8
0
  6
Continuous
 62
     8
370
     0
100
AcDbPolyline
 90
        3
 70
   128
 43
0.0
 10
102.4464228904
 20
90.1349253661
 10
102.5427123314
 20
90.1445326569
 10
102.5720564431
 20
90.1513951073
  0
LWPOLYLINE
  5
2A8
330
1F
100
AcDbEntity
  8
0
  6
Continuous
 62
     8
370
     0
100
AcDbPolyline
 90
        3
 70
   128
 43
0.0
 10
102.5720564431
 20
95.318455639
 10
102.5427123314
 20
95.3253180894
 10
102.4464228904
 20
95.3349253802
  0
LINE
  5
2A9
330
1F
100
AcDbEntity
  8
0
  6
Continuous
 62
     8
370
     0
100
AcDbLine
 10
98.91151169
 20
92.068386072
 30
0.0
 11
98.91151169
 21
90.634925448
 31
0.0
  0
LINE
  5
2AA
330
1F
100
AcDbEntity
  8
0
  6
Continuous
 62
     8
370
     0
100
AcDbLine
 10
98.91151169
 20
94.8349252983
 30
0.0
 11
98.91151169
 21
93.4014646743
 31
0.0
  0
ELLIPSE
  5
2AB
330
1F
100
AcDbEntity
  8
0
  6
Continuous
 62
     8
370
     0
100
AcDbEllipse
 10
98.9914948649
 20
90.6349253731
 30
0.0
 11
0.4995533307662043
 21
0.2979001630449574
 31
0.0
210
0.0
220
0.0
230
1.0
 40
0.0709292331
 41
1.68918245090306
 42
3.099320404815645
  0
ELLIPSE
  5
2AC
330
1F
100
AcDbEntity
  8
0
  6
Continuous
 62
     8
370
     0
100
AcDbEllipse
 10
98.9914948649
 20
94.8349253731
 30
0.0
 11
0.4995533307662043
 21
-0.2979001630449432
 31
0.0
210
0.0
220
0.0
230
1.0
 40
0.0709292331
 41
3.183864902363831
 42
4.594002856276489
  0
DIMENSION
  5
2AD
330
1F
100
AcDbEntity
  8
0
  6
Continuous
 62
     7
370
     0
100
AcDbDimension
  2
_D_10
 10
105.8650603316
 20
68.6476452455
 30
0.0
 11
83.5529588074
 21
68.6476452455
 31
0.0
 70
   160
  1
(<>)
 71
     2
 42
-1.0
  3
SLDDIMSTYLE4
100
AcDbAlignedDimension
 13
61.2408572833
 23
89.7349253731
 33
0.0
 14
105.8650603316
 24
89.2349253731
 34
0.0
100
AcDbRotatedDimension
  0
DIMENSION
  5
2BA
330
1F
100
AcDbEntity
  8
0
  6
Continuous
 62
     7
370
     0
100
AcDbDimension
  2
_D_11
 10
77.1429132787
 20
77.8120296751
 30
0.0
 11
69.191885281
 21
77.8120296751
 31
0.0
 70
   160
  1
(<>)
 71
     2
 42
-1.0
  3
SLDDIMSTYLE4
100
AcDbAlignedDimension
 13
61.2408572833
 23
89.7349253731
 33
0.0
 14
77.1429132787
 24
84.7349253731
 34
0.0
100
AcDbRotatedDimension
  0
INSERT
  5
2D1
330
1F
100
AcDbEntity
  8
0
  6
Continuous
 62
     7
370
     0
100
AcDbBlockReference
  2
SW_CENTERMARKSYMBOL_5
 10
77.1429132787
 20
92.7349253731
 30
0.0
  0
LINE
  5
2D2
330
1F
100
AcDbEntity
  8
0
  6
Continuous
 62
     7
370
     0
100
AcDbLine
 10
154.0986000923
 20
157.7353611475
 30
0.0
 11
154.5986001742
 21
157.2353601342
 31
0.0
  0
LINE
  5
2D3
330
1F
100
AcDbEntity
  8
0
  6
Continuous
 62
     7
370
     0
100
AcDbLine
 10
165.5986001146
 20
157.2353601342
 30
0.0
 11
166.0986001966
 21
157.7353611475
 31
0.0
  0
LINE
  5
2D4
330
1F
100
AcDbEntity
  8
0
  6
Continuous
 62
     7
370
     0
100
AcDbLine
 10
154.0986000923
 20
173.2353608941
 30
0.0
 11
154.0986000923
 21
157.7353611475
 31
0.0
  0
LINE
  5
2D5
330
1F
100
AcDbEntity
  8
0
  6
Continuous
 62
     7
370
     0
100
AcDbLine
 10
166.0986001966
 20
157.7353611475
 30
0.0
 11
166.0986001966
 21
173.2353608941
 31
0.0
  0
LINE
  5
2D6
330
1F
100
AcDbEntity
  8
0
  6
Continuous
 62
     7
370
     0
100
AcDbLine
 10
155.4936044281
 20
225.5622729545
 30
0.0
 11
156.5986000364
 21
225.5622729545
 31
0.0
  0
LINE
  5
2D7
330
1F
100
AcDbEntity
  8
0
  6
Continuous
 62
     7
370
     0
100
AcDbLine
 10
156.5986000364
 20
230.5622719114
 30
0.0
 11
155.4936044281
 21
230.5622719114
 31
0.0
  0
ARC
  5
2D8
330
1F
100
AcDbEntity
  8
0
  6
Continuous
 62
     7
370
     0
100
AcDbCircle
 10
155.4936043042
 20
225.802271501
 30
0.0
 40
0.2400000000000267
100
AcDbArc
 50
216.9461268967
 51
270.0
  0
ARC
  5
2D9
330
1F
100
AcDbEntity
  8
0
  6
Continuous
 62
     7
370
     0
100
AcDbCircle
 10
155.4936043042
 20
230.322271501
 30
0.0
 40
0.2400000000000267
100
AcDbArc
 50
90.0
 51
143.0538731033
  0
ARC
  5
2DA
330
1F
100
AcDbEntity
  8
0
  6
Continuous
 62
     7
370
     0
100
AcDbCircle
 10
158.4986001444
 20
228.062271501
 30
0.0
 40
3.999999999999992
100
AcDbArc
 50
198.0976540567
 51
216.9461268967
  0
ARC
  5
2DB
330
1F
100
AcDbEntity
  8
0
  6
Continuous
 62
     7
370
     0
100
AcDbCircle
 10
158.4986001444
 20
228.062271501
 30
0.0
 40
4.000000000000019
100
AcDbArc
 50
143.0538731033
 51
161.9023459433
  0
LINE
  5
2DC
330
1F
100
AcDbEntity
  8
0
  6
Continuous
 62
     7
370
     0
100
AcDbLine
 10
165.5986001146
 20
226.8122717624
 30
0.0
 11
166.5986002785
 21
226.8122717624
 31
0.0
  0
LINE
  5
2DD
330
1F
100
AcDbEntity
  8
0
  6
Continuous
 62
     7
370
     0
100
AcDbLine
 10
166.5986002785
 20
229.3122731035
 30
0.0
 11
165.5986001146
 21
229.3122731035
 31
0.0
  0
LINE
  5
2DE
330
1F
100
AcDbEntity
  8
0
  6
Continuous
 62
     7
370
     0
100
AcDbLine
 10
158.2986001754
 20
149.2353625482
 30
0.0
 11
158.5986001314
 21
147.2353622203
 31
0.0
  0
LINE
  5
2DF
330
1F
100
AcDbEntity
  8
0
  6
Continuous
 62
     7
370
     0
100
AcDbLine
 10
161.5986001575
 20
147.2353622203
 30
0.0
 11
161.8986001135
 21
149.2353625482
 31
0.0
  0
LINE
  5
2E0
330
1F
100
AcDbEntity
  8
0
  6
Continuous
 62
     7
370
     0
100
AcDbLine
 10
161.8986001135
 20
149.2353625482
 30
0.0
 11
161.8986001135
 21
149.7353598362
 31
0.0
  0
LINE
  5
2E1
330
1F
100
AcDbEntity
  8
0
  6
Continuous
 62
     7
370
     0
100
AcDbLine
 10
158.2986001754
 20
149.7353598362
 30
0.0
 11
158.2986001754
 21
149.2353625482
 31
0.0
  0
LINE
  5
2E2
330
1F
100
AcDbEntity
  8
0
  6
Continuous
 62
     7
370
     0
100
AcDbLine
 10
158.2986001754
 20
151.735360164
 30
0.0
 11
158.4986001849
 21
149.7353598362
 31
0.0
  0
LINE
  5
2E3
330
1F
100
AcDbEntity
  8
0
  6
Continuous
 62
     7
370
     0
100
AcDbLine
 10
161.698600104
 20
149.7353598362
 30
0.0
 11
161.8986001135
 21
151.735360164
 31
0.0
  0
LINE
  5
2E4
330
1F
100
AcDbEntity
  8
0
  6
Continuous
 62
     7
370
     0
100
AcDbLine
 10
161.8986001135
 20
151.735360164
 30
0.0
 11
161.8986001135
 21
152.2353611773
 31
0.0
  0
LINE
  5
2E5
330
1F
100
AcDbEntity
  8
0
  6
Continuous
 62
     7
370
     0
100
AcDbLine
 10
158.2986001754
 20
152.2353611773
 30
0.0
 11
158.2986001754
 21
151.735360164
 31
0.0
  0
LINE
  5
2E6
330
1F
100
AcDbEntity
  8
0
  6
Continuous
 62
     7
370
     0
100
AcDbLine
 10
161.698600104
 20
152.2353611773
 30
0.0
 11
161.698600104
 21
154.2353615051
 31
0.0
  0
LINE
  5
2E7
330
1F
100
AcDbEntity
  8
0
  6
Continuous
 62
     7
370
     0
100
AcDbLine
 10
158.4986001849
 20
154.2353615051
 30
0.0
 11
158.4986001849
 21
152.2353611773
 31
0.0
  0
LINE
  5
2E8
330
1F
100
AcDbEntity
  8
0
  6
Continuous
 62
     7
370
     0
100
AcDbLine
 10
159.3986001694
 20
223.0989619976
 30
0.0
 11
159.3986001694
 21
222.2023591285
 31
0.0
  0
LINE
  5
2E9
330
1F
100
AcDbEntity
  8
0
  6
Continuous
 62
     7
370
     0
100
AcDbLine
 10
160.7986001195
 20
222.2023591285
 30
0.0
 11
160.7986001195
 21
223.0989619976
 31
0.0
  0
LINE
  5
2EA
330
1F
100
AcDbEntity
  8
0
  6
Continuous
 62
     7
370
     0
100
AcDbLine
 10
159.7486001569
 20
222.1053823715
 30
0.0
 11
159.7486001569
 21
217.2667480891
 31
0.0
  0
LINE
  5
2EB
330
1F
100
AcDbEntity
  8
0
  6
Continuous
 62
     7
370
     0
100
AcDbLine
 10
160.448600132
 20
217.2667480891
 30
0.0
 11
160.448600132
 21
222.1053823715
 31
0.0
  0
LINE
  5
2EC
330
1F
100
AcDbEntity
  8
0
  6
Continuous
 62
     7
370
     0
100
AcDbLine
 10
163.5986002525
 20
237.6174576467
 30
0.0
 11
163.9986000386
 21
237.6174576467
 31
0.0
  0
LINE
  5
2ED
330
1F
100
AcDbEntity
  8
0
  6
Continuous
 62
     7
370
     0
100
AcDbLine
 10
163.9986000386
 20
240.6174562758
 30
0.0
 11
163.5986002525
 21
240.6174562758
 31
0.0
  0
LINE
  5
2EE
330
1F
100
AcDbEntity
  8
0
  6
Continuous
 62
     7
370
     0
100
AcDbLine
 10
163.0986001705
 20
240.6174562758
 30
0.0
 11
162.7986002145
 21
240.6174562758
 31
0.0
  0
LINE
  5
2EF
330
1F
100
AcDbEntity
  8
0
  6
Continuous
 62
     7
370
     0
100
AcDbLine
 10
163.9986000386
 20
237.6174576467
 30
0.0
 11
164.2985999947
 21
237.9174552744
 31
0.0
  0
LINE
  5
2F0
330
1F
100
AcDbEntity
  8
0
  6
Continuous
 62
     7
370
     0
100
AcDbLine
 10
164.2985999947
 20
240.3174549227
 30
0.0
 11
163.9986000386
 21
240.6174562758
 31
0.0
  0
LINE
  5
2F1
330
1F
100
AcDbEntity
  8
0
  6
Continuous
 62
     7
370
     0
100
AcDbLine
 10
157.3986000744
 20
240.6174562758
 30
0.0
 11
157.0986001184
 21
240.6174562758
 31
0.0
  0
LINE
  5
2F2
330
1F
100
AcDbEntity
  8
0
  6
Continuous
 62
     7
370
     0
100
AcDbLine
 10
156.5986000364
 20
240.6174562758
 30
0.0
 11
156.1986002502
 21
240.6174562758
 31
0.0
  0
LINE
  5
2F3
330
1F
100
AcDbEntity
  8
0
  6
Continuous
 62
     7
370
     0
100
AcDbLine
 10
156.1986002502
 20
237.6174576467
 30
0.0
 11
156.5986000364
 21
237.6174576467
 31
0.0
  0
LINE
  5
2F4
330
1F
100
AcDbEntity
  8
0
  6
Continuous
 62
     7
370
     0
100
AcDbLine
 10
156.1986002502
 20
240.6174562758
 30
0.0
 11
155.8986002942
 21
240.3174549227
 31
0.0
  0
LINE
  5
2F5
330
1F
100
AcDbEntity
  8
0
  6
Continuous
 62
     7
370
     0
100
AcDbLine
 10
155.8986002942
 20
237.9174552744
 30
0.0
 11
156.1986002502
 21
237.6174576467
 31
0.0
  0
LINE
  5
2F6
330
1F
100
AcDbEntity
  8
0
  6
Continuous
 62
     7
370
     0
100
AcDbLine
 10
165.4037874555
 20
225.5248449629
 30
0.0
 11
165.5986001146
 21
225.8622705823
 31
0.0
  0
LINE
  5
2F7
330
1F
100
AcDbEntity
  8
0
  6
Continuous
 62
     7
370
     0
100
AcDbLine
 10
165.5986001146
 20
230.2622705584
 30
0.0
 11
165.4037874555
 21
230.5996961778
 31
0.0
  0
LINE
  5
2F8
330
1F
100
AcDbEntity
  8
0
  6
Continuous
 62
     7
370
     0
100
AcDbLine
 10
157.0986001184
 20
199.396713998
 30
0.0
 11
163.0986001705
 21
199.396713998
 31
0.0
  0
LINE
  5
2F9
330
1F
100
AcDbEntity
  8
0
  6
Continuous
 62
     7
370
     0
100
AcDbLine
 10
163.0986001705
 20
184.5898818111
 30
0.0
 11
163.0986001705
 21
199.396713998
 31
0.0
  0
LINE
  5
2FA
330
1F
100
AcDbEntity
  8
0
  6
Continuous
 62
     7
370
     0
100
AcDbLine
 10
157.0986001184
 20
184.5898818111
 30
0.0
 11
163.0986001705
 21
184.5898818111
 31
0.0
  0
LINE
  5
2FB
330
1F
100
AcDbEntity
  8
0
  6
Continuous
 62
     7
370
     0
100
AcDbLine
 10
157.0986001184
 20
184.5898818111
 30
0.0
 11
157.0986001184
 21
199.396713998
 31
0.0
  0
LINE
  5
2FC
330
1F
100
AcDbEntity
  8
0
  6
Continuous
 62
     7
370
     0
100
AcDbLine
 10
157.0986001184
 20
199.396713998
 30
0.0
 11
157.0986001184
 21
222.7767094856
 31
0.0
  0
LINE
  5
2FD
330
1F
100
AcDbEntity
  8
0
  6
Continuous
 62
     7
370
     0
100
AcDbLine
 10
163.0986001705
 20
199.396713998
 30
0.0
 11
163.0986001705
 21
222.7767094856
 31
0.0
  0
LINE
  5
2FE
330
1F
100
AcDbEntity
  8
0
  6
Continuous
 62
     7
370
     0
100
AcDbLine
 10
162.0986002394
 20
183.7627276664
 30
0.0
 11
158.0986000494
 21
183.7627276664
 31
0.0
  0
LINE
  5
2FF
330
1F
100
AcDbEntity
  8
0
  6
Continuous
 62
     7
370
     0
100
AcDbLine
 10
157.0986001184
 20
184.5898818111
 30
0.0
 11
158.0986000494
 21
183.7627276664
 31
0.0
  0
LINE
  5
300
330
1F
100
AcDbEntity
  8
0
  6
Continuous
 62
     7
370
     0
100
AcDbLine
 10
163.0986001705
 20
184.5898818111
 30
0.0
 11
162.0986002394
 21
183.7627276664
 31
0.0
  0
LINE
  5
301
330
1F
100
AcDbEntity
  8
0
  6
Continuous
 62
     7
370
     0
100
AcDbLine
 10
163.0986001705
 20
243.8562273865
 30
0.0
 11
161.5986001575
 21
243.8562273865
 31
0.0
  0
LINE
  5
302
330
1F
100
AcDbEntity
  8
0
  6
Continuous
 62
     7
370
     0
100
AcDbLine
 10
161.5986001575
 20
243.0427282935
 30
0.0
 11
161.5986001575
 21
243.8562273865
 31
0.0
  0
LINE
  5
303
330
1F
100
AcDbEntity
  8
0
  6
Continuous
 62
     7
370
     0
100
AcDbLine
 10
163.0986001705
 20
243.8562273865
 30
0.0
 11
163.0986001705
 21
242.5491683071
 31
0.0
  0
LINE
  5
304
330
1F
100
AcDbEntity
  8
0
  6
Continuous
 62
     7
370
     0
100
AcDbLine
 10
158.5986001314
 20
243.8562273865
 30
0.0
 11
157.0986001184
 21
243.8562273865
 31
0.0
  0
LINE
  5
305
330
1F
100
AcDbEntity
  8
0
  6
Continuous
 62
     7
370
     0
100
AcDbLine
 10
158.5986001314
 20
243.8562273865
 30
0.0
 11
158.5986001314
 21
243.0427282935
 31
0.0
  0
LINE
  5
306
330
1F
100
AcDbEntity
  8
0
  6
Continuous
 62
     7
370
     0
100
AcDbLine
 10
157.0986001184
 20
243.8562273865
 30
0.0
 11
157.0986001184
 21
242.5491683071
 31
0.0
  0
LINE
  5
307
330
1F
100
AcDbEntity
  8
0
  6
Continuous
 62
     7
370
     0
100
AcDbLine
 10
161.5986001575
 20
244.4297730809
 30
0.0
 11
163.0986001705
 21
244.4297730809
 31
0.0
  0
LINE
  5
308
330
1F
100
AcDbEntity
  8
0
  6
Continuous
 62
     7
370
     0
100
AcDbLine
 10
161.5986001575
 20
243.8562273865
 30
0.0
 11
161.5986001575
 21
244.4297730809
 31
0.0
  0
LINE
  5
309
330
1F
100
AcDbEntity
  8
0
  6
Continuous
 62
     7
370
     0
100
AcDbLine
 10
163.0986001705
 20
244.4297730809
 30
0.0
 11
163.0986001705
 21
243.8562273865
 31
0.0
  0
LINE
  5
30A
330
1F
100
AcDbEntity
  8
0
  6
Continuous
 62
     7
370
     0
100
AcDbLine
 10
157.0986001184
 20
244.4297730809
 30
0.0
 11
158.5986001314
 21
244.4297730809
 31
0.0
  0
LINE
  5
30B
330
1F
100
AcDbEntity
  8
0
  6
Continuous
 62
     7
370
     0
100
AcDbLine
 10
158.5986001314
 20
244.4297730809
 30
0.0
 11
158.5986001314
 21
243.8562273865
 31
0.0
  0
LINE
  5
30C
330
1F
100
AcDbEntity
  8
0
  6
Continuous
 62
     7
370
     0
100
AcDbLine
 10
157.0986001184
 20
243.8562273865
 30
0.0
 11
157.0986001184
 21
244.4297730809
 31
0.0
  0
LINE
  5
30D
330
1F
100
AcDbEntity
  8
0
  6
Continuous
 62
     7
370
     0
100
AcDbLine
 10
161.5986001575
 20
245.4695649331
 30
0.0
 11
163.0986001705
 21
245.4695649331
 31
0.0
  0
LINE
  5
30E
330
1F
100
AcDbEntity
  8
0
  6
Continuous
 62
     7
370
     0
100
AcDbLine
 10
161.5986001575
 20
244.4297730809
 30
0.0
 11
161.5986001575
 21
245.4695649331
 31
0.0
  0
LINE
  5
30F
330
1F
100
AcDbEntity
  8
0
  6
Continuous
 62
     7
370
     0
100
AcDbLine
 10
163.0986001705
 20
244.4297730809
 30
0.0
 11
163.0986001705
 21
245.4695649331
 31
0.0
  0
LINE
  5
310
330
1F
100
AcDbEntity
  8
0
  6
Continuous
 62
     7
370
     0
100
AcDbLine
 10
157.0986001184
 20
245.4695649331
 30
0.0
 11
158.5986001314
 21
245.4695649331
 31
0.0
  0
LINE
  5
311
330
1F
100
AcDbEntity
  8
0
  6
Continuous
 62
     7
370
     0
100
AcDbLine
 10
158.5986001314
 20
244.4297730809
 30
0.0
 11
158.5986001314
 21
245.4695649331
 31
0.0
  0
LINE
  5
312
330
1F
100
AcDbEntity
  8
0
  6
Continuous
 62
     7
370
     0
100
AcDbLine
 10
157.0986001184
 20
244.4297730809
 30
0.0
 11
157.0986001184
 21
245.4695649331
 31
0.0
  0
ARC
  5
313
330
1F
100
AcDbEntity
  8
0
  6
Continuous
 62
     7
370
     0
100
AcDbCircle
 10
160.0986001444
 20
211.7353609746
 30
0.0
 40
3.750000000000012
100
AcDbArc
 50
156.4218215218
 51
216.8698976458
  0
ARC
  5
314
330
1F
100
AcDbEntity
  8
0
  6
Continuous
 62
     7
370
     0
100
AcDbCircle
 10
160.0986001444
 20
194.2353609746
 30
0.0
 40
5.0
100
AcDbArc
 50
126.8698976458
 51
180.0
  0
LINE
  5
315
330
1F
100
AcDbEntity
  8
0
  6
Continuous
 62
     7
370
     0
100
AcDbLine
 10
155.0986002562
 20
186.2353609295
 30
0.0
 11
155.0986002562
 21
194.2353610767
 31
0.0
  0
ARC
  5
316
330
1F
100
AcDbEntity
  8
0
  6
Continuous
 62
     7
370
     0
100
AcDbCircle
 10
160.0986001444
 20
186.2353609746
 30
0.0
 40
5.0
100
AcDbArc
 50
180.0
 51
0.0
  0
LINE
  5
317
330
1F
100
AcDbEntity
  8
0
  6
Continuous
 62
     7
370
     0
100
AcDbLine
 10
165.0986000327
 20
194.2353610767
 30
0.0
 11
165.0986000327
 21
186.2353609295
 31
0.0
  0
ARC
  5
318
330
1F
100
AcDbEntity
  8
0
  6
Continuous
 62
     7
370
     0
100
AcDbCircle
 10
160.0986001444
 20
194.2353609746
 30
0.0
 40
5.0
100
AcDbArc
 50
0.0
 51
53.1301023542
  0
ARC
  5
319
330
1F
100
AcDbEntity
  8
0
  6
Continuous
 62
     7
370
     0
100
AcDbCircle
 10
160.0986001444
 20
211.7353609746
 30
0.0
 40
3.75
100
AcDbArc
 50
323.1301023542
 51
23.5781784782
  0
LINE
  5
31A
330
1F
100
AcDbEntity
  8
0
  6
Continuous
 62
     7
370
     0
100
AcDbLine
 10
165.5986001146
 20
213.2353618627
 30
0.0
 11
163.535532019
 21
213.2353618627
 31
0.0
  0
LINE
  5
31B
330
1F
100
AcDbEntity
  8
0
  6
Continuous
 62
     7
370
     0
100
AcDbLine
 10
165.5986001146
 20
173.2353608941
 30
0.0
 11
165.5986001146
 21
213.2353618627
 31
0.0
  0
LINE
  5
31C
330
1F
100
AcDbEntity
  8
0
  6
Continuous
 62
     7
370
     0
100
AcDbLine
 10
154.5986001742
 20
173.2353608941
 30
0.0
 11
165.5986001146
 21
173.2353608941
 31
0.0
  0
LINE
  5
31D
330
1F
100
AcDbEntity
  8
0
  6
Continuous
 62
     7
370
     0
100
AcDbLine
 10
154.5986001742
 20
213.2353618627
 30
0.0
 11
154.5986001742
 21
173.2353608941
 31
0.0
  0
LINE
  5
31E
330
1F
100
AcDbEntity
  8
0
  6
Continuous
 62
     7
370
     0
100
AcDbLine
 10
156.6616682698
 20
213.2353618627
 30
0.0
 11
154.5986001742
 21
213.2353618627
 31
0.0
  0
LINE
  5
31F
330
1F
100
AcDbEntity
  8
0
  6
Continuous
 62
     7
370
     0
100
AcDbLine
 10
165.5986001146
 20
213.2353618627
 30
0.0
 11
166.5986002785
 21
214.235360164
 31
0.0
  0
LINE
  5
320
330
1F
100
AcDbEntity
  8
0
  6
Continuous
 62
     7
370
     0
100
AcDbLine
 10
166.5986002785
 20
214.235360164
 30
0.0
 11
166.5986002785
 21
173.2353608941
 31
0.0
  0
LINE
  5
321
330
1F
100
AcDbEntity
  8
0
  6
Continuous
 62
     7
370
     0
100
AcDbLine
 10
166.5986002785
 20
173.2353608941
 30
0.0
 11
165.5986001146
 21
173.2353608941
 31
0.0
  0
LINE
  5
322
330
1F
100
AcDbEntity
  8
0
  6
Continuous
 62
     7
370
     0
100
AcDbLine
 10
153.5986000103
 20
173.2353608941
 30
0.0
 11
153.5986000103
 21
214.235360164
 31
0.0
  0
LINE
  5
323
330
1F
100
AcDbEntity
  8
0
  6
Continuous
 62
     7
370
     0
100
AcDbLine
 10
153.5986000103
 20
214.235360164
 30
0.0
 11
154.5986001742
 21
213.2353618627
 31
0.0
  0
LINE
  5
324
330
1F
100
AcDbEntity
  8
0
  6
Continuous
 62
     7
370
     0
100
AcDbLine
 10
154.5986001742
 20
173.2353608941
 30
0.0
 11
153.5986000103
 21
173.2353608941
 31
0.0
  0
LINE
  5
325
330
1F
100
AcDbEntity
  8
0
  6
Continuous
 62
     7
370
     0
100
AcDbLine
 10
163.0986001705
 20
216.2353604918
 30
0.0
 11
164.5985999507
 21
216.2353604918
 31
0.0
  0
LINE
  5
326
330
1F
100
AcDbEntity
  8
0
  6
Continuous
 62
     7
370
     0
100
AcDbLine
 10
166.5986002785
 20
214.235360164
 30
0.0
 11
164.5985999507
 21
216.2353604918
 31
0.0
  0
ARC
  5
327
330
1F
100
AcDbEntity
  8
0
  6
Continuous
 62
     7
370
     0
100
AcDbCircle
 10
160.0986001444
 20
211.7353609746
 30
0.0
 40
3.749999999999985
100
AcDbArc
 50
23.5781784782
 51
36.8698976458
  0
LINE
  5
328
330
1F
100
AcDbEntity
  8
0
  6
Continuous
 62
     7
370
     0
100
AcDbLine
 10
155.5986003382
 20
216.2353604918
 30
0.0
 11
153.5986000103
 21
214.235360164
 31
0.0
  0
LINE
  5
329
330
1F
100
AcDbEntity
  8
0
  6
Continuous
 62
     7
370
     0
100
AcDbLine
 10
155.5986003382
 20
216.2353604918
 30
0.0
 11
157.0986001184
 21
216.2353604918
 31
0.0
  0
ARC
  5
32A
330
1F
100
AcDbEntity
  8
0
  6
Continuous
 62
     7
370
     0
100
AcDbCircle
 10
160.0986001444
 20
211.7353609746
 30
0.0
 40
3.750000000000012
100
AcDbArc
 50
143.1301023542
 51
156.4218215218
  0
LINE
  5
32B
330
1F
100
AcDbEntity
  8
0
  6
Continuous
 62
     7
370
     0
100
AcDbLine
 10
157.0986001184
 20
222.7767094856
 30
0.0
 11
157.0986001184
 21
223.1124475485
 31
0.0
  0
LINE
  5
32C
330
1F
100
AcDbEntity
  8
0
  6
Continuous
 62
     7
370
     0
100
AcDbLine
 10
163.0986001705
 20
223.1124475485
 30
0.0
 11
163.0986001705
 21
222.7767094856
 31
0.0
  0
LINE
  5
32D
330
1F
100
AcDbEntity
  8
0
  6
Continuous
 62
     7
370
     0
100
AcDbLine
 10
160.0986001444
 20
157.2353601342
 30
0.0
 11
154.5986001742
 21
157.2353601342
 31
0.0
  0
LINE
  5
32E
330
1F
100
AcDbEntity
  8
0
  6
Continuous
 62
     7
370
     0
100
AcDbLine
 10
165.5986001146
 20
157.2353601342
 30
0.0
 11
160.0986001444
 21
157.2353601342
 31
0.0
  0
LINE
  5
32F
330
1F
100
AcDbEntity
  8
0
  6
Continuous
 62
     7
370
     0
100
AcDbLine
 10
160.0986001444
 20
157.7353611475
 30
0.0
 11
166.0986001966
 21
157.7353611475
 31
0.0
  0
LINE
  5
330
330
1F
100
AcDbEntity
  8
0
  6
Continuous
 62
     7
370
     0
100
AcDbLine
 10
154.0986000923
 20
157.7353611475
 30
0.0
 11
160.0986001444
 21
157.7353611475
 31
0.0
  0
LINE
  5
331
330
1F
100
AcDbEntity
  8
0
  6
Continuous
 62
     7
370
     0
100
AcDbLine
 10
156.7986001623
 20
217.435360316
 30
0.0
 11
157.0986001184
 21
217.435360316
 31
0.0
  0
LINE
  5
332
330
1F
100
AcDbEntity
  8
0
  6
Continuous
 62
     7
370
     0
100
AcDbLine
 10
163.0986001705
 20
217.435360316
 30
0.0
 11
163.3986001266
 21
217.435360316
 31
0.0
  0
LINE
  5
333
330
1F
100
AcDbEntity
  8
0
  6
Continuous
 62
     7
370
     0
100
AcDbLine
 10
155.5986003382
 20
216.2353604918
 30
0.0
 11
156.7986001623
 21
217.435360316
 31
0.0
  0
LINE
  5
334
330
1F
100
AcDbEntity
  8
0
  6
Continuous
 62
     7
370
     0
100
AcDbLine
 10
163.3986001266
 20
217.435360316
 30
0.0
 11
164.5985999507
 21
216.2353604918
 31
0.0
  0
LINE
  5
335
330
1F
100
AcDbEntity
  8
0
  6
Continuous
 62
     7
370
     0
100
AcDbLine
 10
161.5986001575
 20
245.4695649331
 30
0.0
 11
158.5986001314
 21
245.4695649331
 31
0.0
  0
ARC
  5
336
330
1F
100
AcDbEntity
  8
0
  6
Continuous
 62
     7
370
     0
100
AcDbCircle
 10
158.2578955987
 20
227.9650067594
 30
0.0
 40
3.742356880515846
100
AcDbArc
 50
161.9062803919
 51
171.8927805716
  0
ARC
  5
337
330
1F
100
AcDbEntity
  8
0
  6
Continuous
 62
     7
370
     0
100
AcDbCircle
 10
154.9799132134
 20
229.2217802143
 30
0.0
 40
0.2948675575855292
100
AcDbArc
 50
161.3076039019
 51
198.6923960981
  0
ARC
  5
338
330
1F
100
AcDbEntity
  8
0
  6
Continuous
 62
     7
370
     0
100
AcDbCircle
 10
158.2577031756
 20
228.1540541426
 30
0.0
 40
3.742160065394394
100
AcDbArc
 50
161.9060171101
 51
171.8930438535
  0
LINE
  5
339
330
1F
100
AcDbEntity
  8
0
  6
Continuous
 62
     7
370
     0
100
AcDbLine
 10
154.5529402224
 20
228.6817788964
 30
0.0
 11
154.5529402224
 21
228.5586915796
 31
0.0
  0
LWPOLYLINE
  5
33A
330
1F
100
AcDbEntity
  8
0
  6
Continuous
 62
     7
370
     0
100
AcDbPolyline
 90
        3
 70
   128
 43
0.0
 10
154.7005990883
 20
228.0108541136
 10
154.6938046244
 20
228.1009800618
 10
154.692603684
 20
228.1202323621
  0
ARC
  5
33B
330
1F
100
AcDbEntity
  8
0
  6
Continuous
 62
     7
370
     0
100
AcDbCircle
 10
155.0488560149
 20
227.5552148075
 30
0.0
 40
0.5734893758994062
100
AcDbArc
 50
127.3916165836
 51
149.8523514811
  0
LINE
  5
33C
330
1F
100
AcDbEntity
  8
0
  6
Continuous
 62
     7
370
     0
100
AcDbLine
 10
154.5529402224
 20
227.843238402
 30
0.0
 11
154.5529402224
 21
227.6317685729
 31
0.0
  0
LINE
  5
33D
330
1F
100
AcDbEntity
  8
0
  6
Continuous
 62
     7
370
     0
100
AcDbLine
 10
154.5529402224
 20
227.6317685729
 30
0.0
 11
154.5630334308
 21
227.5651752835
 31
0.0
  0
LWPOLYLINE
  5
33E
330
1F
100
AcDbEntity
  8
0
  6
Continuous
 62
     7
370
     0
100
AcDbPolyline
 90
        3
 70
   128
 43
0.0
 10
154.7005990883
 20
226.8082596248
 10
154.6938046244
 20
226.8285661822
 10
154.692603684
 20
226.83302908
  0
ARC
  5
33F
330
1F
100
AcDbEntity
  8
0
  6
Continuous
 62
     7
370
     0
100
AcDbCircle
 10
158.2578955987
 20
227.970531778
 30
0.0
 40
3.742356880515851
100
AcDbArc
 50
188.1072194284
 51
198.0937196081
  0
LINE
  5
340
330
1F
100
AcDbEntity
  8
0
  6
Continuous
 62
     7
370
     0
100
AcDbLine
 10
154.5529402224
 20
227.4427622443
 30
0.0
 11
154.5529402224
 21
227.565849561
 31
0.0
  0
ARC
  5
341
330
1F
100
AcDbEntity
  8
0
  6
Continuous
 62
     7
370
     0
100
AcDbCircle
 10
155.0488789781
 20
227.8538832576
 30
0.0
 40
0.5735143065065021
100
AcDbArc
 50
210.147369079
 51
232.6073996268
  0
ARC
  5
342
330
1F
100
AcDbEntity
  8
0
  6
Continuous
 62
     7
370
     0
100
AcDbCircle
 10
158.8108181286
 20
227.7559585755
 30
0.0
 40
4.125756924995772
100
AcDbArc
 50
175.025858315
 51
184.974141685
  0
ARC
  5
343
330
1F
100
AcDbEntity
  8
0
  6
Continuous
 62
     7
370
     0
100
AcDbCircle
 10
155.0488473192
 20
228.5693122718
 30
0.0
 40
0.5734729234857934
100
AcDbArc
 50
210.1465481569
 51
232.6082205489
  0
LINE
  5
344
330
1F
100
AcDbEntity
  8
0
  6
Continuous
 62
     7
370
     0
100
AcDbLine
 10
154.5529402224
 20
228.281306464
 30
0.0
 11
154.5529402224
 21
228.4927762931
 31
0.0
  0
LINE
  5
345
330
1F
100
AcDbEntity
  8
0
  6
Continuous
 62
     7
370
     0
100
AcDbLine
 10
166.5986002785
 20
226.8122717624
 30
0.0
 11
166.5986002785
 21
229.3122731035
 31
0.0
  0
SPLINE
  5
346
330
1F
100
AcDbEntity
  8
0
  6
Continuous
 62
     7
370
     0
100
AcDbSpline
210
0.0
220
0.0
230
1.0
 70
     8
 71
     3
 72
     8
 73
     4
 74
     0
 42
0.000000001
 43
0.00000001
 40
0.0
 40
0.0
 40
0.0
 40
0.0
 40
1.0
 40
1.0
 40
1.0
 40
1.0
 10
154.5529402224453
 20
227.5658504962622
 30
0.0
 10
154.6021612724918
 20
227.5669142645624
 30
0.0
 10
154.6513810703294
 20
227.5679818839391
 30
0.0
 10
154.7005995252094
 20
227.5690536334833
 30
0.0
  0
SPLINE
  5
347
330
1F
100
AcDbEntity
  8
0
  6
Continuous
 62
     7
370
     0
100
AcDbSpline
210
0.0
220
0.0
230
1.0
 70
     8
 71
     3
 72
     8
 73
     4
 74
     0
 42
0.000000001
 43
0.00000001
 40
0.0
 40
0.0
 40
0.0
 40
0.0
 40
1.0
 40
1.0
 40
1.0
 40
1.0
 10
154.5529402224453
 20
227.6317671851104
 30
0.0
 10
154.6021612954644
 20
227.6357939607897
 30
0.0
 10
154.6513811162734
 20
227.639835314294
 30
0.0
 10
154.7005995941235
 20
227.6438923020925
 30
0.0
  0
SPLINE
  5
348
330
1F
100
AcDbEntity
  8
0
  6
Continuous
 62
     7
370
     0
100
AcDbSpline
210
0.0
220
0.0
230
1.0
 70
     8
 71
     3
 72
     8
 73
     4
 74
     0
 42
0.000000001
 43
0.00000001
 40
0.0
 40
0.0
 40
0.0
 40
0.0
 40
1.0
 40
1.0
 40
1.0
 40
1.0
 10
154.5529402224453
 20
227.8432365625984
 30
0.0
 10
154.6021612905801
 20
227.8421727939073
 30
0.0
 10
154.6513811065052
 20
227.8411051741369
 30
0.0
 10
154.7005995794715
 20
227.8400334241957
 30
0.0
  0
ARC
  5
349
330
1F
100
AcDbEntity
  8
0
  6
Continuous
 62
     7
370
     0
100
AcDbCircle
 10
160.0986001444
 20
190.2353609723
 30
0.0
 40
4.000000000000004
100
AcDbArc
 50
318.5903778907
 51
41.4096221093
  0
ARC
  5
34A
330
1F
100
AcDbEntity
  8
0
  6
Continuous
 62
     7
370
     0
100
AcDbCircle
 10
160.0986001444
 20
190.2353609723
 30
0.0
 40
4.000000000000009
100
AcDbArc
 50
138.5903778907
 51
221.4096221093
  0
LINE
  5
34B
330
1F
100
AcDbEntity
  8
0
  6
Continuous
 62
     7
370
     0
100
AcDbLine
 10
165.0176750859
 20
194.2353610767
 30
0.0
 11
165.0176750859
 21
186.2353609295
 31
0.0
  0
SPLINE
  5
34C
330
1F
100
AcDbEntity
  8
0
  6
Continuous
 62
     7
370
     0
100
AcDbSpline
210
0.0
220
0.0
230
1.0
 70
     8
 71
     3
 72
    10
 73
     6
 74
     0
 42
0.000000001
 43
0.00000001
 40
0.0
 40
0.0
 40
0.0
 40
0.0
 40
0.5
 40
0.5
 40
1.0
 40
1.0
 40
1.0
 40
1.0
 10
164.7177209502083
 20
186.2353641165274
 30
0.0
 10
164.7953881018699
 20
186.2353635924955
 30
0.0
 10
164.8725975985192
 20
186.2353630684636
 30
0.0
 10
164.9833898600807
 20
186.2353620204001
 30
0.0
 10
165.0163197797525
 20
186.2353614963685
 30
0.0
 10
165.017675258453
 20
186.2353609723369
 30
0.0
  0
LINE
  5
34D
330
1F
100
AcDbEntity
  8
0
  6
Continuous
 62
     7
370
     0
100
AcDbLine
 10
164.7177207646
 20
194.2353610767
 30
0.0
 11
164.7177207646
 21
186.2353641892
 31
0.0
  0
SPLINE
  5
34E
330
1F
100
AcDbEntity
  8
0
  6
Continuous
 62
     7
370
     0
100
AcDbSpline
210
0.0
220
0.0
230
1.0
 70
    24
 71
     3
 72
     9
 73
     5
 74
     0
 42
0.000000001
 43
0.00000001
 40
0.0
 40
0.0
 40
0.0
 40
0.0
 40
0.499997837543848
 40
1.0
 40
1.0
 40
1.0
 40
1.0
 10
164.7177209499321
 20
194.2353609723372
 30
0.0
 10
164.7934503290354
 20
194.2353609723372
 30
0.0
 10
164.9510848724037
 20
194.2353609723372
 30
0.0
 10
165.0163535865556
 20
194.2353609723372
 30
0.0
 10
165.017675258479
 20
194.2353609723372
 30
0.0
  0
LINE
  5
34F
330
1F
100
AcDbEntity
  8
0
  6
Continuous
 62
     7
370
     0
100
AcDbLine
 10
155.179525203
 20
186.2353609295
 30
0.0
 11
155.179525203
 21
194.2353610767
 31
0.0
  0
SPLINE
  5
350
330
1F
100
AcDbEntity
  8
0
  6
Continuous
 62
     7
370
     0
100
AcDbSpline
210
0.0
220
0.0
230
1.0
 70
     8
 71
     3
 72
    10
 73
     6
 74
     0
 42
0.000000001
 43
0.00000001
 40
0.0
 40
0.0
 40
0.0
 40
0.0
 40
0.5
 40
0.5
 40
1.0
 40
1.0
 40
1.0
 40
1.0
 10
155.4794793386696
 20
194.2353578274067
 30
0.0
 10
155.4018121870081
 20
194.2353583515619
 30
0.0
 10
155.3246026903587
 20
194.2353588757171
 30
0.0
 10
155.2138104287973
 20
194.2353599240273
 30
0.0
 10
155.1808805091256
 20
194.2353604481823
 30
0.0
 10
155.1795250304251
 20
194.2353609723372
 30
0.0
  0
LINE
  5
351
330
1F
100
AcDbEntity
  8
0
  6
Continuous
 62
     7
370
     0
100
AcDbLine
 10
155.4794795242
 20
186.2353609295
 30
0.0
 11
155.4794795242
 21
194.2353578171
 31
0.0
  0
SPLINE
  5
352
330
1F
100
AcDbEntity
  8
0
  6
Continuous
 62
     7
370
     0
100
AcDbSpline
210
0.0
220
0.0
230
1.0
 70
    24
 71
     3
 72
    10
 73
     6
 74
     0
 42
0.000000001
 43
0.00000001
 40
0.0
 40
0.0
 40
0.0
 40
0.0
 40
0.5
 40
0.5
 40
1.0
 40
1.0
 40
1.0
 40
1.0
 10
155.1795250303992
 20
186.2353609723372
 30
0.0
 10
155.1808805091006
 20
186.2353609723374
 30
0.0
 10
155.2138104288159
 20
186.2353609723375
 30
0.0
 10
155.324602690504
 20
186.2353609723374
 30
0.0
 10
155.4018121872341
 20
186.2353609723373
 30
0.0
 10
155.479479338946
 20
186.2353609723372
 30
0.0
  0
SPLINE
  5
353
330
1F
100
AcDbEntity
  8
0
  6
Continuous
 62
     7
370
     0
100
AcDbSpline
210
0.0
220
0.0
230
1.0
 70
     8
 71
     3
 72
    17
 73
    13
 74
     0
 42
0.000000001
 43
0.00000001
 40
0.0
 40
0.0
 40
0.0
 40
0.0
 40
0.062550137883576
 40
0.125101793286261
 40
0.250051444152696
 40
0.3750708483523499
 40
0.4376541028667049
 40
0.500238687037138
 40
0.625171040415573
 40
0.750090458566893
 40
0.875053743319954
 40
1.0
 40
1.0
 40
1.0
 40
1.0
 10
164.7177209502083
 20
186.2353641165274
 30
0.0
 10
164.7177209502292
 20
186.0844583545352
 30
0.0
 10
164.7023206316265
 20
185.7824087647965
 30
0.0
 10
164.6130075822023
 20
185.185112463727
 30
0.0
 10
164.3948920693495
 20
184.4578342861691
 30
0.0
 10
164.0345991017812
 20
183.7894526288485
 30
0.0
 10
163.6745906541305
 20
183.3039477246332
 30
0.0
 10
163.2681682628909
 20
182.8569059250131
 30
0.0
 10
162.6835428917568
 20
182.3728713838558
 30
0.0
 10
161.8803746865838
 20
181.9446863131332
 30
0.0
 10
161.010582616041
 20
181.6783481701571
 30
0.0
 10
160.4059656339971
 20
181.6175858029086
 30
0.0
 10
160.1045256977317
 20
181.6176548999066
 30
0.0
  0
SPLINE
  5
354
330
1F
100
AcDbEntity
  8
0
  6
Continuous
 62
     7
370
     0
100
AcDbSpline
210
0.0
220
0.0
230
1.0
 70
     8
 71
     3
 72
    16
 73
    12
 74
     0
 42
0.000000001
 43
0.00000001
 40
0.0
 40
0.0
 40
0.0
 40
0.0
 40
0.124960700844018
 40
0.249906817750813
 40
0.374893842031836
 40
0.499865650388283
 40
0.624849774801164
 40
0.749813580946707
 40
0.87483503316308
 40
0.9374184756819526
 40
1.0
 40
1.0
 40
1.0
 40
1.0
 10
160.1045256977317
 20
181.6176548999066
 30
0.0
 10
159.8026022866531
 20
181.6177241077282
 30
0.0
 10
159.1970258683303
 20
181.6760057694577
 30
0.0
 10
158.3248162067354
 20
181.9406725021282
 30
0.0
 10
157.520682272813
 20
182.3701549404532
 30
0.0
 10
156.8150859495555
 20
182.9475856353716
 30
0.0
 10
156.2360105204916
 20
183.6516442937168
 30
0.0
 10
155.8037025926359
 20
184.4545748569537
 30
0.0
 10
155.5854910922797
 20
185.1831447666212
 30
0.0
 10
155.4950958900986
 20
185.7814933644724
 30
0.0
 10
155.479479338946
 20
186.0841548118293
 30
0.0
 10
155.479479338946
 20
186.2353609723372
 30
0.0
  0
SPLINE
  5
355
330
1F
100
AcDbEntity
  8
0
  6
Continuous
 62
     7
370
     0
100
AcDbSpline
210
0.0
220
0.0
230
1.0
 70
     8
 71
     3
 72
     9
 73
     5
 74
     0
 42
0.000000001
 43
0.00000001
 40
0.0
 40
0.0
 40
0.0
 40
0.0
 40
0.499967397181534
 40
1.0
 40
1.0
 40
1.0
 40
1.0
 10
160.1045256977317
 20
181.6176548999066
 30
0.0
 10
160.1059965699357
 20
181.5419408211562
 30
0.0
 10
160.1020260174196
 20
181.3842946170168
 30
0.0
 10
160.1054040808368
 20
181.3188088325785
 30
0.0
 10
160.1056513029951
 20
181.317574757959
 30
0.0
  0
SPLINE
  5
356
330
1F
100
AcDbEntity
  8
0
  6
Continuous
 62
     7
370
     0
100
AcDbSpline
210
0.0
220
0.0
230
1.0
 70
     8
 71
     3
 72
    14
 73
    10
 74
     0
 42
0.000000001
 43
0.00000001
 40
0.0
 40
0.0
 40
0.0
 40
0.0
 40
0.25
 40
0.25
 40
0.5
 40
0.5
 40
0.75
 40
0.75
 40
1.0
 40
1.0
 40
1.0
 40
1.0
 10
165.0176752584791
 20
186.235360974632
 30
0.0
 10
165.0176752225719
 20
185.5920432980735
 30
0.0
 10
164.8898813199271
 20
184.9489778344638
 30
0.0
 10
164.3979333528568
 20
183.7601054035098
 30
0.0
 10
164.0339721458866
 20
183.2147645073408
 30
0.0
 10
163.1248360158937
 20
182.3043240183327
 30
0.0
 10
162.580017499721
 20
181.9395813435301
 30
0.0
 10
161.3918516456709
 20
181.4459294240066
 30
0.0
 10
160.7489701020569
 20
181.3172137045305
 30
0.0
 10
160.1056531430646
 20
181.316291347796
 30
0.0
  0
SPLINE
  5
357
330
1F
100
AcDbEntity
  8
0
  6
Continuous
 62
     7
370
     0
100
AcDbSpline
210
0.0
220
0.0
230
1.0
 70
     8
 71
     3
 72
    14
 73
    10
 74
     0
 42
0.000000001
 43
0.00000001
 40
0.0
 40
0.0
 40
0.0
 40
0.0
 40
0.25
 40
0.25
 40
0.5
 40
0.5
 40
0.75
 40
0.75
 40
1.0
 40
1.0
 40
1.0
 40
1.0
 10
160.1056531430646
 20
181.316291347796
 30
0.0
 10
159.461160685401
 20
181.3153672338084
 30
0.0
 10
158.8167388071598
 20
181.44271041809
 30
0.0
 10
157.6253409928422
 20
181.9347031504502
 30
0.0
 10
157.0788355285343
 20
182.299158415358
 30
0.0
 10
156.166731338377
 20
183.2099556593823
 30
0.0
 10
155.8014927939228
 20
183.755937973364
 30
0.0
 10
155.3077921791345
 20
184.9466291378358
 30
0.0
 10
155.1795250666068
 20
185.5908677956932
 30
0.0
 10
155.1795250303989
 20
186.2353609723372
 30
0.0
  0
LINE
  5
358
330
1F
100
AcDbEntity
  8
0
  6
Continuous
 62
     7
370
     0
100
AcDbLine
 10
165.0176750859
 20
186.2353609295
 30
0.0
 11
165.0384566178
 21
186.2353609295
 31
0.0
  0
ARC
  5
359
330
1F
100
AcDbEntity
  8
0
  6
Continuous
 62
     7
370
     0
100
AcDbCircle
 10
160.0986001444
 20
186.2353609746
 30
0.0
 40
4.9398564681614
100
AcDbArc
 50
180.0000000266
 51
0.0000343334
  0
LINE
  5
35A
330
1F
100
AcDbEntity
  8
0
  6
Continuous
 62
     7
370
     0
100
AcDbLine
 10
155.1587436711
 20
186.2353609295
 30
0.0
 11
155.179525203
 21
186.2353609295
 31
0.0
  0
LINE
  5
35B
330
1F
100
AcDbEntity
  8
0
  6
Continuous
 62
     7
370
     0
100
AcDbLine
 10
155.179525203
 20
194.2353610767
 30
0.0
 11
155.1587436711
 21
194.2353610767
 31
0.0
  0
ARC
  5
35C
330
1F
100
AcDbEntity
  8
0
  6
Continuous
 62
     7
370
     0
100
AcDbCircle
 10
160.0986001444
 20
194.2353609701
 30
0.0
 40
4.939856460831076
100
AcDbArc
 50
127.3948978734
 51
179.9999656666
  0
ARC
  5
35D
330
1F
100
AcDbEntity
  8
0
  6
Continuous
 62
     7
370
     0
100
AcDbCircle
 10
160.0986001444
 20
194.2353609701
 30
0.0
 40
4.939856460831087
100
AcDbArc
 50
0.0
 51
52.6051021266
  0
LINE
  5
35E
330
1F
100
AcDbEntity
  8
0
  6
Continuous
 62
     7
370
     0
100
AcDbLine
 10
165.0176750859
 20
194.2353610767
 30
0.0
 11
165.0384566178
 21
194.2353610767
 31
0.0
  0
LINE
  5
35F
330
1F
100
AcDbEntity
  8
0
  6
Continuous
 62
     7
370
     0
100
AcDbLine
 10
165.0384566178
 20
194.2353610767
 30
0.0
 11
165.0384566178
 21
186.2353609295
 31
0.0
  0
LINE
  5
360
330
1F
100
AcDbEntity
  8
0
  6
Continuous
 62
     7
370
     0
100
AcDbLine
 10
155.1587436711
 20
186.2353609295
 30
0.0
 11
155.1587436711
 21
194.2353610767
 31
0.0
  0
LINE
  5
361
330
1F
100
AcDbEntity
  8
0
  6
Continuous
 62
     7
370
     0
100
AcDbLine
 10
159.4282772289
 20
154.5353591328
 30
0.0
 11
160.6950994478
 21
154.5353591328
 31
0.0
  0
SPLINE
  5
362
330
1F
100
AcDbEntity
  8
0
  6
Continuous
 62
     7
370
     0
100
AcDbSpline
210
0.0
220
0.0
230
1.0
 70
     8
 71
     3
 72
     8
 73
     4
 74
     0
 42
0.000000001
 43
0.00000001
 40
0.0
 40
0.0
 40
0.0
 40
0.0
 40
1.0
 40
1.0
 40
1.0
 40
1.0
 10
160.695099455009
 20
154.5353609745988
 30
0.0
 10
161.1384981926701
 20
154.3484044529083
 30
0.0
 10
161.5941269658656
 20
154.2353609746363
 30
0.0
 10
162.0684604991832
 20
154.2353609745127
 30
0.0
  0
LINE
  5
363
330
1F
100
AcDbEntity
  8
0
  6
Continuous
 62
     7
370
     0
100
AcDbLine
 10
158.0686112297
 20
154.2353615051
 30
0.0
 11
162.0684605454
 21
154.2353615051
 31
0.0
  0
SPLINE
  5
364
330
1F
100
AcDbEntity
  8
0
  6
Continuous
 62
     7
370
     0
100
AcDbSpline
210
0.0
220
0.0
230
1.0
 70
     8
 71
     3
 72
     8
 73
     4
 74
     0
 42
0.000000001
 43
0.00000001
 40
0.0
 40
0.0
 40
0.0
 40
0.0
 40
1.0
 40
1.0
 40
1.0
 40
1.0
 10
158.0686111467004
 20
154.2353609745278
 30
0.0
 10
158.5382146972704
 20
154.2353609745183
 30
0.0
 10
158.9893000087389
 20
154.3484044526568
 30
0.0
 10
159.4282772408173
 20
154.5353609742498
 30
0.0
  0
LINE
  5
365
330
1F
100
AcDbEntity
  8
0
  6
Continuous
 62
     7
370
     0
100
AcDbLine
 10
159.4282772289
 20
154.5353591328
 30
0.0
 11
159.4282772289
 21
157.2353601342
 31
0.0
  0
LINE
  5
366
330
1F
100
AcDbEntity
  8
0
  6
Continuous
 62
     7
370
     0
100
AcDbLine
 10
160.6950994478
 20
157.2353601342
 30
0.0
 11
160.6950994478
 21
154.5353591328
 31
0.0
  0
LINE
  5
367
330
1F
100
AcDbEntity
  8
0
  6
Continuous
 62
     7
370
     0
100
AcDbLine
 10
163.4418216431
 20
154.5353591328
 30
0.0
 11
163.4418216431
 21
157.2353601342
 31
0.0
  0
SPLINE
  5
368
330
1F
100
AcDbEntity
  8
0
  6
Continuous
 62
     7
370
     0
100
AcDbSpline
210
0.0
220
0.0
230
1.0
 70
     8
 71
     3
 72
     8
 73
     4
 74
     0
 42
0.000000001
 43
0.00000001
 40
0.0
 40
0.0
 40
0.0
 40
0.0
 40
1.0
 40
1.0
 40
1.0
 40
1.0
 10
162.0684604991785
 20
154.2353609745181
 30
0.0
 10
162.5427940330174
 20
154.2353609743948
 30
0.0
 10
162.9984228068288
 20
154.3484044527387
 30
0.0
 10
163.4418215449689
 20
154.5353609746337
 30
0.0
  0
SPLINE
  5
369
330
1F
100
AcDbEntity
  8
0
  6
Continuous
 62
     7
370
     0
100
AcDbSpline
210
0.0
220
0.0
230
1.0
 70
     8
 71
     3
 72
     8
 73
     4
 74
     0
 42
0.000000001
 43
0.00000001
 40
0.0
 40
0.0
 40
0.0
 40
0.0
 40
1.0
 40
1.0
 40
1.0
 40
1.0
 10
156.7089450520932
 20
154.5353609744938
 30
0.0
 10
157.1479222842223
 20
154.348404452811
 30
0.0
 10
157.5990075960285
 20
154.2353609745229
 30
0.0
 10
158.0686111466771
 20
154.2353609745127
 30
0.0
  0
LINE
  5
36A
330
1F
100
AcDbEntity
  8
0
  6
Continuous
 62
     7
370
     0
100
AcDbLine
 10
156.7089449977
 20
157.2353601342
 30
0.0
 11
156.7089449977
 21
154.5353591328
 31
0.0
  0
LINE
  5
36B
330
1F
100
AcDbEntity
  8
0
  6
Continuous
 62
     7
370
     0
100
AcDbLine
 10
164.0847543617
 20
154.5353591328
 30
0.0
 11
163.4418216431
 21
154.5353591328
 31
0.0
  0
SPLINE
  5
36C
330
1F
100
AcDbEntity
  8
0
  6
Continuous
 62
     7
370
     0
100
AcDbSpline
210
0.0
220
0.0
230
1.0
 70
     8
 71
     3
 72
     8
 73
     4
 74
     0
 42
0.000000001
 43
0.00000001
 40
0.0
 40
0.0
 40
0.0
 40
0.0
 40
1.0
 40
1.0
 40
1.0
 40
1.0
 10
164.0847545476769
 20
154.535360974858
 30
0.0
 10
164.0891760532817
 20
154.3484044529169
 30
0.0
 10
164.0937195149686
 20
154.2353609745202
 30
0.0
 10
164.098449497709
 20
154.235360974632
 30
0.0
  0
LINE
  5
36D
330
1F
100
AcDbEntity
  8
0
  6
Continuous
 62
     7
370
     0
100
AcDbLine
 10
164.0984494602
 20
154.2353615051
 30
0.0
 11
162.0684605454
 21
154.2353615051
 31
0.0
  0
LINE
  5
36E
330
1F
100
AcDbEntity
  8
0
  6
Continuous
 62
     7
370
     0
100
AcDbLine
 10
156.0850557302
 20
154.5353591328
 30
0.0
 11
156.7089449977
 21
154.5353591328
 31
0.0
  0
SPLINE
  5
36F
330
1F
100
AcDbEntity
  8
0
  6
Continuous
 62
     7
370
     0
100
AcDbSpline
210
0.0
220
0.0
230
1.0
 70
     8
 71
     3
 72
     8
 73
     4
 74
     0
 42
0.000000001
 43
0.00000001
 40
0.0
 40
0.0
 40
0.0
 40
0.0
 40
1.0
 40
1.0
 40
1.0
 40
1.0
 10
156.0987507911777
 20
154.235360974632
 30
0.0
 10
156.0940208084419
 20
154.2353609746075
 30
0.0
 10
156.0894773467644
 20
154.3484044528066
 30
0.0
 10
156.0850558411634
 20
154.5353609744751
 30
0.0
  0
LINE
  5
370
330
1F
100
AcDbEntity
  8
0
  6
Continuous
 62
     7
370
     0
100
AcDbLine
 10
156.0987508287
 20
154.2353615051
 30
0.0
 11
158.0686112297
 21
154.2353615051
 31
0.0
  0
LINE
  5
371
330
1F
100
AcDbEntity
  8
0
  6
Continuous
 62
     7
370
     0
100
AcDbLine
 10
164.0847543617
 20
157.2353601342
 30
0.0
 11
164.0847543617
 21
154.5353591328
 31
0.0
  0
LINE
  5
372
330
1F
100
AcDbEntity
  8
0
  6
Continuous
 62
     7
370
     0
100
AcDbLine
 10
156.0850557302
 20
154.5353591328
 30
0.0
 11
156.0850557302
 21
157.2353601342
 31
0.0
  0
LINE
  5
373
330
1F
100
AcDbEntity
  8
0
  6
Continuous
 62
     7
370
     0
100
AcDbLine
 10
158.2986679291
 20
149.2353625482
 30
0.0
 11
161.8986001135
 21
149.2353625482
 31
0.0
  0
LINE
  5
374
330
1F
100
AcDbEntity
  8
0
  6
Continuous
 62
     7
370
     0
100
AcDbLine
 10
158.5986565928
 20
147.2353622203
 30
0.0
 11
161.5986001575
 21
147.2353622203
 31
0.0
  0
LINE
  5
375
330
1F
100
AcDbEntity
  8
0
  6
Continuous
 62
     7
370
     0
100
AcDbLine
 10
160.0829782651
 20
149.7353598362
 30
0.0
 11
161.8986001135
 21
149.7353598362
 31
0.0
  0
LINE
  5
376
330
1F
100
AcDbEntity
  8
0
  6
Continuous
 62
     7
370
     0
100
AcDbLine
 10
158.2986001754
 20
149.7353598362
 30
0.0
 11
160.0829782651
 21
149.7353598362
 31
0.0
  0
LINE
  5
377
330
1F
100
AcDbEntity
  8
0
  6
Continuous
 62
     7
370
     0
100
AcDbLine
 10
158.2986679291
 20
151.735360164
 30
0.0
 11
161.8986001135
 21
151.735360164
 31
0.0
  0
LINE
  5
378
330
1F
100
AcDbEntity
  8
0
  6
Continuous
 62
     7
370
     0
100
AcDbLine
 10
160.0829782651
 20
152.2353611773
 30
0.0
 11
161.8986001135
 21
152.2353611773
 31
0.0
  0
LINE
  5
379
330
1F
100
AcDbEntity
  8
0
  6
Continuous
 62
     7
370
     0
100
AcDbLine
 10
158.2986001754
 20
152.2353611773
 30
0.0
 11
160.0829782651
 21
152.2353611773
 31
0.0
  0
LINE
  5
37A
330
1F
100
AcDbEntity
  8
0
  6
Continuous
 62
     7
370
     0
100
AcDbLine
 10
164.1121445586
 20
154.5353591328
 30
0.0
 11
164.1121445586
 21
157.2353601342
 31
0.0
  0
SPLINE
  5
37B
330
1F
100
AcDbEntity
  8
0
  6
Continuous
 62
     7
370
     0
100
AcDbSpline
210
0.0
220
0.0
230
1.0
 70
     8
 71
     3
 72
     8
 73
     4
 74
     0
 42
0.000000001
 43
0.00000001
 40
0.0
 40
0.0
 40
0.0
 40
0.0
 40
1.0
 40
1.0
 40
1.0
 40
1.0
 10
164.098449497709
 20
154.235360974632
 30
0.0
 10
164.1031794804427
 20
154.2353609747437
 30
0.0
 10
164.1077229421221
 20
154.3484044530914
 30
0.0
 10
164.112144447721
 20
154.5353609747443
 30
0.0
  0
LINE
  5
37C
330
1F
100
AcDbEntity
  8
0
  6
Continuous
 62
     7
370
     0
100
AcDbLine
 10
162.7986002145
 20
240.3736024981
 30
0.0
 11
157.3986000744
 21
240.3736024981
 31
0.0
  0
LINE
  5
37D
330
1F
100
AcDbEntity
  8
0
  6
Continuous
 62
     7
370
     0
100
AcDbLine
 10
157.3986000744
 20
240.3736024981
 30
0.0
 11
157.3986000744
 21
240.9471481925
 31
0.0
  0
LINE
  5
37E
330
1F
100
AcDbEntity
  8
0
  6
Continuous
 62
     7
370
     0
100
AcDbLine
 10
157.3986000744
 20
240.9471481925
 30
0.0
 11
162.7986002145
 21
240.9471481925
 31
0.0
  0
LINE
  5
37F
330
1F
100
AcDbEntity
  8
0
  6
Continuous
 62
     7
370
     0
100
AcDbLine
 10
162.7986002145
 20
240.9471481925
 30
0.0
 11
162.7986002145
 21
240.3736024981
 31
0.0
  0
LINE
  5
380
330
1F
100
AcDbEntity
  8
0
  6
Continuous
 62
     7
370
     0
100
AcDbLine
 10
163.5986002525
 20
223.0989619976
 30
0.0
 11
163.5986002525
 21
240.3736024981
 31
0.0
  0
LINE
  5
381
330
1F
100
AcDbEntity
  8
0
  6
Continuous
 62
     7
370
     0
100
AcDbLine
 10
163.5986002525
 20
223.0989619976
 30
0.0
 11
156.5986000364
 21
223.0989619976
 31
0.0
  0
LINE
  5
382
330
1F
100
AcDbEntity
  8
0
  6
Continuous
 62
     7
370
     0
100
AcDbLine
 10
156.5986000364
 20
223.0989619976
 30
0.0
 11
156.5986000364
 21
240.3736024981
 31
0.0
  0
LINE
  5
383
330
1F
100
AcDbEntity
  8
0
  6
Continuous
 62
     7
370
     0
100
AcDbLine
 10
157.3986000744
 20
240.3736024981
 30
0.0
 11
156.5986000364
 21
240.3736024981
 31
0.0
  0
LINE
  5
384
330
1F
100
AcDbEntity
  8
0
  6
Continuous
 62
     7
370
     0
100
AcDbLine
 10
163.5986002525
 20
240.3736024981
 30
0.0
 11
162.7986002145
 21
240.3736024981
 31
0.0
  0
LINE
  5
385
330
1F
100
AcDbEntity
  8
0
  6
Continuous
 62
     7
370
     0
100
AcDbLine
 10
163.5986002525
 20
242.5491683071
 30
0.0
 11
163.5986002525
 21
240.3736024981
 31
0.0
  0
LINE
  5
386
330
1F
100
AcDbEntity
  8
0
  6
Continuous
 62
     7
370
     0
100
AcDbLine
 10
162.7986002145
 20
240.4535844808
 30
0.0
 11
163.0986001705
 21
240.4535844808
 31
0.0
  0
LINE
  5
387
330
1F
100
AcDbEntity
  8
0
  6
Continuous
 62
     7
370
     0
100
AcDbLine
 10
163.0986001705
 20
240.4535844808
 30
0.0
 11
163.0986001705
 21
242.5491683071
 31
0.0
  0
LINE
  5
388
330
1F
100
AcDbEntity
  8
0
  6
Continuous
 62
     7
370
     0
100
AcDbLine
 10
163.5986002525
 20
242.5491683071
 30
0.0
 11
163.0986001705
 21
242.5491683071
 31
0.0
  0
LINE
  5
389
330
1F
100
AcDbEntity
  8
0
  6
Continuous
 62
     7
370
     0
100
AcDbLine
 10
157.0986001184
 20
242.5491683071
 30
0.0
 11
157.0986001184
 21
240.4535844808
 31
0.0
  0
LINE
  5
38A
330
1F
100
AcDbEntity
  8
0
  6
Continuous
 62
     7
370
     0
100
AcDbLine
 10
157.0986001184
 20
240.4535844808
 30
0.0
 11
157.3986000744
 21
240.4535844808
 31
0.0
  0
LINE
  5
38B
330
1F
100
AcDbEntity
  8
0
  6
Continuous
 62
     7
370
     0
100
AcDbLine
 10
156.5986000364
 20
240.3736024981
 30
0.0
 11
156.5986000364
 21
242.5491683071
 31
0.0
  0
LINE
  5
38C
330
1F
100
AcDbEntity
  8
0
  6
Continuous
 62
     7
370
     0
100
AcDbLine
 10
157.0986001184
 20
242.5491683071
 30
0.0
 11
156.5986000364
 21
242.5491683071
 31
0.0
  0
LINE
  5
38D
330
1F
100
AcDbEntity
  8
0
  6
Continuous
 62
     7
370
     0
100
AcDbLine
 10
162.7986002145
 20
243.0427282935
 30
0.0
 11
157.3986000744
 21
243.0427282935
 31
0.0
  0
LINE
  5
38E
330
1F
100
AcDbEntity
  8
0
  6
Continuous
 62
     7
370
     0
100
AcDbLine
 10
157.3986000744
 20
243.0427282935
 30
0.0
 11
157.3986000744
 21
240.9471481925
 31
0.0
  0
LINE
  5
38F
330
1F
100
AcDbEntity
  8
0
  6
Continuous
 62
     7
370
     0
100
AcDbLine
 10
162.7986002145
 20
243.0427282935
 30
0.0
 11
162.7986002145
 21
240.9471481925
 31
0.0
  0
ARC
  5
390
330
1F
100
AcDbEntity
  8
0
  6
Continuous
 62
     7
370
     0
100
AcDbCircle
 10
160.0986001444
 20
223.9180005427
 30
0.0
 40
1.852950465377422
100
AcDbArc
 50
247.8040171686
 51
292.1959828314
  0
ARC
  5
391
330
1F
100
AcDbEntity
  8
0
  6
Continuous
 62
     7
370
     0
100
AcDbCircle
 10
160.0986001444
 20
218.1245687962
 30
0.0
 40
0.9264752326886717
100
AcDbArc
 50
247.8040171686
 51
292.1959828315
  0
LINE
  5
392
330
1F
100
AcDbEntity
  8
0
  6
Continuous
 62
     7
370
     0
100
AcDbLine
 10
163.9986000386
 20
237.6174576467
 30
0.0
 11
163.9986000386
 21
240.6174562758
 31
0.0
  0
LINE
  5
393
330
1F
100
AcDbEntity
  8
0
  6
Continuous
 62
     7
370
     0
100
AcDbLine
 10
164.2985999947
 20
240.3174549227
 30
0.0
 11
164.2985999947
 21
237.9174552744
 31
0.0
  0
LINE
  5
394
330
1F
100
AcDbEntity
  8
0
  6
Continuous
 62
     7
370
     0
100
AcDbLine
 10
156.1986002502
 20
240.6174562758
 30
0.0
 11
156.1986002502
 21
237.6174576467
 31
0.0
  0
LINE
  5
395
330
1F
100
AcDbEntity
  8
0
  6
Continuous
 62
     7
370
     0
100
AcDbLine
 10
155.8986002942
 20
240.3020024186
 30
0.0
 11
155.8986002942
 21
240.3174549227
 31
0.0
  0
LINE
  5
396
330
1F
100
AcDbEntity
  8
0
  6
Continuous
 62
     7
370
     0
100
AcDbLine
 10
155.8986002942
 20
237.9174552744
 30
0.0
 11
155.8986002942
 21
240.3020024186
 31
0.0
  0
SPLINE
  5
397
330
1F
100
AcDbEntity
  8
0
  6
Continuous
 62
     7
370
     0
100
AcDbSpline
210
0.0
220
0.0
230
1.0
 70
     8
 71
     3
 72
    12
 73
     8
 74
     0
 42
0.000000001
 43
0.00000001
 40
0.0
 40
0.0
 40
0.0
 40
0.0
 40
0.4999999999999991
 40
0.4999999999999991
 40
0.7499999999999996
 40
0.7499999999999996
 40
1.0
 40
1.0
 40
1.0
 40
1.0
 10
165.2173432722195
 20
230.7483983291428
 30
0.0
 10
165.348668673384
 20
230.6754076040698
 30
0.0
 10
165.4296515132606
 20
230.6013645202254
 30
0.0
 10
165.4229965101342
 20
230.4876214857669
 30
0.0
 10
165.3997465388329
 20
230.4497697247456
 30
0.0
 10
165.3193026849452
 20
230.3754223926329
 30
0.0
 10
165.2623636290346
 20
230.3386986253761
 30
0.0
 10
165.1939697804549
 20
230.302283134587
 30
0.0
  0
SPLINE
  5
398
330
1F
100
AcDbEntity
  8
0
  6
Continuous
 62
     7
370
     0
100
AcDbSpline
210
0.0
220
0.0
230
1.0
 70
     8
 71
     3
 72
     9
 73
     5
 74
     0
 42
0.000000001
 43
0.00000001
 40
0.0
 40
0.0
 40
0.0
 40
0.0
 40
0.7583783381182393
 40
1.0
 40
1.0
 40
1.0
 40
1.0
 10
165.2173431952825
 20
225.3761462753437
 30
0.0
 10
165.286196729107
 20
225.4148413557721
 30
0.0
 10
165.3769872097467
 20
225.4658648073708
 30
0.0
 10
165.3896280614795
 20
225.5185309150407
 30
0.0
 10
165.3926823650828
 20
225.5312561875007
 30
0.0
  0
SPLINE
  5
399
330
1F
100
AcDbEntity
  8
0
  6
Continuous
 62
     7
370
     0
100
AcDbSpline
210
0.0
220
0.0
230
1.0
 70
     8
 71
     3
 72
    14
 73
    10
 74
     0
 42
0.000000001
 43
0.00000001
 40
0.0
 40
0.0
 40
0.0
 40
0.0
 40
0.25
 40
0.25
 40
0.5
 40
0.5
 40
0.75
 40
0.75
 40
1.0
 40
1.0
 40
1.0
 40
1.0
 10
165.1944549560061
 20
227.5398847753702
 30
0.0
 10
165.2624357145077
 20
227.3640808575104
 30
0.0
 10
165.3199003569484
 20
227.1841166928113
 30
0.0
 10
165.4000937280817
 20
226.8232203114034
 30
0.0
 10
165.4229037032341
 20
226.6417124244051
 30
0.0
 10
165.4274951651161
 20
226.2761815543553
 30
0.0
 10
165.4087204253364
 20
226.0907298656077
 30
0.0
 10
165.3357916765842
 20
225.7288379688653
 30
0.0
 10
165.2822933329655
 20
225.5513342407918
 30
0.0
 10
165.2173432722179
 20
225.3761446728876
 30
0.0
  0
SPLINE
  5
39A
330
1F
100
AcDbEntity
  8
0
  6
Continuous
 62
     7
370
     0
100
AcDbSpline
210
0.0
220
0.0
230
1.0
 70
     8
 71
     3
 72
    12
 73
     8
 74
     0
 42
0.000000001
 43
0.00000001
 40
0.0
 40
0.0
 40
0.0
 40
0.0
 40
0.5
 40
0.5
 40
0.75
 40
0.75
 40
1.0
 40
1.0
 40
1.0
 40
1.0
 10
165.1939697804555
 20
230.3022831345872
 30
0.0
 10
165.3345235602802
 20
229.8514714011401
 30
0.0
 10
165.4250265583986
 20
229.393672043995
 30
0.0
 10
165.4255775690323
 20
228.6880971575025
 30
0.0
 10
165.4034521171145
 20
228.4537461689504
 30
0.0
 10
165.3228882622466
 20
227.9930892551088
 30
0.0
 10
165.2647508803948
 20
227.7655405793139
 30
0.0
 10
165.1944549560072
 20
227.5398847753701
 30
0.0
  0
LINE
  5
39B
330
1F
100
AcDbEntity
  8
0
  6
Continuous
 62
     7
370
     0
100
AcDbLine
 10
165.5986001146
 20
229.7269612437
 30
0.0
 11
165.5986001146
 21
230.2622705584
 31
0.0
  0
LINE
  5
39C
330
1F
100
AcDbEntity
  8
0
  6
Continuous
 62
     7
370
     0
100
AcDbLine
 10
165.5986001146
 20
225.8622705823
 30
0.0
 11
165.5986001146
 21
229.7269612437
 31
0.0
  0
LINE
  5
39D
330
1F
100
AcDbEntity
  8
0
  6
Continuous
 62
     7
370
     0
100
AcDbLine
 10
165.1944550117
 20
227.5398842877
 30
0.0
 11
163.5986002525
 21
227.5398842877
 31
0.0
  0
LINE
  5
39E
330
1F
100
AcDbEntity
  8
0
  6
Continuous
 62
     7
370
     0
100
AcDbLine
 10
165.1939697926
 20
230.3022839015
 30
0.0
 11
163.5986002525
 21
230.3022839015
 31
0.0
  0
LINE
  5
39F
330
1F
100
AcDbEntity
  8
0
  6
Continuous
 62
     7
370
     0
100
AcDbLine
 10
165.2173431953
 20
225.3761462753
 30
0.0
 11
163.5986002525
 21
225.3761462753
 31
0.0
  0
LINE
  5
3A0
330
1F
100
AcDbEntity
  8
0
  6
Continuous
 62
     7
370
     0
100
AcDbLine
 10
165.2173431953
 20
230.7483985906
 30
0.0
 11
163.5986002525
 21
230.7483985906
 31
0.0
  0
LINE
  5
3A1
330
1F
100
AcDbEntity
  8
0
  6
Continuous
 62
     7
370
     0
100
AcDbLine
 10
161.4986000945
 20
244.1215798145
 30
0.0
 11
158.6986001944
 21
244.1215798145
 31
0.0
  0
LINE
  5
3A2
330
1F
100
AcDbEntity
  8
0
  6
Continuous
 62
     7
370
     0
100
AcDbLine
 10
158.6986001944
 20
243.0427282935
 30
0.0
 11
158.6986001944
 21
244.1215798145
 31
0.0
  0
LINE
  5
3A3
330
1F
100
AcDbEntity
  8
0
  6
Continuous
 62
     7
370
     0
100
AcDbLine
 10
161.4986000945
 20
243.0427282935
 30
0.0
 11
161.4986000945
 21
244.1215798145
 31
0.0
  0
LINE
  5
3A4
330
1F
100
AcDbEntity
  8
0
  6
Continuous
 62
     7
370
     0
100
AcDbLine
 10
158.6986001944
 20
245.1122686153
 30
0.0
 11
161.4986000945
 21
245.1122686153
 31
0.0
  0
LINE
  5
3A5
330
1F
100
AcDbEntity
  8
0
  6
Continuous
 62
     7
370
     0
100
AcDbLine
 10
158.6986001944
 20
244.1215798145
 30
0.0
 11
158.6986001944
 21
245.1122686153
 31
0.0
  0
LINE
  5
3A6
330
1F
100
AcDbEntity
  8
0
  6
Continuous
 62
     7
370
     0
100
AcDbLine
 10
161.4986000945
 20
245.1122686153
 30
0.0
 11
161.4986000945
 21
244.1215798145
 31
0.0
  0
LINE
  5
3A7
330
1F
100
AcDbEntity
  8
0
  6
Continuous
 62
     8
370
     0
100
AcDbLine
 10
163.0986001705
 20
222.7767094856
 30
0.0
 11
160.7986001195
 21
222.7767094856
 31
0.0
  0
LINE
  5
3A8
330
1F
100
AcDbEntity
  8
0
  6
Continuous
 62
     8
370
     0
100
AcDbLine
 10
159.3986001694
 20
222.7767094856
 30
0.0
 11
157.0986001184
 21
222.7767094856
 31
0.0
  0
LINE
  5
3A9
330
1F
100
AcDbEntity
  8
0
  6
Continuous
 62
     8
370
     0
100
AcDbLine
 10
155.4936044281
 20
225.5622729545
 30
0.0
 11
155.4936044281
 21
230.5622719114
 31
0.0
  0
LINE
  5
3AA
330
1F
100
AcDbEntity
  8
0
  6
Continuous
 62
     8
370
     0
100
AcDbLine
 10
155.3017962155
 20
225.6580166405
 30
0.0
 11
155.3017962155
 21
230.4665282255
 31
0.0
  0
SPLINE
  5
3AB
330
1F
100
AcDbEntity
  8
0
  6
Continuous
 62
     8
370
     0
100
AcDbSpline
210
0.0
220
0.0
230
1.0
 70
     8
 71
     3
 72
    12
 73
     8
 74
     0
 42
0.000000001
 43
0.00000001
 40
0.0
 40
0.0
 40
0.0
 40
0.0
 40
0.2278124087133358
 40
0.4564793607393285
 40
0.6848157379115896
 40
0.9129708018593137
 40
1.0
 40
1.0
 40
1.0
 40
1.0
 10
155.4794795242479
 20
194.2353578170559
 30
0.0
 10
155.4969639773377
 20
194.5365650567867
 30
0.0
 10
155.5319984691565
 20
195.1401093896828
 30
0.0
 10
155.8033650429642
 20
196.0135759743376
 30
0.0
 10
156.2375212806155
 20
196.8091587929695
 30
0.0
 10
156.6797515408656
 20
197.3875921907575
 30
0.0
 10
157.007971485941
 20
197.6447105952927
 30
0.0
 10
157.098600118362
 20
197.7157065531037
 30
0.0
  0
SPLINE
  5
3AC
330
1F
100
AcDbEntity
  8
0
  6
Continuous
 62
     8
370
     0
100
AcDbSpline
210
0.0
220
0.0
230
1.0
 70
     8
 71
     3
 72
    12
 73
     8
 74
     0
 42
0.000000001
 43
0.00000001
 40
0.0
 40
0.0
 40
0.0
 40
0.0
 40
0.0857125663213065
 40
0.3141881766324446
 40
0.5428631294726144
 40
0.7718702855399451
 40
1.0
 40
1.0
 40
1.0
 40
1.0
 10
163.0986001705161
 20
197.7169358989022
 30
0.0
 10
163.1879808022246
 20
197.6471250038532
 30
0.0
 10
163.5156146476224
 20
197.3912260293401
 30
0.0
 10
163.9574996782636
 20
196.8132190840432
 30
0.0
 10
164.392581959139
 20
196.0164567064966
 30
0.0
 10
164.6649043231731
 20
195.1416279425692
 30
0.0
 10
164.7001378268766
 20
194.5370632256998
 30
0.0
 10
164.7177207646301
 20
194.2353610766849
 30
0.0
  0
SPLINE
  5
3AD
330
1F
100
AcDbEntity
  8
0
  6
Continuous
 62
     8
370
     0
100
AcDbSpline
210
0.0
220
0.0
230
1.0
 70
     8
 71
     3
 72
    12
 73
     8
 74
     0
 42
0.000000001
 43
0.00000001
 40
0.0
 40
0.0
 40
0.0
 40
0.0
 40
0.1374320595095889
 40
0.3530740965146303
 40
0.5687160866095644
 40
0.7843580702639741
 40
1.0
 40
1.0
 40
1.0
 40
1.0
 10
163.0986001705161
 20
198.1060154622218
 30
0.0
 10
163.2617456472673
 20
197.9810336343718
 30
0.0
 10
163.6808795961433
 20
197.659945191789
 30
0.0
 10
164.2111916334079
 20
196.9843085750152
 30
0.0
 10
164.6704254292584
 20
196.1326219125283
 30
0.0
 10
164.9624512352812
 20
195.201839284236
 30
0.0
 10
164.999267137205
 20
194.5575204523514
 30
0.0
 10
165.0176750858655
 20
194.2353610766849
 30
0.0
  0
SPLINE
  5
3AE
330
1F
100
AcDbEntity
  8
0
  6
Continuous
 62
     8
370
     0
100
AcDbSpline
210
0.0
220
0.0
230
1.0
 70
     8
 71
     3
 72
    12
 73
     8
 74
     0
 42
0.000000001
 43
0.00000001
 40
0.0
 40
0.0
 40
0.0
 40
0.0
 40
0.2152375161137876
 40
0.4304750535830926
 40
0.6457126314537405
 40
0.8609502965698462
 40
1.0
 40
1.0
 40
1.0
 40
1.0
 10
155.1795252030125
 20
194.2353610766849
 30
0.0
 10
155.1978648442086
 20
194.5569340431765
 30
0.0
 10
155.2345441284203
 20
195.2000800080656
 30
0.0
 10
155.5255297722328
 20
196.1292763478012
 30
0.0
 10
155.9830915753501
 20
196.9798898760383
 30
0.0
 10
156.5135563845663
 20
197.6569062898073
 30
0.0
 10
156.9337023997453
 20
197.9797172178077
 30
0.0
 10
157.098600118362
 20
198.1064131369612
 30
0.0
  0
DIMENSION
  5
3AF
330
1F
100
AcDbEntity
  8
0
  6
Continuous
 62
     7
370
     0
100
AcDbDimension
  2
_D_12
 10
157.0986001444
 20
265.6313215838
 30
0.0
 11
160.0986001444
 21
265.6313215838
 31
0.0
 70
   160
  1
<>
 71
     2
 42
-1.0
  3
SLDDIMSTYLE0
100
AcDbAlignedDimension
 13
163.0986001444
 23
245.4695643985
 33
0.0
 14
157.0986001444
 24
245.4695643985
 34
0.0
100
AcDbRotatedDimension
  0
DIMENSION
  5
3BB
330
1F
100
AcDbEntity
  8
0
  6
Continuous
 62
     7
370
     0
100
AcDbDimension
  2
_D_13
 10
166.5986001444
 20
131.2353609746
 30
0.0
 11
160.0986001444
 21
131.2353609746
 31
0.0
 70
   160
  1
<>
 71
     2
 42
-1.0
  3
SLDDIMSTYLE0
100
AcDbAlignedDimension
 13
153.5986001444
 23
173.2353609746
 33
0.0
 14
166.5986001444
 24
173.2353609746
 34
0.0
100
AcDbRotatedDimension
  0
ENDSEC
  0
SECTION
  2
OBJECTS
  0
DICTIONARY
  5
C
330
0
100
AcDbDictionary
281
     1
  3
ACAD_GROUP
350
D
  3
ACAD_LAYOUT
350
1A
  3
ACAD_MLINESTYLE
350
17
  3
ACAD_PLOTSETTINGS
350
19
  3
ACAD_PLOTSTYLENAME
350
E
  3
ACAD_SCALELIST
350
47
  0
DICTIONARY
  5
D
102
{ACAD_REACTORS
330
C
102
}
330
C
100
AcDbDictionary
281
     1
  0
DICTIONARY
  5
1A
102
{ACAD_REACTORS
330
C
102
}
330
C
100
AcDbDictionary
281
     1
  3
Layout1
350
1E
  3
Layout2
350
26
  3
Model
350
22
  0
DICTIONARY
  5
17
102
{ACAD_REACTORS
330
C
102
}
330
C
100
AcDbDictionary
281
     1
  3
Standard
350
18
  0
DICTIONARY
  5
19
102
{ACAD_REACTORS
330
C
102
}
330
C
100
AcDbDictionary
281
     1
  0
ACDBDICTIONARYWDFLT
  5
E
102
{ACAD_REACTORS
330
C
102
}
330
C
100
AcDbDictionary
281
     1
  3
Normal
350
F
100
AcDbDictionaryWithDefault
340
F
  0
DICTIONARY
  5
47
102
{ACAD_REACTORS
330
C
102
}
330
C
100
AcDbDictionary
281
     1
  3
A0
350
48
  3
A1
350
49
  3
A2
350
4A
  3
A3
350
4B
  3
A4
350
4C
  3
A5
350
4D
  3
A6
350
4E
  3
A7
350
4F
  3
A8
350
50
  3
A9
350
51
  3
B0
350
52
  3
B1
350
53
  3
B2
350
54
  3
B3
350
55
  3
B4
350
56
  3
B5
350
57
  3
B6
350
58
  3
B7
350
59
  3
B8
350
5A
  3
B9
350
5B
  3
C0
350
5C
  3
C1
350
5D
  3
C2
350
5E
  3
C3
350
5F
  3
C4
350
60
  3
C5
350
61
  3
C6
350
62
  3
C7
350
63
  3
C8
350
64
  3
C9
350
65
  3
D0
350
66
  3
D1
350
67
  3
D2
350
68
  0
LAYOUT
  5
1E
102
{ACAD_REACTORS
330
1A
102
}
330
1A
100
AcDbPlotSettings
  1

  2
none_device
  4

  6

 40
0.0
 41
0.0
 42
0.0
 43
0.0
 44
0.0
 45
0.0
 46
0.0
 47
0.0
 48
0.0
 49
0.0
140
0.0
141
0.0
142
1.0
143
1.0
 70
   688
 72
     1
 73
     0
 74
     5
  7

 75
    16
147
1.0
148
0.0
149
0.0
100
AcDbLayout
  1
Layout1
 70
     1
 71
     1
 10
0.0
 20
0.0
 11
420.0
 21
297.0
 12
0.0
 22
0.0
 32
0.0
 14
1.0000000000E+20
 24
1.0000000000E+20
 34
1.0000000000E+20
 15
-1.0000000000E+20
 25
-1.0000000000E+20
 35
-1.0000000000E+20
146
0.0
 13
0.0
 23
0.0
 33
0.0
 16
1.0
 26
0.0
 36
0.0
 17
0.0
 27
1.0
 37
0.0
 76
     0
330
1B
  0
LAYOUT
  5
26
102
{ACAD_REACTORS
330
1A
102
}
330
1A
100
AcDbPlotSettings
  1

  2
none_device
  4

  6

 40
0.0
 41
0.0
 42
0.0
 43
0.0
 44
0.0
 45
0.0
 46
0.0
 47
0.0
 48
0.0
 49
0.0
140
0.0
141
0.0
142
1.0
143
1.0
 70
   688
 72
     1
 73
     0
 74
     5
  7

 75
    16
147
1.0
148
0.0
149
0.0
100
AcDbLayout
  1
Layout2
 70
     1
 71
     2
 10
0.0
 20
0.0
 11
0.0
 21
0.0
 12
0.0
 22
0.0
 32
0.0
 14
0.0
 24
0.0
 34
0.0
 15
0.0
 25
0.0
 35
0.0
146
0.0
 13
0.0
 23
0.0
 33
0.0
 16
1.0
 26
0.0
 36
0.0
 17
0.0
 27
1.0
 37
0.0
 76
     0
330
23
  0
LAYOUT
  5
22
102
{ACAD_REACTORS
330
1A
102
}
330
1A
100
AcDbPlotSettings
  1

  2
none_device
  4
Letter_(8.50_x_11.00_Inches)
  6

 40
6.35
 41
6.35
 42
6.35000508
 43
6.35000508
 44
215.9
 45
279.4
 46
0.0
 47
0.0
 48
0.0
 49
0.0
140
0.0
141
0.0
142
1.0
143
1.0
 70
  1712
 72
     1
 73
     0
 74
     0
  7

 75
     0
147
1.0
148
0.0
149
0.0
100
AcDbLayout
  1
Model
 70
     1
 71
     0
 10
0.0
 20
0.0
 11
210.0
 21
297.0
 12
0.0
 22
0.0
 32
0.0
 14
0.0
 24
0.0
 34
0.0
 15
210.0
 25
297.0
 35
0.0
146
0.0
 13
0.0
 23
0.0
 33
0.0
 16
1.0
 26
0.0
 36
0.0
 17
0.0
 27
1.0
 37
0.0
 76
     0
330
1F
331
29
  0
MLINESTYLE
  5
18
102
{ACAD_REACTORS
330
17
102
}
330
17
100
AcDbMlineStyle
  2
Standard
 70
     0
  3

 62
   256
 51
90.0
 52
90.0
 71
     2
 49
0.5
 62
   256
  6
BYLAYER
 49
-0.5
 62
   256
  6
BYLAYER
  0
ACDBPLACEHOLDER
  5
F
102
{ACAD_REACTORS
330
E
102
}
330
E
  0
SCALE
  5
48
102
{ACAD_REACTORS
330
47
102
}
330
47
100
AcDbScale
 70
     0
300
1:1
140
1.0
141
1.0
290
     1
  0
SCALE
  5
49
102
{ACAD_REACTORS
330
47
102
}
330
47
100
AcDbScale
 70
     0
300
1:2
140
1.0
141
2.0
290
     0
  0
SCALE
  5
4A
102
{ACAD_REACTORS
330
47
102
}
330
47
100
AcDbScale
 70
     0
300
1:4
140
1.0
141
4.0
290
     0
  0
SCALE
  5
4B
102
{ACAD_REACTORS
330
47
102
}
330
47
100
AcDbScale
 70
     0
300
1:5
140
1.0
141
5.0
290
     0
  0
SCALE
  5
4C
102
{ACAD_REACTORS
330
47
102
}
330
47
100
AcDbScale
 70
     0
300
1:8
140
1.0
141
8.0
290
     0
  0
SCALE
  5
4D
102
{ACAD_REACTORS
330
47
102
}
330
47
100
AcDbScale
 70
     0
300
1:10
140
1.0
141
10.0
290
     0
  0
SCALE
  5
4E
102
{ACAD_REACTORS
330
47
102
}
330
47
100
AcDbScale
 70
     0
300
1:16
140
1.0
141
16.0
290
     0
  0
SCALE
  5
4F
102
{ACAD_REACTORS
330
47
102
}
330
47
100
AcDbScale
 70
     0
300
1:20
140
1.0
141
20.0
290
     0
  0
SCALE
  5
50
102
{ACAD_REACTORS
330
47
102
}
330
47
100
AcDbScale
 70
     0
300
1:30
140
1.0
141
30.0
290
     0
  0
SCALE
  5
51
102
{ACAD_REACTORS
330
47
102
}
330
47
100
AcDbScale
 70
     0
300
1:40
140
1.0
141
40.0
290
     0
  0
SCALE
  5
52
102
{ACAD_REACTORS
330
47
102
}
330
47
100
AcDbScale
 70
     0
300
1:50
140
1.0
141
50.0
290
     0
  0
SCALE
  5
53
102
{ACAD_REACTORS
330
47
102
}
330
47
100
AcDbScale
 70
     0
300
1:100
140
1.0
141
100.0
290
     0
  0
SCALE
  5
54
102
{ACAD_REACTORS
330
47
102
}
330
47
100
AcDbScale
 70
     0
300
2:1
140
2.0
141
1.0
290
     0
  0
SCALE
  5
55
102
{ACAD_REACTORS
330
47
102
}
330
47
100
AcDbScale
 70
     0
300
4:1
140
4.0
141
1.0
290
     0
  0
SCALE
  5
56
102
{ACAD_REACTORS
330
47
102
}
330
47
100
AcDbScale
 70
     0
300
8:1
140
8.0
141
1.0
290
     0
  0
SCALE
  5
57
102
{ACAD_REACTORS
330
47
102
}
330
47
100
AcDbScale
 70
     0
300
10:1
140
10.0
141
1.0
290
     0
  0
SCALE
  5
58
102
{ACAD_REACTORS
330
47
102
}
330
47
100
AcDbScale
 70
     0
300
100:1
140
100.0
141
1.0
290
     0
  0
SCALE
  5
59
102
{ACAD_REACTORS
330
47
102
}
330
47
100
AcDbScale
 70
     0
300
1/128" = 1'-0"
140
0.0078125
141
12.0
290
     0
  0
SCALE
  5
5A
102
{ACAD_REACTORS
330
47
102
}
330
47
100
AcDbScale
 70
     0
300
1/64" = 1'-0"
140
0.015625
141
12.0
290
     0
  0
SCALE
  5
5B
102
{ACAD_REACTORS
330
47
102
}
330
47
100
AcDbScale
 70
     0
300
1/32" = 1'-0"
140
0.03125
141
12.0
290
     0
  0
SCALE
  5
5C
102
{ACAD_REACTORS
330
47
102
}
330
47
100
AcDbScale
 70
     0
300
1/16" = 1'-0"
140
0.0625
141
12.0
290
     0
  0
SCALE
  5
5D
102
{ACAD_REACTORS
330
47
102
}
330
47
100
AcDbScale
 70
     0
300
3/32" = 1'-0"
140
0.09375
141
12.0
290
     0
  0
SCALE
  5
5E
102
{ACAD_REACTORS
330
47
102
}
330
47
100
AcDbScale
 70
     0
300
1/8" = 1'-0"
140
0.125
141
12.0
290
     0
  0
SCALE
  5
5F
102
{ACAD_REACTORS
330
47
102
}
330
47
100
AcDbScale
 70
     0
300
3/16" = 1'-0"
140
0.1875
141
12.0
290
     0
  0
SCALE
  5
60
102
{ACAD_REACTORS
330
47
102
}
330
47
100
AcDbScale
 70
     0
300
1/4" = 1'-0"
140
0.25
141
12.0
290
     0
  0
SCALE
  5
61
102
{ACAD_REACTORS
330
47
102
}
330
47
100
AcDbScale
 70
     0
300
3/8" = 1'-0"
140
0.375
141
12.0
290
     0
  0
SCALE
  5
62
102
{ACAD_REACTORS
330
47
102
}
330
47
100
AcDbScale
 70
     0
300
1/2" = 1'-0"
140
0.5
141
12.0
290
     0
  0
SCALE
  5
63
102
{ACAD_REACTORS
330
47
102
}
330
47
100
AcDbScale
 70
     0
300
3/4" = 1'-0"
140
0.75
141
12.0
290
     0
  0
SCALE
  5
64
102
{ACAD_REACTORS
330
47
102
}
330
47
100
AcDbScale
 70
     0
300
1" = 1'-0"
140
1.0
141
12.0
290
     0
  0
SCALE
  5
65
102
{ACAD_REACTORS
330
47
102
}
330
47
100
AcDbScale
 70
     0
300
1-1/2" = 1'-0"
140
1.5
141
12.0
290
     0
  0
SCALE
  5
66
102
{ACAD_REACTORS
330
47
102
}
330
47
100
AcDbScale
 70
     0
300
3" = 1'-0"
140
3.0
141
12.0
290
     0
  0
SCALE
  5
67
102
{ACAD_REACTORS
330
47
102
}
330
47
100
AcDbScale
 70
     0
300
6" = 1'-0"
140
6.0
141
12.0
290
     0
  0
SCALE
  5
68
102
{ACAD_REACTORS
330
47
102
}
330
47
100
AcDbScale
 70
     0
300
1'-0" = 1'-0"
140
12.0
141
12.0
290
     0
  0
ENDSEC
  0
EOF
