  0
SECTION
  2
HEADER
  9
$ACADVER
  1
AC1015
  9
$ACADMAINTVER
 70
     6
  9
$DWGCODEPAGE
  3
DOS932
  9
$INSBASE
 10
0.0
 20
0.0
 30
0.0
  9
$EXTMIN
 10
0.0
 20
0.0
 30
0.0
  9
$EXTMAX
 10
210.0
 20
297.0
 30
0.0
  9
$LIMMIN
 10
0.0
 20
0.0
  9
$LIMMAX
 10
210.0
 20
297.0
  9
$ORTHOMODE
 70
     0
  9
$REGENMODE
 70
     1
  9
$FILLMODE
 70
     1
  9
$QTEXTMODE
 70
     0
  9
$MIRRTEXT
 70
     1
  9
$LTSCALE
 40
1.0
  9
$ATTMODE
 70
     1
  9
$TEXTSIZE
 40
3.5
  9
$TRACEWID
 40
1.0
  9
$TEXTSTYLE
  7
Standard
  9
$CLAYER
  8
0
  9
$CELTYPE
  6
ByLayer
  9
$CECOLOR
 62
   256
  9
$CELTSCALE
 40
1.0
  9
$DISPSILH
 70
     0
  9
$DIMSCALE
 40
1.0
  9
$DIMASZ
 40
3.0
  9
$DIMEXO
 40
1.0
  9
$DIMDLI
 40
3.75
  9
$DIMRND
 40
0.0
  9
$DIMDLE
 40
0.0
  9
$DIMEXE
 40
1.0
  9
$DIMTP
 40
0.0
  9
$DIMTM
 40
0.0
  9
$DIMTXT
 40
3.5
  9
$DIMCEN
 40
2.5
  9
$DIMTSZ
 40
0.0
  9
$DIMTOL
 70
     0
  9
$DIMLIM
 70
     0
  9
$DIMTIH
 70
     1
  9
$DIMTOH
 70
     1
  9
$DIMSE1
 70
     0
  9
$DIMSE2
 70
     0
  9
$DIMTAD
 70
     1
  9
$DIMZIN
 70
     0
  9
$DIMBLK
  1

  9
$DIMASO
 70
     1
  9
$DIMSHO
 70
     1
  9
$DIMPOST
  1

  9
$DIMAPOST
  1

  9
$DIMALT
 70
     0
  9
$DIMALTD
 70
     3
  9
$DIMALTF
 40
0.0393700787
  9
$DIMLFAC
 40
2.0
  9
$DIMTOFL
 70
     1
  9
$DIMTVP
 40
0.0
  9
$DIMTIX
 70
     0
  9
$DIMSOXD
 70
     0
  9
$DIMSAH
 70
     0
  9
$DIMBLK1
  1

  9
$DIMBLK2
  1

  9
$DIMSTYLE
  2
ISO-25
  9
$DIMCLRD
 70
     0
  9
$DIMCLRE
 70
     0
  9
$DIMCLRT
 70
     0
  9
$DIMTFAC
 40
1.0
  9
$DIMGAP
 40
1.524
  9
$DIMJUST
 70
     0
  9
$DIMSD1
 70
     0
  9
$DIMSD2
 70
     0
  9
$DIMTOLJ
 70
     0
  9
$DIMTZIN
 70
     0
  9
$DIMALTZ
 70
     0
  9
$DIMALTTZ
 70
     0
  9
$DIMUPT
 70
     0
  9
$DIMDEC
 70
     1
  9
$DIMTDEC
 70
     3
  9
$DIMALTU
 70
     2
  9
$DIMALTTD
 70
     3
  9
$DIMTXSTY
  7
Standard
  9
$DIMAUNIT
 70
     0
  9
$DIMADEC
 70
     2
  9
$DIMALTRND
 40
0.0
  9
$DIMAZIN
 70
     0
  9
$DIMDSEP
 70
    44
  9
$DIMATFIT
 70
     3
  9
$DIMFRAC
 70
     0
  9
$DIMLDRBLK
  1

  9
$DIMLUNIT
 70
     2
  9
$DIMLWD
 70
    -2
  9
$DIMLWE
 70
    -2
  9
$DIMTMOVE
 70
     0
  9
$LUNITS
 70
     2
  9
$LUPREC
 70
     1
  9
$SKETCHINC
 40
1.0
  9
$FILLETRAD
 40
10.0
  9
$AUNITS
 70
     0
  9
$AUPREC
 70
     2
  9
$MENU
  1
.
  9
$ELEVATION
 40
0.0
  9
$PELEVATION
 40
0.0
  9
$THICKNESS
 40
0.0
  9
$LIMCHECK
 70
     0
  9
$CHAMFERA
 40
0.0
  9
$CHAMFERB
 40
0.0
  9
$CHAMFERC
 40
0.0
  9
$CHAMFERD
 40
0.0
  9
$SKPOLY
 70
     0
  9
$TDCREATE
 40
2457984.672588113
  9
$TDUCREATE
 40
2457984.297588113
  9
$TDUPDATE
 40
2457984.672590197
  9
$TDUUPDATE
 40
2457984.297590197
  9
$TDINDWG
 40
0.0000000116
  9
$TDUSRTIMER
 40
0.0000000116
  9
$USRTIMER
 70
     1
  9
$ANGBASE
 50
0.0
  9
$ANGDIR
 70
     0
  9
$PDMODE
 70
     0
  9
$PDSIZE
 40
-1.0
  9
$PLINEWID
 40
0.0
  9
$SPLFRAME
 70
     0
  9
$SPLINETYPE
 70
     6
  9
$SPLINESEGS
 70
     8
  9
$HANDSEED
  5
3D9
  9
$SURFTAB1
 70
     6
  9
$SURFTAB2
 70
     6
  9
$SURFTYPE
 70
     6
  9
$SURFU
 70
     6
  9
$SURFV
 70
     6
  9
$UCSBASE
  2

  9
$UCSNAME
  2

  9
$UCSORG
 10
0.0
 20
0.0
 30
0.0
  9
$UCSXDIR
 10
1.0
 20
0.0
 30
0.0
  9
$UCSYDIR
 10
0.0
 20
1.0
 30
0.0
  9
$UCSORTHOREF
  2

  9
$UCSORTHOVIEW
 70
     0
  9
$UCSORGTOP
 10
0.0
 20
0.0
 30
0.0
  9
$UCSORGBOTTOM
 10
0.0
 20
0.0
 30
0.0
  9
$UCSORGLEFT
 10
0.0
 20
0.0
 30
0.0
  9
$UCSORGRIGHT
 10
0.0
 20
0.0
 30
0.0
  9
$UCSORGFRONT
 10
0.0
 20
0.0
 30
0.0
  9
$UCSORGBACK
 10
0.0
 20
0.0
 30
0.0
  9
$PUCSBASE
  2

  9
$PUCSNAME
  2

  9
$PUCSORG
 10
0.0
 20
0.0
 30
0.0
  9
$PUCSXDIR
 10
1.0
 20
0.0
 30
0.0
  9
$PUCSYDIR
 10
0.0
 20
1.0
 30
0.0
  9
$PUCSORTHOREF
  2

  9
$PUCSORTHOVIEW
 70
     0
  9
$PUCSORGTOP
 10
0.0
 20
0.0
 30
0.0
  9
$PUCSORGBOTTOM
 10
0.0
 20
0.0
 30
0.0
  9
$PUCSORGLEFT
 10
0.0
 20
0.0
 30
0.0
  9
$PUCSORGRIGHT
 10
0.0
 20
0.0
 30
0.0
  9
$PUCSORGFRONT
 10
0.0
 20
0.0
 30
0.0
  9
$PUCSORGBACK
 10
0.0
 20
0.0
 30
0.0
  9
$USERI1
 70
     0
  9
$USERI2
 70
     0
  9
$USERI3
 70
     0
  9
$USERI4
 70
     0
  9
$USERI5
 70
     0
  9
$USERR1
 40
0.0
  9
$USERR2
 40
0.0
  9
$USERR3
 40
0.0
  9
$USERR4
 40
0.0
  9
$USERR5
 40
0.0
  9
$WORLDVIEW
 70
     1
  9
$SHADEDGE
 70
     3
  9
$SHADEDIF
 70
    70
  9
$TILEMODE
 70
     1
  9
$MAXACTVP
 70
    64
  9
$PINSBASE
 10
0.0
 20
0.0
 30
0.0
  9
$PLIMCHECK
 70
     0
  9
$PEXTMIN
 10
1.0000000000E+20
 20
1.0000000000E+20
 30
1.0000000000E+20
  9
$PEXTMAX
 10
-1.0000000000E+20
 20
-1.0000000000E+20
 30
-1.0000000000E+20
  9
$PLIMMIN
 10
0.0
 20
0.0
  9
$PLIMMAX
 10
420.0
 20
297.0
  9
$UNITMODE
 70
     0
  9
$VISRETAIN
 70
     1
  9
$PLINEGEN
 70
     0
  9
$PSLTSCALE
 70
     1
  9
$TREEDEPTH
 70
  3020
  9
$CMLSTYLE
  2
Standard
  9
$CMLJUST
 70
     0
  9
$CMLSCALE
 40
20.0
  9
$PROXYGRAPHICS
 70
     1
  9
$MEASUREMENT
 70
     1
  9
$CELWEIGHT
370
    -1
  9
$ENDCAPS
280
     0
  9
$JOINSTYLE
280
     0
  9
$LWDISPLAY
290
     1
  9
$INSUNITS
 70
     4
  9
$HYPERLINKBASE
  1

  9
$STYLESHEET
  1

  9
$XEDIT
290
     1
  9
$CEPSNTYPE
380
     0
  9
$PSTYLEMODE
290
     1
  9
$FINGERPRINTGUID
  2
{F3233F8E-24B1-4BAF-A6D8-5197C64815E1}
  9
$VERSIONGUID
  2
{FAEB1C32-E019-11D5-929B-00C0DF256EC4}
  9
$EXTNAMES
290
     1
  9
$PSVPSCALE
 40
0.0
  9
$OLESTARTUP
290
     0
  0
ENDSEC
  0
SECTION
  2
CLASSES
  0
CLASS
  1
ACDBDICTIONARYWDFLT
  2
AcDbDictionaryWithDefault
  3
ObjectDBX Classes
 90
        0
280
     0
281
     0
  0
CLASS
  1
VISUALSTYLE
  2
AcDbVisualStyle
  3
ObjectDBX Classes
 90
     4095
280
     0
281
     0
  0
CLASS
  1
MATERIAL
  2
AcDbMaterial
  3
ObjectDBX Classes
 90
     1153
280
     0
281
     0
  0
CLASS
  1
SCALE
  2
AcDbScale
  3
ObjectDBX Classes
 90
     1153
280
     0
281
     0
  0
CLASS
  1
TABLESTYLE
  2
AcDbTableStyle
  3
ObjectDBX Classes
 90
     4095
280
     0
281
     0
  0
CLASS
  1
MLEADERSTYLE
  2
AcDbMLeaderStyle
  3
ACDB_MLEADERSTYLE_CLASS
 90
     4095
280
     0
281
     0
  0
CLASS
  1
SUN
  2
AcDbSun
  3
SCENEOE
 90
     1153
280
     0
281
     0
  0
CLASS
  1
ACDBPLACEHOLDER
  2
AcDbPlaceHolder
  3
ObjectDBX Classes
 90
        0
280
     0
281
     0
  0
CLASS
  1
LAYOUT
  2
AcDbLayout
  3
ObjectDBX Classes
 90
        0
280
     0
281
     0
  0
ENDSEC
  0
SECTION
  2
TABLES
  0
TABLE
  2
VPORT
  5
8
330
0
100
AcDbSymbolTable
 70
     1
  0
VPORT
  5
29
330
8
100
AcDbSymbolTableRecord
100
AcDbViewportTableRecord
  2
*Active
 70
     0
 10
0.0
 20
0.0
 11
1.0
 21
1.0
 12
105.0
 22
148.5
 13
0.0
 23
0.0
 14
10.0
 24
10.0
 15
10.0
 25
10.0
 16
0.0
 26
0.0
 36
1.0
 17
0.0
 27
0.0
 37
0.0
 40
297.0
 41
0.7070707071
 42
50.0
 43
0.0
 44
0.0
 50
0.0
 51
0.0
 71
     0
 72
  2000
 73
     1
 74
     3
 75
     0
 76
     0
 77
     0
 78
     0
281
     0
 65
     1
110
0.0
120
0.0
130
0.0
111
1.0
121
0.0
131
0.0
112
0.0
122
1.0
132
0.0
 79
     0
146
0.0
  0
ENDTAB
  0
TABLE
  2
LTYPE
  5
5
330
0
100
AcDbSymbolTable
 70
     6
  0
LTYPE
  5
14
330
5
100
AcDbSymbolTableRecord
100
AcDbLinetypeTableRecord
  2
ByBlock
 70
     0
  3

 72
    65
 73
     0
 40
0.0
  0
LTYPE
  5
15
330
5
100
AcDbSymbolTableRecord
100
AcDbLinetypeTableRecord
  2
ByLayer
 70
     0
  3

 72
    65
 73
     0
 40
0.0
  0
LTYPE
  5
16
330
5
100
AcDbSymbolTableRecord
100
AcDbLinetypeTableRecord
  2
Continuous
 70
     0
  3
Solid line
 72
    65
 73
     0
 40
0.0
  0
LTYPE
  5
6E
330
5
100
AcDbSymbolTableRecord
100
AcDbLinetypeTableRecord
  2
HIDDEN
 70
     0
  3
Hidden __ __ __ __ __ __ __ __ __ __ __ __ __ __
 72
    65
 73
     2
 40
1.905
 49
1.27
 74
     0
 49
-0.635
 74
     0
  0
LTYPE
  5
6F
330
5
100
AcDbSymbolTableRecord
100
AcDbLinetypeTableRecord
  2
PHANTOM
 70
     0
  3
Phantom ______  __  __  ______  __  __  ______
 72
    65
 73
     6
 40
12.7
 49
6.35
 74
     0
 49
-1.27
 74
     0
 49
1.27
 74
     0
 49
-1.27
 74
     0
 49
1.27
 74
     0
 49
-1.27
 74
     0
  0
LTYPE
  5
70
330
5
100
AcDbSymbolTableRecord
100
AcDbLinetypeTableRecord
  2
CENTER
 70
     0
  3
Center ____ _ ____ _ ____ _ ____ _ ____ _ ____
 72
    65
 73
     4
 40
10.16
 49
6.35
 74
     0
 49
-1.27
 74
     0
 49
1.27
 74
     0
 49
-1.27
 74
     0
  0
LTYPE
  5
71
330
5
100
AcDbSymbolTableRecord
100
AcDbLinetypeTableRecord
  2
CENTERX2
 70
     0
  3
Center (2x) ________  __  ________  __  _____
 72
    65
 73
     4
 40
20.32
 49
12.7
 74
     0
 49
-2.54
 74
     0
 49
2.54
 74
     0
 49
-2.54
 74
     0
  0
LTYPE
  5
72
330
5
100
AcDbSymbolTableRecord
100
AcDbLinetypeTableRecord
  2
DOT2
 70
     0
  3
Dot (.5x) ........................................
 72
    65
 73
     2
 40
0.635
 49
0.0
 74
     0
 49
-0.635
 74
     0
  0
ENDTAB
  0
TABLE
  2
LAYER
  5
2
330
0
100
AcDbSymbolTable
 70
     1
  0
LAYER
  5
10
330
2
100
AcDbSymbolTableRecord
100
AcDbLayerTableRecord
  2
0
 70
     0
 62
     7
  6
Continuous
370
    -3
390
F
  0
ENDTAB
  0
TABLE
  2
STYLE
  5
3
330
0
100
AcDbSymbolTable
 70
     2
  0
STYLE
  5
11
330
3
100
AcDbSymbolTableRecord
100
AcDbTextStyleTableRecord
  2
Standard
 70
     0
 40
0.0
 41
1.0
 50
0.0
 71
     0
 42
3.5
  3
txt
  4
bigfont
  0
STYLE
  5
7B
330
3
100
AcDbSymbolTableRecord
100
AcDbTextStyleTableRecord
  2
SLDTEXTSTYLE0
 70
     0
 40
0.0
 41
0.7
 50
0.0
 71
     0
 42
3.5
  3
TXT
  4
bigfont
  0
ENDTAB
  0
TABLE
  2
VIEW
  5
6
330
0
100
AcDbSymbolTable
 70
     0
  0
ENDTAB
  0
TABLE
  2
UCS
  5
7
330
0
100
AcDbSymbolTable
 70
     0
  0
ENDTAB
  0
TABLE
  2
APPID
  5
9
330
0
100
AcDbSymbolTable
 70
     1
  0
APPID
  5
12
330
9
100
AcDbSymbolTableRecord
100
AcDbRegAppTableRecord
  2
ACAD
 70
     0
  0
ENDTAB
  0
TABLE
  2
DIMSTYLE
  5
A
330
0
100
AcDbSymbolTable
 70
     6
100
AcDbDimStyleTable
  0
DIMSTYLE
105
27
330
A
100
AcDbSymbolTableRecord
100
AcDbDimStyleTableRecord
  2
ISO-25
 70
     0
 41
2.5
 42
0.625
 43
3.75
 44
1.25
 73
     0
 74
     0
 77
     1
 78
     8
140
2.5
141
2.5
143
0.0393700787
147
0.625
171
     3
172
     1
178
     0
271
     2
272
     2
274
     3
278
    44
283
     0
284
     8
340
11
  0
DIMSTYLE
105
162
102
{ACAD_REACTORS
330
161
330
184
330
3C3
102
}
330
A
100
AcDbSymbolTableRecord
100
AcDbDimStyleTableRecord
  2
SLDDIMSTYLE0
 70
     0
 41
3.0
 44
0.0
 45
0.000000001
 73
     0
 74
     0
 77
     3
 78
    12
 79
     3
140
3.5
147
0.875
172
     1
173
     1
178
     0
271
     1
272
     3
276
     2
284
    12
289
     0
340
7B
  0
DIMSTYLE
105
170
102
{ACAD_REACTORS
330
16F
330
17A
330
190
330
19A
330
1A4
330
1AE
330
1BA
330
2A9
330
3CF
102
}
330
A
100
AcDbSymbolTableRecord
100
AcDbDimStyleTableRecord
  2
SLDDIMSTYLE1
 70
     0
 41
3.0
 44
0.0
 45
0.000000001
 73
     0
 74
     0
 77
     3
 78
    12
 79
     3
140
3.5
147
0.875
173
     1
178
     0
271
     1
272
     3
276
     2
284
    12
340
7B
  0
DIMSTYLE
105
1C7
102
{ACAD_REACTORS
330
1C6
102
}
330
A
100
AcDbSymbolTableRecord
100
AcDbDimStyleTableRecord
  2
SLDDIMSTYLE2
 70
     0
 41
3.0
 44
0.0
 45
0.000000001
 78
    12
 79
     3
140
3.5
141
0.0
147
0.875
173
     1
178
     0
271
     1
272
     3
276
     2
284
    12
340
7B
  0
DIMSTYLE
105
1D8
330
A
100
AcDbSymbolTableRecord
100
AcDbDimStyleTableRecord
  2
SLDDIMSTYLE3
 70
     0
 41
3.0
 44
0.0
 45
0.000000001
146
3.0
147
0.0
173
     1
178
     0
271
     0
272
     0
276
     2
340
11
  0
DIMSTYLE
105
29D
102
{ACAD_REACTORS
330
29C
102
}
330
A
100
AcDbSymbolTableRecord
100
AcDbDimStyleTableRecord
  2
SLDDIMSTYLE4
 70
     0
 41
3.0
 44
0.0
 45
0.000000001
 73
     0
 74
     0
 77
     3
 78
    12
 79
     3
140
3.5
147
0.875
173
     1
178
     0
271
     0
272
     3
276
     2
284
    12
340
7B
  0
ENDTAB
  0
TABLE
  2
BLOCK_RECORD
  5
1
330
0
100
AcDbSymbolTable
 70
    22
  0
BLOCK_RECORD
  5
1F
330
1
100
AcDbSymbolTableRecord
100
AcDbBlockTableRecord
  2
*Model_Space
340
22
  0
BLOCK_RECORD
  5
1B
330
1
100
AcDbSymbolTableRecord
100
AcDbBlockTableRecord
  2
*Paper_Space
340
1E
  0
BLOCK_RECORD
  5
23
330
1
100
AcDbSymbolTableRecord
100
AcDbBlockTableRecord
  2
*Paper_Space0
340
26
  0
BLOCK_RECORD
  5
163
330
1
100
AcDbSymbolTableRecord
100
AcDbBlockTableRecord
  2
_D
340
0
  0
BLOCK_RECORD
  5
171
330
1
100
AcDbSymbolTableRecord
100
AcDbBlockTableRecord
  2
_D_1
340
0
  0
BLOCK_RECORD
  5
17B
330
1
100
AcDbSymbolTableRecord
100
AcDbBlockTableRecord
  2
_D_2
340
0
  0
BLOCK_RECORD
  5
185
330
1
100
AcDbSymbolTableRecord
100
AcDbBlockTableRecord
  2
_D_3
340
0
  0
BLOCK_RECORD
  5
191
330
1
100
AcDbSymbolTableRecord
100
AcDbBlockTableRecord
  2
_D_4
340
0
  0
BLOCK_RECORD
  5
19B
330
1
100
AcDbSymbolTableRecord
100
AcDbBlockTableRecord
  2
_D_5
340
0
  0
BLOCK_RECORD
  5
1A5
330
1
100
AcDbSymbolTableRecord
100
AcDbBlockTableRecord
  2
_D_6
340
0
  0
BLOCK_RECORD
  5
1AF
330
1
100
AcDbSymbolTableRecord
100
AcDbBlockTableRecord
  2
_D_7
340
0
  0
BLOCK_RECORD
  5
1BB
330
1
100
AcDbSymbolTableRecord
100
AcDbBlockTableRecord
  2
_D_8
340
0
  0
BLOCK_RECORD
  5
1C8
330
1
100
AcDbSymbolTableRecord
100
AcDbBlockTableRecord
  2
_D_9
340
0
  0
BLOCK_RECORD
  5
1D2
330
1
100
AcDbSymbolTableRecord
100
AcDbBlockTableRecord
  2
SW_NOTE_0
340
0
102
{BLKREFS
331
1D7
102
}
  0
BLOCK_RECORD
  5
1DA
330
1
100
AcDbSymbolTableRecord
100
AcDbBlockTableRecord
  2
SW_CENTERMARKSYMBOL_0
340
0
102
{BLKREFS
331
1E5
102
}
  0
BLOCK_RECORD
  5
1E6
330
1
100
AcDbSymbolTableRecord
100
AcDbBlockTableRecord
  2
SW_CENTERMARKSYMBOL_1
340
0
102
{BLKREFS
331
1F1
102
}
  0
BLOCK_RECORD
  5
1F2
330
1
100
AcDbSymbolTableRecord
100
AcDbBlockTableRecord
  2
SW_CENTERMARKSYMBOL_2
340
0
102
{BLKREFS
331
1FD
102
}
  0
BLOCK_RECORD
  5
1FE
330
1
100
AcDbSymbolTableRecord
100
AcDbBlockTableRecord
  2
SW_CENTERMARKSYMBOL_3
340
0
102
{BLKREFS
331
209
102
}
  0
BLOCK_RECORD
  5
20A
330
1
100
AcDbSymbolTableRecord
100
AcDbBlockTableRecord
  2
SW_CENTERMARKSYMBOL_4
340
0
102
{BLKREFS
331
215
102
}
  0
BLOCK_RECORD
  5
29E
330
1
100
AcDbSymbolTableRecord
100
AcDbBlockTableRecord
  2
_D_10
340
0
  0
BLOCK_RECORD
  5
2AA
330
1
100
AcDbSymbolTableRecord
100
AcDbBlockTableRecord
  2
_D_11
340
0
  0
BLOCK_RECORD
  5
2B5
330
1
100
AcDbSymbolTableRecord
100
AcDbBlockTableRecord
  2
SW_CENTERMARKSYMBOL_5
340
0
102
{BLKREFS
331
2C0
102
}
  0
BLOCK_RECORD
  5
3C4
330
1
100
AcDbSymbolTableRecord
100
AcDbBlockTableRecord
  2
_D_12
340
0
  0
BLOCK_RECORD
  5
3D0
330
1
100
AcDbSymbolTableRecord
100
AcDbBlockTableRecord
  2
_D_13
340
0
  0
ENDTAB
  0
ENDSEC
  0
SECTION
  2
BLOCKS
  0
BLOCK
  5
20
330
1F
100
AcDbEntity
  8
0
100
AcDbBlockBegin
  2
*Model_Space
 70
     0
 10
0.0
 20
0.0
 30
0.0
  3
*Model_Space
  1

  0
ENDBLK
  5
21
330
1F
100
AcDbEntity
  8
0
100
AcDbBlockEnd
  0
BLOCK
  5
1C
330
1B
100
AcDbEntity
 67
     1
  8
0
100
AcDbBlockBegin
  2
*Paper_Space
 70
     0
 10
0.0
 20
0.0
 30
0.0
  3
*Paper_Space
  1

  0
ENDBLK
  5
1D
330
1B
100
AcDbEntity
 67
     1
  8
0
100
AcDbBlockEnd
  0
BLOCK
  5
24
330
23
100
AcDbEntity
  8
0
100
AcDbBlockBegin
  2
*Paper_Space0
 70
     0
 10
0.0
 20
0.0
 30
0.0
  3
*Paper_Space0
  1

  0
ENDBLK
  5
25
330
23
100
AcDbEntity
  8
0
100
AcDbBlockEnd
  0
BLOCK
  5
164
330
163
100
AcDbEntity
  8
0
100
AcDbBlockBegin
  2
_D
 70
     0
 10
0.0
 20
0.0
 30
0.0
  3
_D
  1

  0
SOLID
  5
166
330
163
100
AcDbEntity
  8
0
  6
Continuous
 62
     7
370
     0
100
AcDbTrace
 10
72.8182096706
 20
104.4992282172
 30
0.0
 11
69.8182096706
 21
105.2492282172
 31
0.0
 12
69.8182096706
 22
103.7492282172
 32
0.0
 13
69.8182096706
 23
103.7492282172
 33
0.0
  0
SOLID
  5
167
330
163
100
AcDbEntity
  8
0
  6
Continuous
 62
     7
370
     0
100
AcDbTrace
 10
84.8182096706
 20
104.4992282172
 30
0.0
 11
87.8182096706
 21
103.7492282172
 31
0.0
 12
87.8182096706
 22
105.2492282172
 32
0.0
 13
87.8182096706
 23
105.2492282172
 33
0.0
  0
LINE
  5
168
330
163
100
AcDbEntity
  8
0
  6
Continuous
 62
     7
370
     0
100
AcDbLine
 10
72.8182096706
 20
121.6590945567
 30
0.0
 11
72.8182096706
 21
103.4992282172
 31
0.0
  0
LINE
  5
169
330
163
100
AcDbEntity
  8
0
  6
Continuous
 62
     7
370
     0
100
AcDbLine
 10
84.8182096706
 20
121.6590945567
 30
0.0
 11
84.8182096706
 21
103.4992282172
 31
0.0
  0
LINE
  5
16A
330
163
100
AcDbEntity
  8
0
  6
Continuous
 62
     7
370
     0
100
AcDbLine
 10
72.8182096706
 20
104.4992282172
 30
0.0
 11
67.8182096706
 21
104.4992282172
 31
0.0
  0
LINE
  5
16B
330
163
100
AcDbEntity
  8
0
  6
Continuous
 62
     7
370
     0
100
AcDbLine
 10
72.8182096706
 20
104.4992282172
 30
0.0
 11
84.8182096706
 21
104.4992282172
 31
0.0
  0
LINE
  5
16C
330
163
100
AcDbEntity
  8
0
  6
Continuous
 62
     7
370
     0
100
AcDbLine
 10
84.8182096706
 20
104.4992282172
 30
0.0
 11
89.8182096706
 21
104.4992282172
 31
0.0
  0
MTEXT
  5
16D
330
163
100
AcDbEntity
  8
0
  6
Continuous
 62
     7
370
     0
100
AcDbMText
 10
74.8464387992
 20
109.0109655392
 30
0.0
 40
3.5
 41
0.0
 71
     1
 72
     1
  1
%%c
  7
SLDTEXTSTYLE0
 73
     1
 44
1.0
  0
MTEXT
  5
16E
330
163
100
AcDbEntity
  8
0
  6
Continuous
 62
     7
370
     0
100
AcDbMText
 10
78.7163693143
 20
109.0109655392
 30
0.0
 40
3.5
 41
0.0
 71
     1
 72
     1
  1
12
  7
SLDTEXTSTYLE0
 73
     1
 44
1.0
  0
ENDBLK
  5
165
330
163
100
AcDbEntity
  8
0
100
AcDbBlockEnd
  0
BLOCK
  5
172
330
171
100
AcDbEntity
  8
0
100
AcDbBlockBegin
  2
_D_1
 70
     0
 10
0.0
 20
0.0
 30
0.0
  3
_D_1
  1

  0
SOLID
  5
174
330
171
100
AcDbEntity
  8
0
  6
Continuous
 62
     7
370
     0
100
AcDbTrace
 10
66.3182096706
 20
98.0005388632
 30
0.0
 11
69.3182096706
 21
97.2505388632
 31
0.0
 12
69.3182096706
 22
98.7505388632
 32
0.0
 13
69.3182096706
 23
98.7505388632
 33
0.0
  0
SOLID
  5
175
330
171
100
AcDbEntity
  8
0
  6
Continuous
 62
     7
370
     0
100
AcDbTrace
 10
91.3182096706
 20
98.0005388632
 30
0.0
 11
88.3182096706
 21
98.7505388632
 31
0.0
 12
88.3182096706
 22
97.2505388632
 32
0.0
 13
88.3182096706
 23
97.2505388632
 33
0.0
  0
LINE
  5
176
330
171
100
AcDbEntity
  8
0
  6
Continuous
 62
     7
370
     0
100
AcDbLine
 10
66.3182096706
 20
141.1590945567
 30
0.0
 11
66.3182096706
 21
97.0005388632
 31
0.0
  0
LINE
  5
177
330
171
100
AcDbEntity
  8
0
  6
Continuous
 62
     7
370
     0
100
AcDbLine
 10
91.3182096706
 20
141.1590945567
 30
0.0
 11
91.3182096706
 21
97.0005388632
 31
0.0
  0
LINE
  5
178
330
171
100
AcDbEntity
  8
0
  6
Continuous
 62
     7
370
     0
100
AcDbLine
 10
66.3182096706
 20
98.0005388632
 30
0.0
 11
91.3182096706
 21
98.0005388632
 31
0.0
  0
MTEXT
  5
179
330
171
100
AcDbEntity
  8
0
  6
Continuous
 62
     7
370
     0
100
AcDbMText
 10
76.7814041732
 20
102.5122757196
 30
0.0
 40
3.5
 41
0.0
 71
     1
 72
     1
  1
25
  7
SLDTEXTSTYLE0
 73
     1
 44
1.0
  0
ENDBLK
  5
173
330
171
100
AcDbEntity
  8
0
100
AcDbBlockEnd
  0
BLOCK
  5
17C
330
17B
100
AcDbEntity
  8
0
100
AcDbBlockBegin
  2
_D_2
 70
     0
 10
0.0
 20
0.0
 30
0.0
  3
_D_2
  1

  0
SOLID
  5
17E
330
17B
100
AcDbEntity
  8
0
  6
Continuous
 62
     7
370
     0
100
AcDbTrace
 10
59.3182096706
 20
89.6590945567
 30
0.0
 11
62.3182096706
 21
88.9090945567
 31
0.0
 12
62.3182096706
 22
90.4090945567
 32
0.0
 13
62.3182096706
 23
90.4090945567
 33
0.0
  0
SOLID
  5
17F
330
17B
100
AcDbEntity
  8
0
  6
Continuous
 62
     7
370
     0
100
AcDbTrace
 10
98.3182096706
 20
89.6590945567
 30
0.0
 11
95.3182096706
 21
90.4090945567
 31
0.0
 12
95.3182096706
 22
88.9090945567
 32
0.0
 13
95.3182096706
 23
88.9090945567
 33
0.0
  0
LINE
  5
180
330
17B
100
AcDbEntity
  8
0
  6
Continuous
 62
     7
370
     0
100
AcDbLine
 10
59.3182096706
 20
136.6590945567
 30
0.0
 11
59.3182096706
 21
88.6590945567
 31
0.0
  0
LINE
  5
181
330
17B
100
AcDbEntity
  8
0
  6
Continuous
 62
     7
370
     0
100
AcDbLine
 10
98.3182096706
 20
136.6590945567
 30
0.0
 11
98.3182096706
 21
88.6590945567
 31
0.0
  0
LINE
  5
182
330
17B
100
AcDbEntity
  8
0
  6
Continuous
 62
     7
370
     0
100
AcDbLine
 10
59.3182096706
 20
89.6590945567
 30
0.0
 11
98.3182096706
 21
89.6590945567
 31
0.0
  0
MTEXT
  5
183
330
17B
100
AcDbEntity
  8
0
  6
Continuous
 62
     7
370
     0
100
AcDbMText
 10
76.7814041732
 20
94.170831413
 30
0.0
 40
3.5
 41
0.0
 71
     1
 72
     1
  1
39
  7
SLDTEXTSTYLE0
 73
     1
 44
1.0
  0
ENDBLK
  5
17D
330
17B
100
AcDbEntity
  8
0
100
AcDbBlockEnd
  0
BLOCK
  5
186
330
185
100
AcDbEntity
  8
0
100
AcDbBlockBegin
  2
_D_3
 70
     0
 10
0.0
 20
0.0
 30
0.0
  3
_D_3
  1

  0
SOLID
  5
188
330
185
100
AcDbEntity
  8
0
  6
Continuous
 62
     7
370
     0
100
AcDbTrace
 10
105.825696542
 20
137.6590945567
 30
0.0
 11
105.075696542
 21
134.6590945567
 31
0.0
 12
106.575696542
 22
134.6590945567
 32
0.0
 13
106.575696542
 23
134.6590945567
 33
0.0
  0
SOLID
  5
189
330
185
100
AcDbEntity
  8
0
  6
Continuous
 62
     7
370
     0
100
AcDbTrace
 10
105.825696542
 20
142.1590945567
 30
0.0
 11
106.575696542
 21
145.1590945567
 31
0.0
 12
105.075696542
 22
145.1590945567
 32
0.0
 13
105.075696542
 23
145.1590945567
 33
0.0
  0
LINE
  5
18A
330
185
100
AcDbEntity
  8
0
  6
Continuous
 62
     7
370
     0
100
AcDbLine
 10
99.3182096706
 20
137.6590945567
 30
0.0
 11
106.825696542
 21
137.6590945567
 31
0.0
  0
LINE
  5
18B
330
185
100
AcDbEntity
  8
0
  6
Continuous
 62
     7
370
     0
100
AcDbLine
 10
92.3182096706
 20
142.1590945567
 30
0.0
 11
106.825696542
 21
142.1590945567
 31
0.0
  0
LINE
  5
18C
330
185
100
AcDbEntity
  8
0
  6
Continuous
 62
     7
370
     0
100
AcDbLine
 10
105.825696542
 20
137.6590945567
 30
0.0
 11
105.825696542
 21
128.9062232535
 31
0.0
  0
LINE
  5
18D
330
185
100
AcDbEntity
  8
0
  6
Continuous
 62
     7
370
     0
100
AcDbLine
 10
105.825696542
 20
137.6590945567
 30
0.0
 11
105.825696542
 21
142.1590945567
 31
0.0
  0
LINE
  5
18E
330
185
100
AcDbEntity
  8
0
  6
Continuous
 62
     7
370
     0
100
AcDbLine
 10
105.825696542
 20
142.1590945567
 30
0.0
 11
105.825696542
 21
147.1590945567
 31
0.0
  0
MTEXT
  5
18F
330
185
100
AcDbEntity
  8
0
  6
Continuous
 62
     7
370
     0
100
AcDbMText
 10
101.3139596856
 20
128.9062232535
 30
0.0
 40
3.5
 41
0.0
 71
     1
 72
     1
  1
4.5
  7
SLDTEXTSTYLE0
 11
-1.059690869644414E-14
 21
1.0
 31
0.0
 73
     1
 44
1.0
  0
ENDBLK
  5
187
330
185
100
AcDbEntity
  8
0
100
AcDbBlockEnd
  0
BLOCK
  5
192
330
191
100
AcDbEntity
  8
0
100
AcDbBlockBegin
  2
_D_4
 70
     0
 10
0.0
 20
0.0
 30
0.0
  3
_D_4
  1

  0
SOLID
  5
194
330
191
100
AcDbEntity
  8
0
  6
Continuous
 62
     7
370
     0
100
AcDbTrace
 10
105.825696542
 20
142.1590945567
 30
0.0
 11
106.575696542
 21
145.1590945567
 31
0.0
 12
105.075696542
 22
145.1590945567
 32
0.0
 13
105.075696542
 23
145.1590945567
 33
0.0
  0
SOLID
  5
195
330
191
100
AcDbEntity
  8
0
  6
Continuous
 62
     7
370
     0
100
AcDbTrace
 10
105.825696542
 20
173.6590945567
 30
0.0
 11
105.075696542
 21
170.6590945567
 31
0.0
 12
106.575696542
 22
170.6590945567
 32
0.0
 13
106.575696542
 23
170.6590945567
 33
0.0
  0
LINE
  5
196
330
191
100
AcDbEntity
  8
0
  6
Continuous
 62
     7
370
     0
100
AcDbLine
 10
92.3182096706
 20
142.1590945567
 30
0.0
 11
106.825696542
 21
142.1590945567
 31
0.0
  0
LINE
  5
197
330
191
100
AcDbEntity
  8
0
  6
Continuous
 62
     7
370
     0
100
AcDbLine
 10
79.8182096706
 20
173.6590945567
 30
0.0
 11
106.825696542
 21
173.6590945567
 31
0.0
  0
LINE
  5
198
330
191
100
AcDbEntity
  8
0
  6
Continuous
 62
     7
370
     0
100
AcDbLine
 10
105.825696542
 20
142.1590945567
 30
0.0
 11
105.825696542
 21
173.6590945567
 31
0.0
  0
MTEXT
  5
199
330
191
100
AcDbEntity
  8
0
  6
Continuous
 62
     7
370
     0
100
AcDbMText
 10
101.3139596856
 20
153.8354835617
 30
0.0
 40
3.5
 41
0.0
 71
     1
 72
     1
  1
31.5
  7
SLDTEXTSTYLE0
 11
6.123233995736766E-17
 21
1.0
 31
0.0
 73
     1
 44
1.0
  0
ENDBLK
  5
193
330
191
100
AcDbEntity
  8
0
100
AcDbBlockEnd
  0
BLOCK
  5
19C
330
19B
100
AcDbEntity
  8
0
100
AcDbBlockBegin
  2
_D_5
 70
     0
 10
0.0
 20
0.0
 30
0.0
  3
_D_5
  1

  0
SOLID
  5
19E
330
19B
100
AcDbEntity
  8
0
  6
Continuous
 62
     7
370
     0
100
AcDbTrace
 10
113.7486577676
 20
191.0590945567
 30
0.0
 11
112.9986577676
 21
188.0590945567
 31
0.0
 12
114.4986577676
 22
188.0590945567
 32
0.0
 13
114.4986577676
 23
188.0590945567
 33
0.0
  0
SOLID
  5
19F
330
19B
100
AcDbEntity
  8
0
  6
Continuous
 62
     7
370
     0
100
AcDbTrace
 10
113.7486577676
 20
137.6590945567
 30
0.0
 11
114.4986577676
 21
140.6590945567
 31
0.0
 12
112.9986577676
 22
140.6590945567
 32
0.0
 13
112.9986577676
 23
140.6590945567
 33
0.0
  0
LINE
  5
1A0
330
19B
100
AcDbEntity
  8
0
  6
Continuous
 62
     7
370
     0
100
AcDbLine
 10
84.8182096706
 20
191.0590945567
 30
0.0
 11
114.7486577676
 21
191.0590945567
 31
0.0
  0
LINE
  5
1A1
330
19B
100
AcDbEntity
  8
0
  6
Continuous
 62
     7
370
     0
100
AcDbLine
 10
99.3182096706
 20
137.6590945567
 30
0.0
 11
114.7486577676
 21
137.6590945567
 31
0.0
  0
LINE
  5
1A2
330
19B
100
AcDbEntity
  8
0
  6
Continuous
 62
     7
370
     0
100
AcDbLine
 10
113.7486577676
 20
191.0590945567
 30
0.0
 11
113.7486577676
 21
137.6590945567
 31
0.0
  0
MTEXT
  5
1A3
330
19B
100
AcDbEntity
  8
0
  6
Continuous
 62
     7
370
     0
100
AcDbMText
 10
109.2369209113
 20
160.2854835617
 30
0.0
 40
3.5
 41
0.0
 71
     1
 72
     1
  1
53.4
  7
SLDTEXTSTYLE0
 11
-1.770233605404514E-14
 21
1.0
 31
0.0
 73
     1
 44
1.0
  0
ENDBLK
  5
19D
330
19B
100
AcDbEntity
  8
0
100
AcDbBlockEnd
  0
BLOCK
  5
1A6
330
1A5
100
AcDbEntity
  8
0
100
AcDbBlockBegin
  2
_D_6
 70
     0
 10
0.0
 20
0.0
 30
0.0
  3
_D_6
  1

  0
SOLID
  5
1A8
330
1A5
100
AcDbEntity
  8
0
  6
Continuous
 62
     7
370
     0
100
AcDbTrace
 10
113.7486577676
 20
137.6590945567
 30
0.0
 11
112.9986577676
 21
134.6590945567
 31
0.0
 12
114.4986577676
 22
134.6590945567
 32
0.0
 13
114.4986577676
 23
134.6590945567
 33
0.0
  0
SOLID
  5
1A9
330
1A5
100
AcDbEntity
  8
0
  6
Continuous
 62
     7
370
     0
100
AcDbTrace
 10
113.7486577676
 20
121.6590945567
 30
0.0
 11
114.4986577676
 21
124.6590945567
 31
0.0
 12
112.9986577676
 22
124.6590945567
 32
0.0
 13
112.9986577676
 23
124.6590945567
 33
0.0
  0
LINE
  5
1AA
330
1A5
100
AcDbEntity
  8
0
  6
Continuous
 62
     7
370
     0
100
AcDbLine
 10
99.3182096706
 20
137.6590945567
 30
0.0
 11
114.7486577676
 21
137.6590945567
 31
0.0
  0
LINE
  5
1AB
330
1A5
100
AcDbEntity
  8
0
  6
Continuous
 62
     7
370
     0
100
AcDbLine
 10
84.8182096706
 20
121.6590945567
 30
0.0
 11
114.7486577676
 21
121.6590945567
 31
0.0
  0
LINE
  5
1AC
330
1A5
100
AcDbEntity
  8
0
  6
Continuous
 62
     7
370
     0
100
AcDbLine
 10
113.7486577676
 20
137.6590945567
 30
0.0
 11
113.7486577676
 21
121.6590945567
 31
0.0
  0
MTEXT
  5
1AD
330
1A5
100
AcDbEntity
  8
0
  6
Continuous
 62
     7
370
     0
100
AcDbMText
 10
109.2369209113
 20
127.6222890592
 30
0.0
 40
3.5
 41
0.0
 71
     1
 72
     1
  1
16
  7
SLDTEXTSTYLE0
 11
-1.770233605404514E-14
 21
1.0
 31
0.0
 73
     1
 44
1.0
  0
ENDBLK
  5
1A7
330
1A5
100
AcDbEntity
  8
0
100
AcDbBlockEnd
  0
BLOCK
  5
1B0
330
1AF
100
AcDbEntity
  8
0
100
AcDbBlockBegin
  2
_D_7
 70
     0
 10
0.0
 20
0.0
 30
0.0
  3
_D_7
  1

  0
ARC
  5
1B2
330
1AF
100
AcDbEntity
  8
0
  6
Continuous
 62
     7
370
     0
100
AcDbCircle
 10
119.0858375941
 20
170.6187010816
 30
0.0
 40
4.554435549315966
100
AcDbArc
 50
243.4349488229
 51
296.5650511771
  0
ARC
  5
1B3
330
1AF
100
AcDbEntity
  8
0
  6
Continuous
 62
     7
370
     0
100
AcDbCircle
 10
119.0858375941
 20
168.5818958169
 30
0.0
 40
4.554435549315966
100
AcDbArc
 50
63.4349488229
 51
116.5650511771
  0
SOLID
  5
1B4
330
1AF
100
AcDbEntity
  8
0
  6
Continuous
 62
     7
370
     0
100
AcDbTrace
 10
121.1226430915
 20
111.6590945567
 30
0.0
 11
121.8726430915
 21
114.6590945567
 31
0.0
 12
120.3726430915
 22
114.6590945567
 32
0.0
 13
120.3726430915
 23
114.6590945567
 33
0.0
  0
SOLID
  5
1B5
330
1AF
100
AcDbEntity
  8
0
  6
Continuous
 62
     7
370
     0
100
AcDbTrace
 10
121.1226430915
 20
227.5415024583
 30
0.0
 11
120.3726430915
 21
224.5415024583
 31
0.0
 12
121.8726430915
 22
224.5415024583
 32
0.0
 13
121.8726430915
 23
224.5415024583
 33
0.0
  0
LINE
  5
1B6
330
1AF
100
AcDbEntity
  8
0
  6
Continuous
 62
     7
370
     0
100
AcDbLine
 10
81.3182096706
 20
111.6590945567
 30
0.0
 11
122.1226430915
 21
111.6590945567
 31
0.0
  0
LINE
  5
1B7
330
1AF
100
AcDbEntity
  8
0
  6
Continuous
 62
     7
370
     0
100
AcDbLine
 10
88.3394759117
 20
227.5415024583
 30
0.0
 11
122.1226430915
 21
227.5415024583
 31
0.0
  0
LINE
  5
1B8
330
1AF
100
AcDbEntity
  8
0
  6
Continuous
 62
     7
370
     0
100
AcDbLine
 10
121.1226430915
 20
111.6590945567
 30
0.0
 11
121.1226430915
 21
227.5415024583
 31
0.0
  0
MTEXT
  5
1B9
330
1AF
100
AcDbEntity
  8
0
  6
Continuous
 62
     7
370
     0
100
AcDbMText
 10
116.6109062352
 20
166.5450900866
 30
0.0
 40
3.5
 41
0.0
 71
     1
 72
     1
  1
116
  7
SLDTEXTSTYLE0
 11
6.123233995736766E-17
 21
1.0
 31
0.0
 73
     1
 44
1.0
  0
ENDBLK
  5
1B1
330
1AF
100
AcDbEntity
  8
0
100
AcDbBlockEnd
  0
BLOCK
  5
1BC
330
1BB
100
AcDbEntity
  8
0
100
AcDbBlockBegin
  2
_D_8
 70
     0
 10
0.0
 20
0.0
 30
0.0
  3
_D_8
  1

  0
ARC
  5
1BE
330
1BB
100
AcDbEntity
  8
0
  6
Continuous
 62
     7
370
     0
100
AcDbCircle
 10
80.8550151099
 20
243.0078650359
 30
0.0
 40
4.554435549315978
100
AcDbArc
 50
153.4349488229
 51
206.5650511771
  0
ARC
  5
1BF
330
1BB
100
AcDbEntity
  8
0
  6
Continuous
 62
     7
370
     0
100
AcDbCircle
 10
76.7814041149
 20
243.0078650359
 30
0.0
 40
4.554435549315966
100
AcDbArc
 50
333.4349488229
 51
26.5650511771
  0
SOLID
  5
1C0
330
1BB
100
AcDbEntity
  8
0
  6
Continuous
 62
     7
370
     0
100
AcDbTrace
 10
70.2969434295
 20
240.9710595384
 30
0.0
 11
73.2969434295
 21
240.2210595384
 31
0.0
 12
73.2969434295
 22
241.7210595384
 32
0.0
 13
73.2969434295
 23
241.7210595384
 33
0.0
  0
SOLID
  5
1C1
330
1BB
100
AcDbEntity
  8
0
  6
Continuous
 62
     7
370
     0
100
AcDbTrace
 10
87.3394759117
 20
240.9710595384
 30
0.0
 11
84.3394759117
 21
241.7210595384
 31
0.0
 12
84.3394759117
 22
240.2210595384
 32
0.0
 13
84.3394759117
 23
240.2210595384
 33
0.0
  0
LINE
  5
1C2
330
1BB
100
AcDbEntity
  8
0
  6
Continuous
 62
     7
370
     0
100
AcDbLine
 10
70.2969434295
 20
228.5415024583
 30
0.0
 11
70.2969434295
 21
241.9710595384
 31
0.0
  0
LINE
  5
1C3
330
1BB
100
AcDbEntity
  8
0
  6
Continuous
 62
     7
370
     0
100
AcDbLine
 10
87.3394759117
 20
228.5415024583
 30
0.0
 11
87.3394759117
 21
241.9710595384
 31
0.0
  0
LINE
  5
1C4
330
1BB
100
AcDbEntity
  8
0
  6
Continuous
 62
     7
370
     0
100
AcDbLine
 10
70.2969434295
 20
240.9710595384
 30
0.0
 11
87.3394759117
 21
240.9710595384
 31
0.0
  0
MTEXT
  5
1C5
330
1BB
100
AcDbEntity
  8
0
  6
Continuous
 62
     7
370
     0
100
AcDbMText
 10
76.7814041149
 20
245.4827963948
 30
0.0
 40
3.5
 41
0.0
 71
     1
 72
     1
  1
17
  7
SLDTEXTSTYLE0
 73
     1
 44
1.0
  0
ENDBLK
  5
1BD
330
1BB
100
AcDbEntity
  8
0
100
AcDbBlockEnd
  0
BLOCK
  5
1C9
330
1C8
100
AcDbEntity
  8
0
100
AcDbBlockBegin
  2
_D_9
 70
     0
 10
0.0
 20
0.0
 30
0.0
  3
_D_9
  1

  0
SOLID
  5
1CB
330
1C8
100
AcDbEntity
  8
0
  6
Continuous
 62
     7
370
     0
100
AcDbTrace
 10
64.7410030646
 20
144.0987902343
 30
0.0
 11
63.4302638406
 21
146.8995870292
 31
0.0
 12
62.266446434
 22
145.9532630656
 32
0.0
 13
62.266446434
 23
145.9532630656
 33
0.0
  0
LINE
  5
1CC
330
1C8
100
AcDbEntity
  8
0
  6
Continuous
 62
     7
370
     0
100
AcDbLine
 10
64.7410030646
 20
144.0987902343
 30
0.0
 11
56.8238966779
 21
153.8354835617
 31
0.0
  0
LINE
  5
1CD
330
1C8
100
AcDbEntity
  8
0
  6
Continuous
 62
     7
370
     0
100
AcDbLine
 10
56.8238966779
 20
153.8354835617
 30
0.0
 11
22.6475124435
 21
153.8354835617
 31
0.0
  0
MTEXT
  5
1CE
330
1C8
100
AcDbEntity
  8
0
  6
Continuous
 62
     7
370
     0
100
AcDbMText
 10
28.7579273061
 20
162.420831413
 30
0.0
 40
3.5
 41
0.0
 71
     1
 72
     1
  1
3-
  7
SLDTEXTSTYLE0
 73
     1
 44
1.0
  0
MTEXT
  5
1CF
330
1C8
100
AcDbEntity
  8
0
  6
Continuous
 62
     7
370
     0
100
AcDbMText
 10
32.8315383011
 20
162.420831413
 30
0.0
 40
3.5
 41
0.0
 71
     1
 72
     1
  1
M5
  7
SLDTEXTSTYLE0
 73
     1
 44
1.0
  0
MTEXT
  5
1D0
330
1C8
100
AcDbEntity
  8
0
  6
Continuous
 62
     7
370
     0
100
AcDbMText
 10
36.9051492961
 20
162.420831413
 30
0.0
 40
3.5
 41
0.0
 71
     1
 72
     1
  1
取付穴
  7
SLDTEXTSTYLE0
 73
     1
 44
1.0
  0
MTEXT
  5
1D1
330
1C8
100
AcDbEntity
  8
0
  6
Continuous
 62
     7
370
     0
100
AcDbMText
 10
22.6475124435
 20
158.3472204181
 30
0.0
 40
3.5
 41
0.0
 71
     1
 72
     1
  1
(両側口元面取有)
  7
SLDTEXTSTYLE0
 73
     1
 44
1.0
  0
ENDBLK
  5
1CA
330
1C8
100
AcDbEntity
  8
0
100
AcDbBlockEnd
  0
BLOCK
  5
1D3
330
1D2
100
AcDbEntity
  8
0
100
AcDbBlockBegin
  2
SW_NOTE_0
 70
     0
 10
0.0
 20
0.0
 30
0.0
  3
SW_NOTE_0
  1

  0
LINE
  5
1D5
330
1D2
100
AcDbEntity
  8
0
  6
Continuous
 62
     0
370
     0
100
AcDbLine
 10
-8.2682873652
 20
0.0
 30
0.0
 11
0.0
 21
0.0
 31
0.0
  0
MTEXT
  5
1D6
330
1D2
100
AcDbEntity
  8
0
  6
Continuous
 62
     0
370
     0
100
AcDbMText
 10
-8.7626521753
 20
4.5642063023
 30
0.0
 40
3.5
 41
0.0
 71
     1
 72
     1
  1
BF-5
  7
SLDTEXTSTYLE0
 73
     1
 44
1.0
  0
ENDBLK
  5
1D4
330
1D2
100
AcDbEntity
  8
0
100
AcDbBlockEnd
  0
BLOCK
  5
1DB
330
1DA
100
AcDbEntity
  8
0
100
AcDbBlockBegin
  2
SW_CENTERMARKSYMBOL_0
 70
     0
 10
0.0
 20
0.0
 30
0.0
  3
SW_CENTERMARKSYMBOL_0
  1

  0
LINE
  5
1DD
330
1DA
100
AcDbEntity
  8
0
  6
Continuous
 62
     0
370
     0
100
AcDbLine
 10
0.0
 20
0.0
 30
0.0
 11
0.0
 21
2.5
 31
0.0
  0
LINE
  5
1DE
330
1DA
100
AcDbEntity
  8
0
  6
Continuous
 62
     0
370
     0
100
AcDbLine
 10
0.0
 20
0.0
 30
0.0
 11
-2.5
 21
0.0
 31
0.0
  0
LINE
  5
1DF
330
1DA
100
AcDbEntity
  8
0
  6
Continuous
 62
     0
370
     0
100
AcDbLine
 10
0.0
 20
0.0
 30
0.0
 11
0.0
 21
-2.5
 31
0.0
  0
LINE
  5
1E0
330
1DA
100
AcDbEntity
  8
0
  6
Continuous
 62
     0
370
     0
100
AcDbLine
 10
0.0
 20
0.0
 30
0.0
 11
2.5
 21
0.0
 31
0.0
  0
LINE
  5
1E1
330
1DA
100
AcDbEntity
  8
0
  6
Continuous
 62
     0
370
     0
100
AcDbLine
 10
0.0
 20
2.5
 30
0.0
 11
0.0
 21
4.8
 31
0.0
  0
LINE
  5
1E2
330
1DA
100
AcDbEntity
  8
0
  6
Continuous
 62
     0
370
     0
100
AcDbLine
 10
-2.5
 20
0.0
 30
0.0
 11
-4.8
 21
0.0
 31
0.0
  0
LINE
  5
1E3
330
1DA
100
AcDbEntity
  8
0
  6
Continuous
 62
     0
370
     0
100
AcDbLine
 10
0.0
 20
-2.5
 30
0.0
 11
0.0
 21
-4.8
 31
0.0
  0
LINE
  5
1E4
330
1DA
100
AcDbEntity
  8
0
  6
Continuous
 62
     0
370
     0
100
AcDbLine
 10
2.5
 20
0.0
 30
0.0
 11
4.8
 21
0.0
 31
0.0
  0
ENDBLK
  5
1DC
330
1DA
100
AcDbEntity
  8
0
100
AcDbBlockEnd
  0
BLOCK
  5
1E7
330
1E6
100
AcDbEntity
  8
0
100
AcDbBlockBegin
  2
SW_CENTERMARKSYMBOL_1
 70
     0
 10
0.0
 20
0.0
 30
0.0
  3
SW_CENTERMARKSYMBOL_1
  1

  0
LINE
  5
1E9
330
1E6
100
AcDbEntity
  8
0
  6
Continuous
 62
     0
370
     0
100
AcDbLine
 10
0.0
 20
0.0
 30
0.0
 11
0.0
 21
2.5
 31
0.0
  0
LINE
  5
1EA
330
1E6
100
AcDbEntity
  8
0
  6
Continuous
 62
     0
370
     0
100
AcDbLine
 10
0.0
 20
0.0
 30
0.0
 11
-2.5
 21
0.0
 31
0.0
  0
LINE
  5
1EB
330
1E6
100
AcDbEntity
  8
0
  6
Continuous
 62
     0
370
     0
100
AcDbLine
 10
0.0
 20
0.0
 30
0.0
 11
0.0
 21
-2.5
 31
0.0
  0
LINE
  5
1EC
330
1E6
100
AcDbEntity
  8
0
  6
Continuous
 62
     0
370
     0
100
AcDbLine
 10
0.0
 20
0.0
 30
0.0
 11
2.5
 21
0.0
 31
0.0
  0
LINE
  5
1ED
330
1E6
100
AcDbEntity
  8
0
  6
Continuous
 62
     0
370
     0
100
AcDbLine
 10
0.0
 20
2.5
 30
0.0
 11
0.0
 21
4.6
 31
0.0
  0
LINE
  5
1EE
330
1E6
100
AcDbEntity
  8
0
  6
Continuous
 62
     0
370
     0
100
AcDbLine
 10
-2.5
 20
0.0
 30
0.0
 11
-4.6
 21
0.0
 31
0.0
  0
LINE
  5
1EF
330
1E6
100
AcDbEntity
  8
0
  6
Continuous
 62
     0
370
     0
100
AcDbLine
 10
0.0
 20
-2.5
 30
0.0
 11
0.0
 21
-4.6
 31
0.0
  0
LINE
  5
1F0
330
1E6
100
AcDbEntity
  8
0
  6
Continuous
 62
     0
370
     0
100
AcDbLine
 10
2.5
 20
0.0
 30
0.0
 11
4.6
 21
0.0
 31
0.0
  0
ENDBLK
  5
1E8
330
1E6
100
AcDbEntity
  8
0
100
AcDbBlockEnd
  0
BLOCK
  5
1F3
330
1F2
100
AcDbEntity
  8
0
100
AcDbBlockBegin
  2
SW_CENTERMARKSYMBOL_2
 70
     0
 10
0.0
 20
0.0
 30
0.0
  3
SW_CENTERMARKSYMBOL_2
  1

  0
LINE
  5
1F5
330
1F2
100
AcDbEntity
  8
0
  6
Continuous
 62
     0
370
     0
100
AcDbLine
 10
0.0
 20
0.0
 30
0.0
 11
0.0
 21
2.5
 31
0.0
  0
LINE
  5
1F6
330
1F2
100
AcDbEntity
  8
0
  6
Continuous
 62
     0
370
     0
100
AcDbLine
 10
0.0
 20
0.0
 30
0.0
 11
-2.5
 21
0.0
 31
0.0
  0
LINE
  5
1F7
330
1F2
100
AcDbEntity
  8
0
  6
Continuous
 62
     0
370
     0
100
AcDbLine
 10
0.0
 20
0.0
 30
0.0
 11
0.0
 21
-2.5
 31
0.0
  0
LINE
  5
1F8
330
1F2
100
AcDbEntity
  8
0
  6
Continuous
 62
     0
370
     0
100
AcDbLine
 10
0.0
 20
0.0
 30
0.0
 11
2.5
 21
0.0
 31
0.0
  0
LINE
  5
1F9
330
1F2
100
AcDbEntity
  8
0
  6
Continuous
 62
     0
370
     0
100
AcDbLine
 10
0.0
 20
2.5
 30
0.0
 11
0.0
 21
4.8
 31
0.0
  0
LINE
  5
1FA
330
1F2
100
AcDbEntity
  8
0
  6
Continuous
 62
     0
370
     0
100
AcDbLine
 10
-2.5
 20
0.0
 30
0.0
 11
-4.8
 21
0.0
 31
0.0
  0
LINE
  5
1FB
330
1F2
100
AcDbEntity
  8
0
  6
Continuous
 62
     0
370
     0
100
AcDbLine
 10
0.0
 20
-2.5
 30
0.0
 11
0.0
 21
-4.8
 31
0.0
  0
LINE
  5
1FC
330
1F2
100
AcDbEntity
  8
0
  6
Continuous
 62
     0
370
     0
100
AcDbLine
 10
2.5
 20
0.0
 30
0.0
 11
4.8
 21
0.0
 31
0.0
  0
ENDBLK
  5
1F4
330
1F2
100
AcDbEntity
  8
0
100
AcDbBlockEnd
  0
BLOCK
  5
1FF
330
1FE
100
AcDbEntity
  8
0
100
AcDbBlockBegin
  2
SW_CENTERMARKSYMBOL_3
 70
     0
 10
0.0
 20
0.0
 30
0.0
  3
SW_CENTERMARKSYMBOL_3
  1

  0
LINE
  5
201
330
1FE
100
AcDbEntity
  8
0
  6
Continuous
 62
     0
370
     0
100
AcDbLine
 10
0.0
 20
0.0
 30
0.0
 11
0.0
 21
2.5
 31
0.0
  0
LINE
  5
202
330
1FE
100
AcDbEntity
  8
0
  6
Continuous
 62
     0
370
     0
100
AcDbLine
 10
0.0
 20
0.0
 30
0.0
 11
-2.5
 21
0.0
 31
0.0
  0
LINE
  5
203
330
1FE
100
AcDbEntity
  8
0
  6
Continuous
 62
     0
370
     0
100
AcDbLine
 10
0.0
 20
0.0
 30
0.0
 11
0.0
 21
-2.5
 31
0.0
  0
LINE
  5
204
330
1FE
100
AcDbEntity
  8
0
  6
Continuous
 62
     0
370
     0
100
AcDbLine
 10
0.0
 20
0.0
 30
0.0
 11
2.5
 21
0.0
 31
0.0
  0
LINE
  5
205
330
1FE
100
AcDbEntity
  8
0
  6
Continuous
 62
     0
370
     0
100
AcDbLine
 10
0.0
 20
5.0
 30
0.0
 11
0.0
 21
5.125
 31
0.0
  0
LINE
  5
206
330
1FE
100
AcDbEntity
  8
0
  6
Continuous
 62
     0
370
     0
100
AcDbLine
 10
-5.0
 20
0.0
 30
0.0
 11
-5.125
 21
0.0
 31
0.0
  0
LINE
  5
207
330
1FE
100
AcDbEntity
  8
0
  6
Continuous
 62
     0
370
     0
100
AcDbLine
 10
0.0
 20
-5.0
 30
0.0
 11
0.0
 21
-5.125
 31
0.0
  0
LINE
  5
208
330
1FE
100
AcDbEntity
  8
0
  6
Continuous
 62
     0
370
     0
100
AcDbLine
 10
5.0
 20
0.0
 30
0.0
 11
5.125
 21
0.0
 31
0.0
  0
ENDBLK
  5
200
330
1FE
100
AcDbEntity
  8
0
100
AcDbBlockEnd
  0
BLOCK
  5
20B
330
20A
100
AcDbEntity
  8
0
100
AcDbBlockBegin
  2
SW_CENTERMARKSYMBOL_4
 70
     0
 10
0.0
 20
0.0
 30
0.0
  3
SW_CENTERMARKSYMBOL_4
  1

  0
LINE
  5
20D
330
20A
100
AcDbEntity
  8
0
  6
Continuous
 62
     0
370
     0
100
AcDbLine
 10
0.0
 20
0.0
 30
0.0
 11
0.0
 21
2.5
 31
0.0
  0
LINE
  5
20E
330
20A
100
AcDbEntity
  8
0
  6
Continuous
 62
     0
370
     0
100
AcDbLine
 10
0.0
 20
0.0
 30
0.0
 11
-2.5
 21
0.0
 31
0.0
  0
LINE
  5
20F
330
20A
100
AcDbEntity
  8
0
  6
Continuous
 62
     0
370
     0
100
AcDbLine
 10
0.0
 20
0.0
 30
0.0
 11
0.0
 21
-2.5
 31
0.0
  0
LINE
  5
210
330
20A
100
AcDbEntity
  8
0
  6
Continuous
 62
     0
370
     0
100
AcDbLine
 10
0.0
 20
0.0
 30
0.0
 11
2.5
 21
0.0
 31
0.0
  0
LINE
  5
211
330
20A
100
AcDbEntity
  8
0
  6
Continuous
 62
     0
370
     0
100
AcDbLine
 10
0.0
 20
5.0
 30
0.0
 11
0.0
 21
5.125
 31
0.0
  0
LINE
  5
212
330
20A
100
AcDbEntity
  8
0
  6
Continuous
 62
     0
370
     0
100
AcDbLine
 10
-5.0
 20
0.0
 30
0.0
 11
-5.125
 21
0.0
 31
0.0
  0
LINE
  5
213
330
20A
100
AcDbEntity
  8
0
  6
Continuous
 62
     0
370
     0
100
AcDbLine
 10
0.0
 20
-5.0
 30
0.0
 11
0.0
 21
-5.125
 31
0.0
  0
LINE
  5
214
330
20A
100
AcDbEntity
  8
0
  6
Continuous
 62
     0
370
     0
100
AcDbLine
 10
5.0
 20
0.0
 30
0.0
 11
5.125
 21
0.0
 31
0.0
  0
ENDBLK
  5
20C
330
20A
100
AcDbEntity
  8
0
100
AcDbBlockEnd
  0
BLOCK
  5
29F
330
29E
100
AcDbEntity
  8
0
100
AcDbBlockBegin
  2
_D_10
 70
     0
 10
0.0
 20
0.0
 30
0.0
  3
_D_10
  1

  0
ARC
  5
2A1
330
29E
100
AcDbEntity
  8
0
  6
Continuous
 62
     7
370
     0
100
AcDbCircle
 10
86.3970167555
 20
42.9178502736
 30
0.0
 40
4.554435549315969
100
AcDbArc
 50
153.4349488229
 51
206.5650511771
  0
ARC
  5
2A2
330
29E
100
AcDbEntity
  8
0
  6
Continuous
 62
     7
370
     0
100
AcDbCircle
 10
82.3234057605
 20
42.9178502736
 30
0.0
 40
4.554435549315969
100
AcDbArc
 50
333.4349488229
 51
26.5650511771
  0
SOLID
  5
2A3
330
29E
100
AcDbEntity
  8
0
  6
Continuous
 62
     7
370
     0
100
AcDbTrace
 10
57.6045571973
 20
40.8810447761
 30
0.0
 11
60.6045571973
 21
40.1310447761
 31
0.0
 12
60.6045571973
 22
41.6310447761
 32
0.0
 13
60.6045571973
 23
41.6310447761
 33
0.0
  0
SOLID
  5
2A4
330
29E
100
AcDbEntity
  8
0
  6
Continuous
 62
     7
370
     0
100
AcDbTrace
 10
111.1158654351
 20
40.8810447761
 30
0.0
 11
108.1158654351
 21
41.6310447761
 31
0.0
 12
108.1158654351
 22
40.1310447761
 32
0.0
 13
108.1158654351
 23
40.1310447761
 33
0.0
  0
LINE
  5
2A5
330
29E
100
AcDbEntity
  8
0
  6
Continuous
 62
     7
370
     0
100
AcDbLine
 10
57.6045571973
 20
65.8810447761
 30
0.0
 11
57.6045571973
 21
39.8810447761
 31
0.0
  0
LINE
  5
2A6
330
29E
100
AcDbEntity
  8
0
  6
Continuous
 62
     7
370
     0
100
AcDbLine
 10
111.1158654351
 20
66.3810447761
 30
0.0
 11
111.1158654351
 21
39.8810447761
 31
0.0
  0
LINE
  5
2A7
330
29E
100
AcDbEntity
  8
0
  6
Continuous
 62
     7
370
     0
100
AcDbLine
 10
57.6045571973
 20
40.8810447761
 30
0.0
 11
111.1158654351
 21
40.8810447761
 31
0.0
  0
MTEXT
  5
2A8
330
29E
100
AcDbEntity
  8
0
  6
Continuous
 62
     7
370
     0
100
AcDbMText
 10
82.3234057605
 20
45.3927816325
 30
0.0
 40
3.5
 41
0.0
 71
     1
 72
     1
  1
54
  7
SLDTEXTSTYLE0
 73
     1
 44
1.0
  0
ENDBLK
  5
2A0
330
29E
100
AcDbEntity
  8
0
100
AcDbBlockEnd
  0
BLOCK
  5
2AB
330
2AA
100
AcDbEntity
  8
0
100
AcDbBlockBegin
  2
_D_11
 70
     0
 10
0.0
 20
0.0
 30
0.0
  3
_D_11
  1

  0
ARC
  5
2AD
330
2AA
100
AcDbEntity
  8
0
  6
Continuous
 62
     7
370
     0
100
AcDbCircle
 10
68.2113833758
 20
53.9117590265
 30
0.0
 40
4.554435549315966
100
AcDbArc
 50
153.4349488229
 51
206.5650511771
  0
ARC
  5
2AE
330
2AA
100
AcDbEntity
  8
0
  6
Continuous
 62
     7
370
     0
100
AcDbCircle
 10
68.2113833758
 20
53.9117590265
 30
0.0
 40
4.554435549315966
100
AcDbArc
 50
333.4349488229
 51
26.5650511771
  0
SOLID
  5
2AF
330
2AA
100
AcDbEntity
  8
0
  6
Continuous
 62
     7
370
     0
100
AcDbTrace
 10
57.6045571973
 20
51.874953529
 30
0.0
 11
60.6045571973
 21
51.124953529
 31
0.0
 12
60.6045571973
 22
52.624953529
 32
0.0
 13
60.6045571973
 23
52.624953529
 33
0.0
  0
SOLID
  5
2B0
330
2AA
100
AcDbEntity
  8
0
  6
Continuous
 62
     7
370
     0
100
AcDbTrace
 10
78.8182096706
 20
51.874953529
 30
0.0
 11
75.8182096706
 21
52.624953529
 31
0.0
 12
75.8182096706
 22
51.124953529
 32
0.0
 13
75.8182096706
 23
51.124953529
 33
0.0
  0
LINE
  5
2B1
330
2AA
100
AcDbEntity
  8
0
  6
Continuous
 62
     7
370
     0
100
AcDbLine
 10
57.6045571973
 20
65.8810447761
 30
0.0
 11
57.6045571973
 21
50.874953529
 31
0.0
  0
LINE
  5
2B2
330
2AA
100
AcDbEntity
  8
0
  6
Continuous
 62
     7
370
     0
100
AcDbLine
 10
78.8182096706
 20
69.8810447761
 30
0.0
 11
78.8182096706
 21
50.874953529
 31
0.0
  0
LINE
  5
2B3
330
2AA
100
AcDbEntity
  8
0
  6
Continuous
 62
     7
370
     0
100
AcDbLine
 10
57.6045571973
 20
51.874953529
 30
0.0
 11
78.8182096706
 21
51.874953529
 31
0.0
  0
MTEXT
  5
2B4
330
2AA
100
AcDbEntity
  8
0
  6
Continuous
 62
     7
370
     0
100
AcDbMText
 10
64.1377723808
 20
56.3866903853
 30
0.0
 40
3.5
 41
0.0
 71
     1
 72
     1
  1
21.5
  7
SLDTEXTSTYLE0
 73
     1
 44
1.0
  0
ENDBLK
  5
2AC
330
2AA
100
AcDbEntity
  8
0
100
AcDbBlockEnd
  0
BLOCK
  5
2B6
330
2B5
100
AcDbEntity
  8
0
100
AcDbBlockBegin
  2
SW_CENTERMARKSYMBOL_5
 70
     0
 10
0.0
 20
0.0
 30
0.0
  3
SW_CENTERMARKSYMBOL_5
  1

  0
LINE
  5
2B8
330
2B5
100
AcDbEntity
  8
0
  6
Continuous
 62
     0
370
     0
100
AcDbLine
 10
0.0
 20
0.0
 30
0.0
 11
0.0
 21
2.5
 31
0.0
  0
LINE
  5
2B9
330
2B5
100
AcDbEntity
  8
0
  6
Continuous
 62
     0
370
     0
100
AcDbLine
 10
0.0
 20
0.0
 30
0.0
 11
-2.5
 21
0.0
 31
0.0
  0
LINE
  5
2BA
330
2B5
100
AcDbEntity
  8
0
  6
Continuous
 62
     0
370
     0
100
AcDbLine
 10
0.0
 20
0.0
 30
0.0
 11
0.0
 21
-2.5
 31
0.0
  0
LINE
  5
2BB
330
2B5
100
AcDbEntity
  8
0
  6
Continuous
 62
     0
370
     0
100
AcDbLine
 10
0.0
 20
0.0
 30
0.0
 11
2.5
 21
0.0
 31
0.0
  0
LINE
  5
2BC
330
2B5
100
AcDbEntity
  8
0
  6
Continuous
 62
     0
370
     0
100
AcDbLine
 10
0.0
 20
5.0
 30
0.0
 11
0.0
 21
7.5
 31
0.0
  0
LINE
  5
2BD
330
2B5
100
AcDbEntity
  8
0
  6
Continuous
 62
     0
370
     0
100
AcDbLine
 10
-5.0
 20
0.0
 30
0.0
 11
-7.5
 21
0.0
 31
0.0
  0
LINE
  5
2BE
330
2B5
100
AcDbEntity
  8
0
  6
Continuous
 62
     0
370
     0
100
AcDbLine
 10
0.0
 20
-5.0
 30
0.0
 11
0.0
 21
-7.5
 31
0.0
  0
LINE
  5
2BF
330
2B5
100
AcDbEntity
  8
0
  6
Continuous
 62
     0
370
     0
100
AcDbLine
 10
5.0
 20
0.0
 30
0.0
 11
7.5
 21
0.0
 31
0.0
  0
ENDBLK
  5
2B7
330
2B5
100
AcDbEntity
  8
0
100
AcDbBlockEnd
  0
BLOCK
  5
3C5
330
3C4
100
AcDbEntity
  8
0
100
AcDbBlockBegin
  2
_D_12
 70
     0
 10
0.0
 20
0.0
 30
0.0
  3
_D_12
  1

  0
SOLID
  5
3C7
330
3C4
100
AcDbEntity
  8
0
  6
Continuous
 62
     7
370
     0
100
AcDbTrace
 10
159.5771076071
 20
241.9410570827
 30
0.0
 11
162.5771076071
 21
241.1910570827
 31
0.0
 12
162.5771076071
 22
242.6910570827
 32
0.0
 13
162.5771076071
 23
242.6910570827
 33
0.0
  0
SOLID
  5
3C8
330
3C4
100
AcDbEntity
  8
0
  6
Continuous
 62
     7
370
     0
100
AcDbTrace
 10
151.5771076071
 20
241.9410570827
 30
0.0
 11
148.5771076071
 21
242.6910570827
 31
0.0
 12
148.5771076071
 22
241.1910570827
 32
0.0
 13
148.5771076071
 23
241.1910570827
 33
0.0
  0
LINE
  5
3C9
330
3C4
100
AcDbEntity
  8
0
  6
Continuous
 62
     7
370
     0
100
AcDbLine
 10
159.5771076071
 20
228.5415024583
 30
0.0
 11
159.5771076071
 21
242.9410570827
 31
0.0
  0
LINE
  5
3CA
330
3C4
100
AcDbEntity
  8
0
  6
Continuous
 62
     7
370
     0
100
AcDbLine
 10
151.5771076071
 20
228.5415024583
 30
0.0
 11
151.5771076071
 21
242.9410570827
 31
0.0
  0
LINE
  5
3CB
330
3C4
100
AcDbEntity
  8
0
  6
Continuous
 62
     7
370
     0
100
AcDbLine
 10
159.5771076071
 20
241.9410570827
 30
0.0
 11
164.5771076071
 21
241.9410570827
 31
0.0
  0
LINE
  5
3CC
330
3C4
100
AcDbEntity
  8
0
  6
Continuous
 62
     7
370
     0
100
AcDbLine
 10
159.5771076071
 20
241.9410570827
 30
0.0
 11
151.5771076071
 21
241.9410570827
 31
0.0
  0
LINE
  5
3CD
330
3C4
100
AcDbEntity
  8
0
  6
Continuous
 62
     7
370
     0
100
AcDbLine
 10
151.5771076071
 20
241.9410570827
 30
0.0
 11
146.5771076071
 21
241.9410570827
 31
0.0
  0
MTEXT
  5
3CE
330
3C4
100
AcDbEntity
  8
0
  6
Continuous
 62
     7
370
     0
100
AcDbMText
 10
154.5587048584
 20
246.4527939391
 30
0.0
 40
3.5
 41
0.0
 71
     1
 72
     1
  1
8
  7
SLDTEXTSTYLE0
 73
     1
 44
1.0
  0
ENDBLK
  5
3C6
330
3C4
100
AcDbEntity
  8
0
100
AcDbBlockEnd
  0
BLOCK
  5
3D1
330
3D0
100
AcDbEntity
  8
0
100
AcDbBlockBegin
  2
_D_13
 70
     0
 10
0.0
 20
0.0
 30
0.0
  3
_D_13
  1

  0
SOLID
  5
3D3
330
3D0
100
AcDbEntity
  8
0
  6
Continuous
 62
     7
370
     0
100
AcDbTrace
 10
147.5771076071
 20
89.6590945567
 30
0.0
 11
150.5771076071
 21
88.9090945567
 31
0.0
 12
150.5771076071
 22
90.4090945567
 32
0.0
 13
150.5771076071
 23
90.4090945567
 33
0.0
  0
SOLID
  5
3D4
330
3D0
100
AcDbEntity
  8
0
  6
Continuous
 62
     7
370
     0
100
AcDbTrace
 10
163.5771076071
 20
89.6590945567
 30
0.0
 11
160.5771076071
 21
90.4090945567
 31
0.0
 12
160.5771076071
 22
88.9090945567
 32
0.0
 13
160.5771076071
 23
88.9090945567
 33
0.0
  0
LINE
  5
3D5
330
3D0
100
AcDbEntity
  8
0
  6
Continuous
 62
     7
370
     0
100
AcDbLine
 10
147.5771076071
 20
136.6590945567
 30
0.0
 11
147.5771076071
 21
88.6590945567
 31
0.0
  0
LINE
  5
3D6
330
3D0
100
AcDbEntity
  8
0
  6
Continuous
 62
     7
370
     0
100
AcDbLine
 10
163.5771076071
 20
136.6590945567
 30
0.0
 11
163.5771076071
 21
88.6590945567
 31
0.0
  0
LINE
  5
3D7
330
3D0
100
AcDbEntity
  8
0
  6
Continuous
 62
     7
370
     0
100
AcDbLine
 10
147.5771076071
 20
89.6590945567
 30
0.0
 11
163.5771076071
 21
89.6590945567
 31
0.0
  0
MTEXT
  5
3D8
330
3D0
100
AcDbEntity
  8
0
  6
Continuous
 62
     7
370
     0
100
AcDbMText
 10
153.5403021096
 20
94.170831413
 30
0.0
 40
3.5
 41
0.0
 71
     1
 72
     1
  1
16
  7
SLDTEXTSTYLE0
 73
     1
 44
1.0
  0
ENDBLK
  5
3D2
330
3D0
100
AcDbEntity
  8
0
100
AcDbBlockEnd
  0
ENDSEC
  0
SECTION
  2
ENTITIES
  0
LINE
  5
73
330
1F
100
AcDbEntity
  8
0
  6
Continuous
 62
     7
370
     0
100
AcDbLine
 10
20.2604743903
 20
285.0
 30
0.0
 11
196.7604743903
 21
285.0
 31
0.0
  0
LINE
  5
74
330
1F
100
AcDbEntity
  8
0
  6
Continuous
 62
     7
370
     0
100
AcDbLine
 10
20.2604743903
 20
285.0
 30
0.0
 11
20.2604743903
 21
10.0
 31
0.0
  0
LINE
  5
75
330
1F
100
AcDbEntity
  8
0
  6
Continuous
 62
     7
370
     0
100
AcDbLine
 10
20.2604743903
 20
10.0
 30
0.0
 11
196.7604743903
 21
10.0
 31
0.0
  0
LINE
  5
76
330
1F
100
AcDbEntity
  8
0
  6
Continuous
 62
     7
370
     0
100
AcDbLine
 10
196.7604743903
 20
285.0
 30
0.0
 11
196.7604743903
 21
10.0
 31
0.0
  0
LINE
  5
77
330
1F
100
AcDbEntity
  8
0
  6
Continuous
 62
     7
370
     0
100
AcDbLine
 10
127.0104743903
 20
50.75
 30
0.0
 11
196.7604743903
 21
50.75
 31
0.0
  0
LINE
  5
78
330
1F
100
AcDbEntity
  8
0
  6
Continuous
 62
     7
370
     0
100
AcDbLine
 10
127.0104743903
 20
50.75
 30
0.0
 11
127.0104743903
 21
10.0
 31
0.0
  0
LINE
  5
79
330
1F
100
AcDbEntity
  8
0
  6
Continuous
 62
     7
370
     0
100
AcDbLine
 10
127.0104743903
 20
22.75
 30
0.0
 11
196.7604743903
 21
22.75
 31
0.0
  0
LINE
  5
7A
330
1F
100
AcDbEntity
  8
0
  6
Continuous
 62
     7
370
     0
100
AcDbLine
 10
127.0104743903
 20
36.75
 30
0.0
 11
196.7604743903
 21
36.75
 31
0.0
  0
MTEXT
  5
7C
330
1F
100
AcDbEntity
  8
0
  6
Continuous
 62
     7
370
     0
100
AcDbMText
 10
161.4023601819
 20
30.4171582345
 30
0.0
 40
4.2333333333
 41
0.0
 71
     2
 72
     1
  1
CHK-EL1-12-C1
  7
SLDTEXTSTYLE0
 73
     1
 44
1.0
  0
MTEXT
  5
7D
330
1F
100
AcDbEntity
  8
0
  6
Continuous
 62
     7
370
     0
100
AcDbMText
 10
158.7371128328
 20
45.4693677693
 30
0.0
 40
3.7041666667
 41
0.0
 71
     2
 72
     1
  1
ランナーチャックEL(リミットSW付)
  7
SLDTEXTSTYLE0
 73
     1
 44
1.0
  0
MTEXT
  5
7E
330
1F
100
AcDbEntity
  8
0
  6
Continuous
 62
     7
370
     0
100
AcDbMText
 10
162.4947503009
 20
16.8228189052
 30
0.0
 40
4.2333333333
 41
0.0
 71
     2
 72
     1
  1
023006
  7
SLDTEXTSTYLE0
 73
     1
 44
1.0
  0
LINE
  5
7F
330
1F
100
AcDbEntity
  8
0
  6
Continuous
 62
     7
370
     0
100
AcDbLine
 10
72.8182095948
 20
122.6590944785
 30
0.0
 11
73.8182097588
 21
121.6590961772
 31
0.0
  0
LINE
  5
80
330
1F
100
AcDbEntity
  8
0
  6
Continuous
 62
     7
370
     0
100
AcDbLine
 10
83.8182095352
 20
121.6590961772
 30
0.0
 11
84.8182096992
 21
122.6590944785
 31
0.0
  0
LINE
  5
81
330
1F
100
AcDbEntity
  8
0
  6
Continuous
 62
     7
370
     0
100
AcDbLine
 10
72.8182095948
 20
137.6590950745
 30
0.0
 11
72.8182095948
 21
122.6590944785
 31
0.0
  0
LINE
  5
82
330
1F
100
AcDbEntity
  8
0
  6
Continuous
 62
     7
370
     0
100
AcDbLine
 10
84.8182096992
 20
122.6590944785
 30
0.0
 11
84.8182096992
 21
137.6590950745
 31
0.0
  0
LINE
  5
83
330
1F
100
AcDbEntity
  8
0
  6
Continuous
 62
     7
370
     0
100
AcDbLine
 10
77.0182096779
 20
116.159096207
 30
0.0
 11
77.2182096874
 21
114.1590958792
 31
0.0
  0
LINE
  5
84
330
1F
100
AcDbEntity
  8
0
  6
Continuous
 62
     7
370
     0
100
AcDbLine
 10
80.418209723
 20
114.1590958792
 30
0.0
 11
80.6182096161
 21
116.159096207
 31
0.0
  0
LINE
  5
85
330
1F
100
AcDbEntity
  8
0
  6
Continuous
 62
     7
370
     0
100
AcDbLine
 10
80.6182096161
 20
116.159096207
 30
0.0
 11
80.6182096161
 21
116.659093495
 31
0.0
  0
LINE
  5
86
330
1F
100
AcDbEntity
  8
0
  6
Continuous
 62
     7
370
     0
100
AcDbLine
 10
77.0182096779
 20
116.659093495
 30
0.0
 11
77.0182096779
 21
116.159096207
 31
0.0
  0
LINE
  5
87
330
1F
100
AcDbEntity
  8
0
  6
Continuous
 62
     7
370
     0
100
AcDbLine
 10
77.0182096779
 20
113.6590948659
 30
0.0
 11
77.3182096922
 21
111.6590945381
 31
0.0
  0
LINE
  5
88
330
1F
100
AcDbEntity
  8
0
  6
Continuous
 62
     7
370
     0
100
AcDbLine
 10
80.31820966
 20
111.6590945381
 30
0.0
 11
80.6182096161
 21
113.6590948659
 31
0.0
  0
LINE
  5
89
330
1F
100
AcDbEntity
  8
0
  6
Continuous
 62
     7
370
     0
100
AcDbLine
 10
80.6182096161
 20
113.6590948659
 30
0.0
 11
80.6182096161
 21
114.1590958792
 31
0.0
  0
LINE
  5
8A
330
1F
100
AcDbEntity
  8
0
  6
Continuous
 62
     7
370
     0
100
AcDbLine
 10
77.0182096779
 20
114.1590958792
 30
0.0
 11
77.0182096779
 21
113.6590948659
 31
0.0
  0
LINE
  5
8B
330
1F
100
AcDbEntity
  8
0
  6
Continuous
 62
     7
370
     0
100
AcDbLine
 10
80.418209723
 20
116.659093495
 30
0.0
 11
80.418209723
 21
118.6590938228
 31
0.0
  0
LINE
  5
8C
330
1F
100
AcDbEntity
  8
0
  6
Continuous
 62
     7
370
     0
100
AcDbLine
 10
77.2182096874
 20
118.6590938228
 30
0.0
 11
77.2182096874
 21
116.659093495
 31
0.0
  0
LINE
  5
8D
330
1F
100
AcDbEntity
  8
0
  6
Continuous
 62
     7
370
     0
100
AcDbLine
 10
96.7547378417
 20
221.974160369
 30
0.0
 11
96.5574390169
 21
222.0069131213
 31
0.0
  0
LWPOLYLINE
  5
8E
330
1F
100
AcDbEntity
  8
0
  6
Continuous
 62
     7
370
     0
100
AcDbPolyline
 90
        3
 70
   128
 43
0.0
 10
95.8196229216
 20
218.7842389899
 10
95.8170226689
 20
218.7451234418
 10
95.8176988091
 20
218.7338805157
  0
ARC
  5
8F
330
1F
100
AcDbEntity
  8
0
  6
Continuous
 62
     7
370
     0
100
AcDbCircle
 10
96.5246807528
 20
221.8096169022
 30
0.0
 40
0.200000000000017
100
AcDbArc
 50
80.572860308
 51
170.572860308
  0
LINE
  5
90
330
1F
100
AcDbEntity
  8
0
  6
Continuous
 62
     7
370
     0
100
AcDbLine
 10
96.3110017504
 20
221.7437288123
 30
0.0
 11
95.5218064513
 21
221.8747621733
 31
0.0
  0
LINE
  5
91
330
1F
100
AcDbEntity
  8
0
  6
Continuous
 62
     7
370
     0
100
AcDbLine
 10
95.0468058612
 20
219.0139254886
 30
0.0
 11
95.8360011604
 21
218.8828921276
 31
0.0
  0
LINE
  5
92
330
1F
100
AcDbEntity
  8
0
  6
Continuous
 62
     7
370
     0
100
AcDbLine
 10
105.7832471009
 20
203.69853064
 30
0.0
 11
105.5866951968
 21
202.5147376913
 31
0.0
  0
LINE
  5
93
330
1F
100
AcDbEntity
  8
0
  6
Continuous
 62
     7
370
     0
100
AcDbLine
 10
106.9677869703
 20
202.2854274469
 30
0.0
 11
107.1643388744
 21
203.4692203957
 31
0.0
  0
LINE
  5
94
330
1F
100
AcDbEntity
  8
0
  6
Continuous
 62
     7
370
     0
100
AcDbLine
 10
103.8102569904
 20
204.0261177677
 30
0.0
 11
103.6137050863
 21
202.8423248189
 31
0.0
  0
LINE
  5
95
330
1F
100
AcDbEntity
  8
0
  6
Continuous
 62
     7
370
     0
100
AcDbLine
 10
104.9947987225
 20
202.6130108493
 30
0.0
 11
105.1913506266
 21
203.7968075233
 31
0.0
  0
LINE
  5
96
330
1F
100
AcDbEntity
  8
0
  6
Continuous
 62
     7
370
     0
100
AcDbLine
 10
105.9319681402
 20
202.4574091989
 30
0.0
 11
105.1130021836
 21
197.5249348539
 31
0.0
  0
LINE
  5
97
330
1F
100
AcDbEntity
  8
0
  6
Continuous
 62
     7
370
     0
100
AcDbLine
 10
105.8035480704
 20
197.4102815944
 30
0.0
 11
106.622514027
 21
202.342752214
 31
0.0
  0
LINE
  5
98
330
1F
100
AcDbEntity
  8
0
  6
Continuous
 62
     7
370
     0
100
AcDbLine
 10
103.9589780297
 20
202.7849963265
 30
0.0
 11
103.1400120731
 21
197.8525219816
 31
0.0
  0
LINE
  5
99
330
1F
100
AcDbEntity
  8
0
  6
Continuous
 62
     7
370
     0
100
AcDbLine
 10
103.8305579599
 20
197.7378649968
 30
0.0
 11
104.6495239165
 21
202.6703393417
 31
0.0
  0
LINE
  5
9A
330
1F
100
AcDbEntity
  8
0
  6
Continuous
 62
     7
370
     0
100
AcDbLine
 10
97.3182103511
 20
137.6590950745
 30
0.0
 11
97.3182103511
 21
185.6590936291
 31
0.0
  0
LINE
  5
9B
330
1F
100
AcDbEntity
  8
0
  6
Continuous
 62
     7
370
     0
100
AcDbLine
 10
60.3182098742
 20
185.6590936291
 30
0.0
 11
60.3182098742
 21
137.6590950745
 31
0.0
  0
LINE
  5
9C
330
1F
100
AcDbEntity
  8
0
  6
Continuous
 62
     7
370
     0
100
AcDbLine
 10
62.7182095226
 20
188.0590951401
 30
0.0
 11
60.3182098742
 21
185.6590936291
 31
0.0
  0
LINE
  5
9D
330
1F
100
AcDbEntity
  8
0
  6
Continuous
 62
     7
370
     0
100
AcDbLine
 10
94.9182088401
 20
188.0590951401
 30
0.0
 11
62.7182095226
 21
188.0590951401
 31
0.0
  0
LINE
  5
9E
330
1F
100
AcDbEntity
  8
0
  6
Continuous
 62
     7
370
     0
100
AcDbLine
 10
97.3182103511
 20
185.6590936291
 30
0.0
 11
94.9182088401
 21
188.0590951401
 31
0.0
  0
CIRCLE
  5
9F
330
1F
100
AcDbEntity
  8
0
  6
Continuous
 62
     7
370
     0
100
AcDbCircle
 10
65.3182096706
 20
178.1590945567
 30
0.0
 40
2.299999999999983
  0
CIRCLE
  5
A0
330
1F
100
AcDbEntity
  8
0
  6
Continuous
 62
     7
370
     0
100
AcDbCircle
 10
92.3182096706
 20
178.1590945567
 30
0.0
 40
2.299999999999983
  0
CIRCLE
  5
A1
330
1F
100
AcDbEntity
  8
0
  6
Continuous
 62
     7
370
     0
100
AcDbCircle
 10
78.8182096706
 20
173.6590945567
 30
0.0
 40
2.624999999999943
  0
CIRCLE
  5
A2
330
1F
100
AcDbEntity
  8
0
  6
Continuous
 62
     7
370
     0
100
AcDbCircle
 10
91.3182096706
 20
142.1590945567
 30
0.0
 40
2.624999999999972
  0
CIRCLE
  5
A3
330
1F
100
AcDbEntity
  8
0
  6
Continuous
 62
     7
370
     0
100
AcDbCircle
 10
66.3182096706
 20
142.1590945567
 30
0.0
 40
2.624999999999943
  0
LINE
  5
A4
330
1F
100
AcDbEntity
  8
0
  6
Continuous
 62
     7
370
     0
100
AcDbLine
 10
60.3182098742
 20
137.6590950745
 30
0.0
 11
97.3182103511
 21
137.6590950745
 31
0.0
  0
LINE
  5
A5
330
1F
100
AcDbEntity
  8
0
  6
Continuous
 62
     7
370
     0
100
AcDbLine
 10
59.3182097103
 20
137.6590950745
 30
0.0
 11
59.3182097103
 21
184.6590953278
 31
0.0
  0
LINE
  5
A6
330
1F
100
AcDbEntity
  8
0
  6
Continuous
 62
     7
370
     0
100
AcDbLine
 10
59.3182097103
 20
184.6590953278
 30
0.0
 11
60.3182098742
 21
185.6590936291
 31
0.0
  0
LINE
  5
A7
330
1F
100
AcDbEntity
  8
0
  6
Continuous
 62
     7
370
     0
100
AcDbLine
 10
60.3182098742
 20
137.6590950745
 30
0.0
 11
59.3182097103
 21
137.6590950745
 31
0.0
  0
LINE
  5
A8
330
1F
100
AcDbEntity
  8
0
  6
Continuous
 62
     7
370
     0
100
AcDbLine
 10
97.3182103511
 20
185.6590936291
 30
0.0
 11
98.318210515
 21
184.6590953278
 31
0.0
  0
LINE
  5
A9
330
1F
100
AcDbEntity
  8
0
  6
Continuous
 62
     7
370
     0
100
AcDbLine
 10
98.318210515
 20
184.6590953278
 30
0.0
 11
98.318210515
 21
137.6590950745
 31
0.0
  0
LINE
  5
AA
330
1F
100
AcDbEntity
  8
0
  6
Continuous
 62
     7
370
     0
100
AcDbLine
 10
98.318210515
 20
137.6590950745
 30
0.0
 11
97.3182103511
 21
137.6590950745
 31
0.0
  0
LINE
  5
AB
330
1F
100
AcDbEntity
  8
0
  6
Continuous
 62
     7
370
     0
100
AcDbLine
 10
64.3182095986
 20
189.6590961474
 30
0.0
 11
73.8182097588
 21
189.6590961474
 31
0.0
  0
LINE
  5
AC
330
1F
100
AcDbEntity
  8
0
  6
Continuous
 62
     7
370
     0
100
AcDbLine
 10
73.8182097588
 20
189.6590961474
 30
0.0
 11
73.8182097588
 21
191.0590937692
 31
0.0
  0
LINE
  5
AD
330
1F
100
AcDbEntity
  8
0
  6
Continuous
 62
     7
370
     0
100
AcDbLine
 10
73.8182097588
 20
191.0590937692
 30
0.0
 11
83.8182095352
 21
191.0590937692
 31
0.0
  0
LINE
  5
AE
330
1F
100
AcDbEntity
  8
0
  6
Continuous
 62
     7
370
     0
100
AcDbLine
 10
83.8182095352
 20
191.0590937692
 30
0.0
 11
83.8182095352
 21
189.6590961474
 31
0.0
  0
LINE
  5
AF
330
1F
100
AcDbEntity
  8
0
  6
Continuous
 62
     7
370
     0
100
AcDbLine
 10
83.8182095352
 20
189.6590961474
 30
0.0
 11
93.3182096954
 21
189.6590961474
 31
0.0
  0
LINE
  5
B0
330
1F
100
AcDbEntity
  8
0
  6
Continuous
 62
     7
370
     0
100
AcDbLine
 10
93.3182096954
 20
189.6590961474
 30
0.0
 11
94.9182088401
 21
188.0590951401
 31
0.0
  0
LINE
  5
B1
330
1F
100
AcDbEntity
  8
0
  6
Continuous
 62
     7
370
     0
100
AcDbLine
 10
62.7182095226
 20
188.0590951401
 30
0.0
 11
64.3182095986
 21
189.6590961474
 31
0.0
  0
CIRCLE
  5
B2
330
1F
100
AcDbEntity
  8
0
  6
Continuous
 62
     7
370
     0
100
AcDbCircle
 10
78.8182096706
 20
173.6590945567
 30
0.0
 40
2.099999999999966
  0
CIRCLE
  5
B3
330
1F
100
AcDbEntity
  8
0
  6
Continuous
 62
     7
370
     0
100
AcDbCircle
 10
91.3182096706
 20
142.1590945567
 30
0.0
 40
2.099999999999966
  0
CIRCLE
  5
B4
330
1F
100
AcDbEntity
  8
0
  6
Continuous
 62
     7
370
     0
100
AcDbCircle
 10
65.3182096706
 20
178.1590945567
 30
0.0
 40
2.0
  0
CIRCLE
  5
B5
330
1F
100
AcDbEntity
  8
0
  6
Continuous
 62
     7
370
     0
100
AcDbCircle
 10
92.3182096706
 20
178.1590945567
 30
0.0
 40
2.0
  0
CIRCLE
  5
B6
330
1F
100
AcDbEntity
  8
0
  6
Continuous
 62
     7
370
     0
100
AcDbCircle
 10
66.3182096706
 20
142.1590945567
 30
0.0
 40
2.099999999999966
  0
LINE
  5
B7
330
1F
100
AcDbEntity
  8
0
  6
Continuous
 62
     7
370
     0
100
AcDbLine
 10
83.8182095352
 20
121.6590961772
 30
0.0
 11
73.8182097588
 21
121.6590961772
 31
0.0
  0
LINE
  5
B8
330
1F
100
AcDbEntity
  8
0
  6
Continuous
 62
     7
370
     0
100
AcDbLine
 10
72.8182095948
 20
122.6590944785
 30
0.0
 11
84.8182096992
 21
122.6590944785
 31
0.0
  0
LINE
  5
B9
330
1F
100
AcDbEntity
  8
0
  6
Continuous
 62
     7
370
     0
100
AcDbLine
 10
98.318210515
 20
162.4012308526
 30
0.0
 11
100.0318626787
 21
172.7222239929
 31
0.0
  0
LINE
  5
BA
330
1F
100
AcDbEntity
  8
0
  6
Continuous
 62
     7
370
     0
100
AcDbLine
 10
100.0318626787
 20
172.7222239929
 30
0.0
 11
98.318210515
 21
179.4933991837
 31
0.0
  0
LINE
  5
BB
330
1F
100
AcDbEntity
  8
0
  6
Continuous
 62
     7
370
     0
100
AcDbLine
 10
87.3394754629
 20
227.5415024119
 30
0.0
 11
81.6067119043
 21
193.0141894477
 31
0.0
  0
LINE
  5
BC
330
1F
100
AcDbEntity
  8
0
  6
Continuous
 62
     7
370
     0
100
AcDbLine
 10
94.2449389871
 20
226.394947465
 30
0.0
 11
87.3394754629
 21
227.5415024119
 31
0.0
  0
LINE
  5
BD
330
1F
100
AcDbEntity
  8
0
  6
Continuous
 62
     7
370
     0
100
AcDbLine
 10
95.8903419699
 20
224.0943720895
 30
0.0
 11
95.2351677146
 21
220.1483955937
 31
0.0
  0
ARC
  5
BE
330
1F
100
AcDbEntity
  8
0
  6
Continuous
 62
     7
370
     0
100
AcDbCircle
 10
93.2640467218
 20
217.4346008204
 30
0.0
 40
3.000000000000007
100
AcDbArc
 50
80.572860308
 51
170.572860308
  0
LINE
  5
BF
330
1F
100
AcDbEntity
  8
0
  6
Continuous
 62
     7
370
     0
100
AcDbLine
 10
90.304562534
 20
217.9259842592
 30
0.0
 11
88.6666296895
 21
208.0610355693
 31
0.0
  0
ARC
  5
C0
330
1F
100
AcDbEntity
  8
0
  6
Continuous
 62
     7
370
     0
100
AcDbCircle
 10
91.6261141175
 20
207.5696539486
 30
0.0
 40
3.000000000000007
100
AcDbArc
 50
170.572860308
 51
260.572860308
  0
LINE
  5
C1
330
1F
100
AcDbEntity
  8
0
  6
Continuous
 62
     7
370
     0
100
AcDbLine
 10
91.1347341638
 20
204.6101687807
 30
0.0
 11
94.5874663915
 21
204.0368950325
 31
0.0
  0
LINE
  5
C2
330
1F
100
AcDbEntity
  8
0
  6
Continuous
 62
     7
370
     0
100
AcDbLine
 10
93.9473255452
 20
200.1814579922
 30
0.0
 11
94.5874663915
 21
204.0368950325
 31
0.0
  0
ARC
  5
C3
330
1F
100
AcDbEntity
  8
0
  6
Continuous
 62
     7
370
     0
100
AcDbCircle
 10
103.8122732649
 20
198.5435271098
 30
0.0
 40
10.0
100
AcDbArc
 50
170.572860308
 51
194.2022380386
  0
LINE
  5
C4
330
1F
100
AcDbEntity
  8
0
  6
Continuous
 62
     7
370
     0
100
AcDbLine
 10
96.56790522
 20
186.4093987602
 30
0.0
 11
94.1179159012
 21
196.0900759655
 31
0.0
  0
CIRCLE
  5
C5
330
1F
100
AcDbEntity
  8
0
  6
Continuous
 62
     7
370
     0
100
AcDbCircle
 10
90.3343332126
 20
222.9894886459
 30
0.0
 40
0.9999999999999845
  0
CIRCLE
  5
C6
330
1F
100
AcDbEntity
  8
0
  6
Continuous
 62
     7
370
     0
100
AcDbCircle
 10
85.4186678375
 20
196.4360287222
 30
0.0
 40
1.500000000000001
  0
LINE
  5
C7
330
1F
100
AcDbEntity
  8
0
  6
Continuous
 62
     7
370
     0
100
AcDbLine
 10
95.2351677146
 20
220.1483955937
 30
0.0
 11
93.7554265287
 21
220.3940859395
 31
0.0
  0
ARC
  5
C8
330
1F
100
AcDbEntity
  8
0
  6
Continuous
 62
     7
370
     0
100
AcDbCircle
 10
88.1845880862
 20
189.8946462095
 30
0.0
 40
2.00000000000002
100
AcDbArc
 50
353.2362434783
 51
80.572860308
  0
LINE
  5
C9
330
1F
100
AcDbEntity
  8
0
  6
Continuous
 62
     7
370
     0
100
AcDbLine
 10
95.8903419699
 20
224.0943720895
 30
0.0
 11
94.2449389871
 21
226.394947465
 31
0.0
  0
LINE
  5
CA
330
1F
100
AcDbEntity
  8
0
  6
Continuous
 62
     7
370
     0
100
AcDbLine
 10
81.6067119043
 20
193.0141894477
 30
0.0
 11
88.5121744972
 21
191.8676345008
 31
0.0
  0
LINE
  5
CB
330
1F
100
AcDbEntity
  8
0
  6
Continuous
 62
     7
370
     0
100
AcDbLine
 10
59.3182097103
 20
162.4012308526
 30
0.0
 11
57.6045575466
 21
172.7222239929
 31
0.0
  0
LINE
  5
CC
330
1F
100
AcDbEntity
  8
0
  6
Continuous
 62
     7
370
     0
100
AcDbLine
 10
66.6287100788
 20
226.9324472505
 30
0.0
 11
65.7822887327
 21
226.3101524073
 31
0.0
  0
LINE
  5
CD
330
1F
100
AcDbEntity
  8
0
  6
Continuous
 62
     7
370
     0
100
AcDbLine
 10
70.2969433654
 20
227.5415024119
 30
0.0
 11
76.0297076225
 21
193.0141894477
 31
0.0
  0
LINE
  5
CE
330
1F
100
AcDbEntity
  8
0
  6
Continuous
 62
     7
370
     0
100
AcDbLine
 10
66.6287100788
 20
226.9324472505
 30
0.0
 11
70.2969433654
 21
227.5415024119
 31
0.0
  0
LINE
  5
CF
330
1F
100
AcDbEntity
  8
0
  6
Continuous
 62
     7
370
     0
100
AcDbLine
 10
76.0297076225
 20
193.0141894477
 30
0.0
 11
69.1242447968
 21
191.8676345008
 31
0.0
  0
ARC
  5
D0
330
1F
100
AcDbEntity
  8
0
  6
Continuous
 62
     7
370
     0
100
AcDbCircle
 10
69.4518312551
 20
189.8946462095
 30
0.0
 40
1.999999999999997
100
AcDbArc
 50
99.427139692
 51
186.7637565217
  0
LINE
  5
D1
330
1F
100
AcDbEntity
  8
0
  6
Continuous
 62
     7
370
     0
100
AcDbLine
 10
57.6045575466
 20
172.7222239929
 30
0.0
 11
59.3182097103
 21
183.9516328978
 31
0.0
  0
LINE
  5
D2
330
1F
100
AcDbEntity
  8
0
  6
Continuous
 62
     7
370
     0
100
AcDbLine
 10
59.4456127759
 20
184.7864983934
 30
0.0
 11
65.7822887327
 21
226.3101524073
 31
0.0
  0
LINE
  5
D3
330
1F
100
AcDbEntity
  8
0
  6
Continuous
 62
     7
370
     0
100
AcDbLine
 10
94.8331548747
 20
205.5166362184
 30
0.0
 11
94.5874663915
 21
204.0368950325
 31
0.0
  0
LINE
  5
D4
330
1F
100
AcDbEntity
  8
0
  6
Continuous
 62
     7
370
     0
100
AcDbLine
 10
95.2351677146
 20
220.1483955937
 30
0.0
 11
95.0222375717
 21
218.8659495073
 31
0.0
  0
CIRCLE
  5
D5
330
1F
100
AcDbEntity
  8
0
  6
Continuous
 62
     7
370
     0
100
AcDbCircle
 10
92.3182096706
 20
178.1590945567
 30
0.0
 40
1.5
  0
CIRCLE
  5
D6
330
1F
100
AcDbEntity
  8
0
  6
Continuous
 62
     7
370
     0
100
AcDbCircle
 10
65.3182096706
 20
178.1590945567
 30
0.0
 40
1.5
  0
SPLINE
  5
D7
330
1F
100
AcDbEntity
  8
0
  6
Continuous
 62
     7
370
     0
100
AcDbSpline
210
0.0
220
0.0
230
1.0
 70
    24
 71
     3
 72
     8
 73
     4
 74
     0
 42
0.000000001
 43
0.00000001
 40
0.0
 40
0.0
 40
0.0
 40
0.0
 40
1.0
 40
1.0
 40
1.0
 40
1.0
 10
93.90597350701991
 20
208.1465703018347
 30
0.0
 10
93.87905907426011
 20
208.1772199201826
 30
0.0
 10
93.85128576840368
 20
208.2088476060548
 30
0.0
 10
93.82151173262419
 20
208.2427536831941
 30
0.0
  0
ARC
  5
D8
330
1F
100
AcDbEntity
  8
0
  6
Continuous
 62
     7
370
     0
100
AcDbCircle
 10
93.2696494087
 20
208.3104587451
 30
0.0
 40
0.5559999999999924
100
AcDbArc
 50
353.0056368741
 51
359.5692161108
  0
SPLINE
  5
D9
330
1F
100
AcDbEntity
  8
0
  6
Continuous
 62
     7
370
     0
100
AcDbSpline
210
0.0
220
0.0
230
1.0
 70
    24
 71
     3
 72
     8
 73
     4
 74
     0
 42
0.000000001
 43
0.00000001
 40
0.0
 40
0.0
 40
0.0
 40
0.0
 40
1.0
 40
1.0
 40
1.0
 40
1.0
 10
93.92181707496735
 20
208.3907402188487
 30
0.0
 10
93.89116745661957
 20
208.3638257860889
 30
0.0
 10
93.85953977074732
 20
208.3360524802325
 30
0.0
 10
93.825633693608
 20
208.306278444453
 30
0.0
  0
ARC
  5
DA
330
1F
100
AcDbEntity
  8
0
  6
Continuous
 62
     7
370
     0
100
AcDbCircle
 10
93.2696494087
 20
208.3104587451
 30
0.0
 40
0.6570903894995198
100
AcDbArc
 50
345.5570804381
 51
7.0177725468
  0
LWPOLYLINE
  5
DB
330
1F
100
AcDbEntity
  8
0
  6
Continuous
 62
     7
370
     0
100
AcDbPolyline
 90
        9
 70
   128
 43
0.0
 10
93.3499305423
 20
207.6582907098
 10
93.4048767116
 20
207.595720734
 10
93.4596366163
 20
207.5333593744
 10
93.5141888361
 20
207.4712364334
 10
93.568507294
 20
207.4093817132
 10
93.6225677755
 20
207.3478175658
 10
93.6763460662
 20
207.2865775186
 10
93.7298188831
 20
207.2256839233
 10
93.7829620119
 20
207.1651628571
  0
ARC
  5
DC
330
1F
100
AcDbEntity
  8
0
  6
Continuous
 62
     7
370
     0
100
AcDbCircle
 10
88.2339473079
 20
214.0449855571
 30
0.0
 40
8.838751301409522
100
AcDbArc
 50
308.8883847883
 51
313.6867251791
  0
LWPOLYLINE
  5
DD
330
1F
100
AcDbEntity
  8
0
  6
Continuous
 62
     7
370
     0
100
AcDbPolyline
 90
        9
 70
   128
 43
0.0
 10
93.9218166198
 20
208.3907386619
 10
93.9843884583
 20
208.4456866938
 10
94.0467479553
 20
208.5004447359
 10
94.1088708963
 20
208.554997887
 10
94.1707274791
 20
208.6093163448
 10
94.2322897639
 20
208.6633777576
 10
94.2935316738
 20
208.7171560484
 10
94.354425269
 20
208.7706288653
 10
94.4149444725
 20
208.8237701314
  0
ARC
  5
DE
330
1F
100
AcDbEntity
  8
0
  6
Continuous
 62
     7
370
     0
100
AcDbCircle
 10
87.5346644816
 20
203.2743957275
 30
0.0
 40
8.839333064695735
100
AcDbArc
 50
38.888338702
 51
43.6863642105
  0
LWPOLYLINE
  5
DF
330
1F
100
AcDbEntity
  8
0
  6
Continuous
 62
     7
370
     0
100
AcDbPolyline
 90
        9
 70
   128
 43
0.0
 10
93.9266650852
 20
209.379814412
 10
93.8661458816
 20
209.3266694206
 10
93.8052522864
 20
209.2731966036
 10
93.7440103765
 20
209.2194183129
 10
93.6824480917
 20
209.1653606254
 10
93.620591509
 20
209.1110421675
 10
93.5584685679
 20
209.0564890164
 10
93.4961081397
 20
209.001727249
 10
93.4335381638
 20
208.9467829424
  0
ARC
  5
E0
330
1F
100
AcDbEntity
  8
0
  6
Continuous
 62
     7
370
     0
100
AcDbCircle
 10
93.2696494087
 20
208.3104587451
 30
0.0
 40
0.6570903894995083
100
AcDbArc
 50
75.5570804381
 51
97.0177725468
  0
LWPOLYLINE
  5
E1
330
1F
100
AcDbEntity
  8
0
  6
Continuous
 62
     7
370
     0
100
AcDbPolyline
 90
        9
 70
   128
 43
0.0
 10
93.1893677365
 20
208.962626602
 10
93.1344224986
 20
209.0251965779
 10
93.0796616625
 20
209.0875579375
 10
93.025110374
 20
209.1496808785
 10
92.9707919162
 20
209.2115355986
 10
92.9167314347
 20
209.2730997461
 10
92.8629531439
 20
209.3343397933
 10
92.809480327
 20
209.3952333885
 10
92.7563371982
 20
209.4557544547
  0
ARC
  5
E2
330
1F
100
AcDbEntity
  8
0
  6
Continuous
 62
     7
370
     0
100
AcDbCircle
 10
98.3041973511
 20
202.5772465287
 30
0.0
 40
8.83700308725642
100
AcDbArc
 50
128.8879098855
 51
133.6872000818
  0
LWPOLYLINE
  5
E3
330
1F
100
AcDbEntity
  8
0
  6
Continuous
 62
     7
370
     0
100
AcDbPolyline
 90
        9
 70
   128
 43
0.0
 10
92.2002947803
 20
208.9674732047
 10
92.2534369778
 20
208.9069558638
 10
92.3069097947
 20
208.8460622686
 10
92.3606890168
 20
208.7848184961
 10
92.4147494983
 20
208.7232580739
 10
92.4690679561
 20
208.6613996285
 10
92.5236192446
 20
208.5992766875
 10
92.5783800807
 20
208.5369190532
 10
92.6333253186
 20
208.474345352
  0
ARC
  5
E4
330
1F
100
AcDbEntity
  8
0
  6
Continuous
 62
     7
370
     0
100
AcDbCircle
 10
93.2696494087
 20
208.3104587451
 30
0.0
 40
0.6570903894995265
100
AcDbArc
 50
165.5570804381
 51
187.0177725468
  0
LWPOLYLINE
  5
E5
330
1F
100
AcDbEntity
  8
0
  6
Continuous
 62
     7
370
     0
100
AcDbPolyline
 90
        9
 70
   128
 43
0.0
 10
92.617481659
 20
208.23017865
 10
92.5549107518
 20
208.1752306181
 10
92.4925503235
 20
208.120472576
 10
92.4304283138
 20
208.0659194249
 10
92.3685717311
 20
208.011600967
 10
92.3070085149
 20
207.9575395542
 10
92.245766605
 20
207.9037612635
 10
92.1848730098
 20
207.8502884465
 10
92.1243547376
 20
207.7971471804
  0
ARC
  5
E6
330
1F
100
AcDbEntity
  8
0
  6
Continuous
 62
     7
370
     0
100
AcDbCircle
 10
99.0041630612
 20
213.3461073988
 30
0.0
 40
8.838705904947709
100
AcDbArc
 50
218.888168378
 51
223.6865345345
  0
LWPOLYLINE
  5
E7
330
1F
100
AcDbEntity
  8
0
  6
Continuous
 62
     7
370
     0
100
AcDbPolyline
 90
        9
 70
   128
 43
0.0
 10
92.612634125
 20
207.2411028999
 10
92.6731523972
 20
207.2942478913
 10
92.7340459924
 20
207.3477207082
 10
92.7952879023
 20
207.401498999
 10
92.8568511184
 20
207.4555604118
 10
92.9187077012
 20
207.5098751443
 10
92.9808297109
 20
207.5644282955
 10
93.0431901391
 20
207.6191900629
 10
93.1057610463
 20
207.6741343695
  0
ARC
  5
E8
330
1F
100
AcDbEntity
  8
0
  6
Continuous
 62
     7
370
     0
100
AcDbCircle
 10
93.2696494087
 20
208.3104587451
 30
0.0
 40
0.6570903894995382
100
AcDbArc
 50
255.5570804381
 51
277.0177725468
  0
CIRCLE
  5
E9
330
1F
100
AcDbEntity
  8
0
  6
Continuous
 62
     7
370
     0
100
AcDbCircle
 10
93.2696494087
 20
208.3104587451
 30
0.0
 40
2.404255319148935
  0
LWPOLYLINE
  5
EA
330
1F
100
AcDbEntity
  8
0
  6
Continuous
 62
     7
370
     0
100
AcDbPolyline
 90
        9
 70
   128
 43
0.0
 10
94.3390044298
 20
207.6534441071
 10
94.285861301
 20
207.713961448
 10
94.2323884841
 20
207.7748550433
 10
94.1786101933
 20
207.8360988158
 10
94.1245487805
 20
207.897659238
 10
94.0702321853
 20
207.9595176834
 10
94.0156790342
 20
208.0216406244
 10
93.9609191295
 20
208.0839982587
 10
93.9059729602
 20
208.1465719598
  0
SPLINE
  5
EB
330
1F
100
AcDbEntity
  8
0
  6
Continuous
 62
     7
370
     0
100
AcDbSpline
210
0.0
220
0.0
230
1.0
 70
    24
 71
     3
 72
     8
 73
     4
 74
     0
 42
0.000000001
 43
0.00000001
 40
0.0
 40
0.0
 40
0.0
 40
0.0
 40
1.0
 40
1.0
 40
1.0
 40
1.0
 10
93.1893679349604
 20
208.9626264114153
 30
0.0
 10
93.21628236772018
 20
208.9319767930675
 30
0.0
 10
93.24405567357663
 20
208.9003491071953
 30
0.0
 10
93.27382970935611
 20
208.866443030056
 30
0.0
  0
SPLINE
  5
EC
330
1F
100
AcDbEntity
  8
0
  6
Continuous
 62
     7
370
     0
100
AcDbSpline
210
0.0
220
0.0
230
1.0
 70
    24
 71
     3
 72
     8
 73
     4
 74
     0
 42
0.000000001
 43
0.00000001
 40
0.0
 40
0.0
 40
0.0
 40
0.0
 40
1.0
 40
1.0
 40
1.0
 40
1.0
 10
93.43353785197436
 20
208.9467828434679
 30
0.0
 10
93.40288823362658
 20
208.9198684107081
 30
0.0
 10
93.37126054775433
 20
208.8920951048516
 30
0.0
 10
93.33735447061501
 20
208.8623210690722
 30
0.0
  0
ARC
  5
ED
330
1F
100
AcDbEntity
  8
0
  6
Continuous
 62
     7
370
     0
100
AcDbCircle
 10
93.2696494087
 20
208.3104587451
 30
0.0
 40
0.555999999999978
100
AcDbArc
 50
83.0056368742
 51
89.5692161108
  0
SPLINE
  5
EE
330
1F
100
AcDbEntity
  8
0
  6
Continuous
 62
     7
370
     0
100
AcDbSpline
210
0.0
220
0.0
230
1.0
 70
    24
 71
     3
 72
     8
 73
     4
 74
     0
 42
0.000000001
 43
0.00000001
 40
0.0
 40
0.0
 40
0.0
 40
0.0
 40
1.0
 40
1.0
 40
1.0
 40
1.0
 10
92.63332531034123
 20
208.4743471884223
 30
0.0
 10
92.66023974310103
 20
208.4436975700745
 30
0.0
 10
92.68801304895747
 20
208.4120698842023
 30
0.0
 10
92.71778708473697
 20
208.378163807063
 30
0.0
  0
ARC
  5
EF
330
1F
100
AcDbEntity
  8
0
  6
Continuous
 62
     7
370
     0
100
AcDbCircle
 10
93.2696494087
 20
208.3104587451
 30
0.0
 40
0.5560000000000064
100
AcDbArc
 50
173.0056368742
 51
179.5692161108
  0
SPLINE
  5
F0
330
1F
100
AcDbEntity
  8
0
  6
Continuous
 62
     7
370
     0
100
AcDbSpline
210
0.0
220
0.0
230
1.0
 70
    24
 71
     3
 72
     8
 73
     4
 74
     0
 42
0.000000001
 43
0.00000001
 40
0.0
 40
0.0
 40
0.0
 40
0.0
 40
1.0
 40
1.0
 40
1.0
 40
1.0
 10
92.6174817423938
 20
208.2301772714084
 30
0.0
 10
92.6481313607416
 20
208.2570917041682
 30
0.0
 10
92.67975904661384
 20
208.2848650100246
 30
0.0
 10
92.71366512375315
 20
208.3146390458041
 30
0.0
  0
ARC
  5
F1
330
1F
100
AcDbEntity
  8
0
  6
Continuous
 62
     7
370
     0
100
AcDbCircle
 10
93.2696494087
 20
208.3104587451
 30
0.0
 40
0.5560000000000065
100
AcDbArc
 50
263.0056368742
 51
269.5692161108
  0
SPLINE
  5
F2
330
1F
100
AcDbEntity
  8
0
  6
Continuous
 62
     7
370
     0
100
AcDbSpline
210
0.0
220
0.0
230
1.0
 70
    24
 71
     3
 72
     8
 73
     4
 74
     0
 42
0.000000001
 43
0.00000001
 40
0.0
 40
0.0
 40
0.0
 40
0.0
 40
1.0
 40
1.0
 40
1.0
 40
1.0
 10
93.10576096538679
 20
207.6741346467892
 30
0.0
 10
93.13641058373459
 20
207.701049079549
 30
0.0
 10
93.16803826960682
 20
207.7288223854054
 30
0.0
 10
93.20194434674615
 20
207.7585964211849
 30
0.0
  0
SPLINE
  5
F3
330
1F
100
AcDbEntity
  8
0
  6
Continuous
 62
     7
370
     0
100
AcDbSpline
210
0.0
220
0.0
230
1.0
 70
    24
 71
     3
 72
     8
 73
     4
 74
     0
 42
0.000000001
 43
0.00000001
 40
0.0
 40
0.0
 40
0.0
 40
0.0
 40
1.0
 40
1.0
 40
1.0
 40
1.0
 10
93.34993088240076
 20
207.6582910788418
 30
0.0
 10
93.32301644964097
 20
207.6889406971896
 30
0.0
 10
93.29524314378453
 20
207.7205683830618
 30
0.0
 10
93.26546910800504
 20
207.7544744602011
 30
0.0
  0
LINE
  5
F4
330
1F
100
AcDbEntity
  8
0
  6
Continuous
 62
     7
370
     0
100
AcDbLine
 10
93.6831856992
 20
207.9388087946
 30
0.0
 11
93.9119855787
 21
208.1397248763
 31
0.0
  0
LINE
  5
F5
330
1F
100
AcDbEntity
  8
0
  6
Continuous
 62
     7
370
     0
100
AcDbLine
 10
93.3559422295
 20
207.6514473515
 30
0.0
 11
93.5847411778
 21
207.8523597079
 31
0.0
  0
ELLIPSE
  5
F6
330
1F
100
AcDbEntity
  8
0
  6
Continuous
 62
     7
370
     0
100
AcDbEllipse
 10
93.314825776
 20
208.2590128006
 30
0.0
 11
-0.3221097093439909
 21
0.3668121021022727
 31
0.0
210
0.0
220
0.0
230
1.0
 40
0.9901159119
 41
3.005645706339666
 42
3.277539600839757
  0
LINE
  5
F7
330
1F
100
AcDbEntity
  8
0
  6
Continuous
 62
     7
370
     0
100
AcDbLine
 10
92.8561135109
 20
208.6821085173
 30
0.0
 11
92.6273136314
 21
208.4811924356
 31
0.0
  0
LINE
  5
F8
330
1F
100
AcDbEntity
  8
0
  6
Continuous
 62
     7
370
     0
100
AcDbLine
 10
93.1833569806
 20
208.9694736856
 30
0.0
 11
92.954557101
 21
208.7685576039
 31
0.0
  0
ELLIPSE
  5
F9
330
1F
100
AcDbEntity
  8
0
  6
Continuous
 62
     7
370
     0
100
AcDbEllipse
 10
93.2244730414
 20
208.3619046897
 30
0.0
 11
-0.3221097093439625
 21
0.3668121021022729
 31
0.0
210
0.0
220
0.0
230
1.0
 40
0.9901159119
 41
6.147238359929558
 42
6.419132254429616
  0
LINE
  5
FA
330
1F
100
AcDbEntity
  8
0
  6
Continuous
 62
     7
370
     0
100
AcDbLine
 10
93.6412994664
 20
208.7239956814
 30
0.0
 11
93.4403833847
 21
208.9527955609
 31
0.0
  0
LINE
  5
FB
330
1F
100
AcDbEntity
  8
0
  6
Continuous
 62
     7
370
     0
100
AcDbLine
 10
93.9286618408
 20
208.3967512804
 30
0.0
 11
93.7277457591
 21
208.6255511599
 31
0.0
  0
ELLIPSE
  5
FC
330
1F
100
AcDbEntity
  8
0
  6
Continuous
 62
     7
370
     0
100
AcDbEllipse
 10
93.3210953532
 20
208.3556351124
 30
0.0
 11
0.3668121021023012
 21
0.3221097093440051
 31
0.0
210
0.0
220
0.0
230
1.0
 40
0.9901159119
 41
6.147238359929471
 42
6.419132254429652
  0
LINE
  5
FD
330
1F
100
AcDbEntity
  8
0
  6
Continuous
 62
     7
370
     0
100
AcDbLine
 10
92.8979997437
 20
207.8969216305
 30
0.0
 11
93.0989158254
 21
207.6681217509
 31
0.0
  0
LINE
  5
FE
330
1F
100
AcDbEntity
  8
0
  6
Continuous
 62
     7
370
     0
100
AcDbLine
 10
92.610636438
 20
208.2241660314
 30
0.0
 11
92.8115525197
 21
207.9953661519
 31
0.0
  0
ELLIPSE
  5
FF
330
1F
100
AcDbEntity
  8
0
  6
Continuous
 62
     7
370
     0
100
AcDbEllipse
 10
93.2182034641
 20
208.2652823778
 30
0.0
 11
0.3668121021023012
 21
0.3221097093439766
 31
0.0
210
0.0
220
0.0
230
1.0
 40
0.9901159119
 41
3.005645706339716
 42
3.277539600839887
  0
CIRCLE
  5
100
330
1F
100
AcDbEntity
  8
0
  6
Continuous
 62
     7
370
     0
100
AcDbCircle
 10
93.2696494087
 20
208.3104587451
 30
0.0
 40
2.499999999999987
  0
ARC
  5
101
330
1F
100
AcDbEntity
  8
0
  6
Continuous
 62
     7
370
     0
100
AcDbCircle
 10
93.2696494087
 20
208.3104587451
 30
0.0
 40
0.5560000000000123
100
AcDbArc
 50
304.5212713009
 51
318.053581684
  0
ARC
  5
102
330
1F
100
AcDbEntity
  8
0
  6
Continuous
 62
     7
370
     0
100
AcDbCircle
 10
93.2696494087
 20
208.3104587451
 30
0.0
 40
0.5559999999999888
100
AcDbArc
 50
124.5212713009
 51
138.053581684
  0
ARC
  5
103
330
1F
100
AcDbEntity
  8
0
  6
Continuous
 62
     7
370
     0
100
AcDbCircle
 10
93.2696494087
 20
208.3104587451
 30
0.0
 40
0.555999999999997
100
AcDbArc
 50
34.5212713009
 51
48.053581684
  0
ARC
  5
104
330
1F
100
AcDbEntity
  8
0
  6
Continuous
 62
     7
370
     0
100
AcDbCircle
 10
93.2696494087
 20
208.3104587451
 30
0.0
 40
0.5560000000000277
100
AcDbArc
 50
214.5212713009
 51
228.053581684
  0
ARC
  5
105
330
1F
100
AcDbEntity
  8
0
  6
Continuous
 62
     7
370
     0
100
AcDbCircle
 10
93.2696494087
 20
208.3104587451
 30
0.0
 40
0.5559999999999888
100
AcDbArc
 50
89.5692161108
 51
124.5212713009
  0
ARC
  5
106
330
1F
100
AcDbEntity
  8
0
  6
Continuous
 62
     7
370
     0
100
AcDbCircle
 10
93.2696494087
 20
208.3104587451
 30
0.0
 40
0.5559999999999865
100
AcDbArc
 50
138.053581684
 51
173.0056368742
  0
ARC
  5
107
330
1F
100
AcDbEntity
  8
0
  6
Continuous
 62
     7
370
     0
100
AcDbCircle
 10
93.2696494087
 20
208.3104587451
 30
0.0
 40
0.5560000000000064
100
AcDbArc
 50
179.5692161108
 51
214.5212713009
  0
ARC
  5
108
330
1F
100
AcDbEntity
  8
0
  6
Continuous
 62
     7
370
     0
100
AcDbCircle
 10
93.2696494087
 20
208.3104587451
 30
0.0
 40
0.555999999999997
100
AcDbArc
 50
48.053581684
 51
83.0056368742
  0
ARC
  5
109
330
1F
100
AcDbEntity
  8
0
  6
Continuous
 62
     7
370
     0
100
AcDbCircle
 10
93.2696494087
 20
208.3104587451
 30
0.0
 40
0.5559999999999924
100
AcDbArc
 50
359.5692161108
 51
34.5212713009
  0
ARC
  5
10A
330
1F
100
AcDbEntity
  8
0
  6
Continuous
 62
     7
370
     0
100
AcDbCircle
 10
93.2696494087
 20
208.3104587451
 30
0.0
 40
0.5560000000000123
100
AcDbArc
 50
269.5692161108
 51
304.5212713009
  0
ARC
  5
10B
330
1F
100
AcDbEntity
  8
0
  6
Continuous
 62
     7
370
     0
100
AcDbCircle
 10
93.2696494087
 20
208.3104587451
 30
0.0
 40
0.5560000000000055
100
AcDbArc
 50
318.053581684
 51
353.0056368741
  0
ARC
  5
10C
330
1F
100
AcDbEntity
  8
0
  6
Continuous
 62
     7
370
     0
100
AcDbCircle
 10
93.2696494087
 20
208.3104587451
 30
0.0
 40
0.5560000000000277
100
AcDbArc
 50
228.053581684
 51
263.0056368742
  0
LINE
  5
10D
330
1F
100
AcDbEntity
  8
0
  6
Continuous
 62
     7
370
     0
100
AcDbLine
 10
77.9370912527
 20
118.9590951758
 30
0.0
 11
79.2017921952
 21
118.9590951758
 31
0.0
  0
LINE
  5
10E
330
1F
100
AcDbEntity
  8
0
  6
Continuous
 62
     7
370
     0
100
AcDbLine
 10
77.9370912527
 20
118.9590951758
 30
0.0
 11
77.9370912527
 21
121.6590961772
 31
0.0
  0
LINE
  5
10F
330
1F
100
AcDbEntity
  8
0
  6
Continuous
 62
     7
370
     0
100
AcDbLine
 10
79.2017921952
 20
121.6590961772
 30
0.0
 11
79.2017921952
 21
118.9590951758
 31
0.0
  0
SPLINE
  5
110
330
1F
100
AcDbEntity
  8
0
  6
Continuous
 62
     7
370
     0
100
AcDbSpline
210
0.0
220
0.0
230
1.0
 70
     8
 71
     3
 72
     8
 73
     4
 74
     0
 42
0.000000001
 43
0.00000001
 40
0.0
 40
0.0
 40
0.0
 40
0.0
 40
1.0
 40
1.0
 40
1.0
 40
1.0
 10
79.20179220567509
 20
118.9590945565349
 30
0.0
 10
79.65714085511637
 20
118.7721380348521
 30
0.0
 10
80.12504914848638
 20
118.659094556564
 30
0.0
 10
80.61216630835258
 20
118.6590945565538
 30
0.0
  0
LINE
  5
111
330
1F
100
AcDbEntity
  8
0
  6
Continuous
 62
     7
370
     0
100
AcDbLine
 10
76.6190145545
 20
118.6590938228
 30
0.0
 11
80.6121662639
 21
118.6590938228
 31
0.0
  0
SPLINE
  5
112
330
1F
100
AcDbEntity
  8
0
  6
Continuous
 62
     7
370
     0
100
AcDbSpline
210
0.0
220
0.0
230
1.0
 70
     8
 71
     3
 72
     8
 73
     4
 74
     0
 42
0.000000001
 43
0.00000001
 40
0.0
 40
0.0
 40
0.0
 40
0.0
 40
1.0
 40
1.0
 40
1.0
 40
1.0
 10
76.61901459537282
 20
118.6590945566731
 30
0.0
 10
77.07425392231727
 20
118.6590945566486
 30
0.0
 10
77.51154144568076
 20
118.7721380348477
 30
0.0
 10
77.93709125131578
 20
118.9590945565162
 30
0.0
  0
LINE
  5
113
330
1F
100
AcDbEntity
  8
0
  6
Continuous
 62
     7
370
     0
100
AcDbLine
 10
82.022540449
 20
118.9590951758
 30
0.0
 11
82.022540449
 21
121.6590961772
 31
0.0
  0
SPLINE
  5
114
330
1F
100
AcDbEntity
  8
0
  6
Continuous
 62
     7
370
     0
100
AcDbSpline
210
0.0
220
0.0
230
1.0
 70
     8
 71
     3
 72
     8
 73
     4
 74
     0
 42
0.000000001
 43
0.00000001
 40
0.0
 40
0.0
 40
0.0
 40
0.0
 40
1.0
 40
1.0
 40
1.0
 40
1.0
 10
80.61216630834117
 20
118.6590945565689
 30
0.0
 10
81.09928346812595
 20
118.6590945565595
 30
0.0
 10
81.56719176118116
 20
118.7721380346978
 30
0.0
 10
82.02254041056987
 20
118.9590945562909
 30
0.0
  0
SPLINE
  5
115
330
1F
100
AcDbEntity
  8
0
  6
Continuous
 62
     7
370
     0
100
AcDbSpline
210
0.0
220
0.0
230
1.0
 70
     8
 71
     3
 72
     8
 73
     4
 74
     0
 42
0.000000001
 43
0.00000001
 40
0.0
 40
0.0
 40
0.0
 40
0.0
 40
1.0
 40
1.0
 40
1.0
 40
1.0
 10
75.30093793946546
 20
118.9590945566324
 30
0.0
 10
75.72648774503823
 20
118.7721380349588
 30
0.0
 10
76.16377526848528
 20
118.6590945566975
 30
0.0
 10
76.61901459537282
 20
118.6590945566731
 30
0.0
  0
LINE
  5
116
330
1F
100
AcDbEntity
  8
0
  6
Continuous
 62
     7
370
     0
100
AcDbLine
 10
75.300937929
 20
121.6590961772
 30
0.0
 11
75.300937929
 21
118.9590951758
 31
0.0
  0
LINE
  5
117
330
1F
100
AcDbEntity
  8
0
  6
Continuous
 62
     7
370
     0
100
AcDbLine
 10
82.022540449
 20
118.9590951758
 30
0.0
 11
82.7190640297
 21
118.9590951758
 31
0.0
  0
SPLINE
  5
118
330
1F
100
AcDbEntity
  8
0
  6
Continuous
 62
     7
370
     0
100
AcDbSpline
210
0.0
220
0.0
230
1.0
 70
     8
 71
     3
 72
     8
 73
     4
 74
     0
 42
0.000000001
 43
0.00000001
 40
0.0
 40
0.0
 40
0.0
 40
0.0
 40
1.0
 40
1.0
 40
1.0
 40
1.0
 10
82.71906393693912
 20
118.9590945566399
 30
0.0
 10
82.74886278079241
 20
118.7721380349494
 30
0.0
 10
82.77948355050083
 20
118.6590945566774
 30
0.0
 10
82.81136138346052
 20
118.6590945565538
 30
0.0
  0
LINE
  5
119
330
1F
100
AcDbEntity
  8
0
  6
Continuous
 62
     7
370
     0
100
AcDbLine
 10
80.6121662639
 20
118.6590938228
 30
0.0
 11
82.8113613564
 21
118.6590938228
 31
0.0
  0
LINE
  5
11A
330
1F
100
AcDbEntity
  8
0
  6
Continuous
 62
     7
370
     0
100
AcDbLine
 10
74.7327606108
 20
118.9590951758
 30
0.0
 11
75.300937929
 21
118.9590951758
 31
0.0
  0
SPLINE
  5
11B
330
1F
100
AcDbEntity
  8
0
  6
Continuous
 62
     7
370
     0
100
AcDbSpline
210
0.0
220
0.0
230
1.0
 70
     8
 71
     3
 72
     8
 73
     4
 74
     0
 42
0.000000001
 43
0.00000001
 40
0.0
 40
0.0
 40
0.0
 40
0.0
 40
1.0
 40
1.0
 40
1.0
 40
1.0
 10
74.82505795780855
 20
118.6590945565689
 30
0.0
 10
74.79318012484093
 20
118.6590945565294
 30
0.0
 10
74.76255935500768
 20
118.7721380347434
 30
0.0
 10
74.73276051114583
 20
118.9590945564187
 30
0.0
  0
LINE
  5
11C
330
1F
100
AcDbEntity
  8
0
  6
Continuous
 62
     7
370
     0
100
AcDbLine
 10
74.8250579376
 20
118.6590938228
 30
0.0
 11
76.6190145545
 21
118.6590938228
 31
0.0
  0
LINE
  5
11D
330
1F
100
AcDbEntity
  8
0
  6
Continuous
 62
     7
370
     0
100
AcDbLine
 10
82.7190640297
 20
121.6590961772
 30
0.0
 11
82.7190640297
 21
118.9590951758
 31
0.0
  0
LINE
  5
11E
330
1F
100
AcDbEntity
  8
0
  6
Continuous
 62
     7
370
     0
100
AcDbLine
 10
74.7327606108
 20
118.9590951758
 30
0.0
 11
74.7327606108
 21
121.6590961772
 31
0.0
  0
LINE
  5
11F
330
1F
100
AcDbEntity
  8
0
  6
Continuous
 62
     7
370
     0
100
AcDbLine
 10
82.9036586832
 20
118.9590951758
 30
0.0
 11
82.9036586832
 21
121.6590961772
 31
0.0
  0
SPLINE
  5
120
330
1F
100
AcDbEntity
  8
0
  6
Continuous
 62
     7
370
     0
100
AcDbSpline
210
0.0
220
0.0
230
1.0
 70
     8
 71
     3
 72
     8
 73
     4
 74
     0
 42
0.000000001
 43
0.00000001
 40
0.0
 40
0.0
 40
0.0
 40
0.0
 40
1.0
 40
1.0
 40
1.0
 40
1.0
 10
82.81136138344762
 20
118.6590945565592
 30
0.0
 10
82.84323921644236
 20
118.6590945564359
 30
0.0
 10
82.87385998627825
 20
118.7721380347798
 30
0.0
 10
82.9036588301637
 20
118.9590945566749
 30
0.0
  0
LINE
  5
121
330
1F
100
AcDbEntity
  8
0
  6
Continuous
 62
     7
370
     0
100
AcDbLine
 10
77.8285718874
 20
116.159096207
 30
0.0
 11
80.6182096161
 21
116.159096207
 31
0.0
  0
LINE
  5
122
330
1F
100
AcDbEntity
  8
0
  6
Continuous
 62
     7
370
     0
100
AcDbLine
 10
77.0182096779
 20
116.159096207
 30
0.0
 11
77.8285718874
 21
116.159096207
 31
0.0
  0
LINE
  5
123
330
1F
100
AcDbEntity
  8
0
  6
Continuous
 62
     7
370
     0
100
AcDbLine
 10
80.3217444949
 20
116.659093495
 30
0.0
 11
80.6182096161
 21
116.659093495
 31
0.0
  0
LINE
  5
124
330
1F
100
AcDbEntity
  8
0
  6
Continuous
 62
     7
370
     0
100
AcDbLine
 10
77.0182096779
 20
116.659093495
 30
0.0
 11
80.3217444949
 21
116.659093495
 31
0.0
  0
LINE
  5
125
330
1F
100
AcDbEntity
  8
0
  6
Continuous
 62
     7
370
     0
100
AcDbLine
 10
77.8285718874
 20
113.6590948659
 30
0.0
 11
80.6182096161
 21
113.6590948659
 31
0.0
  0
LINE
  5
126
330
1F
100
AcDbEntity
  8
0
  6
Continuous
 62
     7
370
     0
100
AcDbLine
 10
77.0182096779
 20
113.6590948659
 30
0.0
 11
77.8285718874
 21
113.6590948659
 31
0.0
  0
LINE
  5
127
330
1F
100
AcDbEntity
  8
0
  6
Continuous
 62
     7
370
     0
100
AcDbLine
 10
77.9935115164
 20
111.6590945381
 30
0.0
 11
80.31820966
 21
111.6590945381
 31
0.0
  0
LINE
  5
128
330
1F
100
AcDbEntity
  8
0
  6
Continuous
 62
     7
370
     0
100
AcDbLine
 10
77.3182096922
 20
111.6590945381
 30
0.0
 11
77.9935115164
 21
111.6590945381
 31
0.0
  0
LINE
  5
129
330
1F
100
AcDbEntity
  8
0
  6
Continuous
 62
     7
370
     0
100
AcDbLine
 10
80.3217444949
 20
114.1590958792
 30
0.0
 11
80.6182096161
 21
114.1590958792
 31
0.0
  0
LINE
  5
12A
330
1F
100
AcDbEntity
  8
0
  6
Continuous
 62
     7
370
     0
100
AcDbLine
 10
77.0182096779
 20
114.1590958792
 30
0.0
 11
80.3217444949
 21
114.1590958792
 31
0.0
  0
LINE
  5
12B
330
1F
100
AcDbEntity
  8
0
  6
Continuous
 62
     7
370
     0
100
AcDbLine
 10
82.3622110214
 20
198.5019592899
 30
0.0
 11
82.3391528714
 21
197.4255366581
 31
0.0
  0
LINE
  5
12C
330
1F
100
AcDbEntity
  8
0
  6
Continuous
 62
     7
370
     0
100
AcDbLine
 10
86.0530805688
 20
226.0408139187
 30
0.0
 11
82.3622110214
 21
198.5019592899
 31
0.0
  0
ARC
  5
12D
330
1F
100
AcDbEntity
  8
0
  6
Continuous
 62
     7
370
     0
100
AcDbCircle
 10
87.0442182985
 20
225.9079751753
 30
0.0
 40
1.000000000000008
100
AcDbArc
 50
88.7728531586
 51
172.3664745578
  0
LINE
  5
12E
330
1F
100
AcDbEntity
  8
0
  6
Continuous
 62
     7
370
     0
100
AcDbLine
 10
91.9705058362
 20
226.8026804882
 30
0.0
 11
91.762422296
 21
226.8071359354
 31
0.0
  0
LINE
  5
12F
330
1F
100
AcDbEntity
  8
0
  6
Continuous
 62
     7
370
     0
100
AcDbLine
 10
87.2336520728
 20
226.9041499453
 30
0.0
 11
87.0656340297
 21
226.9077485758
 31
0.0
  0
LINE
  5
130
330
1F
100
AcDbEntity
  8
0
  6
Continuous
 62
     7
370
     0
100
AcDbLine
 10
92.0047896828
 20
226.7668953496
 30
0.0
 11
91.9705058362
 21
226.8026804882
 31
0.0
  0
ARC
  5
131
330
1F
100
AcDbEntity
  8
0
  6
Continuous
 62
     7
370
     0
100
AcDbCircle
 10
102.2884187909
 20
219.2814112484
 30
0.0
 40
1.600000000000024
100
AcDbArc
 50
260.572860308
 51
80.572860308
  0
LINE
  5
132
330
1F
100
AcDbEntity
  8
0
  6
Continuous
 62
     7
370
     0
100
AcDbLine
 10
97.5193648513
 20
221.6951510268
 30
0.0
 11
97.6995385166
 21
222.7802908379
 31
0.0
  0
LINE
  5
133
330
1F
100
AcDbEntity
  8
0
  6
Continuous
 62
     7
370
     0
100
AcDbLine
 10
108.2494842734
 20
203.2890467304
 30
0.0
 11
90.8871765163
 21
206.1718067485
 31
0.0
  0
LINE
  5
134
330
1F
100
AcDbEntity
  8
0
  6
Continuous
 62
     7
370
     0
100
AcDbLine
 10
90.0644750248
 20
207.3220981615
 30
0.0
 11
91.7351671409
 21
217.384341951
 31
0.0
  0
LINE
  5
135
330
1F
100
AcDbEntity
  8
0
  6
Continuous
 62
     7
370
     0
100
AcDbLine
 10
94.0357434477
 20
219.0297430712
 30
0.0
 11
102.0263495769
 21
217.7030181843
 31
0.0
  0
LINE
  5
136
330
1F
100
AcDbEntity
  8
0
  6
Continuous
 62
     7
370
     0
100
AcDbLine
 10
102.5504886087
 20
220.8597993809
 30
0.0
 11
97.5193648513
 21
221.6951510268
 31
0.0
  0
LINE
  5
137
330
1F
100
AcDbEntity
  8
0
  6
Continuous
 62
     7
370
     0
100
AcDbLine
 10
90.0644750248
 20
207.3220981615
 30
0.0
 11
90.8871765163
 21
206.1718067485
 31
0.0
  0
LINE
  5
138
330
1F
100
AcDbEntity
  8
0
  6
Continuous
 62
     7
370
     0
100
AcDbLine
 10
94.0357434477
 20
219.0297430712
 30
0.0
 11
91.7351671409
 21
217.384341951
 31
0.0
  0
LINE
  5
139
330
1F
100
AcDbEntity
  8
0
  6
Continuous
 62
     7
370
     0
100
AcDbLine
 10
108.2494842734
 20
203.2890467304
 30
0.0
 11
111.1158660527
 21
220.5527013498
 31
0.0
  0
LINE
  5
13A
330
1F
100
AcDbEntity
  8
0
  6
Continuous
 62
     7
370
     0
100
AcDbLine
 10
111.1158660527
 20
220.5527013498
 30
0.0
 11
97.6995385166
 21
222.7802908379
 31
0.0
  0
LINE
  5
13B
330
1F
100
AcDbEntity
  8
0
  6
Continuous
 62
     7
370
     0
100
AcDbLine
 10
97.7814334359
 20
223.2735416251
 30
0.0
 11
97.6995385166
 21
222.7802908379
 31
0.0
  0
LINE
  5
13C
330
1F
100
AcDbEntity
  8
0
  6
Continuous
 62
     7
370
     0
100
AcDbLine
 10
97.7814334359
 20
223.2735416251
 30
0.0
 11
110.7045157727
 21
221.127848919
 31
0.0
  0
ARC
  5
13D
330
1F
100
AcDbEntity
  8
0
  6
Continuous
 62
     7
370
     0
100
AcDbCircle
 10
110.6226180915
 20
220.6346008204
 30
0.0
 40
0.4999999999999957
100
AcDbArc
 50
350.572860308
 51
80.572860308
  0
SPLINE
  5
13E
330
1F
100
AcDbEntity
  8
0
  6
Continuous
 62
     7
370
     0
100
AcDbSpline
210
0.0
220
0.0
230
1.0
 70
     8
 71
     3
 72
    14
 73
    10
 74
     0
 42
0.000000001
 43
0.00000001
 40
0.0
 40
0.0
 40
0.0
 40
0.0
 40
0.1249999999999984
 40
0.1249999999999984
 40
0.2499999999999968
 40
0.2499999999999968
 40
0.4999999999999987
 40
0.4999999999999987
 40
1.0
 40
1.0
 40
1.0
 40
1.0
 10
90.75067439965534
 20
223.8986971016665
 30
0.0
 10
90.72848669563872
 20
223.9088572084828
 30
0.0
 10
90.70848334843159
 20
223.911709499508
 30
0.0
 10
90.67823956550114
 20
223.912746105697
 30
0.0
 10
90.66639235019352
 20
223.911108957246
 30
0.0
 10
90.63484421558515
 20
223.904141798586
 30
0.0
 10
90.61925388816255
 20
223.896427654897
 30
0.0
 10
90.58011804036016
 20
223.870871203359
 30
0.0
 10
90.56393302318656
 20
223.849926200618
 30
0.0
 10
90.55309270574509
 20
223.8274291475049
 30
0.0
  0
SPLINE
  5
13F
330
1F
100
AcDbEntity
  8
0
  6
Continuous
 62
     7
370
     0
100
AcDbSpline
210
0.0
220
0.0
230
1.0
 70
     8
 71
     3
 72
    14
 73
    10
 74
     0
 42
0.000000001
 43
0.00000001
 40
0.0
 40
0.0
 40
0.0
 40
0.0
 40
0.499999999999996
 40
0.499999999999996
 40
0.7500000000000006
 40
0.7500000000000006
 40
0.8750000000000003
 40
0.8750000000000003
 40
1.0
 40
1.0
 40
1.0
 40
1.0
 10
90.1155737194489
 20
223.8274291475049
 30
0.0
 10
90.10472766289777
 20
223.8499381110676
 30
0.0
 10
90.08853759700871
 20
223.8709453992921
 30
0.0
 10
90.04907874156208
 20
223.896611618991
 30
0.0
 10
90.03348298727235
 20
223.9042757566742
 30
0.0
 10
90.00185106937397
 20
223.9111720152639
 30
0.0
 10
89.98989833633624
 20
223.9127698328386
 30
0.0
 10
89.95986534701818
 20
223.9116555712496
 30
0.0
 10
89.93989005216345
 20
223.9087245605422
 30
0.0
 10
89.91799202553865
 20
223.8986971016665
 30
0.0
  0
ARC
  5
140
330
1F
100
AcDbEntity
  8
0
  6
Continuous
 62
     7
370
     0
100
AcDbCircle
 10
90.3343332126
 20
222.9894886459
 30
0.0
 40
0.8660254037844491
100
AcDbArc
 50
104.6315212283
 51
75.3684787717
  0
ARC
  5
141
330
1F
100
AcDbEntity
  8
0
  6
Continuous
 62
     7
370
     0
100
AcDbCircle
 10
90.0058311706
 20
223.6637188799
 30
0.0
 40
0.1500000000000096
100
AcDbArc
 50
295.9765162648
 51
14.439557232
  0
ARC
  5
142
330
1F
100
AcDbEntity
  8
0
  6
Continuous
 62
     7
370
     0
100
AcDbCircle
 10
90.6628352546
 20
223.6637188799
 30
0.0
 40
0.1500000000000096
100
AcDbArc
 50
165.560442768
 51
244.0234837352
  0
LINE
  5
143
330
1F
100
AcDbEntity
  8
0
  6
Continuous
 62
     7
370
     0
100
AcDbLine
 10
90.1257048275
 20
223.799716528
 30
0.0
 11
90.1510926809
 21
223.701122995
 31
0.0
  0
ARC
  5
144
330
1F
100
AcDbEntity
  8
0
  6
Continuous
 62
     7
370
     0
100
AcDbCircle
 10
90.3343332126
 20
222.9894886459
 30
0.0
 40
0.6000000000000186
100
AcDbArc
 50
115.9765162648
 51
64.0234837352
  0
LINE
  5
145
330
1F
100
AcDbEntity
  8
0
  6
Continuous
 62
     7
370
     0
100
AcDbLine
 10
90.5175737019
 20
223.701122995
 30
0.0
 11
90.5429615553
 21
223.799716528
 31
0.0
  0
ARC
  5
146
330
1F
100
AcDbEntity
  8
0
  6
Continuous
 62
     7
370
     0
100
AcDbCircle
 10
89.9804432036
 20
223.7623158333
 30
0.0
 40
0.1500000000000025
100
AcDbArc
 50
14.439557232
 51
25.7273245114
  0
ARC
  5
147
330
1F
100
AcDbEntity
  8
0
  6
Continuous
 62
     7
370
     0
100
AcDbCircle
 10
90.6882232216
 20
223.7623158333
 30
0.0
 40
0.1499999999999954
100
AcDbArc
 50
154.2726754886
 51
165.560442768
  0
SPLINE
  5
148
330
1F
100
AcDbEntity
  8
0
  6
Continuous
 62
     7
370
     0
100
AcDbSpline
210
0.0
220
0.0
230
1.0
 70
     8
 71
     3
 72
    14
 73
    10
 74
     0
 42
0.000000001
 43
0.00000001
 40
0.0
 40
0.0
 40
0.0
 40
0.0
 40
0.1249999999999988
 40
0.1249999999999988
 40
0.2499999999999976
 40
0.2499999999999976
 40
0.4999999999999951
 40
0.4999999999999951
 40
1.0
 40
1.0
 40
1.0
 40
1.0
 10
86.0351085382465
 20
197.8035084706906
 30
0.0
 10
86.01235217582338
 20
197.813766719864
 30
0.0
 10
85.99065136861569
 20
197.8183291473634
 30
0.0
 10
85.956626518792
 20
197.8218736242196
 30
0.0
 10
85.94259643301481
 20
197.8212963717896
 30
0.0
 10
85.9056152237004
 20
197.8170816813706
 30
0.0
 10
85.88678858746766
 20
197.8107759887425
 30
0.0
 10
85.83786667901553
 20
197.7886441362001
 30
0.0
 10
85.81574952317078
 20
197.7692603267159
 30
0.0
 10
85.7984350069645
 20
197.7482033679162
 30
0.0
  0
ARC
  5
149
330
1F
100
AcDbEntity
  8
0
  6
Continuous
 62
     7
370
     0
100
AcDbCircle
 10
85.4186678375
 20
196.4360287222
 30
0.0
 40
1.366025403784435
100
AcDbArc
 50
106.1414033176
 51
73.8585966824
  0
SPLINE
  5
14A
330
1F
100
AcDbEntity
  8
0
  6
Continuous
 62
     7
370
     0
100
AcDbSpline
210
0.0
220
0.0
230
1.0
 70
     8
 71
     3
 72
    14
 73
    10
 74
     0
 42
0.000000001
 43
0.00000001
 40
0.0
 40
0.0
 40
0.0
 40
0.0
 40
0.4999999999999953
 40
0.4999999999999953
 40
0.7499999999999958
 40
0.7499999999999958
 40
0.8749999999999979
 40
0.8749999999999979
 40
1.0
 40
1.0
 40
1.0
 40
1.0
 10
85.03890066797466
 20
197.7482033679161
 30
0.0
 10
85.02159354324482
 20
197.7692513376101
 30
0.0
 10
84.99948672130986
 20
197.7885783097553
 30
0.0
 10
84.95094142446715
 20
197.8106261393893
 30
0.0
 10
84.93218720803448
 20
197.8170021301181
 30
0.0
 10
84.89481579550548
 20
197.8213006617155
 30
0.0
 10
84.88083844828573
 20
197.8218659160412
 30
0.0
 10
84.847044831706
 20
197.8183875766338
 30
0.0
 10
84.82513022846827
 20
197.8138328633992
 30
0.0
 10
84.80222713669264
 20
197.8035084706905
 30
0.0
  0
ARC
  5
14B
330
1F
100
AcDbEntity
  8
0
  6
Continuous
 62
     7
370
     0
100
AcDbCircle
 10
84.9383416068
 20
197.4256178855
 30
0.0
 40
0.2000000000000124
100
AcDbArc
 50
295.8909827371
 51
15.4153010407
  0
ARC
  5
14C
330
1F
100
AcDbEntity
  8
0
  6
Continuous
 62
     7
370
     0
100
AcDbCircle
 10
85.4186678375
 20
196.4360287222
 30
0.0
 40
0.9000000000000045
100
AcDbArc
 50
115.8909827371
 51
64.1090172629
  0
LINE
  5
14D
330
1F
100
AcDbEntity
  8
0
  6
Continuous
 62
     7
370
     0
100
AcDbLine
 10
85.7061889868
 20
197.4787822324
 30
0.0
 11
85.7601116326
 21
197.6743413466
 31
0.0
  0
LINE
  5
14E
330
1F
100
AcDbEntity
  8
0
  6
Continuous
 62
     7
370
     0
100
AcDbLine
 10
85.0772240113
 20
197.6743413466
 30
0.0
 11
85.1311466571
 21
197.4787822324
 31
0.0
  0
ARC
  5
14F
330
1F
100
AcDbEntity
  8
0
  6
Continuous
 62
     7
370
     0
100
AcDbCircle
 10
85.8989940682
 20
197.4256178855
 30
0.0
 40
0.2000000000000066
100
AcDbArc
 50
164.5846989593
 51
244.1090172629
  0
ARC
  5
150
330
1F
100
AcDbEntity
  8
0
  6
Continuous
 62
     7
370
     0
100
AcDbCircle
 10
85.9529164448
 20
197.6211778376
 30
0.0
 40
0.2000000000000048
100
AcDbArc
 50
140.5705471975
 51
164.5846989593
  0
ARC
  5
151
330
1F
100
AcDbEntity
  8
0
  6
Continuous
 62
     7
370
     0
100
AcDbCircle
 10
84.8844192301
 20
197.6211778376
 30
0.0
 40
0.2000000000000124
100
AcDbArc
 50
15.4153010407
 51
39.4294528025
  0
CIRCLE
  5
152
330
1F
100
AcDbEntity
  8
0
  6
Continuous
 62
     7
370
     0
100
AcDbCircle
 10
102.296608454
 20
219.3307359828
 30
0.0
 40
1.199999999999969
  0
CIRCLE
  5
153
330
1F
100
AcDbEntity
  8
0
  6
Continuous
 62
     7
370
     0
100
AcDbCircle
 10
102.296608454
 20
219.3307359828
 30
0.0
 40
1.500000000000004
  0
LINE
  5
154
330
1F
100
AcDbEntity
  8
0
  6
Continuous
 62
     7
370
     0
100
AcDbLine
 10
96.9952258196
 20
218.5383623796
 30
0.0
 11
97.5193648513
 21
221.6951510268
 31
0.0
  0
LINE
  5
155
330
1F
100
AcDbEntity
  8
0
  6
Continuous
 62
     7
370
     0
100
AcDbLine
 10
96.9021531667
 20
222.8620013553
 30
0.0
 11
96.2060305204
 21
218.6694031912
 31
0.0
  0
LINE
  5
156
330
1F
100
AcDbEntity
  8
0
  6
Continuous
 62
     7
370
     0
100
AcDbLine
 10
96.9021531667
 20
222.8620013553
 30
0.0
 11
97.6913484659
 21
222.7309679943
 31
0.0
  0
LWPOLYLINE
  5
157
330
1F
100
AcDbEntity
  8
0
  6
Continuous
 62
     7
370
     0
100
AcDbPolyline
 90
       12
 70
   128
 43
0.0
 10
95.8196229216
 20
218.7842389899
 10
95.82598758
 20
218.8225796777
 10
95.8536366846
 20
218.989100154
 10
95.9008212115
 20
219.2732801991
 10
95.9633483466
 20
219.6498697954
 10
96.0356636818
 20
220.0854158359
 10
96.1113410916
 20
220.541205104
 10
96.1836564269
 20
220.9767436939
 10
96.2461835619
 20
221.3533407408
 10
96.2933680888
 20
221.6375207859
 10
96.3210171934
 20
221.8040412622
 10
96.3273818519
 20
221.8423744994
  0
LWPOLYLINE
  5
158
330
1F
100
AcDbEntity
  8
0
  6
Continuous
 62
     7
370
     0
100
AcDbPolyline
 90
        5
 70
   128
 43
0.0
 10
106.2772410836
 20
202.4000807064
 10
106.0129801657
 20
202.4439571756
 10
105.7889505204
 20
202.4811541992
 10
105.6392590429
 20
202.5060093361
 10
105.5866951968
 20
202.5147376913
  0
LWPOLYLINE
  5
159
330
1F
100
AcDbEntity
  8
0
  6
Continuous
 62
     7
370
     0
100
AcDbPolyline
 90
        5
 70
   128
 43
0.0
 10
106.9677869703
 20
202.2854274469
 10
106.9152231242
 20
202.2941520768
 10
106.7655316468
 20
202.3190072137
 10
106.5415020015
 20
202.3562042373
 10
106.2772410836
 20
202.4000807064
  0
LWPOLYLINE
  5
15A
330
1F
100
AcDbEntity
  8
0
  6
Continuous
 62
     7
370
     0
100
AcDbPolyline
 90
        5
 70
   128
 43
0.0
 10
104.3042509731
 20
202.7276678341
 10
104.0399919178
 20
202.7715443033
 10
103.8159622725
 20
202.8087413269
 10
103.6662707951
 20
202.8335964638
 10
103.6137050863
 20
202.8423248189
  0
LWPOLYLINE
  5
15B
330
1F
100
AcDbEntity
  8
0
  6
Continuous
 62
     7
370
     0
100
AcDbPolyline
 90
        5
 70
   128
 43
0.0
 10
104.9947987225
 20
202.6130108493
 10
104.9422330137
 20
202.6217392045
 10
104.7925415363
 20
202.6465943414
 10
104.568511891
 20
202.683791365
 10
104.3042509731
 20
202.7276678341
  0
LWPOLYLINE
  5
15C
330
1F
100
AcDbEntity
  8
0
  6
Continuous
 62
     7
370
     0
100
AcDbPolyline
 90
        5
 70
   128
 43
0.0
 10
105.458275127
 20
197.4676063615
 10
105.3261446681
 20
197.489544596
 10
105.2141289141
 20
197.5081449705
 10
105.1392841067
 20
197.5205725389
 10
105.1130021836
 20
197.5249348539
  0
LWPOLYLINE
  5
15D
330
1F
100
AcDbEntity
  8
0
  6
Continuous
 62
     7
370
     0
100
AcDbPolyline
 90
        5
 70
   128
 43
0.0
 10
105.8035480704
 20
197.4102815944
 10
105.7772661473
 20
197.4146439093
 10
105.7024194773
 20
197.4270714777
 10
105.590405586
 20
197.4456681269
 10
105.458275127
 20
197.4676063615
  0
LWPOLYLINE
  5
15E
330
1F
100
AcDbEntity
  8
0
  6
Continuous
 62
     7
370
     0
100
AcDbPolyline
 90
        5
 70
   128
 43
0.0
 10
103.4852850165
 20
197.7951934892
 10
103.3531545576
 20
197.8171317237
 10
103.2411406662
 20
197.8357320982
 10
103.1662939962
 20
197.8481596666
 10
103.1400120731
 20
197.8525219816
  0
LWPOLYLINE
  5
15F
330
1F
100
AcDbEntity
  8
0
  6
Continuous
 62
     7
370
     0
100
AcDbPolyline
 90
        5
 70
   128
 43
0.0
 10
103.8305579599
 20
197.7378649968
 10
103.8042760368
 20
197.742231037
 10
103.7294312294
 20
197.7546586054
 10
103.6174154755
 20
197.7732552546
 10
103.4852850165
 20
197.7951934892
  0
LWPOLYLINE
  5
160
330
1F
100
AcDbEntity
  8
0
  6
Continuous
 62
     8
370
     0
100
AcDbPolyline
 90
       12
 70
   128
 43
0.0
 10
96.5574390169
 20
222.0069131213
 10
96.5567703273
 20
222.0028898078
 10
96.5408894148
 20
221.9072392541
 10
96.5049757536
 20
221.6909414488
 10
96.4516947891
 20
221.3700374919
 10
96.3849990543
 20
220.968339439
 10
96.3098320093
 20
220.5156272608
 10
96.2317704137
 20
220.0454732734
 10
96.1566033687
 20
219.5927610951
 10
96.0899076339
 20
219.1910630423
 10
96.0366266694
 20
218.8701590854
 10
96.0087316956
 20
218.7021559435
  0
DIMENSION
  5
161
330
1F
100
AcDbEntity
  8
0
  6
Continuous
 62
     7
370
     0
100
AcDbDimension
  2
_D
 10
84.8182096706
 20
104.4992282172
 30
0.0
 11
78.8182096706
 21
104.4992282172
 31
0.0
 70
   160
  1
%%c<>
 71
     2
 42
-1.0
  3
SLDDIMSTYLE0
100
AcDbAlignedDimension
 13
72.8182096706
 23
122.6590945567
 33
0.0
 14
84.8182096706
 24
122.6590945567
 34
0.0
 50
0.0
100
AcDbRotatedDimension
  0
DIMENSION
  5
16F
330
1F
100
AcDbEntity
  8
0
  6
Continuous
 62
     7
370
     0
100
AcDbDimension
  2
_D_1
 10
91.3182096706
 20
98.0005388632
 30
0.0
 11
78.8182096706
 21
98.0005388632
 31
0.0
 70
   160
  1
<>
 71
     2
 42
-1.0
  3
SLDDIMSTYLE1
100
AcDbAlignedDimension
 13
66.3182096706
 23
142.1590945567
 33
0.0
 14
91.3182096706
 24
142.1590945567
 34
0.0
 50
0.0
100
AcDbRotatedDimension
  0
DIMENSION
  5
17A
330
1F
100
AcDbEntity
  8
0
  6
Continuous
 62
     7
370
     0
100
AcDbDimension
  2
_D_2
 10
98.3182096706
 20
89.6590945567
 30
0.0
 11
78.8182096706
 21
89.6590945567
 31
0.0
 70
   160
  1
<>
 71
     2
 42
-1.0
  3
SLDDIMSTYLE1
100
AcDbAlignedDimension
 13
59.3182096706
 23
137.6590945567
 33
0.0
 14
98.3182096706
 24
137.6590945567
 34
0.0
 50
0.0
100
AcDbRotatedDimension
  0
DIMENSION
  5
184
330
1F
100
AcDbEntity
  8
0
  6
Continuous
 62
     7
370
     0
100
AcDbDimension
  2
_D_3
 10
105.825696542
 20
142.1590945567
 30
0.0
 11
105.825696542
 21
131.9614316161
 31
0.0
 70
   160
  1
<>
 71
     2
 42
-1.0
  3
SLDDIMSTYLE0
100
AcDbAlignedDimension
 13
98.3182096706
 23
137.6590945567
 33
0.0
 14
91.3182096706
 24
142.1590945567
 34
0.0
 50
90.0
100
AcDbRotatedDimension
  0
DIMENSION
  5
190
330
1F
100
AcDbEntity
  8
0
  6
Continuous
 62
     7
370
     0
100
AcDbDimension
  2
_D_4
 10
105.825696542
 20
173.6590945567
 30
0.0
 11
105.825696542
 21
157.9090945567
 31
0.0
 70
   160
  1
<>
 71
     2
 42
-1.0
  3
SLDDIMSTYLE1
100
AcDbAlignedDimension
 13
91.3182096706
 23
142.1590945567
 33
0.0
 14
78.8182096706
 24
173.6590945567
 34
0.0
 50
90.0
100
AcDbRotatedDimension
  0
DIMENSION
  5
19A
330
1F
100
AcDbEntity
  8
0
  6
Continuous
 62
     7
370
     0
100
AcDbDimension
  2
_D_5
 10
113.7486577676
 20
137.6590945567
 30
0.0
 11
113.7486577676
 21
164.3590945567
 31
0.0
 70
   160
  1
<>
 71
     2
 42
-1.0
  3
SLDDIMSTYLE1
100
AcDbAlignedDimension
 13
83.8182096706
 23
191.0590945567
 33
0.0
 14
98.3182096706
 24
137.6590945567
 34
0.0
 50
90.0
100
AcDbRotatedDimension
  0
DIMENSION
  5
1A4
330
1F
100
AcDbEntity
  8
0
  6
Continuous
 62
     7
370
     0
100
AcDbDimension
  2
_D_6
 10
113.7486577676
 20
121.6590945567
 30
0.0
 11
113.7486577676
 21
129.6590945567
 31
0.0
 70
   160
  1
<>
 71
     2
 42
-1.0
  3
SLDDIMSTYLE1
100
AcDbAlignedDimension
 13
98.3182096706
 23
137.6590945567
 33
0.0
 14
83.8182096706
 24
121.6590945567
 34
0.0
 50
90.0
100
AcDbRotatedDimension
  0
DIMENSION
  5
1AE
330
1F
100
AcDbEntity
  8
0
  6
Continuous
 62
     7
370
     0
100
AcDbDimension
  2
_D_7
 10
121.1226430915
 20
227.5415024583
 30
0.0
 11
121.1226430915
 21
169.6002985075
 31
0.0
 70
   160
  1
(<>)
 71
     2
 42
-1.0
  3
SLDDIMSTYLE1
100
AcDbAlignedDimension
 13
80.3182096706
 23
111.6590945567
 33
0.0
 14
87.3394759117
 24
227.5415024583
 34
0.0
 50
90.0
100
AcDbRotatedDimension
  0
DIMENSION
  5
1BA
330
1F
100
AcDbEntity
  8
0
  6
Continuous
 62
     7
370
     0
100
AcDbDimension
  2
_D_8
 10
87.3394759117
 20
240.9710595384
 30
0.0
 11
78.8182096706
 21
240.9710595384
 31
0.0
 70
   160
  1
(<>)
 71
     2
 42
-1.0
  3
SLDDIMSTYLE1
100
AcDbAlignedDimension
 13
70.2969434295
 23
227.5415024583
 33
0.0
 14
87.3394759117
 24
227.5415024583
 34
0.0
 50
0.0
100
AcDbRotatedDimension
  0
DIMENSION
  5
1C6
330
1F
100
AcDbEntity
  8
0
  6
Continuous
 62
     7
370
     0
100
AcDbDimension
  2
_D_9
 10
67.8954162767
 20
140.2193988791
 30
0.0
 11
38.9419545607
 21
157.9090945567
 31
0.0
 70
   163
  1
3-<>取付穴\P(両側口元面取有)
 71
     1
 42
-1.0
  3
SLDDIMSTYLE2
100
AcDbDiametricDimension
 15
64.7410030646
 25
144.0987902343
 35
0.0
 40
0.0
  0
INSERT
  5
1D7
330
1F
100
AcDbEntity
  8
0
  6
Continuous
 62
     7
370
     0
100
AcDbBlockReference
  2
SW_NOTE_0
 10
40.3663503192
 20
131.3353512833
 30
0.0
  0
LEADER
  5
1D9
330
1F
100
AcDbEntity
  8
0
  6
Continuous
 62
     7
370
     0
100
AcDbLeader
  3
SLDDIMSTYLE3
 76
     2
 10
77.5419071143
 20
115.2028408875
 30
0.0
 10
40.3663503192
 20
131.3353512833
 30
0.0
  0
INSERT
  5
1E5
330
1F
100
AcDbEntity
  8
0
  6
Continuous
 62
     7
370
     0
100
AcDbBlockReference
  2
SW_CENTERMARKSYMBOL_0
 10
65.3182096706
 20
178.1590945567
 30
0.0
  0
INSERT
  5
1F1
330
1F
100
AcDbEntity
  8
0
  6
Continuous
 62
     7
370
     0
100
AcDbBlockReference
  2
SW_CENTERMARKSYMBOL_1
 10
78.8182096706
 20
173.6590945567
 30
0.0
  0
INSERT
  5
1FD
330
1F
100
AcDbEntity
  8
0
  6
Continuous
 62
     7
370
     0
100
AcDbBlockReference
  2
SW_CENTERMARKSYMBOL_2
 10
92.3182096706
 20
178.1590945567
 30
0.0
  0
INSERT
  5
209
330
1F
100
AcDbEntity
  8
0
  6
Continuous
 62
     7
370
     0
100
AcDbBlockReference
  2
SW_CENTERMARKSYMBOL_3
 10
66.3182096706
 20
142.1590945567
 30
0.0
  0
INSERT
  5
215
330
1F
100
AcDbEntity
  8
0
  6
Continuous
 62
     7
370
     0
100
AcDbBlockReference
  2
SW_CENTERMARKSYMBOL_4
 10
91.3182096706
 20
142.1590945567
 30
0.0
  0
CIRCLE
  5
216
330
1F
100
AcDbEntity
  8
0
  6
Continuous
 62
     7
370
     0
100
AcDbCircle
 10
66.3182096706
 20
142.1590945567
 30
0.0
 40
2.500000085665775
  0
CIRCLE
  5
217
330
1F
100
AcDbEntity
  8
0
  6
Continuous
 62
     7
370
     0
100
AcDbCircle
 10
91.3182096706
 20
142.1590945567
 30
0.0
 40
2.500000085665761
  0
CIRCLE
  5
218
330
1F
100
AcDbEntity
  8
0
  6
Continuous
 62
     7
370
     0
100
AcDbCircle
 10
78.8182096706
 20
173.6590945567
 30
0.0
 40
2.500000510348855
  0
LINE
  5
219
330
1F
100
AcDbEntity
  8
0
  6
CENTERX2
 62
     7
370
     0
100
AcDbLine
 10
78.8182096706
 20
110.6526852345
 30
0.0
 11
78.8182096706
 21
227.8704823412
 31
0.0
  0
LINE
  5
21A
330
1F
100
AcDbEntity
  8
0
  6
Continuous
 62
     7
370
     0
100
AcDbLine
 10
111.1226162787
 20
68.1810447061
 30
0.0
 11
111.1226162787
 21
73.5810448462
 31
0.0
  0
LINE
  5
21B
330
1F
100
AcDbEntity
  8
0
  6
Continuous
 62
     7
370
     0
100
AcDbLine
 10
106.2772410836
 20
71.2310447636
 30
0.0
 11
105.458275127
 21
71.2310447636
 31
0.0
  0
LINE
  5
21C
330
1F
100
AcDbEntity
  8
0
  6
Continuous
 62
     7
370
     0
100
AcDbLine
 10
105.458275127
 20
70.5310447886
 30
0.0
 11
106.2772410836
 21
70.5310447886
 31
0.0
  0
LINE
  5
21D
330
1F
100
AcDbEntity
  8
0
  6
Continuous
 62
     7
370
     0
100
AcDbLine
 10
104.3042509731
 20
71.2310447636
 30
0.0
 11
103.4852850165
 21
71.2310447636
 31
0.0
  0
LINE
  5
21E
330
1F
100
AcDbEntity
  8
0
  6
Continuous
 62
     7
370
     0
100
AcDbLine
 10
103.4852850165
 20
70.5310447886
 30
0.0
 11
104.3042509731
 21
70.5310447886
 31
0.0
  0
LINE
  5
21F
330
1F
100
AcDbEntity
  8
0
  6
Continuous
 62
     7
370
     0
100
AcDbLine
 10
106.7686199125
 20
71.5810447512
 30
0.0
 11
106.2772410836
 21
71.5810447512
 31
0.0
  0
LINE
  5
220
330
1F
100
AcDbEntity
  8
0
  6
Continuous
 62
     7
370
     0
100
AcDbLine
 10
106.2772410836
 20
70.1810448011
 30
0.0
 11
106.7686199125
 21
70.1810448011
 31
0.0
  0
LINE
  5
221
330
1F
100
AcDbEntity
  8
0
  6
Continuous
 62
     7
370
     0
100
AcDbLine
 10
104.7956316646
 20
71.5810447512
 30
0.0
 11
104.3042509731
 21
71.5810447512
 31
0.0
  0
LINE
  5
222
330
1F
100
AcDbEntity
  8
0
  6
Continuous
 62
     7
370
     0
100
AcDbLine
 10
104.3042509731
 20
70.1810448011
 30
0.0
 11
104.7956316646
 21
70.1810448011
 31
0.0
  0
LINE
  5
223
330
1F
100
AcDbEntity
  8
0
  6
Continuous
 62
     7
370
     0
100
AcDbLine
 10
103.6869815465
 20
73.2769931713
 30
0.0
 11
103.6869815465
 21
71.2310447636
 31
0.0
  0
LINE
  5
224
330
1F
100
AcDbEntity
  8
0
  6
Continuous
 62
     7
370
     0
100
AcDbLine
 10
103.6869815465
 20
70.5310447886
 30
0.0
 11
103.6869815465
 21
68.485096381
 31
0.0
  0
SPLINE
  5
225
330
1F
100
AcDbEntity
  8
0
  6
Continuous
 62
     7
370
     0
100
AcDbSpline
210
0.0
220
0.0
230
1.0
 70
     8
 71
     3
 72
    12
 73
     8
 74
     0
 42
0.000000001
 43
0.00000001
 40
0.0
 40
0.0
 40
0.0
 40
0.0
 40
0.1343454987488886
 40
0.3502222738667829
 40
0.5756504462311032
 40
0.7939569511282746
 40
1.0
 40
1.0
 40
1.0
 40
1.0
 10
103.6889596756377
 20
68.4920470741914
 30
0.0
 10
103.6886115368031
 20
68.47759778436759
 30
0.0
 10
103.6877039814667
 20
68.43993025411922
 30
0.0
 10
103.7115895643562
 20
68.37937395720326
 30
0.0
 10
103.7588357223079
 20
68.3237399247142
 30
0.0
 10
103.8226219211964
 20
68.28746740790908
 30
0.0
 10
103.8686725592723
 20
68.28314400067664
 30
0.0
 10
103.8910324599424
 20
68.28104476904137
 30
0.0
  0
SPLINE
  5
226
330
1F
100
AcDbEntity
  8
0
  6
Continuous
 62
     7
370
     0
100
AcDbSpline
210
0.0
220
0.0
230
1.0
 70
     8
 71
     3
 72
    12
 73
     8
 74
     0
 42
0.000000001
 43
0.00000001
 40
0.0
 40
0.0
 40
0.0
 40
0.0
 40
0.2032577857416064
 40
0.4259401567290583
 40
0.6514669803064476
 40
0.8501492827017721
 40
1.0
 40
1.0
 40
1.0
 40
1.0
 10
103.8910324599424
 20
73.48104478319748
 30
0.0
 10
103.869029035878
 20
73.4790093013649
 30
0.0
 10
103.8229194029292
 20
73.47474381432531
 30
0.0
 10
103.7590386834206
 20
73.43858073165231
 30
0.0
 10
103.7126280210138
 20
73.38407179794227
 30
0.0
 10
103.6888875349134
 20
73.32444080535235
 30
0.0
 10
103.6880522186405
 20
73.28689310491235
 30
0.0
 10
103.6876930769363
 20
73.27074958471222
 30
0.0
  0
LINE
  5
227
330
1F
100
AcDbEntity
  8
0
  6
Continuous
 62
     7
370
     0
100
AcDbLine
 10
100.7966088977
 20
66.9810448819
 30
0.0
 11
101.096608388
 21
66.6810449259
 31
0.0
  0
LINE
  5
228
330
1F
100
AcDbEntity
  8
0
  6
Continuous
 62
     7
370
     0
100
AcDbLine
 10
103.4966080364
 20
66.6810449259
 30
0.0
 11
103.7966075267
 21
66.9810448819
 31
0.0
  0
LINE
  5
229
330
1F
100
AcDbEntity
  8
0
  6
Continuous
 62
     7
370
     0
100
AcDbLine
 10
100.7966088977
 20
68.1810447061
 30
0.0
 11
100.7966088977
 21
67.88104475
 31
0.0
  0
LINE
  5
22A
330
1F
100
AcDbEntity
  8
0
  6
Continuous
 62
     7
370
     0
100
AcDbLine
 10
100.7966088977
 20
67.3810446681
 30
0.0
 11
100.7966088977
 21
66.9810448819
 31
0.0
  0
LINE
  5
22B
330
1F
100
AcDbEntity
  8
0
  6
Continuous
 62
     7
370
     0
100
AcDbLine
 10
103.7966075267
 20
66.9810448819
 30
0.0
 11
103.7966075267
 21
67.3810446681
 31
0.0
  0
LINE
  5
22C
330
1F
100
AcDbEntity
  8
0
  6
Continuous
 62
     7
370
     0
100
AcDbLine
 10
103.7966075267
 20
67.88104475
 30
0.0
 11
103.7966075267
 21
68.1810447061
 31
0.0
  0
LINE
  5
22D
330
1F
100
AcDbEntity
  8
0
  6
Continuous
 62
     7
370
     0
100
AcDbLine
 10
103.7966075267
 20
73.5810448462
 30
0.0
 11
103.7966075267
 21
73.8810448022
 31
0.0
  0
LINE
  5
22E
330
1F
100
AcDbEntity
  8
0
  6
Continuous
 62
     7
370
     0
100
AcDbLine
 10
103.7966075267
 20
74.3810448842
 30
0.0
 11
103.7966075267
 21
74.7810446703
 31
0.0
  0
LINE
  5
22F
330
1F
100
AcDbEntity
  8
0
  6
Continuous
 62
     7
370
     0
100
AcDbLine
 10
100.7966088977
 20
74.7810446703
 30
0.0
 11
100.7966088977
 21
74.3810448842
 31
0.0
  0
LINE
  5
230
330
1F
100
AcDbEntity
  8
0
  6
Continuous
 62
     7
370
     0
100
AcDbLine
 10
100.7966088977
 20
73.8810448022
 30
0.0
 11
100.7966088977
 21
73.5810448462
 31
0.0
  0
LINE
  5
231
330
1F
100
AcDbEntity
  8
0
  6
Continuous
 62
     7
370
     0
100
AcDbLine
 10
103.7966075267
 20
74.7810446703
 30
0.0
 11
103.4966080364
 21
75.0810446264
 31
0.0
  0
LINE
  5
232
330
1F
100
AcDbEntity
  8
0
  6
Continuous
 62
     7
370
     0
100
AcDbLine
 10
101.096608388
 20
75.0810446264
 30
0.0
 11
100.7966088977
 21
74.7810446703
 31
0.0
  0
CIRCLE
  5
233
330
1F
100
AcDbEntity
  8
0
  6
Continuous
 62
     7
370
     0
100
AcDbCircle
 10
78.8182096706
 20
70.8810447761
 30
0.0
 40
4.999999999999986
  0
CIRCLE
  5
234
330
1F
100
AcDbEntity
  8
0
  6
Continuous
 62
     7
370
     0
100
AcDbCircle
 10
78.8182096706
 20
70.8810447761
 30
0.0
 40
6.0
  0
CIRCLE
  5
235
330
1F
100
AcDbEntity
  8
0
  6
Continuous
 62
     7
370
     0
100
AcDbCircle
 10
78.8182096706
 20
70.8810447761
 30
0.0
 40
1.0
  0
LINE
  5
236
330
1F
100
AcDbEntity
  8
0
  6
Continuous
 62
     7
370
     0
100
AcDbLine
 10
97.3182103511
 20
62.8810443961
 30
0.0
 11
98.318210515
 21
63.8810445601
 31
0.0
  0
LINE
  5
237
330
1F
100
AcDbEntity
  8
0
  6
Continuous
 62
     7
370
     0
100
AcDbLine
 10
60.3182098742
 20
62.8810443961
 30
0.0
 11
97.3182103511
 21
62.8810443961
 31
0.0
  0
LINE
  5
238
330
1F
100
AcDbEntity
  8
0
  6
Continuous
 62
     7
370
     0
100
AcDbLine
 10
59.3182097103
 20
63.8810445601
 30
0.0
 11
60.3182098742
 21
62.8810443961
 31
0.0
  0
LINE
  5
239
330
1F
100
AcDbEntity
  8
0
  6
Continuous
 62
     7
370
     0
100
AcDbLine
 10
59.3182097103
 20
77.8810449922
 30
0.0
 11
59.3182097103
 21
63.8810445601
 31
0.0
  0
LINE
  5
23A
330
1F
100
AcDbEntity
  8
0
  6
Continuous
 62
     7
370
     0
100
AcDbLine
 10
60.3182098742
 20
78.8810451561
 30
0.0
 11
59.3182097103
 21
77.8810449922
 31
0.0
  0
LINE
  5
23B
330
1F
100
AcDbEntity
  8
0
  6
Continuous
 62
     7
370
     0
100
AcDbLine
 10
60.3182098742
 20
78.8810451561
 30
0.0
 11
97.3182103511
 21
78.8810451561
 31
0.0
  0
LINE
  5
23C
330
1F
100
AcDbEntity
  8
0
  6
Continuous
 62
     7
370
     0
100
AcDbLine
 10
98.318210515
 20
77.8810449922
 30
0.0
 11
97.3182103511
 21
78.8810451561
 31
0.0
  0
LINE
  5
23D
330
1F
100
AcDbEntity
  8
0
  6
Continuous
 62
     7
370
     0
100
AcDbLine
 10
98.318210515
 20
77.8810449922
 30
0.0
 11
98.318210515
 21
63.8810445601
 31
0.0
  0
LINE
  5
23E
330
1F
100
AcDbEntity
  8
0
  6
Continuous
 62
     7
370
     0
100
AcDbLine
 10
57.6045575466
 20
66.8810445861
 30
0.0
 11
57.6045575466
 21
74.8810449661
 31
0.0
  0
LINE
  5
23F
330
1F
100
AcDbEntity
  8
0
  6
Continuous
 62
     7
370
     0
100
AcDbLine
 10
59.3182097103
 20
74.8810449661
 30
0.0
 11
57.6045575466
 21
74.8810449661
 31
0.0
  0
LINE
  5
240
330
1F
100
AcDbEntity
  8
0
  6
Continuous
 62
     7
370
     0
100
AcDbLine
 10
59.3182097103
 20
66.8810445861
 30
0.0
 11
57.6045575466
 21
66.8810445861
 31
0.0
  0
LINE
  5
241
330
1F
100
AcDbEntity
  8
0
  6
Continuous
 62
     7
370
     0
100
AcDbLine
 10
100.0318626787
 20
74.8810449661
 30
0.0
 11
100.0318626787
 21
66.8810445861
 31
0.0
  0
LINE
  5
242
330
1F
100
AcDbEntity
  8
0
  6
Continuous
 62
     7
370
     0
100
AcDbLine
 10
98.318210515
 20
74.8810449661
 30
0.0
 11
100.0318626787
 21
74.8810449661
 31
0.0
  0
LINE
  5
243
330
1F
100
AcDbEntity
  8
0
  6
Continuous
 62
     7
370
     0
100
AcDbLine
 10
98.318210515
 20
66.8810445861
 30
0.0
 11
100.0318626787
 21
66.8810445861
 31
0.0
  0
CIRCLE
  5
244
330
1F
100
AcDbEntity
  8
0
  6
Continuous
 62
     7
370
     0
100
AcDbCircle
 10
78.8182096706
 20
70.8810447761
 30
0.0
 40
1.799999999999993
  0
CIRCLE
  5
245
330
1F
100
AcDbEntity
  8
0
  6
Continuous
 62
     7
370
     0
100
AcDbCircle
 10
78.8182096706
 20
70.8810447761
 30
0.0
 40
1.499999999999994
  0
CIRCLE
  5
246
330
1F
100
AcDbEntity
  8
0
  6
Continuous
 62
     7
370
     0
100
AcDbCircle
 10
78.8182096706
 20
70.8810447761
 30
0.0
 40
1.050000000000008
  0
ARC
  5
247
330
1F
100
AcDbEntity
  8
0
  6
Continuous
 62
     7
370
     0
100
AcDbCircle
 10
78.8182096706
 20
70.8810447761
 30
0.0
 40
4.299999999970415
100
AcDbArc
 50
204.882113171
 51
221.8243043567
  0
SPLINE
  5
248
330
1F
100
AcDbEntity
  8
0
  6
Continuous
 62
     7
370
     0
100
AcDbSpline
210
0.0
220
0.0
230
1.0
 70
    24
 71
     3
 72
     8
 73
     4
 74
     0
 42
0.000000001
 43
0.00000001
 40
0.0
 40
0.0
 40
0.0
 40
0.0
 40
1.0
 40
1.0
 40
1.0
 40
1.0
 10
74.91735540436262
 20
69.07180847562645
 30
0.0
 10
74.88755656050938
 20
69.58039543567814
 30
0.0
 10
74.85693579073077
 20
70.10301048386061
 30
0.0
 10
74.82505795777243
 20
70.64708025506253
 30
0.0
  0
ARC
  5
249
330
1F
100
AcDbEntity
  8
0
  6
Continuous
 62
     7
370
     0
100
AcDbCircle
 10
78.8182096706
 20
70.8810447761
 30
0.0
 40
3.999999999940362
100
AcDbArc
 50
183.3532087641
 51
243.3532087571
  0
SPLINE
  5
24A
330
1F
100
AcDbEntity
  8
0
  6
Continuous
 62
     7
370
     0
100
AcDbSpline
210
0.0
220
0.0
230
1.0
 70
    24
 71
     3
 72
     8
 73
     4
 74
     0
 42
0.000000001
 43
0.00000001
 40
0.0
 40
0.0
 40
0.0
 40
0.0
 40
1.0
 40
1.0
 40
1.0
 40
1.0
 10
77.0242530321943
 20
67.30589169154383
 30
0.0
 10
76.53713587242642
 20
67.55031956396826
 30
0.0
 10
76.06922757940343
 20
67.78510872349604
 30
0.0
 10
75.6138789300526
 20
68.01359564772015
 30
0.0
  0
ARC
  5
24B
330
1F
100
AcDbEntity
  8
0
  6
Continuous
 62
     7
370
     0
100
AcDbCircle
 10
78.8182096706
 20
70.8810447761
 30
0.0
 40
4.300000000035597
100
AcDbArc
 50
144.8821131696
 51
161.8243043573
  0
SPLINE
  5
24C
330
1F
100
AcDbEntity
  8
0
  6
Continuous
 62
     7
370
     0
100
AcDbSpline
210
0.0
220
0.0
230
1.0
 70
    24
 71
     3
 72
     8
 73
     4
 74
     0
 42
0.000000001
 43
0.00000001
 40
0.0
 40
0.0
 40
0.0
 40
0.0
 40
1.0
 40
1.0
 40
1.0
 40
1.0
 10
75.30093793946546
 20
73.35466551680915
 30
0.0
 10
75.72648774503823
 20
73.63476555266321
 30
0.0
 10
76.16377526848528
 20
73.92259144141248
 30
0.0
 10
76.61901459537282
 20
74.2222333402303
 30
0.0
  0
ARC
  5
24D
330
1F
100
AcDbEntity
  8
0
  6
Continuous
 62
     7
370
     0
100
AcDbCircle
 10
78.8182096706
 20
70.8810447761
 30
0.0
 40
4.000000000000001
100
AcDbArc
 50
123.353208768
 51
183.3532087641
  0
SPLINE
  5
24E
330
1F
100
AcDbEntity
  8
0
  6
Continuous
 62
     7
370
     0
100
AcDbSpline
210
0.0
220
0.0
230
1.0
 70
    24
 71
     3
 72
     8
 73
     4
 74
     0
 42
0.000000001
 43
0.00000001
 40
0.0
 40
0.0
 40
0.0
 40
0.0
 40
1.0
 40
1.0
 40
1.0
 40
1.0
 10
74.82505795780855
 20
70.64708025507021
 30
0.0
 10
74.79318012484093
 20
71.1911500264307
 30
0.0
 10
74.76255935500768
 20
71.71376507492135
 30
0.0
 10
74.73276051114583
 20
72.2223520351199
 30
0.0
  0
ARC
  5
24F
330
1F
100
AcDbEntity
  8
0
  6
Continuous
 62
     7
370
     0
100
AcDbCircle
 10
78.8182096706
 20
70.8810447761
 30
0.0
 40
4.300000000089874
100
AcDbArc
 50
264.8821131727
 51
281.8243043543
  0
ARC
  5
250
330
1F
100
AcDbEntity
  8
0
  6
Continuous
 62
     7
370
     0
100
AcDbCircle
 10
78.8182096706
 20
70.8810447761
 30
0.0
 40
4.000000000000007
100
AcDbArc
 50
243.3532087571
 51
303.3532087452
  0
SPLINE
  5
251
330
1F
100
AcDbEntity
  8
0
  6
Continuous
 62
     7
370
     0
100
AcDbSpline
210
0.0
220
0.0
230
1.0
 70
    24
 71
     3
 72
     8
 73
     4
 74
     0
 42
0.000000001
 43
0.00000001
 40
0.0
 40
0.0
 40
0.0
 40
0.0
 40
1.0
 40
1.0
 40
1.0
 40
1.0
 10
81.01740474506063
 20
67.53985621145874
 30
0.0
 10
80.56216541831519
 20
67.24021431273444
 30
0.0
 10
80.12487789476862
 20
66.95238842391969
 30
0.0
 10
79.69932808934017
 20
66.67228838816061
 30
0.0
  0
SPLINE
  5
252
330
1F
100
AcDbEntity
  8
0
  6
Continuous
 62
     7
370
     0
100
AcDbSpline
210
0.0
220
0.0
230
1.0
 70
    24
 71
     3
 72
     8
 73
     4
 74
     0
 42
0.000000001
 43
0.00000001
 40
0.0
 40
0.0
 40
0.0
 40
0.0
 40
1.0
 40
1.0
 40
1.0
 40
1.0
 10
78.43462713494739
 20
66.598187734979
 30
0.0
 10
77.9792784854682
 20
66.82667465926754
 30
0.0
 10
77.51137019206598
 20
67.06146381902647
 30
0.0
 10
77.02425303218288
 20
67.30589169150872
 30
0.0
  0
ARC
  5
253
330
1F
100
AcDbEntity
  8
0
  6
Continuous
 62
     7
370
     0
100
AcDbCircle
 10
78.8182096706
 20
70.8810447761
 30
0.0
 40
4.299999999977217
100
AcDbArc
 50
84.8821131727
 51
101.8243043587
  0
SPLINE
  5
254
330
1F
100
AcDbEntity
  8
0
  6
Continuous
 62
     7
370
     0
100
AcDbSpline
210
0.0
220
0.0
230
1.0
 70
    24
 71
     3
 72
     8
 73
     4
 74
     0
 42
0.000000001
 43
0.00000001
 40
0.0
 40
0.0
 40
0.0
 40
0.0
 40
1.0
 40
1.0
 40
1.0
 40
1.0
 10
79.20179220567509
 20
75.1639018175841
 30
0.0
 10
79.65714085511637
 20
74.93541489331459
 30
0.0
 10
80.12504914848638
 20
74.70062573357184
 30
0.0
 10
80.61216630835258
 20
74.45619786109808
 30
0.0
  0
ARC
  5
255
330
1F
100
AcDbEntity
  8
0
  6
Continuous
 62
     7
370
     0
100
AcDbCircle
 10
78.8182096706
 20
70.8810447761
 30
0.0
 40
4.000000000000001
100
AcDbArc
 50
63.3532087689
 51
123.353208768
  0
SPLINE
  5
256
330
1F
100
AcDbEntity
  8
0
  6
Continuous
 62
     7
370
     0
100
AcDbSpline
210
0.0
220
0.0
230
1.0
 70
    24
 71
     3
 72
     8
 73
     4
 74
     0
 42
0.000000001
 43
0.00000001
 40
0.0
 40
0.0
 40
0.0
 40
0.0
 40
1.0
 40
1.0
 40
1.0
 40
1.0
 10
76.61901459537282
 20
74.2222333402303
 30
0.0
 10
77.07425392231727
 20
74.52187523908559
 30
0.0
 10
77.51154144568076
 20
74.80970112777983
 30
0.0
 10
77.93709125131578
 20
75.08980116367488
 30
0.0
  0
ARC
  5
257
330
1F
100
AcDbEntity
  8
0
  6
Continuous
 62
     7
370
     0
100
AcDbCircle
 10
78.8182096706
 20
70.8810447761
 30
0.0
 40
4.300000000147944
100
AcDbArc
 50
324.8821131734
 51
341.824304353
  0
SPLINE
  5
258
330
1F
100
AcDbEntity
  8
0
  6
Continuous
 62
     7
370
     0
100
AcDbSpline
210
0.0
220
0.0
230
1.0
 70
    24
 71
     3
 72
     8
 73
     4
 74
     0
 42
0.000000001
 43
0.00000001
 40
0.0
 40
0.0
 40
0.0
 40
0.0
 40
1.0
 40
1.0
 40
1.0
 40
1.0
 10
82.33548140240502
 20
68.40742403582964
 30
0.0
 10
81.90993159639231
 20
68.127323999686
 30
0.0
 10
81.47264407244623
 20
67.83949811060438
 30
0.0
 10
81.01740474506063
 20
67.53985621145874
 30
0.0
  0
ARC
  5
259
330
1F
100
AcDbEntity
  8
0
  6
Continuous
 62
     7
370
     0
100
AcDbCircle
 10
78.8182096706
 20
70.8810447761
 30
0.0
 40
4.000000000000007
100
AcDbArc
 50
303.3532087452
 51
3.3532087738
  0
SPLINE
  5
25A
330
1F
100
AcDbEntity
  8
0
  6
Continuous
 62
     7
370
     0
100
AcDbSpline
210
0.0
220
0.0
230
1.0
 70
    24
 71
     3
 72
     8
 73
     4
 74
     0
 42
0.000000001
 43
0.00000001
 40
0.0
 40
0.0
 40
0.0
 40
0.0
 40
1.0
 40
1.0
 40
1.0
 40
1.0
 10
82.81136138344762
 20
71.11500929778416
 30
0.0
 10
82.84323921644236
 20
70.57093952596111
 30
0.0
 10
82.87385998627825
 20
70.04832447702398
 30
0.0
 10
82.9036588301637
 20
69.5397375164224
 30
0.0
  0
ARC
  5
25B
330
1F
100
AcDbEntity
  8
0
  6
Continuous
 62
     7
370
     0
100
AcDbCircle
 10
78.8182096706
 20
70.8810447761
 30
0.0
 40
4.299999999970397
100
AcDbArc
 50
24.882113171
 51
41.8243043611
  0
SPLINE
  5
25C
330
1F
100
AcDbEntity
  8
0
  6
Continuous
 62
     7
370
     0
100
AcDbSpline
210
0.0
220
0.0
230
1.0
 70
    24
 71
     3
 72
     8
 73
     4
 74
     0
 42
0.000000001
 43
0.00000001
 40
0.0
 40
0.0
 40
0.0
 40
0.0
 40
1.0
 40
1.0
 40
1.0
 40
1.0
 10
82.71906393693912
 20
72.69028107735053
 30
0.0
 10
82.74886278079241
 20
72.1816941172983
 30
0.0
 10
82.77948355050083
 20
71.6590790690121
 30
0.0
 10
82.81136138346052
 20
71.1150092977869
 30
0.0
  0
ARC
  5
25D
330
1F
100
AcDbEntity
  8
0
  6
Continuous
 62
     7
370
     0
100
AcDbCircle
 10
78.8182096706
 20
70.8810447761
 30
0.0
 40
3.999999999940352
100
AcDbArc
 50
3.3532087738
 51
63.3532087689
  0
SPLINE
  5
25E
330
1F
100
AcDbEntity
  8
0
  6
Continuous
 62
     7
370
     0
100
AcDbSpline
210
0.0
220
0.0
230
1.0
 70
    24
 71
     3
 72
     8
 73
     4
 74
     0
 42
0.000000001
 43
0.00000001
 40
0.0
 40
0.0
 40
0.0
 40
0.0
 40
1.0
 40
1.0
 40
1.0
 40
1.0
 10
80.61216630834117
 20
74.45619786106295
 30
0.0
 10
81.09928346812595
 20
74.21176998863004
 30
0.0
 10
81.56719176118116
 20
73.9769808290861
 30
0.0
 10
82.02254041056987
 20
73.74849390484295
 30
0.0
  0
LINE
  5
25F
330
1F
100
AcDbEntity
  8
0
  6
Continuous
 62
     7
370
     0
100
AcDbLine
 10
107.7562353488
 20
73.8810448022
 30
0.0
 11
107.7562353488
 21
67.88104475
 31
0.0
  0
LINE
  5
260
330
1F
100
AcDbEntity
  8
0
  6
Continuous
 62
     7
370
     0
100
AcDbLine
 10
100.0318626787
 20
73.8810448022
 30
0.0
 11
107.7562353488
 21
73.8810448022
 31
0.0
  0
LINE
  5
261
330
1F
100
AcDbEntity
  8
0
  6
Continuous
 62
     7
370
     0
100
AcDbLine
 10
108.2494842734
 20
74.3810448842
 30
0.0
 11
100.0318626787
 21
74.3810448842
 31
0.0
  0
LINE
  5
262
330
1F
100
AcDbEntity
  8
0
  6
Continuous
 62
     7
370
     0
100
AcDbLine
 10
108.2494842734
 20
67.3810446681
 30
0.0
 11
108.2494842734
 21
74.3810448842
 31
0.0
  0
LINE
  5
263
330
1F
100
AcDbEntity
  8
0
  6
Continuous
 62
     7
370
     0
100
AcDbLine
 10
107.7562353488
 20
67.88104475
 30
0.0
 11
100.0318626787
 21
67.88104475
 31
0.0
  0
LINE
  5
264
330
1F
100
AcDbEntity
  8
0
  6
Continuous
 62
     7
370
     0
100
AcDbLine
 10
100.0318626787
 20
67.3810446681
 30
0.0
 11
108.2494842734
 21
67.3810446681
 31
0.0
  0
LINE
  5
265
330
1F
100
AcDbEntity
  8
0
  6
Continuous
 62
     7
370
     0
100
AcDbLine
 10
111.1158660527
 20
73.5810448462
 30
0.0
 11
111.1158660527
 21
74.3810448842
 31
0.0
  0
LINE
  5
266
330
1F
100
AcDbEntity
  8
0
  6
Continuous
 62
     7
370
     0
100
AcDbLine
 10
111.1158660527
 20
68.1810447061
 30
0.0
 11
111.1158660527
 21
73.5810448462
 31
0.0
  0
LINE
  5
267
330
1F
100
AcDbEntity
  8
0
  6
Continuous
 62
     7
370
     0
100
AcDbLine
 10
111.1158660527
 20
67.3810446681
 30
0.0
 11
111.1158660527
 21
68.1810447061
 31
0.0
  0
LINE
  5
268
330
1F
100
AcDbEntity
  8
0
  6
Continuous
 62
     7
370
     0
100
AcDbLine
 10
108.2494842734
 20
74.3810448842
 30
0.0
 11
111.1158660527
 21
74.3810448842
 31
0.0
  0
LINE
  5
269
330
1F
100
AcDbEntity
  8
0
  6
Continuous
 62
     7
370
     0
100
AcDbLine
 10
108.2494842734
 20
67.3810446681
 30
0.0
 11
111.1158660527
 21
67.3810446681
 31
0.0
  0
LINE
  5
26A
330
1F
100
AcDbEntity
  8
0
  6
Continuous
 62
     7
370
     0
100
AcDbLine
 10
111.1158660527
 20
73.5810448462
 30
0.0
 11
111.1226162787
 21
73.5810448462
 31
0.0
  0
LINE
  5
26B
330
1F
100
AcDbEntity
  8
0
  6
Continuous
 62
     7
370
     0
100
AcDbLine
 10
111.1226162787
 20
68.1810447061
 30
0.0
 11
111.1158660527
 21
68.1810447061
 31
0.0
  0
LINE
  5
26C
330
1F
100
AcDbEntity
  8
0
  6
Continuous
 62
     7
370
     0
100
AcDbLine
 10
106.3806905325
 20
73.5810448462
 30
0.0
 11
107.7562353488
 21
73.5810448462
 31
0.0
  0
LINE
  5
26D
330
1F
100
AcDbEntity
  8
0
  6
Continuous
 62
     7
370
     0
100
AcDbLine
 10
106.3806905325
 20
68.1810447061
 30
0.0
 11
107.7562353488
 21
68.1810447061
 31
0.0
  0
CIRCLE
  5
26E
330
1F
100
AcDbEntity
  8
0
  6
Continuous
 62
     7
370
     0
100
AcDbCircle
 10
105.4570611831
 20
70.8840557644
 30
0.0
 40
0.3469911227153966
  0
ARC
  5
26F
330
1F
100
AcDbEntity
  8
0
  6
Continuous
 62
     7
370
     0
100
AcDbCircle
 10
106.2734106796
 20
70.8810447761
 30
0.0
 40
0.3500209468859731
100
AcDbArc
 50
270.627020655
 51
89.372979345
  0
CIRCLE
  5
270
330
1F
100
AcDbEntity
  8
0
  6
Continuous
 62
     7
370
     0
100
AcDbCircle
 10
103.4840710726
 20
70.8840557644
 30
0.0
 40
0.3469911227153966
  0
ARC
  5
271
330
1F
100
AcDbEntity
  8
0
  6
Continuous
 62
     7
370
     0
100
AcDbCircle
 10
104.300421828
 20
70.8810447761
 30
0.0
 40
0.3500209331118844
100
AcDbArc
 50
270.6268145985
 51
89.3731854015
  0
ARC
  5
272
330
1F
100
AcDbEntity
  8
0
  6
Continuous
 62
     7
370
     0
100
AcDbCircle
 10
106.7609609928
 20
70.8810447761
 30
0.0
 40
0.7000418731099344
100
AcDbArc
 50
270.6268661124
 51
89.3731338876
  0
ARC
  5
273
330
1F
100
AcDbEntity
  8
0
  6
Continuous
 62
     7
370
     0
100
AcDbCircle
 10
106.2792961014
 20
70.8916190201
 30
0.0
 40
0.6894287938569877
100
AcDbArc
 50
90.1707848888
 51
150.5062290325
  0
ARC
  5
274
330
1F
100
AcDbEntity
  8
0
  6
Continuous
 62
     7
370
     0
100
AcDbCircle
 10
106.278410228
 20
70.8850740755
 30
0.0
 40
0.695971657650294
100
AcDbArc
 50
210.5761769359
 51
90.096249716
  0
ARC
  5
275
330
1F
100
AcDbEntity
  8
0
  6
Continuous
 62
     7
370
     0
100
AcDbCircle
 10
104.7935524216
 20
70.8705488697
 30
0.0
 40
0.6895072036602174
100
AcDbArc
 50
270.1727785161
 51
331.0347366034
  0
ARC
  5
276
330
1F
100
AcDbEntity
  8
0
  6
Continuous
 62
     7
370
     0
100
AcDbCircle
 10
104.7935524216
 20
70.8915406825
 30
0.0
 40
0.6895072036602086
100
AcDbArc
 50
28.9652633966
 51
89.8272214839
  0
ARC
  5
277
330
1F
100
AcDbEntity
  8
0
  6
Continuous
 62
     7
370
     0
100
AcDbCircle
 10
104.3063107338
 20
70.891610916
 30
0.0
 40
0.6894369120294018
100
AcDbArc
 50
90.1711770421
 51
150.5058368792
  0
ARC
  5
278
330
1F
100
AcDbEntity
  8
0
  6
Continuous
 62
     7
370
     0
100
AcDbCircle
 10
104.3054201175
 20
70.8850740755
 30
0.0
 40
0.6959716576502878
100
AcDbArc
 50
210.5761769359
 51
90.096249716
  0
ARC
  5
279
330
1F
100
AcDbEntity
  8
0
  6
Continuous
 62
     7
370
     0
100
AcDbCircle
 10
108.3823983065
 20
68.6593988048
 30
0.0
 40
0.8335058302342214
100
AcDbArc
 50
171.6079915035
 51
206.9961663019
  0
LINE
  5
27A
330
1F
100
AcDbEntity
  8
0
  6
Continuous
 62
     7
370
     0
100
AcDbLine
 10
107.5578170743
 20
68.781044851
 30
0.0
 11
107.5578170743
 21
72.9810447012
 31
0.0
  0
ARC
  5
27B
330
1F
100
AcDbEntity
  8
0
  6
Continuous
 62
     7
370
     0
100
AcDbCircle
 10
108.3823983065
 20
73.1026907474
 30
0.0
 40
0.8335058302342353
100
AcDbArc
 50
153.0038336981
 51
188.3920084965
  0
LINE
  5
27C
330
1F
100
AcDbEntity
  8
0
  6
Continuous
 62
     7
370
     0
100
AcDbLine
 10
107.6397138562
 20
68.281044769
 30
0.0
 11
103.8910324599
 21
68.281044769
 31
0.0
  0
ELLIPSE
  5
27D
330
1F
100
AcDbEntity
  8
0
  6
Continuous
 62
     7
370
     0
100
AcDbEllipse
 10
104.1869817843
 20
68.7810447761
 30
0.0
 11
0.30111732765873
 21
0.4986780388335318
 31
0.0
210
0.0
220
0.0
230
1.0
 40
0.1206663986
 41
1.643529925760848
 42
3.214326252556125
  0
LINE
  5
27E
330
1F
100
AcDbEntity
  8
0
  6
Continuous
 62
     7
370
     0
100
AcDbLine
 10
104.1050857778
 20
68.781044851
 30
0.0
 11
107.5578170743
 21
68.781044851
 31
0.0
  0
LINE
  5
27F
330
1F
100
AcDbEntity
  8
0
  6
Continuous
 62
     7
370
     0
100
AcDbLine
 10
107.5578170743
 20
72.9810447012
 30
0.0
 11
104.1050857778
 21
72.9810447012
 31
0.0
  0
ELLIPSE
  5
280
330
1F
100
AcDbEntity
  8
0
  6
Continuous
 62
     7
370
     0
100
AcDbEllipse
 10
104.1869817843
 20
72.9810447761
 30
0.0
 11
-0.3011173276587158
 21
0.498678038833532
 31
0.0
210
0.0
220
0.0
230
1.0
 40
0.1206663986
 41
6.210451708213658
 42
7.781248035008534
  0
LINE
  5
281
330
1F
100
AcDbEntity
  8
0
  6
Continuous
 62
     7
370
     0
100
AcDbLine
 10
103.8910324599
 20
73.4810447832
 30
0.0
 11
107.6397138562
 21
73.4810447832
 31
0.0
  0
LINE
  5
282
330
1F
100
AcDbEntity
  8
0
  6
Continuous
 62
     7
370
     0
100
AcDbLine
 10
107.7562353488
 20
68.281044769
 30
0.0
 11
107.6397138562
 21
68.281044769
 31
0.0
  0
LINE
  5
283
330
1F
100
AcDbEntity
  8
0
  6
Continuous
 62
     7
370
     0
100
AcDbLine
 10
107.6397138562
 20
73.4810447832
 30
0.0
 11
107.7562353488
 21
73.4810447832
 31
0.0
  0
ELLIPSE
  5
284
330
1F
100
AcDbEntity
  8
0
  6
Continuous
 62
     7
370
     0
100
AcDbEllipse
 10
104.1869817843
 20
68.7810447761
 30
0.0
 11
0.4995317982162249
 21
0.2977972734189082
 31
0.0
210
0.0
220
0.0
230
1.0
 40
0.0726430587
 41
3.098313334140286
 42
3.262847960812268
  0
ELLIPSE
  5
285
330
1F
100
AcDbEntity
  8
0
  6
Continuous
 62
     7
370
     0
100
AcDbEllipse
 10
104.1869817843
 20
72.9810447761
 30
0.0
 11
0.4995317982162248
 21
-0.2977972734188938
 31
0.0
210
0.0
220
0.0
230
1.0
 40
0.0726430587
 41
3.020337346367677
 42
3.184871973039199
  0
LINE
  5
286
330
1F
100
AcDbEntity
  8
0
  6
Continuous
 62
     7
370
     0
100
AcDbLine
 10
104.2022413488
 20
73.5810448462
 30
0.0
 11
100.0318626787
 21
73.5810448462
 31
0.0
  0
LINE
  5
287
330
1F
100
AcDbEntity
  8
0
  6
Continuous
 62
     7
370
     0
100
AcDbLine
 10
104.2022413488
 20
73.4810447832
 30
0.0
 11
104.2022413488
 21
73.5810448462
 31
0.0
  0
LINE
  5
288
330
1F
100
AcDbEntity
  8
0
  6
Continuous
 62
     7
370
     0
100
AcDbLine
 10
104.2022413488
 20
68.1810447061
 30
0.0
 11
104.2022413488
 21
68.281044769
 31
0.0
  0
LINE
  5
289
330
1F
100
AcDbEntity
  8
0
  6
Continuous
 62
     7
370
     0
100
AcDbLine
 10
104.2022413488
 20
68.1810447061
 30
0.0
 11
100.0318626787
 21
68.1810447061
 31
0.0
  0
LINE
  5
28A
330
1F
100
AcDbEntity
  8
0
  6
Continuous
 62
     7
370
     0
100
AcDbLine
 10
106.3806905325
 20
68.1810447061
 30
0.0
 11
106.3806905325
 21
68.281044769
 31
0.0
  0
LINE
  5
28B
330
1F
100
AcDbEntity
  8
0
  6
Continuous
 62
     7
370
     0
100
AcDbLine
 10
106.3806905325
 20
68.1810447061
 30
0.0
 11
104.2022413488
 21
68.1810447061
 31
0.0
  0
LINE
  5
28C
330
1F
100
AcDbEntity
  8
0
  6
Continuous
 62
     7
370
     0
100
AcDbLine
 10
106.3806905325
 20
73.4810447832
 30
0.0
 11
106.3806905325
 21
73.5810448462
 31
0.0
  0
LINE
  5
28D
330
1F
100
AcDbEntity
  8
0
  6
Continuous
 62
     7
370
     0
100
AcDbLine
 10
106.3806905325
 20
73.5810448462
 30
0.0
 11
104.2022413488
 21
73.5810448462
 31
0.0
  0
LINE
  5
28E
330
1F
100
AcDbEntity
  8
0
  6
Continuous
 62
     7
370
     0
100
AcDbLine
 10
102.1000563081
 20
66.6810449259
 30
0.0
 11
101.096608388
 21
66.6810449259
 31
0.0
  0
LINE
  5
28F
330
1F
100
AcDbEntity
  8
0
  6
Continuous
 62
     7
370
     0
100
AcDbLine
 10
103.4966080364
 20
66.6810449259
 30
0.0
 11
102.1000563081
 21
66.6810449259
 31
0.0
  0
LINE
  5
290
330
1F
100
AcDbEntity
  8
0
  6
Continuous
 62
     7
370
     0
100
AcDbLine
 10
102.0509178664
 20
66.9810448819
 30
0.0
 11
103.7966075267
 21
66.9810448819
 31
0.0
  0
LINE
  5
291
330
1F
100
AcDbEntity
  8
0
  6
Continuous
 62
     7
370
     0
100
AcDbLine
 10
100.7966088977
 20
66.9810448819
 30
0.0
 11
102.0509178664
 21
66.9810448819
 31
0.0
  0
LINE
  5
292
330
1F
100
AcDbEntity
  8
0
  6
Continuous
 62
     7
370
     0
100
AcDbLine
 10
103.7966075267
 20
74.7810446703
 30
0.0
 11
100.7966088977
 21
74.7810446703
 31
0.0
  0
LINE
  5
293
330
1F
100
AcDbEntity
  8
0
  6
Continuous
 62
     7
370
     0
100
AcDbLine
 10
101.096608388
 20
75.0810446264
 30
0.0
 11
103.4966080364
 21
75.0810446264
 31
0.0
  0
LINE
  5
294
330
1F
100
AcDbEntity
  8
0
  6
Continuous
 62
     8
370
     0
100
AcDbLine
 10
107.5578170743
 20
68.781044851
 30
0.0
 11
107.7562353488
 21
68.781044851
 31
0.0
  0
LWPOLYLINE
  5
295
330
1F
100
AcDbEntity
  8
0
  6
Continuous
 62
     8
370
     0
100
AcDbPolyline
 90
        3
 70
   128
 43
0.0
 10
107.6397138562
 20
68.281044769
 10
107.7359418299
 20
68.2906520599
 10
107.7562353488
 20
68.2951969141
  0
LINE
  5
296
330
1F
100
AcDbEntity
  8
0
  6
Continuous
 62
     8
370
     0
100
AcDbLine
 10
107.7562353488
 20
72.9810447012
 30
0.0
 11
107.5578170743
 21
72.9810447012
 31
0.0
  0
LWPOLYLINE
  5
297
330
1F
100
AcDbEntity
  8
0
  6
Continuous
 62
     8
370
     0
100
AcDbPolyline
 90
        3
 70
   128
 43
0.0
 10
107.7562353488
 20
73.4668926382
 10
107.7359418299
 20
73.4714374923
 10
107.6397138562
 20
73.4810447832
  0
LINE
  5
298
330
1F
100
AcDbEntity
  8
0
  6
Continuous
 62
     8
370
     0
100
AcDbLine
 10
104.1050857778
 20
70.2107917098
 30
0.0
 11
104.1050857778
 21
68.781044851
 31
0.0
  0
LINE
  5
299
330
1F
100
AcDbEntity
  8
0
  6
Continuous
 62
     8
370
     0
100
AcDbLine
 10
104.1050857778
 20
72.9810447012
 30
0.0
 11
104.1050857778
 21
71.5512978425
 31
0.0
  0
ELLIPSE
  5
29A
330
1F
100
AcDbEntity
  8
0
  6
Continuous
 62
     8
370
     0
100
AcDbEllipse
 10
104.1869817843
 20
68.7810447761
 30
0.0
 11
0.4995317982162249
 21
0.2977972734189082
 31
0.0
210
0.0
220
0.0
230
1.0
 40
0.0726430587
 41
1.69205163401715
 42
3.098313334140286
  0
ELLIPSE
  5
29B
330
1F
100
AcDbEntity
  8
0
  6
Continuous
 62
     8
370
     0
100
AcDbEllipse
 10
104.1869817843
 20
72.9810447761
 30
0.0
 11
0.4995317982162248
 21
-0.2977972734188938
 31
0.0
210
0.0
220
0.0
230
1.0
 40
0.0726430587
 41
3.184871973039199
 42
4.591133673162433
  0
DIMENSION
  5
29C
330
1F
100
AcDbEntity
  8
0
  6
Continuous
 62
     7
370
     0
100
AcDbDimension
  2
_D_10
 10
111.1158654351
 20
40.8810447761
 30
0.0
 11
84.3602113162
 21
40.8810447761
 31
0.0
 70
   160
  1
(<>)
 71
     2
 42
-1.0
  3
SLDDIMSTYLE4
100
AcDbAlignedDimension
 13
57.6045571973
 23
66.8810447761
 33
0.0
 14
111.1158654351
 24
67.3810447761
 34
0.0
100
AcDbRotatedDimension
  0
DIMENSION
  5
2A9
330
1F
100
AcDbEntity
  8
0
  6
Continuous
 62
     7
370
     0
100
AcDbDimension
  2
_D_11
 10
78.8182096706
 20
51.874953529
 30
0.0
 11
68.211383434
 21
51.874953529
 31
0.0
 70
   160
  1
(<>)
 71
     2
 42
-1.0
  3
SLDDIMSTYLE1
100
AcDbAlignedDimension
 13
57.6045571973
 23
66.8810447761
 33
0.0
 14
78.8182096706
 24
70.8810447761
 34
0.0
100
AcDbRotatedDimension
  0
INSERT
  5
2C0
330
1F
100
AcDbEntity
  8
0
  6
Continuous
 62
     7
370
     0
100
AcDbBlockReference
  2
SW_CENTERMARKSYMBOL_5
 10
78.8182096706
 20
70.8810447761
 30
0.0
  0
LINE
  5
2C1
330
1F
100
AcDbEntity
  8
0
  6
Continuous
 62
     7
370
     0
100
AcDbLine
 10
149.577107555
 20
122.6590944785
 30
0.0
 11
150.5771077189
 21
121.6590961772
 31
0.0
  0
LINE
  5
2C2
330
1F
100
AcDbEntity
  8
0
  6
Continuous
 62
     7
370
     0
100
AcDbLine
 10
160.5771074954
 20
121.6590961772
 30
0.0
 11
161.5771076593
 21
122.6590944785
 31
0.0
  0
LINE
  5
2C3
330
1F
100
AcDbEntity
  8
0
  6
Continuous
 62
     7
370
     0
100
AcDbLine
 10
149.577107555
 20
137.6590950745
 30
0.0
 11
149.577107555
 21
122.6590944785
 31
0.0
  0
LINE
  5
2C4
330
1F
100
AcDbEntity
  8
0
  6
Continuous
 62
     7
370
     0
100
AcDbLine
 10
161.5771076593
 20
122.6590944785
 30
0.0
 11
161.5771076593
 21
137.6590950745
 31
0.0
  0
LINE
  5
2C5
330
1F
100
AcDbEntity
  8
0
  6
Continuous
 62
     7
370
     0
100
AcDbLine
 10
150.9721118908
 20
205.8104573148
 30
0.0
 11
152.0771074991
 21
205.8104573148
 31
0.0
  0
LINE
  5
2C6
330
1F
100
AcDbEntity
  8
0
  6
Continuous
 62
     7
370
     0
100
AcDbLine
 10
152.0771074991
 20
210.810459997
 30
0.0
 11
150.9721118908
 21
210.810459997
 31
0.0
  0
ARC
  5
2C7
330
1F
100
AcDbEntity
  8
0
  6
Continuous
 62
     7
370
     0
100
AcDbCircle
 10
150.9721117669
 20
206.0504587451
 30
0.0
 40
0.2400000000000211
100
AcDbArc
 50
216.9461268967
 51
270.0
  0
ARC
  5
2C8
330
1F
100
AcDbEntity
  8
0
  6
Continuous
 62
     7
370
     0
100
AcDbCircle
 10
150.9721117669
 20
210.5704587451
 30
0.0
 40
0.2400000000000375
100
AcDbArc
 50
90.0
 51
143.0538731033
  0
ARC
  5
2C9
330
1F
100
AcDbEntity
  8
0
  6
Continuous
 62
     7
370
     0
100
AcDbCircle
 10
153.9771076071
 20
208.3104587451
 30
0.0
 40
3.999999999999996
100
AcDbArc
 50
189.4549807878
 51
216.9461268967
  0
ARC
  5
2CA
330
1F
100
AcDbEntity
  8
0
  6
Continuous
 62
     7
370
     0
100
AcDbCircle
 10
153.9771076071
 20
208.3104587451
 30
0.0
 40
3.999999999999987
100
AcDbArc
 50
143.0538731033
 51
170.5450192122
  0
LINE
  5
2CB
330
1F
100
AcDbEntity
  8
0
  6
Continuous
 62
     7
370
     0
100
AcDbLine
 10
161.0771075773
 20
207.060459848
 30
0.0
 11
162.0771077412
 21
207.060459848
 31
0.0
  0
LINE
  5
2CC
330
1F
100
AcDbEntity
  8
0
  6
Continuous
 62
     7
370
     0
100
AcDbLine
 10
162.0771077412
 20
209.5604574638
 30
0.0
 11
161.0771075773
 21
209.5604574638
 31
0.0
  0
LINE
  5
2CD
330
1F
100
AcDbEntity
  8
0
  6
Continuous
 62
     7
370
     0
100
AcDbLine
 10
159.5771077971
 20
118.6590938228
 30
0.0
 11
159.8771077532
 21
118.9590951758
 31
0.0
  0
LINE
  5
2CE
330
1F
100
AcDbEntity
  8
0
  6
Continuous
 62
     7
370
     0
100
AcDbLine
 10
153.777107638
 20
113.6590948659
 30
0.0
 11
154.0771075941
 21
111.6590945381
 31
0.0
  0
LINE
  5
2CF
330
1F
100
AcDbEntity
  8
0
  6
Continuous
 62
     7
370
     0
100
AcDbLine
 10
157.0771076202
 20
111.6590945381
 30
0.0
 11
157.3771075762
 21
113.6590948659
 31
0.0
  0
LINE
  5
2D0
330
1F
100
AcDbEntity
  8
0
  6
Continuous
 62
     7
370
     0
100
AcDbLine
 10
157.3771075762
 20
113.6590948659
 30
0.0
 11
157.3771075762
 21
114.1590958792
 31
0.0
  0
LINE
  5
2D1
330
1F
100
AcDbEntity
  8
0
  6
Continuous
 62
     7
370
     0
100
AcDbLine
 10
153.777107638
 20
114.1590958792
 30
0.0
 11
153.777107638
 21
113.6590948659
 31
0.0
  0
LINE
  5
2D2
330
1F
100
AcDbEntity
  8
0
  6
Continuous
 62
     7
370
     0
100
AcDbLine
 10
153.777107638
 20
116.159096207
 30
0.0
 11
153.9771076475
 21
114.1590958792
 31
0.0
  0
LINE
  5
2D3
330
1F
100
AcDbEntity
  8
0
  6
Continuous
 62
     7
370
     0
100
AcDbLine
 10
157.1771075667
 20
114.1590958792
 30
0.0
 11
157.3771075762
 21
116.159096207
 31
0.0
  0
LINE
  5
2D4
330
1F
100
AcDbEntity
  8
0
  6
Continuous
 62
     7
370
     0
100
AcDbLine
 10
157.3771075762
 20
116.159096207
 30
0.0
 11
157.3771075762
 21
116.659093495
 31
0.0
  0
LINE
  5
2D5
330
1F
100
AcDbEntity
  8
0
  6
Continuous
 62
     7
370
     0
100
AcDbLine
 10
153.777107638
 20
116.659093495
 30
0.0
 11
153.777107638
 21
116.159096207
 31
0.0
  0
LINE
  5
2D6
330
1F
100
AcDbEntity
  8
0
  6
Continuous
 62
     7
370
     0
100
AcDbLine
 10
151.2771074611
 20
118.9590951758
 30
0.0
 11
151.5771074171
 21
118.6590938228
 31
0.0
  0
LINE
  5
2D7
330
1F
100
AcDbEntity
  8
0
  6
Continuous
 62
     7
370
     0
100
AcDbLine
 10
157.1771075667
 20
116.659093495
 30
0.0
 11
157.1771075667
 21
118.6590938228
 31
0.0
  0
LINE
  5
2D8
330
1F
100
AcDbEntity
  8
0
  6
Continuous
 62
     7
370
     0
100
AcDbLine
 10
153.9771076475
 20
118.6590938228
 30
0.0
 11
153.9771076475
 21
116.659093495
 31
0.0
  0
LINE
  5
2D9
330
1F
100
AcDbEntity
  8
0
  6
Continuous
 62
     7
370
     0
100
AcDbLine
 10
159.8771077532
 20
118.9590951758
 30
0.0
 11
159.8771077532
 21
121.6590961772
 31
0.0
  0
LINE
  5
2DA
330
1F
100
AcDbEntity
  8
0
  6
Continuous
 62
     7
370
     0
100
AcDbLine
 10
151.2771074611
 20
121.6590961772
 30
0.0
 11
151.2771074611
 21
118.9590951758
 31
0.0
  0
LINE
  5
2DB
330
1F
100
AcDbEntity
  8
0
  6
Continuous
 62
     7
370
     0
100
AcDbLine
 10
157.4771076392
 20
226.9079720932
 30
0.0
 11
153.6771075751
 21
226.9079720932
 31
0.0
  0
LINE
  5
2DC
330
1F
100
AcDbEntity
  8
0
  6
Continuous
 62
     7
370
     0
100
AcDbLine
 10
157.5771077021
 20
223.9123171526
 30
0.0
 11
157.4771076392
 21
223.9123171526
 31
0.0
  0
LINE
  5
2DD
330
1F
100
AcDbEntity
  8
0
  6
Continuous
 62
     7
370
     0
100
AcDbLine
 10
153.6771075751
 20
223.9123171526
 30
0.0
 11
153.5771075121
 21
223.9123171526
 31
0.0
  0
LINE
  5
2DE
330
1F
100
AcDbEntity
  8
0
  6
Continuous
 62
     7
370
     0
100
AcDbLine
 10
154.8771076321
 20
203.2890467304
 30
0.0
 11
154.8771076321
 21
202.4000807064
 31
0.0
  0
LINE
  5
2DF
330
1F
100
AcDbEntity
  8
0
  6
Continuous
 62
     7
370
     0
100
AcDbLine
 10
156.2771075822
 20
202.4000807064
 30
0.0
 11
156.2771075822
 21
203.2890467304
 31
0.0
  0
LINE
  5
2E0
330
1F
100
AcDbEntity
  8
0
  6
Continuous
 62
     7
370
     0
100
AcDbLine
 10
155.2271076196
 20
202.3007868188
 30
0.0
 11
155.2271076196
 21
197.4676063615
 31
0.0
  0
LINE
  5
2E1
330
1F
100
AcDbEntity
  8
0
  6
Continuous
 62
     7
370
     0
100
AcDbLine
 10
155.9271075946
 20
197.4676063615
 30
0.0
 11
155.9271075946
 21
202.3007868188
 31
0.0
  0
LINE
  5
2E2
330
1F
100
AcDbEntity
  8
0
  6
Continuous
 62
     7
370
     0
100
AcDbLine
 10
159.4771075013
 20
217.8307360369
 30
0.0
 11
159.7771074574
 21
218.1307336646
 31
0.0
  0
LINE
  5
2E3
330
1F
100
AcDbEntity
  8
0
  6
Continuous
 62
     7
370
     0
100
AcDbLine
 10
159.7771074574
 20
220.5307370382
 30
0.0
 11
159.4771075013
 21
220.830734666
 31
0.0
  0
LINE
  5
2E4
330
1F
100
AcDbEntity
  8
0
  6
Continuous
 62
     7
370
     0
100
AcDbLine
 10
159.0771077152
 20
217.8307360369
 30
0.0
 11
159.4771075013
 21
217.8307360369
 31
0.0
  0
LINE
  5
2E5
330
1F
100
AcDbEntity
  8
0
  6
Continuous
 62
     7
370
     0
100
AcDbLine
 10
159.4771075013
 20
220.830734666
 30
0.0
 11
159.0771077152
 21
220.830734666
 31
0.0
  0
LINE
  5
2E6
330
1F
100
AcDbEntity
  8
0
  6
Continuous
 62
     7
370
     0
100
AcDbLine
 10
158.5771076332
 20
220.830734666
 30
0.0
 11
158.2771076772
 21
220.830734666
 31
0.0
  0
LINE
  5
2E7
330
1F
100
AcDbEntity
  8
0
  6
Continuous
 62
     7
370
     0
100
AcDbLine
 10
152.8771075371
 20
220.830734666
 30
0.0
 11
152.577107581
 21
220.830734666
 31
0.0
  0
LINE
  5
2E8
330
1F
100
AcDbEntity
  8
0
  6
Continuous
 62
     7
370
     0
100
AcDbLine
 10
152.0771074991
 20
220.830734666
 30
0.0
 11
151.6771077129
 21
220.830734666
 31
0.0
  0
LINE
  5
2E9
330
1F
100
AcDbEntity
  8
0
  6
Continuous
 62
     7
370
     0
100
AcDbLine
 10
151.6771077129
 20
217.8307360369
 30
0.0
 11
152.0771074991
 21
217.8307360369
 31
0.0
  0
LINE
  5
2EA
330
1F
100
AcDbEntity
  8
0
  6
Continuous
 62
     7
370
     0
100
AcDbLine
 10
151.6771077129
 20
220.830734666
 30
0.0
 11
151.3771077569
 21
220.5307370382
 31
0.0
  0
LINE
  5
2EB
330
1F
100
AcDbEntity
  8
0
  6
Continuous
 62
     7
370
     0
100
AcDbLine
 10
151.3771077569
 20
218.1307336646
 30
0.0
 11
151.6771077129
 21
217.8307360369
 31
0.0
  0
LINE
  5
2EC
330
1F
100
AcDbEntity
  8
0
  6
Continuous
 62
     7
370
     0
100
AcDbLine
 10
160.6729648027
 20
205.4104617196
 30
0.0
 11
161.0771075773
 21
206.1104586678
 31
0.0
  0
LINE
  5
2ED
330
1F
100
AcDbEntity
  8
0
  6
Continuous
 62
     7
370
     0
100
AcDbLine
 10
161.0771075773
 20
210.510458644
 30
0.0
 11
160.6729648027
 21
211.2104555922
 31
0.0
  0
LINE
  5
2EE
330
1F
100
AcDbEntity
  8
0
  6
Continuous
 62
     7
370
     0
100
AcDbLine
 10
151.5771074171
 20
172.7222239929
 30
0.0
 11
159.5771077971
 21
172.7222239929
 31
0.0
  0
LINE
  5
2EF
330
1F
100
AcDbEntity
  8
0
  6
Continuous
 62
     7
370
     0
100
AcDbLine
 10
151.5771074171
 20
150.0328456382
 30
0.0
 11
159.5771077971
 21
150.0328456382
 31
0.0
  0
LINE
  5
2F0
330
1F
100
AcDbEntity
  8
0
  6
Continuous
 62
     7
370
     0
100
AcDbLine
 10
151.5771074171
 20
150.0328456382
 30
0.0
 11
151.5771074171
 21
172.7222239929
 31
0.0
  0
LINE
  5
2F1
330
1F
100
AcDbEntity
  8
0
  6
Continuous
 62
     7
370
     0
100
AcDbLine
 10
159.5771077971
 20
150.0328456382
 30
0.0
 11
159.5771077971
 21
172.7222239929
 31
0.0
  0
LINE
  5
2F2
330
1F
100
AcDbEntity
  8
0
  6
Continuous
 62
     7
370
     0
100
AcDbLine
 10
151.5771074171
 20
183.2229530769
 30
0.0
 11
151.5771074171
 21
186.0952357161
 31
0.0
  0
LINE
  5
2F3
330
1F
100
AcDbEntity
  8
0
  6
Continuous
 62
     7
370
     0
100
AcDbLine
 10
151.5771074171
 20
186.4093987602
 30
0.0
 11
151.5771074171
 21
196.0900759655
 31
0.0
  0
LINE
  5
2F4
330
1F
100
AcDbEntity
  8
0
  6
Continuous
 62
     7
370
     0
100
AcDbLine
 10
159.5771077971
 20
196.0900759655
 30
0.0
 11
151.5771074171
 21
196.0900759655
 31
0.0
  0
LINE
  5
2F5
330
1F
100
AcDbEntity
  8
0
  6
Continuous
 62
     7
370
     0
100
AcDbLine
 10
159.5771077971
 20
186.4093987602
 30
0.0
 11
159.5771077971
 21
196.0900759655
 31
0.0
  0
LINE
  5
2F6
330
1F
100
AcDbEntity
  8
0
  6
Continuous
 62
     7
370
     0
100
AcDbLine
 10
159.5771077971
 20
183.2229530769
 30
0.0
 11
159.5771077971
 21
186.0952357161
 31
0.0
  0
LINE
  5
2F7
330
1F
100
AcDbEntity
  8
0
  6
Continuous
 62
     7
370
     0
100
AcDbLine
 10
151.5771074171
 20
172.7222239929
 30
0.0
 11
151.5771074171
 21
179.4933991837
 31
0.0
  0
LINE
  5
2F8
330
1F
100
AcDbEntity
  8
0
  6
Continuous
 62
     7
370
     0
100
AcDbLine
 10
159.5771077971
 20
172.7222239929
 30
0.0
 11
159.5771077971
 21
179.4933991837
 31
0.0
  0
ARC
  5
2F9
330
1F
100
AcDbEntity
  8
0
  6
Continuous
 62
     7
370
     0
100
AcDbCircle
 10
155.5771076071
 20
184.6590945567
 30
0.0
 40
4.250000000000011
100
AcDbArc
 50
180.0
 51
199.7499227956
  0
LINE
  5
2FA
330
1F
100
AcDbEntity
  8
0
  6
Continuous
 62
     7
370
     0
100
AcDbLine
 10
151.5771074171
 20
179.4933991837
 30
0.0
 11
151.5771074171
 21
183.2229530769
 31
0.0
  0
ARC
  5
2FB
330
1F
100
AcDbEntity
  8
0
  6
Continuous
 62
     7
370
     0
100
AcDbCircle
 10
155.5771076071
 20
162.1590945567
 30
0.0
 40
6.0
100
AcDbArc
 50
131.8103148958
 51
180.0
  0
LINE
  5
2FC
330
1F
100
AcDbEntity
  8
0
  6
Continuous
 62
     7
370
     0
100
AcDbLine
 10
149.577107555
 20
152.6590945064
 30
0.0
 11
149.577107555
 21
162.1590944338
 31
0.0
  0
ARC
  5
2FD
330
1F
100
AcDbEntity
  8
0
  6
Continuous
 62
     7
370
     0
100
AcDbCircle
 10
155.5771076071
 20
152.6590945567
 30
0.0
 40
6.0
100
AcDbArc
 50
180.0
 51
0.0
  0
LINE
  5
2FE
330
1F
100
AcDbEntity
  8
0
  6
Continuous
 62
     7
370
     0
100
AcDbLine
 10
161.5771076593
 20
162.1590944338
 30
0.0
 11
161.5771076593
 21
152.6590945064
 31
0.0
  0
ARC
  5
2FF
330
1F
100
AcDbEntity
  8
0
  6
Continuous
 62
     7
370
     0
100
AcDbCircle
 10
155.5771076071
 20
162.1590945567
 30
0.0
 40
6.0
100
AcDbArc
 50
0.0
 51
48.1896851042
  0
LINE
  5
300
330
1F
100
AcDbEntity
  8
0
  6
Continuous
 62
     7
370
     0
100
AcDbLine
 10
159.5771077971
 20
183.2229530769
 30
0.0
 11
159.5771077971
 21
179.4933991837
 31
0.0
  0
ARC
  5
301
330
1F
100
AcDbEntity
  8
0
  6
Continuous
 62
     7
370
     0
100
AcDbCircle
 10
155.5771076071
 20
184.6590945567
 30
0.0
 40
4.250000000000011
100
AcDbArc
 50
340.2500772044
 51
0.0
  0
LINE
  5
302
330
1F
100
AcDbEntity
  8
0
  6
Continuous
 62
     7
370
     0
100
AcDbLine
 10
162.5771078232
 20
184.6590953278
 30
0.0
 11
159.8271078381
 21
184.6590953278
 31
0.0
  0
LINE
  5
303
330
1F
100
AcDbEntity
  8
0
  6
Continuous
 62
     7
370
     0
100
AcDbLine
 10
162.5771078232
 20
137.6590950745
 30
0.0
 11
162.5771078232
 21
184.6590953278
 31
0.0
  0
LINE
  5
304
330
1F
100
AcDbEntity
  8
0
  6
Continuous
 62
     7
370
     0
100
AcDbLine
 10
148.5771073911
 20
137.6590950745
 30
0.0
 11
162.5771078232
 21
137.6590950745
 31
0.0
  0
LINE
  5
305
330
1F
100
AcDbEntity
  8
0
  6
Continuous
 62
     7
370
     0
100
AcDbLine
 10
148.5771073911
 20
184.6590953278
 30
0.0
 11
148.5771073911
 21
137.6590950745
 31
0.0
  0
LINE
  5
306
330
1F
100
AcDbEntity
  8
0
  6
Continuous
 62
     7
370
     0
100
AcDbLine
 10
151.3271073762
 20
184.6590953278
 30
0.0
 11
148.5771073911
 21
184.6590953278
 31
0.0
  0
LINE
  5
307
330
1F
100
AcDbEntity
  8
0
  6
Continuous
 62
     7
370
     0
100
AcDbLine
 10
162.5771078232
 20
184.6590953278
 30
0.0
 11
163.5771079871
 21
185.6590936291
 31
0.0
  0
LINE
  5
308
330
1F
100
AcDbEntity
  8
0
  6
Continuous
 62
     7
370
     0
100
AcDbLine
 10
163.5771079871
 20
185.6590936291
 30
0.0
 11
163.5771079871
 21
137.6590950745
 31
0.0
  0
LINE
  5
309
330
1F
100
AcDbEntity
  8
0
  6
Continuous
 62
     7
370
     0
100
AcDbLine
 10
163.5771079871
 20
137.6590950745
 30
0.0
 11
162.5771078232
 21
137.6590950745
 31
0.0
  0
LINE
  5
30A
330
1F
100
AcDbEntity
  8
0
  6
Continuous
 62
     7
370
     0
100
AcDbLine
 10
147.5771072271
 20
137.6590950745
 30
0.0
 11
147.5771072271
 21
185.6590936291
 31
0.0
  0
LINE
  5
30B
330
1F
100
AcDbEntity
  8
0
  6
Continuous
 62
     7
370
     0
100
AcDbLine
 10
147.5771072271
 20
185.6590936291
 30
0.0
 11
148.5771073911
 21
184.6590953278
 31
0.0
  0
LINE
  5
30C
330
1F
100
AcDbEntity
  8
0
  6
Continuous
 62
     7
370
     0
100
AcDbLine
 10
148.5771073911
 20
137.6590950745
 30
0.0
 11
147.5771072271
 21
137.6590950745
 31
0.0
  0
LINE
  5
30D
330
1F
100
AcDbEntity
  8
0
  6
Continuous
 62
     7
370
     0
100
AcDbLine
 10
159.5771077971
 20
186.4093987602
 30
0.0
 11
159.5771077971
 21
186.0952357161
 31
0.0
  0
LINE
  5
30E
330
1F
100
AcDbEntity
  8
0
  6
Continuous
 62
     7
370
     0
100
AcDbLine
 10
159.5771077971
 20
189.6590961474
 30
0.0
 11
161.9771074454
 21
189.6590961474
 31
0.0
  0
LINE
  5
30F
330
1F
100
AcDbEntity
  8
0
  6
Continuous
 62
     7
370
     0
100
AcDbLine
 10
163.5771079871
 20
188.0590951401
 30
0.0
 11
161.9771074454
 21
189.6590961474
 31
0.0
  0
LINE
  5
310
330
1F
100
AcDbEntity
  8
0
  6
Continuous
 62
     7
370
     0
100
AcDbLine
 10
163.5771079871
 20
188.0590951401
 30
0.0
 11
163.5771079871
 21
185.6590936291
 31
0.0
  0
ARC
  5
311
330
1F
100
AcDbEntity
  8
0
  6
Continuous
 62
     7
370
     0
100
AcDbCircle
 10
155.5771076071
 20
184.6590945567
 30
0.0
 40
4.25
100
AcDbArc
 50
0.0
 51
19.7499227956
  0
LINE
  5
312
330
1F
100
AcDbEntity
  8
0
  6
Continuous
 62
     7
370
     0
100
AcDbLine
 10
151.5771074171
 20
186.0952357161
 30
0.0
 11
151.5771074171
 21
186.4093987602
 31
0.0
  0
LINE
  5
313
330
1F
100
AcDbEntity
  8
0
  6
Continuous
 62
     7
370
     0
100
AcDbLine
 10
147.5771072271
 20
185.6590936291
 30
0.0
 11
147.5771072271
 21
188.0590951401
 31
0.0
  0
LINE
  5
314
330
1F
100
AcDbEntity
  8
0
  6
Continuous
 62
     7
370
     0
100
AcDbLine
 10
149.1771077688
 20
189.6590961474
 30
0.0
 11
147.5771072271
 21
188.0590951401
 31
0.0
  0
LINE
  5
315
330
1F
100
AcDbEntity
  8
0
  6
Continuous
 62
     7
370
     0
100
AcDbLine
 10
149.1771077688
 20
189.6590961474
 30
0.0
 11
151.5771074171
 21
189.6590961474
 31
0.0
  0
ARC
  5
316
330
1F
100
AcDbEntity
  8
0
  6
Continuous
 62
     7
370
     0
100
AcDbCircle
 10
155.5771076071
 20
184.6590945567
 30
0.0
 40
4.250000000000001
100
AcDbArc
 50
160.2500772044
 51
180.0
  0
LINE
  5
317
330
1F
100
AcDbEntity
  8
0
  6
Continuous
 62
     7
370
     0
100
AcDbLine
 10
152.0771074991
 20
204.0368950325
 30
0.0
 11
151.5771074171
 21
204.0368950325
 31
0.0
  0
LINE
  5
318
330
1F
100
AcDbEntity
  8
0
  6
Continuous
 62
     7
370
     0
100
AcDbLine
 10
159.5771077971
 20
204.0368950325
 30
0.0
 11
159.0771077152
 21
204.0368950325
 31
0.0
  0
LINE
  5
319
330
1F
100
AcDbEntity
  8
0
  6
Continuous
 62
     7
370
     0
100
AcDbLine
 10
151.5771074171
 20
200.1814579922
 30
0.0
 11
151.5771074171
 21
204.0368950325
 31
0.0
  0
LINE
  5
31A
330
1F
100
AcDbEntity
  8
0
  6
Continuous
 62
     7
370
     0
100
AcDbLine
 10
159.5771077971
 20
200.1814579922
 30
0.0
 11
159.5771077971
 21
204.0368950325
 31
0.0
  0
LINE
  5
31B
330
1F
100
AcDbEntity
  8
0
  6
Continuous
 62
     7
370
     0
100
AcDbLine
 10
157.5771077021
 20
148.387443121
 30
0.0
 11
153.5771075121
 21
148.387443121
 31
0.0
  0
LINE
  5
31C
330
1F
100
AcDbEntity
  8
0
  6
Continuous
 62
     7
370
     0
100
AcDbLine
 10
153.5771075121
 20
148.387443121
 30
0.0
 11
151.5771074171
 21
150.0328456382
 31
0.0
  0
LINE
  5
31D
330
1F
100
AcDbEntity
  8
0
  6
Continuous
 62
     7
370
     0
100
AcDbLine
 10
159.5771077971
 20
150.0328456382
 30
0.0
 11
157.5771077021
 21
148.387443121
 31
0.0
  0
LINE
  5
31E
330
1F
100
AcDbEntity
  8
0
  6
Continuous
 62
     7
370
     0
100
AcDbLine
 10
159.5771077971
 20
224.0943720895
 30
0.0
 11
157.5771077021
 21
224.0943720895
 31
0.0
  0
LINE
  5
31F
330
1F
100
AcDbEntity
  8
0
  6
Continuous
 62
     7
370
     0
100
AcDbLine
 10
157.5771077021
 20
224.0943720895
 30
0.0
 11
157.5771077021
 21
223.2735416251
 31
0.0
  0
LINE
  5
320
330
1F
100
AcDbEntity
  8
0
  6
Continuous
 62
     7
370
     0
100
AcDbLine
 10
159.5771077971
 20
224.0943720895
 30
0.0
 11
159.5771077971
 21
220.7307329732
 31
0.0
  0
LINE
  5
321
330
1F
100
AcDbEntity
  8
0
  6
Continuous
 62
     7
370
     0
100
AcDbLine
 10
153.5771075121
 20
224.0943720895
 30
0.0
 11
151.5771074171
 21
224.0943720895
 31
0.0
  0
LINE
  5
322
330
1F
100
AcDbEntity
  8
0
  6
Continuous
 62
     7
370
     0
100
AcDbLine
 10
153.5771075121
 20
223.2735416251
 30
0.0
 11
153.5771075121
 21
224.0943720895
 31
0.0
  0
LINE
  5
323
330
1F
100
AcDbEntity
  8
0
  6
Continuous
 62
     7
370
     0
100
AcDbLine
 10
151.5771074171
 20
224.0943720895
 30
0.0
 11
151.5771074171
 21
220.7307329732
 31
0.0
  0
LINE
  5
324
330
1F
100
AcDbEntity
  8
0
  6
Continuous
 62
     7
370
     0
100
AcDbLine
 10
157.5771077021
 20
226.394947465
 30
0.0
 11
159.5771077971
 21
226.394947465
 31
0.0
  0
LINE
  5
325
330
1F
100
AcDbEntity
  8
0
  6
Continuous
 62
     7
370
     0
100
AcDbLine
 10
157.5771077021
 20
224.0943720895
 30
0.0
 11
157.5771077021
 21
226.394947465
 31
0.0
  0
LINE
  5
326
330
1F
100
AcDbEntity
  8
0
  6
Continuous
 62
     7
370
     0
100
AcDbLine
 10
159.5771077971
 20
226.394947465
 30
0.0
 11
159.5771077971
 21
224.0943720895
 31
0.0
  0
LINE
  5
327
330
1F
100
AcDbEntity
  8
0
  6
Continuous
 62
     7
370
     0
100
AcDbLine
 10
151.5771074171
 20
226.394947465
 30
0.0
 11
153.5771075121
 21
226.394947465
 31
0.0
  0
LINE
  5
328
330
1F
100
AcDbEntity
  8
0
  6
Continuous
 62
     7
370
     0
100
AcDbLine
 10
153.5771075121
 20
226.394947465
 30
0.0
 11
153.5771075121
 21
224.0943720895
 31
0.0
  0
LINE
  5
329
330
1F
100
AcDbEntity
  8
0
  6
Continuous
 62
     7
370
     0
100
AcDbLine
 10
151.5771074171
 20
224.0943720895
 30
0.0
 11
151.5771074171
 21
226.394947465
 31
0.0
  0
LINE
  5
32A
330
1F
100
AcDbEntity
  8
0
  6
Continuous
 62
     7
370
     0
100
AcDbLine
 10
159.5771077971
 20
204.0368950325
 30
0.0
 11
159.5771077971
 21
204.6101687807
 31
0.0
  0
LINE
  5
32B
330
1F
100
AcDbEntity
  8
0
  6
Continuous
 62
     7
370
     0
100
AcDbLine
 10
151.5771074171
 20
204.6101687807
 30
0.0
 11
151.5771074171
 21
204.0368950325
 31
0.0
  0
LINE
  5
32C
330
1F
100
AcDbEntity
  8
0
  6
Continuous
 62
     7
370
     0
100
AcDbLine
 10
157.5771077021
 20
227.5415024119
 30
0.0
 11
159.5771077971
 21
227.5415024119
 31
0.0
  0
LINE
  5
32D
330
1F
100
AcDbEntity
  8
0
  6
Continuous
 62
     7
370
     0
100
AcDbLine
 10
157.5771077021
 20
227.5415024119
 30
0.0
 11
157.5771077021
 21
226.394947465
 31
0.0
  0
LINE
  5
32E
330
1F
100
AcDbEntity
  8
0
  6
Continuous
 62
     7
370
     0
100
AcDbLine
 10
159.5771077971
 20
226.394947465
 30
0.0
 11
159.5771077971
 21
227.5415024119
 31
0.0
  0
LINE
  5
32F
330
1F
100
AcDbEntity
  8
0
  6
Continuous
 62
     7
370
     0
100
AcDbLine
 10
151.5771074171
 20
227.5415024119
 30
0.0
 11
153.5771075121
 21
227.5415024119
 31
0.0
  0
LINE
  5
330
330
1F
100
AcDbEntity
  8
0
  6
Continuous
 62
     7
370
     0
100
AcDbLine
 10
153.5771075121
 20
227.5415024119
 30
0.0
 11
153.5771075121
 21
226.394947465
 31
0.0
  0
LINE
  5
331
330
1F
100
AcDbEntity
  8
0
  6
Continuous
 62
     7
370
     0
100
AcDbLine
 10
151.5771074171
 20
226.394947465
 30
0.0
 11
151.5771074171
 21
227.5415024119
 31
0.0
  0
LINE
  5
332
330
1F
100
AcDbEntity
  8
0
  6
Continuous
 62
     7
370
     0
100
AcDbLine
 10
151.5771074171
 20
196.0900759655
 30
0.0
 11
151.5771074171
 21
200.1814579922
 31
0.0
  0
LINE
  5
333
330
1F
100
AcDbEntity
  8
0
  6
Continuous
 62
     7
370
     0
100
AcDbLine
 10
159.5771077971
 20
200.1814579922
 30
0.0
 11
159.5771077971
 21
196.0900759655
 31
0.0
  0
LINE
  5
334
330
1F
100
AcDbEntity
  8
0
  6
Continuous
 62
     7
370
     0
100
AcDbLine
 10
159.5771077971
 20
204.6101687807
 30
0.0
 11
159.5771077971
 21
205.4104617196
 31
0.0
  0
LINE
  5
335
330
1F
100
AcDbEntity
  8
0
  6
Continuous
 62
     7
370
     0
100
AcDbLine
 10
151.5771074171
 20
205.8104573148
 30
0.0
 11
151.5771074171
 21
204.6101687807
 31
0.0
  0
LINE
  5
336
330
1F
100
AcDbEntity
  8
0
  6
Continuous
 62
     7
370
     0
100
AcDbLine
 10
159.5771077971
 20
211.2104555922
 30
0.0
 11
159.5771077971
 21
217.9259842592
 31
0.0
  0
LINE
  5
337
330
1F
100
AcDbEntity
  8
0
  6
Continuous
 62
     7
370
     0
100
AcDbLine
 10
151.5771074171
 20
217.9259842592
 30
0.0
 11
151.5771074171
 21
210.810459997
 31
0.0
  0
LINE
  5
338
330
1F
100
AcDbEntity
  8
0
  6
Continuous
 62
     7
370
     0
100
AcDbLine
 10
155.5771076071
 20
121.6590961772
 30
0.0
 11
150.5771077189
 21
121.6590961772
 31
0.0
  0
LINE
  5
339
330
1F
100
AcDbEntity
  8
0
  6
Continuous
 62
     7
370
     0
100
AcDbLine
 10
160.5771074954
 20
121.6590961772
 30
0.0
 11
155.5771076071
 21
121.6590961772
 31
0.0
  0
LINE
  5
33A
330
1F
100
AcDbEntity
  8
0
  6
Continuous
 62
     7
370
     0
100
AcDbLine
 10
155.5771076071
 20
122.6590944785
 30
0.0
 11
161.5771076593
 21
122.6590944785
 31
0.0
  0
LINE
  5
33B
330
1F
100
AcDbEntity
  8
0
  6
Continuous
 62
     7
370
     0
100
AcDbLine
 10
149.577107555
 20
122.6590944785
 30
0.0
 11
155.5771076071
 21
122.6590944785
 31
0.0
  0
LINE
  5
33C
330
1F
100
AcDbEntity
  8
0
  6
Continuous
 62
     7
370
     0
100
AcDbLine
 10
150.5771077189
 20
191.0590937692
 30
0.0
 11
151.5771074171
 21
191.0590937692
 31
0.0
  0
LINE
  5
33D
330
1F
100
AcDbEntity
  8
0
  6
Continuous
 62
     7
370
     0
100
AcDbLine
 10
159.5771077971
 20
191.0590937692
 30
0.0
 11
160.5771074954
 21
191.0590937692
 31
0.0
  0
LINE
  5
33E
330
1F
100
AcDbEntity
  8
0
  6
Continuous
 62
     7
370
     0
100
AcDbLine
 10
150.5771077189
 20
191.0590937692
 30
0.0
 11
149.1771077688
 21
189.6590961474
 31
0.0
  0
LINE
  5
33F
330
1F
100
AcDbEntity
  8
0
  6
Continuous
 62
     7
370
     0
100
AcDbLine
 10
161.9771074454
 20
189.6590961474
 30
0.0
 11
160.5771074954
 21
191.0590937692
 31
0.0
  0
LINE
  5
340
330
1F
100
AcDbEntity
  8
0
  6
Continuous
 62
     7
370
     0
100
AcDbLine
 10
157.5771077021
 20
227.5415024119
 30
0.0
 11
153.5771075121
 21
227.5415024119
 31
0.0
  0
ARC
  5
341
330
1F
100
AcDbEntity
  8
0
  6
Continuous
 62
     7
370
     0
100
AcDbCircle
 10
152.3704203889
 20
208.0899859503
 30
0.0
 40
2.378477262819029
100
AcDbArc
 50
190.4571823783
 51
202.8817123781
  0
ARC
  5
342
330
1F
100
AcDbEntity
  8
0
  6
Continuous
 62
     7
370
     0
100
AcDbCircle
 10
152.0892217111
 20
207.4093034821
 30
0.0
 40
1.925654322452926
100
AcDbArc
 50
172.716254751
 51
187.283745249
  0
ARC
  5
343
330
1F
100
AcDbEntity
  8
0
  6
Continuous
 62
     7
370
     0
100
AcDbCircle
 10
152.3702706818
 20
208.578222373
 30
0.0
 40
2.378321906112569
100
AcDbArc
 50
190.4567749829
 51
202.8821197734
  0
LINE
  5
344
330
1F
100
AcDbEntity
  8
0
  6
Continuous
 62
     7
370
     0
100
AcDbLine
 10
150.0314476851
 20
208.1465719598
 30
0.0
 11
150.0314476851
 21
208.3907386619
 31
0.0
  0
ARC
  5
345
330
1F
100
AcDbEntity
  8
0
  6
Continuous
 62
     7
370
     0
100
AcDbCircle
 10
151.893348081
 20
207.9975422877
 30
0.0
 40
1.902965179155407
100
AcDbArc
 50
154.2669252567
 51
168.0754755554
  0
ARC
  5
346
330
1F
100
AcDbEntity
  8
0
  6
Continuous
 62
     7
370
     0
100
AcDbCircle
 10
152.6585578904
 20
209.1017922717
 30
0.0
 40
2.494990031088129
100
AcDbArc
 50
173.602119825
 51
186.397880175
  0
ARC
  5
347
330
1F
100
AcDbEntity
  8
0
  6
Continuous
 62
     7
370
     0
100
AcDbCircle
 10
151.8934305835
 20
208.5535584358
 30
0.0
 40
1.903051714119588
100
AcDbArc
 50
154.2672407341
 51
168.0751600781
  0
LINE
  5
348
330
1F
100
AcDbEntity
  8
0
  6
Continuous
 62
     7
370
     0
100
AcDbLine
 10
150.0314476851
 20
208.9467829424
 30
0.0
 11
150.0314476851
 21
208.9675477105
 31
0.0
  0
ARC
  5
349
330
1F
100
AcDbEntity
  8
0
  6
Continuous
 62
     7
370
     0
100
AcDbCircle
 10
152.3702706818
 20
208.0426949389
 30
0.0
 40
2.378321906111312
100
AcDbArc
 50
157.1178802266
 51
169.5432250171
  0
LINE
  5
34A
330
1F
100
AcDbEntity
  8
0
  6
Continuous
 62
     7
370
     0
100
AcDbLine
 10
150.0314476851
 20
208.474345352
 30
0.0
 11
150.0314476851
 21
208.3907386619
 31
0.0
  0
LINE
  5
34B
330
1F
100
AcDbEntity
  8
0
  6
Continuous
 62
     7
370
     0
100
AcDbLine
 10
150.0314476851
 20
207.6741343695
 30
0.0
 11
150.0314476851
 21
207.6582907098
 31
0.0
  0
LINE
  5
34C
330
1F
100
AcDbEntity
  8
0
  6
Continuous
 62
     7
370
     0
100
AcDbLine
 10
150.0314476851
 20
207.6533696013
 30
0.0
 11
150.0314476851
 21
207.6582907098
 31
0.0
  0
LINE
  5
34D
330
1F
100
AcDbEntity
  8
0
  6
Continuous
 62
     7
370
     0
100
AcDbLine
 10
162.0771077412
 20
209.1352565545
 30
0.0
 11
162.0771077412
 21
209.5604574638
 31
0.0
  0
LINE
  5
34E
330
1F
100
AcDbEntity
  8
0
  6
Continuous
 62
     7
370
     0
100
AcDbLine
 10
162.0771077412
 20
207.060459848
 30
0.0
 11
162.0771077412
 21
209.1352565545
 31
0.0
  0
SPLINE
  5
34F
330
1F
100
AcDbEntity
  8
0
  6
Continuous
 62
     7
370
     0
100
AcDbSpline
210
0.0
220
0.0
230
1.0
 70
     8
 71
     3
 72
     8
 73
     4
 74
     0
 42
0.000000001
 43
0.00000001
 40
0.0
 40
0.0
 40
0.0
 40
0.0
 40
1.0
 40
1.0
 40
1.0
 40
1.0
 10
150.0314476851319
 20
208.9467828434679
 30
0.0
 10
150.0806687172845
 20
208.9440346808645
 30
0.0
 10
150.129888497229
 20
208.9412765693085
 30
0.0
 10
150.179106934217
 20
208.9385077877903
 30
0.0
  0
SPLINE
  5
350
330
1F
100
AcDbEntity
  8
0
  6
Continuous
 62
     7
370
     0
100
AcDbSpline
210
0.0
220
0.0
230
1.0
 70
     8
 71
     3
 72
     8
 73
     4
 74
     0
 42
0.000000001
 43
0.00000001
 40
0.0
 40
0.0
 40
0.0
 40
0.0
 40
1.0
 40
1.0
 40
1.0
 40
1.0
 10
150.0314476851319
 20
207.6582910788418
 30
0.0
 10
150.0792706315739
 20
207.6613317389674
 30
0.0
 10
150.127092395893
 20
207.6643830946497
 30
0.0
 10
150.1749128949762
 20
207.6674458978729
 30
0.0
  0
SPLINE
  5
351
330
1F
100
AcDbEntity
  8
0
  6
Continuous
 62
     7
370
     0
100
AcDbSpline
210
0.0
220
0.0
230
1.0
 70
     8
 71
     3
 72
     8
 73
     4
 74
     0
 42
0.000000001
 43
0.00000001
 40
0.0
 40
0.0
 40
0.0
 40
0.0
 40
1.0
 40
1.0
 40
1.0
 40
1.0
 10
150.0314476851319
 20
207.6741346467892
 30
0.0
 10
150.0778248702817
 20
207.6767240286105
 30
0.0
 10
150.1242009436646
 20
207.6793222435622
 30
0.0
 10
150.1705758295933
 20
207.681929892989
 30
0.0
  0
ARC
  5
352
330
1F
100
AcDbEntity
  8
0
  6
Continuous
 62
     7
370
     0
100
AcDbCircle
 10
155.5771076071
 20
157.4090945567
 30
0.0
 40
5.123475382979786
100
AcDbArc
 50
141.3265506239
 51
218.6734493761
  0
ARC
  5
353
330
1F
100
AcDbEntity
  8
0
  6
Continuous
 62
     7
370
     0
100
AcDbCircle
 10
155.5771076071
 20
157.4090945567
 30
0.0
 40
5.123475382979812
100
AcDbArc
 50
321.3265506239
 51
38.6734493761
  0
LINE
  5
354
330
1F
100
AcDbEntity
  8
0
  6
Continuous
 62
     7
370
     0
100
AcDbLine
 10
149.6703208375
 20
152.6590945064
 30
0.0
 11
149.6703208375
 21
162.1590944338
 31
0.0
  0
SPLINE
  5
355
330
1F
100
AcDbEntity
  8
0
  6
Continuous
 62
     7
370
     0
100
AcDbSpline
210
0.0
220
0.0
230
1.0
 70
    24
 71
     3
 72
    10
 73
     6
 74
     0
 42
0.000000001
 43
0.00000001
 40
0.0
 40
0.0
 40
0.0
 40
0.0
 40
0.5
 40
0.5
 40
1.0
 40
1.0
 40
1.0
 40
1.0
 10
149.9702750791965
 20
162.1590945566732
 30
0.0
 10
149.8926079274414
 20
162.1590945566722
 30
0.0
 10
149.8153984306565
 20
162.1590945566716
 30
0.0
 10
149.7046061689088
 20
162.1590945566716
 30
0.0
 10
149.6716762491907
 20
162.1590945566722
 30
0.0
 10
149.6703207705235
 20
162.1590945566732
 30
0.0
  0
LINE
  5
356
330
1F
100
AcDbEntity
  8
0
  6
Continuous
 62
     7
370
     0
100
AcDbLine
 10
149.9702751587
 20
152.6590945064
 30
0.0
 11
149.9702751587
 21
162.1590944338
 31
0.0
  0
SPLINE
  5
357
330
1F
100
AcDbEntity
  8
0
  6
Continuous
 62
     7
370
     0
100
AcDbSpline
210
0.0
220
0.0
230
1.0
 70
    24
 71
     3
 72
    10
 73
     6
 74
     0
 42
0.000000001
 43
0.00000001
 40
0.0
 40
0.0
 40
0.0
 40
0.0
 40
0.5
 40
0.5
 40
1.0
 40
1.0
 40
1.0
 40
1.0
 10
149.9702750791965
 20
152.6590945566732
 30
0.0
 10
149.8926079274827
 20
152.6590945566732
 30
0.0
 10
149.8153984307509
 20
152.6590945566732
 30
0.0
 10
149.7046061690622
 20
152.6590945566732
 30
0.0
 10
149.6716762493481
 20
152.6590945566732
 30
0.0
 10
149.6703207706496
 20
152.6590945566732
 30
0.0
  0
SPLINE
  5
358
330
1F
100
AcDbEntity
  8
0
  6
Continuous
 62
     7
370
     0
100
AcDbSpline
210
0.0
220
0.0
230
1.0
 70
    24
 71
     3
 72
    10
 73
     6
 74
     0
 42
0.000000001
 43
0.00000001
 40
0.0
 40
0.0
 40
0.0
 40
0.0
 40
0.5
 40
0.5
 40
1.0
 40
1.0
 40
1.0
 40
1.0
 10
161.1839401350543
 20
162.1590945566732
 30
0.0
 10
161.261607286768
 20
162.1590945566732
 30
0.0
 10
161.3388167834999
 20
162.1590945566732
 30
0.0
 10
161.4496090451886
 20
162.1590945566732
 30
0.0
 10
161.4825389649027
 20
162.1590945566732
 30
0.0
 10
161.4838944436012
 20
162.1590945566732
 30
0.0
  0
LINE
  5
359
330
1F
100
AcDbEntity
  8
0
  6
Continuous
 62
     7
370
     0
100
AcDbLine
 10
161.1839400555
 20
162.1590944338
 30
0.0
 11
161.1839400555
 21
152.6590945064
 31
0.0
  0
SPLINE
  5
35A
330
1F
100
AcDbEntity
  8
0
  6
Continuous
 62
     7
370
     0
100
AcDbSpline
210
0.0
220
0.0
230
1.0
 70
     8
 71
     3
 72
    14
 73
    10
 74
     0
 42
0.000000001
 43
0.00000001
 40
0.0
 40
0.0
 40
0.0
 40
0.0
 40
0.25
 40
0.25
 40
0.5
 40
0.5
 40
0.75
 40
0.75
 40
1.0
 40
1.0
 40
1.0
 40
1.0
 10
161.1839401350543
 20
152.6590945566732
 30
0.0
 10
161.1839401350543
 20
151.9251618950211
 30
0.0
 10
161.0380092919833
 20
151.191518004531
 30
0.0
 10
160.4762815518116
 20
149.8353872758472
 30
0.0
 10
160.0607056705897
 20
149.2134340171858
 30
0.0
 10
159.0227681466127
 20
148.1754964932089
 30
0.0
 10
158.4008148879513
 20
147.759920611987
 30
0.0
 10
157.0446841592676
 20
147.1981928718153
 30
0.0
 10
156.3110402687774
 20
147.0522620287443
 30
0.0
 10
155.5771076071254
 20
147.0522620287443
 30
0.0
  0
SPLINE
  5
35B
330
1F
100
AcDbEntity
  8
0
  6
Continuous
 62
     7
370
     0
100
AcDbSpline
210
0.0
220
0.0
230
1.0
 70
     8
 71
     3
 72
    14
 73
    10
 74
     0
 42
0.000000001
 43
0.00000001
 40
0.0
 40
0.0
 40
0.0
 40
0.0
 40
0.2500000000000001
 40
0.2500000000000001
 40
0.5000000000000001
 40
0.5000000000000001
 40
0.75
 40
0.75
 40
1.0
 40
1.0
 40
1.0
 40
1.0
 10
155.5771076071254
 20
147.0522620287443
 30
0.0
 10
154.8431749454733
 20
147.0522620287443
 30
0.0
 10
154.1095310549832
 20
147.1981928718153
 30
0.0
 10
152.7534003262994
 20
147.759920611987
 30
0.0
 10
152.131447067638
 20
148.1754964932089
 30
0.0
 10
151.0935095436611
 20
149.2134340171858
 30
0.0
 10
150.6779336624392
 20
149.8353872758472
 30
0.0
 10
150.1162059222675
 20
151.191518004531
 30
0.0
 10
149.9702750791965
 20
151.9251618950211
 30
0.0
 10
149.9702750791965
 20
152.6590945566732
 30
0.0
  0
LINE
  5
35C
330
1F
100
AcDbEntity
  8
0
  6
Continuous
 62
     7
370
     0
100
AcDbLine
 10
161.4838943768
 20
162.1590944338
 30
0.0
 11
161.4838943768
 21
152.6590945064
 31
0.0
  0
SPLINE
  5
35D
330
1F
100
AcDbEntity
  8
0
  6
Continuous
 62
     7
370
     0
100
AcDbSpline
210
0.0
220
0.0
230
1.0
 70
    24
 71
     3
 72
    10
 73
     6
 74
     0
 42
0.000000001
 43
0.00000001
 40
0.0
 40
0.0
 40
0.0
 40
0.0
 40
0.5
 40
0.5
 40
1.0
 40
1.0
 40
1.0
 40
1.0
 10
161.4838944436012
 20
152.6590945566732
 30
0.0
 10
161.4825389649026
 20
152.6590945566732
 30
0.0
 10
161.4496090451886
 20
152.6590945566732
 30
0.0
 10
161.3388167834999
 20
152.6590945566732
 30
0.0
 10
161.261607286768
 20
152.6590945566732
 30
0.0
 10
161.1839401350543
 20
152.6590945566732
 30
0.0
  0
SPLINE
  5
35E
330
1F
100
AcDbEntity
  8
0
  6
Continuous
 62
     7
370
     0
100
AcDbSpline
210
0.0
220
0.0
230
1.0
 70
     8
 71
     3
 72
    14
 73
    10
 74
     0
 42
0.000000001
 43
0.00000001
 40
0.0
 40
0.0
 40
0.0
 40
0.0
 40
0.2499999999999999
 40
0.2499999999999999
 40
0.4999999999999999
 40
0.4999999999999999
 40
0.7499999999999999
 40
0.7499999999999999
 40
1.0
 40
1.0
 40
1.0
 40
1.0
 10
161.4838944436012
 20
152.6590945566732
 30
0.0
 10
161.4838944436012
 20
151.8858979678485
 30
0.0
 10
161.3301565927569
 20
151.1130055988644
 30
0.0
 10
160.738377543748
 20
149.6843245928189
 30
0.0
 10
160.3005691853691
 20
149.0290980807259
 30
0.0
 10
159.2071040830726
 20
147.9356329784294
 30
0.0
 10
158.5518775709795
 20
147.4978246200505
 30
0.0
 10
157.123196564934
 20
146.9060455710416
 30
0.0
 10
156.3503041959499
 20
146.7523077201973
 30
0.0
 10
155.5771076071252
 20
146.7523077201974
 30
0.0
  0
SPLINE
  5
35F
330
1F
100
AcDbEntity
  8
0
  6
Continuous
 62
     7
370
     0
100
AcDbSpline
210
0.0
220
0.0
230
1.0
 70
     8
 71
     3
 72
    14
 73
    10
 74
     0
 42
0.000000001
 43
0.00000001
 40
0.0
 40
0.0
 40
0.0
 40
0.0
 40
0.25
 40
0.25
 40
0.5
 40
0.5
 40
0.75
 40
0.75
 40
1.0
 40
1.0
 40
1.0
 40
1.0
 10
155.5771076071252
 20
146.7523077201974
 30
0.0
 10
154.8039110183005
 20
146.7523077201974
 30
0.0
 10
154.0310186493165
 20
146.9060455710417
 30
0.0
 10
152.6023376432711
 20
147.4978246200506
 30
0.0
 10
151.9471111311781
 20
147.9356329784295
 30
0.0
 10
150.8536460288816
 20
149.029098080726
 30
0.0
 10
150.4158376705027
 20
149.6843245928191
 30
0.0
 10
149.8240586214939
 20
151.1130055988644
 30
0.0
 10
149.6703207706496
 20
151.8858979678485
 30
0.0
 10
149.6703207706496
 20
152.6590945566732
 30
0.0
  0
LINE
  5
360
330
1F
100
AcDbEntity
  8
0
  6
Continuous
 62
     7
370
     0
100
AcDbLine
 10
161.5221074733
 20
152.6590945064
 30
0.0
 11
161.4838943768
 21
152.6590945064
 31
0.0
  0
ARC
  5
361
330
1F
100
AcDbEntity
  8
0
  6
Continuous
 62
     7
370
     0
100
AcDbCircle
 10
155.5771076071
 20
152.6590945567
 30
0.0
 40
5.945000000000221
100
AcDbArc
 50
180.0
 51
0.0
  0
LINE
  5
362
330
1F
100
AcDbEntity
  8
0
  6
Continuous
 62
     7
370
     0
100
AcDbLine
 10
149.6703208375
 20
152.6590945064
 30
0.0
 11
149.6321077409
 21
152.6590945064
 31
0.0
  0
LINE
  5
363
330
1F
100
AcDbEntity
  8
0
  6
Continuous
 62
     7
370
     0
100
AcDbLine
 10
161.4838943768
 20
162.1590944338
 30
0.0
 11
161.5221074733
 21
162.1590944338
 31
0.0
  0
LINE
  5
364
330
1F
100
AcDbEntity
  8
0
  6
Continuous
 62
     7
370
     0
100
AcDbLine
 10
161.5221074733
 20
162.1590944338
 30
0.0
 11
161.5221074733
 21
152.6590945064
 31
0.0
  0
LINE
  5
365
330
1F
100
AcDbEntity
  8
0
  6
Continuous
 62
     7
370
     0
100
AcDbLine
 10
149.6703208375
 20
162.1590944338
 30
0.0
 11
149.6321077409
 21
162.1590944338
 31
0.0
  0
ARC
  5
366
330
1F
100
AcDbEntity
  8
0
  6
Continuous
 62
     7
370
     0
100
AcDbCircle
 10
155.5771076071
 20
162.1590945567
 30
0.0
 40
5.945000000000001
100
AcDbArc
 50
132.2861972684
 51
180.0
  0
ARC
  5
367
330
1F
100
AcDbEntity
  8
0
  6
Continuous
 62
     7
370
     0
100
AcDbCircle
 10
155.5771076071
 20
162.1590945567
 30
0.0
 40
5.945000000000022
100
AcDbArc
 50
0.0
 51
47.7138027316
  0
LINE
  5
368
330
1F
100
AcDbEntity
  8
0
  6
Continuous
 62
     7
370
     0
100
AcDbLine
 10
149.6321077409
 20
152.6590945064
 30
0.0
 11
149.6321077409
 21
162.1590944338
 31
0.0
  0
LINE
  5
369
330
1F
100
AcDbEntity
  8
0
  6
Continuous
 62
     7
370
     0
100
AcDbLine
 10
158.050728305
 20
118.9590951758
 30
0.0
 11
156.9184149101
 21
118.9590951758
 31
0.0
  0
SPLINE
  5
36A
330
1F
100
AcDbEntity
  8
0
  6
Continuous
 62
     7
370
     0
100
AcDbSpline
210
0.0
220
0.0
230
1.0
 70
     8
 71
     3
 72
     8
 73
     4
 74
     0
 42
0.000000001
 43
0.00000001
 40
0.0
 40
0.0
 40
0.0
 40
0.0
 40
1.0
 40
1.0
 40
1.0
 40
1.0
 10
158.0507283474154
 20
118.9590945568992
 30
0.0
 10
158.330828383559
 20
118.7721380349581
 30
0.0
 10
158.6186542726406
 20
118.6590945565613
 30
0.0
 10
158.9182961717863
 20
118.6590945566731
 30
0.0
  0
LINE
  5
36B
330
1F
100
AcDbEntity
  8
0
  6
Continuous
 62
     7
370
     0
100
AcDbLine
 10
158.9182962614
 20
118.6590938228
 30
0.0
 11
155.3431430928
 21
118.6590938228
 31
0.0
  0
SPLINE
  5
36C
330
1F
100
AcDbEntity
  8
0
  6
Continuous
 62
     7
370
     0
100
AcDbSpline
210
0.0
220
0.0
230
1.0
 70
     8
 71
     3
 72
     8
 73
     4
 74
     0
 42
0.000000001
 43
0.00000001
 40
0.0
 40
0.0
 40
0.0
 40
0.0
 40
1.0
 40
1.0
 40
1.0
 40
1.0
 10
155.3431430854608
 20
118.6590945565592
 30
0.0
 10
155.8872128572839
 20
118.6590945564359
 30
0.0
 10
156.409827906221
 20
118.7721380347798
 30
0.0
 10
156.9184148668226
 20
118.9590945566749
 30
0.0
  0
LINE
  5
36D
330
1F
100
AcDbEntity
  8
0
  6
Continuous
 62
     7
370
     0
100
AcDbLine
 10
156.9184149101
 20
118.9590951758
 30
0.0
 11
156.9184149101
 21
121.6590961772
 31
0.0
  0
SPLINE
  5
36E
330
1F
100
AcDbEntity
  8
0
  6
Continuous
 62
     7
370
     0
100
AcDbSpline
210
0.0
220
0.0
230
1.0
 70
     8
 71
     3
 72
     8
 73
     4
 74
     0
 42
0.000000001
 43
0.00000001
 40
0.0
 40
0.0
 40
0.0
 40
0.0
 40
1.0
 40
1.0
 40
1.0
 40
1.0
 10
153.7678713058945
 20
118.9590945566399
 30
0.0
 10
154.2764582659467
 20
118.7721380349494
 30
0.0
 10
154.7990733142329
 20
118.6590945566774
 30
0.0
 10
155.3431430854581
 20
118.6590945565538
 30
0.0
  0
LINE
  5
36F
330
1F
100
AcDbEntity
  8
0
  6
Continuous
 62
     7
370
     0
100
AcDbLine
 10
153.7678713628
 20
121.6590961772
 30
0.0
 11
153.7678713628
 21
118.9590951758
 31
0.0
  0
LINE
  5
370
330
1F
100
AcDbEntity
  8
0
  6
Continuous
 62
     7
370
     0
100
AcDbLine
 10
152.7096585321
 20
118.9590951758
 30
0.0
 11
153.7678713628
 21
118.9590951758
 31
0.0
  0
LINE
  5
371
330
1F
100
AcDbEntity
  8
0
  6
Continuous
 62
     7
370
     0
100
AcDbLine
 10
152.0019544239
 20
118.6590938228
 30
0.0
 11
155.3431430928
 21
118.6590938228
 31
0.0
  0
SPLINE
  5
372
330
1F
100
AcDbEntity
  8
0
  6
Continuous
 62
     7
370
     0
100
AcDbSpline
210
0.0
220
0.0
230
1.0
 70
     8
 71
     3
 72
     8
 73
     4
 74
     0
 42
0.000000001
 43
0.00000001
 40
0.0
 40
0.0
 40
0.0
 40
0.0
 40
1.0
 40
1.0
 40
1.0
 40
1.0
 10
152.0019545221821
 20
118.6590945565689
 30
0.0
 10
152.246382394615
 20
118.6590945565595
 30
0.0
 10
152.4811715541589
 20
118.7721380346978
 30
0.0
 10
152.709658478402
 20
118.9590945562909
 30
0.0
  0
LINE
  5
373
330
1F
100
AcDbEntity
  8
0
  6
Continuous
 62
     7
370
     0
100
AcDbLine
 10
158.050728305
 20
121.6590961772
 30
0.0
 11
158.050728305
 21
118.9590951758
 31
0.0
  0
LINE
  5
374
330
1F
100
AcDbEntity
  8
0
  6
Continuous
 62
     7
370
     0
100
AcDbLine
 10
152.7096585321
 20
118.9590951758
 30
0.0
 11
152.7096585321
 21
121.6590961772
 31
0.0
  0
LINE
  5
375
330
1F
100
AcDbEntity
  8
0
  6
Continuous
 62
     7
370
     0
100
AcDbLine
 10
159.7858642179
 20
118.9590951758
 30
0.0
 11
159.7858642179
 21
121.6590961772
 31
0.0
  0
SPLINE
  5
376
330
1F
100
AcDbEntity
  8
0
  6
Continuous
 62
     7
370
     0
100
AcDbSpline
210
0.0
220
0.0
230
1.0
 70
     8
 71
     3
 72
     8
 73
     4
 74
     0
 42
0.000000001
 43
0.00000001
 40
0.0
 40
0.0
 40
0.0
 40
0.0
 40
1.0
 40
1.0
 40
1.0
 40
1.0
 10
158.9182961717863
 20
118.6590945566731
 30
0.0
 10
159.2179380705106
 20
118.6590945567849
 30
0.0
 10
159.5057639593253
 20
118.7721380351325
 30
0.0
 10
159.7858639950844
 20
118.9590945567855
 30
0.0
  0
SPLINE
  5
377
330
1F
100
AcDbEntity
  8
0
  6
Continuous
 62
     7
370
     0
100
AcDbSpline
210
0.0
220
0.0
230
1.0
 70
     8
 71
     3
 72
     8
 73
     4
 74
     0
 42
0.000000001
 43
0.00000001
 40
0.0
 40
0.0
 40
0.0
 40
0.0
 40
1.0
 40
1.0
 40
1.0
 40
1.0
 10
151.2942505656609
 20
118.9590945565349
 30
0.0
 10
151.5227374899304
 20
118.7721380348521
 30
0.0
 10
151.7575266496732
 20
118.659094556564
 30
0.0
 10
152.0019545221469
 20
118.6590945565538
 30
0.0
  0
LINE
  5
378
330
1F
100
AcDbEntity
  8
0
  6
Continuous
 62
     7
370
     0
100
AcDbLine
 10
151.2942507814
 20
121.6590961772
 30
0.0
 11
151.2942507814
 21
118.9590951758
 31
0.0
  0
LINE
  5
379
330
1F
100
AcDbEntity
  8
0
  6
Continuous
 62
     7
370
     0
100
AcDbLine
 10
159.7858642179
 20
118.9590951758
 30
0.0
 11
159.8771077532
 21
118.9590951758
 31
0.0
  0
LINE
  5
37A
330
1F
100
AcDbEntity
  8
0
  6
Continuous
 62
     7
370
     0
100
AcDbLine
 10
158.9182962614
 20
118.6590938228
 30
0.0
 11
159.5771077971
 21
118.6590938228
 31
0.0
  0
LINE
  5
37B
330
1F
100
AcDbEntity
  8
0
  6
Continuous
 62
     7
370
     0
100
AcDbLine
 10
153.777107638
 20
113.6590948659
 30
0.0
 11
157.3771075762
 21
113.6590948659
 31
0.0
  0
LINE
  5
37C
330
1F
100
AcDbEntity
  8
0
  6
Continuous
 62
     7
370
     0
100
AcDbLine
 10
154.0771075941
 20
111.6590945381
 30
0.0
 11
157.0771076202
 21
111.6590945381
 31
0.0
  0
LINE
  5
37D
330
1F
100
AcDbEntity
  8
0
  6
Continuous
 62
     7
370
     0
100
AcDbLine
 10
154.5874698038
 20
114.1590958792
 30
0.0
 11
157.3771075762
 21
114.1590958792
 31
0.0
  0
LINE
  5
37E
330
1F
100
AcDbEntity
  8
0
  6
Continuous
 62
     7
370
     0
100
AcDbLine
 10
153.777107638
 20
114.1590958792
 30
0.0
 11
154.5874698038
 21
114.1590958792
 31
0.0
  0
LINE
  5
37F
330
1F
100
AcDbEntity
  8
0
  6
Continuous
 62
     7
370
     0
100
AcDbLine
 10
153.777107638
 20
116.159096207
 30
0.0
 11
157.3771075762
 21
116.159096207
 31
0.0
  0
LINE
  5
380
330
1F
100
AcDbEntity
  8
0
  6
Continuous
 62
     7
370
     0
100
AcDbLine
 10
154.5874698038
 20
116.659093495
 30
0.0
 11
157.3771075762
 21
116.659093495
 31
0.0
  0
LINE
  5
381
330
1F
100
AcDbEntity
  8
0
  6
Continuous
 62
     7
370
     0
100
AcDbLine
 10
153.777107638
 20
116.659093495
 30
0.0
 11
154.5874698038
 21
116.659093495
 31
0.0
  0
LINE
  5
382
330
1F
100
AcDbEntity
  8
0
  6
Continuous
 62
     7
370
     0
100
AcDbLine
 10
151.2771074611
 20
118.9590951758
 30
0.0
 11
151.2942507814
 21
118.9590951758
 31
0.0
  0
LINE
  5
383
330
1F
100
AcDbEntity
  8
0
  6
Continuous
 62
     7
370
     0
100
AcDbLine
 10
151.5771074171
 20
118.6590938228
 30
0.0
 11
152.0019544239
 21
118.6590938228
 31
0.0
  0
LINE
  5
384
330
1F
100
AcDbEntity
  8
0
  6
Continuous
 62
     7
370
     0
100
AcDbLine
 10
157.4771076392
 20
225.2709007221
 30
0.0
 11
153.6771075751
 21
225.2709007221
 31
0.0
  0
LINE
  5
385
330
1F
100
AcDbEntity
  8
0
  6
Continuous
 62
     7
370
     0
100
AcDbLine
 10
153.6771075751
 20
223.2735416251
 30
0.0
 11
153.6771075751
 21
225.2709007221
 31
0.0
  0
LINE
  5
386
330
1F
100
AcDbEntity
  8
0
  6
Continuous
 62
     7
370
     0
100
AcDbLine
 10
157.4771076392
 20
223.2735416251
 30
0.0
 11
157.4771076392
 21
225.2709007221
 31
0.0
  0
LINE
  5
387
330
1F
100
AcDbEntity
  8
0
  6
Continuous
 62
     7
370
     0
100
AcDbLine
 10
153.6771075751
 20
226.8026804882
 30
0.0
 11
157.4771076392
 21
226.8026804882
 31
0.0
  0
LINE
  5
388
330
1F
100
AcDbEntity
  8
0
  6
Continuous
 62
     7
370
     0
100
AcDbLine
 10
153.6771075751
 20
225.2709007221
 30
0.0
 11
153.6771075751
 21
226.8026804882
 31
0.0
  0
LINE
  5
389
330
1F
100
AcDbEntity
  8
0
  6
Continuous
 62
     7
370
     0
100
AcDbLine
 10
157.4771076392
 20
226.8026804882
 30
0.0
 11
157.4771076392
 21
225.2709007221
 31
0.0
  0
LINE
  5
38A
330
1F
100
AcDbEntity
  8
0
  6
Continuous
 62
     7
370
     0
100
AcDbLine
 10
157.4771076392
 20
226.9077485758
 30
0.0
 11
153.6771075751
 21
226.9077485758
 31
0.0
  0
LINE
  5
38B
330
1F
100
AcDbEntity
  8
0
  6
Continuous
 62
     7
370
     0
100
AcDbLine
 10
153.6771075751
 20
226.8026804882
 30
0.0
 11
153.6771075751
 21
226.9077485758
 31
0.0
  0
LINE
  5
38C
330
1F
100
AcDbEntity
  8
0
  6
Continuous
 62
     7
370
     0
100
AcDbLine
 10
157.4771076392
 20
226.8026804882
 30
0.0
 11
157.4771076392
 21
226.9077485758
 31
0.0
  0
LINE
  5
38D
330
1F
100
AcDbEntity
  8
0
  6
Continuous
 62
     7
370
     0
100
AcDbLine
 10
153.6771075751
 20
226.9077485758
 30
0.0
 11
153.6771075751
 21
226.9079720932
 31
0.0
  0
LINE
  5
38E
330
1F
100
AcDbEntity
  8
0
  6
Continuous
 62
     7
370
     0
100
AcDbLine
 10
157.4771076392
 20
226.9079720932
 30
0.0
 11
157.4771076392
 21
226.9077485758
 31
0.0
  0
LINE
  5
38F
330
1F
100
AcDbEntity
  8
0
  6
Continuous
 62
     7
370
     0
100
AcDbLine
 10
158.2771076772
 20
220.5527013498
 30
0.0
 11
152.8771075371
 21
220.5527013498
 31
0.0
  0
LINE
  5
390
330
1F
100
AcDbEntity
  8
0
  6
Continuous
 62
     7
370
     0
100
AcDbLine
 10
152.8771075371
 20
220.5527013498
 30
0.0
 11
152.8771075371
 21
221.127848919
 31
0.0
  0
LINE
  5
391
330
1F
100
AcDbEntity
  8
0
  6
Continuous
 62
     7
370
     0
100
AcDbLine
 10
152.8771075371
 20
221.127848919
 30
0.0
 11
158.2771076772
 21
221.127848919
 31
0.0
  0
LINE
  5
392
330
1F
100
AcDbEntity
  8
0
  6
Continuous
 62
     7
370
     0
100
AcDbLine
 10
158.2771076772
 20
221.127848919
 30
0.0
 11
158.2771076772
 21
220.5527013498
 31
0.0
  0
LINE
  5
393
330
1F
100
AcDbEntity
  8
0
  6
Continuous
 62
     7
370
     0
100
AcDbLine
 10
159.0771077152
 20
203.2890467304
 30
0.0
 11
159.0771077152
 21
220.5527013498
 31
0.0
  0
LINE
  5
394
330
1F
100
AcDbEntity
  8
0
  6
Continuous
 62
     7
370
     0
100
AcDbLine
 10
159.0771077152
 20
203.2890467304
 30
0.0
 11
152.0771074991
 21
203.2890467304
 31
0.0
  0
LINE
  5
395
330
1F
100
AcDbEntity
  8
0
  6
Continuous
 62
     7
370
     0
100
AcDbLine
 10
152.0771074991
 20
203.2890467304
 30
0.0
 11
152.0771074991
 21
220.5527013498
 31
0.0
  0
LINE
  5
396
330
1F
100
AcDbEntity
  8
0
  6
Continuous
 62
     7
370
     0
100
AcDbLine
 10
152.8771075371
 20
220.5527013498
 30
0.0
 11
152.0771074991
 21
220.5527013498
 31
0.0
  0
LINE
  5
397
330
1F
100
AcDbEntity
  8
0
  6
Continuous
 62
     7
370
     0
100
AcDbLine
 10
159.0771077152
 20
220.5527013498
 30
0.0
 11
158.2771076772
 21
220.5527013498
 31
0.0
  0
LINE
  5
398
330
1F
100
AcDbEntity
  8
0
  6
Continuous
 62
     7
370
     0
100
AcDbLine
 10
159.0771077152
 20
222.7802908379
 30
0.0
 11
159.0771077152
 21
220.5527013498
 31
0.0
  0
LINE
  5
399
330
1F
100
AcDbEntity
  8
0
  6
Continuous
 62
     7
370
     0
100
AcDbLine
 10
158.2771076772
 20
220.6345981317
 30
0.0
 11
158.5771076332
 21
220.6345981317
 31
0.0
  0
LINE
  5
39A
330
1F
100
AcDbEntity
  8
0
  6
Continuous
 62
     7
370
     0
100
AcDbLine
 10
158.5771076332
 20
220.6345981317
 30
0.0
 11
158.5771076332
 21
222.7802908379
 31
0.0
  0
LINE
  5
39B
330
1F
100
AcDbEntity
  8
0
  6
Continuous
 62
     7
370
     0
100
AcDbLine
 10
159.0771077152
 20
222.7802908379
 30
0.0
 11
158.5771076332
 21
222.7802908379
 31
0.0
  0
LINE
  5
39C
330
1F
100
AcDbEntity
  8
0
  6
Continuous
 62
     7
370
     0
100
AcDbLine
 10
152.577107581
 20
222.7802908379
 30
0.0
 11
152.577107581
 21
220.6345981317
 31
0.0
  0
LINE
  5
39D
330
1F
100
AcDbEntity
  8
0
  6
Continuous
 62
     7
370
     0
100
AcDbLine
 10
152.577107581
 20
220.6345981317
 30
0.0
 11
152.8771075371
 21
220.6345981317
 31
0.0
  0
LINE
  5
39E
330
1F
100
AcDbEntity
  8
0
  6
Continuous
 62
     7
370
     0
100
AcDbLine
 10
152.0771074991
 20
220.5527013498
 30
0.0
 11
152.0771074991
 21
222.7802908379
 31
0.0
  0
LINE
  5
39F
330
1F
100
AcDbEntity
  8
0
  6
Continuous
 62
     7
370
     0
100
AcDbLine
 10
152.577107581
 20
222.7802908379
 30
0.0
 11
152.0771074991
 21
222.7802908379
 31
0.0
  0
LINE
  5
3A0
330
1F
100
AcDbEntity
  8
0
  6
Continuous
 62
     7
370
     0
100
AcDbLine
 10
158.2771076772
 20
223.2735416251
 30
0.0
 11
152.8771075371
 21
223.2735416251
 31
0.0
  0
LINE
  5
3A1
330
1F
100
AcDbEntity
  8
0
  6
Continuous
 62
     7
370
     0
100
AcDbLine
 10
152.8771075371
 20
223.2735416251
 30
0.0
 11
152.8771075371
 21
221.127848919
 31
0.0
  0
LINE
  5
3A2
330
1F
100
AcDbEntity
  8
0
  6
Continuous
 62
     7
370
     0
100
AcDbLine
 10
158.2771076772
 20
223.2735416251
 30
0.0
 11
158.2771076772
 21
221.127848919
 31
0.0
  0
ARC
  5
3A3
330
1F
100
AcDbEntity
  8
0
  6
Continuous
 62
     7
370
     0
100
AcDbCircle
 10
155.5771076071
 20
204.0735563143
 30
0.0
 40
1.813979210264848
100
AcDbArc
 50
247.3008752133
 51
292.6991247867
  0
ARC
  5
3A4
330
1F
100
AcDbEntity
  8
0
  6
Continuous
 62
     7
370
     0
100
AcDbCircle
 10
155.5771076071
 20
198.3043798129
 30
0.0
 40
0.907022491587649
100
AcDbArc
 50
247.3017441716
 51
292.6982558284
  0
LINE
  5
3A5
330
1F
100
AcDbEntity
  8
0
  6
Continuous
 62
     7
370
     0
100
AcDbLine
 10
159.7771074574
 20
220.5307370382
 30
0.0
 11
159.7771074574
 21
218.1307336646
 31
0.0
  0
LINE
  5
3A6
330
1F
100
AcDbEntity
  8
0
  6
Continuous
 62
     7
370
     0
100
AcDbLine
 10
159.4771075013
 20
217.8307360369
 30
0.0
 11
159.4771075013
 21
220.830734666
 31
0.0
  0
LINE
  5
3A7
330
1F
100
AcDbEntity
  8
0
  6
Continuous
 62
     7
370
     0
100
AcDbLine
 10
151.6771077129
 20
220.830734666
 30
0.0
 11
151.6771077129
 21
217.8307360369
 31
0.0
  0
LINE
  5
3A8
330
1F
100
AcDbEntity
  8
0
  6
Continuous
 62
     7
370
     0
100
AcDbLine
 10
151.3771077569
 20
220.5145320254
 30
0.0
 11
151.3771077569
 21
220.5307370382
 31
0.0
  0
LINE
  5
3A9
330
1F
100
AcDbEntity
  8
0
  6
Continuous
 62
     7
370
     0
100
AcDbLine
 10
151.3771077569
 20
220.5145320254
 30
0.0
 11
151.3771077569
 21
218.1307336646
 31
0.0
  0
SPLINE
  5
3AA
330
1F
100
AcDbEntity
  8
0
  6
Continuous
 62
     7
370
     0
100
AcDbSpline
210
0.0
220
0.0
230
1.0
 70
     8
 71
     3
 72
    12
 73
     8
 74
     0
 42
0.000000001
 43
0.00000001
 40
0.0
 40
0.0
 40
0.0
 40
0.0
 40
0.4999999999999982
 40
0.4999999999999982
 40
0.7499999999999991
 40
0.7499999999999991
 40
1.0
 40
1.0
 40
1.0
 40
1.0
 10
160.695850734906
 20
206.9207661465949
 30
0.0
 10
160.8271761360706
 20
206.6736592435343
 30
0.0
 10
160.9081589759471
 20
206.422989625942
 30
0.0
 10
160.9015039728207
 20
206.0379175642297
 30
0.0
 10
160.8782540015195
 20
205.9097720850336
 30
0.0
 10
160.7978101476318
 20
205.6580724482537
 30
0.0
 10
160.7408710917211
 20
205.5337457425459
 30
0.0
 10
160.6724772431415
 20
205.4104626933188
 30
0.0
  0
SPLINE
  5
3AB
330
1F
100
AcDbEntity
  8
0
  6
Continuous
 62
     7
370
     0
100
AcDbSpline
210
0.0
220
0.0
230
1.0
 70
     8
 71
     3
 72
    14
 73
    10
 74
     0
 42
0.000000001
 43
0.00000001
 40
0.0
 40
0.0
 40
0.0
 40
0.0
 40
0.25
 40
0.25
 40
0.5
 40
0.5
 40
0.75
 40
0.75
 40
1.0
 40
1.0
 40
1.0
 40
1.0
 10
160.6958507349045
 20
206.9207661465947
 30
0.0
 10
160.7612210823654
 20
207.1537890874224
 30
0.0
 10
160.8154341636927
 20
207.3925238156067
 30
0.0
 10
160.8877887319987
 20
207.8706523860049
 30
0.0
 10
160.9060382035006
 20
208.1109031892518
 30
0.0
 10
160.9013611152852
 20
208.5941299527476
 30
0.0
 10
160.8779242358582
 20
208.8387691984815
 30
0.0
 10
160.7972144988175
 20
209.315613368317
 30
0.0
 10
160.7405017439707
 20
209.5494658063211
 30
0.0
 10
160.6729624186929
 20
209.7802937946398
 30
0.0
  0
SPLINE
  5
3AC
330
1F
100
AcDbEntity
  8
0
  6
Continuous
 62
     7
370
     0
100
AcDbSpline
210
0.0
220
0.0
230
1.0
 70
     8
 71
     3
 72
    12
 73
     8
 74
     0
 42
0.000000001
 43
0.00000001
 40
0.0
 40
0.0
 40
0.0
 40
0.0
 40
0.4999999999999998
 40
0.4999999999999998
 40
0.7499999999999999
 40
0.7499999999999999
 40
1.0
 40
1.0
 40
1.0
 40
1.0
 10
160.6724772431421
 20
211.2104547969383
 30
0.0
 10
160.8130310229668
 20
210.977058567751
 30
0.0
 10
160.9035340210852
 20
210.740044675355
 30
0.0
 10
160.9040850317189
 20
210.3747513484545
 30
0.0
 10
160.881959579801
 20
210.2534221261289
 30
0.0
 10
160.8013957249331
 20
210.0149288069387
 30
0.0
 10
160.7432583430813
 20
209.897121307828
 30
0.0
 10
160.6729624186936
 20
209.7802937946398
 30
0.0
  0
LINE
  5
3AD
330
1F
100
AcDbEntity
  8
0
  6
Continuous
 62
     7
370
     0
100
AcDbLine
 10
160.6724772553
 20
205.4104617196
 30
0.0
 11
160.6907824005
 21
205.4492941457
 31
0.0
  0
LINE
  5
3AE
330
1F
100
AcDbEntity
  8
0
  6
Continuous
 62
     7
370
     0
100
AcDbLine
 10
161.0771075773
 20
206.1104586678
 30
0.0
 11
161.0771075773
 21
210.510458644
 31
0.0
  0
LINE
  5
3AF
330
1F
100
AcDbEntity
  8
0
  6
Continuous
 62
     7
370
     0
100
AcDbLine
 10
160.695850658
 20
206.9207651871
 30
0.0
 11
159.0771077152
 21
206.9207651871
 31
0.0
  0
LINE
  5
3B0
330
1F
100
AcDbEntity
  8
0
  6
Continuous
 62
     7
370
     0
100
AcDbLine
 10
160.6729624744
 20
209.7802942949
 30
0.0
 11
159.0771077152
 21
209.7802942949
 31
0.0
  0
LINE
  5
3B1
330
1F
100
AcDbEntity
  8
0
  6
Continuous
 62
     7
370
     0
100
AcDbLine
 10
160.6724772553
 20
205.4104617196
 30
0.0
 11
159.0771077152
 21
205.4104617196
 31
0.0
  0
LINE
  5
3B2
330
1F
100
AcDbEntity
  8
0
  6
Continuous
 62
     7
370
     0
100
AcDbLine
 10
160.6724772553
 20
211.2104555922
 30
0.0
 11
159.0771077152
 21
211.2104555922
 31
0.0
  0
LINE
  5
3B3
330
1F
100
AcDbEntity
  8
0
  6
Continuous
 62
     8
370
     0
100
AcDbLine
 10
151.5771074171
 20
200.1814579922
 30
0.0
 11
155.2271076196
 21
200.1814579922
 31
0.0
  0
LINE
  5
3B4
330
1F
100
AcDbEntity
  8
0
  6
Continuous
 62
     8
370
     0
100
AcDbLine
 10
155.9271075946
 20
200.1814579922
 30
0.0
 11
159.5771077971
 21
200.1814579922
 31
0.0
  0
LINE
  5
3B5
330
1F
100
AcDbEntity
  8
0
  6
Continuous
 62
     8
370
     0
100
AcDbLine
 10
159.0771077152
 20
204.6101687807
 30
0.0
 11
159.5771077971
 21
204.6101687807
 31
0.0
  0
LINE
  5
3B6
330
1F
100
AcDbEntity
  8
0
  6
Continuous
 62
     8
370
     0
100
AcDbLine
 10
152.0771074991
 20
204.6101687807
 30
0.0
 11
151.5771074171
 21
204.6101687807
 31
0.0
  0
LINE
  5
3B7
330
1F
100
AcDbEntity
  8
0
  6
Continuous
 62
     8
370
     0
100
AcDbLine
 10
159.5723519984
 20
217.9259842592
 30
0.0
 11
159.5771077971
 21
217.9259842592
 31
0.0
  0
LINE
  5
3B8
330
1F
100
AcDbEntity
  8
0
  6
Continuous
 62
     8
370
     0
100
AcDbLine
 10
151.5818632159
 20
217.9259842592
 30
0.0
 11
151.5771074171
 21
217.9259842592
 31
0.0
  0
LINE
  5
3B9
330
1F
100
AcDbEntity
  8
0
  6
Continuous
 62
     8
370
     0
100
AcDbLine
 10
150.9721118908
 20
209.9600507277
 30
0.0
 11
150.9721118908
 21
210.810459997
 31
0.0
  0
LINE
  5
3BA
330
1F
100
AcDbEntity
  8
0
  6
Continuous
 62
     8
370
     0
100
AcDbLine
 10
150.9721118908
 20
205.8104573148
 30
0.0
 11
150.9721118908
 21
209.9600507277
 31
0.0
  0
LINE
  5
3BB
330
1F
100
AcDbEntity
  8
0
  6
Continuous
 62
     8
370
     0
100
AcDbLine
 10
150.7803036782
 20
209.8968735295
 30
0.0
 11
150.7803036782
 21
210.7147125858
 31
0.0
  0
LINE
  5
3BC
330
1F
100
AcDbEntity
  8
0
  6
Continuous
 62
     8
370
     0
100
AcDbLine
 10
150.7803036782
 20
205.9062047261
 30
0.0
 11
150.7803036782
 21
209.8968735295
 31
0.0
  0
SPLINE
  5
3BD
330
1F
100
AcDbEntity
  8
0
  6
Continuous
 62
     8
370
     0
100
AcDbSpline
210
0.0
220
0.0
230
1.0
 70
     8
 71
     3
 72
    12
 73
     8
 74
     0
 42
0.000000001
 43
0.00000001
 40
0.0
 40
0.0
 40
0.0
 40
0.0
 40
0.2382403641560844
 40
0.4764807418872615
 40
0.7147210891867863
 40
0.9529614533345484
 40
1.0
 40
1.0
 40
1.0
 40
1.0
 10
149.6703208374971
 20
162.1590944337545
 30
0.0
 10
149.6924835033793
 20
162.5454800338532
 30
0.0
 10
149.7368088364065
 20
163.318251256067
 30
0.0
 10
150.0853509898452
 20
164.4366097675259
 30
0.0
 10
150.6414751473186
 20
165.4524547114303
 30
0.0
 10
151.1557031335931
 20
166.145011217642
 30
0.0
 10
151.5174588954877
 20
166.4333228504271
 30
0.0
 10
151.5771074171358
 20
166.4808614509998
 30
0.0
  0
SPLINE
  5
3BE
330
1F
100
AcDbEntity
  8
0
  6
Continuous
 62
     8
370
     0
100
AcDbSpline
210
0.0
220
0.0
230
1.0
 70
     8
 71
     3
 72
    12
 73
     8
 74
     0
 42
0.000000001
 43
0.00000001
 40
0.0
 40
0.0
 40
0.0
 40
0.0
 40
0.0470385466654516
 40
0.2852789108132137
 40
0.5235192581127386
 40
0.7617596358439157
 40
1.0
 40
1.0
 40
1.0
 40
1.0
 10
159.5771077971154
 20
166.4808614509998
 30
0.0
 10
159.6367563187634
 20
166.4333228504271
 30
0.0
 10
159.9985120806581
 20
166.145011217642
 30
0.0
 10
160.5127400669326
 20
165.4524547114303
 30
0.0
 10
161.068864224406
 20
164.4366097675259
 30
0.0
 10
161.4174063778446
 20
163.318251256067
 30
0.0
 10
161.4617317108719
 20
162.5454800338532
 30
0.0
 10
161.4838943767541
 20
162.1590944337545
 30
0.0
  0
SPLINE
  5
3BF
330
1F
100
AcDbEntity
  8
0
  6
Continuous
 62
     8
370
     0
100
AcDbSpline
210
0.0
220
0.0
230
1.0
 70
     8
 71
     3
 72
    11
 73
     7
 74
     0
 42
0.000000001
 43
0.00000001
 40
0.0
 40
0.0
 40
0.0
 40
0.0
 40
0.2403666243805524
 40
0.4935776462902664
 40
0.7467887562197978
 40
1.0
 40
1.0
 40
1.0
 40
1.0
 10
159.5771077971154
 20
166.0806246432363
 30
0.0
 10
159.809336322752
 20
165.8200911098074
 30
0.0
 10
160.2862028984697
 20
165.2851019924918
 30
0.0
 10
160.7858507405458
 20
164.3165420560654
 30
0.0
 10
161.1218621561928
 20
163.2604911077654
 30
0.0
 10
161.1632474187639
 20
162.5262267231151
 30
0.0
 10
161.1839400555187
 20
162.1590944337545
 30
0.0
  0
SPLINE
  5
3C0
330
1F
100
AcDbEntity
  8
0
  6
Continuous
 62
     8
370
     0
100
AcDbSpline
210
0.0
220
0.0
230
1.0
 70
     8
 71
     3
 72
    11
 73
     7
 74
     0
 42
0.000000001
 43
0.00000001
 40
0.0
 40
0.0
 40
0.0
 40
0.0
 40
0.2532112437802023
 40
0.5064223537097337
 40
0.7596333756194477
 40
1.0
 40
1.0
 40
1.0
 40
1.0
 10
149.9702751587325
 20
162.1590944337545
 30
0.0
 10
149.9909677954872
 20
162.5262267231151
 30
0.0
 10
150.0323530580584
 20
163.2604911077654
 30
0.0
 10
150.3683644737054
 20
164.3165420560654
 30
0.0
 10
150.8680123157815
 20
165.2851019924918
 30
0.0
 10
151.3448788914992
 20
165.8200911098074
 30
0.0
 10
151.5771074171358
 20
166.0806246432363
 30
0.0
  0
LINE
  5
3C1
330
1F
100
AcDbEntity
  8
0
  6
Continuous
 62
     8
370
     0
100
AcDbLine
 10
157.5771077021
 20
223.8986974913
 30
0.0
 11
157.4771076392
 21
223.8986974913
 31
0.0
  0
LINE
  5
3C2
330
1F
100
AcDbEntity
  8
0
  6
Continuous
 62
     8
370
     0
100
AcDbLine
 10
153.6771075751
 20
223.8986974913
 30
0.0
 11
153.5771075121
 21
223.8986974913
 31
0.0
  0
DIMENSION
  5
3C3
330
1F
100
AcDbEntity
  8
0
  6
Continuous
 62
     7
370
     0
100
AcDbDimension
  2
_D_12
 10
151.5771076071
 20
241.9410570827
 30
0.0
 11
155.5771076071
 21
241.9410570827
 31
0.0
 70
   160
  1
<>
 71
     2
 42
-1.0
  3
SLDDIMSTYLE0
100
AcDbAlignedDimension
 13
159.5771076071
 23
227.5415024583
 33
0.0
 14
151.5771076071
 24
227.5415024583
 34
0.0
100
AcDbRotatedDimension
  0
DIMENSION
  5
3CF
330
1F
100
AcDbEntity
  8
0
  6
Continuous
 62
     7
370
     0
100
AcDbDimension
  2
_D_13
 10
163.5771076071
 20
89.6590945567
 30
0.0
 11
155.5771076071
 21
89.6590945567
 31
0.0
 70
   160
  1
<>
 71
     2
 42
-1.0
  3
SLDDIMSTYLE1
100
AcDbAlignedDimension
 13
147.5771076071
 23
137.6590945567
 33
0.0
 14
163.5771076071
 24
137.6590945567
 34
0.0
100
AcDbRotatedDimension
  0
ENDSEC
  0
SECTION
  2
OBJECTS
  0
DICTIONARY
  5
C
330
0
100
AcDbDictionary
281
     1
  3
ACAD_GROUP
350
D
  3
ACAD_LAYOUT
350
1A
  3
ACAD_MLINESTYLE
350
17
  3
ACAD_PLOTSETTINGS
350
19
  3
ACAD_PLOTSTYLENAME
350
E
  3
ACAD_SCALELIST
350
47
  0
DICTIONARY
  5
D
102
{ACAD_REACTORS
330
C
102
}
330
C
100
AcDbDictionary
281
     1
  0
DICTIONARY
  5
1A
102
{ACAD_REACTORS
330
C
102
}
330
C
100
AcDbDictionary
281
     1
  3
Layout1
350
1E
  3
Layout2
350
26
  3
Model
350
22
  0
DICTIONARY
  5
17
102
{ACAD_REACTORS
330
C
102
}
330
C
100
AcDbDictionary
281
     1
  3
Standard
350
18
  0
DICTIONARY
  5
19
102
{ACAD_REACTORS
330
C
102
}
330
C
100
AcDbDictionary
281
     1
  0
ACDBDICTIONARYWDFLT
  5
E
102
{ACAD_REACTORS
330
C
102
}
330
C
100
AcDbDictionary
281
     1
  3
Normal
350
F
100
AcDbDictionaryWithDefault
340
F
  0
DICTIONARY
  5
47
102
{ACAD_REACTORS
330
C
102
}
330
C
100
AcDbDictionary
281
     1
  3
A0
350
48
  3
A1
350
49
  3
A2
350
4A
  3
A3
350
4B
  3
A4
350
4C
  3
A5
350
4D
  3
A6
350
4E
  3
A7
350
4F
  3
A8
350
50
  3
A9
350
51
  3
B0
350
52
  3
B1
350
53
  3
B2
350
54
  3
B3
350
55
  3
B4
350
56
  3
B5
350
57
  3
B6
350
58
  3
B7
350
59
  3
B8
350
5A
  3
B9
350
5B
  3
C0
350
5C
  3
C1
350
5D
  3
C2
350
5E
  3
C3
350
5F
  3
C4
350
60
  3
C5
350
61
  3
C6
350
62
  3
C7
350
63
  3
C8
350
64
  3
C9
350
65
  3
D0
350
66
  3
D1
350
67
  3
D2
350
68
  0
LAYOUT
  5
1E
102
{ACAD_REACTORS
330
1A
102
}
330
1A
100
AcDbPlotSettings
  1

  2
none_device
  4

  6

 40
0.0
 41
0.0
 42
0.0
 43
0.0
 44
0.0
 45
0.0
 46
0.0
 47
0.0
 48
0.0
 49
0.0
140
0.0
141
0.0
142
1.0
143
1.0
 70
   688
 72
     1
 73
     0
 74
     5
  7

 75
    16
147
1.0
148
0.0
149
0.0
100
AcDbLayout
  1
Layout1
 70
     1
 71
     1
 10
0.0
 20
0.0
 11
420.0
 21
297.0
 12
0.0
 22
0.0
 32
0.0
 14
1.0000000000E+20
 24
1.0000000000E+20
 34
1.0000000000E+20
 15
-1.0000000000E+20
 25
-1.0000000000E+20
 35
-1.0000000000E+20
146
0.0
 13
0.0
 23
0.0
 33
0.0
 16
1.0
 26
0.0
 36
0.0
 17
0.0
 27
1.0
 37
0.0
 76
     0
330
1B
  0
LAYOUT
  5
26
102
{ACAD_REACTORS
330
1A
102
}
330
1A
100
AcDbPlotSettings
  1

  2
none_device
  4

  6

 40
0.0
 41
0.0
 42
0.0
 43
0.0
 44
0.0
 45
0.0
 46
0.0
 47
0.0
 48
0.0
 49
0.0
140
0.0
141
0.0
142
1.0
143
1.0
 70
   688
 72
     1
 73
     0
 74
     5
  7

 75
    16
147
1.0
148
0.0
149
0.0
100
AcDbLayout
  1
Layout2
 70
     1
 71
     2
 10
0.0
 20
0.0
 11
0.0
 21
0.0
 12
0.0
 22
0.0
 32
0.0
 14
0.0
 24
0.0
 34
0.0
 15
0.0
 25
0.0
 35
0.0
146
0.0
 13
0.0
 23
0.0
 33
0.0
 16
1.0
 26
0.0
 36
0.0
 17
0.0
 27
1.0
 37
0.0
 76
     0
330
23
  0
LAYOUT
  5
22
102
{ACAD_REACTORS
330
1A
102
}
330
1A
100
AcDbPlotSettings
  1

  2
none_device
  4
Letter_(8.50_x_11.00_Inches)
  6

 40
6.35
 41
6.35
 42
6.35000508
 43
6.35000508
 44
215.9
 45
279.4
 46
0.0
 47
0.0
 48
0.0
 49
0.0
140
0.0
141
0.0
142
1.0
143
1.0
 70
  1712
 72
     1
 73
     0
 74
     0
  7

 75
     0
147
1.0
148
0.0
149
0.0
100
AcDbLayout
  1
Model
 70
     1
 71
     0
 10
0.0
 20
0.0
 11
210.0
 21
297.0
 12
0.0
 22
0.0
 32
0.0
 14
0.0
 24
0.0
 34
0.0
 15
210.0
 25
297.0
 35
0.0
146
0.0
 13
0.0
 23
0.0
 33
0.0
 16
1.0
 26
0.0
 36
0.0
 17
0.0
 27
1.0
 37
0.0
 76
     0
330
1F
331
29
  0
MLINESTYLE
  5
18
102
{ACAD_REACTORS
330
17
102
}
330
17
100
AcDbMlineStyle
  2
Standard
 70
     0
  3

 62
   256
 51
90.0
 52
90.0
 71
     2
 49
0.5
 62
   256
  6
BYLAYER
 49
-0.5
 62
   256
  6
BYLAYER
  0
ACDBPLACEHOLDER
  5
F
102
{ACAD_REACTORS
330
E
102
}
330
E
  0
SCALE
  5
48
102
{ACAD_REACTORS
330
47
102
}
330
47
100
AcDbScale
 70
     0
300
1:1
140
1.0
141
1.0
290
     1
  0
SCALE
  5
49
102
{ACAD_REACTORS
330
47
102
}
330
47
100
AcDbScale
 70
     0
300
1:2
140
1.0
141
2.0
290
     0
  0
SCALE
  5
4A
102
{ACAD_REACTORS
330
47
102
}
330
47
100
AcDbScale
 70
     0
300
1:4
140
1.0
141
4.0
290
     0
  0
SCALE
  5
4B
102
{ACAD_REACTORS
330
47
102
}
330
47
100
AcDbScale
 70
     0
300
1:5
140
1.0
141
5.0
290
     0
  0
SCALE
  5
4C
102
{ACAD_REACTORS
330
47
102
}
330
47
100
AcDbScale
 70
     0
300
1:8
140
1.0
141
8.0
290
     0
  0
SCALE
  5
4D
102
{ACAD_REACTORS
330
47
102
}
330
47
100
AcDbScale
 70
     0
300
1:10
140
1.0
141
10.0
290
     0
  0
SCALE
  5
4E
102
{ACAD_REACTORS
330
47
102
}
330
47
100
AcDbScale
 70
     0
300
1:16
140
1.0
141
16.0
290
     0
  0
SCALE
  5
4F
102
{ACAD_REACTORS
330
47
102
}
330
47
100
AcDbScale
 70
     0
300
1:20
140
1.0
141
20.0
290
     0
  0
SCALE
  5
50
102
{ACAD_REACTORS
330
47
102
}
330
47
100
AcDbScale
 70
     0
300
1:30
140
1.0
141
30.0
290
     0
  0
SCALE
  5
51
102
{ACAD_REACTORS
330
47
102
}
330
47
100
AcDbScale
 70
     0
300
1:40
140
1.0
141
40.0
290
     0
  0
SCALE
  5
52
102
{ACAD_REACTORS
330
47
102
}
330
47
100
AcDbScale
 70
     0
300
1:50
140
1.0
141
50.0
290
     0
  0
SCALE
  5
53
102
{ACAD_REACTORS
330
47
102
}
330
47
100
AcDbScale
 70
     0
300
1:100
140
1.0
141
100.0
290
     0
  0
SCALE
  5
54
102
{ACAD_REACTORS
330
47
102
}
330
47
100
AcDbScale
 70
     0
300
2:1
140
2.0
141
1.0
290
     0
  0
SCALE
  5
55
102
{ACAD_REACTORS
330
47
102
}
330
47
100
AcDbScale
 70
     0
300
4:1
140
4.0
141
1.0
290
     0
  0
SCALE
  5
56
102
{ACAD_REACTORS
330
47
102
}
330
47
100
AcDbScale
 70
     0
300
8:1
140
8.0
141
1.0
290
     0
  0
SCALE
  5
57
102
{ACAD_REACTORS
330
47
102
}
330
47
100
AcDbScale
 70
     0
300
10:1
140
10.0
141
1.0
290
     0
  0
SCALE
  5
58
102
{ACAD_REACTORS
330
47
102
}
330
47
100
AcDbScale
 70
     0
300
100:1
140
100.0
141
1.0
290
     0
  0
SCALE
  5
59
102
{ACAD_REACTORS
330
47
102
}
330
47
100
AcDbScale
 70
     0
300
1/128" = 1'-0"
140
0.0078125
141
12.0
290
     0
  0
SCALE
  5
5A
102
{ACAD_REACTORS
330
47
102
}
330
47
100
AcDbScale
 70
     0
300
1/64" = 1'-0"
140
0.015625
141
12.0
290
     0
  0
SCALE
  5
5B
102
{ACAD_REACTORS
330
47
102
}
330
47
100
AcDbScale
 70
     0
300
1/32" = 1'-0"
140
0.03125
141
12.0
290
     0
  0
SCALE
  5
5C
102
{ACAD_REACTORS
330
47
102
}
330
47
100
AcDbScale
 70
     0
300
1/16" = 1'-0"
140
0.0625
141
12.0
290
     0
  0
SCALE
  5
5D
102
{ACAD_REACTORS
330
47
102
}
330
47
100
AcDbScale
 70
     0
300
3/32" = 1'-0"
140
0.09375
141
12.0
290
     0
  0
SCALE
  5
5E
102
{ACAD_REACTORS
330
47
102
}
330
47
100
AcDbScale
 70
     0
300
1/8" = 1'-0"
140
0.125
141
12.0
290
     0
  0
SCALE
  5
5F
102
{ACAD_REACTORS
330
47
102
}
330
47
100
AcDbScale
 70
     0
300
3/16" = 1'-0"
140
0.1875
141
12.0
290
     0
  0
SCALE
  5
60
102
{ACAD_REACTORS
330
47
102
}
330
47
100
AcDbScale
 70
     0
300
1/4" = 1'-0"
140
0.25
141
12.0
290
     0
  0
SCALE
  5
61
102
{ACAD_REACTORS
330
47
102
}
330
47
100
AcDbScale
 70
     0
300
3/8" = 1'-0"
140
0.375
141
12.0
290
     0
  0
SCALE
  5
62
102
{ACAD_REACTORS
330
47
102
}
330
47
100
AcDbScale
 70
     0
300
1/2" = 1'-0"
140
0.5
141
12.0
290
     0
  0
SCALE
  5
63
102
{ACAD_REACTORS
330
47
102
}
330
47
100
AcDbScale
 70
     0
300
3/4" = 1'-0"
140
0.75
141
12.0
290
     0
  0
SCALE
  5
64
102
{ACAD_REACTORS
330
47
102
}
330
47
100
AcDbScale
 70
     0
300
1" = 1'-0"
140
1.0
141
12.0
290
     0
  0
SCALE
  5
65
102
{ACAD_REACTORS
330
47
102
}
330
47
100
AcDbScale
 70
     0
300
1-1/2" = 1'-0"
140
1.5
141
12.0
290
     0
  0
SCALE
  5
66
102
{ACAD_REACTORS
330
47
102
}
330
47
100
AcDbScale
 70
     0
300
3" = 1'-0"
140
3.0
141
12.0
290
     0
  0
SCALE
  5
67
102
{ACAD_REACTORS
330
47
102
}
330
47
100
AcDbScale
 70
     0
300
6" = 1'-0"
140
6.0
141
12.0
290
     0
  0
SCALE
  5
68
102
{ACAD_REACTORS
330
47
102
}
330
47
100
AcDbScale
 70
     0
300
1'-0" = 1'-0"
140
12.0
141
12.0
290
     0
  0
ENDSEC
  0
EOF
