  0
SECTION
  2
HEADER
  9
$ACADVER
  1
AC1015
  9
$ACADMAINTVER
 70
     6
  9
$DWGCODEPAGE
  3
DOS932
  9
$INSBASE
 10
0.0
 20
0.0
 30
0.0
  9
$EXTMIN
 10
0.0
 20
0.0
 30
0.0
  9
$EXTMAX
 10
210.0
 20
297.0
 30
0.0
  9
$LIMMIN
 10
0.0
 20
0.0
  9
$LIMMAX
 10
210.0
 20
297.0
  9
$ORTHOMODE
 70
     0
  9
$REGENMODE
 70
     1
  9
$FILLMODE
 70
     1
  9
$QTEXTMODE
 70
     0
  9
$MIRRTEXT
 70
     1
  9
$LTSCALE
 40
1.0
  9
$ATTMODE
 70
     1
  9
$TEXTSIZE
 40
3.5
  9
$TRACEWID
 40
1.0
  9
$TEXTSTYLE
  7
Standard
  9
$CLAYER
  8
0
  9
$CELTYPE
  6
ByLayer
  9
$CECOLOR
 62
   256
  9
$CELTSCALE
 40
1.0
  9
$DISPSILH
 70
     0
  9
$DIMSCALE
 40
1.0
  9
$DIMASZ
 40
3.0
  9
$DIMEXO
 40
1.0
  9
$DIMDLI
 40
3.75
  9
$DIMRND
 40
0.0
  9
$DIMDLE
 40
0.0
  9
$DIMEXE
 40
1.0
  9
$DIMTP
 40
0.0
  9
$DIMTM
 40
0.0
  9
$DIMTXT
 40
3.5
  9
$DIMCEN
 40
2.5
  9
$DIMTSZ
 40
0.0
  9
$DIMTOL
 70
     0
  9
$DIMLIM
 70
     0
  9
$DIMTIH
 70
     1
  9
$DIMTOH
 70
     1
  9
$DIMSE1
 70
     0
  9
$DIMSE2
 70
     0
  9
$DIMTAD
 70
     1
  9
$DIMZIN
 70
     0
  9
$DIMBLK
  1

  9
$DIMASO
 70
     1
  9
$DIMSHO
 70
     1
  9
$DIMPOST
  1

  9
$DIMAPOST
  1

  9
$DIMALT
 70
     0
  9
$DIMALTD
 70
     3
  9
$DIMALTF
 40
0.0393700787
  9
$DIMLFAC
 40
2.0
  9
$DIMTOFL
 70
     1
  9
$DIMTVP
 40
0.0
  9
$DIMTIX
 70
     0
  9
$DIMSOXD
 70
     0
  9
$DIMSAH
 70
     0
  9
$DIMBLK1
  1

  9
$DIMBLK2
  1

  9
$DIMSTYLE
  2
ISO-25
  9
$DIMCLRD
 70
     0
  9
$DIMCLRE
 70
     0
  9
$DIMCLRT
 70
     0
  9
$DIMTFAC
 40
1.0
  9
$DIMGAP
 40
1.524
  9
$DIMJUST
 70
     0
  9
$DIMSD1
 70
     0
  9
$DIMSD2
 70
     0
  9
$DIMTOLJ
 70
     0
  9
$DIMTZIN
 70
     0
  9
$DIMALTZ
 70
     0
  9
$DIMALTTZ
 70
     0
  9
$DIMUPT
 70
     0
  9
$DIMDEC
 70
     1
  9
$DIMTDEC
 70
     3
  9
$DIMALTU
 70
     2
  9
$DIMALTTD
 70
     3
  9
$DIMTXSTY
  7
Standard
  9
$DIMAUNIT
 70
     0
  9
$DIMADEC
 70
     2
  9
$DIMALTRND
 40
0.0
  9
$DIMAZIN
 70
     0
  9
$DIMDSEP
 70
    44
  9
$DIMATFIT
 70
     3
  9
$DIMFRAC
 70
     0
  9
$DIMLDRBLK
  1

  9
$DIMLUNIT
 70
     2
  9
$DIMLWD
 70
    -2
  9
$DIMLWE
 70
    -2
  9
$DIMTMOVE
 70
     0
  9
$LUNITS
 70
     2
  9
$LUPREC
 70
     1
  9
$SKETCHINC
 40
1.0
  9
$FILLETRAD
 40
10.0
  9
$AUNITS
 70
     0
  9
$AUPREC
 70
     2
  9
$MENU
  1
.
  9
$ELEVATION
 40
0.0
  9
$PELEVATION
 40
0.0
  9
$THICKNESS
 40
0.0
  9
$LIMCHECK
 70
     0
  9
$CHAMFERA
 40
0.0
  9
$CHAMFERB
 40
0.0
  9
$CHAMFERC
 40
0.0
  9
$CHAMFERD
 40
0.0
  9
$SKPOLY
 70
     0
  9
$TDCREATE
 40
2457984.680061921
  9
$TDUCREATE
 40
2457984.305061921
  9
$TDUPDATE
 40
2457984.68006412
  9
$TDUUPDATE
 40
2457984.30506412
  9
$TDINDWG
 40
0.0000000116
  9
$TDUSRTIMER
 40
0.0000000116
  9
$USRTIMER
 70
     1
  9
$ANGBASE
 50
0.0
  9
$ANGDIR
 70
     0
  9
$PDMODE
 70
     0
  9
$PDSIZE
 40
-1.0
  9
$PLINEWID
 40
0.0
  9
$SPLFRAME
 70
     0
  9
$SPLINETYPE
 70
     6
  9
$SPLINESEGS
 70
     8
  9
$HANDSEED
  5
368
  9
$SURFTAB1
 70
     6
  9
$SURFTAB2
 70
     6
  9
$SURFTYPE
 70
     6
  9
$SURFU
 70
     6
  9
$SURFV
 70
     6
  9
$UCSBASE
  2

  9
$UCSNAME
  2

  9
$UCSORG
 10
0.0
 20
0.0
 30
0.0
  9
$UCSXDIR
 10
1.0
 20
0.0
 30
0.0
  9
$UCSYDIR
 10
0.0
 20
1.0
 30
0.0
  9
$UCSORTHOREF
  2

  9
$UCSORTHOVIEW
 70
     0
  9
$UCSORGTOP
 10
0.0
 20
0.0
 30
0.0
  9
$UCSORGBOTTOM
 10
0.0
 20
0.0
 30
0.0
  9
$UCSORGLEFT
 10
0.0
 20
0.0
 30
0.0
  9
$UCSORGRIGHT
 10
0.0
 20
0.0
 30
0.0
  9
$UCSORGFRONT
 10
0.0
 20
0.0
 30
0.0
  9
$UCSORGBACK
 10
0.0
 20
0.0
 30
0.0
  9
$PUCSBASE
  2

  9
$PUCSNAME
  2

  9
$PUCSORG
 10
0.0
 20
0.0
 30
0.0
  9
$PUCSXDIR
 10
1.0
 20
0.0
 30
0.0
  9
$PUCSYDIR
 10
0.0
 20
1.0
 30
0.0
  9
$PUCSORTHOREF
  2

  9
$PUCSORTHOVIEW
 70
     0
  9
$PUCSORGTOP
 10
0.0
 20
0.0
 30
0.0
  9
$PUCSORGBOTTOM
 10
0.0
 20
0.0
 30
0.0
  9
$PUCSORGLEFT
 10
0.0
 20
0.0
 30
0.0
  9
$PUCSORGRIGHT
 10
0.0
 20
0.0
 30
0.0
  9
$PUCSORGFRONT
 10
0.0
 20
0.0
 30
0.0
  9
$PUCSORGBACK
 10
0.0
 20
0.0
 30
0.0
  9
$USERI1
 70
     0
  9
$USERI2
 70
     0
  9
$USERI3
 70
     0
  9
$USERI4
 70
     0
  9
$USERI5
 70
     0
  9
$USERR1
 40
0.0
  9
$USERR2
 40
0.0
  9
$USERR3
 40
0.0
  9
$USERR4
 40
0.0
  9
$USERR5
 40
0.0
  9
$WORLDVIEW
 70
     1
  9
$SHADEDGE
 70
     3
  9
$SHADEDIF
 70
    70
  9
$TILEMODE
 70
     1
  9
$MAXACTVP
 70
    64
  9
$PINSBASE
 10
0.0
 20
0.0
 30
0.0
  9
$PLIMCHECK
 70
     0
  9
$PEXTMIN
 10
1.0000000000E+20
 20
1.0000000000E+20
 30
1.0000000000E+20
  9
$PEXTMAX
 10
-1.0000000000E+20
 20
-1.0000000000E+20
 30
-1.0000000000E+20
  9
$PLIMMIN
 10
0.0
 20
0.0
  9
$PLIMMAX
 10
420.0
 20
297.0
  9
$UNITMODE
 70
     0
  9
$VISRETAIN
 70
     1
  9
$PLINEGEN
 70
     0
  9
$PSLTSCALE
 70
     1
  9
$TREEDEPTH
 70
  3020
  9
$CMLSTYLE
  2
Standard
  9
$CMLJUST
 70
     0
  9
$CMLSCALE
 40
20.0
  9
$PROXYGRAPHICS
 70
     1
  9
$MEASUREMENT
 70
     1
  9
$CELWEIGHT
370
    -1
  9
$ENDCAPS
280
     0
  9
$JOINSTYLE
280
     0
  9
$LWDISPLAY
290
     1
  9
$INSUNITS
 70
     4
  9
$HYPERLINKBASE
  1

  9
$STYLESHEET
  1

  9
$XEDIT
290
     1
  9
$CEPSNTYPE
380
     0
  9
$PSTYLEMODE
290
     1
  9
$FINGERPRINTGUID
  2
{BC9DF13C-3C38-4F14-9FA3-422DD642CCEF}
  9
$VERSIONGUID
  2
{FAEB1C32-E019-11D5-929B-00C0DF256EC4}
  9
$EXTNAMES
290
     1
  9
$PSVPSCALE
 40
0.0
  9
$OLESTARTUP
290
     0
  0
ENDSEC
  0
SECTION
  2
CLASSES
  0
CLASS
  1
ACDBDICTIONARYWDFLT
  2
AcDbDictionaryWithDefault
  3
ObjectDBX Classes
 90
        0
280
     0
281
     0
  0
CLASS
  1
VISUALSTYLE
  2
AcDbVisualStyle
  3
ObjectDBX Classes
 90
     4095
280
     0
281
     0
  0
CLASS
  1
MATERIAL
  2
AcDbMaterial
  3
ObjectDBX Classes
 90
     1153
280
     0
281
     0
  0
CLASS
  1
SCALE
  2
AcDbScale
  3
ObjectDBX Classes
 90
     1153
280
     0
281
     0
  0
CLASS
  1
TABLESTYLE
  2
AcDbTableStyle
  3
ObjectDBX Classes
 90
     4095
280
     0
281
     0
  0
CLASS
  1
MLEADERSTYLE
  2
AcDbMLeaderStyle
  3
ACDB_MLEADERSTYLE_CLASS
 90
     4095
280
     0
281
     0
  0
CLASS
  1
SUN
  2
AcDbSun
  3
SCENEOE
 90
     1153
280
     0
281
     0
  0
CLASS
  1
ACDBPLACEHOLDER
  2
AcDbPlaceHolder
  3
ObjectDBX Classes
 90
        0
280
     0
281
     0
  0
CLASS
  1
LAYOUT
  2
AcDbLayout
  3
ObjectDBX Classes
 90
        0
280
     0
281
     0
  0
ENDSEC
  0
SECTION
  2
TABLES
  0
TABLE
  2
VPORT
  5
8
330
0
100
AcDbSymbolTable
 70
     1
  0
VPORT
  5
29
330
8
100
AcDbSymbolTableRecord
100
AcDbViewportTableRecord
  2
*Active
 70
     0
 10
0.0
 20
0.0
 11
1.0
 21
1.0
 12
105.0
 22
148.5
 13
0.0
 23
0.0
 14
10.0
 24
10.0
 15
10.0
 25
10.0
 16
0.0
 26
0.0
 36
1.0
 17
0.0
 27
0.0
 37
0.0
 40
297.0
 41
0.7070707071
 42
50.0
 43
0.0
 44
0.0
 50
0.0
 51
0.0
 71
     0
 72
  2000
 73
     1
 74
     3
 75
     0
 76
     0
 77
     0
 78
     0
281
     0
 65
     1
110
0.0
120
0.0
130
0.0
111
1.0
121
0.0
131
0.0
112
0.0
122
1.0
132
0.0
 79
     0
146
0.0
  0
ENDTAB
  0
TABLE
  2
LTYPE
  5
5
330
0
100
AcDbSymbolTable
 70
     6
  0
LTYPE
  5
14
330
5
100
AcDbSymbolTableRecord
100
AcDbLinetypeTableRecord
  2
ByBlock
 70
     0
  3

 72
    65
 73
     0
 40
0.0
  0
LTYPE
  5
15
330
5
100
AcDbSymbolTableRecord
100
AcDbLinetypeTableRecord
  2
ByLayer
 70
     0
  3

 72
    65
 73
     0
 40
0.0
  0
LTYPE
  5
16
330
5
100
AcDbSymbolTableRecord
100
AcDbLinetypeTableRecord
  2
Continuous
 70
     0
  3
Solid line
 72
    65
 73
     0
 40
0.0
  0
LTYPE
  5
6E
330
5
100
AcDbSymbolTableRecord
100
AcDbLinetypeTableRecord
  2
HIDDEN
 70
     0
  3
Hidden __ __ __ __ __ __ __ __ __ __ __ __ __ __
 72
    65
 73
     2
 40
1.905
 49
1.27
 74
     0
 49
-0.635
 74
     0
  0
LTYPE
  5
6F
330
5
100
AcDbSymbolTableRecord
100
AcDbLinetypeTableRecord
  2
PHANTOM
 70
     0
  3
Phantom ______  __  __  ______  __  __  ______
 72
    65
 73
     6
 40
12.7
 49
6.35
 74
     0
 49
-1.27
 74
     0
 49
1.27
 74
     0
 49
-1.27
 74
     0
 49
1.27
 74
     0
 49
-1.27
 74
     0
  0
LTYPE
  5
70
330
5
100
AcDbSymbolTableRecord
100
AcDbLinetypeTableRecord
  2
CENTER
 70
     0
  3
Center ____ _ ____ _ ____ _ ____ _ ____ _ ____
 72
    65
 73
     4
 40
10.16
 49
6.35
 74
     0
 49
-1.27
 74
     0
 49
1.27
 74
     0
 49
-1.27
 74
     0
  0
LTYPE
  5
71
330
5
100
AcDbSymbolTableRecord
100
AcDbLinetypeTableRecord
  2
CENTERX2
 70
     0
  3
Center (2x) ________  __  ________  __  _____
 72
    65
 73
     4
 40
20.32
 49
12.7
 74
     0
 49
-2.54
 74
     0
 49
2.54
 74
     0
 49
-2.54
 74
     0
  0
LTYPE
  5
72
330
5
100
AcDbSymbolTableRecord
100
AcDbLinetypeTableRecord
  2
DOT2
 70
     0
  3
Dot (.5x) ........................................
 72
    65
 73
     2
 40
0.635
 49
0.0
 74
     0
 49
-0.635
 74
     0
  0
ENDTAB
  0
TABLE
  2
LAYER
  5
2
330
0
100
AcDbSymbolTable
 70
     1
  0
LAYER
  5
10
330
2
100
AcDbSymbolTableRecord
100
AcDbLayerTableRecord
  2
0
 70
     0
 62
     7
  6
Continuous
370
    -3
390
F
  0
ENDTAB
  0
TABLE
  2
STYLE
  5
3
330
0
100
AcDbSymbolTable
 70
     2
  0
STYLE
  5
11
330
3
100
AcDbSymbolTableRecord
100
AcDbTextStyleTableRecord
  2
Standard
 70
     0
 40
0.0
 41
1.0
 50
0.0
 71
     0
 42
3.5
  3
txt
  4
bigfont
  0
STYLE
  5
7B
330
3
100
AcDbSymbolTableRecord
100
AcDbTextStyleTableRecord
  2
SLDTEXTSTYLE0
 70
     0
 40
0.0
 41
0.7
 50
0.0
 71
     0
 42
3.5
  3
TXT
  4
bigfont
  0
ENDTAB
  0
TABLE
  2
VIEW
  5
6
330
0
100
AcDbSymbolTable
 70
     0
  0
ENDTAB
  0
TABLE
  2
UCS
  5
7
330
0
100
AcDbSymbolTable
 70
     0
  0
ENDTAB
  0
TABLE
  2
APPID
  5
9
330
0
100
AcDbSymbolTable
 70
     1
  0
APPID
  5
12
330
9
100
AcDbSymbolTableRecord
100
AcDbRegAppTableRecord
  2
ACAD
 70
     0
  0
ENDTAB
  0
TABLE
  2
DIMSTYLE
  5
A
330
0
100
AcDbSymbolTable
 70
     6
100
AcDbDimStyleTable
  0
DIMSTYLE
105
27
330
A
100
AcDbSymbolTableRecord
100
AcDbDimStyleTableRecord
  2
ISO-25
 70
     0
 41
2.5
 42
0.625
 43
3.75
 44
1.25
 73
     0
 74
     0
 77
     1
 78
     8
140
2.5
141
2.5
143
0.0393700787
147
0.625
171
     3
172
     1
178
     0
271
     2
272
     2
274
     3
278
    44
283
     0
284
     8
340
11
  0
DIMSTYLE
105
120
102
{ACAD_REACTORS
330
11F
330
12A
330
134
330
13E
330
148
330
21E
330
229
330
233
330
24A
330
254
330
25E
330
26A
330
282
102
}
330
A
100
AcDbSymbolTableRecord
100
AcDbDimStyleTableRecord
  2
SLDDIMSTYLE0
 70
     0
 41
3.0
 44
0.0
 45
0.000000001
 73
     0
 74
     0
 77
     3
 78
    12
 79
     3
140
3.5
147
0.875
173
     1
178
     0
271
     1
272
     3
276
     2
284
    12
340
7B
  0
DIMSTYLE
105
23E
102
{ACAD_REACTORS
330
23D
102
}
330
A
100
AcDbSymbolTableRecord
100
AcDbDimStyleTableRecord
  2
SLDDIMSTYLE1
 70
     0
 41
3.0
 44
0.0
 45
0.000000001
 73
     0
 74
     0
 77
     3
 78
    12
 79
     3
140
3.5
147
0.875
172
     1
173
     1
178
     0
271
     1
272
     3
276
     2
284
    12
289
     0
340
7B
  0
DIMSTYLE
105
277
102
{ACAD_REACTORS
330
276
102
}
330
A
100
AcDbSymbolTableRecord
100
AcDbDimStyleTableRecord
  2
SLDDIMSTYLE2
 70
     0
 41
3.0
 44
0.0
 45
0.000000001
 78
    12
 79
     3
140
3.5
141
0.0
147
0.875
173
     1
178
     0
271
     1
272
     3
276
     2
284
    12
340
7B
  0
DIMSTYLE
105
292
330
A
100
AcDbSymbolTableRecord
100
AcDbDimStyleTableRecord
  2
SLDDIMSTYLE3
 70
     0
 41
3.0
 44
0.0
 45
0.000000001
146
3.0
147
0.0
173
     1
178
     0
271
     0
272
     0
276
     2
340
11
  0
DIMSTYLE
105
344
102
{ACAD_REACTORS
330
343
330
350
102
}
330
A
100
AcDbSymbolTableRecord
100
AcDbDimStyleTableRecord
  2
SLDDIMSTYLE4
 70
     0
 41
3.0
 44
0.0
 45
0.000000001
 73
     0
 74
     0
 77
     3
 78
    12
 79
     3
140
3.5
147
0.875
173
     1
178
     0
271
     0
272
     3
276
     2
284
    12
340
7B
  0
ENDTAB
  0
TABLE
  2
BLOCK_RECORD
  5
1
330
0
100
AcDbSymbolTable
 70
    23
  0
BLOCK_RECORD
  5
1F
330
1
100
AcDbSymbolTableRecord
100
AcDbBlockTableRecord
  2
*Model_Space
340
22
  0
BLOCK_RECORD
  5
1B
330
1
100
AcDbSymbolTableRecord
100
AcDbBlockTableRecord
  2
*Paper_Space
340
1E
  0
BLOCK_RECORD
  5
23
330
1
100
AcDbSymbolTableRecord
100
AcDbBlockTableRecord
  2
*Paper_Space0
340
26
  0
BLOCK_RECORD
  5
121
330
1
100
AcDbSymbolTableRecord
100
AcDbBlockTableRecord
  2
_D
340
0
  0
BLOCK_RECORD
  5
12B
330
1
100
AcDbSymbolTableRecord
100
AcDbBlockTableRecord
  2
_D_1
340
0
  0
BLOCK_RECORD
  5
135
330
1
100
AcDbSymbolTableRecord
100
AcDbBlockTableRecord
  2
_D_2
340
0
  0
BLOCK_RECORD
  5
13F
330
1
100
AcDbSymbolTableRecord
100
AcDbBlockTableRecord
  2
_D_3
340
0
  0
BLOCK_RECORD
  5
149
330
1
100
AcDbSymbolTableRecord
100
AcDbBlockTableRecord
  2
_D_4
340
0
  0
BLOCK_RECORD
  5
21F
330
1
100
AcDbSymbolTableRecord
100
AcDbBlockTableRecord
  2
_D_5
340
0
  0
BLOCK_RECORD
  5
22A
330
1
100
AcDbSymbolTableRecord
100
AcDbBlockTableRecord
  2
_D_6
340
0
  0
BLOCK_RECORD
  5
234
330
1
100
AcDbSymbolTableRecord
100
AcDbBlockTableRecord
  2
_D_7
340
0
  0
BLOCK_RECORD
  5
23F
330
1
100
AcDbSymbolTableRecord
100
AcDbBlockTableRecord
  2
_D_8
340
0
  0
BLOCK_RECORD
  5
24B
330
1
100
AcDbSymbolTableRecord
100
AcDbBlockTableRecord
  2
_D_9
340
0
  0
BLOCK_RECORD
  5
255
330
1
100
AcDbSymbolTableRecord
100
AcDbBlockTableRecord
  2
_D_10
340
0
  0
BLOCK_RECORD
  5
25F
330
1
100
AcDbSymbolTableRecord
100
AcDbBlockTableRecord
  2
_D_11
340
0
  0
BLOCK_RECORD
  5
26B
330
1
100
AcDbSymbolTableRecord
100
AcDbBlockTableRecord
  2
_D_12
340
0
  0
BLOCK_RECORD
  5
278
330
1
100
AcDbSymbolTableRecord
100
AcDbBlockTableRecord
  2
_D_13
340
0
  0
BLOCK_RECORD
  5
283
330
1
100
AcDbSymbolTableRecord
100
AcDbBlockTableRecord
  2
_D_14
340
0
  0
BLOCK_RECORD
  5
28C
330
1
100
AcDbSymbolTableRecord
100
AcDbBlockTableRecord
  2
SW_NOTE_0
340
0
102
{BLKREFS
331
291
102
}
  0
BLOCK_RECORD
  5
294
330
1
100
AcDbSymbolTableRecord
100
AcDbBlockTableRecord
  2
SW_CENTERMARKSYMBOL_0
340
0
102
{BLKREFS
331
29F
102
}
  0
BLOCK_RECORD
  5
2A0
330
1
100
AcDbSymbolTableRecord
100
AcDbBlockTableRecord
  2
SW_CENTERMARKSYMBOL_1
340
0
102
{BLKREFS
331
2AB
102
}
  0
BLOCK_RECORD
  5
2AC
330
1
100
AcDbSymbolTableRecord
100
AcDbBlockTableRecord
  2
SW_CENTERMARKSYMBOL_2
340
0
102
{BLKREFS
331
2B7
102
}
  0
BLOCK_RECORD
  5
345
330
1
100
AcDbSymbolTableRecord
100
AcDbBlockTableRecord
  2
_D_15
340
0
  0
BLOCK_RECORD
  5
351
330
1
100
AcDbSymbolTableRecord
100
AcDbBlockTableRecord
  2
_D_16
340
0
  0
BLOCK_RECORD
  5
35C
330
1
100
AcDbSymbolTableRecord
100
AcDbBlockTableRecord
  2
SW_CENTERMARKSYMBOL_3
340
0
102
{BLKREFS
331
367
102
}
  0
ENDTAB
  0
ENDSEC
  0
SECTION
  2
BLOCKS
  0
BLOCK
  5
20
330
1F
100
AcDbEntity
  8
0
100
AcDbBlockBegin
  2
*Model_Space
 70
     0
 10
0.0
 20
0.0
 30
0.0
  3
*Model_Space
  1

  0
ENDBLK
  5
21
330
1F
100
AcDbEntity
  8
0
100
AcDbBlockEnd
  0
BLOCK
  5
1C
330
1B
100
AcDbEntity
 67
     1
  8
0
100
AcDbBlockBegin
  2
*Paper_Space
 70
     0
 10
0.0
 20
0.0
 30
0.0
  3
*Paper_Space
  1

  0
ENDBLK
  5
1D
330
1B
100
AcDbEntity
 67
     1
  8
0
100
AcDbBlockEnd
  0
BLOCK
  5
24
330
23
100
AcDbEntity
  8
0
100
AcDbBlockBegin
  2
*Paper_Space0
 70
     0
 10
0.0
 20
0.0
 30
0.0
  3
*Paper_Space0
  1

  0
ENDBLK
  5
25
330
23
100
AcDbEntity
  8
0
100
AcDbBlockEnd
  0
BLOCK
  5
122
330
121
100
AcDbEntity
  8
0
100
AcDbBlockBegin
  2
_D
 70
     0
 10
0.0
 20
0.0
 30
0.0
  3
_D
  1

  0
SOLID
  5
124
330
121
100
AcDbEntity
  8
0
  6
Continuous
 62
     7
370
     0
100
AcDbTrace
 10
152.3490669122
 20
269.4016668514
 30
0.0
 11
155.3490669122
 21
268.6516668514
 31
0.0
 12
155.3490669122
 22
270.1516668514
 32
0.0
 13
155.3490669122
 23
270.1516668514
 33
0.0
  0
SOLID
  5
125
330
121
100
AcDbEntity
  8
0
  6
Continuous
 62
     7
370
     0
100
AcDbTrace
 10
167.3490669122
 20
269.4016668514
 30
0.0
 11
164.3490669122
 21
270.1516668514
 31
0.0
 12
164.3490669122
 22
268.6516668514
 32
0.0
 13
164.3490669122
 23
268.6516668514
 33
0.0
  0
LINE
  5
126
330
121
100
AcDbEntity
  8
0
  6
Continuous
 62
     7
370
     0
100
AcDbLine
 10
152.3490669122
 20
263.2678817894
 30
0.0
 11
152.3490669122
 21
270.4016668514
 31
0.0
  0
LINE
  5
127
330
121
100
AcDbEntity
  8
0
  6
Continuous
 62
     7
370
     0
100
AcDbLine
 10
167.3490669122
 20
259.7098050307
 30
0.0
 11
167.3490669122
 21
270.4016668514
 31
0.0
  0
LINE
  5
128
330
121
100
AcDbEntity
  8
0
  6
Continuous
 62
     7
370
     0
100
AcDbLine
 10
152.3490669122
 20
269.4016668514
 30
0.0
 11
167.3490669122
 21
269.4016668514
 31
0.0
  0
MTEXT
  5
129
330
121
100
AcDbEntity
  8
0
  6
Continuous
 62
     7
370
     0
100
AcDbMText
 10
157.8122614147
 20
273.9134037078
 30
0.0
 40
3.5
 41
0.0
 71
     1
 72
     1
  1
15
  7
SLDTEXTSTYLE0
 73
     1
 44
1.0
  0
ENDBLK
  5
123
330
121
100
AcDbEntity
  8
0
100
AcDbBlockEnd
  0
BLOCK
  5
12C
330
12B
100
AcDbEntity
  8
0
100
AcDbBlockBegin
  2
_D_1
 70
     0
 10
0.0
 20
0.0
 30
0.0
  3
_D_1
  1

  0
SOLID
  5
12E
330
12B
100
AcDbEntity
  8
0
  6
Continuous
 62
     7
370
     0
100
AcDbTrace
 10
152.3490669122
 20
278.0413212118
 30
0.0
 11
155.3490669122
 21
277.2913212118
 31
0.0
 12
155.3490669122
 22
278.7913212118
 32
0.0
 13
155.3490669122
 23
278.7913212118
 33
0.0
  0
SOLID
  5
12F
330
12B
100
AcDbEntity
  8
0
  6
Continuous
 62
     7
370
     0
100
AcDbTrace
 10
177.3490669122
 20
278.0413212118
 30
0.0
 11
174.3490669122
 21
278.7913212118
 31
0.0
 12
174.3490669122
 22
277.2913212118
 32
0.0
 13
174.3490669122
 23
277.2913212118
 33
0.0
  0
LINE
  5
130
330
12B
100
AcDbEntity
  8
0
  6
Continuous
 62
     7
370
     0
100
AcDbLine
 10
152.3490669122
 20
263.2678817894
 30
0.0
 11
152.3490669122
 21
279.0413212118
 31
0.0
  0
LINE
  5
131
330
12B
100
AcDbEntity
  8
0
  6
Continuous
 62
     7
370
     0
100
AcDbLine
 10
177.3490669122
 20
262.0469054618
 30
0.0
 11
177.3490669122
 21
279.0413212118
 31
0.0
  0
LINE
  5
132
330
12B
100
AcDbEntity
  8
0
  6
Continuous
 62
     7
370
     0
100
AcDbLine
 10
152.3490669122
 20
278.0413212118
 30
0.0
 11
177.3490669122
 21
278.0413212118
 31
0.0
  0
MTEXT
  5
133
330
12B
100
AcDbEntity
  8
0
  6
Continuous
 62
     7
370
     0
100
AcDbMText
 10
162.8122614147
 20
282.5530580682
 30
0.0
 40
3.5
 41
0.0
 71
     1
 72
     1
  1
25
  7
SLDTEXTSTYLE0
 73
     1
 44
1.0
  0
ENDBLK
  5
12D
330
12B
100
AcDbEntity
  8
0
100
AcDbBlockEnd
  0
BLOCK
  5
136
330
135
100
AcDbEntity
  8
0
100
AcDbBlockBegin
  2
_D_2
 70
     0
 10
0.0
 20
0.0
 30
0.0
  3
_D_2
  1

  0
SOLID
  5
138
330
135
100
AcDbEntity
  8
0
  6
Continuous
 62
     7
370
     0
100
AcDbTrace
 10
143.6100397656
 20
262.8462464561
 30
0.0
 11
142.8600397656
 21
259.8462464561
 31
0.0
 12
144.3600397656
 22
259.8462464561
 32
0.0
 13
144.3600397656
 23
259.8462464561
 33
0.0
  0
SOLID
  5
139
330
135
100
AcDbEntity
  8
0
  6
Continuous
 62
     7
370
     0
100
AcDbTrace
 10
143.6100397656
 20
232.6803156183
 30
0.0
 11
144.3600397656
 21
235.6803156183
 31
0.0
 12
142.8600397656
 22
235.6803156183
 32
0.0
 13
142.8600397656
 23
235.6803156183
 33
0.0
  0
LINE
  5
13A
330
135
100
AcDbEntity
  8
0
  6
Continuous
 62
     7
370
     0
100
AcDbLine
 10
151.3490669122
 20
262.8462464561
 30
0.0
 11
142.6100397656
 21
262.8462464561
 31
0.0
  0
LINE
  5
13B
330
135
100
AcDbEntity
  8
0
  6
Continuous
 62
     7
370
     0
100
AcDbLine
 10
151.3490669122
 20
232.6803156183
 30
0.0
 11
142.6100397656
 21
232.6803156183
 31
0.0
  0
LINE
  5
13C
330
135
100
AcDbEntity
  8
0
  6
Continuous
 62
     7
370
     0
100
AcDbLine
 10
143.6100397656
 20
262.8462464561
 30
0.0
 11
143.6100397656
 21
232.6803156183
 31
0.0
  0
MTEXT
  5
13D
330
135
100
AcDbEntity
  8
0
  6
Continuous
 62
     7
370
     0
100
AcDbMText
 10
139.0983029093
 20
245.7264755397
 30
0.0
 40
3.5
 41
0.0
 71
     1
 72
     1
  1
30
  7
SLDTEXTSTYLE0
 11
-1.770233605404514E-14
 21
1.0
 31
0.0
 73
     1
 44
1.0
  0
ENDBLK
  5
137
330
135
100
AcDbEntity
  8
0
100
AcDbBlockEnd
  0
BLOCK
  5
140
330
13F
100
AcDbEntity
  8
0
100
AcDbBlockBegin
  2
_D_3
 70
     0
 10
0.0
 20
0.0
 30
0.0
  3
_D_3
  1

  0
SOLID
  5
142
330
13F
100
AcDbEntity
  8
0
  6
Continuous
 62
     7
370
     0
100
AcDbTrace
 10
182.3490669122
 20
106.002807289
 30
0.0
 11
179.3490669122
 21
106.752807289
 31
0.0
 12
179.3490669122
 22
105.252807289
 32
0.0
 13
179.3490669122
 23
105.252807289
 33
0.0
  0
SOLID
  5
143
330
13F
100
AcDbEntity
  8
0
  6
Continuous
 62
     7
370
     0
100
AcDbTrace
 10
162.3490669122
 20
106.002807289
 30
0.0
 11
165.3490669122
 21
105.252807289
 31
0.0
 12
165.3490669122
 22
106.752807289
 32
0.0
 13
165.3490669122
 23
106.752807289
 33
0.0
  0
LINE
  5
144
330
13F
100
AcDbEntity
  8
0
  6
Continuous
 62
     7
370
     0
100
AcDbLine
 10
182.3490669122
 20
126.002807289
 30
0.0
 11
182.3490669122
 21
105.002807289
 31
0.0
  0
LINE
  5
145
330
13F
100
AcDbEntity
  8
0
  6
Continuous
 62
     7
370
     0
100
AcDbLine
 10
162.3490669122
 20
126.002807289
 30
0.0
 11
162.3490669122
 21
105.002807289
 31
0.0
  0
LINE
  5
146
330
13F
100
AcDbEntity
  8
0
  6
Continuous
 62
     7
370
     0
100
AcDbLine
 10
182.3490669122
 20
106.002807289
 30
0.0
 11
162.3490669122
 21
106.002807289
 31
0.0
  0
MTEXT
  5
147
330
13F
100
AcDbEntity
  8
0
  6
Continuous
 62
     7
370
     0
100
AcDbMText
 10
170.3122614147
 20
110.5145441453
 30
0.0
 40
3.5
 41
0.0
 71
     1
 72
     1
  1
20
  7
SLDTEXTSTYLE0
 73
     1
 44
1.0
  0
ENDBLK
  5
141
330
13F
100
AcDbEntity
  8
0
100
AcDbBlockEnd
  0
BLOCK
  5
14A
330
149
100
AcDbEntity
  8
0
100
AcDbBlockBegin
  2
_D_4
 70
     0
 10
0.0
 20
0.0
 30
0.0
  3
_D_4
  1

  0
SOLID
  5
14C
330
149
100
AcDbEntity
  8
0
  6
Continuous
 62
     7
370
     0
100
AcDbTrace
 10
182.3490669122
 20
94.002807289
 30
0.0
 11
179.3490669122
 21
94.752807289
 31
0.0
 12
179.3490669122
 22
93.252807289
 32
0.0
 13
179.3490669122
 23
93.252807289
 33
0.0
  0
SOLID
  5
14D
330
149
100
AcDbEntity
  8
0
  6
Continuous
 62
     7
370
     0
100
AcDbTrace
 10
152.3490669122
 20
94.002807289
 30
0.0
 11
155.3490669122
 21
93.252807289
 31
0.0
 12
155.3490669122
 22
94.752807289
 32
0.0
 13
155.3490669122
 23
94.752807289
 33
0.0
  0
LINE
  5
14E
330
149
100
AcDbEntity
  8
0
  6
Continuous
 62
     7
370
     0
100
AcDbLine
 10
182.3490669122
 20
126.002807289
 30
0.0
 11
182.3490669122
 21
93.002807289
 31
0.0
  0
LINE
  5
14F
330
149
100
AcDbEntity
  8
0
  6
Continuous
 62
     7
370
     0
100
AcDbLine
 10
152.3490669122
 20
231.6803156183
 30
0.0
 11
152.3490669122
 21
93.002807289
 31
0.0
  0
LINE
  5
150
330
149
100
AcDbEntity
  8
0
  6
Continuous
 62
     7
370
     0
100
AcDbLine
 10
182.3490669122
 20
94.002807289
 30
0.0
 11
152.3490669122
 21
94.002807289
 31
0.0
  0
MTEXT
  5
151
330
149
100
AcDbEntity
  8
0
  6
Continuous
 62
     7
370
     0
100
AcDbMText
 10
165.3122614147
 20
98.5145441453
 30
0.0
 40
3.5
 41
0.0
 71
     1
 72
     1
  1
30
  7
SLDTEXTSTYLE0
 73
     1
 44
1.0
  0
ENDBLK
  5
14B
330
149
100
AcDbEntity
  8
0
100
AcDbBlockEnd
  0
BLOCK
  5
220
330
21F
100
AcDbEntity
  8
0
100
AcDbBlockBegin
  2
_D_5
 70
     0
 10
0.0
 20
0.0
 30
0.0
  3
_D_5
  1

  0
SOLID
  5
222
330
21F
100
AcDbEntity
  8
0
  6
Continuous
 62
     7
370
     0
100
AcDbTrace
 10
90.9317176516
 20
108.8968992229
 30
0.0
 11
87.9317176516
 21
109.6468992229
 31
0.0
 12
87.9317176516
 22
108.1468992229
 32
0.0
 13
87.9317176516
 23
108.1468992229
 33
0.0
  0
SOLID
  5
223
330
21F
100
AcDbEntity
  8
0
  6
Continuous
 62
     7
370
     0
100
AcDbTrace
 10
70.9317176516
 20
108.8968992229
 30
0.0
 11
73.9317176516
 21
108.1468992229
 31
0.0
 12
73.9317176516
 22
109.6468992229
 32
0.0
 13
73.9317176516
 23
109.6468992229
 33
0.0
  0
LINE
  5
224
330
21F
100
AcDbEntity
  8
0
  6
Continuous
 62
     7
370
     0
100
AcDbLine
 10
90.9317176516
 20
126.002807289
 30
0.0
 11
90.9317176516
 21
107.8968992229
 31
0.0
  0
LINE
  5
225
330
21F
100
AcDbEntity
  8
0
  6
Continuous
 62
     7
370
     0
100
AcDbLine
 10
70.9317176516
 20
126.002807289
 30
0.0
 11
70.9317176516
 21
107.8968992229
 31
0.0
  0
LINE
  5
226
330
21F
100
AcDbEntity
  8
0
  6
Continuous
 62
     7
370
     0
100
AcDbLine
 10
90.9317176516
 20
108.8968992229
 30
0.0
 11
70.9317176516
 21
108.8968992229
 31
0.0
  0
MTEXT
  5
227
330
21F
100
AcDbEntity
  8
0
  6
Continuous
 62
     7
370
     0
100
AcDbMText
 10
76.9599467802
 20
113.4086365449
 30
0.0
 40
3.5
 41
0.0
 71
     1
 72
     1
  1
%%c
  7
SLDTEXTSTYLE0
 73
     1
 44
1.0
  0
MTEXT
  5
228
330
21F
100
AcDbEntity
  8
0
  6
Continuous
 62
     7
370
     0
100
AcDbMText
 10
80.8298772952
 20
113.4086365449
 30
0.0
 40
3.5
 41
0.0
 71
     1
 72
     1
  1
20
  7
SLDTEXTSTYLE0
 73
     1
 44
1.0
  0
ENDBLK
  5
221
330
21F
100
AcDbEntity
  8
0
100
AcDbBlockEnd
  0
BLOCK
  5
22B
330
22A
100
AcDbEntity
  8
0
100
AcDbBlockBegin
  2
_D_6
 70
     0
 10
0.0
 20
0.0
 30
0.0
  3
_D_6
  1

  0
SOLID
  5
22D
330
22A
100
AcDbEntity
  8
0
  6
Continuous
 62
     7
370
     0
100
AcDbTrace
 10
64.9317176516
 20
101.8314185633
 30
0.0
 11
67.9317176516
 21
101.0814185633
 31
0.0
 12
67.9317176516
 22
102.5814185633
 32
0.0
 13
67.9317176516
 23
102.5814185633
 33
0.0
  0
SOLID
  5
22E
330
22A
100
AcDbEntity
  8
0
  6
Continuous
 62
     7
370
     0
100
AcDbTrace
 10
96.9317176516
 20
101.8314185633
 30
0.0
 11
93.9317176516
 21
102.5814185633
 31
0.0
 12
93.9317176516
 22
101.0814185633
 32
0.0
 13
93.9317176516
 23
101.0814185633
 33
0.0
  0
LINE
  5
22F
330
22A
100
AcDbEntity
  8
0
  6
Continuous
 62
     7
370
     0
100
AcDbLine
 10
64.9317176516
 20
155.002807289
 30
0.0
 11
64.9317176516
 21
100.8314185633
 31
0.0
  0
LINE
  5
230
330
22A
100
AcDbEntity
  8
0
  6
Continuous
 62
     7
370
     0
100
AcDbLine
 10
96.9317176516
 20
155.002807289
 30
0.0
 11
96.9317176516
 21
100.8314185633
 31
0.0
  0
LINE
  5
231
330
22A
100
AcDbEntity
  8
0
  6
Continuous
 62
     7
370
     0
100
AcDbLine
 10
64.9317176516
 20
101.8314185633
 30
0.0
 11
96.9317176516
 21
101.8314185633
 31
0.0
  0
MTEXT
  5
232
330
22A
100
AcDbEntity
  8
0
  6
Continuous
 62
     7
370
     0
100
AcDbMText
 10
78.8949121541
 20
106.3431554196
 30
0.0
 40
3.5
 41
0.0
 71
     1
 72
     1
  1
32
  7
SLDTEXTSTYLE0
 73
     1
 44
1.0
  0
ENDBLK
  5
22C
330
22A
100
AcDbEntity
  8
0
100
AcDbBlockEnd
  0
BLOCK
  5
235
330
234
100
AcDbEntity
  8
0
100
AcDbBlockBegin
  2
_D_7
 70
     0
 10
0.0
 20
0.0
 30
0.0
  3
_D_7
  1

  0
SOLID
  5
237
330
234
100
AcDbEntity
  8
0
  6
Continuous
 62
     7
370
     0
100
AcDbTrace
 10
59.9317176516
 20
94.002807289
 30
0.0
 11
62.9317176516
 21
93.252807289
 31
0.0
 12
62.9317176516
 22
94.752807289
 32
0.0
 13
62.9317176516
 23
94.752807289
 33
0.0
  0
SOLID
  5
238
330
234
100
AcDbEntity
  8
0
  6
Continuous
 62
     7
370
     0
100
AcDbTrace
 10
101.9317176516
 20
94.002807289
 30
0.0
 11
98.9317176516
 21
94.752807289
 31
0.0
 12
98.9317176516
 22
93.252807289
 32
0.0
 13
98.9317176516
 23
93.252807289
 33
0.0
  0
LINE
  5
239
330
234
100
AcDbEntity
  8
0
  6
Continuous
 62
     7
370
     0
100
AcDbLine
 10
59.9317176516
 20
150.002807289
 30
0.0
 11
59.9317176516
 21
93.002807289
 31
0.0
  0
LINE
  5
23A
330
234
100
AcDbEntity
  8
0
  6
Continuous
 62
     7
370
     0
100
AcDbLine
 10
101.9317176516
 20
150.002807289
 30
0.0
 11
101.9317176516
 21
93.002807289
 31
0.0
  0
LINE
  5
23B
330
234
100
AcDbEntity
  8
0
  6
Continuous
 62
     7
370
     0
100
AcDbLine
 10
59.9317176516
 20
94.002807289
 30
0.0
 11
101.9317176516
 21
94.002807289
 31
0.0
  0
MTEXT
  5
23C
330
234
100
AcDbEntity
  8
0
  6
Continuous
 62
     7
370
     0
100
AcDbMText
 10
78.8949121541
 20
98.5145441453
 30
0.0
 40
3.5
 41
0.0
 71
     1
 72
     1
  1
42
  7
SLDTEXTSTYLE0
 73
     1
 44
1.0
  0
ENDBLK
  5
236
330
234
100
AcDbEntity
  8
0
100
AcDbBlockEnd
  0
BLOCK
  5
240
330
23F
100
AcDbEntity
  8
0
100
AcDbBlockBegin
  2
_D_8
 70
     0
 10
0.0
 20
0.0
 30
0.0
  3
_D_8
  1

  0
SOLID
  5
242
330
23F
100
AcDbEntity
  8
0
  6
Continuous
 62
     7
370
     0
100
AcDbTrace
 10
114.8520499501
 20
151.002807289
 30
0.0
 11
114.1020499501
 21
148.002807289
 31
0.0
 12
115.6020499501
 22
148.002807289
 32
0.0
 13
115.6020499501
 23
148.002807289
 33
0.0
  0
SOLID
  5
243
330
23F
100
AcDbEntity
  8
0
  6
Continuous
 62
     7
370
     0
100
AcDbTrace
 10
114.8520499501
 20
156.002807289
 30
0.0
 11
115.6020499501
 21
159.002807289
 31
0.0
 12
114.1020499501
 22
159.002807289
 32
0.0
 13
114.1020499501
 23
159.002807289
 33
0.0
  0
LINE
  5
244
330
23F
100
AcDbEntity
  8
0
  6
Continuous
 62
     7
370
     0
100
AcDbLine
 10
102.9317176516
 20
151.002807289
 30
0.0
 11
115.8520499501
 21
151.002807289
 31
0.0
  0
LINE
  5
245
330
23F
100
AcDbEntity
  8
0
  6
Continuous
 62
     7
370
     0
100
AcDbLine
 10
97.9317176516
 20
156.002807289
 30
0.0
 11
115.8520499501
 21
156.002807289
 31
0.0
  0
LINE
  5
246
330
23F
100
AcDbEntity
  8
0
  6
Continuous
 62
     7
370
     0
100
AcDbLine
 10
114.8520499501
 20
151.002807289
 30
0.0
 11
114.8520499501
 21
146.002807289
 31
0.0
  0
LINE
  5
247
330
23F
100
AcDbEntity
  8
0
  6
Continuous
 62
     7
370
     0
100
AcDbLine
 10
114.8520499501
 20
151.002807289
 30
0.0
 11
114.8520499501
 21
156.002807289
 31
0.0
  0
LINE
  5
248
330
23F
100
AcDbEntity
  8
0
  6
Continuous
 62
     7
370
     0
100
AcDbLine
 10
114.8520499501
 20
156.002807289
 30
0.0
 11
114.8520499501
 21
161.002807289
 31
0.0
  0
MTEXT
  5
249
330
23F
100
AcDbEntity
  8
0
  6
Continuous
 62
     7
370
     0
100
AcDbMText
 10
110.3403130938
 20
152.4844045402
 30
0.0
 40
3.5
 41
0.0
 71
     1
 72
     1
  1
5
  7
SLDTEXTSTYLE0
 11
6.123233995736766E-17
 21
1.0
 31
0.0
 73
     1
 44
1.0
  0
ENDBLK
  5
241
330
23F
100
AcDbEntity
  8
0
100
AcDbBlockEnd
  0
BLOCK
  5
24C
330
24B
100
AcDbEntity
  8
0
100
AcDbBlockBegin
  2
_D_9
 70
     0
 10
0.0
 20
0.0
 30
0.0
  3
_D_9
  1

  0
SOLID
  5
24E
330
24B
100
AcDbEntity
  8
0
  6
Continuous
 62
     7
370
     0
100
AcDbTrace
 10
114.8520499501
 20
156.002807289
 30
0.0
 11
115.6020499501
 21
159.002807289
 31
0.0
 12
114.1020499501
 22
159.002807289
 32
0.0
 13
114.1020499501
 23
159.002807289
 33
0.0
  0
SOLID
  5
24F
330
24B
100
AcDbEntity
  8
0
  6
Continuous
 62
     7
370
     0
100
AcDbTrace
 10
114.8520499501
 20
199.002807289
 30
0.0
 11
114.1020499501
 21
196.002807289
 31
0.0
 12
115.6020499501
 22
196.002807289
 32
0.0
 13
115.6020499501
 23
196.002807289
 33
0.0
  0
LINE
  5
250
330
24B
100
AcDbEntity
  8
0
  6
Continuous
 62
     7
370
     0
100
AcDbLine
 10
97.9317176516
 20
156.002807289
 30
0.0
 11
115.8520499501
 21
156.002807289
 31
0.0
  0
LINE
  5
251
330
24B
100
AcDbEntity
  8
0
  6
Continuous
 62
     7
370
     0
100
AcDbLine
 10
81.9317176516
 20
199.002807289
 30
0.0
 11
115.8520499501
 21
199.002807289
 31
0.0
  0
LINE
  5
252
330
24B
100
AcDbEntity
  8
0
  6
Continuous
 62
     7
370
     0
100
AcDbLine
 10
114.8520499501
 20
156.002807289
 30
0.0
 11
114.8520499501
 21
199.002807289
 31
0.0
  0
MTEXT
  5
253
330
24B
100
AcDbEntity
  8
0
  6
Continuous
 62
     7
370
     0
100
AcDbMText
 10
110.3403130938
 20
175.4660017915
 30
0.0
 40
3.5
 41
0.0
 71
     1
 72
     1
  1
43
  7
SLDTEXTSTYLE0
 11
6.123233995736766E-17
 21
1.0
 31
0.0
 73
     1
 44
1.0
  0
ENDBLK
  5
24D
330
24B
100
AcDbEntity
  8
0
100
AcDbBlockEnd
  0
BLOCK
  5
256
330
255
100
AcDbEntity
  8
0
100
AcDbBlockBegin
  2
_D_10
 70
     0
 10
0.0
 20
0.0
 30
0.0
  3
_D_10
  1

  0
SOLID
  5
258
330
255
100
AcDbEntity
  8
0
  6
Continuous
 62
     7
370
     0
100
AcDbTrace
 10
123.8056962039
 20
221.194473949
 30
0.0
 11
123.0556962039
 21
218.194473949
 31
0.0
 12
124.5556962039
 22
218.194473949
 32
0.0
 13
124.5556962039
 23
218.194473949
 33
0.0
  0
SOLID
  5
259
330
255
100
AcDbEntity
  8
0
  6
Continuous
 62
     7
370
     0
100
AcDbTrace
 10
123.8056962039
 20
151.002807289
 30
0.0
 11
124.5556962039
 21
154.002807289
 31
0.0
 12
123.0556962039
 22
154.002807289
 32
0.0
 13
123.0556962039
 23
154.002807289
 33
0.0
  0
LINE
  5
25A
330
255
100
AcDbEntity
  8
0
  6
Continuous
 62
     7
370
     0
100
AcDbLine
 10
87.9317176516
 20
221.194473949
 30
0.0
 11
124.8056962039
 21
221.194473949
 31
0.0
  0
LINE
  5
25B
330
255
100
AcDbEntity
  8
0
  6
Continuous
 62
     7
370
     0
100
AcDbLine
 10
102.9317176516
 20
151.002807289
 30
0.0
 11
124.8056962039
 21
151.002807289
 31
0.0
  0
LINE
  5
25C
330
255
100
AcDbEntity
  8
0
  6
Continuous
 62
     7
370
     0
100
AcDbLine
 10
123.8056962039
 20
221.194473949
 30
0.0
 11
123.8056962039
 21
151.002807289
 31
0.0
  0
MTEXT
  5
25D
330
255
100
AcDbEntity
  8
0
  6
Continuous
 62
     7
370
     0
100
AcDbMText
 10
119.2939593475
 20
182.025029624
 30
0.0
 40
3.5
 41
0.0
 71
     1
 72
     1
  1
70.2
  7
SLDTEXTSTYLE0
 11
-7.044195017643634E-15
 21
1.0
 31
0.0
 73
     1
 44
1.0
  0
ENDBLK
  5
257
330
255
100
AcDbEntity
  8
0
100
AcDbBlockEnd
  0
BLOCK
  5
260
330
25F
100
AcDbEntity
  8
0
100
AcDbBlockBegin
  2
_D_11
 70
     0
 10
0.0
 20
0.0
 30
0.0
  3
_D_11
  1

  0
ARC
  5
262
330
25F
100
AcDbEntity
  8
0
  6
Continuous
 62
     7
370
     0
100
AcDbCircle
 10
83.2647217327
 20
275.908894921
 30
0.0
 40
4.554435549315991
100
AcDbArc
 50
153.2166111199
 51
206.3467134741
  0
ARC
  5
263
330
25F
100
AcDbEntity
  8
0
  6
Continuous
 62
     7
370
     0
100
AcDbCircle
 10
79.1911403153
 20
275.9244182409
 30
0.0
 40
4.554435549315977
100
AcDbArc
 50
333.2166111199
 51
26.3467134741
  0
SOLID
  5
264
330
25F
100
AcDbEntity
  8
0
  6
Continuous
 62
     7
370
     0
100
AcDbTrace
 10
70.3792651198
 20
273.9211776339
 30
0.0
 11
73.3763853107
 21
273.1597509718
 31
0.0
 12
73.3821013645
 22
274.6597400806
 32
0.0
 13
73.3821013645
 23
274.6597400806
 33
0.0
  0
SOLID
  5
265
330
25F
100
AcDbEntity
  8
0
  6
Continuous
 62
     7
370
     0
100
AcDbTrace
 10
92.0610737246
 20
273.8385541101
 30
0.0
 11
89.0639535338
 21
274.5999807723
 31
0.0
 12
89.05823748
 22
273.0999916634
 32
0.0
 13
89.05823748
 23
273.0999916634
 33
0.0
  0
LINE
  5
266
330
25F
100
AcDbEntity
  8
0
  6
Continuous
 62
     7
370
     0
100
AcDbLine
 10
70.3411871032
 20
263.9288627191
 30
0.0
 11
70.3830758224
 21
274.9211703732
 31
0.0
  0
LINE
  5
267
330
25F
100
AcDbEntity
  8
0
  6
Continuous
 62
     7
370
     0
100
AcDbLine
 10
92.022995708
 20
263.8462391953
 30
0.0
 11
92.0648844272
 21
274.8385468494
 31
0.0
  0
LINE
  5
268
330
25F
100
AcDbEntity
  8
0
  6
Continuous
 62
     7
370
     0
100
AcDbLine
 10
70.3792651198
 20
273.9211776339
 30
0.0
 11
92.0610737246
 21
273.8385541101
 31
0.0
  0
MTEXT
  5
269
330
25F
100
AcDbEntity
  8
0
  6
Continuous
 62
     7
370
     0
100
AcDbMText
 10
79.2005715426
 20
278.39933163
 30
0.0
 40
3.5
 41
0.0
 71
     1
 72
     1
  1
21
  7
SLDTEXTSTYLE0
 11
0.9999927392465802
 21
-0.003810702575791853
 31
0.0
 73
     1
 44
1.0
  0
ENDBLK
  5
261
330
25F
100
AcDbEntity
  8
0
100
AcDbBlockEnd
  0
BLOCK
  5
26C
330
26B
100
AcDbEntity
  8
0
100
AcDbBlockBegin
  2
_D_12
 70
     0
 10
0.0
 20
0.0
 30
0.0
  3
_D_12
  1

  0
ARC
  5
26E
330
26B
100
AcDbEntity
  8
0
  6
Continuous
 62
     7
370
     0
100
AcDbCircle
 10
130.0890469229
 20
190.4429294466
 30
0.0
 40
4.554435549315953
100
AcDbArc
 50
243.4349488229
 51
296.5650511771
  0
ARC
  5
26F
330
26B
100
AcDbEntity
  8
0
  6
Continuous
 62
     7
370
     0
100
AcDbCircle
 10
130.0890469229
 20
188.406124182
 30
0.0
 40
4.554435549315978
100
AcDbArc
 50
63.4349488229
 51
116.5650511771
  0
SOLID
  5
270
330
26B
100
AcDbEntity
  8
0
  6
Continuous
 62
     7
370
     0
100
AcDbTrace
 10
132.1258524203
 20
262.8462464561
 30
0.0
 11
131.3758524203
 21
259.8462464561
 31
0.0
 12
132.8758524203
 22
259.8462464561
 32
0.0
 13
132.8758524203
 23
259.8462464561
 33
0.0
  0
SOLID
  5
271
330
26B
100
AcDbEntity
  8
0
  6
Continuous
 62
     7
370
     0
100
AcDbTrace
 10
132.1258524203
 20
116.002807289
 30
0.0
 11
132.8758524203
 21
119.002807289
 31
0.0
 12
131.3758524203
 22
119.002807289
 32
0.0
 13
131.3758524203
 23
119.002807289
 33
0.0
  0
LINE
  5
272
330
26B
100
AcDbEntity
  8
0
  6
Continuous
 62
     7
370
     0
100
AcDbLine
 10
93.0191850054
 20
262.8462464561
 30
0.0
 11
133.1258524203
 21
262.8462464561
 31
0.0
  0
LINE
  5
273
330
26B
100
AcDbEntity
  8
0
  6
Continuous
 62
     7
370
     0
100
AcDbLine
 10
83.9096033767
 20
116.002807289
 30
0.0
 11
133.1258524203
 21
116.002807289
 31
0.0
  0
LINE
  5
274
330
26B
100
AcDbEntity
  8
0
  6
Continuous
 62
     7
370
     0
100
AcDbLine
 10
132.1258524203
 20
262.8462464561
 30
0.0
 11
132.1258524203
 21
116.002807289
 31
0.0
  0
MTEXT
  5
275
330
26B
100
AcDbEntity
  8
0
  6
Continuous
 62
     7
370
     0
100
AcDbMText
 10
127.614115564
 20
186.3693184517
 30
0.0
 40
3.5
 41
0.0
 71
     1
 72
     1
  1
147
  7
SLDTEXTSTYLE0
 11
-7.044195017643634E-15
 21
1.0
 31
0.0
 73
     1
 44
1.0
  0
ENDBLK
  5
26D
330
26B
100
AcDbEntity
  8
0
100
AcDbBlockEnd
  0
BLOCK
  5
279
330
278
100
AcDbEntity
  8
0
100
AcDbBlockBegin
  2
_D_13
 70
     0
 10
0.0
 20
0.0
 30
0.0
  3
_D_13
  1

  0
SOLID
  5
27B
330
278
100
AcDbEntity
  8
0
  6
Continuous
 62
     7
370
     0
100
AcDbTrace
 10
62.9583773185
 20
158.2624373316
 30
0.0
 11
61.5499444961
 21
161.0154024576
 31
0.0
 12
60.4201294747
 22
160.028732291
 32
0.0
 13
60.4201294747
 23
160.028732291
 33
0.0
  0
LINE
  5
27C
330
278
100
AcDbEntity
  8
0
  6
Continuous
 62
     7
370
     0
100
AcDbLine
 10
62.9583773185
 20
158.2624373316
 30
0.0
 11
58.868360666
 21
162.9458284062
 31
0.0
  0
LINE
  5
27D
330
278
100
AcDbEntity
  8
0
  6
Continuous
 62
     7
370
     0
100
AcDbLine
 10
58.868360666
 20
162.9458284062
 30
0.0
 11
24.6919764316
 21
162.9458284062
 31
0.0
  0
MTEXT
  5
27E
330
278
100
AcDbEntity
  8
0
  6
Continuous
 62
     7
370
     0
100
AcDbMText
 10
30.8023912942
 20
171.5311762575
 30
0.0
 40
3.5
 41
0.0
 71
     1
 72
     1
  1
3-
  7
SLDTEXTSTYLE0
 73
     1
 44
1.0
  0
MTEXT
  5
27F
330
278
100
AcDbEntity
  8
0
  6
Continuous
 62
     7
370
     0
100
AcDbMText
 10
34.8760022892
 20
171.5311762575
 30
0.0
 40
3.5
 41
0.0
 71
     1
 72
     1
  1
M6
  7
SLDTEXTSTYLE0
 73
     1
 44
1.0
  0
MTEXT
  5
280
330
278
100
AcDbEntity
  8
0
  6
Continuous
 62
     7
370
     0
100
AcDbMText
 10
38.9496132841
 20
171.5311762575
 30
0.0
 40
3.5
 41
0.0
 71
     1
 72
     1
  1
取付穴
  7
SLDTEXTSTYLE0
 73
     1
 44
1.0
  0
MTEXT
  5
281
330
278
100
AcDbEntity
  8
0
  6
Continuous
 62
     7
370
     0
100
AcDbMText
 10
24.6919764316
 20
167.4575652625
 30
0.0
 40
3.5
 41
0.0
 71
     1
 72
     1
  1
(両側口元面取有)
  7
SLDTEXTSTYLE0
 73
     1
 44
1.0
  0
ENDBLK
  5
27A
330
278
100
AcDbEntity
  8
0
100
AcDbBlockEnd
  0
BLOCK
  5
284
330
283
100
AcDbEntity
  8
0
100
AcDbBlockBegin
  2
_D_14
 70
     0
 10
0.0
 20
0.0
 30
0.0
  3
_D_14
  1

  0
SOLID
  5
286
330
283
100
AcDbEntity
  8
0
  6
Continuous
 62
     7
370
     0
100
AcDbTrace
 10
123.8056962039
 20
151.002807289
 30
0.0
 11
123.0556962039
 21
148.002807289
 31
0.0
 12
124.5556962039
 22
148.002807289
 32
0.0
 13
124.5556962039
 23
148.002807289
 33
0.0
  0
SOLID
  5
287
330
283
100
AcDbEntity
  8
0
  6
Continuous
 62
     7
370
     0
100
AcDbTrace
 10
123.8056962039
 20
126.002807289
 30
0.0
 11
124.5556962039
 21
129.002807289
 31
0.0
 12
123.0556962039
 22
129.002807289
 32
0.0
 13
123.0556962039
 23
129.002807289
 33
0.0
  0
LINE
  5
288
330
283
100
AcDbEntity
  8
0
  6
Continuous
 62
     7
370
     0
100
AcDbLine
 10
102.9317176516
 20
151.002807289
 30
0.0
 11
124.8056962039
 21
151.002807289
 31
0.0
  0
LINE
  5
289
330
283
100
AcDbEntity
  8
0
  6
Continuous
 62
     7
370
     0
100
AcDbLine
 10
90.9317176516
 20
126.002807289
 30
0.0
 11
124.8056962039
 21
126.002807289
 31
0.0
  0
LINE
  5
28A
330
283
100
AcDbEntity
  8
0
  6
Continuous
 62
     7
370
     0
100
AcDbLine
 10
123.8056962039
 20
151.002807289
 30
0.0
 11
123.8056962039
 21
126.002807289
 31
0.0
  0
MTEXT
  5
28B
330
283
100
AcDbEntity
  8
0
  6
Continuous
 62
     7
370
     0
100
AcDbMText
 10
119.2939593475
 20
136.4660017915
 30
0.0
 40
3.5
 41
0.0
 71
     1
 72
     1
  1
25
  7
SLDTEXTSTYLE0
 11
-7.044195017643634E-15
 21
1.0
 31
0.0
 73
     1
 44
1.0
  0
ENDBLK
  5
285
330
283
100
AcDbEntity
  8
0
100
AcDbBlockEnd
  0
BLOCK
  5
28D
330
28C
100
AcDbEntity
  8
0
100
AcDbBlockBegin
  2
SW_NOTE_0
 70
     0
 10
0.0
 20
0.0
 30
0.0
  3
SW_NOTE_0
  1

  0
LINE
  5
28F
330
28C
100
AcDbEntity
  8
0
  6
Continuous
 62
     0
370
     0
100
AcDbLine
 10
-8.2682873652
 20
0.0
 30
0.0
 11
0.0
 21
0.0
 31
0.0
  0
MTEXT
  5
290
330
28C
100
AcDbEntity
  8
0
  6
Continuous
 62
     0
370
     0
100
AcDbMText
 10
-8.7272292085
 20
4.5294353081
 30
0.0
 40
3.5
 41
0.0
 71
     1
 72
     1
  1
BF-6
  7
SLDTEXTSTYLE0
 73
     1
 44
1.0
  0
ENDBLK
  5
28E
330
28C
100
AcDbEntity
  8
0
100
AcDbBlockEnd
  0
BLOCK
  5
295
330
294
100
AcDbEntity
  8
0
100
AcDbBlockBegin
  2
SW_CENTERMARKSYMBOL_0
 70
     0
 10
0.0
 20
0.0
 30
0.0
  3
SW_CENTERMARKSYMBOL_0
  1

  0
LINE
  5
297
330
294
100
AcDbEntity
  8
0
  6
Continuous
 62
     0
370
     0
100
AcDbLine
 10
0.0
 20
0.0
 30
0.0
 11
0.0
 21
2.5
 31
0.0
  0
LINE
  5
298
330
294
100
AcDbEntity
  8
0
  6
Continuous
 62
     0
370
     0
100
AcDbLine
 10
0.0
 20
0.0
 30
0.0
 11
-2.5
 21
0.0
 31
0.0
  0
LINE
  5
299
330
294
100
AcDbEntity
  8
0
  6
Continuous
 62
     0
370
     0
100
AcDbLine
 10
0.0
 20
0.0
 30
0.0
 11
0.0
 21
-2.5
 31
0.0
  0
LINE
  5
29A
330
294
100
AcDbEntity
  8
0
  6
Continuous
 62
     0
370
     0
100
AcDbLine
 10
0.0
 20
0.0
 30
0.0
 11
2.5
 21
0.0
 31
0.0
  0
LINE
  5
29B
330
294
100
AcDbEntity
  8
0
  6
Continuous
 62
     0
370
     0
100
AcDbLine
 10
0.0
 20
5.0
 30
0.0
 11
0.0
 21
5.75
 31
0.0
  0
LINE
  5
29C
330
294
100
AcDbEntity
  8
0
  6
Continuous
 62
     0
370
     0
100
AcDbLine
 10
-5.0
 20
0.0
 30
0.0
 11
-5.75
 21
0.0
 31
0.0
  0
LINE
  5
29D
330
294
100
AcDbEntity
  8
0
  6
Continuous
 62
     0
370
     0
100
AcDbLine
 10
0.0
 20
-5.0
 30
0.0
 11
0.0
 21
-5.75
 31
0.0
  0
LINE
  5
29E
330
294
100
AcDbEntity
  8
0
  6
Continuous
 62
     0
370
     0
100
AcDbLine
 10
5.0
 20
0.0
 30
0.0
 11
5.75
 21
0.0
 31
0.0
  0
ENDBLK
  5
296
330
294
100
AcDbEntity
  8
0
100
AcDbBlockEnd
  0
BLOCK
  5
2A1
330
2A0
100
AcDbEntity
  8
0
100
AcDbBlockBegin
  2
SW_CENTERMARKSYMBOL_1
 70
     0
 10
0.0
 20
0.0
 30
0.0
  3
SW_CENTERMARKSYMBOL_1
  1

  0
LINE
  5
2A3
330
2A0
100
AcDbEntity
  8
0
  6
Continuous
 62
     0
370
     0
100
AcDbLine
 10
0.0
 20
0.0
 30
0.0
 11
0.0
 21
2.5
 31
0.0
  0
LINE
  5
2A4
330
2A0
100
AcDbEntity
  8
0
  6
Continuous
 62
     0
370
     0
100
AcDbLine
 10
0.0
 20
0.0
 30
0.0
 11
-2.5
 21
0.0
 31
0.0
  0
LINE
  5
2A5
330
2A0
100
AcDbEntity
  8
0
  6
Continuous
 62
     0
370
     0
100
AcDbLine
 10
0.0
 20
0.0
 30
0.0
 11
0.0
 21
-2.5
 31
0.0
  0
LINE
  5
2A6
330
2A0
100
AcDbEntity
  8
0
  6
Continuous
 62
     0
370
     0
100
AcDbLine
 10
0.0
 20
0.0
 30
0.0
 11
2.5
 21
0.0
 31
0.0
  0
LINE
  5
2A7
330
2A0
100
AcDbEntity
  8
0
  6
Continuous
 62
     0
370
     0
100
AcDbLine
 10
0.0
 20
2.5
 30
0.0
 11
0.0
 21
5.0
 31
0.0
  0
LINE
  5
2A8
330
2A0
100
AcDbEntity
  8
0
  6
Continuous
 62
     0
370
     0
100
AcDbLine
 10
-2.5
 20
0.0
 30
0.0
 11
-5.0
 21
0.0
 31
0.0
  0
LINE
  5
2A9
330
2A0
100
AcDbEntity
  8
0
  6
Continuous
 62
     0
370
     0
100
AcDbLine
 10
0.0
 20
-2.5
 30
0.0
 11
0.0
 21
-5.0
 31
0.0
  0
LINE
  5
2AA
330
2A0
100
AcDbEntity
  8
0
  6
Continuous
 62
     0
370
     0
100
AcDbLine
 10
2.5
 20
0.0
 30
0.0
 11
5.0
 21
0.0
 31
0.0
  0
ENDBLK
  5
2A2
330
2A0
100
AcDbEntity
  8
0
100
AcDbBlockEnd
  0
BLOCK
  5
2AD
330
2AC
100
AcDbEntity
  8
0
100
AcDbBlockBegin
  2
SW_CENTERMARKSYMBOL_2
 70
     0
 10
0.0
 20
0.0
 30
0.0
  3
SW_CENTERMARKSYMBOL_2
  1

  0
LINE
  5
2AF
330
2AC
100
AcDbEntity
  8
0
  6
Continuous
 62
     0
370
     0
100
AcDbLine
 10
0.0
 20
0.0
 30
0.0
 11
0.0
 21
2.5
 31
0.0
  0
LINE
  5
2B0
330
2AC
100
AcDbEntity
  8
0
  6
Continuous
 62
     0
370
     0
100
AcDbLine
 10
0.0
 20
0.0
 30
0.0
 11
-2.5
 21
0.0
 31
0.0
  0
LINE
  5
2B1
330
2AC
100
AcDbEntity
  8
0
  6
Continuous
 62
     0
370
     0
100
AcDbLine
 10
0.0
 20
0.0
 30
0.0
 11
0.0
 21
-2.5
 31
0.0
  0
LINE
  5
2B2
330
2AC
100
AcDbEntity
  8
0
  6
Continuous
 62
     0
370
     0
100
AcDbLine
 10
0.0
 20
0.0
 30
0.0
 11
2.5
 21
0.0
 31
0.0
  0
LINE
  5
2B3
330
2AC
100
AcDbEntity
  8
0
  6
Continuous
 62
     0
370
     0
100
AcDbLine
 10
0.0
 20
5.0
 30
0.0
 11
0.0
 21
5.75
 31
0.0
  0
LINE
  5
2B4
330
2AC
100
AcDbEntity
  8
0
  6
Continuous
 62
     0
370
     0
100
AcDbLine
 10
-5.0
 20
0.0
 30
0.0
 11
-5.75
 21
0.0
 31
0.0
  0
LINE
  5
2B5
330
2AC
100
AcDbEntity
  8
0
  6
Continuous
 62
     0
370
     0
100
AcDbLine
 10
0.0
 20
-5.0
 30
0.0
 11
0.0
 21
-5.75
 31
0.0
  0
LINE
  5
2B6
330
2AC
100
AcDbEntity
  8
0
  6
Continuous
 62
     0
370
     0
100
AcDbLine
 10
5.0
 20
0.0
 30
0.0
 11
5.75
 21
0.0
 31
0.0
  0
ENDBLK
  5
2AE
330
2AC
100
AcDbEntity
  8
0
100
AcDbBlockEnd
  0
BLOCK
  5
346
330
345
100
AcDbEntity
  8
0
100
AcDbBlockBegin
  2
_D_15
 70
     0
 10
0.0
 20
0.0
 30
0.0
  3
_D_15
  1

  0
ARC
  5
348
330
345
100
AcDbEntity
  8
0
  6
Continuous
 62
     7
370
     0
100
AcDbCircle
 10
82.9685230909
 20
28.1399374478
 30
0.0
 40
4.55443554931596
100
AcDbArc
 50
153.4349488229
 51
206.5650511771
  0
ARC
  5
349
330
345
100
AcDbEntity
  8
0
  6
Continuous
 62
     7
370
     0
100
AcDbCircle
 10
78.8949120959
 20
28.1399374478
 30
0.0
 40
4.554435549315972
100
AcDbArc
 50
333.4349488229
 51
26.5650511771
  0
SOLID
  5
34A
330
345
100
AcDbEntity
  8
0
  6
Continuous
 62
     7
370
     0
100
AcDbTrace
 10
54.0577390993
 20
26.1031319503
 30
0.0
 11
57.0577390993
 21
25.3531319503
 31
0.0
 12
57.0577390993
 22
26.8531319503
 32
0.0
 13
57.0577390993
 23
26.8531319503
 33
0.0
  0
SOLID
  5
34B
330
345
100
AcDbEntity
  8
0
  6
Continuous
 62
     7
370
     0
100
AcDbTrace
 10
107.8056962039
 20
26.1031319503
 30
0.0
 11
104.8056962039
 21
26.8531319503
 31
0.0
 12
104.8056962039
 22
25.3531319503
 32
0.0
 13
104.8056962039
 23
25.3531319503
 33
0.0
  0
LINE
  5
34C
330
345
100
AcDbEntity
  8
0
  6
Continuous
 62
     7
370
     0
100
AcDbLine
 10
54.0577390993
 20
47.0466289033
 30
0.0
 11
54.0577390993
 21
25.1031319503
 31
0.0
  0
LINE
  5
34D
330
345
100
AcDbEntity
  8
0
  6
Continuous
 62
     7
370
     0
100
AcDbLine
 10
107.8056962039
 20
47.0466289033
 30
0.0
 11
107.8056962039
 21
25.1031319503
 31
0.0
  0
LINE
  5
34E
330
345
100
AcDbEntity
  8
0
  6
Continuous
 62
     7
370
     0
100
AcDbLine
 10
54.0577390993
 20
26.1031319503
 30
0.0
 11
107.8056962039
 21
26.1031319503
 31
0.0
  0
MTEXT
  5
34F
330
345
100
AcDbEntity
  8
0
  6
Continuous
 62
     7
370
     0
100
AcDbMText
 10
78.8949120959
 20
30.6148688067
 30
0.0
 40
3.5
 41
0.0
 71
     1
 72
     1
  1
54
  7
SLDTEXTSTYLE0
 73
     1
 44
1.0
  0
ENDBLK
  5
347
330
345
100
AcDbEntity
  8
0
100
AcDbBlockEnd
  0
BLOCK
  5
352
330
351
100
AcDbEntity
  8
0
100
AcDbBlockBegin
  2
_D_16
 70
     0
 10
0.0
 20
0.0
 30
0.0
  3
_D_16
  1

  0
ARC
  5
354
330
351
100
AcDbEntity
  8
0
  6
Continuous
 62
     7
370
     0
100
AcDbCircle
 10
96.405512367
 20
37.5447701867
 30
0.0
 40
4.554435549315972
100
AcDbArc
 50
153.4349488229
 51
206.5650511771
  0
ARC
  5
355
330
351
100
AcDbEntity
  8
0
  6
Continuous
 62
     7
370
     0
100
AcDbCircle
 10
92.331901372
 20
37.5447701867
 30
0.0
 40
4.55443554931596
100
AcDbArc
 50
333.4349488229
 51
26.5650511771
  0
SOLID
  5
356
330
351
100
AcDbEntity
  8
0
  6
Continuous
 62
     7
370
     0
100
AcDbTrace
 10
107.8056962039
 20
35.5079646892
 30
0.0
 11
104.8056962039
 21
36.2579646892
 31
0.0
 12
104.8056962039
 22
34.7579646892
 32
0.0
 13
104.8056962039
 23
34.7579646892
 33
0.0
  0
SOLID
  5
357
330
351
100
AcDbEntity
  8
0
  6
Continuous
 62
     7
370
     0
100
AcDbTrace
 10
80.9317176516
 20
35.5079646892
 30
0.0
 11
83.9317176516
 21
34.7579646892
 31
0.0
 12
83.9317176516
 22
36.2579646892
 32
0.0
 13
83.9317176516
 23
36.2579646892
 33
0.0
  0
LINE
  5
358
330
351
100
AcDbEntity
  8
0
  6
Continuous
 62
     7
370
     0
100
AcDbLine
 10
107.8056962039
 20
47.0466289033
 30
0.0
 11
107.8056962039
 21
34.5079646892
 31
0.0
  0
LINE
  5
359
330
351
100
AcDbEntity
  8
0
  6
Continuous
 62
     7
370
     0
100
AcDbLine
 10
80.9317176516
 20
52.0466289033
 30
0.0
 11
80.9317176516
 21
34.5079646892
 31
0.0
  0
LINE
  5
35A
330
351
100
AcDbEntity
  8
0
  6
Continuous
 62
     7
370
     0
100
AcDbLine
 10
107.8056962039
 20
35.5079646892
 30
0.0
 11
80.9317176516
 21
35.5079646892
 31
0.0
  0
MTEXT
  5
35B
330
351
100
AcDbEntity
  8
0
  6
Continuous
 62
     7
370
     0
100
AcDbMText
 10
92.331901372
 20
40.0197015456
 30
0.0
 40
3.5
 41
0.0
 71
     1
 72
     1
  1
27
  7
SLDTEXTSTYLE0
 73
     1
 44
1.0
  0
ENDBLK
  5
353
330
351
100
AcDbEntity
  8
0
100
AcDbBlockEnd
  0
BLOCK
  5
35D
330
35C
100
AcDbEntity
  8
0
100
AcDbBlockBegin
  2
SW_CENTERMARKSYMBOL_3
 70
     0
 10
0.0
 20
0.0
 30
0.0
  3
SW_CENTERMARKSYMBOL_3
  1

  0
LINE
  5
35F
330
35C
100
AcDbEntity
  8
0
  6
Continuous
 62
     0
370
     0
100
AcDbLine
 10
0.0
 20
0.0
 30
0.0
 11
0.0
 21
2.5
 31
0.0
  0
LINE
  5
360
330
35C
100
AcDbEntity
  8
0
  6
Continuous
 62
     0
370
     0
100
AcDbLine
 10
0.0
 20
0.0
 30
0.0
 11
-2.5
 21
0.0
 31
0.0
  0
LINE
  5
361
330
35C
100
AcDbEntity
  8
0
  6
Continuous
 62
     0
370
     0
100
AcDbLine
 10
0.0
 20
0.0
 30
0.0
 11
0.0
 21
-2.5
 31
0.0
  0
LINE
  5
362
330
35C
100
AcDbEntity
  8
0
  6
Continuous
 62
     0
370
     0
100
AcDbLine
 10
0.0
 20
0.0
 30
0.0
 11
2.5
 21
0.0
 31
0.0
  0
LINE
  5
363
330
35C
100
AcDbEntity
  8
0
  6
Continuous
 62
     0
370
     0
100
AcDbLine
 10
0.0
 20
5.0
 30
0.0
 11
0.0
 21
11.5
 31
0.0
  0
LINE
  5
364
330
35C
100
AcDbEntity
  8
0
  6
Continuous
 62
     0
370
     0
100
AcDbLine
 10
-5.0
 20
0.0
 30
0.0
 11
-11.5
 21
0.0
 31
0.0
  0
LINE
  5
365
330
35C
100
AcDbEntity
  8
0
  6
Continuous
 62
     0
370
     0
100
AcDbLine
 10
0.0
 20
-5.0
 30
0.0
 11
0.0
 21
-11.5
 31
0.0
  0
LINE
  5
366
330
35C
100
AcDbEntity
  8
0
  6
Continuous
 62
     0
370
     0
100
AcDbLine
 10
5.0
 20
0.0
 30
0.0
 11
11.5
 21
0.0
 31
0.0
  0
ENDBLK
  5
35E
330
35C
100
AcDbEntity
  8
0
100
AcDbBlockEnd
  0
ENDSEC
  0
SECTION
  2
ENTITIES
  0
LINE
  5
73
330
1F
100
AcDbEntity
  8
0
  6
Continuous
 62
     7
370
     0
100
AcDbLine
 10
20.2604743903
 20
285.0
 30
0.0
 11
196.7604743903
 21
285.0
 31
0.0
  0
LINE
  5
74
330
1F
100
AcDbEntity
  8
0
  6
Continuous
 62
     7
370
     0
100
AcDbLine
 10
20.2604743903
 20
285.0
 30
0.0
 11
20.2604743903
 21
10.0
 31
0.0
  0
LINE
  5
75
330
1F
100
AcDbEntity
  8
0
  6
Continuous
 62
     7
370
     0
100
AcDbLine
 10
20.2604743903
 20
10.0
 30
0.0
 11
196.7604743903
 21
10.0
 31
0.0
  0
LINE
  5
76
330
1F
100
AcDbEntity
  8
0
  6
Continuous
 62
     7
370
     0
100
AcDbLine
 10
196.7604743903
 20
285.0
 30
0.0
 11
196.7604743903
 21
10.0
 31
0.0
  0
LINE
  5
77
330
1F
100
AcDbEntity
  8
0
  6
Continuous
 62
     7
370
     0
100
AcDbLine
 10
127.0104743903
 20
50.75
 30
0.0
 11
196.7604743903
 21
50.75
 31
0.0
  0
LINE
  5
78
330
1F
100
AcDbEntity
  8
0
  6
Continuous
 62
     7
370
     0
100
AcDbLine
 10
127.0104743903
 20
50.75
 30
0.0
 11
127.0104743903
 21
10.0
 31
0.0
  0
LINE
  5
79
330
1F
100
AcDbEntity
  8
0
  6
Continuous
 62
     7
370
     0
100
AcDbLine
 10
127.0104743903
 20
22.75
 30
0.0
 11
196.7604743903
 21
22.75
 31
0.0
  0
LINE
  5
7A
330
1F
100
AcDbEntity
  8
0
  6
Continuous
 62
     7
370
     0
100
AcDbLine
 10
127.0104743903
 20
36.75
 30
0.0
 11
196.7604743903
 21
36.75
 31
0.0
  0
MTEXT
  5
7C
330
1F
100
AcDbEntity
  8
0
  6
Continuous
 62
     7
370
     0
100
AcDbMText
 10
161.1691346574
 20
30.4171582345
 30
0.0
 40
4.2333333333
 41
0.0
 71
     2
 72
     1
  1
CHK-EX2L-20-C
  7
SLDTEXTSTYLE0
 73
     1
 44
1.0
  0
MTEXT
  5
7D
330
1F
100
AcDbEntity
  8
0
  6
Continuous
 62
     7
370
     0
100
AcDbMText
 10
159.9073404867
 20
46.3521613999
 30
0.0
 40
3.175
 41
0.0
 71
     2
 72
     1
  1
ランナーチャックEX(近接センサー付)
  7
SLDTEXTSTYLE0
 73
     1
 44
1.0
  0
MTEXT
  5
7E
330
1F
100
AcDbEntity
  8
0
  6
Continuous
 62
     7
370
     0
100
AcDbMText
 10
162.580005432
 20
16.8228189052
 30
0.0
 40
4.2333333333
 41
0.0
 71
     2
 72
     1
  1
023158
  7
SLDTEXTSTYLE0
 73
     1
 44
1.0
  0
LINE
  5
7F
330
1F
100
AcDbEntity
  8
0
  6
Continuous
 62
     7
370
     0
100
AcDbLine
 10
162.3490671357
 20
151.0028074144
 30
0.0
 11
162.3490671357
 21
127.0028072058
 31
0.0
  0
LINE
  5
80
330
1F
100
AcDbEntity
  8
0
  6
Continuous
 62
     7
370
     0
100
AcDbLine
 10
182.3490666887
 20
127.0028072058
 30
0.0
 11
182.3490666887
 21
151.0028074144
 31
0.0
  0
LINE
  5
81
330
1F
100
AcDbEntity
  8
0
  6
Continuous
 62
     7
370
     0
100
AcDbLine
 10
162.3490671357
 20
127.0028072058
 30
0.0
 11
163.3490672996
 21
126.0028070419
 31
0.0
  0
LINE
  5
82
330
1F
100
AcDbEntity
  8
0
  6
Continuous
 62
     7
370
     0
100
AcDbLine
 10
181.3490665247
 20
126.0028070419
 30
0.0
 11
182.3490666887
 21
127.0028072058
 31
0.0
  0
LINE
  5
83
330
1F
100
AcDbEntity
  8
0
  6
Continuous
 62
     7
370
     0
100
AcDbLine
 10
151.7525682887
 20
239.5088745861
 30
0.0
 11
152.3490673592
 21
239.5088745861
 31
0.0
  0
LINE
  5
84
330
1F
100
AcDbEntity
  8
0
  6
Continuous
 62
     7
370
     0
100
AcDbLine
 10
152.3490673592
 20
245.1088799743
 30
0.0
 11
151.7525682887
 21
245.1088799743
 31
0.0
  0
ARC
  5
85
330
1F
100
AcDbEntity
  8
0
  6
Continuous
 62
     7
370
     0
100
AcDbCircle
 10
151.7525684448
 20
239.7788767687
 30
0.0
 40
0.2700000000000102
100
AcDbArc
 50
212.3360259976
 51
270.0
  0
ARC
  5
86
330
1F
100
AcDbEntity
  8
0
  6
Continuous
 62
     7
370
     0
100
AcDbCircle
 10
151.7525684448
 20
244.8388767687
 30
0.0
 40
0.2700000000000135
100
AcDbArc
 50
90.0
 51
147.6639740024
  0
ARC
  5
87
330
1F
100
AcDbEntity
  8
0
  6
Continuous
 62
     7
370
     0
100
AcDbCircle
 10
155.7490669122
 20
242.3088767687
 30
0.0
 40
5.000000000000017
100
AcDbArc
 50
147.6639740024
 51
171.0383598746
  0
ARC
  5
88
330
1F
100
AcDbEntity
  8
0
  6
Continuous
 62
     7
370
     0
100
AcDbCircle
 10
155.7490669122
 20
242.3088767687
 30
0.0
 40
5.00000000000003
100
AcDbArc
 50
188.9616401254
 51
212.3360259976
  0
LINE
  5
89
330
1F
100
AcDbEntity
  8
0
  6
Continuous
 62
     7
370
     0
100
AcDbLine
 10
155.3490659883
 20
225.9377016334
 30
0.0
 11
155.4490676811
 21
225.9377016334
 31
0.0
  0
LINE
  5
8A
330
1F
100
AcDbEntity
  8
0
  6
Continuous
 62
     7
370
     0
100
AcDbLine
 10
159.2490668138
 20
225.9377016334
 30
0.0
 11
159.349066644
 21
225.9377016334
 31
0.0
  0
LINE
  5
8B
330
1F
100
AcDbEntity
  8
0
  6
Continuous
 62
     7
370
     0
100
AcDbLine
 10
159.349066644
 20
228.8228495626
 30
0.0
 11
159.2490668138
 21
228.8228495626
 31
0.0
  0
LINE
  5
8C
330
1F
100
AcDbEntity
  8
0
  6
Continuous
 62
     7
370
     0
100
AcDbLine
 10
155.4490676811
 20
228.8228495626
 30
0.0
 11
155.3490659883
 21
228.8228495626
 31
0.0
  0
LINE
  5
8D
330
1F
100
AcDbEntity
  8
0
  6
Continuous
 62
     7
370
     0
100
AcDbLine
 10
169.93706368
 20
118.5028067438
 30
0.0
 11
170.2870635511
 21
116.0028072654
 31
0.0
  0
LINE
  5
8E
330
1F
100
AcDbEntity
  8
0
  6
Continuous
 62
     7
370
     0
100
AcDbLine
 10
174.2870636247
 20
116.0028072654
 30
0.0
 11
174.6370636122
 21
118.5028067438
 31
0.0
  0
LINE
  5
8F
330
1F
100
AcDbEntity
  8
0
  6
Continuous
 62
     7
370
     0
100
AcDbLine
 10
169.93706368
 20
121.0028080849
 30
0.0
 11
170.2870635511
 21
118.5028067438
 31
0.0
  0
LINE
  5
90
330
1F
100
AcDbEntity
  8
0
  6
Continuous
 62
     7
370
     0
100
AcDbLine
 10
174.2870636247
 20
118.5028067438
 30
0.0
 11
174.6370636122
 21
121.0028080849
 31
0.0
  0
LINE
  5
91
330
1F
100
AcDbEntity
  8
0
  6
Continuous
 62
     7
370
     0
100
AcDbLine
 10
174.3870635712
 20
121.0028080849
 30
0.0
 11
174.3870635712
 21
123.5028075634
 31
0.0
  0
LINE
  5
92
330
1F
100
AcDbEntity
  8
0
  6
Continuous
 62
     7
370
     0
100
AcDbLine
 10
170.1870634882
 20
123.5028075634
 30
0.0
 11
170.1870634882
 21
121.0028080849
 31
0.0
  0
LINE
  5
93
330
1F
100
AcDbEntity
  8
0
  6
Continuous
 62
     7
370
     0
100
AcDbLine
 10
162.3490671357
 20
214.9944751172
 30
0.0
 11
163.3490672996
 21
213.9944730906
 31
0.0
  0
LINE
  5
94
330
1F
100
AcDbEntity
  8
0
  6
Continuous
 62
     7
370
     0
100
AcDbLine
 10
162.3490671357
 20
214.9944751172
 30
0.0
 11
162.3490671357
 21
218.1944771318
 31
0.0
  0
LINE
  5
95
330
1F
100
AcDbEntity
  8
0
  6
Continuous
 62
     7
370
     0
100
AcDbLine
 10
164.1490668719
 20
219.9944703488
 30
0.0
 11
162.3490671357
 21
218.1944771318
 31
0.0
  0
LINE
  5
96
330
1F
100
AcDbEntity
  8
0
  6
Continuous
 62
     7
370
     0
100
AcDbLine
 10
167.3490670239
 20
219.9944703488
 30
0.0
 11
164.1490668719
 21
219.9944703488
 31
0.0
  0
LINE
  5
97
330
1F
100
AcDbEntity
  8
0
  6
Continuous
 62
     7
370
     0
100
AcDbLine
 10
163.3490672996
 20
213.9944730906
 30
0.0
 11
166.8718415042
 21
213.9944730906
 31
0.0
  0
ARC
  5
98
330
1F
100
AcDbEntity
  8
0
  6
Continuous
 62
     7
370
     0
100
AcDbCircle
 10
172.3490669122
 20
213.494473949
 30
0.0
 40
5.500000000000005
100
AcDbArc
 50
155.3800226713
 51
174.7840914345
  0
LINE
  5
99
330
1F
100
AcDbEntity
  8
0
  6
Continuous
 62
     7
370
     0
100
AcDbLine
 10
164.3490665322
 20
169.2979334502
 30
0.0
 11
164.3490665322
 21
181.8979343979
 31
0.0
  0
ARC
  5
9A
330
1F
100
AcDbEntity
  8
0
  6
Continuous
 62
     7
370
     0
100
AcDbCircle
 10
172.3490669122
 20
169.297934869
 30
0.0
 40
8.000000000000028
100
AcDbArc
 50
180.0
 51
0.0
  0
LINE
  5
9B
330
1F
100
AcDbEntity
  8
0
  6
Continuous
 62
     7
370
     0
100
AcDbLine
 10
180.3490672922
 20
181.8979343979
 30
0.0
 11
180.3490672922
 21
169.2979334502
 31
0.0
  0
LINE
  5
9C
330
1F
100
AcDbEntity
  8
0
  6
Continuous
 62
     7
370
     0
100
AcDbLine
 10
177.8262923201
 20
213.9944730906
 30
0.0
 11
181.3490665247
 21
213.9944730906
 31
0.0
  0
LINE
  5
9D
330
1F
100
AcDbEntity
  8
0
  6
Continuous
 62
     7
370
     0
100
AcDbLine
 10
181.3490665247
 20
151.0028074144
 30
0.0
 11
181.3490665247
 21
213.9944730906
 31
0.0
  0
LINE
  5
9E
330
1F
100
AcDbEntity
  8
0
  6
Continuous
 62
     7
370
     0
100
AcDbLine
 10
181.3490665247
 20
151.0028074144
 30
0.0
 11
163.3490672996
 21
151.0028074144
 31
0.0
  0
LINE
  5
9F
330
1F
100
AcDbEntity
  8
0
  6
Continuous
 62
     7
370
     0
100
AcDbLine
 10
163.3490672996
 20
213.9944730906
 30
0.0
 11
163.3490672996
 21
151.0028074144
 31
0.0
  0
ARC
  5
A0
330
1F
100
AcDbEntity
  8
0
  6
Continuous
 62
     7
370
     0
100
AcDbCircle
 10
172.3490669122
 20
181.897934869
 30
0.0
 40
8.000000000000028
100
AcDbArc
 50
128.6821874535
 51
180.0
  0
ARC
  5
A1
330
1F
100
AcDbEntity
  8
0
  6
Continuous
 62
     7
370
     0
100
AcDbCircle
 10
172.3490669122
 20
181.897934869
 30
0.0
 40
8.00000000000004
100
AcDbArc
 50
0.0
 51
51.3178125465
  0
ARC
  5
A2
330
1F
100
AcDbEntity
  8
0
  6
Continuous
 62
     7
370
     0
100
AcDbCircle
 10
172.3490669122
 20
213.494473949
 30
0.0
 40
5.500000000000005
100
AcDbArc
 50
174.7840914345
 51
204.6199773287
  0
ARC
  5
A3
330
1F
100
AcDbEntity
  8
0
  6
Continuous
 62
     7
370
     0
100
AcDbCircle
 10
172.3490669122
 20
213.494473949
 30
0.0
 40
5.500000000000001
100
AcDbArc
 50
335.3800226713
 51
5.2159085655
  0
LINE
  5
A4
330
1F
100
AcDbEntity
  8
0
  6
Continuous
 62
     7
370
     0
100
AcDbLine
 10
180.5490669524
 20
219.9944703488
 30
0.0
 11
177.3490668004
 21
219.9944703488
 31
0.0
  0
LINE
  5
A5
330
1F
100
AcDbEntity
  8
0
  6
Continuous
 62
     7
370
     0
100
AcDbLine
 10
182.3490666887
 20
218.1944771318
 30
0.0
 11
180.5490669524
 21
219.9944703488
 31
0.0
  0
LINE
  5
A6
330
1F
100
AcDbEntity
  8
0
  6
Continuous
 62
     7
370
     0
100
AcDbLine
 10
182.3490666887
 20
214.9944751172
 30
0.0
 11
182.3490666887
 21
218.1944771318
 31
0.0
  0
LINE
  5
A7
330
1F
100
AcDbEntity
  8
0
  6
Continuous
 62
     7
370
     0
100
AcDbLine
 10
181.3490665247
 20
213.9944730906
 30
0.0
 11
182.3490666887
 21
214.9944751172
 31
0.0
  0
ARC
  5
A8
330
1F
100
AcDbEntity
  8
0
  6
Continuous
 62
     7
370
     0
100
AcDbCircle
 10
172.3490669122
 20
213.494473949
 30
0.0
 40
5.500000000000035
100
AcDbArc
 50
5.2159085655
 51
24.6199773287
  0
LINE
  5
A9
330
1F
100
AcDbEntity
  8
0
  6
Continuous
 62
     7
370
     0
100
AcDbLine
 10
182.3490666887
 20
214.9944751172
 30
0.0
 11
182.3490666887
 21
151.0028074144
 31
0.0
  0
LINE
  5
AA
330
1F
100
AcDbEntity
  8
0
  6
Continuous
 62
     7
370
     0
100
AcDbLine
 10
182.3490666887
 20
151.0028074144
 30
0.0
 11
181.3490665247
 21
151.0028074144
 31
0.0
  0
LINE
  5
AB
330
1F
100
AcDbEntity
  8
0
  6
Continuous
 62
     7
370
     0
100
AcDbLine
 10
162.3490671357
 20
151.0028074144
 30
0.0
 11
162.3490671357
 21
214.9944751172
 31
0.0
  0
LINE
  5
AC
330
1F
100
AcDbEntity
  8
0
  6
Continuous
 62
     7
370
     0
100
AcDbLine
 10
163.3490672996
 20
151.0028074144
 30
0.0
 11
162.3490671357
 21
151.0028074144
 31
0.0
  0
LINE
  5
AD
330
1F
100
AcDbEntity
  8
0
  6
Continuous
 62
     7
370
     0
100
AcDbLine
 10
162.3490671357
 20
127.0028072058
 30
0.0
 11
182.3490666887
 21
127.0028072058
 31
0.0
  0
LINE
  5
AE
330
1F
100
AcDbEntity
  8
0
  6
Continuous
 62
     7
370
     0
100
AcDbLine
 10
181.3490665247
 20
126.0028070419
 30
0.0
 11
163.3490672996
 21
126.0028070419
 31
0.0
  0
LINE
  5
AF
330
1F
100
AcDbEntity
  8
0
  6
Continuous
 62
     7
370
     0
100
AcDbLine
 10
165.3490666961
 20
221.1944757609
 30
0.0
 11
167.3490670239
 21
221.1944757609
 31
0.0
  0
LINE
  5
B0
330
1F
100
AcDbEntity
  8
0
  6
Continuous
 62
     7
370
     0
100
AcDbLine
 10
177.3490668004
 20
221.1944757609
 30
0.0
 11
179.3490671282
 21
221.1944757609
 31
0.0
  0
LINE
  5
B1
330
1F
100
AcDbEntity
  8
0
  6
Continuous
 62
     7
370
     0
100
AcDbLine
 10
180.5490669524
 20
219.9944703488
 30
0.0
 11
179.3490671282
 21
221.1944757609
 31
0.0
  0
LINE
  5
B2
330
1F
100
AcDbEntity
  8
0
  6
Continuous
 62
     7
370
     0
100
AcDbLine
 10
165.3490666961
 20
221.1944757609
 30
0.0
 11
164.1490668719
 21
219.9944703488
 31
0.0
  0
LWPOLYLINE
  5
B3
330
1F
100
AcDbEntity
  8
0
  6
Continuous
 62
     7
370
     0
100
AcDbPolyline
 90
        3
 70
   128
 43
0.0
 10
150.7948613455
 20
242.366172245
 10
150.8064507237
 20
242.3216326742
 10
150.8101033708
 20
242.3088772802
  0
LINE
  5
B4
330
1F
100
AcDbEntity
  8
0
  6
Continuous
 62
     7
370
     0
100
AcDbLine
 10
150.7948613455
 20
241.715006402
 30
0.0
 11
150.7948613455
 21
241.6361420064
 31
0.0
  0
ARC
  5
B5
330
1F
100
AcDbEntity
  8
0
  6
Continuous
 62
     7
370
     0
100
AcDbCircle
 10
154.6847955855
 20
242.1413255887
 30
0.0
 40
3.922601030309783
100
AcDbArc
 50
187.3995558028
 51
197.1662194473
  0
ARC
  5
B6
330
1F
100
AcDbEntity
  8
0
  6
Continuous
 62
     7
370
     0
100
AcDbCircle
 10
152.1650810939
 20
241.1593570022
 30
0.0
 40
1.240658348950174
100
AcDbArc
 50
171.8553862177
 51
188.1446137823
  0
ARC
  5
B7
330
1F
100
AcDbEntity
  8
0
  6
Continuous
 62
     7
370
     0
100
AcDbCircle
 10
154.6847907489
 20
242.4928520615
 30
0.0
 40
3.922594396008132
100
AcDbArc
 50
187.3993581793
 51
197.1661451063
  0
LINE
  5
B8
330
1F
100
AcDbEntity
  8
0
  6
Continuous
 62
     7
370
     0
100
AcDbLine
 10
150.7948613455
 20
241.9876827507
 30
0.0
 11
150.7948613455
 21
242.2515823154
 31
0.0
  0
ARC
  5
B9
330
1F
100
AcDbEntity
  8
0
  6
Continuous
 62
     7
370
     0
100
AcDbCircle
 10
152.0976310211
 20
241.9309737478
 30
0.0
 40
1.341640295036631
100
AcDbArc
 50
149.8976623466
 51
166.1743844264
  0
ARC
  5
BA
330
1F
100
AcDbEntity
  8
0
  6
Continuous
 62
     7
370
     0
100
AcDbCircle
 10
155.1668266363
 20
242.9294510393
 30
0.0
 40
4.242402041721115
100
AcDbArc
 50
175.5985105443
 51
184.4014894558
  0
ARC
  5
BB
330
1F
100
AcDbEntity
  8
0
  6
Continuous
 62
     7
370
     0
100
AcDbCircle
 10
152.0974954307
 20
242.5821942737
 30
0.0
 40
1.341495565751004
100
AcDbArc
 50
149.8967783732
 51
166.1752683997
  0
LINE
  5
BC
330
1F
100
AcDbEntity
  8
0
  6
Continuous
 62
     7
370
     0
100
AcDbLine
 10
150.7948613455
 20
242.9027481584
 30
0.0
 11
150.7948613455
 21
242.981612554
 31
0.0
  0
ARC
  5
BD
330
1F
100
AcDbEntity
  8
0
  6
Continuous
 62
     7
370
     0
100
AcDbCircle
 10
154.6579444014
 20
242.1294829823
 30
0.0
 40
3.895381864586562
100
AcDbArc
 50
168.5517183845
 51
172.616599916
  0
LINE
  5
BE
330
1F
100
AcDbEntity
  8
0
  6
Continuous
 62
     7
370
     0
100
AcDbLine
 10
150.7948613455
 20
242.6300718097
 30
0.0
 11
150.7948613455
 21
242.366172245
 31
0.0
  0
LINE
  5
BF
330
1F
100
AcDbEntity
  8
0
  6
Continuous
 62
     7
370
     0
100
AcDbLine
 10
150.7948613455
 20
242.9027481584
 30
0.0
 11
150.9369364669
 21
242.8970857172
 31
0.0
  0
LINE
  5
C0
330
1F
100
AcDbEntity
  8
0
  6
Continuous
 62
     7
370
     0
100
AcDbLine
 10
150.7948613455
 20
242.6300718097
 30
0.0
 11
150.91676402
 21
242.6210640578
 31
0.0
  0
LINE
  5
C1
330
1F
100
AcDbEntity
  8
0
  6
Continuous
 62
     7
370
     0
100
AcDbLine
 10
167.3490670239
 20
191.2533267049
 30
0.0
 11
177.3490668004
 21
191.2533267049
 31
0.0
  0
LINE
  5
C2
330
1F
100
AcDbEntity
  8
0
  6
Continuous
 62
     7
370
     0
100
AcDbLine
 10
167.3490670239
 20
165.6107696353
 30
0.0
 11
177.3490668004
 21
165.6107696353
 31
0.0
  0
LINE
  5
C3
330
1F
100
AcDbEntity
  8
0
  6
Continuous
 62
     7
370
     0
100
AcDbLine
 10
167.3490670239
 20
165.6107696353
 30
0.0
 11
167.3490670239
 21
191.2533267049
 31
0.0
  0
LINE
  5
C4
330
1F
100
AcDbEntity
  8
0
  6
Continuous
 62
     7
370
     0
100
AcDbLine
 10
177.3490668004
 20
165.6107696353
 30
0.0
 11
177.3490668004
 21
191.2533267049
 31
0.0
  0
ELLIPSE
  5
C5
330
1F
100
AcDbEntity
  8
0
  6
Continuous
 62
     7
370
     0
100
AcDbEllipse
 10
164.3490669122
 20
258.7098050307
 30
0.0
 11
-8.526512829121202E-14
 21
9.682747990491521
 31
0.0
210
0.0
220
0.0
230
1.0
 40
0.3098294
 41
4.712388980384697
 42
4.956163722650593
  0
LINE
  5
C6
330
1F
100
AcDbEntity
  8
0
  6
Continuous
 62
     7
370
     0
100
AcDbLine
 10
177.3490668004
 20
261.0469086675
 30
0.0
 11
167.2603683276
 21
261.0469086675
 31
0.0
  0
LINE
  5
C7
330
1F
100
AcDbEntity
  8
0
  6
Continuous
 62
     7
370
     0
100
AcDbLine
 10
167.3490670239
 20
191.2533267049
 30
0.0
 11
167.3490670239
 21
258.7098030953
 31
0.0
  0
LINE
  5
C8
330
1F
100
AcDbEntity
  8
0
  6
Continuous
 62
     7
370
     0
100
AcDbLine
 10
177.3490668004
 20
191.2533267049
 30
0.0
 11
177.3490668004
 21
261.0469086675
 31
0.0
  0
LINE
  5
C9
330
1F
100
AcDbEntity
  8
0
  6
Continuous
 62
     7
370
     0
100
AcDbLine
 10
177.3490668004
 20
165.6107696353
 30
0.0
 11
175.3490669383
 21
163.9687603919
 31
0.0
  0
LINE
  5
CA
330
1F
100
AcDbEntity
  8
0
  6
Continuous
 62
     7
370
     0
100
AcDbLine
 10
175.3490669383
 20
163.9687603919
 30
0.0
 11
169.3490668861
 21
163.9687603919
 31
0.0
  0
LINE
  5
CB
330
1F
100
AcDbEntity
  8
0
  6
Continuous
 62
     7
370
     0
100
AcDbLine
 10
167.3490670239
 20
165.6107696353
 30
0.0
 11
169.3490668861
 21
163.9687603919
 31
0.0
  0
LINE
  5
CC
330
1F
100
AcDbEntity
  8
0
  6
Continuous
 62
     7
370
     0
100
AcDbLine
 10
164.3490665322
 20
232.6803131609
 30
0.0
 11
164.3490665322
 21
262.2678800134
 31
0.0
  0
ARC
  5
CD
330
1F
100
AcDbEntity
  8
0
  6
Continuous
 62
     7
370
     0
100
AcDbCircle
 10
164.4218358896
 20
247.20934989
 30
0.0
 40
15.05870594898255
100
AcDbArc
 50
83.386695925
 51
90.2768759347
  0
ELLIPSE
  5
CE
330
1F
100
AcDbEntity
  8
0
  6
Continuous
 62
     7
370
     0
100
AcDbEllipse
 10
164.3490669122
 20
260.5610404976
 30
0.0
 11
3.0
 21
5.684341886080801E-14
 31
0.0
210
0.0
220
0.0
230
1.0
 40
0.6709892799
 41
0.2437747422658823
 42
0.9243556788989802
  0
ARC
  5
CF
330
1F
100
AcDbEntity
  8
0
  6
Continuous
 62
     7
370
     0
100
AcDbCircle
 10
165.0785880722
 20
227.7698384288
 30
0.0
 40
4.96436942337308
100
AcDbArc
 50
62.7834411848
 51
98.4503026878
  0
LINE
  5
D0
330
1F
100
AcDbEntity
  8
0
  6
Continuous
 62
     7
370
     0
100
AcDbLine
 10
166.156114052
 20
262.1678559689
 30
0.0
 11
177.3490668004
 21
262.1678559689
 31
0.0
  0
LINE
  5
D1
330
1F
100
AcDbEntity
  8
0
  6
Continuous
 62
     7
370
     0
100
AcDbLine
 10
177.3490668004
 20
262.1678559689
 30
0.0
 11
177.3490668004
 21
261.0469086675
 31
0.0
  0
LINE
  5
D2
330
1F
100
AcDbEntity
  8
0
  6
Continuous
 62
     7
370
     0
100
AcDbLine
 10
152.3490673592
 20
262.2678800134
 30
0.0
 11
152.3490673592
 21
262.8462462334
 31
0.0
  0
LINE
  5
D3
330
1F
100
AcDbEntity
  8
0
  6
Continuous
 62
     7
370
     0
100
AcDbLine
 10
152.3490673592
 20
262.8462462334
 30
0.0
 11
177.3490668004
 21
262.8462462334
 31
0.0
  0
LINE
  5
D4
330
1F
100
AcDbEntity
  8
0
  6
Continuous
 62
     7
370
     0
100
AcDbLine
 10
152.3490673592
 20
262.2678800134
 30
0.0
 11
164.3490665322
 21
262.2678800134
 31
0.0
  0
LINE
  5
D5
330
1F
100
AcDbEntity
  8
0
  6
Continuous
 62
     7
370
     0
100
AcDbLine
 10
177.3490668004
 20
262.1678559689
 30
0.0
 11
177.3490668004
 21
262.8462462334
 31
0.0
  0
LINE
  5
D6
330
1F
100
AcDbEntity
  8
0
  6
Continuous
 62
     7
370
     0
100
AcDbLine
 10
152.3490673592
 20
232.6803131609
 30
0.0
 11
164.3490665322
 21
232.6803131609
 31
0.0
  0
LINE
  5
D7
330
1F
100
AcDbEntity
  8
0
  6
Continuous
 62
     7
370
     0
100
AcDbLine
 10
152.3490673592
 20
232.6803131609
 30
0.0
 11
152.3490673592
 21
262.2678800134
 31
0.0
  0
LINE
  5
D8
330
1F
100
AcDbEntity
  8
0
  6
Continuous
 62
     7
370
     0
100
AcDbLine
 10
159.349066644
 20
262.8462462334
 30
0.0
 11
159.349066644
 21
262.9288731723
 31
0.0
  0
LINE
  5
D9
330
1F
100
AcDbEntity
  8
0
  6
Continuous
 62
     7
370
     0
100
AcDbLine
 10
177.3490668004
 20
262.9288731723
 30
0.0
 11
159.349066644
 21
262.9288731723
 31
0.0
  0
LINE
  5
DA
330
1F
100
AcDbEntity
  8
0
  6
Continuous
 62
     7
370
     0
100
AcDbLine
 10
159.349066644
 20
224.4650347738
 30
0.0
 11
167.3490670239
 21
224.4650347738
 31
0.0
  0
LINE
  5
DB
330
1F
100
AcDbEntity
  8
0
  6
Continuous
 62
     7
370
     0
100
AcDbLine
 10
159.349066644
 20
224.4650347738
 30
0.0
 11
159.349066644
 21
232.6803131609
 31
0.0
  0
LINE
  5
DC
330
1F
100
AcDbEntity
  8
0
  6
Continuous
 62
     7
370
     0
100
AcDbLine
 10
177.3490668004
 20
262.9288731723
 30
0.0
 11
177.3490668004
 21
262.8462462334
 31
0.0
  0
LINE
  5
DD
330
1F
100
AcDbEntity
  8
0
  6
Continuous
 62
     7
370
     0
100
AcDbLine
 10
155.3490659883
 20
223.3135326414
 30
0.0
 11
152.3490673592
 21
223.3135326414
 31
0.0
  0
LINE
  5
DE
330
1F
100
AcDbEntity
  8
0
  6
Continuous
 62
     7
370
     0
100
AcDbLine
 10
152.3490673592
 20
223.3135326414
 30
0.0
 11
152.3490673592
 21
224.4650347738
 31
0.0
  0
LINE
  5
DF
330
1F
100
AcDbEntity
  8
0
  6
Continuous
 62
     7
370
     0
100
AcDbLine
 10
152.3490673592
 20
224.4650347738
 30
0.0
 11
155.3490659883
 21
224.4650347738
 31
0.0
  0
LINE
  5
E0
330
1F
100
AcDbEntity
  8
0
  6
Continuous
 62
     7
370
     0
100
AcDbLine
 10
155.3490659883
 20
224.4650347738
 30
0.0
 11
155.3490659883
 21
223.3135326414
 31
0.0
  0
LINE
  5
E1
330
1F
100
AcDbEntity
  8
0
  6
Continuous
 62
     7
370
     0
100
AcDbLine
 10
167.3490670239
 20
223.3135326414
 30
0.0
 11
159.349066644
 21
223.3135326414
 31
0.0
  0
LINE
  5
E2
330
1F
100
AcDbEntity
  8
0
  6
Continuous
 62
     7
370
     0
100
AcDbLine
 10
159.349066644
 20
223.3135326414
 30
0.0
 11
159.349066644
 21
224.4650347738
 31
0.0
  0
LINE
  5
E3
330
1F
100
AcDbEntity
  8
0
  6
Continuous
 62
     7
370
     0
100
AcDbLine
 10
155.3490659883
 20
262.9288731723
 30
0.0
 11
152.3490673592
 21
262.9288731723
 31
0.0
  0
LINE
  5
E4
330
1F
100
AcDbEntity
  8
0
  6
Continuous
 62
     7
370
     0
100
AcDbLine
 10
155.3490659883
 20
262.8462462334
 30
0.0
 11
155.3490659883
 21
262.9288731723
 31
0.0
  0
LINE
  5
E5
330
1F
100
AcDbEntity
  8
0
  6
Continuous
 62
     7
370
     0
100
AcDbLine
 10
152.3490673592
 20
224.4650347738
 30
0.0
 11
152.3490673592
 21
232.6803131609
 31
0.0
  0
LINE
  5
E6
330
1F
100
AcDbEntity
  8
0
  6
Continuous
 62
     7
370
     0
100
AcDbLine
 10
152.3490673592
 20
262.8462462334
 30
0.0
 11
152.3490673592
 21
262.9288731723
 31
0.0
  0
LINE
  5
E7
330
1F
100
AcDbEntity
  8
0
  6
Continuous
 62
     7
370
     0
100
AcDbLine
 10
155.3490659883
 20
224.4650347738
 30
0.0
 11
155.3490659883
 21
232.6803131609
 31
0.0
  0
LINE
  5
E8
330
1F
100
AcDbEntity
  8
0
  6
Continuous
 62
     7
370
     0
100
AcDbLine
 10
159.349066644
 20
222.4873005061
 30
0.0
 11
155.3490659883
 21
222.4873005061
 31
0.0
  0
LINE
  5
E9
330
1F
100
AcDbEntity
  8
0
  6
Continuous
 62
     7
370
     0
100
AcDbLine
 10
152.3490673592
 20
221.31355094
 30
0.0
 11
167.3490670239
 21
221.31355094
 31
0.0
  0
LINE
  5
EA
330
1F
100
AcDbEntity
  8
0
  6
Continuous
 62
     7
370
     0
100
AcDbLine
 10
152.3490673592
 20
221.31355094
 30
0.0
 11
152.3490673592
 21
223.3135326414
 31
0.0
  0
LINE
  5
EB
330
1F
100
AcDbEntity
  8
0
  6
Continuous
 62
     7
370
     0
100
AcDbLine
 10
159.349066644
 20
222.4873005061
 30
0.0
 11
159.349066644
 21
223.3135326414
 31
0.0
  0
LINE
  5
EC
330
1F
100
AcDbEntity
  8
0
  6
Continuous
 62
     7
370
     0
100
AcDbLine
 10
155.3490659883
 20
222.4873005061
 30
0.0
 11
155.3490659883
 21
223.3135326414
 31
0.0
  0
LINE
  5
ED
330
1F
100
AcDbEntity
  8
0
  6
Continuous
 62
     7
370
     0
100
AcDbLine
 10
159.2490668138
 20
224.81300669
 30
0.0
 11
155.4490676811
 21
224.81300669
 31
0.0
  0
LINE
  5
EE
330
1F
100
AcDbEntity
  8
0
  6
Continuous
 62
     7
370
     0
100
AcDbLine
 10
155.4490676811
 20
224.2815418749
 30
0.0
 11
159.2490668138
 21
224.2815418749
 31
0.0
  0
LINE
  5
EF
330
1F
100
AcDbEntity
  8
0
  6
Continuous
 62
     7
370
     0
100
AcDbLine
 10
155.4490676811
 20
224.81300669
 30
0.0
 11
155.4490676811
 21
224.2815418749
 31
0.0
  0
LINE
  5
F0
330
1F
100
AcDbEntity
  8
0
  6
Continuous
 62
     7
370
     0
100
AcDbLine
 10
159.2490668138
 20
224.81300669
 30
0.0
 11
159.2490668138
 21
224.2815418749
 31
0.0
  0
LINE
  5
F1
330
1F
100
AcDbEntity
  8
0
  6
Continuous
 62
     7
370
     0
100
AcDbLine
 10
159.2490668138
 20
230.7710124759
 30
0.0
 11
155.4490676811
 21
230.7710124759
 31
0.0
  0
LINE
  5
F2
330
1F
100
AcDbEntity
  8
0
  6
Continuous
 62
     7
370
     0
100
AcDbLine
 10
155.4490676811
 20
230.7710124759
 30
0.0
 11
155.4490676811
 21
224.81300669
 31
0.0
  0
LINE
  5
F3
330
1F
100
AcDbEntity
  8
0
  6
Continuous
 62
     7
370
     0
100
AcDbLine
 10
159.2490668138
 20
230.7710124759
 30
0.0
 11
159.2490668138
 21
224.81300669
 31
0.0
  0
LINE
  5
F4
330
1F
100
AcDbEntity
  8
0
  6
Continuous
 62
     7
370
     0
100
AcDbLine
 10
155.4490676811
 20
232.6803131609
 30
0.0
 11
155.4490676811
 21
230.7710124759
 31
0.0
  0
LINE
  5
F5
330
1F
100
AcDbEntity
  8
0
  6
Continuous
 62
     7
370
     0
100
AcDbLine
 10
159.2490668138
 20
232.6803131609
 30
0.0
 11
159.2490668138
 21
230.7710124759
 31
0.0
  0
LINE
  5
F6
330
1F
100
AcDbEntity
  8
0
  6
Continuous
 62
     7
370
     0
100
AcDbLine
 10
175.7944663716
 20
123.5028075634
 30
0.0
 11
175.7944663716
 21
126.0028070419
 31
0.0
  0
LINE
  5
F7
330
1F
100
AcDbEntity
  8
0
  6
Continuous
 62
     7
370
     0
100
AcDbLine
 10
172.2870635879
 20
123.5028075634
 30
0.0
 11
175.7944663716
 21
123.5028075634
 31
0.0
  0
LINE
  5
F8
330
1F
100
AcDbEntity
  8
0
  6
Continuous
 62
     7
370
     0
100
AcDbLine
 10
172.2870635879
 20
123.5028075634
 30
0.0
 11
172.2870635879
 21
126.0028070419
 31
0.0
  0
LINE
  5
F9
330
1F
100
AcDbEntity
  8
0
  6
Continuous
 62
     7
370
     0
100
AcDbLine
 10
168.7796606878
 20
123.5028075634
 30
0.0
 11
172.2870635879
 21
123.5028075634
 31
0.0
  0
LINE
  5
FA
330
1F
100
AcDbEntity
  8
0
  6
Continuous
 62
     7
370
     0
100
AcDbLine
 10
168.7796606878
 20
123.5028075634
 30
0.0
 11
168.7796606878
 21
126.0028070419
 31
0.0
  0
LINE
  5
FB
330
1F
100
AcDbEntity
  8
0
  6
Continuous
 62
     7
370
     0
100
AcDbLine
 10
174.6370636122
 20
118.5028067438
 30
0.0
 11
169.93706368
 21
118.5028067438
 31
0.0
  0
LINE
  5
FC
330
1F
100
AcDbEntity
  8
0
  6
Continuous
 62
     7
370
     0
100
AcDbLine
 10
174.2870636247
 20
116.0028072654
 30
0.0
 11
170.2870635511
 21
116.0028072654
 31
0.0
  0
LINE
  5
FD
330
1F
100
AcDbEntity
  8
0
  6
Continuous
 62
     7
370
     0
100
AcDbLine
 10
174.6370636122
 20
121.0028080849
 30
0.0
 11
169.93706368
 21
121.0028080849
 31
0.0
  0
ARC
  5
FE
330
1F
100
AcDbEntity
  8
0
  6
Continuous
 62
     7
370
     0
100
AcDbCircle
 10
172.3490669122
 20
175.597934869
 30
0.0
 40
7.141428428542857
100
AcDbArc
 50
314.4382406712
 51
45.5617593289
  0
ARC
  5
FF
330
1F
100
AcDbEntity
  8
0
  6
Continuous
 62
     7
370
     0
100
AcDbCircle
 10
172.3490669122
 20
175.597934869
 30
0.0
 40
7.141428428542857
100
AcDbArc
 50
134.4382406712
 51
225.5617593289
  0
LINE
  5
100
330
1F
100
AcDbEntity
  8
0
  6
Continuous
 62
     7
370
     0
100
AcDbLine
 10
180.2435363373
 20
181.8979343979
 30
0.0
 11
180.2435363373
 21
169.2979334502
 31
0.0
  0
SPLINE
  5
101
330
1F
100
AcDbEntity
  8
0
  6
Continuous
 62
     7
370
     0
100
AcDbSpline
210
0.0
220
0.0
230
1.0
 70
    24
 71
     3
 72
    10
 73
     6
 74
     0
 42
0.000000001
 43
0.00000001
 40
0.0
 40
0.0
 40
0.0
 40
0.0
 40
0.4999999999999989
 40
0.4999999999999989
 40
1.0
 40
1.0
 40
1.0
 40
1.0
 10
179.7436129306392
 20
169.2979348689634
 30
0.0
 10
179.8730581849394
 20
169.2979348690079
 30
0.0
 10
180.0017406813505
 20
169.2979348690337
 30
0.0
 10
180.1863944528914
 20
169.2979348690337
 30
0.0
 10
180.2412776525567
 20
169.2979348690079
 30
0.0
 10
180.2435367826249
 20
169.2979348689634
 30
0.0
  0
LINE
  5
102
330
1F
100
AcDbEntity
  8
0
  6
Continuous
 62
     7
370
     0
100
AcDbLine
 10
179.7436130894
 20
181.8979343979
 30
0.0
 11
179.7436130894
 21
169.2979334502
 31
0.0
  0
SPLINE
  5
103
330
1F
100
AcDbEntity
  8
0
  6
Continuous
 62
     7
370
     0
100
AcDbSpline
210
0.0
220
0.0
230
1.0
 70
    24
 71
     3
 72
    10
 73
     6
 74
     0
 42
0.000000001
 43
0.00000001
 40
0.0
 40
0.0
 40
0.0
 40
0.0
 40
0.5
 40
0.5
 40
1.0
 40
1.0
 40
1.0
 40
1.0
 10
179.7436129306391
 20
181.8979348689634
 30
0.0
 10
179.8730581834954
 20
181.8979348689634
 30
0.0
 10
180.0017406780484
 20
181.8979348689634
 30
0.0
 10
180.1863944475297
 20
181.8979348689634
 30
0.0
 10
180.2412776470531
 20
181.8979348689634
 30
0.0
 10
180.2435367782173
 20
181.8979348689634
 30
0.0
  0
SPLINE
  5
104
330
1F
100
AcDbEntity
  8
0
  6
Continuous
 62
     7
370
     0
100
AcDbSpline
210
0.0
220
0.0
230
1.0
 70
     8
 71
     3
 72
    14
 73
    10
 74
     0
 42
0.000000001
 43
0.00000001
 40
0.0
 40
0.0
 40
0.0
 40
0.0
 40
0.25
 40
0.25
 40
0.5
 40
0.5
 40
0.75
 40
0.75
 40
1.0
 40
1.0
 40
1.0
 40
1.0
 10
180.2435367782174
 20
169.2979348689634
 30
0.0
 10
180.2435367782175
 20
168.2645511799996
 30
0.0
 10
180.0380648584818
 20
167.2315740833898
 30
0.0
 10
179.2471472243963
 20
165.3221300044603
 30
0.0
 10
178.6620127023616
 20
164.4464143068487
 30
0.0
 10
177.2005874742938
 20
162.9849890787808
 30
0.0
 10
176.3248717766822
 20
162.3998545567461
 30
0.0
 10
174.4154276977528
 20
161.6089369226605
 30
0.0
 10
173.3824506011429
 20
161.4034650029249
 30
0.0
 10
172.3490669121791
 20
161.4034650029249
 30
0.0
  0
SPLINE
  5
105
330
1F
100
AcDbEntity
  8
0
  6
Continuous
 62
     7
370
     0
100
AcDbSpline
210
0.0
220
0.0
230
1.0
 70
     8
 71
     3
 72
    14
 73
    10
 74
     0
 42
0.000000001
 43
0.00000001
 40
0.0
 40
0.0
 40
0.0
 40
0.0
 40
0.25
 40
0.25
 40
0.5
 40
0.5
 40
0.75
 40
0.75
 40
1.0
 40
1.0
 40
1.0
 40
1.0
 10
172.3490669121791
 20
161.4034650029249
 30
0.0
 10
171.3156832232153
 20
161.4034650029249
 30
0.0
 10
170.2827061266055
 20
161.6089369226605
 30
0.0
 10
168.373262047676
 20
162.399854556746
 30
0.0
 10
167.4975463500644
 20
162.9849890787807
 30
0.0
 10
166.0361211219965
 20
164.4464143068485
 30
0.0
 10
165.4509865999618
 20
165.3221300044602
 30
0.0
 10
164.6600689658762
 20
167.2315740833896
 30
0.0
 10
164.4545970461406
 20
168.2645511799994
 30
0.0
 10
164.4545970461406
 20
169.2979348689632
 30
0.0
  0
SPLINE
  5
106
330
1F
100
AcDbEntity
  8
0
  6
Continuous
 62
     7
370
     0
100
AcDbSpline
210
0.0
220
0.0
230
1.0
 70
    24
 71
     3
 72
    10
 73
     6
 74
     0
 42
0.000000001
 43
0.00000001
 40
0.0
 40
0.0
 40
0.0
 40
0.0
 40
0.5
 40
0.5
 40
1.0
 40
1.0
 40
1.0
 40
1.0
 10
164.9545208937188
 20
169.2979348689632
 30
0.0
 10
164.8250756408626
 20
169.2979348689632
 30
0.0
 10
164.6963931463095
 20
169.2979348689632
 30
0.0
 10
164.5117393768283
 20
169.2979348689632
 30
0.0
 10
164.4568561773048
 20
169.2979348689632
 30
0.0
 10
164.4545970461406
 20
169.2979348689632
 30
0.0
  0
SPLINE
  5
107
330
1F
100
AcDbEntity
  8
0
  6
Continuous
 62
     7
370
     0
100
AcDbSpline
210
0.0
220
0.0
230
1.0
 70
     8
 71
     3
 72
    14
 73
    10
 74
     0
 42
0.000000001
 43
0.00000001
 40
0.0
 40
0.0
 40
0.0
 40
0.0
 40
0.2500000000000001
 40
0.2500000000000001
 40
0.5000000000000001
 40
0.5000000000000001
 40
0.75
 40
0.75
 40
1.0
 40
1.0
 40
1.0
 40
1.0
 10
172.3490669121791
 20
161.9033888505031
 30
0.0
 10
171.3811231018364
 20
161.9033888505031
 30
0.0
 10
170.4135601360498
 20
162.0958490906166
 30
0.0
 10
168.6250331860565
 20
162.8366812099736
 30
0.0
 10
167.8047729108308
 20
163.3847616034132
 30
0.0
 10
166.435893646629
 20
164.753640867615
 30
0.0
 10
165.8878132531894
 20
165.5739011428406
 30
0.0
 10
165.1469811338323
 20
167.3624280928339
 30
0.0
 10
164.9545208937188
 20
168.3299910586205
 30
0.0
 10
164.9545208937188
 20
169.2979348689632
 30
0.0
  0
SPLINE
  5
108
330
1F
100
AcDbEntity
  8
0
  6
Continuous
 62
     7
370
     0
100
AcDbSpline
210
0.0
220
0.0
230
1.0
 70
     8
 71
     3
 72
    14
 73
    10
 74
     0
 42
0.000000001
 43
0.00000001
 40
0.0
 40
0.0
 40
0.0
 40
0.0
 40
0.25
 40
0.25
 40
0.5
 40
0.5
 40
0.75
 40
0.75
 40
1.0
 40
1.0
 40
1.0
 40
1.0
 10
179.7436129306392
 20
169.2979348689634
 30
0.0
 10
179.7436129306393
 20
168.3299910586206
 30
0.0
 10
179.5511526905258
 20
167.3624280928341
 30
0.0
 10
178.8103205711688
 20
165.5739011428408
 30
0.0
 10
178.2622401777292
 20
164.7536408676151
 30
0.0
 10
176.8933609135274
 20
163.3847616034133
 30
0.0
 10
176.0731006383017
 20
162.8366812099736
 30
0.0
 10
174.2845736883084
 20
162.0958490906166
 30
0.0
 10
173.3170107225219
 20
161.9033888505031
 30
0.0
 10
172.3490669121791
 20
161.9033888505031
 30
0.0
  0
LINE
  5
109
330
1F
100
AcDbEntity
  8
0
  6
Continuous
 62
     7
370
     0
100
AcDbLine
 10
164.9545207349
 20
169.2979334502
 30
0.0
 11
164.9545207349
 21
181.8979343979
 31
0.0
  0
LINE
  5
10A
330
1F
100
AcDbEntity
  8
0
  6
Continuous
 62
     7
370
     0
100
AcDbLine
 10
164.4545974871
 20
169.2979334502
 30
0.0
 11
164.4545974871
 21
181.8979343979
 31
0.0
  0
SPLINE
  5
10B
330
1F
100
AcDbEntity
  8
0
  6
Continuous
 62
     7
370
     0
100
AcDbSpline
210
0.0
220
0.0
230
1.0
 70
    24
 71
     3
 72
    10
 73
     6
 74
     0
 42
0.000000001
 43
0.00000001
 40
0.0
 40
0.0
 40
0.0
 40
0.0
 40
0.5000000000000012
 40
0.5000000000000012
 40
1.0
 40
1.0
 40
1.0
 40
1.0
 10
164.4545970461405
 20
181.8979348689632
 30
0.0
 10
164.4568561773047
 20
181.8979348689632
 30
0.0
 10
164.5117393768281
 20
181.8979348689632
 30
0.0
 10
164.6963931463093
 20
181.8979348689632
 30
0.0
 10
164.8250756408624
 20
181.8979348689632
 30
0.0
 10
164.9545208937187
 20
181.8979348689632
 30
0.0
  0
LINE
  5
10C
330
1F
100
AcDbEntity
  8
0
  6
Continuous
 62
     7
370
     0
100
AcDbLine
 10
180.2435363373
 20
169.2979334502
 30
0.0
 11
180.2940671062
 21
169.2979334502
 31
0.0
  0
LINE
  5
10D
330
1F
100
AcDbEntity
  8
0
  6
Continuous
 62
     7
370
     0
100
AcDbLine
 10
180.2435363373
 20
181.8979343979
 30
0.0
 11
180.2940671062
 21
181.8979343979
 31
0.0
  0
LINE
  5
10E
330
1F
100
AcDbEntity
  8
0
  6
Continuous
 62
     7
370
     0
100
AcDbLine
 10
180.2940671062
 20
181.8979343979
 30
0.0
 11
180.2940671062
 21
169.2979334502
 31
0.0
  0
ARC
  5
10F
330
1F
100
AcDbEntity
  8
0
  6
Continuous
 62
     7
370
     0
100
AcDbCircle
 10
172.3490669122
 20
169.297934869
 30
0.0
 40
7.945000000000022
100
AcDbArc
 50
180.0
 51
0.0
  0
LINE
  5
110
330
1F
100
AcDbEntity
  8
0
  6
Continuous
 62
     7
370
     0
100
AcDbLine
 10
164.4545974871
 20
169.2979334502
 30
0.0
 11
164.4040667182
 21
169.2979334502
 31
0.0
  0
LINE
  5
111
330
1F
100
AcDbEntity
  8
0
  6
Continuous
 62
     7
370
     0
100
AcDbLine
 10
164.4040667182
 20
181.8979343979
 30
0.0
 11
164.4545974871
 21
181.8979343979
 31
0.0
  0
LINE
  5
112
330
1F
100
AcDbEntity
  8
0
  6
Continuous
 62
     7
370
     0
100
AcDbLine
 10
164.4040667182
 20
169.2979334502
 30
0.0
 11
164.4040667182
 21
181.8979343979
 31
0.0
  0
ARC
  5
113
330
1F
100
AcDbEntity
  8
0
  6
Continuous
 62
     7
370
     0
100
AcDbCircle
 10
172.3490669122
 20
181.897934869
 30
0.0
 40
7.944999999999986
100
AcDbArc
 50
129.0004592744
 51
180.0
  0
ARC
  5
114
330
1F
100
AcDbEntity
  8
0
  6
Continuous
 62
     7
370
     0
100
AcDbCircle
 10
172.3490669122
 20
181.897934869
 30
0.0
 40
7.945000000000221
100
AcDbArc
 50
0.0
 51
50.9995407256
  0
LINE
  5
115
330
1F
100
AcDbEntity
  8
0
  6
Continuous
 62
     8
370
     0
100
AcDbLine
 10
151.7525682887
 20
239.8449926285
 30
0.0
 11
151.7525682887
 21
245.1088799743
 31
0.0
  0
LINE
  5
116
330
1F
100
AcDbEntity
  8
0
  6
Continuous
 62
     8
370
     0
100
AcDbLine
 10
151.7525682887
 20
239.5088745861
 30
0.0
 11
151.7525682887
 21
239.8449926285
 31
0.0
  0
LINE
  5
117
330
1F
100
AcDbEntity
  8
0
  6
Continuous
 62
     8
370
     0
100
AcDbLine
 10
151.5244389614
 20
239.95549964
 30
0.0
 11
151.5244389614
 21
244.9832929878
 31
0.0
  0
LINE
  5
118
330
1F
100
AcDbEntity
  8
0
  6
Continuous
 62
     8
370
     0
100
AcDbLine
 10
151.5244389614
 20
239.6344615726
 30
0.0
 11
151.5244389614
 21
239.95549964
 31
0.0
  0
LINE
  5
119
330
1F
100
AcDbEntity
  8
0
  6
Continuous
 62
     8
370
     0
100
AcDbLine
 10
159.349066644
 20
228.8051767854
 30
0.0
 11
159.2490668138
 21
228.8051767854
 31
0.0
  0
LINE
  5
11A
330
1F
100
AcDbEntity
  8
0
  6
Continuous
 62
     8
370
     0
100
AcDbLine
 10
155.4490676811
 20
228.8051767854
 30
0.0
 11
155.3490659883
 21
228.8051767854
 31
0.0
  0
SPLINE
  5
11B
330
1F
100
AcDbEntity
  8
0
  6
Continuous
 62
     8
370
     0
100
AcDbSpline
210
0.0
220
0.0
230
1.0
 70
     8
 71
     3
 72
    12
 73
     8
 74
     0
 42
0.000000001
 43
0.00000001
 40
0.0
 40
0.0
 40
0.0
 40
0.0
 40
0.2378614143733123
 40
0.4757232025881849
 40
0.7135846677931458
 40
0.9514462857629419
 40
1.0
 40
1.0
 40
1.0
 40
1.0
 10
164.9545207349406
 20
181.8979343979053
 30
0.0
 10
164.982263312609
 20
182.3816426041651
 30
0.0
 10
165.0377485115481
 20
183.3490597769182
 30
0.0
 10
165.4741169914996
 20
184.7490600775316
 30
0.0
 10
166.1701652932448
 20
186.0209320064938
 30
0.0
 10
166.8162810883277
 20
186.8901148479422
 30
0.0
 10
167.2718397805795
 20
187.2528858699891
 30
0.0
 10
167.3490670239376
 20
187.3143835572891
 30
0.0
  0
SPLINE
  5
11C
330
1F
100
AcDbEntity
  8
0
  6
Continuous
 62
     8
370
     0
100
AcDbSpline
210
0.0
220
0.0
230
1.0
 70
     8
 71
     3
 72
    12
 73
     8
 74
     0
 42
0.000000001
 43
0.00000001
 40
0.0
 40
0.0
 40
0.0
 40
0.0
 40
0.0485537142370581
 40
0.2864153322068542
 40
0.5242767974118151
 40
0.7621385856266877
 40
0.9999999999999999
 40
0.9999999999999999
 40
0.9999999999999999
 40
0.9999999999999999
 10
177.3490668004201
 20
187.3143835572891
 30
0.0
 10
177.4262940437781
 20
187.2528858699893
 30
0.0
 10
177.88185273603
 20
186.8901148479423
 30
0.0
 10
178.5279685311129
 20
186.0209320064939
 30
0.0
 10
179.2240168328581
 20
184.7490600775317
 30
0.0
 10
179.6603853128096
 20
183.3490597769184
 30
0.0
 10
179.7158705117488
 20
182.3816426041652
 30
0.0
 10
179.7436130894171
 20
181.8979343979054
 30
0.0
  0
SPLINE
  5
11D
330
1F
100
AcDbEntity
  8
0
  6
Continuous
 62
     8
370
     0
100
AcDbSpline
210
0.0
220
0.0
230
1.0
 70
     8
 71
     3
 72
    12
 73
     8
 74
     0
 42
0.000000001
 43
0.00000001
 40
0.0
 40
0.0
 40
0.0
 40
0.0
 40
0.2228813392827209
 40
0.4457625533077534
 40
0.6686437488027895
 40
0.8915247621439378
 40
0.9999999999999999
 40
0.9999999999999999
 40
0.9999999999999999
 40
0.9999999999999999
 10
164.4545974870967
 20
181.8979343979053
 30
0.0
 10
164.4841212671335
 20
182.4144479154354
 30
0.0
 10
164.5431688106149
 20
183.4474746602189
 30
0.0
 10
165.0104495956355
 20
184.9405848656667
 30
0.0
 10
165.7481991440363
 20
186.3042939693324
 30
0.0
 10
166.5430165525926
 20
187.3330805294443
 30
0.0
 10
167.1502715334388
 20
187.8038725477349
 30
0.0
 10
167.3490670239376
 20
187.9579945115737
 30
0.0
  0
SPLINE
  5
11E
330
1F
100
AcDbEntity
  8
0
  6
Continuous
 62
     8
370
     0
100
AcDbSpline
210
0.0
220
0.0
230
1.0
 70
     8
 71
     3
 72
    12
 73
     8
 74
     0
 42
0.000000001
 43
0.00000001
 40
0.0
 40
0.0
 40
0.0
 40
0.0
 40
0.1084752378560621
 40
0.3313562511972103
 40
0.5542374466922465
 40
0.7771186607172791
 40
0.9999999999999999
 40
0.9999999999999999
 40
0.9999999999999999
 40
0.9999999999999999
 10
177.3490668004201
 20
187.9579945115738
 30
0.0
 10
177.5478622909189
 20
187.803872547735
 30
0.0
 10
178.1551172717651
 20
187.3330805294445
 30
0.0
 10
178.9499346803214
 20
186.3042939693325
 30
0.0
 10
179.6876842287222
 20
184.9405848656668
 30
0.0
 10
180.1549650137428
 20
183.447474660219
 30
0.0
 10
180.2140125572243
 20
182.4144479154356
 30
0.0
 10
180.2435363372611
 20
181.8979343979054
 30
0.0
  0
DIMENSION
  5
11F
330
1F
100
AcDbEntity
  8
0
  6
Continuous
 62
     7
370
     0
100
AcDbDimension
  2
_D
 10
167.3490669122
 20
269.4016668514
 30
0.0
 11
159.8490669122
 21
269.4016668514
 31
0.0
 70
   160
  1
<>
 71
     2
 42
-1.0
  3
SLDDIMSTYLE0
100
AcDbAlignedDimension
 13
152.3490669122
 23
262.2678817894
 33
0.0
 14
167.3490669122
 24
258.7098050307
 34
0.0
 50
0.0
100
AcDbRotatedDimension
  0
DIMENSION
  5
12A
330
1F
100
AcDbEntity
  8
0
  6
Continuous
 62
     7
370
     0
100
AcDbDimension
  2
_D_1
 10
177.3490669122
 20
278.0413212118
 30
0.0
 11
164.8490669122
 21
278.0413212118
 31
0.0
 70
   160
  1
<>
 71
     2
 42
-1.0
  3
SLDDIMSTYLE0
100
AcDbAlignedDimension
 13
152.3490669122
 23
262.2678817894
 33
0.0
 14
177.3490669122
 24
261.0469054618
 34
0.0
 50
0.0
100
AcDbRotatedDimension
  0
DIMENSION
  5
134
330
1F
100
AcDbEntity
  8
0
  6
Continuous
 62
     7
370
     0
100
AcDbDimension
  2
_D_2
 10
143.6100397656
 20
232.6803156183
 30
0.0
 11
143.6100397656
 21
247.7632810372
 31
0.0
 70
   160
  1
<>
 71
     2
 42
-1.0
  3
SLDDIMSTYLE0
100
AcDbAlignedDimension
 13
152.3490669122
 23
262.8462464561
 33
0.0
 14
152.3490669122
 24
232.6803156183
 34
0.0
 50
90.0
100
AcDbRotatedDimension
  0
DIMENSION
  5
13E
330
1F
100
AcDbEntity
  8
0
  6
Continuous
 62
     7
370
     0
100
AcDbDimension
  2
_D_3
 10
162.3490669122
 20
106.002807289
 30
0.0
 11
172.3490669122
 21
106.002807289
 31
0.0
 70
   160
  1
<>
 71
     2
 42
-1.0
  3
SLDDIMSTYLE0
100
AcDbAlignedDimension
 13
182.3490669122
 23
127.002807289
 33
0.0
 14
162.3490669122
 24
127.002807289
 34
0.0
 50
0.0
100
AcDbRotatedDimension
  0
DIMENSION
  5
148
330
1F
100
AcDbEntity
  8
0
  6
Continuous
 62
     7
370
     0
100
AcDbDimension
  2
_D_4
 10
152.3490669122
 20
94.002807289
 30
0.0
 11
167.3490669122
 21
94.002807289
 31
0.0
 70
   160
  1
<>
 71
     2
 42
-1.0
  3
SLDDIMSTYLE0
100
AcDbAlignedDimension
 13
182.3490669122
 23
127.002807289
 33
0.0
 14
152.3490669122
 24
232.6803156183
 34
0.0
 50
0.0
100
AcDbRotatedDimension
  0
LINE
  5
152
330
1F
100
AcDbEntity
  8
0
  6
Continuous
 62
     7
370
     0
100
AcDbLine
 10
70.9317148153
 20
151.0028074144
 30
0.0
 11
70.9317148153
 21
127.0028072058
 31
0.0
  0
LINE
  5
153
330
1F
100
AcDbEntity
  8
0
  6
Continuous
 62
     7
370
     0
100
AcDbLine
 10
90.9317180935
 20
127.0028072058
 30
0.0
 11
90.9317180935
 21
151.0028074144
 31
0.0
  0
LINE
  5
154
330
1F
100
AcDbEntity
  8
0
  6
Continuous
 62
     7
370
     0
100
AcDbLine
 10
70.9317148153
 20
127.0028072058
 30
0.0
 11
71.9317168418
 21
126.0028070419
 31
0.0
  0
LINE
  5
155
330
1F
100
AcDbEntity
  8
0
  6
Continuous
 62
     7
370
     0
100
AcDbLine
 10
89.931716067
 20
126.0028070419
 30
0.0
 11
90.9317180935
 21
127.0028072058
 31
0.0
  0
LINE
  5
156
330
1F
100
AcDbEntity
  8
0
  6
Continuous
 62
     7
370
     0
100
AcDbLine
 10
62.7308458511
 20
237.8268166094
 30
0.0
 11
62.565599424
 21
238.8130648641
 31
0.0
  0
LINE
  5
157
330
1F
100
AcDbEntity
  8
0
  6
Continuous
 62
     7
370
     0
100
AcDbLine
 10
59.3282700006
 20
237.2567130832
 30
0.0
 11
60.1545095865
 21
232.3254494576
 31
0.0
  0
LINE
  5
158
330
1F
100
AcDbEntity
  8
0
  6
Continuous
 62
     7
370
     0
100
AcDbLine
 10
63.014638466
 20
232.8046708016
 30
0.0
 11
62.1884063307
 21
237.7359269767
 31
0.0
  0
LINE
  5
159
330
1F
100
AcDbEntity
  8
0
  6
Continuous
 62
     7
370
     0
100
AcDbLine
 10
78.5596043292
 20
121.0028080849
 30
0.0
 11
78.9096028034
 21
118.5028067438
 31
0.0
  0
LINE
  5
15A
330
1F
100
AcDbEntity
  8
0
  6
Continuous
 62
     7
370
     0
100
AcDbLine
 10
82.909603459
 20
118.5028067438
 30
0.0
 11
83.2596019331
 21
121.0028080849
 31
0.0
  0
LINE
  5
15B
330
1F
100
AcDbEntity
  8
0
  6
Continuous
 62
     7
370
     0
100
AcDbLine
 10
78.5596043292
 20
118.5028067438
 30
0.0
 11
78.9096028034
 21
116.0028072654
 31
0.0
  0
LINE
  5
15C
330
1F
100
AcDbEntity
  8
0
  6
Continuous
 62
     7
370
     0
100
AcDbLine
 10
82.909603459
 20
116.0028072654
 30
0.0
 11
83.2596019331
 21
118.5028067438
 31
0.0
  0
LINE
  5
15D
330
1F
100
AcDbEntity
  8
0
  6
Continuous
 62
     7
370
     0
100
AcDbLine
 10
83.0096051518
 20
121.0028080849
 30
0.0
 11
83.0096051518
 21
123.5028075634
 31
0.0
  0
LINE
  5
15E
330
1F
100
AcDbEntity
  8
0
  6
Continuous
 62
     7
370
     0
100
AcDbLine
 10
78.8096048359
 20
123.5028075634
 30
0.0
 11
78.8096048359
 21
121.0028080849
 31
0.0
  0
LINE
  5
15F
330
1F
100
AcDbEntity
  8
0
  6
Continuous
 62
     7
370
     0
100
AcDbLine
 10
65.9317195836
 20
219.9944703488
 30
0.0
 11
74.9317191962
 21
219.9944703488
 31
0.0
  0
LINE
  5
160
330
1F
100
AcDbEntity
  8
0
  6
Continuous
 62
     7
370
     0
100
AcDbLine
 10
74.9317191962
 20
219.9944703488
 30
0.0
 11
74.9317191962
 21
221.1944757609
 31
0.0
  0
LINE
  5
161
330
1F
100
AcDbEntity
  8
0
  6
Continuous
 62
     7
370
     0
100
AcDbLine
 10
74.9317191962
 20
221.1944757609
 30
0.0
 11
86.9317174379
 21
221.1944757609
 31
0.0
  0
LINE
  5
162
330
1F
100
AcDbEntity
  8
0
  6
Continuous
 62
     7
370
     0
100
AcDbLine
 10
86.9317174379
 20
221.1944757609
 30
0.0
 11
86.9317174379
 21
219.9944703488
 31
0.0
  0
LINE
  5
163
330
1F
100
AcDbEntity
  8
0
  6
Continuous
 62
     7
370
     0
100
AcDbLine
 10
86.9317174379
 20
219.9944703488
 30
0.0
 11
95.9317170504
 21
219.9944703488
 31
0.0
  0
LINE
  5
164
330
1F
100
AcDbEntity
  8
0
  6
Continuous
 62
     7
370
     0
100
AcDbLine
 10
95.9317170504
 20
219.9944703488
 30
0.0
 11
97.731717718
 21
218.1944771318
 31
0.0
  0
LINE
  5
165
330
1F
100
AcDbEntity
  8
0
  6
Continuous
 62
     7
370
     0
100
AcDbLine
 10
97.731717718
 20
218.1944771318
 30
0.0
 11
64.1317189161
 21
218.1944771318
 31
0.0
  0
LINE
  5
166
330
1F
100
AcDbEntity
  8
0
  6
Continuous
 62
     7
370
     0
100
AcDbLine
 10
64.1317189161
 20
218.1944771318
 30
0.0
 11
65.9317195836
 21
219.9944703488
 31
0.0
  0
LINE
  5
167
330
1F
100
AcDbEntity
  8
0
  6
Continuous
 62
     7
370
     0
100
AcDbLine
 10
60.9317169014
 20
214.9944751172
 30
0.0
 11
60.9317169014
 21
151.0028074144
 31
0.0
  0
LINE
  5
168
330
1F
100
AcDbEntity
  8
0
  6
Continuous
 62
     7
370
     0
100
AcDbLine
 10
100.9317160074
 20
214.9944751172
 30
0.0
 11
97.731717718
 21
218.1944771318
 31
0.0
  0
LINE
  5
169
330
1F
100
AcDbEntity
  8
0
  6
Continuous
 62
     7
370
     0
100
AcDbLine
 10
100.9317160074
 20
151.0028074144
 30
0.0
 11
100.9317160074
 21
214.9944751172
 31
0.0
  0
LINE
  5
16A
330
1F
100
AcDbEntity
  8
0
  6
Continuous
 62
     7
370
     0
100
AcDbLine
 10
80.9317164544
 20
151.0028074144
 30
0.0
 11
100.9317160074
 21
151.0028074144
 31
0.0
  0
LINE
  5
16B
330
1F
100
AcDbEntity
  8
0
  6
Continuous
 62
     7
370
     0
100
AcDbLine
 10
60.9317169014
 20
151.0028074144
 30
0.0
 11
80.9317164544
 21
151.0028074144
 31
0.0
  0
CIRCLE
  5
16C
330
1F
100
AcDbEntity
  8
0
  6
Continuous
 62
     7
370
     0
100
AcDbCircle
 10
64.9317176516
 20
201.997934869
 30
0.0
 40
3.0
  0
CIRCLE
  5
16D
330
1F
100
AcDbEntity
  8
0
  6
Continuous
 62
     7
370
     0
100
AcDbCircle
 10
96.9317176516
 20
201.997934869
 30
0.0
 40
3.0
  0
CIRCLE
  5
16E
330
1F
100
AcDbEntity
  8
0
  6
Continuous
 62
     7
370
     0
100
AcDbCircle
 10
64.9317176516
 20
156.002807289
 30
0.0
 40
3.249999999999972
  0
CIRCLE
  5
16F
330
1F
100
AcDbEntity
  8
0
  6
Continuous
 62
     7
370
     0
100
AcDbCircle
 10
80.9317176516
 20
199.002807289
 30
0.0
 40
3.25
  0
CIRCLE
  5
170
330
1F
100
AcDbEntity
  8
0
  6
Continuous
 62
     7
370
     0
100
AcDbCircle
 10
96.9317176516
 20
156.002807289
 30
0.0
 40
3.249999999999972
  0
LINE
  5
171
330
1F
100
AcDbEntity
  8
0
  6
Continuous
 62
     7
370
     0
100
AcDbLine
 10
64.1317189161
 20
218.1944771318
 30
0.0
 11
60.9317169014
 21
214.9944751172
 31
0.0
  0
LINE
  5
172
330
1F
100
AcDbEntity
  8
0
  6
Continuous
 62
     7
370
     0
100
AcDbLine
 10
59.9317148749
 20
151.0028074144
 30
0.0
 11
59.9317148749
 21
213.9944730906
 31
0.0
  0
LINE
  5
173
330
1F
100
AcDbEntity
  8
0
  6
Continuous
 62
     7
370
     0
100
AcDbLine
 10
60.9317169014
 20
151.0028074144
 30
0.0
 11
59.9317148749
 21
151.0028074144
 31
0.0
  0
LINE
  5
174
330
1F
100
AcDbEntity
  8
0
  6
Continuous
 62
     7
370
     0
100
AcDbLine
 10
59.9317148749
 20
213.9944730906
 30
0.0
 11
60.9317169014
 21
214.9944751172
 31
0.0
  0
CIRCLE
  5
175
330
1F
100
AcDbEntity
  8
0
  6
Continuous
 62
     7
370
     0
100
AcDbCircle
 10
64.9317176516
 20
201.997934869
 30
0.0
 40
2.5
  0
LINE
  5
176
330
1F
100
AcDbEntity
  8
0
  6
Continuous
 62
     7
370
     0
100
AcDbLine
 10
101.9317180339
 20
213.9944730906
 30
0.0
 11
101.9317180339
 21
151.0028074144
 31
0.0
  0
LINE
  5
177
330
1F
100
AcDbEntity
  8
0
  6
Continuous
 62
     7
370
     0
100
AcDbLine
 10
101.9317180339
 20
151.0028074144
 30
0.0
 11
100.9317160074
 21
151.0028074144
 31
0.0
  0
LINE
  5
178
330
1F
100
AcDbEntity
  8
0
  6
Continuous
 62
     7
370
     0
100
AcDbLine
 10
100.9317160074
 20
214.9944751172
 30
0.0
 11
101.9317180339
 21
213.9944730906
 31
0.0
  0
CIRCLE
  5
179
330
1F
100
AcDbEntity
  8
0
  6
Continuous
 62
     7
370
     0
100
AcDbCircle
 10
80.9317176516
 20
199.002807289
 30
0.0
 40
2.5
  0
CIRCLE
  5
17A
330
1F
100
AcDbEntity
  8
0
  6
Continuous
 62
     7
370
     0
100
AcDbCircle
 10
96.9317176516
 20
201.997934869
 30
0.0
 40
2.5
  0
CIRCLE
  5
17B
330
1F
100
AcDbEntity
  8
0
  6
Continuous
 62
     7
370
     0
100
AcDbCircle
 10
64.9317176516
 20
156.002807289
 30
0.0
 40
2.499999999999972
  0
CIRCLE
  5
17C
330
1F
100
AcDbEntity
  8
0
  6
Continuous
 62
     7
370
     0
100
AcDbCircle
 10
96.9317176516
 20
156.002807289
 30
0.0
 40
2.5
  0
LINE
  5
17D
330
1F
100
AcDbEntity
  8
0
  6
Continuous
 62
     7
370
     0
100
AcDbLine
 10
80.9317164544
 20
127.0028072058
 30
0.0
 11
90.9317180935
 21
127.0028072058
 31
0.0
  0
LINE
  5
17E
330
1F
100
AcDbEntity
  8
0
  6
Continuous
 62
     7
370
     0
100
AcDbLine
 10
70.9317148153
 20
127.0028072058
 30
0.0
 11
80.9317164544
 21
127.0028072058
 31
0.0
  0
LINE
  5
17F
330
1F
100
AcDbEntity
  8
0
  6
Continuous
 62
     7
370
     0
100
AcDbLine
 10
80.9317164544
 20
126.0028070419
 30
0.0
 11
71.9317168418
 21
126.0028070419
 31
0.0
  0
LINE
  5
180
330
1F
100
AcDbEntity
  8
0
  6
Continuous
 62
     7
370
     0
100
AcDbLine
 10
89.931716067
 20
126.0028070419
 30
0.0
 11
80.9317164544
 21
126.0028070419
 31
0.0
  0
LINE
  5
181
330
1F
100
AcDbEntity
  8
0
  6
Continuous
 62
     7
370
     0
100
AcDbLine
 10
66.4079010908
 20
239.7482244878
 30
0.0
 11
66.4685786191
 21
239.6110443978
 31
0.0
  0
LINE
  5
182
330
1F
100
AcDbEntity
  8
0
  6
Continuous
 62
     7
370
     0
100
AcDbLine
 10
66.7945266191
 20
239.9569450526
 30
0.0
 11
66.8759242121
 21
239.8309557347
 31
0.0
  0
ARC
  5
183
330
1F
100
AcDbEntity
  8
0
  6
Continuous
 62
     7
370
     0
100
AcDbCircle
 10
65.2751753012
 20
242.3088767687
 30
0.0
 40
2.950000000000002
100
AcDbArc
 50
302.8625876759
 51
293.8625876759
  0
LWPOLYLINE
  5
184
330
1F
100
AcDbEntity
  8
0
  6
Continuous
 62
     7
370
     0
100
AcDbPolyline
 90
        9
 70
   128
 43
0.0
 10
64.6024391476
 20
242.366172245
 10
64.5199388687
 20
242.3216326742
 10
64.4376397554
 20
242.2772048621
 10
64.3555865113
 20
242.2329037099
 10
64.2737940375
 20
242.1887515692
 10
64.1922995869
 20
242.1447558908
 10
64.1111329619
 20
242.1009390263
 10
64.0303165141
 20
242.0573084263
 10
63.9498874966
 20
242.0138864426
  0
ARC
  5
185
330
1F
100
AcDbEntity
  8
0
  6
Continuous
 62
     7
370
     0
100
AcDbCircle
 10
73.7784625722
 20
246.8995015385
 30
0.0
 40
10.97588825023987
100
AcDbArc
 50
206.4311781677
 51
210.2948133393
  0
LWPOLYLINE
  5
186
330
1F
100
AcDbEntity
  8
0
  6
Continuous
 62
     7
370
     0
100
AcDbPolyline
 90
        9
 70
   128
 43
0.0
 10
64.3014282409
 20
241.3627205996
 10
64.3818572585
 20
241.4061425833
 10
64.4626662556
 20
241.4497657327
 10
64.5438403312
 20
241.4935900478
 10
64.6253347818
 20
241.5375782756
 10
64.707119805
 20
241.5817378668
 10
64.7891804997
 20
241.6260390191
 10
64.8714721624
 20
241.6704668312
 10
64.9539798919
 20
241.715006402
  0
ARC
  5
187
330
1F
100
AcDbEntity
  8
0
  6
Continuous
 62
     7
370
     0
100
AcDbCircle
 10
65.2751753012
 20
242.3088767687
 30
0.0
 40
0.6751696141507009
100
AcDbArc
 50
241.5932155703
 51
265.1319597814
  0
LWPOLYLINE
  5
188
330
1F
100
AcDbEntity
  8
0
  6
Continuous
 62
     7
370
     0
100
AcDbPolyline
 90
        9
 70
   128
 43
0.0
 10
65.2178794567
 20
241.6361420064
 10
65.2624190275
 20
241.5536417274
 10
65.3068468396
 20
241.4713426141
 10
65.3511479918
 20
241.38928937
 10
65.3953001324
 20
241.3074968962
 10
65.4392958108
 20
241.2260024457
 10
65.4831126753
 20
241.1448358206
 10
65.5267432753
 20
241.0640193729
 10
65.570165259
 20
240.9835903554
  0
ARC
  5
189
330
1F
100
AcDbEntity
  8
0
  6
Continuous
 62
     7
370
     0
100
AcDbCircle
 10
60.6813450815
 20
250.818303254
 30
0.0
 40
10.9828111395804
100
AcDbArc
 50
296.4318979386
 51
300.2930783145
  0
LWPOLYLINE
  5
18A
330
1F
100
AcDbEntity
  8
0
  6
Continuous
 62
     7
370
     0
100
AcDbPolyline
 90
        9
 70
   128
 43
0.0
 10
66.221331102
 20
241.3351236491
 10
66.1779091183
 20
241.4155601172
 10
66.1342859689
 20
241.4963691144
 10
66.0904616538
 20
241.5775357394
 10
66.046473426
 20
241.65903019
 10
66.0023138348
 20
241.7408226638
 10
65.9580126826
 20
241.8228833584
 10
65.9135923211
 20
241.9051750211
 10
65.8690527502
 20
241.9876827507
  0
ARC
  5
18B
330
1F
100
AcDbEntity
  8
0
  6
Continuous
 62
     7
370
     0
100
AcDbCircle
 10
65.2751753012
 20
242.3088767687
 30
0.0
 40
0.6751696141506996
100
AcDbArc
 50
331.5932155703
 51
355.1319597815
  0
LWPOLYLINE
  5
18C
330
1F
100
AcDbEntity
  8
0
  6
Continuous
 62
     7
370
     0
100
AcDbPolyline
 90
        9
 70
   128
 43
0.0
 10
65.9479096953
 20
242.2515823154
 10
66.0304099742
 20
242.2961218862
 10
66.1127090875
 20
242.3405496983
 10
66.1947623316
 20
242.3848508506
 10
66.2765548054
 20
242.4290029912
 10
66.358049256
 20
242.4729986696
 10
66.439215881
 20
242.5168155341
 10
66.5200323287
 20
242.5604461341
 10
66.6004613463
 20
242.6038681178
  0
ARC
  5
18D
330
1F
100
AcDbEntity
  8
0
  6
Continuous
 62
     7
370
     0
100
AcDbCircle
 10
56.7673066816
 20
237.7158891562
 30
0.0
 40
10.98104134348145
100
AcDbArc
 50
26.4315866707
 51
30.2933895823
  0
LWPOLYLINE
  5
18E
330
1F
100
AcDbEntity
  8
0
  6
Continuous
 62
     7
370
     0
100
AcDbPolyline
 90
        9
 70
   128
 43
0.0
 10
66.2489280526
 20
243.2550339608
 10
66.1684915844
 20
243.2116119771
 10
66.0876825873
 20
243.1679888277
 10
66.0065159623
 20
243.1241645126
 10
65.9250215117
 20
243.0801688342
 10
65.8432290379
 20
243.0360166936
 10
65.7611683432
 20
242.9917155413
 10
65.6788766805
 20
242.9472877292
 10
65.596368951
 20
242.9027481584
  0
ARC
  5
18F
330
1F
100
AcDbEntity
  8
0
  6
Continuous
 62
     7
370
     0
100
AcDbCircle
 10
65.2751753012
 20
242.3088767687
 30
0.0
 40
0.6751696141507021
100
AcDbArc
 50
61.5932155703
 51
85.1319597814
  0
LWPOLYLINE
  5
190
330
1F
100
AcDbEntity
  8
0
  6
Continuous
 62
     7
370
     0
100
AcDbPolyline
 90
        9
 70
   128
 43
0.0
 10
65.3324693862
 20
242.981612554
 10
65.2879298154
 20
243.064112833
 10
65.2435020033
 20
243.1464119463
 10
65.1992083017
 20
243.2284651904
 10
65.1550487105
 20
243.3102576642
 10
65.1110530321
 20
243.3917521147
 10
65.0672361676
 20
243.4729187398
 10
65.0236055676
 20
243.5537351875
 10
64.9801910344
 20
243.634164205
  0
ARC
  5
191
330
1F
100
AcDbEntity
  8
0
  6
Continuous
 62
     7
370
     0
100
AcDbCircle
 10
69.8650478675
 20
233.8068763436
 30
0.0
 40
10.9743980696263
100
AcDbArc
 50
116.4306245827
 51
120.2948188331
  0
LWPOLYLINE
  5
192
330
1F
100
AcDbEntity
  8
0
  6
Continuous
 62
     7
370
     0
100
AcDbPolyline
 90
        9
 70
   128
 43
0.0
 10
64.3290177409
 20
243.2826234607
 10
64.3724397246
 20
243.2021944432
 10
64.416062874
 20
243.121385446
 10
64.459887189
 20
243.0402113704
 10
64.5038828675
 20
242.9587169199
 10
64.5480350081
 20
242.8769318967
 10
64.5923361603
 20
242.794871202
 10
64.6367639724
 20
242.7125795393
 10
64.6813035432
 20
242.6300718097
  0
ARC
  5
193
330
1F
100
AcDbEntity
  8
0
  6
Continuous
 62
     7
370
     0
100
AcDbCircle
 10
65.2751753012
 20
242.3088767687
 30
0.0
 40
0.675169614150695
100
AcDbArc
 50
151.5932155703
 51
175.1319597814
  0
CIRCLE
  5
194
330
1F
100
AcDbEntity
  8
0
  6
Continuous
 62
     7
370
     0
100
AcDbCircle
 10
65.2751753012
 20
242.3088767687
 30
0.0
 40
2.674418604651172
  0
ARC
  5
195
330
1F
100
AcDbEntity
  8
0
  6
Continuous
 62
     7
370
     0
100
AcDbCircle
 10
65.2751753012
 20
242.3088767687
 30
0.0
 40
0.5559999999999925
100
AcDbArc
 50
160.0807980576
 51
166.6443772942
  0
SPLINE
  5
196
330
1F
100
AcDbEntity
  8
0
  6
Continuous
 62
     7
370
     0
100
AcDbSpline
210
0.0
220
0.0
230
1.0
 70
    24
 71
     3
 72
     8
 73
     4
 74
     0
 42
0.000000001
 43
0.00000001
 40
0.0
 40
0.0
 40
0.0
 40
0.0
 40
1.0
 40
1.0
 40
1.0
 40
1.0
 10
64.6024411676287
 20
242.36617243526
 30
0.0
 10
64.64424499617907
 20
242.3887404166402
 30
0.0
 10
64.68740773598162
 20
242.4120420122586
 30
0.0
 10
64.734212275553
 20
242.4373096495585
 30
0.0
  0
SPLINE
  5
197
330
1F
100
AcDbEntity
  8
0
  6
Continuous
 62
     7
370
     0
100
AcDbSpline
210
0.0
220
0.0
230
1.0
 70
    24
 71
     3
 72
     8
 73
     4
 74
     0
 42
0.000000001
 43
0.00000001
 40
0.0
 40
0.0
 40
0.0
 40
0.0
 40
1.0
 40
1.0
 40
1.0
 40
1.0
 10
64.68130134268131
 20
242.6300741056505
 30
0.0
 10
64.70386932406154
 20
242.5882702771001
 30
0.0
 10
64.72717091967998
 20
242.5451075372976
 30
0.0
 10
64.75243855697984
 20
242.4983029977262
 30
0.0
  0
ARC
  5
198
330
1F
100
AcDbEntity
  8
0
  6
Continuous
 62
     7
370
     0
100
AcDbCircle
 10
65.2751753012
 20
242.3088767687
 30
0.0
 40
0.5560000000000023
100
AcDbArc
 50
70.0807980576
 51
76.6443772942
  0
SPLINE
  5
199
330
1F
100
AcDbEntity
  8
0
  6
Continuous
 62
     7
370
     0
100
AcDbSpline
210
0.0
220
0.0
230
1.0
 70
    24
 71
     3
 72
     8
 73
     4
 74
     0
 42
0.000000001
 43
0.00000001
 40
0.0
 40
0.0
 40
0.0
 40
0.0
 40
1.0
 40
1.0
 40
1.0
 40
1.0
 10
65.59637263815782
 20
242.9027507272001
 30
0.0
 10
65.55456880960745
 20
242.8801827458199
 30
0.0
 10
65.51140606980489
 20
242.8568811502014
 30
0.0
 10
65.46460153023351
 20
242.8316135129016
 30
0.0
  0
SPLINE
  5
19A
330
1F
100
AcDbEntity
  8
0
  6
Continuous
 62
     7
370
     0
100
AcDbSpline
210
0.0
220
0.0
230
1.0
 70
    24
 71
     3
 72
     8
 73
     4
 74
     0
 42
0.000000001
 43
0.00000001
 40
0.0
 40
0.0
 40
0.0
 40
0.0
 40
1.0
 40
1.0
 40
1.0
 40
1.0
 10
65.3324709677673
 20
242.9816109022527
 30
0.0
 10
65.35503894914753
 20
242.9398070737024
 30
0.0
 10
65.37834054476596
 20
242.8966443338998
 30
0.0
 10
65.40360818206584
 20
242.8498397943284
 30
0.0
  0
SPLINE
  5
19B
330
1F
100
AcDbEntity
  8
0
  6
Continuous
 62
     7
370
     0
100
AcDbSpline
210
0.0
220
0.0
230
1.0
 70
    24
 71
     3
 72
     8
 73
     4
 74
     0
 42
0.000000001
 43
0.00000001
 40
0.0
 40
0.0
 40
0.0
 40
0.0
 40
1.0
 40
1.0
 40
1.0
 40
1.0
 10
65.86904925970745
 20
241.9876794317236
 30
0.0
 10
65.84648127832722
 20
242.029483260274
 30
0.0
 10
65.82317968270878
 20
242.0726460000766
 30
0.0
 10
65.7979120454089
 20
242.1194505396479
 30
0.0
  0
ARC
  5
19C
330
1F
100
AcDbEntity
  8
0
  6
Continuous
 62
     7
370
     0
100
AcDbCircle
 10
65.2751753012
 20
242.3088767687
 30
0.0
 40
0.5560000000000181
100
AcDbArc
 50
340.0807980576
 51
346.6443772942
  0
SPLINE
  5
19D
330
1F
100
AcDbEntity
  8
0
  6
Continuous
 62
     7
370
     0
100
AcDbSpline
210
0.0
220
0.0
230
1.0
 70
    24
 71
     3
 72
     8
 73
     4
 74
     0
 42
0.000000001
 43
0.00000001
 40
0.0
 40
0.0
 40
0.0
 40
0.0
 40
1.0
 40
1.0
 40
1.0
 40
1.0
 10
65.94790943476006
 20
242.2515811021141
 30
0.0
 10
65.90610560620969
 20
242.2290131207339
 30
0.0
 10
65.86294286640714
 20
242.2057115251155
 30
0.0
 10
65.81613832683576
 20
242.1804438878156
 30
0.0
  0
ARC
  5
19E
330
1F
100
AcDbEntity
  8
0
  6
Continuous
 62
     7
370
     0
100
AcDbCircle
 10
65.2751753012
 20
242.3088767687
 30
0.0
 40
0.5560000000000023
100
AcDbArc
 50
250.0807980576
 51
256.6443772942
  0
SPLINE
  5
19F
330
1F
100
AcDbEntity
  8
0
  6
Continuous
 62
     7
370
     0
100
AcDbSpline
210
0.0
220
0.0
230
1.0
 70
    24
 71
     3
 72
     8
 73
     4
 74
     0
 42
0.000000001
 43
0.00000001
 40
0.0
 40
0.0
 40
0.0
 40
0.0
 40
1.0
 40
1.0
 40
1.0
 40
1.0
 10
65.21787963462144
 20
241.6361426351214
 30
0.0
 10
65.19531165324122
 20
241.6779464636717
 30
0.0
 10
65.1720100576228
 20
241.7211092034743
 30
0.0
 10
65.14674242032292
 20
241.7679137430457
 30
0.0
  0
SPLINE
  5
1A0
330
1F
100
AcDbEntity
  8
0
  6
Continuous
 62
     7
370
     0
100
AcDbSpline
210
0.0
220
0.0
230
1.0
 70
    24
 71
     3
 72
     8
 73
     4
 74
     0
 42
0.000000001
 43
0.00000001
 40
0.0
 40
0.0
 40
0.0
 40
0.0
 40
1.0
 40
1.0
 40
1.0
 40
1.0
 10
64.95397796423094
 20
241.715002810174
 30
0.0
 10
64.99578179278132
 20
241.7375707915542
 30
0.0
 10
65.03894453258387
 20
241.7608723871726
 30
0.0
 10
65.08574907215525
 20
241.7861400244725
 30
0.0
  0
LINE
  5
1A1
330
1F
100
AcDbEntity
  8
0
  6
Continuous
 62
     7
370
     0
100
AcDbLine
 10
64.869914991
 20
242.6895348935
 30
0.0
 11
64.6990135733
 21
242.597274354
 31
0.0
  0
LINE
  5
1A2
330
1F
100
AcDbEntity
  8
0
  6
Continuous
 62
     7
370
     0
100
AcDbLine
 10
65.3501794163
 20
242.9488076477
 30
0.0
 11
65.179270548
 21
242.8565471081
 31
0.0
  0
ELLIPSE
  5
1A3
330
1F
100
AcDbEntity
  8
0
  6
Continuous
 62
     7
370
     0
100
AcDbEllipse
 10
65.242415641
 20
242.3695591662
 30
0.0
 11
-0.2335779800397404
 21
0.43266846361675
 31
0.0
210
0.0
220
0.0
230
1.0
 40
0.9901159119
 41
5.913771593002355
 42
6.652599021355838
  0
LINE
  5
1A4
330
1F
100
AcDbEntity
  8
0
  6
Continuous
 62
     7
370
     0
100
AcDbLine
 10
64.8945168082
 20
241.9036178498
 30
0.0
 11
64.9867773477
 21
241.7327089815
 31
0.0
  0
LINE
  5
1A5
330
1F
100
AcDbEntity
  8
0
  6
Continuous
 62
     7
370
     0
100
AcDbLine
 10
64.635244054
 20
242.3838822751
 30
0.0
 11
64.7275120441
 21
242.2129734068
 31
0.0
  0
ELLIPSE
  5
1A6
330
1F
100
AcDbEntity
  8
0
  6
Continuous
 62
     7
370
     0
100
AcDbEllipse
 10
65.2144929037
 20
242.2761171085
 30
0.0
 11
0.4326684636166789
 21
0.2335779800399394
 31
0.0
210
0.0
220
0.0
230
1.0
 40
0.9901159119
 41
2.772178939412077
 42
3.511006367765705
  0
LINE
  5
1A7
330
1F
100
AcDbEntity
  8
0
  6
Continuous
 62
     7
370
     0
100
AcDbLine
 10
65.6558320347
 20
242.7141367106
 30
0.0
 11
65.5635714952
 21
242.8850455789
 31
0.0
  0
LINE
  5
1A8
330
1F
100
AcDbEntity
  8
0
  6
Continuous
 62
     7
370
     0
100
AcDbLine
 10
65.9151047889
 20
242.2338722853
 30
0.0
 11
65.8228442494
 21
242.4047811536
 31
0.0
  0
ELLIPSE
  5
1A9
330
1F
100
AcDbEntity
  8
0
  6
Continuous
 62
     7
370
     0
100
AcDbEllipse
 10
65.3358576987
 20
242.3416364289
 30
0.0
 11
0.4326684636170909
 21
0.2335779800391151
 31
0.0
210
0.0
220
0.0
230
1.0
 40
0.9901159119
 41
5.913771593003736
 42
6.652599021357272
  0
LINE
  5
1AA
330
1F
100
AcDbEntity
  8
0
  6
Continuous
 62
     7
370
     0
100
AcDbLine
 10
65.6804338519
 20
241.9282196669
 30
0.0
 11
65.8513427202
 21
242.0204802065
 31
0.0
  0
LINE
  5
1AB
330
1F
100
AcDbEntity
  8
0
  6
Continuous
 62
     7
370
     0
100
AcDbLine
 10
65.2001694266
 20
241.6689469127
 30
0.0
 11
65.3710782949
 21
241.7612074523
 31
0.0
  0
ELLIPSE
  5
1AC
330
1F
100
AcDbEntity
  8
0
  6
Continuous
 62
     7
370
     0
100
AcDbEllipse
 10
65.3079349614
 20
242.2481943712
 30
0.0
 11
-0.2335779800393141
 21
0.4326684636170057
 31
0.0
210
0.0
220
0.0
230
1.0
 40
0.9901159119
 41
2.772178939413511
 42
3.511006367767095
  0
CIRCLE
  5
1AD
330
1F
100
AcDbEntity
  8
0
  6
Continuous
 62
     7
370
     0
100
AcDbCircle
 10
65.2751753012
 20
242.3088767687
 30
0.0
 40
2.799999999999995
  0
ARC
  5
1AE
330
1F
100
AcDbEntity
  8
0
  6
Continuous
 62
     7
370
     0
100
AcDbCircle
 10
65.2751753012
 20
242.3088767687
 30
0.0
 40
0.5560000000000002
100
AcDbArc
 50
99.9323001484
 51
136.7928752034
  0
ARC
  5
1AF
330
1F
100
AcDbEntity
  8
0
  6
Continuous
 62
     7
370
     0
100
AcDbCircle
 10
65.2751753012
 20
242.3088767687
 30
0.0
 40
0.5560000000000119
100
AcDbArc
 50
9.9323001484
 51
46.7928752034
  0
ARC
  5
1B0
330
1F
100
AcDbEntity
  8
0
  6
Continuous
 62
     7
370
     0
100
AcDbCircle
 10
65.2751753012
 20
242.3088767687
 30
0.0
 40
0.5560000000000112
100
AcDbArc
 50
189.9323001484
 51
226.7928752034
  0
ARC
  5
1B1
330
1F
100
AcDbEntity
  8
0
  6
Continuous
 62
     7
370
     0
100
AcDbCircle
 10
65.2751753012
 20
242.3088767687
 30
0.0
 40
0.5560000000000119
100
AcDbArc
 50
279.9323001484
 51
316.7928752034
  0
ARC
  5
1B2
330
1F
100
AcDbEntity
  8
0
  6
Continuous
 62
     7
370
     0
100
AcDbCircle
 10
65.2751753012
 20
242.3088767687
 30
0.0
 40
0.5560000000000119
100
AcDbArc
 50
256.6443772942
 51
279.9323001484
  0
ARC
  5
1B3
330
1F
100
AcDbEntity
  8
0
  6
Continuous
 62
     7
370
     0
100
AcDbCircle
 10
65.2751753012
 20
242.3088767687
 30
0.0
 40
0.5560000000000112
100
AcDbArc
 50
226.7928752034
 51
250.0807980576
  0
ARC
  5
1B4
330
1F
100
AcDbEntity
  8
0
  6
Continuous
 62
     7
370
     0
100
AcDbCircle
 10
65.2751753012
 20
242.3088767687
 30
0.0
 40
0.5559999999999979
100
AcDbArc
 50
166.6443772942
 51
189.9323001484
  0
ARC
  5
1B5
330
1F
100
AcDbEntity
  8
0
  6
Continuous
 62
     7
370
     0
100
AcDbCircle
 10
65.2751753012
 20
242.3088767687
 30
0.0
 40
0.5560000000000002
100
AcDbArc
 50
136.7928752034
 51
160.0807980576
  0
ARC
  5
1B6
330
1F
100
AcDbEntity
  8
0
  6
Continuous
 62
     7
370
     0
100
AcDbCircle
 10
65.2751753012
 20
242.3088767687
 30
0.0
 40
0.556000000000001
100
AcDbArc
 50
76.6443772942
 51
99.9323001484
  0
ARC
  5
1B7
330
1F
100
AcDbEntity
  8
0
  6
Continuous
 62
     7
370
     0
100
AcDbCircle
 10
65.2751753012
 20
242.3088767687
 30
0.0
 40
0.5560000000000023
100
AcDbArc
 50
46.7928752034
 51
70.0807980576
  0
ARC
  5
1B8
330
1F
100
AcDbEntity
  8
0
  6
Continuous
 62
     7
370
     0
100
AcDbCircle
 10
65.2751753012
 20
242.3088767687
 30
0.0
 40
0.5560000000000181
100
AcDbArc
 50
346.6443772942
 51
9.9323001484
  0
ARC
  5
1B9
330
1F
100
AcDbEntity
  8
0
  6
Continuous
 62
     7
370
     0
100
AcDbCircle
 10
65.2751753012
 20
242.3088767687
 30
0.0
 40
0.5560000000000118
100
AcDbArc
 50
316.7928752034
 51
340.0807980576
  0
LINE
  5
1BA
330
1F
100
AcDbEntity
  8
0
  6
Continuous
 62
     7
370
     0
100
AcDbLine
 10
90.5136548404
 20
232.6803131609
 30
0.0
 11
95.4710662786
 21
262.2678800134
 31
0.0
  0
LINE
  5
1BB
330
1F
100
AcDbEntity
  8
0
  6
Continuous
 62
     7
370
     0
100
AcDbLine
 10
95.4710662786
 20
262.2678800134
 30
0.0
 11
92.019186211
 21
262.8462462334
 31
0.0
  0
LINE
  5
1BC
330
1F
100
AcDbEntity
  8
0
  6
Continuous
 62
     7
370
     0
100
AcDbLine
 10
87.0617747728
 20
233.2586793809
 30
0.0
 11
90.5136548404
 21
232.6803131609
 31
0.0
  0
LINE
  5
1BD
330
1F
100
AcDbEntity
  8
0
  6
Continuous
 62
     7
370
     0
100
AcDbLine
 10
92.019186211
 20
262.8462462334
 30
0.0
 11
87.0617747728
 21
233.2586793809
 31
0.0
  0
LWPOLYLINE
  5
1BE
330
1F
100
AcDbEntity
  8
0
  6
Continuous
 62
     7
370
     0
100
AcDbPolyline
 90
        4
 70
   128
 43
0.0
 10
96.0680477742
 20
262.1678559689
 10
96.489776713
 20
261.853970459
 10
97.0005214635
 20
261.4738269357
 10
97.5741155867
 20
261.0469086675
  0
LWPOLYLINE
  5
1BF
330
1F
100
AcDbEntity
  8
0
  6
Continuous
 62
     7
370
     0
100
AcDbPolyline
 90
        4
 70
   128
 43
0.0
 10
97.5741155867
 20
261.0469086675
 10
97.6870552126
 20
260.2764962821
 10
97.8015110318
 20
259.4957424907
 10
97.9167268101
 20
258.7098030953
  0
LINE
  5
1C0
330
1F
100
AcDbEntity
  8
0
  6
Continuous
 62
     7
370
     0
100
AcDbLine
 10
97.9167268101
 20
258.7098030953
 30
0.0
 11
93.4724145059
 21
232.1845738797
 31
0.0
  0
LWPOLYLINE
  5
1C1
330
1F
100
AcDbEntity
  8
0
  6
Continuous
 62
     7
370
     0
100
AcDbPolyline
 90
        9
 70
   128
 43
0.0
 10
95.4710662786
 20
262.2678800134
 10
95.480722231
 20
262.2662632374
 10
95.5096230332
 20
262.2614203601
 10
95.5575786952
 20
262.2533886342
 10
95.624280018
 20
262.2422127633
 10
95.7092874173
 20
262.2279672532
 10
95.8120532755
 20
262.2107489614
 10
95.9318995897
 20
262.1906696467
 10
96.0680477742
 20
262.1678559689
  0
LWPOLYLINE
  5
1C2
330
1F
100
AcDbEntity
  8
0
  6
Continuous
 62
     7
370
     0
100
AcDbPolyline
 90
        9
 70
   128
 43
0.0
 10
93.4724145059
 20
232.1845738797
 10
92.8951882247
 20
232.2812898664
 10
92.3401460472
 20
232.3742880134
 10
91.8286152605
 20
232.459992042
 10
91.3802542213
 20
232.5351162462
 10
91.0122961227
 20
232.5967698006
 10
90.7388784412
 20
232.6425759701
 10
90.5705064956
 20
232.6707913189
 10
90.5136548404
 20
232.6803131609
  0
LINE
  5
1C3
330
1F
100
AcDbEntity
  8
0
  6
Continuous
 62
     7
370
     0
100
AcDbLine
 10
103.5092741672
 20
165.6107696353
 30
0.0
 11
107.8056961719
 21
191.2533267049
 31
0.0
  0
LINE
  5
1C4
330
1F
100
AcDbEntity
  8
0
  6
Continuous
 62
     7
370
     0
100
AcDbLine
 10
101.9317180339
 20
165.8750901578
 30
0.0
 11
103.5092741672
 21
165.6107696353
 31
0.0
  0
ARC
  5
1C5
330
1F
100
AcDbEntity
  8
0
  6
Continuous
 62
     7
370
     0
100
AcDbCircle
 10
91.7187021773
 20
219.2971969823
 30
0.0
 40
3.000000000000003
100
AcDbArc
 50
13.4399224121
 51
80.4884137372
  0
LINE
  5
1C6
330
1F
100
AcDbEntity
  8
0
  6
Continuous
 62
     7
370
     0
100
AcDbLine
 10
86.3955550317
 20
223.2309131531
 30
0.0
 11
92.2144435767
 21
222.255952528
 31
0.0
  0
LINE
  5
1C7
330
1F
100
AcDbEntity
  8
0
  6
Continuous
 62
     7
370
     0
100
AcDbLine
 10
85.5745494787
 20
224.382407835
 30
0.0
 11
86.3955550317
 21
223.2309131531
 31
0.0
  0
LINE
  5
1C8
330
1F
100
AcDbEntity
  8
0
  6
Continuous
 62
     7
370
     0
100
AcDbLine
 10
107.8056961719
 20
191.2533267049
 30
0.0
 11
97.9167268101
 21
258.7098030953
 31
0.0
  0
LINE
  5
1C9
330
1F
100
AcDbEntity
  8
0
  6
Continuous
 62
     7
370
     0
100
AcDbLine
 10
87.0617747728
 20
233.2586793809
 30
0.0
 11
85.5745494787
 21
224.382407835
 31
0.0
  0
LINE
  5
1CA
330
1F
100
AcDbEntity
  8
0
  6
Continuous
 62
     7
370
     0
100
AcDbLine
 10
103.5092741672
 20
165.6107696353
 30
0.0
 11
101.9317180339
 21
164.4859927355
 31
0.0
  0
LINE
  5
1CB
330
1F
100
AcDbEntity
  8
0
  6
Continuous
 62
     7
370
     0
100
AcDbLine
 10
60.1655885998
 20
257.6757966189
 30
0.0
 11
57.995837969
 21
257.3122529893
 31
0.0
  0
LINE
  5
1CC
330
1F
100
AcDbEntity
  8
0
  6
Continuous
 62
     7
370
     0
100
AcDbLine
 10
60.1655885998
 20
257.6757966189
 30
0.0
 11
61.1570746128
 21
251.7582847385
 31
0.0
  0
LINE
  5
1CD
330
1F
100
AcDbEntity
  8
0
  6
Continuous
 62
     7
370
     0
100
AcDbLine
 10
60.7583418909
 20
237.4963237552
 30
0.0
 11
60.5930954639
 21
238.48257201
 31
0.0
  0
LINE
  5
1CE
330
1F
100
AcDbEntity
  8
0
  6
Continuous
 62
     7
370
     0
100
AcDbLine
 10
60.7583418909
 20
237.4963237552
 30
0.0
 11
58.0461442891
 21
237.0418904929
 31
0.0
  0
LINE
  5
1CF
330
1F
100
AcDbEntity
  8
0
  6
Continuous
 62
     7
370
     0
100
AcDbLine
 10
58.0461442891
 20
237.0418904929
 30
0.0
 11
57.8808978621
 21
238.0281461982
 31
0.0
  0
LWPOLYLINE
  5
1D0
330
1F
100
AcDbEntity
  8
0
  6
Continuous
 62
     7
370
     0
100
AcDbPolyline
 90
        7
 70
   128
 43
0.0
 10
62.7308458511
 20
237.8268166094
 10
62.7107665364
 20
237.8234489469
 10
62.5525907103
 20
237.7969472317
 10
62.2490615074
 20
237.7460895686
 10
61.8247583929
 20
237.6749961285
 10
61.3140583459
 20
237.589433661
 10
60.7583418909
 20
237.4963237552
  0
LWPOLYLINE
  5
1D1
330
1F
100
AcDbEntity
  8
0
  6
Continuous
 62
     7
370
     0
100
AcDbPolyline
 90
       10
 70
   128
 43
0.0
 10
63.014638466
 20
232.8046708016
 10
62.9283979956
 20
232.7902166753
 10
62.6800701443
 20
232.7486126332
 10
62.2996062461
 20
232.6848654656
 10
61.8329018775
 20
232.6066641717
 10
61.3362461749
 20
232.5234560876
 10
60.8695418064
 20
232.4452547936
 10
60.4890779082
 20
232.381507626
 10
60.2407500569
 20
232.339903584
 10
60.1545095865
 20
232.3254494576
  0
LINE
  5
1D2
330
1F
100
AcDbEntity
  8
0
  6
Continuous
 62
     7
370
     0
100
AcDbLine
 10
62.5406623308
 20
223.84157764
 30
0.0
 11
64.0244007532
 21
221.31355094
 31
0.0
  0
LINE
  5
1D3
330
1F
100
AcDbEntity
  8
0
  6
Continuous
 62
     7
370
     0
100
AcDbLine
 10
64.0068322841
 20
229.4740675597
 30
0.0
 11
62.5406623308
 21
223.84157764
 31
0.0
  0
ARC
  5
1D4
330
1F
100
AcDbEntity
  8
0
  6
Continuous
 62
     7
370
     0
100
AcDbCircle
 10
54.3293321108
 20
231.9931825715
 30
0.0
 40
10.00000000000001
100
AcDbArc
 50
345.4093517628
 51
9.5115862628
  0
LINE
  5
1D5
330
1F
100
AcDbEntity
  8
0
  6
Continuous
 62
     7
370
     0
100
AcDbLine
 10
63.3052856151
 20
238.9370052724
 30
0.0
 11
64.1918525521
 21
233.6456550865
 31
0.0
  0
LINE
  5
1D6
330
1F
100
AcDbEntity
  8
0
  6
Continuous
 62
     7
370
     0
100
AcDbLine
 10
67.7434176628
 20
239.6806179194
 30
0.0
 11
63.3052856151
 21
238.9370052724
 31
0.0
  0
ARC
  5
1D7
330
1F
100
AcDbEntity
  8
0
  6
Continuous
 62
     7
370
     0
100
AcDbCircle
 10
67.4129267602
 20
241.6531186582
 30
0.0
 40
2.000000000000019
100
AcDbArc
 50
279.5115862628
 51
9.5115862628
  0
LINE
  5
1D8
330
1F
100
AcDbEntity
  8
0
  6
Continuous
 62
     7
370
     0
100
AcDbLine
 10
67.6503375594
 20
252.3392586617
 30
0.0
 11
69.3854287688
 21
241.9836147337
 31
0.0
  0
ARC
  5
1D9
330
1F
100
AcDbEntity
  8
0
  6
Continuous
 62
     7
370
     0
100
AcDbCircle
 10
65.6778327603
 20
252.0087668181
 30
0.0
 40
1.999999999999989
100
AcDbArc
 50
9.5115862628
 51
99.5115862628
  0
LINE
  5
1DA
330
1F
100
AcDbEntity
  8
0
  6
Continuous
 62
     7
370
     0
100
AcDbLine
 10
63.8679609124
 20
253.7334038524
 30
0.0
 11
65.3473407451
 21
253.9812697677
 31
0.0
  0
LINE
  5
1DB
330
1F
100
AcDbEntity
  8
0
  6
Continuous
 62
     7
370
     0
100
AcDbLine
 10
62.7112284724
 20
260.6371639876
 30
0.0
 11
63.8679609124
 21
253.7334038524
 31
0.0
  0
LINE
  5
1DC
330
1F
100
AcDbEntity
  8
0
  6
Continuous
 62
     7
370
     0
100
AcDbLine
 10
63.5322377507
 20
261.78866612
 30
0.0
 11
62.7112284724
 21
260.6371639876
 31
0.0
  0
LINE
  5
1DD
330
1F
100
AcDbEntity
  8
0
  6
Continuous
 62
     7
370
     0
100
AcDbLine
 10
70.3373745505
 20
262.9288731723
 30
0.0
 11
63.5322377507
 21
261.78866612
 31
0.0
  0
LINE
  5
1DE
330
1F
100
AcDbEntity
  8
0
  6
Continuous
 62
     7
370
     0
100
AcDbLine
 10
76.7820112828
 20
224.4650347738
 30
0.0
 11
70.3373745505
 21
262.9288731723
 31
0.0
  0
LINE
  5
1DF
330
1F
100
AcDbEntity
  8
0
  6
Continuous
 62
     7
370
     0
100
AcDbLine
 10
75.9610057298
 20
223.3135326414
 30
0.0
 11
76.7820112828
 21
224.4650347738
 31
0.0
  0
LINE
  5
1E0
330
1F
100
AcDbEntity
  8
0
  6
Continuous
 62
     7
370
     0
100
AcDbLine
 10
64.0244007532
 20
221.31355094
 30
0.0
 11
75.9610057298
 21
223.3135326414
 31
0.0
  0
CIRCLE
  5
1E1
330
1F
100
AcDbEntity
  8
0
  6
Continuous
 62
     7
370
     0
100
AcDbCircle
 10
73.3435151944
 20
227.4377002393
 30
0.0
 40
1.499999999999979
  0
CIRCLE
  5
1E2
330
1F
100
AcDbEntity
  8
0
  6
Continuous
 62
     7
370
     0
100
AcDbCircle
 10
67.0213523747
 20
257.3035713514
 30
0.0
 40
0.9999999999999664
  0
LINE
  5
1E3
330
1F
100
AcDbEntity
  8
0
  6
Continuous
 62
     7
370
     0
100
AcDbLine
 10
64.1158342782
 20
252.2540240197
 30
0.0
 11
63.8679609124
 21
253.7334038524
 31
0.0
  0
ARC
  5
1E4
330
1F
100
AcDbEntity
  8
0
  6
Continuous
 62
     7
370
     0
100
AcDbCircle
 10
70.1447331258
 20
219.2971969823
 30
0.0
 40
3.000000000000008
100
AcDbArc
 50
99.5115862628
 51
166.5600775879
  0
LINE
  5
1E5
330
1F
100
AcDbEntity
  8
0
  6
Continuous
 62
     7
370
     0
100
AcDbLine
 10
58.3541587416
 20
165.6107696353
 30
0.0
 11
59.9317148749
 21
165.8750901578
 31
0.0
  0
LINE
  5
1E6
330
1F
100
AcDbEntity
  8
0
  6
Continuous
 62
     7
370
     0
100
AcDbLine
 10
58.3541587416
 20
165.6107696353
 30
0.0
 11
54.0577367369
 21
191.2533267049
 31
0.0
  0
LINE
  5
1E7
330
1F
100
AcDbEntity
  8
0
  6
Continuous
 62
     7
370
     0
100
AcDbLine
 10
54.0577367369
 20
191.2533267049
 30
0.0
 11
59.9317148749
 21
213.8189746647
 31
0.0
  0
LINE
  5
1E8
330
1F
100
AcDbEntity
  8
0
  6
Continuous
 62
     7
370
     0
100
AcDbLine
 10
59.993480188
 20
214.0562309532
 30
0.0
 11
62.5406623308
 21
223.84157764
 31
0.0
  0
LINE
  5
1E9
330
1F
100
AcDbEntity
  8
0
  6
Continuous
 62
     7
370
     0
100
AcDbLine
 10
58.3541587416
 20
165.6107696353
 30
0.0
 11
59.9317148749
 21
164.4859927355
 31
0.0
  0
ARC
  5
1EA
330
1F
100
AcDbEntity
  8
0
  6
Continuous
 62
     7
370
     0
100
AcDbCircle
 10
70.4031259407
 20
260.8240920871
 30
0.0
 40
1.500000000000012
100
AcDbArc
 50
7.6778621513
 51
88.6380543111
  0
LINE
  5
1EB
330
1F
100
AcDbEntity
  8
0
  6
Continuous
 62
     7
370
     0
100
AcDbLine
 10
71.8896806661
 20
261.0244973211
 30
0.0
 11
75.968206716
 21
230.7710124759
 31
0.0
  0
LINE
  5
1EC
330
1F
100
AcDbEntity
  8
0
  6
Continuous
 62
     7
370
     0
100
AcDbLine
 10
75.968206716
 20
230.7710124759
 30
0.0
 11
76.5621446494
 21
225.7772831826
 31
0.0
  0
LINE
  5
1ED
330
1F
100
AcDbEntity
  8
0
  6
Continuous
 62
     7
370
     0
100
AcDbLine
 10
63.9888540331
 20
253.0118672757
 30
0.0
 11
63.7096062724
 21
252.9786525874
 31
0.0
  0
ARC
  5
1EE
330
1F
100
AcDbEntity
  8
0
  6
Continuous
 62
     7
370
     0
100
AcDbCircle
 10
63.6505505818
 20
253.4751528224
 30
0.0
 40
0.5000000000000012
100
AcDbArc
 50
186.7826884411
 51
276.7826884411
  0
LINE
  5
1EF
330
1F
100
AcDbEntity
  8
0
  6
Continuous
 62
     7
370
     0
100
AcDbLine
 10
63.1540462796
 20
253.416098526
 30
0.0
 11
62.5635281626
 21
258.3811058311
 31
0.0
  0
LINE
  5
1F0
330
1F
100
AcDbEntity
  8
0
  6
Continuous
 62
     7
370
     0
100
AcDbLine
 10
62.9969954912
 20
258.9316068797
 30
0.0
 11
62.5635281626
 21
258.3811058311
 31
0.0
  0
CIRCLE
  5
1F1
330
1F
100
AcDbEntity
  8
0
  6
Continuous
 62
     7
370
     0
100
AcDbCircle
 10
96.9317176516
 20
201.997934869
 30
0.0
 40
2.098076211353312
  0
SPLINE
  5
1F2
330
1F
100
AcDbEntity
  8
0
  6
Continuous
 62
     7
370
     0
100
AcDbSpline
210
0.0
220
0.0
230
1.0
 70
     8
 71
     3
 72
    14
 73
    10
 74
     0
 42
0.000000001
 43
0.00000001
 40
0.0
 40
0.0
 40
0.0
 40
0.0
 40
0.4999999999999982
 40
0.4999999999999982
 40
0.7499999999999991
 40
0.7499999999999991
 40
0.8749999999999996
 40
0.8749999999999996
 40
1.0
 40
1.0
 40
1.0
 40
1.0
 10
72.96374802490544
 20
228.7498748849938
 30
0.0
 10
72.94644090017562
 20
228.7709228546879
 30
0.0
 10
72.92433407824066
 20
228.790249826833
 30
0.0
 10
72.87578878139796
 20
228.8122976564671
 30
0.0
 10
72.85703456496526
 20
228.8186736471959
 30
0.0
 10
72.81966315243626
 20
228.8229721787932
 30
0.0
 10
72.80568580521651
 20
228.823537433119
 30
0.0
 10
72.77189218863681
 20
228.8200590937116
 30
0.0
 10
72.74997758539908
 20
228.8155043804769
 30
0.0
 10
72.72707449362343
 20
228.8051799877683
 30
0.0
  0
ARC
  5
1F3
330
1F
100
AcDbEntity
  8
0
  6
Continuous
 62
     7
370
     0
100
AcDbCircle
 10
73.3435151944
 20
227.4377002393
 30
0.0
 40
1.366025403784435
100
AcDbArc
 50
106.1414033176
 51
73.8585966824
  0
SPLINE
  5
1F4
330
1F
100
AcDbEntity
  8
0
  6
Continuous
 62
     7
370
     0
100
AcDbSpline
210
0.0
220
0.0
230
1.0
 70
     8
 71
     3
 72
    14
 73
    10
 74
     0
 42
0.000000001
 43
0.00000001
 40
0.0
 40
0.0
 40
0.0
 40
0.0
 40
0.124999999999994
 40
0.124999999999994
 40
0.249999999999988
 40
0.249999999999988
 40
0.4999999999999899
 40
0.4999999999999899
 40
1.0
 40
1.0
 40
1.0
 40
1.0
 10
73.9599558951773
 20
228.8051799877683
 30
0.0
 10
73.93719953275416
 20
228.8154382369418
 30
0.0
 10
73.91549872554646
 20
228.8200006644412
 30
0.0
 10
73.8814738757228
 20
228.8235451412974
 30
0.0
 10
73.86744378994558
 20
228.8229678888674
 30
0.0
 10
73.83046258063119
 20
228.8187531984483
 30
0.0
 10
73.81163594439846
 20
228.8124475058202
 30
0.0
 10
73.76271403594633
 20
228.7903156532778
 30
0.0
 10
73.74059688010158
 20
228.7709318437936
 30
0.0
 10
73.72328236389528
 20
228.7498748849939
 30
0.0
  0
LINE
  5
1F5
330
1F
100
AcDbEntity
  8
0
  6
Continuous
 62
     7
370
     0
100
AcDbLine
 10
73.0559945527
 20
228.4804506807
 30
0.0
 11
73.002074701
 21
228.6760135202
 31
0.0
  0
ARC
  5
1F6
330
1F
100
AcDbEntity
  8
0
  6
Continuous
 62
     7
370
     0
100
AcDbCircle
 10
72.8631889637
 20
228.4272894026
 30
0.0
 40
0.2000000000000066
100
AcDbArc
 50
295.8909827371
 51
15.4153010407
  0
ARC
  5
1F7
330
1F
100
AcDbEntity
  8
0
  6
Continuous
 62
     7
370
     0
100
AcDbCircle
 10
73.3435151944
 20
227.4377002393
 30
0.0
 40
0.8999999999999789
100
AcDbArc
 50
115.8909827371
 51
64.1090172629
  0
ARC
  5
1F8
330
1F
100
AcDbEntity
  8
0
  6
Continuous
 62
     7
370
     0
100
AcDbCircle
 10
73.8238414251
 20
228.4272894026
 30
0.0
 40
0.2000000000000066
100
AcDbArc
 50
164.5846989593
 51
244.1090172629
  0
LINE
  5
1F9
330
1F
100
AcDbEntity
  8
0
  6
Continuous
 62
     7
370
     0
100
AcDbLine
 10
73.6849576656
 20
228.6760135202
 30
0.0
 11
73.6310378138
 21
228.4804506807
 31
0.0
  0
ARC
  5
1FA
330
1F
100
AcDbEntity
  8
0
  6
Continuous
 62
     7
370
     0
100
AcDbCircle
 10
73.8777638017
 20
228.6228493546
 30
0.0
 40
0.2000000000000059
100
AcDbArc
 50
140.5705471975
 51
164.5846989593
  0
ARC
  5
1FB
330
1F
100
AcDbEntity
  8
0
  6
Continuous
 62
     7
370
     0
100
AcDbCircle
 10
72.8092665871
 20
228.6228493546
 30
0.0
 40
0.2000000000000185
100
AcDbArc
 50
15.4153010407
 51
39.4294528025
  0
LINE
  5
1FC
330
1F
100
AcDbEntity
  8
0
  6
Continuous
 62
     7
370
     0
100
AcDbLine
 10
58.8220701043
 20
252.3809893636
 30
0.0
 11
57.8305915419
 21
258.298501244
 31
0.0
  0
ARC
  5
1FD
330
1F
100
AcDbEntity
  8
0
  6
Continuous
 62
     7
370
     0
100
AcDbCircle
 10
59.8083246163
 20
252.5462369552
 30
0.0
 40
1.000000000000024
100
AcDbArc
 50
189.5115862628
 51
279.5115862628
  0
LINE
  5
1FE
330
1F
100
AcDbEntity
  8
0
  6
Continuous
 62
     7
370
     0
100
AcDbLine
 10
64.9048358623
 20
252.3862196712
 30
0.0
 11
59.9735722367
 21
251.5599875359
 31
0.0
  0
LINE
  5
1FF
330
1F
100
AcDbEntity
  8
0
  6
Continuous
 62
     7
370
     0
100
AcDbLine
 10
66.286635441
 20
251.4010144977
 30
0.0
 11
64.9048358623
 21
252.3862196712
 31
0.0
  0
LINE
  5
200
330
1F
100
AcDbEntity
  8
0
  6
Continuous
 62
     7
370
     0
100
AcDbLine
 10
66.286635441
 20
251.4010144977
 30
0.0
 11
67.4820214931
 21
244.2665098815
 31
0.0
  0
LINE
  5
201
330
1F
100
AcDbEntity
  8
0
  6
Continuous
 62
     7
370
     0
100
AcDbLine
 10
67.9995909754
 20
241.1774768142
 30
0.0
 11
68.0382520381
 21
240.9467397837
 31
0.0
  0
LINE
  5
202
330
1F
100
AcDbEntity
  8
0
  6
Continuous
 62
     7
370
     0
100
AcDbLine
 10
67.0530468646
 20
239.5649402051
 30
0.0
 11
68.0382520381
 21
240.9467397837
 31
0.0
  0
LINE
  5
203
330
1F
100
AcDbEntity
  8
0
  6
Continuous
 62
     7
370
     0
100
AcDbLine
 10
63.3052856151
 20
238.9370052724
 30
0.0
 11
57.3877737347
 21
237.9455192594
 31
0.0
  0
CIRCLE
  5
204
330
1F
100
AcDbEntity
  8
0
  6
Continuous
 62
     7
370
     0
100
AcDbCircle
 10
58.72867727
 20
246.281704921
 30
0.0
 40
1.750000000000013
  0
LINE
  5
205
330
1F
100
AcDbEntity
  8
0
  6
Continuous
 62
     7
370
     0
100
AcDbLine
 10
57.3877737347
 20
237.9455192594
 30
0.0
 11
54.0828302924
 21
257.6705663113
 31
0.0
  0
LINE
  5
206
330
1F
100
AcDbEntity
  8
0
  6
Continuous
 62
     7
370
     0
100
AcDbLine
 10
57.8305915419
 20
258.298501244
 30
0.0
 11
54.0828302924
 21
257.6705663113
 31
0.0
  0
LINE
  5
207
330
1F
100
AcDbEntity
  8
0
  6
Continuous
 62
     7
370
     0
100
AcDbLine
 10
57.8305915419
 20
258.298501244
 30
0.0
 11
57.7479646031
 21
258.791632822
 31
0.0
  0
ARC
  5
208
330
1F
100
AcDbEntity
  8
0
  6
Continuous
 62
     7
370
     0
100
AcDbCircle
 10
54.5759578461
 20
257.7531878847
 30
0.0
 40
0.5000000000000123
100
AcDbArc
 50
99.5115862628
 51
189.5115862628
  0
LINE
  5
209
330
1F
100
AcDbEntity
  8
0
  6
Continuous
 62
     7
370
     0
100
AcDbLine
 10
57.7479646031
 20
258.791632822
 30
0.0
 11
54.4933349315
 21
258.2463173775
 31
0.0
  0
LINE
  5
20A
330
1F
100
AcDbEntity
  8
0
  6
Continuous
 62
     7
370
     0
100
AcDbLine
 10
82.9346038822
 20
123.5028075634
 30
0.0
 11
82.9346038822
 21
126.0028070419
 31
0.0
  0
LINE
  5
20B
330
1F
100
AcDbEntity
  8
0
  6
Continuous
 62
     7
370
     0
100
AcDbLine
 10
78.8846023802
 20
123.5028075634
 30
0.0
 11
82.9346038822
 21
123.5028075634
 31
0.0
  0
LINE
  5
20C
330
1F
100
AcDbEntity
  8
0
  6
Continuous
 62
     7
370
     0
100
AcDbLine
 10
78.8846023802
 20
126.0028070419
 30
0.0
 11
78.8846023802
 21
123.5028075634
 31
0.0
  0
LINE
  5
20D
330
1F
100
AcDbEntity
  8
0
  6
Continuous
 62
     7
370
     0
100
AcDbLine
 10
84.9596046332
 20
123.5028075634
 30
0.0
 11
84.9596046332
 21
126.0028070419
 31
0.0
  0
LINE
  5
20E
330
1F
100
AcDbEntity
  8
0
  6
Continuous
 62
     7
370
     0
100
AcDbLine
 10
82.9346038822
 20
123.5028075634
 30
0.0
 11
84.9596046332
 21
123.5028075634
 31
0.0
  0
LINE
  5
20F
330
1F
100
AcDbEntity
  8
0
  6
Continuous
 62
     7
370
     0
100
AcDbLine
 10
76.8596016292
 20
123.5028075634
 30
0.0
 11
76.8596016292
 21
126.0028070419
 31
0.0
  0
LINE
  5
210
330
1F
100
AcDbEntity
  8
0
  6
Continuous
 62
     7
370
     0
100
AcDbLine
 10
76.8596016292
 20
123.5028075634
 30
0.0
 11
78.8846023802
 21
123.5028075634
 31
0.0
  0
LINE
  5
211
330
1F
100
AcDbEntity
  8
0
  6
Continuous
 62
     7
370
     0
100
AcDbLine
 10
78.8744435135
 20
121.0028080849
 30
0.0
 11
78.5596043292
 21
121.0028080849
 31
0.0
  0
LINE
  5
212
330
1F
100
AcDbEntity
  8
0
  6
Continuous
 62
     7
370
     0
100
AcDbLine
 10
83.2596019331
 20
121.0028080849
 30
0.0
 11
78.8744435135
 21
121.0028080849
 31
0.0
  0
LINE
  5
213
330
1F
100
AcDbEntity
  8
0
  6
Continuous
 62
     7
370
     0
100
AcDbLine
 10
82.909603459
 20
116.0028072654
 30
0.0
 11
78.9096028034
 21
116.0028072654
 31
0.0
  0
LINE
  5
214
330
1F
100
AcDbEntity
  8
0
  6
Continuous
 62
     7
370
     0
100
AcDbLine
 10
83.2596019331
 20
118.5028067438
 30
0.0
 11
78.5596043292
 21
118.5028067438
 31
0.0
  0
CIRCLE
  5
215
330
1F
100
AcDbEntity
  8
0
  6
Continuous
 62
     7
370
     0
100
AcDbCircle
 10
64.9317176516
 20
201.997934869
 30
0.0
 40
2.098076211353312
  0
SPLINE
  5
216
330
1F
100
AcDbEntity
  8
0
  6
Continuous
 62
     7
370
     0
100
AcDbSpline
210
0.0
220
0.0
230
1.0
 70
     8
 71
     3
 72
    12
 73
     8
 74
     0
 42
0.000000001
 43
0.00000001
 40
0.0
 40
0.0
 40
0.0
 40
0.0
 40
0.2500000000000087
 40
0.2500000000000087
 40
0.5000000000000174
 40
0.5000000000000174
 40
1.0
 40
1.0
 40
1.0
 40
1.0
 10
66.48438382743132
 20
256.4599690877324
 30
0.0
 10
66.51652822564907
 20
256.4395085797906
 30
0.0
 10
66.5524297576515
 20
256.4302211849885
 30
0.0
 10
66.61362256837666
 20
256.4275410121181
 30
0.0
 10
66.6400647037081
 20
256.4331290868446
 30
0.0
 10
66.70738544892954
 20
256.4585808203331
 30
0.0
 10
66.73825610389504
 20
256.4871802024975
 30
0.0
 10
66.75928260365889
 20
256.519409841488
 30
0.0
  0
SPLINE
  5
217
330
1F
100
AcDbEntity
  8
0
  6
Continuous
 62
     7
370
     0
100
AcDbSpline
210
0.0
220
0.0
230
1.0
 70
     8
 71
     3
 72
    12
 73
     8
 74
     0
 42
0.000000001
 43
0.00000001
 40
0.0
 40
0.0
 40
0.0
 40
0.0
 40
0.5
 40
0.5
 40
0.75
 40
0.75
 40
1.0
 40
1.0
 40
1.0
 40
1.0
 10
67.28342214580594
 20
256.519409841488
 30
0.0
 10
67.30444218476488
 20
256.487190105687
 30
0.0
 10
67.33463540506594
 20
256.4589304411545
 30
0.0
 10
67.40249002429906
 20
256.4331407668384
 30
0.0
 10
67.4288532074393
 20
256.4275613500217
 30
0.0
 10
67.49010976334866
 20
256.4301837762958
 30
0.0
 10
67.52619512948111
 20
256.4395204226429
 30
0.0
 10
67.55832092203352
 20
256.4599690877324
 30
0.0
  0
ARC
  5
218
330
1F
100
AcDbEntity
  8
0
  6
Continuous
 62
     7
370
     0
100
AcDbCircle
 10
67.0213523747
 20
257.3035713514
 30
0.0
 40
0.8267949192430958
100
AcDbArc
 50
288.4798247181
 51
251.5201752819
  0
ARC
  5
219
330
1F
100
AcDbEntity
  8
0
  6
Continuous
 62
     7
370
     0
100
AcDbCircle
 10
67.0213523747
 20
257.3035713514
 30
0.0
 40
0.5999999999999659
100
AcDbArc
 50
302.4775121859
 51
237.5224878141
  0
ARC
  5
21A
330
1F
100
AcDbEntity
  8
0
  6
Continuous
 62
     7
370
     0
100
AcDbCircle
 10
66.5917775369
 20
256.6286895405
 30
0.0
 40
0.2000000000000191
100
AcDbArc
 50
342.0
 51
57.5224878141
  0
ARC
  5
21B
330
1F
100
AcDbEntity
  8
0
  6
Continuous
 62
     7
370
     0
100
AcDbCircle
 10
67.4509272126
 20
256.6286895405
 30
0.0
 40
0.2000000000000191
100
AcDbArc
 50
122.4775121859
 51
198.0
  0
ARC
  5
21C
330
1F
100
AcDbEntity
  8
0
  6
Continuous
 62
     7
370
     0
100
AcDbCircle
 10
66.5917775369
 20
256.6286895405
 30
0.0
 40
0.2000000000000191
100
AcDbArc
 50
326.8797162241
 51
342.0
  0
ARC
  5
21D
330
1F
100
AcDbEntity
  8
0
  6
Continuous
 62
     7
370
     0
100
AcDbCircle
 10
67.4509272126
 20
256.6286895405
 30
0.0
 40
0.2000000000000191
100
AcDbArc
 50
198.0
 51
213.1202837759
  0
DIMENSION
  5
21E
330
1F
100
AcDbEntity
  8
0
  6
Continuous
 62
     7
370
     0
100
AcDbDimension
  2
_D_5
 10
70.9317176516
 20
108.8968992229
 30
0.0
 11
80.9317176516
 21
108.8968992229
 31
0.0
 70
   160
  1
%%c<>
 71
     2
 42
-1.0
  3
SLDDIMSTYLE0
100
AcDbAlignedDimension
 13
90.9317176516
 23
127.002807289
 33
0.0
 14
70.9317176516
 24
127.002807289
 34
0.0
100
AcDbRotatedDimension
  0
DIMENSION
  5
229
330
1F
100
AcDbEntity
  8
0
  6
Continuous
 62
     7
370
     0
100
AcDbDimension
  2
_D_6
 10
96.9317176516
 20
101.8314185633
 30
0.0
 11
80.9317176516
 21
101.8314185633
 31
0.0
 70
   160
  1
<>
 71
     2
 42
-1.0
  3
SLDDIMSTYLE0
100
AcDbAlignedDimension
 13
64.9317176516
 23
156.002807289
 33
0.0
 14
96.9317176516
 24
156.002807289
 34
0.0
100
AcDbRotatedDimension
  0
DIMENSION
  5
233
330
1F
100
AcDbEntity
  8
0
  6
Continuous
 62
     7
370
     0
100
AcDbDimension
  2
_D_7
 10
101.9317176516
 20
94.002807289
 30
0.0
 11
80.9317176516
 21
94.002807289
 31
0.0
 70
   160
  1
<>
 71
     2
 42
-1.0
  3
SLDDIMSTYLE0
100
AcDbAlignedDimension
 13
59.9317176516
 23
151.002807289
 33
0.0
 14
101.9317176516
 24
151.002807289
 34
0.0
100
AcDbRotatedDimension
  0
DIMENSION
  5
23D
330
1F
100
AcDbEntity
  8
0
  6
Continuous
 62
     7
370
     0
100
AcDbDimension
  2
_D_8
 10
114.8520499501
 20
156.002807289
 30
0.0
 11
114.8520499501
 21
153.502807289
 31
0.0
 70
   160
  1
<>
 71
     2
 42
-1.0
  3
SLDDIMSTYLE1
100
AcDbAlignedDimension
 13
101.9317176516
 23
151.002807289
 33
0.0
 14
96.9317176516
 24
156.002807289
 34
0.0
 50
90.0
100
AcDbRotatedDimension
  0
DIMENSION
  5
24A
330
1F
100
AcDbEntity
  8
0
  6
Continuous
 62
     7
370
     0
100
AcDbDimension
  2
_D_9
 10
114.8520499501
 20
199.002807289
 30
0.0
 11
114.8520499501
 21
177.502807289
 31
0.0
 70
   160
  1
<>
 71
     2
 42
-1.0
  3
SLDDIMSTYLE0
100
AcDbAlignedDimension
 13
96.9317176516
 23
156.002807289
 33
0.0
 14
80.9317176516
 24
199.002807289
 34
0.0
 50
90.0
100
AcDbRotatedDimension
  0
DIMENSION
  5
254
330
1F
100
AcDbEntity
  8
0
  6
Continuous
 62
     7
370
     0
100
AcDbDimension
  2
_D_10
 10
123.8056962039
 20
151.002807289
 30
0.0
 11
123.8056962039
 21
186.098640619
 31
0.0
 70
   160
  1
<>
 71
     2
 42
-1.0
  3
SLDDIMSTYLE0
100
AcDbAlignedDimension
 13
86.9317176516
 23
221.194473949
 33
0.0
 14
101.9317176516
 24
151.002807289
 34
0.0
 50
90.0
100
AcDbRotatedDimension
  0
DIMENSION
  5
25E
330
1F
100
AcDbEntity
  8
0
  6
Continuous
 62
     7
370
     0
100
AcDbDimension
  2
_D_11
 10
92.0610737246
 20
273.8385541101
 30
0.0
 11
81.2201694222
 21
273.879865872
 31
0.0
 70
   160
  1
(<>)
 71
     2
 42
-1.0
  3
SLDDIMSTYLE0
100
AcDbAlignedDimension
 13
70.3373764006
 23
262.9288699799
 33
0.0
 14
92.0191850054
 24
262.8462464561
 34
0.0
 50
-0.218337703
100
AcDbRotatedDimension
  0
DIMENSION
  5
26A
330
1F
100
AcDbEntity
  8
0
  6
Continuous
 62
     7
370
     0
100
AcDbDimension
  2
_D_12
 10
132.1258524203
 20
116.002807289
 30
0.0
 11
132.1258524203
 21
189.4245268725
 31
0.0
 70
   160
  1
(<>)
 71
     2
 42
-1.0
  3
SLDDIMSTYLE0
100
AcDbAlignedDimension
 13
92.0191850054
 23
262.8462464561
 33
0.0
 14
82.9096033767
 24
116.002807289
 34
0.0
 50
90.0
100
AcDbRotatedDimension
  0
DIMENSION
  5
276
330
1F
100
AcDbEntity
  8
0
  6
Continuous
 62
     7
370
     0
100
AcDbDimension
  2
_D_13
 10
66.9050579847
 20
153.7431772463
 30
0.0
 11
40.9864185488
 21
167.0194394011
 31
0.0
 70
   163
  1
3-<>取付穴\P(両側口元面取有)
 71
     1
 42
-1.0
  3
SLDDIMSTYLE2
100
AcDbDiametricDimension
 15
62.9583773185
 25
158.2624373316
 35
0.0
 40
0.0
  0
DIMENSION
  5
282
330
1F
100
AcDbEntity
  8
0
  6
Continuous
 62
     7
370
     0
100
AcDbDimension
  2
_D_14
 10
123.8056962039
 20
126.002807289
 30
0.0
 11
123.8056962039
 21
138.502807289
 31
0.0
 70
   160
  1
<>
 71
     2
 42
-1.0
  3
SLDDIMSTYLE0
100
AcDbAlignedDimension
 13
101.9317176516
 23
151.002807289
 33
0.0
 14
89.9317176516
 24
126.002807289
 34
0.0
 50
90.0
100
AcDbRotatedDimension
  0
INSERT
  5
291
330
1F
100
AcDbEntity
  8
0
  6
Continuous
 62
     7
370
     0
100
AcDbBlockReference
  2
SW_NOTE_0
 10
42.3033963241
 20
141.2627120581
 30
0.0
  0
LEADER
  5
293
330
1F
100
AcDbEntity
  8
0
  6
Continuous
 62
     7
370
     0
100
AcDbLeader
  3
SLDDIMSTYLE3
 76
     2
 10
79.760168397
 20
119.7776532921
 30
0.0
 10
42.3033963241
 20
141.2627120581
 30
0.0
  0
INSERT
  5
29F
330
1F
100
AcDbEntity
  8
0
  6
Continuous
 62
     7
370
     0
100
AcDbBlockReference
  2
SW_CENTERMARKSYMBOL_0
 10
80.9317176516
 20
199.002807289
 30
0.0
  0
INSERT
  5
2AB
330
1F
100
AcDbEntity
  8
0
  6
Continuous
 62
     7
370
     0
100
AcDbBlockReference
  2
SW_CENTERMARKSYMBOL_1
 10
64.9317176516
 20
156.002807289
 30
0.0
  0
INSERT
  5
2B7
330
1F
100
AcDbEntity
  8
0
  6
Continuous
 62
     7
370
     0
100
AcDbBlockReference
  2
SW_CENTERMARKSYMBOL_2
 10
96.9317176516
 20
156.002807289
 30
0.0
  0
CIRCLE
  5
2B8
330
1F
100
AcDbEntity
  8
0
  6
Continuous
 62
     7
370
     0
100
AcDbCircle
 10
80.9317176516
 20
199.002807289
 30
0.0
 40
3.000001034389541
  0
CIRCLE
  5
2B9
330
1F
100
AcDbEntity
  8
0
  6
Continuous
 62
     7
370
     0
100
AcDbCircle
 10
96.9317176516
 20
156.002807289
 30
0.0
 40
2.999999574075829
  0
CIRCLE
  5
2BA
330
1F
100
AcDbEntity
  8
0
  6
Continuous
 62
     7
370
     0
100
AcDbCircle
 10
64.9317176516
 20
156.002807289
 30
0.0
 40
2.999999574075488
  0
LINE
  5
2BB
330
1F
100
AcDbEntity
  8
0
  6
CENTERX2
 62
     7
370
     0
100
AcDbLine
 10
80.9317176516
 20
113.7036308268
 30
0.0
 11
80.9317176516
 21
261.2072932891
 31
0.0
  0
LINE
  5
2BC
330
1F
100
AcDbEntity
  8
0
  6
Continuous
 62
     7
370
     0
100
AcDbLine
 10
62.3251766387
 20
72.2466298153
 30
0.0
 11
62.3251766387
 21
71.5466291417
 31
0.0
  0
LINE
  5
2BD
330
1F
100
AcDbEntity
  8
0
  6
Continuous
 62
     7
370
     0
100
AcDbLine
 10
62.4751717273
 20
73.6431275268
 30
0.0
 11
62.4751717273
 21
72.2466298153
 31
0.0
  0
LINE
  5
2BE
330
1F
100
AcDbEntity
  8
0
  6
Continuous
 62
     7
370
     0
100
AcDbLine
 10
68.0751771156
 20
73.0466284563
 30
0.0
 11
68.0751771156
 21
73.6431275268
 31
0.0
  0
ARC
  5
2BF
330
1F
100
AcDbEntity
  8
0
  6
Continuous
 62
     7
370
     0
100
AcDbCircle
 10
62.7451753012
 20
73.6431273707
 30
0.0
 40
0.2700000000000102
100
AcDbArc
 50
122.3360259976
 51
180.0
  0
ARC
  5
2C0
330
1F
100
AcDbEntity
  8
0
  6
Continuous
 62
     7
370
     0
100
AcDbCircle
 10
67.8051753012
 20
73.6431273707
 30
0.0
 40
0.2700000000000178
100
AcDbArc
 50
0.0
 51
57.6639740024
  0
ARC
  5
2C1
330
1F
100
AcDbEntity
  8
0
  6
Continuous
 62
     7
370
     0
100
AcDbCircle
 10
65.2751753012
 20
69.6466289033
 30
0.0
 40
4.999999999999992
100
AcDbArc
 50
57.6639740024
 51
81.0383598746
  0
ARC
  5
2C2
330
1F
100
AcDbEntity
  8
0
  6
Continuous
 62
     7
370
     0
100
AcDbCircle
 10
65.2751753012
 20
69.6466289033
 30
0.0
 40
4.999999999999995
100
AcDbArc
 50
98.9616401254
 51
122.3360259976
  0
LINE
  5
2C3
330
1F
100
AcDbEntity
  8
0
  6
Continuous
 62
     7
370
     0
100
AcDbLine
 10
60.7583418909
 20
66.5966291686
 30
0.0
 11
61.5845740262
 21
66.5966291686
 31
0.0
  0
LINE
  5
2C4
330
1F
100
AcDbEntity
  8
0
  6
Continuous
 62
     7
370
     0
100
AcDbLine
 10
61.5845740262
 20
69.4966298302
 30
0.0
 11
60.7583418909
 21
69.4966298302
 31
0.0
  0
LINE
  5
2C5
330
1F
100
AcDbEntity
  8
0
  6
Continuous
 62
     7
370
     0
100
AcDbLine
 10
62.3251766387
 20
64.5466289257
 30
0.0
 11
62.3251766387
 21
63.8466291835
 31
0.0
  0
LINE
  5
2C6
330
1F
100
AcDbEntity
  8
0
  6
Continuous
 62
     7
370
     0
100
AcDbLine
 10
62.4751717273
 20
63.8466291835
 30
0.0
 11
62.4751717273
 21
63.0466286798
 31
0.0
  0
LINE
  5
2C7
330
1F
100
AcDbEntity
  8
0
  6
Continuous
 62
     7
370
     0
100
AcDbLine
 10
71.8435168687
 20
70.0466298272
 30
0.0
 11
71.8435168687
 21
69.9466281344
 31
0.0
  0
LINE
  5
2C8
330
1F
100
AcDbEntity
  8
0
  6
Continuous
 62
     7
370
     0
100
AcDbLine
 10
71.8435168687
 20
66.1466290017
 30
0.0
 11
71.8435168687
 21
66.0466291715
 31
0.0
  0
LINE
  5
2C9
330
1F
100
AcDbEntity
  8
0
  6
Continuous
 62
     7
370
     0
100
AcDbLine
 10
74.8435154978
 20
66.0466291715
 30
0.0
 11
74.8435154978
 21
66.1466290017
 31
0.0
  0
LINE
  5
2CA
330
1F
100
AcDbEntity
  8
0
  6
Continuous
 62
     7
370
     0
100
AcDbLine
 10
74.8435154978
 20
69.9466281344
 30
0.0
 11
74.8435154978
 21
70.0466298272
 31
0.0
  0
LINE
  5
2CB
330
1F
100
AcDbEntity
  8
0
  6
Continuous
 62
     7
370
     0
100
AcDbLine
 10
54.075960857
 20
70.7466286381
 30
0.0
 11
54.075960857
 21
65.346628498
 31
0.0
  0
CIRCLE
  5
2CC
330
1F
100
AcDbEntity
  8
0
  6
Continuous
 62
     7
370
     0
100
AcDbCircle
 10
80.9317176516
 20
53.0466289033
 30
0.0
 40
8.999999999999993
  0
CIRCLE
  5
2CD
330
1F
100
AcDbEntity
  8
0
  6
Continuous
 62
     7
370
     0
100
AcDbCircle
 10
80.9317176516
 20
53.0466289033
 30
0.0
 40
9.999999999999993
  0
LINE
  5
2CE
330
1F
100
AcDbEntity
  8
0
  6
Continuous
 62
     7
370
     0
100
AcDbLine
 10
60.9317169014
 20
43.0466291268
 30
0.0
 11
80.9317164544
 21
43.0466291268
 31
0.0
  0
LINE
  5
2CF
330
1F
100
AcDbEntity
  8
0
  6
Continuous
 62
     7
370
     0
100
AcDbLine
 10
59.9317148749
 20
44.0466292908
 30
0.0
 11
60.9317169014
 21
43.0466291268
 31
0.0
  0
LINE
  5
2D0
330
1F
100
AcDbEntity
  8
0
  6
Continuous
 62
     7
370
     0
100
AcDbLine
 10
59.9317148749
 20
44.0466292908
 30
0.0
 11
59.9317148749
 21
62.0466285159
 31
0.0
  0
LINE
  5
2D1
330
1F
100
AcDbEntity
  8
0
  6
Continuous
 62
     7
370
     0
100
AcDbLine
 10
60.9317169014
 20
63.0466286798
 30
0.0
 11
59.9317148749
 21
62.0466285159
 31
0.0
  0
LINE
  5
2D2
330
1F
100
AcDbEntity
  8
0
  6
Continuous
 62
     7
370
     0
100
AcDbLine
 10
60.9317169014
 20
63.0466286798
 30
0.0
 11
80.9317164544
 21
63.0466286798
 31
0.0
  0
LINE
  5
2D3
330
1F
100
AcDbEntity
  8
0
  6
Continuous
 62
     7
370
     0
100
AcDbLine
 10
101.9317180339
 20
44.0466292908
 30
0.0
 11
101.9317180339
 21
62.0466285159
 31
0.0
  0
LINE
  5
2D4
330
1F
100
AcDbEntity
  8
0
  6
Continuous
 62
     7
370
     0
100
AcDbLine
 10
100.9317160074
 20
43.0466291268
 30
0.0
 11
101.9317180339
 21
44.0466292908
 31
0.0
  0
LINE
  5
2D5
330
1F
100
AcDbEntity
  8
0
  6
Continuous
 62
     7
370
     0
100
AcDbLine
 10
80.9317164544
 20
43.0466291268
 30
0.0
 11
100.9317160074
 21
43.0466291268
 31
0.0
  0
LINE
  5
2D6
330
1F
100
AcDbEntity
  8
0
  6
Continuous
 62
     7
370
     0
100
AcDbLine
 10
101.9317180339
 20
62.0466285159
 30
0.0
 11
100.9317160074
 21
63.0466286798
 31
0.0
  0
LINE
  5
2D7
330
1F
100
AcDbEntity
  8
0
  6
Continuous
 62
     7
370
     0
100
AcDbLine
 10
80.9317164544
 20
63.0466286798
 30
0.0
 11
100.9317160074
 21
63.0466286798
 31
0.0
  0
LINE
  5
2D8
330
1F
100
AcDbEntity
  8
0
  6
Continuous
 62
     7
370
     0
100
AcDbLine
 10
62.3251766387
 20
72.2466298153
 30
0.0
 11
62.5406623308
 21
72.2466298153
 31
0.0
  0
ARC
  5
2D9
330
1F
100
AcDbEntity
  8
0
  6
Continuous
 62
     7
370
     0
100
AcDbCircle
 10
65.1076227299
 20
70.71090023
 30
0.0
 40
3.922601030309805
100
AcDbArc
 50
97.3995558028
 51
107.1662194473
  0
ARC
  5
2DA
330
1F
100
AcDbEntity
  8
0
  6
Continuous
 62
     7
370
     0
100
AcDbCircle
 10
64.1256578688
 20
73.2305523828
 30
0.0
 40
1.240720586798483
100
AcDbArc
 50
81.8556237627
 51
98.1443762373
  0
ARC
  5
2DB
330
1F
100
AcDbEntity
  8
0
  6
Continuous
 62
     7
370
     0
100
AcDbCircle
 10
65.4591140923
 20
70.7111270414
 30
0.0
 40
3.922369748029944
100
AcDbArc
 50
97.3992671581
 51
107.166508092
  0
LINE
  5
2DC
330
1F
100
AcDbEntity
  8
0
  6
Continuous
 62
     7
370
     0
100
AcDbLine
 10
64.9539798919
 20
74.60083447
 30
0.0
 11
65.2178794567
 21
74.60083447
 31
0.0
  0
ARC
  5
2DD
330
1F
100
AcDbEntity
  8
0
  6
Continuous
 62
     7
370
     0
100
AcDbCircle
 10
64.897270889
 20
73.2980647944
 30
0.0
 40
1.341640295036626
100
AcDbArc
 50
59.8976623466
 51
76.1743844264
  0
ARC
  5
2DE
330
1F
100
AcDbEntity
  8
0
  6
Continuous
 62
     7
370
     0
100
AcDbCircle
 10
65.8957481805
 20
70.2288697671
 30
0.0
 40
4.242401455573814
100
AcDbArc
 50
85.5985099349
 51
94.4014900651
  0
ARC
  5
2DF
330
1F
100
AcDbEntity
  8
0
  6
Continuous
 62
     7
370
     0
100
AcDbCircle
 10
65.5484791636
 20
73.2981868175
 30
0.0
 40
1.341513447906464
100
AcDbArc
 50
59.8966163235
 51
76.1745897698
  0
LINE
  5
2E0
330
1F
100
AcDbEntity
  8
0
  6
Continuous
 62
     7
370
     0
100
AcDbLine
 10
65.8690527502
 20
74.60083447
 30
0.0
 11
65.9479096953
 21
74.60083447
 31
0.0
  0
ARC
  5
2E1
330
1F
100
AcDbEntity
  8
0
  6
Continuous
 62
     7
370
     0
100
AcDbCircle
 10
65.0957801235
 20
70.7377514141
 30
0.0
 40
3.895381864591629
100
AcDbArc
 50
78.5517183845
 51
82.6165999159
  0
LINE
  5
2E2
330
1F
100
AcDbEntity
  8
0
  6
Continuous
 62
     7
370
     0
100
AcDbLine
 10
65.596368951
 20
74.60083447
 30
0.0
 11
65.3324693862
 21
74.60083447
 31
0.0
  0
LWPOLYLINE
  5
2E3
330
1F
100
AcDbEntity
  8
0
  6
Continuous
 62
     7
370
     0
100
AcDbPolyline
 90
        3
 70
   128
 43
0.0
 10
65.3324693862
 20
74.60083447
 10
65.2879298154
 20
74.5892450919
 10
65.2751744214
 20
74.5855924447
  0
LINE
  5
2E4
330
1F
100
AcDbEntity
  8
0
  6
Continuous
 62
     7
370
     0
100
AcDbLine
 10
64.6813035432
 20
74.60083447
 30
0.0
 11
64.6024391476
 21
74.60083447
 31
0.0
  0
LINE
  5
2E5
330
1F
100
AcDbEntity
  8
0
  6
Continuous
 62
     7
370
     0
100
AcDbLine
 10
65.8690527502
 20
74.60083447
 30
0.0
 11
65.8633828584
 21
74.4587593486
 31
0.0
  0
LINE
  5
2E6
330
1F
100
AcDbEntity
  8
0
  6
Continuous
 62
     7
370
     0
100
AcDbLine
 10
65.596368951
 20
74.60083447
 30
0.0
 11
65.587361199
 21
74.4789317955
 31
0.0
  0
LINE
  5
2E7
330
1F
100
AcDbEntity
  8
0
  6
Continuous
 62
     7
370
     0
100
AcDbLine
 10
101.9317180339
 20
58.0466287916
 30
0.0
 11
103.5092741672
 21
58.0466287916
 31
0.0
  0
LINE
  5
2E8
330
1F
100
AcDbEntity
  8
0
  6
Continuous
 62
     7
370
     0
100
AcDbLine
 10
103.5092741672
 20
58.0466287916
 30
0.0
 11
101.9317180339
 21
56.6766276729
 31
0.0
  0
LINE
  5
2E9
330
1F
100
AcDbEntity
  8
0
  6
Continuous
 62
     7
370
     0
100
AcDbLine
 10
103.5092741672
 20
58.0466287916
 30
0.0
 11
103.5092741672
 21
48.0466290151
 31
0.0
  0
LINE
  5
2EA
330
1F
100
AcDbEntity
  8
0
  6
Continuous
 62
     7
370
     0
100
AcDbLine
 10
103.5092741672
 20
48.0466290151
 30
0.0
 11
101.9317180339
 21
49.4166301337
 31
0.0
  0
LINE
  5
2EB
330
1F
100
AcDbEntity
  8
0
  6
Continuous
 62
     7
370
     0
100
AcDbLine
 10
103.5092741672
 20
48.0466290151
 30
0.0
 11
101.9317180339
 21
48.0466290151
 31
0.0
  0
LINE
  5
2EC
330
1F
100
AcDbEntity
  8
0
  6
Continuous
 62
     7
370
     0
100
AcDbLine
 10
107.8056961719
 20
58.0466287916
 30
0.0
 11
107.8056961719
 21
48.0466290151
 31
0.0
  0
LINE
  5
2ED
330
1F
100
AcDbEntity
  8
0
  6
Continuous
 62
     7
370
     0
100
AcDbLine
 10
103.5092741672
 20
48.0466290151
 30
0.0
 11
107.8056961719
 21
48.0466290151
 31
0.0
  0
LINE
  5
2EE
330
1F
100
AcDbEntity
  8
0
  6
Continuous
 62
     7
370
     0
100
AcDbLine
 10
103.5092741672
 20
58.0466287916
 30
0.0
 11
107.8056961719
 21
58.0466287916
 31
0.0
  0
LINE
  5
2EF
330
1F
100
AcDbEntity
  8
0
  6
Continuous
 62
     7
370
     0
100
AcDbLine
 10
87.0617747728
 20
73.0466284563
 30
0.0
 11
90.5136548404
 21
73.0466284563
 31
0.0
  0
LINE
  5
2F0
330
1F
100
AcDbEntity
  8
0
  6
Continuous
 62
     7
370
     0
100
AcDbLine
 10
90.5136548404
 20
73.0466284563
 30
0.0
 11
90.5136548404
 21
63.0466286798
 31
0.0
  0
LINE
  5
2F1
330
1F
100
AcDbEntity
  8
0
  6
Continuous
 62
     7
370
     0
100
AcDbLine
 10
87.0617747728
 20
73.0466284563
 30
0.0
 11
87.0617747728
 21
63.0466286798
 31
0.0
  0
LINE
  5
2F2
330
1F
100
AcDbEntity
  8
0
  6
Continuous
 62
     7
370
     0
100
AcDbLine
 10
95.4710662786
 20
73.0466284563
 30
0.0
 11
95.4710662786
 21
63.0466286798
 31
0.0
  0
LINE
  5
2F3
330
1F
100
AcDbEntity
  8
0
  6
Continuous
 62
     7
370
     0
100
AcDbLine
 10
90.5136548404
 20
73.0466284563
 30
0.0
 11
95.4710662786
 21
73.0466284563
 31
0.0
  0
LINE
  5
2F4
330
1F
100
AcDbEntity
  8
0
  6
Continuous
 62
     7
370
     0
100
AcDbLine
 10
79.4317171399
 20
52.8520123021
 30
0.0
 11
79.4317171399
 21
53.3652521385
 31
0.0
  0
LINE
  5
2F5
330
1F
100
AcDbEntity
  8
0
  6
Continuous
 62
     7
370
     0
100
AcDbLine
 10
79.9317181531
 20
54.2460588745
 30
0.0
 11
79.9317181531
 21
51.9712054643
 31
0.0
  0
ARC
  5
2F6
330
1F
100
AcDbEntity
  8
0
  6
Continuous
 62
     7
370
     0
100
AcDbCircle
 10
61.5801689332
 20
68.0466285681
 30
0.0
 40
1.444050154709791
100
AcDbArc
 50
48.307046062
 51
311.692953938
  0
ARC
  5
2F7
330
1F
100
AcDbEntity
  8
0
  6
Continuous
 62
     7
370
     0
100
AcDbCircle
 10
60.7717231158
 20
68.0466294994
 30
0.0
 40
1.450062073331903
100
AcDbArc
 50
90.5287350143
 51
269.4712649857
  0
LINE
  5
2F8
330
1F
100
AcDbEntity
  8
0
  6
Continuous
 62
     7
370
     0
100
AcDbLine
 10
58.0461442891
 20
70.0466298272
 30
0.0
 11
58.0461442891
 21
66.0466291715
 31
0.0
  0
LINE
  5
2F9
330
1F
100
AcDbEntity
  8
0
  6
Continuous
 62
     7
370
     0
100
AcDbLine
 10
58.0461442891
 20
66.0466291715
 30
0.0
 11
57.8808978621
 21
66.0466291715
 31
0.0
  0
LINE
  5
2FA
330
1F
100
AcDbEntity
  8
0
  6
Continuous
 62
     7
370
     0
100
AcDbLine
 10
57.8808978621
 20
66.0466291715
 30
0.0
 11
57.8808978621
 21
65.296628583
 31
0.0
  0
LINE
  5
2FB
330
1F
100
AcDbEntity
  8
0
  6
Continuous
 62
     7
370
     0
100
AcDbLine
 10
57.8808978621
 20
70.7966294845
 30
0.0
 11
57.8808978621
 21
70.0466298272
 31
0.0
  0
LINE
  5
2FC
330
1F
100
AcDbEntity
  8
0
  6
Continuous
 62
     7
370
     0
100
AcDbLine
 10
58.0461442891
 20
70.0466298272
 30
0.0
 11
57.8808978621
 21
70.0466298272
 31
0.0
  0
ARC
  5
2FD
330
1F
100
AcDbEntity
  8
0
  6
Continuous
 62
     7
370
     0
100
AcDbCircle
 10
60.7536986817
 20
68.0117207226
 30
0.0
 40
1.965097036595587
100
AcDbArc
 50
270.1353808662
 51
321.3497144422
  0
ARC
  5
2FE
330
1F
100
AcDbEntity
  8
0
  6
Continuous
 62
     7
370
     0
100
AcDbCircle
 10
60.7537008297
 20
68.0815458295
 30
0.0
 40
1.965089478242102
100
AcDbArc
 50
38.6501102652
 51
89.8646812406
  0
LINE
  5
2FF
330
1F
100
AcDbEntity
  8
0
  6
Continuous
 62
     7
370
     0
100
AcDbLine
 10
58.0461442891
 20
66.0466291715
 30
0.0
 11
60.7583418909
 21
66.0466291715
 31
0.0
  0
LINE
  5
300
330
1F
100
AcDbEntity
  8
0
  6
Continuous
 62
     7
370
     0
100
AcDbLine
 10
60.7583418909
 20
70.0466298272
 30
0.0
 11
58.0461442891
 21
70.0466298272
 31
0.0
  0
LINE
  5
301
330
1F
100
AcDbEntity
  8
0
  6
Continuous
 62
     7
370
     0
100
AcDbLine
 10
62.5406623308
 20
70.7966294845
 30
0.0
 11
57.8808978621
 21
70.7966294845
 31
0.0
  0
LINE
  5
302
330
1F
100
AcDbEntity
  8
0
  6
Continuous
 62
     7
370
     0
100
AcDbLine
 10
62.5406623308
 20
65.296628583
 30
0.0
 11
57.8808978621
 21
65.296628583
 31
0.0
  0
LINE
  5
303
330
1F
100
AcDbEntity
  8
0
  6
Continuous
 62
     7
370
     0
100
AcDbLine
 10
58.3541587416
 20
48.0466290151
 30
0.0
 11
58.3541587416
 21
58.0466287916
 31
0.0
  0
LINE
  5
304
330
1F
100
AcDbEntity
  8
0
  6
Continuous
 62
     7
370
     0
100
AcDbLine
 10
58.3541587416
 20
58.0466287916
 30
0.0
 11
59.9317148749
 21
56.6766276729
 31
0.0
  0
LINE
  5
305
330
1F
100
AcDbEntity
  8
0
  6
Continuous
 62
     7
370
     0
100
AcDbLine
 10
58.3541587416
 20
48.0466290151
 30
0.0
 11
59.9317148749
 21
49.4166301337
 31
0.0
  0
LINE
  5
306
330
1F
100
AcDbEntity
  8
0
  6
Continuous
 62
     7
370
     0
100
AcDbLine
 10
58.3541587416
 20
58.0466287916
 30
0.0
 11
59.9317148749
 21
58.0466287916
 31
0.0
  0
LINE
  5
307
330
1F
100
AcDbEntity
  8
0
  6
Continuous
 62
     7
370
     0
100
AcDbLine
 10
59.9317148749
 20
48.0466290151
 30
0.0
 11
58.3541587416
 21
48.0466290151
 31
0.0
  0
LINE
  5
308
330
1F
100
AcDbEntity
  8
0
  6
Continuous
 62
     7
370
     0
100
AcDbLine
 10
54.0577367369
 20
48.0466290151
 30
0.0
 11
54.0577367369
 21
58.0466287916
 31
0.0
  0
LINE
  5
309
330
1F
100
AcDbEntity
  8
0
  6
Continuous
 62
     7
370
     0
100
AcDbLine
 10
58.3541587416
 20
58.0466287916
 30
0.0
 11
54.0577367369
 21
58.0466287916
 31
0.0
  0
LINE
  5
30A
330
1F
100
AcDbEntity
  8
0
  6
Continuous
 62
     7
370
     0
100
AcDbLine
 10
58.3541587416
 20
48.0466290151
 30
0.0
 11
54.0577367369
 21
48.0466290151
 31
0.0
  0
LINE
  5
30B
330
1F
100
AcDbEntity
  8
0
  6
Continuous
 62
     7
370
     0
100
AcDbLine
 10
71.0297421042
 20
66.0466291715
 30
0.0
 11
71.0297421042
 21
70.0466298272
 31
0.0
  0
LINE
  5
30C
330
1F
100
AcDbEntity
  8
0
  6
Continuous
 62
     7
370
     0
100
AcDbLine
 10
71.0297421042
 20
66.0466291715
 30
0.0
 11
75.9610057298
 21
66.0466291715
 31
0.0
  0
LINE
  5
30D
330
1F
100
AcDbEntity
  8
0
  6
Continuous
 62
     7
370
     0
100
AcDbLine
 10
75.9610057298
 20
63.0466286798
 30
0.0
 11
75.9610057298
 21
66.0466291715
 31
0.0
  0
LINE
  5
30E
330
1F
100
AcDbEntity
  8
0
  6
Continuous
 62
     7
370
     0
100
AcDbLine
 10
64.0244007532
 20
73.0466284563
 30
0.0
 11
64.0244007532
 21
63.0466286798
 31
0.0
  0
LINE
  5
30F
330
1F
100
AcDbEntity
  8
0
  6
Continuous
 62
     7
370
     0
100
AcDbLine
 10
64.0244007532
 20
73.0466284563
 30
0.0
 11
75.9610057298
 21
73.0466284563
 31
0.0
  0
LINE
  5
310
330
1F
100
AcDbEntity
  8
0
  6
Continuous
 62
     7
370
     0
100
AcDbLine
 10
75.9610057298
 20
70.0466298272
 30
0.0
 11
75.9610057298
 21
73.0466284563
 31
0.0
  0
LINE
  5
311
330
1F
100
AcDbEntity
  8
0
  6
Continuous
 62
     7
370
     0
100
AcDbLine
 10
71.0297421042
 20
70.0466298272
 30
0.0
 11
75.9610057298
 21
70.0466298272
 31
0.0
  0
LINE
  5
312
330
1F
100
AcDbEntity
  8
0
  6
Continuous
 62
     7
370
     0
100
AcDbLine
 10
62.5406623308
 20
73.0466284563
 30
0.0
 11
64.0244007532
 21
73.0466284563
 31
0.0
  0
LINE
  5
313
330
1F
100
AcDbEntity
  8
0
  6
Continuous
 62
     7
370
     0
100
AcDbLine
 10
62.5406623308
 20
63.0466286798
 30
0.0
 11
62.5406623308
 21
73.0466284563
 31
0.0
  0
LINE
  5
314
330
1F
100
AcDbEntity
  8
0
  6
Continuous
 62
     7
370
     0
100
AcDbLine
 10
76.7820112828
 20
73.0466284563
 30
0.0
 11
76.7820112828
 21
70.0466298272
 31
0.0
  0
LINE
  5
315
330
1F
100
AcDbEntity
  8
0
  6
Continuous
 62
     7
370
     0
100
AcDbLine
 10
76.7820112828
 20
70.0466298272
 30
0.0
 11
75.9610057298
 21
70.0466298272
 31
0.0
  0
LINE
  5
316
330
1F
100
AcDbEntity
  8
0
  6
Continuous
 62
     7
370
     0
100
AcDbLine
 10
75.9610057298
 20
73.0466284563
 30
0.0
 11
76.7820112828
 21
73.0466284563
 31
0.0
  0
LINE
  5
317
330
1F
100
AcDbEntity
  8
0
  6
Continuous
 62
     7
370
     0
100
AcDbLine
 10
76.7820112828
 20
66.0466291715
 30
0.0
 11
76.7820112828
 21
63.0466286798
 31
0.0
  0
LINE
  5
318
330
1F
100
AcDbEntity
  8
0
  6
Continuous
 62
     7
370
     0
100
AcDbLine
 10
75.9610057298
 20
66.0466291715
 30
0.0
 11
76.7820112828
 21
66.0466291715
 31
0.0
  0
LINE
  5
319
330
1F
100
AcDbEntity
  8
0
  6
Continuous
 62
     7
370
     0
100
AcDbLine
 10
62.1330783192
 20
71.0466281285
 30
0.0
 11
62.1330783192
 21
70.7966294845
 31
0.0
  0
LINE
  5
31A
330
1F
100
AcDbEntity
  8
0
  6
Continuous
 62
     7
370
     0
100
AcDbLine
 10
62.1330783192
 20
65.296628583
 30
0.0
 11
62.1330783192
 21
65.0466290076
 31
0.0
  0
LINE
  5
31B
330
1F
100
AcDbEntity
  8
0
  6
Continuous
 62
     7
370
     0
100
AcDbLine
 10
61.6528138939
 20
71.0466281285
 30
0.0
 11
61.6528138939
 21
70.7966294845
 31
0.0
  0
LINE
  5
31C
330
1F
100
AcDbEntity
  8
0
  6
Continuous
 62
     7
370
     0
100
AcDbLine
 10
61.6528138939
 20
65.296628583
 30
0.0
 11
61.6528138939
 21
65.0466290076
 31
0.0
  0
LINE
  5
31D
330
1F
100
AcDbEntity
  8
0
  6
Continuous
 62
     7
370
     0
100
AcDbLine
 10
71.0972220127
 20
66.1466290017
 30
0.0
 11
71.0972220127
 21
69.9466281344
 31
0.0
  0
LINE
  5
31E
330
1F
100
AcDbEntity
  8
0
  6
Continuous
 62
     7
370
     0
100
AcDbLine
 10
71.0972220127
 20
69.9466281344
 30
0.0
 11
72.2083270971
 21
69.9466281344
 31
0.0
  0
LINE
  5
31F
330
1F
100
AcDbEntity
  8
0
  6
Continuous
 62
     7
370
     0
100
AcDbLine
 10
72.2083270971
 20
69.9466281344
 30
0.0
 11
72.2083270971
 21
66.1466290017
 31
0.0
  0
LINE
  5
320
330
1F
100
AcDbEntity
  8
0
  6
Continuous
 62
     7
370
     0
100
AcDbLine
 10
72.2083270971
 20
66.1466290017
 30
0.0
 11
71.0972220127
 21
66.1466290017
 31
0.0
  0
LINE
  5
321
330
1F
100
AcDbEntity
  8
0
  6
Continuous
 62
     7
370
     0
100
AcDbLine
 10
76.6768314365
 20
66.1466290017
 30
0.0
 11
76.6768314365
 21
69.9466281344
 31
0.0
  0
LINE
  5
322
330
1F
100
AcDbEntity
  8
0
  6
Continuous
 62
     7
370
     0
100
AcDbLine
 10
76.6768314365
 20
66.1466290017
 30
0.0
 11
72.2083270971
 21
66.1466290017
 31
0.0
  0
LINE
  5
323
330
1F
100
AcDbEntity
  8
0
  6
Continuous
 62
     7
370
     0
100
AcDbLine
 10
76.6768314365
 20
69.9466281344
 30
0.0
 11
72.2083270971
 21
69.9466281344
 31
0.0
  0
LINE
  5
324
330
1F
100
AcDbEntity
  8
0
  6
Continuous
 62
     7
370
     0
100
AcDbLine
 10
71.0972220127
 20
66.1466290017
 30
0.0
 11
71.0297421042
 21
66.1466290017
 31
0.0
  0
LINE
  5
325
330
1F
100
AcDbEntity
  8
0
  6
Continuous
 62
     7
370
     0
100
AcDbLine
 10
71.0972220127
 20
69.9466281344
 30
0.0
 11
71.0297421042
 21
69.9466281344
 31
0.0
  0
LINE
  5
326
330
1F
100
AcDbEntity
  8
0
  6
Continuous
 62
     7
370
     0
100
AcDbLine
 10
62.5406623308
 20
63.8466291835
 30
0.0
 11
62.3251766387
 21
63.8466291835
 31
0.0
  0
LINE
  5
327
330
1F
100
AcDbEntity
  8
0
  6
Continuous
 62
     7
370
     0
100
AcDbLine
 10
57.8808978621
 20
65.0466290076
 30
0.0
 11
57.8808978621
 21
71.0466281285
 31
0.0
  0
LINE
  5
328
330
1F
100
AcDbEntity
  8
0
  6
Continuous
 62
     7
370
     0
100
AcDbLine
 10
62.5406623308
 20
65.0466290076
 30
0.0
 11
57.8808978621
 21
65.0466290076
 31
0.0
  0
LINE
  5
329
330
1F
100
AcDbEntity
  8
0
  6
Continuous
 62
     7
370
     0
100
AcDbLine
 10
57.3877737347
 20
64.5466289257
 30
0.0
 11
62.5406623308
 21
64.5466289257
 31
0.0
  0
LINE
  5
32A
330
1F
100
AcDbEntity
  8
0
  6
Continuous
 62
     7
370
     0
100
AcDbLine
 10
57.3877737347
 20
71.5466291417
 30
0.0
 11
57.3877737347
 21
64.5466289257
 31
0.0
  0
LINE
  5
32B
330
1F
100
AcDbEntity
  8
0
  6
Continuous
 62
     7
370
     0
100
AcDbLine
 10
57.8808978621
 20
71.0466281285
 30
0.0
 11
62.5406623308
 21
71.0466281285
 31
0.0
  0
LINE
  5
32C
330
1F
100
AcDbEntity
  8
0
  6
Continuous
 62
     7
370
     0
100
AcDbLine
 10
62.5406623308
 20
71.5466291417
 30
0.0
 11
57.3877737347
 21
71.5466291417
 31
0.0
  0
LINE
  5
32D
330
1F
100
AcDbEntity
  8
0
  6
Continuous
 62
     7
370
     0
100
AcDbLine
 10
57.3877737347
 20
64.5466289257
 30
0.0
 11
54.0828302924
 21
64.5466289257
 31
0.0
  0
LINE
  5
32E
330
1F
100
AcDbEntity
  8
0
  6
Continuous
 62
     7
370
     0
100
AcDbLine
 10
54.0828302924
 20
65.346628498
 30
0.0
 11
54.0828302924
 21
64.5466289257
 31
0.0
  0
LINE
  5
32F
330
1F
100
AcDbEntity
  8
0
  6
Continuous
 62
     7
370
     0
100
AcDbLine
 10
54.0828302924
 20
70.7466286381
 30
0.0
 11
54.0828302924
 21
65.346628498
 31
0.0
  0
LINE
  5
330
330
1F
100
AcDbEntity
  8
0
  6
Continuous
 62
     7
370
     0
100
AcDbLine
 10
54.0828302924
 20
71.5466291417
 30
0.0
 11
54.0828302924
 21
70.7466286381
 31
0.0
  0
LINE
  5
331
330
1F
100
AcDbEntity
  8
0
  6
Continuous
 62
     7
370
     0
100
AcDbLine
 10
57.3877737347
 20
71.5466291417
 30
0.0
 11
54.0828302924
 21
71.5466291417
 31
0.0
  0
LINE
  5
332
330
1F
100
AcDbEntity
  8
0
  6
Continuous
 62
     7
370
     0
100
AcDbLine
 10
54.0828302924
 20
65.346628498
 30
0.0
 11
54.075960857
 21
65.346628498
 31
0.0
  0
LINE
  5
333
330
1F
100
AcDbEntity
  8
0
  6
Continuous
 62
     7
370
     0
100
AcDbLine
 10
54.075960857
 20
70.7466286381
 30
0.0
 11
54.0828302924
 21
70.7466286381
 31
0.0
  0
CIRCLE
  5
334
330
1F
100
AcDbEntity
  8
0
  6
Continuous
 62
     7
370
     0
100
AcDbCircle
 10
80.9096033767
 20
53.1086322248
 30
0.0
 40
2.349999999999977
  0
CIRCLE
  5
335
330
1F
100
AcDbEntity
  8
0
  6
Continuous
 62
     7
370
     0
100
AcDbCircle
 10
80.9096033767
 20
53.1086322248
 30
0.0
 40
2.000000000000041
  0
ARC
  5
336
330
1F
100
AcDbEntity
  8
0
  6
Continuous
 62
     7
370
     0
100
AcDbCircle
 10
80.9096033767
 20
53.1086322248
 30
0.0
 40
1.499999999999734
100
AcDbArc
 50
150.0
 51
330.0
  0
ARC
  5
337
330
1F
100
AcDbEntity
  8
0
  6
Continuous
 62
     7
370
     0
100
AcDbCircle
 10
80.9096033767
 20
53.1086322248
 30
0.0
 40
1.499999999999734
100
AcDbArc
 50
330.0
 51
150.0
  0
LINE
  5
338
330
1F
100
AcDbEntity
  8
0
  6
Continuous
 62
     7
370
     0
100
AcDbLine
 10
82.9346038822
 20
56.6160351277
 30
0.0
 11
84.9596046332
 21
53.1086322276
 31
0.0
  0
LINE
  5
339
330
1F
100
AcDbEntity
  8
0
  6
Continuous
 62
     7
370
     0
100
AcDbLine
 10
84.9596046332
 20
53.1086322276
 30
0.0
 11
82.9346038822
 21
49.6012294439
 31
0.0
  0
LINE
  5
33A
330
1F
100
AcDbEntity
  8
0
  6
Continuous
 62
     7
370
     0
100
AcDbLine
 10
82.9346038822
 20
49.6012294439
 30
0.0
 11
78.8846023802
 21
49.6012294439
 31
0.0
  0
LINE
  5
33B
330
1F
100
AcDbEntity
  8
0
  6
Continuous
 62
     7
370
     0
100
AcDbLine
 10
78.8846023802
 20
49.6012294439
 30
0.0
 11
76.8596016292
 21
53.1086322276
 31
0.0
  0
LINE
  5
33C
330
1F
100
AcDbEntity
  8
0
  6
Continuous
 62
     7
370
     0
100
AcDbLine
 10
76.8596016292
 20
53.1086322276
 30
0.0
 11
78.8846023802
 21
56.6160351277
 31
0.0
  0
LINE
  5
33D
330
1F
100
AcDbEntity
  8
0
  6
Continuous
 62
     7
370
     0
100
AcDbLine
 10
78.8846023802
 20
56.6160351277
 30
0.0
 11
82.9346038822
 21
56.6160351277
 31
0.0
  0
LINE
  5
33E
330
1F
100
AcDbEntity
  8
0
  6
Continuous
 62
     7
370
     0
100
AcDbLine
 10
81.931718481
 20
52.0107786411
 30
0.0
 11
81.931718481
 21
54.2064858141
 31
0.0
  0
LINE
  5
33F
330
1F
100
AcDbEntity
  8
0
  6
Continuous
 62
     8
370
     0
100
AcDbLine
 10
66.6053116743
 20
73.6431275268
 30
0.0
 11
68.0751771156
 21
73.6431275268
 31
0.0
  0
LINE
  5
340
330
1F
100
AcDbEntity
  8
0
  6
Continuous
 62
     8
370
     0
100
AcDbLine
 10
62.4751717273
 20
73.6431275268
 30
0.0
 11
66.6053116743
 21
73.6431275268
 31
0.0
  0
LINE
  5
341
330
1F
100
AcDbEntity
  8
0
  6
Continuous
 62
     8
370
     0
100
AcDbLine
 10
66.5456548754
 20
73.8712568541
 30
0.0
 11
67.9495975796
 21
73.8712568541
 31
0.0
  0
LINE
  5
342
330
1F
100
AcDbEntity
  8
0
  6
Continuous
 62
     8
370
     0
100
AcDbLine
 10
62.6007587139
 20
73.8712568541
 30
0.0
 11
66.5456548754
 21
73.8712568541
 31
0.0
  0
DIMENSION
  5
343
330
1F
100
AcDbEntity
  8
0
  6
Continuous
 62
     7
370
     0
100
AcDbDimension
  2
_D_15
 10
107.8056962039
 20
26.1031319503
 30
0.0
 11
80.9317176516
 21
26.1031319503
 31
0.0
 70
   160
  1
(<>)
 71
     2
 42
-1.0
  3
SLDDIMSTYLE4
100
AcDbAlignedDimension
 13
54.0577390993
 23
48.0466289033
 33
0.0
 14
107.8056962039
 24
48.0466289033
 34
0.0
 50
0.0
100
AcDbRotatedDimension
  0
DIMENSION
  5
350
330
1F
100
AcDbEntity
  8
0
  6
Continuous
 62
     7
370
     0
100
AcDbDimension
  2
_D_16
 10
80.9317176516
 20
35.5079646892
 30
0.0
 11
94.3687069277
 21
35.5079646892
 31
0.0
 70
   160
  1
(<>)
 71
     2
 42
-1.0
  3
SLDDIMSTYLE4
100
AcDbAlignedDimension
 13
107.8056962039
 23
48.0466289033
 33
0.0
 14
80.9317176516
 24
53.0466289033
 34
0.0
 50
0.0
100
AcDbRotatedDimension
  0
INSERT
  5
367
330
1F
100
AcDbEntity
  8
0
  6
Continuous
 62
     7
370
     0
100
AcDbBlockReference
  2
SW_CENTERMARKSYMBOL_3
 10
80.9317176516
 20
53.0466289033
 30
0.0
  0
ENDSEC
  0
SECTION
  2
OBJECTS
  0
DICTIONARY
  5
C
330
0
100
AcDbDictionary
281
     1
  3
ACAD_GROUP
350
D
  3
ACAD_LAYOUT
350
1A
  3
ACAD_MLINESTYLE
350
17
  3
ACAD_PLOTSETTINGS
350
19
  3
ACAD_PLOTSTYLENAME
350
E
  3
ACAD_SCALELIST
350
47
  0
DICTIONARY
  5
D
102
{ACAD_REACTORS
330
C
102
}
330
C
100
AcDbDictionary
281
     1
  0
DICTIONARY
  5
1A
102
{ACAD_REACTORS
330
C
102
}
330
C
100
AcDbDictionary
281
     1
  3
Layout1
350
1E
  3
Layout2
350
26
  3
Model
350
22
  0
DICTIONARY
  5
17
102
{ACAD_REACTORS
330
C
102
}
330
C
100
AcDbDictionary
281
     1
  3
Standard
350
18
  0
DICTIONARY
  5
19
102
{ACAD_REACTORS
330
C
102
}
330
C
100
AcDbDictionary
281
     1
  0
ACDBDICTIONARYWDFLT
  5
E
102
{ACAD_REACTORS
330
C
102
}
330
C
100
AcDbDictionary
281
     1
  3
Normal
350
F
100
AcDbDictionaryWithDefault
340
F
  0
DICTIONARY
  5
47
102
{ACAD_REACTORS
330
C
102
}
330
C
100
AcDbDictionary
281
     1
  3
A0
350
48
  3
A1
350
49
  3
A2
350
4A
  3
A3
350
4B
  3
A4
350
4C
  3
A5
350
4D
  3
A6
350
4E
  3
A7
350
4F
  3
A8
350
50
  3
A9
350
51
  3
B0
350
52
  3
B1
350
53
  3
B2
350
54
  3
B3
350
55
  3
B4
350
56
  3
B5
350
57
  3
B6
350
58
  3
B7
350
59
  3
B8
350
5A
  3
B9
350
5B
  3
C0
350
5C
  3
C1
350
5D
  3
C2
350
5E
  3
C3
350
5F
  3
C4
350
60
  3
C5
350
61
  3
C6
350
62
  3
C7
350
63
  3
C8
350
64
  3
C9
350
65
  3
D0
350
66
  3
D1
350
67
  3
D2
350
68
  0
LAYOUT
  5
1E
102
{ACAD_REACTORS
330
1A
102
}
330
1A
100
AcDbPlotSettings
  1

  2
none_device
  4

  6

 40
0.0
 41
0.0
 42
0.0
 43
0.0
 44
0.0
 45
0.0
 46
0.0
 47
0.0
 48
0.0
 49
0.0
140
0.0
141
0.0
142
1.0
143
1.0
 70
   688
 72
     1
 73
     0
 74
     5
  7

 75
    16
147
1.0
148
0.0
149
0.0
100
AcDbLayout
  1
Layout1
 70
     1
 71
     1
 10
0.0
 20
0.0
 11
420.0
 21
297.0
 12
0.0
 22
0.0
 32
0.0
 14
1.0000000000E+20
 24
1.0000000000E+20
 34
1.0000000000E+20
 15
-1.0000000000E+20
 25
-1.0000000000E+20
 35
-1.0000000000E+20
146
0.0
 13
0.0
 23
0.0
 33
0.0
 16
1.0
 26
0.0
 36
0.0
 17
0.0
 27
1.0
 37
0.0
 76
     0
330
1B
  0
LAYOUT
  5
26
102
{ACAD_REACTORS
330
1A
102
}
330
1A
100
AcDbPlotSettings
  1

  2
none_device
  4

  6

 40
0.0
 41
0.0
 42
0.0
 43
0.0
 44
0.0
 45
0.0
 46
0.0
 47
0.0
 48
0.0
 49
0.0
140
0.0
141
0.0
142
1.0
143
1.0
 70
   688
 72
     1
 73
     0
 74
     5
  7

 75
    16
147
1.0
148
0.0
149
0.0
100
AcDbLayout
  1
Layout2
 70
     1
 71
     2
 10
0.0
 20
0.0
 11
0.0
 21
0.0
 12
0.0
 22
0.0
 32
0.0
 14
0.0
 24
0.0
 34
0.0
 15
0.0
 25
0.0
 35
0.0
146
0.0
 13
0.0
 23
0.0
 33
0.0
 16
1.0
 26
0.0
 36
0.0
 17
0.0
 27
1.0
 37
0.0
 76
     0
330
23
  0
LAYOUT
  5
22
102
{ACAD_REACTORS
330
1A
102
}
330
1A
100
AcDbPlotSettings
  1

  2
none_device
  4
Letter_(8.50_x_11.00_Inches)
  6

 40
6.35
 41
6.35
 42
6.35000508
 43
6.35000508
 44
215.9
 45
279.4
 46
0.0
 47
0.0
 48
0.0
 49
0.0
140
0.0
141
0.0
142
1.0
143
1.0
 70
  1712
 72
     1
 73
     0
 74
     0
  7

 75
     0
147
1.0
148
0.0
149
0.0
100
AcDbLayout
  1
Model
 70
     1
 71
     0
 10
0.0
 20
0.0
 11
210.0
 21
297.0
 12
0.0
 22
0.0
 32
0.0
 14
0.0
 24
0.0
 34
0.0
 15
210.0
 25
297.0
 35
0.0
146
0.0
 13
0.0
 23
0.0
 33
0.0
 16
1.0
 26
0.0
 36
0.0
 17
0.0
 27
1.0
 37
0.0
 76
     0
330
1F
331
29
  0
MLINESTYLE
  5
18
102
{ACAD_REACTORS
330
17
102
}
330
17
100
AcDbMlineStyle
  2
Standard
 70
     0
  3

 62
   256
 51
90.0
 52
90.0
 71
     2
 49
0.5
 62
   256
  6
BYLAYER
 49
-0.5
 62
   256
  6
BYLAYER
  0
ACDBPLACEHOLDER
  5
F
102
{ACAD_REACTORS
330
E
102
}
330
E
  0
SCALE
  5
48
102
{ACAD_REACTORS
330
47
102
}
330
47
100
AcDbScale
 70
     0
300
1:1
140
1.0
141
1.0
290
     1
  0
SCALE
  5
49
102
{ACAD_REACTORS
330
47
102
}
330
47
100
AcDbScale
 70
     0
300
1:2
140
1.0
141
2.0
290
     0
  0
SCALE
  5
4A
102
{ACAD_REACTORS
330
47
102
}
330
47
100
AcDbScale
 70
     0
300
1:4
140
1.0
141
4.0
290
     0
  0
SCALE
  5
4B
102
{ACAD_REACTORS
330
47
102
}
330
47
100
AcDbScale
 70
     0
300
1:5
140
1.0
141
5.0
290
     0
  0
SCALE
  5
4C
102
{ACAD_REACTORS
330
47
102
}
330
47
100
AcDbScale
 70
     0
300
1:8
140
1.0
141
8.0
290
     0
  0
SCALE
  5
4D
102
{ACAD_REACTORS
330
47
102
}
330
47
100
AcDbScale
 70
     0
300
1:10
140
1.0
141
10.0
290
     0
  0
SCALE
  5
4E
102
{ACAD_REACTORS
330
47
102
}
330
47
100
AcDbScale
 70
     0
300
1:16
140
1.0
141
16.0
290
     0
  0
SCALE
  5
4F
102
{ACAD_REACTORS
330
47
102
}
330
47
100
AcDbScale
 70
     0
300
1:20
140
1.0
141
20.0
290
     0
  0
SCALE
  5
50
102
{ACAD_REACTORS
330
47
102
}
330
47
100
AcDbScale
 70
     0
300
1:30
140
1.0
141
30.0
290
     0
  0
SCALE
  5
51
102
{ACAD_REACTORS
330
47
102
}
330
47
100
AcDbScale
 70
     0
300
1:40
140
1.0
141
40.0
290
     0
  0
SCALE
  5
52
102
{ACAD_REACTORS
330
47
102
}
330
47
100
AcDbScale
 70
     0
300
1:50
140
1.0
141
50.0
290
     0
  0
SCALE
  5
53
102
{ACAD_REACTORS
330
47
102
}
330
47
100
AcDbScale
 70
     0
300
1:100
140
1.0
141
100.0
290
     0
  0
SCALE
  5
54
102
{ACAD_REACTORS
330
47
102
}
330
47
100
AcDbScale
 70
     0
300
2:1
140
2.0
141
1.0
290
     0
  0
SCALE
  5
55
102
{ACAD_REACTORS
330
47
102
}
330
47
100
AcDbScale
 70
     0
300
4:1
140
4.0
141
1.0
290
     0
  0
SCALE
  5
56
102
{ACAD_REACTORS
330
47
102
}
330
47
100
AcDbScale
 70
     0
300
8:1
140
8.0
141
1.0
290
     0
  0
SCALE
  5
57
102
{ACAD_REACTORS
330
47
102
}
330
47
100
AcDbScale
 70
     0
300
10:1
140
10.0
141
1.0
290
     0
  0
SCALE
  5
58
102
{ACAD_REACTORS
330
47
102
}
330
47
100
AcDbScale
 70
     0
300
100:1
140
100.0
141
1.0
290
     0
  0
SCALE
  5
59
102
{ACAD_REACTORS
330
47
102
}
330
47
100
AcDbScale
 70
     0
300
1/128" = 1'-0"
140
0.0078125
141
12.0
290
     0
  0
SCALE
  5
5A
102
{ACAD_REACTORS
330
47
102
}
330
47
100
AcDbScale
 70
     0
300
1/64" = 1'-0"
140
0.015625
141
12.0
290
     0
  0
SCALE
  5
5B
102
{ACAD_REACTORS
330
47
102
}
330
47
100
AcDbScale
 70
     0
300
1/32" = 1'-0"
140
0.03125
141
12.0
290
     0
  0
SCALE
  5
5C
102
{ACAD_REACTORS
330
47
102
}
330
47
100
AcDbScale
 70
     0
300
1/16" = 1'-0"
140
0.0625
141
12.0
290
     0
  0
SCALE
  5
5D
102
{ACAD_REACTORS
330
47
102
}
330
47
100
AcDbScale
 70
     0
300
3/32" = 1'-0"
140
0.09375
141
12.0
290
     0
  0
SCALE
  5
5E
102
{ACAD_REACTORS
330
47
102
}
330
47
100
AcDbScale
 70
     0
300
1/8" = 1'-0"
140
0.125
141
12.0
290
     0
  0
SCALE
  5
5F
102
{ACAD_REACTORS
330
47
102
}
330
47
100
AcDbScale
 70
     0
300
3/16" = 1'-0"
140
0.1875
141
12.0
290
     0
  0
SCALE
  5
60
102
{ACAD_REACTORS
330
47
102
}
330
47
100
AcDbScale
 70
     0
300
1/4" = 1'-0"
140
0.25
141
12.0
290
     0
  0
SCALE
  5
61
102
{ACAD_REACTORS
330
47
102
}
330
47
100
AcDbScale
 70
     0
300
3/8" = 1'-0"
140
0.375
141
12.0
290
     0
  0
SCALE
  5
62
102
{ACAD_REACTORS
330
47
102
}
330
47
100
AcDbScale
 70
     0
300
1/2" = 1'-0"
140
0.5
141
12.0
290
     0
  0
SCALE
  5
63
102
{ACAD_REACTORS
330
47
102
}
330
47
100
AcDbScale
 70
     0
300
3/4" = 1'-0"
140
0.75
141
12.0
290
     0
  0
SCALE
  5
64
102
{ACAD_REACTORS
330
47
102
}
330
47
100
AcDbScale
 70
     0
300
1" = 1'-0"
140
1.0
141
12.0
290
     0
  0
SCALE
  5
65
102
{ACAD_REACTORS
330
47
102
}
330
47
100
AcDbScale
 70
     0
300
1-1/2" = 1'-0"
140
1.5
141
12.0
290
     0
  0
SCALE
  5
66
102
{ACAD_REACTORS
330
47
102
}
330
47
100
AcDbScale
 70
     0
300
3" = 1'-0"
140
3.0
141
12.0
290
     0
  0
SCALE
  5
67
102
{ACAD_REACTORS
330
47
102
}
330
47
100
AcDbScale
 70
     0
300
6" = 1'-0"
140
6.0
141
12.0
290
     0
  0
SCALE
  5
68
102
{ACAD_REACTORS
330
47
102
}
330
47
100
AcDbScale
 70
     0
300
1'-0" = 1'-0"
140
12.0
141
12.0
290
     0
  0
ENDSEC
  0
EOF
