  0
SECTION
  2
HEADER
  9
$ACADVER
  1
AC1015
  9
$ACADMAINTVER
 70
     6
  9
$DWGCODEPAGE
  3
DOS932
  9
$INSBASE
 10
0.0
 20
0.0
 30
0.0
  9
$EXTMIN
 10
0.0
 20
0.0
 30
0.0
  9
$EXTMAX
 10
210.0
 20
297.0
 30
0.0
  9
$LIMMIN
 10
0.0
 20
0.0
  9
$LIMMAX
 10
210.0
 20
297.0
  9
$ORTHOMODE
 70
     0
  9
$REGENMODE
 70
     1
  9
$FILLMODE
 70
     1
  9
$QTEXTMODE
 70
     0
  9
$MIRRTEXT
 70
     1
  9
$LTSCALE
 40
1.0
  9
$ATTMODE
 70
     1
  9
$TEXTSIZE
 40
3.5
  9
$TRACEWID
 40
1.0
  9
$TEXTSTYLE
  7
Standard
  9
$CLAYER
  8
0
  9
$CELTYPE
  6
ByLayer
  9
$CECOLOR
 62
   256
  9
$CELTSCALE
 40
1.0
  9
$DISPSILH
 70
     0
  9
$DIMSCALE
 40
1.0
  9
$DIMASZ
 40
3.0
  9
$DIMEXO
 40
1.0
  9
$DIMDLI
 40
3.75
  9
$DIMRND
 40
0.0
  9
$DIMDLE
 40
0.0
  9
$DIMEXE
 40
1.0
  9
$DIMTP
 40
0.0
  9
$DIMTM
 40
0.0
  9
$DIMTXT
 40
3.5
  9
$DIMCEN
 40
2.5
  9
$DIMTSZ
 40
0.0
  9
$DIMTOL
 70
     0
  9
$DIMLIM
 70
     0
  9
$DIMTIH
 70
     1
  9
$DIMTOH
 70
     1
  9
$DIMSE1
 70
     0
  9
$DIMSE2
 70
     0
  9
$DIMTAD
 70
     1
  9
$DIMZIN
 70
     0
  9
$DIMBLK
  1

  9
$DIMASO
 70
     1
  9
$DIMSHO
 70
     1
  9
$DIMPOST
  1

  9
$DIMAPOST
  1

  9
$DIMALT
 70
     0
  9
$DIMALTD
 70
     3
  9
$DIMALTF
 40
0.0393700787
  9
$DIMLFAC
 40
2.0
  9
$DIMTOFL
 70
     1
  9
$DIMTVP
 40
0.0
  9
$DIMTIX
 70
     0
  9
$DIMSOXD
 70
     0
  9
$DIMSAH
 70
     0
  9
$DIMBLK1
  1

  9
$DIMBLK2
  1

  9
$DIMSTYLE
  2
ISO-25
  9
$DIMCLRD
 70
     0
  9
$DIMCLRE
 70
     0
  9
$DIMCLRT
 70
     0
  9
$DIMTFAC
 40
1.0
  9
$DIMGAP
 40
1.524
  9
$DIMJUST
 70
     0
  9
$DIMSD1
 70
     0
  9
$DIMSD2
 70
     0
  9
$DIMTOLJ
 70
     0
  9
$DIMTZIN
 70
     0
  9
$DIMALTZ
 70
     0
  9
$DIMALTTZ
 70
     0
  9
$DIMUPT
 70
     0
  9
$DIMDEC
 70
     1
  9
$DIMTDEC
 70
     3
  9
$DIMALTU
 70
     2
  9
$DIMALTTD
 70
     3
  9
$DIMTXSTY
  7
Standard
  9
$DIMAUNIT
 70
     0
  9
$DIMADEC
 70
     2
  9
$DIMALTRND
 40
0.0
  9
$DIMAZIN
 70
     0
  9
$DIMDSEP
 70
    44
  9
$DIMATFIT
 70
     3
  9
$DIMFRAC
 70
     0
  9
$DIMLDRBLK
  1

  9
$DIMLUNIT
 70
     2
  9
$DIMLWD
 70
    -2
  9
$DIMLWE
 70
    -2
  9
$DIMTMOVE
 70
     0
  9
$LUNITS
 70
     2
  9
$LUPREC
 70
     1
  9
$SKETCHINC
 40
1.0
  9
$FILLETRAD
 40
10.0
  9
$AUNITS
 70
     0
  9
$AUPREC
 70
     2
  9
$MENU
  1
.
  9
$ELEVATION
 40
0.0
  9
$PELEVATION
 40
0.0
  9
$THICKNESS
 40
0.0
  9
$LIMCHECK
 70
     0
  9
$CHAMFERA
 40
0.0
  9
$CHAMFERB
 40
0.0
  9
$CHAMFERC
 40
0.0
  9
$CHAMFERD
 40
0.0
  9
$SKPOLY
 70
     0
  9
$TDCREATE
 40
2457984.680637743
  9
$TDUCREATE
 40
2457984.305637743
  9
$TDUPDATE
 40
2457984.680640058
  9
$TDUUPDATE
 40
2457984.305640058
  9
$TDINDWG
 40
0.0000000116
  9
$TDUSRTIMER
 40
0.0000000116
  9
$USRTIMER
 70
     1
  9
$ANGBASE
 50
0.0
  9
$ANGDIR
 70
     0
  9
$PDMODE
 70
     0
  9
$PDSIZE
 40
-1.0
  9
$PLINEWID
 40
0.0
  9
$SPLFRAME
 70
     0
  9
$SPLINETYPE
 70
     6
  9
$SPLINESEGS
 70
     8
  9
$HANDSEED
  5
3A4
  9
$SURFTAB1
 70
     6
  9
$SURFTAB2
 70
     6
  9
$SURFTYPE
 70
     6
  9
$SURFU
 70
     6
  9
$SURFV
 70
     6
  9
$UCSBASE
  2

  9
$UCSNAME
  2

  9
$UCSORG
 10
0.0
 20
0.0
 30
0.0
  9
$UCSXDIR
 10
1.0
 20
0.0
 30
0.0
  9
$UCSYDIR
 10
0.0
 20
1.0
 30
0.0
  9
$UCSORTHOREF
  2

  9
$UCSORTHOVIEW
 70
     0
  9
$UCSORGTOP
 10
0.0
 20
0.0
 30
0.0
  9
$UCSORGBOTTOM
 10
0.0
 20
0.0
 30
0.0
  9
$UCSORGLEFT
 10
0.0
 20
0.0
 30
0.0
  9
$UCSORGRIGHT
 10
0.0
 20
0.0
 30
0.0
  9
$UCSORGFRONT
 10
0.0
 20
0.0
 30
0.0
  9
$UCSORGBACK
 10
0.0
 20
0.0
 30
0.0
  9
$PUCSBASE
  2

  9
$PUCSNAME
  2

  9
$PUCSORG
 10
0.0
 20
0.0
 30
0.0
  9
$PUCSXDIR
 10
1.0
 20
0.0
 30
0.0
  9
$PUCSYDIR
 10
0.0
 20
1.0
 30
0.0
  9
$PUCSORTHOREF
  2

  9
$PUCSORTHOVIEW
 70
     0
  9
$PUCSORGTOP
 10
0.0
 20
0.0
 30
0.0
  9
$PUCSORGBOTTOM
 10
0.0
 20
0.0
 30
0.0
  9
$PUCSORGLEFT
 10
0.0
 20
0.0
 30
0.0
  9
$PUCSORGRIGHT
 10
0.0
 20
0.0
 30
0.0
  9
$PUCSORGFRONT
 10
0.0
 20
0.0
 30
0.0
  9
$PUCSORGBACK
 10
0.0
 20
0.0
 30
0.0
  9
$USERI1
 70
     0
  9
$USERI2
 70
     0
  9
$USERI3
 70
     0
  9
$USERI4
 70
     0
  9
$USERI5
 70
     0
  9
$USERR1
 40
0.0
  9
$USERR2
 40
0.0
  9
$USERR3
 40
0.0
  9
$USERR4
 40
0.0
  9
$USERR5
 40
0.0
  9
$WORLDVIEW
 70
     1
  9
$SHADEDGE
 70
     3
  9
$SHADEDIF
 70
    70
  9
$TILEMODE
 70
     1
  9
$MAXACTVP
 70
    64
  9
$PINSBASE
 10
0.0
 20
0.0
 30
0.0
  9
$PLIMCHECK
 70
     0
  9
$PEXTMIN
 10
1.0000000000E+20
 20
1.0000000000E+20
 30
1.0000000000E+20
  9
$PEXTMAX
 10
-1.0000000000E+20
 20
-1.0000000000E+20
 30
-1.0000000000E+20
  9
$PLIMMIN
 10
0.0
 20
0.0
  9
$PLIMMAX
 10
420.0
 20
297.0
  9
$UNITMODE
 70
     0
  9
$VISRETAIN
 70
     1
  9
$PLINEGEN
 70
     0
  9
$PSLTSCALE
 70
     1
  9
$TREEDEPTH
 70
  3020
  9
$CMLSTYLE
  2
Standard
  9
$CMLJUST
 70
     0
  9
$CMLSCALE
 40
20.0
  9
$PROXYGRAPHICS
 70
     1
  9
$MEASUREMENT
 70
     1
  9
$CELWEIGHT
370
    -1
  9
$ENDCAPS
280
     0
  9
$JOINSTYLE
280
     0
  9
$LWDISPLAY
290
     1
  9
$INSUNITS
 70
     4
  9
$HYPERLINKBASE
  1

  9
$STYLESHEET
  1

  9
$XEDIT
290
     1
  9
$CEPSNTYPE
380
     0
  9
$PSTYLEMODE
290
     1
  9
$FINGERPRINTGUID
  2
{C78B59BD-619B-4673-816B-75A20CA44F7E}
  9
$VERSIONGUID
  2
{FAEB1C32-E019-11D5-929B-00C0DF256EC4}
  9
$EXTNAMES
290
     1
  9
$PSVPSCALE
 40
0.0
  9
$OLESTARTUP
290
     0
  0
ENDSEC
  0
SECTION
  2
CLASSES
  0
CLASS
  1
ACDBDICTIONARYWDFLT
  2
AcDbDictionaryWithDefault
  3
ObjectDBX Classes
 90
        0
280
     0
281
     0
  0
CLASS
  1
VISUALSTYLE
  2
AcDbVisualStyle
  3
ObjectDBX Classes
 90
     4095
280
     0
281
     0
  0
CLASS
  1
MATERIAL
  2
AcDbMaterial
  3
ObjectDBX Classes
 90
     1153
280
     0
281
     0
  0
CLASS
  1
SCALE
  2
AcDbScale
  3
ObjectDBX Classes
 90
     1153
280
     0
281
     0
  0
CLASS
  1
TABLESTYLE
  2
AcDbTableStyle
  3
ObjectDBX Classes
 90
     4095
280
     0
281
     0
  0
CLASS
  1
MLEADERSTYLE
  2
AcDbMLeaderStyle
  3
ACDB_MLEADERSTYLE_CLASS
 90
     4095
280
     0
281
     0
  0
CLASS
  1
SUN
  2
AcDbSun
  3
SCENEOE
 90
     1153
280
     0
281
     0
  0
CLASS
  1
ACDBPLACEHOLDER
  2
AcDbPlaceHolder
  3
ObjectDBX Classes
 90
        0
280
     0
281
     0
  0
CLASS
  1
LAYOUT
  2
AcDbLayout
  3
ObjectDBX Classes
 90
        0
280
     0
281
     0
  0
ENDSEC
  0
SECTION
  2
TABLES
  0
TABLE
  2
VPORT
  5
8
330
0
100
AcDbSymbolTable
 70
     1
  0
VPORT
  5
29
330
8
100
AcDbSymbolTableRecord
100
AcDbViewportTableRecord
  2
*Active
 70
     0
 10
0.0
 20
0.0
 11
1.0
 21
1.0
 12
105.0
 22
148.5
 13
0.0
 23
0.0
 14
10.0
 24
10.0
 15
10.0
 25
10.0
 16
0.0
 26
0.0
 36
1.0
 17
0.0
 27
0.0
 37
0.0
 40
297.0
 41
0.7070707071
 42
50.0
 43
0.0
 44
0.0
 50
0.0
 51
0.0
 71
     0
 72
  2000
 73
     1
 74
     3
 75
     0
 76
     0
 77
     0
 78
     0
281
     0
 65
     1
110
0.0
120
0.0
130
0.0
111
1.0
121
0.0
131
0.0
112
0.0
122
1.0
132
0.0
 79
     0
146
0.0
  0
ENDTAB
  0
TABLE
  2
LTYPE
  5
5
330
0
100
AcDbSymbolTable
 70
     6
  0
LTYPE
  5
14
330
5
100
AcDbSymbolTableRecord
100
AcDbLinetypeTableRecord
  2
ByBlock
 70
     0
  3

 72
    65
 73
     0
 40
0.0
  0
LTYPE
  5
15
330
5
100
AcDbSymbolTableRecord
100
AcDbLinetypeTableRecord
  2
ByLayer
 70
     0
  3

 72
    65
 73
     0
 40
0.0
  0
LTYPE
  5
16
330
5
100
AcDbSymbolTableRecord
100
AcDbLinetypeTableRecord
  2
Continuous
 70
     0
  3
Solid line
 72
    65
 73
     0
 40
0.0
  0
LTYPE
  5
6E
330
5
100
AcDbSymbolTableRecord
100
AcDbLinetypeTableRecord
  2
HIDDEN
 70
     0
  3
Hidden __ __ __ __ __ __ __ __ __ __ __ __ __ __
 72
    65
 73
     2
 40
1.905
 49
1.27
 74
     0
 49
-0.635
 74
     0
  0
LTYPE
  5
6F
330
5
100
AcDbSymbolTableRecord
100
AcDbLinetypeTableRecord
  2
PHANTOM
 70
     0
  3
Phantom ______  __  __  ______  __  __  ______
 72
    65
 73
     6
 40
12.7
 49
6.35
 74
     0
 49
-1.27
 74
     0
 49
1.27
 74
     0
 49
-1.27
 74
     0
 49
1.27
 74
     0
 49
-1.27
 74
     0
  0
LTYPE
  5
70
330
5
100
AcDbSymbolTableRecord
100
AcDbLinetypeTableRecord
  2
CENTER
 70
     0
  3
Center ____ _ ____ _ ____ _ ____ _ ____ _ ____
 72
    65
 73
     4
 40
10.16
 49
6.35
 74
     0
 49
-1.27
 74
     0
 49
1.27
 74
     0
 49
-1.27
 74
     0
  0
LTYPE
  5
71
330
5
100
AcDbSymbolTableRecord
100
AcDbLinetypeTableRecord
  2
CENTERX2
 70
     0
  3
Center (2x) ________  __  ________  __  _____
 72
    65
 73
     4
 40
20.32
 49
12.7
 74
     0
 49
-2.54
 74
     0
 49
2.54
 74
     0
 49
-2.54
 74
     0
  0
LTYPE
  5
72
330
5
100
AcDbSymbolTableRecord
100
AcDbLinetypeTableRecord
  2
DOT2
 70
     0
  3
Dot (.5x) ........................................
 72
    65
 73
     2
 40
0.635
 49
0.0
 74
     0
 49
-0.635
 74
     0
  0
ENDTAB
  0
TABLE
  2
LAYER
  5
2
330
0
100
AcDbSymbolTable
 70
     1
  0
LAYER
  5
10
330
2
100
AcDbSymbolTableRecord
100
AcDbLayerTableRecord
  2
0
 70
     0
 62
     7
  6
Continuous
370
    -3
390
F
  0
ENDTAB
  0
TABLE
  2
STYLE
  5
3
330
0
100
AcDbSymbolTable
 70
     2
  0
STYLE
  5
11
330
3
100
AcDbSymbolTableRecord
100
AcDbTextStyleTableRecord
  2
Standard
 70
     0
 40
0.0
 41
1.0
 50
0.0
 71
     0
 42
3.5
  3
txt
  4
bigfont
  0
STYLE
  5
7B
330
3
100
AcDbSymbolTableRecord
100
AcDbTextStyleTableRecord
  2
SLDTEXTSTYLE0
 70
     0
 40
0.0
 41
0.7
 50
0.0
 71
     0
 42
3.5
  3
TXT
  4
bigfont
  0
ENDTAB
  0
TABLE
  2
VIEW
  5
6
330
0
100
AcDbSymbolTable
 70
     0
  0
ENDTAB
  0
TABLE
  2
UCS
  5
7
330
0
100
AcDbSymbolTable
 70
     0
  0
ENDTAB
  0
TABLE
  2
APPID
  5
9
330
0
100
AcDbSymbolTable
 70
     1
  0
APPID
  5
12
330
9
100
AcDbSymbolTableRecord
100
AcDbRegAppTableRecord
  2
ACAD
 70
     0
  0
ENDTAB
  0
TABLE
  2
DIMSTYLE
  5
A
330
0
100
AcDbSymbolTable
 70
     6
100
AcDbDimStyleTable
  0
DIMSTYLE
105
27
330
A
100
AcDbSymbolTableRecord
100
AcDbDimStyleTableRecord
  2
ISO-25
 70
     0
 41
2.5
 42
0.625
 43
3.75
 44
1.25
 73
     0
 74
     0
 77
     1
 78
     8
140
2.5
141
2.5
143
0.0393700787
147
0.625
171
     3
172
     1
178
     0
271
     2
272
     2
274
     3
278
    44
283
     0
284
     8
340
11
  0
DIMSTYLE
105
11A
102
{ACAD_REACTORS
330
119
330
124
330
12E
330
138
330
142
330
220
330
22B
330
235
330
24C
330
256
330
260
330
26C
330
284
102
}
330
A
100
AcDbSymbolTableRecord
100
AcDbDimStyleTableRecord
  2
SLDDIMSTYLE0
 70
     0
 41
3.0
 44
0.0
 45
0.000000001
 73
     0
 74
     0
 77
     3
 78
    12
 79
     3
140
3.5
147
0.875
173
     1
178
     0
271
     1
272
     3
276
     2
284
    12
340
7B
  0
DIMSTYLE
105
240
102
{ACAD_REACTORS
330
23F
102
}
330
A
100
AcDbSymbolTableRecord
100
AcDbDimStyleTableRecord
  2
SLDDIMSTYLE1
 70
     0
 41
3.0
 44
0.0
 45
0.000000001
 73
     0
 74
     0
 77
     3
 78
    12
 79
     3
140
3.5
147
0.875
172
     1
173
     1
178
     0
271
     1
272
     3
276
     2
284
    12
289
     0
340
7B
  0
DIMSTYLE
105
279
102
{ACAD_REACTORS
330
278
102
}
330
A
100
AcDbSymbolTableRecord
100
AcDbDimStyleTableRecord
  2
SLDDIMSTYLE2
 70
     0
 41
3.0
 44
0.0
 45
0.000000001
 78
    12
 79
     3
140
3.5
141
0.0
147
0.875
173
     1
178
     0
271
     1
272
     3
276
     2
284
    12
340
7B
  0
DIMSTYLE
105
294
330
A
100
AcDbSymbolTableRecord
100
AcDbDimStyleTableRecord
  2
SLDDIMSTYLE3
 70
     0
 41
3.0
 44
0.0
 45
0.000000001
146
3.0
147
0.0
173
     1
178
     0
271
     0
272
     0
276
     2
340
11
  0
DIMSTYLE
105
380
102
{ACAD_REACTORS
330
37F
330
38C
102
}
330
A
100
AcDbSymbolTableRecord
100
AcDbDimStyleTableRecord
  2
SLDDIMSTYLE4
 70
     0
 41
3.0
 44
0.0
 45
0.000000001
 73
     0
 74
     0
 77
     3
 78
    12
 79
     3
140
3.5
147
0.875
173
     1
178
     0
271
     0
272
     3
276
     2
284
    12
340
7B
  0
ENDTAB
  0
TABLE
  2
BLOCK_RECORD
  5
1
330
0
100
AcDbSymbolTable
 70
    23
  0
BLOCK_RECORD
  5
1F
330
1
100
AcDbSymbolTableRecord
100
AcDbBlockTableRecord
  2
*Model_Space
340
22
  0
BLOCK_RECORD
  5
1B
330
1
100
AcDbSymbolTableRecord
100
AcDbBlockTableRecord
  2
*Paper_Space
340
1E
  0
BLOCK_RECORD
  5
23
330
1
100
AcDbSymbolTableRecord
100
AcDbBlockTableRecord
  2
*Paper_Space0
340
26
  0
BLOCK_RECORD
  5
11B
330
1
100
AcDbSymbolTableRecord
100
AcDbBlockTableRecord
  2
_D
340
0
  0
BLOCK_RECORD
  5
125
330
1
100
AcDbSymbolTableRecord
100
AcDbBlockTableRecord
  2
_D_1
340
0
  0
BLOCK_RECORD
  5
12F
330
1
100
AcDbSymbolTableRecord
100
AcDbBlockTableRecord
  2
_D_2
340
0
  0
BLOCK_RECORD
  5
139
330
1
100
AcDbSymbolTableRecord
100
AcDbBlockTableRecord
  2
_D_3
340
0
  0
BLOCK_RECORD
  5
143
330
1
100
AcDbSymbolTableRecord
100
AcDbBlockTableRecord
  2
_D_4
340
0
  0
BLOCK_RECORD
  5
221
330
1
100
AcDbSymbolTableRecord
100
AcDbBlockTableRecord
  2
_D_5
340
0
  0
BLOCK_RECORD
  5
22C
330
1
100
AcDbSymbolTableRecord
100
AcDbBlockTableRecord
  2
_D_6
340
0
  0
BLOCK_RECORD
  5
236
330
1
100
AcDbSymbolTableRecord
100
AcDbBlockTableRecord
  2
_D_7
340
0
  0
BLOCK_RECORD
  5
241
330
1
100
AcDbSymbolTableRecord
100
AcDbBlockTableRecord
  2
_D_8
340
0
  0
BLOCK_RECORD
  5
24D
330
1
100
AcDbSymbolTableRecord
100
AcDbBlockTableRecord
  2
_D_9
340
0
  0
BLOCK_RECORD
  5
257
330
1
100
AcDbSymbolTableRecord
100
AcDbBlockTableRecord
  2
_D_10
340
0
  0
BLOCK_RECORD
  5
261
330
1
100
AcDbSymbolTableRecord
100
AcDbBlockTableRecord
  2
_D_11
340
0
  0
BLOCK_RECORD
  5
26D
330
1
100
AcDbSymbolTableRecord
100
AcDbBlockTableRecord
  2
_D_12
340
0
  0
BLOCK_RECORD
  5
27A
330
1
100
AcDbSymbolTableRecord
100
AcDbBlockTableRecord
  2
_D_13
340
0
  0
BLOCK_RECORD
  5
285
330
1
100
AcDbSymbolTableRecord
100
AcDbBlockTableRecord
  2
_D_14
340
0
  0
BLOCK_RECORD
  5
28E
330
1
100
AcDbSymbolTableRecord
100
AcDbBlockTableRecord
  2
SW_NOTE_0
340
0
102
{BLKREFS
331
293
102
}
  0
BLOCK_RECORD
  5
296
330
1
100
AcDbSymbolTableRecord
100
AcDbBlockTableRecord
  2
SW_CENTERMARKSYMBOL_0
340
0
102
{BLKREFS
331
2A1
102
}
  0
BLOCK_RECORD
  5
2A2
330
1
100
AcDbSymbolTableRecord
100
AcDbBlockTableRecord
  2
SW_CENTERMARKSYMBOL_1
340
0
102
{BLKREFS
331
2AD
102
}
  0
BLOCK_RECORD
  5
2AE
330
1
100
AcDbSymbolTableRecord
100
AcDbBlockTableRecord
  2
SW_CENTERMARKSYMBOL_2
340
0
102
{BLKREFS
331
2B9
102
}
  0
BLOCK_RECORD
  5
381
330
1
100
AcDbSymbolTableRecord
100
AcDbBlockTableRecord
  2
_D_15
340
0
  0
BLOCK_RECORD
  5
38D
330
1
100
AcDbSymbolTableRecord
100
AcDbBlockTableRecord
  2
_D_16
340
0
  0
BLOCK_RECORD
  5
398
330
1
100
AcDbSymbolTableRecord
100
AcDbBlockTableRecord
  2
SW_CENTERMARKSYMBOL_3
340
0
102
{BLKREFS
331
3A3
102
}
  0
ENDTAB
  0
ENDSEC
  0
SECTION
  2
BLOCKS
  0
BLOCK
  5
20
330
1F
100
AcDbEntity
  8
0
100
AcDbBlockBegin
  2
*Model_Space
 70
     0
 10
0.0
 20
0.0
 30
0.0
  3
*Model_Space
  1

  0
ENDBLK
  5
21
330
1F
100
AcDbEntity
  8
0
100
AcDbBlockEnd
  0
BLOCK
  5
1C
330
1B
100
AcDbEntity
 67
     1
  8
0
100
AcDbBlockBegin
  2
*Paper_Space
 70
     0
 10
0.0
 20
0.0
 30
0.0
  3
*Paper_Space
  1

  0
ENDBLK
  5
1D
330
1B
100
AcDbEntity
 67
     1
  8
0
100
AcDbBlockEnd
  0
BLOCK
  5
24
330
23
100
AcDbEntity
  8
0
100
AcDbBlockBegin
  2
*Paper_Space0
 70
     0
 10
0.0
 20
0.0
 30
0.0
  3
*Paper_Space0
  1

  0
ENDBLK
  5
25
330
23
100
AcDbEntity
  8
0
100
AcDbBlockEnd
  0
BLOCK
  5
11C
330
11B
100
AcDbEntity
  8
0
100
AcDbBlockBegin
  2
_D
 70
     0
 10
0.0
 20
0.0
 30
0.0
  3
_D
  1

  0
SOLID
  5
11E
330
11B
100
AcDbEntity
  8
0
  6
Continuous
 62
     7
370
     0
100
AcDbTrace
 10
151.7768778666
 20
268.8092181503
 30
0.0
 11
154.7768778666
 21
268.0592181503
 31
0.0
 12
154.7768778666
 22
269.5592181503
 32
0.0
 13
154.7768778666
 23
269.5592181503
 33
0.0
  0
SOLID
  5
11F
330
11B
100
AcDbEntity
  8
0
  6
Continuous
 62
     7
370
     0
100
AcDbTrace
 10
166.7768778666
 20
268.8092181503
 30
0.0
 11
163.7768778666
 21
269.5592181503
 31
0.0
 12
163.7768778666
 22
268.0592181503
 32
0.0
 13
163.7768778666
 23
268.0592181503
 33
0.0
  0
LINE
  5
120
330
11B
100
AcDbEntity
  8
0
  6
Continuous
 62
     7
370
     0
100
AcDbLine
 10
151.7768778666
 20
259.1317052551
 30
0.0
 11
151.7768778666
 21
269.8092181503
 31
0.0
  0
LINE
  5
121
330
11B
100
AcDbEntity
  8
0
  6
Continuous
 62
     7
370
     0
100
AcDbLine
 10
166.7768778666
 20
255.5736284963
 30
0.0
 11
166.7768778666
 21
269.8092181503
 31
0.0
  0
LINE
  5
122
330
11B
100
AcDbEntity
  8
0
  6
Continuous
 62
     7
370
     0
100
AcDbLine
 10
151.7768778666
 20
268.8092181503
 30
0.0
 11
166.7768778666
 21
268.8092181503
 31
0.0
  0
MTEXT
  5
123
330
11B
100
AcDbEntity
  8
0
  6
Continuous
 62
     7
370
     0
100
AcDbMText
 10
157.2400723691
 20
273.3209550066
 30
0.0
 40
3.5
 41
0.0
 71
     1
 72
     1
  1
15
  7
SLDTEXTSTYLE0
 73
     1
 44
1.0
  0
ENDBLK
  5
11D
330
11B
100
AcDbEntity
  8
0
100
AcDbBlockEnd
  0
BLOCK
  5
126
330
125
100
AcDbEntity
  8
0
100
AcDbBlockBegin
  2
_D_1
 70
     0
 10
0.0
 20
0.0
 30
0.0
  3
_D_1
  1

  0
SOLID
  5
128
330
125
100
AcDbEntity
  8
0
  6
Continuous
 62
     7
370
     0
100
AcDbTrace
 10
142.223313882
 20
258.7100699217
 30
0.0
 11
141.473313882
 21
255.7100699217
 31
0.0
 12
142.973313882
 22
255.7100699217
 32
0.0
 13
142.973313882
 23
255.7100699217
 33
0.0
  0
SOLID
  5
129
330
125
100
AcDbEntity
  8
0
  6
Continuous
 62
     7
370
     0
100
AcDbTrace
 10
142.223313882
 20
228.544139084
 30
0.0
 11
142.973313882
 21
231.544139084
 31
0.0
 12
141.473313882
 22
231.544139084
 32
0.0
 13
141.473313882
 23
231.544139084
 33
0.0
  0
LINE
  5
12A
330
125
100
AcDbEntity
  8
0
  6
Continuous
 62
     7
370
     0
100
AcDbLine
 10
150.7768778666
 20
258.7100699217
 30
0.0
 11
141.223313882
 21
258.7100699217
 31
0.0
  0
LINE
  5
12B
330
125
100
AcDbEntity
  8
0
  6
Continuous
 62
     7
370
     0
100
AcDbLine
 10
150.7768778666
 20
228.544139084
 30
0.0
 11
141.223313882
 21
228.544139084
 31
0.0
  0
LINE
  5
12C
330
125
100
AcDbEntity
  8
0
  6
Continuous
 62
     7
370
     0
100
AcDbLine
 10
142.223313882
 20
258.7100699217
 30
0.0
 11
142.223313882
 21
228.544139084
 31
0.0
  0
MTEXT
  5
12D
330
125
100
AcDbEntity
  8
0
  6
Continuous
 62
     7
370
     0
100
AcDbMText
 10
137.7115770256
 20
241.5902990054
 30
0.0
 40
3.5
 41
0.0
 71
     1
 72
     1
  1
30
  7
SLDTEXTSTYLE0
 11
-1.770233605404514E-14
 21
1.0
 31
0.0
 73
     1
 44
1.0
  0
ENDBLK
  5
127
330
125
100
AcDbEntity
  8
0
100
AcDbBlockEnd
  0
BLOCK
  5
130
330
12F
100
AcDbEntity
  8
0
100
AcDbBlockBegin
  2
_D_2
 70
     0
 10
0.0
 20
0.0
 30
0.0
  3
_D_2
  1

  0
SOLID
  5
132
330
12F
100
AcDbEntity
  8
0
  6
Continuous
 62
     7
370
     0
100
AcDbTrace
 10
151.7768778666
 20
274.8092181503
 30
0.0
 11
154.7768778666
 21
274.0592181503
 31
0.0
 12
154.7768778666
 22
275.5592181503
 32
0.0
 13
154.7768778666
 23
275.5592181503
 33
0.0
  0
SOLID
  5
133
330
12F
100
AcDbEntity
  8
0
  6
Continuous
 62
     7
370
     0
100
AcDbTrace
 10
176.7768778666
 20
274.8092181503
 30
0.0
 11
173.7768778666
 21
275.5592181503
 31
0.0
 12
173.7768778666
 22
274.0592181503
 32
0.0
 13
173.7768778666
 23
274.0592181503
 33
0.0
  0
LINE
  5
134
330
12F
100
AcDbEntity
  8
0
  6
Continuous
 62
     7
370
     0
100
AcDbLine
 10
151.7768778666
 20
259.1317052551
 30
0.0
 11
151.7768778666
 21
275.8092181503
 31
0.0
  0
LINE
  5
135
330
12F
100
AcDbEntity
  8
0
  6
Continuous
 62
     7
370
     0
100
AcDbLine
 10
176.7768778666
 20
257.9107289275
 30
0.0
 11
176.7768778666
 21
275.8092181503
 31
0.0
  0
LINE
  5
136
330
12F
100
AcDbEntity
  8
0
  6
Continuous
 62
     7
370
     0
100
AcDbLine
 10
151.7768778666
 20
274.8092181503
 30
0.0
 11
176.7768778666
 21
274.8092181503
 31
0.0
  0
MTEXT
  5
137
330
12F
100
AcDbEntity
  8
0
  6
Continuous
 62
     7
370
     0
100
AcDbMText
 10
162.2400723691
 20
279.3209550066
 30
0.0
 40
3.5
 41
0.0
 71
     1
 72
     1
  1
25
  7
SLDTEXTSTYLE0
 73
     1
 44
1.0
  0
ENDBLK
  5
131
330
12F
100
AcDbEntity
  8
0
100
AcDbBlockEnd
  0
BLOCK
  5
13A
330
139
100
AcDbEntity
  8
0
100
AcDbBlockBegin
  2
_D_3
 70
     0
 10
0.0
 20
0.0
 30
0.0
  3
_D_3
  1

  0
SOLID
  5
13C
330
139
100
AcDbEntity
  8
0
  6
Continuous
 62
     7
370
     0
100
AcDbTrace
 10
181.7768778666
 20
101.8666307546
 30
0.0
 11
178.7768778666
 21
102.6166307546
 31
0.0
 12
178.7768778666
 22
101.1166307546
 32
0.0
 13
178.7768778666
 23
101.1166307546
 33
0.0
  0
SOLID
  5
13D
330
139
100
AcDbEntity
  8
0
  6
Continuous
 62
     7
370
     0
100
AcDbTrace
 10
161.7768778666
 20
101.8666307546
 30
0.0
 11
164.7768778666
 21
101.1166307546
 31
0.0
 12
164.7768778666
 22
102.6166307546
 32
0.0
 13
164.7768778666
 23
102.6166307546
 33
0.0
  0
LINE
  5
13E
330
139
100
AcDbEntity
  8
0
  6
Continuous
 62
     7
370
     0
100
AcDbLine
 10
181.7768778666
 20
121.8666307546
 30
0.0
 11
181.7768778666
 21
100.8666307546
 31
0.0
  0
LINE
  5
13F
330
139
100
AcDbEntity
  8
0
  6
Continuous
 62
     7
370
     0
100
AcDbLine
 10
161.7768778666
 20
121.8666307546
 30
0.0
 11
161.7768778666
 21
100.8666307546
 31
0.0
  0
LINE
  5
140
330
139
100
AcDbEntity
  8
0
  6
Continuous
 62
     7
370
     0
100
AcDbLine
 10
181.7768778666
 20
101.8666307546
 30
0.0
 11
161.7768778666
 21
101.8666307546
 31
0.0
  0
MTEXT
  5
141
330
139
100
AcDbEntity
  8
0
  6
Continuous
 62
     7
370
     0
100
AcDbMText
 10
169.7400723691
 20
106.378367611
 30
0.0
 40
3.5
 41
0.0
 71
     1
 72
     1
  1
20
  7
SLDTEXTSTYLE0
 73
     1
 44
1.0
  0
ENDBLK
  5
13B
330
139
100
AcDbEntity
  8
0
100
AcDbBlockEnd
  0
BLOCK
  5
144
330
143
100
AcDbEntity
  8
0
100
AcDbBlockBegin
  2
_D_4
 70
     0
 10
0.0
 20
0.0
 30
0.0
  3
_D_4
  1

  0
SOLID
  5
146
330
143
100
AcDbEntity
  8
0
  6
Continuous
 62
     7
370
     0
100
AcDbTrace
 10
181.7768778666
 20
89.8666307546
 30
0.0
 11
178.7768778666
 21
90.6166307546
 31
0.0
 12
178.7768778666
 22
89.1166307546
 32
0.0
 13
178.7768778666
 23
89.1166307546
 33
0.0
  0
SOLID
  5
147
330
143
100
AcDbEntity
  8
0
  6
Continuous
 62
     7
370
     0
100
AcDbTrace
 10
151.7768778666
 20
89.8666307546
 30
0.0
 11
154.7768778666
 21
89.1166307546
 31
0.0
 12
154.7768778666
 22
90.6166307546
 32
0.0
 13
154.7768778666
 23
90.6166307546
 33
0.0
  0
LINE
  5
148
330
143
100
AcDbEntity
  8
0
  6
Continuous
 62
     7
370
     0
100
AcDbLine
 10
181.7768778666
 20
121.8666307546
 30
0.0
 11
181.7768778666
 21
88.8666307546
 31
0.0
  0
LINE
  5
149
330
143
100
AcDbEntity
  8
0
  6
Continuous
 62
     7
370
     0
100
AcDbLine
 10
151.7768778666
 20
227.544139084
 30
0.0
 11
151.7768778666
 21
88.8666307546
 31
0.0
  0
LINE
  5
14A
330
143
100
AcDbEntity
  8
0
  6
Continuous
 62
     7
370
     0
100
AcDbLine
 10
181.7768778666
 20
89.8666307546
 30
0.0
 11
151.7768778666
 21
89.8666307546
 31
0.0
  0
MTEXT
  5
14B
330
143
100
AcDbEntity
  8
0
  6
Continuous
 62
     7
370
     0
100
AcDbMText
 10
164.7400723691
 20
94.378367611
 30
0.0
 40
3.5
 41
0.0
 71
     1
 72
     1
  1
30
  7
SLDTEXTSTYLE0
 73
     1
 44
1.0
  0
ENDBLK
  5
145
330
143
100
AcDbEntity
  8
0
100
AcDbBlockEnd
  0
BLOCK
  5
222
330
221
100
AcDbEntity
  8
0
100
AcDbBlockBegin
  2
_D_5
 70
     0
 10
0.0
 20
0.0
 30
0.0
  3
_D_5
  1

  0
SOLID
  5
224
330
221
100
AcDbEntity
  8
0
  6
Continuous
 62
     7
370
     0
100
AcDbTrace
 10
92.2851489334
 20
104.3251439611
 30
0.0
 11
89.2851489334
 21
105.0751439611
 31
0.0
 12
89.2851489334
 22
103.5751439611
 32
0.0
 13
89.2851489334
 23
103.5751439611
 33
0.0
  0
SOLID
  5
225
330
221
100
AcDbEntity
  8
0
  6
Continuous
 62
     7
370
     0
100
AcDbTrace
 10
72.2851489334
 20
104.3251439611
 30
0.0
 11
75.2851489334
 21
103.5751439611
 31
0.0
 12
75.2851489334
 22
105.0751439611
 32
0.0
 13
75.2851489334
 23
105.0751439611
 33
0.0
  0
LINE
  5
226
330
221
100
AcDbEntity
  8
0
  6
Continuous
 62
     7
370
     0
100
AcDbLine
 10
92.2851489334
 20
121.8666307546
 30
0.0
 11
92.2851489334
 21
103.3251439611
 31
0.0
  0
LINE
  5
227
330
221
100
AcDbEntity
  8
0
  6
Continuous
 62
     7
370
     0
100
AcDbLine
 10
72.2851489334
 20
121.8666307546
 30
0.0
 11
72.2851489334
 21
103.3251439611
 31
0.0
  0
LINE
  5
228
330
221
100
AcDbEntity
  8
0
  6
Continuous
 62
     7
370
     0
100
AcDbLine
 10
92.2851489334
 20
104.3251439611
 30
0.0
 11
72.2851489334
 21
104.3251439611
 31
0.0
  0
MTEXT
  5
229
330
221
100
AcDbEntity
  8
0
  6
Continuous
 62
     7
370
     0
100
AcDbMText
 10
78.313378062
 20
108.8368812831
 30
0.0
 40
3.5
 41
0.0
 71
     1
 72
     1
  1
%%c
  7
SLDTEXTSTYLE0
 73
     1
 44
1.0
  0
MTEXT
  5
22A
330
221
100
AcDbEntity
  8
0
  6
Continuous
 62
     7
370
     0
100
AcDbMText
 10
82.1833085771
 20
108.8368812831
 30
0.0
 40
3.5
 41
0.0
 71
     1
 72
     1
  1
20
  7
SLDTEXTSTYLE0
 73
     1
 44
1.0
  0
ENDBLK
  5
223
330
221
100
AcDbEntity
  8
0
100
AcDbBlockEnd
  0
BLOCK
  5
22D
330
22C
100
AcDbEntity
  8
0
100
AcDbBlockBegin
  2
_D_6
 70
     0
 10
0.0
 20
0.0
 30
0.0
  3
_D_6
  1

  0
SOLID
  5
22F
330
22C
100
AcDbEntity
  8
0
  6
Continuous
 62
     7
370
     0
100
AcDbTrace
 10
66.2851489334
 20
98.1249045849
 30
0.0
 11
69.2851489334
 21
97.3749045849
 31
0.0
 12
69.2851489334
 22
98.8749045849
 32
0.0
 13
69.2851489334
 23
98.8749045849
 33
0.0
  0
SOLID
  5
230
330
22C
100
AcDbEntity
  8
0
  6
Continuous
 62
     7
370
     0
100
AcDbTrace
 10
98.2851489334
 20
98.1249045849
 30
0.0
 11
95.2851489334
 21
98.8749045849
 31
0.0
 12
95.2851489334
 22
97.3749045849
 32
0.0
 13
95.2851489334
 23
97.3749045849
 33
0.0
  0
LINE
  5
231
330
22C
100
AcDbEntity
  8
0
  6
Continuous
 62
     7
370
     0
100
AcDbLine
 10
66.2851489334
 20
150.8666307546
 30
0.0
 11
66.2851489334
 21
97.1249045849
 31
0.0
  0
LINE
  5
232
330
22C
100
AcDbEntity
  8
0
  6
Continuous
 62
     7
370
     0
100
AcDbLine
 10
98.2851489334
 20
150.8666307546
 30
0.0
 11
98.2851489334
 21
97.1249045849
 31
0.0
  0
LINE
  5
233
330
22C
100
AcDbEntity
  8
0
  6
Continuous
 62
     7
370
     0
100
AcDbLine
 10
66.2851489334
 20
98.1249045849
 30
0.0
 11
98.2851489334
 21
98.1249045849
 31
0.0
  0
MTEXT
  5
234
330
22C
100
AcDbEntity
  8
0
  6
Continuous
 62
     7
370
     0
100
AcDbMText
 10
80.248343436
 20
102.6366414412
 30
0.0
 40
3.5
 41
0.0
 71
     1
 72
     1
  1
32
  7
SLDTEXTSTYLE0
 73
     1
 44
1.0
  0
ENDBLK
  5
22E
330
22C
100
AcDbEntity
  8
0
100
AcDbBlockEnd
  0
BLOCK
  5
237
330
236
100
AcDbEntity
  8
0
100
AcDbBlockBegin
  2
_D_7
 70
     0
 10
0.0
 20
0.0
 30
0.0
  3
_D_7
  1

  0
SOLID
  5
239
330
236
100
AcDbEntity
  8
0
  6
Continuous
 62
     7
370
     0
100
AcDbTrace
 10
61.2851489334
 20
91.9246652087
 30
0.0
 11
64.2851489334
 21
91.1746652087
 31
0.0
 12
64.2851489334
 22
92.6746652087
 32
0.0
 13
64.2851489334
 23
92.6746652087
 33
0.0
  0
SOLID
  5
23A
330
236
100
AcDbEntity
  8
0
  6
Continuous
 62
     7
370
     0
100
AcDbTrace
 10
103.2851489334
 20
91.9246652087
 30
0.0
 11
100.2851489334
 21
92.6746652087
 31
0.0
 12
100.2851489334
 22
91.1746652087
 32
0.0
 13
100.2851489334
 23
91.1746652087
 33
0.0
  0
LINE
  5
23B
330
236
100
AcDbEntity
  8
0
  6
Continuous
 62
     7
370
     0
100
AcDbLine
 10
61.2851489334
 20
145.8666307546
 30
0.0
 11
61.2851489334
 21
90.9246652087
 31
0.0
  0
LINE
  5
23C
330
236
100
AcDbEntity
  8
0
  6
Continuous
 62
     7
370
     0
100
AcDbLine
 10
103.2851489334
 20
145.8666307546
 30
0.0
 11
103.2851489334
 21
90.9246652087
 31
0.0
  0
LINE
  5
23D
330
236
100
AcDbEntity
  8
0
  6
Continuous
 62
     7
370
     0
100
AcDbLine
 10
61.2851489334
 20
91.9246652087
 30
0.0
 11
103.2851489334
 21
91.9246652087
 31
0.0
  0
MTEXT
  5
23E
330
236
100
AcDbEntity
  8
0
  6
Continuous
 62
     7
370
     0
100
AcDbMText
 10
80.248343436
 20
96.436402065
 30
0.0
 40
3.5
 41
0.0
 71
     1
 72
     1
  1
42
  7
SLDTEXTSTYLE0
 73
     1
 44
1.0
  0
ENDBLK
  5
238
330
236
100
AcDbEntity
  8
0
100
AcDbBlockEnd
  0
BLOCK
  5
242
330
241
100
AcDbEntity
  8
0
100
AcDbBlockBegin
  2
_D_8
 70
     0
 10
0.0
 20
0.0
 30
0.0
  3
_D_8
  1

  0
SOLID
  5
244
330
241
100
AcDbEntity
  8
0
  6
Continuous
 62
     7
370
     0
100
AcDbTrace
 10
113.8893886382
 20
146.8666307546
 30
0.0
 11
113.1393886382
 21
143.8666307546
 31
0.0
 12
114.6393886382
 22
143.8666307546
 32
0.0
 13
114.6393886382
 23
143.8666307546
 33
0.0
  0
SOLID
  5
245
330
241
100
AcDbEntity
  8
0
  6
Continuous
 62
     7
370
     0
100
AcDbTrace
 10
113.8893886382
 20
151.8666307546
 30
0.0
 11
114.6393886382
 21
154.8666307546
 31
0.0
 12
113.1393886382
 22
154.8666307546
 32
0.0
 13
113.1393886382
 23
154.8666307546
 33
0.0
  0
LINE
  5
246
330
241
100
AcDbEntity
  8
0
  6
Continuous
 62
     7
370
     0
100
AcDbLine
 10
104.2851489334
 20
146.8666307546
 30
0.0
 11
114.8893886382
 21
146.8666307546
 31
0.0
  0
LINE
  5
247
330
241
100
AcDbEntity
  8
0
  6
Continuous
 62
     7
370
     0
100
AcDbLine
 10
67.2851489334
 20
151.8666307546
 30
0.0
 11
114.8893886382
 21
151.8666307546
 31
0.0
  0
LINE
  5
248
330
241
100
AcDbEntity
  8
0
  6
Continuous
 62
     7
370
     0
100
AcDbLine
 10
113.8893886382
 20
146.8666307546
 30
0.0
 11
113.8893886382
 21
141.8666307546
 31
0.0
  0
LINE
  5
249
330
241
100
AcDbEntity
  8
0
  6
Continuous
 62
     7
370
     0
100
AcDbLine
 10
113.8893886382
 20
146.8666307546
 30
0.0
 11
113.8893886382
 21
151.8666307546
 31
0.0
  0
LINE
  5
24A
330
241
100
AcDbEntity
  8
0
  6
Continuous
 62
     7
370
     0
100
AcDbLine
 10
113.8893886382
 20
151.8666307546
 30
0.0
 11
113.8893886382
 21
156.8666307546
 31
0.0
  0
MTEXT
  5
24B
330
241
100
AcDbEntity
  8
0
  6
Continuous
 62
     7
370
     0
100
AcDbMText
 10
109.3776517818
 20
148.3482280059
 30
0.0
 40
3.5
 41
0.0
 71
     1
 72
     1
  1
5
  7
SLDTEXTSTYLE0
 11
6.123233995736766E-17
 21
1.0
 31
0.0
 73
     1
 44
1.0
  0
ENDBLK
  5
243
330
241
100
AcDbEntity
  8
0
100
AcDbBlockEnd
  0
BLOCK
  5
24E
330
24D
100
AcDbEntity
  8
0
100
AcDbBlockBegin
  2
_D_9
 70
     0
 10
0.0
 20
0.0
 30
0.0
  3
_D_9
  1

  0
SOLID
  5
250
330
24D
100
AcDbEntity
  8
0
  6
Continuous
 62
     7
370
     0
100
AcDbTrace
 10
113.8893886382
 20
151.8666307546
 30
0.0
 11
114.6393886382
 21
154.8666307546
 31
0.0
 12
113.1393886382
 22
154.8666307546
 32
0.0
 13
113.1393886382
 23
154.8666307546
 33
0.0
  0
SOLID
  5
251
330
24D
100
AcDbEntity
  8
0
  6
Continuous
 62
     7
370
     0
100
AcDbTrace
 10
113.8893886382
 20
194.8666307546
 30
0.0
 11
113.1393886382
 21
191.8666307546
 31
0.0
 12
114.6393886382
 22
191.8666307546
 32
0.0
 13
114.6393886382
 23
191.8666307546
 33
0.0
  0
LINE
  5
252
330
24D
100
AcDbEntity
  8
0
  6
Continuous
 62
     7
370
     0
100
AcDbLine
 10
99.2851489334
 20
151.8666307546
 30
0.0
 11
114.8893886382
 21
151.8666307546
 31
0.0
  0
LINE
  5
253
330
24D
100
AcDbEntity
  8
0
  6
Continuous
 62
     7
370
     0
100
AcDbLine
 10
83.2851489334
 20
194.8666307546
 30
0.0
 11
114.8893886382
 21
194.8666307546
 31
0.0
  0
LINE
  5
254
330
24D
100
AcDbEntity
  8
0
  6
Continuous
 62
     7
370
     0
100
AcDbLine
 10
113.8893886382
 20
151.8666307546
 30
0.0
 11
113.8893886382
 21
194.8666307546
 31
0.0
  0
MTEXT
  5
255
330
24D
100
AcDbEntity
  8
0
  6
Continuous
 62
     7
370
     0
100
AcDbMText
 10
109.3776517818
 20
171.3298252571
 30
0.0
 40
3.5
 41
0.0
 71
     1
 72
     1
  1
43
  7
SLDTEXTSTYLE0
 11
6.123233995736766E-17
 21
1.0
 31
0.0
 73
     1
 44
1.0
  0
ENDBLK
  5
24F
330
24D
100
AcDbEntity
  8
0
100
AcDbBlockEnd
  0
BLOCK
  5
258
330
257
100
AcDbEntity
  8
0
100
AcDbBlockBegin
  2
_D_10
 70
     0
 10
0.0
 20
0.0
 30
0.0
  3
_D_10
  1

  0
SOLID
  5
25A
330
257
100
AcDbEntity
  8
0
  6
Continuous
 62
     7
370
     0
100
AcDbTrace
 10
121.7701775902
 20
146.8666307546
 30
0.0
 11
122.5201775902
 21
149.8666307546
 31
0.0
 12
121.0201775902
 22
149.8666307546
 32
0.0
 13
121.0201775902
 23
149.8666307546
 33
0.0
  0
SOLID
  5
25B
330
257
100
AcDbEntity
  8
0
  6
Continuous
 62
     7
370
     0
100
AcDbTrace
 10
121.7701775902
 20
217.0582974146
 30
0.0
 11
121.0201775902
 21
214.0582974146
 31
0.0
 12
122.5201775902
 22
214.0582974146
 32
0.0
 13
122.5201775902
 23
214.0582974146
 33
0.0
  0
LINE
  5
25C
330
257
100
AcDbEntity
  8
0
  6
Continuous
 62
     7
370
     0
100
AcDbLine
 10
104.2851489334
 20
146.8666307546
 30
0.0
 11
122.7701775902
 21
146.8666307546
 31
0.0
  0
LINE
  5
25D
330
257
100
AcDbEntity
  8
0
  6
Continuous
 62
     7
370
     0
100
AcDbLine
 10
89.2851489334
 20
217.0582974146
 30
0.0
 11
122.7701775902
 21
217.0582974146
 31
0.0
  0
LINE
  5
25E
330
257
100
AcDbEntity
  8
0
  6
Continuous
 62
     7
370
     0
100
AcDbLine
 10
121.7701775902
 20
146.8666307546
 30
0.0
 11
121.7701775902
 21
217.0582974146
 31
0.0
  0
MTEXT
  5
25F
330
257
100
AcDbEntity
  8
0
  6
Continuous
 62
     7
370
     0
100
AcDbMText
 10
117.2584407339
 20
177.8888530896
 30
0.0
 40
3.5
 41
0.0
 71
     1
 72
     1
  1
70.2
  7
SLDTEXTSTYLE0
 11
6.123233995736766E-17
 21
1.0
 31
0.0
 73
     1
 44
1.0
  0
ENDBLK
  5
259
330
257
100
AcDbEntity
  8
0
100
AcDbBlockEnd
  0
BLOCK
  5
262
330
261
100
AcDbEntity
  8
0
100
AcDbBlockBegin
  2
_D_11
 70
     0
 10
0.0
 20
0.0
 30
0.0
  3
_D_11
  1

  0
ARC
  5
264
330
261
100
AcDbEntity
  8
0
  6
Continuous
 62
     7
370
     0
100
AcDbCircle
 10
129.1223219882
 20
186.3067529123
 30
0.0
 40
4.554435549315978
100
AcDbArc
 50
243.4349488229
 51
296.5650511771
  0
ARC
  5
265
330
261
100
AcDbEntity
  8
0
  6
Continuous
 62
     7
370
     0
100
AcDbCircle
 10
129.1223219882
 20
184.2699476476
 30
0.0
 40
4.554435549315953
100
AcDbArc
 50
63.4349488229
 51
116.5650511771
  0
SOLID
  5
266
330
261
100
AcDbEntity
  8
0
  6
Continuous
 62
     7
370
     0
100
AcDbTrace
 10
131.1591274857
 20
258.7100699217
 30
0.0
 11
130.4091274857
 21
255.7100699217
 31
0.0
 12
131.9091274857
 22
255.7100699217
 32
0.0
 13
131.9091274857
 23
255.7100699217
 33
0.0
  0
SOLID
  5
267
330
261
100
AcDbEntity
  8
0
  6
Continuous
 62
     7
370
     0
100
AcDbTrace
 10
131.1591274857
 20
111.8666307546
 30
0.0
 11
131.9091274857
 21
114.8666307546
 31
0.0
 12
130.4091274857
 22
114.8666307546
 32
0.0
 13
130.4091274857
 23
114.8666307546
 33
0.0
  0
LINE
  5
268
330
261
100
AcDbEntity
  8
0
  6
Continuous
 62
     7
370
     0
100
AcDbLine
 10
94.3726162873
 20
258.7100699217
 30
0.0
 11
132.1591274857
 21
258.7100699217
 31
0.0
  0
LINE
  5
269
330
261
100
AcDbEntity
  8
0
  6
Continuous
 62
     7
370
     0
100
AcDbLine
 10
85.2630346586
 20
111.8666307546
 30
0.0
 11
132.1591274857
 21
111.8666307546
 31
0.0
  0
LINE
  5
26A
330
261
100
AcDbEntity
  8
0
  6
Continuous
 62
     7
370
     0
100
AcDbLine
 10
131.1591274857
 20
258.7100699217
 30
0.0
 11
131.1591274857
 21
111.8666307546
 31
0.0
  0
MTEXT
  5
26B
330
261
100
AcDbEntity
  8
0
  6
Continuous
 62
     7
370
     0
100
AcDbMText
 10
126.6473906294
 20
182.2331419173
 30
0.0
 40
3.5
 41
0.0
 71
     1
 72
     1
  1
147
  7
SLDTEXTSTYLE0
 11
-7.044195017643634E-15
 21
1.0
 31
0.0
 73
     1
 44
1.0
  0
ENDBLK
  5
263
330
261
100
AcDbEntity
  8
0
100
AcDbBlockEnd
  0
BLOCK
  5
26E
330
26D
100
AcDbEntity
  8
0
100
AcDbBlockBegin
  2
_D_12
 70
     0
 10
0.0
 20
0.0
 30
0.0
  3
_D_12
  1

  0
ARC
  5
270
330
26D
100
AcDbEntity
  8
0
  6
Continuous
 62
     7
370
     0
100
AcDbCircle
 10
84.700885354
 20
276.8349477958
 30
0.0
 40
4.554435549315982
100
AcDbArc
 50
153.1717469132
 51
206.3018492674
  0
ARC
  5
271
330
26D
100
AcDbEntity
  8
0
  6
Continuous
 62
     7
370
     0
100
AcDbCircle
 10
80.6273173405
 20
276.8536608395
 30
0.0
 40
4.554435549315995
100
AcDbArc
 50
333.1717469132
 51
26.3018492674
  0
SOLID
  5
272
330
26D
100
AcDbEntity
  8
0
  6
Continuous
 62
     7
370
     0
100
AcDbTrace
 10
71.8631531915
 20
274.8570944249
 30
0.0
 11
74.8596762451
 21
274.0933211671
 31
0.0
 12
74.8665668307
 22
275.5933053402
 32
0.0
 13
74.8665668307
 23
275.5933053402
 33
0.0
  0
SOLID
  5
273
330
26D
100
AcDbEntity
  8
0
  6
Continuous
 62
     7
370
     0
100
AcDbTrace
 10
93.4463365757
 20
274.7579461964
 30
0.0
 11
90.4498135222
 21
275.5217194543
 31
0.0
 12
90.4429229365
 22
274.0217352811
 32
0.0
 13
90.4429229365
 23
274.0217352811
 33
0.0
  0
LINE
  5
274
330
26D
100
AcDbEntity
  8
0
  6
Continuous
 62
     7
370
     0
100
AcDbLine
 10
71.7940266268
 20
259.8092075991
 30
0.0
 11
71.8677469153
 21
275.8570838737
 31
0.0
  0
LINE
  5
275
330
26D
100
AcDbEntity
  8
0
  6
Continuous
 62
     7
370
     0
100
AcDbLine
 10
93.377210011
 20
259.7100593705
 30
0.0
 11
93.4509302995
 21
275.7579356452
 31
0.0
  0
LINE
  5
276
330
26D
100
AcDbEntity
  8
0
  6
Continuous
 62
     7
370
     0
100
AcDbLine
 10
71.8631531915
 20
274.8570944249
 30
0.0
 11
93.4463365757
 21
274.7579461964
 31
0.0
  0
MTEXT
  5
277
330
26D
100
AcDbEntity
  8
0
  6
Continuous
 62
     7
370
     0
100
AcDbMText
 10
80.6386864915
 20
279.3285660849
 30
0.0
 40
3.5
 41
0.0
 71
     1
 72
     1
  1
21
  7
SLDTEXTSTYLE0
 11
0.9999894487953217
 21
-0.004593723764951225
 31
0.0
 73
     1
 44
1.0
  0
ENDBLK
  5
26F
330
26D
100
AcDbEntity
  8
0
100
AcDbBlockEnd
  0
BLOCK
  5
27B
330
27A
100
AcDbEntity
  8
0
100
AcDbBlockBegin
  2
_D_13
 70
     0
 10
0.0
 20
0.0
 30
0.0
  3
_D_13
  1

  0
SOLID
  5
27D
330
27A
100
AcDbEntity
  8
0
  6
Continuous
 62
     7
370
     0
100
AcDbTrace
 10
63.6124534735
 20
153.2292381736
 30
0.0
 11
61.2804098683
 21
155.2600194576
 31
0.0
 12
60.5991061588
 22
153.9236717277
 32
0.0
 13
60.5991061588
 23
153.9236717277
 33
0.0
  0
LINE
  5
27E
330
27A
100
AcDbEntity
  8
0
  6
Continuous
 62
     7
370
     0
100
AcDbLine
 10
63.6124534735
 20
153.2292381736
 30
0.0
 11
54.8488015458
 21
157.6971685134
 31
0.0
  0
LINE
  5
27F
330
27A
100
AcDbEntity
  8
0
  6
Continuous
 62
     7
370
     0
100
AcDbLine
 10
54.8488015458
 20
157.6971685134
 30
0.0
 11
20.6724173114
 21
157.6971685134
 31
0.0
  0
MTEXT
  5
280
330
27A
100
AcDbEntity
  8
0
  6
Continuous
 62
     7
370
     0
100
AcDbMText
 10
26.782832174
 20
166.2825163647
 30
0.0
 40
3.5
 41
0.0
 71
     1
 72
     1
  1
3-
  7
SLDTEXTSTYLE0
 73
     1
 44
1.0
  0
MTEXT
  5
281
330
27A
100
AcDbEntity
  8
0
  6
Continuous
 62
     7
370
     0
100
AcDbMText
 10
30.856443169
 20
166.2825163647
 30
0.0
 40
3.5
 41
0.0
 71
     1
 72
     1
  1
M6
  7
SLDTEXTSTYLE0
 73
     1
 44
1.0
  0
MTEXT
  5
282
330
27A
100
AcDbEntity
  8
0
  6
Continuous
 62
     7
370
     0
100
AcDbMText
 10
34.9300541639
 20
166.2825163647
 30
0.0
 40
3.5
 41
0.0
 71
     1
 72
     1
  1
取付穴
  7
SLDTEXTSTYLE0
 73
     1
 44
1.0
  0
MTEXT
  5
283
330
27A
100
AcDbEntity
  8
0
  6
Continuous
 62
     7
370
     0
100
AcDbMText
 10
20.6724173114
 20
162.2089053698
 30
0.0
 40
3.5
 41
0.0
 71
     1
 72
     1
  1
(両側口元面取有)
  7
SLDTEXTSTYLE0
 73
     1
 44
1.0
  0
ENDBLK
  5
27C
330
27A
100
AcDbEntity
  8
0
100
AcDbBlockEnd
  0
BLOCK
  5
286
330
285
100
AcDbEntity
  8
0
100
AcDbBlockBegin
  2
_D_14
 70
     0
 10
0.0
 20
0.0
 30
0.0
  3
_D_14
  1

  0
SOLID
  5
288
330
285
100
AcDbEntity
  8
0
  6
Continuous
 62
     7
370
     0
100
AcDbTrace
 10
121.7701775902
 20
121.8666307546
 30
0.0
 11
122.5201775902
 21
124.8666307546
 31
0.0
 12
121.0201775902
 22
124.8666307546
 32
0.0
 13
121.0201775902
 23
124.8666307546
 33
0.0
  0
SOLID
  5
289
330
285
100
AcDbEntity
  8
0
  6
Continuous
 62
     7
370
     0
100
AcDbTrace
 10
121.7701775902
 20
146.8666307546
 30
0.0
 11
121.0201775902
 21
143.8666307546
 31
0.0
 12
122.5201775902
 22
143.8666307546
 32
0.0
 13
122.5201775902
 23
143.8666307546
 33
0.0
  0
LINE
  5
28A
330
285
100
AcDbEntity
  8
0
  6
Continuous
 62
     7
370
     0
100
AcDbLine
 10
92.2851489334
 20
121.8666307546
 30
0.0
 11
122.7701775902
 21
121.8666307546
 31
0.0
  0
LINE
  5
28B
330
285
100
AcDbEntity
  8
0
  6
Continuous
 62
     7
370
     0
100
AcDbLine
 10
104.2851489334
 20
146.8666307546
 30
0.0
 11
122.7701775902
 21
146.8666307546
 31
0.0
  0
LINE
  5
28C
330
285
100
AcDbEntity
  8
0
  6
Continuous
 62
     7
370
     0
100
AcDbLine
 10
121.7701775902
 20
121.8666307546
 30
0.0
 11
121.7701775902
 21
146.8666307546
 31
0.0
  0
MTEXT
  5
28D
330
285
100
AcDbEntity
  8
0
  6
Continuous
 62
     7
370
     0
100
AcDbMText
 10
117.2584407339
 20
132.3298252571
 30
0.0
 40
3.5
 41
0.0
 71
     1
 72
     1
  1
25
  7
SLDTEXTSTYLE0
 11
6.123233995736766E-17
 21
1.0
 31
0.0
 73
     1
 44
1.0
  0
ENDBLK
  5
287
330
285
100
AcDbEntity
  8
0
100
AcDbBlockEnd
  0
BLOCK
  5
28F
330
28E
100
AcDbEntity
  8
0
100
AcDbBlockBegin
  2
SW_NOTE_0
 70
     0
 10
0.0
 20
0.0
 30
0.0
  3
SW_NOTE_0
  1

  0
LINE
  5
291
330
28E
100
AcDbEntity
  8
0
  6
Continuous
 62
     0
370
     0
100
AcDbLine
 10
-8.2682873652
 20
0.0
 30
0.0
 11
0.0
 21
0.0
 31
0.0
  0
MTEXT
  5
292
330
28E
100
AcDbEntity
  8
0
  6
Continuous
 62
     0
370
     0
100
AcDbMText
 10
-8.688107475
 20
4.587431362
 30
0.0
 40
3.5
 41
0.0
 71
     1
 72
     1
  1
BF-6
  7
SLDTEXTSTYLE0
 73
     1
 44
1.0
  0
ENDBLK
  5
290
330
28E
100
AcDbEntity
  8
0
100
AcDbBlockEnd
  0
BLOCK
  5
297
330
296
100
AcDbEntity
  8
0
100
AcDbBlockBegin
  2
SW_CENTERMARKSYMBOL_0
 70
     0
 10
0.0
 20
0.0
 30
0.0
  3
SW_CENTERMARKSYMBOL_0
  1

  0
LINE
  5
299
330
296
100
AcDbEntity
  8
0
  6
Continuous
 62
     0
370
     0
100
AcDbLine
 10
0.0
 20
0.0
 30
0.0
 11
0.0
 21
2.5
 31
0.0
  0
LINE
  5
29A
330
296
100
AcDbEntity
  8
0
  6
Continuous
 62
     0
370
     0
100
AcDbLine
 10
0.0
 20
0.0
 30
0.0
 11
-2.5
 21
0.0
 31
0.0
  0
LINE
  5
29B
330
296
100
AcDbEntity
  8
0
  6
Continuous
 62
     0
370
     0
100
AcDbLine
 10
0.0
 20
0.0
 30
0.0
 11
0.0
 21
-2.5
 31
0.0
  0
LINE
  5
29C
330
296
100
AcDbEntity
  8
0
  6
Continuous
 62
     0
370
     0
100
AcDbLine
 10
0.0
 20
0.0
 30
0.0
 11
2.5
 21
0.0
 31
0.0
  0
LINE
  5
29D
330
296
100
AcDbEntity
  8
0
  6
Continuous
 62
     0
370
     0
100
AcDbLine
 10
0.0
 20
5.0
 30
0.0
 11
0.0
 21
5.75
 31
0.0
  0
LINE
  5
29E
330
296
100
AcDbEntity
  8
0
  6
Continuous
 62
     0
370
     0
100
AcDbLine
 10
-5.0
 20
0.0
 30
0.0
 11
-5.75
 21
0.0
 31
0.0
  0
LINE
  5
29F
330
296
100
AcDbEntity
  8
0
  6
Continuous
 62
     0
370
     0
100
AcDbLine
 10
0.0
 20
-5.0
 30
0.0
 11
0.0
 21
-5.75
 31
0.0
  0
LINE
  5
2A0
330
296
100
AcDbEntity
  8
0
  6
Continuous
 62
     0
370
     0
100
AcDbLine
 10
5.0
 20
0.0
 30
0.0
 11
5.75
 21
0.0
 31
0.0
  0
ENDBLK
  5
298
330
296
100
AcDbEntity
  8
0
100
AcDbBlockEnd
  0
BLOCK
  5
2A3
330
2A2
100
AcDbEntity
  8
0
100
AcDbBlockBegin
  2
SW_CENTERMARKSYMBOL_1
 70
     0
 10
0.0
 20
0.0
 30
0.0
  3
SW_CENTERMARKSYMBOL_1
  1

  0
LINE
  5
2A5
330
2A2
100
AcDbEntity
  8
0
  6
Continuous
 62
     0
370
     0
100
AcDbLine
 10
0.0
 20
0.0
 30
0.0
 11
0.0
 21
2.5
 31
0.0
  0
LINE
  5
2A6
330
2A2
100
AcDbEntity
  8
0
  6
Continuous
 62
     0
370
     0
100
AcDbLine
 10
0.0
 20
0.0
 30
0.0
 11
-2.5
 21
0.0
 31
0.0
  0
LINE
  5
2A7
330
2A2
100
AcDbEntity
  8
0
  6
Continuous
 62
     0
370
     0
100
AcDbLine
 10
0.0
 20
0.0
 30
0.0
 11
0.0
 21
-2.5
 31
0.0
  0
LINE
  5
2A8
330
2A2
100
AcDbEntity
  8
0
  6
Continuous
 62
     0
370
     0
100
AcDbLine
 10
0.0
 20
0.0
 30
0.0
 11
2.5
 21
0.0
 31
0.0
  0
LINE
  5
2A9
330
2A2
100
AcDbEntity
  8
0
  6
Continuous
 62
     0
370
     0
100
AcDbLine
 10
0.0
 20
2.5
 30
0.0
 11
0.0
 21
5.0
 31
0.0
  0
LINE
  5
2AA
330
2A2
100
AcDbEntity
  8
0
  6
Continuous
 62
     0
370
     0
100
AcDbLine
 10
-2.5
 20
0.0
 30
0.0
 11
-5.0
 21
0.0
 31
0.0
  0
LINE
  5
2AB
330
2A2
100
AcDbEntity
  8
0
  6
Continuous
 62
     0
370
     0
100
AcDbLine
 10
0.0
 20
-2.5
 30
0.0
 11
0.0
 21
-5.0
 31
0.0
  0
LINE
  5
2AC
330
2A2
100
AcDbEntity
  8
0
  6
Continuous
 62
     0
370
     0
100
AcDbLine
 10
2.5
 20
0.0
 30
0.0
 11
5.0
 21
0.0
 31
0.0
  0
ENDBLK
  5
2A4
330
2A2
100
AcDbEntity
  8
0
100
AcDbBlockEnd
  0
BLOCK
  5
2AF
330
2AE
100
AcDbEntity
  8
0
100
AcDbBlockBegin
  2
SW_CENTERMARKSYMBOL_2
 70
     0
 10
0.0
 20
0.0
 30
0.0
  3
SW_CENTERMARKSYMBOL_2
  1

  0
LINE
  5
2B1
330
2AE
100
AcDbEntity
  8
0
  6
Continuous
 62
     0
370
     0
100
AcDbLine
 10
0.0
 20
0.0
 30
0.0
 11
0.0
 21
2.5
 31
0.0
  0
LINE
  5
2B2
330
2AE
100
AcDbEntity
  8
0
  6
Continuous
 62
     0
370
     0
100
AcDbLine
 10
0.0
 20
0.0
 30
0.0
 11
-2.5
 21
0.0
 31
0.0
  0
LINE
  5
2B3
330
2AE
100
AcDbEntity
  8
0
  6
Continuous
 62
     0
370
     0
100
AcDbLine
 10
0.0
 20
0.0
 30
0.0
 11
0.0
 21
-2.5
 31
0.0
  0
LINE
  5
2B4
330
2AE
100
AcDbEntity
  8
0
  6
Continuous
 62
     0
370
     0
100
AcDbLine
 10
0.0
 20
0.0
 30
0.0
 11
2.5
 21
0.0
 31
0.0
  0
LINE
  5
2B5
330
2AE
100
AcDbEntity
  8
0
  6
Continuous
 62
     0
370
     0
100
AcDbLine
 10
0.0
 20
5.0
 30
0.0
 11
0.0
 21
5.75
 31
0.0
  0
LINE
  5
2B6
330
2AE
100
AcDbEntity
  8
0
  6
Continuous
 62
     0
370
     0
100
AcDbLine
 10
-5.0
 20
0.0
 30
0.0
 11
-5.75
 21
0.0
 31
0.0
  0
LINE
  5
2B7
330
2AE
100
AcDbEntity
  8
0
  6
Continuous
 62
     0
370
     0
100
AcDbLine
 10
0.0
 20
-5.0
 30
0.0
 11
0.0
 21
-5.75
 31
0.0
  0
LINE
  5
2B8
330
2AE
100
AcDbEntity
  8
0
  6
Continuous
 62
     0
370
     0
100
AcDbLine
 10
5.0
 20
0.0
 30
0.0
 11
5.75
 21
0.0
 31
0.0
  0
ENDBLK
  5
2B0
330
2AE
100
AcDbEntity
  8
0
100
AcDbBlockEnd
  0
BLOCK
  5
382
330
381
100
AcDbEntity
  8
0
100
AcDbBlockBegin
  2
_D_15
 70
     0
 10
0.0
 20
0.0
 30
0.0
  3
_D_15
  1

  0
ARC
  5
384
330
381
100
AcDbEntity
  8
0
  6
Continuous
 62
     7
370
     0
100
AcDbCircle
 10
80.7519893606
 20
34.4859904619
 30
0.0
 40
4.554435549315972
100
AcDbArc
 50
153.4349488229
 51
206.5650511771
  0
ARC
  5
385
330
381
100
AcDbEntity
  8
0
  6
Continuous
 62
     7
370
     0
100
AcDbCircle
 10
76.6783783657
 20
34.4859904619
 30
0.0
 40
4.55443554931596
100
AcDbArc
 50
333.4349488229
 51
26.5650511771
  0
SOLID
  5
386
330
381
100
AcDbEntity
  8
0
  6
Continuous
 62
     7
370
     0
100
AcDbTrace
 10
48.271240357
 20
32.4491849644
 30
0.0
 11
51.271240357
 21
31.6991849644
 31
0.0
 12
51.271240357
 22
33.1991849644
 32
0.0
 13
51.271240357
 23
33.1991849644
 33
0.0
  0
SOLID
  5
387
330
381
100
AcDbEntity
  8
0
  6
Continuous
 62
     7
370
     0
100
AcDbTrace
 10
109.1591274857
 20
32.4491849644
 30
0.0
 11
106.1591274857
 21
33.1991849644
 31
0.0
 12
106.1591274857
 22
31.6991849644
 32
0.0
 13
106.1591274857
 23
31.6991849644
 33
0.0
  0
LINE
  5
388
330
381
100
AcDbEntity
  8
0
  6
Continuous
 62
     7
370
     0
100
AcDbLine
 10
48.271240357
 20
75.9491849644
 30
0.0
 11
48.271240357
 21
31.4491849644
 31
0.0
  0
LINE
  5
389
330
381
100
AcDbEntity
  8
0
  6
Continuous
 62
     7
370
     0
100
AcDbLine
 10
109.1591274857
 20
52.4491849644
 30
0.0
 11
109.1591274857
 21
31.4491849644
 31
0.0
  0
LINE
  5
38A
330
381
100
AcDbEntity
  8
0
  6
Continuous
 62
     7
370
     0
100
AcDbLine
 10
48.271240357
 20
32.4491849644
 30
0.0
 11
109.1591274857
 21
32.4491849644
 31
0.0
  0
MTEXT
  5
38B
330
381
100
AcDbEntity
  8
0
  6
Continuous
 62
     7
370
     0
100
AcDbMText
 10
76.6783783657
 20
36.9609218207
 30
0.0
 40
3.5
 41
0.0
 71
     1
 72
     1
  1
61
  7
SLDTEXTSTYLE0
 73
     1
 44
1.0
  0
ENDBLK
  5
383
330
381
100
AcDbEntity
  8
0
100
AcDbBlockEnd
  0
BLOCK
  5
38E
330
38D
100
AcDbEntity
  8
0
100
AcDbBlockBegin
  2
_D_16
 70
     0
 10
0.0
 20
0.0
 30
0.0
  3
_D_16
  1

  0
ARC
  5
390
330
38D
100
AcDbEntity
  8
0
  6
Continuous
 62
     7
370
     0
100
AcDbCircle
 10
97.7589436489
 20
43.1596984255
 30
0.0
 40
4.554435549315966
100
AcDbArc
 50
153.4349488229
 51
206.5650511771
  0
ARC
  5
391
330
38D
100
AcDbEntity
  8
0
  6
Continuous
 62
     7
370
     0
100
AcDbCircle
 10
93.6853326539
 20
43.1596984255
 30
0.0
 40
4.554435549315966
100
AcDbArc
 50
333.4349488229
 51
26.5650511771
  0
SOLID
  5
392
330
38D
100
AcDbEntity
  8
0
  6
Continuous
 62
     7
370
     0
100
AcDbTrace
 10
82.2851489334
 20
41.122892928
 30
0.0
 11
85.2851489334
 21
40.372892928
 31
0.0
 12
85.2851489334
 22
41.872892928
 32
0.0
 13
85.2851489334
 23
41.872892928
 33
0.0
  0
SOLID
  5
393
330
38D
100
AcDbEntity
  8
0
  6
Continuous
 62
     7
370
     0
100
AcDbTrace
 10
109.1591274857
 20
41.122892928
 30
0.0
 11
106.1591274857
 21
41.872892928
 31
0.0
 12
106.1591274857
 22
40.372892928
 32
0.0
 13
106.1591274857
 23
40.372892928
 33
0.0
  0
LINE
  5
394
330
38D
100
AcDbEntity
  8
0
  6
Continuous
 62
     7
370
     0
100
AcDbLine
 10
82.2851489334
 20
45.9491849644
 30
0.0
 11
82.2851489334
 21
40.122892928
 31
0.0
  0
LINE
  5
395
330
38D
100
AcDbEntity
  8
0
  6
Continuous
 62
     7
370
     0
100
AcDbLine
 10
109.1591274857
 20
52.4491849644
 30
0.0
 11
109.1591274857
 21
40.122892928
 31
0.0
  0
LINE
  5
396
330
38D
100
AcDbEntity
  8
0
  6
Continuous
 62
     7
370
     0
100
AcDbLine
 10
82.2851489334
 20
41.122892928
 30
0.0
 11
109.1591274857
 21
41.122892928
 31
0.0
  0
MTEXT
  5
397
330
38D
100
AcDbEntity
  8
0
  6
Continuous
 62
     7
370
     0
100
AcDbMText
 10
93.6853326539
 20
45.6346297844
 30
0.0
 40
3.5
 41
0.0
 71
     1
 72
     1
  1
27
  7
SLDTEXTSTYLE0
 73
     1
 44
1.0
  0
ENDBLK
  5
38F
330
38D
100
AcDbEntity
  8
0
100
AcDbBlockEnd
  0
BLOCK
  5
399
330
398
100
AcDbEntity
  8
0
100
AcDbBlockBegin
  2
SW_CENTERMARKSYMBOL_3
 70
     0
 10
0.0
 20
0.0
 30
0.0
  3
SW_CENTERMARKSYMBOL_3
  1

  0
LINE
  5
39B
330
398
100
AcDbEntity
  8
0
  6
Continuous
 62
     0
370
     0
100
AcDbLine
 10
0.0
 20
0.0
 30
0.0
 11
0.0
 21
2.5
 31
0.0
  0
LINE
  5
39C
330
398
100
AcDbEntity
  8
0
  6
Continuous
 62
     0
370
     0
100
AcDbLine
 10
0.0
 20
0.0
 30
0.0
 11
-2.5
 21
0.0
 31
0.0
  0
LINE
  5
39D
330
398
100
AcDbEntity
  8
0
  6
Continuous
 62
     0
370
     0
100
AcDbLine
 10
0.0
 20
0.0
 30
0.0
 11
0.0
 21
-2.5
 31
0.0
  0
LINE
  5
39E
330
398
100
AcDbEntity
  8
0
  6
Continuous
 62
     0
370
     0
100
AcDbLine
 10
0.0
 20
0.0
 30
0.0
 11
2.5
 21
0.0
 31
0.0
  0
LINE
  5
39F
330
398
100
AcDbEntity
  8
0
  6
Continuous
 62
     0
370
     0
100
AcDbLine
 10
0.0
 20
5.0
 30
0.0
 11
0.0
 21
11.5
 31
0.0
  0
LINE
  5
3A0
330
398
100
AcDbEntity
  8
0
  6
Continuous
 62
     0
370
     0
100
AcDbLine
 10
-5.0
 20
0.0
 30
0.0
 11
-11.5
 21
0.0
 31
0.0
  0
LINE
  5
3A1
330
398
100
AcDbEntity
  8
0
  6
Continuous
 62
     0
370
     0
100
AcDbLine
 10
0.0
 20
-5.0
 30
0.0
 11
0.0
 21
-11.5
 31
0.0
  0
LINE
  5
3A2
330
398
100
AcDbEntity
  8
0
  6
Continuous
 62
     0
370
     0
100
AcDbLine
 10
5.0
 20
0.0
 30
0.0
 11
11.5
 21
0.0
 31
0.0
  0
ENDBLK
  5
39A
330
398
100
AcDbEntity
  8
0
100
AcDbBlockEnd
  0
ENDSEC
  0
SECTION
  2
ENTITIES
  0
LINE
  5
73
330
1F
100
AcDbEntity
  8
0
  6
Continuous
 62
     7
370
     0
100
AcDbLine
 10
20.2604743903
 20
285.0
 30
0.0
 11
196.7604743903
 21
285.0
 31
0.0
  0
LINE
  5
74
330
1F
100
AcDbEntity
  8
0
  6
Continuous
 62
     7
370
     0
100
AcDbLine
 10
20.2604743903
 20
285.0
 30
0.0
 11
20.2604743903
 21
10.0
 31
0.0
  0
LINE
  5
75
330
1F
100
AcDbEntity
  8
0
  6
Continuous
 62
     7
370
     0
100
AcDbLine
 10
20.2604743903
 20
10.0
 30
0.0
 11
196.7604743903
 21
10.0
 31
0.0
  0
LINE
  5
76
330
1F
100
AcDbEntity
  8
0
  6
Continuous
 62
     7
370
     0
100
AcDbLine
 10
196.7604743903
 20
285.0
 30
0.0
 11
196.7604743903
 21
10.0
 31
0.0
  0
LINE
  5
77
330
1F
100
AcDbEntity
  8
0
  6
Continuous
 62
     7
370
     0
100
AcDbLine
 10
127.0104743903
 20
50.75
 30
0.0
 11
196.7604743903
 21
50.75
 31
0.0
  0
LINE
  5
78
330
1F
100
AcDbEntity
  8
0
  6
Continuous
 62
     7
370
     0
100
AcDbLine
 10
127.0104743903
 20
50.75
 30
0.0
 11
127.0104743903
 21
10.0
 31
0.0
  0
LINE
  5
79
330
1F
100
AcDbEntity
  8
0
  6
Continuous
 62
     7
370
     0
100
AcDbLine
 10
127.0104743903
 20
22.75
 30
0.0
 11
196.7604743903
 21
22.75
 31
0.0
  0
LINE
  5
7A
330
1F
100
AcDbEntity
  8
0
  6
Continuous
 62
     7
370
     0
100
AcDbLine
 10
127.0104743903
 20
36.75
 30
0.0
 11
196.7604743903
 21
36.75
 31
0.0
  0
MTEXT
  5
7C
330
1F
100
AcDbEntity
  8
0
  6
Continuous
 62
     7
370
     0
100
AcDbMText
 10
161.0520318884
 20
30.4171582345
 30
0.0
 40
4.2333333333
 41
0.0
 71
     2
 72
     1
  1
CHK-EX2L-20-C1
  7
SLDTEXTSTYLE0
 73
     1
 44
1.0
  0
MTEXT
  5
7D
330
1F
100
AcDbEntity
  8
0
  6
Continuous
 62
     7
370
     0
100
AcDbMText
 10
159.6889805366
 20
43.9643957194
 30
0.0
 40
3.7041666667
 41
0.0
 71
     2
 72
     1
  1
ランナーチャックEX(リミットSW付)
  7
SLDTEXTSTYLE0
 73
     1
 44
1.0
  0
MTEXT
  5
7E
330
1F
100
AcDbEntity
  8
0
  6
Continuous
 62
     7
370
     0
100
AcDbMText
 10
162.5853949957
 20
16.8228189052
 30
0.0
 40
4.2333333333
 41
0.0
 71
     2
 72
     1
  1
023159
  7
SLDTEXTSTYLE0
 73
     1
 44
1.0
  0
LINE
  5
7F
330
1F
100
AcDbEntity
  8
0
  6
Continuous
 62
     7
370
     0
100
AcDbLine
 10
161.7768780901
 20
146.86663088
 30
0.0
 11
161.7768780901
 21
122.8666306714
 31
0.0
  0
LINE
  5
80
330
1F
100
AcDbEntity
  8
0
  6
Continuous
 62
     7
370
     0
100
AcDbLine
 10
181.7768776431
 20
122.8666306714
 30
0.0
 11
181.7768776431
 21
146.86663088
 31
0.0
  0
LINE
  5
81
330
1F
100
AcDbEntity
  8
0
  6
Continuous
 62
     7
370
     0
100
AcDbLine
 10
161.7768780901
 20
122.8666306714
 30
0.0
 11
162.7768782541
 21
121.8666305075
 31
0.0
  0
LINE
  5
82
330
1F
100
AcDbEntity
  8
0
  6
Continuous
 62
     7
370
     0
100
AcDbLine
 10
180.7768774792
 20
121.8666305075
 30
0.0
 11
181.7768776431
 21
122.8666306714
 31
0.0
  0
LINE
  5
83
330
1F
100
AcDbEntity
  8
0
  6
Continuous
 62
     7
370
     0
100
AcDbLine
 10
154.7768769428
 20
221.8015250991
 30
0.0
 11
154.8768786355
 21
221.8015250991
 31
0.0
  0
LINE
  5
84
330
1F
100
AcDbEntity
  8
0
  6
Continuous
 62
     7
370
     0
100
AcDbLine
 10
158.6768777683
 20
221.8015250991
 30
0.0
 11
158.7768775984
 21
221.8015250991
 31
0.0
  0
LINE
  5
85
330
1F
100
AcDbEntity
  8
0
  6
Continuous
 62
     7
370
     0
100
AcDbLine
 10
158.7768775984
 20
224.6866730283
 30
0.0
 11
158.6768777683
 21
224.6866730283
 31
0.0
  0
LINE
  5
86
330
1F
100
AcDbEntity
  8
0
  6
Continuous
 62
     7
370
     0
100
AcDbLine
 10
154.8768786355
 20
224.6866730283
 30
0.0
 11
154.7768769428
 21
224.6866730283
 31
0.0
  0
ARC
  5
87
330
1F
100
AcDbEntity
  8
0
  6
Continuous
 62
     7
370
     0
100
AcDbCircle
 10
155.1768778666
 20
238.0900767105
 30
0.0
 40
4.000000000000028
100
AcDbArc
 50
148.2116693829
 51
167.1601874414
  0
ARC
  5
88
330
1F
100
AcDbEntity
  8
0
  6
Continuous
 62
     7
370
     0
100
AcDbCircle
 10
155.1768778666
 20
238.0900767105
 30
0.0
 40
4.000000000000018
100
AcDbArc
 50
192.8398125586
 51
211.7883306171
  0
LINE
  5
89
330
1F
100
AcDbEntity
  8
0
  6
Continuous
 62
     7
370
     0
100
AcDbLine
 10
169.3648746345
 20
114.3666302095
 30
0.0
 11
169.7148745056
 21
111.866630731
 31
0.0
  0
LINE
  5
8A
330
1F
100
AcDbEntity
  8
0
  6
Continuous
 62
     7
370
     0
100
AcDbLine
 10
173.7148745791
 20
111.866630731
 30
0.0
 11
174.0648745667
 21
114.3666302095
 31
0.0
  0
LINE
  5
8B
330
1F
100
AcDbEntity
  8
0
  6
Continuous
 62
     7
370
     0
100
AcDbLine
 10
169.3648746345
 20
116.8666315506
 30
0.0
 11
169.7148745056
 21
114.3666302095
 31
0.0
  0
LINE
  5
8C
330
1F
100
AcDbEntity
  8
0
  6
Continuous
 62
     7
370
     0
100
AcDbLine
 10
173.7148745791
 20
114.3666302095
 30
0.0
 11
174.0648745667
 21
116.8666315506
 31
0.0
  0
LINE
  5
8D
330
1F
100
AcDbEntity
  8
0
  6
Continuous
 62
     7
370
     0
100
AcDbLine
 10
173.8148745257
 20
116.8666315506
 30
0.0
 11
173.8148745257
 21
119.366631029
 31
0.0
  0
LINE
  5
8E
330
1F
100
AcDbEntity
  8
0
  6
Continuous
 62
     7
370
     0
100
AcDbLine
 10
169.6148744426
 20
119.366631029
 30
0.0
 11
169.6148744426
 21
116.8666315506
 31
0.0
  0
LINE
  5
8F
330
1F
100
AcDbEntity
  8
0
  6
Continuous
 62
     7
370
     0
100
AcDbLine
 10
161.7768780901
 20
210.8582985828
 30
0.0
 11
162.7768782541
 21
209.8582965563
 31
0.0
  0
LINE
  5
90
330
1F
100
AcDbEntity
  8
0
  6
Continuous
 62
     7
370
     0
100
AcDbLine
 10
161.7768780901
 20
210.8582985828
 30
0.0
 11
161.7768780901
 21
214.0583005975
 31
0.0
  0
LINE
  5
91
330
1F
100
AcDbEntity
  8
0
  6
Continuous
 62
     7
370
     0
100
AcDbLine
 10
163.5768778264
 20
215.8582938145
 30
0.0
 11
161.7768780901
 21
214.0583005975
 31
0.0
  0
LINE
  5
92
330
1F
100
AcDbEntity
  8
0
  6
Continuous
 62
     7
370
     0
100
AcDbLine
 10
166.7768779784
 20
215.8582938145
 30
0.0
 11
163.5768778264
 21
215.8582938145
 31
0.0
  0
ARC
  5
93
330
1F
100
AcDbEntity
  8
0
  6
Continuous
 62
     7
370
     0
100
AcDbCircle
 10
171.7768778666
 20
209.3582974146
 30
0.0
 40
5.500000000000008
100
AcDbArc
 50
155.3800226713
 51
174.7840914345
  0
LINE
  5
94
330
1F
100
AcDbEntity
  8
0
  6
Continuous
 62
     7
370
     0
100
AcDbLine
 10
162.7768782541
 20
209.8582965563
 30
0.0
 11
166.2996524587
 21
209.8582965563
 31
0.0
  0
LINE
  5
95
330
1F
100
AcDbEntity
  8
0
  6
Continuous
 62
     7
370
     0
100
AcDbLine
 10
163.7768774867
 20
165.1617569158
 30
0.0
 11
163.7768774867
 21
177.7617578636
 31
0.0
  0
ARC
  5
96
330
1F
100
AcDbEntity
  8
0
  6
Continuous
 62
     7
370
     0
100
AcDbCircle
 10
171.7768778666
 20
165.1617583346
 30
0.0
 40
8.000000000000028
100
AcDbArc
 50
180.0
 51
0.0
  0
LINE
  5
97
330
1F
100
AcDbEntity
  8
0
  6
Continuous
 62
     7
370
     0
100
AcDbLine
 10
179.7768782466
 20
177.7617578636
 30
0.0
 11
179.7768782466
 21
165.1617569158
 31
0.0
  0
ARC
  5
98
330
1F
100
AcDbEntity
  8
0
  6
Continuous
 62
     7
370
     0
100
AcDbCircle
 10
171.7768778666
 20
209.3582974146
 30
0.0
 40
5.499999999999989
100
AcDbArc
 50
335.3800226713
 51
5.2159085655
  0
LINE
  5
99
330
1F
100
AcDbEntity
  8
0
  6
Continuous
 62
     7
370
     0
100
AcDbLine
 10
177.2541032746
 20
209.8582965563
 30
0.0
 11
180.7768774792
 21
209.8582965563
 31
0.0
  0
LINE
  5
9A
330
1F
100
AcDbEntity
  8
0
  6
Continuous
 62
     7
370
     0
100
AcDbLine
 10
180.7768774792
 20
146.86663088
 30
0.0
 11
180.7768774792
 21
209.8582965563
 31
0.0
  0
LINE
  5
9B
330
1F
100
AcDbEntity
  8
0
  6
Continuous
 62
     7
370
     0
100
AcDbLine
 10
180.7768774792
 20
146.86663088
 30
0.0
 11
162.7768782541
 21
146.86663088
 31
0.0
  0
LINE
  5
9C
330
1F
100
AcDbEntity
  8
0
  6
Continuous
 62
     7
370
     0
100
AcDbLine
 10
162.7768782541
 20
209.8582965563
 30
0.0
 11
162.7768782541
 21
146.86663088
 31
0.0
  0
ARC
  5
9D
330
1F
100
AcDbEntity
  8
0
  6
Continuous
 62
     7
370
     0
100
AcDbCircle
 10
171.7768778666
 20
209.3582974146
 30
0.0
 40
5.500000000000008
100
AcDbArc
 50
174.7840914345
 51
204.6199773287
  0
ARC
  5
9E
330
1F
100
AcDbEntity
  8
0
  6
Continuous
 62
     7
370
     0
100
AcDbCircle
 10
171.7768778666
 20
177.7617583346
 30
0.0
 40
8.000000000000007
100
AcDbArc
 50
128.6821874535
 51
180.0
  0
ARC
  5
9F
330
1F
100
AcDbEntity
  8
0
  6
Continuous
 62
     7
370
     0
100
AcDbCircle
 10
171.7768778666
 20
177.7617583346
 30
0.0
 40
8.00000000000004
100
AcDbArc
 50
0.0
 51
51.3178125465
  0
LINE
  5
A0
330
1F
100
AcDbEntity
  8
0
  6
Continuous
 62
     7
370
     0
100
AcDbLine
 10
179.9768779069
 20
215.8582938145
 30
0.0
 11
176.7768777549
 21
215.8582938145
 31
0.0
  0
LINE
  5
A1
330
1F
100
AcDbEntity
  8
0
  6
Continuous
 62
     7
370
     0
100
AcDbLine
 10
181.7768776431
 20
214.0583005975
 30
0.0
 11
179.9768779069
 21
215.8582938145
 31
0.0
  0
LINE
  5
A2
330
1F
100
AcDbEntity
  8
0
  6
Continuous
 62
     7
370
     0
100
AcDbLine
 10
181.7768776431
 20
210.8582985828
 30
0.0
 11
181.7768776431
 21
214.0583005975
 31
0.0
  0
LINE
  5
A3
330
1F
100
AcDbEntity
  8
0
  6
Continuous
 62
     7
370
     0
100
AcDbLine
 10
180.7768774792
 20
209.8582965563
 30
0.0
 11
181.7768776431
 21
210.8582985828
 31
0.0
  0
ARC
  5
A4
330
1F
100
AcDbEntity
  8
0
  6
Continuous
 62
     7
370
     0
100
AcDbCircle
 10
171.7768778666
 20
209.3582974146
 30
0.0
 40
5.500000000000046
100
AcDbArc
 50
5.2159085655
 51
24.6199773287
  0
LINE
  5
A5
330
1F
100
AcDbEntity
  8
0
  6
Continuous
 62
     7
370
     0
100
AcDbLine
 10
181.7768776431
 20
210.8582985828
 30
0.0
 11
181.7768776431
 21
146.86663088
 31
0.0
  0
LINE
  5
A6
330
1F
100
AcDbEntity
  8
0
  6
Continuous
 62
     7
370
     0
100
AcDbLine
 10
181.7768776431
 20
146.86663088
 30
0.0
 11
180.7768774792
 21
146.86663088
 31
0.0
  0
LINE
  5
A7
330
1F
100
AcDbEntity
  8
0
  6
Continuous
 62
     7
370
     0
100
AcDbLine
 10
161.7768780901
 20
146.86663088
 30
0.0
 11
161.7768780901
 21
210.8582985828
 31
0.0
  0
LINE
  5
A8
330
1F
100
AcDbEntity
  8
0
  6
Continuous
 62
     7
370
     0
100
AcDbLine
 10
162.7768782541
 20
146.86663088
 30
0.0
 11
161.7768780901
 21
146.86663088
 31
0.0
  0
LINE
  5
A9
330
1F
100
AcDbEntity
  8
0
  6
Continuous
 62
     7
370
     0
100
AcDbLine
 10
161.7768780901
 20
122.8666306714
 30
0.0
 11
181.7768776431
 21
122.8666306714
 31
0.0
  0
LINE
  5
AA
330
1F
100
AcDbEntity
  8
0
  6
Continuous
 62
     7
370
     0
100
AcDbLine
 10
180.7768774792
 20
121.8666305075
 30
0.0
 11
162.7768782541
 21
121.8666305075
 31
0.0
  0
LINE
  5
AB
330
1F
100
AcDbEntity
  8
0
  6
Continuous
 62
     7
370
     0
100
AcDbLine
 10
164.7768776506
 20
217.0582992266
 30
0.0
 11
166.7768779784
 21
217.0582992266
 31
0.0
  0
LINE
  5
AC
330
1F
100
AcDbEntity
  8
0
  6
Continuous
 62
     7
370
     0
100
AcDbLine
 10
176.7768777549
 20
217.0582992266
 30
0.0
 11
178.7768780827
 21
217.0582992266
 31
0.0
  0
LINE
  5
AD
330
1F
100
AcDbEntity
  8
0
  6
Continuous
 62
     7
370
     0
100
AcDbLine
 10
179.9768779069
 20
215.8582938145
 30
0.0
 11
178.7768780827
 21
217.0582992266
 31
0.0
  0
LINE
  5
AE
330
1F
100
AcDbEntity
  8
0
  6
Continuous
 62
     7
370
     0
100
AcDbLine
 10
164.7768776506
 20
217.0582992266
 30
0.0
 11
163.5768778264
 21
215.8582938145
 31
0.0
  0
LINE
  5
AF
330
1F
100
AcDbEntity
  8
0
  6
Continuous
 62
     7
370
     0
100
AcDbLine
 10
166.7768779784
 20
187.1171501706
 30
0.0
 11
176.7768777549
 21
187.1171501706
 31
0.0
  0
LINE
  5
B0
330
1F
100
AcDbEntity
  8
0
  6
Continuous
 62
     7
370
     0
100
AcDbLine
 10
176.7768777549
 20
161.4745931009
 30
0.0
 11
176.7768777549
 21
187.1171501706
 31
0.0
  0
LINE
  5
B1
330
1F
100
AcDbEntity
  8
0
  6
Continuous
 62
     7
370
     0
100
AcDbLine
 10
166.7768779784
 20
161.4745931009
 30
0.0
 11
176.7768777549
 21
161.4745931009
 31
0.0
  0
LINE
  5
B2
330
1F
100
AcDbEntity
  8
0
  6
Continuous
 62
     7
370
     0
100
AcDbLine
 10
166.7768779784
 20
161.4745931009
 30
0.0
 11
166.7768779784
 21
187.1171501706
 31
0.0
  0
ELLIPSE
  5
B3
330
1F
100
AcDbEntity
  8
0
  6
Continuous
 62
     7
370
     0
100
AcDbEllipse
 10
163.7768778666
 20
254.5736284963
 30
0.0
 11
-8.526512829121202E-14
 21
9.682747990491521
 31
0.0
210
0.0
220
0.0
230
1.0
 40
0.3098294
 41
4.712388980384691
 42
4.956163722650593
  0
LINE
  5
B4
330
1F
100
AcDbEntity
  8
0
  6
Continuous
 62
     7
370
     0
100
AcDbLine
 10
176.7768777549
 20
256.9107321332
 30
0.0
 11
166.688179282
 21
256.9107321332
 31
0.0
  0
LINE
  5
B5
330
1F
100
AcDbEntity
  8
0
  6
Continuous
 62
     7
370
     0
100
AcDbLine
 10
176.7768777549
 20
187.1171501706
 30
0.0
 11
176.7768777549
 21
256.9107321332
 31
0.0
  0
LINE
  5
B6
330
1F
100
AcDbEntity
  8
0
  6
Continuous
 62
     7
370
     0
100
AcDbLine
 10
166.7768779784
 20
187.1171501706
 30
0.0
 11
166.7768779784
 21
254.573626561
 31
0.0
  0
LINE
  5
B7
330
1F
100
AcDbEntity
  8
0
  6
Continuous
 62
     7
370
     0
100
AcDbLine
 10
174.7768778927
 20
159.8325838576
 30
0.0
 11
168.7768778406
 21
159.8325838576
 31
0.0
  0
LINE
  5
B8
330
1F
100
AcDbEntity
  8
0
  6
Continuous
 62
     7
370
     0
100
AcDbLine
 10
166.7768779784
 20
161.4745931009
 30
0.0
 11
168.7768778406
 21
159.8325838576
 31
0.0
  0
LINE
  5
B9
330
1F
100
AcDbEntity
  8
0
  6
Continuous
 62
     7
370
     0
100
AcDbLine
 10
176.7768777549
 20
161.4745931009
 30
0.0
 11
174.7768778927
 21
159.8325838576
 31
0.0
  0
LINE
  5
BA
330
1F
100
AcDbEntity
  8
0
  6
Continuous
 62
     7
370
     0
100
AcDbLine
 10
163.7768774866
 20
228.5441366265
 30
0.0
 11
163.7768774866
 21
258.1317034791
 31
0.0
  0
ARC
  5
BB
330
1F
100
AcDbEntity
  8
0
  6
Continuous
 62
     7
370
     0
100
AcDbCircle
 10
163.8496468441
 20
243.0731733556
 30
0.0
 40
15.05870594897844
100
AcDbArc
 50
83.386695925
 51
90.2768759347
  0
ELLIPSE
  5
BC
330
1F
100
AcDbEntity
  8
0
  6
Continuous
 62
     7
370
     0
100
AcDbEllipse
 10
163.7768778666
 20
256.4248639633
 30
0.0
 11
2.999999999999972
 21
0.0
 31
0.0
210
0.0
220
0.0
230
1.0
 40
0.6709892799
 41
0.2437747422659074
 42
0.9243556788989937
  0
ARC
  5
BD
330
1F
100
AcDbEntity
  8
0
  6
Continuous
 62
     7
370
     0
100
AcDbCircle
 10
164.5063990267
 20
223.6336618944
 30
0.0
 40
4.964369423373168
100
AcDbArc
 50
62.7834411848
 51
98.4503026878
  0
LINE
  5
BE
330
1F
100
AcDbEntity
  8
0
  6
Continuous
 62
     7
370
     0
100
AcDbLine
 10
165.5839250065
 20
258.0316794346
 30
0.0
 11
176.7768777549
 21
258.0316794346
 31
0.0
  0
LINE
  5
BF
330
1F
100
AcDbEntity
  8
0
  6
Continuous
 62
     7
370
     0
100
AcDbLine
 10
176.7768777549
 20
258.0316794346
 30
0.0
 11
176.7768777549
 21
256.9107321332
 31
0.0
  0
LINE
  5
C0
330
1F
100
AcDbEntity
  8
0
  6
Continuous
 62
     7
370
     0
100
AcDbLine
 10
151.7768783137
 20
258.1317034791
 30
0.0
 11
151.7768783137
 21
258.7100696991
 31
0.0
  0
LINE
  5
C1
330
1F
100
AcDbEntity
  8
0
  6
Continuous
 62
     7
370
     0
100
AcDbLine
 10
151.7768783137
 20
258.7100696991
 30
0.0
 11
176.7768777549
 21
258.7100696991
 31
0.0
  0
LINE
  5
C2
330
1F
100
AcDbEntity
  8
0
  6
Continuous
 62
     7
370
     0
100
AcDbLine
 10
151.7768783137
 20
258.1317034791
 30
0.0
 11
163.7768774866
 21
258.1317034791
 31
0.0
  0
LINE
  5
C3
330
1F
100
AcDbEntity
  8
0
  6
Continuous
 62
     7
370
     0
100
AcDbLine
 10
176.7768777549
 20
258.0316794346
 30
0.0
 11
176.7768777549
 21
258.7100696991
 31
0.0
  0
LINE
  5
C4
330
1F
100
AcDbEntity
  8
0
  6
Continuous
 62
     7
370
     0
100
AcDbLine
 10
151.7768783137
 20
228.5441366265
 30
0.0
 11
163.7768774866
 21
228.5441366265
 31
0.0
  0
LINE
  5
C5
330
1F
100
AcDbEntity
  8
0
  6
Continuous
 62
     7
370
     0
100
AcDbLine
 10
151.7768783137
 20
228.5441366265
 30
0.0
 11
151.7768783137
 21
258.1317034791
 31
0.0
  0
LINE
  5
C6
330
1F
100
AcDbEntity
  8
0
  6
Continuous
 62
     7
370
     0
100
AcDbLine
 10
158.7768775984
 20
258.7100696991
 30
0.0
 11
158.7768775984
 21
258.8092145751
 31
0.0
  0
LINE
  5
C7
330
1F
100
AcDbEntity
  8
0
  6
Continuous
 62
     7
370
     0
100
AcDbLine
 10
176.7768777549
 20
258.8092145751
 30
0.0
 11
158.7768775984
 21
258.8092145751
 31
0.0
  0
LINE
  5
C8
330
1F
100
AcDbEntity
  8
0
  6
Continuous
 62
     7
370
     0
100
AcDbLine
 10
176.7768777549
 20
258.8092145751
 30
0.0
 11
176.7768777549
 21
258.7100696991
 31
0.0
  0
LINE
  5
C9
330
1F
100
AcDbEntity
  8
0
  6
Continuous
 62
     7
370
     0
100
AcDbLine
 10
158.7768775984
 20
220.3453836272
 30
0.0
 11
166.7768779784
 21
220.3453836272
 31
0.0
  0
LINE
  5
CA
330
1F
100
AcDbEntity
  8
0
  6
Continuous
 62
     7
370
     0
100
AcDbLine
 10
158.7768775984
 20
220.3453836272
 30
0.0
 11
158.7768775984
 21
228.5441366265
 31
0.0
  0
LINE
  5
CB
330
1F
100
AcDbEntity
  8
0
  6
Continuous
 62
     7
370
     0
100
AcDbLine
 10
154.7768769428
 20
258.8092145751
 30
0.0
 11
151.7768783137
 21
258.8092145751
 31
0.0
  0
LINE
  5
CC
330
1F
100
AcDbEntity
  8
0
  6
Continuous
 62
     7
370
     0
100
AcDbLine
 10
154.7768769428
 20
258.7100696991
 30
0.0
 11
154.7768769428
 21
258.8092145751
 31
0.0
  0
LINE
  5
CD
330
1F
100
AcDbEntity
  8
0
  6
Continuous
 62
     7
370
     0
100
AcDbLine
 10
151.7768783137
 20
220.3453836272
 30
0.0
 11
154.7768769428
 21
220.3453836272
 31
0.0
  0
LINE
  5
CE
330
1F
100
AcDbEntity
  8
0
  6
Continuous
 62
     7
370
     0
100
AcDbLine
 10
151.7768783137
 20
220.3453836272
 30
0.0
 11
151.7768783137
 21
228.5441366265
 31
0.0
  0
LINE
  5
CF
330
1F
100
AcDbEntity
  8
0
  6
Continuous
 62
     7
370
     0
100
AcDbLine
 10
151.7768783137
 20
258.7100696991
 30
0.0
 11
151.7768783137
 21
258.8092145751
 31
0.0
  0
LINE
  5
D0
330
1F
100
AcDbEntity
  8
0
  6
Continuous
 62
     7
370
     0
100
AcDbLine
 10
154.7768769428
 20
220.3453836272
 30
0.0
 11
154.7768769428
 21
228.5441366265
 31
0.0
  0
LINE
  5
D1
330
1F
100
AcDbEntity
  8
0
  6
Continuous
 62
     7
370
     0
100
AcDbLine
 10
166.7768779784
 20
219.1938814948
 30
0.0
 11
158.7768775984
 21
219.1938814948
 31
0.0
  0
LINE
  5
D2
330
1F
100
AcDbEntity
  8
0
  6
Continuous
 62
     7
370
     0
100
AcDbLine
 10
158.7768775984
 20
219.1938814948
 30
0.0
 11
158.7768775984
 21
220.3453836272
 31
0.0
  0
LINE
  5
D3
330
1F
100
AcDbEntity
  8
0
  6
Continuous
 62
     7
370
     0
100
AcDbLine
 10
154.7768769428
 20
219.1938814948
 30
0.0
 11
151.7768783137
 21
219.1938814948
 31
0.0
  0
LINE
  5
D4
330
1F
100
AcDbEntity
  8
0
  6
Continuous
 62
     7
370
     0
100
AcDbLine
 10
151.7768783137
 20
219.1938814948
 30
0.0
 11
151.7768783137
 21
220.3453836272
 31
0.0
  0
LINE
  5
D5
330
1F
100
AcDbEntity
  8
0
  6
Continuous
 62
     7
370
     0
100
AcDbLine
 10
154.7768769428
 20
220.3453836272
 30
0.0
 11
154.7768769428
 21
219.1938814948
 31
0.0
  0
LINE
  5
D6
330
1F
100
AcDbEntity
  8
0
  6
Continuous
 62
     7
370
     0
100
AcDbLine
 10
158.7768775984
 20
218.3676493595
 30
0.0
 11
154.7768769428
 21
218.3676493595
 31
0.0
  0
LINE
  5
D7
330
1F
100
AcDbEntity
  8
0
  6
Continuous
 62
     7
370
     0
100
AcDbLine
 10
151.7768783137
 20
217.1773744057
 30
0.0
 11
166.7768779784
 21
217.1773744057
 31
0.0
  0
LINE
  5
D8
330
1F
100
AcDbEntity
  8
0
  6
Continuous
 62
     7
370
     0
100
AcDbLine
 10
151.7768783137
 20
217.1773744057
 30
0.0
 11
151.7768783137
 21
219.1938814948
 31
0.0
  0
LINE
  5
D9
330
1F
100
AcDbEntity
  8
0
  6
Continuous
 62
     7
370
     0
100
AcDbLine
 10
158.7768775984
 20
218.3676493595
 30
0.0
 11
158.7768775984
 21
219.1938814948
 31
0.0
  0
LINE
  5
DA
330
1F
100
AcDbEntity
  8
0
  6
Continuous
 62
     7
370
     0
100
AcDbLine
 10
154.7768769428
 20
218.3676493595
 30
0.0
 11
154.7768769428
 21
219.1938814948
 31
0.0
  0
LINE
  5
DB
330
1F
100
AcDbEntity
  8
0
  6
Continuous
 62
     7
370
     0
100
AcDbLine
 10
158.6768777683
 20
220.6385565231
 30
0.0
 11
154.8768786355
 21
220.6385565231
 31
0.0
  0
LINE
  5
DC
330
1F
100
AcDbEntity
  8
0
  6
Continuous
 62
     7
370
     0
100
AcDbLine
 10
158.6768777683
 20
220.6385565231
 30
0.0
 11
158.6768777683
 21
220.1799956391
 31
0.0
  0
LINE
  5
DD
330
1F
100
AcDbEntity
  8
0
  6
Continuous
 62
     7
370
     0
100
AcDbLine
 10
154.8768786355
 20
220.1799956391
 30
0.0
 11
158.6768777683
 21
220.1799956391
 31
0.0
  0
LINE
  5
DE
330
1F
100
AcDbEntity
  8
0
  6
Continuous
 62
     7
370
     0
100
AcDbLine
 10
154.8768786355
 20
220.6385565231
 30
0.0
 11
154.8768786355
 21
220.1799956391
 31
0.0
  0
LINE
  5
DF
330
1F
100
AcDbEntity
  8
0
  6
Continuous
 62
     7
370
     0
100
AcDbLine
 10
158.6768777683
 20
226.6043407152
 30
0.0
 11
154.8768786355
 21
226.6043407152
 31
0.0
  0
LINE
  5
E0
330
1F
100
AcDbEntity
  8
0
  6
Continuous
 62
     7
370
     0
100
AcDbLine
 10
158.6768777683
 20
226.6043407152
 30
0.0
 11
158.6768777683
 21
220.6385565231
 31
0.0
  0
LINE
  5
E1
330
1F
100
AcDbEntity
  8
0
  6
Continuous
 62
     7
370
     0
100
AcDbLine
 10
154.8768786355
 20
226.6043407152
 30
0.0
 11
154.8768786355
 21
220.6385565231
 31
0.0
  0
LINE
  5
E2
330
1F
100
AcDbEntity
  8
0
  6
Continuous
 62
     7
370
     0
100
AcDbLine
 10
158.6768777683
 20
228.5441366265
 30
0.0
 11
158.6768777683
 21
226.6043407152
 31
0.0
  0
LINE
  5
E3
330
1F
100
AcDbEntity
  8
0
  6
Continuous
 62
     7
370
     0
100
AcDbLine
 10
154.8768786355
 20
228.5441366265
 30
0.0
 11
154.8768786355
 21
226.6043407152
 31
0.0
  0
ARC
  5
E4
330
1F
100
AcDbEntity
  8
0
  6
Continuous
 62
     7
370
     0
100
AcDbCircle
 10
154.516703531
 20
238.2477591204
 30
0.0
 40
3.32292483862826
100
AcDbArc
 50
188.6089762992
 51
192.5273829197
  0
ARC
  5
E5
330
1F
100
AcDbEntity
  8
0
  6
Continuous
 62
     7
370
     0
100
AcDbCircle
 10
154.5157840081
 20
237.9395917625
 30
0.0
 40
3.321993902953652
100
AcDbArc
 50
188.6088698405
 51
192.8430566207
  0
LINE
  5
E6
330
1F
100
AcDbEntity
  8
0
  6
Continuous
 62
     7
370
     0
100
AcDbLine
 10
151.2312182798
 20
237.4423277805
 30
0.0
 11
151.2312182798
 21
237.5276294778
 31
0.0
  0
ARC
  5
E7
330
1F
100
AcDbEntity
  8
0
  6
Continuous
 62
     7
370
     0
100
AcDbCircle
 10
152.1257045321
 20
237.8346463114
 30
0.0
 40
0.9457087244528005
100
AcDbArc
 50
198.9438910476
 51
217.8424419653
  0
ARC
  5
E8
330
1F
100
AcDbEntity
  8
0
  6
Continuous
 62
     7
370
     0
100
AcDbCircle
 10
155.0129338383
 20
237.590884907
 30
0.0
 40
3.64959524369264
100
AcDbArc
 50
174.7109063119
 51
185.2890936881
  0
ARC
  5
E9
330
1F
100
AcDbEntity
  8
0
  6
Continuous
 62
     7
370
     0
100
AcDbCircle
 10
152.1257045321
 20
238.5074933439
 30
0.0
 40
0.9457087244528005
100
AcDbArc
 50
198.9438910476
 51
217.8424419653
  0
LINE
  5
EA
330
1F
100
AcDbEntity
  8
0
  6
Continuous
 62
     7
370
     0
100
AcDbLine
 10
151.2312182798
 20
238.2004765103
 30
0.0
 11
151.2312182798
 21
238.4298053811
 31
0.0
  0
ARC
  5
EB
330
1F
100
AcDbEntity
  8
0
  6
Continuous
 62
     7
370
     0
100
AcDbCircle
 10
154.5373575671
 20
237.928319603
 30
0.0
 40
3.343956484806315
100
AcDbArc
 50
160.8274481626
 51
171.3749398064
  0
ARC
  5
EC
330
1F
100
AcDbEntity
  8
0
  6
Continuous
 62
     7
370
     0
100
AcDbCircle
 10
152.1340791917
 20
239.1805333326
 30
0.0
 40
0.7707456130523468
100
AcDbArc
 50
168.4735239539
 51
191.5264760461
  0
ARC
  5
ED
330
1F
100
AcDbEntity
  8
0
  6
Continuous
 62
     7
370
     0
100
AcDbCircle
 10
154.537505466
 20
238.236304908
 30
0.0
 40
3.344108199620543
100
AcDbArc
 50
160.8276880988
 51
171.3746998702
  0
LINE
  5
EE
330
1F
100
AcDbEntity
  8
0
  6
Continuous
 62
     7
370
     0
100
AcDbLine
 10
151.2312182798
 20
238.7378272841
 30
0.0
 11
151.2312182798
 21
238.6525255869
 31
0.0
  0
ARC
  5
EF
330
1F
100
AcDbEntity
  8
0
  6
Continuous
 62
     7
370
     0
100
AcDbCircle
 10
152.0295816496
 20
237.7139788814
 30
0.0
 40
0.8414157036088481
100
AcDbArc
 50
153.4499927693
 51
161.5922769178
  0
LINE
  5
F0
330
1F
100
AcDbEntity
  8
0
  6
Continuous
 62
     7
370
     0
100
AcDbLine
 10
151.2312182798
 20
237.9796785543
 30
0.0
 11
151.2312182798
 21
237.7503496836
 31
0.0
  0
SPLINE
  5
F1
330
1F
100
AcDbEntity
  8
0
  6
Continuous
 62
     7
370
     0
100
AcDbSpline
210
0.0
220
0.0
230
1.0
 70
     8
 71
     3
 72
     8
 73
     4
 74
     0
 42
0.000000001
 43
0.00000001
 40
0.0
 40
0.0
 40
0.0
 40
0.0
 40
1.0
 40
1.0
 40
1.0
 40
1.0
 10
151.2312179446355
 20
237.5276258557139
 30
0.0
 10
151.280439144136
 20
237.5293594767537
 30
0.0
 10
151.3296590914199
 20
237.5310993739038
 30
0.0
 10
151.3788776957377
 20
237.5328460020016
 30
0.0
  0
SPLINE
  5
F2
330
1F
100
AcDbEntity
  8
0
  6
Continuous
 62
     7
370
     0
100
AcDbSpline
210
0.0
220
0.0
230
1.0
 70
     8
 71
     3
 72
     8
 73
     4
 74
     0
 42
0.000000001
 43
0.00000001
 40
0.0
 40
0.0
 40
0.0
 40
0.0
 40
1.0
 40
1.0
 40
1.0
 40
1.0
 10
151.2312179446355
 20
237.7503462057321
 30
0.0
 10
151.2804393309401
 20
237.7541331943141
 30
0.0
 10
151.3296594650187
 20
237.7579338927254
 30
0.0
 10
151.3788782561207
 20
237.7617492945376
 30
0.0
  0
SPLINE
  5
F3
330
1F
100
AcDbEntity
  8
0
  6
Continuous
 62
     7
370
     0
100
AcDbSpline
210
0.0
220
0.0
230
1.0
 70
     8
 71
     3
 72
     8
 73
     4
 74
     0
 42
0.000000001
 43
0.00000001
 40
0.0
 40
0.0
 40
0.0
 40
0.0
 40
1.0
 40
1.0
 40
1.0
 40
1.0
 10
151.2312179446355
 20
237.9796799923897
 30
0.0
 10
151.2766691262893
 20
237.9780791552384
 30
0.0
 10
151.3221192401068
 20
237.9764729660904
 30
0.0
 10
151.3675682149127
 20
237.9748610682152
 30
0.0
  0
LINE
  5
F4
330
1F
100
AcDbEntity
  8
0
  6
Continuous
 62
     7
370
     0
100
AcDbLine
 10
175.2222773261
 20
119.366631029
 30
0.0
 11
175.2222773261
 21
121.8666305075
 31
0.0
  0
LINE
  5
F5
330
1F
100
AcDbEntity
  8
0
  6
Continuous
 62
     7
370
     0
100
AcDbLine
 10
171.7148745424
 20
119.366631029
 30
0.0
 11
175.2222773261
 21
119.366631029
 31
0.0
  0
LINE
  5
F6
330
1F
100
AcDbEntity
  8
0
  6
Continuous
 62
     7
370
     0
100
AcDbLine
 10
171.7148745424
 20
119.366631029
 30
0.0
 11
171.7148745424
 21
121.8666305075
 31
0.0
  0
LINE
  5
F7
330
1F
100
AcDbEntity
  8
0
  6
Continuous
 62
     7
370
     0
100
AcDbLine
 10
168.2074716422
 20
119.366631029
 30
0.0
 11
171.7148745424
 21
119.366631029
 31
0.0
  0
LINE
  5
F8
330
1F
100
AcDbEntity
  8
0
  6
Continuous
 62
     7
370
     0
100
AcDbLine
 10
168.2074716422
 20
119.366631029
 30
0.0
 11
168.2074716422
 21
121.8666305075
 31
0.0
  0
LINE
  5
F9
330
1F
100
AcDbEntity
  8
0
  6
Continuous
 62
     7
370
     0
100
AcDbLine
 10
173.7148745791
 20
111.866630731
 30
0.0
 11
169.7148745056
 21
111.866630731
 31
0.0
  0
LINE
  5
FA
330
1F
100
AcDbEntity
  8
0
  6
Continuous
 62
     7
370
     0
100
AcDbLine
 10
174.0648745667
 20
114.3666302095
 30
0.0
 11
169.3648746345
 21
114.3666302095
 31
0.0
  0
LINE
  5
FB
330
1F
100
AcDbEntity
  8
0
  6
Continuous
 62
     7
370
     0
100
AcDbLine
 10
174.0648745667
 20
116.8666315506
 30
0.0
 11
169.3648746345
 21
116.8666315506
 31
0.0
  0
ARC
  5
FC
330
1F
100
AcDbEntity
  8
0
  6
Continuous
 62
     7
370
     0
100
AcDbCircle
 10
171.7768778666
 20
171.4617583346
 30
0.0
 40
7.141428428542877
100
AcDbArc
 50
314.4382406712
 51
45.5617593289
  0
ARC
  5
FD
330
1F
100
AcDbEntity
  8
0
  6
Continuous
 62
     7
370
     0
100
AcDbCircle
 10
171.7768778666
 20
171.4617583346
 30
0.0
 40
7.141428428542876
100
AcDbArc
 50
134.4382406712
 51
225.5617593289
  0
LINE
  5
FE
330
1F
100
AcDbEntity
  8
0
  6
Continuous
 62
     7
370
     0
100
AcDbLine
 10
179.6713472917
 20
177.7617578636
 30
0.0
 11
179.6713472917
 21
165.1617569158
 31
0.0
  0
SPLINE
  5
FF
330
1F
100
AcDbEntity
  8
0
  6
Continuous
 62
     7
370
     0
100
AcDbSpline
210
0.0
220
0.0
230
1.0
 70
    24
 71
     3
 72
    10
 73
     6
 74
     0
 42
0.000000001
 43
0.00000001
 40
0.0
 40
0.0
 40
0.0
 40
0.0
 40
0.4999999999999989
 40
0.4999999999999989
 40
1.0
 40
1.0
 40
1.0
 40
1.0
 10
179.1714238850902
 20
165.1617583346133
 30
0.0
 10
179.3008691393904
 20
165.1617583346578
 30
0.0
 10
179.4295516358015
 20
165.1617583346836
 30
0.0
 10
179.6142054073424
 20
165.1617583346836
 30
0.0
 10
179.6690886070077
 20
165.1617583346578
 30
0.0
 10
179.6713477370758
 20
165.1617583346133
 30
0.0
  0
LINE
  5
100
330
1F
100
AcDbEntity
  8
0
  6
Continuous
 62
     7
370
     0
100
AcDbLine
 10
179.1714240439
 20
177.7617578636
 30
0.0
 11
179.1714240439
 21
165.1617569158
 31
0.0
  0
SPLINE
  5
101
330
1F
100
AcDbEntity
  8
0
  6
Continuous
 62
     7
370
     0
100
AcDbSpline
210
0.0
220
0.0
230
1.0
 70
    24
 71
     3
 72
    10
 73
     6
 74
     0
 42
0.000000001
 43
0.00000001
 40
0.0
 40
0.0
 40
0.0
 40
0.0
 40
0.5
 40
0.5
 40
1.0
 40
1.0
 40
1.0
 40
1.0
 10
179.1714238850901
 20
177.7617583346133
 30
0.0
 10
179.3008691379464
 20
177.7617583346133
 30
0.0
 10
179.4295516324994
 20
177.7617583346133
 30
0.0
 10
179.6142054019807
 20
177.7617583346133
 30
0.0
 10
179.6690886015041
 20
177.7617583346133
 30
0.0
 10
179.6713477326683
 20
177.7617583346133
 30
0.0
  0
SPLINE
  5
102
330
1F
100
AcDbEntity
  8
0
  6
Continuous
 62
     7
370
     0
100
AcDbSpline
210
0.0
220
0.0
230
1.0
 70
     8
 71
     3
 72
    14
 73
    10
 74
     0
 42
0.000000001
 43
0.00000001
 40
0.0
 40
0.0
 40
0.0
 40
0.0
 40
0.25
 40
0.25
 40
0.5
 40
0.5
 40
0.75
 40
0.75
 40
1.0
 40
1.0
 40
1.0
 40
1.0
 10
179.6713477326684
 20
165.1617583346133
 30
0.0
 10
179.6713477326684
 20
164.1283746456494
 30
0.0
 10
179.4658758129328
 20
163.0953975490397
 30
0.0
 10
178.6749581788473
 20
161.1859534701102
 30
0.0
 10
178.0898236568126
 20
160.3102377724986
 30
0.0
 10
176.6283984287448
 20
158.8488125444307
 30
0.0
 10
175.7526827311331
 20
158.263678022396
 30
0.0
 10
173.8432386522038
 20
157.4727603883104
 30
0.0
 10
172.8102615555939
 20
157.2672884685748
 30
0.0
 10
171.7768778666301
 20
157.2672884685748
 30
0.0
  0
SPLINE
  5
103
330
1F
100
AcDbEntity
  8
0
  6
Continuous
 62
     7
370
     0
100
AcDbSpline
210
0.0
220
0.0
230
1.0
 70
     8
 71
     3
 72
    14
 73
    10
 74
     0
 42
0.000000001
 43
0.00000001
 40
0.0
 40
0.0
 40
0.0
 40
0.0
 40
0.25
 40
0.25
 40
0.5
 40
0.5
 40
0.75
 40
0.75
 40
1.0
 40
1.0
 40
1.0
 40
1.0
 10
171.7768778666301
 20
157.2672884685748
 30
0.0
 10
170.7434941776663
 20
157.2672884685748
 30
0.0
 10
169.7105170810565
 20
157.4727603883104
 30
0.0
 10
167.801073002127
 20
158.2636780223959
 30
0.0
 10
166.9253573045154
 20
158.8488125444306
 30
0.0
 10
165.4639320764475
 20
160.3102377724984
 30
0.0
 10
164.8787975544128
 20
161.1859534701101
 30
0.0
 10
164.0878799203272
 20
163.0953975490395
 30
0.0
 10
163.8824080005916
 20
164.1283746456493
 30
0.0
 10
163.8824080005916
 20
165.1617583346131
 30
0.0
  0
SPLINE
  5
104
330
1F
100
AcDbEntity
  8
0
  6
Continuous
 62
     7
370
     0
100
AcDbSpline
210
0.0
220
0.0
230
1.0
 70
    24
 71
     3
 72
    10
 73
     6
 74
     0
 42
0.000000001
 43
0.00000001
 40
0.0
 40
0.0
 40
0.0
 40
0.0
 40
0.5
 40
0.5
 40
1.0
 40
1.0
 40
1.0
 40
1.0
 10
164.3823318481698
 20
165.1617583346131
 30
0.0
 10
164.2528865953136
 20
165.1617583346132
 30
0.0
 10
164.1242041007605
 20
165.1617583346131
 30
0.0
 10
163.9395503312793
 20
165.1617583346131
 30
0.0
 10
163.8846671317558
 20
165.1617583346131
 30
0.0
 10
163.8824080005916
 20
165.1617583346131
 30
0.0
  0
SPLINE
  5
105
330
1F
100
AcDbEntity
  8
0
  6
Continuous
 62
     7
370
     0
100
AcDbSpline
210
0.0
220
0.0
230
1.0
 70
     8
 71
     3
 72
    14
 73
    10
 74
     0
 42
0.000000001
 43
0.00000001
 40
0.0
 40
0.0
 40
0.0
 40
0.0
 40
0.2500000000000001
 40
0.2500000000000001
 40
0.5000000000000001
 40
0.5000000000000001
 40
0.75
 40
0.75
 40
1.0
 40
1.0
 40
1.0
 40
1.0
 10
171.7768778666301
 20
157.767212316153
 30
0.0
 10
170.8089340562874
 20
157.767212316153
 30
0.0
 10
169.8413710905008
 20
157.9596725562664
 30
0.0
 10
168.0528441405074
 20
158.7005046756234
 30
0.0
 10
167.2325838652818
 20
159.248585069063
 30
0.0
 10
165.8637046010799
 20
160.6174643332648
 30
0.0
 10
165.3156242076404
 20
161.4377246084905
 30
0.0
 10
164.5747920882833
 20
163.2262515584838
 30
0.0
 10
164.3823318481698
 20
164.1938145242704
 30
0.0
 10
164.3823318481698
 20
165.1617583346131
 30
0.0
  0
SPLINE
  5
106
330
1F
100
AcDbEntity
  8
0
  6
Continuous
 62
     7
370
     0
100
AcDbSpline
210
0.0
220
0.0
230
1.0
 70
     8
 71
     3
 72
    14
 73
    10
 74
     0
 42
0.000000001
 43
0.00000001
 40
0.0
 40
0.0
 40
0.0
 40
0.0
 40
0.25
 40
0.25
 40
0.5
 40
0.5
 40
0.75
 40
0.75
 40
1.0
 40
1.0
 40
1.0
 40
1.0
 10
179.1714238850902
 20
165.1617583346133
 30
0.0
 10
179.1714238850902
 20
164.1938145242706
 30
0.0
 10
178.9789636449768
 20
163.226251558484
 30
0.0
 10
178.2381315256198
 20
161.4377246084906
 30
0.0
 10
177.6900511321802
 20
160.617464333265
 30
0.0
 10
176.3211718679784
 20
159.2485850690632
 30
0.0
 10
175.5009115927527
 20
158.7005046756236
 30
0.0
 10
173.7123846427594
 20
157.9596725562665
 30
0.0
 10
172.7448216769729
 20
157.767212316153
 30
0.0
 10
171.7768778666301
 20
157.767212316153
 30
0.0
  0
LINE
  5
107
330
1F
100
AcDbEntity
  8
0
  6
Continuous
 62
     7
370
     0
100
AcDbLine
 10
164.3823316894
 20
165.1617569158
 30
0.0
 11
164.3823316894
 21
177.7617578636
 31
0.0
  0
LINE
  5
108
330
1F
100
AcDbEntity
  8
0
  6
Continuous
 62
     7
370
     0
100
AcDbLine
 10
163.8824084415
 20
165.1617569158
 30
0.0
 11
163.8824084415
 21
177.7617578636
 31
0.0
  0
SPLINE
  5
109
330
1F
100
AcDbEntity
  8
0
  6
Continuous
 62
     7
370
     0
100
AcDbSpline
210
0.0
220
0.0
230
1.0
 70
    24
 71
     3
 72
    10
 73
     6
 74
     0
 42
0.000000001
 43
0.00000001
 40
0.0
 40
0.0
 40
0.0
 40
0.0
 40
0.5000000000000012
 40
0.5000000000000012
 40
1.0
 40
1.0
 40
1.0
 40
1.0
 10
163.8824080005915
 20
177.7617583346131
 30
0.0
 10
163.8846671317557
 20
177.7617583346131
 30
0.0
 10
163.9395503312791
 20
177.7617583346131
 30
0.0
 10
164.1242041007603
 20
177.7617583346131
 30
0.0
 10
164.2528865953134
 20
177.7617583346131
 30
0.0
 10
164.3823318481697
 20
177.7617583346131
 30
0.0
  0
LINE
  5
10A
330
1F
100
AcDbEntity
  8
0
  6
Continuous
 62
     7
370
     0
100
AcDbLine
 10
179.6713472917
 20
165.1617569158
 30
0.0
 11
179.7218780606
 21
165.1617569158
 31
0.0
  0
LINE
  5
10B
330
1F
100
AcDbEntity
  8
0
  6
Continuous
 62
     7
370
     0
100
AcDbLine
 10
179.6713472917
 20
177.7617578636
 30
0.0
 11
179.7218780606
 21
177.7617578636
 31
0.0
  0
LINE
  5
10C
330
1F
100
AcDbEntity
  8
0
  6
Continuous
 62
     7
370
     0
100
AcDbLine
 10
179.7218780606
 20
177.7617578636
 30
0.0
 11
179.7218780606
 21
165.1617569158
 31
0.0
  0
ARC
  5
10D
330
1F
100
AcDbEntity
  8
0
  6
Continuous
 62
     7
370
     0
100
AcDbCircle
 10
171.7768778666
 20
165.1617583346
 30
0.0
 40
7.945000000000022
100
AcDbArc
 50
180.0
 51
0.0
  0
LINE
  5
10E
330
1F
100
AcDbEntity
  8
0
  6
Continuous
 62
     7
370
     0
100
AcDbLine
 10
163.8824084415
 20
165.1617569158
 30
0.0
 11
163.8318776726
 21
165.1617569158
 31
0.0
  0
LINE
  5
10F
330
1F
100
AcDbEntity
  8
0
  6
Continuous
 62
     7
370
     0
100
AcDbLine
 10
163.8318776726
 20
177.7617578636
 30
0.0
 11
163.8824084415
 21
177.7617578636
 31
0.0
  0
LINE
  5
110
330
1F
100
AcDbEntity
  8
0
  6
Continuous
 62
     7
370
     0
100
AcDbLine
 10
163.8318776726
 20
165.1617569158
 30
0.0
 11
163.8318776726
 21
177.7617578636
 31
0.0
  0
ARC
  5
111
330
1F
100
AcDbEntity
  8
0
  6
Continuous
 62
     7
370
     0
100
AcDbCircle
 10
171.7768778666
 20
177.7617583346
 30
0.0
 40
7.944999999999986
100
AcDbArc
 50
129.0004592744
 51
180.0
  0
ARC
  5
112
330
1F
100
AcDbEntity
  8
0
  6
Continuous
 62
     7
370
     0
100
AcDbCircle
 10
171.7768778666
 20
177.7617583346
 30
0.0
 40
7.945000000000221
100
AcDbArc
 50
0.0
 51
50.9995407256
  0
LINE
  5
113
330
1F
100
AcDbEntity
  8
0
  6
Continuous
 62
     8
370
     0
100
AcDbLine
 10
158.7768775984
 20
224.6690002511
 30
0.0
 11
158.6768777683
 21
224.6690002511
 31
0.0
  0
LINE
  5
114
330
1F
100
AcDbEntity
  8
0
  6
Continuous
 62
     8
370
     0
100
AcDbLine
 10
154.8768786355
 20
224.6690002511
 30
0.0
 11
154.7768769428
 21
224.6690002511
 31
0.0
  0
SPLINE
  5
115
330
1F
100
AcDbEntity
  8
0
  6
Continuous
 62
     8
370
     0
100
AcDbSpline
210
0.0
220
0.0
230
1.0
 70
     8
 71
     3
 72
    12
 73
     8
 74
     0
 42
0.000000001
 43
0.00000001
 40
0.0
 40
0.0
 40
0.0
 40
0.0
 40
0.2378614143733123
 40
0.4757232025881849
 40
0.7135846677931458
 40
0.9514462857629419
 40
1.0
 40
1.0
 40
1.0
 40
1.0
 10
164.3823316893916
 20
177.7617578635552
 30
0.0
 10
164.41007426706
 20
178.2454660698149
 30
0.0
 10
164.4655594659991
 20
179.2128832425681
 30
0.0
 10
164.9019279459506
 20
180.6128835431815
 30
0.0
 10
165.5979762476958
 20
181.8847554721437
 30
0.0
 10
166.2440920427787
 20
182.753938313592
 30
0.0
 10
166.6996507350305
 20
183.1167093356391
 30
0.0
 10
166.7768779783885
 20
183.178207022939
 30
0.0
  0
SPLINE
  5
116
330
1F
100
AcDbEntity
  8
0
  6
Continuous
 62
     8
370
     0
100
AcDbSpline
210
0.0
220
0.0
230
1.0
 70
     8
 71
     3
 72
    12
 73
     8
 74
     0
 42
0.000000001
 43
0.00000001
 40
0.0
 40
0.0
 40
0.0
 40
0.0
 40
0.0485537142370581
 40
0.2864153322068542
 40
0.5242767974118151
 40
0.7621385856266877
 40
0.9999999999999999
 40
0.9999999999999999
 40
0.9999999999999999
 40
0.9999999999999999
 10
176.7768777548711
 20
183.1782070229391
 30
0.0
 10
176.8541049982291
 20
183.1167093356392
 30
0.0
 10
177.309663690481
 20
182.7539383135922
 30
0.0
 10
177.9557794855639
 20
181.8847554721438
 30
0.0
 10
178.6518277873091
 20
180.6128835431816
 30
0.0
 10
179.0881962672606
 20
179.2128832425683
 30
0.0
 10
179.1436814661998
 20
178.2454660698151
 30
0.0
 10
179.1714240438681
 20
177.7617578635553
 30
0.0
  0
SPLINE
  5
117
330
1F
100
AcDbEntity
  8
0
  6
Continuous
 62
     8
370
     0
100
AcDbSpline
210
0.0
220
0.0
230
1.0
 70
     8
 71
     3
 72
    12
 73
     8
 74
     0
 42
0.000000001
 43
0.00000001
 40
0.0
 40
0.0
 40
0.0
 40
0.0
 40
0.2228813392827209
 40
0.4457625533077534
 40
0.6686437488027895
 40
0.8915247621439378
 40
0.9999999999999999
 40
0.9999999999999999
 40
0.9999999999999999
 40
0.9999999999999999
 10
163.8824084415477
 20
177.7617578635551
 30
0.0
 10
163.9119322215845
 20
178.2782713810853
 30
0.0
 10
163.9709797650659
 20
179.3112981258687
 30
0.0
 10
164.4382605500865
 20
180.8044083313166
 30
0.0
 10
165.1760100984873
 20
182.1681174349823
 30
0.0
 10
165.9708275070436
 20
183.1969039950942
 30
0.0
 10
166.5780824878898
 20
183.6676960133848
 30
0.0
 10
166.7768779783885
 20
183.8218179772236
 30
0.0
  0
SPLINE
  5
118
330
1F
100
AcDbEntity
  8
0
  6
Continuous
 62
     8
370
     0
100
AcDbSpline
210
0.0
220
0.0
230
1.0
 70
     8
 71
     3
 72
    12
 73
     8
 74
     0
 42
0.000000001
 43
0.00000001
 40
0.0
 40
0.0
 40
0.0
 40
0.0
 40
0.1084752378560621
 40
0.3313562511972103
 40
0.5542374466922465
 40
0.7771186607172791
 40
0.9999999999999999
 40
0.9999999999999999
 40
0.9999999999999999
 40
0.9999999999999999
 10
176.7768777548711
 20
183.8218179772238
 30
0.0
 10
176.9756732453699
 20
183.6676960133849
 30
0.0
 10
177.5829282262161
 20
183.1969039950944
 30
0.0
 10
178.3777456347724
 20
182.1681174349824
 30
0.0
 10
179.1154951831732
 20
180.8044083313168
 30
0.0
 10
179.5827759681938
 20
179.3112981258689
 30
0.0
 10
179.6418235116753
 20
178.2782713810855
 30
0.0
 10
179.6713472917121
 20
177.7617578635553
 30
0.0
  0
DIMENSION
  5
119
330
1F
100
AcDbEntity
  8
0
  6
Continuous
 62
     7
370
     0
100
AcDbDimension
  2
_D
 10
166.7768778666
 20
268.8092181503
 30
0.0
 11
159.2768778666
 21
268.8092181503
 31
0.0
 70
   160
  1
<>
 71
     2
 42
-1.0
  3
SLDDIMSTYLE0
100
AcDbAlignedDimension
 13
151.7768778666
 23
258.1317052551
 33
0.0
 14
166.7768778666
 24
254.5736284963
 34
0.0
 50
0.0
100
AcDbRotatedDimension
  0
DIMENSION
  5
124
330
1F
100
AcDbEntity
  8
0
  6
Continuous
 62
     7
370
     0
100
AcDbDimension
  2
_D_1
 10
142.223313882
 20
228.544139084
 30
0.0
 11
142.223313882
 21
243.6271045028
 31
0.0
 70
   160
  1
<>
 71
     2
 42
-1.0
  3
SLDDIMSTYLE0
100
AcDbAlignedDimension
 13
151.7768778666
 23
258.7100699217
 33
0.0
 14
151.7768778666
 24
228.544139084
 34
0.0
 50
90.0
100
AcDbRotatedDimension
  0
DIMENSION
  5
12E
330
1F
100
AcDbEntity
  8
0
  6
Continuous
 62
     7
370
     0
100
AcDbDimension
  2
_D_2
 10
176.7768778666
 20
274.8092181503
 30
0.0
 11
164.2768778666
 21
274.8092181503
 31
0.0
 70
   160
  1
<>
 71
     2
 42
-1.0
  3
SLDDIMSTYLE0
100
AcDbAlignedDimension
 13
151.7768778666
 23
258.1317052551
 33
0.0
 14
176.7768778666
 24
256.9107289275
 34
0.0
 50
0.0
100
AcDbRotatedDimension
  0
DIMENSION
  5
138
330
1F
100
AcDbEntity
  8
0
  6
Continuous
 62
     7
370
     0
100
AcDbDimension
  2
_D_3
 10
161.7768778666
 20
101.8666307546
 30
0.0
 11
171.7768778666
 21
101.8666307546
 31
0.0
 70
   160
  1
<>
 71
     2
 42
-1.0
  3
SLDDIMSTYLE0
100
AcDbAlignedDimension
 13
181.7768778666
 23
122.8666307546
 33
0.0
 14
161.7768778666
 24
122.8666307546
 34
0.0
 50
0.0
100
AcDbRotatedDimension
  0
DIMENSION
  5
142
330
1F
100
AcDbEntity
  8
0
  6
Continuous
 62
     7
370
     0
100
AcDbDimension
  2
_D_4
 10
151.7768778666
 20
89.8666307546
 30
0.0
 11
166.7768778666
 21
89.8666307546
 31
0.0
 70
   160
  1
<>
 71
     2
 42
-1.0
  3
SLDDIMSTYLE0
100
AcDbAlignedDimension
 13
181.7768778666
 23
122.8666307546
 33
0.0
 14
151.7768778666
 24
228.544139084
 34
0.0
 50
0.0
100
AcDbRotatedDimension
  0
LINE
  5
14C
330
1F
100
AcDbEntity
  8
0
  6
Continuous
 62
     7
370
     0
100
AcDbLine
 10
72.2851460971
 20
146.86663088
 30
0.0
 11
72.2851460971
 21
122.8666306714
 31
0.0
  0
LINE
  5
14D
330
1F
100
AcDbEntity
  8
0
  6
Continuous
 62
     7
370
     0
100
AcDbLine
 10
92.2851493754
 20
122.8666306714
 30
0.0
 11
92.2851493754
 21
146.86663088
 31
0.0
  0
LINE
  5
14E
330
1F
100
AcDbEntity
  8
0
  6
Continuous
 62
     7
370
     0
100
AcDbLine
 10
72.2851460971
 20
122.8666306714
 30
0.0
 11
73.2851481237
 21
121.8666305075
 31
0.0
  0
LINE
  5
14F
330
1F
100
AcDbEntity
  8
0
  6
Continuous
 62
     7
370
     0
100
AcDbLine
 10
91.2851473488
 20
121.8666305075
 30
0.0
 11
92.2851493754
 21
122.8666306714
 31
0.0
  0
ARC
  5
150
330
1F
100
AcDbEntity
  8
0
  6
Continuous
 62
     7
370
     0
100
AcDbCircle
 10
62.860556665
 20
251.5844227119
 30
0.0
 40
0.2000000000000001
100
AcDbArc
 50
9.5115862628
 51
99.5115862628
  0
LWPOLYLINE
  5
151
330
1F
100
AcDbEntity
  8
0
  6
Continuous
 62
     7
370
     0
100
AcDbPolyline
 90
        3
 70
   128
 43
0.0
 10
63.5720720686
 20
248.509725673
 10
63.5727277197
 20
248.5209760497
 10
63.570075313
 20
248.5600915978
  0
LINE
  5
152
330
1F
100
AcDbEntity
  8
0
  6
Continuous
 62
     7
370
     0
100
AcDbLine
 10
62.8275057473
 20
251.7816704939
 30
0.0
 11
62.6302590766
 21
251.7486271689
 31
0.0
  0
LINE
  5
153
330
1F
100
AcDbEntity
  8
0
  6
Continuous
 62
     7
370
     0
100
AcDbLine
 10
63.5535499253
 20
248.6587149332
 30
0.0
 11
64.3425515093
 21
248.7909105847
 31
0.0
  0
LINE
  5
154
330
1F
100
AcDbEntity
  8
0
  6
Continuous
 62
     7
370
     0
100
AcDbLine
 10
63.8633301653
 20
251.6510469148
 30
0.0
 11
63.0743285813
 21
251.5188438127
 31
0.0
  0
LINE
  5
155
330
1F
100
AcDbEntity
  8
0
  6
Continuous
 62
     7
370
     0
100
AcDbLine
 10
52.24794207
 20
233.2283613513
 30
0.0
 11
52.4462392725
 21
232.0448589752
 31
0.0
  0
LINE
  5
156
330
1F
100
AcDbEntity
  8
0
  6
Continuous
 62
     7
370
     0
100
AcDbLine
 10
53.8269883194
 20
232.2762069533
 30
0.0
 11
53.6286911168
 21
233.4597093294
 31
0.0
  0
LINE
  5
157
330
1F
100
AcDbEntity
  8
0
  6
Continuous
 62
     7
370
     0
100
AcDbLine
 10
54.2204460301
 20
233.558861656
 30
0.0
 11
54.4187432327
 21
232.3753518293
 31
0.0
  0
LINE
  5
158
330
1F
100
AcDbEntity
  8
0
  6
Continuous
 62
     7
370
     0
100
AcDbLine
 10
55.7994922795
 20
232.6066998074
 30
0.0
 11
55.6011950769
 21
233.7902021835
 31
0.0
  0
LINE
  5
159
330
1F
100
AcDbEntity
  8
0
  6
Continuous
 62
     7
370
     0
100
AcDbLine
 10
52.7914246716
 20
232.1026978324
 30
0.0
 11
53.6176642575
 21
227.1714342068
 31
0.0
  0
LINE
  5
15A
330
1F
100
AcDbEntity
  8
0
  6
Continuous
 62
     7
370
     0
100
AcDbLine
 10
54.3080350556
 20
227.2871119211
 30
0.0
 11
53.4818029203
 21
232.2183680961
 31
0.0
  0
LINE
  5
15B
330
1F
100
AcDbEntity
  8
0
  6
Continuous
 62
     7
370
     0
100
AcDbLine
 10
54.7639286317
 20
232.4331906865
 30
0.0
 11
55.5901682176
 21
227.5019345115
 31
0.0
  0
LINE
  5
15C
330
1F
100
AcDbEntity
  8
0
  6
Continuous
 62
     7
370
     0
100
AcDbLine
 10
56.2805390157
 20
227.6176047752
 30
0.0
 11
55.4543068804
 21
232.5488684008
 31
0.0
  0
LINE
  5
15D
330
1F
100
AcDbEntity
  8
0
  6
Continuous
 62
     7
370
     0
100
AcDbLine
 10
79.9130356111
 20
116.8666315506
 30
0.0
 11
80.2630340852
 21
114.3666302095
 31
0.0
  0
LINE
  5
15E
330
1F
100
AcDbEntity
  8
0
  6
Continuous
 62
     7
370
     0
100
AcDbLine
 10
84.2630347409
 20
114.3666302095
 30
0.0
 11
84.613033215
 21
116.8666315506
 31
0.0
  0
LINE
  5
15F
330
1F
100
AcDbEntity
  8
0
  6
Continuous
 62
     7
370
     0
100
AcDbLine
 10
79.9130356111
 20
114.3666302095
 30
0.0
 11
80.2630340852
 21
111.866630731
 31
0.0
  0
LINE
  5
160
330
1F
100
AcDbEntity
  8
0
  6
Continuous
 62
     7
370
     0
100
AcDbLine
 10
84.2630347409
 20
111.866630731
 30
0.0
 11
84.613033215
 21
114.3666302095
 31
0.0
  0
LINE
  5
161
330
1F
100
AcDbEntity
  8
0
  6
Continuous
 62
     7
370
     0
100
AcDbLine
 10
84.3630364337
 20
116.8666315506
 30
0.0
 11
84.3630364337
 21
119.366631029
 31
0.0
  0
LINE
  5
162
330
1F
100
AcDbEntity
  8
0
  6
Continuous
 62
     7
370
     0
100
AcDbLine
 10
80.1630361177
 20
119.366631029
 30
0.0
 11
80.1630361177
 21
116.8666315506
 31
0.0
  0
LINE
  5
163
330
1F
100
AcDbEntity
  8
0
  6
Continuous
 62
     7
370
     0
100
AcDbLine
 10
67.2851508655
 20
215.8582938145
 30
0.0
 11
76.2851504781
 21
215.8582938145
 31
0.0
  0
LINE
  5
164
330
1F
100
AcDbEntity
  8
0
  6
Continuous
 62
     7
370
     0
100
AcDbLine
 10
76.2851504781
 20
215.8582938145
 30
0.0
 11
76.2851504781
 21
217.0582992266
 31
0.0
  0
LINE
  5
165
330
1F
100
AcDbEntity
  8
0
  6
Continuous
 62
     7
370
     0
100
AcDbLine
 10
76.2851504781
 20
217.0582992266
 30
0.0
 11
88.2851487197
 21
217.0582992266
 31
0.0
  0
LINE
  5
166
330
1F
100
AcDbEntity
  8
0
  6
Continuous
 62
     7
370
     0
100
AcDbLine
 10
88.2851487197
 20
217.0582992266
 30
0.0
 11
88.2851487197
 21
215.8582938145
 31
0.0
  0
LINE
  5
167
330
1F
100
AcDbEntity
  8
0
  6
Continuous
 62
     7
370
     0
100
AcDbLine
 10
88.2851487197
 20
215.8582938145
 30
0.0
 11
97.2851483323
 21
215.8582938145
 31
0.0
  0
LINE
  5
168
330
1F
100
AcDbEntity
  8
0
  6
Continuous
 62
     7
370
     0
100
AcDbLine
 10
97.2851483323
 20
215.8582938145
 30
0.0
 11
99.0851489999
 21
214.0583005975
 31
0.0
  0
LINE
  5
169
330
1F
100
AcDbEntity
  8
0
  6
Continuous
 62
     7
370
     0
100
AcDbLine
 10
99.0851489999
 20
214.0583005975
 30
0.0
 11
65.4851501979
 21
214.0583005975
 31
0.0
  0
LINE
  5
16A
330
1F
100
AcDbEntity
  8
0
  6
Continuous
 62
     7
370
     0
100
AcDbLine
 10
65.4851501979
 20
214.0583005975
 30
0.0
 11
67.2851508655
 21
215.8582938145
 31
0.0
  0
LINE
  5
16B
330
1F
100
AcDbEntity
  8
0
  6
Continuous
 62
     7
370
     0
100
AcDbLine
 10
62.2851481833
 20
210.8582985828
 30
0.0
 11
62.2851481833
 21
146.86663088
 31
0.0
  0
LINE
  5
16C
330
1F
100
AcDbEntity
  8
0
  6
Continuous
 62
     7
370
     0
100
AcDbLine
 10
102.2851472892
 20
210.8582985828
 30
0.0
 11
99.0851489999
 21
214.0583005975
 31
0.0
  0
LINE
  5
16D
330
1F
100
AcDbEntity
  8
0
  6
Continuous
 62
     7
370
     0
100
AcDbLine
 10
102.2851472892
 20
146.86663088
 30
0.0
 11
102.2851472892
 21
210.8582985828
 31
0.0
  0
LINE
  5
16E
330
1F
100
AcDbEntity
  8
0
  6
Continuous
 62
     7
370
     0
100
AcDbLine
 10
82.2851477363
 20
146.86663088
 30
0.0
 11
102.2851472892
 21
146.86663088
 31
0.0
  0
LINE
  5
16F
330
1F
100
AcDbEntity
  8
0
  6
Continuous
 62
     7
370
     0
100
AcDbLine
 10
62.2851481833
 20
146.86663088
 30
0.0
 11
82.2851477363
 21
146.86663088
 31
0.0
  0
CIRCLE
  5
170
330
1F
100
AcDbEntity
  8
0
  6
Continuous
 62
     7
370
     0
100
AcDbCircle
 10
66.2851489334
 20
197.8617583346
 30
0.0
 40
2.999999999999972
  0
CIRCLE
  5
171
330
1F
100
AcDbEntity
  8
0
  6
Continuous
 62
     7
370
     0
100
AcDbCircle
 10
98.2851489334
 20
197.8617583346
 30
0.0
 40
3.000000000000028
  0
CIRCLE
  5
172
330
1F
100
AcDbEntity
  8
0
  6
Continuous
 62
     7
370
     0
100
AcDbCircle
 10
98.2851489334
 20
151.8666307546
 30
0.0
 40
3.249999999999972
  0
CIRCLE
  5
173
330
1F
100
AcDbEntity
  8
0
  6
Continuous
 62
     7
370
     0
100
AcDbCircle
 10
82.2851489334
 20
194.8666307546
 30
0.0
 40
3.25
  0
CIRCLE
  5
174
330
1F
100
AcDbEntity
  8
0
  6
Continuous
 62
     7
370
     0
100
AcDbCircle
 10
66.2851489334
 20
151.8666307546
 30
0.0
 40
3.249999999999943
  0
LINE
  5
175
330
1F
100
AcDbEntity
  8
0
  6
Continuous
 62
     7
370
     0
100
AcDbLine
 10
65.4851501979
 20
214.0583005975
 30
0.0
 11
62.2851481833
 21
210.8582985828
 31
0.0
  0
LINE
  5
176
330
1F
100
AcDbEntity
  8
0
  6
Continuous
 62
     7
370
     0
100
AcDbLine
 10
61.2851461567
 20
146.86663088
 30
0.0
 11
61.2851461567
 21
209.8582965563
 31
0.0
  0
LINE
  5
177
330
1F
100
AcDbEntity
  8
0
  6
Continuous
 62
     7
370
     0
100
AcDbLine
 10
62.2851481833
 20
146.86663088
 30
0.0
 11
61.2851461567
 21
146.86663088
 31
0.0
  0
LINE
  5
178
330
1F
100
AcDbEntity
  8
0
  6
Continuous
 62
     7
370
     0
100
AcDbLine
 10
61.2851461567
 20
209.8582965563
 30
0.0
 11
62.2851481833
 21
210.8582985828
 31
0.0
  0
CIRCLE
  5
179
330
1F
100
AcDbEntity
  8
0
  6
Continuous
 62
     7
370
     0
100
AcDbCircle
 10
66.2851489334
 20
197.8617583346
 30
0.0
 40
2.5
  0
LINE
  5
17A
330
1F
100
AcDbEntity
  8
0
  6
Continuous
 62
     7
370
     0
100
AcDbLine
 10
103.2851493158
 20
209.8582965563
 30
0.0
 11
103.2851493158
 21
146.86663088
 31
0.0
  0
LINE
  5
17B
330
1F
100
AcDbEntity
  8
0
  6
Continuous
 62
     7
370
     0
100
AcDbLine
 10
103.2851493158
 20
146.86663088
 30
0.0
 11
102.2851472892
 21
146.86663088
 31
0.0
  0
LINE
  5
17C
330
1F
100
AcDbEntity
  8
0
  6
Continuous
 62
     7
370
     0
100
AcDbLine
 10
102.2851472892
 20
210.8582985828
 30
0.0
 11
103.2851493158
 21
209.8582965563
 31
0.0
  0
CIRCLE
  5
17D
330
1F
100
AcDbEntity
  8
0
  6
Continuous
 62
     7
370
     0
100
AcDbCircle
 10
82.2851489334
 20
194.8666307546
 30
0.0
 40
2.5
  0
CIRCLE
  5
17E
330
1F
100
AcDbEntity
  8
0
  6
Continuous
 62
     7
370
     0
100
AcDbCircle
 10
98.2851489334
 20
197.8617583346
 30
0.0
 40
2.5
  0
CIRCLE
  5
17F
330
1F
100
AcDbEntity
  8
0
  6
Continuous
 62
     7
370
     0
100
AcDbCircle
 10
66.2851489334
 20
151.8666307546
 30
0.0
 40
2.5
  0
CIRCLE
  5
180
330
1F
100
AcDbEntity
  8
0
  6
Continuous
 62
     7
370
     0
100
AcDbCircle
 10
98.2851489334
 20
151.8666307546
 30
0.0
 40
2.499999999999972
  0
LINE
  5
181
330
1F
100
AcDbEntity
  8
0
  6
Continuous
 62
     7
370
     0
100
AcDbLine
 10
82.2851477363
 20
122.8666306714
 30
0.0
 11
92.2851493754
 21
122.8666306714
 31
0.0
  0
LINE
  5
182
330
1F
100
AcDbEntity
  8
0
  6
Continuous
 62
     7
370
     0
100
AcDbLine
 10
72.2851460971
 20
122.8666306714
 30
0.0
 11
82.2851477363
 21
122.8666306714
 31
0.0
  0
LINE
  5
183
330
1F
100
AcDbEntity
  8
0
  6
Continuous
 62
     7
370
     0
100
AcDbLine
 10
82.2851477363
 20
121.8666305075
 30
0.0
 11
73.2851481237
 21
121.8666305075
 31
0.0
  0
LINE
  5
184
330
1F
100
AcDbEntity
  8
0
  6
Continuous
 62
     7
370
     0
100
AcDbLine
 10
91.2851473488
 20
121.8666305075
 30
0.0
 11
82.2851477363
 21
121.8666305075
 31
0.0
  0
LINE
  5
185
330
1F
100
AcDbEntity
  8
0
  6
Continuous
 62
     7
370
     0
100
AcDbLine
 10
91.8670861222
 20
228.5441366265
 30
0.0
 11
96.8244975605
 21
258.1317034791
 31
0.0
  0
LINE
  5
186
330
1F
100
AcDbEntity
  8
0
  6
Continuous
 62
     7
370
     0
100
AcDbLine
 10
96.8244975605
 20
258.1317034791
 30
0.0
 11
93.3726174929
 21
258.7100696991
 31
0.0
  0
LINE
  5
187
330
1F
100
AcDbEntity
  8
0
  6
Continuous
 62
     7
370
     0
100
AcDbLine
 10
88.4152060546
 20
229.1225028465
 30
0.0
 11
91.8670861222
 21
228.5441366265
 31
0.0
  0
LINE
  5
188
330
1F
100
AcDbEntity
  8
0
  6
Continuous
 62
     7
370
     0
100
AcDbLine
 10
93.3726174929
 20
258.7100696991
 30
0.0
 11
88.4152060546
 21
229.1225028465
 31
0.0
  0
LWPOLYLINE
  5
189
330
1F
100
AcDbEntity
  8
0
  6
Continuous
 62
     7
370
     0
100
AcDbPolyline
 90
        4
 70
   128
 43
0.0
 10
97.4214790561
 20
258.0316794346
 10
97.8432079949
 20
257.7177939246
 10
98.3539527454
 20
257.3376504014
 10
98.9275468685
 20
256.9107321332
  0
LWPOLYLINE
  5
18A
330
1F
100
AcDbEntity
  8
0
  6
Continuous
 62
     7
370
     0
100
AcDbPolyline
 90
        4
 70
   128
 43
0.0
 10
98.9275468685
 20
256.9107321332
 10
99.0404864945
 20
256.1403197477
 10
99.1549423136
 20
255.3595659564
 10
99.270158092
 20
254.573626561
  0
LINE
  5
18B
330
1F
100
AcDbEntity
  8
0
  6
Continuous
 62
     7
370
     0
100
AcDbLine
 10
99.270158092
 20
254.573626561
 30
0.0
 11
94.8258457877
 21
228.0483973453
 31
0.0
  0
LWPOLYLINE
  5
18C
330
1F
100
AcDbEntity
  8
0
  6
Continuous
 62
     7
370
     0
100
AcDbPolyline
 90
        9
 70
   128
 43
0.0
 10
96.8244975605
 20
258.1317034791
 10
96.8341535129
 20
258.1300867031
 10
96.863054315
 20
258.1252438257
 10
96.9110099771
 20
258.1172120998
 10
96.9777112999
 20
258.1060362289
 10
97.0627186992
 20
258.0917907188
 10
97.1654845573
 20
258.0745724271
 10
97.2853308715
 20
258.0544931124
 10
97.4214790561
 20
258.0316794346
  0
LWPOLYLINE
  5
18D
330
1F
100
AcDbEntity
  8
0
  6
Continuous
 62
     7
370
     0
100
AcDbPolyline
 90
        9
 70
   128
 43
0.0
 10
94.8258457877
 20
228.0483973453
 10
94.2486195066
 20
228.1451133321
 10
93.6935773291
 20
228.2381114791
 10
93.1820465424
 20
228.3238155077
 10
92.7336855032
 20
228.3989397118
 10
92.3657274045
 20
228.4605932663
 10
92.0923097231
 20
228.5063994358
 10
91.9239377775
 20
228.5346147845
 10
91.8670861222
 20
228.5441366265
  0
LINE
  5
18E
330
1F
100
AcDbEntity
  8
0
  6
Continuous
 62
     7
370
     0
100
AcDbLine
 10
104.8627054491
 20
161.4745931009
 30
0.0
 11
109.1591274538
 21
187.1171501706
 31
0.0
  0
LINE
  5
18F
330
1F
100
AcDbEntity
  8
0
  6
Continuous
 62
     7
370
     0
100
AcDbLine
 10
103.2851493158
 20
161.7389136235
 30
0.0
 11
104.8627054491
 21
161.4745931009
 31
0.0
  0
ARC
  5
190
330
1F
100
AcDbEntity
  8
0
  6
Continuous
 62
     7
370
     0
100
AcDbCircle
 10
93.0721334592
 20
215.1610204479
 30
0.0
 40
3.000000000000015
100
AcDbArc
 50
13.4399224121
 51
80.4884137372
  0
LINE
  5
191
330
1F
100
AcDbEntity
  8
0
  6
Continuous
 62
     7
370
     0
100
AcDbLine
 10
87.7489863135
 20
219.0947366188
 30
0.0
 11
93.5678748586
 21
218.1197759936
 31
0.0
  0
LINE
  5
192
330
1F
100
AcDbEntity
  8
0
  6
Continuous
 62
     7
370
     0
100
AcDbLine
 10
86.9279807605
 20
220.2462313006
 30
0.0
 11
87.7489863135
 21
219.0947366188
 31
0.0
  0
LINE
  5
193
330
1F
100
AcDbEntity
  8
0
  6
Continuous
 62
     7
370
     0
100
AcDbLine
 10
109.1591274538
 20
187.1171501706
 30
0.0
 11
99.270158092
 21
254.573626561
 31
0.0
  0
LINE
  5
194
330
1F
100
AcDbEntity
  8
0
  6
Continuous
 62
     7
370
     0
100
AcDbLine
 10
88.4152060546
 20
229.1225028465
 30
0.0
 11
86.9279807605
 21
220.2462313006
 31
0.0
  0
LINE
  5
195
330
1F
100
AcDbEntity
  8
0
  6
Continuous
 62
     7
370
     0
100
AcDbLine
 10
104.8627054491
 20
161.4745931009
 30
0.0
 11
103.2851493158
 21
160.3498162011
 31
0.0
  0
CIRCLE
  5
196
330
1F
100
AcDbEntity
  8
0
  6
Continuous
 62
     7
370
     0
100
AcDbCircle
 10
57.0922887817
 20
249.0970374129
 30
0.0
 40
1.199999999999996
  0
CIRCLE
  5
197
330
1F
100
AcDbEntity
  8
0
  6
Continuous
 62
     7
370
     0
100
AcDbCircle
 10
57.0922887817
 20
249.0970374129
 30
0.0
 40
1.499999999999979
  0
LINE
  5
198
330
1F
100
AcDbEntity
  8
0
  6
Continuous
 62
     7
370
     0
100
AcDbLine
 10
62.3948356308
 20
248.3124790023
 30
0.0
 11
61.8660455741
 21
251.4684853385
 31
0.0
  0
LINE
  5
199
330
1F
100
AcDbEntity
  8
0
  6
Continuous
 62
     7
370
     0
100
AcDbLine
 10
61.6925290026
 20
252.5040564368
 30
0.0
 11
62.4815380373
 21
252.6362520883
 31
0.0
  0
LINE
  5
19A
330
1F
100
AcDbEntity
  8
0
  6
Continuous
 62
     7
370
     0
100
AcDbLine
 10
62.4815380373
 20
252.6362520883
 30
0.0
 11
63.1838372149
 21
248.4446821044
 31
0.0
  0
LWPOLYLINE
  5
19B
330
1F
100
AcDbEntity
  8
0
  6
Continuous
 62
     7
370
     0
100
AcDbPolyline
 90
        6
 70
   128
 43
0.0
 10
63.3139392533
 20
250.088779373
 10
63.3971026339
 20
249.592414243
 10
63.4712582626
 20
249.149842305
 10
63.5283669629
 20
248.8090154956
 10
63.5622373023
 20
248.6068663428
 10
63.570075313
 20
248.5600915978
  0
LWPOLYLINE
  5
19C
330
1F
100
AcDbEntity
  8
0
  6
Continuous
 62
     7
370
     0
100
AcDbPolyline
 90
        6
 70
   128
 43
0.0
 10
63.0578106441
 20
251.6174745987
 10
63.0656412043
 20
251.5706924031
 10
63.0995115437
 20
251.3685507009
 10
63.156620244
 20
251.0277238915
 10
63.2307758727
 20
250.5851445029
 10
63.3139392533
 20
250.088779373
  0
LWPOLYLINE
  5
19D
330
1F
100
AcDbEntity
  8
0
  6
Continuous
 62
     7
370
     0
100
AcDbPolyline
 90
        9
 70
   128
 43
0.0
 10
53.8269883194
 20
232.2762069533
 10
53.7744393744
 20
232.2674003671
 10
53.6247870125
 20
232.2423291633
 10
53.4008076586
 20
232.2048005889
 10
53.1366175212
 20
232.1605366896
 10
52.8724199333
 20
232.1162653396
 10
52.6484405794
 20
232.0787442158
 10
52.4987882175
 20
232.0536655615
 10
52.4462392725
 20
232.0448589752
  0
LWPOLYLINE
  5
19E
330
1F
100
AcDbEntity
  8
0
  6
Continuous
 62
     7
370
     0
100
AcDbPolyline
 90
        9
 70
   128
 43
0.0
 10
55.7994922795
 20
232.6066998074
 10
55.7469433345
 20
232.5978932212
 10
55.5972909727
 20
232.5728220175
 10
55.3733116188
 20
232.535293443
 10
55.1091214814
 20
232.4910295437
 10
54.8449238934
 20
232.4467656443
 10
54.6209519901
 20
232.4092370699
 10
54.4712921776
 20
232.3841584156
 10
54.4187432327
 20
232.3753518293
  0
LWPOLYLINE
  5
19F
330
1F
100
AcDbEntity
  8
0
  6
Continuous
 62
     7
370
     0
100
AcDbPolyline
 90
        9
 70
   128
 43
0.0
 10
54.3080350556
 20
227.2871119211
 10
54.2817643084
 20
227.282708628
 10
54.2069306769
 20
227.2701693008
 10
54.0949484505
 20
227.2514087389
 10
53.9628496565
 20
227.2292730639
 10
53.8307508626
 20
227.207137389
 10
53.7187611856
 20
227.188376827
 10
53.6439350047
 20
227.1758374999
 10
53.6176642575
 20
227.1714342068
  0
LWPOLYLINE
  5
1A0
330
1F
100
AcDbEntity
  8
0
  6
Continuous
 62
     7
370
     0
100
AcDbPolyline
 90
        9
 70
   128
 43
0.0
 10
56.2805390157
 20
227.6176047752
 10
56.2542682685
 20
227.6132014821
 10
56.1794420876
 20
227.6006621549
 10
56.0674524107
 20
227.581901593
 10
55.9353536167
 20
227.559765918
 10
55.8032548227
 20
227.5376376937
 10
55.6912651457
 20
227.5188696812
 10
55.6164389648
 20
227.506330354
 10
55.5901682176
 20
227.5019345115
  0
CIRCLE
  5
1A1
330
1F
100
AcDbEntity
  8
0
  6
Continuous
 62
     7
370
     0
100
AcDbCircle
 10
68.96653498
 20
253.2665430456
 30
0.0
 40
1.000000000000053
  0
CIRCLE
  5
1A2
330
1F
100
AcDbEntity
  8
0
  6
Continuous
 62
     7
370
     0
100
AcDbCircle
 10
74.6969464763
 20
223.301523705
 30
0.0
 40
1.499999999999979
  0
LINE
  5
1A3
330
1F
100
AcDbEntity
  8
0
  6
Continuous
 62
     7
370
     0
100
AcDbLine
 10
63.8940936126
 20
219.7054011057
 30
0.0
 11
65.377832035
 21
217.1773744057
 31
0.0
  0
LINE
  5
1A4
330
1F
100
AcDbEntity
  8
0
  6
Continuous
 62
     7
370
     0
100
AcDbLine
 10
65.360263566
 20
225.3378910253
 30
0.0
 11
63.8940936126
 21
219.7054011057
 31
0.0
  0
ARC
  5
1A5
330
1F
100
AcDbEntity
  8
0
  6
Continuous
 62
     7
370
     0
100
AcDbCircle
 10
55.682763393
 20
227.8570060352
 30
0.0
 40
10.0
100
AcDbArc
 50
345.4093517617
 51
9.5115862628
  0
LINE
  5
1A6
330
1F
100
AcDbEntity
  8
0
  6
Continuous
 62
     7
370
     0
100
AcDbLine
 10
64.5760974087
 20
235.2939528654
 30
0.0
 11
65.5452838339
 21
229.5094785521
 31
0.0
  0
LINE
  5
1A7
330
1F
100
AcDbEntity
  8
0
  6
Continuous
 62
     7
370
     0
100
AcDbLine
 10
64.5760974087
 20
235.2939528654
 30
0.0
 11
69.0142294564
 21
236.0375655125
 31
0.0
  0
ARC
  5
1A8
330
1F
100
AcDbEntity
  8
0
  6
Continuous
 62
     7
370
     0
100
AcDbCircle
 10
68.6837345183
 20
238.0100682267
 30
0.0
 40
2.000000000000008
100
AcDbArc
 50
279.5115862628
 51
9.5115862628
  0
LINE
  5
1A9
330
1F
100
AcDbEntity
  8
0
  6
Continuous
 62
     7
370
     0
100
AcDbLine
 10
70.6562405624
 20
238.3405623267
 30
0.0
 11
68.9211419024
 21
248.6962137053
 31
0.0
  0
ARC
  5
1AA
330
1F
100
AcDbEntity
  8
0
  6
Continuous
 62
     7
370
     0
100
AcDbCircle
 10
66.9486405183
 20
248.3657163866
 30
0.0
 40
1.999999999999998
100
AcDbArc
 50
9.5115862628
 51
99.5115862628
  0
LINE
  5
1AB
330
1F
100
AcDbEntity
  8
0
  6
Continuous
 62
     7
370
     0
100
AcDbLine
 10
66.6181450882
 20
250.3382173608
 30
0.0
 11
64.1525170006
 21
249.9251050184
 31
0.0
  0
LINE
  5
1AC
330
1F
100
AcDbEntity
  8
0
  6
Continuous
 62
     7
370
     0
100
AcDbLine
 10
63.2436579265
 20
255.3494927714
 30
0.0
 11
64.1525170006
 21
249.9251050184
 31
0.0
  0
LINE
  5
1AD
330
1F
100
AcDbEntity
  8
0
  6
Continuous
 62
     7
370
     0
100
AcDbLine
 10
64.8856690325
 20
257.6524895857
 30
0.0
 11
63.2436579265
 21
255.3494927714
 31
0.0
  0
LINE
  5
1AE
330
1F
100
AcDbEntity
  8
0
  6
Continuous
 62
     7
370
     0
100
AcDbLine
 10
71.7894366183
 20
258.8092145751
 30
0.0
 11
64.8856690325
 21
257.6524895857
 31
0.0
  0
LINE
  5
1AF
330
1F
100
AcDbEntity
  8
0
  6
Continuous
 62
     7
370
     0
100
AcDbLine
 10
78.2340659
 20
220.3453836272
 30
0.0
 11
71.7894366183
 21
258.8092145751
 31
0.0
  0
LINE
  5
1B0
330
1F
100
AcDbEntity
  8
0
  6
Continuous
 62
     7
370
     0
100
AcDbLine
 10
77.4130640723
 20
219.1938814948
 30
0.0
 11
78.2340659
 21
220.3453836272
 31
0.0
  0
LINE
  5
1B1
330
1F
100
AcDbEntity
  8
0
  6
Continuous
 62
     7
370
     0
100
AcDbLine
 10
65.377832035
 20
217.1773744057
 30
0.0
 11
77.4130640723
 21
219.1938814948
 31
0.0
  0
LINE
  5
1B2
330
1F
100
AcDbEntity
  8
0
  6
Continuous
 62
     7
370
     0
100
AcDbLine
 10
64.367339591
 20
248.6429718564
 30
0.0
 11
64.1525170006
 21
249.9251050184
 31
0.0
  0
ARC
  5
1B3
330
1F
100
AcDbEntity
  8
0
  6
Continuous
 62
     7
370
     0
100
AcDbCircle
 10
71.4981644077
 20
215.1610204479
 30
0.0
 40
2.999999999999988
100
AcDbArc
 50
99.5115862628
 51
166.5600775879
  0
LINE
  5
1B4
330
1F
100
AcDbEntity
  8
0
  6
Continuous
 62
     7
370
     0
100
AcDbLine
 10
59.7075900235
 20
161.4745931009
 30
0.0
 11
61.2851461567
 21
161.7389136235
 31
0.0
  0
LINE
  5
1B5
330
1F
100
AcDbEntity
  8
0
  6
Continuous
 62
     7
370
     0
100
AcDbLine
 10
59.7075900235
 20
161.4745931009
 30
0.0
 11
55.4111680188
 21
187.1171501706
 31
0.0
  0
LINE
  5
1B6
330
1F
100
AcDbEntity
  8
0
  6
Continuous
 62
     7
370
     0
100
AcDbLine
 10
55.4111680188
 20
187.1171501706
 30
0.0
 11
61.2851461567
 21
209.6827981303
 31
0.0
  0
LINE
  5
1B7
330
1F
100
AcDbEntity
  8
0
  6
Continuous
 62
     7
370
     0
100
AcDbLine
 10
61.3469114699
 20
209.9200544188
 30
0.0
 11
63.8940936126
 21
219.7054011057
 31
0.0
  0
LINE
  5
1B8
330
1F
100
AcDbEntity
  8
0
  6
Continuous
 62
     7
370
     0
100
AcDbLine
 10
59.7075900235
 20
161.4745931009
 30
0.0
 11
61.2851461567
 21
160.3498162011
 31
0.0
  0
CIRCLE
  5
1B9
330
1F
100
AcDbEntity
  8
0
  6
Continuous
 62
     7
370
     0
100
AcDbCircle
 10
98.2851489334
 20
197.8617583346
 30
0.0
 40
2.098076211353312
  0
SPLINE
  5
1BA
330
1F
100
AcDbEntity
  8
0
  6
Continuous
 62
     7
370
     0
100
AcDbSpline
210
0.0
220
0.0
230
1.0
 70
     8
 71
     3
 72
    14
 73
    10
 74
     0
 42
0.000000001
 43
0.00000001
 40
0.0
 40
0.0
 40
0.0
 40
0.0
 40
0.4999999999999742
 40
0.4999999999999742
 40
0.7499999999999871
 40
0.7499999999999871
 40
0.8749999999999936
 40
0.8749999999999936
 40
1.0
 40
1.0
 40
1.0
 40
1.0
 10
74.31717930677154
 20
224.6136983506437
 30
0.0
 10
74.29987218204167
 20
224.6347463203378
 30
0.0
 10
74.27776536010673
 20
224.6540732924829
 30
0.0
 10
74.22922006326407
 20
224.676121122117
 30
0.0
 10
74.21046584683134
 20
224.6824971128458
 30
0.0
 10
74.17309443430236
 20
224.6867956444432
 30
0.0
 10
74.15911708708263
 20
224.6873608987689
 30
0.0
 10
74.1253234705029
 20
224.6838825593615
 30
0.0
 10
74.10340886726519
 20
224.6793278461268
 30
0.0
 10
74.08050577548953
 20
224.6690034534182
 30
0.0
  0
ARC
  5
1BB
330
1F
100
AcDbEntity
  8
0
  6
Continuous
 62
     7
370
     0
100
AcDbCircle
 10
74.6969464763
 20
223.301523705
 30
0.0
 40
1.366025403784435
100
AcDbArc
 50
106.1414033176
 51
73.8585966824
  0
SPLINE
  5
1BC
330
1F
100
AcDbEntity
  8
0
  6
Continuous
 62
     7
370
     0
100
AcDbSpline
210
0.0
220
0.0
230
1.0
 70
     8
 71
     3
 72
    14
 73
    10
 74
     0
 42
0.000000001
 43
0.00000001
 40
0.0
 40
0.0
 40
0.0
 40
0.0
 40
0.124999999999994
 40
0.124999999999994
 40
0.249999999999988
 40
0.249999999999988
 40
0.4999999999999899
 40
0.4999999999999899
 40
1.0
 40
1.0
 40
1.0
 40
1.0
 10
75.3133871770434
 20
224.6690034534182
 30
0.0
 10
75.29063081462024
 20
224.6792617025917
 30
0.0
 10
75.26893000741255
 20
224.6838241300911
 30
0.0
 10
75.2349051575889
 20
224.6873686069473
 30
0.0
 10
75.22087507181169
 20
224.6867913545173
 30
0.0
 10
75.18389386249727
 20
224.6825766640982
 30
0.0
 10
75.16506722626455
 20
224.6762709714701
 30
0.0
 10
75.11614531781242
 20
224.6541391189277
 30
0.0
 10
75.09402816196767
 20
224.6347553094435
 30
0.0
 10
75.07671364576137
 20
224.6136983506438
 30
0.0
  0
LINE
  5
1BD
330
1F
100
AcDbEntity
  8
0
  6
Continuous
 62
     7
370
     0
100
AcDbLine
 10
74.4094258346
 20
224.3442741464
 30
0.0
 11
74.3555059828
 21
224.5398369859
 31
0.0
  0
ARC
  5
1BE
330
1F
100
AcDbEntity
  8
0
  6
Continuous
 62
     7
370
     0
100
AcDbCircle
 10
74.2166202456
 20
224.2911128683
 30
0.0
 40
0.2000000000000004
100
AcDbArc
 50
295.8909827371
 51
15.4153010407
  0
ARC
  5
1BF
330
1F
100
AcDbEntity
  8
0
  6
Continuous
 62
     7
370
     0
100
AcDbCircle
 10
74.6969464763
 20
223.301523705
 30
0.0
 40
0.8999999999999851
100
AcDbArc
 50
115.8909827371
 51
64.1090172629
  0
ARC
  5
1C0
330
1F
100
AcDbEntity
  8
0
  6
Continuous
 62
     7
370
     0
100
AcDbCircle
 10
75.177272707
 20
224.2911128683
 30
0.0
 40
0.2000000000000066
100
AcDbArc
 50
164.5846989593
 51
244.1090172629
  0
LINE
  5
1C1
330
1F
100
AcDbEntity
  8
0
  6
Continuous
 62
     7
370
     0
100
AcDbLine
 10
75.0383889474
 20
224.5398369859
 30
0.0
 11
74.9844690957
 21
224.3442741464
 31
0.0
  0
ARC
  5
1C2
330
1F
100
AcDbEntity
  8
0
  6
Continuous
 62
     7
370
     0
100
AcDbCircle
 10
75.2311950836
 20
224.4866728203
 30
0.0
 40
0.2000000000000059
100
AcDbArc
 50
140.5705471975
 51
164.5846989593
  0
ARC
  5
1C3
330
1F
100
AcDbEntity
  8
0
  6
Continuous
 62
     7
370
     0
100
AcDbCircle
 10
74.1626978689
 20
224.4866728203
 30
0.0
 40
0.2000000000000059
100
AcDbArc
 50
15.4153010407
 51
39.4294528025
  0
ARC
  5
1C4
330
1F
100
AcDbEntity
  8
0
  6
Continuous
 62
     7
370
     0
100
AcDbCircle
 10
71.5725726769
 20
256.6585529147
 30
0.0
 40
1.500000000000002
100
AcDbArc
 50
8.0904988765
 51
77.2080473712
  0
LINE
  5
1C5
330
1F
100
AcDbEntity
  8
0
  6
Continuous
 62
     7
370
     0
100
AcDbLine
 10
73.0576446452
 20
256.8696570824
 30
0.0
 11
77.3599153556
 21
226.6043407152
 31
0.0
  0
LINE
  5
1C6
330
1F
100
AcDbEntity
  8
0
  6
Continuous
 62
     7
370
     0
100
AcDbLine
 10
77.3599153556
 20
226.6043407152
 30
0.0
 11
77.6703735985
 21
223.7097156475
 31
0.0
  0
LWPOLYLINE
  5
1C7
330
1F
100
AcDbEntity
  8
0
  6
Continuous
 62
     7
370
     0
100
AcDbPolyline
 90
        9
 70
   128
 43
0.0
 10
65.5730297961
 20
237.7503496836
 10
65.5383696951
 20
237.674629433
 10
65.5038213529
 20
237.5991699527
 10
65.4694145717
 20
237.524001045
 10
65.4351493516
 20
237.4491525123
 10
65.4010405936
 20
237.374654157
 10
65.3671181001
 20
237.3005432318
 10
65.3333893218
 20
237.2268644402
 10
65.2998617091
 20
237.1536326835
  0
ARC
  5
1C8
330
1F
100
AcDbEntity
  8
0
  6
Continuous
 62
     7
370
     0
100
AcDbCircle
 10
69.3116742488
 20
245.0281890953
 30
0.0
 40
8.837605927829362
100
AcDbArc
 50
243.0027401405
 51
247.8016978268
  0
LWPOLYLINE
  5
1C9
330
1F
100
AcDbEntity
  8
0
  6
Continuous
 62
     7
370
     0
100
AcDbPolyline
 90
        9
 70
   128
 43
0.0
 10
65.9727087416
 20
236.8456107805
 10
66.0062363543
 20
236.9188425372
 10
66.0399651327
 20
236.9925287793
 10
66.0738876261
 20
237.0666322539
 10
66.1079963841
 20
237.1411306093
 10
66.1422616043
 20
237.215979142
 10
66.1766683855
 20
237.2911480496
 10
66.2112167277
 20
237.3666149805
 10
66.2458768286
 20
237.4423277805
  0
ARC
  5
1CA
330
1F
100
AcDbEntity
  8
0
  6
Continuous
 62
     7
370
     0
100
AcDbCircle
 10
66.1354804802
 20
238.0900767105
 30
0.0
 40
0.6570903894995161
100
AcDbArc
 50
279.6720445288
 51
301.1327366375
  0
LWPOLYLINE
  5
1CB
330
1F
100
AcDbEntity
  8
0
  6
Continuous
 62
     7
370
     0
100
AcDbPolyline
 90
        9
 70
   128
 43
0.0
 10
66.47521315
 20
237.5276294778
 10
66.55092595
 20
237.4929619263
 10
66.6263854303
 20
237.4584210346
 10
66.7015543379
 20
237.4240068028
 10
66.7764103212
 20
237.3897415827
 10
66.850901226
 20
237.3556402753
 10
66.9250121512
 20
237.3217177818
 10
66.9986983933
 20
237.2879815529
 10
67.07193015
 20
237.2544613908
  0
ARC
  5
1CC
330
1F
100
AcDbEntity
  8
0
  6
Continuous
 62
     7
370
     0
100
AcDbCircle
 10
59.1969623422
 20
241.2663716511
 30
0.0
 40
8.838016853962129
100
AcDbArc
 50
333.0033863575
 51
337.8021006618
  0
LWPOLYLINE
  5
1CD
330
1F
100
AcDbEntity
  8
0
  6
Continuous
 62
     7
370
     0
100
AcDbPolyline
 90
        9
 70
   128
 43
0.0
 10
67.3799446024
 20
237.9273084233
 10
67.3067128458
 20
237.9608285854
 10
67.2330266037
 20
237.9945648144
 10
67.158923129
 20
238.0284873078
 10
67.0844247736
 20
238.0625886152
 10
67.009576241
 20
238.0968538354
 10
66.9344073333
 20
238.1312680672
 10
66.858947853
 20
238.1658089588
 10
66.7832276024
 20
238.2004765103
  0
ARC
  5
1CE
330
1F
100
AcDbEntity
  8
0
  6
Continuous
 62
     7
370
     0
100
AcDbCircle
 10
66.1354804802
 20
238.0900767105
 30
0.0
 40
0.6570903894995069
100
AcDbArc
 50
9.6720445288
 51
31.1327366375
  0
LWPOLYLINE
  5
1CF
330
1F
100
AcDbEntity
  8
0
  6
Continuous
 62
     7
370
     0
100
AcDbPolyline
 90
        9
 70
   128
 43
0.0
 10
66.6979333558
 20
238.4298053811
 10
66.7325934567
 20
238.5055181811
 10
66.7671343483
 20
238.580985112
 10
66.8015485801
 20
238.6561540196
 10
66.8358138003
 20
238.7310025523
 10
66.8699151077
 20
238.8055009077
 10
66.9038450517
 20
238.8796043823
 10
66.9375738301
 20
238.9532906244
 10
66.9711014428
 20
239.0265223811
  0
ARC
  5
1D0
330
1F
100
AcDbEntity
  8
0
  6
Continuous
 62
     7
370
     0
100
AcDbCircle
 10
62.9581732174
 20
231.1495288512
 30
0.0
 40
8.840283932797915
100
AcDbArc
 50
63.0034674445
 51
67.8009705229
  0
LWPOLYLINE
  5
1D1
330
1F
100
AcDbEntity
  8
0
  6
Continuous
 62
     7
370
     0
100
AcDbPolyline
 90
        9
 70
   128
 43
0.0
 10
66.2982544102
 20
239.3345442841
 10
66.2647267975
 20
239.2613125275
 10
66.2309980192
 20
239.1876262853
 10
66.1970680751
 20
239.1135228107
 10
66.1629667677
 20
239.0390244553
 10
66.1287015476
 20
238.9641759227
 10
66.0942873158
 20
238.8889995644
 10
66.0597464242
 20
238.8135400842
 10
66.0250863232
 20
238.7378272841
  0
ARC
  5
1D2
330
1F
100
AcDbEntity
  8
0
  6
Continuous
 62
     7
370
     0
100
AcDbCircle
 10
66.1354804802
 20
238.0900767105
 30
0.0
 40
0.6570903894995257
100
AcDbArc
 50
99.6720445288
 51
121.1327366375
  0
LWPOLYLINE
  5
1D3
330
1F
100
AcDbEntity
  8
0
  6
Continuous
 62
     7
370
     0
100
AcDbPolyline
 90
        9
 70
   128
 43
0.0
 10
65.7957500019
 20
238.6525255869
 10
65.7200372018
 20
238.6871856878
 10
65.6445777216
 20
238.72173403
 10
65.5694013633
 20
238.7561482618
 10
65.4945528307
 20
238.790413482
 10
65.4200544753
 20
238.8245147894
 10
65.3459510006
 20
238.8584372828
 10
65.2722647585
 20
238.8921735118
 10
65.1990330019
 20
238.9256936739
  0
ARC
  5
1D4
330
1F
100
AcDbEntity
  8
0
  6
Continuous
 62
     7
370
     0
100
AcDbCircle
 10
73.0752481095
 20
234.9131218016
 30
0.0
 40
8.839428570431286
100
AcDbArc
 50
153.0032351895
 51
157.8012027779
  0
LWPOLYLINE
  5
1D5
330
1F
100
AcDbEntity
  8
0
  6
Continuous
 62
     7
370
     0
100
AcDbPolyline
 90
        9
 70
   128
 43
0.0
 10
64.8910110988
 20
238.2528466413
 10
64.9642428555
 20
238.2193264792
 10
65.0379290976
 20
238.1855902503
 10
65.1120400228
 20
238.1516677568
 10
65.1865309276
 20
238.1175664494
 10
65.2613869109
 20
238.0833012293
 10
65.3365558185
 20
238.0488869975
 10
65.4120152988
 20
238.0143386553
 10
65.4877280988
 20
237.9796785543
  0
ARC
  5
1D6
330
1F
100
AcDbEntity
  8
0
  6
Continuous
 62
     7
370
     0
100
AcDbCircle
 10
66.1354804802
 20
238.0900767105
 30
0.0
 40
0.6570903894995187
100
AcDbArc
 50
189.6720445288
 51
211.1327366375
  0
CIRCLE
  5
1D7
330
1F
100
AcDbEntity
  8
0
  6
Continuous
 62
     7
370
     0
100
AcDbCircle
 10
66.1354804802
 20
238.0900767105
 30
0.0
 40
2.404255319148933
  0
ARC
  5
1D8
330
1F
100
AcDbEntity
  8
0
  6
Continuous
 62
     7
370
     0
100
AcDbCircle
 10
66.1354804802
 20
238.0900767105
 30
0.0
 40
0.5560000000000316
100
AcDbArc
 50
107.1206009648
 51
113.6841802014
  0
SPLINE
  5
1D9
330
1F
100
AcDbEntity
  8
0
  6
Continuous
 62
     7
370
     0
100
AcDbSpline
210
0.0
220
0.0
230
1.0
 70
    24
 71
     3
 72
     8
 73
     4
 74
     0
 42
0.000000001
 43
0.00000001
 40
0.0
 40
0.0
 40
0.0
 40
0.0
 40
1.0
 40
1.0
 40
1.0
 40
1.0
 10
65.7957499754115
 20
238.6525275653451
 30
0.0
 10
65.83283799781165
 20
238.6355492147158
 30
0.0
 10
65.87110954523467
 20
238.6180290637553
 30
0.0
 10
65.91213809358968
 20
238.599246798358
 30
0.0
  0
SPLINE
  5
1DA
330
1F
100
AcDbEntity
  8
0
  6
Continuous
 62
     7
370
     0
100
AcDbSpline
210
0.0
220
0.0
230
1.0
 70
    24
 71
     3
 72
     8
 73
     4
 74
     0
 42
0.000000001
 43
0.00000001
 40
0.0
 40
0.0
 40
0.0
 40
0.0
 40
1.0
 40
1.0
 40
1.0
 40
1.0
 10
66.0250837620691
 20
238.7378269282806
 30
0.0
 10
66.00810541143979
 20
238.7007389058805
 30
0.0
 10
65.99058526047935
 20
238.6624673584574
 30
0.0
 10
65.971802995082
 20
238.6214388101025
 30
0.0
  0
SPLINE
  5
1DB
330
1F
100
AcDbEntity
  8
0
  6
Continuous
 62
     7
370
     0
100
AcDbSpline
210
0.0
220
0.0
230
1.0
 70
    24
 71
     3
 72
     8
 73
     4
 74
     0
 42
0.000000001
 43
0.00000001
 40
0.0
 40
0.0
 40
0.0
 40
0.0
 40
1.0
 40
1.0
 40
1.0
 40
1.0
 10
66.78323069795994
 20
238.2004734286692
 30
0.0
 10
66.74614267555978
 20
238.2174517792986
 30
0.0
 10
66.70787112813677
 20
238.234971930259
 30
0.0
 10
66.66684257978177
 20
238.2537541956564
 30
0.0
  0
ARC
  5
1DC
330
1F
100
AcDbEntity
  8
0
  6
Continuous
 62
     7
370
     0
100
AcDbCircle
 10
66.1354804802
 20
238.0900767105
 30
0.0
 40
0.5560000000000086
100
AcDbArc
 50
17.1206009648
 51
23.6841802014
  0
SPLINE
  5
1DD
330
1F
100
AcDbEntity
  8
0
  6
Continuous
 62
     7
370
     0
100
AcDbSpline
210
0.0
220
0.0
230
1.0
 70
    24
 71
     3
 72
     8
 73
     4
 74
     0
 42
0.000000001
 43
0.00000001
 40
0.0
 40
0.0
 40
0.0
 40
0.0
 40
1.0
 40
1.0
 40
1.0
 40
1.0
 10
66.6979313350244
 20
238.4298072153268
 30
0.0
 10
66.68095298439509
 20
238.3927191929267
 30
0.0
 10
66.66343283343467
 20
238.3544476455037
 30
0.0
 10
66.6446505680373
 20
238.3134190971487
 30
0.0
  0
SPLINE
  5
1DE
330
1F
100
AcDbEntity
  8
0
  6
Continuous
 62
     7
370
     0
100
AcDbSpline
210
0.0
220
0.0
230
1.0
 70
    24
 71
     3
 72
     8
 73
     4
 74
     0
 42
0.000000001
 43
0.00000001
 40
0.0
 40
0.0
 40
0.0
 40
0.0
 40
1.0
 40
1.0
 40
1.0
 40
1.0
 10
65.48773026245775
 20
237.9796799923897
 30
0.0
 10
65.5248182848579
 20
237.9627016417604
 30
0.0
 10
65.56308983228091
 20
237.9451814908
 30
0.0
 10
65.60411838063591
 20
237.9263992254027
 30
0.0
  0
ARC
  5
1DF
330
1F
100
AcDbEntity
  8
0
  6
Continuous
 62
     7
370
     0
100
AcDbCircle
 10
66.1354804802
 20
238.0900767105
 30
0.0
 40
0.5560000000000003
100
AcDbArc
 50
197.1206009648
 51
203.6841802014
  0
SPLINE
  5
1E0
330
1F
100
AcDbEntity
  8
0
  6
Continuous
 62
     7
370
     0
100
AcDbSpline
210
0.0
220
0.0
230
1.0
 70
    24
 71
     3
 72
     8
 73
     4
 74
     0
 42
0.000000001
 43
0.00000001
 40
0.0
 40
0.0
 40
0.0
 40
0.0
 40
1.0
 40
1.0
 40
1.0
 40
1.0
 10
65.57302962539327
 20
237.7503462057321
 30
0.0
 10
65.59000797602259
 20
237.7874342281323
 30
0.0
 10
65.60752812698301
 20
237.8257057755553
 30
0.0
 10
65.62631039238038
 20
237.8667343239104
 30
0.0
  0
SPLINE
  5
1E1
330
1F
100
AcDbEntity
  8
0
  6
Continuous
 62
     7
370
     0
100
AcDbSpline
210
0.0
220
0.0
230
1.0
 70
    24
 71
     3
 72
     8
 73
     4
 74
     0
 42
0.000000001
 43
0.00000001
 40
0.0
 40
0.0
 40
0.0
 40
0.0
 40
1.0
 40
1.0
 40
1.0
 40
1.0
 10
66.24587719834858
 20
237.4423264927784
 30
0.0
 10
66.2628555489779
 20
237.4794145151786
 30
0.0
 10
66.28037569993833
 20
237.5176860626016
 30
0.0
 10
66.29915796533568
 20
237.5587146109566
 30
0.0
  0
ARC
  5
1E2
330
1F
100
AcDbEntity
  8
0
  6
Continuous
 62
     7
370
     0
100
AcDbCircle
 10
66.1354804802
 20
238.0900767105
 30
0.0
 40
0.5559999999999873
100
AcDbArc
 50
287.1206009648
 51
293.6841802014
  0
SPLINE
  5
1E3
330
1F
100
AcDbEntity
  8
0
  6
Continuous
 62
     7
370
     0
100
AcDbSpline
210
0.0
220
0.0
230
1.0
 70
    24
 71
     3
 72
     8
 73
     4
 74
     0
 42
0.000000001
 43
0.00000001
 40
0.0
 40
0.0
 40
0.0
 40
0.0
 40
1.0
 40
1.0
 40
1.0
 40
1.0
 10
66.47521098500619
 20
237.5276258557139
 30
0.0
 10
66.43812296260603
 20
237.5446042063433
 30
0.0
 10
66.39985141518301
 20
237.5621243573037
 30
0.0
 10
66.358822866828
 20
237.580906622701
 30
0.0
  0
LINE
  5
1E4
330
1F
100
AcDbEntity
  8
0
  6
Continuous
 62
     7
370
     0
100
AcDbLine
 10
65.6061923303
 20
238.2603344748
 30
0.0
 11
65.4794430532
 21
237.9834708999
 31
0.0
  0
LINE
  5
1E5
330
1F
100
AcDbEntity
  8
0
  6
Continuous
 62
     7
370
     0
100
AcDbLine
 10
65.7874649562
 20
238.6563179324
 30
0.0
 11
65.6607231297
 21
238.3794543574
 31
0.0
  0
ELLIPSE
  5
1E6
330
1F
100
AcDbEntity
  8
0
  6
Continuous
 62
     7
370
     0
100
AcDbEllipse
 10
66.0732275568
 20
238.1185751824
 30
0.0
 11
0.4438663902777762
 21
-0.2031954986808273
 31
0.0
210
0.0
220
0.0
230
1.0
 40
0.9901159119
 41
3.00564570633881
 42
3.277539600838881
  0
LINE
  5
1E7
330
1F
100
AcDbEntity
  8
0
  6
Continuous
 62
     7
370
     0
100
AcDbLine
 10
66.3057347931
 20
238.6193705032
 30
0.0
 11
66.0288786687
 21
238.7461123298
 31
0.0
  0
LINE
  5
1E8
330
1F
100
AcDbEntity
  8
0
  6
Continuous
 62
     7
370
     0
100
AcDbLine
 10
66.7017257013
 20
238.4380904267
 30
0.0
 11
66.4248621263
 21
238.5648322533
 31
0.0
  0
ELLIPSE
  5
1E9
330
1F
100
AcDbEntity
  8
0
  6
Continuous
 62
     7
370
     0
100
AcDbEllipse
 10
66.163978952
 20
238.152329634
 30
0.0
 11
0.2031954986814384
 21
0.443866390277492
 31
0.0
210
0.0
220
0.0
230
1.0
 40
0.9901159119
 41
6.14723835992998
 42
6.419132254430078
  0
LINE
  5
1EA
330
1F
100
AcDbEntity
  8
0
  6
Continuous
 62
     7
370
     0
100
AcDbLine
 10
66.6647708215
 20
237.9198205898
 30
0.0
 11
66.7915126481
 21
238.1966841648
 31
0.0
  0
LINE
  5
1EB
330
1F
100
AcDbEntity
  8
0
  6
Continuous
 62
     7
370
     0
100
AcDbLine
 10
66.4834981956
 20
237.5238371322
 30
0.0
 11
66.6102400221
 21
237.8006932567
 31
0.0
  0
ELLIPSE
  5
1EC
330
1F
100
AcDbEntity
  8
0
  6
Continuous
 62
     7
370
     0
100
AcDbEllipse
 10
66.1977334036
 20
238.0615782387
 30
0.0
 11
0.4438663902773926
 21
-0.2031954986817084
 31
0.0
210
0.0
220
0.0
230
1.0
 40
0.9901159119
 41
6.147238359930496
 42
6.419132254430655
  0
LINE
  5
1ED
330
1F
100
AcDbEntity
  8
0
  6
Continuous
 62
     7
370
     0
100
AcDbLine
 10
65.9652209081
 20
237.5607845614
 30
0.0
 11
66.2420844831
 21
237.4340427349
 31
0.0
  0
LINE
  5
1EE
330
1F
100
AcDbEntity
  8
0
  6
Continuous
 62
     7
370
     0
100
AcDbLine
 10
65.5692374506
 20
237.7420646379
 30
0.0
 11
65.8461010255
 21
237.6153228114
 31
0.0
  0
ELLIPSE
  5
1EF
330
1F
100
AcDbEntity
  8
0
  6
Continuous
 62
     7
370
     0
100
AcDbEllipse
 10
66.1069820084
 20
238.0278237871
 30
0.0
 11
0.2031954986810405
 21
0.4438663902776909
 31
0.0
210
0.0
220
0.0
230
1.0
 40
0.9901159119
 41
3.00564570633926
 42
3.277539600839369
  0
CIRCLE
  5
1F0
330
1F
100
AcDbEntity
  8
0
  6
Continuous
 62
     7
370
     0
100
AcDbCircle
 10
66.1354804802
 20
238.0900767105
 30
0.0
 40
2.50000000000001
  0
ARC
  5
1F1
330
1F
100
AcDbEntity
  8
0
  6
Continuous
 62
     7
370
     0
100
AcDbCircle
 10
66.1354804802
 20
238.0900767105
 30
0.0
 40
0.5560000000000185
100
AcDbArc
 50
58.6362353916
 51
72.1685457747
  0
ARC
  5
1F2
330
1F
100
AcDbEntity
  8
0
  6
Continuous
 62
     7
370
     0
100
AcDbCircle
 10
66.1354804802
 20
238.0900767105
 30
0.0
 40
0.5560000000000133
100
AcDbArc
 50
148.6362353916
 51
162.1685457747
  0
ARC
  5
1F3
330
1F
100
AcDbEntity
  8
0
  6
Continuous
 62
     7
370
     0
100
AcDbCircle
 10
66.1354804802
 20
238.0900767105
 30
0.0
 40
0.5559999999999958
100
AcDbArc
 50
328.6362353916
 51
342.1685457747
  0
ARC
  5
1F4
330
1F
100
AcDbEntity
  8
0
  6
Continuous
 62
     7
370
     0
100
AcDbCircle
 10
66.1354804802
 20
238.0900767105
 30
0.0
 40
0.5559999999999942
100
AcDbArc
 50
238.6362353916
 51
252.1685457747
  0
ARC
  5
1F5
330
1F
100
AcDbEntity
  8
0
  6
Continuous
 62
     7
370
     0
100
AcDbCircle
 10
66.1354804802
 20
238.0900767105
 30
0.0
 40
0.5559999999999942
100
AcDbArc
 50
293.6841802014
 51
328.6362353916
  0
ARC
  5
1F6
330
1F
100
AcDbEntity
  8
0
  6
Continuous
 62
     7
370
     0
100
AcDbCircle
 10
66.1354804802
 20
238.0900767105
 30
0.0
 40
0.5559999999999911
100
AcDbArc
 50
252.1685457747
 51
287.1206009648
  0
ARC
  5
1F7
330
1F
100
AcDbEntity
  8
0
  6
Continuous
 62
     7
370
     0
100
AcDbCircle
 10
66.1354804802
 20
238.0900767105
 30
0.0
 40
0.5559999999999942
100
AcDbArc
 50
203.6841802014
 51
238.6362353916
  0
ARC
  5
1F8
330
1F
100
AcDbEntity
  8
0
  6
Continuous
 62
     7
370
     0
100
AcDbCircle
 10
66.1354804802
 20
238.0900767105
 30
0.0
 40
0.5560000000000133
100
AcDbArc
 50
162.1685457747
 51
197.1206009648
  0
ARC
  5
1F9
330
1F
100
AcDbEntity
  8
0
  6
Continuous
 62
     7
370
     0
100
AcDbCircle
 10
66.1354804802
 20
238.0900767105
 30
0.0
 40
0.5560000000000133
100
AcDbArc
 50
113.6841802014
 51
148.6362353916
  0
ARC
  5
1FA
330
1F
100
AcDbEntity
  8
0
  6
Continuous
 62
     7
370
     0
100
AcDbCircle
 10
66.1354804802
 20
238.0900767105
 30
0.0
 40
0.5560000000000316
100
AcDbArc
 50
72.1685457747
 51
107.1206009648
  0
ARC
  5
1FB
330
1F
100
AcDbEntity
  8
0
  6
Continuous
 62
     7
370
     0
100
AcDbCircle
 10
66.1354804802
 20
238.0900767105
 30
0.0
 40
0.5560000000000185
100
AcDbArc
 50
23.6841802014
 51
58.6362353916
  0
ARC
  5
1FC
330
1F
100
AcDbEntity
  8
0
  6
Continuous
 62
     7
370
     0
100
AcDbCircle
 10
66.1354804802
 20
238.0900767105
 30
0.0
 40
0.5560000000000086
100
AcDbArc
 50
342.1685457747
 51
17.1206009648
  0
LINE
  5
1FD
330
1F
100
AcDbEntity
  8
0
  6
Continuous
 62
     7
370
     0
100
AcDbLine
 10
84.2880351641
 20
119.366631029
 30
0.0
 11
84.2880351641
 21
121.8666305075
 31
0.0
  0
LINE
  5
1FE
330
1F
100
AcDbEntity
  8
0
  6
Continuous
 62
     7
370
     0
100
AcDbLine
 10
80.238033662
 20
119.366631029
 30
0.0
 11
84.2880351641
 21
119.366631029
 31
0.0
  0
LINE
  5
1FF
330
1F
100
AcDbEntity
  8
0
  6
Continuous
 62
     7
370
     0
100
AcDbLine
 10
80.238033662
 20
121.8666305075
 30
0.0
 11
80.238033662
 21
119.366631029
 31
0.0
  0
LINE
  5
200
330
1F
100
AcDbEntity
  8
0
  6
Continuous
 62
     7
370
     0
100
AcDbLine
 10
86.3130359151
 20
119.366631029
 30
0.0
 11
86.3130359151
 21
121.8666305075
 31
0.0
  0
LINE
  5
201
330
1F
100
AcDbEntity
  8
0
  6
Continuous
 62
     7
370
     0
100
AcDbLine
 10
84.2880351641
 20
119.366631029
 30
0.0
 11
86.3130359151
 21
119.366631029
 31
0.0
  0
LINE
  5
202
330
1F
100
AcDbEntity
  8
0
  6
Continuous
 62
     7
370
     0
100
AcDbLine
 10
78.213032911
 20
119.366631029
 30
0.0
 11
78.213032911
 21
121.8666305075
 31
0.0
  0
LINE
  5
203
330
1F
100
AcDbEntity
  8
0
  6
Continuous
 62
     7
370
     0
100
AcDbLine
 10
78.213032911
 20
119.366631029
 30
0.0
 11
80.238033662
 21
119.366631029
 31
0.0
  0
LINE
  5
204
330
1F
100
AcDbEntity
  8
0
  6
Continuous
 62
     7
370
     0
100
AcDbLine
 10
80.2278747954
 20
116.8666315506
 30
0.0
 11
79.9130356111
 21
116.8666315506
 31
0.0
  0
LINE
  5
205
330
1F
100
AcDbEntity
  8
0
  6
Continuous
 62
     7
370
     0
100
AcDbLine
 10
84.613033215
 20
116.8666315506
 30
0.0
 11
80.2278747954
 21
116.8666315506
 31
0.0
  0
LINE
  5
206
330
1F
100
AcDbEntity
  8
0
  6
Continuous
 62
     7
370
     0
100
AcDbLine
 10
84.613033215
 20
114.3666302095
 30
0.0
 11
79.9130356111
 21
114.3666302095
 31
0.0
  0
LINE
  5
207
330
1F
100
AcDbEntity
  8
0
  6
Continuous
 62
     7
370
     0
100
AcDbLine
 10
84.2630347409
 20
111.866630731
 30
0.0
 11
80.2630340852
 21
111.866630731
 31
0.0
  0
LINE
  5
208
330
1F
100
AcDbEntity
  8
0
  6
Continuous
 62
     7
370
     0
100
AcDbLine
 10
68.521105329
 20
235.9549385736
 30
0.0
 11
69.3421071567
 21
237.106440706
 31
0.0
  0
LINE
  5
209
330
1F
100
AcDbEntity
  8
0
  6
Continuous
 62
     7
370
     0
100
AcDbLine
 10
64.5760974087
 20
235.2939528654
 30
0.0
 11
51.1630630292
 21
233.0465895365
 31
0.0
  0
LINE
  5
20A
330
1F
100
AcDbEntity
  8
0
  6
Continuous
 62
     7
370
     0
100
AcDbLine
 10
61.8660455741
 20
251.4684853385
 30
0.0
 11
61.6842737593
 21
252.5533643792
 31
0.0
  0
LINE
  5
20B
330
1F
100
AcDbEntity
  8
0
  6
Continuous
 62
     7
370
     0
100
AcDbLine
 10
56.8361586132
 20
250.6257278154
 30
0.0
 11
61.8660455741
 21
251.4684853385
 31
0.0
  0
ARC
  5
20C
330
1F
100
AcDbEntity
  8
0
  6
Continuous
 62
     7
370
     0
100
AcDbCircle
 10
57.1005511341
 20
249.0477248026
 30
0.0
 40
1.599999999999964
100
AcDbArc
 50
99.5115862628
 51
279.5115862628
  0
LINE
  5
20D
330
1F
100
AcDbEntity
  8
0
  6
Continuous
 62
     7
370
     0
100
AcDbLine
 10
65.3535878458
 20
248.808225734
 30
0.0
 11
57.3649486699
 21
247.4697214792
 31
0.0
  0
LINE
  5
20E
330
1F
100
AcDbEntity
  8
0
  6
Continuous
 62
     7
370
     0
100
AcDbLine
 10
67.65658466
 20
247.166214628
 30
0.0
 11
65.3535878458
 21
248.808225734
 31
0.0
  0
LINE
  5
20F
330
1F
100
AcDbEntity
  8
0
  6
Continuous
 62
     7
370
     0
100
AcDbLine
 10
67.65658466
 20
247.166214628
 30
0.0
 11
69.3421071567
 21
237.106440706
 31
0.0
  0
LINE
  5
210
330
1F
100
AcDbEntity
  8
0
  6
Continuous
 62
     7
370
     0
100
AcDbLine
 10
51.1630630292
 20
233.0465895365
 30
0.0
 11
48.2712393798
 21
250.3060085008
 31
0.0
  0
LINE
  5
211
330
1F
100
AcDbEntity
  8
0
  6
Continuous
 62
     7
370
     0
100
AcDbLine
 10
61.6842737593
 20
252.5533643792
 30
0.0
 11
48.2712393798
 21
250.3060085008
 31
0.0
  0
LINE
  5
212
330
1F
100
AcDbEntity
  8
0
  6
Continuous
 62
     7
370
     0
100
AcDbLine
 10
61.6842737593
 20
252.5533643792
 30
0.0
 11
61.6016468205
 21
253.0464885066
 31
0.0
  0
ARC
  5
213
330
1F
100
AcDbEntity
  8
0
  6
Continuous
 62
     7
370
     0
100
AcDbCircle
 10
48.7643664599
 20
250.3886293771
 30
0.0
 40
0.500000000000003
100
AcDbArc
 50
99.5115862628
 51
189.5115862628
  0
LINE
  5
214
330
1F
100
AcDbEntity
  8
0
  6
Continuous
 62
     7
370
     0
100
AcDbLine
 10
61.6016468205
 20
253.0464885066
 30
0.0
 11
48.681744019
 21
250.8817521165
 31
0.0
  0
CIRCLE
  5
215
330
1F
100
AcDbEntity
  8
0
  6
Continuous
 62
     7
370
     0
100
AcDbCircle
 10
66.2851489334
 20
197.8617583346
 30
0.0
 40
2.098076211353312
  0
SPLINE
  5
216
330
1F
100
AcDbEntity
  8
0
  6
Continuous
 62
     7
370
     0
100
AcDbSpline
210
0.0
220
0.0
230
1.0
 70
     8
 71
     3
 72
    12
 73
     8
 74
     0
 42
0.000000001
 43
0.00000001
 40
0.0
 40
0.0
 40
0.0
 40
0.0
 40
0.2500000000000087
 40
0.2500000000000087
 40
0.5000000000000174
 40
0.5000000000000174
 40
1.0
 40
1.0
 40
1.0
 40
1.0
 10
68.42956643271937
 20
252.4229407819513
 30
0.0
 10
68.46171083093715
 20
252.4024802740093
 30
0.0
 10
68.49761236293955
 20
252.3931928792073
 30
0.0
 10
68.55880517366474
 20
252.3905127063369
 30
0.0
 10
68.58524730899617
 20
252.3961007810634
 30
0.0
 10
68.65256805421761
 20
252.421552514552
 30
0.0
 10
68.6834387091831
 20
252.4501518967164
 30
0.0
 10
68.70446520894694
 20
252.4823815357068
 30
0.0
  0
SPLINE
  5
217
330
1F
100
AcDbEntity
  8
0
  6
Continuous
 62
     7
370
     0
100
AcDbSpline
210
0.0
220
0.0
230
1.0
 70
     8
 71
     3
 72
    12
 73
     8
 74
     0
 42
0.000000001
 43
0.00000001
 40
0.0
 40
0.0
 40
0.0
 40
0.0
 40
0.5
 40
0.5
 40
0.75
 40
0.75
 40
1.0
 40
1.0
 40
1.0
 40
1.0
 10
69.22860475109401
 20
252.4823815357068
 30
0.0
 10
69.24962479005295
 20
252.4501617999058
 30
0.0
 10
69.279818010354
 20
252.4219021353734
 30
0.0
 10
69.34767262958714
 20
252.3961124610572
 30
0.0
 10
69.37403581272734
 20
252.3905330442405
 30
0.0
 10
69.43529236863671
 20
252.3931554705146
 30
0.0
 10
69.47137773476916
 20
252.4024921168618
 30
0.0
 10
69.50350352732157
 20
252.4229407819513
 30
0.0
  0
ARC
  5
218
330
1F
100
AcDbEntity
  8
0
  6
Continuous
 62
     7
370
     0
100
AcDbCircle
 10
68.96653498
 20
253.2665430456
 30
0.0
 40
0.8267949192431543
100
AcDbArc
 50
288.4798247181
 51
251.5201752819
  0
ARC
  5
219
330
1F
100
AcDbEntity
  8
0
  6
Continuous
 62
     7
370
     0
100
AcDbCircle
 10
68.96653498
 20
253.2665430456
 30
0.0
 40
0.6000000000000378
100
AcDbArc
 50
302.4775121859
 51
237.5224878141
  0
ARC
  5
21A
330
1F
100
AcDbEntity
  8
0
  6
Continuous
 62
     7
370
     0
100
AcDbCircle
 10
68.5369601422
 20
252.5916612347
 30
0.0
 40
0.2000000000000071
100
AcDbArc
 50
342.0
 51
57.5224878141
  0
ARC
  5
21B
330
1F
100
AcDbEntity
  8
0
  6
Continuous
 62
     7
370
     0
100
AcDbCircle
 10
69.3961098179
 20
252.5916612347
 30
0.0
 40
0.1999999999999995
100
AcDbArc
 50
122.4775121859
 51
198.0
  0
ARC
  5
21C
330
1F
100
AcDbEntity
  8
0
  6
Continuous
 62
     7
370
     0
100
AcDbCircle
 10
68.5369601422
 20
252.5916612347
 30
0.0
 40
0.1999999999999978
100
AcDbArc
 50
326.8797162241
 51
342.0
  0
ARC
  5
21D
330
1F
100
AcDbEntity
  8
0
  6
Continuous
 62
     7
370
     0
100
AcDbCircle
 10
69.3961098179
 20
252.5916612347
 30
0.0
 40
0.1999999999999859
100
AcDbArc
 50
198.0
 51
213.1202837759
  0
LWPOLYLINE
  5
21E
330
1F
100
AcDbEntity
  8
0
  6
Continuous
 62
     8
370
     0
100
AcDbPolyline
 90
        6
 70
   128
 43
0.0
 10
63.1166925826
 20
250.0557285974
 10
63.0273303189
 20
250.5890784095
 10
62.9467150368
 20
251.0702145527
 10
62.8827369012
 20
251.4520493577
 10
62.8416618504
 20
251.6972032616
 10
62.8275057473
 20
251.7816704939
  0
LWPOLYLINE
  5
21F
330
1F
100
AcDbEntity
  8
0
  6
Continuous
 62
     8
370
     0
100
AcDbPolyline
 90
        5
 70
   128
 43
0.0
 10
63.3810838856
 20
248.4777254293
 10
63.3506408133
 20
248.6594152878
 10
63.2866701283
 20
249.0412500928
 10
63.2060548462
 20
249.522386236
 10
63.1166925826
 20
250.0557285974
  0
DIMENSION
  5
220
330
1F
100
AcDbEntity
  8
0
  6
Continuous
 62
     7
370
     0
100
AcDbDimension
  2
_D_5
 10
72.2851489334
 20
104.3251439611
 30
0.0
 11
82.2851489334
 21
104.3251439611
 31
0.0
 70
   160
  1
%%c<>
 71
     2
 42
-1.0
  3
SLDDIMSTYLE0
100
AcDbAlignedDimension
 13
92.2851489334
 23
122.8666307546
 33
0.0
 14
72.2851489334
 24
122.8666307546
 34
0.0
100
AcDbRotatedDimension
  0
DIMENSION
  5
22B
330
1F
100
AcDbEntity
  8
0
  6
Continuous
 62
     7
370
     0
100
AcDbDimension
  2
_D_6
 10
98.2851489334
 20
98.1249045849
 30
0.0
 11
82.2851489334
 21
98.1249045849
 31
0.0
 70
   160
  1
<>
 71
     2
 42
-1.0
  3
SLDDIMSTYLE0
100
AcDbAlignedDimension
 13
66.2851489334
 23
151.8666307546
 33
0.0
 14
98.2851489334
 24
151.8666307546
 34
0.0
100
AcDbRotatedDimension
  0
DIMENSION
  5
235
330
1F
100
AcDbEntity
  8
0
  6
Continuous
 62
     7
370
     0
100
AcDbDimension
  2
_D_7
 10
103.2851489334
 20
91.9246652087
 30
0.0
 11
82.2851489334
 21
91.9246652087
 31
0.0
 70
   160
  1
<>
 71
     2
 42
-1.0
  3
SLDDIMSTYLE0
100
AcDbAlignedDimension
 13
61.2851489334
 23
146.8666307546
 33
0.0
 14
103.2851489334
 24
146.8666307546
 34
0.0
100
AcDbRotatedDimension
  0
DIMENSION
  5
23F
330
1F
100
AcDbEntity
  8
0
  6
Continuous
 62
     7
370
     0
100
AcDbDimension
  2
_D_8
 10
113.8893886382
 20
151.8666307546
 30
0.0
 11
113.8893886382
 21
149.3666307546
 31
0.0
 70
   160
  1
<>
 71
     2
 42
-1.0
  3
SLDDIMSTYLE1
100
AcDbAlignedDimension
 13
103.2851489334
 23
146.8666307546
 33
0.0
 14
66.2851489334
 24
151.8666307546
 34
0.0
 50
90.0
100
AcDbRotatedDimension
  0
DIMENSION
  5
24C
330
1F
100
AcDbEntity
  8
0
  6
Continuous
 62
     7
370
     0
100
AcDbDimension
  2
_D_9
 10
113.8893886382
 20
194.8666307546
 30
0.0
 11
113.8893886382
 21
173.3666307546
 31
0.0
 70
   160
  1
<>
 71
     2
 42
-1.0
  3
SLDDIMSTYLE0
100
AcDbAlignedDimension
 13
98.2851489334
 23
151.8666307546
 33
0.0
 14
82.2851489334
 24
194.8666307546
 34
0.0
 50
90.0
100
AcDbRotatedDimension
  0
DIMENSION
  5
256
330
1F
100
AcDbEntity
  8
0
  6
Continuous
 62
     7
370
     0
100
AcDbDimension
  2
_D_10
 10
121.7701775902
 20
217.0582974146
 30
0.0
 11
121.7701775902
 21
181.9624640846
 31
0.0
 70
   160
  1
<>
 71
     2
 42
-1.0
  3
SLDDIMSTYLE0
100
AcDbAlignedDimension
 13
103.2851489334
 23
146.8666307546
 33
0.0
 14
88.2851489334
 24
217.0582974146
 34
0.0
 50
90.0
100
AcDbRotatedDimension
  0
DIMENSION
  5
260
330
1F
100
AcDbEntity
  8
0
  6
Continuous
 62
     7
370
     0
100
AcDbDimension
  2
_D_11
 10
131.1591274857
 20
111.8666307546
 30
0.0
 11
131.1591274857
 21
185.2883503382
 31
0.0
 70
   160
  1
(<>)
 71
     2
 42
-1.0
  3
SLDDIMSTYLE0
100
AcDbAlignedDimension
 13
93.3726162873
 23
258.7100699217
 33
0.0
 14
84.2630346586
 24
111.8666307546
 34
0.0
 50
90.0
100
AcDbRotatedDimension
  0
DIMENSION
  5
26C
330
1F
100
AcDbEntity
  8
0
  6
Continuous
 62
     7
370
     0
100
AcDbDimension
  2
_D_12
 10
93.4463365757
 20
274.7579461964
 30
0.0
 11
82.6547448836
 21
274.8075203107
 31
0.0
 70
   160
  1
(<>)
 71
     2
 42
-1.0
  3
SLDDIMSTYLE0
100
AcDbAlignedDimension
 13
71.789432903
 23
258.8092181503
 33
0.0
 14
93.3726162873
 24
258.7100699217
 34
0.0
 50
-0.2632019097
100
AcDbRotatedDimension
  0
DIMENSION
  5
278
330
1F
100
AcDbEntity
  8
0
  6
Continuous
 62
     7
370
     0
100
AcDbDimension
  2
_D_13
 10
68.9578443934
 20
150.5040233356
 30
0.0
 11
36.9668594286
 21
161.7707795083
 31
0.0
 70
   163
  1
3-<>取付穴\P(両側口元面取有)
 71
     1
 42
-1.0
  3
SLDDIMSTYLE2
100
AcDbDiametricDimension
 15
63.6124534735
 25
153.2292381736
 35
0.0
 40
0.0
  0
DIMENSION
  5
284
330
1F
100
AcDbEntity
  8
0
  6
Continuous
 62
     7
370
     0
100
AcDbDimension
  2
_D_14
 10
121.7701775902
 20
146.8666307546
 30
0.0
 11
121.7701775902
 21
134.3666307546
 31
0.0
 70
   160
  1
<>
 71
     2
 42
-1.0
  3
SLDDIMSTYLE0
100
AcDbAlignedDimension
 13
91.2851489334
 23
121.8666307546
 33
0.0
 14
103.2851489334
 24
146.8666307546
 34
0.0
 50
90.0
100
AcDbRotatedDimension
  0
INSERT
  5
293
330
1F
100
AcDbEntity
  8
0
  6
Continuous
 62
     7
370
     0
100
AcDbBlockReference
  2
SW_NOTE_0
 10
37.2186505614
 20
134.8462471671
 30
0.0
  0
LEADER
  5
295
330
1F
100
AcDbEntity
  8
0
  6
Continuous
 62
     7
370
     0
100
AcDbLeader
  3
SLDDIMSTYLE3
 76
     2
 10
80.7765021881
 20
115.4450424012
 30
0.0
 10
37.2186505614
 20
134.8462471671
 30
0.0
  0
INSERT
  5
2A1
330
1F
100
AcDbEntity
  8
0
  6
Continuous
 62
     7
370
     0
100
AcDbBlockReference
  2
SW_CENTERMARKSYMBOL_0
 10
82.2851489334
 20
194.8666307546
 30
0.0
  0
INSERT
  5
2AD
330
1F
100
AcDbEntity
  8
0
  6
Continuous
 62
     7
370
     0
100
AcDbBlockReference
  2
SW_CENTERMARKSYMBOL_1
 10
66.2851489334
 20
151.8666307546
 30
0.0
  0
INSERT
  5
2B9
330
1F
100
AcDbEntity
  8
0
  6
Continuous
 62
     7
370
     0
100
AcDbBlockReference
  2
SW_CENTERMARKSYMBOL_2
 10
98.2851489334
 20
151.8666307546
 30
0.0
  0
CIRCLE
  5
2BA
330
1F
100
AcDbEntity
  8
0
  6
Continuous
 62
     7
370
     0
100
AcDbCircle
 10
82.2851489334
 20
194.8666307546
 30
0.0
 40
3.000001034389484
  0
CIRCLE
  5
2BB
330
1F
100
AcDbEntity
  8
0
  6
Continuous
 62
     7
370
     0
100
AcDbCircle
 10
98.2851489334
 20
151.8666307546
 30
0.0
 40
2.999999574075815
  0
CIRCLE
  5
2BC
330
1F
100
AcDbEntity
  8
0
  6
Continuous
 62
     7
370
     0
100
AcDbCircle
 10
66.2851489334
 20
151.8666307546
 30
0.0
 40
2.999999574075488
  0
LINE
  5
2BD
330
1F
100
AcDbEntity
  8
0
  6
Continuous
 62
     7
370
     0
100
AcDbLine
 10
63.6354839601
 20
69.9491849867
 30
0.0
 11
63.6354839601
 21
68.8441893784
 31
0.0
  0
ARC
  5
2BE
330
1F
100
AcDbEntity
  8
0
  6
Continuous
 62
     7
370
     0
100
AcDbCircle
 10
63.8754804802
 20
68.8441891241
 30
0.0
 40
0.240000000000002
100
AcDbArc
 50
180.0
 51
233.0538731033
  0
LINE
  5
2BF
330
1F
100
AcDbEntity
  8
0
  6
Continuous
 62
     7
370
     0
100
AcDbLine
 10
63.7312239208
 20
68.6523807002
 30
0.0
 11
63.8940936126
 21
68.5361525742
 31
0.0
  0
LINE
  5
2C0
330
1F
100
AcDbEntity
  8
0
  6
Continuous
 62
     7
370
     0
100
AcDbLine
 10
53.1366175212
 20
73.0991852237
 30
0.0
 11
53.9628496565
 21
73.0991852237
 31
0.0
  0
LINE
  5
2C1
330
1F
100
AcDbEntity
  8
0
  6
Continuous
 62
     7
370
     0
100
AcDbLine
 10
53.9628496565
 20
73.7991849659
 30
0.0
 11
53.1366175212
 21
73.7991849659
 31
0.0
  0
LINE
  5
2C2
330
1F
100
AcDbEntity
  8
0
  6
Continuous
 62
     7
370
     0
100
AcDbLine
 10
55.1091214814
 20
73.0991852237
 30
0.0
 11
55.9353536167
 21
73.0991852237
 31
0.0
  0
LINE
  5
2C3
330
1F
100
AcDbEntity
  8
0
  6
Continuous
 62
     7
370
     0
100
AcDbLine
 10
55.9353536167
 20
73.7991849659
 30
0.0
 11
55.1091214814
 21
73.7991849659
 31
0.0
  0
LINE
  5
2C4
330
1F
100
AcDbEntity
  8
0
  6
Continuous
 62
     7
370
     0
100
AcDbLine
 10
52.6408707895
 20
72.7491848869
 30
0.0
 11
53.1366175212
 21
72.7491848869
 31
0.0
  0
LINE
  5
2C5
330
1F
100
AcDbEntity
  8
0
  6
Continuous
 62
     7
370
     0
100
AcDbLine
 10
53.1366175212
 20
74.1491843713
 30
0.0
 11
52.6408707895
 21
74.1491843713
 31
0.0
  0
LINE
  5
2C6
330
1F
100
AcDbEntity
  8
0
  6
Continuous
 62
     7
370
     0
100
AcDbLine
 10
54.6133747496
 20
72.7491848869
 30
0.0
 11
55.1091214814
 21
72.7491848869
 31
0.0
  0
LINE
  5
2C7
330
1F
100
AcDbEntity
  8
0
  6
Continuous
 62
     7
370
     0
100
AcDbLine
 10
55.1091214814
 20
74.1491843713
 30
0.0
 11
54.6133747496
 21
74.1491843713
 31
0.0
  0
LINE
  5
2C8
330
1F
100
AcDbEntity
  8
0
  6
Continuous
 62
     7
370
     0
100
AcDbLine
 10
55.7211270728
 20
71.0533088771
 30
0.0
 11
55.7211270728
 21
73.0991852237
 31
0.0
  0
LINE
  5
2C9
330
1F
100
AcDbEntity
  8
0
  6
Continuous
 62
     7
370
     0
100
AcDbLine
 10
55.7211270728
 20
73.7991849659
 30
0.0
 11
55.7211270728
 21
75.8450613124
 31
0.0
  0
LINE
  5
2CA
330
1F
100
AcDbEntity
  8
0
  6
Continuous
 62
     7
370
     0
100
AcDbLine
 10
58.5922902622
 20
77.3491845233
 30
0.0
 11
58.2922851839
 21
77.6491858763
 31
0.0
  0
LINE
  5
2CB
330
1F
100
AcDbEntity
  8
0
  6
Continuous
 62
     7
370
     0
100
AcDbLine
 10
55.8922892608
 20
77.6491858763
 30
0.0
 11
55.5922916331
 21
77.3491845233
 31
0.0
  0
LINE
  5
2CC
330
1F
100
AcDbEntity
  8
0
  6
Continuous
 62
     7
370
     0
100
AcDbLine
 10
58.5922902622
 20
76.1491846991
 30
0.0
 11
58.5922902622
 21
76.4491841895
 31
0.0
  0
LINE
  5
2CD
330
1F
100
AcDbEntity
  8
0
  6
Continuous
 62
     7
370
     0
100
AcDbLine
 10
58.5922902622
 20
76.9491852028
 30
0.0
 11
58.5922902622
 21
77.3491845233
 31
0.0
  0
LINE
  5
2CE
330
1F
100
AcDbEntity
  8
0
  6
Continuous
 62
     7
370
     0
100
AcDbLine
 10
55.5922916331
 20
77.3491845233
 30
0.0
 11
55.5922916331
 21
76.9491852028
 31
0.0
  0
LINE
  5
2CF
330
1F
100
AcDbEntity
  8
0
  6
Continuous
 62
     7
370
     0
100
AcDbLine
 10
55.5922916331
 20
76.4491841895
 30
0.0
 11
55.5922916331
 21
76.1491846991
 31
0.0
  0
LINE
  5
2D0
330
1F
100
AcDbEntity
  8
0
  6
Continuous
 62
     7
370
     0
100
AcDbLine
 10
55.5922916331
 20
69.5491847349
 30
0.0
 11
55.8922892608
 21
69.2491852445
 31
0.0
  0
LINE
  5
2D1
330
1F
100
AcDbEntity
  8
0
  6
Continuous
 62
     7
370
     0
100
AcDbLine
 10
58.2922851839
 20
69.2491852445
 30
0.0
 11
58.5922902622
 21
69.5491847349
 31
0.0
  0
LINE
  5
2D2
330
1F
100
AcDbEntity
  8
0
  6
Continuous
 62
     7
370
     0
100
AcDbLine
 10
55.5922916331
 20
70.7491845591
 30
0.0
 11
55.5922916331
 21
70.4491850687
 31
0.0
  0
LINE
  5
2D3
330
1F
100
AcDbEntity
  8
0
  6
Continuous
 62
     7
370
     0
100
AcDbLine
 10
55.5922916331
 20
69.9491849867
 30
0.0
 11
55.5922916331
 21
69.5491847349
 31
0.0
  0
LINE
  5
2D4
330
1F
100
AcDbEntity
  8
0
  6
Continuous
 62
     7
370
     0
100
AcDbLine
 10
58.5922902622
 20
69.5491847349
 30
0.0
 11
58.5922902622
 21
69.9491849867
 31
0.0
  0
LINE
  5
2D5
330
1F
100
AcDbEntity
  8
0
  6
Continuous
 62
     7
370
     0
100
AcDbLine
 10
58.5922902622
 20
70.4491850687
 30
0.0
 11
58.5922902622
 21
70.7491845591
 31
0.0
  0
LINE
  5
2D6
330
1F
100
AcDbEntity
  8
0
  6
Continuous
 62
     7
370
     0
100
AcDbLine
 10
73.1969481506
 20
75.4491858882
 30
0.0
 11
73.1969481506
 21
75.3491841955
 31
0.0
  0
LINE
  5
2D7
330
1F
100
AcDbEntity
  8
0
  6
Continuous
 62
     7
370
     0
100
AcDbLine
 10
73.1969481506
 20
71.5491850627
 30
0.0
 11
73.1969481506
 21
71.4491852326
 31
0.0
  0
LINE
  5
2D8
330
1F
100
AcDbEntity
  8
0
  6
Continuous
 62
     7
370
     0
100
AcDbLine
 10
76.1969467797
 20
71.4491852326
 30
0.0
 11
76.1969467797
 21
71.5491850627
 31
0.0
  0
LINE
  5
2D9
330
1F
100
AcDbEntity
  8
0
  6
Continuous
 62
     7
370
     0
100
AcDbLine
 10
76.1969467797
 20
75.3491841955
 30
0.0
 11
76.1969467797
 21
75.4491858882
 31
0.0
  0
LINE
  5
2DA
330
1F
100
AcDbEntity
  8
0
  6
Continuous
 62
     7
370
     0
100
AcDbLine
 10
63.6354839601
 20
78.0541808111
 30
0.0
 11
63.6354839601
 21
76.9491852028
 31
0.0
  0
ARC
  5
2DB
330
1F
100
AcDbEntity
  8
0
  6
Continuous
 62
     7
370
     0
100
AcDbCircle
 10
63.8754804802
 20
78.0541808046
 30
0.0
 40
0.2400000000000068
100
AcDbArc
 50
126.9461268967
 51
180.0
  0
ARC
  5
2DC
330
1F
100
AcDbEntity
  8
0
  6
Continuous
 62
     7
370
     0
100
AcDbCircle
 10
66.1354804802
 20
75.0491849644
 30
0.0
 40
3.999999999999998
100
AcDbArc
 50
58.2116693829
 51
77.1601874414
  0
ARC
  5
2DD
330
1F
100
AcDbEntity
  8
0
  6
Continuous
 62
     7
370
     0
100
AcDbCircle
 10
66.1354804802
 20
75.0491849644
 30
0.0
 40
3.99999999999999
100
AcDbArc
 50
102.8398125586
 51
121.788330617
  0
LINE
  5
2DE
330
1F
100
AcDbEntity
  8
0
  6
Continuous
 62
     7
370
     0
100
AcDbLine
 10
63.8940936126
 20
78.3622176153
 30
0.0
 11
63.7312239208
 21
78.245988558
 31
0.0
  0
LINE
  5
2DF
330
1F
100
AcDbEntity
  8
0
  6
Continuous
 62
     7
370
     0
100
AcDbLine
 10
48.2643699445
 20
76.1491846991
 30
0.0
 11
48.2643699445
 21
70.7491845591
 31
0.0
  0
CIRCLE
  5
2E0
330
1F
100
AcDbEntity
  8
0
  6
Continuous
 62
     7
370
     0
100
AcDbCircle
 10
82.2851489334
 20
58.4491849644
 30
0.0
 40
8.999999999999993
  0
CIRCLE
  5
2E1
330
1F
100
AcDbEntity
  8
0
  6
Continuous
 62
     7
370
     0
100
AcDbCircle
 10
82.2851489334
 20
58.4491849644
 30
0.0
 40
10.00000000000001
  0
LINE
  5
2E2
330
1F
100
AcDbEntity
  8
0
  6
Continuous
 62
     7
370
     0
100
AcDbLine
 10
82.2851477363
 20
68.4491847409
 30
0.0
 11
102.2851472892
 21
68.4491847409
 31
0.0
  0
LINE
  5
2E3
330
1F
100
AcDbEntity
  8
0
  6
Continuous
 62
     7
370
     0
100
AcDbLine
 10
103.2851493158
 20
49.4491853518
 30
0.0
 11
103.2851493158
 21
67.4491845769
 31
0.0
  0
LINE
  5
2E4
330
1F
100
AcDbEntity
  8
0
  6
Continuous
 62
     7
370
     0
100
AcDbLine
 10
102.2851472892
 20
48.4491851879
 30
0.0
 11
103.2851493158
 21
49.4491853518
 31
0.0
  0
LINE
  5
2E5
330
1F
100
AcDbEntity
  8
0
  6
Continuous
 62
     7
370
     0
100
AcDbLine
 10
82.2851477363
 20
48.4491851879
 30
0.0
 11
102.2851472892
 21
48.4491851879
 31
0.0
  0
LINE
  5
2E6
330
1F
100
AcDbEntity
  8
0
  6
Continuous
 62
     7
370
     0
100
AcDbLine
 10
103.2851493158
 20
67.4491845769
 30
0.0
 11
102.2851472892
 21
68.4491847409
 31
0.0
  0
LINE
  5
2E7
330
1F
100
AcDbEntity
  8
0
  6
Continuous
 62
     7
370
     0
100
AcDbLine
 10
62.2851481833
 20
48.4491851879
 30
0.0
 11
82.2851477363
 21
48.4491851879
 31
0.0
  0
LINE
  5
2E8
330
1F
100
AcDbEntity
  8
0
  6
Continuous
 62
     7
370
     0
100
AcDbLine
 10
61.2851461567
 20
49.4491853518
 30
0.0
 11
62.2851481833
 21
48.4491851879
 31
0.0
  0
LINE
  5
2E9
330
1F
100
AcDbEntity
  8
0
  6
Continuous
 62
     7
370
     0
100
AcDbLine
 10
61.2851461567
 20
49.4491853518
 30
0.0
 11
61.2851461567
 21
67.4491845769
 31
0.0
  0
LINE
  5
2EA
330
1F
100
AcDbEntity
  8
0
  6
Continuous
 62
     7
370
     0
100
AcDbLine
 10
62.2851481833
 20
68.4491847409
 30
0.0
 11
82.2851477363
 21
68.4491847409
 31
0.0
  0
LINE
  5
2EB
330
1F
100
AcDbEntity
  8
0
  6
Continuous
 62
     7
370
     0
100
AcDbLine
 10
62.2851481833
 20
68.4491847409
 30
0.0
 11
61.2851461567
 21
67.4491845769
 31
0.0
  0
LINE
  5
2EC
330
1F
100
AcDbEntity
  8
0
  6
Continuous
 62
     7
370
     0
100
AcDbLine
 10
104.8627054491
 20
63.4491848526
 30
0.0
 11
104.8627054491
 21
53.4491850761
 31
0.0
  0
LINE
  5
2ED
330
1F
100
AcDbEntity
  8
0
  6
Continuous
 62
     7
370
     0
100
AcDbLine
 10
104.8627054491
 20
53.4491850761
 30
0.0
 11
103.2851493158
 21
54.8191861948
 31
0.0
  0
LINE
  5
2EE
330
1F
100
AcDbEntity
  8
0
  6
Continuous
 62
     7
370
     0
100
AcDbLine
 10
104.8627054491
 20
63.4491848526
 30
0.0
 11
103.2851493158
 21
62.079183734
 31
0.0
  0
LINE
  5
2EF
330
1F
100
AcDbEntity
  8
0
  6
Continuous
 62
     7
370
     0
100
AcDbLine
 10
103.2851493158
 20
63.4491848526
 30
0.0
 11
104.8627054491
 21
63.4491848526
 31
0.0
  0
LINE
  5
2F0
330
1F
100
AcDbEntity
  8
0
  6
Continuous
 62
     7
370
     0
100
AcDbLine
 10
104.8627054491
 20
53.4491850761
 30
0.0
 11
103.2851493158
 21
53.4491850761
 31
0.0
  0
LINE
  5
2F1
330
1F
100
AcDbEntity
  8
0
  6
Continuous
 62
     7
370
     0
100
AcDbLine
 10
109.1591274538
 20
63.4491848526
 30
0.0
 11
109.1591274538
 21
53.4491850761
 31
0.0
  0
LINE
  5
2F2
330
1F
100
AcDbEntity
  8
0
  6
Continuous
 62
     7
370
     0
100
AcDbLine
 10
104.8627054491
 20
53.4491850761
 30
0.0
 11
109.1591274538
 21
53.4491850761
 31
0.0
  0
LINE
  5
2F3
330
1F
100
AcDbEntity
  8
0
  6
Continuous
 62
     7
370
     0
100
AcDbLine
 10
104.8627054491
 20
63.4491848526
 30
0.0
 11
109.1591274538
 21
63.4491848526
 31
0.0
  0
LINE
  5
2F4
330
1F
100
AcDbEntity
  8
0
  6
Continuous
 62
     7
370
     0
100
AcDbLine
 10
88.4152060546
 20
78.4491845173
 30
0.0
 11
91.8670861222
 21
78.4491845173
 31
0.0
  0
LINE
  5
2F5
330
1F
100
AcDbEntity
  8
0
  6
Continuous
 62
     7
370
     0
100
AcDbLine
 10
91.8670861222
 20
78.4491845173
 30
0.0
 11
91.8670861222
 21
68.4491847409
 31
0.0
  0
LINE
  5
2F6
330
1F
100
AcDbEntity
  8
0
  6
Continuous
 62
     7
370
     0
100
AcDbLine
 10
88.4152060546
 20
78.4491845173
 30
0.0
 11
88.4152060546
 21
68.4491847409
 31
0.0
  0
LINE
  5
2F7
330
1F
100
AcDbEntity
  8
0
  6
Continuous
 62
     7
370
     0
100
AcDbLine
 10
96.8244975605
 20
78.4491845173
 30
0.0
 11
96.8244975605
 21
68.4491847409
 31
0.0
  0
LINE
  5
2F8
330
1F
100
AcDbEntity
  8
0
  6
Continuous
 62
     7
370
     0
100
AcDbLine
 10
91.8670861222
 20
78.4491845173
 30
0.0
 11
96.8244975605
 21
78.4491845173
 31
0.0
  0
LINE
  5
2F9
330
1F
100
AcDbEntity
  8
0
  6
Continuous
 62
     7
370
     0
100
AcDbLine
 10
80.7851484217
 20
58.2545683632
 30
0.0
 11
80.7851484217
 21
58.7678081996
 31
0.0
  0
LINE
  5
2FA
330
1F
100
AcDbEntity
  8
0
  6
Continuous
 62
     7
370
     0
100
AcDbLine
 10
81.285149435
 20
59.6486149355
 30
0.0
 11
81.285149435
 21
57.3737615253
 31
0.0
  0
ARC
  5
2FB
330
1F
100
AcDbEntity
  8
0
  6
Continuous
 62
     7
370
     0
100
AcDbCircle
 10
53.1398674933
 20
73.4491850948
 30
0.0
 40
0.3500149598110749
100
AcDbArc
 50
90.5320125619
 51
269.4679874381
  0
CIRCLE
  5
2FC
330
1F
100
AcDbEntity
  8
0
  6
Continuous
 62
     7
370
     0
100
AcDbCircle
 10
53.9640848394
 20
73.4461186169
 30
0.0
 40
0.3469355920801617
  0
ARC
  5
2FD
330
1F
100
AcDbEntity
  8
0
  6
Continuous
 62
     7
370
     0
100
AcDbCircle
 10
55.1123714534
 20
73.4491850948
 30
0.0
 40
0.3500149598110749
100
AcDbArc
 50
90.5320125619
 51
269.4679874381
  0
CIRCLE
  5
2FE
330
1F
100
AcDbEntity
  8
0
  6
Continuous
 62
     7
370
     0
100
AcDbCircle
 10
55.9365887995
 20
73.4461186169
 30
0.0
 40
0.3469355920801617
  0
ARC
  5
2FF
330
1F
100
AcDbEntity
  8
0
  6
Continuous
 62
     7
370
     0
100
AcDbCircle
 10
52.648671089
 20
73.4491846291
 30
0.0
 40
0.700043201357503
100
AcDbArc
 50
90.6384370142
 51
269.3615629858
  0
ARC
  5
300
330
1F
100
AcDbEntity
  8
0
  6
Continuous
 62
     7
370
     0
100
AcDbCircle
 10
53.1345248107
 20
73.4384160214
 30
0.0
 40
0.6892343115684487
100
AcDbArc
 50
270.1739664757
 51
330.5157024908
  0
ARC
  5
301
330
1F
100
AcDbEntity
  8
0
  6
Continuous
 62
     7
370
     0
100
AcDbCircle
 10
53.1354227156
 20
73.4450841255
 30
0.0
 40
0.6959002643320717
100
AcDbArc
 50
30.5864931358
 51
270.0983723645
  0
ARC
  5
302
330
1F
100
AcDbEntity
  8
0
  6
Continuous
 62
     7
370
     0
100
AcDbCircle
 10
55.1070287709
 20
73.4384160214
 30
0.0
 40
0.6892343115684487
100
AcDbArc
 50
270.1739664757
 51
330.5157024908
  0
ARC
  5
303
330
1F
100
AcDbEntity
  8
0
  6
Continuous
 62
     7
370
     0
100
AcDbCircle
 10
55.107928696
 20
73.4450829752
 30
0.0
 40
0.6958991105094537
100
AcDbArc
 50
30.5866593086
 51
270.0982061917
  0
ARC
  5
304
330
1F
100
AcDbEntity
  8
0
  6
Continuous
 62
     7
370
     0
100
AcDbCircle
 10
54.6154828317
 20
73.4598992491
 30
0.0
 40
0.6892883458459944
100
AcDbArc
 50
90.1752305808
 51
150.87219167
  0
ARC
  5
305
330
1F
100
AcDbEntity
  8
0
  6
Continuous
 62
     7
370
     0
100
AcDbCircle
 10
54.6154862318
 20
73.4384757758
 30
0.0
 40
0.6892941228783166
100
AcDbArc
 50
209.1280894816
 51
269.8244882676
  0
ARC
  5
306
330
1F
100
AcDbEntity
  8
0
  6
Continuous
 62
     7
370
     0
100
AcDbCircle
 10
51.0334477633
 20
75.670775934
 30
0.0
 40
0.8274042769282185
100
AcDbArc
 50
351.5495632561
 51
27.2158961225
  0
LINE
  5
307
330
1F
100
AcDbEntity
  8
0
  6
Continuous
 62
     7
370
     0
100
AcDbLine
 10
51.8518692054
 20
75.5491857184
 30
0.0
 11
51.8518692054
 21
71.3491854025
 31
0.0
  0
ARC
  5
308
330
1F
100
AcDbEntity
  8
0
  6
Continuous
 62
     7
370
     0
100
AcDbCircle
 10
51.033450609
 20
71.2275940118
 30
0.0
 40
0.8274016347843333
100
AcDbArc
 50
332.7840287632
 51
8.4505461901
  0
LINE
  5
309
330
1F
100
AcDbEntity
  8
0
  6
Continuous
 62
     7
370
     0
100
AcDbLine
 10
51.7692497172
 20
76.049184869
 30
0.0
 11
55.5170035162
 21
76.049184869
 31
0.0
  0
ELLIPSE
  5
30A
330
1F
100
AcDbEntity
  8
0
  6
Continuous
 62
     7
370
     0
100
AcDbEllipse
 10
55.2211304064
 20
75.5491849644
 30
0.0
 11
0.30113737491412
 21
0.4986541634684443
 31
0.0
210
0.0
220
0.0
230
1.0
 40
0.1217416138
 41
4.785776737509396
 42
6.356573064304244
  0
LINE
  5
30B
330
1F
100
AcDbEntity
  8
0
  6
Continuous
 62
     7
370
     0
100
AcDbLine
 10
55.3037529983
 20
75.5491857184
 30
0.0
 11
51.8518692054
 21
75.5491857184
 31
0.0
  0
LINE
  5
30C
330
1F
100
AcDbEntity
  8
0
  6
Continuous
 62
     7
370
     0
100
AcDbLine
 10
51.8518692054
 20
71.3491854025
 30
0.0
 11
55.3037529983
 21
71.3491854025
 31
0.0
  0
ELLIPSE
  5
30D
330
1F
100
AcDbEntity
  8
0
  6
Continuous
 62
     7
370
     0
100
AcDbEllipse
 10
55.2211304064
 20
71.3491849644
 30
0.0
 11
-0.3011373749141129
 21
0.4986541634684584
 31
0.0
210
0.0
220
0.0
230
1.0
 40
0.1217416138
 41
3.068204896465321
 42
4.639001223259992
  0
LINE
  5
30E
330
1F
100
AcDbEntity
  8
0
  6
Continuous
 62
     7
370
     0
100
AcDbLine
 10
55.5170035162
 20
70.8491853205
 30
0.0
 11
51.7692497172
 21
70.8491853205
 31
0.0
  0
LINE
  5
30F
330
1F
100
AcDbEntity
  8
0
  6
Continuous
 62
     7
370
     0
100
AcDbLine
 10
51.6561871566
 20
76.049184869
 30
0.0
 11
51.7692497172
 21
76.049184869
 31
0.0
  0
LINE
  5
310
330
1F
100
AcDbEntity
  8
0
  6
Continuous
 62
     7
370
     0
100
AcDbLine
 10
51.7692497172
 20
70.8491853205
 30
0.0
 11
51.6561871566
 21
70.8491853205
 31
0.0
  0
ELLIPSE
  5
311
330
1F
100
AcDbEntity
  8
0
  6
Continuous
 62
     7
370
     0
100
AcDbEllipse
 10
55.2211304064
 20
75.5491849644
 30
0.0
 11
0.4995234832260067
 21
0.2977574994203849
 31
0.0
210
0.0
220
0.0
230
1.0
 40
0.0732947536
 41
6.239523310768594
 42
6.405531808142375
  0
ELLIPSE
  5
312
330
1F
100
AcDbEntity
  8
0
  6
Continuous
 62
     7
370
     0
100
AcDbEllipse
 10
55.2211304064
 20
71.3491849644
 30
0.0
 11
0.4995234832260067
 21
-0.2977574994203707
 31
0.0
210
0.0
220
0.0
230
1.0
 40
0.0732947536
 41
6.160838806216983
 42
6.326847303590764
  0
ARC
  5
313
330
1F
100
AcDbEntity
  8
0
  6
Continuous
 62
     7
370
     0
100
AcDbCircle
 10
55.5156269018
 20
75.8505541861
 30
0.0
 40
0.1986354531669985
100
AcDbArc
 50
359.6051196071
 51
89.6029166808
  0
ARC
  5
314
330
1F
100
AcDbEntity
  8
0
  6
Continuous
 62
     7
370
     0
100
AcDbCircle
 10
55.5156272914
 20
71.0478156191
 30
0.0
 40
0.1986350661655406
100
AcDbArc
 50
270.3969716938
 51
0.3949920183
  0
LINE
  5
315
330
1F
100
AcDbEntity
  8
0
  6
Continuous
 62
     7
370
     0
100
AcDbLine
 10
55.2030360498
 20
76.1491846991
 30
0.0
 11
63.8820534744
 21
76.1491846991
 31
0.0
  0
LINE
  5
316
330
1F
100
AcDbEntity
  8
0
  6
Continuous
 62
     7
370
     0
100
AcDbLine
 10
63.8820534744
 20
76.1491846991
 30
0.0
 11
63.8820534744
 21
70.7491845591
 31
0.0
  0
LINE
  5
317
330
1F
100
AcDbEntity
  8
0
  6
Continuous
 62
     7
370
     0
100
AcDbLine
 10
55.2030360498
 20
70.7491845591
 30
0.0
 11
63.8820534744
 21
70.7491845591
 31
0.0
  0
LINE
  5
318
330
1F
100
AcDbEntity
  8
0
  6
Continuous
 62
     7
370
     0
100
AcDbLine
 10
55.2030360498
 20
70.8491853205
 30
0.0
 11
55.2030360498
 21
70.7491845591
 31
0.0
  0
LINE
  5
319
330
1F
100
AcDbEntity
  8
0
  6
Continuous
 62
     7
370
     0
100
AcDbLine
 10
55.2030360498
 20
76.1491846991
 30
0.0
 11
55.2030360498
 21
76.049184869
 31
0.0
  0
LINE
  5
31A
330
1F
100
AcDbEntity
  8
0
  6
Continuous
 62
     7
370
     0
100
AcDbLine
 10
53.0052488842
 20
76.1491846991
 30
0.0
 11
53.0052488842
 21
76.049184869
 31
0.0
  0
LINE
  5
31B
330
1F
100
AcDbEntity
  8
0
  6
Continuous
 62
     7
370
     0
100
AcDbLine
 10
53.0052488842
 20
76.1491846991
 30
0.0
 11
55.2030360498
 21
76.1491846991
 31
0.0
  0
LINE
  5
31C
330
1F
100
AcDbEntity
  8
0
  6
Continuous
 62
     7
370
     0
100
AcDbLine
 10
53.0052488842
 20
70.7491845591
 30
0.0
 11
55.2030360498
 21
70.7491845591
 31
0.0
  0
LINE
  5
31D
330
1F
100
AcDbEntity
  8
0
  6
Continuous
 62
     7
370
     0
100
AcDbLine
 10
53.0052488842
 20
70.8491853205
 30
0.0
 11
53.0052488842
 21
70.7491845591
 31
0.0
  0
LINE
  5
31E
330
1F
100
AcDbEntity
  8
0
  6
Continuous
 62
     7
370
     0
100
AcDbLine
 10
57.2905844249
 20
77.6491858763
 30
0.0
 11
58.2922851839
 21
77.6491858763
 31
0.0
  0
LINE
  5
31F
330
1F
100
AcDbEntity
  8
0
  6
Continuous
 62
     7
370
     0
100
AcDbLine
 10
55.8922892608
 20
77.6491858763
 30
0.0
 11
57.2905844249
 21
77.6491858763
 31
0.0
  0
LINE
  5
320
330
1F
100
AcDbEntity
  8
0
  6
Continuous
 62
     7
370
     0
100
AcDbLine
 10
57.3401605882
 20
77.3491845233
 30
0.0
 11
55.5922916331
 21
77.3491845233
 31
0.0
  0
LINE
  5
321
330
1F
100
AcDbEntity
  8
0
  6
Continuous
 62
     7
370
     0
100
AcDbLine
 10
58.5922902622
 20
77.3491845233
 30
0.0
 11
57.3401605882
 21
77.3491845233
 31
0.0
  0
LINE
  5
322
330
1F
100
AcDbEntity
  8
0
  6
Continuous
 62
     7
370
     0
100
AcDbLine
 10
58.2922851839
 20
69.2491852445
 30
0.0
 11
55.8922892608
 21
69.2491852445
 31
0.0
  0
LINE
  5
323
330
1F
100
AcDbEntity
  8
0
  6
Continuous
 62
     7
370
     0
100
AcDbLine
 10
55.5922916331
 20
69.5491847349
 30
0.0
 11
58.5922902622
 21
69.5491847349
 31
0.0
  0
LINE
  5
324
330
1F
100
AcDbEntity
  8
0
  6
Continuous
 62
     7
370
     0
100
AcDbLine
 10
59.7075900235
 20
53.4491850761
 30
0.0
 11
59.7075900235
 21
63.4491848526
 31
0.0
  0
LINE
  5
325
330
1F
100
AcDbEntity
  8
0
  6
Continuous
 62
     7
370
     0
100
AcDbLine
 10
59.7075900235
 20
63.4491848526
 30
0.0
 11
61.2851461567
 21
62.079183734
 31
0.0
  0
LINE
  5
326
330
1F
100
AcDbEntity
  8
0
  6
Continuous
 62
     7
370
     0
100
AcDbLine
 10
59.7075900235
 20
53.4491850761
 30
0.0
 11
61.2851461567
 21
54.8191861948
 31
0.0
  0
LINE
  5
327
330
1F
100
AcDbEntity
  8
0
  6
Continuous
 62
     7
370
     0
100
AcDbLine
 10
59.7075900235
 20
63.4491848526
 30
0.0
 11
61.2851461567
 21
63.4491848526
 31
0.0
  0
LINE
  5
328
330
1F
100
AcDbEntity
  8
0
  6
Continuous
 62
     7
370
     0
100
AcDbLine
 10
61.2851461567
 20
53.4491850761
 30
0.0
 11
59.7075900235
 21
53.4491850761
 31
0.0
  0
LINE
  5
329
330
1F
100
AcDbEntity
  8
0
  6
Continuous
 62
     7
370
     0
100
AcDbLine
 10
55.4111680188
 20
53.4491850761
 30
0.0
 11
55.4111680188
 21
63.4491848526
 31
0.0
  0
LINE
  5
32A
330
1F
100
AcDbEntity
  8
0
  6
Continuous
 62
     7
370
     0
100
AcDbLine
 10
59.7075900235
 20
63.4491848526
 30
0.0
 11
55.4111680188
 21
63.4491848526
 31
0.0
  0
LINE
  5
32B
330
1F
100
AcDbEntity
  8
0
  6
Continuous
 62
     7
370
     0
100
AcDbLine
 10
59.7075900235
 20
53.4491850761
 30
0.0
 11
55.4111680188
 21
53.4491850761
 31
0.0
  0
LINE
  5
32C
330
1F
100
AcDbEntity
  8
0
  6
Continuous
 62
     7
370
     0
100
AcDbLine
 10
72.481804172
 20
71.4491852326
 30
0.0
 11
72.481804172
 21
75.4491858882
 31
0.0
  0
LINE
  5
32D
330
1F
100
AcDbEntity
  8
0
  6
Continuous
 62
     7
370
     0
100
AcDbLine
 10
72.481804172
 20
71.4491852326
 30
0.0
 11
77.4130640723
 21
71.4491852326
 31
0.0
  0
LINE
  5
32E
330
1F
100
AcDbEntity
  8
0
  6
Continuous
 62
     7
370
     0
100
AcDbLine
 10
77.4130640723
 20
68.4491847409
 30
0.0
 11
77.4130640723
 21
71.4491852326
 31
0.0
  0
LINE
  5
32F
330
1F
100
AcDbEntity
  8
0
  6
Continuous
 62
     7
370
     0
100
AcDbLine
 10
65.377832035
 20
78.4491845173
 30
0.0
 11
65.377832035
 21
68.4491847409
 31
0.0
  0
LINE
  5
330
330
1F
100
AcDbEntity
  8
0
  6
Continuous
 62
     7
370
     0
100
AcDbLine
 10
65.377832035
 20
78.4491845173
 30
0.0
 11
77.4130640723
 21
78.4491845173
 31
0.0
  0
LINE
  5
331
330
1F
100
AcDbEntity
  8
0
  6
Continuous
 62
     7
370
     0
100
AcDbLine
 10
77.4130640723
 20
75.4491858882
 30
0.0
 11
77.4130640723
 21
78.4491845173
 31
0.0
  0
LINE
  5
332
330
1F
100
AcDbEntity
  8
0
  6
Continuous
 62
     7
370
     0
100
AcDbLine
 10
72.481804172
 20
75.4491858882
 30
0.0
 11
77.4130640723
 21
75.4491858882
 31
0.0
  0
LINE
  5
333
330
1F
100
AcDbEntity
  8
0
  6
Continuous
 62
     7
370
     0
100
AcDbLine
 10
63.8940936126
 20
78.4491845173
 30
0.0
 11
65.377832035
 21
78.4491845173
 31
0.0
  0
LINE
  5
334
330
1F
100
AcDbEntity
  8
0
  6
Continuous
 62
     7
370
     0
100
AcDbLine
 10
63.8940936126
 20
68.4491847409
 30
0.0
 11
63.8940936126
 21
78.4491845173
 31
0.0
  0
LINE
  5
335
330
1F
100
AcDbEntity
  8
0
  6
Continuous
 62
     7
370
     0
100
AcDbLine
 10
78.2340659
 20
78.4491845173
 30
0.0
 11
78.2340659
 21
75.4491858882
 31
0.0
  0
LINE
  5
336
330
1F
100
AcDbEntity
  8
0
  6
Continuous
 62
     7
370
     0
100
AcDbLine
 10
78.2340659
 20
75.4491858882
 30
0.0
 11
77.4130640723
 21
75.4491858882
 31
0.0
  0
LINE
  5
337
330
1F
100
AcDbEntity
  8
0
  6
Continuous
 62
     7
370
     0
100
AcDbLine
 10
77.4130640723
 20
78.4491845173
 30
0.0
 11
78.2340659
 21
78.4491845173
 31
0.0
  0
LINE
  5
338
330
1F
100
AcDbEntity
  8
0
  6
Continuous
 62
     7
370
     0
100
AcDbLine
 10
78.2340659
 20
71.4491852326
 30
0.0
 11
78.2340659
 21
68.4491847409
 31
0.0
  0
LINE
  5
339
330
1F
100
AcDbEntity
  8
0
  6
Continuous
 62
     7
370
     0
100
AcDbLine
 10
77.4130640723
 20
71.4491852326
 30
0.0
 11
78.2340659
 21
71.4491852326
 31
0.0
  0
LINE
  5
33A
330
1F
100
AcDbEntity
  8
0
  6
Continuous
 62
     7
370
     0
100
AcDbLine
 10
63.1219228901
 20
76.4491841895
 30
0.0
 11
63.1219228901
 21
76.1491846991
 31
0.0
  0
LINE
  5
33B
330
1F
100
AcDbEntity
  8
0
  6
Continuous
 62
     7
370
     0
100
AcDbLine
 10
63.1219228901
 20
70.7491845591
 30
0.0
 11
63.1219228901
 21
70.4491850687
 31
0.0
  0
LINE
  5
33C
330
1F
100
AcDbEntity
  8
0
  6
Continuous
 62
     7
370
     0
100
AcDbLine
 10
61.886229197
 20
70.7491845591
 30
0.0
 11
61.886229197
 21
70.4491850687
 31
0.0
  0
LINE
  5
33D
330
1F
100
AcDbEntity
  8
0
  6
Continuous
 62
     7
370
     0
100
AcDbLine
 10
61.886229197
 20
76.4491841895
 30
0.0
 11
61.886229197
 21
76.1491846991
 31
0.0
  0
LINE
  5
33E
330
1F
100
AcDbEntity
  8
0
  6
Continuous
 62
     7
370
     0
100
AcDbLine
 10
62.4315446414
 20
76.4491841895
 30
0.0
 11
62.4315446414
 21
76.1491846991
 31
0.0
  0
LINE
  5
33F
330
1F
100
AcDbEntity
  8
0
  6
Continuous
 62
     7
370
     0
100
AcDbLine
 10
62.4315446414
 20
70.7491845591
 30
0.0
 11
62.4315446414
 21
70.4491850687
 31
0.0
  0
LINE
  5
340
330
1F
100
AcDbEntity
  8
0
  6
Continuous
 62
     7
370
     0
100
AcDbLine
 10
63.2436579265
 20
78.4491845173
 30
0.0
 11
63.2436579265
 21
76.9491852028
 31
0.0
  0
LINE
  5
341
330
1F
100
AcDbEntity
  8
0
  6
Continuous
 62
     7
370
     0
100
AcDbLine
 10
63.2436579265
 20
78.4491845173
 30
0.0
 11
63.8940936126
 21
78.4491845173
 31
0.0
  0
LINE
  5
342
330
1F
100
AcDbEntity
  8
0
  6
Continuous
 62
     7
370
     0
100
AcDbLine
 10
63.2436579265
 20
69.9491849867
 30
0.0
 11
63.2436579265
 21
68.4491847409
 31
0.0
  0
LINE
  5
343
330
1F
100
AcDbEntity
  8
0
  6
Continuous
 62
     7
370
     0
100
AcDbLine
 10
72.481804172
 20
75.3491841955
 30
0.0
 11
73.7242853441
 21
75.3491841955
 31
0.0
  0
LINE
  5
344
330
1F
100
AcDbEntity
  8
0
  6
Continuous
 62
     7
370
     0
100
AcDbLine
 10
73.7242853441
 20
75.3491841955
 30
0.0
 11
73.7242853441
 21
71.5491850627
 31
0.0
  0
LINE
  5
345
330
1F
100
AcDbEntity
  8
0
  6
Continuous
 62
     7
370
     0
100
AcDbLine
 10
73.7242853441
 20
71.5491850627
 30
0.0
 11
72.481804172
 21
71.5491850627
 31
0.0
  0
LINE
  5
346
330
1F
100
AcDbEntity
  8
0
  6
Continuous
 62
     7
370
     0
100
AcDbLine
 10
77.9997637667
 20
71.5491850627
 30
0.0
 11
77.9997637667
 21
75.3491841955
 31
0.0
  0
LINE
  5
347
330
1F
100
AcDbEntity
  8
0
  6
Continuous
 62
     7
370
     0
100
AcDbLine
 10
77.9997637667
 20
71.5491850627
 30
0.0
 11
73.7242853441
 21
71.5491850627
 31
0.0
  0
LINE
  5
348
330
1F
100
AcDbEntity
  8
0
  6
Continuous
 62
     7
370
     0
100
AcDbLine
 10
77.9997637667
 20
75.3491841955
 30
0.0
 11
73.7242853441
 21
75.3491841955
 31
0.0
  0
ARC
  5
349
330
1F
100
AcDbEntity
  8
0
  6
Continuous
 62
     7
370
     0
100
AcDbCircle
 10
65.8800875441
 20
78.1002826077
 30
0.0
 40
0.9457935987093347
100
AcDbArc
 50
108.9447467844
 51
127.8415862285
  0
ARC
  5
34A
330
1F
100
AcDbEntity
  8
0
  6
Continuous
 62
     7
370
     0
100
AcDbCircle
 10
65.6362852253
 20
75.2130925811
 30
0.0
 40
3.649631500224412
100
AcDbArc
 50
84.7109590051
 51
95.2890409949
  0
ARC
  5
34B
330
1F
100
AcDbEntity
  8
0
  6
Continuous
 62
     7
370
     0
100
AcDbCircle
 10
66.5529345767
 20
78.1002826077
 30
0.0
 40
0.9457935987093234
100
AcDbArc
 50
108.9447467844
 51
127.8415862285
  0
LINE
  5
34C
330
1F
100
AcDbEntity
  8
0
  6
Continuous
 62
     7
370
     0
100
AcDbLine
 10
66.2458768286
 20
78.9948445512
 30
0.0
 11
66.47521315
 21
78.9948445512
 31
0.0
  0
ARC
  5
34D
330
1F
100
AcDbEntity
  8
0
  6
Continuous
 62
     7
370
     0
100
AcDbCircle
 10
65.9736907739
 20
75.6885573651
 30
0.0
 40
3.344108199620543
100
AcDbArc
 50
70.8276880988
 51
81.3746998702
  0
ARC
  5
34E
330
1F
100
AcDbEntity
  8
0
  6
Continuous
 62
     7
370
     0
100
AcDbCircle
 10
67.2259373762
 20
78.0920282135
 30
0.0
 40
0.7707011934938983
100
AcDbArc
 50
78.47313316
 51
101.52686684
  0
ARC
  5
34F
330
1F
100
AcDbEntity
  8
0
  6
Continuous
 62
     7
370
     0
100
AcDbCircle
 10
66.2817418243
 20
75.6887052639
 30
0.0
 40
3.343956484806342
100
AcDbArc
 50
70.8274481626
 51
81.3749398064
  0
LINE
  5
350
330
1F
100
AcDbEntity
  8
0
  6
Continuous
 62
     7
370
     0
100
AcDbLine
 10
66.7832276024
 20
78.9948445512
 30
0.0
 11
66.6979333558
 21
78.9948445512
 31
0.0
  0
ARC
  5
351
330
1F
100
AcDbEntity
  8
0
  6
Continuous
 62
     7
370
     0
100
AcDbCircle
 10
65.7585096191
 20
78.1943616298
 30
0.0
 40
0.8437037670754283
100
AcDbArc
 50
63.4610519539
 51
71.5812177332
  0
LINE
  5
352
330
1F
100
AcDbEntity
  8
0
  6
Continuous
 62
     7
370
     0
100
AcDbLine
 10
66.0250863232
 20
78.9948445512
 30
0.0
 11
65.7957500019
 21
78.9948445512
 31
0.0
  0
ARC
  5
353
330
1F
100
AcDbEntity
  8
0
  6
Continuous
 62
     7
370
     0
100
AcDbCircle
 10
66.2933772579
 20
75.7083207147
 30
0.0
 40
3.323984328159353
100
AcDbArc
 50
98.6100087822
 51
102.5270396382
  0
ARC
  5
354
330
1F
100
AcDbEntity
  8
0
  6
Continuous
 62
     7
370
     0
100
AcDbCircle
 10
65.9857704958
 20
75.7061693858
 30
0.0
 40
3.32617356318293
100
AcDbArc
 50
98.6115313832
 51
102.8403950781
  0
LINE
  5
355
330
1F
100
AcDbEntity
  8
0
  6
Continuous
 62
     7
370
     0
100
AcDbLine
 10
65.4877280988
 20
78.9948445512
 30
0.0
 11
65.5730297961
 21
78.9948445512
 31
0.0
  0
SPLINE
  5
356
330
1F
100
AcDbEntity
  8
0
  6
Continuous
 62
     7
370
     0
100
AcDbSpline
210
0.0
220
0.0
230
1.0
 70
     8
 71
     3
 72
     8
 73
     4
 74
     0
 42
0.000000001
 43
0.00000001
 40
0.0
 40
0.0
 40
0.0
 40
0.0
 40
1.0
 40
1.0
 40
1.0
 40
1.0
 10
65.57302962539327
 20
78.99484488636939
 30
0.0
 10
65.57476325301242
 20
78.94562350006481
 30
0.0
 10
65.57650315678964
 20
78.89640336598622
 30
0.0
 10
65.57824979156732
 20
78.84718457488425
 30
0.0
  0
LINE
  5
357
330
1F
100
AcDbEntity
  8
0
  6
Continuous
 62
     7
370
     0
100
AcDbLine
 10
66.0250863232
 20
78.9948445512
 30
0.0
 11
66.020258347
 21
78.8584952009
 31
0.0
  0
SPLINE
  5
358
330
1F
100
AcDbEntity
  8
0
  6
Continuous
 62
     7
370
     0
100
AcDbSpline
210
0.0
220
0.0
230
1.0
 70
     8
 71
     3
 72
     8
 73
     4
 74
     0
 42
0.000000001
 43
0.00000001
 40
0.0
 40
0.0
 40
0.0
 40
0.0
 40
1.0
 40
1.0
 40
1.0
 40
1.0
 10
65.7957499754115
 20
78.99484488636938
 30
0.0
 10
65.79953695894763
 20
78.94562356564735
 30
0.0
 10
65.80333765227667
 20
78.89640349714799
 30
0.0
 10
65.807153048966
 20
78.84718477162154
 30
0.0
  0
CIRCLE
  5
359
330
1F
100
AcDbEntity
  8
0
  6
Continuous
 62
     7
370
     0
100
AcDbCircle
 10
82.2630346586
 20
58.5111882859
 30
0.0
 40
2.349999999999977
  0
CIRCLE
  5
35A
330
1F
100
AcDbEntity
  8
0
  6
Continuous
 62
     7
370
     0
100
AcDbCircle
 10
82.2630346586
 20
58.5111882859
 30
0.0
 40
2.000000000000048
  0
ARC
  5
35B
330
1F
100
AcDbEntity
  8
0
  6
Continuous
 62
     7
370
     0
100
AcDbCircle
 10
82.2630346586
 20
58.5111882859
 30
0.0
 40
1.499999999999734
100
AcDbArc
 50
150.0
 51
330.0
  0
ARC
  5
35C
330
1F
100
AcDbEntity
  8
0
  6
Continuous
 62
     7
370
     0
100
AcDbCircle
 10
82.2630346586
 20
58.5111882859
 30
0.0
 40
1.499999999999734
100
AcDbArc
 50
330.0
 51
150.0
  0
LINE
  5
35D
330
1F
100
AcDbEntity
  8
0
  6
Continuous
 62
     7
370
     0
100
AcDbLine
 10
86.3130359151
 20
58.5111882886
 30
0.0
 11
84.2880351641
 21
55.0037855049
 31
0.0
  0
LINE
  5
35E
330
1F
100
AcDbEntity
  8
0
  6
Continuous
 62
     7
370
     0
100
AcDbLine
 10
84.2880351641
 20
55.0037855049
 30
0.0
 11
80.238033662
 21
55.0037855049
 31
0.0
  0
LINE
  5
35F
330
1F
100
AcDbEntity
  8
0
  6
Continuous
 62
     7
370
     0
100
AcDbLine
 10
80.238033662
 20
55.0037855049
 30
0.0
 11
78.213032911
 21
58.5111882886
 31
0.0
  0
LINE
  5
360
330
1F
100
AcDbEntity
  8
0
  6
Continuous
 62
     7
370
     0
100
AcDbLine
 10
80.238033662
 20
62.0185911888
 30
0.0
 11
84.2880351641
 21
62.0185911888
 31
0.0
  0
LINE
  5
361
330
1F
100
AcDbEntity
  8
0
  6
Continuous
 62
     7
370
     0
100
AcDbLine
 10
78.213032911
 20
58.5111882886
 30
0.0
 11
80.238033662
 21
62.0185911888
 31
0.0
  0
LINE
  5
362
330
1F
100
AcDbEntity
  8
0
  6
Continuous
 62
     7
370
     0
100
AcDbLine
 10
84.2880351641
 20
62.0185911888
 30
0.0
 11
86.3130359151
 21
58.5111882886
 31
0.0
  0
LINE
  5
363
330
1F
100
AcDbEntity
  8
0
  6
Continuous
 62
     7
370
     0
100
AcDbLine
 10
51.1630630292
 20
76.9491852028
 30
0.0
 11
48.2712393798
 21
76.9491852028
 31
0.0
  0
LINE
  5
364
330
1F
100
AcDbEntity
  8
0
  6
Continuous
 62
     7
370
     0
100
AcDbLine
 10
51.1630630292
 20
76.9491852028
 30
0.0
 11
51.1630630292
 21
69.9491849867
 31
0.0
  0
LINE
  5
365
330
1F
100
AcDbEntity
  8
0
  6
Continuous
 62
     7
370
     0
100
AcDbLine
 10
51.1630630292
 20
69.9491849867
 30
0.0
 11
48.2712393798
 21
69.9491849867
 31
0.0
  0
LINE
  5
366
330
1F
100
AcDbEntity
  8
0
  6
Continuous
 62
     7
370
     0
100
AcDbLine
 10
48.2712393798
 20
70.7491845591
 30
0.0
 11
48.2712393798
 21
69.9491849867
 31
0.0
  0
LINE
  5
367
330
1F
100
AcDbEntity
  8
0
  6
Continuous
 62
     7
370
     0
100
AcDbLine
 10
48.2712393798
 20
76.1491846991
 30
0.0
 11
48.2712393798
 21
70.7491845591
 31
0.0
  0
LINE
  5
368
330
1F
100
AcDbEntity
  8
0
  6
Continuous
 62
     7
370
     0
100
AcDbLine
 10
48.2712393798
 20
76.9491852028
 30
0.0
 11
48.2712393798
 21
76.1491846991
 31
0.0
  0
LINE
  5
369
330
1F
100
AcDbEntity
  8
0
  6
Continuous
 62
     7
370
     0
100
AcDbLine
 10
51.6561871566
 20
70.4491850687
 30
0.0
 11
51.6561871566
 21
76.4491841895
 31
0.0
  0
LINE
  5
36A
330
1F
100
AcDbEntity
  8
0
  6
Continuous
 62
     7
370
     0
100
AcDbLine
 10
63.8940936126
 20
70.4491850687
 30
0.0
 11
51.6561871566
 21
70.4491850687
 31
0.0
  0
LINE
  5
36B
330
1F
100
AcDbEntity
  8
0
  6
Continuous
 62
     7
370
     0
100
AcDbLine
 10
51.1630630292
 20
69.9491849867
 30
0.0
 11
63.8940936126
 21
69.9491849867
 31
0.0
  0
LINE
  5
36C
330
1F
100
AcDbEntity
  8
0
  6
Continuous
 62
     7
370
     0
100
AcDbLine
 10
51.6561871566
 20
76.4491841895
 30
0.0
 11
63.8940936126
 21
76.4491841895
 31
0.0
  0
LINE
  5
36D
330
1F
100
AcDbEntity
  8
0
  6
Continuous
 62
     7
370
     0
100
AcDbLine
 10
63.8940936126
 20
76.9491852028
 30
0.0
 11
51.1630630292
 21
76.9491852028
 31
0.0
  0
LINE
  5
36E
330
1F
100
AcDbEntity
  8
0
  6
Continuous
 62
     7
370
     0
100
AcDbLine
 10
48.2712393798
 20
70.7491845591
 30
0.0
 11
48.2643699445
 21
70.7491845591
 31
0.0
  0
LINE
  5
36F
330
1F
100
AcDbEntity
  8
0
  6
Continuous
 62
     7
370
     0
100
AcDbLine
 10
48.2643699445
 20
76.1491846991
 30
0.0
 11
48.2712393798
 21
76.1491846991
 31
0.0
  0
LINE
  5
370
330
1F
100
AcDbEntity
  8
0
  6
Continuous
 62
     7
370
     0
100
AcDbLine
 10
53.0052488842
 20
70.7491845591
 30
0.0
 11
51.6561871566
 21
70.7491845591
 31
0.0
  0
LINE
  5
371
330
1F
100
AcDbEntity
  8
0
  6
Continuous
 62
     7
370
     0
100
AcDbLine
 10
53.0052488842
 20
76.1491846991
 30
0.0
 11
51.6561871566
 21
76.1491846991
 31
0.0
  0
LINE
  5
372
330
1F
100
AcDbEntity
  8
0
  6
Continuous
 62
     7
370
     0
100
AcDbLine
 10
83.2851497628
 20
57.4133347021
 30
0.0
 11
83.2851497628
 21
59.6090418752
 31
0.0
  0
LINE
  5
373
330
1F
100
AcDbEntity
  8
0
  6
Continuous
 62
     8
370
     0
100
AcDbLine
 10
63.8940936126
 20
68.8441893784
 30
0.0
 11
63.6354839601
 21
68.8441893784
 31
0.0
  0
LINE
  5
374
330
1F
100
AcDbEntity
  8
0
  6
Continuous
 62
     8
370
     0
100
AcDbLine
 10
63.8940936126
 20
68.6523807002
 30
0.0
 11
63.7312239208
 21
68.6523807002
 31
0.0
  0
LINE
  5
375
330
1F
100
AcDbEntity
  8
0
  6
Continuous
 62
     8
370
     0
100
AcDbLine
 10
51.8518692054
 20
75.5491857184
 30
0.0
 11
51.6561871566
 21
75.5491857184
 31
0.0
  0
LWPOLYLINE
  5
376
330
1F
100
AcDbEntity
  8
0
  6
Continuous
 62
     8
370
     0
100
AcDbPolyline
 90
        3
 70
   128
 43
0.0
 10
51.7692497172
 20
76.049184869
 10
51.6730403699
 20
76.0395773453
 10
51.6561871566
 20
76.0358669562
  0
LINE
  5
377
330
1F
100
AcDbEntity
  8
0
  6
Continuous
 62
     8
370
     0
100
AcDbLine
 10
51.6561871566
 20
71.3491854025
 30
0.0
 11
51.8518692054
 21
71.3491854025
 31
0.0
  0
LWPOLYLINE
  5
378
330
1F
100
AcDbEntity
  8
0
  6
Continuous
 62
     8
370
     0
100
AcDbPolyline
 90
        3
 70
   128
 43
0.0
 10
51.6561871566
 20
70.8625032333
 10
51.6730403699
 20
70.8587919129
 10
51.7692497172
 20
70.8491853205
  0
LINE
  5
379
330
1F
100
AcDbEntity
  8
0
  6
Continuous
 62
     8
370
     0
100
AcDbLine
 10
55.3037529983
 20
74.1207902087
 30
0.0
 11
55.3037529983
 21
75.5491857184
 31
0.0
  0
LINE
  5
37A
330
1F
100
AcDbEntity
  8
0
  6
Continuous
 62
     8
370
     0
100
AcDbLine
 10
55.3037529983
 20
71.3491854025
 30
0.0
 11
55.3037529983
 21
72.7775799809
 31
0.0
  0
ELLIPSE
  5
37B
330
1F
100
AcDbEntity
  8
0
  6
Continuous
 62
     8
370
     0
100
AcDbEllipse
 10
55.2211304064
 20
75.5491849644
 30
0.0
 11
0.4995234832260067
 21
0.2977574994203849
 31
0.0
210
0.0
220
0.0
230
1.0
 40
0.0732947536
 41
4.834735481347457
 42
6.239523310768594
  0
ELLIPSE
  5
37C
330
1F
100
AcDbEntity
  8
0
  6
Continuous
 62
     8
370
     0
100
AcDbEllipse
 10
55.2211304064
 20
71.3491849644
 30
0.0
 11
0.4995234832260067
 21
-0.2977574994203707
 31
0.0
210
0.0
220
0.0
230
1.0
 40
0.0732947536
 41
0.0436619964111804
 42
1.448449825832173
  0
LINE
  5
37D
330
1F
100
AcDbEntity
  8
0
  6
Continuous
 62
     8
370
     0
100
AcDbLine
 10
63.6354839601
 20
78.0541808111
 30
0.0
 11
63.8940936126
 21
78.0541808111
 31
0.0
  0
LINE
  5
37E
330
1F
100
AcDbEntity
  8
0
  6
Continuous
 62
     8
370
     0
100
AcDbLine
 10
63.7312239208
 20
78.245988558
 30
0.0
 11
63.8940936126
 21
78.245988558
 31
0.0
  0
DIMENSION
  5
37F
330
1F
100
AcDbEntity
  8
0
  6
Continuous
 62
     7
370
     0
100
AcDbDimension
  2
_D_15
 10
109.1591274857
 20
32.4491849644
 30
0.0
 11
78.7151839214
 21
32.4491849644
 31
0.0
 70
   160
  1
(<>)
 71
     2
 42
-1.0
  3
SLDDIMSTYLE4
100
AcDbAlignedDimension
 13
48.271240357
 23
76.9491849644
 33
0.0
 14
109.1591274857
 24
53.4491849644
 34
0.0
 50
0.0
100
AcDbRotatedDimension
  0
DIMENSION
  5
38C
330
1F
100
AcDbEntity
  8
0
  6
Continuous
 62
     7
370
     0
100
AcDbDimension
  2
_D_16
 10
109.1591274857
 20
41.122892928
 30
0.0
 11
95.7221382096
 21
41.122892928
 31
0.0
 70
   160
  1
(<>)
 71
     2
 42
-1.0
  3
SLDDIMSTYLE4
100
AcDbAlignedDimension
 13
82.2851489334
 23
46.9491849644
 33
0.0
 14
109.1591274857
 24
53.4491849644
 34
0.0
100
AcDbRotatedDimension
  0
INSERT
  5
3A3
330
1F
100
AcDbEntity
  8
0
  6
Continuous
 62
     7
370
     0
100
AcDbBlockReference
  2
SW_CENTERMARKSYMBOL_3
 10
82.2851489334
 20
58.4491849644
 30
0.0
  0
ENDSEC
  0
SECTION
  2
OBJECTS
  0
DICTIONARY
  5
C
330
0
100
AcDbDictionary
281
     1
  3
ACAD_GROUP
350
D
  3
ACAD_LAYOUT
350
1A
  3
ACAD_MLINESTYLE
350
17
  3
ACAD_PLOTSETTINGS
350
19
  3
ACAD_PLOTSTYLENAME
350
E
  3
ACAD_SCALELIST
350
47
  0
DICTIONARY
  5
D
102
{ACAD_REACTORS
330
C
102
}
330
C
100
AcDbDictionary
281
     1
  0
DICTIONARY
  5
1A
102
{ACAD_REACTORS
330
C
102
}
330
C
100
AcDbDictionary
281
     1
  3
Layout1
350
1E
  3
Layout2
350
26
  3
Model
350
22
  0
DICTIONARY
  5
17
102
{ACAD_REACTORS
330
C
102
}
330
C
100
AcDbDictionary
281
     1
  3
Standard
350
18
  0
DICTIONARY
  5
19
102
{ACAD_REACTORS
330
C
102
}
330
C
100
AcDbDictionary
281
     1
  0
ACDBDICTIONARYWDFLT
  5
E
102
{ACAD_REACTORS
330
C
102
}
330
C
100
AcDbDictionary
281
     1
  3
Normal
350
F
100
AcDbDictionaryWithDefault
340
F
  0
DICTIONARY
  5
47
102
{ACAD_REACTORS
330
C
102
}
330
C
100
AcDbDictionary
281
     1
  3
A0
350
48
  3
A1
350
49
  3
A2
350
4A
  3
A3
350
4B
  3
A4
350
4C
  3
A5
350
4D
  3
A6
350
4E
  3
A7
350
4F
  3
A8
350
50
  3
A9
350
51
  3
B0
350
52
  3
B1
350
53
  3
B2
350
54
  3
B3
350
55
  3
B4
350
56
  3
B5
350
57
  3
B6
350
58
  3
B7
350
59
  3
B8
350
5A
  3
B9
350
5B
  3
C0
350
5C
  3
C1
350
5D
  3
C2
350
5E
  3
C3
350
5F
  3
C4
350
60
  3
C5
350
61
  3
C6
350
62
  3
C7
350
63
  3
C8
350
64
  3
C9
350
65
  3
D0
350
66
  3
D1
350
67
  3
D2
350
68
  0
LAYOUT
  5
1E
102
{ACAD_REACTORS
330
1A
102
}
330
1A
100
AcDbPlotSettings
  1

  2
none_device
  4

  6

 40
0.0
 41
0.0
 42
0.0
 43
0.0
 44
0.0
 45
0.0
 46
0.0
 47
0.0
 48
0.0
 49
0.0
140
0.0
141
0.0
142
1.0
143
1.0
 70
   688
 72
     1
 73
     0
 74
     5
  7

 75
    16
147
1.0
148
0.0
149
0.0
100
AcDbLayout
  1
Layout1
 70
     1
 71
     1
 10
0.0
 20
0.0
 11
420.0
 21
297.0
 12
0.0
 22
0.0
 32
0.0
 14
1.0000000000E+20
 24
1.0000000000E+20
 34
1.0000000000E+20
 15
-1.0000000000E+20
 25
-1.0000000000E+20
 35
-1.0000000000E+20
146
0.0
 13
0.0
 23
0.0
 33
0.0
 16
1.0
 26
0.0
 36
0.0
 17
0.0
 27
1.0
 37
0.0
 76
     0
330
1B
  0
LAYOUT
  5
26
102
{ACAD_REACTORS
330
1A
102
}
330
1A
100
AcDbPlotSettings
  1

  2
none_device
  4

  6

 40
0.0
 41
0.0
 42
0.0
 43
0.0
 44
0.0
 45
0.0
 46
0.0
 47
0.0
 48
0.0
 49
0.0
140
0.0
141
0.0
142
1.0
143
1.0
 70
   688
 72
     1
 73
     0
 74
     5
  7

 75
    16
147
1.0
148
0.0
149
0.0
100
AcDbLayout
  1
Layout2
 70
     1
 71
     2
 10
0.0
 20
0.0
 11
0.0
 21
0.0
 12
0.0
 22
0.0
 32
0.0
 14
0.0
 24
0.0
 34
0.0
 15
0.0
 25
0.0
 35
0.0
146
0.0
 13
0.0
 23
0.0
 33
0.0
 16
1.0
 26
0.0
 36
0.0
 17
0.0
 27
1.0
 37
0.0
 76
     0
330
23
  0
LAYOUT
  5
22
102
{ACAD_REACTORS
330
1A
102
}
330
1A
100
AcDbPlotSettings
  1

  2
none_device
  4
Letter_(8.50_x_11.00_Inches)
  6

 40
6.35
 41
6.35
 42
6.35000508
 43
6.35000508
 44
215.9
 45
279.4
 46
0.0
 47
0.0
 48
0.0
 49
0.0
140
0.0
141
0.0
142
1.0
143
1.0
 70
  1712
 72
     1
 73
     0
 74
     0
  7

 75
     0
147
1.0
148
0.0
149
0.0
100
AcDbLayout
  1
Model
 70
     1
 71
     0
 10
0.0
 20
0.0
 11
210.0
 21
297.0
 12
0.0
 22
0.0
 32
0.0
 14
0.0
 24
0.0
 34
0.0
 15
210.0
 25
297.0
 35
0.0
146
0.0
 13
0.0
 23
0.0
 33
0.0
 16
1.0
 26
0.0
 36
0.0
 17
0.0
 27
1.0
 37
0.0
 76
     0
330
1F
331
29
  0
MLINESTYLE
  5
18
102
{ACAD_REACTORS
330
17
102
}
330
17
100
AcDbMlineStyle
  2
Standard
 70
     0
  3

 62
   256
 51
90.0
 52
90.0
 71
     2
 49
0.5
 62
   256
  6
BYLAYER
 49
-0.5
 62
   256
  6
BYLAYER
  0
ACDBPLACEHOLDER
  5
F
102
{ACAD_REACTORS
330
E
102
}
330
E
  0
SCALE
  5
48
102
{ACAD_REACTORS
330
47
102
}
330
47
100
AcDbScale
 70
     0
300
1:1
140
1.0
141
1.0
290
     1
  0
SCALE
  5
49
102
{ACAD_REACTORS
330
47
102
}
330
47
100
AcDbScale
 70
     0
300
1:2
140
1.0
141
2.0
290
     0
  0
SCALE
  5
4A
102
{ACAD_REACTORS
330
47
102
}
330
47
100
AcDbScale
 70
     0
300
1:4
140
1.0
141
4.0
290
     0
  0
SCALE
  5
4B
102
{ACAD_REACTORS
330
47
102
}
330
47
100
AcDbScale
 70
     0
300
1:5
140
1.0
141
5.0
290
     0
  0
SCALE
  5
4C
102
{ACAD_REACTORS
330
47
102
}
330
47
100
AcDbScale
 70
     0
300
1:8
140
1.0
141
8.0
290
     0
  0
SCALE
  5
4D
102
{ACAD_REACTORS
330
47
102
}
330
47
100
AcDbScale
 70
     0
300
1:10
140
1.0
141
10.0
290
     0
  0
SCALE
  5
4E
102
{ACAD_REACTORS
330
47
102
}
330
47
100
AcDbScale
 70
     0
300
1:16
140
1.0
141
16.0
290
     0
  0
SCALE
  5
4F
102
{ACAD_REACTORS
330
47
102
}
330
47
100
AcDbScale
 70
     0
300
1:20
140
1.0
141
20.0
290
     0
  0
SCALE
  5
50
102
{ACAD_REACTORS
330
47
102
}
330
47
100
AcDbScale
 70
     0
300
1:30
140
1.0
141
30.0
290
     0
  0
SCALE
  5
51
102
{ACAD_REACTORS
330
47
102
}
330
47
100
AcDbScale
 70
     0
300
1:40
140
1.0
141
40.0
290
     0
  0
SCALE
  5
52
102
{ACAD_REACTORS
330
47
102
}
330
47
100
AcDbScale
 70
     0
300
1:50
140
1.0
141
50.0
290
     0
  0
SCALE
  5
53
102
{ACAD_REACTORS
330
47
102
}
330
47
100
AcDbScale
 70
     0
300
1:100
140
1.0
141
100.0
290
     0
  0
SCALE
  5
54
102
{ACAD_REACTORS
330
47
102
}
330
47
100
AcDbScale
 70
     0
300
2:1
140
2.0
141
1.0
290
     0
  0
SCALE
  5
55
102
{ACAD_REACTORS
330
47
102
}
330
47
100
AcDbScale
 70
     0
300
4:1
140
4.0
141
1.0
290
     0
  0
SCALE
  5
56
102
{ACAD_REACTORS
330
47
102
}
330
47
100
AcDbScale
 70
     0
300
8:1
140
8.0
141
1.0
290
     0
  0
SCALE
  5
57
102
{ACAD_REACTORS
330
47
102
}
330
47
100
AcDbScale
 70
     0
300
10:1
140
10.0
141
1.0
290
     0
  0
SCALE
  5
58
102
{ACAD_REACTORS
330
47
102
}
330
47
100
AcDbScale
 70
     0
300
100:1
140
100.0
141
1.0
290
     0
  0
SCALE
  5
59
102
{ACAD_REACTORS
330
47
102
}
330
47
100
AcDbScale
 70
     0
300
1/128" = 1'-0"
140
0.0078125
141
12.0
290
     0
  0
SCALE
  5
5A
102
{ACAD_REACTORS
330
47
102
}
330
47
100
AcDbScale
 70
     0
300
1/64" = 1'-0"
140
0.015625
141
12.0
290
     0
  0
SCALE
  5
5B
102
{ACAD_REACTORS
330
47
102
}
330
47
100
AcDbScale
 70
     0
300
1/32" = 1'-0"
140
0.03125
141
12.0
290
     0
  0
SCALE
  5
5C
102
{ACAD_REACTORS
330
47
102
}
330
47
100
AcDbScale
 70
     0
300
1/16" = 1'-0"
140
0.0625
141
12.0
290
     0
  0
SCALE
  5
5D
102
{ACAD_REACTORS
330
47
102
}
330
47
100
AcDbScale
 70
     0
300
3/32" = 1'-0"
140
0.09375
141
12.0
290
     0
  0
SCALE
  5
5E
102
{ACAD_REACTORS
330
47
102
}
330
47
100
AcDbScale
 70
     0
300
1/8" = 1'-0"
140
0.125
141
12.0
290
     0
  0
SCALE
  5
5F
102
{ACAD_REACTORS
330
47
102
}
330
47
100
AcDbScale
 70
     0
300
3/16" = 1'-0"
140
0.1875
141
12.0
290
     0
  0
SCALE
  5
60
102
{ACAD_REACTORS
330
47
102
}
330
47
100
AcDbScale
 70
     0
300
1/4" = 1'-0"
140
0.25
141
12.0
290
     0
  0
SCALE
  5
61
102
{ACAD_REACTORS
330
47
102
}
330
47
100
AcDbScale
 70
     0
300
3/8" = 1'-0"
140
0.375
141
12.0
290
     0
  0
SCALE
  5
62
102
{ACAD_REACTORS
330
47
102
}
330
47
100
AcDbScale
 70
     0
300
1/2" = 1'-0"
140
0.5
141
12.0
290
     0
  0
SCALE
  5
63
102
{ACAD_REACTORS
330
47
102
}
330
47
100
AcDbScale
 70
     0
300
3/4" = 1'-0"
140
0.75
141
12.0
290
     0
  0
SCALE
  5
64
102
{ACAD_REACTORS
330
47
102
}
330
47
100
AcDbScale
 70
     0
300
1" = 1'-0"
140
1.0
141
12.0
290
     0
  0
SCALE
  5
65
102
{ACAD_REACTORS
330
47
102
}
330
47
100
AcDbScale
 70
     0
300
1-1/2" = 1'-0"
140
1.5
141
12.0
290
     0
  0
SCALE
  5
66
102
{ACAD_REACTORS
330
47
102
}
330
47
100
AcDbScale
 70
     0
300
3" = 1'-0"
140
3.0
141
12.0
290
     0
  0
SCALE
  5
67
102
{ACAD_REACTORS
330
47
102
}
330
47
100
AcDbScale
 70
     0
300
6" = 1'-0"
140
6.0
141
12.0
290
     0
  0
SCALE
  5
68
102
{ACAD_REACTORS
330
47
102
}
330
47
100
AcDbScale
 70
     0
300
1'-0" = 1'-0"
140
12.0
141
12.0
290
     0
  0
ENDSEC
  0
EOF
