  0
SECTION
  2
HEADER
  9
$ACADVER
  1
AC1015
  9
$ACADMAINTVER
 70
     6
  9
$DWGCODEPAGE
  3
DOS932
  9
$INSBASE
 10
0.0
 20
0.0
 30
0.0
  9
$EXTMIN
 10
0.0
 20
0.0
 30
0.0
  9
$EXTMAX
 10
210.0
 20
297.0
 30
0.0
  9
$LIMMIN
 10
0.0
 20
0.0
  9
$LIMMAX
 10
210.0
 20
297.0
  9
$ORTHOMODE
 70
     0
  9
$REGENMODE
 70
     1
  9
$FILLMODE
 70
     1
  9
$QTEXTMODE
 70
     0
  9
$MIRRTEXT
 70
     1
  9
$LTSCALE
 40
1.0
  9
$ATTMODE
 70
     1
  9
$TEXTSIZE
 40
3.5
  9
$TRACEWID
 40
1.0
  9
$TEXTSTYLE
  7
Standard
  9
$CLAYER
  8
0
  9
$CELTYPE
  6
ByLayer
  9
$CECOLOR
 62
   256
  9
$CELTSCALE
 40
1.0
  9
$DISPSILH
 70
     0
  9
$DIMSCALE
 40
1.0
  9
$DIMASZ
 40
3.0
  9
$DIMEXO
 40
1.0
  9
$DIMDLI
 40
3.75
  9
$DIMRND
 40
0.0
  9
$DIMDLE
 40
0.0
  9
$DIMEXE
 40
1.0
  9
$DIMTP
 40
0.0
  9
$DIMTM
 40
0.0
  9
$DIMTXT
 40
3.5
  9
$DIMCEN
 40
2.5
  9
$DIMTSZ
 40
0.0
  9
$DIMTOL
 70
     0
  9
$DIMLIM
 70
     0
  9
$DIMTIH
 70
     1
  9
$DIMTOH
 70
     1
  9
$DIMSE1
 70
     0
  9
$DIMSE2
 70
     0
  9
$DIMTAD
 70
     1
  9
$DIMZIN
 70
     0
  9
$DIMBLK
  1

  9
$DIMASO
 70
     1
  9
$DIMSHO
 70
     1
  9
$DIMPOST
  1

  9
$DIMAPOST
  1

  9
$DIMALT
 70
     0
  9
$DIMALTD
 70
     3
  9
$DIMALTF
 40
0.0393700787
  9
$DIMLFAC
 40
2.0
  9
$DIMTOFL
 70
     1
  9
$DIMTVP
 40
0.0
  9
$DIMTIX
 70
     0
  9
$DIMSOXD
 70
     0
  9
$DIMSAH
 70
     0
  9
$DIMBLK1
  1

  9
$DIMBLK2
  1

  9
$DIMSTYLE
  2
ISO-25
  9
$DIMCLRD
 70
     0
  9
$DIMCLRE
 70
     0
  9
$DIMCLRT
 70
     0
  9
$DIMTFAC
 40
1.0
  9
$DIMGAP
 40
1.524
  9
$DIMJUST
 70
     0
  9
$DIMSD1
 70
     0
  9
$DIMSD2
 70
     0
  9
$DIMTOLJ
 70
     0
  9
$DIMTZIN
 70
     0
  9
$DIMALTZ
 70
     0
  9
$DIMALTTZ
 70
     0
  9
$DIMUPT
 70
     0
  9
$DIMDEC
 70
     1
  9
$DIMTDEC
 70
     3
  9
$DIMALTU
 70
     2
  9
$DIMALTTD
 70
     3
  9
$DIMTXSTY
  7
Standard
  9
$DIMAUNIT
 70
     0
  9
$DIMADEC
 70
     2
  9
$DIMALTRND
 40
0.0
  9
$DIMAZIN
 70
     0
  9
$DIMDSEP
 70
    44
  9
$DIMATFIT
 70
     3
  9
$DIMFRAC
 70
     0
  9
$DIMLDRBLK
  1

  9
$DIMLUNIT
 70
     2
  9
$DIMLWD
 70
    -2
  9
$DIMLWE
 70
    -2
  9
$DIMTMOVE
 70
     0
  9
$LUNITS
 70
     2
  9
$LUPREC
 70
     1
  9
$SKETCHINC
 40
1.0
  9
$FILLETRAD
 40
10.0
  9
$AUNITS
 70
     0
  9
$AUPREC
 70
     2
  9
$MENU
  1
.
  9
$ELEVATION
 40
0.0
  9
$PELEVATION
 40
0.0
  9
$THICKNESS
 40
0.0
  9
$LIMCHECK
 70
     0
  9
$CHAMFERA
 40
0.0
  9
$CHAMFERB
 40
0.0
  9
$CHAMFERC
 40
0.0
  9
$CHAMFERD
 40
0.0
  9
$SKPOLY
 70
     0
  9
$TDCREATE
 40
2457984.676658703
  9
$TDUCREATE
 40
2457984.301658703
  9
$TDUPDATE
 40
2457984.676661019
  9
$TDUUPDATE
 40
2457984.301661019
  9
$TDINDWG
 40
0.0000000116
  9
$TDUSRTIMER
 40
0.0000000116
  9
$USRTIMER
 70
     1
  9
$ANGBASE
 50
0.0
  9
$ANGDIR
 70
     0
  9
$PDMODE
 70
     0
  9
$PDSIZE
 40
-1.0
  9
$PLINEWID
 40
0.0
  9
$SPLFRAME
 70
     0
  9
$SPLINETYPE
 70
     6
  9
$SPLINESEGS
 70
     8
  9
$HANDSEED
  5
39D
  9
$SURFTAB1
 70
     6
  9
$SURFTAB2
 70
     6
  9
$SURFTYPE
 70
     6
  9
$SURFU
 70
     6
  9
$SURFV
 70
     6
  9
$UCSBASE
  2

  9
$UCSNAME
  2

  9
$UCSORG
 10
0.0
 20
0.0
 30
0.0
  9
$UCSXDIR
 10
1.0
 20
0.0
 30
0.0
  9
$UCSYDIR
 10
0.0
 20
1.0
 30
0.0
  9
$UCSORTHOREF
  2

  9
$UCSORTHOVIEW
 70
     0
  9
$UCSORGTOP
 10
0.0
 20
0.0
 30
0.0
  9
$UCSORGBOTTOM
 10
0.0
 20
0.0
 30
0.0
  9
$UCSORGLEFT
 10
0.0
 20
0.0
 30
0.0
  9
$UCSORGRIGHT
 10
0.0
 20
0.0
 30
0.0
  9
$UCSORGFRONT
 10
0.0
 20
0.0
 30
0.0
  9
$UCSORGBACK
 10
0.0
 20
0.0
 30
0.0
  9
$PUCSBASE
  2

  9
$PUCSNAME
  2

  9
$PUCSORG
 10
0.0
 20
0.0
 30
0.0
  9
$PUCSXDIR
 10
1.0
 20
0.0
 30
0.0
  9
$PUCSYDIR
 10
0.0
 20
1.0
 30
0.0
  9
$PUCSORTHOREF
  2

  9
$PUCSORTHOVIEW
 70
     0
  9
$PUCSORGTOP
 10
0.0
 20
0.0
 30
0.0
  9
$PUCSORGBOTTOM
 10
0.0
 20
0.0
 30
0.0
  9
$PUCSORGLEFT
 10
0.0
 20
0.0
 30
0.0
  9
$PUCSORGRIGHT
 10
0.0
 20
0.0
 30
0.0
  9
$PUCSORGFRONT
 10
0.0
 20
0.0
 30
0.0
  9
$PUCSORGBACK
 10
0.0
 20
0.0
 30
0.0
  9
$USERI1
 70
     0
  9
$USERI2
 70
     0
  9
$USERI3
 70
     0
  9
$USERI4
 70
     0
  9
$USERI5
 70
     0
  9
$USERR1
 40
0.0
  9
$USERR2
 40
0.0
  9
$USERR3
 40
0.0
  9
$USERR4
 40
0.0
  9
$USERR5
 40
0.0
  9
$WORLDVIEW
 70
     1
  9
$SHADEDGE
 70
     3
  9
$SHADEDIF
 70
    70
  9
$TILEMODE
 70
     1
  9
$MAXACTVP
 70
    64
  9
$PINSBASE
 10
0.0
 20
0.0
 30
0.0
  9
$PLIMCHECK
 70
     0
  9
$PEXTMIN
 10
1.0000000000E+20
 20
1.0000000000E+20
 30
1.0000000000E+20
  9
$PEXTMAX
 10
-1.0000000000E+20
 20
-1.0000000000E+20
 30
-1.0000000000E+20
  9
$PLIMMIN
 10
0.0
 20
0.0
  9
$PLIMMAX
 10
420.0
 20
297.0
  9
$UNITMODE
 70
     0
  9
$VISRETAIN
 70
     1
  9
$PLINEGEN
 70
     0
  9
$PSLTSCALE
 70
     1
  9
$TREEDEPTH
 70
  3020
  9
$CMLSTYLE
  2
Standard
  9
$CMLJUST
 70
     0
  9
$CMLSCALE
 40
20.0
  9
$PROXYGRAPHICS
 70
     1
  9
$MEASUREMENT
 70
     1
  9
$CELWEIGHT
370
    -1
  9
$ENDCAPS
280
     0
  9
$JOINSTYLE
280
     0
  9
$LWDISPLAY
290
     1
  9
$INSUNITS
 70
     4
  9
$HYPERLINKBASE
  1

  9
$STYLESHEET
  1

  9
$XEDIT
290
     1
  9
$CEPSNTYPE
380
     0
  9
$PSTYLEMODE
290
     1
  9
$FINGERPRINTGUID
  2
{BD54FDA0-2BE9-4AC7-A09B-1CA04B2212DB}
  9
$VERSIONGUID
  2
{FAEB1C32-E019-11D5-929B-00C0DF256EC4}
  9
$EXTNAMES
290
     1
  9
$PSVPSCALE
 40
0.0
  9
$OLESTARTUP
290
     0
  0
ENDSEC
  0
SECTION
  2
CLASSES
  0
CLASS
  1
ACDBDICTIONARYWDFLT
  2
AcDbDictionaryWithDefault
  3
ObjectDBX Classes
 90
        0
280
     0
281
     0
  0
CLASS
  1
VISUALSTYLE
  2
AcDbVisualStyle
  3
ObjectDBX Classes
 90
     4095
280
     0
281
     0
  0
CLASS
  1
MATERIAL
  2
AcDbMaterial
  3
ObjectDBX Classes
 90
     1153
280
     0
281
     0
  0
CLASS
  1
SCALE
  2
AcDbScale
  3
ObjectDBX Classes
 90
     1153
280
     0
281
     0
  0
CLASS
  1
TABLESTYLE
  2
AcDbTableStyle
  3
ObjectDBX Classes
 90
     4095
280
     0
281
     0
  0
CLASS
  1
MLEADERSTYLE
  2
AcDbMLeaderStyle
  3
ACDB_MLEADERSTYLE_CLASS
 90
     4095
280
     0
281
     0
  0
CLASS
  1
SUN
  2
AcDbSun
  3
SCENEOE
 90
     1153
280
     0
281
     0
  0
CLASS
  1
ACDBPLACEHOLDER
  2
AcDbPlaceHolder
  3
ObjectDBX Classes
 90
        0
280
     0
281
     0
  0
CLASS
  1
LAYOUT
  2
AcDbLayout
  3
ObjectDBX Classes
 90
        0
280
     0
281
     0
  0
ENDSEC
  0
SECTION
  2
TABLES
  0
TABLE
  2
VPORT
  5
8
330
0
100
AcDbSymbolTable
 70
     1
  0
VPORT
  5
29
330
8
100
AcDbSymbolTableRecord
100
AcDbViewportTableRecord
  2
*Active
 70
     0
 10
0.0
 20
0.0
 11
1.0
 21
1.0
 12
105.0
 22
148.5
 13
0.0
 23
0.0
 14
10.0
 24
10.0
 15
10.0
 25
10.0
 16
0.0
 26
0.0
 36
1.0
 17
0.0
 27
0.0
 37
0.0
 40
297.0
 41
0.7070707071
 42
50.0
 43
0.0
 44
0.0
 50
0.0
 51
0.0
 71
     0
 72
  2000
 73
     1
 74
     3
 75
     0
 76
     0
 77
     0
 78
     0
281
     0
 65
     1
110
0.0
120
0.0
130
0.0
111
1.0
121
0.0
131
0.0
112
0.0
122
1.0
132
0.0
 79
     0
146
0.0
  0
ENDTAB
  0
TABLE
  2
LTYPE
  5
5
330
0
100
AcDbSymbolTable
 70
     6
  0
LTYPE
  5
14
330
5
100
AcDbSymbolTableRecord
100
AcDbLinetypeTableRecord
  2
ByBlock
 70
     0
  3

 72
    65
 73
     0
 40
0.0
  0
LTYPE
  5
15
330
5
100
AcDbSymbolTableRecord
100
AcDbLinetypeTableRecord
  2
ByLayer
 70
     0
  3

 72
    65
 73
     0
 40
0.0
  0
LTYPE
  5
16
330
5
100
AcDbSymbolTableRecord
100
AcDbLinetypeTableRecord
  2
Continuous
 70
     0
  3
Solid line
 72
    65
 73
     0
 40
0.0
  0
LTYPE
  5
6E
330
5
100
AcDbSymbolTableRecord
100
AcDbLinetypeTableRecord
  2
HIDDEN
 70
     0
  3
Hidden __ __ __ __ __ __ __ __ __ __ __ __ __ __
 72
    65
 73
     2
 40
1.905
 49
1.27
 74
     0
 49
-0.635
 74
     0
  0
LTYPE
  5
6F
330
5
100
AcDbSymbolTableRecord
100
AcDbLinetypeTableRecord
  2
PHANTOM
 70
     0
  3
Phantom ______  __  __  ______  __  __  ______
 72
    65
 73
     6
 40
12.7
 49
6.35
 74
     0
 49
-1.27
 74
     0
 49
1.27
 74
     0
 49
-1.27
 74
     0
 49
1.27
 74
     0
 49
-1.27
 74
     0
  0
LTYPE
  5
70
330
5
100
AcDbSymbolTableRecord
100
AcDbLinetypeTableRecord
  2
CENTER
 70
     0
  3
Center ____ _ ____ _ ____ _ ____ _ ____ _ ____
 72
    65
 73
     4
 40
10.16
 49
6.35
 74
     0
 49
-1.27
 74
     0
 49
1.27
 74
     0
 49
-1.27
 74
     0
  0
LTYPE
  5
71
330
5
100
AcDbSymbolTableRecord
100
AcDbLinetypeTableRecord
  2
CENTERX2
 70
     0
  3
Center (2x) ________  __  ________  __  _____
 72
    65
 73
     4
 40
20.32
 49
12.7
 74
     0
 49
-2.54
 74
     0
 49
2.54
 74
     0
 49
-2.54
 74
     0
  0
LTYPE
  5
72
330
5
100
AcDbSymbolTableRecord
100
AcDbLinetypeTableRecord
  2
DOT2
 70
     0
  3
Dot (.5x) ........................................
 72
    65
 73
     2
 40
0.635
 49
0.0
 74
     0
 49
-0.635
 74
     0
  0
ENDTAB
  0
TABLE
  2
LAYER
  5
2
330
0
100
AcDbSymbolTable
 70
     1
  0
LAYER
  5
10
330
2
100
AcDbSymbolTableRecord
100
AcDbLayerTableRecord
  2
0
 70
     0
 62
     7
  6
Continuous
370
    -3
390
F
  0
ENDTAB
  0
TABLE
  2
STYLE
  5
3
330
0
100
AcDbSymbolTable
 70
     2
  0
STYLE
  5
11
330
3
100
AcDbSymbolTableRecord
100
AcDbTextStyleTableRecord
  2
Standard
 70
     0
 40
0.0
 41
1.0
 50
0.0
 71
     0
 42
3.5
  3
txt
  4
bigfont
  0
STYLE
  5
7B
330
3
100
AcDbSymbolTableRecord
100
AcDbTextStyleTableRecord
  2
SLDTEXTSTYLE0
 70
     0
 40
0.0
 41
0.7
 50
0.0
 71
     0
 42
3.5
  3
TXT
  4
bigfont
  0
ENDTAB
  0
TABLE
  2
VIEW
  5
6
330
0
100
AcDbSymbolTable
 70
     0
  0
ENDTAB
  0
TABLE
  2
UCS
  5
7
330
0
100
AcDbSymbolTable
 70
     0
  0
ENDTAB
  0
TABLE
  2
APPID
  5
9
330
0
100
AcDbSymbolTable
 70
     1
  0
APPID
  5
12
330
9
100
AcDbSymbolTableRecord
100
AcDbRegAppTableRecord
  2
ACAD
 70
     0
  0
ENDTAB
  0
TABLE
  2
DIMSTYLE
  5
A
330
0
100
AcDbSymbolTable
 70
     5
100
AcDbDimStyleTable
  0
DIMSTYLE
105
27
330
A
100
AcDbSymbolTableRecord
100
AcDbDimStyleTableRecord
  2
ISO-25
 70
     0
 41
2.5
 42
0.625
 43
3.75
 44
1.25
 73
     0
 74
     0
 77
     1
 78
     8
140
2.5
141
2.5
143
0.0393700787
147
0.625
171
     3
172
     1
178
     0
271
     2
272
     2
274
     3
278
    44
283
     0
284
     8
340
11
  0
DIMSTYLE
105
13A
102
{ACAD_REACTORS
330
139
330
144
330
14E
330
158
330
162
330
247
330
253
330
26C
330
276
330
280
330
297
330
2A1
330
379
330
385
102
}
330
A
100
AcDbSymbolTableRecord
100
AcDbDimStyleTableRecord
  2
SLDDIMSTYLE0
 70
     0
 41
3.0
 44
0.0
 45
0.000000001
 73
     0
 74
     0
 77
     3
 78
    12
 79
     3
140
3.5
147
0.875
173
     1
178
     0
271
     1
272
     3
276
     2
284
    12
340
7B
  0
DIMSTYLE
105
260
102
{ACAD_REACTORS
330
25F
330
28A
102
}
330
A
100
AcDbSymbolTableRecord
100
AcDbDimStyleTableRecord
  2
SLDDIMSTYLE1
 70
     0
 41
3.0
 44
0.0
 45
0.000000001
 73
     0
 74
     0
 77
     3
 78
    12
 79
     3
140
3.5
147
0.875
172
     1
173
     1
178
     0
271
     1
272
     3
276
     2
284
    12
289
     0
340
7B
  0
DIMSTYLE
105
2AC
102
{ACAD_REACTORS
330
2AB
102
}
330
A
100
AcDbSymbolTableRecord
100
AcDbDimStyleTableRecord
  2
SLDDIMSTYLE2
 70
     0
 41
3.0
 44
0.0
 45
0.000000001
 78
    12
 79
     3
140
3.5
141
0.0
147
0.875
173
     1
178
     0
271
     1
272
     3
276
     2
284
    12
340
7B
  0
DIMSTYLE
105
2BD
330
A
100
AcDbSymbolTableRecord
100
AcDbDimStyleTableRecord
  2
SLDDIMSTYLE3
 70
     0
 41
3.0
 44
0.0
 45
0.000000001
146
3.0
147
0.0
173
     1
178
     0
271
     0
272
     0
276
     2
340
11
  0
ENDTAB
  0
TABLE
  2
BLOCK_RECORD
  5
1
330
0
100
AcDbSymbolTable
 70
    23
  0
BLOCK_RECORD
  5
1F
330
1
100
AcDbSymbolTableRecord
100
AcDbBlockTableRecord
  2
*Model_Space
340
22
  0
BLOCK_RECORD
  5
1B
330
1
100
AcDbSymbolTableRecord
100
AcDbBlockTableRecord
  2
*Paper_Space
340
1E
  0
BLOCK_RECORD
  5
23
330
1
100
AcDbSymbolTableRecord
100
AcDbBlockTableRecord
  2
*Paper_Space0
340
26
  0
BLOCK_RECORD
  5
13B
330
1
100
AcDbSymbolTableRecord
100
AcDbBlockTableRecord
  2
_D
340
0
  0
BLOCK_RECORD
  5
145
330
1
100
AcDbSymbolTableRecord
100
AcDbBlockTableRecord
  2
_D_1
340
0
  0
BLOCK_RECORD
  5
14F
330
1
100
AcDbSymbolTableRecord
100
AcDbBlockTableRecord
  2
_D_2
340
0
  0
BLOCK_RECORD
  5
159
330
1
100
AcDbSymbolTableRecord
100
AcDbBlockTableRecord
  2
_D_3
340
0
  0
BLOCK_RECORD
  5
163
330
1
100
AcDbSymbolTableRecord
100
AcDbBlockTableRecord
  2
_D_4
340
0
  0
BLOCK_RECORD
  5
248
330
1
100
AcDbSymbolTableRecord
100
AcDbBlockTableRecord
  2
_D_5
340
0
  0
BLOCK_RECORD
  5
254
330
1
100
AcDbSymbolTableRecord
100
AcDbBlockTableRecord
  2
_D_6
340
0
  0
BLOCK_RECORD
  5
261
330
1
100
AcDbSymbolTableRecord
100
AcDbBlockTableRecord
  2
_D_7
340
0
  0
BLOCK_RECORD
  5
26D
330
1
100
AcDbSymbolTableRecord
100
AcDbBlockTableRecord
  2
_D_8
340
0
  0
BLOCK_RECORD
  5
277
330
1
100
AcDbSymbolTableRecord
100
AcDbBlockTableRecord
  2
_D_9
340
0
  0
BLOCK_RECORD
  5
281
330
1
100
AcDbSymbolTableRecord
100
AcDbBlockTableRecord
  2
_D_10
340
0
  0
BLOCK_RECORD
  5
28B
330
1
100
AcDbSymbolTableRecord
100
AcDbBlockTableRecord
  2
_D_11
340
0
  0
BLOCK_RECORD
  5
298
330
1
100
AcDbSymbolTableRecord
100
AcDbBlockTableRecord
  2
_D_12
340
0
  0
BLOCK_RECORD
  5
2A2
330
1
100
AcDbSymbolTableRecord
100
AcDbBlockTableRecord
  2
_D_13
340
0
  0
BLOCK_RECORD
  5
2AD
330
1
100
AcDbSymbolTableRecord
100
AcDbBlockTableRecord
  2
_D_14
340
0
  0
BLOCK_RECORD
  5
2B7
330
1
100
AcDbSymbolTableRecord
100
AcDbBlockTableRecord
  2
SW_NOTE_0
340
0
102
{BLKREFS
331
2BC
102
}
  0
BLOCK_RECORD
  5
2BF
330
1
100
AcDbSymbolTableRecord
100
AcDbBlockTableRecord
  2
SW_CENTERMARKSYMBOL_0
340
0
102
{BLKREFS
331
2CA
102
}
  0
BLOCK_RECORD
  5
2CB
330
1
100
AcDbSymbolTableRecord
100
AcDbBlockTableRecord
  2
SW_CENTERMARKSYMBOL_1
340
0
102
{BLKREFS
331
2D6
102
}
  0
BLOCK_RECORD
  5
2D7
330
1
100
AcDbSymbolTableRecord
100
AcDbBlockTableRecord
  2
SW_CENTERMARKSYMBOL_2
340
0
102
{BLKREFS
331
2E2
102
}
  0
BLOCK_RECORD
  5
37A
330
1
100
AcDbSymbolTableRecord
100
AcDbBlockTableRecord
  2
_D_15
340
0
  0
BLOCK_RECORD
  5
386
330
1
100
AcDbSymbolTableRecord
100
AcDbBlockTableRecord
  2
_D_16
340
0
  0
BLOCK_RECORD
  5
391
330
1
100
AcDbSymbolTableRecord
100
AcDbBlockTableRecord
  2
SW_CENTERMARKSYMBOL_3
340
0
102
{BLKREFS
331
39C
102
}
  0
ENDTAB
  0
ENDSEC
  0
SECTION
  2
BLOCKS
  0
BLOCK
  5
20
330
1F
100
AcDbEntity
  8
0
100
AcDbBlockBegin
  2
*Model_Space
 70
     0
 10
0.0
 20
0.0
 30
0.0
  3
*Model_Space
  1

  0
ENDBLK
  5
21
330
1F
100
AcDbEntity
  8
0
100
AcDbBlockEnd
  0
BLOCK
  5
1C
330
1B
100
AcDbEntity
 67
     1
  8
0
100
AcDbBlockBegin
  2
*Paper_Space
 70
     0
 10
0.0
 20
0.0
 30
0.0
  3
*Paper_Space
  1

  0
ENDBLK
  5
1D
330
1B
100
AcDbEntity
 67
     1
  8
0
100
AcDbBlockEnd
  0
BLOCK
  5
24
330
23
100
AcDbEntity
  8
0
100
AcDbBlockBegin
  2
*Paper_Space0
 70
     0
 10
0.0
 20
0.0
 30
0.0
  3
*Paper_Space0
  1

  0
ENDBLK
  5
25
330
23
100
AcDbEntity
  8
0
100
AcDbBlockEnd
  0
BLOCK
  5
13C
330
13B
100
AcDbEntity
  8
0
100
AcDbBlockBegin
  2
_D
 70
     0
 10
0.0
 20
0.0
 30
0.0
  3
_D
  1

  0
SOLID
  5
13E
330
13B
100
AcDbEntity
  8
0
  6
Continuous
 62
     7
370
     0
100
AcDbTrace
 10
134.1914799401
 20
262.2160760034
 30
0.0
 11
133.4414799401
 21
259.2160760034
 31
0.0
 12
134.9414799401
 22
259.2160760034
 32
0.0
 13
134.9414799401
 23
259.2160760034
 33
0.0
  0
SOLID
  5
13F
330
13B
100
AcDbEntity
  8
0
  6
Continuous
 62
     7
370
     0
100
AcDbTrace
 10
134.1914799401
 20
232.0479589764
 30
0.0
 11
134.9414799401
 21
235.0479589764
 31
0.0
 12
133.4414799401
 22
235.0479589764
 32
0.0
 13
133.4414799401
 23
235.0479589764
 33
0.0
  0
LINE
  5
140
330
13B
100
AcDbEntity
  8
0
  6
Continuous
 62
     7
370
     0
100
AcDbLine
 10
144.7456848201
 20
262.2160760034
 30
0.0
 11
133.1914799401
 21
262.2160760034
 31
0.0
  0
LINE
  5
141
330
13B
100
AcDbEntity
  8
0
  6
Continuous
 62
     7
370
     0
100
AcDbLine
 10
144.7456848201
 20
232.0479589764
 30
0.0
 11
133.1914799401
 21
232.0479589764
 31
0.0
  0
LINE
  5
142
330
13B
100
AcDbEntity
  8
0
  6
Continuous
 62
     7
370
     0
100
AcDbLine
 10
134.1914799401
 20
262.2160760034
 30
0.0
 11
134.1914799401
 21
232.0479589764
 31
0.0
  0
MTEXT
  5
143
330
13B
100
AcDbEntity
  8
0
  6
Continuous
 62
     7
370
     0
100
AcDbMText
 10
129.6797430838
 20
245.0952119924
 30
0.0
 40
3.5
 41
0.0
 71
     1
 72
     1
  1
30
  7
SLDTEXTSTYLE0
 11
-7.044195017643634E-15
 21
1.0
 31
0.0
 73
     1
 44
1.0
  0
ENDBLK
  5
13D
330
13B
100
AcDbEntity
  8
0
100
AcDbBlockEnd
  0
BLOCK
  5
146
330
145
100
AcDbEntity
  8
0
100
AcDbBlockBegin
  2
_D_1
 70
     0
 10
0.0
 20
0.0
 30
0.0
  3
_D_1
  1

  0
SOLID
  5
148
330
145
100
AcDbEntity
  8
0
  6
Continuous
 62
     7
370
     0
100
AcDbTrace
 10
145.7456848201
 20
270.1643506929
 30
0.0
 11
148.7456848201
 21
269.4143506929
 31
0.0
 12
148.7456848201
 22
270.9143506929
 32
0.0
 13
148.7456848201
 23
270.9143506929
 33
0.0
  0
SOLID
  5
149
330
145
100
AcDbEntity
  8
0
  6
Continuous
 62
     7
370
     0
100
AcDbTrace
 10
160.7456848201
 20
270.1643506929
 30
0.0
 11
157.7456848201
 21
270.9143506929
 31
0.0
 12
157.7456848201
 22
269.4143506929
 32
0.0
 13
157.7456848201
 23
269.4143506929
 33
0.0
  0
LINE
  5
14A
330
145
100
AcDbEntity
  8
0
  6
Continuous
 62
     7
370
     0
100
AcDbLine
 10
145.7456848201
 20
262.6427995919
 30
0.0
 11
145.7456848201
 21
271.1643506929
 31
0.0
  0
LINE
  5
14B
330
145
100
AcDbEntity
  8
0
  6
Continuous
 62
     7
370
     0
100
AcDbLine
 10
160.7456848201
 20
255.9335139035
 30
0.0
 11
160.7456848201
 21
271.1643506929
 31
0.0
  0
LINE
  5
14C
330
145
100
AcDbEntity
  8
0
  6
Continuous
 62
     7
370
     0
100
AcDbLine
 10
145.7456848201
 20
270.1643506929
 30
0.0
 11
160.7456848201
 21
270.1643506929
 31
0.0
  0
MTEXT
  5
14D
330
145
100
AcDbEntity
  8
0
  6
Continuous
 62
     7
370
     0
100
AcDbMText
 10
151.2088793226
 20
274.6760875493
 30
0.0
 40
3.5
 41
0.0
 71
     1
 72
     1
  1
15
  7
SLDTEXTSTYLE0
 73
     1
 44
1.0
  0
ENDBLK
  5
147
330
145
100
AcDbEntity
  8
0
100
AcDbBlockEnd
  0
BLOCK
  5
150
330
14F
100
AcDbEntity
  8
0
100
AcDbBlockBegin
  2
_D_2
 70
     0
 10
0.0
 20
0.0
 30
0.0
  3
_D_2
  1

  0
SOLID
  5
152
330
14F
100
AcDbEntity
  8
0
  6
Continuous
 62
     7
370
     0
100
AcDbTrace
 10
145.7456848201
 20
278.2815933075
 30
0.0
 11
148.7456848201
 21
277.5315933075
 31
0.0
 12
148.7456848201
 22
279.0315933075
 32
0.0
 13
148.7456848201
 23
279.0315933075
 33
0.0
  0
SOLID
  5
153
330
14F
100
AcDbEntity
  8
0
  6
Continuous
 62
     7
370
     0
100
AcDbTrace
 10
168.7456848201
 20
278.2815933075
 30
0.0
 11
165.7456848201
 21
279.0315933075
 31
0.0
 12
165.7456848201
 22
277.5315933075
 32
0.0
 13
165.7456848201
 23
277.5315933075
 33
0.0
  0
LINE
  5
154
330
14F
100
AcDbEntity
  8
0
  6
Continuous
 62
     7
370
     0
100
AcDbLine
 10
145.7456848201
 20
262.6427995919
 30
0.0
 11
145.7456848201
 21
279.2815933075
 31
0.0
  0
LINE
  5
155
330
14F
100
AcDbEntity
  8
0
  6
Continuous
 62
     7
370
     0
100
AcDbLine
 10
168.7456848201
 20
261.9840902411
 30
0.0
 11
168.7456848201
 21
279.2815933075
 31
0.0
  0
LINE
  5
156
330
14F
100
AcDbEntity
  8
0
  6
Continuous
 62
     7
370
     0
100
AcDbLine
 10
145.7456848201
 20
278.2815933075
 30
0.0
 11
168.7456848201
 21
278.2815933075
 31
0.0
  0
MTEXT
  5
157
330
14F
100
AcDbEntity
  8
0
  6
Continuous
 62
     7
370
     0
100
AcDbMText
 10
155.2088793226
 20
282.7933301639
 30
0.0
 40
3.5
 41
0.0
 71
     1
 72
     1
  1
23
  7
SLDTEXTSTYLE0
 73
     1
 44
1.0
  0
ENDBLK
  5
151
330
14F
100
AcDbEntity
  8
0
100
AcDbBlockEnd
  0
BLOCK
  5
15A
330
159
100
AcDbEntity
  8
0
100
AcDbBlockBegin
  2
_D_3
 70
     0
 10
0.0
 20
0.0
 30
0.0
  3
_D_3
  1

  0
SOLID
  5
15C
330
159
100
AcDbEntity
  8
0
  6
Continuous
 62
     7
370
     0
100
AcDbTrace
 10
172.7456848201
 20
139.6578867301
 30
0.0
 11
169.7456848201
 21
140.4078867301
 31
0.0
 12
169.7456848201
 22
138.9078867301
 32
0.0
 13
169.7456848201
 23
138.9078867301
 33
0.0
  0
SOLID
  5
15D
330
159
100
AcDbEntity
  8
0
  6
Continuous
 62
     7
370
     0
100
AcDbTrace
 10
156.7456848201
 20
139.6578867301
 30
0.0
 11
159.7456848201
 21
138.9078867301
 31
0.0
 12
159.7456848201
 22
140.4078867301
 32
0.0
 13
159.7456848201
 23
140.4078867301
 33
0.0
  0
LINE
  5
15E
330
159
100
AcDbEntity
  8
0
  6
Continuous
 62
     7
370
     0
100
AcDbLine
 10
172.7456848201
 20
171.415564732
 30
0.0
 11
172.7456848201
 21
138.6578867301
 31
0.0
  0
LINE
  5
15F
330
159
100
AcDbEntity
  8
0
  6
Continuous
 62
     7
370
     0
100
AcDbLine
 10
156.7456848201
 20
171.415564732
 30
0.0
 11
156.7456848201
 21
138.6578867301
 31
0.0
  0
LINE
  5
160
330
159
100
AcDbEntity
  8
0
  6
Continuous
 62
     7
370
     0
100
AcDbLine
 10
172.7456848201
 20
139.6578867301
 30
0.0
 11
156.7456848201
 21
139.6578867301
 31
0.0
  0
MTEXT
  5
161
330
159
100
AcDbEntity
  8
0
  6
Continuous
 62
     7
370
     0
100
AcDbMText
 10
162.7088793226
 20
144.1696235865
 30
0.0
 40
3.5
 41
0.0
 71
     1
 72
     1
  1
16
  7
SLDTEXTSTYLE0
 73
     1
 44
1.0
  0
ENDBLK
  5
15B
330
159
100
AcDbEntity
  8
0
100
AcDbBlockEnd
  0
BLOCK
  5
164
330
163
100
AcDbEntity
  8
0
100
AcDbBlockBegin
  2
_D_4
 70
     0
 10
0.0
 20
0.0
 30
0.0
  3
_D_4
  1

  0
SOLID
  5
166
330
163
100
AcDbEntity
  8
0
  6
Continuous
 62
     7
370
     0
100
AcDbTrace
 10
172.7456848201
 20
130.415564732
 30
0.0
 11
169.7456848201
 21
131.165564732
 31
0.0
 12
169.7456848201
 22
129.665564732
 32
0.0
 13
169.7456848201
 23
129.665564732
 33
0.0
  0
SOLID
  5
167
330
163
100
AcDbEntity
  8
0
  6
Continuous
 62
     7
370
     0
100
AcDbTrace
 10
145.7456848201
 20
130.415564732
 30
0.0
 11
148.7456848201
 21
129.665564732
 31
0.0
 12
148.7456848201
 22
131.165564732
 32
0.0
 13
148.7456848201
 23
131.165564732
 33
0.0
  0
LINE
  5
168
330
163
100
AcDbEntity
  8
0
  6
Continuous
 62
     7
370
     0
100
AcDbLine
 10
172.7456848201
 20
171.415564732
 30
0.0
 11
172.7456848201
 21
129.415564732
 31
0.0
  0
LINE
  5
169
330
163
100
AcDbEntity
  8
0
  6
Continuous
 62
     7
370
     0
100
AcDbLine
 10
145.7456848201
 20
231.0479589764
 30
0.0
 11
145.7456848201
 21
129.415564732
 31
0.0
  0
LINE
  5
16A
330
163
100
AcDbEntity
  8
0
  6
Continuous
 62
     7
370
     0
100
AcDbLine
 10
172.7456848201
 20
130.415564732
 30
0.0
 11
145.7456848201
 21
130.415564732
 31
0.0
  0
MTEXT
  5
16B
330
163
100
AcDbEntity
  8
0
  6
Continuous
 62
     7
370
     0
100
AcDbMText
 10
157.2088793226
 20
134.9273015884
 30
0.0
 40
3.5
 41
0.0
 71
     1
 72
     1
  1
27
  7
SLDTEXTSTYLE0
 73
     1
 44
1.0
  0
ENDBLK
  5
165
330
163
100
AcDbEntity
  8
0
100
AcDbBlockEnd
  0
BLOCK
  5
249
330
248
100
AcDbEntity
  8
0
100
AcDbBlockBegin
  2
_D_5
 70
     0
 10
0.0
 20
0.0
 30
0.0
  3
_D_5
  1

  0
ARC
  5
24B
330
248
100
AcDbEntity
  8
0
  6
Continuous
 62
     7
370
     0
100
AcDbCircle
 10
79.38198642
 20
277.2693252122
 30
0.0
 40
4.554435549315967
100
AcDbArc
 50
153.2220784386
 51
206.3521807927
  0
ARC
  5
24C
330
248
100
AcDbEntity
  8
0
  6
Continuous
 62
     7
370
     0
100
AcDbCircle
 10
75.3084035398
 20
277.2844598198
 30
0.0
 40
4.554435549315954
100
AcDbArc
 50
333.2220784386
 51
26.3521807927
  0
SOLID
  5
24D
330
248
100
AcDbEntity
  8
0
  6
Continuous
 62
     7
370
     0
100
AcDbTrace
 10
68.520413087
 20
275.2728597277
 30
0.0
 11
71.5176059216
 21
274.5117190624
 31
0.0
 12
71.5231788424
 22
276.0117087099
 32
0.0
 13
71.5231788424
 23
276.0117087099
 33
0.0
  0
SOLID
  5
24E
330
248
100
AcDbEntity
  8
0
  6
Continuous
 62
     7
370
     0
100
AcDbTrace
 10
86.1548423815
 20
275.2073424236
 30
0.0
 11
83.157649547
 21
275.9684830889
 31
0.0
 12
83.1520766261
 22
274.4684934415
 32
0.0
 13
83.1520766261
 23
274.4684934415
 33
0.0
  0
LINE
  5
24F
330
248
100
AcDbEntity
  8
0
  6
Continuous
 62
     7
370
     0
100
AcDbLine
 10
68.4758618351
 20
263.2815864059
 30
0.0
 11
68.5241283675
 21
276.2728528261
 31
0.0
  0
LINE
  5
250
330
248
100
AcDbEntity
  8
0
  6
Continuous
 62
     7
370
     0
100
AcDbLine
 10
86.1102911296
 20
263.2160691017
 30
0.0
 11
86.1585576621
 21
276.2073355219
 31
0.0
  0
LINE
  5
251
330
248
100
AcDbEntity
  8
0
  6
Continuous
 62
     7
370
     0
100
AcDbLine
 10
68.520413087
 20
275.2728597277
 30
0.0
 11
86.1548423815
 21
275.2073424236
 31
0.0
  0
MTEXT
  5
252
330
248
100
AcDbEntity
  8
0
  6
Continuous
 62
     7
370
     0
100
AcDbMText
 10
75.3175986041
 20
279.7593740975
 30
0.0
 40
3.5
 41
0.0
 71
     1
 72
     1
  1
17
  7
SLDTEXTSTYLE0
 11
0.9999930983214381
 21
-0.003715280539960716
 31
0.0
 73
     1
 44
1.0
  0
ENDBLK
  5
24A
330
248
100
AcDbEntity
  8
0
100
AcDbBlockEnd
  0
BLOCK
  5
255
330
254
100
AcDbEntity
  8
0
100
AcDbBlockBegin
  2
_D_6
 70
     0
 10
0.0
 20
0.0
 30
0.0
  3
_D_6
  1

  0
ARC
  5
257
330
254
100
AcDbEntity
  8
0
  6
Continuous
 62
     7
370
     0
100
AcDbCircle
 10
118.2689092402
 20
205.3342229418
 30
0.0
 40
4.554435549315953
100
AcDbArc
 50
243.4349488229
 51
296.5650511771
  0
ARC
  5
258
330
254
100
AcDbEntity
  8
0
  6
Continuous
 62
     7
370
     0
100
AcDbCircle
 10
118.2689092402
 20
203.2974176771
 30
0.0
 40
4.554435549315978
100
AcDbArc
 50
63.4349488229
 51
116.5650511771
  0
SOLID
  5
259
330
254
100
AcDbEntity
  8
0
  6
Continuous
 62
     7
370
     0
100
AcDbTrace
 10
120.3057147377
 20
262.2160760034
 30
0.0
 11
119.5557147377
 21
259.2160760034
 31
0.0
 12
121.0557147377
 22
259.2160760034
 32
0.0
 13
121.0557147377
 23
259.2160760034
 33
0.0
  0
SOLID
  5
25A
330
254
100
AcDbEntity
  8
0
  6
Continuous
 62
     7
370
     0
100
AcDbTrace
 10
120.3057147377
 20
146.415564732
 30
0.0
 11
121.0557147377
 21
149.415564732
 31
0.0
 12
119.5557147377
 22
149.415564732
 32
0.0
 13
119.5557147377
 23
149.415564732
 33
0.0
  0
LINE
  5
25B
330
254
100
AcDbEntity
  8
0
  6
Continuous
 62
     7
370
     0
100
AcDbLine
 10
87.1065758491
 20
262.2160760034
 30
0.0
 11
121.3057147377
 21
262.2160760034
 31
0.0
  0
LINE
  5
25C
330
254
100
AcDbEntity
  8
0
  6
Continuous
 62
     7
370
     0
100
AcDbLine
 10
79.5920622644
 20
146.415564732
 30
0.0
 11
121.3057147377
 21
146.415564732
 31
0.0
  0
LINE
  5
25D
330
254
100
AcDbEntity
  8
0
  6
Continuous
 62
     7
370
     0
100
AcDbLine
 10
120.3057147377
 20
262.2160760034
 30
0.0
 11
120.3057147377
 21
146.415564732
 31
0.0
  0
MTEXT
  5
25E
330
254
100
AcDbEntity
  8
0
  6
Continuous
 62
     7
370
     0
100
AcDbMText
 10
115.7939778813
 20
201.2606119468
 30
0.0
 40
3.5
 41
0.0
 71
     1
 72
     1
  1
116
  7
SLDTEXTSTYLE0
 11
-7.044195017643634E-15
 21
1.0
 31
0.0
 73
     1
 44
1.0
  0
ENDBLK
  5
256
330
254
100
AcDbEntity
  8
0
100
AcDbBlockEnd
  0
BLOCK
  5
262
330
261
100
AcDbEntity
  8
0
100
AcDbBlockBegin
  2
_D_7
 70
     0
 10
0.0
 20
0.0
 30
0.0
  3
_D_7
  1

  0
SOLID
  5
264
330
261
100
AcDbEntity
  8
0
  6
Continuous
 62
     7
370
     0
100
AcDbTrace
 10
104.4772071611
 20
172.415564732
 30
0.0
 11
103.7272071611
 21
169.415564732
 31
0.0
 12
105.2272071611
 22
169.415564732
 32
0.0
 13
105.2272071611
 23
169.415564732
 33
0.0
  0
SOLID
  5
265
330
261
100
AcDbEntity
  8
0
  6
Continuous
 62
     7
370
     0
100
AcDbTrace
 10
104.4772071611
 20
176.915564732
 30
0.0
 11
105.2272071611
 21
179.915564732
 31
0.0
 12
103.7272071611
 22
179.915564732
 32
0.0
 13
103.7272071611
 23
179.915564732
 33
0.0
  0
LINE
  5
266
330
261
100
AcDbEntity
  8
0
  6
Continuous
 62
     7
370
     0
100
AcDbLine
 10
97.5920622644
 20
172.415564732
 30
0.0
 11
105.4772071611
 21
172.415564732
 31
0.0
  0
LINE
  5
267
330
261
100
AcDbEntity
  8
0
  6
Continuous
 62
     7
370
     0
100
AcDbLine
 10
90.5920622644
 20
176.915564732
 30
0.0
 11
105.4772071611
 21
176.915564732
 31
0.0
  0
LINE
  5
268
330
261
100
AcDbEntity
  8
0
  6
Continuous
 62
     7
370
     0
100
AcDbLine
 10
104.4772071611
 20
172.415564732
 30
0.0
 11
104.4772071611
 21
161.3603563694
 31
0.0
  0
LINE
  5
269
330
261
100
AcDbEntity
  8
0
  6
Continuous
 62
     7
370
     0
100
AcDbLine
 10
104.4772071611
 20
172.415564732
 30
0.0
 11
104.4772071611
 21
176.915564732
 31
0.0
  0
LINE
  5
26A
330
261
100
AcDbEntity
  8
0
  6
Continuous
 62
     7
370
     0
100
AcDbLine
 10
104.4772071611
 20
176.915564732
 30
0.0
 11
104.4772071611
 21
181.915564732
 31
0.0
  0
MTEXT
  5
26B
330
261
100
AcDbEntity
  8
0
  6
Continuous
 62
     7
370
     0
100
AcDbMText
 10
99.9654703047
 20
161.3603563694
 30
0.0
 40
3.5
 41
0.0
 71
     1
 72
     1
  1
4.5
  7
SLDTEXTSTYLE0
 11
-3.491481338843133E-15
 21
1.0
 31
0.0
 73
     1
 44
1.0
  0
ENDBLK
  5
263
330
261
100
AcDbEntity
  8
0
100
AcDbBlockEnd
  0
BLOCK
  5
26E
330
26D
100
AcDbEntity
  8
0
100
AcDbBlockBegin
  2
_D_8
 70
     0
 10
0.0
 20
0.0
 30
0.0
  3
_D_8
  1

  0
SOLID
  5
270
330
26D
100
AcDbEntity
  8
0
  6
Continuous
 62
     7
370
     0
100
AcDbTrace
 10
104.4772071611
 20
176.915564732
 30
0.0
 11
105.2272071611
 21
179.915564732
 31
0.0
 12
103.7272071611
 22
179.915564732
 32
0.0
 13
103.7272071611
 23
179.915564732
 33
0.0
  0
SOLID
  5
271
330
26D
100
AcDbEntity
  8
0
  6
Continuous
 62
     7
370
     0
100
AcDbTrace
 10
104.4772071611
 20
208.415564732
 30
0.0
 11
103.7272071611
 21
205.415564732
 31
0.0
 12
105.2272071611
 22
205.415564732
 32
0.0
 13
105.2272071611
 23
205.415564732
 33
0.0
  0
LINE
  5
272
330
26D
100
AcDbEntity
  8
0
  6
Continuous
 62
     7
370
     0
100
AcDbLine
 10
90.5920622644
 20
176.915564732
 30
0.0
 11
105.4772071611
 21
176.915564732
 31
0.0
  0
LINE
  5
273
330
26D
100
AcDbEntity
  8
0
  6
Continuous
 62
     7
370
     0
100
AcDbLine
 10
78.0920622644
 20
208.415564732
 30
0.0
 11
105.4772071611
 21
208.415564732
 31
0.0
  0
LINE
  5
274
330
26D
100
AcDbEntity
  8
0
  6
Continuous
 62
     7
370
     0
100
AcDbLine
 10
104.4772071611
 20
176.915564732
 30
0.0
 11
104.4772071611
 21
208.415564732
 31
0.0
  0
MTEXT
  5
275
330
26D
100
AcDbEntity
  8
0
  6
Continuous
 62
     7
370
     0
100
AcDbMText
 10
99.9654703047
 20
188.591953737
 30
0.0
 40
3.5
 41
0.0
 71
     1
 72
     1
  1
31.5
  7
SLDTEXTSTYLE0
 11
6.123233995736766E-17
 21
1.0
 31
0.0
 73
     1
 44
1.0
  0
ENDBLK
  5
26F
330
26D
100
AcDbEntity
  8
0
100
AcDbBlockEnd
  0
BLOCK
  5
278
330
277
100
AcDbEntity
  8
0
100
AcDbBlockBegin
  2
_D_9
 70
     0
 10
0.0
 20
0.0
 30
0.0
  3
_D_9
  1

  0
SOLID
  5
27A
330
277
100
AcDbEntity
  8
0
  6
Continuous
 62
     7
370
     0
100
AcDbTrace
 10
112.393774788
 20
225.815564732
 30
0.0
 11
111.643774788
 21
222.815564732
 31
0.0
 12
113.143774788
 22
222.815564732
 32
0.0
 13
113.143774788
 23
222.815564732
 33
0.0
  0
SOLID
  5
27B
330
277
100
AcDbEntity
  8
0
  6
Continuous
 62
     7
370
     0
100
AcDbTrace
 10
112.393774788
 20
172.415564732
 30
0.0
 11
113.143774788
 21
175.415564732
 31
0.0
 12
111.643774788
 22
175.415564732
 32
0.0
 13
111.643774788
 23
175.415564732
 33
0.0
  0
LINE
  5
27C
330
277
100
AcDbEntity
  8
0
  6
Continuous
 62
     7
370
     0
100
AcDbLine
 10
83.0920622644
 20
225.815564732
 30
0.0
 11
113.393774788
 21
225.815564732
 31
0.0
  0
LINE
  5
27D
330
277
100
AcDbEntity
  8
0
  6
Continuous
 62
     7
370
     0
100
AcDbLine
 10
97.5920622644
 20
172.415564732
 30
0.0
 11
113.393774788
 21
172.415564732
 31
0.0
  0
LINE
  5
27E
330
277
100
AcDbEntity
  8
0
  6
Continuous
 62
     7
370
     0
100
AcDbLine
 10
112.393774788
 20
225.815564732
 30
0.0
 11
112.393774788
 21
172.415564732
 31
0.0
  0
MTEXT
  5
27F
330
277
100
AcDbEntity
  8
0
  6
Continuous
 62
     7
370
     0
100
AcDbMText
 10
107.8820379316
 20
195.041953737
 30
0.0
 40
3.5
 41
0.0
 71
     1
 72
     1
  1
53.4
  7
SLDTEXTSTYLE0
 11
-1.059690869644414E-14
 21
1.0
 31
0.0
 73
     1
 44
1.0
  0
ENDBLK
  5
279
330
277
100
AcDbEntity
  8
0
100
AcDbBlockEnd
  0
BLOCK
  5
282
330
281
100
AcDbEntity
  8
0
100
AcDbBlockBegin
  2
_D_10
 70
     0
 10
0.0
 20
0.0
 30
0.0
  3
_D_10
  1

  0
SOLID
  5
284
330
281
100
AcDbEntity
  8
0
  6
Continuous
 62
     7
370
     0
100
AcDbTrace
 10
112.393774788
 20
172.415564732
 30
0.0
 11
111.643774788
 21
169.415564732
 31
0.0
 12
113.143774788
 22
169.415564732
 32
0.0
 13
113.143774788
 23
169.415564732
 33
0.0
  0
SOLID
  5
285
330
281
100
AcDbEntity
  8
0
  6
Continuous
 62
     7
370
     0
100
AcDbTrace
 10
112.393774788
 20
156.415564732
 30
0.0
 11
113.143774788
 21
159.415564732
 31
0.0
 12
111.643774788
 22
159.415564732
 32
0.0
 13
111.643774788
 23
159.415564732
 33
0.0
  0
LINE
  5
286
330
281
100
AcDbEntity
  8
0
  6
Continuous
 62
     7
370
     0
100
AcDbLine
 10
97.5920622644
 20
172.415564732
 30
0.0
 11
113.393774788
 21
172.415564732
 31
0.0
  0
LINE
  5
287
330
281
100
AcDbEntity
  8
0
  6
Continuous
 62
     7
370
     0
100
AcDbLine
 10
83.0920622644
 20
156.415564732
 30
0.0
 11
113.393774788
 21
156.415564732
 31
0.0
  0
LINE
  5
288
330
281
100
AcDbEntity
  8
0
  6
Continuous
 62
     7
370
     0
100
AcDbLine
 10
112.393774788
 20
172.415564732
 30
0.0
 11
112.393774788
 21
156.415564732
 31
0.0
  0
MTEXT
  5
289
330
281
100
AcDbEntity
  8
0
  6
Continuous
 62
     7
370
     0
100
AcDbMText
 10
107.8820379316
 20
162.3787592345
 30
0.0
 40
3.5
 41
0.0
 71
     1
 72
     1
  1
16
  7
SLDTEXTSTYLE0
 11
-1.059690869644414E-14
 21
1.0
 31
0.0
 73
     1
 44
1.0
  0
ENDBLK
  5
283
330
281
100
AcDbEntity
  8
0
100
AcDbBlockEnd
  0
BLOCK
  5
28C
330
28B
100
AcDbEntity
  8
0
100
AcDbBlockBegin
  2
_D_11
 70
     0
 10
0.0
 20
0.0
 30
0.0
  3
_D_11
  1

  0
SOLID
  5
28E
330
28B
100
AcDbEntity
  8
0
  6
Continuous
 62
     7
370
     0
100
AcDbTrace
 10
71.0920622644
 20
139.6860309708
 30
0.0
 11
68.0920622644
 21
140.4360309708
 31
0.0
 12
68.0920622644
 22
138.9360309708
 32
0.0
 13
68.0920622644
 23
138.9360309708
 33
0.0
  0
SOLID
  5
28F
330
28B
100
AcDbEntity
  8
0
  6
Continuous
 62
     7
370
     0
100
AcDbTrace
 10
83.0920622644
 20
139.6860309708
 30
0.0
 11
86.0920622644
 21
138.9360309708
 31
0.0
 12
86.0920622644
 22
140.4360309708
 32
0.0
 13
86.0920622644
 23
140.4360309708
 33
0.0
  0
LINE
  5
290
330
28B
100
AcDbEntity
  8
0
  6
Continuous
 62
     7
370
     0
100
AcDbLine
 10
71.0920622644
 20
156.415564732
 30
0.0
 11
71.0920622644
 21
138.6860309708
 31
0.0
  0
LINE
  5
291
330
28B
100
AcDbEntity
  8
0
  6
Continuous
 62
     7
370
     0
100
AcDbLine
 10
83.0920622644
 20
156.415564732
 30
0.0
 11
83.0920622644
 21
138.6860309708
 31
0.0
  0
LINE
  5
292
330
28B
100
AcDbEntity
  8
0
  6
Continuous
 62
     7
370
     0
100
AcDbLine
 10
71.0920622644
 20
139.6860309708
 30
0.0
 11
66.0920622644
 21
139.6860309708
 31
0.0
  0
LINE
  5
293
330
28B
100
AcDbEntity
  8
0
  6
Continuous
 62
     7
370
     0
100
AcDbLine
 10
71.0920622644
 20
139.6860309708
 30
0.0
 11
83.0920622644
 21
139.6860309708
 31
0.0
  0
LINE
  5
294
330
28B
100
AcDbEntity
  8
0
  6
Continuous
 62
     7
370
     0
100
AcDbLine
 10
83.0920622644
 20
139.6860309708
 30
0.0
 11
88.0920622644
 21
139.6860309708
 31
0.0
  0
MTEXT
  5
295
330
28B
100
AcDbEntity
  8
0
  6
Continuous
 62
     7
370
     0
100
AcDbMText
 10
73.120291393
 20
144.1977682929
 30
0.0
 40
3.5
 41
0.0
 71
     1
 72
     1
  1
%%c
  7
SLDTEXTSTYLE0
 73
     1
 44
1.0
  0
MTEXT
  5
296
330
28B
100
AcDbEntity
  8
0
  6
Continuous
 62
     7
370
     0
100
AcDbMText
 10
76.990221908
 20
144.1977682929
 30
0.0
 40
3.5
 41
0.0
 71
     1
 72
     1
  1
12
  7
SLDTEXTSTYLE0
 73
     1
 44
1.0
  0
ENDBLK
  5
28D
330
28B
100
AcDbEntity
  8
0
100
AcDbBlockEnd
  0
BLOCK
  5
299
330
298
100
AcDbEntity
  8
0
100
AcDbBlockBegin
  2
_D_12
 70
     0
 10
0.0
 20
0.0
 30
0.0
  3
_D_12
  1

  0
SOLID
  5
29B
330
298
100
AcDbEntity
  8
0
  6
Continuous
 62
     7
370
     0
100
AcDbTrace
 10
64.5920622644
 20
132.0761092076
 30
0.0
 11
67.5920622644
 21
131.3261092076
 31
0.0
 12
67.5920622644
 22
132.8261092076
 32
0.0
 13
67.5920622644
 23
132.8261092076
 33
0.0
  0
SOLID
  5
29C
330
298
100
AcDbEntity
  8
0
  6
Continuous
 62
     7
370
     0
100
AcDbTrace
 10
89.5920622644
 20
132.0761092076
 30
0.0
 11
86.5920622644
 21
132.8261092076
 31
0.0
 12
86.5920622644
 22
131.3261092076
 32
0.0
 13
86.5920622644
 23
131.3261092076
 33
0.0
  0
LINE
  5
29D
330
298
100
AcDbEntity
  8
0
  6
Continuous
 62
     7
370
     0
100
AcDbLine
 10
64.5920622644
 20
175.915564732
 30
0.0
 11
64.5920622644
 21
131.0761092076
 31
0.0
  0
LINE
  5
29E
330
298
100
AcDbEntity
  8
0
  6
Continuous
 62
     7
370
     0
100
AcDbLine
 10
89.5920622644
 20
175.915564732
 30
0.0
 11
89.5920622644
 21
131.0761092076
 31
0.0
  0
LINE
  5
29F
330
298
100
AcDbEntity
  8
0
  6
Continuous
 62
     7
370
     0
100
AcDbLine
 10
64.5920622644
 20
132.0761092076
 30
0.0
 11
89.5920622644
 21
132.0761092076
 31
0.0
  0
MTEXT
  5
2A0
330
298
100
AcDbEntity
  8
0
  6
Continuous
 62
     7
370
     0
100
AcDbMText
 10
75.0552567669
 20
136.587846064
 30
0.0
 40
3.5
 41
0.0
 71
     1
 72
     1
  1
25
  7
SLDTEXTSTYLE0
 73
     1
 44
1.0
  0
ENDBLK
  5
29A
330
298
100
AcDbEntity
  8
0
100
AcDbBlockEnd
  0
BLOCK
  5
2A3
330
2A2
100
AcDbEntity
  8
0
100
AcDbBlockBegin
  2
_D_13
 70
     0
 10
0.0
 20
0.0
 30
0.0
  3
_D_13
  1

  0
SOLID
  5
2A5
330
2A2
100
AcDbEntity
  8
0
  6
Continuous
 62
     7
370
     0
100
AcDbTrace
 10
96.5920622644
 20
124.415564732
 30
0.0
 11
93.5920622644
 21
125.165564732
 31
0.0
 12
93.5920622644
 22
123.665564732
 32
0.0
 13
93.5920622644
 23
123.665564732
 33
0.0
  0
SOLID
  5
2A6
330
2A2
100
AcDbEntity
  8
0
  6
Continuous
 62
     7
370
     0
100
AcDbTrace
 10
57.5920622644
 20
124.415564732
 30
0.0
 11
60.5920622644
 21
123.665564732
 31
0.0
 12
60.5920622644
 22
125.165564732
 32
0.0
 13
60.5920622644
 23
125.165564732
 33
0.0
  0
LINE
  5
2A7
330
2A2
100
AcDbEntity
  8
0
  6
Continuous
 62
     7
370
     0
100
AcDbLine
 10
96.5920622644
 20
171.415564732
 30
0.0
 11
96.5920622644
 21
123.415564732
 31
0.0
  0
LINE
  5
2A8
330
2A2
100
AcDbEntity
  8
0
  6
Continuous
 62
     7
370
     0
100
AcDbLine
 10
57.5920622644
 20
171.415564732
 30
0.0
 11
57.5920622644
 21
123.415564732
 31
0.0
  0
LINE
  5
2A9
330
2A2
100
AcDbEntity
  8
0
  6
Continuous
 62
     7
370
     0
100
AcDbLine
 10
96.5920622644
 20
124.415564732
 30
0.0
 11
57.5920622644
 21
124.415564732
 31
0.0
  0
MTEXT
  5
2AA
330
2A2
100
AcDbEntity
  8
0
  6
Continuous
 62
     7
370
     0
100
AcDbMText
 10
75.0552567669
 20
128.9273015884
 30
0.0
 40
3.5
 41
0.0
 71
     1
 72
     1
  1
39
  7
SLDTEXTSTYLE0
 73
     1
 44
1.0
  0
ENDBLK
  5
2A4
330
2A2
100
AcDbEntity
  8
0
100
AcDbBlockEnd
  0
BLOCK
  5
2AE
330
2AD
100
AcDbEntity
  8
0
100
AcDbBlockBegin
  2
_D_14
 70
     0
 10
0.0
 20
0.0
 30
0.0
  3
_D_14
  1

  0
SOLID
  5
2B0
330
2AD
100
AcDbEntity
  8
0
  6
Continuous
 62
     7
370
     0
100
AcDbTrace
 10
62.8242953114
 20
178.683331685
 30
0.0
 11
61.2333050537
 21
181.3349821144
 31
0.0
 12
60.172644882
 22
180.2743219426
 32
0.0
 13
60.172644882
 23
180.2743219426
 33
0.0
  0
LINE
  5
2B1
330
2AD
100
AcDbEntity
  8
0
  6
Continuous
 62
     7
370
     0
100
AcDbLine
 10
62.8242953114
 20
178.683331685
 30
0.0
 11
56.0406658154
 21
185.4669611809
 31
0.0
  0
LINE
  5
2B2
330
2AD
100
AcDbEntity
  8
0
  6
Continuous
 62
     7
370
     0
100
AcDbLine
 10
56.0406658154
 20
185.4669611809
 30
0.0
 11
21.864281581
 21
185.4669611809
 31
0.0
  0
MTEXT
  5
2B3
330
2AD
100
AcDbEntity
  8
0
  6
Continuous
 62
     7
370
     0
100
AcDbMText
 10
27.9746964436
 20
194.0523090323
 30
0.0
 40
3.5
 41
0.0
 71
     1
 72
     1
  1
3-
  7
SLDTEXTSTYLE0
 73
     1
 44
1.0
  0
MTEXT
  5
2B4
330
2AD
100
AcDbEntity
  8
0
  6
Continuous
 62
     7
370
     0
100
AcDbMText
 10
32.0483074386
 20
194.0523090323
 30
0.0
 40
3.5
 41
0.0
 71
     1
 72
     1
  1
M5
  7
SLDTEXTSTYLE0
 73
     1
 44
1.0
  0
MTEXT
  5
2B5
330
2AD
100
AcDbEntity
  8
0
  6
Continuous
 62
     7
370
     0
100
AcDbMText
 10
36.1219184336
 20
194.0523090323
 30
0.0
 40
3.5
 41
0.0
 71
     1
 72
     1
  1
取付穴
  7
SLDTEXTSTYLE0
 73
     1
 44
1.0
  0
MTEXT
  5
2B6
330
2AD
100
AcDbEntity
  8
0
  6
Continuous
 62
     7
370
     0
100
AcDbMText
 10
21.864281581
 20
189.9786980373
 30
0.0
 40
3.5
 41
0.0
 71
     1
 72
     1
  1
(両側口元面取有)
  7
SLDTEXTSTYLE0
 73
     1
 44
1.0
  0
ENDBLK
  5
2AF
330
2AD
100
AcDbEntity
  8
0
100
AcDbBlockEnd
  0
BLOCK
  5
2B8
330
2B7
100
AcDbEntity
  8
0
100
AcDbBlockBegin
  2
SW_NOTE_0
 70
     0
 10
0.0
 20
0.0
 30
0.0
  3
SW_NOTE_0
  1

  0
LINE
  5
2BA
330
2B7
100
AcDbEntity
  8
0
  6
Continuous
 62
     0
370
     0
100
AcDbLine
 10
-8.2682873652
 20
0.0
 30
0.0
 11
0.0
 21
0.0
 31
0.0
  0
MTEXT
  5
2BB
330
2B7
100
AcDbEntity
  8
0
  6
Continuous
 62
     0
370
     0
100
AcDbMText
 10
-8.6599333567
 20
4.6114100916
 30
0.0
 40
3.5
 41
0.0
 71
     1
 72
     1
  1
BF-5
  7
SLDTEXTSTYLE0
 73
     1
 44
1.0
  0
ENDBLK
  5
2B9
330
2B7
100
AcDbEntity
  8
0
100
AcDbBlockEnd
  0
BLOCK
  5
2C0
330
2BF
100
AcDbEntity
  8
0
100
AcDbBlockBegin
  2
SW_CENTERMARKSYMBOL_0
 70
     0
 10
0.0
 20
0.0
 30
0.0
  3
SW_CENTERMARKSYMBOL_0
  1

  0
LINE
  5
2C2
330
2BF
100
AcDbEntity
  8
0
  6
Continuous
 62
     0
370
     0
100
AcDbLine
 10
0.0
 20
0.0
 30
0.0
 11
0.0
 21
2.5
 31
0.0
  0
LINE
  5
2C3
330
2BF
100
AcDbEntity
  8
0
  6
Continuous
 62
     0
370
     0
100
AcDbLine
 10
0.0
 20
0.0
 30
0.0
 11
-2.5
 21
0.0
 31
0.0
  0
LINE
  5
2C4
330
2BF
100
AcDbEntity
  8
0
  6
Continuous
 62
     0
370
     0
100
AcDbLine
 10
0.0
 20
0.0
 30
0.0
 11
0.0
 21
-2.5
 31
0.0
  0
LINE
  5
2C5
330
2BF
100
AcDbEntity
  8
0
  6
Continuous
 62
     0
370
     0
100
AcDbLine
 10
0.0
 20
0.0
 30
0.0
 11
2.5
 21
0.0
 31
0.0
  0
LINE
  5
2C6
330
2BF
100
AcDbEntity
  8
0
  6
Continuous
 62
     0
370
     0
100
AcDbLine
 10
0.0
 20
5.0
 30
0.0
 11
0.0
 21
5.125
 31
0.0
  0
LINE
  5
2C7
330
2BF
100
AcDbEntity
  8
0
  6
Continuous
 62
     0
370
     0
100
AcDbLine
 10
-5.0
 20
0.0
 30
0.0
 11
-5.125
 21
0.0
 31
0.0
  0
LINE
  5
2C8
330
2BF
100
AcDbEntity
  8
0
  6
Continuous
 62
     0
370
     0
100
AcDbLine
 10
0.0
 20
-5.0
 30
0.0
 11
0.0
 21
-5.125
 31
0.0
  0
LINE
  5
2C9
330
2BF
100
AcDbEntity
  8
0
  6
Continuous
 62
     0
370
     0
100
AcDbLine
 10
5.0
 20
0.0
 30
0.0
 11
5.125
 21
0.0
 31
0.0
  0
ENDBLK
  5
2C1
330
2BF
100
AcDbEntity
  8
0
100
AcDbBlockEnd
  0
BLOCK
  5
2CC
330
2CB
100
AcDbEntity
  8
0
100
AcDbBlockBegin
  2
SW_CENTERMARKSYMBOL_1
 70
     0
 10
0.0
 20
0.0
 30
0.0
  3
SW_CENTERMARKSYMBOL_1
  1

  0
LINE
  5
2CE
330
2CB
100
AcDbEntity
  8
0
  6
Continuous
 62
     0
370
     0
100
AcDbLine
 10
0.0
 20
0.0
 30
0.0
 11
0.0
 21
2.5
 31
0.0
  0
LINE
  5
2CF
330
2CB
100
AcDbEntity
  8
0
  6
Continuous
 62
     0
370
     0
100
AcDbLine
 10
0.0
 20
0.0
 30
0.0
 11
-2.5
 21
0.0
 31
0.0
  0
LINE
  5
2D0
330
2CB
100
AcDbEntity
  8
0
  6
Continuous
 62
     0
370
     0
100
AcDbLine
 10
0.0
 20
0.0
 30
0.0
 11
0.0
 21
-2.5
 31
0.0
  0
LINE
  5
2D1
330
2CB
100
AcDbEntity
  8
0
  6
Continuous
 62
     0
370
     0
100
AcDbLine
 10
0.0
 20
0.0
 30
0.0
 11
2.5
 21
0.0
 31
0.0
  0
LINE
  5
2D2
330
2CB
100
AcDbEntity
  8
0
  6
Continuous
 62
     0
370
     0
100
AcDbLine
 10
0.0
 20
5.0
 30
0.0
 11
0.0
 21
5.125
 31
0.0
  0
LINE
  5
2D3
330
2CB
100
AcDbEntity
  8
0
  6
Continuous
 62
     0
370
     0
100
AcDbLine
 10
-5.0
 20
0.0
 30
0.0
 11
-5.125
 21
0.0
 31
0.0
  0
LINE
  5
2D4
330
2CB
100
AcDbEntity
  8
0
  6
Continuous
 62
     0
370
     0
100
AcDbLine
 10
0.0
 20
-5.0
 30
0.0
 11
0.0
 21
-5.125
 31
0.0
  0
LINE
  5
2D5
330
2CB
100
AcDbEntity
  8
0
  6
Continuous
 62
     0
370
     0
100
AcDbLine
 10
5.0
 20
0.0
 30
0.0
 11
5.125
 21
0.0
 31
0.0
  0
ENDBLK
  5
2CD
330
2CB
100
AcDbEntity
  8
0
100
AcDbBlockEnd
  0
BLOCK
  5
2D8
330
2D7
100
AcDbEntity
  8
0
100
AcDbBlockBegin
  2
SW_CENTERMARKSYMBOL_2
 70
     0
 10
0.0
 20
0.0
 30
0.0
  3
SW_CENTERMARKSYMBOL_2
  1

  0
LINE
  5
2DA
330
2D7
100
AcDbEntity
  8
0
  6
Continuous
 62
     0
370
     0
100
AcDbLine
 10
0.0
 20
0.0
 30
0.0
 11
0.0
 21
2.5
 31
0.0
  0
LINE
  5
2DB
330
2D7
100
AcDbEntity
  8
0
  6
Continuous
 62
     0
370
     0
100
AcDbLine
 10
0.0
 20
0.0
 30
0.0
 11
-2.5
 21
0.0
 31
0.0
  0
LINE
  5
2DC
330
2D7
100
AcDbEntity
  8
0
  6
Continuous
 62
     0
370
     0
100
AcDbLine
 10
0.0
 20
0.0
 30
0.0
 11
0.0
 21
-2.5
 31
0.0
  0
LINE
  5
2DD
330
2D7
100
AcDbEntity
  8
0
  6
Continuous
 62
     0
370
     0
100
AcDbLine
 10
0.0
 20
0.0
 30
0.0
 11
2.5
 21
0.0
 31
0.0
  0
LINE
  5
2DE
330
2D7
100
AcDbEntity
  8
0
  6
Continuous
 62
     0
370
     0
100
AcDbLine
 10
0.0
 20
5.0
 30
0.0
 11
0.0
 21
51.8025050338
 31
0.0
  0
LINE
  5
2DF
330
2D7
100
AcDbEntity
  8
0
  6
Continuous
 62
     0
370
     0
100
AcDbLine
 10
-5.0
 20
0.0
 30
0.0
 11
-5.125
 21
0.0
 31
0.0
  0
LINE
  5
2E0
330
2D7
100
AcDbEntity
  8
0
  6
Continuous
 62
     0
370
     0
100
AcDbLine
 10
0.0
 20
-5.0
 30
0.0
 11
0.0
 21
-62.7059376023
 31
0.0
  0
LINE
  5
2E1
330
2D7
100
AcDbEntity
  8
0
  6
Continuous
 62
     0
370
     0
100
AcDbLine
 10
5.0
 20
0.0
 30
0.0
 11
5.125
 21
0.0
 31
0.0
  0
ENDBLK
  5
2D9
330
2D7
100
AcDbEntity
  8
0
100
AcDbBlockEnd
  0
BLOCK
  5
37B
330
37A
100
AcDbEntity
  8
0
100
AcDbBlockBegin
  2
_D_15
 70
     0
 10
0.0
 20
0.0
 30
0.0
  3
_D_15
  1

  0
ARC
  5
37D
330
37A
100
AcDbEntity
  8
0
  6
Continuous
 62
     7
370
     0
100
AcDbCircle
 10
77.2536492391
 20
47.4200466941
 30
0.0
 40
4.55443554931596
100
AcDbArc
 50
153.4349488229
 51
206.5650511771
  0
ARC
  5
37E
330
37A
100
AcDbEntity
  8
0
  6
Continuous
 62
     7
370
     0
100
AcDbCircle
 10
73.1800382442
 20
47.4200466941
 30
0.0
 40
4.554435549315972
100
AcDbArc
 50
333.4349488229
 51
26.5650511771
  0
SOLID
  5
37F
330
37A
100
AcDbEntity
  8
0
  6
Continuous
 62
     7
370
     0
100
AcDbTrace
 10
52.127972862
 20
45.3832411966
 30
0.0
 11
55.127972862
 21
44.6332411966
 31
0.0
 12
55.127972862
 22
46.1332411966
 32
0.0
 13
55.127972862
 23
46.1332411966
 33
0.0
  0
SOLID
  5
380
330
37A
100
AcDbEntity
  8
0
  6
Continuous
 62
     7
370
     0
100
AcDbTrace
 10
98.3057147377
 20
45.3832411966
 30
0.0
 11
95.3057147377
 21
46.1332411966
 31
0.0
 12
95.3057147377
 22
44.6332411966
 32
0.0
 13
95.3057147377
 23
44.6332411966
 33
0.0
  0
LINE
  5
381
330
37A
100
AcDbEntity
  8
0
  6
Continuous
 62
     7
370
     0
100
AcDbLine
 10
52.127972862
 20
82.9185218699
 30
0.0
 11
52.127972862
 21
44.3832411966
 31
0.0
  0
LINE
  5
382
330
37A
100
AcDbEntity
  8
0
  6
Continuous
 62
     7
370
     0
100
AcDbLine
 10
98.3057147377
 20
68.4185218699
 30
0.0
 11
98.3057147377
 21
44.3832411966
 31
0.0
  0
LINE
  5
383
330
37A
100
AcDbEntity
  8
0
  6
Continuous
 62
     7
370
     0
100
AcDbLine
 10
52.127972862
 20
45.3832411966
 30
0.0
 11
98.3057147377
 21
45.3832411966
 31
0.0
  0
MTEXT
  5
384
330
37A
100
AcDbEntity
  8
0
  6
Continuous
 62
     7
370
     0
100
AcDbMText
 10
73.1800382442
 20
49.894978053
 30
0.0
 40
3.5
 41
0.0
 71
     1
 72
     1
  1
47
  7
SLDTEXTSTYLE0
 73
     1
 44
1.0
  0
ENDBLK
  5
37C
330
37A
100
AcDbEntity
  8
0
100
AcDbBlockEnd
  0
BLOCK
  5
387
330
386
100
AcDbEntity
  8
0
100
AcDbBlockBegin
  2
_D_16
 70
     0
 10
0.0
 20
0.0
 30
0.0
  3
_D_16
  1

  0
ARC
  5
389
330
386
100
AcDbEntity
  8
0
  6
Continuous
 62
     7
370
     0
100
AcDbCircle
 10
87.6988884428
 20
57.4553273674
 30
0.0
 40
4.554435549315962
100
AcDbArc
 50
153.4349488229
 51
206.5650511771
  0
ARC
  5
38A
330
386
100
AcDbEntity
  8
0
  6
Continuous
 62
     7
370
     0
100
AcDbCircle
 10
87.6988884428
 20
57.4553273674
 30
0.0
 40
4.554435549315972
100
AcDbArc
 50
333.4349488229
 51
26.5650511771
  0
SOLID
  5
38B
330
386
100
AcDbEntity
  8
0
  6
Continuous
 62
     7
370
     0
100
AcDbTrace
 10
98.3057147377
 20
55.4185218699
 30
0.0
 11
95.3057147377
 21
56.1685218699
 31
0.0
 12
95.3057147377
 22
54.6685218699
 32
0.0
 13
95.3057147377
 23
54.6685218699
 33
0.0
  0
SOLID
  5
38C
330
386
100
AcDbEntity
  8
0
  6
Continuous
 62
     7
370
     0
100
AcDbTrace
 10
77.0920622644
 20
55.4185218699
 30
0.0
 11
80.0920622644
 21
54.6685218699
 31
0.0
 12
80.0920622644
 22
56.1685218699
 32
0.0
 13
80.0920622644
 23
56.1685218699
 33
0.0
  0
LINE
  5
38D
330
386
100
AcDbEntity
  8
0
  6
Continuous
 62
     7
370
     0
100
AcDbLine
 10
98.3057147377
 20
68.4185218699
 30
0.0
 11
98.3057147377
 21
54.4185218699
 31
0.0
  0
LINE
  5
38E
330
386
100
AcDbEntity
  8
0
  6
Continuous
 62
     7
370
     0
100
AcDbLine
 10
77.0920622644
 20
72.4185218699
 30
0.0
 11
77.0920622644
 21
54.4185218699
 31
0.0
  0
LINE
  5
38F
330
386
100
AcDbEntity
  8
0
  6
Continuous
 62
     7
370
     0
100
AcDbLine
 10
98.3057147377
 20
55.4185218699
 30
0.0
 11
77.0920622644
 21
55.4185218699
 31
0.0
  0
MTEXT
  5
390
330
386
100
AcDbEntity
  8
0
  6
Continuous
 62
     7
370
     0
100
AcDbMText
 10
83.6252774479
 20
59.9302587263
 30
0.0
 40
3.5
 41
0.0
 71
     1
 72
     1
  1
21.5
  7
SLDTEXTSTYLE0
 73
     1
 44
1.0
  0
ENDBLK
  5
388
330
386
100
AcDbEntity
  8
0
100
AcDbBlockEnd
  0
BLOCK
  5
392
330
391
100
AcDbEntity
  8
0
100
AcDbBlockBegin
  2
SW_CENTERMARKSYMBOL_3
 70
     0
 10
0.0
 20
0.0
 30
0.0
  3
SW_CENTERMARKSYMBOL_3
  1

  0
LINE
  5
394
330
391
100
AcDbEntity
  8
0
  6
Continuous
 62
     0
370
     0
100
AcDbLine
 10
0.0
 20
0.0
 30
0.0
 11
0.0
 21
2.5
 31
0.0
  0
LINE
  5
395
330
391
100
AcDbEntity
  8
0
  6
Continuous
 62
     0
370
     0
100
AcDbLine
 10
0.0
 20
0.0
 30
0.0
 11
-2.5
 21
0.0
 31
0.0
  0
LINE
  5
396
330
391
100
AcDbEntity
  8
0
  6
Continuous
 62
     0
370
     0
100
AcDbLine
 10
0.0
 20
0.0
 30
0.0
 11
0.0
 21
-2.5
 31
0.0
  0
LINE
  5
397
330
391
100
AcDbEntity
  8
0
  6
Continuous
 62
     0
370
     0
100
AcDbLine
 10
0.0
 20
0.0
 30
0.0
 11
2.5
 21
0.0
 31
0.0
  0
LINE
  5
398
330
391
100
AcDbEntity
  8
0
  6
Continuous
 62
     0
370
     0
100
AcDbLine
 10
0.0
 20
5.0
 30
0.0
 11
0.0
 21
7.5
 31
0.0
  0
LINE
  5
399
330
391
100
AcDbEntity
  8
0
  6
Continuous
 62
     0
370
     0
100
AcDbLine
 10
-5.0
 20
0.0
 30
0.0
 11
-7.5
 21
0.0
 31
0.0
  0
LINE
  5
39A
330
391
100
AcDbEntity
  8
0
  6
Continuous
 62
     0
370
     0
100
AcDbLine
 10
0.0
 20
-5.0
 30
0.0
 11
0.0
 21
-7.5
 31
0.0
  0
LINE
  5
39B
330
391
100
AcDbEntity
  8
0
  6
Continuous
 62
     0
370
     0
100
AcDbLine
 10
5.0
 20
0.0
 30
0.0
 11
7.5
 21
0.0
 31
0.0
  0
ENDBLK
  5
393
330
391
100
AcDbEntity
  8
0
100
AcDbBlockEnd
  0
ENDSEC
  0
SECTION
  2
ENTITIES
  0
LINE
  5
73
330
1F
100
AcDbEntity
  8
0
  6
Continuous
 62
     7
370
     0
100
AcDbLine
 10
20.2604743903
 20
285.0
 30
0.0
 11
196.7604743903
 21
285.0
 31
0.0
  0
LINE
  5
74
330
1F
100
AcDbEntity
  8
0
  6
Continuous
 62
     7
370
     0
100
AcDbLine
 10
20.2604743903
 20
285.0
 30
0.0
 11
20.2604743903
 21
10.0
 31
0.0
  0
LINE
  5
75
330
1F
100
AcDbEntity
  8
0
  6
Continuous
 62
     7
370
     0
100
AcDbLine
 10
20.2604743903
 20
10.0
 30
0.0
 11
196.7604743903
 21
10.0
 31
0.0
  0
LINE
  5
76
330
1F
100
AcDbEntity
  8
0
  6
Continuous
 62
     7
370
     0
100
AcDbLine
 10
196.7604743903
 20
285.0
 30
0.0
 11
196.7604743903
 21
10.0
 31
0.0
  0
LINE
  5
77
330
1F
100
AcDbEntity
  8
0
  6
Continuous
 62
     7
370
     0
100
AcDbLine
 10
127.0104743903
 20
50.75
 30
0.0
 11
196.7604743903
 21
50.75
 31
0.0
  0
LINE
  5
78
330
1F
100
AcDbEntity
  8
0
  6
Continuous
 62
     7
370
     0
100
AcDbLine
 10
127.0104743903
 20
50.75
 30
0.0
 11
127.0104743903
 21
10.0
 31
0.0
  0
LINE
  5
79
330
1F
100
AcDbEntity
  8
0
  6
Continuous
 62
     7
370
     0
100
AcDbLine
 10
127.0104743903
 20
22.75
 30
0.0
 11
196.7604743903
 21
22.75
 31
0.0
  0
LINE
  5
7A
330
1F
100
AcDbEntity
  8
0
  6
Continuous
 62
     7
370
     0
100
AcDbLine
 10
127.0104743903
 20
36.75
 30
0.0
 11
196.7604743903
 21
36.75
 31
0.0
  0
MTEXT
  5
7C
330
1F
100
AcDbEntity
  8
0
  6
Continuous
 62
     7
370
     0
100
AcDbMText
 10
161.2646790404
 20
30.4171582345
 30
0.0
 40
4.2333333333
 41
0.0
 71
     2
 72
     1
  1
CHK-EL2L-12-C
  7
SLDTEXTSTYLE0
 73
     1
 44
1.0
  0
MTEXT
  5
7D
330
1F
100
AcDbEntity
  8
0
  6
Continuous
 62
     7
370
     0
100
AcDbMText
 10
159.9514411051
 20
45.2053413013
 30
0.0
 40
3.175
 41
0.0
 71
     2
 72
     1
  1
ランナーチャックEL(近接センサー付)
  7
SLDTEXTSTYLE0
 73
     1
 44
1.0
  0
MTEXT
  5
7E
330
1F
100
AcDbEntity
  8
0
  6
Continuous
 62
     7
370
     0
100
AcDbMText
 10
162.5736351856
 20
16.8228189052
 30
0.0
 40
4.2333333333
 41
0.0
 71
     2
 72
     1
  1
023160
  7
SLDTEXTSTYLE0
 73
     1
 44
1.0
  0
LINE
  5
7F
330
1F
100
AcDbEntity
  8
0
  6
Continuous
 62
     7
370
     0
100
AcDbLine
 10
158.7456847679
 20
157.4155646538
 30
0.0
 11
159.7456849318
 21
156.4155663525
 31
0.0
  0
LINE
  5
80
330
1F
100
AcDbEntity
  8
0
  6
Continuous
 62
     7
370
     0
100
AcDbLine
 10
169.7456847083
 20
156.4155663525
 30
0.0
 11
170.7456848722
 21
157.4155646538
 31
0.0
  0
LINE
  5
81
330
1F
100
AcDbEntity
  8
0
  6
Continuous
 62
     7
370
     0
100
AcDbLine
 10
158.7456847679
 20
172.4155652498
 30
0.0
 11
158.7456847679
 21
157.4155646538
 31
0.0
  0
LINE
  5
82
330
1F
100
AcDbEntity
  8
0
  6
Continuous
 62
     7
370
     0
100
AcDbLine
 10
170.7456848722
 20
157.4155646538
 30
0.0
 11
170.7456848722
 21
172.4155652498
 31
0.0
  0
ARC
  5
83
330
1F
100
AcDbEntity
  8
0
  6
Continuous
 62
     7
370
     0
100
AcDbCircle
 10
145.1491863527
 20
239.6323308635
 30
0.0
 40
0.2700000000000387
100
AcDbArc
 50
212.3360259976
 51
270.0
  0
ARC
  5
84
330
1F
100
AcDbEntity
  8
0
  6
Continuous
 62
     7
370
     0
100
AcDbCircle
 10
145.1491863527
 20
244.6923308635
 30
0.0
 40
0.2699999999999894
100
AcDbArc
 50
90.0
 51
147.6639740024
  0
LINE
  5
85
330
1F
100
AcDbEntity
  8
0
  6
Continuous
 62
     7
370
     0
100
AcDbLine
 10
145.1491863605
 20
239.3623325204
 30
0.0
 11
145.745685431
 21
239.3623325204
 31
0.0
  0
LINE
  5
86
330
1F
100
AcDbEntity
  8
0
  6
Continuous
 62
     7
370
     0
100
AcDbLine
 10
145.745685431
 20
244.9623304581
 30
0.0
 11
145.1491863605
 21
244.9623304581
 31
0.0
  0
ARC
  5
87
330
1F
100
AcDbEntity
  8
0
  6
Continuous
 62
     7
370
     0
100
AcDbCircle
 10
149.1456848201
 20
242.1623308635
 30
0.0
 40
5.000000000000001
100
AcDbArc
 50
147.6639740024
 51
164.3983333807
  0
ARC
  5
88
330
1F
100
AcDbEntity
  8
0
  6
Continuous
 62
     7
370
     0
100
AcDbCircle
 10
149.1456848201
 20
242.1623308635
 30
0.0
 40
4.999999999999987
100
AcDbArc
 50
195.6016666193
 51
212.3360259976
  0
LINE
  5
89
330
1F
100
AcDbEntity
  8
0
  6
Continuous
 62
     7
370
     0
100
AcDbLine
 10
168.74568501
 20
153.4155639981
 30
0.0
 11
169.0456849661
 21
153.7155653512
 31
0.0
  0
LINE
  5
8A
330
1F
100
AcDbEntity
  8
0
  6
Continuous
 62
     7
370
     0
100
AcDbLine
 10
162.945684851
 20
148.4155650412
 30
0.0
 11
163.245684807
 21
146.4155647134
 31
0.0
  0
LINE
  5
8B
330
1F
100
AcDbEntity
  8
0
  6
Continuous
 62
     7
370
     0
100
AcDbLine
 10
166.2456848331
 20
146.4155647134
 30
0.0
 11
166.5456847891
 21
148.4155650412
 31
0.0
  0
LINE
  5
8C
330
1F
100
AcDbEntity
  8
0
  6
Continuous
 62
     7
370
     0
100
AcDbLine
 10
166.5456847891
 20
148.4155650412
 30
0.0
 11
166.5456847891
 21
148.9155660545
 31
0.0
  0
LINE
  5
8D
330
1F
100
AcDbEntity
  8
0
  6
Continuous
 62
     7
370
     0
100
AcDbLine
 10
162.945684851
 20
148.9155660545
 30
0.0
 11
162.945684851
 21
148.4155650412
 31
0.0
  0
LINE
  5
8E
330
1F
100
AcDbEntity
  8
0
  6
Continuous
 62
     7
370
     0
100
AcDbLine
 10
162.945684851
 20
150.9155663823
 30
0.0
 11
163.1456848605
 21
148.9155660545
 31
0.0
  0
LINE
  5
8F
330
1F
100
AcDbEntity
  8
0
  6
Continuous
 62
     7
370
     0
100
AcDbLine
 10
166.3456847796
 20
148.9155660545
 30
0.0
 11
166.5456847891
 21
150.9155663823
 31
0.0
  0
LINE
  5
90
330
1F
100
AcDbEntity
  8
0
  6
Continuous
 62
     7
370
     0
100
AcDbLine
 10
166.5456847891
 20
150.9155663823
 30
0.0
 11
166.5456847891
 21
151.4155636703
 31
0.0
  0
LINE
  5
91
330
1F
100
AcDbEntity
  8
0
  6
Continuous
 62
     7
370
     0
100
AcDbLine
 10
162.945684851
 20
151.4155636703
 30
0.0
 11
162.945684851
 21
150.9155663823
 31
0.0
  0
LINE
  5
92
330
1F
100
AcDbEntity
  8
0
  6
Continuous
 62
     7
370
     0
100
AcDbLine
 10
160.445684674
 20
153.7155653512
 30
0.0
 11
160.7456846301
 21
153.4155639981
 31
0.0
  0
LINE
  5
93
330
1F
100
AcDbEntity
  8
0
  6
Continuous
 62
     7
370
     0
100
AcDbLine
 10
166.3456847796
 20
151.4155636703
 30
0.0
 11
166.3456847796
 21
153.4155639981
 31
0.0
  0
LINE
  5
94
330
1F
100
AcDbEntity
  8
0
  6
Continuous
 62
     7
370
     0
100
AcDbLine
 10
163.1456848605
 20
153.4155639981
 30
0.0
 11
163.1456848605
 21
151.4155636703
 31
0.0
  0
LINE
  5
95
330
1F
100
AcDbEntity
  8
0
  6
Continuous
 62
     7
370
     0
100
AcDbLine
 10
169.0456849661
 20
153.7155653512
 30
0.0
 11
169.0456849661
 21
156.4155663525
 31
0.0
  0
LINE
  5
96
330
1F
100
AcDbEntity
  8
0
  6
Continuous
 62
     7
370
     0
100
AcDbLine
 10
160.445684674
 20
156.4155663525
 30
0.0
 11
160.445684674
 21
153.7155653512
 31
0.0
  0
LINE
  5
97
330
1F
100
AcDbEntity
  8
0
  6
Continuous
 62
     7
370
     0
100
AcDbLine
 10
148.7456840601
 20
229.6924996351
 30
0.0
 11
148.8456838902
 21
229.6924996351
 31
0.0
  0
LINE
  5
98
330
1F
100
AcDbEntity
  8
0
  6
Continuous
 62
     7
370
     0
100
AcDbLine
 10
152.6456848856
 20
229.6924996351
 30
0.0
 11
152.7456847158
 21
229.6924996351
 31
0.0
  0
LINE
  5
99
330
1F
100
AcDbEntity
  8
0
  6
Continuous
 62
     7
370
     0
100
AcDbLine
 10
157.745684604
 20
219.4155655031
 30
0.0
 11
157.745684604
 21
172.4155652498
 31
0.0
  0
LINE
  5
9A
330
1F
100
AcDbEntity
  8
0
  6
Continuous
 62
     7
370
     0
100
AcDbLine
 10
157.745684604
 20
172.4155652498
 30
0.0
 11
156.7456844401
 21
172.4155652498
 31
0.0
  0
LINE
  5
9B
330
1F
100
AcDbEntity
  8
0
  6
Continuous
 62
     7
370
     0
100
AcDbLine
 10
156.7456844401
 20
172.4155652498
 30
0.0
 11
156.7456844401
 21
220.4155638044
 31
0.0
  0
LINE
  5
9C
330
1F
100
AcDbEntity
  8
0
  6
Continuous
 62
     7
370
     0
100
AcDbLine
 10
156.7456844401
 20
220.4155638044
 30
0.0
 11
157.745684604
 21
219.4155655031
 31
0.0
  0
ARC
  5
9D
330
1F
100
AcDbEntity
  8
0
  6
Continuous
 62
     7
370
     0
100
AcDbCircle
 10
164.7456848201
 20
219.415564732
 30
0.0
 40
4.250000000000011
100
AcDbArc
 50
180.0
 51
199.7499227956
  0
ARC
  5
9E
330
1F
100
AcDbEntity
  8
0
  6
Continuous
 62
     7
370
     0
100
AcDbCircle
 10
164.7456848201
 20
196.915564732
 30
0.0
 40
6.0
100
AcDbArc
 50
131.8103148958
 51
180.0
  0
LINE
  5
9F
330
1F
100
AcDbEntity
  8
0
  6
Continuous
 62
     7
370
     0
100
AcDbLine
 10
158.7456847679
 20
196.9155646091
 30
0.0
 11
158.7456847679
 21
187.4155646817
 31
0.0
  0
ARC
  5
A0
330
1F
100
AcDbEntity
  8
0
  6
Continuous
 62
     7
370
     0
100
AcDbCircle
 10
164.7456848201
 20
187.415564732
 30
0.0
 40
6.000000000000028
100
AcDbArc
 50
180.0
 51
0.0
  0
LINE
  5
A1
330
1F
100
AcDbEntity
  8
0
  6
Continuous
 62
     7
370
     0
100
AcDbLine
 10
170.7456848722
 20
187.4155646817
 30
0.0
 11
170.7456848722
 21
196.9155646091
 31
0.0
  0
ARC
  5
A2
330
1F
100
AcDbEntity
  8
0
  6
Continuous
 62
     7
370
     0
100
AcDbCircle
 10
164.7456848201
 20
196.915564732
 30
0.0
 40
6.000000000000028
100
AcDbArc
 50
0.0
 51
48.1896851042
  0
ARC
  5
A3
330
1F
100
AcDbEntity
  8
0
  6
Continuous
 62
     7
370
     0
100
AcDbCircle
 10
164.7456848201
 20
219.415564732
 30
0.0
 40
4.250000000000037
100
AcDbArc
 50
340.2500772044
 51
0.0
  0
LINE
  5
A4
330
1F
100
AcDbEntity
  8
0
  6
Continuous
 62
     7
370
     0
100
AcDbLine
 10
171.7456850361
 20
219.4155655031
 30
0.0
 11
168.995685051
 21
219.4155655031
 31
0.0
  0
LINE
  5
A5
330
1F
100
AcDbEntity
  8
0
  6
Continuous
 62
     7
370
     0
100
AcDbLine
 10
171.7456850361
 20
172.4155652498
 30
0.0
 11
171.7456850361
 21
219.4155655031
 31
0.0
  0
LINE
  5
A6
330
1F
100
AcDbEntity
  8
0
  6
Continuous
 62
     7
370
     0
100
AcDbLine
 10
171.7456850361
 20
172.4155652498
 30
0.0
 11
157.745684604
 21
172.4155652498
 31
0.0
  0
LINE
  5
A7
330
1F
100
AcDbEntity
  8
0
  6
Continuous
 62
     7
370
     0
100
AcDbLine
 10
160.4956845891
 20
219.4155655031
 30
0.0
 11
157.745684604
 21
219.4155655031
 31
0.0
  0
LINE
  5
A8
330
1F
100
AcDbEntity
  8
0
  6
Continuous
 62
     7
370
     0
100
AcDbLine
 10
172.7456852
 20
220.4155638044
 30
0.0
 11
172.7456852
 21
172.4155652498
 31
0.0
  0
LINE
  5
A9
330
1F
100
AcDbEntity
  8
0
  6
Continuous
 62
     7
370
     0
100
AcDbLine
 10
171.7456850361
 20
219.4155655031
 30
0.0
 11
172.7456852
 21
220.4155638044
 31
0.0
  0
LINE
  5
AA
330
1F
100
AcDbEntity
  8
0
  6
Continuous
 62
     7
370
     0
100
AcDbLine
 10
172.7456852
 20
172.4155652498
 30
0.0
 11
171.7456850361
 21
172.4155652498
 31
0.0
  0
ARC
  5
AB
330
1F
100
AcDbEntity
  8
0
  6
Continuous
 62
     7
370
     0
100
AcDbCircle
 10
164.7456848201
 20
219.415564732
 30
0.0
 40
4.25
100
AcDbArc
 50
160.2500772044
 51
180.0
  0
LINE
  5
AC
330
1F
100
AcDbEntity
  8
0
  6
Continuous
 62
     7
370
     0
100
AcDbLine
 10
156.7456844401
 20
220.4155638044
 30
0.0
 11
156.7456844401
 21
222.8155653154
 31
0.0
  0
LINE
  5
AD
330
1F
100
AcDbEntity
  8
0
  6
Continuous
 62
     7
370
     0
100
AcDbLine
 10
158.3456849817
 20
224.4155663227
 30
0.0
 11
156.7456844401
 21
222.8155653154
 31
0.0
  0
LINE
  5
AE
330
1F
100
AcDbEntity
  8
0
  6
Continuous
 62
     7
370
     0
100
AcDbLine
 10
158.3456849817
 20
224.4155663227
 30
0.0
 11
160.7456846301
 21
224.4155663227
 31
0.0
  0
LINE
  5
AF
330
1F
100
AcDbEntity
  8
0
  6
Continuous
 62
     7
370
     0
100
AcDbLine
 10
168.74568501
 20
224.4155663227
 30
0.0
 11
171.1456846584
 21
224.4155663227
 31
0.0
  0
LINE
  5
B0
330
1F
100
AcDbEntity
  8
0
  6
Continuous
 62
     7
370
     0
100
AcDbLine
 10
172.7456852
 20
222.8155653154
 30
0.0
 11
171.1456846584
 21
224.4155663227
 31
0.0
  0
LINE
  5
B1
330
1F
100
AcDbEntity
  8
0
  6
Continuous
 62
     7
370
     0
100
AcDbLine
 10
172.7456852
 20
222.8155653154
 30
0.0
 11
172.7456852
 21
220.4155638044
 31
0.0
  0
ARC
  5
B2
330
1F
100
AcDbEntity
  8
0
  6
Continuous
 62
     7
370
     0
100
AcDbCircle
 10
164.7456848201
 20
219.415564732
 30
0.0
 40
4.250000000000028
100
AcDbArc
 50
0.0
 51
19.7499227956
  0
LINE
  5
B3
330
1F
100
AcDbEntity
  8
0
  6
Continuous
 62
     7
370
     0
100
AcDbLine
 10
169.7456847083
 20
156.4155663525
 30
0.0
 11
159.7456849318
 21
156.4155663525
 31
0.0
  0
LINE
  5
B4
330
1F
100
AcDbEntity
  8
0
  6
Continuous
 62
     7
370
     0
100
AcDbLine
 10
158.7456847679
 20
157.4155646538
 30
0.0
 11
170.7456848722
 21
157.4155646538
 31
0.0
  0
LINE
  5
B5
330
1F
100
AcDbEntity
  8
0
  6
Continuous
 62
     7
370
     0
100
AcDbLine
 10
159.7456849318
 20
225.8155639445
 30
0.0
 11
160.7456846301
 21
225.8155639445
 31
0.0
  0
LINE
  5
B6
330
1F
100
AcDbEntity
  8
0
  6
Continuous
 62
     7
370
     0
100
AcDbLine
 10
168.74568501
 20
225.8155639445
 30
0.0
 11
169.7456847083
 21
225.8155639445
 31
0.0
  0
LINE
  5
B7
330
1F
100
AcDbEntity
  8
0
  6
Continuous
 62
     7
370
     0
100
AcDbLine
 10
171.1456846584
 20
224.4155663227
 30
0.0
 11
169.7456847083
 21
225.8155639445
 31
0.0
  0
LINE
  5
B8
330
1F
100
AcDbEntity
  8
0
  6
Continuous
 62
     7
370
     0
100
AcDbLine
 10
159.7456849318
 20
225.8155639445
 30
0.0
 11
158.3456849817
 21
224.4155663227
 31
0.0
  0
LINE
  5
B9
330
1F
100
AcDbEntity
  8
0
  6
Continuous
 62
     7
370
     0
100
AcDbLine
 10
152.6456848856
 20
228.2716999923
 30
0.0
 11
148.8456838902
 21
228.2716999923
 31
0.0
  0
LINE
  5
BA
330
1F
100
AcDbEntity
  8
0
  6
Continuous
 62
     7
370
     0
100
AcDbLine
 10
152.6456848856
 20
228.2716999923
 30
0.0
 11
152.6456848856
 21
228.1413967883
 31
0.0
  0
LINE
  5
BB
330
1F
100
AcDbEntity
  8
0
  6
Continuous
 62
     7
370
     0
100
AcDbLine
 10
148.8456838902
 20
228.1413967883
 30
0.0
 11
152.6456848856
 21
228.1413967883
 31
0.0
  0
LINE
  5
BC
330
1F
100
AcDbEntity
  8
0
  6
Continuous
 62
     7
370
     0
100
AcDbLine
 10
148.8456838902
 20
228.2716999923
 30
0.0
 11
148.8456838902
 21
228.1413967883
 31
0.0
  0
LINE
  5
BD
330
1F
100
AcDbEntity
  8
0
  6
Continuous
 62
     7
370
     0
100
AcDbLine
 10
152.6456848856
 20
232.0479597126
 30
0.0
 11
152.6456848856
 21
228.2716999923
 31
0.0
  0
LINE
  5
BE
330
1F
100
AcDbEntity
  8
0
  6
Continuous
 62
     7
370
     0
100
AcDbLine
 10
148.8456838902
 20
232.0479597126
 30
0.0
 11
148.8456838902
 21
228.2716999923
 31
0.0
  0
ARC
  5
BF
330
1F
100
AcDbEntity
  8
0
  6
Continuous
 62
     7
370
     0
100
AcDbCircle
 10
144.6831351491
 20
242.653312167
 30
0.0
 40
0.5570599171870799
100
AcDbArc
 50
208.0435625338
 51
231.1307128177
  0
LWPOLYLINE
  5
C0
330
1F
100
AcDbEntity
  8
0
  6
Continuous
 62
     7
370
     0
100
AcDbPolyline
 90
        3
 70
   128
 43
0.0
 10
144.3266105976
 20
242.09907606
 10
144.3280820873
 20
242.1290944492
 10
144.3335545387
 20
242.2195966517
  0
LINE
  5
C1
330
1F
100
AcDbEntity
  8
0
  6
Continuous
 62
     7
370
     0
100
AcDbLine
 10
144.1914794173
 20
241.6715505694
 30
0.0
 11
144.1914794173
 21
241.5272141968
 31
0.0
  0
ARC
  5
C2
330
1F
100
AcDbEntity
  8
0
  6
Continuous
 62
     7
370
     0
100
AcDbCircle
 10
148.8924619098
 20
242.0783610654
 30
0.0
 40
4.733180671060739
100
AcDbArc
 50
186.6868756268
 51
195.5961766569
  0
ARC
  5
C3
330
1F
100
AcDbEntity
  8
0
  6
Continuous
 62
     7
370
     0
100
AcDbCircle
 10
144.6207412927
 20
240.8915455615
 30
0.0
 40
0.2997085983353062
100
AcDbArc
 50
163.3794278975
 51
196.6205721025
  0
ARC
  5
C4
330
1F
100
AcDbEntity
  8
0
  6
Continuous
 62
     7
370
     0
100
AcDbCircle
 10
148.8923451975
 20
242.2497936862
 30
0.0
 40
4.733062841407234
100
AcDbArc
 50
186.6868427902
 51
195.596321685
  0
LINE
  5
C5
330
1F
100
AcDbEntity
  8
0
  6
Continuous
 62
     7
370
     0
100
AcDbLine
 10
144.1914794173
 20
241.6986632322
 30
0.0
 11
144.1914794173
 21
241.9332484876
 31
0.0
  0
ARC
  5
C6
330
1F
100
AcDbEntity
  8
0
  6
Continuous
 62
     7
370
     0
100
AcDbCircle
 10
144.6830654549
 20
241.6713990386
 30
0.0
 40
0.5569757322097594
100
AcDbArc
 50
128.8670590347
 51
151.957445441
  0
ARC
  5
C7
330
1F
100
AcDbEntity
  8
0
  6
Continuous
 62
     7
370
     0
100
AcDbCircle
 10
149.5044781313
 20
242.4649945622
 30
0.0
 40
5.183435329657373
100
AcDbArc
 50
176.0182408263
 51
183.9817591737
  0
ARC
  5
C8
330
1F
100
AcDbEntity
  8
0
  6
Continuous
 62
     7
370
     0
100
AcDbCircle
 10
144.6830654549
 20
242.39126296
 30
0.0
 40
0.5569757322097613
100
AcDbArc
 50
128.8670590347
 51
151.957445441
  0
LINE
  5
C9
330
1F
100
AcDbEntity
  8
0
  6
Continuous
 62
     7
370
     0
100
AcDbLine
 10
144.1914794173
 20
242.653112409
 30
0.0
 11
144.1914794173
 21
242.7974487816
 31
0.0
  0
ARC
  5
CA
330
1F
100
AcDbEntity
  8
0
  6
Continuous
 62
     7
370
     0
100
AcDbCircle
 10
148.8924619098
 20
242.2463019131
 30
0.0
 40
4.733180671060736
100
AcDbArc
 50
164.4038233431
 51
173.3131243732
  0
LWPOLYLINE
  5
CB
330
1F
100
AcDbEntity
  8
0
  6
Continuous
 62
     7
370
     0
100
AcDbPolyline
 90
        3
 70
   128
 43
0.0
 10
144.3266105976
 20
243.4936943625
 10
144.3280820873
 20
243.500090686
 10
144.3335545387
 20
243.5188437973
  0
LINE
  5
CC
330
1F
100
AcDbEntity
  8
0
  6
Continuous
 62
     7
370
     0
100
AcDbLine
 10
144.1914794173
 20
242.6259997462
 30
0.0
 11
144.1914794173
 21
242.3914144908
 31
0.0
  0
LINE
  5
CD
330
1F
100
AcDbEntity
  8
0
  6
Continuous
 62
     7
370
     0
100
AcDbLine
 10
144.1914794173
 20
242.653112409
 30
0.0
 11
144.3335545387
 21
242.6503482436
 31
0.0
  0
LINE
  5
CE
330
1F
100
AcDbEntity
  8
0
  6
Continuous
 62
     7
370
     0
100
AcDbLine
 10
144.1914794173
 20
242.6259997462
 30
0.0
 11
144.3335545387
 21
242.6143917417
 31
0.0
  0
LINE
  5
CF
330
1F
100
AcDbEntity
  8
0
  6
Continuous
 62
     7
370
     0
100
AcDbLine
 10
144.3335545387
 20
242.3941786562
 30
0.0
 11
144.1914794173
 21
242.3914144908
 31
0.0
  0
LINE
  5
D0
330
1F
100
AcDbEntity
  8
0
  6
Continuous
 62
     7
370
     0
100
AcDbLine
 10
166.086992123
 20
153.7155653512
 30
0.0
 11
166.086992123
 21
156.4155663525
 31
0.0
  0
SPLINE
  5
D1
330
1F
100
AcDbEntity
  8
0
  6
Continuous
 62
     7
370
     0
100
AcDbSpline
210
0.0
220
0.0
230
1.0
 70
     8
 71
     3
 72
     8
 73
     4
 74
     0
 42
0.000000001
 43
0.00000001
 40
0.0
 40
0.0
 40
0.0
 40
0.0
 40
1.0
 40
1.0
 40
1.0
 40
1.0
 10
164.5117202990098
 20
153.4155647318884
 30
0.0
 10
165.0557900703703
 20
153.4155647318489
 30
0.0
 10
165.5784051188609
 20
153.5286082100629
 30
0.0
 10
166.0869920790595
 20
153.7155647317383
 30
0.0
  0
SPLINE
  5
D2
330
1F
100
AcDbEntity
  8
0
  6
Continuous
 62
     7
370
     0
100
AcDbSpline
210
0.0
220
0.0
230
1.0
 70
     8
 71
     3
 72
     8
 73
     4
 74
     0
 42
0.000000001
 43
0.00000001
 40
0.0
 40
0.0
 40
0.0
 40
0.0
 40
1.0
 40
1.0
 40
1.0
 40
1.0
 10
162.936448519566
 20
153.7155647317265
 30
0.0
 10
163.4450354796177
 20
153.5286082101084
 30
0.0
 10
163.9676505278001
 20
153.4155647319135
 30
0.0
 10
164.5117202990021
 20
153.4155647318733
 30
0.0
  0
LINE
  5
D3
330
1F
100
AcDbEntity
  8
0
  6
Continuous
 62
     7
370
     0
100
AcDbLine
 10
162.9364485758
 20
156.4155663525
 30
0.0
 11
162.9364485758
 21
153.7155653512
 31
0.0
  0
LINE
  5
D4
330
1F
100
AcDbEntity
  8
0
  6
Continuous
 62
     7
370
     0
100
AcDbLine
 10
166.086992123
 20
153.7155653512
 30
0.0
 11
167.2193055179
 21
153.7155653512
 31
0.0
  0
SPLINE
  5
D5
330
1F
100
AcDbEntity
  8
0
  6
Continuous
 62
     7
370
     0
100
AcDbSpline
210
0.0
220
0.0
230
1.0
 70
     8
 71
     3
 72
     8
 73
     4
 74
     0
 42
0.000000001
 43
0.00000001
 40
0.0
 40
0.0
 40
0.0
 40
0.0
 40
1.0
 40
1.0
 40
1.0
 40
1.0
 10
167.2193055607487
 20
153.7155647319519
 30
0.0
 10
167.4994055966028
 20
153.5286082102783
 30
0.0
 10
167.787231485352
 20
153.4155647320171
 30
0.0
 10
168.0868733841698
 20
153.4155647319926
 30
0.0
  0
LINE
  5
D6
330
1F
100
AcDbEntity
  8
0
  6
Continuous
 62
     7
370
     0
100
AcDbLine
 10
164.5117203057
 20
153.4155639981
 30
0.0
 11
168.0868734744
 21
153.4155639981
 31
0.0
  0
LINE
  5
D7
330
1F
100
AcDbEntity
  8
0
  6
Continuous
 62
     7
370
     0
100
AcDbLine
 10
161.8782357451
 20
153.7155653512
 30
0.0
 11
162.9364485758
 21
153.7155653512
 31
0.0
  0
LINE
  5
D8
330
1F
100
AcDbEntity
  8
0
  6
Continuous
 62
     7
370
     0
100
AcDbLine
 10
161.1705316369
 20
153.4155639981
 30
0.0
 11
164.5117203057
 21
153.4155639981
 31
0.0
  0
SPLINE
  5
D9
330
1F
100
AcDbEntity
  8
0
  6
Continuous
 62
     7
370
     0
100
AcDbSpline
210
0.0
220
0.0
230
1.0
 70
     8
 71
     3
 72
     8
 73
     4
 74
     0
 42
0.000000001
 43
0.00000001
 40
0.0
 40
0.0
 40
0.0
 40
0.0
 40
1.0
 40
1.0
 40
1.0
 40
1.0
 10
161.1705317354834
 20
153.4155647318884
 30
0.0
 10
161.4149596079078
 20
153.4155647319907
 30
0.0
 10
161.6497487674356
 20
153.5286082102241
 30
0.0
 10
161.8782356916597
 20
153.7155647318757
 30
0.0
  0
LINE
  5
DA
330
1F
100
AcDbEntity
  8
0
  6
Continuous
 62
     7
370
     0
100
AcDbLine
 10
167.2193055179
 20
156.4155663525
 30
0.0
 11
167.2193055179
 21
153.7155653512
 31
0.0
  0
LINE
  5
DB
330
1F
100
AcDbEntity
  8
0
  6
Continuous
 62
     7
370
     0
100
AcDbLine
 10
161.8782357451
 20
153.7155653512
 30
0.0
 11
161.8782357451
 21
156.4155663525
 31
0.0
  0
LINE
  5
DC
330
1F
100
AcDbEntity
  8
0
  6
Continuous
 62
     7
370
     0
100
AcDbLine
 10
168.9544414308
 20
153.7155653512
 30
0.0
 11
168.9544414308
 21
156.4155663525
 31
0.0
  0
SPLINE
  5
DD
330
1F
100
AcDbEntity
  8
0
  6
Continuous
 62
     7
370
     0
100
AcDbSpline
210
0.0
220
0.0
230
1.0
 70
     8
 71
     3
 72
     8
 73
     4
 74
     0
 42
0.000000001
 43
0.00000001
 40
0.0
 40
0.0
 40
0.0
 40
0.0
 40
1.0
 40
1.0
 40
1.0
 40
1.0
 10
168.0868733841698
 20
153.4155647319926
 30
0.0
 10
168.3865152830251
 20
153.4155647319681
 30
0.0
 10
168.6743411717194
 20
153.5286082101672
 30
0.0
 10
168.9544412076144
 20
153.7155647318358
 30
0.0
  0
SPLINE
  5
DE
330
1F
100
AcDbEntity
  8
0
  6
Continuous
 62
     7
370
     0
100
AcDbSpline
210
0.0
220
0.0
230
1.0
 70
     8
 71
     3
 72
     8
 73
     4
 74
     0
 42
0.000000001
 43
0.00000001
 40
0.0
 40
0.0
 40
0.0
 40
0.0
 40
1.0
 40
1.0
 40
1.0
 40
1.0
 10
160.4628277789186
 20
153.7155647315891
 30
0.0
 10
160.6913147032071
 20
153.5286082099649
 30
0.0
 10
160.926103862966
 20
153.4155647317717
 30
0.0
 10
161.1705317354483
 20
153.4155647318733
 30
0.0
  0
LINE
  5
DF
330
1F
100
AcDbEntity
  8
0
  6
Continuous
 62
     7
370
     0
100
AcDbLine
 10
160.4628279943
 20
156.4155663525
 30
0.0
 11
160.4628279943
 21
153.7155653512
 31
0.0
  0
LINE
  5
E0
330
1F
100
AcDbEntity
  8
0
  6
Continuous
 62
     7
370
     0
100
AcDbLine
 10
168.9544414308
 20
153.7155653512
 30
0.0
 11
169.0456849661
 21
153.7155653512
 31
0.0
  0
LINE
  5
E1
330
1F
100
AcDbEntity
  8
0
  6
Continuous
 62
     7
370
     0
100
AcDbLine
 10
168.0868734744
 20
153.4155639981
 30
0.0
 11
168.74568501
 21
153.4155639981
 31
0.0
  0
LINE
  5
E2
330
1F
100
AcDbEntity
  8
0
  6
Continuous
 62
     7
370
     0
100
AcDbLine
 10
166.2492196679
 20
148.4155650412
 30
0.0
 11
166.5456847891
 21
148.4155650412
 31
0.0
  0
LINE
  5
E3
330
1F
100
AcDbEntity
  8
0
  6
Continuous
 62
     7
370
     0
100
AcDbLine
 10
162.945684851
 20
148.4155650412
 30
0.0
 11
166.2492196679
 21
148.4155650412
 31
0.0
  0
LINE
  5
E4
330
1F
100
AcDbEntity
  8
0
  6
Continuous
 62
     7
370
     0
100
AcDbLine
 10
165.9986305654
 20
146.4155647134
 30
0.0
 11
166.2456848331
 21
146.4155647134
 31
0.0
  0
LINE
  5
E5
330
1F
100
AcDbEntity
  8
0
  6
Continuous
 62
     7
370
     0
100
AcDbLine
 10
163.245684807
 20
146.4155647134
 30
0.0
 11
165.9986305654
 21
146.4155647134
 31
0.0
  0
LINE
  5
E6
330
1F
100
AcDbEntity
  8
0
  6
Continuous
 62
     7
370
     0
100
AcDbLine
 10
162.945684851
 20
148.9155660545
 30
0.0
 11
166.5456847891
 21
148.9155660545
 31
0.0
  0
LINE
  5
E7
330
1F
100
AcDbEntity
  8
0
  6
Continuous
 62
     7
370
     0
100
AcDbLine
 10
166.2492196679
 20
150.9155663823
 30
0.0
 11
166.5456847891
 21
150.9155663823
 31
0.0
  0
LINE
  5
E8
330
1F
100
AcDbEntity
  8
0
  6
Continuous
 62
     7
370
     0
100
AcDbLine
 10
162.945684851
 20
150.9155663823
 30
0.0
 11
166.2492196679
 21
150.9155663823
 31
0.0
  0
LINE
  5
E9
330
1F
100
AcDbEntity
  8
0
  6
Continuous
 62
     7
370
     0
100
AcDbLine
 10
162.945684851
 20
151.4155636703
 30
0.0
 11
166.5456847891
 21
151.4155636703
 31
0.0
  0
LINE
  5
EA
330
1F
100
AcDbEntity
  8
0
  6
Continuous
 62
     7
370
     0
100
AcDbLine
 10
160.445684674
 20
153.7155653512
 30
0.0
 11
160.4628279943
 21
153.7155653512
 31
0.0
  0
LINE
  5
EB
330
1F
100
AcDbEntity
  8
0
  6
Continuous
 62
     7
370
     0
100
AcDbLine
 10
160.7456846301
 20
153.4155639981
 30
0.0
 11
161.1705316369
 21
153.4155639981
 31
0.0
  0
LINE
  5
EC
330
1F
100
AcDbEntity
  8
0
  6
Continuous
 62
     7
370
     0
100
AcDbLine
 10
148.7456840601
 20
227.6560026382
 30
0.0
 11
145.745685431
 21
227.6560026382
 31
0.0
  0
LINE
  5
ED
330
1F
100
AcDbEntity
  8
0
  6
Continuous
 62
     7
370
     0
100
AcDbLine
 10
145.745685431
 20
227.6560026382
 30
0.0
 11
145.745685431
 21
228.346175996
 31
0.0
  0
LINE
  5
EE
330
1F
100
AcDbEntity
  8
0
  6
Continuous
 62
     7
370
     0
100
AcDbLine
 10
145.745685431
 20
228.346175996
 30
0.0
 11
148.7456840601
 21
228.346175996
 31
0.0
  0
LINE
  5
EF
330
1F
100
AcDbEntity
  8
0
  6
Continuous
 62
     7
370
     0
100
AcDbLine
 10
148.7456840601
 20
228.346175996
 30
0.0
 11
148.7456840601
 21
227.6560026382
 31
0.0
  0
LINE
  5
F0
330
1F
100
AcDbEntity
  8
0
  6
Continuous
 62
     7
370
     0
100
AcDbLine
 10
148.7456840601
 20
262.2815962111
 30
0.0
 11
145.745685431
 21
262.2815962111
 31
0.0
  0
LINE
  5
F1
330
1F
100
AcDbEntity
  8
0
  6
Continuous
 62
     7
370
     0
100
AcDbLine
 10
148.7456840601
 20
262.2160758053
 30
0.0
 11
148.7456840601
 21
262.2815962111
 31
0.0
  0
LINE
  5
F2
330
1F
100
AcDbEntity
  8
0
  6
Continuous
 62
     7
370
     0
100
AcDbLine
 10
148.7456840601
 20
228.346175996
 30
0.0
 11
148.7456840601
 21
232.0479597126
 31
0.0
  0
LINE
  5
F3
330
1F
100
AcDbEntity
  8
0
  6
Continuous
 62
     7
370
     0
100
AcDbLine
 10
145.745685431
 20
228.346175996
 30
0.0
 11
145.745685431
 21
232.0479597126
 31
0.0
  0
LINE
  5
F4
330
1F
100
AcDbEntity
  8
0
  6
Continuous
 62
     7
370
     0
100
AcDbLine
 10
145.745685431
 20
262.2160758053
 30
0.0
 11
145.745685431
 21
262.2815962111
 31
0.0
  0
LINE
  5
F5
330
1F
100
AcDbEntity
  8
0
  6
Continuous
 62
     7
370
     0
100
AcDbLine
 10
160.7456846301
 20
227.6560026382
 30
0.0
 11
152.7456847158
 21
227.6560026382
 31
0.0
  0
LINE
  5
F6
330
1F
100
AcDbEntity
  8
0
  6
Continuous
 62
     7
370
     0
100
AcDbLine
 10
152.7456847158
 20
228.346175996
 30
0.0
 11
160.7456846301
 21
228.346175996
 31
0.0
  0
LINE
  5
F7
330
1F
100
AcDbEntity
  8
0
  6
Continuous
 62
     7
370
     0
100
AcDbLine
 10
152.7456847158
 20
227.6560026382
 30
0.0
 11
152.7456847158
 21
228.346175996
 31
0.0
  0
LINE
  5
F8
330
1F
100
AcDbEntity
  8
0
  6
Continuous
 62
     7
370
     0
100
AcDbLine
 10
152.7456847158
 20
262.2160758053
 30
0.0
 11
152.7456847158
 21
262.2815962111
 31
0.0
  0
LINE
  5
F9
330
1F
100
AcDbEntity
  8
0
  6
Continuous
 62
     7
370
     0
100
AcDbLine
 10
168.74568501
 20
262.2815962111
 30
0.0
 11
152.7456847158
 21
262.2815962111
 31
0.0
  0
LINE
  5
FA
330
1F
100
AcDbEntity
  8
0
  6
Continuous
 62
     7
370
     0
100
AcDbLine
 10
152.7456847158
 20
228.346175996
 30
0.0
 11
152.7456847158
 21
232.0479597126
 31
0.0
  0
LINE
  5
FB
330
1F
100
AcDbEntity
  8
0
  6
Continuous
 62
     7
370
     0
100
AcDbLine
 10
168.74568501
 20
262.2815962111
 30
0.0
 11
168.74568501
 21
262.2160758053
 31
0.0
  0
LINE
  5
FC
330
1F
100
AcDbEntity
  8
0
  6
Continuous
 62
     7
370
     0
100
AcDbLine
 10
152.7456847158
 20
226.6077245747
 30
0.0
 11
148.7456840601
 21
226.6077245747
 31
0.0
  0
LINE
  5
FD
330
1F
100
AcDbEntity
  8
0
  6
Continuous
 62
     7
370
     0
100
AcDbLine
 10
145.745685431
 20
225.8404265319
 30
0.0
 11
160.7456846301
 21
225.8404265319
 31
0.0
  0
LINE
  5
FE
330
1F
100
AcDbEntity
  8
0
  6
Continuous
 62
     7
370
     0
100
AcDbLine
 10
152.7456847158
 20
226.6077245747
 30
0.0
 11
152.7456847158
 21
227.6560026382
 31
0.0
  0
LINE
  5
FF
330
1F
100
AcDbEntity
  8
0
  6
Continuous
 62
     7
370
     0
100
AcDbLine
 10
148.7456840601
 20
226.6077245747
 30
0.0
 11
148.7456840601
 21
227.6560026382
 31
0.0
  0
LINE
  5
100
330
1F
100
AcDbEntity
  8
0
  6
Continuous
 62
     7
370
     0
100
AcDbLine
 10
145.745685431
 20
225.8404265319
 30
0.0
 11
145.745685431
 21
227.6560026382
 31
0.0
  0
ARC
  5
101
330
1F
100
AcDbEntity
  8
0
  6
Continuous
 62
     7
370
     0
100
AcDbCircle
 10
164.7456848201
 20
192.165564732
 30
0.0
 40
5.123475382979843
100
AcDbArc
 50
321.3265506239
 51
38.6734493761
  0
ARC
  5
102
330
1F
100
AcDbEntity
  8
0
  6
Continuous
 62
     7
370
     0
100
AcDbCircle
 10
164.7456848201
 20
192.165564732
 30
0.0
 40
5.123475382979812
100
AcDbArc
 50
141.3265506239
 51
218.6734493761
  0
SPLINE
  5
103
330
1F
100
AcDbEntity
  8
0
  6
Continuous
 62
     7
370
     0
100
AcDbSpline
210
0.0
220
0.0
230
1.0
 70
     8
 71
     3
 72
    14
 73
    10
 74
     0
 42
0.000000001
 43
0.00000001
 40
0.0
 40
0.0
 40
0.0
 40
0.0
 40
0.25
 40
0.25
 40
0.5
 40
0.5
 40
0.75
 40
0.75
 40
1.0
 40
1.0
 40
1.0
 40
1.0
 10
170.6524716565348
 20
187.4155647319926
 30
0.0
 10
170.6524716565348
 20
186.6423681431679
 30
0.0
 10
170.4987338056905
 20
185.8694757741838
 30
0.0
 10
169.9069547566817
 20
184.4407947681384
 30
0.0
 10
169.4691463983028
 20
183.7855682560454
 30
0.0
 10
168.3756812960062
 20
182.6921031537488
 30
0.0
 10
167.7204547839132
 20
182.2542947953699
 30
0.0
 10
166.2917737778678
 20
181.6625157463611
 30
0.0
 10
165.5188814088837
 20
181.5087778955167
 30
0.0
 10
164.745684820059
 20
181.5087778955167
 30
0.0
  0
SPLINE
  5
104
330
1F
100
AcDbEntity
  8
0
  6
Continuous
 62
     7
370
     0
100
AcDbSpline
210
0.0
220
0.0
230
1.0
 70
     8
 71
     3
 72
    14
 73
    10
 74
     0
 42
0.000000001
 43
0.00000001
 40
0.0
 40
0.0
 40
0.0
 40
0.0
 40
0.2500000000000001
 40
0.2500000000000001
 40
0.5000000000000001
 40
0.5000000000000001
 40
0.75
 40
0.75
 40
1.0
 40
1.0
 40
1.0
 40
1.0
 10
164.745684820059
 20
181.5087778955167
 30
0.0
 10
163.9724882312343
 20
181.5087778955167
 30
0.0
 10
163.1995958622502
 20
181.6625157463611
 30
0.0
 10
161.7709148562048
 20
182.2542947953699
 30
0.0
 10
161.1156883441118
 20
182.6921031537488
 30
0.0
 10
160.0222232418153
 20
183.7855682560454
 30
0.0
 10
159.5844148834363
 20
184.4407947681384
 30
0.0
 10
158.9926358344275
 20
185.8694757741838
 30
0.0
 10
158.8388979835832
 20
186.6423681431679
 30
0.0
 10
158.8388979835832
 20
187.4155647319926
 30
0.0
  0
SPLINE
  5
105
330
1F
100
AcDbEntity
  8
0
  6
Continuous
 62
     7
370
     0
100
AcDbSpline
210
0.0
220
0.0
230
1.0
 70
    24
 71
     3
 72
    10
 73
     6
 74
     0
 42
0.000000001
 43
0.00000001
 40
0.0
 40
0.0
 40
0.0
 40
0.0
 40
0.5
 40
0.5
 40
1.0
 40
1.0
 40
1.0
 40
1.0
 10
159.1388522921301
 20
187.4155647319926
 30
0.0
 10
159.0611851404163
 20
187.4155647319926
 30
0.0
 10
158.9839756436845
 20
187.4155647319926
 30
0.0
 10
158.8731833819958
 20
187.4155647319926
 30
0.0
 10
158.8402534622817
 20
187.4155647319926
 30
0.0
 10
158.8388979835832
 20
187.4155647319926
 30
0.0
  0
SPLINE
  5
106
330
1F
100
AcDbEntity
  8
0
  6
Continuous
 62
     7
370
     0
100
AcDbSpline
210
0.0
220
0.0
230
1.0
 70
     8
 71
     3
 72
    14
 73
    10
 74
     0
 42
0.000000001
 43
0.00000001
 40
0.0
 40
0.0
 40
0.0
 40
0.0
 40
0.2500000000000001
 40
0.2500000000000001
 40
0.5000000000000001
 40
0.5000000000000001
 40
0.75
 40
0.75
 40
1.0
 40
1.0
 40
1.0
 40
1.0
 10
164.745684820059
 20
181.8087322040637
 30
0.0
 10
164.0117521584069
 20
181.8087322040637
 30
0.0
 10
163.2781082679168
 20
181.9546630471347
 30
0.0
 10
161.921977539233
 20
182.5163907873064
 30
0.0
 10
161.3000242805716
 20
182.9319666685283
 30
0.0
 10
160.2620867565947
 20
183.9699041925052
 30
0.0
 10
159.8465108753728
 20
184.5918574511666
 30
0.0
 10
159.2847831352011
 20
185.9479881798504
 30
0.0
 10
159.1388522921301
 20
186.6816320703405
 30
0.0
 10
159.1388522921301
 20
187.4155647319926
 30
0.0
  0
SPLINE
  5
107
330
1F
100
AcDbEntity
  8
0
  6
Continuous
 62
     7
370
     0
100
AcDbSpline
210
0.0
220
0.0
230
1.0
 70
     8
 71
     3
 72
    14
 73
    10
 74
     0
 42
0.000000001
 43
0.00000001
 40
0.0
 40
0.0
 40
0.0
 40
0.0
 40
0.2500000000000001
 40
0.2500000000000001
 40
0.5000000000000001
 40
0.5000000000000001
 40
0.75
 40
0.75
 40
1.0
 40
1.0
 40
1.0
 40
1.0
 10
170.3525173479879
 20
187.4155647319926
 30
0.0
 10
170.3525173479879
 20
186.6816320703405
 30
0.0
 10
170.2065865049169
 20
185.9479881798504
 30
0.0
 10
169.6448587647452
 20
184.5918574511666
 30
0.0
 10
169.2292828835233
 20
183.9699041925052
 30
0.0
 10
168.1913453595464
 20
182.9319666685283
 30
0.0
 10
167.569392100885
 20
182.5163907873064
 30
0.0
 10
166.2132613722012
 20
181.9546630471347
 30
0.0
 10
165.4796174817111
 20
181.8087322040637
 30
0.0
 10
164.745684820059
 20
181.8087322040637
 30
0.0
  0
SPLINE
  5
108
330
1F
100
AcDbEntity
  8
0
  6
Continuous
 62
     7
370
     0
100
AcDbSpline
210
0.0
220
0.0
230
1.0
 70
    24
 71
     3
 72
    10
 73
     6
 74
     0
 42
0.000000001
 43
0.00000001
 40
0.0
 40
0.0
 40
0.0
 40
0.0
 40
0.5
 40
0.5
 40
1.0
 40
1.0
 40
1.0
 40
1.0
 10
170.3525173479879
 20
187.4155647319926
 30
0.0
 10
170.4301844997429
 20
187.4155647319936
 30
0.0
 10
170.5073939965279
 20
187.4155647319942
 30
0.0
 10
170.6181862582755
 20
187.4155647319942
 30
0.0
 10
170.6511161779937
 20
187.4155647319936
 30
0.0
 10
170.6524716566609
 20
187.4155647319926
 30
0.0
  0
LINE
  5
109
330
1F
100
AcDbEntity
  8
0
  6
Continuous
 62
     7
370
     0
100
AcDbLine
 10
170.6524715897
 20
196.9155646091
 30
0.0
 11
170.6524715897
 21
187.4155646817
 31
0.0
  0
LINE
  5
10A
330
1F
100
AcDbEntity
  8
0
  6
Continuous
 62
     7
370
     0
100
AcDbLine
 10
170.3525172685
 20
196.9155646091
 30
0.0
 11
170.3525172685
 21
187.4155646817
 31
0.0
  0
SPLINE
  5
10B
330
1F
100
AcDbEntity
  8
0
  6
Continuous
 62
     7
370
     0
100
AcDbSpline
210
0.0
220
0.0
230
1.0
 70
    24
 71
     3
 72
    10
 73
     6
 74
     0
 42
0.000000001
 43
0.00000001
 40
0.0
 40
0.0
 40
0.0
 40
0.0
 40
0.5
 40
0.5
 40
1.0
 40
1.0
 40
1.0
 40
1.0
 10
170.3525173479879
 20
196.9155647319926
 30
0.0
 10
170.4301844997017
 20
196.9155647319926
 30
0.0
 10
170.5073939964335
 20
196.9155647319926
 30
0.0
 10
170.6181862581222
 20
196.9155647319926
 30
0.0
 10
170.6511161778363
 20
196.9155647319926
 30
0.0
 10
170.6524716565348
 20
196.9155647319926
 30
0.0
  0
LINE
  5
10C
330
1F
100
AcDbEntity
  8
0
  6
Continuous
 62
     7
370
     0
100
AcDbLine
 10
159.1388523717
 20
187.4155646817
 30
0.0
 11
159.1388523717
 21
196.9155646091
 31
0.0
  0
LINE
  5
10D
330
1F
100
AcDbEntity
  8
0
  6
Continuous
 62
     7
370
     0
100
AcDbLine
 10
158.8388980504
 20
187.4155646817
 30
0.0
 11
158.8388980504
 21
196.9155646091
 31
0.0
  0
SPLINE
  5
10E
330
1F
100
AcDbEntity
  8
0
  6
Continuous
 62
     7
370
     0
100
AcDbSpline
210
0.0
220
0.0
230
1.0
 70
    24
 71
     3
 72
    10
 73
     6
 74
     0
 42
0.000000001
 43
0.00000001
 40
0.0
 40
0.0
 40
0.0
 40
0.0
 40
0.5
 40
0.5
 40
1.0
 40
1.0
 40
1.0
 40
1.0
 10
158.8388979835832
 20
196.9155647319926
 30
0.0
 10
158.8402534622818
 20
196.9155647319926
 30
0.0
 10
158.8731833819958
 20
196.9155647319926
 30
0.0
 10
158.9839756436845
 20
196.9155647319926
 30
0.0
 10
159.0611851404164
 20
196.9155647319926
 30
0.0
 10
159.1388522921301
 20
196.9155647319926
 30
0.0
  0
LINE
  5
10F
330
1F
100
AcDbEntity
  8
0
  6
Continuous
 62
     7
370
     0
100
AcDbLine
 10
158.8006849539
 20
196.9155646091
 30
0.0
 11
158.8388980504
 21
196.9155646091
 31
0.0
  0
LINE
  5
110
330
1F
100
AcDbEntity
  8
0
  6
Continuous
 62
     7
370
     0
100
AcDbLine
 10
158.8388980504
 20
187.4155646817
 30
0.0
 11
158.8006849539
 21
187.4155646817
 31
0.0
  0
LINE
  5
111
330
1F
100
AcDbEntity
  8
0
  6
Continuous
 62
     7
370
     0
100
AcDbLine
 10
158.8006849539
 20
187.4155646817
 30
0.0
 11
158.8006849539
 21
196.9155646091
 31
0.0
  0
LINE
  5
112
330
1F
100
AcDbEntity
  8
0
  6
Continuous
 62
     7
370
     0
100
AcDbLine
 10
170.6524715897
 20
187.4155646817
 30
0.0
 11
170.6906846862
 21
187.4155646817
 31
0.0
  0
ARC
  5
113
330
1F
100
AcDbEntity
  8
0
  6
Continuous
 62
     7
370
     0
100
AcDbCircle
 10
164.7456848201
 20
187.415564732
 30
0.0
 40
5.945000000000022
100
AcDbArc
 50
180.0
 51
0.0
  0
ARC
  5
114
330
1F
100
AcDbEntity
  8
0
  6
Continuous
 62
     7
370
     0
100
AcDbCircle
 10
164.7456848201
 20
196.915564732
 30
0.0
 40
5.945000000000192
100
AcDbArc
 50
132.2861972684
 51
180.0
  0
ARC
  5
115
330
1F
100
AcDbEntity
  8
0
  6
Continuous
 62
     7
370
     0
100
AcDbCircle
 10
164.7456848201
 20
196.915564732
 30
0.0
 40
5.945000000000022
100
AcDbArc
 50
0.0
 51
47.7138027316
  0
LINE
  5
116
330
1F
100
AcDbEntity
  8
0
  6
Continuous
 62
     7
370
     0
100
AcDbLine
 10
170.6524715897
 20
196.9155646091
 30
0.0
 11
170.6906846862
 21
196.9155646091
 31
0.0
  0
LINE
  5
117
330
1F
100
AcDbEntity
  8
0
  6
Continuous
 62
     7
370
     0
100
AcDbLine
 10
170.6906846862
 20
196.9155646091
 30
0.0
 11
170.6906846862
 21
187.4155646817
 31
0.0
  0
LINE
  5
118
330
1F
100
AcDbEntity
  8
0
  6
Continuous
 62
     7
370
     0
100
AcDbLine
 10
160.7456846301
 20
184.7893158135
 30
0.0
 11
160.7456846301
 21
207.4786941682
 31
0.0
  0
LINE
  5
119
330
1F
100
AcDbEntity
  8
0
  6
Continuous
 62
     7
370
     0
100
AcDbLine
 10
160.7456846301
 20
207.4786941682
 30
0.0
 11
168.74568501
 21
207.4786941682
 31
0.0
  0
LINE
  5
11A
330
1F
100
AcDbEntity
  8
0
  6
Continuous
 62
     7
370
     0
100
AcDbLine
 10
168.74568501
 20
184.7893158135
 30
0.0
 11
168.74568501
 21
207.4786941682
 31
0.0
  0
LINE
  5
11B
330
1F
100
AcDbEntity
  8
0
  6
Continuous
 62
     7
370
     0
100
AcDbLine
 10
167.7456848461
 20
183.8028212239
 30
0.0
 11
168.74568501
 21
184.7893158135
 31
0.0
  0
LINE
  5
11C
330
1F
100
AcDbEntity
  8
0
  6
Continuous
 62
     7
370
     0
100
AcDbLine
 10
161.745684794
 20
183.8028212239
 30
0.0
 11
167.7456848461
 21
183.8028212239
 31
0.0
  0
LINE
  5
11D
330
1F
100
AcDbEntity
  8
0
  6
Continuous
 62
     7
370
     0
100
AcDbLine
 10
160.7456846301
 20
184.7893158135
 30
0.0
 11
161.745684794
 21
183.8028212239
 31
0.0
  0
ELLIPSE
  5
11E
330
1F
100
AcDbEntity
  8
0
  6
Continuous
 62
     7
370
     0
100
AcDbEllipse
 10
157.7456848201
 20
254.9335139035
 30
0.0
 11
0.0
 21
9.818238641913041
 31
0.0
210
0.0
220
0.0
230
1.0
 40
0.3055537871
 41
4.712388980384694
 42
5.376372385074349
  0
LINE
  5
11F
330
1F
100
AcDbEntity
  8
0
  6
Continuous
 62
     7
370
     0
100
AcDbLine
 10
168.74568501
 20
260.9840925013
 30
0.0
 11
160.1083158653
 21
260.9840925013
 31
0.0
  0
LINE
  5
120
330
1F
100
AcDbEntity
  8
0
  6
Continuous
 62
     7
370
     0
100
AcDbLine
 10
168.74568501
 20
207.4786941682
 30
0.0
 11
168.74568501
 21
260.9840925013
 31
0.0
  0
LINE
  5
121
330
1F
100
AcDbEntity
  8
0
  6
Continuous
 62
     7
370
     0
100
AcDbLine
 10
160.7456846301
 20
207.4786941682
 30
0.0
 11
160.7456846301
 21
254.9335132514
 31
0.0
  0
LINE
  5
122
330
1F
100
AcDbEntity
  8
0
  6
Continuous
 62
     7
370
     0
100
AcDbLine
 10
166.7456849151
 20
182.9801197325
 30
0.0
 11
162.7456847251
 21
182.9801197325
 31
0.0
  0
LINE
  5
123
330
1F
100
AcDbEntity
  8
0
  6
Continuous
 62
     7
370
     0
100
AcDbLine
 10
167.7456848461
 20
183.8028212239
 30
0.0
 11
166.7456849151
 21
182.9801197325
 31
0.0
  0
LINE
  5
124
330
1F
100
AcDbEntity
  8
0
  6
Continuous
 62
     7
370
     0
100
AcDbLine
 10
162.7456847251
 20
182.9801197325
 30
0.0
 11
161.745684794
 21
183.8028212239
 31
0.0
  0
LINE
  5
125
330
1F
100
AcDbEntity
  8
0
  6
Continuous
 62
     7
370
     0
100
AcDbLine
 10
157.745684604
 20
232.0479597126
 30
0.0
 11
157.745684604
 21
261.6427983319
 31
0.0
  0
ARC
  5
126
330
1F
100
AcDbEntity
  8
0
  6
Continuous
 62
     7
370
     0
100
AcDbCircle
 10
157.7633316821
 20
244.5530579634
 30
0.0
 40
17.08974947980988
100
AcDbArc
 50
86.1810710668
 51
90.0591643122
  0
ELLIPSE
  5
127
330
1F
100
AcDbEntity
  8
0
  6
Continuous
 62
     7
370
     0
100
AcDbEllipse
 10
157.7456848201
 20
259.7360878318
 30
0.0
 11
3.0
 21
0.0
 31
0.0
210
0.0
220
0.0
230
1.0
 40
0.6750423319
 41
0.6639834046896281
 42
1.175268989197993
  0
ARC
  5
128
330
1F
100
AcDbEntity
  8
0
  6
Continuous
 62
     7
370
     0
100
AcDbCircle
 10
158.4755571388
 20
227.1004516226
 30
0.0
 40
5.001054910549104
100
AcDbArc
 50
63.0039078838
 51
98.3919314736
  0
LINE
  5
129
330
1F
100
AcDbEntity
  8
0
  6
Continuous
 62
     7
370
     0
100
AcDbLine
 10
158.9015695404
 20
261.6048599755
 30
0.0
 11
168.74568501
 21
261.6048599755
 31
0.0
  0
LINE
  5
12A
330
1F
100
AcDbEntity
  8
0
  6
Continuous
 62
     7
370
     0
100
AcDbLine
 10
168.74568501
 20
261.6048599755
 30
0.0
 11
168.74568501
 21
260.9840925013
 31
0.0
  0
LINE
  5
12B
330
1F
100
AcDbEntity
  8
0
  6
Continuous
 62
     7
370
     0
100
AcDbLine
 10
145.745685431
 20
261.6427983319
 30
0.0
 11
145.745685431
 21
262.2160758053
 31
0.0
  0
LINE
  5
12C
330
1F
100
AcDbEntity
  8
0
  6
Continuous
 62
     7
370
     0
100
AcDbLine
 10
145.745685431
 20
262.2160758053
 30
0.0
 11
168.74568501
 21
262.2160758053
 31
0.0
  0
LINE
  5
12D
330
1F
100
AcDbEntity
  8
0
  6
Continuous
 62
     7
370
     0
100
AcDbLine
 10
145.745685431
 20
261.6427983319
 30
0.0
 11
157.745684604
 21
261.6427983319
 31
0.0
  0
LINE
  5
12E
330
1F
100
AcDbEntity
  8
0
  6
Continuous
 62
     7
370
     0
100
AcDbLine
 10
168.74568501
 20
261.6048599755
 30
0.0
 11
168.74568501
 21
262.2160758053
 31
0.0
  0
LINE
  5
12F
330
1F
100
AcDbEntity
  8
0
  6
Continuous
 62
     7
370
     0
100
AcDbLine
 10
145.745685431
 20
232.0479597126
 30
0.0
 11
157.745684604
 21
232.0479597126
 31
0.0
  0
LINE
  5
130
330
1F
100
AcDbEntity
  8
0
  6
Continuous
 62
     7
370
     0
100
AcDbLine
 10
145.745685431
 20
232.0479597126
 30
0.0
 11
145.745685431
 21
261.6427983319
 31
0.0
  0
LINE
  5
131
330
1F
100
AcDbEntity
  8
0
  6
Continuous
 62
     8
370
     0
100
AcDbLine
 10
144.9210570332
 20
239.5606856023
 30
0.0
 11
144.9210570332
 21
244.8367509221
 31
0.0
  0
LINE
  5
132
330
1F
100
AcDbEntity
  8
0
  6
Continuous
 62
     8
370
     0
100
AcDbLine
 10
144.9210570332
 20
239.4879120564
 30
0.0
 11
144.9210570332
 21
239.5606856023
 31
0.0
  0
LINE
  5
133
330
1F
100
AcDbEntity
  8
0
  6
Continuous
 62
     8
370
     0
100
AcDbLine
 10
145.1491863605
 20
239.4385184323
 30
0.0
 11
145.1491863605
 21
244.9623304581
 31
0.0
  0
LINE
  5
134
330
1F
100
AcDbEntity
  8
0
  6
Continuous
 62
     8
370
     0
100
AcDbLine
 10
145.1491863605
 20
239.3623325204
 30
0.0
 11
145.1491863605
 21
239.4385184323
 31
0.0
  0
SPLINE
  5
135
330
1F
100
AcDbEntity
  8
0
  6
Continuous
 62
     8
370
     0
100
AcDbSpline
210
0.0
220
0.0
230
1.0
 70
     8
 71
     3
 72
    11
 73
     7
 74
     0
 42
0.000000001
 43
0.00000001
 40
0.0
 40
0.0
 40
0.0
 40
0.0
 40
0.2532112437802023
 40
0.5064223537097337
 40
0.7596333756194477
 40
1.0
 40
1.0
 40
1.0
 40
1.0
 10
159.1388523716658
 20
196.9155646090739
 30
0.0
 10
159.1595450084206
 20
197.2826968984345
 30
0.0
 10
159.2009302709917
 20
198.0169612830848
 30
0.0
 10
159.5369416866388
 20
199.0730122313848
 30
0.0
 10
160.0365895287149
 20
200.0415721678112
 30
0.0
 10
160.5134561044326
 20
200.5765612851268
 30
0.0
 10
160.7456846300691
 20
200.8370948185556
 30
0.0
  0
SPLINE
  5
136
330
1F
100
AcDbEntity
  8
0
  6
Continuous
 62
     8
370
     0
100
AcDbSpline
210
0.0
220
0.0
230
1.0
 70
     8
 71
     3
 72
    11
 73
     7
 74
     0
 42
0.000000001
 43
0.00000001
 40
0.0
 40
0.0
 40
0.0
 40
0.0
 40
0.2403666243805524
 40
0.4935776462902664
 40
0.7467887562197978
 40
1.0
 40
1.0
 40
1.0
 40
1.0
 10
168.7456850100488
 20
200.8370948185556
 30
0.0
 10
168.9779135356854
 20
200.5765612851268
 30
0.0
 10
169.4547801114031
 20
200.0415721678112
 30
0.0
 10
169.9544279534792
 20
199.0730122313848
 30
0.0
 10
170.2904393691262
 20
198.0169612830848
 30
0.0
 10
170.3318246316973
 20
197.2826968984345
 30
0.0
 10
170.3525172684521
 20
196.9155646090739
 30
0.0
  0
SPLINE
  5
137
330
1F
100
AcDbEntity
  8
0
  6
Continuous
 62
     8
370
     0
100
AcDbSpline
210
0.0
220
0.0
230
1.0
 70
     8
 71
     3
 72
    12
 73
     8
 74
     0
 42
0.000000001
 43
0.00000001
 40
0.0
 40
0.0
 40
0.0
 40
0.0
 40
0.2382403641560844
 40
0.4764807418872615
 40
0.7147210891867863
 40
0.9529614533345484
 40
1.0
 40
1.0
 40
1.0
 40
1.0
 10
158.8388980504304
 20
196.9155646090739
 30
0.0
 10
158.8610607163126
 20
197.3019502091726
 30
0.0
 10
158.9053860493399
 20
198.0747214313864
 30
0.0
 10
159.2539282027786
 20
199.1930799428453
 30
0.0
 10
159.8100523602519
 20
200.2089248867497
 30
0.0
 10
160.3242803465264
 20
200.9014813929614
 30
0.0
 10
160.6860361084211
 20
201.1897930257466
 30
0.0
 10
160.7456846300691
 20
201.2373316263192
 30
0.0
  0
SPLINE
  5
138
330
1F
100
AcDbEntity
  8
0
  6
Continuous
 62
     8
370
     0
100
AcDbSpline
210
0.0
220
0.0
230
1.0
 70
     8
 71
     3
 72
    12
 73
     8
 74
     0
 42
0.000000001
 43
0.00000001
 40
0.0
 40
0.0
 40
0.0
 40
0.0
 40
0.0470385466654516
 40
0.2852789108132137
 40
0.5235192581127386
 40
0.7617596358439157
 40
1.0
 40
1.0
 40
1.0
 40
1.0
 10
168.7456850100488
 20
201.2373316263192
 30
0.0
 10
168.8053335316968
 20
201.1897930257466
 30
0.0
 10
169.1670892935915
 20
200.9014813929614
 30
0.0
 10
169.681317279866
 20
200.2089248867497
 30
0.0
 10
170.2374414373393
 20
199.1930799428453
 30
0.0
 10
170.585983590778
 20
198.0747214313864
 30
0.0
 10
170.6303089238053
 20
197.3019502091726
 30
0.0
 10
170.6524715896875
 20
196.9155646090739
 30
0.0
  0
DIMENSION
  5
139
330
1F
100
AcDbEntity
  8
0
  6
Continuous
 62
     7
370
     0
100
AcDbDimension
  2
_D
 10
134.1914799401
 20
232.0479589764
 30
0.0
 11
134.1914799401
 21
247.1320174899
 31
0.0
 70
   160
  1
<>
 71
     2
 42
-1.0
  3
SLDDIMSTYLE0
100
AcDbAlignedDimension
 13
145.7456848201
 23
262.2160760034
 33
0.0
 14
145.7456848201
 24
232.0479589764
 34
0.0
 50
90.0
100
AcDbRotatedDimension
  0
DIMENSION
  5
144
330
1F
100
AcDbEntity
  8
0
  6
Continuous
 62
     7
370
     0
100
AcDbDimension
  2
_D_1
 10
160.7456848201
 20
270.1643506929
 30
0.0
 11
153.2456848201
 21
270.1643506929
 31
0.0
 70
   160
  1
<>
 71
     2
 42
-1.0
  3
SLDDIMSTYLE0
100
AcDbAlignedDimension
 13
145.7456848201
 23
261.6427995919
 33
0.0
 14
160.7456848201
 24
254.9335139035
 34
0.0
100
AcDbRotatedDimension
  0
DIMENSION
  5
14E
330
1F
100
AcDbEntity
  8
0
  6
Continuous
 62
     7
370
     0
100
AcDbDimension
  2
_D_2
 10
168.7456848201
 20
278.2815933075
 30
0.0
 11
157.2456848201
 21
278.2815933075
 31
0.0
 70
   160
  1
<>
 71
     2
 42
-1.0
  3
SLDDIMSTYLE0
100
AcDbAlignedDimension
 13
145.7456848201
 23
261.6427995919
 33
0.0
 14
168.7456848201
 24
260.9840902411
 34
0.0
100
AcDbRotatedDimension
  0
DIMENSION
  5
158
330
1F
100
AcDbEntity
  8
0
  6
Continuous
 62
     7
370
     0
100
AcDbDimension
  2
_D_3
 10
156.7456848201
 20
139.6578867301
 30
0.0
 11
164.7456848201
 21
139.6578867301
 31
0.0
 70
   160
  1
<>
 71
     2
 42
-1.0
  3
SLDDIMSTYLE0
100
AcDbAlignedDimension
 13
172.7456848201
 23
172.415564732
 33
0.0
 14
156.7456848201
 24
172.415564732
 34
0.0
100
AcDbRotatedDimension
  0
DIMENSION
  5
162
330
1F
100
AcDbEntity
  8
0
  6
Continuous
 62
     7
370
     0
100
AcDbDimension
  2
_D_4
 10
145.7456848201
 20
130.415564732
 30
0.0
 11
159.2456848201
 21
130.415564732
 31
0.0
 70
   160
  1
<>
 71
     2
 42
-1.0
  3
SLDDIMSTYLE0
100
AcDbAlignedDimension
 13
172.7456848201
 23
172.415564732
 33
0.0
 14
145.7456848201
 24
232.0479589764
 34
0.0
100
AcDbRotatedDimension
  0
LINE
  5
16C
330
1F
100
AcDbEntity
  8
0
  6
Continuous
 62
     7
370
     0
100
AcDbLine
 10
71.0920622359
 20
157.4155646538
 30
0.0
 11
72.0920623998
 21
156.4155663525
 31
0.0
  0
LINE
  5
16D
330
1F
100
AcDbEntity
  8
0
  6
Continuous
 62
     7
370
     0
100
AcDbLine
 10
82.0920621763
 20
156.4155663525
 30
0.0
 11
83.0920623402
 21
157.4155646538
 31
0.0
  0
LINE
  5
16E
330
1F
100
AcDbEntity
  8
0
  6
Continuous
 62
     7
370
     0
100
AcDbLine
 10
71.0920622359
 20
172.4155652498
 30
0.0
 11
71.0920622359
 21
157.4155646538
 31
0.0
  0
LINE
  5
16F
330
1F
100
AcDbEntity
  8
0
  6
Continuous
 62
     7
370
     0
100
AcDbLine
 10
83.0920623402
 20
157.4155646538
 30
0.0
 11
83.0920623402
 21
172.4155652498
 31
0.0
  0
LINE
  5
170
330
1F
100
AcDbEntity
  8
0
  6
Continuous
 62
     7
370
     0
100
AcDbLine
 10
75.2920623189
 20
148.4155650412
 30
0.0
 11
75.592062275
 21
146.4155647134
 31
0.0
  0
LINE
  5
171
330
1F
100
AcDbEntity
  8
0
  6
Continuous
 62
     7
370
     0
100
AcDbLine
 10
78.5920622428
 20
146.4155647134
 30
0.0
 11
78.8920622571
 21
148.4155650412
 31
0.0
  0
LINE
  5
172
330
1F
100
AcDbEntity
  8
0
  6
Continuous
 62
     7
370
     0
100
AcDbLine
 10
75.2920623189
 20
150.9155663823
 30
0.0
 11
75.492062212
 21
148.9155660545
 31
0.0
  0
LINE
  5
173
330
1F
100
AcDbEntity
  8
0
  6
Continuous
 62
     7
370
     0
100
AcDbLine
 10
78.6920622476
 20
148.9155660545
 30
0.0
 11
78.8920622571
 21
150.9155663823
 31
0.0
  0
LINE
  5
174
330
1F
100
AcDbEntity
  8
0
  6
Continuous
 62
     7
370
     0
100
AcDbLine
 10
78.8920622571
 20
148.4155650412
 30
0.0
 11
78.8920622571
 21
148.9155660545
 31
0.0
  0
LINE
  5
175
330
1F
100
AcDbEntity
  8
0
  6
Continuous
 62
     7
370
     0
100
AcDbLine
 10
75.2920623189
 20
148.9155660545
 30
0.0
 11
75.2920623189
 21
148.4155650412
 31
0.0
  0
LINE
  5
176
330
1F
100
AcDbEntity
  8
0
  6
Continuous
 62
     7
370
     0
100
AcDbLine
 10
78.8920622571
 20
150.9155663823
 30
0.0
 11
78.8920622571
 21
151.4155636703
 31
0.0
  0
LINE
  5
177
330
1F
100
AcDbEntity
  8
0
  6
Continuous
 62
     7
370
     0
100
AcDbLine
 10
75.2920623189
 20
151.4155636703
 30
0.0
 11
75.2920623189
 21
150.9155663823
 31
0.0
  0
LINE
  5
178
330
1F
100
AcDbEntity
  8
0
  6
Continuous
 62
     7
370
     0
100
AcDbLine
 10
78.6920622476
 20
151.4155636703
 30
0.0
 11
78.6920622476
 21
153.4155639981
 31
0.0
  0
LINE
  5
179
330
1F
100
AcDbEntity
  8
0
  6
Continuous
 62
     7
370
     0
100
AcDbLine
 10
75.492062212
 20
153.4155639981
 30
0.0
 11
75.492062212
 21
151.4155636703
 31
0.0
  0
LINE
  5
17A
330
1F
100
AcDbEntity
  8
0
  6
Continuous
 62
     7
370
     0
100
AcDbLine
 10
60.7467285144
 20
237.6840221857
 30
0.0
 11
60.5829349505
 21
238.6705200349
 31
0.0
  0
LINE
  5
17B
330
1F
100
AcDbEntity
  8
0
  6
Continuous
 62
     7
370
     0
100
AcDbLine
 10
57.3433219242
 20
237.1189366256
 30
0.0
 11
58.1622878807
 21
232.1864622807
 31
0.0
  0
LINE
  5
17C
330
1F
100
AcDbEntity
  8
0
  6
Continuous
 62
     7
370
     0
100
AcDbLine
 10
61.0231227028
 20
232.6614628707
 30
0.0
 11
60.2041567462
 21
237.5939372157
 31
0.0
  0
LINE
  5
17D
330
1F
100
AcDbEntity
  8
0
  6
Continuous
 62
     7
370
     0
100
AcDbLine
 10
57.59206142
 20
172.4155652498
 30
0.0
 11
57.59206142
 21
219.4155655031
 31
0.0
  0
LINE
  5
17E
330
1F
100
AcDbEntity
  8
0
  6
Continuous
 62
     7
370
     0
100
AcDbLine
 10
58.5920615839
 20
220.4155638044
 30
0.0
 11
58.5920615839
 21
172.4155652498
 31
0.0
  0
LINE
  5
17F
330
1F
100
AcDbEntity
  8
0
  6
Continuous
 62
     7
370
     0
100
AcDbLine
 10
58.5920615839
 20
172.4155652498
 30
0.0
 11
57.59206142
 21
172.4155652498
 31
0.0
  0
LINE
  5
180
330
1F
100
AcDbEntity
  8
0
  6
Continuous
 62
     7
370
     0
100
AcDbLine
 10
57.59206142
 20
219.4155655031
 30
0.0
 11
58.5920615839
 21
220.4155638044
 31
0.0
  0
LINE
  5
181
330
1F
100
AcDbEntity
  8
0
  6
Continuous
 62
     7
370
     0
100
AcDbLine
 10
95.5920620608
 20
172.4155652498
 30
0.0
 11
95.5920620608
 21
220.4155638044
 31
0.0
  0
LINE
  5
182
330
1F
100
AcDbEntity
  8
0
  6
Continuous
 62
     7
370
     0
100
AcDbLine
 10
93.1920624124
 20
222.8155653154
 30
0.0
 11
60.9920630949
 21
222.8155653154
 31
0.0
  0
LINE
  5
183
330
1F
100
AcDbEntity
  8
0
  6
Continuous
 62
     7
370
     0
100
AcDbLine
 10
95.5920620608
 20
220.4155638044
 30
0.0
 11
93.1920624124
 21
222.8155653154
 31
0.0
  0
CIRCLE
  5
184
330
1F
100
AcDbEntity
  8
0
  6
Continuous
 62
     7
370
     0
100
AcDbCircle
 10
63.5920622644
 20
212.915564732
 30
0.0
 40
2.299999999999983
  0
CIRCLE
  5
185
330
1F
100
AcDbEntity
  8
0
  6
Continuous
 62
     7
370
     0
100
AcDbCircle
 10
90.5920622644
 20
212.915564732
 30
0.0
 40
2.299999999999983
  0
CIRCLE
  5
186
330
1F
100
AcDbEntity
  8
0
  6
Continuous
 62
     7
370
     0
100
AcDbCircle
 10
77.0920622644
 20
208.415564732
 30
0.0
 40
2.624999999999972
  0
CIRCLE
  5
187
330
1F
100
AcDbEntity
  8
0
  6
Continuous
 62
     7
370
     0
100
AcDbCircle
 10
64.5920622644
 20
176.915564732
 30
0.0
 40
2.624999999999972
  0
CIRCLE
  5
188
330
1F
100
AcDbEntity
  8
0
  6
Continuous
 62
     7
370
     0
100
AcDbCircle
 10
89.5920622644
 20
176.915564732
 30
0.0
 40
2.624999999999972
  0
LINE
  5
189
330
1F
100
AcDbEntity
  8
0
  6
Continuous
 62
     7
370
     0
100
AcDbLine
 10
95.5920620608
 20
172.4155652498
 30
0.0
 11
58.5920615839
 21
172.4155652498
 31
0.0
  0
LINE
  5
18A
330
1F
100
AcDbEntity
  8
0
  6
Continuous
 62
     7
370
     0
100
AcDbLine
 10
60.9920630949
 20
222.8155653154
 30
0.0
 11
58.5920615839
 21
220.4155638044
 31
0.0
  0
LINE
  5
18B
330
1F
100
AcDbEntity
  8
0
  6
Continuous
 62
     7
370
     0
100
AcDbLine
 10
62.5920622396
 20
224.4155663227
 30
0.0
 11
72.0920623998
 21
224.4155663227
 31
0.0
  0
LINE
  5
18C
330
1F
100
AcDbEntity
  8
0
  6
Continuous
 62
     7
370
     0
100
AcDbLine
 10
72.0920623998
 20
224.4155663227
 30
0.0
 11
72.0920623998
 21
225.8155639445
 31
0.0
  0
LINE
  5
18D
330
1F
100
AcDbEntity
  8
0
  6
Continuous
 62
     7
370
     0
100
AcDbLine
 10
72.0920623998
 20
225.8155639445
 30
0.0
 11
82.0920621763
 21
225.8155639445
 31
0.0
  0
LINE
  5
18E
330
1F
100
AcDbEntity
  8
0
  6
Continuous
 62
     7
370
     0
100
AcDbLine
 10
82.0920621763
 20
225.8155639445
 30
0.0
 11
82.0920621763
 21
224.4155663227
 31
0.0
  0
LINE
  5
18F
330
1F
100
AcDbEntity
  8
0
  6
Continuous
 62
     7
370
     0
100
AcDbLine
 10
82.0920621763
 20
224.4155663227
 30
0.0
 11
91.5920623364
 21
224.4155663227
 31
0.0
  0
LINE
  5
190
330
1F
100
AcDbEntity
  8
0
  6
Continuous
 62
     7
370
     0
100
AcDbLine
 10
91.5920623364
 20
224.4155663227
 30
0.0
 11
93.1920624124
 21
222.8155653154
 31
0.0
  0
LINE
  5
191
330
1F
100
AcDbEntity
  8
0
  6
Continuous
 62
     7
370
     0
100
AcDbLine
 10
60.9920630949
 20
222.8155653154
 30
0.0
 11
62.5920622396
 21
224.4155663227
 31
0.0
  0
CIRCLE
  5
192
330
1F
100
AcDbEntity
  8
0
  6
Continuous
 62
     7
370
     0
100
AcDbCircle
 10
63.5920622644
 20
212.915564732
 30
0.0
 40
2.0
  0
CIRCLE
  5
193
330
1F
100
AcDbEntity
  8
0
  6
Continuous
 62
     7
370
     0
100
AcDbCircle
 10
64.5920622644
 20
176.915564732
 30
0.0
 40
2.099999999999966
  0
CIRCLE
  5
194
330
1F
100
AcDbEntity
  8
0
  6
Continuous
 62
     7
370
     0
100
AcDbCircle
 10
77.0920622644
 20
208.415564732
 30
0.0
 40
2.099999999999966
  0
CIRCLE
  5
195
330
1F
100
AcDbEntity
  8
0
  6
Continuous
 62
     7
370
     0
100
AcDbCircle
 10
89.5920622644
 20
176.915564732
 30
0.0
 40
2.099999999999966
  0
CIRCLE
  5
196
330
1F
100
AcDbEntity
  8
0
  6
Continuous
 62
     7
370
     0
100
AcDbCircle
 10
90.5920622644
 20
212.915564732
 30
0.0
 40
2.0
  0
LINE
  5
197
330
1F
100
AcDbEntity
  8
0
  6
Continuous
 62
     7
370
     0
100
AcDbLine
 10
96.5920622247
 20
219.4155655031
 30
0.0
 11
96.5920622247
 21
172.4155652498
 31
0.0
  0
LINE
  5
198
330
1F
100
AcDbEntity
  8
0
  6
Continuous
 62
     7
370
     0
100
AcDbLine
 10
95.5920620608
 20
220.4155638044
 30
0.0
 11
96.5920622247
 21
219.4155655031
 31
0.0
  0
LINE
  5
199
330
1F
100
AcDbEntity
  8
0
  6
Continuous
 62
     7
370
     0
100
AcDbLine
 10
96.5920622247
 20
172.4155652498
 30
0.0
 11
95.5920620608
 21
172.4155652498
 31
0.0
  0
LINE
  5
19A
330
1F
100
AcDbEntity
  8
0
  6
Continuous
 62
     7
370
     0
100
AcDbLine
 10
82.0920621763
 20
156.4155663525
 30
0.0
 11
72.0920623998
 21
156.4155663525
 31
0.0
  0
LINE
  5
19B
330
1F
100
AcDbEntity
  8
0
  6
Continuous
 62
     7
370
     0
100
AcDbLine
 10
71.0920622359
 20
157.4155646538
 30
0.0
 11
83.0920623402
 21
157.4155646538
 31
0.0
  0
LINE
  5
19C
330
1F
100
AcDbEntity
  8
0
  6
Continuous
 62
     7
370
     0
100
AcDbLine
 10
63.7306897687
 20
239.3960165953
 30
0.0
 11
63.7538871514
 21
239.2478208219
 31
0.0
  0
ARC
  5
19D
330
1F
100
AcDbEntity
  8
0
  6
Continuous
 62
     7
370
     0
100
AcDbCircle
 10
63.2976631304
 20
242.1623308635
 30
0.0
 40
2.949999999999989
100
AcDbArc
 50
287.8966301481
 51
278.8966301481
  0
LINE
  5
19E
330
1F
100
AcDbEntity
  8
0
  6
Continuous
 62
     7
370
     0
100
AcDbLine
 10
64.1581053632
 20
239.4978176033
 30
0.0
 11
64.2042002427
 21
239.3550756549
 31
0.0
  0
LINE
  5
19F
330
1F
100
AcDbEntity
  8
0
  6
Continuous
 62
     7
370
     0
100
AcDbLine
 10
62.7991092178
 20
261.5023250853
 30
0.0
 11
62.615833317
 21
261.3092358386
 31
0.0
  0
LINE
  5
1A0
330
1F
100
AcDbEntity
  8
0
  6
Continuous
 62
     7
370
     0
100
AcDbLine
 10
60.9217724549
 20
259.5244865095
 30
0.0
 11
60.8519083607
 21
259.4508822237
 31
0.0
  0
LINE
  5
1A1
330
1F
100
AcDbEntity
  8
0
  6
Continuous
 62
     7
370
     0
100
AcDbLine
 10
62.7991092178
 20
261.5023250853
 30
0.0
 11
63.9612265649
 21
261.532619146
 31
0.0
  0
LINE
  5
1A2
330
1F
100
AcDbEntity
  8
0
  6
Continuous
 62
     7
370
     0
100
AcDbLine
 10
68.5765259686
 20
261.6529385721
 30
0.0
 11
68.893629198
 21
261.661201266
 31
0.0
  0
ARC
  5
1A3
330
1F
100
AcDbEntity
  8
0
  6
Continuous
 62
     7
370
     0
100
AcDbCircle
 10
68.9196899233
 20
260.6615428635
 30
0.0
 40
0.9999999999999909
100
AcDbArc
 50
7.303411599
 51
91.4933121713
  0
LINE
  5
1A4
330
1F
100
AcDbEntity
  8
0
  6
Continuous
 62
     7
370
     0
100
AcDbLine
 10
69.9115768793
 20
260.7886637722
 30
0.0
 11
73.4384647357
 21
233.2700002169
 31
0.0
  0
LINE
  5
1A5
330
1F
100
AcDbEntity
  8
0
  6
Continuous
 62
     7
370
     0
100
AcDbLine
 10
73.4384647357
 20
233.2700002169
 30
0.0
 11
73.466283341
 21
232.2028870856
 31
0.0
  0
LINE
  5
1A6
330
1F
100
AcDbEntity
  8
0
  6
Continuous
 62
     7
370
     0
100
AcDbLine
 10
61.8432081091
 20
253.9748544966
 30
0.0
 11
61.4950704175
 21
253.9657796895
 31
0.0
  0
ARC
  5
1A7
330
1F
100
AcDbEntity
  8
0
  6
Continuous
 62
     7
370
     0
100
AcDbCircle
 10
61.4820407666
 20
254.4656114652
 30
0.0
 40
0.5000000000000024
100
AcDbArc
 50
181.4933121713
 51
271.4933121713
  0
LINE
  5
1A8
330
1F
100
AcDbEntity
  8
0
  6
Continuous
 62
     7
370
     0
100
AcDbLine
 10
60.9822097021
 20
254.4525782739
 30
0.0
 11
60.8519083607
 21
259.4508822237
 31
0.0
  0
LWPOLYLINE
  5
1A9
330
1F
100
AcDbEntity
  8
0
  6
Continuous
 62
     7
370
     0
100
AcDbPolyline
 90
        9
 70
   128
 43
0.0
 10
62.662544732
 20
242.3914144908
 10
62.5713384497
 20
242.3696923231
 10
62.4803612726
 20
242.3480223094
 10
62.3896476599
 20
242.3264156257
 10
62.2992283451
 20
242.3048834478
 10
62.2091377872
 20
242.2834257757
 10
62.1194067197
 20
242.2620537852
 10
62.0300668078
 20
242.240774927
 10
61.941151579
 20
242.2195966517
  0
ARC
  5
1AA
330
1F
100
AcDbEntity
  8
0
  6
Continuous
 62
     7
370
     0
100
AcDbCircle
 10
72.6991459649
 20
244.4014924435
 30
0.0
 40
10.9770265761425
100
AcDbArc
 50
191.4649997582
 51
195.3282398531
  0
LWPOLYLINE
  5
1AB
330
1F
100
AcDbEntity
  8
0
  6
Continuous
 62
     7
370
     0
100
AcDbPolyline
 90
        9
 70
   128
 43
0.0
 10
62.112602477
 20
241.4997327303
 10
62.2015177059
 20
241.5209110056
 10
62.2908566865
 20
241.5421898638
 10
62.3805886852
 20
241.5635618543
 10
62.4706792431
 20
241.5850158011
 10
62.5610985579
 20
241.6065517043
 10
62.651813102
 20
241.628158388
 10
62.7427893477
 20
241.6498246764
 10
62.8339956301
 20
241.6715505694
  0
ARC
  5
1AC
330
1F
100
AcDbEntity
  8
0
  6
Continuous
 62
     7
370
     0
100
AcDbCircle
 10
63.2976631304
 20
242.1623308635
 30
0.0
 40
0.6751696141506962
100
AcDbArc
 50
226.6272580425
 51
250.1660022536
  0
LWPOLYLINE
  5
1AD
330
1F
100
AcDbEntity
  8
0
  6
Continuous
 62
     7
370
     0
100
AcDbPolyline
 90
        9
 70
   128
 43
0.0
 10
63.0685808855
 20
241.5272141968
 10
63.0903030532
 20
241.4360041892
 10
63.1119712042
 20
241.3450288748
 10
63.1335769566
 20
241.2543143307
 10
63.1551119285
 20
241.1638978099
 10
63.1765696006
 20
241.0738053893
 10
63.1979406598
 20
240.9840743219
 10
63.2192185866
 20
240.89473441
 10
63.2403959306
 20
240.8058191811
  0
ARC
  5
1AE
330
1F
100
AcDbEntity
  8
0
  6
Continuous
 62
     7
370
     0
100
AcDbCircle
 10
61.0591339274
 20
251.5610375224
 30
0.0
 40
10.97417994636256
100
AcDbArc
 50
281.4646376858
 51
285.328882514
  0
LWPOLYLINE
  5
1AF
330
1F
100
AcDbEntity
  8
0
  6
Continuous
 62
     7
370
     0
100
AcDbPolyline
 90
        9
 70
   128
 43
0.0
 10
63.9602598521
 20
240.9772719418
 10
63.9390834394
 20
241.0661871706
 10
63.9178055125
 20
241.1555233573
 10
63.896433522
 20
241.2452544247
 10
63.8749767812
 20
241.3353468453
 10
63.853440878
 20
241.4257670914
 10
63.8318360569
 20
241.5164816355
 10
63.8101679059
 20
241.6074569499
 10
63.7884448069
 20
241.6986632322
  0
ARC
  5
1B0
330
1F
100
AcDbEntity
  8
0
  6
Continuous
 62
     7
370
     0
100
AcDbCircle
 10
63.2976631304
 20
242.1623308635
 30
0.0
 40
0.6751696141506863
100
AcDbArc
 50
316.6272580425
 51
340.1660022536
  0
LWPOLYLINE
  5
1B1
330
1F
100
AcDbEntity
  8
0
  6
Continuous
 62
     7
370
     0
100
AcDbPolyline
 90
        9
 70
   128
 43
0.0
 10
63.9327811795
 20
241.9332484876
 10
64.0239883932
 20
241.9549706553
 10
64.1149646389
 20
241.976640669
 10
64.2056791829
 20
241.9982436275
 10
64.2960975664
 20
242.0197795307
 10
64.3861890557
 20
242.0412372028
 10
64.4759201231
 20
242.0626091932
 10
64.5652591037
 20
242.0838880514
 10
64.6541743326
 20
242.1050626015
  0
ARC
  5
1B2
330
1F
100
AcDbEntity
  8
0
  6
Continuous
 62
     7
370
     0
100
AcDbCircle
 10
53.8986612374
 20
239.9237577818
 30
0.0
 40
10.9744773295508
100
AcDbArc
 50
11.4645508946
 51
15.3286887166
  0
LWPOLYLINE
  5
1B3
330
1F
100
AcDbEntity
  8
0
  6
Continuous
 62
     7
370
     0
100
AcDbPolyline
 90
        9
 70
   128
 43
0.0
 10
64.4827234345
 20
242.8249265229
 10
64.3938082057
 20
242.8037519728
 10
64.304469225
 20
242.7824731146
 10
64.2147381576
 20
242.7611011242
 10
64.1246466684
 20
242.7396434521
 10
64.0342273536
 20
242.7181075489
 10
63.9435137408
 20
242.6965045904
 10
63.8525365638
 20
242.6748345767
 10
63.7613302814
 20
242.653112409
  0
ARC
  5
1B4
330
1F
100
AcDbEntity
  8
0
  6
Continuous
 62
     7
370
     0
100
AcDbCircle
 10
63.2976631304
 20
242.1623308635
 30
0.0
 40
0.6751696141506962
100
AcDbArc
 50
46.6272580425
 51
70.1660022536
  0
LWPOLYLINE
  5
1B5
330
1F
100
AcDbEntity
  8
0
  6
Continuous
 62
     7
370
     0
100
AcDbPolyline
 90
        9
 70
   128
 43
0.0
 10
63.5267459574
 20
242.7974487816
 10
63.5050228583
 20
242.888655064
 10
63.4833547073
 20
242.9796341037
 10
63.4617489549
 20
243.0703449224
 10
63.440213983
 20
243.1607651686
 10
63.4187572422
 20
243.2508575891
 10
63.3973852518
 20
243.3405886566
 10
63.3761073249
 20
243.4299285685
 10
63.3549299809
 20
243.5188437973
  0
ARC
  5
1B6
330
1F
100
AcDbEntity
  8
0
  6
Continuous
 62
     7
370
     0
100
AcDbCircle
 10
65.5369295458
 20
232.7605287192
 30
0.0
 40
10.97736149633933
100
AcDbArc
 50
101.4651978818
 51
105.328322318
  0
LWPOLYLINE
  5
1B7
330
1F
100
AcDbEntity
  8
0
  6
Continuous
 62
     7
370
     0
100
AcDbPolyline
 90
        9
 70
   128
 43
0.0
 10
62.6350660595
 20
243.3473910367
 10
62.6562434035
 20
243.2584758078
 10
62.6775213304
 20
243.1691358959
 10
62.6988923895
 20
243.0794048285
 10
62.7203500616
 20
242.9893161332
 10
62.7418850335
 20
242.898895887
 10
62.7634907859
 20
242.808181343
 10
62.7851589369
 20
242.7172060286
 10
62.8068811046
 20
242.6259997462
  0
ARC
  5
1B8
330
1F
100
AcDbEntity
  8
0
  6
Continuous
 62
     7
370
     0
100
AcDbCircle
 10
63.2976631304
 20
242.1623308635
 30
0.0
 40
0.6751696141506968
100
AcDbArc
 50
136.6272580425
 51
160.1660022536
  0
CIRCLE
  5
1B9
330
1F
100
AcDbEntity
  8
0
  6
Continuous
 62
     7
370
     0
100
AcDbCircle
 10
63.2976631304
 20
242.1623308635
 30
0.0
 40
2.674418604651157
  0
SPLINE
  5
1BA
330
1F
100
AcDbEntity
  8
0
  6
Continuous
 62
     7
370
     0
100
AcDbSpline
210
0.0
220
0.0
230
1.0
 70
    24
 71
     3
 72
     8
 73
     4
 74
     0
 42
0.000000001
 43
0.00000001
 40
0.0
 40
0.0
 40
0.0
 40
0.0
 40
1.0
 40
1.0
 40
1.0
 40
1.0
 10
62.80688134834651
 20
242.6259980397211
 30
0.0
 10
62.8178881774945
 20
242.5797841502813
 30
0.0
 10
62.82925280410981
 20
242.5320679923521
 30
0.0
 10
62.8415763062453
 20
242.4803258459497
 30
0.0
  0
ARC
  5
1BB
330
1F
100
AcDbEntity
  8
0
  6
Continuous
 62
     7
370
     0
100
AcDbCircle
 10
63.2976631304
 20
242.1623308635
 30
0.0
 40
0.5560000000000125
100
AcDbArc
 50
145.1148405298
 51
151.6784197664
  0
SPLINE
  5
1BC
330
1F
100
AcDbEntity
  8
0
  6
Continuous
 62
     7
370
     0
100
AcDbSpline
210
0.0
220
0.0
230
1.0
 70
    24
 71
     3
 72
     8
 73
     4
 74
     0
 42
0.000000001
 43
0.00000001
 40
0.0
 40
0.0
 40
0.0
 40
0.0
 40
1.0
 40
1.0
 40
1.0
 40
1.0
 10
62.66254484405113
 20
242.391413316493
 30
0.0
 10
62.70875873349092
 20
242.4024201456409
 30
0.0
 10
62.75647489142011
 20
242.4137847722563
 30
0.0
 10
62.80821703782247
 20
242.4261082743918
 30
0.0
  0
ARC
  5
1BD
330
1F
100
AcDbEntity
  8
0
  6
Continuous
 62
     7
370
     0
100
AcDbCircle
 10
63.2976631304
 20
242.1623308635
 30
0.0
 40
0.5560000000000052
100
AcDbArc
 50
235.1148405298
 51
241.6784197664
  0
SPLINE
  5
1BE
330
1F
100
AcDbEntity
  8
0
  6
Continuous
 62
     7
370
     0
100
AcDbSpline
210
0.0
220
0.0
230
1.0
 70
    24
 71
     3
 72
     8
 73
     4
 74
     0
 42
0.000000001
 43
0.00000001
 40
0.0
 40
0.0
 40
0.0
 40
0.0
 40
1.0
 40
1.0
 40
1.0
 40
1.0
 10
63.06858067733835
 20
241.5272125771786
 30
0.0
 10
63.05757384819036
 20
241.5734264666184
 30
0.0
 10
63.04620922157503
 20
241.6211426245476
 30
0.0
 10
63.03388571943953
 20
241.6728847709499
 30
0.0
  0
SPLINE
  5
1BF
330
1F
100
AcDbEntity
  8
0
  6
Continuous
 62
     7
370
     0
100
AcDbSpline
210
0.0
220
0.0
230
1.0
 70
    24
 71
     3
 72
     8
 73
     4
 74
     0
 42
0.000000001
 43
0.00000001
 40
0.0
 40
0.0
 40
0.0
 40
0.0
 40
1.0
 40
1.0
 40
1.0
 40
1.0
 10
62.83399595411021
 20
241.671549081474
 30
0.0
 10
62.88020984355001
 20
241.6825559106219
 30
0.0
 10
62.92792600147919
 20
241.6939205372373
 30
0.0
 10
62.97966814788154
 20
241.7062440393728
 30
0.0
  0
SPLINE
  5
1C0
330
1F
100
AcDbEntity
  8
0
  6
Continuous
 62
     7
370
     0
100
AcDbSpline
210
0.0
220
0.0
230
1.0
 70
    24
 71
     3
 72
     8
 73
     4
 74
     0
 42
0.000000001
 43
0.00000001
 40
0.0
 40
0.0
 40
0.0
 40
0.0
 40
1.0
 40
1.0
 40
1.0
 40
1.0
 10
63.93278141665274
 20
241.9332484104658
 30
0.0
 10
63.88656752721295
 20
241.9222415813178
 30
0.0
 10
63.83885136928374
 20
241.9108769547025
 30
0.0
 10
63.78710922288139
 20
241.898553452567
 30
0.0
  0
SPLINE
  5
1C1
330
1F
100
AcDbEntity
  8
0
  6
Continuous
 62
     7
370
     0
100
AcDbSpline
210
0.0
220
0.0
230
1.0
 70
    24
 71
     3
 72
     8
 73
     4
 74
     0
 42
0.000000001
 43
0.00000001
 40
0.0
 40
0.0
 40
0.0
 40
0.0
 40
1.0
 40
1.0
 40
1.0
 40
1.0
 10
63.78844491235736
 20
241.6986636872377
 30
0.0
 10
63.77743808320938
 20
241.7448775766775
 30
0.0
 10
63.76607345659405
 20
241.7925937346066
 30
0.0
 10
63.75374995445854
 20
241.844335881009
 30
0.0
  0
ARC
  5
1C2
330
1F
100
AcDbEntity
  8
0
  6
Continuous
 62
     7
370
     0
100
AcDbCircle
 10
63.2976631304
 20
242.1623308635
 30
0.0
 40
0.5559999999999871
100
AcDbArc
 50
325.1148405298
 51
331.6784197664
  0
ARC
  5
1C3
330
1F
100
AcDbEntity
  8
0
  6
Continuous
 62
     7
370
     0
100
AcDbCircle
 10
63.2976631304
 20
242.1623308635
 30
0.0
 40
0.5560000000000163
100
AcDbArc
 50
55.1148405298
 51
61.6784197664
  0
SPLINE
  5
1C4
330
1F
100
AcDbEntity
  8
0
  6
Continuous
 62
     7
370
     0
100
AcDbSpline
210
0.0
220
0.0
230
1.0
 70
    24
 71
     3
 72
     8
 73
     4
 74
     0
 42
0.000000001
 43
0.00000001
 40
0.0
 40
0.0
 40
0.0
 40
0.0
 40
1.0
 40
1.0
 40
1.0
 40
1.0
 10
63.76133030659366
 20
242.6531126454848
 30
0.0
 10
63.71511641715386
 20
242.6421058163368
 30
0.0
 10
63.66740025922467
 20
242.6307411897215
 30
0.0
 10
63.6156581128223
 20
242.618417687586
 30
0.0
  0
SPLINE
  5
1C5
330
1F
100
AcDbEntity
  8
0
  6
Continuous
 62
     7
370
     0
100
AcDbSpline
210
0.0
220
0.0
230
1.0
 70
    24
 71
     3
 72
     8
 73
     4
 74
     0
 42
0.000000001
 43
0.00000001
 40
0.0
 40
0.0
 40
0.0
 40
0.0
 40
1.0
 40
1.0
 40
1.0
 40
1.0
 10
63.52674558336553
 20
242.7974491497802
 30
0.0
 10
63.53775241251351
 20
242.7512352603404
 30
0.0
 10
63.54911703912883
 20
242.7035191024112
 30
0.0
 10
63.56144054126431
 20
242.6517769560088
 30
0.0
  0
LINE
  5
1C6
330
1F
100
AcDbEntity
  8
0
  6
Continuous
 62
     7
370
     0
100
AcDbLine
 10
62.8252607557
 20
241.8691213404
 30
0.0
 11
62.8702594685
 21
241.6801857924
 31
0.0
  0
LINE
  5
1C7
330
1F
100
AcDbEntity
  8
0
  6
Continuous
 62
     7
370
     0
100
AcDbLine
 10
62.6988085704
 20
242.4000497138
 30
0.0
 11
62.7438072833
 21
242.2111141657
 31
0.0
  0
ELLIPSE
  5
1C8
330
1F
100
AcDbEntity
  8
0
  6
Continuous
 62
     7
370
     0
100
AcDbEllipse
 10
63.2305790927
 20
242.1463533608
 30
0.0
 11
0.4783124712508808
 21
0.113920375762234
 31
0.0
210
0.0
220
0.0
230
1.0
 40
0.9901159119
 41
2.772178939412765
 42
3.511006367766305
  0
LINE
  5
1C9
330
1F
100
AcDbEntity
  8
0
  6
Continuous
 62
     7
370
     0
100
AcDbLine
 10
63.0044537383
 20
242.6347318267
 30
0.0
 11
62.8155181902
 21
242.5897340452
 31
0.0
  0
LINE
  5
1CA
330
1F
100
AcDbEntity
  8
0
  6
Continuous
 62
     7
370
     0
100
AcDbLine
 10
63.5353821116
 20
242.7611868059
 30
0.0
 11
63.3464474949
 21
242.7161852991
 31
0.0
  0
ELLIPSE
  5
1CB
330
1F
100
AcDbEntity
  8
0
  6
Continuous
 62
     7
370
     0
100
AcDbEllipse
 10
63.2816856277
 20
242.2294149012
 30
0.0
 11
-0.1139203757616087
 21
0.47831247125103
 31
0.0
210
0.0
220
0.0
230
1.0
 40
0.9901159119
 41
5.913771593003888
 42
6.652599021357424
  0
LINE
  5
1CC
330
1F
100
AcDbEntity
  8
0
  6
Continuous
 62
     7
370
     0
100
AcDbLine
 10
63.5908721733
 20
241.6899274265
 30
0.0
 11
63.7798077213
 21
241.7349289333
 31
0.0
  0
LINE
  5
1CD
330
1F
100
AcDbEntity
  8
0
  6
Continuous
 62
     7
370
     0
100
AcDbLine
 10
63.0599437999
 20
241.5634761726
 30
0.0
 11
63.248879348
 21
241.6084739541
 31
0.0
  0
ELLIPSE
  5
1CE
330
1F
100
AcDbEntity
  8
0
  6
Continuous
 62
     7
370
     0
100
AcDbEllipse
 10
63.313640633
 20
242.0952468258
 30
0.0
 11
-0.1139203757626035
 21
0.4783124712508027
 31
0.0
210
0.0
220
0.0
230
1.0
 40
0.9901159119
 41
2.772178939412
 42
3.511006367765588
  0
LINE
  5
1CF
330
1F
100
AcDbEntity
  8
0
  6
Continuous
 62
     7
370
     0
100
AcDbLine
 10
63.7700660872
 20
242.455541638
 30
0.0
 11
63.725066443
 21
242.6444771861
 31
0.0
  0
LINE
  5
1D0
330
1F
100
AcDbEntity
  8
0
  6
Continuous
 62
     7
370
     0
100
AcDbLine
 10
63.8965182724
 20
241.9246132647
 30
0.0
 11
63.8515186282
 21
242.1135450875
 31
0.0
  0
ELLIPSE
  5
1D1
330
1F
100
AcDbEntity
  8
0
  6
Continuous
 62
     7
370
     0
100
AcDbEllipse
 10
63.364747168
 20
242.1783083661
 30
0.0
 11
0.4783124712509591
 21
0.1139203757620067
 31
0.0
210
0.0
220
0.0
230
1.0
 40
0.9901159119
 41
5.913771593003107
 42
6.652599021356624
  0
CIRCLE
  5
1D2
330
1F
100
AcDbEntity
  8
0
  6
Continuous
 62
     7
370
     0
100
AcDbCircle
 10
63.2976631304
 20
242.1623308635
 30
0.0
 40
2.799999999999994
  0
ARC
  5
1D3
330
1F
100
AcDbEntity
  8
0
  6
Continuous
 62
     7
370
     0
100
AcDbCircle
 10
63.2976631304
 20
242.1623308635
 30
0.0
 40
0.5560000000000146
100
AcDbArc
 50
174.9663426206
 51
211.8269176756
  0
ARC
  5
1D4
330
1F
100
AcDbEntity
  8
0
  6
Continuous
 62
     7
370
     0
100
AcDbCircle
 10
63.2976631304
 20
242.1623308635
 30
0.0
 40
0.5560000000000127
100
AcDbArc
 50
84.9663426206
 51
121.8269176756
  0
ARC
  5
1D5
330
1F
100
AcDbEntity
  8
0
  6
Continuous
 62
     7
370
     0
100
AcDbCircle
 10
63.2976631304
 20
242.1623308635
 30
0.0
 40
0.5559999999999989
100
AcDbArc
 50
264.9663426206
 51
301.8269176756
  0
ARC
  5
1D6
330
1F
100
AcDbEntity
  8
0
  6
Continuous
 62
     7
370
     0
100
AcDbCircle
 10
63.2976631304
 20
242.1623308635
 30
0.0
 40
0.5559999999999944
100
AcDbArc
 50
354.9663426206
 51
31.8269176756
  0
ARC
  5
1D7
330
1F
100
AcDbEntity
  8
0
  6
Continuous
 62
     7
370
     0
100
AcDbCircle
 10
63.2976631304
 20
242.1623308635
 30
0.0
 40
0.5560000000000146
100
AcDbArc
 50
151.6784197664
 51
174.9663426206
  0
ARC
  5
1D8
330
1F
100
AcDbEntity
  8
0
  6
Continuous
 62
     7
370
     0
100
AcDbCircle
 10
63.2976631304
 20
242.1623308635
 30
0.0
 40
0.556
100
AcDbArc
 50
241.6784197664
 51
264.9663426206
  0
ARC
  5
1D9
330
1F
100
AcDbEntity
  8
0
  6
Continuous
 62
     7
370
     0
100
AcDbCircle
 10
63.2976631304
 20
242.1623308635
 30
0.0
 40
0.5560000000000052
100
AcDbArc
 50
211.8269176756
 51
235.1148405298
  0
ARC
  5
1DA
330
1F
100
AcDbEntity
  8
0
  6
Continuous
 62
     7
370
     0
100
AcDbCircle
 10
63.2976631304
 20
242.1623308635
 30
0.0
 40
0.5560000000000065
100
AcDbArc
 50
121.8269176756
 51
145.1148405298
  0
ARC
  5
1DB
330
1F
100
AcDbEntity
  8
0
  6
Continuous
 62
     7
370
     0
100
AcDbCircle
 10
63.2976631304
 20
242.1623308635
 30
0.0
 40
0.5560000000000127
100
AcDbArc
 50
61.6784197664
 51
84.9663426206
  0
ARC
  5
1DC
330
1F
100
AcDbEntity
  8
0
  6
Continuous
 62
     7
370
     0
100
AcDbCircle
 10
63.2976631304
 20
242.1623308635
 30
0.0
 40
0.5560000000000163
100
AcDbArc
 50
31.8269176756
 51
55.1148405298
  0
ARC
  5
1DD
330
1F
100
AcDbEntity
  8
0
  6
Continuous
 62
     7
370
     0
100
AcDbCircle
 10
63.2976631304
 20
242.1623308635
 30
0.0
 40
0.5559999999999908
100
AcDbArc
 50
331.6784197664
 51
354.9663426206
  0
ARC
  5
1DE
330
1F
100
AcDbEntity
  8
0
  6
Continuous
 62
     7
370
     0
100
AcDbCircle
 10
63.2976631304
 20
242.1623308635
 30
0.0
 40
0.5559999999999989
100
AcDbArc
 50
301.8269176756
 51
325.1148405298
  0
LINE
  5
1DF
330
1F
100
AcDbEntity
  8
0
  6
Continuous
 62
     7
370
     0
100
AcDbLine
 10
76.2109438209
 20
153.7155653512
 30
0.0
 11
77.4756448072
 21
153.7155653512
 31
0.0
  0
SPLINE
  5
1E0
330
1F
100
AcDbEntity
  8
0
  6
Continuous
 62
     7
370
     0
100
AcDbSpline
210
0.0
220
0.0
230
1.0
 70
     8
 71
     3
 72
     8
 73
     4
 74
     0
 42
0.000000001
 43
0.00000001
 40
0.0
 40
0.0
 40
0.0
 40
0.0
 40
1.0
 40
1.0
 40
1.0
 40
1.0
 10
77.4756448000675
 20
153.7155647315891
 30
0.0
 10
77.93099344954666
 20
153.5286082099649
 30
0.0
 10
78.39890174294891
 20
153.4155647317717
 30
0.0
 10
78.88601890283199
 20
153.4155647318733
 30
0.0
  0
LINE
  5
1E1
330
1F
100
AcDbEntity
  8
0
  6
Continuous
 62
     7
370
     0
100
AcDbLine
 10
74.8928671955
 20
153.4155639981
 30
0.0
 11
78.8860189049
 21
153.4155639981
 31
0.0
  0
SPLINE
  5
1E2
330
1F
100
AcDbEntity
  8
0
  6
Continuous
 62
     7
370
     0
100
AcDbSpline
210
0.0
220
0.0
230
1.0
 70
     8
 71
     3
 72
     8
 73
     4
 74
     0
 42
0.000000001
 43
0.00000001
 40
0.0
 40
0.0
 40
0.0
 40
0.0
 40
1.0
 40
1.0
 40
1.0
 40
1.0
 10
74.89286718995425
 20
153.4155647319926
 30
0.0
 10
75.3481065166997
 20
153.4155647321043
 30
0.0
 10
75.78539404024626
 20
153.528608210452
 30
0.0
 10
76.21094384567472
 20
153.715564732105
 30
0.0
  0
LINE
  5
1E3
330
1F
100
AcDbEntity
  8
0
  6
Continuous
 62
     7
370
     0
100
AcDbLine
 10
76.2109438209
 20
153.7155653512
 30
0.0
 11
76.2109438209
 21
156.4155663525
 31
0.0
  0
LINE
  5
1E4
330
1F
100
AcDbEntity
  8
0
  6
Continuous
 62
     7
370
     0
100
AcDbLine
 10
77.4756448072
 20
156.4155663525
 30
0.0
 11
77.4756448072
 21
153.7155653512
 31
0.0
  0
LINE
  5
1E5
330
1F
100
AcDbEntity
  8
0
  6
Continuous
 62
     7
370
     0
100
AcDbLine
 10
80.29639309
 20
153.7155653512
 30
0.0
 11
80.29639309
 21
156.4155663525
 31
0.0
  0
SPLINE
  5
1E6
330
1F
100
AcDbEntity
  8
0
  6
Continuous
 62
     7
370
     0
100
AcDbSpline
210
0.0
220
0.0
230
1.0
 70
     8
 71
     3
 72
     8
 73
     4
 74
     0
 42
0.000000001
 43
0.00000001
 40
0.0
 40
0.0
 40
0.0
 40
0.0
 40
1.0
 40
1.0
 40
1.0
 40
1.0
 10
78.88601890282058
 20
153.4155647318884
 30
0.0
 10
79.37313606258846
 20
153.4155647319907
 30
0.0
 10
79.84104435561144
 20
153.5286082102241
 30
0.0
 10
80.29639300496224
 20
153.7155647318757
 30
0.0
  0
SPLINE
  5
1E7
330
1F
100
AcDbEntity
  8
0
  6
Continuous
 62
     7
370
     0
100
AcDbSpline
210
0.0
220
0.0
230
1.0
 70
     8
 71
     3
 72
     8
 73
     4
 74
     0
 42
0.000000001
 43
0.00000001
 40
0.0
 40
0.0
 40
0.0
 40
0.0
 40
1.0
 40
1.0
 40
1.0
 40
1.0
 10
73.57479053260984
 20
153.7155647322186
 30
0.0
 10
74.00034033862255
 20
153.5286082102775
 30
0.0
 10
74.43762786256865
 20
153.4155647318808
 30
0.0
 10
74.89286718995425
 20
153.4155647319926
 30
0.0
  0
LINE
  5
1E8
330
1F
100
AcDbEntity
  8
0
  6
Continuous
 62
     7
370
     0
100
AcDbLine
 10
73.5747903372
 20
156.4155663525
 30
0.0
 11
73.5747903372
 21
153.7155653512
 31
0.0
  0
LINE
  5
1E9
330
1F
100
AcDbEntity
  8
0
  6
Continuous
 62
     7
370
     0
100
AcDbLine
 10
80.29639309
 20
153.7155653512
 30
0.0
 11
80.9929164378
 21
153.7155653512
 31
0.0
  0
SPLINE
  5
1EA
330
1F
100
AcDbEntity
  8
0
  6
Continuous
 62
     7
370
     0
100
AcDbSpline
210
0.0
220
0.0
230
1.0
 70
     8
 71
     3
 72
     8
 73
     4
 74
     0
 42
0.000000001
 43
0.00000001
 40
0.0
 40
0.0
 40
0.0
 40
0.0
 40
1.0
 40
1.0
 40
1.0
 40
1.0
 10
80.99291653065224
 20
153.7155647317265
 30
0.0
 10
81.02271537450548
 20
153.5286082101084
 30
0.0
 10
81.05333614428407
 20
153.4155647319135
 30
0.0
 10
81.08521397724242
 20
153.4155647318733
 30
0.0
  0
LINE
  5
1EB
330
1F
100
AcDbEntity
  8
0
  6
Continuous
 62
     7
370
     0
100
AcDbLine
 10
78.8860189049
 20
153.4155639981
 30
0.0
 11
81.0852139975
 21
153.4155639981
 31
0.0
  0
LINE
  5
1EC
330
1F
100
AcDbEntity
  8
0
  6
Continuous
 62
     7
370
     0
100
AcDbLine
 10
73.5747903372
 20
153.7155653512
 30
0.0
 11
73.0066132518
 21
153.7155653512
 31
0.0
  0
SPLINE
  5
1ED
330
1F
100
AcDbEntity
  8
0
  6
Continuous
 62
     7
370
     0
100
AcDbSpline
210
0.0
220
0.0
230
1.0
 70
     8
 71
     3
 72
     8
 73
     4
 74
     0
 42
0.000000001
 43
0.00000001
 40
0.0
 40
0.0
 40
0.0
 40
0.0
 40
1.0
 40
1.0
 40
1.0
 40
1.0
 10
73.09891055156723
 20
153.4155647318787
 30
0.0
 10
73.06703271857249
 20
153.4155647317554
 30
0.0
 10
73.0364119487366
 20
153.5286082100993
 30
0.0
 10
73.00661310485114
 20
153.7155647319943
 30
0.0
  0
LINE
  5
1EE
330
1F
100
AcDbEntity
  8
0
  6
Continuous
 62
     7
370
     0
100
AcDbLine
 10
74.8928671955
 20
153.4155639981
 30
0.0
 11
73.0989105786
 21
153.4155639981
 31
0.0
  0
LINE
  5
1EF
330
1F
100
AcDbEntity
  8
0
  6
Continuous
 62
     7
370
     0
100
AcDbLine
 10
80.9929164378
 20
156.4155663525
 30
0.0
 11
80.9929164378
 21
153.7155653512
 31
0.0
  0
LINE
  5
1F0
330
1F
100
AcDbEntity
  8
0
  6
Continuous
 62
     7
370
     0
100
AcDbLine
 10
73.0066132518
 20
153.7155653512
 30
0.0
 11
73.0066132518
 21
156.4155663525
 31
0.0
  0
LINE
  5
1F1
330
1F
100
AcDbEntity
  8
0
  6
Continuous
 62
     7
370
     0
100
AcDbLine
 10
81.1775113242
 20
153.7155653512
 30
0.0
 11
81.1775113242
 21
156.4155663525
 31
0.0
  0
SPLINE
  5
1F2
330
1F
100
AcDbEntity
  8
0
  6
Continuous
 62
     7
370
     0
100
AcDbSpline
210
0.0
220
0.0
230
1.0
 70
     8
 71
     3
 72
     8
 73
     4
 74
     0
 42
0.000000001
 43
0.00000001
 40
0.0
 40
0.0
 40
0.0
 40
0.0
 40
1.0
 40
1.0
 40
1.0
 40
1.0
 10
81.0852139772063
 20
153.4155647318884
 30
0.0
 10
81.11709181017392
 20
153.4155647318489
 30
0.0
 10
81.14771258000715
 20
153.5286082100629
 30
0.0
 10
81.17751142386899
 20
153.7155647317383
 30
0.0
  0
LINE
  5
1F3
330
1F
100
AcDbEntity
  8
0
  6
Continuous
 62
     7
370
     0
100
AcDbLine
 10
75.2920623189
 20
148.4155650412
 30
0.0
 11
78.8920622571
 21
148.4155650412
 31
0.0
  0
LINE
  5
1F4
330
1F
100
AcDbEntity
  8
0
  6
Continuous
 62
     7
370
     0
100
AcDbLine
 10
75.592062275
 20
146.4155647134
 30
0.0
 11
78.5920622428
 21
146.4155647134
 31
0.0
  0
LINE
  5
1F5
330
1F
100
AcDbEntity
  8
0
  6
Continuous
 62
     7
370
     0
100
AcDbLine
 10
75.2920623189
 20
150.9155663823
 30
0.0
 11
78.8920622571
 21
150.9155663823
 31
0.0
  0
LINE
  5
1F6
330
1F
100
AcDbEntity
  8
0
  6
Continuous
 62
     7
370
     0
100
AcDbLine
 10
75.2920623189
 20
148.9155660545
 30
0.0
 11
78.8920622571
 21
148.9155660545
 31
0.0
  0
LINE
  5
1F7
330
1F
100
AcDbEntity
  8
0
  6
Continuous
 62
     7
370
     0
100
AcDbLine
 10
75.2920623189
 20
151.4155636703
 30
0.0
 11
78.8920622571
 21
151.4155636703
 31
0.0
  0
CIRCLE
  5
1F8
330
1F
100
AcDbEntity
  8
0
  6
Continuous
 62
     7
370
     0
100
AcDbCircle
 10
90.5920622644
 20
212.915564732
 30
0.0
 40
1.598076211353316
  0
CIRCLE
  5
1F9
330
1F
100
AcDbEntity
  8
0
  6
Continuous
 62
     7
370
     0
100
AcDbCircle
 10
64.9840419101
 20
257.647682865
 30
0.0
 40
0.9999999999999845
  0
CIRCLE
  5
1FA
330
1F
100
AcDbEntity
  8
0
  6
Continuous
 62
     7
370
     0
100
AcDbCircle
 10
70.4916040975
 20
231.1924988976
 30
0.0
 40
1.500000000000004
  0
LINE
  5
1FB
330
1F
100
AcDbEntity
  8
0
  6
Continuous
 62
     7
370
     0
100
AcDbLine
 10
61.1670139032
 20
228.3756244158
 30
0.0
 11
62.6781602176
 21
225.8404265319
 31
0.0
  0
ARC
  5
1FC
330
1F
100
AcDbEntity
  8
0
  6
Continuous
 62
     7
370
     0
100
AcDbCircle
 10
52.0979986702
 20
233.2999972851
 30
0.0
 40
10.0
100
AcDbArc
 50
345.7977619614
 51
9.427139692
  0
LINE
  5
1FD
330
1F
100
AcDbEntity
  8
0
  6
Continuous
 62
     7
370
     0
100
AcDbLine
 10
61.3228055435
 20
238.7933652078
 30
0.0
 11
61.9629463899
 21
234.9379281675
 31
0.0
  0
LINE
  5
1FE
330
1F
100
AcDbEntity
  8
0
  6
Continuous
 62
     7
370
     0
100
AcDbLine
 10
61.3228055435
 20
238.7933652078
 30
0.0
 11
65.7620318952
 21
239.5304325198
 31
0.0
  0
ARC
  5
1FF
330
1F
100
AcDbEntity
  8
0
  6
Continuous
 62
     7
370
     0
100
AcDbCircle
 10
65.4344457651
 20
241.5034226972
 30
0.0
 40
2.000000000000016
100
AcDbArc
 50
279.427139692
 51
9.427139692
  0
LINE
  5
200
330
1F
100
AcDbEntity
  8
0
  6
Continuous
 62
     7
370
     0
100
AcDbLine
 10
67.407434878
 20
241.8310078954
 30
0.0
 11
65.6876061829
 21
252.1892036473
 31
0.0
  0
ARC
  5
201
330
1F
100
AcDbEntity
  8
0
  6
Continuous
 62
     7
370
     0
100
AcDbCircle
 10
63.7146165307
 20
251.8616169126
 30
0.0
 40
2.00000000000008
100
AcDbArc
 50
9.427139692
 51
99.427139692
  0
LINE
  5
202
330
1F
100
AcDbEntity
  8
0
  6
Continuous
 62
     7
370
     0
100
AcDbLine
 10
63.3870298761
 20
253.8346047675
 30
0.0
 11
61.9072886902
 21
253.5889144217
 31
0.0
  0
LINE
  5
203
330
1F
100
AcDbEntity
  8
0
  6
Continuous
 62
     7
370
     0
100
AcDbLine
 10
61.9072886902
 20
253.5889144217
 30
0.0
 11
60.8426323878
 21
260.0011299526
 31
0.0
  0
LINE
  5
204
330
1F
100
AcDbEntity
  8
0
  6
Continuous
 62
     7
370
     0
100
AcDbLine
 10
61.6653329479
 20
261.1514176404
 30
0.0
 11
60.8426323878
 21
260.0011299526
 31
0.0
  0
LINE
  5
205
330
1F
100
AcDbEntity
  8
0
  6
Continuous
 62
     7
370
     0
100
AcDbLine
 10
68.4721461284
 20
262.2815962111
 30
0.0
 11
61.6653329479
 21
261.1514176404
 31
0.0
  0
LINE
  5
206
330
1F
100
AcDbEntity
  8
0
  6
Continuous
 62
     7
370
     0
100
AcDbLine
 10
74.1066346663
 20
228.346175996
 30
0.0
 11
68.4721461284
 21
262.2815962111
 31
0.0
  0
LINE
  5
207
330
1F
100
AcDbEntity
  8
0
  6
Continuous
 62
     7
370
     0
100
AcDbLine
 10
73.6130136783
 20
227.6560026382
 30
0.0
 11
74.1066346663
 21
228.346175996
 31
0.0
  0
LINE
  5
208
330
1F
100
AcDbEntity
  8
0
  6
Continuous
 62
     7
370
     0
100
AcDbLine
 10
62.6781602176
 20
225.8404265319
 30
0.0
 11
73.6130136783
 21
227.6560026382
 31
0.0
  0
LINE
  5
209
330
1F
100
AcDbEntity
  8
0
  6
Continuous
 62
     7
370
     0
100
AcDbLine
 10
61.7923560339
 20
230.8465461408
 30
0.0
 11
61.1670139032
 21
228.3756244158
 31
0.0
  0
LINE
  5
20A
330
1F
100
AcDbEntity
  8
0
  6
Continuous
 62
     7
370
     0
100
AcDbLine
 10
61.9072886902
 20
253.5889144217
 30
0.0
 11
62.1529771733
 21
252.1091732358
 31
0.0
  0
ARC
  5
20B
330
1F
100
AcDbEntity
  8
0
  6
Continuous
 62
     7
370
     0
100
AcDbCircle
 10
67.7256838488
 20
224.6511163848
 30
0.0
 40
2.000000000000025
100
AcDbArc
 50
99.427139692
 51
186.7637565217
  0
LINE
  5
20C
330
1F
100
AcDbEntity
  8
0
  6
Continuous
 62
     7
370
     0
100
AcDbLine
 10
57.59206142
 20
197.1577010279
 30
0.0
 11
55.8784092563
 21
207.4786941682
 31
0.0
  0
LINE
  5
20D
330
1F
100
AcDbEntity
  8
0
  6
Continuous
 62
     7
370
     0
100
AcDbLine
 10
55.8784092563
 20
207.4786941682
 30
0.0
 11
57.59206142
 21
214.249869359
 31
0.0
  0
LINE
  5
20E
330
1F
100
AcDbEntity
  8
0
  6
Continuous
 62
     7
370
     0
100
AcDbLine
 10
59.342366715
 20
221.1658689355
 30
0.0
 11
61.1670139032
 21
228.3756244158
 31
0.0
  0
LINE
  5
20F
330
1F
100
AcDbEntity
  8
0
  6
Continuous
 62
     7
370
     0
100
AcDbLine
 10
58.2107334184
 20
257.5367610132
 30
0.0
 11
56.0404463457
 21
257.1764211332
 31
0.0
  0
LINE
  5
210
330
1F
100
AcDbEntity
  8
0
  6
Continuous
 62
     7
370
     0
100
AcDbLine
 10
58.2107334184
 20
257.5367610132
 30
0.0
 11
59.1934929388
 21
251.6177962696
 31
0.0
  0
LINE
  5
211
330
1F
100
AcDbEntity
  8
0
  6
Continuous
 62
     7
370
     0
100
AcDbLine
 10
58.7737384039
 20
237.3564387833
 30
0.0
 11
58.6099467027
 21
238.3429329072
 31
0.0
  0
LINE
  5
212
330
1F
100
AcDbEntity
  8
0
  6
Continuous
 62
     7
370
     0
100
AcDbLine
 10
58.7737384039
 20
237.3564387833
 30
0.0
 11
56.060879563
 21
236.9060064827
 31
0.0
  0
LINE
  5
213
330
1F
100
AcDbEntity
  8
0
  6
Continuous
 62
     7
370
     0
100
AcDbLine
 10
56.060879563
 20
236.9060064827
 30
0.0
 11
55.8970859992
 21
237.8925006067
 31
0.0
  0
LWPOLYLINE
  5
214
330
1F
100
AcDbEntity
  8
0
  6
Continuous
 62
     7
370
     0
100
AcDbPolyline
 90
        7
 70
   128
 43
0.0
 10
60.7467285144
 20
237.6840221857
 10
60.679500063
 20
237.672861216
 10
60.4823986786
 20
237.6401345407
 10
60.1688540327
 20
237.5880773341
 10
59.7602343904
 20
237.5202323472
 10
59.2843862968
 20
237.4412226652
 10
58.7737384039
 20
237.3564387833
  0
LWPOLYLINE
  5
215
330
1F
100
AcDbEntity
  8
0
  6
Continuous
 62
     7
370
     0
100
AcDbPolyline
 90
       12
 70
   128
 43
0.0
 10
61.0231227028
 20
232.6614628707
 10
60.9595729756
 20
232.6509128486
 10
60.7745713341
 20
232.6201941048
 10
60.4845556217
 20
232.5720447277
 10
60.1152955341
 20
232.5107339
 10
59.6995997029
 20
232.4417117213
 10
59.2744081067
 20
232.3711137449
 10
58.8774970519
 20
232.3052133595
 10
58.5441357242
 20
232.2498629962
 10
58.303943907
 20
232.2099837636
 10
58.1782637882
 20
232.1891146873
 10
58.1622878807
 20
232.1864622807
  0
SPLINE
  5
216
330
1F
100
AcDbEntity
  8
0
  6
Continuous
 62
     7
370
     0
100
AcDbSpline
210
0.0
220
0.0
230
1.0
 70
     8
 71
     3
 72
    14
 73
    10
 74
     0
 42
0.000000001
 43
0.00000001
 40
0.0
 40
0.0
 40
0.0
 40
0.0
 40
0.5000000000000159
 40
0.5000000000000159
 40
0.7500000000000142
 40
0.7500000000000142
 40
0.8750000000000071
 40
0.8750000000000071
 40
1.0
 40
1.0
 40
1.0
 40
1.0
 10
70.11183692804975
 20
232.5046735432355
 30
0.0
 10
70.09452980331992
 20
232.5257215129296
 30
0.0
 10
70.07242298138496
 20
232.5450484850747
 30
0.0
 10
70.02387768454224
 20
232.5670963147087
 30
0.0
 10
70.00512346810957
 20
232.5734723054375
 30
0.0
 10
69.96775205558056
 20
232.5777708370349
 30
0.0
 10
69.95377470836083
 20
232.5783360913607
 30
0.0
 10
69.9199810917811
 20
232.5748577519532
 30
0.0
 10
69.89806648854336
 20
232.5703030387186
 30
0.0
 10
69.87516339676773
 20
232.55997864601
 30
0.0
  0
ARC
  5
217
330
1F
100
AcDbEntity
  8
0
  6
Continuous
 62
     7
370
     0
100
AcDbCircle
 10
70.4916040975
 20
231.1924988976
 30
0.0
 40
1.366025403784435
100
AcDbArc
 50
106.1414033176
 51
73.8585966824
  0
SPLINE
  5
218
330
1F
100
AcDbEntity
  8
0
  6
Continuous
 62
     7
370
     0
100
AcDbSpline
210
0.0
220
0.0
230
1.0
 70
     8
 71
     3
 72
    14
 73
    10
 74
     0
 42
0.000000001
 43
0.00000001
 40
0.0
 40
0.0
 40
0.0
 40
0.0
 40
0.1250000000000019
 40
0.1250000000000019
 40
0.2500000000000038
 40
0.2500000000000038
 40
0.5000000000000099
 40
0.5000000000000099
 40
1.0
 40
1.0
 40
1.0
 40
1.0
 10
71.1080447983216
 20
232.55997864601
 30
0.0
 10
71.08528843589846
 20
232.5702368951834
 30
0.0
 10
71.06358762869077
 20
232.5747993226829
 30
0.0
 10
71.0295627788671
 20
232.5783437995391
 30
0.0
 10
71.01553269308991
 20
232.577766547109
 30
0.0
 10
70.97855148377549
 20
232.57355185669
 30
0.0
 10
70.95972484754276
 20
232.5672461640619
 30
0.0
 10
70.91080293909063
 20
232.5451143115195
 30
0.0
 10
70.88868578324588
 20
232.5257305020353
 30
0.0
 10
70.87137126703959
 20
232.5046735432356
 30
0.0
  0
LINE
  5
219
330
1F
100
AcDbEntity
  8
0
  6
Continuous
 62
     7
370
     0
100
AcDbLine
 10
70.2040829482
 20
232.2352524077
 30
0.0
 11
70.1501603025
 21
232.4308115219
 31
0.0
  0
ARC
  5
21A
330
1F
100
AcDbEntity
  8
0
  6
Continuous
 62
     7
370
     0
100
AcDbCircle
 10
70.0112778669
 20
232.1820880609
 30
0.0
 40
0.2000000000000066
100
AcDbArc
 50
295.8909827371
 51
15.4153010407
  0
ARC
  5
21B
330
1F
100
AcDbEntity
  8
0
  6
Continuous
 62
     7
370
     0
100
AcDbCircle
 10
70.4916040975
 20
231.1924988976
 30
0.0
 40
0.9000000000000107
100
AcDbArc
 50
115.8909827371
 51
64.1090172629
  0
ARC
  5
21C
330
1F
100
AcDbEntity
  8
0
  6
Continuous
 62
     7
370
     0
100
AcDbCircle
 10
70.9719303282
 20
232.1820880609
 30
0.0
 40
0.2000000000000066
100
AcDbArc
 50
164.5846989593
 51
244.1090172629
  0
LINE
  5
21D
330
1F
100
AcDbEntity
  8
0
  6
Continuous
 62
     7
370
     0
100
AcDbLine
 10
70.8330479237
 20
232.4308115219
 30
0.0
 11
70.7791252779
 21
232.2352524077
 31
0.0
  0
ARC
  5
21E
330
1F
100
AcDbEntity
  8
0
  6
Continuous
 62
     7
370
     0
100
AcDbCircle
 10
71.0258527049
 20
232.3776480129
 30
0.0
 40
0.2000000000000048
100
AcDbArc
 50
140.5705471975
 51
164.5846989593
  0
ARC
  5
21F
330
1F
100
AcDbEntity
  8
0
  6
Continuous
 62
     7
370
     0
100
AcDbCircle
 10
69.9573554902
 20
232.3776480129
 30
0.0
 40
0.2000000000000048
100
AcDbArc
 50
15.4153010407
 51
39.4294528025
  0
CIRCLE
  5
220
330
1F
100
AcDbEntity
  8
0
  6
Continuous
 62
     7
370
     0
100
AcDbCircle
 10
63.5920622644
 20
212.915564732
 30
0.0
 40
1.598076211353316
  0
LINE
  5
221
330
1F
100
AcDbEntity
  8
0
  6
Continuous
 62
     7
370
     0
100
AcDbLine
 10
56.8594123023
 20
252.2439430629
 30
0.0
 11
55.8766527819
 21
258.1629152571
 31
0.0
  0
ARC
  5
222
330
1F
100
AcDbEntity
  8
0
  6
Continuous
 62
     7
370
     0
100
AcDbCircle
 10
57.8459069231
 20
252.4077373589
 30
0.0
 40
1.000000000000011
100
AcDbArc
 50
189.427139692
 51
279.427139692
  0
LINE
  5
223
330
1F
100
AcDbEntity
  8
0
  6
Continuous
 62
     7
370
     0
100
AcDbLine
 10
62.9421734037
 20
252.240210322
 30
0.0
 11
58.0096999901
 21
251.4212425028
 31
0.0
  0
LINE
  5
224
330
1F
100
AcDbEntity
  8
0
  6
Continuous
 62
     7
370
     0
100
AcDbLine
 10
64.3225191879
 20
251.2529674148
 30
0.0
 11
62.9421734037
 21
252.240210322
 31
0.0
  0
LINE
  5
225
330
1F
100
AcDbEntity
  8
0
  6
Continuous
 62
     7
370
     0
100
AcDbLine
 10
64.3225191879
 20
251.2529674148
 30
0.0
 11
65.5073924708
 21
244.1167119121
 31
0.0
  0
LINE
  5
226
330
1F
100
AcDbEntity
  8
0
  6
Continuous
 62
     7
370
     0
100
AcDbLine
 10
66.0204077857
 20
241.0269188856
 30
0.0
 11
66.0587279844
 21
240.7961222505
 31
0.0
  0
LINE
  5
227
330
1F
100
AcDbEntity
  8
0
  6
Continuous
 62
     7
370
     0
100
AcDbLine
 10
65.0714860084
 20
239.4157792603
 30
0.0
 11
66.0587279844
 21
240.7961222505
 31
0.0
  0
LINE
  5
228
330
1F
100
AcDbEntity
  8
0
  6
Continuous
 62
     7
370
     0
100
AcDbLine
 10
61.3228055435
 20
238.7933652078
 30
0.0
 11
55.4038389372
 21
237.8106038248
 31
0.0
  0
CIRCLE
  5
229
330
1F
100
AcDbEntity
  8
0
  6
Continuous
 62
     7
370
     0
100
AcDbCircle
 10
56.7570276426
 20
246.1448033889
 30
0.0
 40
1.750000000000002
  0
LINE
  5
22A
330
1F
100
AcDbEntity
  8
0
  6
Continuous
 62
     7
370
     0
100
AcDbLine
 10
55.8766527819
 20
258.1629152571
 30
0.0
 11
52.1279732483
 21
257.5405012046
 31
0.0
  0
LINE
  5
22B
330
1F
100
AcDbEntity
  8
0
  6
Continuous
 62
     7
370
     0
100
AcDbLine
 10
55.4038389372
 20
237.8106038248
 30
0.0
 11
52.1279732483
 21
257.5405012046
 31
0.0
  0
LINE
  5
22C
330
1F
100
AcDbEntity
  8
0
  6
Continuous
 62
     7
370
     0
100
AcDbLine
 10
55.8766527819
 20
258.1629152571
 30
0.0
 11
55.794756
 21
258.6561585938
 31
0.0
  0
ARC
  5
22D
330
1F
100
AcDbEntity
  8
0
  6
Continuous
 62
     7
370
     0
100
AcDbCircle
 10
52.6212202056
 20
257.6223944622
 30
0.0
 40
0.5000000000000051
100
AcDbArc
 50
99.427139692
 51
189.427139692
  0
LINE
  5
22E
330
1F
100
AcDbEntity
  8
0
  6
Continuous
 62
     7
370
     0
100
AcDbLine
 10
55.794756
 20
258.6561585938
 30
0.0
 11
52.5393235283
 21
258.1156413232
 31
0.0
  0
LINE
  5
22F
330
1F
100
AcDbEntity
  8
0
  6
Continuous
 62
     7
370
     0
100
AcDbLine
 10
84.645509326
 20
232.0479597126
 30
0.0
 11
89.5593073937
 21
261.6427983319
 31
0.0
  0
LINE
  5
230
330
1F
100
AcDbEntity
  8
0
  6
Continuous
 62
     7
370
     0
100
AcDbLine
 10
89.5593073937
 20
261.6427983319
 30
0.0
 11
86.1065760973
 21
262.2160758053
 31
0.0
  0
LINE
  5
231
330
1F
100
AcDbEntity
  8
0
  6
Continuous
 62
     7
370
     0
100
AcDbLine
 10
81.1927780295
 20
232.6212371861
 30
0.0
 11
84.645509326
 21
232.0479597126
 31
0.0
  0
LINE
  5
232
330
1F
100
AcDbEntity
  8
0
  6
Continuous
 62
     7
370
     0
100
AcDbLine
 10
86.1065760973
 20
262.2160758053
 30
0.0
 11
81.1927780295
 21
232.6212371861
 31
0.0
  0
LWPOLYLINE
  5
233
330
1F
100
AcDbEntity
  8
0
  6
Continuous
 62
     7
370
     0
100
AcDbPolyline
 90
        4
 70
   128
 43
0.0
 10
89.7877990054
 20
261.6048599755
 10
90.0007151785
 20
261.445447353
 10
90.2797850567
 20
261.2365107213
 10
90.616921966
 20
260.9840925013
  0
LWPOLYLINE
  5
234
330
1F
100
AcDbEntity
  8
0
  6
Continuous
 62
     7
370
     0
100
AcDbPolyline
 90
        6
 70
   128
 43
0.0
 10
90.616921966
 20
260.9840925013
 10
90.771699396
 20
259.9070067679
 10
90.9390627193
 20
258.7423543607
 10
91.1160633686
 20
257.5106243764
 10
91.2995860698
 20
256.2335129057
 10
91.4863972711
 20
254.9335132514
  0
LINE
  5
235
330
1F
100
AcDbEntity
  8
0
  6
Continuous
 62
     7
370
     0
100
AcDbLine
 10
91.4863972711
 20
254.9335132514
 30
0.0
 11
87.6049930947
 21
231.5565790211
 31
0.0
  0
LWPOLYLINE
  5
236
330
1F
100
AcDbEntity
  8
0
  6
Continuous
 62
     7
370
     0
100
AcDbPolyline
 90
        9
 70
   128
 43
0.0
 10
89.5593073937
 20
261.6427983319
 10
89.5629237192
 20
261.6422022854
 10
89.5737633827
 20
261.6403992449
 10
89.5918012383
 20
261.6374041115
 10
89.6169925826
 20
261.6332243358
 10
89.649275017
 20
261.6278599178
 10
89.6885703104
 20
261.6213406598
 10
89.7347825366
 20
261.6136665617
 10
89.7877990054
 20
261.6048599755
  0
LWPOLYLINE
  5
237
330
1F
100
AcDbEntity
  8
0
  6
Continuous
 62
     7
370
     0
100
AcDbPolyline
 90
        9
 70
   128
 43
0.0
 10
87.6049930947
 20
231.5565790211
 10
87.0276271152
 20
231.6524419164
 10
86.4724480333
 20
231.7446204995
 10
85.9607924494
 20
231.8295757448
 10
85.5123224455
 20
231.9040368473
 10
85.1442726115
 20
231.9651465093
 10
84.8707869435
 20
232.0105540728
 10
84.702374951
 20
232.0385161017
 10
84.645509326
 20
232.0479597126
  0
LINE
  5
238
330
1F
100
AcDbEntity
  8
0
  6
Continuous
 62
     7
370
     0
100
AcDbLine
 10
96.5920622247
 20
197.1577010279
 30
0.0
 11
98.3057143884
 21
207.4786941682
 31
0.0
  0
ARC
  5
239
330
1F
100
AcDbEntity
  8
0
  6
Continuous
 62
     7
370
     0
100
AcDbCircle
 10
86.4584406799
 20
224.6511163848
 30
0.0
 40
2.000000000000023
100
AcDbArc
 50
353.2362434783
 51
80.572860308
  0
LINE
  5
23A
330
1F
100
AcDbEntity
  8
0
  6
Continuous
 62
     7
370
     0
100
AcDbLine
 10
80.9657085473
 20
227.5904859578
 30
0.0
 11
86.7860271382
 21
226.6241046762
 31
0.0
  0
LINE
  5
23B
330
1F
100
AcDbEntity
  8
0
  6
Continuous
 62
     7
370
     0
100
AcDbLine
 10
80.4720877922
 20
228.2806593155
 30
0.0
 11
80.9657085473
 21
227.5904859578
 31
0.0
  0
LINE
  5
23C
330
1F
100
AcDbEntity
  8
0
  6
Continuous
 62
     7
370
     0
100
AcDbLine
 10
98.3057143884
 20
207.4786941682
 30
0.0
 11
96.5920622247
 21
219.4037973111
 31
0.0
  0
LINE
  5
23D
330
1F
100
AcDbEntity
  8
0
  6
Continuous
 62
     7
370
     0
100
AcDbLine
 10
96.5900878208
 20
219.417539907
 30
0.0
 11
91.4863972711
 21
254.9335132514
 31
0.0
  0
LINE
  5
23E
330
1F
100
AcDbEntity
  8
0
  6
Continuous
 62
     7
370
     0
100
AcDbLine
 10
81.1927780295
 20
232.6212371861
 30
0.0
 11
80.4720877922
 21
228.2806593155
 31
0.0
  0
SPLINE
  5
23F
330
1F
100
AcDbEntity
  8
0
  6
Continuous
 62
     7
370
     0
100
AcDbSpline
210
0.0
220
0.0
230
1.0
 70
     8
 71
     3
 72
    12
 73
     8
 74
     0
 42
0.000000001
 43
0.00000001
 40
0.0
 40
0.0
 40
0.0
 40
0.0
 40
0.2500000000000053
 40
0.2500000000000053
 40
0.5000000000000107
 40
0.5000000000000107
 40
1.0
 40
1.0
 40
1.0
 40
1.0
 10
64.44707336280662
 20
256.8040806013716
 30
0.0
 10
64.47921776102442
 20
256.7836200934298
 30
0.0
 10
64.51511929302681
 20
256.7743326986276
 30
0.0
 10
64.57631210375197
 20
256.7716525257573
 30
0.0
 10
64.60275423908342
 20
256.7772406004837
 30
0.0
 10
64.67007498430486
 20
256.8026923339723
 30
0.0
 10
64.70094563927033
 20
256.8312917161367
 30
0.0
 10
64.7219721390342
 20
256.8635213551271
 30
0.0
  0
SPLINE
  5
240
330
1F
100
AcDbEntity
  8
0
  6
Continuous
 62
     7
370
     0
100
AcDbSpline
210
0.0
220
0.0
230
1.0
 70
     8
 71
     3
 72
    12
 73
     8
 74
     0
 42
0.000000001
 43
0.00000001
 40
0.0
 40
0.0
 40
0.0
 40
0.0
 40
0.5000000000000034
 40
0.5000000000000034
 40
0.7500000000000017
 40
0.7500000000000017
 40
1.0
 40
1.0
 40
1.0
 40
1.0
 10
65.24611168118126
 20
256.8635213551271
 30
0.0
 10
65.26713172014018
 20
256.8313016193262
 30
0.0
 10
65.29732494044126
 20
256.8030419547937
 30
0.0
 10
65.36517955967439
 20
256.7772522804776
 30
0.0
 10
65.39154274281461
 20
256.7716728636607
 30
0.0
 10
65.45279929872397
 20
256.774295289935
 30
0.0
 10
65.48888466485643
 20
256.7836319362822
 30
0.0
 10
65.52101045740882
 20
256.8040806013716
 30
0.0
  0
ARC
  5
241
330
1F
100
AcDbEntity
  8
0
  6
Continuous
 62
     7
370
     0
100
AcDbCircle
 10
64.9840419101
 20
257.647682865
 30
0.0
 40
0.8267949192431496
100
AcDbArc
 50
288.4798247181
 51
251.5201752819
  0
ARC
  5
242
330
1F
100
AcDbEntity
  8
0
  6
Continuous
 62
     7
370
     0
100
AcDbCircle
 10
64.9840419101
 20
257.647682865
 30
0.0
 40
0.6000000000000139
100
AcDbArc
 50
302.4775121859
 51
237.5224878141
  0
ARC
  5
243
330
1F
100
AcDbEntity
  8
0
  6
Continuous
 62
     7
370
     0
100
AcDbCircle
 10
64.5544670723
 20
256.9728010541
 30
0.0
 40
0.2000000000000551
100
AcDbArc
 50
342.0
 51
57.5224878141
  0
ARC
  5
244
330
1F
100
AcDbEntity
  8
0
  6
Continuous
 62
     7
370
     0
100
AcDbCircle
 10
65.4136167479
 20
256.9728010541
 30
0.0
 40
0.2000000000000475
100
AcDbArc
 50
122.4775121859
 51
198.0
  0
ARC
  5
245
330
1F
100
AcDbEntity
  8
0
  6
Continuous
 62
     7
370
     0
100
AcDbCircle
 10
64.5544670723
 20
256.9728010541
 30
0.0
 40
0.1999999999999975
100
AcDbArc
 50
326.8797162241
 51
342.0
  0
ARC
  5
246
330
1F
100
AcDbEntity
  8
0
  6
Continuous
 62
     7
370
     0
100
AcDbCircle
 10
65.4136167479
 20
256.9728010541
 30
0.0
 40
0.1999999999999705
100
AcDbArc
 50
198.0
 51
213.1202837759
  0
DIMENSION
  5
247
330
1F
100
AcDbEntity
  8
0
  6
Continuous
 62
     7
370
     0
100
AcDbDimension
  2
_D_5
 10
86.1548423815
 20
275.2073424236
 30
0.0
 11
77.3376277343
 21
275.2401010757
 31
0.0
 70
   160
  1
(<>)
 71
     2
 42
-1.0
  3
SLDDIMSTYLE0
100
AcDbAlignedDimension
 13
68.4721465546
 23
262.2815933075
 33
0.0
 14
86.1065758491
 24
262.2160760034
 34
0.0
 50
-0.2128703844
100
AcDbRotatedDimension
  0
DIMENSION
  5
253
330
1F
100
AcDbEntity
  8
0
  6
Continuous
 62
     7
370
     0
100
AcDbDimension
  2
_D_6
 10
120.3057147377
 20
146.415564732
 30
0.0
 11
120.3057147377
 21
204.3158203677
 31
0.0
 70
   160
  1
(<>)
 71
     2
 42
-1.0
  3
SLDDIMSTYLE0
100
AcDbAlignedDimension
 13
86.1065758491
 23
262.2160760034
 33
0.0
 14
78.5920622644
 24
146.415564732
 34
0.0
 50
90.0
100
AcDbRotatedDimension
  0
DIMENSION
  5
25F
330
1F
100
AcDbEntity
  8
0
  6
Continuous
 62
     7
370
     0
100
AcDbDimension
  2
_D_7
 10
104.4772071611
 20
176.915564732
 30
0.0
 11
104.4772071611
 21
164.415564732
 31
0.0
 70
   160
  1
<>
 71
     2
 42
-1.0
  3
SLDDIMSTYLE1
100
AcDbAlignedDimension
 13
96.5920622644
 23
172.415564732
 33
0.0
 14
89.5920622644
 24
176.915564732
 34
0.0
 50
90.0
100
AcDbRotatedDimension
  0
DIMENSION
  5
26C
330
1F
100
AcDbEntity
  8
0
  6
Continuous
 62
     7
370
     0
100
AcDbDimension
  2
_D_8
 10
104.4772071611
 20
208.415564732
 30
0.0
 11
104.4772071611
 21
192.665564732
 31
0.0
 70
   160
  1
<>
 71
     2
 42
-1.0
  3
SLDDIMSTYLE0
100
AcDbAlignedDimension
 13
89.5920622644
 23
176.915564732
 33
0.0
 14
77.0920622644
 24
208.415564732
 34
0.0
 50
90.0
100
AcDbRotatedDimension
  0
DIMENSION
  5
276
330
1F
100
AcDbEntity
  8
0
  6
Continuous
 62
     7
370
     0
100
AcDbDimension
  2
_D_9
 10
112.393774788
 20
172.415564732
 30
0.0
 11
112.393774788
 21
199.115564732
 31
0.0
 70
   160
  1
<>
 71
     2
 42
-1.0
  3
SLDDIMSTYLE0
100
AcDbAlignedDimension
 13
82.0920622644
 23
225.815564732
 33
0.0
 14
96.5920622644
 24
172.415564732
 34
0.0
 50
90.0
100
AcDbRotatedDimension
  0
DIMENSION
  5
280
330
1F
100
AcDbEntity
  8
0
  6
Continuous
 62
     7
370
     0
100
AcDbDimension
  2
_D_10
 10
112.393774788
 20
156.415564732
 30
0.0
 11
112.393774788
 21
164.415564732
 31
0.0
 70
   160
  1
<>
 71
     2
 42
-1.0
  3
SLDDIMSTYLE0
100
AcDbAlignedDimension
 13
96.5920622644
 23
172.415564732
 33
0.0
 14
82.0920622644
 24
156.415564732
 34
0.0
 50
90.0
100
AcDbRotatedDimension
  0
DIMENSION
  5
28A
330
1F
100
AcDbEntity
  8
0
  6
Continuous
 62
     7
370
     0
100
AcDbDimension
  2
_D_11
 10
83.0920622644
 20
139.6860309708
 30
0.0
 11
77.0920622644
 21
139.6860309708
 31
0.0
 70
   160
  1
%%c<>
 71
     2
 42
-1.0
  3
SLDDIMSTYLE1
100
AcDbAlignedDimension
 13
71.0920622644
 23
157.415564732
 33
0.0
 14
83.0920622644
 24
157.415564732
 34
0.0
 50
0.0
100
AcDbRotatedDimension
  0
DIMENSION
  5
297
330
1F
100
AcDbEntity
  8
0
  6
Continuous
 62
     7
370
     0
100
AcDbDimension
  2
_D_12
 10
89.5920622644
 20
132.0761092076
 30
0.0
 11
77.0920622644
 21
132.0761092076
 31
0.0
 70
   160
  1
<>
 71
     2
 42
-1.0
  3
SLDDIMSTYLE0
100
AcDbAlignedDimension
 13
64.5920622644
 23
176.915564732
 33
0.0
 14
89.5920622644
 24
176.915564732
 34
0.0
 50
0.0
100
AcDbRotatedDimension
  0
DIMENSION
  5
2A1
330
1F
100
AcDbEntity
  8
0
  6
Continuous
 62
     7
370
     0
100
AcDbDimension
  2
_D_13
 10
57.5920622644
 20
124.415564732
 30
0.0
 11
77.0920622644
 21
124.415564732
 31
0.0
 70
   160
  1
<>
 71
     2
 42
-1.0
  3
SLDDIMSTYLE0
100
AcDbAlignedDimension
 13
96.5920622644
 23
172.415564732
 33
0.0
 14
57.5920622644
 24
172.415564732
 34
0.0
 50
0.0
100
AcDbRotatedDimension
  0
DIMENSION
  5
2AB
330
1F
100
AcDbEntity
  8
0
  6
Continuous
 62
     7
370
     0
100
AcDbDimension
  2
_D_14
 10
66.3598292173
 20
175.147797779
 30
0.0
 11
38.1587236982
 21
189.5405721759
 31
0.0
 70
   163
  1
3-<>取付穴\P(両側口元面取有)
 71
     1
 42
-1.0
  3
SLDDIMSTYLE2
100
AcDbDiametricDimension
 15
62.8242953114
 25
178.683331685
 35
0.0
 40
0.0
  0
INSERT
  5
2BC
330
1F
100
AcDbEntity
  8
0
  6
Continuous
 62
     7
370
     0
100
AcDbBlockReference
  2
SW_NOTE_0
 10
38.671435065
 20
164.3861987409
 30
0.0
  0
LEADER
  5
2BE
330
1F
100
AcDbEntity
  8
0
  6
Continuous
 62
     7
370
     0
100
AcDbLeader
  3
SLDDIMSTYLE3
 76
     2
 10
75.8717638555
 20
149.9143152309
 30
0.0
 10
38.671435065
 20
164.3861987409
 30
0.0
  0
INSERT
  5
2CA
330
1F
100
AcDbEntity
  8
0
  6
Continuous
 62
     7
370
     0
100
AcDbBlockReference
  2
SW_CENTERMARKSYMBOL_0
 10
64.5920622644
 20
176.915564732
 30
0.0
  0
INSERT
  5
2D6
330
1F
100
AcDbEntity
  8
0
  6
Continuous
 62
     7
370
     0
100
AcDbBlockReference
  2
SW_CENTERMARKSYMBOL_1
 10
89.5920622644
 20
176.915564732
 30
0.0
  0
INSERT
  5
2E2
330
1F
100
AcDbEntity
  8
0
  6
Continuous
 62
     7
370
     0
100
AcDbBlockReference
  2
SW_CENTERMARKSYMBOL_2
 10
77.0920622644
 20
208.415564732
 30
0.0
  0
CIRCLE
  5
2E3
330
1F
100
AcDbEntity
  8
0
  6
Continuous
 62
     7
370
     0
100
AcDbCircle
 10
77.0920622644
 20
208.415564732
 30
0.0
 40
2.500000309215011
  0
CIRCLE
  5
2E4
330
1F
100
AcDbEntity
  8
0
  6
Continuous
 62
     7
370
     0
100
AcDbCircle
 10
89.5920622644
 20
176.915564732
 30
0.0
 40
2.49999980257553
  0
CIRCLE
  5
2E5
330
1F
100
AcDbEntity
  8
0
  6
Continuous
 62
     7
370
     0
100
AcDbCircle
 10
64.5920622644
 20
176.915564732
 30
0.0
 40
2.499999802575516
  0
LINE
  5
2E6
330
1F
100
AcDbEntity
  8
0
  6
Continuous
 62
     7
370
     0
100
AcDbLine
 10
60.3476623791
 20
91.618522618
 30
0.0
 11
60.3476623791
 21
90.9185219444
 31
0.0
  0
LINE
  5
2E7
330
1F
100
AcDbEntity
  8
0
  6
Continuous
 62
     7
370
     0
100
AcDbLine
 10
60.4976630556
 20
93.0150203295
 30
0.0
 11
60.4976630556
 21
91.618522618
 31
0.0
  0
LINE
  5
2E8
330
1F
100
AcDbEntity
  8
0
  6
Continuous
 62
     7
370
     0
100
AcDbLine
 10
66.0976628559
 20
92.418521259
 30
0.0
 11
66.0976628559
 21
93.0150203295
 31
0.0
  0
ARC
  5
2E9
330
1F
100
AcDbEntity
  8
0
  6
Continuous
 62
     7
370
     0
100
AcDbCircle
 10
60.7676631304
 20
93.0150203373
 30
0.0
 40
0.2699999999999889
100
AcDbArc
 50
122.3360259976
 51
180.0
  0
ARC
  5
2EA
330
1F
100
AcDbEntity
  8
0
  6
Continuous
 62
     7
370
     0
100
AcDbCircle
 10
65.8276631304
 20
93.0150203373
 30
0.0
 40
0.2699999999999862
100
AcDbArc
 50
0.0
 51
57.6639740024
  0
ARC
  5
2EB
330
1F
100
AcDbEntity
  8
0
  6
Continuous
 62
     7
370
     0
100
AcDbCircle
 10
63.2976631304
 20
89.0185218699
 30
0.0
 40
5.000000000000011
100
AcDbArc
 50
57.6639740024
 51
74.3983333807
  0
ARC
  5
2EC
330
1F
100
AcDbEntity
  8
0
  6
Continuous
 62
     7
370
     0
100
AcDbCircle
 10
63.2976631304
 20
89.0185218699
 30
0.0
 40
5.000000000000001
100
AcDbArc
 50
105.6016666193
 51
122.3360259976
  0
LINE
  5
2ED
330
1F
100
AcDbEntity
  8
0
  6
Continuous
 62
     7
370
     0
100
AcDbLine
 10
58.7737384039
 20
85.9685219713
 30
0.0
 11
59.5927062231
 21
85.9685219713
 31
0.0
  0
LINE
  5
2EE
330
1F
100
AcDbEntity
  8
0
  6
Continuous
 62
     7
370
     0
100
AcDbLine
 10
59.5927062231
 20
88.8685217016
 30
0.0
 11
58.7737384039
 21
88.8685217016
 31
0.0
  0
LINE
  5
2EF
330
1F
100
AcDbEntity
  8
0
  6
Continuous
 62
     7
370
     0
100
AcDbLine
 10
60.3476623791
 20
83.9185217284
 30
0.0
 11
60.3476623791
 21
83.2185219862
 31
0.0
  0
LINE
  5
2F0
330
1F
100
AcDbEntity
  8
0
  6
Continuous
 62
     7
370
     0
100
AcDbLine
 10
60.4976630556
 20
83.2185219862
 30
0.0
 11
60.4976630556
 21
81.8220233433
 31
0.0
  0
ARC
  5
2F1
330
1F
100
AcDbEntity
  8
0
  6
Continuous
 62
     7
370
     0
100
AcDbCircle
 10
60.7676631304
 20
81.8220234025
 30
0.0
 40
0.2700000000000058
100
AcDbArc
 50
180.0
 51
237.6639740024
  0
LWPOLYLINE
  5
2F2
330
1F
100
AcDbEntity
  8
0
  6
Continuous
 62
     7
370
     0
100
AcDbPolyline
 90
        3
 70
   128
 43
0.0
 10
60.6232444542
 20
81.5938930847
 10
60.8372716951
 20
81.4657673128
 10
60.9227950471
 20
81.4185222499
  0
LINE
  5
2F3
330
1F
100
AcDbEntity
  8
0
  6
Continuous
 62
     7
370
     0
100
AcDbLine
 10
68.9916043329
 20
89.4185226299
 30
0.0
 11
68.9916043329
 21
89.3185227998
 31
0.0
  0
LINE
  5
2F4
330
1F
100
AcDbEntity
  8
0
  6
Continuous
 62
     7
370
     0
100
AcDbLine
 10
68.9916043329
 20
85.5185218044
 30
0.0
 11
68.9916043329
 21
85.4185219742
 31
0.0
  0
LINE
  5
2F5
330
1F
100
AcDbEntity
  8
0
  6
Continuous
 62
     7
370
     0
100
AcDbLine
 10
71.9916038933
 20
85.4185219742
 30
0.0
 11
71.9916038933
 21
85.5185218044
 31
0.0
  0
LINE
  5
2F6
330
1F
100
AcDbEntity
  8
0
  6
Continuous
 62
     7
370
     0
100
AcDbLine
 10
71.9916038933
 20
89.3185227998
 30
0.0
 11
71.9916038933
 21
89.4185226299
 31
0.0
  0
LINE
  5
2F7
330
1F
100
AcDbEntity
  8
0
  6
Continuous
 62
     7
370
     0
100
AcDbLine
 10
52.121219297
 20
90.1185214408
 30
0.0
 11
52.121219297
 21
84.718522232
 31
0.0
  0
CIRCLE
  5
2F8
330
1F
100
AcDbEntity
  8
0
  6
Continuous
 62
     7
370
     0
100
AcDbCircle
 10
77.0920622644
 20
73.4185218699
 30
0.0
 40
4.999999999999986
  0
CIRCLE
  5
2F9
330
1F
100
AcDbEntity
  8
0
  6
Continuous
 62
     7
370
     0
100
AcDbCircle
 10
77.0920622644
 20
73.4185218699
 30
0.0
 40
5.999999999999986
  0
CIRCLE
  5
2FA
330
1F
100
AcDbEntity
  8
0
  6
Continuous
 62
     7
370
     0
100
AcDbCircle
 10
77.0920622644
 20
73.4185218699
 30
0.0
 40
1.0
  0
LINE
  5
2FB
330
1F
100
AcDbEntity
  8
0
  6
Continuous
 62
     7
370
     0
100
AcDbLine
 10
58.5920615839
 20
81.4185222499
 30
0.0
 11
57.59206142
 21
80.418522086
 31
0.0
  0
LINE
  5
2FC
330
1F
100
AcDbEntity
  8
0
  6
Continuous
 62
     7
370
     0
100
AcDbLine
 10
95.5920620608
 20
81.4185222499
 30
0.0
 11
58.5920615839
 21
81.4185222499
 31
0.0
  0
LINE
  5
2FD
330
1F
100
AcDbEntity
  8
0
  6
Continuous
 62
     7
370
     0
100
AcDbLine
 10
96.5920622247
 20
80.418522086
 30
0.0
 11
95.5920620608
 21
81.4185222499
 31
0.0
  0
LINE
  5
2FE
330
1F
100
AcDbEntity
  8
0
  6
Continuous
 62
     7
370
     0
100
AcDbLine
 10
96.5920622247
 20
66.4185216539
 30
0.0
 11
96.5920622247
 21
80.418522086
 31
0.0
  0
LINE
  5
2FF
330
1F
100
AcDbEntity
  8
0
  6
Continuous
 62
     7
370
     0
100
AcDbLine
 10
95.5920620608
 20
65.41852149
 30
0.0
 11
96.5920622247
 21
66.4185216539
 31
0.0
  0
LINE
  5
300
330
1F
100
AcDbEntity
  8
0
  6
Continuous
 62
     7
370
     0
100
AcDbLine
 10
95.5920620608
 20
65.41852149
 30
0.0
 11
58.5920615839
 21
65.41852149
 31
0.0
  0
LINE
  5
301
330
1F
100
AcDbEntity
  8
0
  6
Continuous
 62
     7
370
     0
100
AcDbLine
 10
57.59206142
 20
66.4185216539
 30
0.0
 11
58.5920615839
 21
65.41852149
 31
0.0
  0
LINE
  5
302
330
1F
100
AcDbEntity
  8
0
  6
Continuous
 62
     7
370
     0
100
AcDbLine
 10
57.59206142
 20
66.4185216539
 30
0.0
 11
57.59206142
 21
80.418522086
 31
0.0
  0
LINE
  5
303
330
1F
100
AcDbEntity
  8
0
  6
Continuous
 62
     7
370
     0
100
AcDbLine
 10
60.3476623791
 20
91.618522618
 30
0.0
 11
61.1670139032
 21
91.618522618
 31
0.0
  0
LINE
  5
304
330
1F
100
AcDbEntity
  8
0
  6
Continuous
 62
     7
370
     0
100
AcDbLine
 10
73.5687660771
 20
85.5185218044
 30
0.0
 11
73.5687660771
 21
89.3185227998
 31
0.0
  0
LINE
  5
305
330
1F
100
AcDbEntity
  8
0
  6
Continuous
 62
     7
370
     0
100
AcDbLine
 10
68.5704639899
 20
89.3185227998
 30
0.0
 11
68.5704639899
 21
85.5185218044
 31
0.0
  0
LINE
  5
306
330
1F
100
AcDbEntity
  8
0
  6
Continuous
 62
     7
370
     0
100
AcDbLine
 10
73.5687660771
 20
89.3185227998
 30
0.0
 11
68.5704639899
 21
89.3185227998
 31
0.0
  0
LINE
  5
307
330
1F
100
AcDbEntity
  8
0
  6
Continuous
 62
     7
370
     0
100
AcDbLine
 10
73.5687660771
 20
85.5185218044
 30
0.0
 11
68.5704639899
 21
85.5185218044
 31
0.0
  0
LINE
  5
308
330
1F
100
AcDbEntity
  8
0
  6
Continuous
 62
     7
370
     0
100
AcDbLine
 10
67.5447434905
 20
85.5185218044
 30
0.0
 11
67.5447434905
 21
89.3185227998
 31
0.0
  0
LINE
  5
309
330
1F
100
AcDbEntity
  8
0
  6
Continuous
 62
     7
370
     0
100
AcDbLine
 10
67.5447434905
 20
89.3185227998
 30
0.0
 11
68.5704639899
 21
89.3185227998
 31
0.0
  0
LINE
  5
30A
330
1F
100
AcDbEntity
  8
0
  6
Continuous
 62
     7
370
     0
100
AcDbLine
 10
68.5704639899
 20
85.5185218044
 30
0.0
 11
67.5447434905
 21
85.5185218044
 31
0.0
  0
LINE
  5
30B
330
1F
100
AcDbEntity
  8
0
  6
Continuous
 62
     7
370
     0
100
AcDbLine
 10
67.5447434905
 20
89.3185227998
 30
0.0
 11
67.2994480255
 21
89.3185227998
 31
0.0
  0
LINE
  5
30C
330
1F
100
AcDbEntity
  8
0
  6
Continuous
 62
     7
370
     0
100
AcDbLine
 10
67.5447434905
 20
85.5185218044
 30
0.0
 11
67.2994480255
 21
85.5185218044
 31
0.0
  0
ARC
  5
30D
330
1F
100
AcDbEntity
  8
0
  6
Continuous
 62
     7
370
     0
100
AcDbCircle
 10
63.2136956403
 20
89.2717409518
 30
0.0
 40
4.733184943801525
100
AcDbArc
 50
96.6869187989
 51
105.5961895805
  0
ARC
  5
30E
330
1F
100
AcDbEntity
  8
0
  6
Continuous
 62
     7
370
     0
100
AcDbCircle
 10
62.026877028
 20
93.5434670687
 30
0.0
 40
0.2997067304528969
100
AcDbArc
 50
73.3795071118
 51
106.6204928882
  0
ARC
  5
30F
330
1F
100
AcDbEntity
  8
0
  6
Continuous
 62
     7
370
     0
100
AcDbCircle
 10
63.3851445155
 20
89.2717512227
 30
0.0
 40
4.733174507240921
100
AcDbArc
 50
96.6869089566
 51
105.5961994227
  0
LINE
  5
310
330
1F
100
AcDbEntity
  8
0
  6
Continuous
 62
     7
370
     0
100
AcDbLine
 10
62.8339956301
 20
93.9727272727
 30
0.0
 11
63.0685808855
 21
93.9727272727
 31
0.0
  0
ARC
  5
311
330
1F
100
AcDbEntity
  8
0
  6
Continuous
 62
     7
370
     0
100
AcDbCircle
 10
62.8066964509
 20
93.4810960834
 30
0.0
 40
0.5570320308045668
100
AcDbArc
 50
38.868356794
 51
61.9564527279
  0
ARC
  5
312
330
1F
100
AcDbEntity
  8
0
  6
Continuous
 62
     7
370
     0
100
AcDbCircle
 10
63.6003278914
 20
88.659740405
 30
0.0
 40
5.183423511950852
100
AcDbArc
 50
86.0182317336
 51
93.9817682664
  0
ARC
  5
313
330
1F
100
AcDbEntity
  8
0
  6
Continuous
 62
     7
370
     0
100
AcDbCircle
 10
63.5265828744
 20
93.4811232959
 30
0.0
 40
0.5569974341722472
100
AcDbArc
 50
38.8676298979
 51
61.957179624
  0
LINE
  5
314
330
1F
100
AcDbEntity
  8
0
  6
Continuous
 62
     7
370
     0
100
AcDbLine
 10
63.7884448069
 20
93.9727272727
 30
0.0
 11
63.9327811795
 21
93.9727272727
 31
0.0
  0
ARC
  5
315
330
1F
100
AcDbEntity
  8
0
  6
Continuous
 62
     7
370
     0
100
AcDbCircle
 10
63.381636395
 20
89.2717720457
 30
0.0
 40
4.733153348354184
100
AcDbArc
 50
74.4037806232
 51
83.3131109974
  0
LWPOLYLINE
  5
316
330
1F
100
AcDbEntity
  8
0
  6
Continuous
 62
     7
370
     0
100
AcDbPolyline
 90
        3
 70
   128
 43
0.0
 10
64.6290276917
 20
93.8375960924
 10
64.6354240152
 20
93.8361246027
 10
64.6541743326
 20
93.8306521513
  0
LINE
  5
317
330
1F
100
AcDbEntity
  8
0
  6
Continuous
 62
     7
370
     0
100
AcDbLine
 10
63.7613302814
 20
93.9727272727
 30
0.0
 11
63.5267459574
 21
93.9727272727
 31
0.0
  0
ARC
  5
318
330
1F
100
AcDbEntity
  8
0
  6
Continuous
 62
     7
370
     0
100
AcDbCircle
 10
63.7886199461
 20
93.481105873
 30
0.0
 40
0.5570184795134641
100
AcDbArc
 50
118.0430723648
 51
141.1318130691
  0
LWPOLYLINE
  5
319
330
1F
100
AcDbEntity
  8
0
  6
Continuous
 62
     7
370
     0
100
AcDbPolyline
 90
        3
 70
   128
 43
0.0
 10
63.2344065952
 20
93.8375960924
 10
63.2644277784
 20
93.8361246027
 10
63.3549299809
 20
93.8306521513
  0
LINE
  5
31A
330
1F
100
AcDbEntity
  8
0
  6
Continuous
 62
     7
370
     0
100
AcDbLine
 10
62.8068811046
 20
93.9727272727
 30
0.0
 11
62.662544732
 21
93.9727272727
 31
0.0
  0
LINE
  5
31B
330
1F
100
AcDbEntity
  8
0
  6
Continuous
 62
     7
370
     0
100
AcDbLine
 10
63.7884448069
 20
93.9727272727
 30
0.0
 11
63.7856806415
 21
93.8306521513
 31
0.0
  0
LINE
  5
31C
330
1F
100
AcDbEntity
  8
0
  6
Continuous
 62
     7
370
     0
100
AcDbLine
 10
63.7613302814
 20
93.9727272727
 30
0.0
 11
63.7497241395
 21
93.8306521513
 31
0.0
  0
LINE
  5
31D
330
1F
100
AcDbEntity
  8
0
  6
Continuous
 62
     7
370
     0
100
AcDbLine
 10
63.5295101228
 20
93.8306521513
 30
0.0
 11
63.5267459574
 21
93.9727272727
 31
0.0
  0
CIRCLE
  5
31E
330
1F
100
AcDbEntity
  8
0
  6
Continuous
 62
     7
370
     0
100
AcDbCircle
 10
77.0920622644
 20
73.4185218699
 30
0.0
 40
1.800000000000013
  0
CIRCLE
  5
31F
330
1F
100
AcDbEntity
  8
0
  6
Continuous
 62
     7
370
     0
100
AcDbCircle
 10
77.0920622644
 20
73.4185218699
 30
0.0
 40
1.500000000000013
  0
CIRCLE
  5
320
330
1F
100
AcDbEntity
  8
0
  6
Continuous
 62
     7
370
     0
100
AcDbCircle
 10
77.0920622644
 20
73.4185218699
 30
0.0
 40
1.049999999999996
  0
ARC
  5
321
330
1F
100
AcDbEntity
  8
0
  6
Continuous
 62
     7
370
     0
100
AcDbCircle
 10
77.0920622644
 20
73.4185218699
 30
0.0
 40
4.299999999970392
100
AcDbArc
 50
204.882113171
 51
221.8243043611
  0
SPLINE
  5
322
330
1F
100
AcDbEntity
  8
0
  6
Continuous
 62
     7
370
     0
100
AcDbSpline
210
0.0
220
0.0
230
1.0
 70
    24
 71
     3
 72
     8
 73
     4
 74
     0
 42
0.000000001
 43
0.00000001
 40
0.0
 40
0.0
 40
0.0
 40
0.0
 40
1.0
 40
1.0
 40
1.0
 40
1.0
 10
73.1912079980757
 20
71.60928556870566
 30
0.0
 10
73.16140915422243
 20
72.1178725287579
 30
0.0
 10
73.130788384514
 20
72.64048757704411
 30
0.0
 10
73.09891055155431
 20
73.1845573482693
 30
0.0
  0
ARC
  5
323
330
1F
100
AcDbEntity
  8
0
  6
Continuous
 62
     7
370
     0
100
AcDbCircle
 10
77.0920622644
 20
73.4185218699
 30
0.0
 40
3.999999999940352
100
AcDbArc
 50
183.3532087738
 51
243.3532087689
  0
SPLINE
  5
324
330
1F
100
AcDbEntity
  8
0
  6
Continuous
 62
     7
370
     0
100
AcDbSpline
210
0.0
220
0.0
230
1.0
 70
    24
 71
     3
 72
     8
 73
     4
 74
     0
 42
0.000000001
 43
0.00000001
 40
0.0
 40
0.0
 40
0.0
 40
0.0
 40
1.0
 40
1.0
 40
1.0
 40
1.0
 10
75.29810562667363
 20
69.84336878499323
 30
0.0
 10
74.81098846688886
 20
70.08779665742614
 30
0.0
 10
74.34308017383364
 20
70.32258581697008
 30
0.0
 10
73.88773152444494
 20
70.55107274121323
 30
0.0
  0
ARC
  5
325
330
1F
100
AcDbEntity
  8
0
  6
Continuous
 62
     7
370
     0
100
AcDbCircle
 10
77.0920622644
 20
73.4185218699
 30
0.0
 40
4.299999999977221
100
AcDbArc
 50
264.8821131727
 51
281.8243043587
  0
ARC
  5
326
330
1F
100
AcDbEntity
  8
0
  6
Continuous
 62
     7
370
     0
100
AcDbCircle
 10
77.0920622644
 20
73.4185218699
 30
0.0
 40
4.000000000000009
100
AcDbArc
 50
243.3532087689
 51
303.353208768
  0
SPLINE
  5
327
330
1F
100
AcDbEntity
  8
0
  6
Continuous
 62
     7
370
     0
100
AcDbSpline
210
0.0
220
0.0
230
1.0
 70
    24
 71
     3
 72
     8
 73
     4
 74
     0
 42
0.000000001
 43
0.00000001
 40
0.0
 40
0.0
 40
0.0
 40
0.0
 40
1.0
 40
1.0
 40
1.0
 40
1.0
 10
79.291257339642
 20
70.07733330582583
 30
0.0
 10
78.83601801269754
 20
69.77769140697055
 30
0.0
 10
78.39873048933404
 20
69.48986551827629
 30
0.0
 10
77.97318068369901
 20
69.20976548238127
 30
0.0
  0
SPLINE
  5
328
330
1F
100
AcDbEntity
  8
0
  6
Continuous
 62
     7
370
     0
100
AcDbSpline
210
0.0
220
0.0
230
1.0
 70
    24
 71
     3
 72
     8
 73
     4
 74
     0
 42
0.000000001
 43
0.00000001
 40
0.0
 40
0.0
 40
0.0
 40
0.0
 40
1.0
 40
1.0
 40
1.0
 40
1.0
 10
76.7084797293397
 20
69.13566482847206
 30
0.0
 10
76.25313107989844
 20
69.36415175274158
 30
0.0
 10
75.78522278652842
 20
69.59894091248434
 30
0.0
 10
75.29810562666222
 20
69.8433687849581
 30
0.0
  0
ARC
  5
329
330
1F
100
AcDbEntity
  8
0
  6
Continuous
 62
     7
370
     0
100
AcDbCircle
 10
77.0920622644
 20
73.4185218699
 30
0.0
 40
4.300000000147945
100
AcDbArc
 50
144.8821131734
 51
161.824304353
  0
SPLINE
  5
32A
330
1F
100
AcDbEntity
  8
0
  6
Continuous
 62
     7
370
     0
100
AcDbSpline
210
0.0
220
0.0
230
1.0
 70
    24
 71
     3
 72
     8
 73
     4
 74
     0
 42
0.000000001
 43
0.00000001
 40
0.0
 40
0.0
 40
0.0
 40
0.0
 40
1.0
 40
1.0
 40
1.0
 40
1.0
 10
73.57479053260984
 20
75.89214261022656
 30
0.0
 10
74.00034033862255
 20
76.17224264637018
 30
0.0
 10
74.43762786256865
 20
76.4600685354518
 30
0.0
 10
74.89286718995425
 20
76.75971043459744
 30
0.0
  0
ARC
  5
32B
330
1F
100
AcDbEntity
  8
0
  6
Continuous
 62
     7
370
     0
100
AcDbCircle
 10
77.0920622644
 20
73.4185218699
 30
0.0
 40
3.999999999999984
100
AcDbArc
 50
123.3532087452
 51
183.3532087738
  0
SPLINE
  5
32C
330
1F
100
AcDbEntity
  8
0
  6
Continuous
 62
     7
370
     0
100
AcDbSpline
210
0.0
220
0.0
230
1.0
 70
    24
 71
     3
 72
     8
 73
     4
 74
     0
 42
0.000000001
 43
0.00000001
 40
0.0
 40
0.0
 40
0.0
 40
0.0
 40
1.0
 40
1.0
 40
1.0
 40
1.0
 10
73.09891055156723
 20
73.18455734827205
 30
0.0
 10
73.06703271857249
 20
73.7286271200951
 30
0.0
 10
73.0364119487366
 20
74.25124216903221
 30
0.0
 10
73.00661310485114
 20
74.75982912963379
 30
0.0
  0
ARC
  5
32D
330
1F
100
AcDbEntity
  8
0
  6
Continuous
 62
     7
370
     0
100
AcDbCircle
 10
77.0920622644
 20
73.4185218699
 30
0.0
 40
4.30000000003561
100
AcDbArc
 50
324.8821131696
 51
341.8243043573
  0
SPLINE
  5
32E
330
1F
100
AcDbEntity
  8
0
  6
Continuous
 62
     7
370
     0
100
AcDbSpline
210
0.0
220
0.0
230
1.0
 70
    24
 71
     3
 72
     8
 73
     4
 74
     0
 42
0.000000001
 43
0.00000001
 40
0.0
 40
0.0
 40
0.0
 40
0.0
 40
1.0
 40
1.0
 40
1.0
 40
1.0
 10
80.60933399554936
 20
70.94490112924697
 30
0.0
 10
80.18378418997659
 20
70.66480109339291
 30
0.0
 10
79.74649666652954
 20
70.37697520464366
 30
0.0
 10
79.291257339642
 20
70.07733330582583
 30
0.0
  0
ARC
  5
32F
330
1F
100
AcDbEntity
  8
0
  6
Continuous
 62
     7
370
     0
100
AcDbCircle
 10
77.0920622644
 20
73.4185218699
 30
0.0
 40
4.000000000000009
100
AcDbArc
 50
303.353208768
 51
3.3532087641
  0
SPLINE
  5
330
330
1F
100
AcDbEntity
  8
0
  6
Continuous
 62
     7
370
     0
100
AcDbSpline
210
0.0
220
0.0
230
1.0
 70
    24
 71
     3
 72
     8
 73
     4
 74
     0
 42
0.000000001
 43
0.00000001
 40
0.0
 40
0.0
 40
0.0
 40
0.0
 40
1.0
 40
1.0
 40
1.0
 40
1.0
 10
81.0852139772063
 20
73.6524863909859
 30
0.0
 10
81.11709181017392
 20
73.10841661962542
 30
0.0
 10
81.14771258000715
 20
72.58580157113474
 30
0.0
 10
81.17751142386899
 20
72.07721461093622
 30
0.0
  0
ARC
  5
331
330
1F
100
AcDbEntity
  8
0
  6
Continuous
 62
     7
370
     0
100
AcDbCircle
 10
77.0920622644
 20
73.4185218699
 30
0.0
 40
4.299999999970412
100
AcDbArc
 50
24.882113171
 51
41.8243043567
  0
ARC
  5
332
330
1F
100
AcDbEntity
  8
0
  6
Continuous
 62
     7
370
     0
100
AcDbCircle
 10
77.0920622644
 20
73.4185218699
 30
0.0
 40
3.99999999994036
100
AcDbArc
 50
3.3532087641
 51
63.3532087571
  0
SPLINE
  5
333
330
1F
100
AcDbEntity
  8
0
  6
Continuous
 62
     7
370
     0
100
AcDbSpline
210
0.0
220
0.0
230
1.0
 70
    24
 71
     3
 72
     8
 73
     4
 74
     0
 42
0.000000001
 43
0.00000001
 40
0.0
 40
0.0
 40
0.0
 40
0.0
 40
1.0
 40
1.0
 40
1.0
 40
1.0
 10
78.88601890282058
 20
76.9936749545123
 30
0.0
 10
79.37313606258846
 20
76.74924708208788
 30
0.0
 10
79.84104435561144
 20
76.5144579225601
 30
0.0
 10
80.29639300496224
 20
76.28597099833597
 30
0.0
  0
SPLINE
  5
334
330
1F
100
AcDbEntity
  8
0
  6
Continuous
 62
     7
370
     0
100
AcDbSpline
210
0.0
220
0.0
230
1.0
 70
    24
 71
     3
 72
     8
 73
     4
 74
     0
 42
0.000000001
 43
0.00000001
 40
0.0
 40
0.0
 40
0.0
 40
0.0
 40
1.0
 40
1.0
 40
1.0
 40
1.0
 10
80.99291653065224
 20
75.22775817042967
 30
0.0
 10
81.02271537450548
 20
74.71917121037798
 30
0.0
 10
81.05333614428407
 20
74.1965561621955
 30
0.0
 10
81.08521397724242
 20
73.65248639099359
 30
0.0
  0
ARC
  5
335
330
1F
100
AcDbEntity
  8
0
  6
Continuous
 62
     7
370
     0
100
AcDbCircle
 10
77.0920622644
 20
73.4185218699
 30
0.0
 40
4.300000000089852
100
AcDbArc
 50
84.8821131727
 51
101.8243043543
  0
SPLINE
  5
336
330
1F
100
AcDbEntity
  8
0
  6
Continuous
 62
     7
370
     0
100
AcDbSpline
210
0.0
220
0.0
230
1.0
 70
    24
 71
     3
 72
     8
 73
     4
 74
     0
 42
0.000000001
 43
0.00000001
 40
0.0
 40
0.0
 40
0.0
 40
0.0
 40
1.0
 40
1.0
 40
1.0
 40
1.0
 10
77.4756448000675
 20
77.70137891107714
 30
0.0
 10
77.93099344954666
 20
77.4728919867886
 30
0.0
 10
78.39890174294891
 20
77.23810282702966
 30
0.0
 10
78.88601890283199
 20
76.99367495454743
 30
0.0
  0
ARC
  5
337
330
1F
100
AcDbEntity
  8
0
  6
Continuous
 62
     7
370
     0
100
AcDbCircle
 10
77.0920622644
 20
73.4185218699
 30
0.0
 40
3.999999999999984
100
AcDbArc
 50
63.3532087571
 51
123.3532087452
  0
SPLINE
  5
338
330
1F
100
AcDbEntity
  8
0
  6
Continuous
 62
     7
370
     0
100
AcDbSpline
210
0.0
220
0.0
230
1.0
 70
    24
 71
     3
 72
     8
 73
     4
 74
     0
 42
0.000000001
 43
0.00000001
 40
0.0
 40
0.0
 40
0.0
 40
0.0
 40
1.0
 40
1.0
 40
1.0
 40
1.0
 10
74.89286718995425
 20
76.75971043459744
 30
0.0
 10
75.3481065166997
 20
77.05935233332173
 30
0.0
 10
75.78539404024626
 20
77.34717822213648
 30
0.0
 10
76.21094384567472
 20
77.62727825789554
 30
0.0
  0
LINE
  5
339
330
1F
100
AcDbEntity
  8
0
  6
Continuous
 62
     7
370
     0
100
AcDbLine
 10
57.59206142
 20
69.4185216799
 30
0.0
 11
55.8784092563
 21
69.4185216799
 31
0.0
  0
LINE
  5
33A
330
1F
100
AcDbEntity
  8
0
  6
Continuous
 62
     7
370
     0
100
AcDbLine
 10
55.8784092563
 20
69.4185216799
 30
0.0
 11
55.8784092563
 21
77.4185220599
 31
0.0
  0
LINE
  5
33B
330
1F
100
AcDbEntity
  8
0
  6
Continuous
 62
     7
370
     0
100
AcDbLine
 10
57.59206142
 20
77.4185220599
 30
0.0
 11
55.8784092563
 21
77.4185220599
 31
0.0
  0
LINE
  5
33C
330
1F
100
AcDbEntity
  8
0
  6
Continuous
 62
     7
370
     0
100
AcDbLine
 10
67.2994480255
 20
85.4185219742
 30
0.0
 11
67.2994480255
 21
89.4185226299
 31
0.0
  0
LINE
  5
33D
330
1F
100
AcDbEntity
  8
0
  6
Continuous
 62
     7
370
     0
100
AcDbLine
 10
67.2994480255
 20
85.4185219742
 30
0.0
 11
73.6130136783
 21
85.4185219742
 31
0.0
  0
LINE
  5
33E
330
1F
100
AcDbEntity
  8
0
  6
Continuous
 62
     7
370
     0
100
AcDbLine
 10
73.6130136783
 20
81.4185222499
 30
0.0
 11
73.6130136783
 21
85.4185219742
 31
0.0
  0
LINE
  5
33F
330
1F
100
AcDbEntity
  8
0
  6
Continuous
 62
     7
370
     0
100
AcDbLine
 10
62.6781602176
 20
92.418521259
 30
0.0
 11
62.6781602176
 21
81.4185222499
 31
0.0
  0
LINE
  5
340
330
1F
100
AcDbEntity
  8
0
  6
Continuous
 62
     7
370
     0
100
AcDbLine
 10
62.6781602176
 20
92.418521259
 30
0.0
 11
73.6130136783
 21
92.418521259
 31
0.0
  0
LINE
  5
341
330
1F
100
AcDbEntity
  8
0
  6
Continuous
 62
     7
370
     0
100
AcDbLine
 10
73.6130136783
 20
89.4185226299
 30
0.0
 11
73.6130136783
 21
92.418521259
 31
0.0
  0
LINE
  5
342
330
1F
100
AcDbEntity
  8
0
  6
Continuous
 62
     7
370
     0
100
AcDbLine
 10
67.2994480255
 20
89.4185226299
 30
0.0
 11
73.6130136783
 21
89.4185226299
 31
0.0
  0
LINE
  5
343
330
1F
100
AcDbEntity
  8
0
  6
Continuous
 62
     7
370
     0
100
AcDbLine
 10
61.1670139032
 20
92.418521259
 30
0.0
 11
62.6781602176
 21
92.418521259
 31
0.0
  0
LINE
  5
344
330
1F
100
AcDbEntity
  8
0
  6
Continuous
 62
     7
370
     0
100
AcDbLine
 10
61.1670139032
 20
81.4185222499
 30
0.0
 11
61.1670139032
 21
92.418521259
 31
0.0
  0
LINE
  5
345
330
1F
100
AcDbEntity
  8
0
  6
Continuous
 62
     7
370
     0
100
AcDbLine
 10
74.1066346663
 20
85.4185219742
 30
0.0
 11
74.1066346663
 21
81.4185222499
 31
0.0
  0
LINE
  5
346
330
1F
100
AcDbEntity
  8
0
  6
Continuous
 62
     7
370
     0
100
AcDbLine
 10
73.6130136783
 20
85.4185219742
 30
0.0
 11
74.1066346663
 21
85.4185219742
 31
0.0
  0
LINE
  5
347
330
1F
100
AcDbEntity
  8
0
  6
Continuous
 62
     7
370
     0
100
AcDbLine
 10
74.1066346663
 20
92.418521259
 30
0.0
 11
74.1066346663
 21
89.4185226299
 31
0.0
  0
LINE
  5
348
330
1F
100
AcDbEntity
  8
0
  6
Continuous
 62
     7
370
     0
100
AcDbLine
 10
74.1066346663
 20
89.4185226299
 30
0.0
 11
73.6130136783
 21
89.4185226299
 31
0.0
  0
LINE
  5
349
330
1F
100
AcDbEntity
  8
0
  6
Continuous
 62
     7
370
     0
100
AcDbLine
 10
73.6130136783
 20
92.418521259
 30
0.0
 11
74.1066346663
 21
92.418521259
 31
0.0
  0
LINE
  5
34A
330
1F
100
AcDbEntity
  8
0
  6
Continuous
 62
     7
370
     0
100
AcDbLine
 10
60.1591272997
 20
90.4185227938
 30
0.0
 11
60.1591272997
 21
90.1685222872
 31
0.0
  0
LINE
  5
34B
330
1F
100
AcDbEntity
  8
0
  6
Continuous
 62
     7
370
     0
100
AcDbLine
 10
60.1591272997
 20
84.668522317
 30
0.0
 11
60.1591272997
 21
84.4185218103
 31
0.0
  0
LINE
  5
34C
330
1F
100
AcDbEntity
  8
0
  6
Continuous
 62
     7
370
     0
100
AcDbLine
 10
61.0108515965
 20
90.4185227938
 30
0.0
 11
61.0108515965
 21
90.1685222872
 31
0.0
  0
LINE
  5
34D
330
1F
100
AcDbEntity
  8
0
  6
Continuous
 62
     7
370
     0
100
AcDbLine
 10
61.0108515965
 20
84.668522317
 30
0.0
 11
61.0108515965
 21
84.4185218103
 31
0.0
  0
LINE
  5
34E
330
1F
100
AcDbEntity
  8
0
  6
Continuous
 62
     7
370
     0
100
AcDbLine
 10
59.4391832846
 20
90.4185227938
 30
0.0
 11
59.4391832846
 21
90.1685222872
 31
0.0
  0
LINE
  5
34F
330
1F
100
AcDbEntity
  8
0
  6
Continuous
 62
     7
370
     0
100
AcDbLine
 10
59.4391832846
 20
84.668522317
 30
0.0
 11
59.4391832846
 21
84.4185218103
 31
0.0
  0
CIRCLE
  5
350
330
1F
100
AcDbEntity
  8
0
  6
Continuous
 62
     7
370
     0
100
AcDbCircle
 10
59.5789644981
 20
87.4148331816
 30
0.0
 40
1.444162916602623
  0
ARC
  5
351
330
1F
100
AcDbEntity
  8
0
  6
Continuous
 62
     7
370
     0
100
AcDbCircle
 10
58.7883417509
 20
87.4185218364
 30
0.0
 40
1.450073400439602
100
AcDbArc
 50
90.5770220274
 51
269.4229779726
  0
LINE
  5
352
330
1F
100
AcDbEntity
  8
0
  6
Continuous
 62
     7
370
     0
100
AcDbLine
 10
56.060879563
 20
89.4185226299
 30
0.0
 11
55.8970859992
 21
89.4185226299
 31
0.0
  0
LINE
  5
353
330
1F
100
AcDbEntity
  8
0
  6
Continuous
 62
     7
370
     0
100
AcDbLine
 10
56.060879563
 20
89.4185226299
 30
0.0
 11
56.060879563
 21
85.4185219742
 31
0.0
  0
LINE
  5
354
330
1F
100
AcDbEntity
  8
0
  6
Continuous
 62
     7
370
     0
100
AcDbLine
 10
56.060879563
 20
85.4185219742
 30
0.0
 11
55.8970859992
 21
85.4185219742
 31
0.0
  0
LINE
  5
355
330
1F
100
AcDbEntity
  8
0
  6
Continuous
 62
     7
370
     0
100
AcDbLine
 10
55.8970859992
 20
85.4185219742
 30
0.0
 11
55.8970859992
 21
84.668522317
 31
0.0
  0
LINE
  5
356
330
1F
100
AcDbEntity
  8
0
  6
Continuous
 62
     7
370
     0
100
AcDbLine
 10
55.8970859992
 20
90.1685222872
 30
0.0
 11
55.8970859992
 21
89.4185226299
 31
0.0
  0
ARC
  5
357
330
1F
100
AcDbEntity
  8
0
  6
Continuous
 62
     7
370
     0
100
AcDbCircle
 10
58.7696385676
 20
87.383318609
 30
0.0
 40
1.96480091224889
100
AcDbArc
 50
270.1195558725
 51
321.6551578823
  0
ARC
  5
358
330
1F
100
AcDbEntity
  8
0
  6
Continuous
 62
     7
370
     0
100
AcDbCircle
 10
58.7696358505
 20
87.4537219185
 30
0.0
 40
1.964804994549015
100
AcDbArc
 50
38.3448648981
 51
89.8803651433
  0
LINE
  5
359
330
1F
100
AcDbEntity
  8
0
  6
Continuous
 62
     7
370
     0
100
AcDbLine
 10
58.7737384039
 20
89.4185226299
 30
0.0
 11
56.060879563
 21
89.4185226299
 31
0.0
  0
LINE
  5
35A
330
1F
100
AcDbEntity
  8
0
  6
Continuous
 62
     7
370
     0
100
AcDbLine
 10
56.060879563
 20
85.4185219742
 30
0.0
 11
58.7737384039
 21
85.4185219742
 31
0.0
  0
LINE
  5
35B
330
1F
100
AcDbEntity
  8
0
  6
Continuous
 62
     7
370
     0
100
AcDbLine
 10
61.1670139032
 20
90.1685222872
 30
0.0
 11
55.8970859992
 21
90.1685222872
 31
0.0
  0
LINE
  5
35C
330
1F
100
AcDbEntity
  8
0
  6
Continuous
 62
     7
370
     0
100
AcDbLine
 10
61.1670139032
 20
84.668522317
 30
0.0
 11
55.8970859992
 21
84.668522317
 31
0.0
  0
LINE
  5
35D
330
1F
100
AcDbEntity
  8
0
  6
Continuous
 62
     7
370
     0
100
AcDbLine
 10
61.1670139032
 20
83.2185219862
 30
0.0
 11
60.3476623791
 21
83.2185219862
 31
0.0
  0
LINE
  5
35E
330
1F
100
AcDbEntity
  8
0
  6
Continuous
 62
     7
370
     0
100
AcDbLine
 10
55.4038389372
 20
90.9185219444
 30
0.0
 11
52.1279732483
 21
90.9185219444
 31
0.0
  0
LINE
  5
35F
330
1F
100
AcDbEntity
  8
0
  6
Continuous
 62
     7
370
     0
100
AcDbLine
 10
55.4038389372
 20
90.9185219444
 30
0.0
 11
55.4038389372
 21
83.9185217284
 31
0.0
  0
LINE
  5
360
330
1F
100
AcDbEntity
  8
0
  6
Continuous
 62
     7
370
     0
100
AcDbLine
 10
52.1279732483
 20
84.718522232
 30
0.0
 11
52.1279732483
 21
83.9185217284
 31
0.0
  0
LINE
  5
361
330
1F
100
AcDbEntity
  8
0
  6
Continuous
 62
     7
370
     0
100
AcDbLine
 10
52.1279732483
 20
90.1185214408
 30
0.0
 11
52.1279732483
 21
84.718522232
 31
0.0
  0
LINE
  5
362
330
1F
100
AcDbEntity
  8
0
  6
Continuous
 62
     7
370
     0
100
AcDbLine
 10
52.1279732483
 20
90.9185219444
 30
0.0
 11
52.1279732483
 21
90.1185214408
 31
0.0
  0
LINE
  5
363
330
1F
100
AcDbEntity
  8
0
  6
Continuous
 62
     7
370
     0
100
AcDbLine
 10
55.4038389372
 20
83.9185217284
 30
0.0
 11
52.1279732483
 21
83.9185217284
 31
0.0
  0
LINE
  5
364
330
1F
100
AcDbEntity
  8
0
  6
Continuous
 62
     7
370
     0
100
AcDbLine
 10
55.8970859992
 20
84.4185218103
 30
0.0
 11
55.8970859992
 21
90.4185227938
 31
0.0
  0
LINE
  5
365
330
1F
100
AcDbEntity
  8
0
  6
Continuous
 62
     7
370
     0
100
AcDbLine
 10
61.1670139032
 20
84.4185218103
 30
0.0
 11
55.8970859992
 21
84.4185218103
 31
0.0
  0
LINE
  5
366
330
1F
100
AcDbEntity
  8
0
  6
Continuous
 62
     7
370
     0
100
AcDbLine
 10
61.1670139032
 20
90.9185219444
 30
0.0
 11
55.4038389372
 21
90.9185219444
 31
0.0
  0
LINE
  5
367
330
1F
100
AcDbEntity
  8
0
  6
Continuous
 62
     7
370
     0
100
AcDbLine
 10
55.8970859992
 20
90.4185227938
 30
0.0
 11
61.1670139032
 21
90.4185227938
 31
0.0
  0
LINE
  5
368
330
1F
100
AcDbEntity
  8
0
  6
Continuous
 62
     7
370
     0
100
AcDbLine
 10
55.4038389372
 20
83.9185217284
 30
0.0
 11
61.1670139032
 21
83.9185217284
 31
0.0
  0
LINE
  5
369
330
1F
100
AcDbEntity
  8
0
  6
Continuous
 62
     7
370
     0
100
AcDbLine
 10
52.121219297
 20
90.1185214408
 30
0.0
 11
52.1279732483
 21
90.1185214408
 31
0.0
  0
LINE
  5
36A
330
1F
100
AcDbEntity
  8
0
  6
Continuous
 62
     7
370
     0
100
AcDbLine
 10
52.1279732483
 20
84.718522232
 30
0.0
 11
52.121219297
 21
84.718522232
 31
0.0
  0
LINE
  5
36B
330
1F
100
AcDbEntity
  8
0
  6
Continuous
 62
     7
370
     0
100
AcDbLine
 10
96.5920622247
 20
77.4185220599
 30
0.0
 11
98.3057143884
 21
77.4185220599
 31
0.0
  0
LINE
  5
36C
330
1F
100
AcDbEntity
  8
0
  6
Continuous
 62
     7
370
     0
100
AcDbLine
 10
98.3057143884
 20
77.4185220599
 30
0.0
 11
98.3057143884
 21
69.4185216799
 31
0.0
  0
LINE
  5
36D
330
1F
100
AcDbEntity
  8
0
  6
Continuous
 62
     7
370
     0
100
AcDbLine
 10
96.5920622247
 20
69.4185216799
 30
0.0
 11
98.3057143884
 21
69.4185216799
 31
0.0
  0
LINE
  5
36E
330
1F
100
AcDbEntity
  8
0
  6
Continuous
 62
     7
370
     0
100
AcDbLine
 10
81.1927780295
 20
92.418521259
 30
0.0
 11
84.645509326
 21
92.418521259
 31
0.0
  0
LINE
  5
36F
330
1F
100
AcDbEntity
  8
0
  6
Continuous
 62
     7
370
     0
100
AcDbLine
 10
84.645509326
 20
92.418521259
 30
0.0
 11
84.645509326
 21
81.4185222499
 31
0.0
  0
LINE
  5
370
330
1F
100
AcDbEntity
  8
0
  6
Continuous
 62
     7
370
     0
100
AcDbLine
 10
81.1927780295
 20
92.418521259
 30
0.0
 11
81.1927780295
 21
81.4185222499
 31
0.0
  0
LINE
  5
371
330
1F
100
AcDbEntity
  8
0
  6
Continuous
 62
     7
370
     0
100
AcDbLine
 10
84.645509326
 20
92.418521259
 30
0.0
 11
89.5593073937
 21
92.418521259
 31
0.0
  0
LINE
  5
372
330
1F
100
AcDbEntity
  8
0
  6
Continuous
 62
     7
370
     0
100
AcDbLine
 10
89.5593073937
 20
92.418521259
 30
0.0
 11
89.5593073937
 21
81.4185222499
 31
0.0
  0
LINE
  5
373
330
1F
100
AcDbEntity
  8
0
  6
Continuous
 62
     8
370
     0
100
AcDbLine
 10
63.9463971155
 20
93.0150203295
 30
0.0
 11
66.0976628559
 21
93.0150203295
 31
0.0
  0
LINE
  5
374
330
1F
100
AcDbEntity
  8
0
  6
Continuous
 62
     8
370
     0
100
AcDbLine
 10
60.4976630556
 20
93.0150203295
 30
0.0
 11
63.9463971155
 21
93.0150203295
 31
0.0
  0
LINE
  5
375
330
1F
100
AcDbEntity
  8
0
  6
Continuous
 62
     8
370
     0
100
AcDbLine
 10
63.9173007357
 20
93.2431496568
 30
0.0
 11
65.9720814573
 21
93.2431496568
 31
0.0
  0
LINE
  5
376
330
1F
100
AcDbEntity
  8
0
  6
Continuous
 62
     8
370
     0
100
AcDbLine
 10
60.6232444542
 20
93.2431496568
 30
0.0
 11
63.9173007357
 21
93.2431496568
 31
0.0
  0
LINE
  5
377
330
1F
100
AcDbEntity
  8
0
  6
Continuous
 62
     8
370
     0
100
AcDbLine
 10
61.1670139032
 20
81.8220233433
 30
0.0
 11
60.4976630556
 21
81.8220233433
 31
0.0
  0
LINE
  5
378
330
1F
100
AcDbEntity
  8
0
  6
Continuous
 62
     8
370
     0
100
AcDbLine
 10
61.1670139032
 20
81.5938930847
 30
0.0
 11
60.6232444542
 21
81.5938930847
 31
0.0
  0
DIMENSION
  5
379
330
1F
100
AcDbEntity
  8
0
  6
Continuous
 62
     7
370
     0
100
AcDbDimension
  2
_D_15
 10
98.3057147377
 20
45.3832411966
 30
0.0
 11
75.2168437999
 21
45.3832411966
 31
0.0
 70
   160
  1
(<>)
 71
     2
 42
-1.0
  3
SLDDIMSTYLE0
100
AcDbAlignedDimension
 13
52.127972862
 23
83.9185218699
 33
0.0
 14
98.3057147377
 24
69.4185218699
 34
0.0
 50
0.0
100
AcDbRotatedDimension
  0
DIMENSION
  5
385
330
1F
100
AcDbEntity
  8
0
  6
Continuous
 62
     7
370
     0
100
AcDbDimension
  2
_D_16
 10
77.0920622644
 20
55.4185218699
 30
0.0
 11
87.698888501
 21
55.4185218699
 31
0.0
 70
   160
  1
(<>)
 71
     2
 42
-1.0
  3
SLDDIMSTYLE0
100
AcDbAlignedDimension
 13
98.3057147377
 23
69.4185218699
 33
0.0
 14
77.0920622644
 24
73.4185218699
 34
0.0
 50
0.0
100
AcDbRotatedDimension
  0
INSERT
  5
39C
330
1F
100
AcDbEntity
  8
0
  6
Continuous
 62
     7
370
     0
100
AcDbBlockReference
  2
SW_CENTERMARKSYMBOL_3
 10
77.0920622644
 20
73.4185218699
 30
0.0
  0
ENDSEC
  0
SECTION
  2
OBJECTS
  0
DICTIONARY
  5
C
330
0
100
AcDbDictionary
281
     1
  3
ACAD_GROUP
350
D
  3
ACAD_LAYOUT
350
1A
  3
ACAD_MLINESTYLE
350
17
  3
ACAD_PLOTSETTINGS
350
19
  3
ACAD_PLOTSTYLENAME
350
E
  3
ACAD_SCALELIST
350
47
  0
DICTIONARY
  5
D
102
{ACAD_REACTORS
330
C
102
}
330
C
100
AcDbDictionary
281
     1
  0
DICTIONARY
  5
1A
102
{ACAD_REACTORS
330
C
102
}
330
C
100
AcDbDictionary
281
     1
  3
Layout1
350
1E
  3
Layout2
350
26
  3
Model
350
22
  0
DICTIONARY
  5
17
102
{ACAD_REACTORS
330
C
102
}
330
C
100
AcDbDictionary
281
     1
  3
Standard
350
18
  0
DICTIONARY
  5
19
102
{ACAD_REACTORS
330
C
102
}
330
C
100
AcDbDictionary
281
     1
  0
ACDBDICTIONARYWDFLT
  5
E
102
{ACAD_REACTORS
330
C
102
}
330
C
100
AcDbDictionary
281
     1
  3
Normal
350
F
100
AcDbDictionaryWithDefault
340
F
  0
DICTIONARY
  5
47
102
{ACAD_REACTORS
330
C
102
}
330
C
100
AcDbDictionary
281
     1
  3
A0
350
48
  3
A1
350
49
  3
A2
350
4A
  3
A3
350
4B
  3
A4
350
4C
  3
A5
350
4D
  3
A6
350
4E
  3
A7
350
4F
  3
A8
350
50
  3
A9
350
51
  3
B0
350
52
  3
B1
350
53
  3
B2
350
54
  3
B3
350
55
  3
B4
350
56
  3
B5
350
57
  3
B6
350
58
  3
B7
350
59
  3
B8
350
5A
  3
B9
350
5B
  3
C0
350
5C
  3
C1
350
5D
  3
C2
350
5E
  3
C3
350
5F
  3
C4
350
60
  3
C5
350
61
  3
C6
350
62
  3
C7
350
63
  3
C8
350
64
  3
C9
350
65
  3
D0
350
66
  3
D1
350
67
  3
D2
350
68
  0
LAYOUT
  5
1E
102
{ACAD_REACTORS
330
1A
102
}
330
1A
100
AcDbPlotSettings
  1

  2
none_device
  4

  6

 40
0.0
 41
0.0
 42
0.0
 43
0.0
 44
0.0
 45
0.0
 46
0.0
 47
0.0
 48
0.0
 49
0.0
140
0.0
141
0.0
142
1.0
143
1.0
 70
   688
 72
     1
 73
     0
 74
     5
  7

 75
    16
147
1.0
148
0.0
149
0.0
100
AcDbLayout
  1
Layout1
 70
     1
 71
     1
 10
0.0
 20
0.0
 11
420.0
 21
297.0
 12
0.0
 22
0.0
 32
0.0
 14
1.0000000000E+20
 24
1.0000000000E+20
 34
1.0000000000E+20
 15
-1.0000000000E+20
 25
-1.0000000000E+20
 35
-1.0000000000E+20
146
0.0
 13
0.0
 23
0.0
 33
0.0
 16
1.0
 26
0.0
 36
0.0
 17
0.0
 27
1.0
 37
0.0
 76
     0
330
1B
  0
LAYOUT
  5
26
102
{ACAD_REACTORS
330
1A
102
}
330
1A
100
AcDbPlotSettings
  1

  2
none_device
  4

  6

 40
0.0
 41
0.0
 42
0.0
 43
0.0
 44
0.0
 45
0.0
 46
0.0
 47
0.0
 48
0.0
 49
0.0
140
0.0
141
0.0
142
1.0
143
1.0
 70
   688
 72
     1
 73
     0
 74
     5
  7

 75
    16
147
1.0
148
0.0
149
0.0
100
AcDbLayout
  1
Layout2
 70
     1
 71
     2
 10
0.0
 20
0.0
 11
0.0
 21
0.0
 12
0.0
 22
0.0
 32
0.0
 14
0.0
 24
0.0
 34
0.0
 15
0.0
 25
0.0
 35
0.0
146
0.0
 13
0.0
 23
0.0
 33
0.0
 16
1.0
 26
0.0
 36
0.0
 17
0.0
 27
1.0
 37
0.0
 76
     0
330
23
  0
LAYOUT
  5
22
102
{ACAD_REACTORS
330
1A
102
}
330
1A
100
AcDbPlotSettings
  1

  2
none_device
  4
Letter_(8.50_x_11.00_Inches)
  6

 40
6.35
 41
6.35
 42
6.35000508
 43
6.35000508
 44
215.9
 45
279.4
 46
0.0
 47
0.0
 48
0.0
 49
0.0
140
0.0
141
0.0
142
1.0
143
1.0
 70
  1712
 72
     1
 73
     0
 74
     0
  7

 75
     0
147
1.0
148
0.0
149
0.0
100
AcDbLayout
  1
Model
 70
     1
 71
     0
 10
0.0
 20
0.0
 11
210.0
 21
297.0
 12
0.0
 22
0.0
 32
0.0
 14
0.0
 24
0.0
 34
0.0
 15
210.0
 25
297.0
 35
0.0
146
0.0
 13
0.0
 23
0.0
 33
0.0
 16
1.0
 26
0.0
 36
0.0
 17
0.0
 27
1.0
 37
0.0
 76
     0
330
1F
331
29
  0
MLINESTYLE
  5
18
102
{ACAD_REACTORS
330
17
102
}
330
17
100
AcDbMlineStyle
  2
Standard
 70
     0
  3

 62
   256
 51
90.0
 52
90.0
 71
     2
 49
0.5
 62
   256
  6
BYLAYER
 49
-0.5
 62
   256
  6
BYLAYER
  0
ACDBPLACEHOLDER
  5
F
102
{ACAD_REACTORS
330
E
102
}
330
E
  0
SCALE
  5
48
102
{ACAD_REACTORS
330
47
102
}
330
47
100
AcDbScale
 70
     0
300
1:1
140
1.0
141
1.0
290
     1
  0
SCALE
  5
49
102
{ACAD_REACTORS
330
47
102
}
330
47
100
AcDbScale
 70
     0
300
1:2
140
1.0
141
2.0
290
     0
  0
SCALE
  5
4A
102
{ACAD_REACTORS
330
47
102
}
330
47
100
AcDbScale
 70
     0
300
1:4
140
1.0
141
4.0
290
     0
  0
SCALE
  5
4B
102
{ACAD_REACTORS
330
47
102
}
330
47
100
AcDbScale
 70
     0
300
1:5
140
1.0
141
5.0
290
     0
  0
SCALE
  5
4C
102
{ACAD_REACTORS
330
47
102
}
330
47
100
AcDbScale
 70
     0
300
1:8
140
1.0
141
8.0
290
     0
  0
SCALE
  5
4D
102
{ACAD_REACTORS
330
47
102
}
330
47
100
AcDbScale
 70
     0
300
1:10
140
1.0
141
10.0
290
     0
  0
SCALE
  5
4E
102
{ACAD_REACTORS
330
47
102
}
330
47
100
AcDbScale
 70
     0
300
1:16
140
1.0
141
16.0
290
     0
  0
SCALE
  5
4F
102
{ACAD_REACTORS
330
47
102
}
330
47
100
AcDbScale
 70
     0
300
1:20
140
1.0
141
20.0
290
     0
  0
SCALE
  5
50
102
{ACAD_REACTORS
330
47
102
}
330
47
100
AcDbScale
 70
     0
300
1:30
140
1.0
141
30.0
290
     0
  0
SCALE
  5
51
102
{ACAD_REACTORS
330
47
102
}
330
47
100
AcDbScale
 70
     0
300
1:40
140
1.0
141
40.0
290
     0
  0
SCALE
  5
52
102
{ACAD_REACTORS
330
47
102
}
330
47
100
AcDbScale
 70
     0
300
1:50
140
1.0
141
50.0
290
     0
  0
SCALE
  5
53
102
{ACAD_REACTORS
330
47
102
}
330
47
100
AcDbScale
 70
     0
300
1:100
140
1.0
141
100.0
290
     0
  0
SCALE
  5
54
102
{ACAD_REACTORS
330
47
102
}
330
47
100
AcDbScale
 70
     0
300
2:1
140
2.0
141
1.0
290
     0
  0
SCALE
  5
55
102
{ACAD_REACTORS
330
47
102
}
330
47
100
AcDbScale
 70
     0
300
4:1
140
4.0
141
1.0
290
     0
  0
SCALE
  5
56
102
{ACAD_REACTORS
330
47
102
}
330
47
100
AcDbScale
 70
     0
300
8:1
140
8.0
141
1.0
290
     0
  0
SCALE
  5
57
102
{ACAD_REACTORS
330
47
102
}
330
47
100
AcDbScale
 70
     0
300
10:1
140
10.0
141
1.0
290
     0
  0
SCALE
  5
58
102
{ACAD_REACTORS
330
47
102
}
330
47
100
AcDbScale
 70
     0
300
100:1
140
100.0
141
1.0
290
     0
  0
SCALE
  5
59
102
{ACAD_REACTORS
330
47
102
}
330
47
100
AcDbScale
 70
     0
300
1/128" = 1'-0"
140
0.0078125
141
12.0
290
     0
  0
SCALE
  5
5A
102
{ACAD_REACTORS
330
47
102
}
330
47
100
AcDbScale
 70
     0
300
1/64" = 1'-0"
140
0.015625
141
12.0
290
     0
  0
SCALE
  5
5B
102
{ACAD_REACTORS
330
47
102
}
330
47
100
AcDbScale
 70
     0
300
1/32" = 1'-0"
140
0.03125
141
12.0
290
     0
  0
SCALE
  5
5C
102
{ACAD_REACTORS
330
47
102
}
330
47
100
AcDbScale
 70
     0
300
1/16" = 1'-0"
140
0.0625
141
12.0
290
     0
  0
SCALE
  5
5D
102
{ACAD_REACTORS
330
47
102
}
330
47
100
AcDbScale
 70
     0
300
3/32" = 1'-0"
140
0.09375
141
12.0
290
     0
  0
SCALE
  5
5E
102
{ACAD_REACTORS
330
47
102
}
330
47
100
AcDbScale
 70
     0
300
1/8" = 1'-0"
140
0.125
141
12.0
290
     0
  0
SCALE
  5
5F
102
{ACAD_REACTORS
330
47
102
}
330
47
100
AcDbScale
 70
     0
300
3/16" = 1'-0"
140
0.1875
141
12.0
290
     0
  0
SCALE
  5
60
102
{ACAD_REACTORS
330
47
102
}
330
47
100
AcDbScale
 70
     0
300
1/4" = 1'-0"
140
0.25
141
12.0
290
     0
  0
SCALE
  5
61
102
{ACAD_REACTORS
330
47
102
}
330
47
100
AcDbScale
 70
     0
300
3/8" = 1'-0"
140
0.375
141
12.0
290
     0
  0
SCALE
  5
62
102
{ACAD_REACTORS
330
47
102
}
330
47
100
AcDbScale
 70
     0
300
1/2" = 1'-0"
140
0.5
141
12.0
290
     0
  0
SCALE
  5
63
102
{ACAD_REACTORS
330
47
102
}
330
47
100
AcDbScale
 70
     0
300
3/4" = 1'-0"
140
0.75
141
12.0
290
     0
  0
SCALE
  5
64
102
{ACAD_REACTORS
330
47
102
}
330
47
100
AcDbScale
 70
     0
300
1" = 1'-0"
140
1.0
141
12.0
290
     0
  0
SCALE
  5
65
102
{ACAD_REACTORS
330
47
102
}
330
47
100
AcDbScale
 70
     0
300
1-1/2" = 1'-0"
140
1.5
141
12.0
290
     0
  0
SCALE
  5
66
102
{ACAD_REACTORS
330
47
102
}
330
47
100
AcDbScale
 70
     0
300
3" = 1'-0"
140
3.0
141
12.0
290
     0
  0
SCALE
  5
67
102
{ACAD_REACTORS
330
47
102
}
330
47
100
AcDbScale
 70
     0
300
6" = 1'-0"
140
6.0
141
12.0
290
     0
  0
SCALE
  5
68
102
{ACAD_REACTORS
330
47
102
}
330
47
100
AcDbScale
 70
     0
300
1'-0" = 1'-0"
140
12.0
141
12.0
290
     0
  0
ENDSEC
  0
EOF
