  0
SECTION
  2
HEADER
  9
$ACADVER
  1
AC1015
  9
$ACADMAINTVER
 70
     6
  9
$DWGCODEPAGE
  3
DOS932
  9
$INSBASE
 10
0.0
 20
0.0
 30
0.0
  9
$EXTMIN
 10
0.0
 20
0.0
 30
0.0
  9
$EXTMAX
 10
210.0
 20
297.0
 30
0.0
  9
$LIMMIN
 10
0.0
 20
0.0
  9
$LIMMAX
 10
210.0
 20
297.0
  9
$ORTHOMODE
 70
     0
  9
$REGENMODE
 70
     1
  9
$FILLMODE
 70
     1
  9
$QTEXTMODE
 70
     0
  9
$MIRRTEXT
 70
     1
  9
$LTSCALE
 40
1.0
  9
$ATTMODE
 70
     1
  9
$TEXTSIZE
 40
3.5
  9
$TRACEWID
 40
1.0
  9
$TEXTSTYLE
  7
Standard
  9
$CLAYER
  8
0
  9
$CELTYPE
  6
ByLayer
  9
$CECOLOR
 62
   256
  9
$CELTSCALE
 40
1.0
  9
$DISPSILH
 70
     0
  9
$DIMSCALE
 40
1.0
  9
$DIMASZ
 40
3.0
  9
$DIMEXO
 40
1.0
  9
$DIMDLI
 40
3.75
  9
$DIMRND
 40
0.0
  9
$DIMDLE
 40
0.0
  9
$DIMEXE
 40
1.0
  9
$DIMTP
 40
0.0
  9
$DIMTM
 40
0.0
  9
$DIMTXT
 40
3.5
  9
$DIMCEN
 40
2.5
  9
$DIMTSZ
 40
0.0
  9
$DIMTOL
 70
     0
  9
$DIMLIM
 70
     0
  9
$DIMTIH
 70
     1
  9
$DIMTOH
 70
     1
  9
$DIMSE1
 70
     0
  9
$DIMSE2
 70
     0
  9
$DIMTAD
 70
     1
  9
$DIMZIN
 70
     0
  9
$DIMBLK
  1

  9
$DIMASO
 70
     1
  9
$DIMSHO
 70
     1
  9
$DIMPOST
  1

  9
$DIMAPOST
  1

  9
$DIMALT
 70
     0
  9
$DIMALTD
 70
     3
  9
$DIMALTF
 40
0.0393700787
  9
$DIMLFAC
 40
2.0
  9
$DIMTOFL
 70
     1
  9
$DIMTVP
 40
0.0
  9
$DIMTIX
 70
     0
  9
$DIMSOXD
 70
     0
  9
$DIMSAH
 70
     0
  9
$DIMBLK1
  1

  9
$DIMBLK2
  1

  9
$DIMSTYLE
  2
ISO-25
  9
$DIMCLRD
 70
     0
  9
$DIMCLRE
 70
     0
  9
$DIMCLRT
 70
     0
  9
$DIMTFAC
 40
1.0
  9
$DIMGAP
 40
1.524
  9
$DIMJUST
 70
     0
  9
$DIMSD1
 70
     0
  9
$DIMSD2
 70
     0
  9
$DIMTOLJ
 70
     0
  9
$DIMTZIN
 70
     0
  9
$DIMALTZ
 70
     0
  9
$DIMALTTZ
 70
     0
  9
$DIMUPT
 70
     0
  9
$DIMDEC
 70
     1
  9
$DIMTDEC
 70
     3
  9
$DIMALTU
 70
     2
  9
$DIMALTTD
 70
     3
  9
$DIMTXSTY
  7
Standard
  9
$DIMAUNIT
 70
     0
  9
$DIMADEC
 70
     2
  9
$DIMALTRND
 40
0.0
  9
$DIMAZIN
 70
     0
  9
$DIMDSEP
 70
    44
  9
$DIMATFIT
 70
     3
  9
$DIMFRAC
 70
     0
  9
$DIMLDRBLK
  1

  9
$DIMLUNIT
 70
     2
  9
$DIMLWD
 70
    -2
  9
$DIMLWE
 70
    -2
  9
$DIMTMOVE
 70
     0
  9
$LUNITS
 70
     2
  9
$LUPREC
 70
     1
  9
$SKETCHINC
 40
1.0
  9
$FILLETRAD
 40
10.0
  9
$AUNITS
 70
     0
  9
$AUPREC
 70
     2
  9
$MENU
  1
.
  9
$ELEVATION
 40
0.0
  9
$PELEVATION
 40
0.0
  9
$THICKNESS
 40
0.0
  9
$LIMCHECK
 70
     0
  9
$CHAMFERA
 40
0.0
  9
$CHAMFERB
 40
0.0
  9
$CHAMFERC
 40
0.0
  9
$CHAMFERD
 40
0.0
  9
$SKPOLY
 70
     0
  9
$TDCREATE
 40
2457984.677990347
  9
$TDUCREATE
 40
2457984.302990347
  9
$TDUPDATE
 40
2457984.677992778
  9
$TDUUPDATE
 40
2457984.302992778
  9
$TDINDWG
 40
0.0000000116
  9
$TDUSRTIMER
 40
0.0000000116
  9
$USRTIMER
 70
     1
  9
$ANGBASE
 50
0.0
  9
$ANGDIR
 70
     0
  9
$PDMODE
 70
     0
  9
$PDSIZE
 40
-1.0
  9
$PLINEWID
 40
0.0
  9
$SPLFRAME
 70
     0
  9
$SPLINETYPE
 70
     6
  9
$SPLINESEGS
 70
     8
  9
$HANDSEED
  5
3CB
  9
$SURFTAB1
 70
     6
  9
$SURFTAB2
 70
     6
  9
$SURFTYPE
 70
     6
  9
$SURFU
 70
     6
  9
$SURFV
 70
     6
  9
$UCSBASE
  2

  9
$UCSNAME
  2

  9
$UCSORG
 10
0.0
 20
0.0
 30
0.0
  9
$UCSXDIR
 10
1.0
 20
0.0
 30
0.0
  9
$UCSYDIR
 10
0.0
 20
1.0
 30
0.0
  9
$UCSORTHOREF
  2

  9
$UCSORTHOVIEW
 70
     0
  9
$UCSORGTOP
 10
0.0
 20
0.0
 30
0.0
  9
$UCSORGBOTTOM
 10
0.0
 20
0.0
 30
0.0
  9
$UCSORGLEFT
 10
0.0
 20
0.0
 30
0.0
  9
$UCSORGRIGHT
 10
0.0
 20
0.0
 30
0.0
  9
$UCSORGFRONT
 10
0.0
 20
0.0
 30
0.0
  9
$UCSORGBACK
 10
0.0
 20
0.0
 30
0.0
  9
$PUCSBASE
  2

  9
$PUCSNAME
  2

  9
$PUCSORG
 10
0.0
 20
0.0
 30
0.0
  9
$PUCSXDIR
 10
1.0
 20
0.0
 30
0.0
  9
$PUCSYDIR
 10
0.0
 20
1.0
 30
0.0
  9
$PUCSORTHOREF
  2

  9
$PUCSORTHOVIEW
 70
     0
  9
$PUCSORGTOP
 10
0.0
 20
0.0
 30
0.0
  9
$PUCSORGBOTTOM
 10
0.0
 20
0.0
 30
0.0
  9
$PUCSORGLEFT
 10
0.0
 20
0.0
 30
0.0
  9
$PUCSORGRIGHT
 10
0.0
 20
0.0
 30
0.0
  9
$PUCSORGFRONT
 10
0.0
 20
0.0
 30
0.0
  9
$PUCSORGBACK
 10
0.0
 20
0.0
 30
0.0
  9
$USERI1
 70
     0
  9
$USERI2
 70
     0
  9
$USERI3
 70
     0
  9
$USERI4
 70
     0
  9
$USERI5
 70
     0
  9
$USERR1
 40
0.0
  9
$USERR2
 40
0.0
  9
$USERR3
 40
0.0
  9
$USERR4
 40
0.0
  9
$USERR5
 40
0.0
  9
$WORLDVIEW
 70
     1
  9
$SHADEDGE
 70
     3
  9
$SHADEDIF
 70
    70
  9
$TILEMODE
 70
     1
  9
$MAXACTVP
 70
    64
  9
$PINSBASE
 10
0.0
 20
0.0
 30
0.0
  9
$PLIMCHECK
 70
     0
  9
$PEXTMIN
 10
1.0000000000E+20
 20
1.0000000000E+20
 30
1.0000000000E+20
  9
$PEXTMAX
 10
-1.0000000000E+20
 20
-1.0000000000E+20
 30
-1.0000000000E+20
  9
$PLIMMIN
 10
0.0
 20
0.0
  9
$PLIMMAX
 10
420.0
 20
297.0
  9
$UNITMODE
 70
     0
  9
$VISRETAIN
 70
     1
  9
$PLINEGEN
 70
     0
  9
$PSLTSCALE
 70
     1
  9
$TREEDEPTH
 70
  3020
  9
$CMLSTYLE
  2
Standard
  9
$CMLJUST
 70
     0
  9
$CMLSCALE
 40
20.0
  9
$PROXYGRAPHICS
 70
     1
  9
$MEASUREMENT
 70
     1
  9
$CELWEIGHT
370
    -1
  9
$ENDCAPS
280
     0
  9
$JOINSTYLE
280
     0
  9
$LWDISPLAY
290
     1
  9
$INSUNITS
 70
     4
  9
$HYPERLINKBASE
  1

  9
$STYLESHEET
  1

  9
$XEDIT
290
     1
  9
$CEPSNTYPE
380
     0
  9
$PSTYLEMODE
290
     1
  9
$FINGERPRINTGUID
  2
{556B5651-BD14-40FD-A2AD-008C166905E3}
  9
$VERSIONGUID
  2
{FAEB1C32-E019-11D5-929B-00C0DF256EC4}
  9
$EXTNAMES
290
     1
  9
$PSVPSCALE
 40
0.0
  9
$OLESTARTUP
290
     0
  0
ENDSEC
  0
SECTION
  2
CLASSES
  0
CLASS
  1
ACDBDICTIONARYWDFLT
  2
AcDbDictionaryWithDefault
  3
ObjectDBX Classes
 90
        0
280
     0
281
     0
  0
CLASS
  1
VISUALSTYLE
  2
AcDbVisualStyle
  3
ObjectDBX Classes
 90
     4095
280
     0
281
     0
  0
CLASS
  1
MATERIAL
  2
AcDbMaterial
  3
ObjectDBX Classes
 90
     1153
280
     0
281
     0
  0
CLASS
  1
SCALE
  2
AcDbScale
  3
ObjectDBX Classes
 90
     1153
280
     0
281
     0
  0
CLASS
  1
TABLESTYLE
  2
AcDbTableStyle
  3
ObjectDBX Classes
 90
     4095
280
     0
281
     0
  0
CLASS
  1
MLEADERSTYLE
  2
AcDbMLeaderStyle
  3
ACDB_MLEADERSTYLE_CLASS
 90
     4095
280
     0
281
     0
  0
CLASS
  1
SUN
  2
AcDbSun
  3
SCENEOE
 90
     1153
280
     0
281
     0
  0
CLASS
  1
ACDBPLACEHOLDER
  2
AcDbPlaceHolder
  3
ObjectDBX Classes
 90
        0
280
     0
281
     0
  0
CLASS
  1
LAYOUT
  2
AcDbLayout
  3
ObjectDBX Classes
 90
        0
280
     0
281
     0
  0
ENDSEC
  0
SECTION
  2
TABLES
  0
TABLE
  2
VPORT
  5
8
330
0
100
AcDbSymbolTable
 70
     1
  0
VPORT
  5
29
330
8
100
AcDbSymbolTableRecord
100
AcDbViewportTableRecord
  2
*Active
 70
     0
 10
0.0
 20
0.0
 11
1.0
 21
1.0
 12
105.0
 22
148.5
 13
0.0
 23
0.0
 14
10.0
 24
10.0
 15
10.0
 25
10.0
 16
0.0
 26
0.0
 36
1.0
 17
0.0
 27
0.0
 37
0.0
 40
297.0
 41
0.7070707071
 42
50.0
 43
0.0
 44
0.0
 50
0.0
 51
0.0
 71
     0
 72
  2000
 73
     1
 74
     3
 75
     0
 76
     0
 77
     0
 78
     0
281
     0
 65
     1
110
0.0
120
0.0
130
0.0
111
1.0
121
0.0
131
0.0
112
0.0
122
1.0
132
0.0
 79
     0
146
0.0
  0
ENDTAB
  0
TABLE
  2
LTYPE
  5
5
330
0
100
AcDbSymbolTable
 70
     6
  0
LTYPE
  5
14
330
5
100
AcDbSymbolTableRecord
100
AcDbLinetypeTableRecord
  2
ByBlock
 70
     0
  3

 72
    65
 73
     0
 40
0.0
  0
LTYPE
  5
15
330
5
100
AcDbSymbolTableRecord
100
AcDbLinetypeTableRecord
  2
ByLayer
 70
     0
  3

 72
    65
 73
     0
 40
0.0
  0
LTYPE
  5
16
330
5
100
AcDbSymbolTableRecord
100
AcDbLinetypeTableRecord
  2
Continuous
 70
     0
  3
Solid line
 72
    65
 73
     0
 40
0.0
  0
LTYPE
  5
6E
330
5
100
AcDbSymbolTableRecord
100
AcDbLinetypeTableRecord
  2
HIDDEN
 70
     0
  3
Hidden __ __ __ __ __ __ __ __ __ __ __ __ __ __
 72
    65
 73
     2
 40
1.905
 49
1.27
 74
     0
 49
-0.635
 74
     0
  0
LTYPE
  5
6F
330
5
100
AcDbSymbolTableRecord
100
AcDbLinetypeTableRecord
  2
PHANTOM
 70
     0
  3
Phantom ______  __  __  ______  __  __  ______
 72
    65
 73
     6
 40
12.7
 49
6.35
 74
     0
 49
-1.27
 74
     0
 49
1.27
 74
     0
 49
-1.27
 74
     0
 49
1.27
 74
     0
 49
-1.27
 74
     0
  0
LTYPE
  5
70
330
5
100
AcDbSymbolTableRecord
100
AcDbLinetypeTableRecord
  2
CENTER
 70
     0
  3
Center ____ _ ____ _ ____ _ ____ _ ____ _ ____
 72
    65
 73
     4
 40
10.16
 49
6.35
 74
     0
 49
-1.27
 74
     0
 49
1.27
 74
     0
 49
-1.27
 74
     0
  0
LTYPE
  5
71
330
5
100
AcDbSymbolTableRecord
100
AcDbLinetypeTableRecord
  2
CENTERX2
 70
     0
  3
Center (2x) ________  __  ________  __  _____
 72
    65
 73
     4
 40
20.32
 49
12.7
 74
     0
 49
-2.54
 74
     0
 49
2.54
 74
     0
 49
-2.54
 74
     0
  0
LTYPE
  5
72
330
5
100
AcDbSymbolTableRecord
100
AcDbLinetypeTableRecord
  2
DOT2
 70
     0
  3
Dot (.5x) ........................................
 72
    65
 73
     2
 40
0.635
 49
0.0
 74
     0
 49
-0.635
 74
     0
  0
ENDTAB
  0
TABLE
  2
LAYER
  5
2
330
0
100
AcDbSymbolTable
 70
     1
  0
LAYER
  5
10
330
2
100
AcDbSymbolTableRecord
100
AcDbLayerTableRecord
  2
0
 70
     0
 62
     7
  6
Continuous
370
    -3
390
F
  0
ENDTAB
  0
TABLE
  2
STYLE
  5
3
330
0
100
AcDbSymbolTable
 70
     2
  0
STYLE
  5
11
330
3
100
AcDbSymbolTableRecord
100
AcDbTextStyleTableRecord
  2
Standard
 70
     0
 40
0.0
 41
1.0
 50
0.0
 71
     0
 42
3.5
  3
txt
  4
bigfont
  0
STYLE
  5
7B
330
3
100
AcDbSymbolTableRecord
100
AcDbTextStyleTableRecord
  2
SLDTEXTSTYLE0
 70
     0
 40
0.0
 41
0.7
 50
0.0
 71
     0
 42
3.5
  3
TXT
  4
bigfont
  0
ENDTAB
  0
TABLE
  2
VIEW
  5
6
330
0
100
AcDbSymbolTable
 70
     0
  0
ENDTAB
  0
TABLE
  2
UCS
  5
7
330
0
100
AcDbSymbolTable
 70
     0
  0
ENDTAB
  0
TABLE
  2
APPID
  5
9
330
0
100
AcDbSymbolTable
 70
     1
  0
APPID
  5
12
330
9
100
AcDbSymbolTableRecord
100
AcDbRegAppTableRecord
  2
ACAD
 70
     0
  0
ENDTAB
  0
TABLE
  2
DIMSTYLE
  5
A
330
0
100
AcDbSymbolTable
 70
     5
100
AcDbDimStyleTable
  0
DIMSTYLE
105
27
330
A
100
AcDbSymbolTableRecord
100
AcDbDimStyleTableRecord
  2
ISO-25
 70
     0
 41
2.5
 42
0.625
 43
3.75
 44
1.25
 73
     0
 74
     0
 77
     1
 78
     8
140
2.5
141
2.5
143
0.0393700787
147
0.625
171
     3
172
     1
178
     0
271
     2
272
     2
274
     3
278
    44
283
     0
284
     8
340
11
  0
DIMSTYLE
105
131
102
{ACAD_REACTORS
330
130
330
13B
330
145
330
14F
330
159
330
254
330
25E
330
268
330
274
330
280
330
296
330
3A7
330
3B3
102
}
330
A
100
AcDbSymbolTableRecord
100
AcDbDimStyleTableRecord
  2
SLDDIMSTYLE0
 70
     0
 41
3.0
 44
0.0
 45
0.000000001
 73
     0
 74
     0
 77
     3
 78
    12
 79
     3
140
3.5
147
0.875
173
     1
178
     0
271
     1
272
     3
276
     2
284
    12
340
7B
  0
DIMSTYLE
105
247
102
{ACAD_REACTORS
330
246
330
28A
102
}
330
A
100
AcDbSymbolTableRecord
100
AcDbDimStyleTableRecord
  2
SLDDIMSTYLE1
 70
     0
 41
3.0
 44
0.0
 45
0.000000001
 73
     0
 74
     0
 77
     3
 78
    12
 79
     3
140
3.5
147
0.875
172
     1
173
     1
178
     0
271
     1
272
     3
276
     2
284
    12
289
     0
340
7B
  0
DIMSTYLE
105
2A1
102
{ACAD_REACTORS
330
2A0
102
}
330
A
100
AcDbSymbolTableRecord
100
AcDbDimStyleTableRecord
  2
SLDDIMSTYLE2
 70
     0
 41
3.0
 44
0.0
 45
0.000000001
 78
    12
 79
     3
140
3.5
141
0.0
147
0.875
173
     1
178
     0
271
     1
272
     3
276
     2
284
    12
340
7B
  0
DIMSTYLE
105
2B2
330
A
100
AcDbSymbolTableRecord
100
AcDbDimStyleTableRecord
  2
SLDDIMSTYLE3
 70
     0
 41
3.0
 44
0.0
 45
0.000000001
146
3.0
147
0.0
173
     1
178
     0
271
     0
272
     0
276
     2
340
11
  0
ENDTAB
  0
TABLE
  2
BLOCK_RECORD
  5
1
330
0
100
AcDbSymbolTable
 70
    22
  0
BLOCK_RECORD
  5
1F
330
1
100
AcDbSymbolTableRecord
100
AcDbBlockTableRecord
  2
*Model_Space
340
22
  0
BLOCK_RECORD
  5
1B
330
1
100
AcDbSymbolTableRecord
100
AcDbBlockTableRecord
  2
*Paper_Space
340
1E
  0
BLOCK_RECORD
  5
23
330
1
100
AcDbSymbolTableRecord
100
AcDbBlockTableRecord
  2
*Paper_Space0
340
26
  0
BLOCK_RECORD
  5
132
330
1
100
AcDbSymbolTableRecord
100
AcDbBlockTableRecord
  2
_D
340
0
  0
BLOCK_RECORD
  5
13C
330
1
100
AcDbSymbolTableRecord
100
AcDbBlockTableRecord
  2
_D_1
340
0
  0
BLOCK_RECORD
  5
146
330
1
100
AcDbSymbolTableRecord
100
AcDbBlockTableRecord
  2
_D_2
340
0
  0
BLOCK_RECORD
  5
150
330
1
100
AcDbSymbolTableRecord
100
AcDbBlockTableRecord
  2
_D_3
340
0
  0
BLOCK_RECORD
  5
15A
330
1
100
AcDbSymbolTableRecord
100
AcDbBlockTableRecord
  2
_D_4
340
0
  0
BLOCK_RECORD
  5
248
330
1
100
AcDbSymbolTableRecord
100
AcDbBlockTableRecord
  2
_D_5
340
0
  0
BLOCK_RECORD
  5
255
330
1
100
AcDbSymbolTableRecord
100
AcDbBlockTableRecord
  2
_D_6
340
0
  0
BLOCK_RECORD
  5
25F
330
1
100
AcDbSymbolTableRecord
100
AcDbBlockTableRecord
  2
_D_7
340
0
  0
BLOCK_RECORD
  5
269
330
1
100
AcDbSymbolTableRecord
100
AcDbBlockTableRecord
  2
_D_8
340
0
  0
BLOCK_RECORD
  5
275
330
1
100
AcDbSymbolTableRecord
100
AcDbBlockTableRecord
  2
_D_9
340
0
  0
BLOCK_RECORD
  5
281
330
1
100
AcDbSymbolTableRecord
100
AcDbBlockTableRecord
  2
_D_10
340
0
  0
BLOCK_RECORD
  5
28B
330
1
100
AcDbSymbolTableRecord
100
AcDbBlockTableRecord
  2
_D_11
340
0
  0
BLOCK_RECORD
  5
297
330
1
100
AcDbSymbolTableRecord
100
AcDbBlockTableRecord
  2
_D_12
340
0
  0
BLOCK_RECORD
  5
2A2
330
1
100
AcDbSymbolTableRecord
100
AcDbBlockTableRecord
  2
_D_13
340
0
  0
BLOCK_RECORD
  5
2AC
330
1
100
AcDbSymbolTableRecord
100
AcDbBlockTableRecord
  2
SW_NOTE_0
340
0
102
{BLKREFS
331
2B1
102
}
  0
BLOCK_RECORD
  5
2B4
330
1
100
AcDbSymbolTableRecord
100
AcDbBlockTableRecord
  2
SW_CENTERMARKSYMBOL_0
340
0
102
{BLKREFS
331
2BF
102
}
  0
BLOCK_RECORD
  5
2C0
330
1
100
AcDbSymbolTableRecord
100
AcDbBlockTableRecord
  2
SW_CENTERMARKSYMBOL_1
340
0
102
{BLKREFS
331
2CB
102
}
  0
BLOCK_RECORD
  5
2CC
330
1
100
AcDbSymbolTableRecord
100
AcDbBlockTableRecord
  2
SW_CENTERMARKSYMBOL_2
340
0
102
{BLKREFS
331
2D7
102
}
  0
BLOCK_RECORD
  5
3A8
330
1
100
AcDbSymbolTableRecord
100
AcDbBlockTableRecord
  2
_D_14
340
0
  0
BLOCK_RECORD
  5
3B4
330
1
100
AcDbSymbolTableRecord
100
AcDbBlockTableRecord
  2
_D_15
340
0
  0
BLOCK_RECORD
  5
3BF
330
1
100
AcDbSymbolTableRecord
100
AcDbBlockTableRecord
  2
SW_CENTERMARKSYMBOL_3
340
0
102
{BLKREFS
331
3CA
102
}
  0
ENDTAB
  0
ENDSEC
  0
SECTION
  2
BLOCKS
  0
BLOCK
  5
20
330
1F
100
AcDbEntity
  8
0
100
AcDbBlockBegin
  2
*Model_Space
 70
     0
 10
0.0
 20
0.0
 30
0.0
  3
*Model_Space
  1

  0
ENDBLK
  5
21
330
1F
100
AcDbEntity
  8
0
100
AcDbBlockEnd
  0
BLOCK
  5
1C
330
1B
100
AcDbEntity
 67
     1
  8
0
100
AcDbBlockBegin
  2
*Paper_Space
 70
     0
 10
0.0
 20
0.0
 30
0.0
  3
*Paper_Space
  1

  0
ENDBLK
  5
1D
330
1B
100
AcDbEntity
 67
     1
  8
0
100
AcDbBlockEnd
  0
BLOCK
  5
24
330
23
100
AcDbEntity
  8
0
100
AcDbBlockBegin
  2
*Paper_Space0
 70
     0
 10
0.0
 20
0.0
 30
0.0
  3
*Paper_Space0
  1

  0
ENDBLK
  5
25
330
23
100
AcDbEntity
  8
0
100
AcDbBlockEnd
  0
BLOCK
  5
133
330
132
100
AcDbEntity
  8
0
100
AcDbBlockBegin
  2
_D
 70
     0
 10
0.0
 20
0.0
 30
0.0
  3
_D
  1

  0
SOLID
  5
135
330
132
100
AcDbEntity
  8
0
  6
Continuous
 62
     7
370
     0
100
AcDbTrace
 10
153.1399494974
 20
267.0225424257
 30
0.0
 11
156.1399494974
 21
266.2725424257
 31
0.0
 12
156.1399494974
 22
267.7725424257
 32
0.0
 13
156.1399494974
 23
267.7725424257
 33
0.0
  0
SOLID
  5
136
330
132
100
AcDbEntity
  8
0
  6
Continuous
 62
     7
370
     0
100
AcDbTrace
 10
168.1399494974
 20
267.0225424257
 30
0.0
 11
165.1399494974
 21
267.7725424257
 31
0.0
 12
165.1399494974
 22
266.2725424257
 32
0.0
 13
165.1399494974
 23
266.2725424257
 33
0.0
  0
LINE
  5
137
330
132
100
AcDbEntity
  8
0
  6
Continuous
 62
     7
370
     0
100
AcDbLine
 10
153.1399494974
 20
257.367369384
 30
0.0
 11
153.1399494974
 21
268.0225424257
 31
0.0
  0
LINE
  5
138
330
132
100
AcDbEntity
  8
0
  6
Continuous
 62
     7
370
     0
100
AcDbLine
 10
168.1399494974
 20
250.6580836956
 30
0.0
 11
168.1399494974
 21
268.0225424257
 31
0.0
  0
LINE
  5
139
330
132
100
AcDbEntity
  8
0
  6
Continuous
 62
     7
370
     0
100
AcDbLine
 10
153.1399494974
 20
267.0225424257
 30
0.0
 11
168.1399494974
 21
267.0225424257
 31
0.0
  0
MTEXT
  5
13A
330
132
100
AcDbEntity
  8
0
  6
Continuous
 62
     7
370
     0
100
AcDbMText
 10
158.6031439999
 20
271.5342792821
 30
0.0
 40
3.5
 41
0.0
 71
     1
 72
     1
  1
15
  7
SLDTEXTSTYLE0
 73
     1
 44
1.0
  0
ENDBLK
  5
134
330
132
100
AcDbEntity
  8
0
100
AcDbBlockEnd
  0
BLOCK
  5
13D
330
13C
100
AcDbEntity
  8
0
100
AcDbBlockBegin
  2
_D_1
 70
     0
 10
0.0
 20
0.0
 30
0.0
  3
_D_1
  1

  0
SOLID
  5
13F
330
13C
100
AcDbEntity
  8
0
  6
Continuous
 62
     7
370
     0
100
AcDbTrace
 10
143.3550957406
 20
256.9406457955
 30
0.0
 11
142.6050957406
 21
253.9406457955
 31
0.0
 12
144.1050957406
 22
253.9406457955
 32
0.0
 13
144.1050957406
 23
253.9406457955
 33
0.0
  0
SOLID
  5
140
330
13C
100
AcDbEntity
  8
0
  6
Continuous
 62
     7
370
     0
100
AcDbTrace
 10
143.3550957406
 20
226.7725287685
 30
0.0
 11
144.1050957406
 21
229.7725287685
 31
0.0
 12
142.6050957406
 22
229.7725287685
 32
0.0
 13
142.6050957406
 23
229.7725287685
 33
0.0
  0
LINE
  5
141
330
13C
100
AcDbEntity
  8
0
  6
Continuous
 62
     7
370
     0
100
AcDbLine
 10
152.1399494974
 20
256.9406457955
 30
0.0
 11
142.3550957406
 21
256.9406457955
 31
0.0
  0
LINE
  5
142
330
13C
100
AcDbEntity
  8
0
  6
Continuous
 62
     7
370
     0
100
AcDbLine
 10
152.1399494974
 20
226.7725287685
 30
0.0
 11
142.3550957406
 21
226.7725287685
 31
0.0
  0
LINE
  5
143
330
13C
100
AcDbEntity
  8
0
  6
Continuous
 62
     7
370
     0
100
AcDbLine
 10
143.3550957406
 20
256.9406457955
 30
0.0
 11
143.3550957406
 21
226.7725287685
 31
0.0
  0
MTEXT
  5
144
330
13C
100
AcDbEntity
  8
0
  6
Continuous
 62
     7
370
     0
100
AcDbMText
 10
138.8433588843
 20
239.8197817845
 30
0.0
 40
3.5
 41
0.0
 71
     1
 72
     1
  1
30
  7
SLDTEXTSTYLE0
 11
-1.770233605404514E-14
 21
1.0
 31
0.0
 73
     1
 44
1.0
  0
ENDBLK
  5
13E
330
13C
100
AcDbEntity
  8
0
100
AcDbBlockEnd
  0
BLOCK
  5
147
330
146
100
AcDbEntity
  8
0
100
AcDbBlockBegin
  2
_D_2
 70
     0
 10
0.0
 20
0.0
 30
0.0
  3
_D_2
  1

  0
SOLID
  5
149
330
146
100
AcDbEntity
  8
0
  6
Continuous
 62
     7
370
     0
100
AcDbTrace
 10
153.1399494974
 20
273.0225424257
 30
0.0
 11
156.1399494974
 21
272.2725424257
 31
0.0
 12
156.1399494974
 22
273.7725424257
 32
0.0
 13
156.1399494974
 23
273.7725424257
 33
0.0
  0
SOLID
  5
14A
330
146
100
AcDbEntity
  8
0
  6
Continuous
 62
     7
370
     0
100
AcDbTrace
 10
176.1399494974
 20
273.0225424257
 30
0.0
 11
173.1399494974
 21
273.7725424257
 31
0.0
 12
173.1399494974
 22
272.2725424257
 32
0.0
 13
173.1399494974
 23
272.2725424257
 33
0.0
  0
LINE
  5
14B
330
146
100
AcDbEntity
  8
0
  6
Continuous
 62
     7
370
     0
100
AcDbLine
 10
153.1399494974
 20
257.367369384
 30
0.0
 11
153.1399494974
 21
274.0225424257
 31
0.0
  0
LINE
  5
14C
330
146
100
AcDbEntity
  8
0
  6
Continuous
 62
     7
370
     0
100
AcDbLine
 10
176.1399494974
 20
256.7086600333
 30
0.0
 11
176.1399494974
 21
274.0225424257
 31
0.0
  0
LINE
  5
14D
330
146
100
AcDbEntity
  8
0
  6
Continuous
 62
     7
370
     0
100
AcDbLine
 10
153.1399494974
 20
273.0225424257
 30
0.0
 11
176.1399494974
 21
273.0225424257
 31
0.0
  0
MTEXT
  5
14E
330
146
100
AcDbEntity
  8
0
  6
Continuous
 62
     7
370
     0
100
AcDbMText
 10
162.6031439999
 20
277.5342792821
 30
0.0
 40
3.5
 41
0.0
 71
     1
 72
     1
  1
23
  7
SLDTEXTSTYLE0
 73
     1
 44
1.0
  0
ENDBLK
  5
148
330
146
100
AcDbEntity
  8
0
100
AcDbBlockEnd
  0
BLOCK
  5
151
330
150
100
AcDbEntity
  8
0
100
AcDbBlockBegin
  2
_D_3
 70
     0
 10
0.0
 20
0.0
 30
0.0
  3
_D_3
  1

  0
SOLID
  5
153
330
150
100
AcDbEntity
  8
0
  6
Continuous
 62
     7
370
     0
100
AcDbTrace
 10
180.1399494974
 20
132.8219871906
 30
0.0
 11
177.1399494974
 21
133.5719871906
 31
0.0
 12
177.1399494974
 22
132.0719871906
 32
0.0
 13
177.1399494974
 23
132.0719871906
 33
0.0
  0
SOLID
  5
154
330
150
100
AcDbEntity
  8
0
  6
Continuous
 62
     7
370
     0
100
AcDbTrace
 10
164.1399494974
 20
132.8219871906
 30
0.0
 11
167.1399494974
 21
132.0719871906
 31
0.0
 12
167.1399494974
 22
133.5719871906
 32
0.0
 13
167.1399494974
 23
133.5719871906
 33
0.0
  0
LINE
  5
155
330
150
100
AcDbEntity
  8
0
  6
Continuous
 62
     7
370
     0
100
AcDbLine
 10
180.1399494974
 20
166.1401345241
 30
0.0
 11
180.1399494974
 21
131.8219871906
 31
0.0
  0
LINE
  5
156
330
150
100
AcDbEntity
  8
0
  6
Continuous
 62
     7
370
     0
100
AcDbLine
 10
164.1399494974
 20
166.1401345241
 30
0.0
 11
164.1399494974
 21
131.8219871906
 31
0.0
  0
LINE
  5
157
330
150
100
AcDbEntity
  8
0
  6
Continuous
 62
     7
370
     0
100
AcDbLine
 10
180.1399494974
 20
132.8219871906
 30
0.0
 11
164.1399494974
 21
132.8219871906
 31
0.0
  0
MTEXT
  5
158
330
150
100
AcDbEntity
  8
0
  6
Continuous
 62
     7
370
     0
100
AcDbMText
 10
170.1031439999
 20
137.3337240469
 30
0.0
 40
3.5
 41
0.0
 71
     1
 72
     1
  1
16
  7
SLDTEXTSTYLE0
 73
     1
 44
1.0
  0
ENDBLK
  5
152
330
150
100
AcDbEntity
  8
0
100
AcDbBlockEnd
  0
BLOCK
  5
15B
330
15A
100
AcDbEntity
  8
0
100
AcDbBlockBegin
  2
_D_4
 70
     0
 10
0.0
 20
0.0
 30
0.0
  3
_D_4
  1

  0
SOLID
  5
15D
330
15A
100
AcDbEntity
  8
0
  6
Continuous
 62
     7
370
     0
100
AcDbTrace
 10
180.1399494974
 20
123.5874209531
 30
0.0
 11
177.1399494974
 21
124.3374209531
 31
0.0
 12
177.1399494974
 22
122.8374209531
 32
0.0
 13
177.1399494974
 23
122.8374209531
 33
0.0
  0
SOLID
  5
15E
330
15A
100
AcDbEntity
  8
0
  6
Continuous
 62
     7
370
     0
100
AcDbTrace
 10
153.1399494974
 20
123.5874209531
 30
0.0
 11
156.1399494974
 21
122.8374209531
 31
0.0
 12
156.1399494974
 22
124.3374209531
 32
0.0
 13
156.1399494974
 23
124.3374209531
 33
0.0
  0
LINE
  5
15F
330
15A
100
AcDbEntity
  8
0
  6
Continuous
 62
     7
370
     0
100
AcDbLine
 10
180.1399494974
 20
166.1401345241
 30
0.0
 11
180.1399494974
 21
122.5874209531
 31
0.0
  0
LINE
  5
160
330
15A
100
AcDbEntity
  8
0
  6
Continuous
 62
     7
370
     0
100
AcDbLine
 10
153.1399494974
 20
225.7725287685
 30
0.0
 11
153.1399494974
 21
122.5874209531
 31
0.0
  0
LINE
  5
161
330
15A
100
AcDbEntity
  8
0
  6
Continuous
 62
     7
370
     0
100
AcDbLine
 10
180.1399494974
 20
123.5874209531
 30
0.0
 11
153.1399494974
 21
123.5874209531
 31
0.0
  0
MTEXT
  5
162
330
15A
100
AcDbEntity
  8
0
  6
Continuous
 62
     7
370
     0
100
AcDbMText
 10
164.6031439999
 20
128.0991578095
 30
0.0
 40
3.5
 41
0.0
 71
     1
 72
     1
  1
27
  7
SLDTEXTSTYLE0
 73
     1
 44
1.0
  0
ENDBLK
  5
15C
330
15A
100
AcDbEntity
  8
0
100
AcDbBlockEnd
  0
BLOCK
  5
249
330
248
100
AcDbEntity
  8
0
100
AcDbBlockBegin
  2
_D_5
 70
     0
 10
0.0
 20
0.0
 30
0.0
  3
_D_5
  1

  0
SOLID
  5
24B
330
248
100
AcDbEntity
  8
0
  6
Continuous
 62
     7
370
     0
100
AcDbTrace
 10
71.9428569741
 20
131.1401345241
 30
0.0
 11
68.9428569741
 21
131.8901345241
 31
0.0
 12
68.9428569741
 22
130.3901345241
 32
0.0
 13
68.9428569741
 23
130.3901345241
 33
0.0
  0
SOLID
  5
24C
330
248
100
AcDbEntity
  8
0
  6
Continuous
 62
     7
370
     0
100
AcDbTrace
 10
83.9428569741
 20
131.1401345241
 30
0.0
 11
86.9428569741
 21
130.3901345241
 31
0.0
 12
86.9428569741
 22
131.8901345241
 32
0.0
 13
86.9428569741
 23
131.8901345241
 33
0.0
  0
LINE
  5
24D
330
248
100
AcDbEntity
  8
0
  6
Continuous
 62
     7
370
     0
100
AcDbLine
 10
71.9428569741
 20
151.1401345241
 30
0.0
 11
71.9428569741
 21
130.1401345241
 31
0.0
  0
LINE
  5
24E
330
248
100
AcDbEntity
  8
0
  6
Continuous
 62
     7
370
     0
100
AcDbLine
 10
83.9428569741
 20
151.1401345241
 30
0.0
 11
83.9428569741
 21
130.1401345241
 31
0.0
  0
LINE
  5
24F
330
248
100
AcDbEntity
  8
0
  6
Continuous
 62
     7
370
     0
100
AcDbLine
 10
71.9428569741
 20
131.1401345241
 30
0.0
 11
66.9428569741
 21
131.1401345241
 31
0.0
  0
LINE
  5
250
330
248
100
AcDbEntity
  8
0
  6
Continuous
 62
     7
370
     0
100
AcDbLine
 10
71.9428569741
 20
131.1401345241
 30
0.0
 11
83.9428569741
 21
131.1401345241
 31
0.0
  0
LINE
  5
251
330
248
100
AcDbEntity
  8
0
  6
Continuous
 62
     7
370
     0
100
AcDbLine
 10
83.9428569741
 20
131.1401345241
 30
0.0
 11
88.9428569741
 21
131.1401345241
 31
0.0
  0
MTEXT
  5
252
330
248
100
AcDbEntity
  8
0
  6
Continuous
 62
     7
370
     0
100
AcDbMText
 10
73.9710861026
 20
135.6518718461
 30
0.0
 40
3.5
 41
0.0
 71
     1
 72
     1
  1
%%c
  7
SLDTEXTSTYLE0
 73
     1
 44
1.0
  0
MTEXT
  5
253
330
248
100
AcDbEntity
  8
0
  6
Continuous
 62
     7
370
     0
100
AcDbMText
 10
77.8410166177
 20
135.6518718461
 30
0.0
 40
3.5
 41
0.0
 71
     1
 72
     1
  1
12
  7
SLDTEXTSTYLE0
 73
     1
 44
1.0
  0
ENDBLK
  5
24A
330
248
100
AcDbEntity
  8
0
100
AcDbBlockEnd
  0
BLOCK
  5
256
330
255
100
AcDbEntity
  8
0
100
AcDbBlockBegin
  2
_D_6
 70
     0
 10
0.0
 20
0.0
 30
0.0
  3
_D_6
  1

  0
SOLID
  5
258
330
255
100
AcDbEntity
  8
0
  6
Continuous
 62
     7
370
     0
100
AcDbTrace
 10
97.4428569741
 20
115.0992255676
 30
0.0
 11
94.4428569741
 21
115.8492255676
 31
0.0
 12
94.4428569741
 22
114.3492255676
 32
0.0
 13
94.4428569741
 23
114.3492255676
 33
0.0
  0
SOLID
  5
259
330
255
100
AcDbEntity
  8
0
  6
Continuous
 62
     7
370
     0
100
AcDbTrace
 10
58.4428569741
 20
115.0992255676
 30
0.0
 11
61.4428569741
 21
114.3492255676
 31
0.0
 12
61.4428569741
 22
115.8492255676
 32
0.0
 13
61.4428569741
 23
115.8492255676
 33
0.0
  0
LINE
  5
25A
330
255
100
AcDbEntity
  8
0
  6
Continuous
 62
     7
370
     0
100
AcDbLine
 10
97.4428569741
 20
166.1401345241
 30
0.0
 11
97.4428569741
 21
114.0992255676
 31
0.0
  0
LINE
  5
25B
330
255
100
AcDbEntity
  8
0
  6
Continuous
 62
     7
370
     0
100
AcDbLine
 10
58.4428569741
 20
166.1401345241
 30
0.0
 11
58.4428569741
 21
114.0992255676
 31
0.0
  0
LINE
  5
25C
330
255
100
AcDbEntity
  8
0
  6
Continuous
 62
     7
370
     0
100
AcDbLine
 10
97.4428569741
 20
115.0992255676
 30
0.0
 11
58.4428569741
 21
115.0992255676
 31
0.0
  0
MTEXT
  5
25D
330
255
100
AcDbEntity
  8
0
  6
Continuous
 62
     7
370
     0
100
AcDbMText
 10
75.9060514766
 20
119.6109624239
 30
0.0
 40
3.5
 41
0.0
 71
     1
 72
     1
  1
39
  7
SLDTEXTSTYLE0
 73
     1
 44
1.0
  0
ENDBLK
  5
257
330
255
100
AcDbEntity
  8
0
100
AcDbBlockEnd
  0
BLOCK
  5
260
330
25F
100
AcDbEntity
  8
0
100
AcDbBlockBegin
  2
_D_7
 70
     0
 10
0.0
 20
0.0
 30
0.0
  3
_D_7
  1

  0
SOLID
  5
262
330
25F
100
AcDbEntity
  8
0
  6
Continuous
 62
     7
370
     0
100
AcDbTrace
 10
115.1565094474
 20
220.5401345241
 30
0.0
 11
114.4065094474
 21
217.5401345241
 31
0.0
 12
115.9065094474
 22
217.5401345241
 32
0.0
 13
115.9065094474
 23
217.5401345241
 33
0.0
  0
SOLID
  5
263
330
25F
100
AcDbEntity
  8
0
  6
Continuous
 62
     7
370
     0
100
AcDbTrace
 10
115.1565094474
 20
167.1401345241
 30
0.0
 11
115.9065094474
 21
170.1401345241
 31
0.0
 12
114.4065094474
 22
170.1401345241
 32
0.0
 13
114.4065094474
 23
170.1401345241
 33
0.0
  0
LINE
  5
264
330
25F
100
AcDbEntity
  8
0
  6
Continuous
 62
     7
370
     0
100
AcDbLine
 10
83.9428569741
 20
220.5401345241
 30
0.0
 11
116.1565094474
 21
220.5401345241
 31
0.0
  0
LINE
  5
265
330
25F
100
AcDbEntity
  8
0
  6
Continuous
 62
     7
370
     0
100
AcDbLine
 10
98.4428569741
 20
167.1401345241
 30
0.0
 11
116.1565094474
 21
167.1401345241
 31
0.0
  0
LINE
  5
266
330
25F
100
AcDbEntity
  8
0
  6
Continuous
 62
     7
370
     0
100
AcDbLine
 10
115.1565094474
 20
220.5401345241
 30
0.0
 11
115.1565094474
 21
167.1401345241
 31
0.0
  0
MTEXT
  5
267
330
25F
100
AcDbEntity
  8
0
  6
Continuous
 62
     7
370
     0
100
AcDbMText
 10
110.644772591
 20
189.7665235292
 30
0.0
 40
3.5
 41
0.0
 71
     1
 72
     1
  1
53.4
  7
SLDTEXTSTYLE0
 11
-7.044195017643634E-15
 21
1.0
 31
0.0
 73
     1
 44
1.0
  0
ENDBLK
  5
261
330
25F
100
AcDbEntity
  8
0
100
AcDbBlockEnd
  0
BLOCK
  5
26A
330
269
100
AcDbEntity
  8
0
100
AcDbBlockBegin
  2
_D_8
 70
     0
 10
0.0
 20
0.0
 30
0.0
  3
_D_8
  1

  0
ARC
  5
26C
330
269
100
AcDbEntity
  8
0
  6
Continuous
 62
     7
370
     0
100
AcDbCircle
 10
80.2882516322
 20
270.2449563737
 30
0.0
 40
4.55443554931597
100
AcDbArc
 50
153.1673646493
 51
206.2974670035
  0
ARC
  5
26D
330
269
100
AcDbEntity
  8
0
  6
Continuous
 62
     7
370
     0
100
AcDbCircle
 10
76.2146850619
 20
270.2639809839
 30
0.0
 40
4.55443554931597
100
AcDbArc
 50
333.1673646493
 51
26.2974670035
  0
SOLID
  5
26E
330
269
100
AcDbEntity
  8
0
  6
Continuous
 62
     7
370
     0
100
AcDbTrace
 10
69.4740661873
 20
268.2586337085
 30
0.0
 11
72.4705308149
 21
267.494631264
 31
0.0
 12
72.4775361267
 22
268.9946149058
 32
0.0
 13
72.4775361267
 23
268.9946149058
 33
0.0
  0
SOLID
  5
26F
330
269
100
AcDbEntity
  8
0
  6
Continuous
 62
     7
370
     0
100
AcDbTrace
 10
87.0098460131
 20
268.1767370783
 30
0.0
 11
84.0133813854
 21
268.9407395228
 31
0.0
 12
84.0063760736
 22
267.440755881
 32
0.0
 13
84.0063760736
 23
267.440755881
 33
0.0
  0
LINE
  5
270
330
269
100
AcDbEntity
  8
0
  6
Continuous
 62
     7
370
     0
100
AcDbLine
 10
69.4262609408
 20
258.0225315202
 30
0.0
 11
69.4787363951
 21
269.258622803
 31
0.0
  0
LINE
  5
271
330
269
100
AcDbEntity
  8
0
  6
Continuous
 62
     7
370
     0
100
AcDbLine
 10
86.9620407666
 20
257.94063489
 30
0.0
 11
87.0145162209
 21
269.1767261728
 31
0.0
  0
LINE
  5
272
330
269
100
AcDbEntity
  8
0
  6
Continuous
 62
     7
370
     0
100
AcDbLine
 10
69.4740661873
 20
268.2586337085
 30
0.0
 11
87.0098460131
 21
268.1767370783
 31
0.0
  0
MTEXT
  5
273
330
269
100
AcDbEntity
  8
0
  6
Continuous
 62
     7
370
     0
100
AcDbMText
 10
76.2262435058
 20
272.7388853525
 30
0.0
 40
3.5
 41
0.0
 71
     1
 72
     1
  1
17
  7
SLDTEXTSTYLE0
 11
0.9999890945197228
 21
-0.004670207878115343
 31
0.0
 73
     1
 44
1.0
  0
ENDBLK
  5
26B
330
269
100
AcDbEntity
  8
0
100
AcDbBlockEnd
  0
BLOCK
  5
276
330
275
100
AcDbEntity
  8
0
100
AcDbBlockBegin
  2
_D_9
 70
     0
 10
0.0
 20
0.0
 30
0.0
  3
_D_9
  1

  0
ARC
  5
278
330
275
100
AcDbEntity
  8
0
  6
Continuous
 62
     7
370
     0
100
AcDbCircle
 10
122.7859647264
 20
200.0587927339
 30
0.0
 40
4.554435549315978
100
AcDbArc
 50
243.4349488229
 51
296.5650511771
  0
ARC
  5
279
330
275
100
AcDbEntity
  8
0
  6
Continuous
 62
     7
370
     0
100
AcDbCircle
 10
122.7859647264
 20
198.0219874693
 30
0.0
 40
4.554435549315953
100
AcDbArc
 50
63.4349488229
 51
116.5650511771
  0
SOLID
  5
27A
330
275
100
AcDbEntity
  8
0
  6
Continuous
 62
     7
370
     0
100
AcDbTrace
 10
124.8227702238
 20
256.9406457955
 30
0.0
 11
124.0727702238
 21
253.9406457955
 31
0.0
 12
125.5727702238
 22
253.9406457955
 32
0.0
 13
125.5727702238
 23
253.9406457955
 33
0.0
  0
SOLID
  5
27B
330
275
100
AcDbEntity
  8
0
  6
Continuous
 62
     7
370
     0
100
AcDbTrace
 10
124.8227702238
 20
141.1401345241
 30
0.0
 11
125.5727702238
 21
144.1401345241
 31
0.0
 12
124.0727702238
 22
144.1401345241
 32
0.0
 13
124.0727702238
 23
144.1401345241
 33
0.0
  0
LINE
  5
27C
330
275
100
AcDbEntity
  8
0
  6
Continuous
 62
     7
370
     0
100
AcDbLine
 10
87.9573705588
 20
256.9406457955
 30
0.0
 11
125.8227702238
 21
256.9406457955
 31
0.0
  0
LINE
  5
27D
330
275
100
AcDbEntity
  8
0
  6
Continuous
 62
     7
370
     0
100
AcDbLine
 10
80.4428569741
 20
141.1401345241
 30
0.0
 11
125.8227702238
 21
141.1401345241
 31
0.0
  0
LINE
  5
27E
330
275
100
AcDbEntity
  8
0
  6
Continuous
 62
     7
370
     0
100
AcDbLine
 10
124.8227702238
 20
256.9406457955
 30
0.0
 11
124.8227702238
 21
141.1401345241
 31
0.0
  0
MTEXT
  5
27F
330
275
100
AcDbEntity
  8
0
  6
Continuous
 62
     7
370
     0
100
AcDbMText
 10
120.3110333675
 20
195.985181739
 30
0.0
 40
3.5
 41
0.0
 71
     1
 72
     1
  1
116
  7
SLDTEXTSTYLE0
 11
-7.044195017643634E-15
 21
1.0
 31
0.0
 73
     1
 44
1.0
  0
ENDBLK
  5
277
330
275
100
AcDbEntity
  8
0
100
AcDbBlockEnd
  0
BLOCK
  5
282
330
281
100
AcDbEntity
  8
0
100
AcDbBlockBegin
  2
_D_10
 70
     0
 10
0.0
 20
0.0
 30
0.0
  3
_D_10
  1

  0
SOLID
  5
284
330
281
100
AcDbEntity
  8
0
  6
Continuous
 62
     7
370
     0
100
AcDbTrace
 10
65.4428569741
 20
123.3889681824
 30
0.0
 11
68.4428569741
 21
122.6389681824
 31
0.0
 12
68.4428569741
 22
124.1389681824
 32
0.0
 13
68.4428569741
 23
124.1389681824
 33
0.0
  0
SOLID
  5
285
330
281
100
AcDbEntity
  8
0
  6
Continuous
 62
     7
370
     0
100
AcDbTrace
 10
90.4428569741
 20
123.3889681824
 30
0.0
 11
87.4428569741
 21
124.1389681824
 31
0.0
 12
87.4428569741
 22
122.6389681824
 32
0.0
 13
87.4428569741
 23
122.6389681824
 33
0.0
  0
LINE
  5
286
330
281
100
AcDbEntity
  8
0
  6
Continuous
 62
     7
370
     0
100
AcDbLine
 10
65.4428569741
 20
170.6401345241
 30
0.0
 11
65.4428569741
 21
122.3889681824
 31
0.0
  0
LINE
  5
287
330
281
100
AcDbEntity
  8
0
  6
Continuous
 62
     7
370
     0
100
AcDbLine
 10
90.4428569741
 20
166.0401345241
 30
0.0
 11
90.4428569741
 21
122.3889681824
 31
0.0
  0
LINE
  5
288
330
281
100
AcDbEntity
  8
0
  6
Continuous
 62
     7
370
     0
100
AcDbLine
 10
65.4428569741
 20
123.3889681824
 30
0.0
 11
90.4428569741
 21
123.3889681824
 31
0.0
  0
MTEXT
  5
289
330
281
100
AcDbEntity
  8
0
  6
Continuous
 62
     7
370
     0
100
AcDbMText
 10
75.9060514766
 20
127.9007050387
 30
0.0
 40
3.5
 41
0.0
 71
     1
 72
     1
  1
25
  7
SLDTEXTSTYLE0
 73
     1
 44
1.0
  0
ENDBLK
  5
283
330
281
100
AcDbEntity
  8
0
100
AcDbBlockEnd
  0
BLOCK
  5
28C
330
28B
100
AcDbEntity
  8
0
100
AcDbBlockBegin
  2
_D_11
 70
     0
 10
0.0
 20
0.0
 30
0.0
  3
_D_11
  1

  0
SOLID
  5
28E
330
28B
100
AcDbEntity
  8
0
  6
Continuous
 62
     7
370
     0
100
AcDbTrace
 10
105.465791765
 20
167.1401345241
 30
0.0
 11
104.715791765
 21
164.1401345241
 31
0.0
 12
106.215791765
 22
164.1401345241
 32
0.0
 13
106.215791765
 23
164.1401345241
 33
0.0
  0
SOLID
  5
28F
330
28B
100
AcDbEntity
  8
0
  6
Continuous
 62
     7
370
     0
100
AcDbTrace
 10
105.465791765
 20
171.6401345241
 30
0.0
 11
106.215791765
 21
174.6401345241
 31
0.0
 12
104.715791765
 22
174.6401345241
 32
0.0
 13
104.715791765
 23
174.6401345241
 33
0.0
  0
LINE
  5
290
330
28B
100
AcDbEntity
  8
0
  6
Continuous
 62
     7
370
     0
100
AcDbLine
 10
98.4428569741
 20
167.1401345241
 30
0.0
 11
106.465791765
 21
167.1401345241
 31
0.0
  0
LINE
  5
291
330
28B
100
AcDbEntity
  8
0
  6
Continuous
 62
     7
370
     0
100
AcDbLine
 10
66.4428569741
 20
171.6401345241
 30
0.0
 11
106.465791765
 21
171.6401345241
 31
0.0
  0
LINE
  5
292
330
28B
100
AcDbEntity
  8
0
  6
Continuous
 62
     7
370
     0
100
AcDbLine
 10
105.465791765
 20
167.1401345241
 30
0.0
 11
105.465791765
 21
150.8638005844
 31
0.0
  0
LINE
  5
293
330
28B
100
AcDbEntity
  8
0
  6
Continuous
 62
     7
370
     0
100
AcDbLine
 10
105.465791765
 20
167.1401345241
 30
0.0
 11
105.465791765
 21
171.6401345241
 31
0.0
  0
LINE
  5
294
330
28B
100
AcDbEntity
  8
0
  6
Continuous
 62
     7
370
     0
100
AcDbLine
 10
105.465791765
 20
171.6401345241
 30
0.0
 11
105.465791765
 21
176.6401345241
 31
0.0
  0
MTEXT
  5
295
330
28B
100
AcDbEntity
  8
0
  6
Continuous
 62
     7
370
     0
100
AcDbMText
 10
100.9540549086
 20
150.8638005844
 30
0.0
 40
3.5
 41
0.0
 71
     1
 72
     1
  1
4.5
  7
SLDTEXTSTYLE0
 11
6.123233995736766E-17
 21
1.0
 31
0.0
 73
     1
 44
1.0
  0
ENDBLK
  5
28D
330
28B
100
AcDbEntity
  8
0
100
AcDbBlockEnd
  0
BLOCK
  5
298
330
297
100
AcDbEntity
  8
0
100
AcDbBlockBegin
  2
_D_12
 70
     0
 10
0.0
 20
0.0
 30
0.0
  3
_D_12
  1

  0
SOLID
  5
29A
330
297
100
AcDbEntity
  8
0
  6
Continuous
 62
     7
370
     0
100
AcDbTrace
 10
105.465791765
 20
171.6401345241
 30
0.0
 11
106.215791765
 21
174.6401345241
 31
0.0
 12
104.715791765
 22
174.6401345241
 32
0.0
 13
104.715791765
 23
174.6401345241
 33
0.0
  0
SOLID
  5
29B
330
297
100
AcDbEntity
  8
0
  6
Continuous
 62
     7
370
     0
100
AcDbTrace
 10
105.465791765
 20
203.1401345241
 30
0.0
 11
104.715791765
 21
200.1401345241
 31
0.0
 12
106.215791765
 22
200.1401345241
 32
0.0
 13
106.215791765
 23
200.1401345241
 33
0.0
  0
LINE
  5
29C
330
297
100
AcDbEntity
  8
0
  6
Continuous
 62
     7
370
     0
100
AcDbLine
 10
91.4428569741
 20
171.6401345241
 30
0.0
 11
106.465791765
 21
171.6401345241
 31
0.0
  0
LINE
  5
29D
330
297
100
AcDbEntity
  8
0
  6
Continuous
 62
     7
370
     0
100
AcDbLine
 10
78.9428569741
 20
203.1401345241
 30
0.0
 11
106.465791765
 21
203.1401345241
 31
0.0
  0
LINE
  5
29E
330
297
100
AcDbEntity
  8
0
  6
Continuous
 62
     7
370
     0
100
AcDbLine
 10
105.465791765
 20
171.6401345241
 30
0.0
 11
105.465791765
 21
203.1401345241
 31
0.0
  0
MTEXT
  5
29F
330
297
100
AcDbEntity
  8
0
  6
Continuous
 62
     7
370
     0
100
AcDbMText
 10
100.9540549086
 20
183.3165235292
 30
0.0
 40
3.5
 41
0.0
 71
     1
 72
     1
  1
31.5
  7
SLDTEXTSTYLE0
 11
6.123233995736766E-17
 21
1.0
 31
0.0
 73
     1
 44
1.0
  0
ENDBLK
  5
299
330
297
100
AcDbEntity
  8
0
100
AcDbBlockEnd
  0
BLOCK
  5
2A3
330
2A2
100
AcDbEntity
  8
0
100
AcDbBlockBegin
  2
_D_13
 70
     0
 10
0.0
 20
0.0
 30
0.0
  3
_D_13
  1

  0
SOLID
  5
2A5
330
2A2
100
AcDbEntity
  8
0
  6
Continuous
 62
     7
370
     0
100
AcDbTrace
 10
63.6750900211
 20
173.4079014771
 30
0.0
 11
62.0840997634
 21
176.0595519065
 31
0.0
 12
61.0234395916
 22
174.9988917348
 32
0.0
 13
61.0234395916
 23
174.9988917348
 33
0.0
  0
LINE
  5
2A6
330
2A2
100
AcDbEntity
  8
0
  6
Continuous
 62
     7
370
     0
100
AcDbLine
 10
63.6750900211
 20
173.4079014771
 30
0.0
 11
56.8308384567
 21
180.2521530415
 31
0.0
  0
LINE
  5
2A7
330
2A2
100
AcDbEntity
  8
0
  6
Continuous
 62
     7
370
     0
100
AcDbLine
 10
56.8308384567
 20
180.2521530415
 30
0.0
 11
22.6544542223
 21
180.2521530415
 31
0.0
  0
MTEXT
  5
2A8
330
2A2
100
AcDbEntity
  8
0
  6
Continuous
 62
     7
370
     0
100
AcDbMText
 10
28.7648690849
 20
188.8375008928
 30
0.0
 40
3.5
 41
0.0
 71
     1
 72
     1
  1
3-
  7
SLDTEXTSTYLE0
 73
     1
 44
1.0
  0
MTEXT
  5
2A9
330
2A2
100
AcDbEntity
  8
0
  6
Continuous
 62
     7
370
     0
100
AcDbMText
 10
32.8384800799
 20
188.8375008928
 30
0.0
 40
3.5
 41
0.0
 71
     1
 72
     1
  1
M5
  7
SLDTEXTSTYLE0
 73
     1
 44
1.0
  0
MTEXT
  5
2AA
330
2A2
100
AcDbEntity
  8
0
  6
Continuous
 62
     7
370
     0
100
AcDbMText
 10
36.9120910748
 20
188.8375008928
 30
0.0
 40
3.5
 41
0.0
 71
     1
 72
     1
  1
取付穴
  7
SLDTEXTSTYLE0
 73
     1
 44
1.0
  0
MTEXT
  5
2AB
330
2A2
100
AcDbEntity
  8
0
  6
Continuous
 62
     7
370
     0
100
AcDbMText
 10
22.6544542223
 20
184.7638898978
 30
0.0
 40
3.5
 41
0.0
 71
     1
 72
     1
  1
(両側口元面取有)
  7
SLDTEXTSTYLE0
 73
     1
 44
1.0
  0
ENDBLK
  5
2A4
330
2A2
100
AcDbEntity
  8
0
100
AcDbBlockEnd
  0
BLOCK
  5
2AD
330
2AC
100
AcDbEntity
  8
0
100
AcDbBlockBegin
  2
SW_NOTE_0
 70
     0
 10
0.0
 20
0.0
 30
0.0
  3
SW_NOTE_0
  1

  0
LINE
  5
2AF
330
2AC
100
AcDbEntity
  8
0
  6
Continuous
 62
     0
370
     0
100
AcDbLine
 10
-8.2682873652
 20
0.0
 30
0.0
 11
0.0
 21
0.0
 31
0.0
  0
MTEXT
  5
2B0
330
2AC
100
AcDbEntity
  8
0
  6
Continuous
 62
     0
370
     0
100
AcDbMText
 10
-8.7083942048
 20
4.6089507033
 30
0.0
 40
3.5
 41
0.0
 71
     1
 72
     1
  1
BF-5
  7
SLDTEXTSTYLE0
 73
     1
 44
1.0
  0
ENDBLK
  5
2AE
330
2AC
100
AcDbEntity
  8
0
100
AcDbBlockEnd
  0
BLOCK
  5
2B5
330
2B4
100
AcDbEntity
  8
0
100
AcDbBlockBegin
  2
SW_CENTERMARKSYMBOL_0
 70
     0
 10
0.0
 20
0.0
 30
0.0
  3
SW_CENTERMARKSYMBOL_0
  1

  0
LINE
  5
2B7
330
2B4
100
AcDbEntity
  8
0
  6
Continuous
 62
     0
370
     0
100
AcDbLine
 10
0.0
 20
0.0
 30
0.0
 11
0.0
 21
2.5
 31
0.0
  0
LINE
  5
2B8
330
2B4
100
AcDbEntity
  8
0
  6
Continuous
 62
     0
370
     0
100
AcDbLine
 10
0.0
 20
0.0
 30
0.0
 11
-2.5
 21
0.0
 31
0.0
  0
LINE
  5
2B9
330
2B4
100
AcDbEntity
  8
0
  6
Continuous
 62
     0
370
     0
100
AcDbLine
 10
0.0
 20
0.0
 30
0.0
 11
0.0
 21
-2.5
 31
0.0
  0
LINE
  5
2BA
330
2B4
100
AcDbEntity
  8
0
  6
Continuous
 62
     0
370
     0
100
AcDbLine
 10
0.0
 20
0.0
 30
0.0
 11
2.5
 21
0.0
 31
0.0
  0
LINE
  5
2BB
330
2B4
100
AcDbEntity
  8
0
  6
Continuous
 62
     0
370
     0
100
AcDbLine
 10
0.0
 20
2.5
 30
0.0
 11
0.0
 21
52.9545443647
 31
0.0
  0
LINE
  5
2BC
330
2B4
100
AcDbEntity
  8
0
  6
Continuous
 62
     0
370
     0
100
AcDbLine
 10
-2.5
 20
0.0
 30
0.0
 11
-4.6
 21
0.0
 31
0.0
  0
LINE
  5
2BD
330
2B4
100
AcDbEntity
  8
0
  6
Continuous
 62
     0
370
     0
100
AcDbLine
 10
0.0
 20
-2.5
 30
0.0
 11
0.0
 21
-65.3614244444
 31
0.0
  0
LINE
  5
2BE
330
2B4
100
AcDbEntity
  8
0
  6
Continuous
 62
     0
370
     0
100
AcDbLine
 10
2.5
 20
0.0
 30
0.0
 11
4.6
 21
0.0
 31
0.0
  0
ENDBLK
  5
2B6
330
2B4
100
AcDbEntity
  8
0
100
AcDbBlockEnd
  0
BLOCK
  5
2C1
330
2C0
100
AcDbEntity
  8
0
100
AcDbBlockBegin
  2
SW_CENTERMARKSYMBOL_1
 70
     0
 10
0.0
 20
0.0
 30
0.0
  3
SW_CENTERMARKSYMBOL_1
  1

  0
LINE
  5
2C3
330
2C0
100
AcDbEntity
  8
0
  6
Continuous
 62
     0
370
     0
100
AcDbLine
 10
0.0
 20
0.0
 30
0.0
 11
0.0
 21
2.5
 31
0.0
  0
LINE
  5
2C4
330
2C0
100
AcDbEntity
  8
0
  6
Continuous
 62
     0
370
     0
100
AcDbLine
 10
0.0
 20
0.0
 30
0.0
 11
-2.5
 21
0.0
 31
0.0
  0
LINE
  5
2C5
330
2C0
100
AcDbEntity
  8
0
  6
Continuous
 62
     0
370
     0
100
AcDbLine
 10
0.0
 20
0.0
 30
0.0
 11
0.0
 21
-2.5
 31
0.0
  0
LINE
  5
2C6
330
2C0
100
AcDbEntity
  8
0
  6
Continuous
 62
     0
370
     0
100
AcDbLine
 10
0.0
 20
0.0
 30
0.0
 11
2.5
 21
0.0
 31
0.0
  0
LINE
  5
2C7
330
2C0
100
AcDbEntity
  8
0
  6
Continuous
 62
     0
370
     0
100
AcDbLine
 10
0.0
 20
2.5
 30
0.0
 11
0.0
 21
4.6
 31
0.0
  0
LINE
  5
2C8
330
2C0
100
AcDbEntity
  8
0
  6
Continuous
 62
     0
370
     0
100
AcDbLine
 10
-2.5
 20
0.0
 30
0.0
 11
-4.6
 21
0.0
 31
0.0
  0
LINE
  5
2C9
330
2C0
100
AcDbEntity
  8
0
  6
Continuous
 62
     0
370
     0
100
AcDbLine
 10
0.0
 20
-2.5
 30
0.0
 11
0.0
 21
-4.6
 31
0.0
  0
LINE
  5
2CA
330
2C0
100
AcDbEntity
  8
0
  6
Continuous
 62
     0
370
     0
100
AcDbLine
 10
2.5
 20
0.0
 30
0.0
 11
4.6
 21
0.0
 31
0.0
  0
ENDBLK
  5
2C2
330
2C0
100
AcDbEntity
  8
0
100
AcDbBlockEnd
  0
BLOCK
  5
2CD
330
2CC
100
AcDbEntity
  8
0
100
AcDbBlockBegin
  2
SW_CENTERMARKSYMBOL_2
 70
     0
 10
0.0
 20
0.0
 30
0.0
  3
SW_CENTERMARKSYMBOL_2
  1

  0
LINE
  5
2CF
330
2CC
100
AcDbEntity
  8
0
  6
Continuous
 62
     0
370
     0
100
AcDbLine
 10
0.0
 20
0.0
 30
0.0
 11
0.0
 21
2.5
 31
0.0
  0
LINE
  5
2D0
330
2CC
100
AcDbEntity
  8
0
  6
Continuous
 62
     0
370
     0
100
AcDbLine
 10
0.0
 20
0.0
 30
0.0
 11
-2.5
 21
0.0
 31
0.0
  0
LINE
  5
2D1
330
2CC
100
AcDbEntity
  8
0
  6
Continuous
 62
     0
370
     0
100
AcDbLine
 10
0.0
 20
0.0
 30
0.0
 11
0.0
 21
-2.5
 31
0.0
  0
LINE
  5
2D2
330
2CC
100
AcDbEntity
  8
0
  6
Continuous
 62
     0
370
     0
100
AcDbLine
 10
0.0
 20
0.0
 30
0.0
 11
2.5
 21
0.0
 31
0.0
  0
LINE
  5
2D3
330
2CC
100
AcDbEntity
  8
0
  6
Continuous
 62
     0
370
     0
100
AcDbLine
 10
0.0
 20
2.5
 30
0.0
 11
0.0
 21
4.6
 31
0.0
  0
LINE
  5
2D4
330
2CC
100
AcDbEntity
  8
0
  6
Continuous
 62
     0
370
     0
100
AcDbLine
 10
-2.5
 20
0.0
 30
0.0
 11
-4.6
 21
0.0
 31
0.0
  0
LINE
  5
2D5
330
2CC
100
AcDbEntity
  8
0
  6
Continuous
 62
     0
370
     0
100
AcDbLine
 10
0.0
 20
-2.5
 30
0.0
 11
0.0
 21
-4.6
 31
0.0
  0
LINE
  5
2D6
330
2CC
100
AcDbEntity
  8
0
  6
Continuous
 62
     0
370
     0
100
AcDbLine
 10
2.5
 20
0.0
 30
0.0
 11
4.6
 21
0.0
 31
0.0
  0
ENDBLK
  5
2CE
330
2CC
100
AcDbEntity
  8
0
100
AcDbBlockEnd
  0
BLOCK
  5
3A9
330
3A8
100
AcDbEntity
  8
0
100
AcDbBlockBegin
  2
_D_14
 70
     0
 10
0.0
 20
0.0
 30
0.0
  3
_D_14
  1

  0
ARC
  5
3AB
330
3A8
100
AcDbEntity
  8
0
  6
Continuous
 62
     7
370
     0
100
AcDbCircle
 10
74.4376607677
 20
45.0576322529
 30
0.0
 40
4.554435549315972
100
AcDbArc
 50
153.4349488229
 51
206.5650511771
  0
ARC
  5
3AC
330
3A8
100
AcDbEntity
  8
0
  6
Continuous
 62
     7
370
     0
100
AcDbCircle
 10
70.3640497728
 20
45.0576322529
 30
0.0
 40
4.55443554931596
100
AcDbArc
 50
333.4349488229
 51
26.5650511771
  0
SOLID
  5
3AD
330
3A8
100
AcDbEntity
  8
0
  6
Continuous
 62
     7
370
     0
100
AcDbTrace
 10
45.6452012096
 20
43.0208267554
 30
0.0
 11
48.6452012096
 21
42.2708267554
 31
0.0
 12
48.6452012096
 22
43.7708267554
 32
0.0
 13
48.6452012096
 23
43.7708267554
 33
0.0
  0
SOLID
  5
3AE
330
3A8
100
AcDbEntity
  8
0
  6
Continuous
 62
     7
370
     0
100
AcDbTrace
 10
99.1565094474
 20
43.0208267554
 30
0.0
 11
96.1565094474
 21
43.7708267554
 31
0.0
 12
96.1565094474
 22
42.2708267554
 32
0.0
 13
96.1565094474
 23
42.2708267554
 33
0.0
  0
LINE
  5
3AF
330
3A8
100
AcDbEntity
  8
0
  6
Continuous
 62
     7
370
     0
100
AcDbLine
 10
45.6452012096
 20
82.5208267554
 30
0.0
 11
45.6452012096
 21
42.0208267554
 31
0.0
  0
LINE
  5
3B0
330
3A8
100
AcDbEntity
  8
0
  6
Continuous
 62
     7
370
     0
100
AcDbLine
 10
99.1565094474
 20
68.0208267554
 30
0.0
 11
99.1565094474
 21
42.0208267554
 31
0.0
  0
LINE
  5
3B1
330
3A8
100
AcDbEntity
  8
0
  6
Continuous
 62
     7
370
     0
100
AcDbLine
 10
45.6452012096
 20
43.0208267554
 30
0.0
 11
99.1565094474
 21
43.0208267554
 31
0.0
  0
MTEXT
  5
3B2
330
3A8
100
AcDbEntity
  8
0
  6
Continuous
 62
     7
370
     0
100
AcDbMText
 10
70.3640497728
 20
47.5325636118
 30
0.0
 40
3.5
 41
0.0
 71
     1
 72
     1
  1
54
  7
SLDTEXTSTYLE0
 73
     1
 44
1.0
  0
ENDBLK
  5
3AA
330
3A8
100
AcDbEntity
  8
0
100
AcDbBlockEnd
  0
BLOCK
  5
3B5
330
3B4
100
AcDbEntity
  8
0
100
AcDbBlockBegin
  2
_D_15
 70
     0
 10
0.0
 20
0.0
 30
0.0
  3
_D_15
  1

  0
ARC
  5
3B7
330
3B4
100
AcDbEntity
  8
0
  6
Continuous
 62
     7
370
     0
100
AcDbCircle
 10
88.5496831525
 20
57.0576322529
 30
0.0
 40
4.55443554931596
100
AcDbArc
 50
153.4349488229
 51
206.5650511771
  0
ARC
  5
3B8
330
3B4
100
AcDbEntity
  8
0
  6
Continuous
 62
     7
370
     0
100
AcDbCircle
 10
88.5496831525
 20
57.0576322529
 30
0.0
 40
4.554435549315972
100
AcDbArc
 50
333.4349488229
 51
26.5650511771
  0
SOLID
  5
3B9
330
3B4
100
AcDbEntity
  8
0
  6
Continuous
 62
     7
370
     0
100
AcDbTrace
 10
77.9428569741
 20
55.0208267554
 30
0.0
 11
80.9428569741
 21
54.2708267554
 31
0.0
 12
80.9428569741
 22
55.7708267554
 32
0.0
 13
80.9428569741
 23
55.7708267554
 33
0.0
  0
SOLID
  5
3BA
330
3B4
100
AcDbEntity
  8
0
  6
Continuous
 62
     7
370
     0
100
AcDbTrace
 10
99.1565094474
 20
55.0208267554
 30
0.0
 11
96.1565094474
 21
55.7708267554
 31
0.0
 12
96.1565094474
 22
54.2708267554
 32
0.0
 13
96.1565094474
 23
54.2708267554
 33
0.0
  0
LINE
  5
3BB
330
3B4
100
AcDbEntity
  8
0
  6
Continuous
 62
     7
370
     0
100
AcDbLine
 10
77.9428569741
 20
72.0208267554
 30
0.0
 11
77.9428569741
 21
54.0208267554
 31
0.0
  0
LINE
  5
3BC
330
3B4
100
AcDbEntity
  8
0
  6
Continuous
 62
     7
370
     0
100
AcDbLine
 10
99.1565094474
 20
68.0208267554
 30
0.0
 11
99.1565094474
 21
54.0208267554
 31
0.0
  0
LINE
  5
3BD
330
3B4
100
AcDbEntity
  8
0
  6
Continuous
 62
     7
370
     0
100
AcDbLine
 10
77.9428569741
 20
55.0208267554
 30
0.0
 11
99.1565094474
 21
55.0208267554
 31
0.0
  0
MTEXT
  5
3BE
330
3B4
100
AcDbEntity
  8
0
  6
Continuous
 62
     7
370
     0
100
AcDbMText
 10
84.4760721575
 20
59.5325636118
 30
0.0
 40
3.5
 41
0.0
 71
     1
 72
     1
  1
21.5
  7
SLDTEXTSTYLE0
 73
     1
 44
1.0
  0
ENDBLK
  5
3B6
330
3B4
100
AcDbEntity
  8
0
100
AcDbBlockEnd
  0
BLOCK
  5
3C0
330
3BF
100
AcDbEntity
  8
0
100
AcDbBlockBegin
  2
SW_CENTERMARKSYMBOL_3
 70
     0
 10
0.0
 20
0.0
 30
0.0
  3
SW_CENTERMARKSYMBOL_3
  1

  0
LINE
  5
3C2
330
3BF
100
AcDbEntity
  8
0
  6
Continuous
 62
     0
370
     0
100
AcDbLine
 10
0.0
 20
0.0
 30
0.0
 11
0.0
 21
2.5
 31
0.0
  0
LINE
  5
3C3
330
3BF
100
AcDbEntity
  8
0
  6
Continuous
 62
     0
370
     0
100
AcDbLine
 10
0.0
 20
0.0
 30
0.0
 11
-2.5
 21
0.0
 31
0.0
  0
LINE
  5
3C4
330
3BF
100
AcDbEntity
  8
0
  6
Continuous
 62
     0
370
     0
100
AcDbLine
 10
0.0
 20
0.0
 30
0.0
 11
0.0
 21
-2.5
 31
0.0
  0
LINE
  5
3C5
330
3BF
100
AcDbEntity
  8
0
  6
Continuous
 62
     0
370
     0
100
AcDbLine
 10
0.0
 20
0.0
 30
0.0
 11
2.5
 21
0.0
 31
0.0
  0
LINE
  5
3C6
330
3BF
100
AcDbEntity
  8
0
  6
Continuous
 62
     0
370
     0
100
AcDbLine
 10
0.0
 20
5.0
 30
0.0
 11
0.0
 21
7.5
 31
0.0
  0
LINE
  5
3C7
330
3BF
100
AcDbEntity
  8
0
  6
Continuous
 62
     0
370
     0
100
AcDbLine
 10
-5.0
 20
0.0
 30
0.0
 11
-7.5
 21
0.0
 31
0.0
  0
LINE
  5
3C8
330
3BF
100
AcDbEntity
  8
0
  6
Continuous
 62
     0
370
     0
100
AcDbLine
 10
0.0
 20
-5.0
 30
0.0
 11
0.0
 21
-7.5
 31
0.0
  0
LINE
  5
3C9
330
3BF
100
AcDbEntity
  8
0
  6
Continuous
 62
     0
370
     0
100
AcDbLine
 10
5.0
 20
0.0
 30
0.0
 11
7.5
 21
0.0
 31
0.0
  0
ENDBLK
  5
3C1
330
3BF
100
AcDbEntity
  8
0
100
AcDbBlockEnd
  0
ENDSEC
  0
SECTION
  2
ENTITIES
  0
LINE
  5
73
330
1F
100
AcDbEntity
  8
0
  6
Continuous
 62
     7
370
     0
100
AcDbLine
 10
20.2604743903
 20
285.0
 30
0.0
 11
196.7604743903
 21
285.0
 31
0.0
  0
LINE
  5
74
330
1F
100
AcDbEntity
  8
0
  6
Continuous
 62
     7
370
     0
100
AcDbLine
 10
20.2604743903
 20
285.0
 30
0.0
 11
20.2604743903
 21
10.0
 31
0.0
  0
LINE
  5
75
330
1F
100
AcDbEntity
  8
0
  6
Continuous
 62
     7
370
     0
100
AcDbLine
 10
20.2604743903
 20
10.0
 30
0.0
 11
196.7604743903
 21
10.0
 31
0.0
  0
LINE
  5
76
330
1F
100
AcDbEntity
  8
0
  6
Continuous
 62
     7
370
     0
100
AcDbLine
 10
196.7604743903
 20
285.0
 30
0.0
 11
196.7604743903
 21
10.0
 31
0.0
  0
LINE
  5
77
330
1F
100
AcDbEntity
  8
0
  6
Continuous
 62
     7
370
     0
100
AcDbLine
 10
127.0104743903
 20
50.75
 30
0.0
 11
196.7604743903
 21
50.75
 31
0.0
  0
LINE
  5
78
330
1F
100
AcDbEntity
  8
0
  6
Continuous
 62
     7
370
     0
100
AcDbLine
 10
127.0104743903
 20
50.75
 30
0.0
 11
127.0104743903
 21
10.0
 31
0.0
  0
LINE
  5
79
330
1F
100
AcDbEntity
  8
0
  6
Continuous
 62
     7
370
     0
100
AcDbLine
 10
127.0104743903
 20
22.75
 30
0.0
 11
196.7604743903
 21
22.75
 31
0.0
  0
LINE
  5
7A
330
1F
100
AcDbEntity
  8
0
  6
Continuous
 62
     7
370
     0
100
AcDbLine
 10
127.0104743903
 20
36.75
 30
0.0
 11
196.7604743903
 21
36.75
 31
0.0
  0
MTEXT
  5
7C
330
1F
100
AcDbEntity
  8
0
  6
Continuous
 62
     7
370
     0
100
AcDbMText
 10
161.1475762714
 20
30.4171582345
 30
0.0
 40
4.2333333333
 41
0.0
 71
     2
 72
     1
  1
CHK-EL2L-12-C1
  7
SLDTEXTSTYLE0
 73
     1
 44
1.0
  0
MTEXT
  5
7D
330
1F
100
AcDbEntity
  8
0
  6
Continuous
 62
     7
370
     0
100
AcDbMText
 10
160.2925590127
 20
45.7202082063
 30
0.0
 40
3.175
 41
0.0
 71
     2
 72
     1
  1
ランナーチャックEL(リミットSW付)
  7
SLDTEXTSTYLE0
 73
     1
 44
1.0
  0
MTEXT
  5
7E
330
1F
100
AcDbEntity
  8
0
  6
Continuous
 62
     7
370
     0
100
AcDbMText
 10
162.6525200703
 20
16.8228189052
 30
0.0
 40
4.2333333333
 41
0.0
 71
     2
 72
     1
  1
023161
  7
SLDTEXTSTYLE0
 73
     1
 44
1.0
  0
LINE
  5
7F
330
1F
100
AcDbEntity
  8
0
  6
Continuous
 62
     7
370
     0
100
AcDbLine
 10
166.1399494452
 20
167.1401350419
 30
0.0
 11
166.1399494452
 21
152.1401344459
 31
0.0
  0
LINE
  5
80
330
1F
100
AcDbEntity
  8
0
  6
Continuous
 62
     7
370
     0
100
AcDbLine
 10
178.1399495495
 20
152.1401344459
 30
0.0
 11
178.1399495495
 21
167.1401350419
 31
0.0
  0
LINE
  5
81
330
1F
100
AcDbEntity
  8
0
  6
Continuous
 62
     7
370
     0
100
AcDbLine
 10
166.1399494452
 20
152.1401344459
 30
0.0
 11
167.1399496092
 21
151.1401361446
 31
0.0
  0
LINE
  5
82
330
1F
100
AcDbEntity
  8
0
  6
Continuous
 62
     7
370
     0
100
AcDbLine
 10
177.1399493856
 20
151.1401361446
 30
0.0
 11
178.1399495495
 21
152.1401344459
 31
0.0
  0
LINE
  5
83
330
1F
100
AcDbEntity
  8
0
  6
Continuous
 62
     7
370
     0
100
AcDbLine
 10
176.1399496874
 20
148.1401337903
 30
0.0
 11
176.4399496434
 21
148.4401351433
 31
0.0
  0
LINE
  5
84
330
1F
100
AcDbEntity
  8
0
  6
Continuous
 62
     7
370
     0
100
AcDbLine
 10
170.3399495283
 20
143.1401348333
 30
0.0
 11
170.6399494844
 21
141.1401345055
 31
0.0
  0
LINE
  5
85
330
1F
100
AcDbEntity
  8
0
  6
Continuous
 62
     7
370
     0
100
AcDbLine
 10
173.6399495104
 20
141.1401345055
 30
0.0
 11
173.9399494665
 21
143.1401348333
 31
0.0
  0
LINE
  5
86
330
1F
100
AcDbEntity
  8
0
  6
Continuous
 62
     7
370
     0
100
AcDbLine
 10
173.9399494665
 20
145.6401361744
 30
0.0
 11
173.9399494665
 21
146.1401334624
 31
0.0
  0
LINE
  5
87
330
1F
100
AcDbEntity
  8
0
  6
Continuous
 62
     7
370
     0
100
AcDbLine
 10
170.3399495283
 20
146.1401334624
 30
0.0
 11
170.3399495283
 21
145.6401361744
 31
0.0
  0
LINE
  5
88
330
1F
100
AcDbEntity
  8
0
  6
Continuous
 62
     7
370
     0
100
AcDbLine
 10
170.3399495283
 20
145.6401361744
 30
0.0
 11
170.5399495378
 21
143.6401358466
 31
0.0
  0
LINE
  5
89
330
1F
100
AcDbEntity
  8
0
  6
Continuous
 62
     7
370
     0
100
AcDbLine
 10
173.739949457
 20
143.6401358466
 30
0.0
 11
173.9399494665
 21
145.6401361744
 31
0.0
  0
LINE
  5
8A
330
1F
100
AcDbEntity
  8
0
  6
Continuous
 62
     7
370
     0
100
AcDbLine
 10
173.9399494665
 20
143.1401348333
 30
0.0
 11
173.9399494665
 21
143.6401358466
 31
0.0
  0
LINE
  5
8B
330
1F
100
AcDbEntity
  8
0
  6
Continuous
 62
     7
370
     0
100
AcDbLine
 10
170.3399495283
 20
143.6401358466
 30
0.0
 11
170.3399495283
 21
143.1401348333
 31
0.0
  0
LINE
  5
8C
330
1F
100
AcDbEntity
  8
0
  6
Continuous
 62
     7
370
     0
100
AcDbLine
 10
167.8399493514
 20
148.4401351433
 30
0.0
 11
168.1399493074
 21
148.1401337903
 31
0.0
  0
LINE
  5
8D
330
1F
100
AcDbEntity
  8
0
  6
Continuous
 62
     7
370
     0
100
AcDbLine
 10
173.739949457
 20
146.1401334624
 30
0.0
 11
173.739949457
 21
148.1401337903
 31
0.0
  0
LINE
  5
8E
330
1F
100
AcDbEntity
  8
0
  6
Continuous
 62
     7
370
     0
100
AcDbLine
 10
170.5399495378
 20
148.1401337903
 30
0.0
 11
170.5399495378
 21
146.1401334624
 31
0.0
  0
LINE
  5
8F
330
1F
100
AcDbEntity
  8
0
  6
Continuous
 62
     7
370
     0
100
AcDbLine
 10
176.4399496434
 20
148.4401351433
 30
0.0
 11
176.4399496434
 21
151.1401361446
 31
0.0
  0
LINE
  5
90
330
1F
100
AcDbEntity
  8
0
  6
Continuous
 62
     7
370
     0
100
AcDbLine
 10
167.8399493514
 20
151.1401361446
 30
0.0
 11
167.8399493514
 21
148.4401351433
 31
0.0
  0
LINE
  5
91
330
1F
100
AcDbEntity
  8
0
  6
Continuous
 62
     7
370
     0
100
AcDbLine
 10
156.1399487374
 20
224.4170694272
 30
0.0
 11
156.2399485676
 21
224.4170694272
 31
0.0
  0
LINE
  5
92
330
1F
100
AcDbEntity
  8
0
  6
Continuous
 62
     7
370
     0
100
AcDbLine
 10
160.039949563
 20
224.4170694272
 30
0.0
 11
160.1399493931
 21
224.4170694272
 31
0.0
  0
ARC
  5
93
330
1F
100
AcDbEntity
  8
0
  6
Continuous
 62
     7
370
     0
100
AcDbCircle
 10
156.5399494974
 20
237.7914987126
 30
0.0
 40
4.000000000000033
100
AcDbArc
 50
148.2116693829
 51
163.2202333678
  0
ARC
  5
94
330
1F
100
AcDbEntity
  8
0
  6
Continuous
 62
     7
370
     0
100
AcDbCircle
 10
156.5399494974
 20
237.7914987126
 30
0.0
 40
4.000000000000039
100
AcDbArc
 50
196.7797666322
 51
211.7883306171
  0
LINE
  5
95
330
1F
100
AcDbEntity
  8
0
  6
Continuous
 62
     7
370
     0
100
AcDbLine
 10
179.1399497135
 20
214.1401352953
 30
0.0
 11
180.1399498774
 21
215.1401335965
 31
0.0
  0
LINE
  5
96
330
1F
100
AcDbEntity
  8
0
  6
Continuous
 62
     7
370
     0
100
AcDbLine
 10
179.1399497135
 20
214.1401352953
 30
0.0
 11
176.3899497284
 21
214.1401352953
 31
0.0
  0
ARC
  5
97
330
1F
100
AcDbEntity
  8
0
  6
Continuous
 62
     7
370
     0
100
AcDbCircle
 10
172.1399494974
 20
214.1401345241
 30
0.0
 40
4.250000000000004
100
AcDbArc
 50
0.0
 51
19.7499227956
  0
LINE
  5
98
330
1F
100
AcDbEntity
  8
0
  6
Continuous
 62
     7
370
     0
100
AcDbLine
 10
176.1399496874
 20
219.1401361148
 30
0.0
 11
178.5399493357
 21
219.1401361148
 31
0.0
  0
LINE
  5
99
330
1F
100
AcDbEntity
  8
0
  6
Continuous
 62
     7
370
     0
100
AcDbLine
 10
180.1399498774
 20
217.5401351075
 30
0.0
 11
178.5399493357
 21
219.1401361148
 31
0.0
  0
LINE
  5
9A
330
1F
100
AcDbEntity
  8
0
  6
Continuous
 62
     7
370
     0
100
AcDbLine
 10
180.1399498774
 20
217.5401351075
 30
0.0
 11
180.1399498774
 21
215.1401335965
 31
0.0
  0
ARC
  5
9B
330
1F
100
AcDbEntity
  8
0
  6
Continuous
 62
     7
370
     0
100
AcDbCircle
 10
172.1399494974
 20
214.1401345241
 30
0.0
 40
4.250000000000019
100
AcDbArc
 50
160.2500772044
 51
180.0
  0
LINE
  5
9C
330
1F
100
AcDbEntity
  8
0
  6
Continuous
 62
     7
370
     0
100
AcDbLine
 10
167.8899492664
 20
214.1401352953
 30
0.0
 11
165.1399492813
 21
214.1401352953
 31
0.0
  0
LINE
  5
9D
330
1F
100
AcDbEntity
  8
0
  6
Continuous
 62
     7
370
     0
100
AcDbLine
 10
164.1399491174
 20
215.1401335965
 30
0.0
 11
165.1399492813
 21
214.1401352953
 31
0.0
  0
LINE
  5
9E
330
1F
100
AcDbEntity
  8
0
  6
Continuous
 62
     7
370
     0
100
AcDbLine
 10
164.1399491174
 20
215.1401335965
 30
0.0
 11
164.1399491174
 21
217.5401351075
 31
0.0
  0
LINE
  5
9F
330
1F
100
AcDbEntity
  8
0
  6
Continuous
 62
     7
370
     0
100
AcDbLine
 10
165.7399496591
 20
219.1401361148
 30
0.0
 11
164.1399491174
 21
217.5401351075
 31
0.0
  0
LINE
  5
A0
330
1F
100
AcDbEntity
  8
0
  6
Continuous
 62
     7
370
     0
100
AcDbLine
 10
165.7399496591
 20
219.1401361148
 30
0.0
 11
168.1399493074
 21
219.1401361148
 31
0.0
  0
LINE
  5
A1
330
1F
100
AcDbEntity
  8
0
  6
Continuous
 62
     7
370
     0
100
AcDbLine
 10
165.1399492813
 20
214.1401352953
 30
0.0
 11
165.1399492813
 21
167.1401350419
 31
0.0
  0
LINE
  5
A2
330
1F
100
AcDbEntity
  8
0
  6
Continuous
 62
     7
370
     0
100
AcDbLine
 10
165.1399492813
 20
167.1401350419
 30
0.0
 11
164.1399491174
 21
167.1401350419
 31
0.0
  0
LINE
  5
A3
330
1F
100
AcDbEntity
  8
0
  6
Continuous
 62
     7
370
     0
100
AcDbLine
 10
164.1399491174
 20
167.1401350419
 30
0.0
 11
164.1399491174
 21
215.1401335965
 31
0.0
  0
LINE
  5
A4
330
1F
100
AcDbEntity
  8
0
  6
Continuous
 62
     7
370
     0
100
AcDbLine
 10
180.1399498774
 20
215.1401335965
 30
0.0
 11
180.1399498774
 21
167.1401350419
 31
0.0
  0
LINE
  5
A5
330
1F
100
AcDbEntity
  8
0
  6
Continuous
 62
     7
370
     0
100
AcDbLine
 10
180.1399498774
 20
167.1401350419
 30
0.0
 11
179.1399497135
 21
167.1401350419
 31
0.0
  0
LINE
  5
A6
330
1F
100
AcDbEntity
  8
0
  6
Continuous
 62
     7
370
     0
100
AcDbLine
 10
179.1399497135
 20
167.1401350419
 30
0.0
 11
179.1399497135
 21
214.1401352953
 31
0.0
  0
ARC
  5
A7
330
1F
100
AcDbEntity
  8
0
  6
Continuous
 62
     7
370
     0
100
AcDbCircle
 10
172.1399494974
 20
214.1401345241
 30
0.0
 40
4.250000000000011
100
AcDbArc
 50
180.0
 51
199.7499227956
  0
LINE
  5
A8
330
1F
100
AcDbEntity
  8
0
  6
Continuous
 62
     7
370
     0
100
AcDbLine
 10
166.1399494452
 20
191.6401344012
 30
0.0
 11
166.1399494452
 21
182.1401344738
 31
0.0
  0
ARC
  5
A9
330
1F
100
AcDbEntity
  8
0
  6
Continuous
 62
     7
370
     0
100
AcDbCircle
 10
172.1399494974
 20
182.1401345241
 30
0.0
 40
6.000000000000028
100
AcDbArc
 50
180.0
 51
0.0
  0
LINE
  5
AA
330
1F
100
AcDbEntity
  8
0
  6
Continuous
 62
     7
370
     0
100
AcDbLine
 10
178.1399495495
 20
182.1401344738
 30
0.0
 11
178.1399495495
 21
191.6401344012
 31
0.0
  0
ARC
  5
AB
330
1F
100
AcDbEntity
  8
0
  6
Continuous
 62
     7
370
     0
100
AcDbCircle
 10
172.1399494974
 20
214.1401345241
 30
0.0
 40
4.25
100
AcDbArc
 50
340.2500772044
 51
0.0
  0
LINE
  5
AC
330
1F
100
AcDbEntity
  8
0
  6
Continuous
 62
     7
370
     0
100
AcDbLine
 10
179.1399497135
 20
167.1401350419
 30
0.0
 11
165.1399492813
 21
167.1401350419
 31
0.0
  0
ARC
  5
AD
330
1F
100
AcDbEntity
  8
0
  6
Continuous
 62
     7
370
     0
100
AcDbCircle
 10
172.1399494974
 20
191.6401345241
 30
0.0
 40
6.0
100
AcDbArc
 50
131.8103148958
 51
180.0
  0
ARC
  5
AE
330
1F
100
AcDbEntity
  8
0
  6
Continuous
 62
     7
370
     0
100
AcDbCircle
 10
172.1399494974
 20
191.6401345241
 30
0.0
 40
6.000000000000028
100
AcDbArc
 50
0.0
 51
48.1896851042
  0
LINE
  5
AF
330
1F
100
AcDbEntity
  8
0
  6
Continuous
 62
     7
370
     0
100
AcDbLine
 10
166.1399494452
 20
152.1401344459
 30
0.0
 11
178.1399495495
 21
152.1401344459
 31
0.0
  0
LINE
  5
B0
330
1F
100
AcDbEntity
  8
0
  6
Continuous
 62
     7
370
     0
100
AcDbLine
 10
177.1399493856
 20
151.1401361446
 30
0.0
 11
167.1399496092
 21
151.1401361446
 31
0.0
  0
LINE
  5
B1
330
1F
100
AcDbEntity
  8
0
  6
Continuous
 62
     7
370
     0
100
AcDbLine
 10
167.1399496092
 20
220.5401337366
 30
0.0
 11
168.1399493074
 21
220.5401337366
 31
0.0
  0
LINE
  5
B2
330
1F
100
AcDbEntity
  8
0
  6
Continuous
 62
     7
370
     0
100
AcDbLine
 10
176.1399496874
 20
220.5401337366
 30
0.0
 11
177.1399493856
 21
220.5401337366
 31
0.0
  0
LINE
  5
B3
330
1F
100
AcDbEntity
  8
0
  6
Continuous
 62
     7
370
     0
100
AcDbLine
 10
167.1399496092
 20
220.5401337366
 30
0.0
 11
165.7399496591
 21
219.1401361148
 31
0.0
  0
LINE
  5
B4
330
1F
100
AcDbEntity
  8
0
  6
Continuous
 62
     7
370
     0
100
AcDbLine
 10
178.5399493357
 20
219.1401361148
 30
0.0
 11
177.1399493856
 21
220.5401337366
 31
0.0
  0
LINE
  5
B5
330
1F
100
AcDbEntity
  8
0
  6
Continuous
 62
     7
370
     0
100
AcDbLine
 10
160.039949563
 20
222.9835628192
 30
0.0
 11
156.2399485676
 21
222.9835628192
 31
0.0
  0
LINE
  5
B6
330
1F
100
AcDbEntity
  8
0
  6
Continuous
 62
     7
370
     0
100
AcDbLine
 10
156.2399485676
 20
226.7725295048
 30
0.0
 11
156.2399485676
 21
222.9835628192
 31
0.0
  0
LINE
  5
B7
330
1F
100
AcDbEntity
  8
0
  6
Continuous
 62
     7
370
     0
100
AcDbLine
 10
160.039949563
 20
226.7725295048
 30
0.0
 11
160.039949563
 21
222.9835628192
 31
0.0
  0
LINE
  5
B8
330
1F
100
AcDbEntity
  8
0
  6
Continuous
 62
     7
370
     0
100
AcDbLine
 10
156.2399485676
 20
222.8858968835
 30
0.0
 11
160.039949563
 21
222.8858968835
 31
0.0
  0
LINE
  5
B9
330
1F
100
AcDbEntity
  8
0
  6
Continuous
 62
     7
370
     0
100
AcDbLine
 10
156.2399485676
 20
222.9835628192
 30
0.0
 11
156.2399485676
 21
222.8858968835
 31
0.0
  0
LINE
  5
BA
330
1F
100
AcDbEntity
  8
0
  6
Continuous
 62
     7
370
     0
100
AcDbLine
 10
160.039949563
 20
222.9835628192
 30
0.0
 11
160.039949563
 21
222.8858968835
 31
0.0
  0
LINE
  5
BB
330
1F
100
AcDbEntity
  8
0
  6
Continuous
 62
     7
370
     0
100
AcDbLine
 10
160.1399493931
 20
256.9406455975
 30
0.0
 11
160.1399493931
 21
257.0225423794
 31
0.0
  0
LINE
  5
BC
330
1F
100
AcDbEntity
  8
0
  6
Continuous
 62
     7
370
     0
100
AcDbLine
 10
176.1399496874
 20
257.0225423794
 30
0.0
 11
160.1399493931
 21
257.0225423794
 31
0.0
  0
LINE
  5
BD
330
1F
100
AcDbEntity
  8
0
  6
Continuous
 62
     7
370
     0
100
AcDbLine
 10
176.1399496874
 20
257.0225423794
 30
0.0
 11
176.1399496874
 21
256.9406455975
 31
0.0
  0
LINE
  5
BE
330
1F
100
AcDbEntity
  8
0
  6
Continuous
 62
     7
370
     0
100
AcDbLine
 10
160.1399493931
 20
223.0871258895
 30
0.0
 11
168.1399493074
 21
223.0871258895
 31
0.0
  0
LINE
  5
BF
330
1F
100
AcDbEntity
  8
0
  6
Continuous
 62
     7
370
     0
100
AcDbLine
 10
160.1399493931
 20
223.0871258895
 30
0.0
 11
160.1399493931
 21
226.7725295048
 31
0.0
  0
LINE
  5
C0
330
1F
100
AcDbEntity
  8
0
  6
Continuous
 62
     7
370
     0
100
AcDbLine
 10
156.1399487374
 20
257.0225423794
 30
0.0
 11
153.1399501083
 21
257.0225423794
 31
0.0
  0
LINE
  5
C1
330
1F
100
AcDbEntity
  8
0
  6
Continuous
 62
     7
370
     0
100
AcDbLine
 10
156.1399487374
 20
256.9406455975
 30
0.0
 11
156.1399487374
 21
257.0225423794
 31
0.0
  0
LINE
  5
C2
330
1F
100
AcDbEntity
  8
0
  6
Continuous
 62
     7
370
     0
100
AcDbLine
 10
156.1399487374
 20
223.0871258895
 30
0.0
 11
156.1399487374
 21
226.7725295048
 31
0.0
  0
LINE
  5
C3
330
1F
100
AcDbEntity
  8
0
  6
Continuous
 62
     7
370
     0
100
AcDbLine
 10
153.1399501083
 20
223.0871258895
 30
0.0
 11
156.1399487374
 21
223.0871258895
 31
0.0
  0
LINE
  5
C4
330
1F
100
AcDbEntity
  8
0
  6
Continuous
 62
     7
370
     0
100
AcDbLine
 10
153.1399501083
 20
223.0871258895
 30
0.0
 11
153.1399501083
 21
226.7725295048
 31
0.0
  0
LINE
  5
C5
330
1F
100
AcDbEntity
  8
0
  6
Continuous
 62
     7
370
     0
100
AcDbLine
 10
153.1399501083
 20
256.9406455975
 30
0.0
 11
153.1399501083
 21
257.0225423794
 31
0.0
  0
LINE
  5
C6
330
1F
100
AcDbEntity
  8
0
  6
Continuous
 62
     7
370
     0
100
AcDbLine
 10
156.1399487374
 20
222.3969525318
 30
0.0
 11
153.1399501083
 21
222.3969525318
 31
0.0
  0
LINE
  5
C7
330
1F
100
AcDbEntity
  8
0
  6
Continuous
 62
     7
370
     0
100
AcDbLine
 10
153.1399501083
 20
222.3969525318
 30
0.0
 11
153.1399501083
 21
223.0871258895
 31
0.0
  0
LINE
  5
C8
330
1F
100
AcDbEntity
  8
0
  6
Continuous
 62
     7
370
     0
100
AcDbLine
 10
156.1399487374
 20
223.0871258895
 30
0.0
 11
156.1399487374
 21
222.3969525318
 31
0.0
  0
LINE
  5
C9
330
1F
100
AcDbEntity
  8
0
  6
Continuous
 62
     7
370
     0
100
AcDbLine
 10
168.1399493074
 20
222.3969525318
 30
0.0
 11
160.1399493931
 21
222.3969525318
 31
0.0
  0
LINE
  5
CA
330
1F
100
AcDbEntity
  8
0
  6
Continuous
 62
     7
370
     0
100
AcDbLine
 10
160.1399493931
 20
222.3969525318
 30
0.0
 11
160.1399493931
 21
223.0871258895
 31
0.0
  0
LINE
  5
CB
330
1F
100
AcDbEntity
  8
0
  6
Continuous
 62
     7
370
     0
100
AcDbLine
 10
160.1399493931
 20
221.3486744683
 30
0.0
 11
156.1399487374
 21
221.3486744683
 31
0.0
  0
LINE
  5
CC
330
1F
100
AcDbEntity
  8
0
  6
Continuous
 62
     7
370
     0
100
AcDbLine
 10
153.1399501083
 20
220.5649963241
 30
0.0
 11
168.1399493074
 21
220.5649963241
 31
0.0
  0
LINE
  5
CD
330
1F
100
AcDbEntity
  8
0
  6
Continuous
 62
     7
370
     0
100
AcDbLine
 10
153.1399501083
 20
220.5649963241
 30
0.0
 11
153.1399501083
 21
222.3969525318
 31
0.0
  0
LINE
  5
CE
330
1F
100
AcDbEntity
  8
0
  6
Continuous
 62
     7
370
     0
100
AcDbLine
 10
156.1399487374
 20
221.3486744683
 30
0.0
 11
156.1399487374
 21
222.3969525318
 31
0.0
  0
LINE
  5
CF
330
1F
100
AcDbEntity
  8
0
  6
Continuous
 62
     7
370
     0
100
AcDbLine
 10
160.1399493931
 20
221.3486744683
 30
0.0
 11
160.1399493931
 21
222.3969525318
 31
0.0
  0
ARC
  5
D0
330
1F
100
AcDbEntity
  8
0
  6
Continuous
 62
     7
370
     0
100
AcDbCircle
 10
172.1399494974
 20
186.8901345241
 30
0.0
 40
5.12347538297983
100
AcDbArc
 50
321.3265506239
 51
38.6734493761
  0
ARC
  5
D1
330
1F
100
AcDbEntity
  8
0
  6
Continuous
 62
     7
370
     0
100
AcDbCircle
 10
172.1399494974
 20
186.8901345241
 30
0.0
 40
5.12347538297979
100
AcDbArc
 50
141.3265506239
 51
218.6734493761
  0
LINE
  5
D2
330
1F
100
AcDbEntity
  8
0
  6
Continuous
 62
     7
370
     0
100
AcDbLine
 10
178.046736267
 20
191.6401344012
 30
0.0
 11
178.046736267
 21
182.1401344738
 31
0.0
  0
SPLINE
  5
D3
330
1F
100
AcDbEntity
  8
0
  6
Continuous
 62
     7
370
     0
100
AcDbSpline
210
0.0
220
0.0
230
1.0
 70
    24
 71
     3
 72
    10
 73
     6
 74
     0
 42
0.000000001
 43
0.00000001
 40
0.0
 40
0.0
 40
0.0
 40
0.0
 40
0.5
 40
0.5
 40
1.0
 40
1.0
 40
1.0
 40
1.0
 10
177.7467820253231
 20
182.1401345241181
 30
0.0
 10
177.8244491770782
 20
182.1401345241192
 30
0.0
 10
177.9016586738632
 20
182.1401345241198
 30
0.0
 10
178.0124509356108
 20
182.1401345241198
 30
0.0
 10
178.0453808553289
 20
182.1401345241192
 30
0.0
 10
178.0467363339961
 20
182.1401345241181
 30
0.0
  0
LINE
  5
D4
330
1F
100
AcDbEntity
  8
0
  6
Continuous
 62
     7
370
     0
100
AcDbLine
 10
177.7467819458
 20
191.6401344012
 30
0.0
 11
177.7467819458
 21
182.1401344738
 31
0.0
  0
SPLINE
  5
D5
330
1F
100
AcDbEntity
  8
0
  6
Continuous
 62
     7
370
     0
100
AcDbSpline
210
0.0
220
0.0
230
1.0
 70
    24
 71
     3
 72
    10
 73
     6
 74
     0
 42
0.000000001
 43
0.00000001
 40
0.0
 40
0.0
 40
0.0
 40
0.0
 40
0.5
 40
0.5
 40
1.0
 40
1.0
 40
1.0
 40
1.0
 10
177.7467820253231
 20
191.6401345241182
 30
0.0
 10
177.8244491770368
 20
191.6401345241182
 30
0.0
 10
177.9016586737687
 20
191.6401345241182
 30
0.0
 10
178.0124509354574
 20
191.6401345241182
 30
0.0
 10
178.0453808551715
 20
191.6401345241182
 30
0.0
 10
178.04673633387
 20
191.6401345241182
 30
0.0
  0
SPLINE
  5
D6
330
1F
100
AcDbEntity
  8
0
  6
Continuous
 62
     7
370
     0
100
AcDbSpline
210
0.0
220
0.0
230
1.0
 70
     8
 71
     3
 72
    14
 73
    10
 74
     0
 42
0.000000001
 43
0.00000001
 40
0.0
 40
0.0
 40
0.0
 40
0.0
 40
0.25
 40
0.25
 40
0.5
 40
0.5
 40
0.75
 40
0.75
 40
1.0
 40
1.0
 40
1.0
 40
1.0
 10
178.0467363338701
 20
182.1401345241182
 30
0.0
 10
178.0467363338701
 20
181.3669379352934
 30
0.0
 10
177.8929984830258
 20
180.5940455663094
 30
0.0
 10
177.301219434017
 20
179.165364560264
 30
0.0
 10
176.8634110756381
 20
178.5101380481709
 30
0.0
 10
175.7699459733415
 20
177.4166729458744
 30
0.0
 10
175.1147194612485
 20
176.9788645874955
 30
0.0
 10
173.6860384552031
 20
176.3870855384866
 30
0.0
 10
172.9131460862191
 20
176.2333476876423
 30
0.0
 10
172.1399494973943
 20
176.2333476876423
 30
0.0
  0
SPLINE
  5
D7
330
1F
100
AcDbEntity
  8
0
  6
Continuous
 62
     7
370
     0
100
AcDbSpline
210
0.0
220
0.0
230
1.0
 70
     8
 71
     3
 72
    14
 73
    10
 74
     0
 42
0.000000001
 43
0.00000001
 40
0.0
 40
0.0
 40
0.0
 40
0.0
 40
0.2500000000000001
 40
0.2500000000000001
 40
0.5000000000000001
 40
0.5000000000000001
 40
0.75
 40
0.75
 40
1.0
 40
1.0
 40
1.0
 40
1.0
 10
172.1399494973943
 20
176.2333476876423
 30
0.0
 10
171.3667529085696
 20
176.2333476876423
 30
0.0
 10
170.5938605395855
 20
176.3870855384866
 30
0.0
 10
169.1651795335401
 20
176.9788645874954
 30
0.0
 10
168.5099530214471
 20
177.4166729458743
 30
0.0
 10
167.4164879191506
 20
178.5101380481708
 30
0.0
 10
166.9786795607716
 20
179.1653645602638
 30
0.0
 10
166.3869005117628
 20
180.5940455663093
 30
0.0
 10
166.2331626609185
 20
181.3669379352933
 30
0.0
 10
166.2331626609185
 20
182.140134524118
 30
0.0
  0
SPLINE
  5
D8
330
1F
100
AcDbEntity
  8
0
  6
Continuous
 62
     7
370
     0
100
AcDbSpline
210
0.0
220
0.0
230
1.0
 70
    24
 71
     3
 72
    10
 73
     6
 74
     0
 42
0.000000001
 43
0.00000001
 40
0.0
 40
0.0
 40
0.0
 40
0.0
 40
0.5
 40
0.5
 40
1.0
 40
1.0
 40
1.0
 40
1.0
 10
166.5331169694654
 20
182.140134524118
 30
0.0
 10
166.4554498177516
 20
182.140134524118
 30
0.0
 10
166.3782403210198
 20
182.140134524118
 30
0.0
 10
166.2674480593311
 20
182.140134524118
 30
0.0
 10
166.234518139617
 20
182.140134524118
 30
0.0
 10
166.2331626609185
 20
182.140134524118
 30
0.0
  0
SPLINE
  5
D9
330
1F
100
AcDbEntity
  8
0
  6
Continuous
 62
     7
370
     0
100
AcDbSpline
210
0.0
220
0.0
230
1.0
 70
     8
 71
     3
 72
    14
 73
    10
 74
     0
 42
0.000000001
 43
0.00000001
 40
0.0
 40
0.0
 40
0.0
 40
0.0
 40
0.2500000000000001
 40
0.2500000000000001
 40
0.5000000000000001
 40
0.5000000000000001
 40
0.75
 40
0.75
 40
1.0
 40
1.0
 40
1.0
 40
1.0
 10
172.1399494973943
 20
176.5333019961892
 30
0.0
 10
171.4060168357422
 20
176.5333019961892
 30
0.0
 10
170.6723729452521
 20
176.6792328392602
 30
0.0
 10
169.3162422165684
 20
177.2409605794319
 30
0.0
 10
168.6942889579069
 20
177.6565364606537
 30
0.0
 10
167.65635143393
 20
178.6944739846307
 30
0.0
 10
167.2407755527081
 20
179.3164272432921
 30
0.0
 10
166.6790478125364
 20
180.6725579719758
 30
0.0
 10
166.5331169694654
 20
181.406201862466
 30
0.0
 10
166.5331169694654
 20
182.140134524118
 30
0.0
  0
SPLINE
  5
DA
330
1F
100
AcDbEntity
  8
0
  6
Continuous
 62
     7
370
     0
100
AcDbSpline
210
0.0
220
0.0
230
1.0
 70
     8
 71
     3
 72
    14
 73
    10
 74
     0
 42
0.000000001
 43
0.00000001
 40
0.0
 40
0.0
 40
0.0
 40
0.0
 40
0.2500000000000001
 40
0.2500000000000001
 40
0.5000000000000001
 40
0.5000000000000001
 40
0.75
 40
0.75
 40
1.0
 40
1.0
 40
1.0
 40
1.0
 10
177.7467820253232
 20
182.1401345241182
 30
0.0
 10
177.7467820253232
 20
181.4062018624661
 30
0.0
 10
177.6008511822522
 20
180.672557971976
 30
0.0
 10
177.0391234420805
 20
179.3164272432922
 30
0.0
 10
176.6235475608586
 20
178.6944739846308
 30
0.0
 10
175.5856100368817
 20
177.6565364606538
 30
0.0
 10
174.9636567782203
 20
177.2409605794319
 30
0.0
 10
173.6075260495365
 20
176.6792328392602
 30
0.0
 10
172.8738821590464
 20
176.5333019961892
 30
0.0
 10
172.1399494973943
 20
176.5333019961892
 30
0.0
  0
LINE
  5
DB
330
1F
100
AcDbEntity
  8
0
  6
Continuous
 62
     7
370
     0
100
AcDbLine
 10
166.2331627278
 20
182.1401344738
 30
0.0
 11
166.2331627278
 21
191.6401344012
 31
0.0
  0
SPLINE
  5
DC
330
1F
100
AcDbEntity
  8
0
  6
Continuous
 62
     7
370
     0
100
AcDbSpline
210
0.0
220
0.0
230
1.0
 70
    24
 71
     3
 72
    10
 73
     6
 74
     0
 42
0.000000001
 43
0.00000001
 40
0.0
 40
0.0
 40
0.0
 40
0.0
 40
0.5
 40
0.5
 40
1.0
 40
1.0
 40
1.0
 40
1.0
 10
166.2331626609184
 20
191.640134524118
 30
0.0
 10
166.2345181396169
 20
191.640134524118
 30
0.0
 10
166.267448059331
 20
191.640134524118
 30
0.0
 10
166.3782403210197
 20
191.640134524118
 30
0.0
 10
166.4554498177515
 20
191.640134524118
 30
0.0
 10
166.5331169694653
 20
191.640134524118
 30
0.0
  0
LINE
  5
DD
330
1F
100
AcDbEntity
  8
0
  6
Continuous
 62
     7
370
     0
100
AcDbLine
 10
166.533117049
 20
182.1401344738
 30
0.0
 11
166.533117049
 21
191.6401344012
 31
0.0
  0
LINE
  5
DE
330
1F
100
AcDbEntity
  8
0
  6
Continuous
 62
     7
370
     0
100
AcDbLine
 10
166.1949496312
 20
191.6401344012
 30
0.0
 11
166.2331627278
 21
191.6401344012
 31
0.0
  0
LINE
  5
DF
330
1F
100
AcDbEntity
  8
0
  6
Continuous
 62
     7
370
     0
100
AcDbLine
 10
166.2331627278
 20
182.1401344738
 30
0.0
 11
166.1949496312
 21
182.1401344738
 31
0.0
  0
LINE
  5
E0
330
1F
100
AcDbEntity
  8
0
  6
Continuous
 62
     7
370
     0
100
AcDbLine
 10
166.1949496312
 20
182.1401344738
 30
0.0
 11
166.1949496312
 21
191.6401344012
 31
0.0
  0
ARC
  5
E1
330
1F
100
AcDbEntity
  8
0
  6
Continuous
 62
     7
370
     0
100
AcDbCircle
 10
172.1399494974
 20
191.6401345241
 30
0.0
 40
5.945000000000192
100
AcDbArc
 50
132.2861972684
 51
180.0
  0
ARC
  5
E2
330
1F
100
AcDbEntity
  8
0
  6
Continuous
 62
     7
370
     0
100
AcDbCircle
 10
172.1399494974
 20
191.6401345241
 30
0.0
 40
5.945000000000022
100
AcDbArc
 50
0.0
 51
47.7138027316
  0
LINE
  5
E3
330
1F
100
AcDbEntity
  8
0
  6
Continuous
 62
     7
370
     0
100
AcDbLine
 10
178.046736267
 20
191.6401344012
 30
0.0
 11
178.0849493636
 21
191.6401344012
 31
0.0
  0
LINE
  5
E4
330
1F
100
AcDbEntity
  8
0
  6
Continuous
 62
     7
370
     0
100
AcDbLine
 10
178.046736267
 20
182.1401344738
 30
0.0
 11
178.0849493636
 21
182.1401344738
 31
0.0
  0
ARC
  5
E5
330
1F
100
AcDbEntity
  8
0
  6
Continuous
 62
     7
370
     0
100
AcDbCircle
 10
172.1399494974
 20
182.1401345241
 30
0.0
 40
5.945000000000022
100
AcDbArc
 50
180.0
 51
0.0
  0
LINE
  5
E6
330
1F
100
AcDbEntity
  8
0
  6
Continuous
 62
     7
370
     0
100
AcDbLine
 10
178.0849493636
 20
191.6401344012
 30
0.0
 11
178.0849493636
 21
182.1401344738
 31
0.0
  0
LINE
  5
E7
330
1F
100
AcDbEntity
  8
0
  6
Continuous
 62
     7
370
     0
100
AcDbLine
 10
173.4812568003
 20
148.4401351433
 30
0.0
 11
174.6135701953
 21
148.4401351433
 31
0.0
  0
SPLINE
  5
E8
330
1F
100
AcDbEntity
  8
0
  6
Continuous
 62
     7
370
     0
100
AcDbSpline
210
0.0
220
0.0
230
1.0
 70
     8
 71
     3
 72
     8
 73
     4
 74
     0
 42
0.000000001
 43
0.00000001
 40
0.0
 40
0.0
 40
0.0
 40
0.0
 40
1.0
 40
1.0
 40
1.0
 40
1.0
 10
174.6135702380843
 20
148.4401345240775
 30
0.0
 10
174.8936702739384
 20
148.2531780024039
 30
0.0
 10
175.1814961626877
 20
148.1401345241426
 30
0.0
 10
175.4811380615055
 20
148.1401345241181
 30
0.0
  0
LINE
  5
E9
330
1F
100
AcDbEntity
  8
0
  6
Continuous
 62
     7
370
     0
100
AcDbLine
 10
171.9059849831
 20
148.1401337903
 30
0.0
 11
175.4811381517
 21
148.1401337903
 31
0.0
  0
SPLINE
  5
EA
330
1F
100
AcDbEntity
  8
0
  6
Continuous
 62
     7
370
     0
100
AcDbSpline
210
0.0
220
0.0
230
1.0
 70
     8
 71
     3
 72
     8
 73
     4
 74
     0
 42
0.000000001
 43
0.00000001
 40
0.0
 40
0.0
 40
0.0
 40
0.0
 40
1.0
 40
1.0
 40
1.0
 40
1.0
 10
171.9059849763454
 20
148.1401345240139
 30
0.0
 10
172.4500547477059
 20
148.1401345239745
 30
0.0
 10
172.9726697961966
 20
148.2531780021885
 30
0.0
 10
173.4812567563951
 20
148.4401345238638
 30
0.0
  0
LINE
  5
EB
330
1F
100
AcDbEntity
  8
0
  6
Continuous
 62
     7
370
     0
100
AcDbLine
 10
173.4812568003
 20
148.4401351433
 30
0.0
 11
173.4812568003
 21
151.1401361446
 31
0.0
  0
SPLINE
  5
EC
330
1F
100
AcDbEntity
  8
0
  6
Continuous
 62
     7
370
     0
100
AcDbSpline
210
0.0
220
0.0
230
1.0
 70
     8
 71
     3
 72
     8
 73
     4
 74
     0
 42
0.000000001
 43
0.00000001
 40
0.0
 40
0.0
 40
0.0
 40
0.0
 40
1.0
 40
1.0
 40
1.0
 40
1.0
 10
170.3307131969016
 20
148.440134523852
 30
0.0
 10
170.8393001569533
 20
148.253178002234
 30
0.0
 10
171.3619152051358
 20
148.140134524039
 30
0.0
 10
171.9059849763377
 20
148.1401345239988
 30
0.0
  0
LINE
  5
ED
330
1F
100
AcDbEntity
  8
0
  6
Continuous
 62
     7
370
     0
100
AcDbLine
 10
170.3307132531
 20
151.1401361446
 30
0.0
 11
170.3307132531
 21
148.4401351433
 31
0.0
  0
LINE
  5
EE
330
1F
100
AcDbEntity
  8
0
  6
Continuous
 62
     7
370
     0
100
AcDbLine
 10
169.2725004224
 20
148.4401351433
 30
0.0
 11
170.3307132531
 21
148.4401351433
 31
0.0
  0
LINE
  5
EF
330
1F
100
AcDbEntity
  8
0
  6
Continuous
 62
     7
370
     0
100
AcDbLine
 10
168.5647963142
 20
148.1401337903
 30
0.0
 11
171.9059849831
 21
148.1401337903
 31
0.0
  0
SPLINE
  5
F0
330
1F
100
AcDbEntity
  8
0
  6
Continuous
 62
     7
370
     0
100
AcDbSpline
210
0.0
220
0.0
230
1.0
 70
     8
 71
     3
 72
     8
 73
     4
 74
     0
 42
0.000000001
 43
0.00000001
 40
0.0
 40
0.0
 40
0.0
 40
0.0
 40
1.0
 40
1.0
 40
1.0
 40
1.0
 10
168.564796412819
 20
148.1401345240139
 30
0.0
 10
168.8092242852435
 20
148.1401345241162
 30
0.0
 10
169.0440134447712
 20
148.2531780023496
 30
0.0
 10
169.2725003689953
 20
148.4401345240012
 30
0.0
  0
LINE
  5
F1
330
1F
100
AcDbEntity
  8
0
  6
Continuous
 62
     7
370
     0
100
AcDbLine
 10
174.6135701953
 20
151.1401361446
 30
0.0
 11
174.6135701953
 21
148.4401351433
 31
0.0
  0
LINE
  5
F2
330
1F
100
AcDbEntity
  8
0
  6
Continuous
 62
     7
370
     0
100
AcDbLine
 10
169.2725004224
 20
148.4401351433
 30
0.0
 11
169.2725004224
 21
151.1401361446
 31
0.0
  0
LINE
  5
F3
330
1F
100
AcDbEntity
  8
0
  6
Continuous
 62
     7
370
     0
100
AcDbLine
 10
176.3487061081
 20
148.4401351433
 30
0.0
 11
176.3487061081
 21
151.1401361446
 31
0.0
  0
SPLINE
  5
F4
330
1F
100
AcDbEntity
  8
0
  6
Continuous
 62
     7
370
     0
100
AcDbSpline
210
0.0
220
0.0
230
1.0
 70
     8
 71
     3
 72
     8
 73
     4
 74
     0
 42
0.000000001
 43
0.00000001
 40
0.0
 40
0.0
 40
0.0
 40
0.0
 40
1.0
 40
1.0
 40
1.0
 40
1.0
 10
175.4811380615055
 20
148.1401345241181
 30
0.0
 10
175.7807799603608
 20
148.1401345240937
 30
0.0
 10
176.068605849055
 20
148.2531780022928
 30
0.0
 10
176.34870588495
 20
148.4401345239613
 30
0.0
  0
SPLINE
  5
F5
330
1F
100
AcDbEntity
  8
0
  6
Continuous
 62
     7
370
     0
100
AcDbSpline
210
0.0
220
0.0
230
1.0
 70
     8
 71
     3
 72
     8
 73
     4
 74
     0
 42
0.000000001
 43
0.00000001
 40
0.0
 40
0.0
 40
0.0
 40
0.0
 40
1.0
 40
1.0
 40
1.0
 40
1.0
 10
167.8570924562542
 20
148.4401345237146
 30
0.0
 10
168.0855793805427
 20
148.2531780020904
 30
0.0
 10
168.3203685403017
 20
148.1401345238972
 30
0.0
 10
168.5647964127839
 20
148.1401345239988
 30
0.0
  0
LINE
  5
F6
330
1F
100
AcDbEntity
  8
0
  6
Continuous
 62
     7
370
     0
100
AcDbLine
 10
167.8570926717
 20
151.1401361446
 30
0.0
 11
167.8570926717
 21
148.4401351433
 31
0.0
  0
LINE
  5
F7
330
1F
100
AcDbEntity
  8
0
  6
Continuous
 62
     7
370
     0
100
AcDbLine
 10
176.3487061081
 20
148.4401351433
 30
0.0
 11
176.4399496434
 21
148.4401351433
 31
0.0
  0
LINE
  5
F8
330
1F
100
AcDbEntity
  8
0
  6
Continuous
 62
     7
370
     0
100
AcDbLine
 10
175.4811381517
 20
148.1401337903
 30
0.0
 11
176.1399496874
 21
148.1401337903
 31
0.0
  0
LINE
  5
F9
330
1F
100
AcDbEntity
  8
0
  6
Continuous
 62
     7
370
     0
100
AcDbLine
 10
173.6434843453
 20
143.1401348333
 30
0.0
 11
173.9399494665
 21
143.1401348333
 31
0.0
  0
LINE
  5
FA
330
1F
100
AcDbEntity
  8
0
  6
Continuous
 62
     7
370
     0
100
AcDbLine
 10
170.3399495283
 20
143.1401348333
 30
0.0
 11
173.6434843453
 21
143.1401348333
 31
0.0
  0
LINE
  5
FB
330
1F
100
AcDbEntity
  8
0
  6
Continuous
 62
     7
370
     0
100
AcDbLine
 10
173.3928952428
 20
141.1401345055
 30
0.0
 11
173.6399495104
 21
141.1401345055
 31
0.0
  0
LINE
  5
FC
330
1F
100
AcDbEntity
  8
0
  6
Continuous
 62
     7
370
     0
100
AcDbLine
 10
170.6399494844
 20
141.1401345055
 30
0.0
 11
173.3928952428
 21
141.1401345055
 31
0.0
  0
LINE
  5
FD
330
1F
100
AcDbEntity
  8
0
  6
Continuous
 62
     7
370
     0
100
AcDbLine
 10
173.6434843453
 20
145.6401361744
 30
0.0
 11
173.9399494665
 21
145.6401361744
 31
0.0
  0
LINE
  5
FE
330
1F
100
AcDbEntity
  8
0
  6
Continuous
 62
     7
370
     0
100
AcDbLine
 10
170.3399495283
 20
145.6401361744
 30
0.0
 11
173.6434843453
 21
145.6401361744
 31
0.0
  0
LINE
  5
FF
330
1F
100
AcDbEntity
  8
0
  6
Continuous
 62
     7
370
     0
100
AcDbLine
 10
170.3399495283
 20
146.1401334624
 30
0.0
 11
173.9399494665
 21
146.1401334624
 31
0.0
  0
LINE
  5
100
330
1F
100
AcDbEntity
  8
0
  6
Continuous
 62
     7
370
     0
100
AcDbLine
 10
170.3399495283
 20
143.6401358466
 30
0.0
 11
173.9399494665
 21
143.6401358466
 31
0.0
  0
LINE
  5
101
330
1F
100
AcDbEntity
  8
0
  6
Continuous
 62
     7
370
     0
100
AcDbLine
 10
167.8399493514
 20
148.4401351433
 30
0.0
 11
167.8570926717
 21
148.4401351433
 31
0.0
  0
LINE
  5
102
330
1F
100
AcDbEntity
  8
0
  6
Continuous
 62
     7
370
     0
100
AcDbLine
 10
168.1399493074
 20
148.1401337903
 30
0.0
 11
168.5647963142
 21
148.1401337903
 31
0.0
  0
ARC
  5
103
330
1F
100
AcDbEntity
  8
0
  6
Continuous
 62
     7
370
     0
100
AcDbCircle
 10
153.2063267433
 20
238.2437946342
 30
0.0
 40
0.6713046825652772
100
AcDbArc
 50
204.2569523614
 51
222.3576731521
  0
LINE
  5
104
330
1F
100
AcDbEntity
  8
0
  6
Continuous
 62
     7
370
     0
100
AcDbLine
 10
152.5942900745
 20
237.2670187275
 30
0.0
 11
152.5942900745
 21
237.1585569005
 31
0.0
  0
ARC
  5
105
330
1F
100
AcDbEntity
  8
0
  6
Continuous
 62
     7
370
     0
100
AcDbCircle
 10
156.1610473071
 20
237.6773654357
 30
0.0
 40
3.604291810090393
100
AcDbArc
 50
188.2760105453
 51
198.4466851316
  0
ARC
  5
106
330
1F
100
AcDbEntity
  8
0
  6
Continuous
 62
     7
370
     0
100
AcDbCircle
 10
153.1861437018
 20
236.6554396819
 30
0.0
 40
0.4597424234248484
100
AcDbArc
 50
165.0565454196
 51
194.9434545804
  0
ARC
  5
107
330
1F
100
AcDbEntity
  8
0
  6
Continuous
 62
     7
370
     0
100
AcDbCircle
 10
156.1608583865
 20
237.9144241148
 30
0.0
 40
3.604098397894309
100
AcDbArc
 50
188.2757369242
 51
198.4469587527
  0
LINE
  5
108
330
1F
100
AcDbEntity
  8
0
  6
Continuous
 62
     7
370
     0
100
AcDbLine
 10
152.5942900745
 20
237.3956604521
 30
0.0
 11
152.5942900745
 21
237.614994369
 31
0.0
  0
ARC
  5
109
330
1F
100
AcDbEntity
  8
0
  6
Continuous
 62
     7
370
     0
100
AcDbCircle
 10
153.2283581308
 20
237.3267188652
 30
0.0
 40
0.696523557463223
100
AcDbArc
 50
134.2937966596
 51
155.551346026
  0
ARC
  5
10A
330
1F
100
AcDbEntity
  8
0
  6
Continuous
 62
     7
370
     0
100
AcDbCircle
 10
156.6870021283
 20
238.175760455
 30
0.0
 40
3.960591581534089
100
AcDbArc
 50
174.9229754741
 51
185.0770245259
  0
ARC
  5
10B
330
1F
100
AcDbEntity
  8
0
  6
Continuous
 62
     7
370
     0
100
AcDbCircle
 10
153.228304843
 20
238.0277404353
 30
0.0
 40
0.6964595606954056
100
AcDbArc
 50
134.292808634
 51
155.5523340516
  0
LINE
  5
10C
330
1F
100
AcDbEntity
  8
0
  6
Continuous
 62
     7
370
     0
100
AcDbLine
 10
152.5942900745
 20
238.3159785192
 30
0.0
 11
152.5942900745
 21
238.4244403462
 31
0.0
  0
ARC
  5
10D
330
1F
100
AcDbEntity
  8
0
  6
Continuous
 62
     7
370
     0
100
AcDbCircle
 10
156.1610473071
 20
237.905631811
 30
0.0
 40
3.604291810090393
100
AcDbArc
 50
161.5533148684
 51
171.7239894547
  0
LWPOLYLINE
  5
10E
330
1F
100
AcDbEntity
  8
0
  6
Continuous
 62
     7
370
     0
100
AcDbPolyline
 90
        3
 70
   128
 43
0.0
 10
152.6155484436
 20
238.3169433694
 10
152.6066468624
 20
238.2662160914
 10
152.5942900745
 20
238.1873367946
  0
LINE
  5
10F
330
1F
100
AcDbEntity
  8
0
  6
Continuous
 62
     7
370
     0
100
AcDbLine
 10
152.5942900745
 20
238.1873367946
 30
0.0
 11
152.5942900745
 21
237.9680028777
 31
0.0
  0
SPLINE
  5
110
330
1F
100
AcDbEntity
  8
0
  6
Continuous
 62
     7
370
     0
100
AcDbSpline
210
0.0
220
0.0
230
1.0
 70
     8
 71
     3
 72
     8
 73
     4
 74
     0
 42
0.000000001
 43
0.00000001
 40
0.0
 40
0.0
 40
0.0
 40
0.0
 40
1.0
 40
1.0
 40
1.0
 40
1.0
 10
152.5942895754
 20
238.3159795892528
 30
0.0
 10
152.643510964481
 20
238.3146451049873
 30
0.0
 10
152.6927311013359
 20
238.3133057895605
 30
0.0
 10
152.741949895214
 20
238.3119612928511
 30
0.0
  0
SPLINE
  5
111
330
1F
100
AcDbEntity
  8
0
  6
Continuous
 62
     7
370
     0
100
AcDbSpline
210
0.0
220
0.0
230
1.0
 70
     8
 71
     3
 72
     8
 73
     4
 74
     0
 42
0.000000001
 43
0.00000001
 40
0.0
 40
0.0
 40
0.0
 40
0.0
 40
1.0
 40
1.0
 40
1.0
 40
1.0
 10
152.5942895754
 20
238.1873365454923
 30
0.0
 10
152.643510902467
 20
238.183391185975
 30
0.0
 10
152.6927309773111
 20
238.1794315433038
 30
0.0
 10
152.7419497091819
 20
238.1754565823587
 30
0.0
  0
SPLINE
  5
112
330
1F
100
AcDbEntity
  8
0
  6
Continuous
 62
     7
370
     0
100
AcDbSpline
210
0.0
220
0.0
230
1.0
 70
     8
 71
     3
 72
     8
 73
     4
 74
     0
 42
0.000000001
 43
0.00000001
 40
0.0
 40
0.0
 40
0.0
 40
0.0
 40
1.0
 40
1.0
 40
1.0
 40
1.0
 10
152.5942895754
 20
237.968004573259
 30
0.0
 10
152.6435109594926
 20
237.9693390573892
 30
0.0
 10
152.6927310913594
 20
237.9706783726797
 30
0.0
 10
152.7419498802497
 20
237.9720228692518
 30
0.0
  0
LINE
  5
113
330
1F
100
AcDbEntity
  8
0
  6
Continuous
 62
     7
370
     0
100
AcDbLine
 10
168.1399493074
 20
202.2032639604
 30
0.0
 11
176.1399496874
 21
202.2032639604
 31
0.0
  0
LINE
  5
114
330
1F
100
AcDbEntity
  8
0
  6
Continuous
 62
     7
370
     0
100
AcDbLine
 10
176.1399496874
 20
179.5138856057
 30
0.0
 11
176.1399496874
 21
202.2032639604
 31
0.0
  0
LINE
  5
115
330
1F
100
AcDbEntity
  8
0
  6
Continuous
 62
     7
370
     0
100
AcDbLine
 10
175.1399495235
 20
178.5273910161
 30
0.0
 11
176.1399496874
 21
179.5138856057
 31
0.0
  0
LINE
  5
116
330
1F
100
AcDbEntity
  8
0
  6
Continuous
 62
     7
370
     0
100
AcDbLine
 10
169.1399494713
 20
178.5273910161
 30
0.0
 11
175.1399495235
 21
178.5273910161
 31
0.0
  0
LINE
  5
117
330
1F
100
AcDbEntity
  8
0
  6
Continuous
 62
     7
370
     0
100
AcDbLine
 10
168.1399493074
 20
179.5138856057
 30
0.0
 11
169.1399494713
 21
178.5273910161
 31
0.0
  0
LINE
  5
118
330
1F
100
AcDbEntity
  8
0
  6
Continuous
 62
     7
370
     0
100
AcDbLine
 10
168.1399493074
 20
179.5138856057
 30
0.0
 11
168.1399493074
 21
202.2032639604
 31
0.0
  0
ELLIPSE
  5
119
330
1F
100
AcDbEntity
  8
0
  6
Continuous
 62
     7
370
     0
100
AcDbEllipse
 10
165.1399494974
 20
249.6580836956
 30
0.0
 11
-1.136868377216160E-13
 21
9.818238641913069
 31
0.0
210
0.0
220
0.0
230
1.0
 40
0.3055537871
 41
4.712388980384696
 42
5.376372385074353
  0
LINE
  5
11A
330
1F
100
AcDbEntity
  8
0
  6
Continuous
 62
     7
370
     0
100
AcDbLine
 10
176.1399496874
 20
255.7086622934
 30
0.0
 11
167.5025805427
 21
255.7086622934
 31
0.0
  0
LINE
  5
11B
330
1F
100
AcDbEntity
  8
0
  6
Continuous
 62
     7
370
     0
100
AcDbLine
 10
176.1399496874
 20
202.2032639604
 30
0.0
 11
176.1399496874
 21
255.7086622934
 31
0.0
  0
LINE
  5
11C
330
1F
100
AcDbEntity
  8
0
  6
Continuous
 62
     7
370
     0
100
AcDbLine
 10
168.1399493074
 20
202.2032639604
 30
0.0
 11
168.1399493074
 21
249.6580830436
 31
0.0
  0
LINE
  5
11D
330
1F
100
AcDbEntity
  8
0
  6
Continuous
 62
     7
370
     0
100
AcDbLine
 10
174.1399495924
 20
177.7046895246
 30
0.0
 11
170.1399494024
 21
177.7046895246
 31
0.0
  0
LINE
  5
11E
330
1F
100
AcDbEntity
  8
0
  6
Continuous
 62
     7
370
     0
100
AcDbLine
 10
175.1399495235
 20
178.5273910161
 30
0.0
 11
174.1399495924
 21
177.7046895246
 31
0.0
  0
LINE
  5
11F
330
1F
100
AcDbEntity
  8
0
  6
Continuous
 62
     7
370
     0
100
AcDbLine
 10
170.1399494024
 20
177.7046895246
 30
0.0
 11
169.1399494713
 21
178.5273910161
 31
0.0
  0
LINE
  5
120
330
1F
100
AcDbEntity
  8
0
  6
Continuous
 62
     7
370
     0
100
AcDbLine
 10
165.1399492813
 20
226.7725295048
 30
0.0
 11
165.1399492813
 21
256.367368124
 31
0.0
  0
ARC
  5
121
330
1F
100
AcDbEntity
  8
0
  6
Continuous
 62
     7
370
     0
100
AcDbCircle
 10
165.1575963594
 20
239.2776277555
 30
0.0
 40
17.08974947980991
100
AcDbArc
 50
86.1810710668
 51
90.0591643122
  0
ELLIPSE
  5
122
330
1F
100
AcDbEntity
  8
0
  6
Continuous
 62
     7
370
     0
100
AcDbEllipse
 10
165.1399494974
 20
254.4606576239
 30
0.0
 11
3.0
 21
5.684341886080801E-14
 31
0.0
210
0.0
220
0.0
230
1.0
 40
0.6750423319
 41
0.6639834046896466
 42
1.175268989197992
  0
ARC
  5
123
330
1F
100
AcDbEntity
  8
0
  6
Continuous
 62
     7
370
     0
100
AcDbCircle
 10
165.8698218162
 20
221.8250214147
 30
0.0
 40
5.001054910549145
100
AcDbArc
 50
63.0039078838
 51
98.3919314736
  0
LINE
  5
124
330
1F
100
AcDbEntity
  8
0
  6
Continuous
 62
     7
370
     0
100
AcDbLine
 10
166.2958342178
 20
256.3294297676
 30
0.0
 11
176.1399496874
 21
256.3294297676
 31
0.0
  0
LINE
  5
125
330
1F
100
AcDbEntity
  8
0
  6
Continuous
 62
     7
370
     0
100
AcDbLine
 10
176.1399496874
 20
256.3294297676
 30
0.0
 11
176.1399496874
 21
255.7086622934
 31
0.0
  0
LINE
  5
126
330
1F
100
AcDbEntity
  8
0
  6
Continuous
 62
     7
370
     0
100
AcDbLine
 10
153.1399501083
 20
256.367368124
 30
0.0
 11
153.1399501083
 21
256.9406455975
 31
0.0
  0
LINE
  5
127
330
1F
100
AcDbEntity
  8
0
  6
Continuous
 62
     7
370
     0
100
AcDbLine
 10
153.1399501083
 20
256.9406455975
 30
0.0
 11
176.1399496874
 21
256.9406455975
 31
0.0
  0
LINE
  5
128
330
1F
100
AcDbEntity
  8
0
  6
Continuous
 62
     7
370
     0
100
AcDbLine
 10
153.1399501083
 20
256.367368124
 30
0.0
 11
165.1399492813
 21
256.367368124
 31
0.0
  0
LINE
  5
129
330
1F
100
AcDbEntity
  8
0
  6
Continuous
 62
     7
370
     0
100
AcDbLine
 10
176.1399496874
 20
256.3294297676
 30
0.0
 11
176.1399496874
 21
256.9406455975
 31
0.0
  0
LINE
  5
12A
330
1F
100
AcDbEntity
  8
0
  6
Continuous
 62
     7
370
     0
100
AcDbLine
 10
153.1399501083
 20
226.7725295048
 30
0.0
 11
165.1399492813
 21
226.7725295048
 31
0.0
  0
LINE
  5
12B
330
1F
100
AcDbEntity
  8
0
  6
Continuous
 62
     7
370
     0
100
AcDbLine
 10
153.1399501083
 20
226.7725295048
 30
0.0
 11
153.1399501083
 21
256.367368124
 31
0.0
  0
SPLINE
  5
12C
330
1F
100
AcDbEntity
  8
0
  6
Continuous
 62
     8
370
     0
100
AcDbSpline
210
0.0
220
0.0
230
1.0
 70
     8
 71
     3
 72
    11
 73
     7
 74
     0
 42
0.000000001
 43
0.00000001
 40
0.0
 40
0.0
 40
0.0
 40
0.0
 40
0.2532112437802023
 40
0.5064223537097337
 40
0.7596333756194477
 40
1.0
 40
1.0
 40
1.0
 40
1.0
 10
166.533117049001
 20
191.6401344011994
 30
0.0
 10
166.5538096857558
 20
192.0072666905599
 30
0.0
 10
166.5951949483269
 20
192.7415310752102
 30
0.0
 10
166.9312063639739
 20
193.7975820235102
 30
0.0
 10
167.43085420605
 20
194.7661419599366
 30
0.0
 10
167.9077207817677
 20
195.3011310772523
 30
0.0
 10
168.1399493074043
 20
195.5616646106811
 30
0.0
  0
SPLINE
  5
12D
330
1F
100
AcDbEntity
  8
0
  6
Continuous
 62
     8
370
     0
100
AcDbSpline
210
0.0
220
0.0
230
1.0
 70
     8
 71
     3
 72
    11
 73
     7
 74
     0
 42
0.000000001
 43
0.00000001
 40
0.0
 40
0.0
 40
0.0
 40
0.0
 40
0.2403666243805524
 40
0.4935776462902664
 40
0.7467887562197978
 40
1.0
 40
1.0
 40
1.0
 40
1.0
 10
176.1399496873839
 20
195.5616646106812
 30
0.0
 10
176.3721782130205
 20
195.3011310772524
 30
0.0
 10
176.8490447887382
 20
194.7661419599367
 30
0.0
 10
177.3486926308143
 20
193.7975820235104
 30
0.0
 10
177.6847040464613
 20
192.7415310752104
 30
0.0
 10
177.7260893090325
 20
192.00726669056
 30
0.0
 10
177.7467819457872
 20
191.6401344011995
 30
0.0
  0
SPLINE
  5
12E
330
1F
100
AcDbEntity
  8
0
  6
Continuous
 62
     8
370
     0
100
AcDbSpline
210
0.0
220
0.0
230
1.0
 70
     8
 71
     3
 72
    12
 73
     8
 74
     0
 42
0.000000001
 43
0.00000001
 40
0.0
 40
0.0
 40
0.0
 40
0.0
 40
0.2382403641560844
 40
0.4764807418872615
 40
0.7147210891867863
 40
0.9529614533345484
 40
1.0
 40
1.0
 40
1.0
 40
1.0
 10
166.2331627277656
 20
191.6401344011994
 30
0.0
 10
166.2553253936478
 20
192.026520001298
 30
0.0
 10
166.2996507266751
 20
192.7992912235118
 30
0.0
 10
166.6481928801138
 20
193.9176497349707
 30
0.0
 10
167.2043170375871
 20
194.9334946788752
 30
0.0
 10
167.7185450238615
 20
195.6260511850869
 30
0.0
 10
168.0803007857562
 20
195.914362817872
 30
0.0
 10
168.1399493074043
 20
195.9619014184447
 30
0.0
  0
SPLINE
  5
12F
330
1F
100
AcDbEntity
  8
0
  6
Continuous
 62
     8
370
     0
100
AcDbSpline
210
0.0
220
0.0
230
1.0
 70
     8
 71
     3
 72
    12
 73
     8
 74
     0
 42
0.000000001
 43
0.00000001
 40
0.0
 40
0.0
 40
0.0
 40
0.0
 40
0.0470385466654516
 40
0.2852789108132137
 40
0.5235192581127386
 40
0.7617596358439157
 40
1.0
 40
1.0
 40
1.0
 40
1.0
 10
176.1399496873839
 20
195.9619014184448
 30
0.0
 10
176.199598209032
 20
195.9143628178721
 30
0.0
 10
176.5613539709267
 20
195.626051185087
 30
0.0
 10
177.0755819572011
 20
194.9334946788753
 30
0.0
 10
177.6317061146745
 20
193.9176497349708
 30
0.0
 10
177.9802482681132
 20
192.7992912235119
 30
0.0
 10
178.0245736011405
 20
192.0265200012981
 30
0.0
 10
178.0467362670227
 20
191.6401344011995
 30
0.0
  0
DIMENSION
  5
130
330
1F
100
AcDbEntity
  8
0
  6
Continuous
 62
     7
370
     0
100
AcDbDimension
  2
_D
 10
168.1399494974
 20
267.0225424257
 30
0.0
 11
160.6399494974
 21
267.0225424257
 31
0.0
 70
   160
  1
<>
 71
     2
 42
-1.0
  3
SLDDIMSTYLE0
100
AcDbAlignedDimension
 13
153.1399494974
 23
256.367369384
 33
0.0
 14
168.1399494974
 24
249.6580836956
 34
0.0
 50
0.0
100
AcDbRotatedDimension
  0
DIMENSION
  5
13B
330
1F
100
AcDbEntity
  8
0
  6
Continuous
 62
     7
370
     0
100
AcDbDimension
  2
_D_1
 10
143.3550957406
 20
226.7725287685
 30
0.0
 11
143.3550957406
 21
241.856587282
 31
0.0
 70
   160
  1
<>
 71
     2
 42
-1.0
  3
SLDDIMSTYLE0
100
AcDbAlignedDimension
 13
153.1399494974
 23
256.9406457955
 33
0.0
 14
153.1399494974
 24
226.7725287685
 34
0.0
 50
90.0
100
AcDbRotatedDimension
  0
DIMENSION
  5
145
330
1F
100
AcDbEntity
  8
0
  6
Continuous
 62
     7
370
     0
100
AcDbDimension
  2
_D_2
 10
176.1399494974
 20
273.0225424257
 30
0.0
 11
164.6399494974
 21
273.0225424257
 31
0.0
 70
   160
  1
<>
 71
     2
 42
-1.0
  3
SLDDIMSTYLE0
100
AcDbAlignedDimension
 13
153.1399494974
 23
256.367369384
 33
0.0
 14
176.1399494974
 24
255.7086600333
 34
0.0
 50
0.0
100
AcDbRotatedDimension
  0
DIMENSION
  5
14F
330
1F
100
AcDbEntity
  8
0
  6
Continuous
 62
     7
370
     0
100
AcDbDimension
  2
_D_3
 10
164.1399494974
 20
132.8219871906
 30
0.0
 11
172.1399494974
 21
132.8219871906
 31
0.0
 70
   160
  1
<>
 71
     2
 42
-1.0
  3
SLDDIMSTYLE0
100
AcDbAlignedDimension
 13
180.1399494974
 23
167.1401345241
 33
0.0
 14
164.1399494974
 24
167.1401345241
 34
0.0
 50
0.0
100
AcDbRotatedDimension
  0
DIMENSION
  5
159
330
1F
100
AcDbEntity
  8
0
  6
Continuous
 62
     7
370
     0
100
AcDbDimension
  2
_D_4
 10
153.1399494974
 20
123.5874209531
 30
0.0
 11
166.6399494974
 21
123.5874209531
 31
0.0
 70
   160
  1
<>
 71
     2
 42
-1.0
  3
SLDDIMSTYLE0
100
AcDbAlignedDimension
 13
180.1399494974
 23
167.1401345241
 33
0.0
 14
153.1399494974
 24
226.7725287685
 34
0.0
 50
0.0
100
AcDbRotatedDimension
  0
LINE
  5
163
330
1F
100
AcDbEntity
  8
0
  6
Continuous
 62
     7
370
     0
100
AcDbLine
 10
71.9428569455
 20
167.1401350419
 30
0.0
 11
71.9428569455
 21
152.1401344459
 31
0.0
  0
LINE
  5
164
330
1F
100
AcDbEntity
  8
0
  6
Continuous
 62
     7
370
     0
100
AcDbLine
 10
83.9428570499
 20
152.1401344459
 30
0.0
 11
83.9428570499
 21
167.1401350419
 31
0.0
  0
LINE
  5
165
330
1F
100
AcDbEntity
  8
0
  6
Continuous
 62
     7
370
     0
100
AcDbLine
 10
71.9428569455
 20
152.1401344459
 30
0.0
 11
72.9428571095
 21
151.1401361446
 31
0.0
  0
LINE
  5
166
330
1F
100
AcDbEntity
  8
0
  6
Continuous
 62
     7
370
     0
100
AcDbLine
 10
82.9428568859
 20
151.1401361446
 30
0.0
 11
83.9428570499
 21
152.1401344459
 31
0.0
  0
LINE
  5
167
330
1F
100
AcDbEntity
  8
0
  6
Continuous
 62
     7
370
     0
100
AcDbLine
 10
79.7428569668
 20
145.6401361744
 30
0.0
 11
79.7428569668
 21
146.1401334624
 31
0.0
  0
LINE
  5
168
330
1F
100
AcDbEntity
  8
0
  6
Continuous
 62
     7
370
     0
100
AcDbLine
 10
76.1428570286
 20
146.1401334624
 30
0.0
 11
76.1428570286
 21
145.6401361744
 31
0.0
  0
LINE
  5
169
330
1F
100
AcDbEntity
  8
0
  6
Continuous
 62
     7
370
     0
100
AcDbLine
 10
76.1428570286
 20
145.6401361744
 30
0.0
 11
76.3428569217
 21
143.6401358466
 31
0.0
  0
LINE
  5
16A
330
1F
100
AcDbEntity
  8
0
  6
Continuous
 62
     7
370
     0
100
AcDbLine
 10
79.5428569573
 20
143.6401358466
 30
0.0
 11
79.7428569668
 21
145.6401361744
 31
0.0
  0
LINE
  5
16B
330
1F
100
AcDbEntity
  8
0
  6
Continuous
 62
     7
370
     0
100
AcDbLine
 10
79.7428569668
 20
143.1401348333
 30
0.0
 11
79.7428569668
 21
143.6401358466
 31
0.0
  0
LINE
  5
16C
330
1F
100
AcDbEntity
  8
0
  6
Continuous
 62
     7
370
     0
100
AcDbLine
 10
76.1428570286
 20
143.6401358466
 30
0.0
 11
76.1428570286
 21
143.1401348333
 31
0.0
  0
LINE
  5
16D
330
1F
100
AcDbEntity
  8
0
  6
Continuous
 62
     7
370
     0
100
AcDbLine
 10
76.1428570286
 20
143.1401348333
 30
0.0
 11
76.4428569847
 21
141.1401345055
 31
0.0
  0
LINE
  5
16E
330
1F
100
AcDbEntity
  8
0
  6
Continuous
 62
     7
370
     0
100
AcDbLine
 10
79.4428569525
 20
141.1401345055
 30
0.0
 11
79.7428569668
 21
143.1401348333
 31
0.0
  0
LINE
  5
16F
330
1F
100
AcDbEntity
  8
0
  6
Continuous
 62
     7
370
     0
100
AcDbLine
 10
79.5428569573
 20
146.1401334624
 30
0.0
 11
79.5428569573
 21
148.1401337903
 31
0.0
  0
LINE
  5
170
330
1F
100
AcDbEntity
  8
0
  6
Continuous
 62
     7
370
     0
100
AcDbLine
 10
76.3428569217
 20
148.1401337903
 30
0.0
 11
76.3428569217
 21
146.1401334624
 31
0.0
  0
ARC
  5
171
330
1F
100
AcDbEntity
  8
0
  6
Continuous
 62
     7
370
     0
100
AcDbCircle
 10
60.2363858919
 20
251.2906568696
 30
0.0
 40
0.2000000000000053
100
AcDbArc
 50
9.427139692
 51
99.427139692
  0
LWPOLYLINE
  5
172
330
1F
100
AcDbEntity
  8
0
  6
Continuous
 62
     7
370
     0
100
AcDbPolyline
 90
        3
 70
   128
 43
0.0
 10
60.9433678356
 20
248.2149204831
 10
60.9440439758
 20
248.2261634092
 10
60.9414437231
 20
248.2652789574
  0
LINE
  5
173
330
1F
100
AcDbEntity
  8
0
  6
Continuous
 62
     7
370
     0
100
AcDbLine
 10
60.2036276278
 20
251.4879530888
 30
0.0
 11
60.006328803
 21
251.4552003365
 31
0.0
  0
LINE
  5
174
330
1F
100
AcDbEntity
  8
0
  6
Continuous
 62
     7
370
     0
100
AcDbLine
 10
60.9250654843
 20
248.363932095
 30
0.0
 11
61.7142607835
 21
248.494965456
 31
0.0
  0
LINE
  5
175
330
1F
100
AcDbEntity
  8
0
  6
Continuous
 62
     7
370
     0
100
AcDbLine
 10
61.2392601934
 20
251.3558021407
 30
0.0
 11
60.4500648943
 21
251.2247687798
 31
0.0
  0
LINE
  5
176
330
1F
100
AcDbEntity
  8
0
  6
Continuous
 62
     7
370
     0
100
AcDbLine
 10
49.5967277703
 20
232.9502603631
 30
0.0
 11
49.7932796744
 21
231.7664674144
 31
0.0
  0
LINE
  5
177
330
1F
100
AcDbEntity
  8
0
  6
Continuous
 62
     7
370
     0
100
AcDbLine
 10
51.1743714479
 20
231.9957776587
 30
0.0
 11
50.9778195438
 21
233.1795706074
 31
0.0
  0
LINE
  5
178
330
1F
100
AcDbEntity
  8
0
  6
Continuous
 62
     7
370
     0
100
AcDbLine
 10
51.5697160181
 20
233.2778474908
 30
0.0
 11
51.7662679222
 21
232.0940508168
 31
0.0
  0
LINE
  5
179
330
1F
100
AcDbEntity
  8
0
  6
Continuous
 62
     7
370
     0
100
AcDbLine
 10
53.1473615584
 20
232.3233647864
 30
0.0
 11
52.9508096543
 21
233.5071577351
 31
0.0
  0
LINE
  5
17A
330
1F
100
AcDbEntity
  8
0
  6
Continuous
 62
     7
370
     0
100
AcDbLine
 10
50.1385526177
 20
231.8237921815
 30
0.0
 11
50.9575185743
 21
226.8913215618
 31
0.0
  0
LINE
  5
17B
330
1F
100
AcDbEntity
  8
0
  6
Continuous
 62
     7
370
     0
100
AcDbLine
 10
51.6480644611
 20
227.0059748213
 30
0.0
 11
50.8290985045
 21
231.9384491663
 31
0.0
  0
LINE
  5
17C
330
1F
100
AcDbEntity
  8
0
  6
Continuous
 62
     7
370
     0
100
AcDbLine
 10
52.1115427282
 20
232.1513793092
 30
0.0
 11
52.9305086848
 21
227.2189049642
 31
0.0
  0
LINE
  5
17D
330
1F
100
AcDbEntity
  8
0
  6
Continuous
 62
     7
370
     0
100
AcDbLine
 10
53.6210545716
 20
227.333561949
 30
0.0
 11
52.802088615
 21
232.266036294
 31
0.0
  0
LINE
  5
17E
330
1F
100
AcDbEntity
  8
0
  6
Continuous
 62
     7
370
     0
100
AcDbLine
 10
63.4428569493
 20
219.1401361148
 30
0.0
 11
72.9428571095
 21
219.1401361148
 31
0.0
  0
LINE
  5
17F
330
1F
100
AcDbEntity
  8
0
  6
Continuous
 62
     7
370
     0
100
AcDbLine
 10
72.9428571095
 20
219.1401361148
 30
0.0
 11
72.9428571095
 21
220.5401337366
 31
0.0
  0
LINE
  5
180
330
1F
100
AcDbEntity
  8
0
  6
Continuous
 62
     7
370
     0
100
AcDbLine
 10
72.9428571095
 20
220.5401337366
 30
0.0
 11
82.9428568859
 21
220.5401337366
 31
0.0
  0
LINE
  5
181
330
1F
100
AcDbEntity
  8
0
  6
Continuous
 62
     7
370
     0
100
AcDbLine
 10
82.9428568859
 20
220.5401337366
 30
0.0
 11
82.9428568859
 21
219.1401361148
 31
0.0
  0
LINE
  5
182
330
1F
100
AcDbEntity
  8
0
  6
Continuous
 62
     7
370
     0
100
AcDbLine
 10
82.9428568859
 20
219.1401361148
 30
0.0
 11
92.4428570461
 21
219.1401361148
 31
0.0
  0
LINE
  5
183
330
1F
100
AcDbEntity
  8
0
  6
Continuous
 62
     7
370
     0
100
AcDbLine
 10
92.4428570461
 20
219.1401361148
 30
0.0
 11
94.0428571221
 21
217.5401351075
 31
0.0
  0
LINE
  5
184
330
1F
100
AcDbEntity
  8
0
  6
Continuous
 62
     7
370
     0
100
AcDbLine
 10
94.0428571221
 20
217.5401351075
 30
0.0
 11
61.8428578046
 21
217.5401351075
 31
0.0
  0
LINE
  5
185
330
1F
100
AcDbEntity
  8
0
  6
Continuous
 62
     7
370
     0
100
AcDbLine
 10
61.8428578046
 20
217.5401351075
 30
0.0
 11
63.4428569493
 21
219.1401361148
 31
0.0
  0
LINE
  5
186
330
1F
100
AcDbEntity
  8
0
  6
Continuous
 62
     7
370
     0
100
AcDbLine
 10
96.4428567705
 20
167.1401350419
 30
0.0
 11
96.4428567705
 21
215.1401335965
 31
0.0
  0
LINE
  5
187
330
1F
100
AcDbEntity
  8
0
  6
Continuous
 62
     7
370
     0
100
AcDbLine
 10
96.4428567705
 20
167.1401350419
 30
0.0
 11
59.4428562936
 21
167.1401350419
 31
0.0
  0
LINE
  5
188
330
1F
100
AcDbEntity
  8
0
  6
Continuous
 62
     7
370
     0
100
AcDbLine
 10
59.4428562936
 20
215.1401335965
 30
0.0
 11
59.4428562936
 21
167.1401350419
 31
0.0
  0
LINE
  5
189
330
1F
100
AcDbEntity
  8
0
  6
Continuous
 62
     7
370
     0
100
AcDbLine
 10
96.4428567705
 20
215.1401335965
 30
0.0
 11
94.0428571221
 21
217.5401351075
 31
0.0
  0
CIRCLE
  5
18A
330
1F
100
AcDbEntity
  8
0
  6
Continuous
 62
     7
370
     0
100
AcDbCircle
 10
64.4428569741
 20
207.6401345241
 30
0.0
 40
2.300000000000011
  0
CIRCLE
  5
18B
330
1F
100
AcDbEntity
  8
0
  6
Continuous
 62
     7
370
     0
100
AcDbCircle
 10
91.4428569741
 20
207.6401345241
 30
0.0
 40
2.300000000000011
  0
CIRCLE
  5
18C
330
1F
100
AcDbEntity
  8
0
  6
Continuous
 62
     7
370
     0
100
AcDbCircle
 10
90.4428569741
 20
171.6401345241
 30
0.0
 40
2.625
  0
CIRCLE
  5
18D
330
1F
100
AcDbEntity
  8
0
  6
Continuous
 62
     7
370
     0
100
AcDbCircle
 10
65.4428569741
 20
171.6401345241
 30
0.0
 40
2.625
  0
CIRCLE
  5
18E
330
1F
100
AcDbEntity
  8
0
  6
Continuous
 62
     7
370
     0
100
AcDbCircle
 10
77.9428569741
 20
203.1401345241
 30
0.0
 40
2.625
  0
LINE
  5
18F
330
1F
100
AcDbEntity
  8
0
  6
Continuous
 62
     7
370
     0
100
AcDbLine
 10
61.8428578046
 20
217.5401351075
 30
0.0
 11
59.4428562936
 21
215.1401335965
 31
0.0
  0
LINE
  5
190
330
1F
100
AcDbEntity
  8
0
  6
Continuous
 62
     7
370
     0
100
AcDbLine
 10
58.4428561297
 20
167.1401350419
 30
0.0
 11
58.4428561297
 21
214.1401352953
 31
0.0
  0
LINE
  5
191
330
1F
100
AcDbEntity
  8
0
  6
Continuous
 62
     7
370
     0
100
AcDbLine
 10
59.4428562936
 20
167.1401350419
 30
0.0
 11
58.4428561297
 21
167.1401350419
 31
0.0
  0
LINE
  5
192
330
1F
100
AcDbEntity
  8
0
  6
Continuous
 62
     7
370
     0
100
AcDbLine
 10
58.4428561297
 20
214.1401352953
 30
0.0
 11
59.4428562936
 21
215.1401335965
 31
0.0
  0
CIRCLE
  5
193
330
1F
100
AcDbEntity
  8
0
  6
Continuous
 62
     7
370
     0
100
AcDbCircle
 10
64.4428569741
 20
207.6401345241
 30
0.0
 40
2.0
  0
LINE
  5
194
330
1F
100
AcDbEntity
  8
0
  6
Continuous
 62
     7
370
     0
100
AcDbLine
 10
97.4428569344
 20
214.1401352953
 30
0.0
 11
97.4428569344
 21
167.1401350419
 31
0.0
  0
LINE
  5
195
330
1F
100
AcDbEntity
  8
0
  6
Continuous
 62
     7
370
     0
100
AcDbLine
 10
97.4428569344
 20
167.1401350419
 30
0.0
 11
96.4428567705
 21
167.1401350419
 31
0.0
  0
LINE
  5
196
330
1F
100
AcDbEntity
  8
0
  6
Continuous
 62
     7
370
     0
100
AcDbLine
 10
96.4428567705
 20
215.1401335965
 30
0.0
 11
97.4428569344
 21
214.1401352953
 31
0.0
  0
CIRCLE
  5
197
330
1F
100
AcDbEntity
  8
0
  6
Continuous
 62
     7
370
     0
100
AcDbCircle
 10
77.9428569741
 20
203.1401345241
 30
0.0
 40
2.099999999999994
  0
CIRCLE
  5
198
330
1F
100
AcDbEntity
  8
0
  6
Continuous
 62
     7
370
     0
100
AcDbCircle
 10
91.4428569741
 20
207.6401345241
 30
0.0
 40
2.0
  0
CIRCLE
  5
199
330
1F
100
AcDbEntity
  8
0
  6
Continuous
 62
     7
370
     0
100
AcDbCircle
 10
65.4428569741
 20
171.6401345241
 30
0.0
 40
2.099999999999994
  0
CIRCLE
  5
19A
330
1F
100
AcDbEntity
  8
0
  6
Continuous
 62
     7
370
     0
100
AcDbCircle
 10
90.4428569741
 20
171.6401345241
 30
0.0
 40
2.099999999999994
  0
LINE
  5
19B
330
1F
100
AcDbEntity
  8
0
  6
Continuous
 62
     7
370
     0
100
AcDbLine
 10
71.9428569455
 20
152.1401344459
 30
0.0
 11
83.9428570499
 21
152.1401344459
 31
0.0
  0
LINE
  5
19C
330
1F
100
AcDbEntity
  8
0
  6
Continuous
 62
     7
370
     0
100
AcDbLine
 10
82.9428568859
 20
151.1401361446
 30
0.0
 11
72.9428571095
 21
151.1401361446
 31
0.0
  0
CIRCLE
  5
19D
330
1F
100
AcDbEntity
  8
0
  6
Continuous
 62
     7
370
     0
100
AcDbCircle
 10
64.4428569741
 20
207.6401345241
 30
0.0
 40
1.598076211353316
  0
CIRCLE
  5
19E
330
1F
100
AcDbEntity
  8
0
  6
Continuous
 62
     7
370
     0
100
AcDbCircle
 10
91.4428569741
 20
207.6401345241
 30
0.0
 40
1.598076211353316
  0
LINE
  5
19F
330
1F
100
AcDbEntity
  8
0
  6
Continuous
 62
     7
370
     0
100
AcDbLine
 10
64.7961580572
 20
256.2849274497
 30
0.0
 11
64.761543591
 21
256.248807035
 31
0.0
  0
LINE
  5
1A0
330
1F
100
AcDbEntity
  8
0
  6
Continuous
 62
     7
370
     0
100
AcDbLine
 10
64.7961580572
 20
256.2849274497
 30
0.0
 11
65.0058956262
 21
256.2893828969
 31
0.0
  0
LINE
  5
1A1
330
1F
100
AcDbEntity
  8
0
  6
Continuous
 62
     7
370
     0
100
AcDbLine
 10
69.5273791817
 20
256.385398529
 30
0.0
 11
69.7010494214
 21
256.3890865664
 31
0.0
  0
ARC
  5
1A2
330
1F
100
AcDbEntity
  8
0
  6
Continuous
 62
     7
370
     0
100
AcDbCircle
 10
69.7222813074
 20
255.3893143
 30
0.0
 40
1.000000000000005
100
AcDbArc
 50
7.6229633925
 51
91.2165847918
  0
LINE
  5
1A3
330
1F
100
AcDbEntity
  8
0
  6
Continuous
 62
     7
370
     0
100
AcDbLine
 10
70.7134436262
 20
255.5219656448
 30
0.0
 11
74.3992365342
 21
227.9824367385
 31
0.0
  0
LINE
  5
1A4
330
1F
100
AcDbEntity
  8
0
  6
Continuous
 62
     7
370
     0
100
AcDbLine
 10
74.3992365342
 20
227.9824367385
 30
0.0
 11
74.4221088853
 21
226.9054031591
 31
0.0
  0
CIRCLE
  5
1A5
330
1F
100
AcDbEntity
  8
0
  6
Continuous
 62
     7
370
     0
100
AcDbCircle
 10
66.4267334321
 20
252.4705286134
 30
0.0
 40
1.000000000000015
  0
CIRCLE
  5
1A6
330
1F
100
AcDbEntity
  8
0
  6
Continuous
 62
     7
370
     0
100
AcDbCircle
 10
71.3423988072
 20
225.9170686897
 30
0.0
 40
1.500000000000004
  0
LINE
  5
1A7
330
1F
100
AcDbEntity
  8
0
  6
Continuous
 62
     7
370
     0
100
AcDbLine
 10
62.0178086129
 20
223.1001942079
 30
0.0
 11
63.5289549273
 21
220.5649963241
 31
0.0
  0
LINE
  5
1A8
330
1F
100
AcDbEntity
  8
0
  6
Continuous
 62
     7
370
     0
100
AcDbLine
 10
62.6431507435
 20
225.5711159329
 30
0.0
 11
62.0178086129
 21
223.1001942079
 31
0.0
  0
ARC
  5
1A9
330
1F
100
AcDbEntity
  8
0
  6
Continuous
 62
     7
370
     0
100
AcDbCircle
 10
52.9487933798
 20
228.0245670772
 30
0.0
 40
10.00000000000001
100
AcDbArc
 50
345.7977619614
 51
9.427139692
  0
LINE
  5
1AA
330
1F
100
AcDbEntity
  8
0
  6
Continuous
 62
     7
370
     0
100
AcDbLine
 10
61.92791177
 20
234.9976761858
 30
0.0
 11
62.8137410995
 21
229.6624979596
 31
0.0
  0
LINE
  5
1AB
330
1F
100
AcDbEntity
  8
0
  6
Continuous
 62
     7
370
     0
100
AcDbLine
 10
61.92791177
 20
234.9976761858
 30
0.0
 11
66.3671371904
 21
235.7347434978
 31
0.0
  0
ARC
  5
1AC
330
1F
100
AcDbEntity
  8
0
  6
Continuous
 62
     7
370
     0
100
AcDbCircle
 10
66.0395505842
 20
237.7077345201
 30
0.0
 40
1.999999999999997
100
AcDbArc
 50
279.427139692
 51
9.427139692
  0
LINE
  5
1AD
330
1F
100
AcDbEntity
  8
0
  6
Continuous
 62
     7
370
     0
100
AcDbLine
 10
68.0125401732
 20
238.0353225987
 30
0.0
 11
66.2927105469
 21
248.3935183506
 31
0.0
  0
ARC
  5
1AE
330
1F
100
AcDbEntity
  8
0
  6
Continuous
 62
     7
370
     0
100
AcDbCircle
 10
64.3197213497
 20
248.0659287355
 30
0.0
 40
1.999999999999998
100
AcDbArc
 50
9.427139692
 51
99.427139692
  0
LINE
  5
1AF
330
1F
100
AcDbEntity
  8
0
  6
Continuous
 62
     7
370
     0
100
AcDbLine
 10
63.9921351713
 20
250.0389194708
 30
0.0
 11
61.5258989301
 21
249.6294355612
 31
0.0
  0
LINE
  5
1B0
330
1F
100
AcDbEntity
  8
0
  6
Continuous
 62
     7
370
     0
100
AcDbLine
 10
61.5258989301
 20
249.6294355612
 30
0.0
 11
60.8707246748
 21
253.5754120569
 31
0.0
  0
LINE
  5
1B1
330
1F
100
AcDbEntity
  8
0
  6
Continuous
 62
     7
370
     0
100
AcDbLine
 10
62.5161276576
 20
255.8759874325
 30
0.0
 11
60.8707246748
 21
253.5754120569
 31
0.0
  0
LINE
  5
1B2
330
1F
100
AcDbEntity
  8
0
  6
Continuous
 62
     7
370
     0
100
AcDbLine
 10
69.4215911818
 20
257.0225423794
 30
0.0
 11
62.5161276576
 21
255.8759874325
 31
0.0
  0
LINE
  5
1B3
330
1F
100
AcDbEntity
  8
0
  6
Continuous
 62
     7
370
     0
100
AcDbLine
 10
75.0560787883
 20
223.0871258895
 30
0.0
 11
69.4215911818
 21
257.0225423794
 31
0.0
  0
LINE
  5
1B4
330
1F
100
AcDbEntity
  8
0
  6
Continuous
 62
     7
370
     0
100
AcDbLine
 10
74.562458266
 20
222.3969525318
 30
0.0
 11
75.0560787883
 21
223.0871258895
 31
0.0
  0
LINE
  5
1B5
330
1F
100
AcDbEntity
  8
0
  6
Continuous
 62
     7
370
     0
100
AcDbLine
 10
63.5289549273
 20
220.5649963241
 30
0.0
 11
74.562458266
 21
222.3969525318
 31
0.0
  0
LINE
  5
1B6
330
1F
100
AcDbEntity
  8
0
  6
Continuous
 62
     7
370
     0
100
AcDbLine
 10
61.5258989301
 20
249.6294355612
 30
0.0
 11
61.738829073
 21
248.3469894748
 31
0.0
  0
ARC
  5
1B7
330
1F
100
AcDbEntity
  8
0
  6
Continuous
 62
     7
370
     0
100
AcDbCircle
 10
68.5764785585
 20
219.375686177
 30
0.0
 40
2.0
100
AcDbArc
 50
99.427139692
 51
186.7637565217
  0
LINE
  5
1B8
330
1F
100
AcDbEntity
  8
0
  6
Continuous
 62
     7
370
     0
100
AcDbLine
 10
58.4428561297
 20
191.88227082
 30
0.0
 11
56.729203966
 21
202.2032639604
 31
0.0
  0
LINE
  5
1B9
330
1F
100
AcDbEntity
  8
0
  6
Continuous
 62
     7
370
     0
100
AcDbLine
 10
56.729203966
 20
202.2032639604
 30
0.0
 11
58.4428561297
 21
208.9744391512
 31
0.0
  0
LINE
  5
1BA
330
1F
100
AcDbEntity
  8
0
  6
Continuous
 62
     7
370
     0
100
AcDbLine
 10
60.1931614247
 20
215.8904387276
 30
0.0
 11
62.0178086129
 21
223.1001942079
 31
0.0
  0
LINE
  5
1BB
330
1F
100
AcDbEntity
  8
0
  6
Continuous
 62
     7
370
     0
100
AcDbLine
 10
77.0617385306
 20
148.4401351433
 30
0.0
 11
78.3264395168
 21
148.4401351433
 31
0.0
  0
LINE
  5
1BC
330
1F
100
AcDbEntity
  8
0
  6
Continuous
 62
     7
370
     0
100
AcDbLine
 10
77.0617385306
 20
148.4401351433
 30
0.0
 11
77.0617385306
 21
151.1401361446
 31
0.0
  0
LINE
  5
1BD
330
1F
100
AcDbEntity
  8
0
  6
Continuous
 62
     7
370
     0
100
AcDbLine
 10
78.3264395168
 20
151.1401361446
 30
0.0
 11
78.3264395168
 21
148.4401351433
 31
0.0
  0
SPLINE
  5
1BE
330
1F
100
AcDbEntity
  8
0
  6
Continuous
 62
     7
370
     0
100
AcDbSpline
210
0.0
220
0.0
230
1.0
 70
     8
 71
     3
 72
     8
 73
     4
 74
     0
 42
0.000000001
 43
0.00000001
 40
0.0
 40
0.0
 40
0.0
 40
0.0
 40
1.0
 40
1.0
 40
1.0
 40
1.0
 10
78.32643950975091
 20
148.4401345237146
 30
0.0
 10
78.78178815923009
 20
148.2531780020904
 30
0.0
 10
79.24969645263234
 20
148.1401345238972
 30
0.0
 10
79.73681361251543
 20
148.1401345239988
 30
0.0
  0
LINE
  5
1BF
330
1F
100
AcDbEntity
  8
0
  6
Continuous
 62
     7
370
     0
100
AcDbLine
 10
75.7436619052
 20
148.1401337903
 30
0.0
 11
79.7368136146
 21
148.1401337903
 31
0.0
  0
SPLINE
  5
1C0
330
1F
100
AcDbEntity
  8
0
  6
Continuous
 62
     7
370
     0
100
AcDbSpline
210
0.0
220
0.0
230
1.0
 70
     8
 71
     3
 72
     8
 73
     4
 74
     0
 42
0.000000001
 43
0.00000001
 40
0.0
 40
0.0
 40
0.0
 40
0.0
 40
1.0
 40
1.0
 40
1.0
 40
1.0
 10
75.74366189963767
 20
148.1401345241181
 30
0.0
 10
76.19890122638311
 20
148.1401345242299
 30
0.0
 10
76.63618874992969
 20
148.2531780025775
 30
0.0
 10
77.06173855535813
 20
148.4401345242305
 30
0.0
  0
LINE
  5
1C1
330
1F
100
AcDbEntity
  8
0
  6
Continuous
 62
     7
370
     0
100
AcDbLine
 10
81.1471877997
 20
148.4401351433
 30
0.0
 11
81.1471877997
 21
151.1401361446
 31
0.0
  0
SPLINE
  5
1C2
330
1F
100
AcDbEntity
  8
0
  6
Continuous
 62
     7
370
     0
100
AcDbSpline
210
0.0
220
0.0
230
1.0
 70
     8
 71
     3
 72
     8
 73
     4
 74
     0
 42
0.000000001
 43
0.00000001
 40
0.0
 40
0.0
 40
0.0
 40
0.0
 40
1.0
 40
1.0
 40
1.0
 40
1.0
 10
79.73681361250401
 20
148.1401345240139
 30
0.0
 10
80.22393077227188
 20
148.1401345241162
 30
0.0
 10
80.69183906529489
 20
148.2531780023496
 30
0.0
 10
81.14718771464568
 20
148.4401345240012
 30
0.0
  0
SPLINE
  5
1C3
330
1F
100
AcDbEntity
  8
0
  6
Continuous
 62
     7
370
     0
100
AcDbSpline
210
0.0
220
0.0
230
1.0
 70
     8
 71
     3
 72
     8
 73
     4
 74
     0
 42
0.000000001
 43
0.00000001
 40
0.0
 40
0.0
 40
0.0
 40
0.0
 40
1.0
 40
1.0
 40
1.0
 40
1.0
 10
74.42558524229327
 20
148.4401345243441
 30
0.0
 10
74.85113504830598
 20
148.253178002403
 30
0.0
 10
75.28842257225209
 20
148.1401345240063
 30
0.0
 10
75.74366189963767
 20
148.1401345241181
 30
0.0
  0
LINE
  5
1C4
330
1F
100
AcDbEntity
  8
0
  6
Continuous
 62
     7
370
     0
100
AcDbLine
 10
74.4255850469
 20
151.1401361446
 30
0.0
 11
74.4255850469
 21
148.4401351433
 31
0.0
  0
LINE
  5
1C5
330
1F
100
AcDbEntity
  8
0
  6
Continuous
 62
     7
370
     0
100
AcDbLine
 10
81.1471877997
 20
148.4401351433
 30
0.0
 11
81.8437111475
 21
148.4401351433
 31
0.0
  0
SPLINE
  5
1C6
330
1F
100
AcDbEntity
  8
0
  6
Continuous
 62
     7
370
     0
100
AcDbSpline
210
0.0
220
0.0
230
1.0
 70
     8
 71
     3
 72
     8
 73
     4
 74
     0
 42
0.000000001
 43
0.00000001
 40
0.0
 40
0.0
 40
0.0
 40
0.0
 40
1.0
 40
1.0
 40
1.0
 40
1.0
 10
81.84371124033568
 20
148.440134523852
 30
0.0
 10
81.87351008418894
 20
148.253178002234
 30
0.0
 10
81.90413085396754
 20
148.140134524039
 30
0.0
 10
81.93600868692587
 20
148.1401345239988
 30
0.0
  0
LINE
  5
1C7
330
1F
100
AcDbEntity
  8
0
  6
Continuous
 62
     7
370
     0
100
AcDbLine
 10
79.7368136146
 20
148.1401337903
 30
0.0
 11
81.9360087071
 21
148.1401337903
 31
0.0
  0
LINE
  5
1C8
330
1F
100
AcDbEntity
  8
0
  6
Continuous
 62
     7
370
     0
100
AcDbLine
 10
74.4255850469
 20
148.4401351433
 30
0.0
 11
73.8574079615
 21
148.4401351433
 31
0.0
  0
SPLINE
  5
1C9
330
1F
100
AcDbEntity
  8
0
  6
Continuous
 62
     7
370
     0
100
AcDbSpline
210
0.0
220
0.0
230
1.0
 70
     8
 71
     3
 72
     8
 73
     4
 74
     0
 42
0.000000001
 43
0.00000001
 40
0.0
 40
0.0
 40
0.0
 40
0.0
 40
1.0
 40
1.0
 40
1.0
 40
1.0
 10
73.9497052612507
 20
148.1401345240042
 30
0.0
 10
73.91782742825595
 20
148.1401345238809
 30
0.0
 10
73.88720665842006
 20
148.2531780022248
 30
0.0
 10
73.8574078145346
 20
148.4401345241198
 30
0.0
  0
LINE
  5
1CA
330
1F
100
AcDbEntity
  8
0
  6
Continuous
 62
     7
370
     0
100
AcDbLine
 10
75.7436619052
 20
148.1401337903
 30
0.0
 11
73.9497052883
 21
148.1401337903
 31
0.0
  0
LINE
  5
1CB
330
1F
100
AcDbEntity
  8
0
  6
Continuous
 62
     7
370
     0
100
AcDbLine
 10
81.8437111475
 20
151.1401361446
 30
0.0
 11
81.8437111475
 21
148.4401351433
 31
0.0
  0
LINE
  5
1CC
330
1F
100
AcDbEntity
  8
0
  6
Continuous
 62
     7
370
     0
100
AcDbLine
 10
73.8574079615
 20
148.4401351433
 30
0.0
 11
73.8574079615
 21
151.1401361446
 31
0.0
  0
LINE
  5
1CD
330
1F
100
AcDbEntity
  8
0
  6
Continuous
 62
     7
370
     0
100
AcDbLine
 10
82.0283060339
 20
148.4401351433
 30
0.0
 11
82.0283060339
 21
151.1401361446
 31
0.0
  0
SPLINE
  5
1CE
330
1F
100
AcDbEntity
  8
0
  6
Continuous
 62
     7
370
     0
100
AcDbSpline
210
0.0
220
0.0
230
1.0
 70
     8
 71
     3
 72
     8
 73
     4
 74
     0
 42
0.000000001
 43
0.00000001
 40
0.0
 40
0.0
 40
0.0
 40
0.0
 40
1.0
 40
1.0
 40
1.0
 40
1.0
 10
81.93600868688975
 20
148.1401345240139
 30
0.0
 10
81.96788651985739
 20
148.1401345239745
 30
0.0
 10
81.99850728969062
 20
148.2531780021885
 30
0.0
 10
82.02830613355248
 20
148.4401345238638
 30
0.0
  0
LINE
  5
1CF
330
1F
100
AcDbEntity
  8
0
  6
Continuous
 62
     7
370
     0
100
AcDbLine
 10
76.1428570286
 20
145.6401361744
 30
0.0
 11
79.7428569668
 21
145.6401361744
 31
0.0
  0
LINE
  5
1D0
330
1F
100
AcDbEntity
  8
0
  6
Continuous
 62
     7
370
     0
100
AcDbLine
 10
76.1428570286
 20
146.1401334624
 30
0.0
 11
79.7428569668
 21
146.1401334624
 31
0.0
  0
LINE
  5
1D1
330
1F
100
AcDbEntity
  8
0
  6
Continuous
 62
     7
370
     0
100
AcDbLine
 10
76.1428570286
 20
143.1401348333
 30
0.0
 11
79.7428569668
 21
143.1401348333
 31
0.0
  0
LINE
  5
1D2
330
1F
100
AcDbEntity
  8
0
  6
Continuous
 62
     7
370
     0
100
AcDbLine
 10
76.1428570286
 20
143.6401358466
 30
0.0
 11
79.7428569668
 21
143.6401358466
 31
0.0
  0
LINE
  5
1D3
330
1F
100
AcDbEntity
  8
0
  6
Continuous
 62
     7
370
     0
100
AcDbLine
 10
76.4428569847
 20
141.1401345055
 30
0.0
 11
79.4428569525
 21
141.1401345055
 31
0.0
  0
SPLINE
  5
1D4
330
1F
100
AcDbEntity
  8
0
  6
Continuous
 62
     7
370
     0
100
AcDbSpline
210
0.0
220
0.0
230
1.0
 70
     8
 71
     3
 72
    12
 73
     8
 74
     0
 42
0.000000001
 43
0.00000001
 40
0.0
 40
0.0
 40
0.0
 40
0.0
 40
0.2499999999999947
 40
0.2499999999999947
 40
0.4999999999999893
 40
0.4999999999999893
 40
1.0
 40
1.0
 40
1.0
 40
1.0
 10
65.88976488479918
 20
251.6269263497533
 30
0.0
 10
65.92190928301697
 20
251.6064658418114
 30
0.0
 10
65.95781081501936
 20
251.5971784470094
 30
0.0
 10
66.01900362574455
 20
251.594498274139
 30
0.0
 10
66.04544576107597
 20
251.6000863488654
 30
0.0
 10
66.11276650629742
 20
251.625538082354
 30
0.0
 10
66.14363716126289
 20
251.6541374645184
 30
0.0
 10
66.16466366102675
 20
251.6863671035089
 30
0.0
  0
SPLINE
  5
1D5
330
1F
100
AcDbEntity
  8
0
  6
Continuous
 62
     7
370
     0
100
AcDbSpline
210
0.0
220
0.0
230
1.0
 70
     8
 71
     3
 72
    12
 73
     8
 74
     0
 42
0.000000001
 43
0.00000001
 40
0.0
 40
0.0
 40
0.0
 40
0.0
 40
0.5000000000000034
 40
0.5000000000000034
 40
0.7500000000000017
 40
0.7500000000000017
 40
1.0
 40
1.0
 40
1.0
 40
1.0
 10
66.68880320317382
 20
251.6863671035089
 30
0.0
 10
66.70982324213274
 20
251.6541473677078
 30
0.0
 10
66.74001646243381
 20
251.6258877031755
 30
0.0
 10
66.80787108166696
 20
251.6000980288593
 30
0.0
 10
66.83423426480717
 20
251.5945186120425
 30
0.0
 10
66.89549082071652
 20
251.5971410383167
 30
0.0
 10
66.93157618684899
 20
251.6064776846639
 30
0.0
 10
66.96370197940138
 20
251.6269263497533
 30
0.0
  0
ARC
  5
1D6
330
1F
100
AcDbEntity
  8
0
  6
Continuous
 62
     7
370
     0
100
AcDbCircle
 10
66.4267334321
 20
252.4705286134
 30
0.0
 40
0.8267949192431002
100
AcDbArc
 50
288.4798247181
 51
251.5201752819
  0
ARC
  5
1D7
330
1F
100
AcDbEntity
  8
0
  6
Continuous
 62
     7
370
     0
100
AcDbCircle
 10
66.4267334321
 20
252.4705286134
 30
0.0
 40
0.6000000000000378
100
AcDbArc
 50
302.4775121859
 51
237.5224878141
  0
ARC
  5
1D8
330
1F
100
AcDbEntity
  8
0
  6
Continuous
 62
     7
370
     0
100
AcDbCircle
 10
65.9971585943
 20
251.7956468025
 30
0.0
 40
0.2000000000000104
100
AcDbArc
 50
342.0
 51
57.5224878141
  0
ARC
  5
1D9
330
1F
100
AcDbEntity
  8
0
  6
Continuous
 62
     7
370
     0
100
AcDbCircle
 10
66.8563082699
 20
251.7956468025
 30
0.0
 40
0.1999999999999968
100
AcDbArc
 50
122.4775121859
 51
198.0
  0
ARC
  5
1DA
330
1F
100
AcDbEntity
  8
0
  6
Continuous
 62
     7
370
     0
100
AcDbCircle
 10
65.9971585943
 20
251.7956468025
 30
0.0
 40
0.2000000000000104
100
AcDbArc
 50
326.8797162241
 51
342.0
  0
ARC
  5
1DB
330
1F
100
AcDbEntity
  8
0
  6
Continuous
 62
     7
370
     0
100
AcDbCircle
 10
66.8563082699
 20
251.7956468025
 30
0.0
 40
0.1999999999999968
100
AcDbArc
 50
198.0
 51
213.1202837759
  0
SPLINE
  5
1DC
330
1F
100
AcDbEntity
  8
0
  6
Continuous
 62
     7
370
     0
100
AcDbSpline
210
0.0
220
0.0
230
1.0
 70
     8
 71
     3
 72
    14
 73
    10
 74
     0
 42
0.000000001
 43
0.00000001
 40
0.0
 40
0.0
 40
0.0
 40
0.0
 40
0.5000000000000234
 40
0.5000000000000234
 40
0.7500000000000225
 40
0.7500000000000225
 40
0.8750000000000113
 40
0.8750000000000113
 40
1.0
 40
1.0
 40
1.0
 40
1.0
 10
70.96263163773301
 20
227.2292433353608
 30
0.0
 10
70.94532451300319
 20
227.2502913050549
 30
0.0
 10
70.92321769106823
 20
227.2696182772
 30
0.0
 10
70.87467239422551
 20
227.2916661068341
 30
0.0
 10
70.85591817779283
 20
227.2980420975628
 30
0.0
 10
70.81854676526383
 20
227.3023406291603
 30
0.0
 10
70.8045694180441
 20
227.302905883486
 30
0.0
 10
70.77077580146438
 20
227.2994275440786
 30
0.0
 10
70.74886119822663
 20
227.2948728308439
 30
0.0
 10
70.725958106451
 20
227.2845484381353
 30
0.0
  0
ARC
  5
1DD
330
1F
100
AcDbEntity
  8
0
  6
Continuous
 62
     7
370
     0
100
AcDbCircle
 10
71.3423988072
 20
225.9170686897
 30
0.0
 40
1.366025403784463
100
AcDbArc
 50
106.1414033176
 51
73.8585966824
  0
SPLINE
  5
1DE
330
1F
100
AcDbEntity
  8
0
  6
Continuous
 62
     7
370
     0
100
AcDbSpline
210
0.0
220
0.0
230
1.0
 70
     8
 71
     3
 72
    14
 73
    10
 74
     0
 42
0.000000001
 43
0.00000001
 40
0.0
 40
0.0
 40
0.0
 40
0.0
 40
0.1250000000000019
 40
0.1250000000000019
 40
0.2500000000000038
 40
0.2500000000000038
 40
0.5000000000000099
 40
0.5000000000000099
 40
1.0
 40
1.0
 40
1.0
 40
1.0
 10
71.95883950800487
 20
227.2845484381353
 30
0.0
 10
71.93608314558173
 20
227.2948066873087
 30
0.0
 10
71.91438233837404
 20
227.2993691148082
 30
0.0
 10
71.88035748855037
 20
227.3029135916644
 30
0.0
 10
71.86632740277318
 20
227.3023363392344
 30
0.0
 10
71.82934619345876
 20
227.2981216488153
 30
0.0
 10
71.81051955722603
 20
227.2918159561872
 30
0.0
 10
71.76159764877389
 20
227.2696841036448
 30
0.0
 10
71.73948049292915
 20
227.2503002941606
 30
0.0
 10
71.72216597672286
 20
227.2292433353609
 30
0.0
  0
LINE
  5
1DF
330
1F
100
AcDbEntity
  8
0
  6
Continuous
 62
     7
370
     0
100
AcDbLine
 10
71.0548776579
 20
226.9598221998
 30
0.0
 11
71.0009550121
 21
227.155381314
 31
0.0
  0
ARC
  5
1E0
330
1F
100
AcDbEntity
  8
0
  6
Continuous
 62
     7
370
     0
100
AcDbCircle
 10
70.8620725765
 20
226.906657853
 30
0.0
 40
0.2000000000000066
100
AcDbArc
 50
295.8909827371
 51
15.4153010407
  0
ARC
  5
1E1
330
1F
100
AcDbEntity
  8
0
  6
Continuous
 62
     7
370
     0
100
AcDbCircle
 10
71.3423988072
 20
225.9170686897
 30
0.0
 40
0.9000000000000107
100
AcDbArc
 50
115.8909827371
 51
64.1090172629
  0
ARC
  5
1E2
330
1F
100
AcDbEntity
  8
0
  6
Continuous
 62
     7
370
     0
100
AcDbCircle
 10
71.8227250379
 20
226.906657853
 30
0.0
 40
0.2000000000000004
100
AcDbArc
 50
164.5846989593
 51
244.1090172629
  0
LINE
  5
1E3
330
1F
100
AcDbEntity
  8
0
  6
Continuous
 62
     7
370
     0
100
AcDbLine
 10
71.6838426334
 20
227.155381314
 30
0.0
 11
71.6299199876
 21
226.9598221998
 31
0.0
  0
ARC
  5
1E4
330
1F
100
AcDbEntity
  8
0
  6
Continuous
 62
     7
370
     0
100
AcDbCircle
 10
71.8766474146
 20
227.102217805
 30
0.0
 40
0.2000000000000109
100
AcDbArc
 50
140.5705471975
 51
164.5846989593
  0
ARC
  5
1E5
330
1F
100
AcDbEntity
  8
0
  6
Continuous
 62
     7
370
     0
100
AcDbCircle
 10
70.8081501999
 20
227.102217805
 30
0.0
 40
0.2000000000000109
100
AcDbArc
 50
15.4153010407
 51
39.4294528025
  0
LINE
  5
1E6
330
1F
100
AcDbEntity
  8
0
  6
Continuous
 62
     7
370
     0
100
AcDbLine
 10
65.8738901284
 20
235.6528467159
 30
0.0
 11
66.6965916199
 21
236.803138129
 31
0.0
  0
LINE
  5
1E7
330
1F
100
AcDbEntity
  8
0
  6
Continuous
 62
     7
370
     0
100
AcDbLine
 10
61.92791177
 20
234.9976761858
 30
0.0
 11
48.5115823713
 21
232.7700866978
 31
0.0
  0
LINE
  5
1E8
330
1F
100
AcDbEntity
  8
0
  6
Continuous
 62
     7
370
     0
100
AcDbLine
 10
59.2417017934
 20
251.1761909943
 30
0.0
 11
59.0615281281
 21
252.2613308053
 31
0.0
  0
LINE
  5
1E9
330
1F
100
AcDbEntity
  8
0
  6
Continuous
 62
     7
370
     0
100
AcDbLine
 10
54.210578036
 20
250.3408393483
 30
0.0
 11
59.2417017934
 21
251.1761909943
 31
0.0
  0
ARC
  5
1EA
330
1F
100
AcDbEntity
  8
0
  6
Continuous
 62
     7
370
     0
100
AcDbCircle
 10
54.4726478538
 20
248.7624512159
 30
0.0
 40
1.600000000000025
100
AcDbArc
 50
99.427139692
 51
279.427139692
  0
LINE
  5
1EB
330
1F
100
AcDbEntity
  8
0
  6
Continuous
 62
     7
370
     0
100
AcDbLine
 10
62.7253231969
 20
248.5107830386
 30
0.0
 11
54.7347170678
 21
247.1840581517
 31
0.0
  0
LINE
  5
1EC
330
1F
100
AcDbEntity
  8
0
  6
Continuous
 62
     7
370
     0
100
AcDbLine
 10
65.0258995038
 20
246.8653819184
 30
0.0
 11
62.7253231969
 21
248.5107830386
 31
0.0
  0
LINE
  5
1ED
330
1F
100
AcDbEntity
  8
0
  6
Continuous
 62
     7
370
     0
100
AcDbLine
 10
65.0258995038
 20
246.8653819184
 30
0.0
 11
66.6965916199
 21
236.803138129
 31
0.0
  0
LINE
  5
1EE
330
1F
100
AcDbEntity
  8
0
  6
Continuous
 62
     7
370
     0
100
AcDbLine
 10
48.5115823713
 20
232.7700866978
 30
0.0
 11
45.645200592
 21
250.0337413173
 31
0.0
  0
LINE
  5
1EF
330
1F
100
AcDbEntity
  8
0
  6
Continuous
 62
     7
370
     0
100
AcDbLine
 10
59.0615281281
 20
252.2613308053
 30
0.0
 11
45.645200592
 21
250.0337413173
 31
0.0
  0
LINE
  5
1F0
330
1F
100
AcDbEntity
  8
0
  6
Continuous
 62
     7
370
     0
100
AcDbLine
 10
59.0615281281
 20
252.2613308053
 30
0.0
 11
58.9796332088
 21
252.7545815926
 31
0.0
  0
ARC
  5
1F1
330
1F
100
AcDbEntity
  8
0
  6
Continuous
 62
     7
370
     0
100
AcDbCircle
 10
46.1384485532
 20
250.1156407879
 30
0.0
 40
0.5000000000000028
100
AcDbArc
 50
99.427139692
 51
189.427139692
  0
LINE
  5
1F2
330
1F
100
AcDbEntity
  8
0
  6
Continuous
 62
     7
370
     0
100
AcDbLine
 10
58.9796332088
 20
252.7545815926
 30
0.0
 11
46.056550872
 21
250.6088888864
 31
0.0
  0
CIRCLE
  5
1F3
330
1F
100
AcDbEntity
  8
0
  6
Continuous
 62
     7
370
     0
100
AcDbCircle
 10
54.4644581907
 20
248.8117759502
 30
0.0
 40
1.199999999999997
  0
CIRCLE
  5
1F4
330
1F
100
AcDbEntity
  8
0
  6
Continuous
 62
     7
370
     0
100
AcDbCircle
 10
54.4644581907
 20
248.8117759502
 30
0.0
 40
1.500000000000005
  0
LINE
  5
1F5
330
1F
100
AcDbEntity
  8
0
  6
Continuous
 62
     7
370
     0
100
AcDbLine
 10
59.7658408251
 20
248.0194023471
 30
0.0
 11
59.2417017934
 21
251.1761909943
 31
0.0
  0
LINE
  5
1F6
330
1F
100
AcDbEntity
  8
0
  6
Continuous
 62
     7
370
     0
100
AcDbLine
 10
59.0697181788
 20
252.2120079617
 30
0.0
 11
59.858913478
 21
252.3430413227
 31
0.0
  0
LINE
  5
1F7
330
1F
100
AcDbEntity
  8
0
  6
Continuous
 62
     7
370
     0
100
AcDbLine
 10
59.858913478
 20
252.3430413227
 30
0.0
 11
60.5550361243
 21
248.1504431586
 31
0.0
  0
LWPOLYLINE
  5
1F8
330
1F
100
AcDbEntity
  8
0
  6
Continuous
 62
     7
370
     0
100
AcDbPolyline
 90
        7
 70
   128
 43
0.0
 10
60.6875651893
 20
249.7943467121
 10
60.7623969582
 20
249.3436461906
 10
60.8305790839
 20
248.9329925399
 10
60.886056107
 20
248.5988787036
 10
60.9238938805
 20
248.3709803443
 10
60.9407340553
 20
248.2695555906
 10
60.9414437231
 20
248.2652789574
  0
LWPOLYLINE
  5
1F9
330
1F
100
AcDbEntity
  8
0
  6
Continuous
 62
     7
370
     0
100
AcDbPolyline
 90
        7
 70
   128
 43
0.0
 10
60.4336847928
 20
251.3234144669
 10
60.4343944606
 20
251.3191378336
 10
60.4512346354
 20
251.2177205305
 10
60.4890742716
 20
250.9898221712
 10
60.5445494321
 20
250.6557008843
 10
60.6127315578
 20
250.2450472336
 10
60.6875651893
 20
249.7943467121
  0
LWPOLYLINE
  5
1FA
330
1F
100
AcDbEntity
  8
0
  6
Continuous
 62
     7
370
     0
100
AcDbPolyline
 90
        9
 70
   128
 43
0.0
 10
51.1743714479
 20
231.9957776587
 10
51.1218076018
 20
231.9870493035
 10
50.9721161243
 20
231.9621941667
 10
50.748086479
 20
231.924997143
 10
50.4838255611
 20
231.8811206739
 10
50.2195646432
 20
231.8372442048
 10
49.9955349979
 20
231.8000471811
 10
49.8458435205
 20
231.7751920443
 10
49.7932796744
 20
231.7664674144
  0
LWPOLYLINE
  5
1FB
330
1F
100
AcDbEntity
  8
0
  6
Continuous
 62
     7
370
     0
100
AcDbPolyline
 90
        9
 70
   128
 43
0.0
 10
53.1473615584
 20
232.3233647864
 10
53.0947958496
 20
232.3146364312
 10
52.9451043722
 20
232.2897812943
 10
52.7210747269
 20
232.2525842707
 10
52.4568156716
 20
232.2087078016
 10
52.1925547537
 20
232.1648313324
 10
51.9685251084
 20
232.1276343088
 10
51.818833631
 20
232.1027791719
 10
51.7662679222
 20
232.0940508168
  0
LWPOLYLINE
  5
1FC
330
1F
100
AcDbEntity
  8
0
  6
Continuous
 62
     7
370
     0
100
AcDbPolyline
 90
        9
 70
   128
 43
0.0
 10
51.6480644611
 20
227.0059748213
 10
51.621782538
 20
227.0016125064
 10
51.5469377306
 20
226.989184938
 10
51.4349219766
 20
226.9705845635
 10
51.3027915177
 20
226.9486463289
 10
51.1706610587
 20
226.9267080944
 10
51.0586471674
 20
226.9081114452
 10
50.9838004974
 20
226.8956838767
 10
50.9575185743
 20
226.8913215618
  0
LWPOLYLINE
  5
1FD
330
1F
100
AcDbEntity
  8
0
  6
Continuous
 62
     7
370
     0
100
AcDbPolyline
 90
        9
 70
   128
 43
0.0
 10
53.6210545716
 20
227.333561949
 10
53.5947726485
 20
227.3291996341
 10
53.5199259785
 20
227.3167720656
 10
53.4079120871
 20
227.2981716912
 10
53.2757816282
 20
227.2762334566
 10
53.1436511692
 20
227.254295222
 10
53.0316354153
 20
227.2356985729
 10
52.9567906079
 20
227.2232710044
 10
52.9305086848
 20
227.2189049642
  0
LWPOLYLINE
  5
1FE
330
1F
100
AcDbEntity
  8
0
  6
Continuous
 62
     7
370
     0
100
AcDbPolyline
 90
        9
 70
   128
 43
0.0
 10
62.8584762481
 20
237.9680028777
 10
62.7795950887
 20
237.9413223486
 10
62.7009802875
 20
237.9147312264
 10
62.6226635095
 20
237.8882444124
 10
62.5446838704
 20
237.8618656318
 10
62.4670730349
 20
237.8356172364
 10
62.3898663935
 20
237.8095029514
 10
62.3130993363
 20
237.7835339527
 10
62.236805391
 20
237.7577288668
  0
ARC
  5
1FF
330
1F
100
AcDbEntity
  8
0
  6
Continuous
 62
     7
370
     0
100
AcDbCircle
 10
70.7202757723
 20
240.2366187541
 30
0.0
 40
8.83822181119839
100
AcDbArc
 50
196.2884861576
 51
201.0870928016
  0
LWPOLYLINE
  5
200
330
1F
100
AcDbEntity
  8
0
  6
Continuous
 62
     7
370
     0
100
AcDbPolyline
 90
        9
 70
   128
 43
0.0
 10
62.4739089426
 20
237.0567447166
 10
62.550202888
 20
237.0825498025
 10
62.6269699451
 20
237.1085150759
 10
62.7041747239
 20
237.1346293609
 10
62.7817855594
 20
237.1608814816
 10
62.8597670612
 20
237.187256537
 10
62.9380819765
 20
237.2137470763
 10
63.0166986403
 20
237.2403381984
 10
63.0955797997
 20
237.2670187275
  0
ARC
  5
201
330
1F
100
AcDbEntity
  8
0
  6
Continuous
 62
     7
370
     0
100
AcDbCircle
 10
63.491417236
 20
237.7914987126
 30
0.0
 40
0.6570903894995147
100
AcDbArc
 50
232.9573018829
 51
254.4179939915
  0
LWPOLYLINE
  5
202
330
1F
100
AcDbEntity
  8
0
  6
Continuous
 62
     7
370
     0
100
AcDbPolyline
 90
        9
 70
   128
 43
0.0
 10
63.3149109226
 20
237.1585569005
 10
63.3415923831
 20
237.0796776037
 10
63.3681835052
 20
237.0010628026
 10
63.3946731132
 20
236.9227460246
 10
63.4210490999
 20
236.8447645228
 10
63.4473002893
 20
236.76715555
 10
63.4734145743
 20
236.6899489086
 10
63.499380779
 20
236.6131818514
 10
63.5251858649
 20
236.5368879061
  0
ARC
  5
203
330
1F
100
AcDbEntity
  8
0
  6
Continuous
 62
     7
370
     0
100
AcDbCircle
 10
61.0468921075
 20
245.0186333244
 30
0.0
 40
8.836398886909505
100
AcDbArc
 50
286.2879129966
 51
291.0875273351
  0
LWPOLYLINE
  5
204
330
1F
100
AcDbEntity
  8
0
  6
Continuous
 62
     7
370
     0
100
AcDbPolyline
 90
        9
 70
   128
 43
0.0
 10
64.226172809
 20
236.7739914577
 10
64.2003667918
 20
236.850285403
 10
64.1744015184
 20
236.9270487349
 10
64.1482872334
 20
237.0042553763
 10
64.122036044
 20
237.0818680744
 10
64.0956600574
 20
237.1598495762
 10
64.0691704494
 20
237.2381626289
 10
64.0425793272
 20
237.3167811553
 10
64.0158978668
 20
237.3956604521
  0
ARC
  5
205
330
1F
100
AcDbEntity
  8
0
  6
Continuous
 62
     7
370
     0
100
AcDbCircle
 10
63.491417236
 20
237.7914987126
 30
0.0
 40
0.657090389499509
100
AcDbArc
 50
322.9573018829
 51
344.4179939915
  0
LWPOLYLINE
  5
206
330
1F
100
AcDbEntity
  8
0
  6
Continuous
 62
     7
370
     0
100
AcDbPolyline
 90
        9
 70
   128
 43
0.0
 10
64.1243578312
 20
237.614994369
 10
64.2032389906
 20
237.6416748981
 10
64.2818547231
 20
237.6682660203
 10
64.3601705697
 20
237.6947528343
 10
64.4381511402
 20
237.7211316149
 10
64.5157619756
 20
237.7473800104
 10
64.5929676858
 20
237.7734942954
 10
64.6697347429
 20
237.799463294
 10
64.7460286883
 20
237.8252683799
  0
ARC
  5
207
330
1F
100
AcDbEntity
  8
0
  6
Continuous
 62
     7
370
     0
100
AcDbCircle
 10
56.2627257512
 20
235.3464460854
 30
0.0
 40
8.838042129832294
100
AcDbArc
 50
16.2883700105
 51
21.0870723331
  0
LWPOLYLINE
  5
208
330
1F
100
AcDbEntity
  8
0
  6
Continuous
 62
     7
370
     0
100
AcDbPolyline
 90
        9
 70
   128
 43
0.0
 10
64.5089260679
 20
238.5262525301
 10
64.4326321226
 20
238.5004474442
 10
64.3558650655
 20
238.4744821708
 10
64.2786593553
 20
238.4483678858
 10
64.2010485199
 20
238.4221157651
 10
64.1230679494
 20
238.3957407098
 10
64.0447521028
 20
238.3692501705
 10
63.9661363703
 20
238.3426590483
 10
63.8872552109
 20
238.3159785192
  0
ARC
  5
209
330
1F
100
AcDbEntity
  8
0
  6
Continuous
 62
     7
370
     0
100
AcDbCircle
 10
63.491417236
 20
237.7914987126
 30
0.0
 40
0.6570903894995417
100
AcDbArc
 50
52.9573018829
 51
74.4179939915
  0
LWPOLYLINE
  5
20A
330
1F
100
AcDbEntity
  8
0
  6
Continuous
 62
     7
370
     0
100
AcDbPolyline
 90
        9
 70
   128
 43
0.0
 10
63.6679231566
 20
238.4244403462
 10
63.6412426275
 20
238.503319643
 10
63.6146515054
 20
238.5819344442
 10
63.5881618974
 20
238.6602512221
 10
63.5617849794
 20
238.7382327239
 10
63.53553379
 20
238.8158416967
 10
63.509419505
 20
238.8930483382
 10
63.4834542316
 20
238.9698153954
 10
63.4576482144
 20
239.0461093407
  0
ARC
  5
20B
330
1F
100
AcDbEntity
  8
0
  6
Continuous
 62
     7
370
     0
100
AcDbCircle
 10
65.935528712
 20
230.5655981943
 30
0.0
 40
8.835098248698168
100
AcDbArc
 50
106.2875854755
 51
111.0879010652
  0
LWPOLYLINE
  5
20C
330
1F
100
AcDbEntity
  8
0
  6
Continuous
 62
     7
370
     0
100
AcDbPolyline
 90
        9
 70
   128
 43
0.0
 10
62.7566622016
 20
238.809005789
 10
62.7824672875
 20
238.732715569
 10
62.8084325609
 20
238.6559485118
 10
62.8345468459
 20
238.5787418704
 10
62.8607989666
 20
238.5011291723
 10
62.8871740219
 20
238.4231476705
 10
62.9136645612
 20
238.3448346179
 10
62.9402556834
 20
238.2662160914
 10
62.9669362125
 20
238.1873367946
  0
ARC
  5
20D
330
1F
100
AcDbEntity
  8
0
  6
Continuous
 62
     7
370
     0
100
AcDbCircle
 10
63.491417236
 20
237.7914987126
 30
0.0
 40
0.6570903894995148
100
AcDbArc
 50
142.9573018829
 51
164.4179939915
  0
CIRCLE
  5
20E
330
1F
100
AcDbEntity
  8
0
  6
Continuous
 62
     7
370
     0
100
AcDbCircle
 10
63.491417236
 20
237.7914987126
 30
0.0
 40
2.404255319148914
  0
SPLINE
  5
20F
330
1F
100
AcDbEntity
  8
0
  6
Continuous
 62
     7
370
     0
100
AcDbSpline
210
0.0
220
0.0
230
1.0
 70
    24
 71
     3
 72
     8
 73
     4
 74
     0
 42
0.000000001
 43
0.00000001
 40
0.0
 40
0.0
 40
0.0
 40
0.0
 40
1.0
 40
1.0
 40
1.0
 40
1.0
 10
62.85847690619403
 20
237.968004573259
 30
0.0
 10
62.89711598711309
 20
237.9810738969361
 30
0.0
 10
62.93698808926566
 20
237.9945602790219
 30
0.0
 10
62.97973249291103
 20
238.0090181914084
 30
0.0
  0
ARC
  5
210
330
1F
100
AcDbEntity
  8
0
  6
Continuous
 62
     7
370
     0
100
AcDbCircle
 10
63.491417236
 20
237.7914987126
 30
0.0
 40
0.5560000000000014
100
AcDbArc
 50
150.4058583189
 51
156.9694375555
  0
SPLINE
  5
211
330
1F
100
AcDbEntity
  8
0
  6
Continuous
 62
     7
370
     0
100
AcDbSpline
210
0.0
220
0.0
230
1.0
 70
    24
 71
     3
 72
     8
 73
     4
 74
     0
 42
0.000000001
 43
0.00000001
 40
0.0
 40
0.0
 40
0.0
 40
0.0
 40
1.0
 40
1.0
 40
1.0
 40
1.0
 10
62.96693635933731
 20
238.1873365454923
 30
0.0
 10
62.9800056830144
 20
238.1486974645732
 30
0.0
 10
62.99349206510017
 20
238.1088253624207
 30
0.0
 10
63.00794997748674
 20
238.0660809587754
 30
0.0
  0
ARC
  5
212
330
1F
100
AcDbEntity
  8
0
  6
Continuous
 62
     7
370
     0
100
AcDbCircle
 10
63.491417236
 20
237.7914987126
 30
0.0
 40
0.5560000000000136
100
AcDbArc
 50
60.4058583189
 51
66.9694375555
  0
SPLINE
  5
213
330
1F
100
AcDbEntity
  8
0
  6
Continuous
 62
     7
370
     0
100
AcDbSpline
210
0.0
220
0.0
230
1.0
 70
    24
 71
     3
 72
     8
 73
     4
 74
     0
 42
0.000000001
 43
0.00000001
 40
0.0
 40
0.0
 40
0.0
 40
0.0
 40
1.0
 40
1.0
 40
1.0
 40
1.0
 10
63.88725506893593
 20
238.3159795892528
 30
0.0
 10
63.84861598801687
 20
238.3029102655757
 30
0.0
 10
63.8087438858643
 20
238.2894238834899
 30
0.0
 10
63.76599948221895
 20
238.2749659711033
 30
0.0
  0
SPLINE
  5
214
330
1F
100
AcDbEntity
  8
0
  6
Continuous
 62
     7
370
     0
100
AcDbSpline
210
0.0
220
0.0
230
1.0
 70
    24
 71
     3
 72
     8
 73
     4
 74
     0
 42
0.000000001
 43
0.00000001
 40
0.0
 40
0.0
 40
0.0
 40
0.0
 40
1.0
 40
1.0
 40
1.0
 40
1.0
 10
63.66792309670259
 20
238.424439042396
 30
0.0
 10
63.68099242037968
 20
238.385799961477
 30
0.0
 10
63.69447880246545
 20
238.3459278593244
 30
0.0
 10
63.70893671485203
 20
238.3031834556791
 30
0.0
  0
ARC
  5
215
330
1F
100
AcDbEntity
  8
0
  6
Continuous
 62
     7
370
     0
100
AcDbCircle
 10
63.491417236
 20
237.7914987126
 30
0.0
 40
0.556000000000008
100
AcDbArc
 50
240.4058583189
 51
246.9694375555
  0
SPLINE
  5
216
330
1F
100
AcDbEntity
  8
0
  6
Continuous
 62
     7
370
     0
100
AcDbSpline
210
0.0
220
0.0
230
1.0
 70
    24
 71
     3
 72
     8
 73
     4
 74
     0
 42
0.000000001
 43
0.00000001
 40
0.0
 40
0.0
 40
0.0
 40
0.0
 40
1.0
 40
1.0
 40
1.0
 40
1.0
 10
63.3149113753311
 20
237.1585583827504
 30
0.0
 10
63.30184205165401
 20
237.1971974636695
 30
0.0
 10
63.28835566956823
 20
237.2370695658221
 30
0.0
 10
63.27389775718166
 20
237.2798139694674
 30
0.0
  0
SPLINE
  5
217
330
1F
100
AcDbEntity
  8
0
  6
Continuous
 62
     7
370
     0
100
AcDbSpline
210
0.0
220
0.0
230
1.0
 70
    24
 71
     3
 72
     8
 73
     4
 74
     0
 42
0.000000001
 43
0.00000001
 40
0.0
 40
0.0
 40
0.0
 40
0.0
 40
1.0
 40
1.0
 40
1.0
 40
1.0
 10
63.09557940309775
 20
237.2670178358937
 30
0.0
 10
63.13421848401681
 20
237.2800871595708
 30
0.0
 10
63.17409058616938
 20
237.2935735416566
 30
0.0
 10
63.21683498981473
 20
237.3080314540431
 30
0.0
  0
SPLINE
  5
218
330
1F
100
AcDbEntity
  8
0
  6
Continuous
 62
     7
370
     0
100
AcDbSpline
210
0.0
220
0.0
230
1.0
 70
    24
 71
     3
 72
     8
 73
     4
 74
     0
 42
0.000000001
 43
0.00000001
 40
0.0
 40
0.0
 40
0.0
 40
0.0
 40
1.0
 40
1.0
 40
1.0
 40
1.0
 10
64.01589811269638
 20
237.3956608796541
 30
0.0
 10
64.00282878901929
 20
237.4342999605732
 30
0.0
 10
63.9893424069335
 20
237.4741720627258
 30
0.0
 10
63.97488449454694
 20
237.5169164663711
 30
0.0
  0
ARC
  5
219
330
1F
100
AcDbEntity
  8
0
  6
Continuous
 62
     7
370
     0
100
AcDbCircle
 10
63.491417236
 20
237.7914987126
 30
0.0
 40
0.5560000000000059
100
AcDbArc
 50
330.4058583189
 51
336.9694375555
  0
SPLINE
  5
21A
330
1F
100
AcDbEntity
  8
0
  6
Continuous
 62
     7
370
     0
100
AcDbSpline
210
0.0
220
0.0
230
1.0
 70
    24
 71
     3
 72
     8
 73
     4
 74
     0
 42
0.000000001
 43
0.00000001
 40
0.0
 40
0.0
 40
0.0
 40
0.0
 40
1.0
 40
1.0
 40
1.0
 40
1.0
 10
64.12435756583966
 20
237.6149928518875
 30
0.0
 10
64.08571848492059
 20
237.6019235282104
 30
0.0
 10
64.04584638276803
 20
237.5884371461246
 30
0.0
 10
64.00310197912266
 20
237.573979233738
 30
0.0
  0
LINE
  5
21B
330
1F
100
AcDbEntity
  8
0
  6
Continuous
 62
     7
370
     0
100
AcDbLine
 10
63.2524573621
 20
238.2935299199
 30
0.0
 11
62.9640174475
 21
238.1959682922
 31
0.0
  0
LINE
  5
21C
330
1F
100
AcDbEntity
  8
0
  6
Continuous
 62
     7
370
     0
100
AcDbLine
 10
63.6650043917
 20
238.4330681186
 30
0.0
 11
63.3765635458
 21
238.3355064909
 31
0.0
  0
ELLIPSE
  5
21D
330
1F
100
AcDbEntity
  8
0
  6
Continuous
 62
     7
370
     0
100
AcDbEllipse
 10
63.4694801374
 20
237.8563551161
 30
0.0
 11
-0.1564125868275213
 21
0.4624293305839161
 31
0.0
210
0.0
220
0.0
230
1.0
 40
0.9901159119
 41
6.147238359929176
 42
6.419132254429297
  0
LINE
  5
21E
330
1F
100
AcDbEntity
  8
0
  6
Continuous
 62
     7
370
     0
100
AcDbLine
 10
62.9893866745
 20
237.5525398772
 30
0.0
 11
63.0869492334
 21
237.2640980999
 31
0.0
  0
LINE
  5
21F
330
1F
100
AcDbEntity
  8
0
  6
Continuous
 62
     7
370
     0
100
AcDbLine
 10
62.8498466131
 20
237.9650859754
 30
0.0
 11
62.9474101034
 21
237.6766441982
 31
0.0
  0
ELLIPSE
  5
220
330
1F
100
AcDbEntity
  8
0
  6
Continuous
 62
     7
370
     0
100
AcDbEllipse
 10
63.4265608325
 20
237.7695616139
 30
0.0
 11
0.4624293305838237
 21
0.1564125868278268
 31
0.0
210
0.0
220
0.0
230
1.0
 40
0.9901159119
 41
3.005645706338781
 42
3.277539600838846
  0
LINE
  5
221
330
1F
100
AcDbEntity
  8
0
  6
Continuous
 62
     7
370
     0
100
AcDbLine
 10
63.9934474048
 20
238.0304573696
 30
0.0
 11
63.8958848459
 21
238.3188991468
 31
0.0
  0
LINE
  5
222
330
1F
100
AcDbEntity
  8
0
  6
Continuous
 62
     7
370
     0
100
AcDbLine
 10
64.1329874662
 20
237.6179112713
 30
0.0
 11
64.0354249072
 21
237.9063530486
 31
0.0
  0
ELLIPSE
  5
223
330
1F
100
AcDbEntity
  8
0
  6
Continuous
 62
     7
370
     0
100
AcDbEllipse
 10
63.5562736395
 20
237.8134358112
 30
0.0
 11
0.4624293305841434
 21
0.1564125868268889
 31
0.0
210
0.0
220
0.0
230
1.0
 40
0.9901159119
 41
6.14723835993057
 42
6.419132254430612
  0
LINE
  5
224
330
1F
100
AcDbEntity
  8
0
  6
Continuous
 62
     7
370
     0
100
AcDbLine
 10
63.7303767172
 20
237.2894673269
 30
0.0
 11
64.0188175631
 21
237.3870326798
 31
0.0
  0
LINE
  5
225
330
1F
100
AcDbEntity
  8
0
  6
Continuous
 62
     7
370
     0
100
AcDbLine
 10
63.3178306189
 20
237.1499291282
 30
0.0
 11
63.6062705335
 21
237.2474907558
 31
0.0
  0
ELLIPSE
  5
226
330
1F
100
AcDbEntity
  8
0
  6
Continuous
 62
     7
370
     0
100
AcDbEllipse
 10
63.5133543347
 20
237.7266423091
 30
0.0
 11
-0.1564125868271873
 21
0.4624293305840296
 31
0.0
210
0.0
220
0.0
230
1.0
 40
0.9901159119
 41
3.005645706340105
 42
3.277539600840207
  0
CIRCLE
  5
227
330
1F
100
AcDbEntity
  8
0
  6
Continuous
 62
     7
370
     0
100
AcDbCircle
 10
63.491417236
 20
237.7914987126
 30
0.0
 40
2.499999999999969
  0
ARC
  5
228
330
1F
100
AcDbEntity
  8
0
  6
Continuous
 62
     7
370
     0
100
AcDbCircle
 10
63.491417236
 20
237.7914987126
 30
0.0
 40
0.556000000000009
100
AcDbArc
 50
101.9214927456
 51
115.4538031288
  0
ARC
  5
229
330
1F
100
AcDbEntity
  8
0
  6
Continuous
 62
     7
370
     0
100
AcDbCircle
 10
63.491417236
 20
237.7914987126
 30
0.0
 40
0.5559999999999918
100
AcDbArc
 50
191.9214927456
 51
205.4538031288
  0
ARC
  5
22A
330
1F
100
AcDbEntity
  8
0
  6
Continuous
 62
     7
370
     0
100
AcDbCircle
 10
63.491417236
 20
237.7914987126
 30
0.0
 40
0.5560000000000112
100
AcDbArc
 50
11.9214927456
 51
25.4538031288
  0
ARC
  5
22B
330
1F
100
AcDbEntity
  8
0
  6
Continuous
 62
     7
370
     0
100
AcDbCircle
 10
63.491417236
 20
237.7914987126
 30
0.0
 40
0.5560000000000135
100
AcDbArc
 50
281.9214927456
 51
295.4538031288
  0
ARC
  5
22C
330
1F
100
AcDbEntity
  8
0
  6
Continuous
 62
     7
370
     0
100
AcDbCircle
 10
63.491417236
 20
237.7914987126
 30
0.0
 40
0.5560000000000135
100
AcDbArc
 50
246.9694375555
 51
281.9214927456
  0
ARC
  5
22D
330
1F
100
AcDbEntity
  8
0
  6
Continuous
 62
     7
370
     0
100
AcDbCircle
 10
63.491417236
 20
237.7914987126
 30
0.0
 40
0.5559999999999918
100
AcDbArc
 50
205.4538031288
 51
240.4058583189
  0
ARC
  5
22E
330
1F
100
AcDbEntity
  8
0
  6
Continuous
 62
     7
370
     0
100
AcDbCircle
 10
63.491417236
 20
237.7914987126
 30
0.0
 40
0.5559999999999912
100
AcDbArc
 50
156.9694375555
 51
191.9214927456
  0
ARC
  5
22F
330
1F
100
AcDbEntity
  8
0
  6
Continuous
 62
     7
370
     0
100
AcDbCircle
 10
63.491417236
 20
237.7914987126
 30
0.0
 40
0.5560000000000014
100
AcDbArc
 50
115.4538031288
 51
150.4058583189
  0
ARC
  5
230
330
1F
100
AcDbEntity
  8
0
  6
Continuous
 62
     7
370
     0
100
AcDbCircle
 10
63.491417236
 20
237.7914987126
 30
0.0
 40
0.5560000000000136
100
AcDbArc
 50
66.9694375555
 51
101.9214927456
  0
ARC
  5
231
330
1F
100
AcDbEntity
  8
0
  6
Continuous
 62
     7
370
     0
100
AcDbCircle
 10
63.491417236
 20
237.7914987126
 30
0.0
 40
0.5560000000000112
100
AcDbArc
 50
25.4538031288
 51
60.4058583189
  0
ARC
  5
232
330
1F
100
AcDbEntity
  8
0
  6
Continuous
 62
     7
370
     0
100
AcDbCircle
 10
63.491417236
 20
237.7914987126
 30
0.0
 40
0.5560000000000079
100
AcDbArc
 50
336.9694375555
 51
11.9214927456
  0
ARC
  5
233
330
1F
100
AcDbEntity
  8
0
  6
Continuous
 62
     7
370
     0
100
AcDbCircle
 10
63.491417236
 20
237.7914987126
 30
0.0
 40
0.5560000000000059
100
AcDbArc
 50
295.4538031288
 51
330.4058583189
  0
LINE
  5
234
330
1F
100
AcDbEntity
  8
0
  6
Continuous
 62
     7
370
     0
100
AcDbLine
 10
85.4963040356
 20
226.7725295048
 30
0.0
 11
90.4101021034
 21
256.367368124
 31
0.0
  0
LINE
  5
235
330
1F
100
AcDbEntity
  8
0
  6
Continuous
 62
     7
370
     0
100
AcDbLine
 10
90.4101021034
 20
256.367368124
 30
0.0
 11
86.9573708069
 21
256.9406455975
 31
0.0
  0
LINE
  5
236
330
1F
100
AcDbEntity
  8
0
  6
Continuous
 62
     7
370
     0
100
AcDbLine
 10
82.0435727392
 20
227.3458069782
 30
0.0
 11
85.4963040356
 21
226.7725295048
 31
0.0
  0
LINE
  5
237
330
1F
100
AcDbEntity
  8
0
  6
Continuous
 62
     7
370
     0
100
AcDbLine
 10
86.9573708069
 20
256.9406455975
 30
0.0
 11
82.0435727392
 21
227.3458069782
 31
0.0
  0
LWPOLYLINE
  5
238
330
1F
100
AcDbEntity
  8
0
  6
Continuous
 62
     7
370
     0
100
AcDbPolyline
 90
        4
 70
   128
 43
0.0
 10
90.6385937151
 20
256.3294297676
 10
90.8515098882
 20
256.1700171452
 10
91.1305797663
 20
255.9610805135
 10
91.4677166757
 20
255.7086622934
  0
LWPOLYLINE
  5
239
330
1F
100
AcDbEntity
  8
0
  6
Continuous
 62
     7
370
     0
100
AcDbPolyline
 90
        6
 70
   128
 43
0.0
 10
91.4677166757
 20
255.7086622934
 10
91.6224941057
 20
254.63157656
 10
91.789857429
 20
253.4669241528
 10
91.9668580782
 20
252.2351941686
 10
92.1503807795
 20
250.9580826979
 10
92.3371919808
 20
249.6580830436
  0
LINE
  5
23A
330
1F
100
AcDbEntity
  8
0
  6
Continuous
 62
     7
370
     0
100
AcDbLine
 10
92.3371919808
 20
249.6580830436
 30
0.0
 11
88.4557878044
 21
226.2811488132
 31
0.0
  0
LWPOLYLINE
  5
23B
330
1F
100
AcDbEntity
  8
0
  6
Continuous
 62
     7
370
     0
100
AcDbPolyline
 90
        9
 70
   128
 43
0.0
 10
90.4101021034
 20
256.367368124
 10
90.4137184289
 20
256.3667720776
 10
90.4245580924
 20
256.3649690371
 10
90.442595948
 20
256.3619739037
 10
90.4677872923
 20
256.3577941279
 10
90.5000697267
 20
256.3524297099
 10
90.5393650201
 20
256.3459104519
 10
90.5855772462
 20
256.3382363539
 10
90.6385937151
 20
256.3294297676
  0
LWPOLYLINE
  5
23C
330
1F
100
AcDbEntity
  8
0
  6
Continuous
 62
     7
370
     0
100
AcDbPolyline
 90
        9
 70
   128
 43
0.0
 10
88.4557878044
 20
226.2811488132
 10
87.8784218249
 20
226.3770117085
 10
87.323242743
 20
226.4691902916
 10
86.811587159
 20
226.5541455369
 10
86.3631171551
 20
226.6286066394
 10
85.9950673212
 20
226.6897163014
 10
85.7215816532
 20
226.7351238649
 10
85.5531696607
 20
226.7630858939
 10
85.4963040356
 20
226.7725295048
  0
LINE
  5
23D
330
1F
100
AcDbEntity
  8
0
  6
Continuous
 62
     7
370
     0
100
AcDbLine
 10
97.4428569344
 20
191.88227082
 30
0.0
 11
99.1565090981
 21
202.2032639604
 31
0.0
  0
ARC
  5
23E
330
1F
100
AcDbEntity
  8
0
  6
Continuous
 62
     7
370
     0
100
AcDbCircle
 10
87.3092353896
 20
219.375686177
 30
0.0
 40
1.999999999999995
100
AcDbArc
 50
353.2362434783
 51
80.572860308
  0
LINE
  5
23F
330
1F
100
AcDbEntity
  8
0
  6
Continuous
 62
     7
370
     0
100
AcDbLine
 10
81.816503257
 20
222.3150557499
 30
0.0
 11
87.6368218479
 21
221.3486744683
 31
0.0
  0
LINE
  5
240
330
1F
100
AcDbEntity
  8
0
  6
Continuous
 62
     7
370
     0
100
AcDbLine
 10
81.3228825019
 20
223.0052291076
 30
0.0
 11
81.816503257
 21
222.3150557499
 31
0.0
  0
LINE
  5
241
330
1F
100
AcDbEntity
  8
0
  6
Continuous
 62
     7
370
     0
100
AcDbLine
 10
99.1565090981
 20
202.2032639604
 30
0.0
 11
97.4428569344
 21
214.1283671032
 31
0.0
  0
LINE
  5
242
330
1F
100
AcDbEntity
  8
0
  6
Continuous
 62
     7
370
     0
100
AcDbLine
 10
97.4408825305
 20
214.1421096991
 30
0.0
 11
92.3371919808
 21
249.6580830436
 31
0.0
  0
LINE
  5
243
330
1F
100
AcDbEntity
  8
0
  6
Continuous
 62
     7
370
     0
100
AcDbLine
 10
82.0435727392
 20
227.3458069782
 30
0.0
 11
81.3228825019
 21
223.0052291076
 31
0.0
  0
LWPOLYLINE
  5
244
330
1F
100
AcDbEntity
  8
0
  6
Continuous
 62
     8
370
     0
100
AcDbPolyline
 90
        7
 70
   128
 43
0.0
 10
60.4902663645
 20
249.7615865092
 10
60.4095095214
 20
250.2479604106
 10
60.3352980134
 20
250.6949356418
 10
60.273638871
 20
251.0662874799
 10
60.2295295712
 20
251.3319453816
 10
60.2065445301
 20
251.4703846197
 10
60.2036276278
 20
251.4879530888
  0
LWPOLYLINE
  5
245
330
1F
100
AcDbEntity
  8
0
  6
Continuous
 62
     8
370
     0
100
AcDbPolyline
 90
        6
 70
   128
 43
0.0
 10
60.7523349491
 20
248.1831959109
 10
60.7510012952
 20
248.1912350874
 10
60.7068919954
 20
248.4568929892
 10
60.645232853
 20
248.8282448273
 10
60.571021345
 20
249.2752200584
 10
60.4902663645
 20
249.7615865092
  0
DIMENSION
  5
246
330
1F
100
AcDbEntity
  8
0
  6
Continuous
 62
     7
370
     0
100
AcDbDimension
  2
_D_5
 10
83.9428569741
 20
131.1401345241
 30
0.0
 11
77.9428569741
 21
131.1401345241
 31
0.0
 70
   160
  1
%%c<>
 71
     2
 42
-1.0
  3
SLDDIMSTYLE1
100
AcDbAlignedDimension
 13
71.9428569741
 23
152.1401345241
 33
0.0
 14
83.9428569741
 24
152.1401345241
 34
0.0
100
AcDbRotatedDimension
  0
DIMENSION
  5
254
330
1F
100
AcDbEntity
  8
0
  6
Continuous
 62
     7
370
     0
100
AcDbDimension
  2
_D_6
 10
58.4428569741
 20
115.0992255676
 30
0.0
 11
77.9428569741
 21
115.0992255676
 31
0.0
 70
   160
  1
<>
 71
     2
 42
-1.0
  3
SLDDIMSTYLE0
100
AcDbAlignedDimension
 13
97.4428569741
 23
167.1401345241
 33
0.0
 14
58.4428569741
 24
167.1401345241
 34
0.0
100
AcDbRotatedDimension
  0
DIMENSION
  5
25E
330
1F
100
AcDbEntity
  8
0
  6
Continuous
 62
     7
370
     0
100
AcDbDimension
  2
_D_7
 10
115.1565094474
 20
167.1401345241
 30
0.0
 11
115.1565094474
 21
193.8401345241
 31
0.0
 70
   160
  1
<>
 71
     2
 42
-1.0
  3
SLDDIMSTYLE0
100
AcDbAlignedDimension
 13
82.9428569741
 23
220.5401345241
 33
0.0
 14
97.4428569741
 24
167.1401345241
 34
0.0
 50
90.0
100
AcDbRotatedDimension
  0
DIMENSION
  5
268
330
1F
100
AcDbEntity
  8
0
  6
Continuous
 62
     7
370
     0
100
AcDbDimension
  2
_D_8
 10
87.0098460131
 20
268.1767370783
 30
0.0
 11
78.2419561002
 21
268.2176853934
 31
0.0
 70
   160
  1
(<>)
 71
     2
 42
-1.0
  3
SLDDIMSTYLE0
100
AcDbAlignedDimension
 13
69.421590733
 23
257.0225424257
 33
0.0
 14
86.9573705588
 24
256.9406457955
 34
0.0
 50
-0.2675841736
100
AcDbRotatedDimension
  0
DIMENSION
  5
274
330
1F
100
AcDbEntity
  8
0
  6
Continuous
 62
     7
370
     0
100
AcDbDimension
  2
_D_9
 10
124.8227702238
 20
141.1401345241
 30
0.0
 11
124.8227702238
 21
199.0403901598
 31
0.0
 70
   160
  1
(<>)
 71
     2
 42
-1.0
  3
SLDDIMSTYLE0
100
AcDbAlignedDimension
 13
86.9573705588
 23
256.9406457955
 33
0.0
 14
79.4428569741
 24
141.1401345241
 34
0.0
 50
90.0
100
AcDbRotatedDimension
  0
DIMENSION
  5
280
330
1F
100
AcDbEntity
  8
0
  6
Continuous
 62
     7
370
     0
100
AcDbDimension
  2
_D_10
 10
90.4428569741
 20
123.3889681824
 30
0.0
 11
77.9428569741
 21
123.3889681824
 31
0.0
 70
   160
  1
<>
 71
     2
 42
-1.0
  3
SLDDIMSTYLE0
100
AcDbAlignedDimension
 13
65.4428569741
 23
171.6401345241
 33
0.0
 14
90.4428569741
 24
167.0401345241
 34
0.0
100
AcDbRotatedDimension
  0
DIMENSION
  5
28A
330
1F
100
AcDbEntity
  8
0
  6
Continuous
 62
     7
370
     0
100
AcDbDimension
  2
_D_11
 10
105.465791765
 20
171.6401345241
 30
0.0
 11
105.465791765
 21
153.919008947
 31
0.0
 70
   160
  1
<>
 71
     2
 42
-1.0
  3
SLDDIMSTYLE1
100
AcDbAlignedDimension
 13
97.4428569741
 23
167.1401345241
 33
0.0
 14
65.4428569741
 24
171.6401345241
 34
0.0
 50
90.0
100
AcDbRotatedDimension
  0
DIMENSION
  5
296
330
1F
100
AcDbEntity
  8
0
  6
Continuous
 62
     7
370
     0
100
AcDbDimension
  2
_D_12
 10
105.465791765
 20
203.1401345241
 30
0.0
 11
105.465791765
 21
187.3901345241
 31
0.0
 70
   160
  1
<>
 71
     2
 42
-1.0
  3
SLDDIMSTYLE0
100
AcDbAlignedDimension
 13
90.4428569741
 23
171.6401345241
 33
0.0
 14
77.9428569741
 24
203.1401345241
 34
0.0
 50
90.0
100
AcDbRotatedDimension
  0
DIMENSION
  5
2A0
330
1F
100
AcDbEntity
  8
0
  6
Continuous
 62
     7
370
     0
100
AcDbDimension
  2
_D_13
 10
67.210623927
 20
169.8723675712
 30
0.0
 11
38.9488963395
 21
184.3257640364
 31
0.0
 70
   163
  1
3-<>取付穴\P(両側口元面取有)
 71
     1
 42
-1.0
  3
SLDDIMSTYLE2
100
AcDbDiametricDimension
 15
63.6750900211
 25
173.4079014771
 35
0.0
 40
0.0
  0
INSERT
  5
2B1
330
1F
100
AcDbEntity
  8
0
  6
Continuous
 62
     7
370
     0
100
AcDbBlockReference
  2
SW_NOTE_0
 10
46.5406844597
 20
153.2481842131
 30
0.0
  0
LEADER
  5
2B3
330
1F
100
AcDbEntity
  8
0
  6
Continuous
 62
     7
370
     0
100
AcDbLeader
  3
SLDDIMSTYLE3
 76
     2
 10
76.7755967966
 20
144.5186102935
 30
0.0
 10
46.5406844597
 20
153.2481842131
 30
0.0
  0
INSERT
  5
2BF
330
1F
100
AcDbEntity
  8
0
  6
Continuous
 62
     7
370
     0
100
AcDbBlockReference
  2
SW_CENTERMARKSYMBOL_0
 10
77.9428569741
 20
203.1401345241
 30
0.0
  0
INSERT
  5
2CB
330
1F
100
AcDbEntity
  8
0
  6
Continuous
 62
     7
370
     0
100
AcDbBlockReference
  2
SW_CENTERMARKSYMBOL_1
 10
65.4428569741
 20
171.6401345241
 30
0.0
  0
INSERT
  5
2D7
330
1F
100
AcDbEntity
  8
0
  6
Continuous
 62
     7
370
     0
100
AcDbBlockReference
  2
SW_CENTERMARKSYMBOL_2
 10
90.4428569741
 20
171.6401345241
 30
0.0
  0
CIRCLE
  5
2D8
330
1F
100
AcDbEntity
  8
0
  6
Continuous
 62
     7
370
     0
100
AcDbCircle
 10
90.4428569741
 20
171.6401345241
 30
0.0
 40
2.499999802575388
  0
CIRCLE
  5
2D9
330
1F
100
AcDbEntity
  8
0
  6
Continuous
 62
     7
370
     0
100
AcDbCircle
 10
65.4428569741
 20
171.6401345241
 30
0.0
 40
2.499999802575388
  0
CIRCLE
  5
2DA
330
1F
100
AcDbEntity
  8
0
  6
Continuous
 62
     7
370
     0
100
AcDbCircle
 10
77.9428569741
 20
203.1401345241
 30
0.0
 40
2.500000309214855
  0
LINE
  5
2DB
330
1F
100
AcDbEntity
  8
0
  6
Continuous
 62
     7
370
     0
100
AcDbLine
 10
69.8423990425
 20
89.0208275154
 30
0.0
 11
69.8423990425
 21
88.9208276853
 31
0.0
  0
LINE
  5
2DC
330
1F
100
AcDbEntity
  8
0
  6
Continuous
 62
     7
370
     0
100
AcDbLine
 10
69.8423990425
 20
85.1208266899
 30
0.0
 11
69.8423990425
 21
85.0208268597
 31
0.0
  0
LINE
  5
2DD
330
1F
100
AcDbEntity
  8
0
  6
Continuous
 62
     7
370
     0
100
AcDbLine
 10
72.842398603
 20
85.0208268597
 30
0.0
 11
72.842398603
 21
85.1208266899
 31
0.0
  0
LINE
  5
2DE
330
1F
100
AcDbEntity
  8
0
  6
Continuous
 62
     7
370
     0
100
AcDbLine
 10
72.842398603
 20
88.9208276853
 30
0.0
 11
72.842398603
 21
89.0208275154
 31
0.0
  0
LINE
  5
2DF
330
1F
100
AcDbEntity
  8
0
  6
Continuous
 62
     7
370
     0
100
AcDbLine
 10
45.638450366
 20
89.7208263263
 30
0.0
 11
45.638450366
 21
84.3208271175
 31
0.0
  0
LINE
  5
2E0
330
1F
100
AcDbEntity
  8
0
  6
Continuous
 62
     7
370
     0
100
AcDbLine
 10
50.4838255611
 20
86.6708268508
 30
0.0
 11
51.3027915177
 21
86.6708268508
 31
0.0
  0
LINE
  5
2E1
330
1F
100
AcDbEntity
  8
0
  6
Continuous
 62
     7
370
     0
100
AcDbLine
 10
51.3027915177
 20
87.370826593
 30
0.0
 11
50.4838255611
 21
87.370826593
 31
0.0
  0
LINE
  5
2E2
330
1F
100
AcDbEntity
  8
0
  6
Continuous
 62
     7
370
     0
100
AcDbLine
 10
52.4568156716
 20
86.6708268508
 30
0.0
 11
53.2757816282
 21
86.6708268508
 31
0.0
  0
LINE
  5
2E3
330
1F
100
AcDbEntity
  8
0
  6
Continuous
 62
     7
370
     0
100
AcDbLine
 10
53.2757816282
 20
87.370826593
 30
0.0
 11
52.4568156716
 21
87.370826593
 31
0.0
  0
LINE
  5
2E4
330
1F
100
AcDbEntity
  8
0
  6
Continuous
 62
     7
370
     0
100
AcDbLine
 10
49.9924467322
 20
86.320826514
 30
0.0
 11
50.4838255611
 21
86.320826514
 31
0.0
  0
LINE
  5
2E5
330
1F
100
AcDbEntity
  8
0
  6
Continuous
 62
     7
370
     0
100
AcDbLine
 10
50.4838255611
 20
87.7208269298
 30
0.0
 11
49.9924467322
 21
87.7208269298
 31
0.0
  0
LINE
  5
2E6
330
1F
100
AcDbEntity
  8
0
  6
Continuous
 62
     7
370
     0
100
AcDbLine
 10
51.9654349801
 20
86.320826514
 30
0.0
 11
52.4568156716
 21
86.320826514
 31
0.0
  0
LINE
  5
2E7
330
1F
100
AcDbEntity
  8
0
  6
Continuous
 62
     7
370
     0
100
AcDbLine
 10
52.4568156716
 20
87.7208269298
 30
0.0
 11
51.9654349801
 21
87.7208269298
 31
0.0
  0
SPLINE
  5
2E8
330
1F
100
AcDbEntity
  8
0
  6
Continuous
 62
     7
370
     0
100
AcDbSpline
210
0.0
220
0.0
230
1.0
 70
     8
 71
     3
 72
    12
 73
     8
 74
     0
 42
0.000000001
 43
0.00000001
 40
0.0
 40
0.0
 40
0.0
 40
0.0
 40
0.1327316332164231
 40
0.3484349328093746
 40
0.573825389665105
 40
0.7925341878794088
 40
1.0
 40
1.0
 40
1.0
 40
1.0
 10
53.07208461731786
 20
89.40979438866827
 30
0.0
 10
53.07245826399875
 20
89.4240665937274
 30
0.0
 10
53.07343912706052
 20
89.46153267992182
 30
0.0
 10
53.04977655926935
 20
89.52196604179827
 30
0.0
 10
53.00269307305827
 20
89.57776468746428
 30
0.0
 10
52.93881136851513
 20
89.61432405844383
 30
0.0
 10
52.89255313048274
 20
89.61869747553258
 30
0.0
 10
52.87003418475503
 20
89.6208264961407
 30
0.0
  0
LINE
  5
2E9
330
1F
100
AcDbEntity
  8
0
  6
Continuous
 62
     7
370
     0
100
AcDbLine
 10
53.0740850982
 20
84.6248787924
 30
0.0
 11
53.0740850982
 21
86.6708268508
 31
0.0
  0
LINE
  5
2EA
330
1F
100
AcDbEntity
  8
0
  6
Continuous
 62
     7
370
     0
100
AcDbLine
 10
53.0740850982
 20
87.370826593
 30
0.0
 11
53.0740850982
 21
89.4167755827
 31
0.0
  0
SPLINE
  5
2EB
330
1F
100
AcDbEntity
  8
0
  6
Continuous
 62
     7
370
     0
100
AcDbSpline
210
0.0
220
0.0
230
1.0
 70
     8
 71
     3
 72
    12
 73
     8
 74
     0
 42
0.000000001
 43
0.00000001
 40
0.0
 40
0.0
 40
0.0
 40
0.0
 40
0.2034101592098755
 40
0.4261017951732271
 40
0.6516223081916733
 40
0.8502724036407804
 40
0.9999999999999999
 40
0.9999999999999999
 40
0.9999999999999999
 40
0.9999999999999999
 10
52.87003418475503
 20
84.42082694764588
 30
0.0
 10
52.89205456770748
 20
84.42286534693928
 30
0.0
 10
52.93818267036907
 20
84.42713536767747
 30
0.0
 10
53.00207111336821
 20
84.46332587699378
 30
0.0
 10
53.04846258916557
 20
84.51784528385757
 30
0.0
 10
53.07218644922624
 20
84.57746448661887
 30
0.0
 10
53.07301412124026
 20
84.61499507800553
 30
0.0
 10
53.07336984247083
 20
84.6311251729295
 30
0.0
  0
LINE
  5
2EC
330
1F
100
AcDbEntity
  8
0
  6
Continuous
 62
     7
370
     0
100
AcDbLine
 10
55.964457747
 20
89.7208263263
 30
0.0
 11
55.964457747
 21
90.0208276793
 31
0.0
  0
LINE
  5
2ED
330
1F
100
AcDbEntity
  8
0
  6
Continuous
 62
     7
370
     0
100
AcDbLine
 10
55.964457747
 20
90.5208268299
 30
0.0
 11
55.964457747
 21
90.9208261504
 31
0.0
  0
LINE
  5
2EE
330
1F
100
AcDbEntity
  8
0
  6
Continuous
 62
     7
370
     0
100
AcDbLine
 10
52.964459118
 20
90.9208261504
 30
0.0
 11
52.964459118
 21
90.5208268299
 31
0.0
  0
LINE
  5
2EF
330
1F
100
AcDbEntity
  8
0
  6
Continuous
 62
     7
370
     0
100
AcDbLine
 10
52.964459118
 20
90.0208276793
 30
0.0
 11
52.964459118
 21
89.7208263263
 31
0.0
  0
LINE
  5
2F0
330
1F
100
AcDbEntity
  8
0
  6
Continuous
 62
     7
370
     0
100
AcDbLine
 10
55.964457747
 20
90.9208261504
 30
0.0
 11
55.6644582567
 21
91.2208275035
 31
0.0
  0
LINE
  5
2F1
330
1F
100
AcDbEntity
  8
0
  6
Continuous
 62
     7
370
     0
100
AcDbLine
 10
53.2644586083
 20
91.2208275035
 30
0.0
 11
52.964459118
 21
90.9208261504
 31
0.0
  0
LINE
  5
2F2
330
1F
100
AcDbEntity
  8
0
  6
Continuous
 62
     7
370
     0
100
AcDbLine
 10
52.964459118
 20
84.3208271175
 30
0.0
 11
52.964459118
 21
84.0208266958
 31
0.0
  0
LINE
  5
2F3
330
1F
100
AcDbEntity
  8
0
  6
Continuous
 62
     7
370
     0
100
AcDbLine
 10
52.964459118
 20
83.5208266139
 30
0.0
 11
52.964459118
 21
83.120826362
 31
0.0
  0
LINE
  5
2F4
330
1F
100
AcDbEntity
  8
0
  6
Continuous
 62
     7
370
     0
100
AcDbLine
 10
55.964457747
 20
83.120826362
 30
0.0
 11
55.964457747
 21
83.5208266139
 31
0.0
  0
LINE
  5
2F5
330
1F
100
AcDbEntity
  8
0
  6
Continuous
 62
     7
370
     0
100
AcDbLine
 10
55.964457747
 20
84.0208266958
 30
0.0
 11
55.964457747
 21
84.3208271175
 31
0.0
  0
LINE
  5
2F6
330
1F
100
AcDbEntity
  8
0
  6
Continuous
 62
     7
370
     0
100
AcDbLine
 10
52.964459118
 20
83.120826362
 30
0.0
 11
53.2644586083
 21
82.8208268716
 31
0.0
  0
LINE
  5
2F7
330
1F
100
AcDbEntity
  8
0
  6
Continuous
 62
     7
370
     0
100
AcDbLine
 10
55.6644582567
 20
82.8208268716
 30
0.0
 11
55.964457747
 21
83.120826362
 31
0.0
  0
LINE
  5
2F8
330
1F
100
AcDbEntity
  8
0
  6
Continuous
 62
     7
370
     0
100
AcDbLine
 10
60.9914166299
 20
83.5208266139
 30
0.0
 11
60.9914166299
 21
82.4158310055
 31
0.0
  0
ARC
  5
2F9
330
1F
100
AcDbEntity
  8
0
  6
Continuous
 62
     7
370
     0
100
AcDbCircle
 10
61.231417236
 20
82.4158309152
 30
0.0
 40
0.240000000000002
100
AcDbArc
 50
180.0
 51
233.0538731033
  0
ARC
  5
2FA
330
1F
100
AcDbEntity
  8
0
  6
Continuous
 62
     7
370
     0
100
AcDbCircle
 10
63.491417236
 20
85.4208267554
 30
0.0
 40
4.000000000000016
100
AcDbArc
 50
233.0538731033
 51
248.3828992383
  0
ARC
  5
2FB
330
1F
100
AcDbEntity
  8
0
  6
Continuous
 62
     7
370
     0
100
AcDbCircle
 10
61.231417236
 20
91.6258225957
 30
0.0
 40
0.2400000000000068
100
AcDbArc
 50
126.9461268967
 51
180.0
  0
LINE
  5
2FC
330
1F
100
AcDbEntity
  8
0
  6
Continuous
 62
     7
370
     0
100
AcDbLine
 10
60.9914166299
 20
91.6258224383
 30
0.0
 11
60.9914166299
 21
90.5208268299
 31
0.0
  0
ARC
  5
2FD
330
1F
100
AcDbEntity
  8
0
  6
Continuous
 62
     7
370
     0
100
AcDbCircle
 10
63.491417236
 20
88.6208267554
 30
0.0
 40
4.000000000000016
100
AcDbArc
 50
58.2116693829
 51
73.2202333678
  0
ARC
  5
2FE
330
1F
100
AcDbEntity
  8
0
  6
Continuous
 62
     7
370
     0
100
AcDbCircle
 10
63.491417236
 20
88.6208267554
 30
0.0
 40
4.000000000000009
100
AcDbArc
 50
106.7797666322
 51
126.9461268967
  0
CIRCLE
  5
2FF
330
1F
100
AcDbEntity
  8
0
  6
Continuous
 62
     7
370
     0
100
AcDbCircle
 10
77.9428569741
 20
73.0208267554
 30
0.0
 40
4.999999999999986
  0
CIRCLE
  5
300
330
1F
100
AcDbEntity
  8
0
  6
Continuous
 62
     7
370
     0
100
AcDbCircle
 10
77.9428569741
 20
73.0208267554
 30
0.0
 40
5.999999999999986
  0
CIRCLE
  5
301
330
1F
100
AcDbEntity
  8
0
  6
Continuous
 62
     7
370
     0
100
AcDbCircle
 10
77.9428569741
 20
73.0208267554
 30
0.0
 40
1.0
  0
LINE
  5
302
330
1F
100
AcDbEntity
  8
0
  6
Continuous
 62
     7
370
     0
100
AcDbLine
 10
59.4428562936
 20
81.0208271354
 30
0.0
 11
58.4428561297
 21
80.0208269715
 31
0.0
  0
LINE
  5
303
330
1F
100
AcDbEntity
  8
0
  6
Continuous
 62
     7
370
     0
100
AcDbLine
 10
97.4428569344
 20
66.0208265394
 30
0.0
 11
97.4428569344
 21
80.0208269715
 31
0.0
  0
LINE
  5
304
330
1F
100
AcDbEntity
  8
0
  6
Continuous
 62
     7
370
     0
100
AcDbLine
 10
96.4428567705
 20
65.0208263754
 30
0.0
 11
97.4428569344
 21
66.0208265394
 31
0.0
  0
LINE
  5
305
330
1F
100
AcDbEntity
  8
0
  6
Continuous
 62
     7
370
     0
100
AcDbLine
 10
96.4428567705
 20
65.0208263754
 30
0.0
 11
59.4428562936
 21
65.0208263754
 31
0.0
  0
LINE
  5
306
330
1F
100
AcDbEntity
  8
0
  6
Continuous
 62
     7
370
     0
100
AcDbLine
 10
58.4428561297
 20
66.0208265394
 30
0.0
 11
59.4428562936
 21
65.0208263754
 31
0.0
  0
LINE
  5
307
330
1F
100
AcDbEntity
  8
0
  6
Continuous
 62
     7
370
     0
100
AcDbLine
 10
58.4428561297
 20
66.0208265394
 30
0.0
 11
58.4428561297
 21
80.0208269715
 31
0.0
  0
LINE
  5
308
330
1F
100
AcDbEntity
  8
0
  6
Continuous
 62
     7
370
     0
100
AcDbLine
 10
96.4428567705
 20
81.0208271354
 30
0.0
 11
59.4428562936
 21
81.0208271354
 31
0.0
  0
LINE
  5
309
330
1F
100
AcDbEntity
  8
0
  6
Continuous
 62
     7
370
     0
100
AcDbLine
 10
97.4428569344
 20
80.0208269715
 30
0.0
 11
96.4428567705
 21
81.0208271354
 31
0.0
  0
LINE
  5
30A
330
1F
100
AcDbEntity
  8
0
  6
Continuous
 62
     7
370
     0
100
AcDbLine
 10
74.5053956662
 20
85.1208266899
 30
0.0
 11
74.5053956662
 21
88.9208276853
 31
0.0
  0
LINE
  5
30B
330
1F
100
AcDbEntity
  8
0
  6
Continuous
 62
     7
370
     0
100
AcDbLine
 10
74.5053956662
 20
85.1208266899
 30
0.0
 11
69.9064321262
 21
85.1208266899
 31
0.0
  0
LINE
  5
30C
330
1F
100
AcDbEntity
  8
0
  6
Continuous
 62
     7
370
     0
100
AcDbLine
 10
69.9064321262
 20
88.9208276853
 30
0.0
 11
69.9064321262
 21
85.1208266899
 31
0.0
  0
LINE
  5
30D
330
1F
100
AcDbEntity
  8
0
  6
Continuous
 62
     7
370
     0
100
AcDbLine
 10
74.5053956662
 20
88.9208276853
 30
0.0
 11
69.9064321262
 21
88.9208276853
 31
0.0
  0
LINE
  5
30E
330
1F
100
AcDbEntity
  8
0
  6
Continuous
 62
     7
370
     0
100
AcDbLine
 10
68.3749224436
 20
85.1208266899
 30
0.0
 11
68.3749224436
 21
88.9208276853
 31
0.0
  0
LINE
  5
30F
330
1F
100
AcDbEntity
  8
0
  6
Continuous
 62
     7
370
     0
100
AcDbLine
 10
68.3749224436
 20
88.9208276853
 30
0.0
 11
69.9064321262
 21
88.9208276853
 31
0.0
  0
LINE
  5
310
330
1F
100
AcDbEntity
  8
0
  6
Continuous
 62
     7
370
     0
100
AcDbLine
 10
69.9064321262
 20
85.1208266899
 30
0.0
 11
68.3749224436
 21
85.1208266899
 31
0.0
  0
LINE
  5
311
330
1F
100
AcDbEntity
  8
0
  6
Continuous
 62
     7
370
     0
100
AcDbLine
 10
68.3749224436
 20
85.1208266899
 30
0.0
 11
68.2488921475
 21
85.1208266899
 31
0.0
  0
LINE
  5
312
330
1F
100
AcDbEntity
  8
0
  6
Continuous
 62
     7
370
     0
100
AcDbLine
 10
68.3749224436
 20
88.9208276853
 30
0.0
 11
68.2488921475
 21
88.9208276853
 31
0.0
  0
LINE
  5
313
330
1F
100
AcDbEntity
  8
0
  6
Continuous
 62
     7
370
     0
100
AcDbLine
 10
56.729203966
 20
69.0208265654
 30
0.0
 11
56.729203966
 21
77.0208269454
 31
0.0
  0
LINE
  5
314
330
1F
100
AcDbEntity
  8
0
  6
Continuous
 62
     7
370
     0
100
AcDbLine
 10
58.4428561297
 20
77.0208269454
 30
0.0
 11
56.729203966
 21
77.0208269454
 31
0.0
  0
LINE
  5
315
330
1F
100
AcDbEntity
  8
0
  6
Continuous
 62
     7
370
     0
100
AcDbLine
 10
58.4428561297
 20
69.0208265654
 30
0.0
 11
56.729203966
 21
69.0208265654
 31
0.0
  0
LINE
  5
316
330
1F
100
AcDbEntity
  8
0
  6
Continuous
 62
     7
370
     0
100
AcDbLine
 10
68.2488921475
 20
85.0208268597
 30
0.0
 11
68.2488921475
 21
89.0208275154
 31
0.0
  0
LINE
  5
317
330
1F
100
AcDbEntity
  8
0
  6
Continuous
 62
     7
370
     0
100
AcDbLine
 10
68.2488921475
 20
85.0208268597
 30
0.0
 11
74.562458266
 21
85.0208268597
 31
0.0
  0
LINE
  5
318
330
1F
100
AcDbEntity
  8
0
  6
Continuous
 62
     7
370
     0
100
AcDbLine
 10
74.562458266
 20
81.0208271354
 30
0.0
 11
74.562458266
 21
85.0208268597
 31
0.0
  0
LINE
  5
319
330
1F
100
AcDbEntity
  8
0
  6
Continuous
 62
     7
370
     0
100
AcDbLine
 10
63.5289549273
 20
92.0208261445
 30
0.0
 11
63.5289549273
 21
81.0208271354
 31
0.0
  0
LINE
  5
31A
330
1F
100
AcDbEntity
  8
0
  6
Continuous
 62
     7
370
     0
100
AcDbLine
 10
63.5289549273
 20
92.0208261445
 30
0.0
 11
74.562458266
 21
92.0208261445
 31
0.0
  0
LINE
  5
31B
330
1F
100
AcDbEntity
  8
0
  6
Continuous
 62
     7
370
     0
100
AcDbLine
 10
74.562458266
 20
89.0208275154
 30
0.0
 11
74.562458266
 21
92.0208261445
 31
0.0
  0
LINE
  5
31C
330
1F
100
AcDbEntity
  8
0
  6
Continuous
 62
     7
370
     0
100
AcDbLine
 10
68.2488921475
 20
89.0208275154
 30
0.0
 11
74.562458266
 21
89.0208275154
 31
0.0
  0
LINE
  5
31D
330
1F
100
AcDbEntity
  8
0
  6
Continuous
 62
     7
370
     0
100
AcDbLine
 10
62.0178086129
 20
92.0208261445
 30
0.0
 11
63.5289549273
 21
92.0208261445
 31
0.0
  0
LINE
  5
31E
330
1F
100
AcDbEntity
  8
0
  6
Continuous
 62
     7
370
     0
100
AcDbLine
 10
62.0178086129
 20
81.0208271354
 30
0.0
 11
62.0178086129
 21
92.0208261445
 31
0.0
  0
LINE
  5
31F
330
1F
100
AcDbEntity
  8
0
  6
Continuous
 62
     7
370
     0
100
AcDbLine
 10
75.0560787883
 20
92.0208261445
 30
0.0
 11
75.0560787883
 21
89.0208275154
 31
0.0
  0
LINE
  5
320
330
1F
100
AcDbEntity
  8
0
  6
Continuous
 62
     7
370
     0
100
AcDbLine
 10
75.0560787883
 20
89.0208275154
 30
0.0
 11
74.562458266
 21
89.0208275154
 31
0.0
  0
LINE
  5
321
330
1F
100
AcDbEntity
  8
0
  6
Continuous
 62
     7
370
     0
100
AcDbLine
 10
74.562458266
 20
92.0208261445
 30
0.0
 11
75.0560787883
 21
92.0208261445
 31
0.0
  0
LINE
  5
322
330
1F
100
AcDbEntity
  8
0
  6
Continuous
 62
     7
370
     0
100
AcDbLine
 10
75.0560787883
 20
85.0208268597
 30
0.0
 11
75.0560787883
 21
81.0208271354
 31
0.0
  0
LINE
  5
323
330
1F
100
AcDbEntity
  8
0
  6
Continuous
 62
     7
370
     0
100
AcDbLine
 10
74.562458266
 20
85.0208268597
 30
0.0
 11
75.0560787883
 21
85.0208268597
 31
0.0
  0
LINE
  5
324
330
1F
100
AcDbEntity
  8
0
  6
Continuous
 62
     7
370
     0
100
AcDbLine
 10
61.92791177
 20
84.0208266958
 30
0.0
 11
61.92791177
 21
82.020826368
 31
0.0
  0
LINE
  5
325
330
1F
100
AcDbEntity
  8
0
  6
Continuous
 62
     7
370
     0
100
AcDbLine
 10
60.4865298983
 20
90.0208276793
 30
0.0
 11
60.4865298983
 21
89.7208263263
 31
0.0
  0
LINE
  5
326
330
1F
100
AcDbEntity
  8
0
  6
Continuous
 62
     7
370
     0
100
AcDbLine
 10
60.4865298983
 20
84.3208271175
 30
0.0
 11
60.4865298983
 21
84.0208266958
 31
0.0
  0
LINE
  5
327
330
1F
100
AcDbEntity
  8
0
  6
Continuous
 62
     7
370
     0
100
AcDbLine
 10
61.92791177
 20
92.0208261445
 30
0.0
 11
61.92791177
 21
90.0208276793
 31
0.0
  0
LINE
  5
328
330
1F
100
AcDbEntity
  8
0
  6
Continuous
 62
     7
370
     0
100
AcDbLine
 10
62.0178086129
 20
82.020826368
 30
0.0
 11
61.92791177
 21
82.020826368
 31
0.0
  0
LINE
  5
329
330
1F
100
AcDbEntity
  8
0
  6
Continuous
 62
     7
370
     0
100
AcDbLine
 10
61.92791177
 20
92.0208261445
 30
0.0
 11
62.0178086129
 21
92.0208261445
 31
0.0
  0
LINE
  5
32A
330
1F
100
AcDbEntity
  8
0
  6
Continuous
 62
     7
370
     0
100
AcDbLine
 10
59.7959840116
 20
90.0208276793
 30
0.0
 11
59.7959840116
 21
89.7208263263
 31
0.0
  0
LINE
  5
32B
330
1F
100
AcDbEntity
  8
0
  6
Continuous
 62
     7
370
     0
100
AcDbLine
 10
59.7959840116
 20
84.3208271175
 30
0.0
 11
59.7959840116
 21
84.0208266958
 31
0.0
  0
LINE
  5
32C
330
1F
100
AcDbEntity
  8
0
  6
Continuous
 62
     7
370
     0
100
AcDbLine
 10
59.255466741
 20
84.3208271175
 30
0.0
 11
59.255466741
 21
84.0208266958
 31
0.0
  0
LINE
  5
32D
330
1F
100
AcDbEntity
  8
0
  6
Continuous
 62
     7
370
     0
100
AcDbLine
 10
59.255466741
 20
90.0208276793
 30
0.0
 11
59.255466741
 21
89.7208263263
 31
0.0
  0
LINE
  5
32E
330
1F
100
AcDbEntity
  8
0
  6
Continuous
 62
     7
370
     0
100
AcDbLine
 10
60.8707246748
 20
92.0208261445
 30
0.0
 11
60.8707246748
 21
90.5208268299
 31
0.0
  0
LINE
  5
32F
330
1F
100
AcDbEntity
  8
0
  6
Continuous
 62
     7
370
     0
100
AcDbLine
 10
61.3842857447
 20
92.0208261445
 30
0.0
 11
60.8707246748
 21
92.0208261445
 31
0.0
  0
LINE
  5
330
330
1F
100
AcDbEntity
  8
0
  6
Continuous
 62
     7
370
     0
100
AcDbLine
 10
60.8707246748
 20
83.5208266139
 30
0.0
 11
60.8707246748
 21
82.020826368
 31
0.0
  0
LINE
  5
331
330
1F
100
AcDbEntity
  8
0
  6
Continuous
 62
     7
370
     0
100
AcDbLine
 10
61.3842857447
 20
82.020826368
 30
0.0
 11
60.8707246748
 21
82.020826368
 31
0.0
  0
CIRCLE
  5
332
330
1F
100
AcDbEntity
  8
0
  6
Continuous
 62
     7
370
     0
100
AcDbCircle
 10
77.9428569741
 20
73.0208267554
 30
0.0
 40
1.799999999999989
  0
CIRCLE
  5
333
330
1F
100
AcDbEntity
  8
0
  6
Continuous
 62
     7
370
     0
100
AcDbCircle
 10
77.9428569741
 20
73.0208267554
 30
0.0
 40
1.500000000000002
  0
CIRCLE
  5
334
330
1F
100
AcDbEntity
  8
0
  6
Continuous
 62
     7
370
     0
100
AcDbCircle
 10
77.9428569741
 20
73.0208267554
 30
0.0
 40
1.049999999999996
  0
ARC
  5
335
330
1F
100
AcDbEntity
  8
0
  6
Continuous
 62
     7
370
     0
100
AcDbCircle
 10
77.9428569741
 20
73.0208267554
 30
0.0
 40
4.29999999997041
100
AcDbArc
 50
24.882113171
 51
41.8243043567
  0
SPLINE
  5
336
330
1F
100
AcDbEntity
  8
0
  6
Continuous
 62
     7
370
     0
100
AcDbSpline
210
0.0
220
0.0
230
1.0
 70
    24
 71
     3
 72
     8
 73
     4
 74
     0
 42
0.000000001
 43
0.00000001
 40
0.0
 40
0.0
 40
0.0
 40
0.0
 40
1.0
 40
1.0
 40
1.0
 40
1.0
 10
81.84371124033568
 20
74.83006305591387
 30
0.0
 10
81.87351008418894
 20
74.3214760958622
 30
0.0
 10
81.90413085396754
 20
73.79886104767971
 30
0.0
 10
81.93600868692587
 20
73.2547912764778
 30
0.0
  0
ARC
  5
337
330
1F
100
AcDbEntity
  8
0
  6
Continuous
 62
     7
370
     0
100
AcDbCircle
 10
77.9428569741
 20
73.0208267554
 30
0.0
 40
3.999999999940353
100
AcDbArc
 50
3.3532087641
 51
63.3532087571
  0
SPLINE
  5
338
330
1F
100
AcDbEntity
  8
0
  6
Continuous
 62
     7
370
     0
100
AcDbSpline
210
0.0
220
0.0
230
1.0
 70
    24
 71
     3
 72
     8
 73
     4
 74
     0
 42
0.000000001
 43
0.00000001
 40
0.0
 40
0.0
 40
0.0
 40
0.0
 40
1.0
 40
1.0
 40
1.0
 40
1.0
 10
79.73681361250401
 20
76.59597983999649
 30
0.0
 10
80.22393077227188
 20
76.35155196757206
 30
0.0
 10
80.69183906529489
 20
76.11676280804429
 30
0.0
 10
81.14718771464568
 20
75.88827588382017
 30
0.0
  0
ARC
  5
339
330
1F
100
AcDbEntity
  8
0
  6
Continuous
 62
     7
370
     0
100
AcDbCircle
 10
77.9428569741
 20
73.0208267554
 30
0.0
 40
4.300000000089874
100
AcDbArc
 50
84.8821131727
 51
101.8243043543
  0
SPLINE
  5
33A
330
1F
100
AcDbEntity
  8
0
  6
Continuous
 62
     7
370
     0
100
AcDbSpline
210
0.0
220
0.0
230
1.0
 70
    24
 71
     3
 72
     8
 73
     4
 74
     0
 42
0.000000001
 43
0.00000001
 40
0.0
 40
0.0
 40
0.0
 40
0.0
 40
1.0
 40
1.0
 40
1.0
 40
1.0
 10
78.32643950975091
 20
77.30368379656132
 30
0.0
 10
78.78178815923009
 20
77.07519687227278
 30
0.0
 10
79.24969645263234
 20
76.84040771251385
 30
0.0
 10
79.73681361251543
 20
76.5959798400316
 30
0.0
  0
ARC
  5
33B
330
1F
100
AcDbEntity
  8
0
  6
Continuous
 62
     7
370
     0
100
AcDbCircle
 10
77.9428569741
 20
73.0208267554
 30
0.0
 40
4.000000000000014
100
AcDbArc
 50
63.3532087571
 51
123.3532087452
  0
SPLINE
  5
33C
330
1F
100
AcDbEntity
  8
0
  6
Continuous
 62
     7
370
     0
100
AcDbSpline
210
0.0
220
0.0
230
1.0
 70
    24
 71
     3
 72
     8
 73
     4
 74
     0
 42
0.000000001
 43
0.00000001
 40
0.0
 40
0.0
 40
0.0
 40
0.0
 40
1.0
 40
1.0
 40
1.0
 40
1.0
 10
75.74366189963767
 20
76.3620153200816
 30
0.0
 10
76.19890122638311
 20
76.66165721880589
 30
0.0
 10
76.63618874992969
 20
76.94948310762064
 30
0.0
 10
77.06173855535813
 20
77.22958314337971
 30
0.0
  0
ARC
  5
33D
330
1F
100
AcDbEntity
  8
0
  6
Continuous
 62
     7
370
     0
100
AcDbCircle
 10
77.9428569741
 20
73.0208267554
 30
0.0
 40
4.300000000147953
100
AcDbArc
 50
144.8821131734
 51
161.824304353
  0
SPLINE
  5
33E
330
1F
100
AcDbEntity
  8
0
  6
Continuous
 62
     7
370
     0
100
AcDbSpline
210
0.0
220
0.0
230
1.0
 70
    24
 71
     3
 72
     8
 73
     4
 74
     0
 42
0.000000001
 43
0.00000001
 40
0.0
 40
0.0
 40
0.0
 40
0.0
 40
1.0
 40
1.0
 40
1.0
 40
1.0
 10
74.42558524229327
 20
75.49444749571069
 30
0.0
 10
74.85113504830598
 20
75.77454753185432
 30
0.0
 10
75.28842257225209
 20
76.06237342093594
 30
0.0
 10
75.74366189963767
 20
76.3620153200816
 30
0.0
  0
ARC
  5
33F
330
1F
100
AcDbEntity
  8
0
  6
Continuous
 62
     7
370
     0
100
AcDbCircle
 10
77.9428569741
 20
73.0208267554
 30
0.0
 40
4.000000000000014
100
AcDbArc
 50
123.3532087452
 51
183.3532087738
  0
SPLINE
  5
340
330
1F
100
AcDbEntity
  8
0
  6
Continuous
 62
     7
370
     0
100
AcDbSpline
210
0.0
220
0.0
230
1.0
 70
    24
 71
     3
 72
     8
 73
     4
 74
     0
 42
0.000000001
 43
0.00000001
 40
0.0
 40
0.0
 40
0.0
 40
0.0
 40
1.0
 40
1.0
 40
1.0
 40
1.0
 10
73.9497052612507
 20
72.78686223375618
 30
0.0
 10
73.91782742825595
 20
73.33093200557921
 30
0.0
 10
73.88720665842006
 20
73.85354705451634
 30
0.0
 10
73.8574078145346
 20
74.36213401511792
 30
0.0
  0
ARC
  5
341
330
1F
100
AcDbEntity
  8
0
  6
Continuous
 62
     7
370
     0
100
AcDbCircle
 10
77.9428569741
 20
73.0208267554
 30
0.0
 40
4.299999999970391
100
AcDbArc
 50
204.882113171
 51
221.8243043611
  0
ARC
  5
342
330
1F
100
AcDbEntity
  8
0
  6
Continuous
 62
     7
370
     0
100
AcDbCircle
 10
77.9428569741
 20
73.0208267554
 30
0.0
 40
3.999999999940344
100
AcDbArc
 50
183.3532087738
 51
243.3532087689
  0
SPLINE
  5
343
330
1F
100
AcDbEntity
  8
0
  6
Continuous
 62
     7
370
     0
100
AcDbSpline
210
0.0
220
0.0
230
1.0
 70
    24
 71
     3
 72
     8
 73
     4
 74
     0
 42
0.000000001
 43
0.00000001
 40
0.0
 40
0.0
 40
0.0
 40
0.0
 40
1.0
 40
1.0
 40
1.0
 40
1.0
 10
76.14890033635714
 20
69.44567367047738
 30
0.0
 10
75.66178317657237
 20
69.69010154291027
 30
0.0
 10
75.19387488351715
 20
69.92489070245422
 30
0.0
 10
74.73852623412844
 20
70.15337762669736
 30
0.0
  0
SPLINE
  5
344
330
1F
100
AcDbEntity
  8
0
  6
Continuous
 62
     7
370
     0
100
AcDbSpline
210
0.0
220
0.0
230
1.0
 70
    24
 71
     3
 72
     8
 73
     4
 74
     0
 42
0.000000001
 43
0.00000001
 40
0.0
 40
0.0
 40
0.0
 40
0.0
 40
1.0
 40
1.0
 40
1.0
 40
1.0
 10
74.04200270775918
 20
71.21159045418979
 30
0.0
 10
74.01220386390591
 20
71.72017741424203
 30
0.0
 10
73.98158309419748
 20
72.24279246252824
 30
0.0
 10
73.94970526123777
 20
72.78686223375342
 30
0.0
  0
ARC
  5
345
330
1F
100
AcDbEntity
  8
0
  6
Continuous
 62
     7
370
     0
100
AcDbCircle
 10
77.9428569741
 20
73.0208267554
 30
0.0
 40
4.300000000035604
100
AcDbArc
 50
324.8821131696
 51
341.8243043573
  0
SPLINE
  5
346
330
1F
100
AcDbEntity
  8
0
  6
Continuous
 62
     7
370
     0
100
AcDbSpline
210
0.0
220
0.0
230
1.0
 70
    24
 71
     3
 72
     8
 73
     4
 74
     0
 42
0.000000001
 43
0.00000001
 40
0.0
 40
0.0
 40
0.0
 40
0.0
 40
1.0
 40
1.0
 40
1.0
 40
1.0
 10
81.46012870523285
 20
70.54720601473117
 30
0.0
 10
81.03457889966009
 20
70.26710597887711
 30
0.0
 10
80.59729137621304
 20
69.97928009012786
 30
0.0
 10
80.1420520493255
 20
69.67963819131002
 30
0.0
  0
ARC
  5
347
330
1F
100
AcDbEntity
  8
0
  6
Continuous
 62
     7
370
     0
100
AcDbCircle
 10
77.9428569741
 20
73.0208267554
 30
0.0
 40
3.999999999999989
100
AcDbArc
 50
303.353208768
 51
3.3532087641
  0
SPLINE
  5
348
330
1F
100
AcDbEntity
  8
0
  6
Continuous
 62
     7
370
     0
100
AcDbSpline
210
0.0
220
0.0
230
1.0
 70
    24
 71
     3
 72
     8
 73
     4
 74
     0
 42
0.000000001
 43
0.00000001
 40
0.0
 40
0.0
 40
0.0
 40
0.0
 40
1.0
 40
1.0
 40
1.0
 40
1.0
 10
81.93600868688975
 20
73.25479127647013
 30
0.0
 10
81.96788651985739
 20
72.71072150510963
 30
0.0
 10
81.99850728969062
 20
72.18810645661897
 30
0.0
 10
82.02830613355248
 20
71.67951949642043
 30
0.0
  0
ARC
  5
349
330
1F
100
AcDbEntity
  8
0
  6
Continuous
 62
     7
370
     0
100
AcDbCircle
 10
77.9428569741
 20
73.0208267554
 30
0.0
 40
4.299999999977217
100
AcDbArc
 50
264.8821131727
 51
281.8243043587
  0
ARC
  5
34A
330
1F
100
AcDbEntity
  8
0
  6
Continuous
 62
     7
370
     0
100
AcDbCircle
 10
77.9428569741
 20
73.0208267554
 30
0.0
 40
3.999999999999989
100
AcDbArc
 50
243.3532087689
 51
303.353208768
  0
SPLINE
  5
34B
330
1F
100
AcDbEntity
  8
0
  6
Continuous
 62
     7
370
     0
100
AcDbSpline
210
0.0
220
0.0
230
1.0
 70
    24
 71
     3
 72
     8
 73
     4
 74
     0
 42
0.000000001
 43
0.00000001
 40
0.0
 40
0.0
 40
0.0
 40
0.0
 40
1.0
 40
1.0
 40
1.0
 40
1.0
 10
80.1420520493255
 20
69.67963819131002
 30
0.0
 10
79.68681272238103
 20
69.37999629245473
 30
0.0
 10
79.24952519901754
 20
69.09217040376048
 30
0.0
 10
78.82397539338254
 20
68.81207036786545
 30
0.0
  0
SPLINE
  5
34C
330
1F
100
AcDbEntity
  8
0
  6
Continuous
 62
     7
370
     0
100
AcDbSpline
210
0.0
220
0.0
230
1.0
 70
    24
 71
     3
 72
     8
 73
     4
 74
     0
 42
0.000000001
 43
0.00000001
 40
0.0
 40
0.0
 40
0.0
 40
0.0
 40
1.0
 40
1.0
 40
1.0
 40
1.0
 10
77.5592744390232
 20
68.73796971395622
 30
0.0
 10
77.10392578958195
 20
68.96645663822574
 30
0.0
 10
76.63601749621193
 20
69.2012457979685
 30
0.0
 10
76.14890033634572
 20
69.44567367044226
 30
0.0
  0
LINE
  5
34D
330
1F
100
AcDbEntity
  8
0
  6
Continuous
 62
     7
370
     0
100
AcDbLine
 10
48.5115823713
 20
90.5208268299
 30
0.0
 11
48.5115823713
 21
83.5208266139
 31
0.0
  0
LINE
  5
34E
330
1F
100
AcDbEntity
  8
0
  6
Continuous
 62
     7
370
     0
100
AcDbLine
 10
48.5115823713
 20
83.5208266139
 30
0.0
 11
45.645200592
 21
83.5208266139
 31
0.0
  0
LINE
  5
34F
330
1F
100
AcDbEntity
  8
0
  6
Continuous
 62
     7
370
     0
100
AcDbLine
 10
45.645200592
 20
84.3208271175
 30
0.0
 11
45.645200592
 21
83.5208266139
 31
0.0
  0
LINE
  5
350
330
1F
100
AcDbEntity
  8
0
  6
Continuous
 62
     7
370
     0
100
AcDbLine
 10
45.645200592
 20
89.7208263263
 30
0.0
 11
45.645200592
 21
84.3208271175
 31
0.0
  0
LINE
  5
351
330
1F
100
AcDbEntity
  8
0
  6
Continuous
 62
     7
370
     0
100
AcDbLine
 10
45.645200592
 20
90.5208268299
 30
0.0
 11
45.645200592
 21
89.7208263263
 31
0.0
  0
LINE
  5
352
330
1F
100
AcDbEntity
  8
0
  6
Continuous
 62
     7
370
     0
100
AcDbLine
 10
48.5115823713
 20
90.5208268299
 30
0.0
 11
45.645200592
 21
90.5208268299
 31
0.0
  0
LINE
  5
353
330
1F
100
AcDbEntity
  8
0
  6
Continuous
 62
     7
370
     0
100
AcDbLine
 10
49.0048312959
 20
84.0208266958
 30
0.0
 11
49.0048312959
 21
90.0208276793
 31
0.0
  0
LINE
  5
354
330
1F
100
AcDbEntity
  8
0
  6
Continuous
 62
     7
370
     0
100
AcDbLine
 10
61.92791177
 20
84.0208266958
 30
0.0
 11
49.0048312959
 21
84.0208266958
 31
0.0
  0
LINE
  5
355
330
1F
100
AcDbEntity
  8
0
  6
Continuous
 62
     7
370
     0
100
AcDbLine
 10
48.5115823713
 20
83.5208266139
 30
0.0
 11
61.92791177
 21
83.5208266139
 31
0.0
  0
LINE
  5
356
330
1F
100
AcDbEntity
  8
0
  6
Continuous
 62
     7
370
     0
100
AcDbLine
 10
49.0048312959
 20
90.0208276793
 30
0.0
 11
61.92791177
 21
90.0208276793
 31
0.0
  0
LINE
  5
357
330
1F
100
AcDbEntity
  8
0
  6
Continuous
 62
     7
370
     0
100
AcDbLine
 10
61.92791177
 20
90.5208268299
 30
0.0
 11
48.5115823713
 21
90.5208268299
 31
0.0
  0
LINE
  5
358
330
1F
100
AcDbEntity
  8
0
  6
Continuous
 62
     7
370
     0
100
AcDbLine
 10
45.645200592
 20
84.3208271175
 30
0.0
 11
45.638450366
 21
84.3208271175
 31
0.0
  0
LINE
  5
359
330
1F
100
AcDbEntity
  8
0
  6
Continuous
 62
     7
370
     0
100
AcDbLine
 10
45.638450366
 20
89.7208263263
 30
0.0
 11
45.645200592
 21
89.7208263263
 31
0.0
  0
LINE
  5
35A
330
1F
100
AcDbEntity
  8
0
  6
Continuous
 62
     7
370
     0
100
AcDbLine
 10
50.3803761122
 20
84.3208271175
 30
0.0
 11
49.0048312959
 21
84.3208271175
 31
0.0
  0
LINE
  5
35B
330
1F
100
AcDbEntity
  8
0
  6
Continuous
 62
     7
370
     0
100
AcDbLine
 10
50.3803761122
 20
89.7208263263
 30
0.0
 11
49.0048312959
 21
89.7208263263
 31
0.0
  0
ARC
  5
35C
330
1F
100
AcDbEntity
  8
0
  6
Continuous
 62
     7
370
     0
100
AcDbCircle
 10
50.4876558342
 20
87.0208267219
 30
0.0
 40
0.3500208290448489
100
AcDbArc
 50
90.6269994328
 51
269.3730005672
  0
CIRCLE
  5
35D
330
1F
100
AcDbEntity
  8
0
  6
Continuous
 62
     7
370
     0
100
AcDbCircle
 10
51.304005962
 20
87.0178158821
 30
0.0
 40
0.34699115657448
  0
CIRCLE
  5
35E
330
1F
100
AcDbEntity
  8
0
  6
Continuous
 62
     7
370
     0
100
AcDbCircle
 10
53.2769960725
 20
87.0178158821
 30
0.0
 40
0.34699115657448
  0
ARC
  5
35F
330
1F
100
AcDbEntity
  8
0
  6
Continuous
 62
     7
370
     0
100
AcDbCircle
 10
52.4606446858
 20
87.0208267219
 30
0.0
 40
0.3500208152712336
100
AcDbArc
 50
90.6267933763
 51
269.3732066237
  0
ARC
  5
360
330
1F
100
AcDbEntity
  8
0
  6
Continuous
 62
     7
370
     0
100
AcDbCircle
 10
50.4817704088
 20
87.0102521363
 30
0.0
 40
0.6894286854006839
100
AcDbArc
 50
270.1707960945
 51
330.5062676737
  0
ARC
  5
361
330
1F
100
AcDbEntity
  8
0
  6
Continuous
 62
     7
370
     0
100
AcDbCircle
 10
50.4826562357
 20
87.016797332
 30
0.0
 40
0.695971800294641
100
AcDbArc
 50
30.5761675187
 51
270.096264597
  0
ARC
  5
362
330
1F
100
AcDbEntity
  8
0
  6
Continuous
 62
     7
370
     0
100
AcDbCircle
 10
50.0001056777
 20
87.0208267219
 30
0.0
 40
0.7000421062093284
100
AcDbArc
 50
90.6268680185
 51
269.3731319815
  0
ARC
  5
363
330
1F
100
AcDbEntity
  8
0
  6
Continuous
 62
     7
370
     0
100
AcDbCircle
 10
51.9675145701
 20
87.0313223839
 30
0.0
 40
0.6895076819389424
100
AcDbArc
 50
90.1728072258
 51
151.0347243325
  0
ARC
  5
364
330
1F
100
AcDbEntity
  8
0
  6
Continuous
 62
     7
370
     0
100
AcDbCircle
 10
51.9675145701
 20
87.0103310599
 30
0.0
 40
0.6895076819389424
100
AcDbArc
 50
208.9652756675
 51
269.8271927742
  0
ARC
  5
365
330
1F
100
AcDbEntity
  8
0
  6
Continuous
 62
     7
370
     0
100
AcDbCircle
 10
52.4547557764
 20
87.0102602403
 30
0.0
 40
0.6894368035477472
100
AcDbArc
 50
270.1711882469
 51
330.5058755213
  0
ARC
  5
366
330
1F
100
AcDbEntity
  8
0
  6
Continuous
 62
     7
370
     0
100
AcDbCircle
 10
52.4556463462
 20
87.016797332
 30
0.0
 40
0.695971800294641
100
AcDbArc
 50
30.5761675187
 51
270.096264597
  0
ARC
  5
367
330
1F
100
AcDbEntity
  8
0
  6
Continuous
 62
     7
370
     0
100
AcDbCircle
 10
48.3786700245
 20
89.2424729632
 30
0.0
 40
0.8335040994959695
100
AcDbArc
 50
351.6080037293
 51
26.9961881233
  0
LINE
  5
368
330
1F
100
AcDbEntity
  8
0
  6
Continuous
 62
     7
370
     0
100
AcDbLine
 10
49.2032495704
 20
89.1208273455
 30
0.0
 11
49.2032495704
 21
84.9208270296
 31
0.0
  0
ARC
  5
369
330
1F
100
AcDbEntity
  8
0
  6
Continuous
 62
     7
370
     0
100
AcDbCircle
 10
48.3786673782
 20
84.7991811406
 30
0.0
 40
0.8335067570169605
100
AcDbArc
 50
333.0038540226
 51
8.3919881721
  0
LINE
  5
36A
330
1F
100
AcDbEntity
  8
0
  6
Continuous
 62
     7
370
     0
100
AcDbLine
 10
49.1213527885
 20
89.6208264961
 30
0.0
 11
52.8700341848
 21
89.6208264961
 31
0.0
  0
ELLIPSE
  5
36B
330
1F
100
AcDbEntity
  8
0
  6
Continuous
 62
     7
370
     0
100
AcDbEllipse
 10
52.5740848604
 20
89.1208267554
 30
0.0
 11
0.3011173276587158
 21
0.498678038833532
 31
0.0
210
0.0
220
0.0
230
1.0
 40
0.1206663986
 41
4.785122579350642
 42
6.355918906145539
  0
LINE
  5
36C
330
1F
100
AcDbEntity
  8
0
  6
Continuous
 62
     7
370
     0
100
AcDbLine
 10
52.6559808669
 20
89.1208273455
 30
0.0
 11
49.2032495704
 21
89.1208273455
 31
0.0
  0
LINE
  5
36D
330
1F
100
AcDbEntity
  8
0
  6
Continuous
 62
     7
370
     0
100
AcDbLine
 10
49.2032495704
 20
84.9208270296
 30
0.0
 11
52.6559808669
 21
84.9208270296
 31
0.0
  0
ELLIPSE
  5
36E
330
1F
100
AcDbEntity
  8
0
  6
Continuous
 62
     7
370
     0
100
AcDbEllipse
 10
52.5740848604
 20
84.9208267554
 30
0.0
 11
-0.3011173276587158
 21
0.498678038833532
 31
0.0
210
0.0
220
0.0
230
1.0
 40
0.1206663986
 41
3.068859054623841
 42
4.639655381418743
  0
LINE
  5
36F
330
1F
100
AcDbEntity
  8
0
  6
Continuous
 62
     7
370
     0
100
AcDbLine
 10
52.8700341848
 20
84.4208269476
 30
0.0
 11
49.1213527885
 21
84.4208269476
 31
0.0
  0
LINE
  5
370
330
1F
100
AcDbEntity
  8
0
  6
Continuous
 62
     7
370
     0
100
AcDbLine
 10
49.0048312959
 20
89.6208264961
 30
0.0
 11
49.1213527885
 21
89.6208264961
 31
0.0
  0
LINE
  5
371
330
1F
100
AcDbEntity
  8
0
  6
Continuous
 62
     7
370
     0
100
AcDbLine
 10
49.1213527885
 20
84.4208269476
 30
0.0
 11
49.0048312959
 21
84.4208269476
 31
0.0
  0
ELLIPSE
  5
372
330
1F
100
AcDbEntity
  8
0
  6
Continuous
 62
     7
370
     0
100
AcDbEllipse
 10
52.5740848604
 20
89.1208267554
 30
0.0
 11
0.499531798216232
 21
0.2977972734188939
 31
0.0
210
0.0
220
0.0
230
1.0
 40
0.0726430587
 41
6.239905987730651
 42
6.404440614401783
  0
ELLIPSE
  5
373
330
1F
100
AcDbEntity
  8
0
  6
Continuous
 62
     7
370
     0
100
AcDbEllipse
 10
52.5740848604
 20
84.9208267554
 30
0.0
 11
0.499531798216232
 21
-0.2977972734188939
 31
0.0
210
0.0
220
0.0
230
1.0
 40
0.0726430587
 41
6.161929999957586
 42
6.326464626628706
  0
LINE
  5
374
330
1F
100
AcDbEntity
  8
0
  6
Continuous
 62
     7
370
     0
100
AcDbLine
 10
52.5588252959
 20
89.7208263263
 30
0.0
 11
52.5588252959
 21
89.6208264961
 31
0.0
  0
LINE
  5
375
330
1F
100
AcDbEntity
  8
0
  6
Continuous
 62
     7
370
     0
100
AcDbLine
 10
50.3803761122
 20
89.7208263263
 30
0.0
 11
50.3803761122
 21
89.6208264961
 31
0.0
  0
LINE
  5
376
330
1F
100
AcDbEntity
  8
0
  6
Continuous
 62
     7
370
     0
100
AcDbLine
 10
50.3803761122
 20
89.7208263263
 30
0.0
 11
52.5588252959
 21
89.7208263263
 31
0.0
  0
LINE
  5
377
330
1F
100
AcDbEntity
  8
0
  6
Continuous
 62
     7
370
     0
100
AcDbLine
 10
61.2399791744
 20
89.7208263263
 30
0.0
 11
61.2399791744
 21
84.3208271175
 31
0.0
  0
LINE
  5
378
330
1F
100
AcDbEntity
  8
0
  6
Continuous
 62
     7
370
     0
100
AcDbLine
 10
52.5588252959
 20
84.3208271175
 30
0.0
 11
61.2399791744
 21
84.3208271175
 31
0.0
  0
LINE
  5
379
330
1F
100
AcDbEntity
  8
0
  6
Continuous
 62
     7
370
     0
100
AcDbLine
 10
52.5588252959
 20
84.4208269476
 30
0.0
 11
52.5588252959
 21
84.3208271175
 31
0.0
  0
LINE
  5
37A
330
1F
100
AcDbEntity
  8
0
  6
Continuous
 62
     7
370
     0
100
AcDbLine
 10
52.5588252959
 20
89.7208263263
 30
0.0
 11
61.2399791744
 21
89.7208263263
 31
0.0
  0
LINE
  5
37B
330
1F
100
AcDbEntity
  8
0
  6
Continuous
 62
     7
370
     0
100
AcDbLine
 10
50.3803761122
 20
84.3208271175
 30
0.0
 11
52.5588252959
 21
84.3208271175
 31
0.0
  0
LINE
  5
37C
330
1F
100
AcDbEntity
  8
0
  6
Continuous
 62
     7
370
     0
100
AcDbLine
 10
50.3803761122
 20
84.4208269476
 30
0.0
 11
50.3803761122
 21
84.3208271175
 31
0.0
  0
LINE
  5
37D
330
1F
100
AcDbEntity
  8
0
  6
Continuous
 62
     7
370
     0
100
AcDbLine
 10
54.7101487783
 20
90.9208261504
 30
0.0
 11
52.964459118
 21
90.9208261504
 31
0.0
  0
LINE
  5
37E
330
1F
100
AcDbEntity
  8
0
  6
Continuous
 62
     7
370
     0
100
AcDbLine
 10
55.964457747
 20
90.9208261504
 30
0.0
 11
54.7101487783
 21
90.9208261504
 31
0.0
  0
LINE
  5
37F
330
1F
100
AcDbEntity
  8
0
  6
Continuous
 62
     7
370
     0
100
AcDbLine
 10
54.6610103366
 20
91.2208275035
 30
0.0
 11
55.6644582567
 21
91.2208275035
 31
0.0
  0
LINE
  5
380
330
1F
100
AcDbEntity
  8
0
  6
Continuous
 62
     7
370
     0
100
AcDbLine
 10
53.2644586083
 20
91.2208275035
 30
0.0
 11
54.6610103366
 21
91.2208275035
 31
0.0
  0
LINE
  5
381
330
1F
100
AcDbEntity
  8
0
  6
Continuous
 62
     7
370
     0
100
AcDbLine
 10
52.964459118
 20
83.120826362
 30
0.0
 11
55.964457747
 21
83.120826362
 31
0.0
  0
LINE
  5
382
330
1F
100
AcDbEntity
  8
0
  6
Continuous
 62
     7
370
     0
100
AcDbLine
 10
55.6644582567
 20
82.8208268716
 30
0.0
 11
53.2644586083
 21
82.8208268716
 31
0.0
  0
ARC
  5
383
330
1F
100
AcDbEntity
  8
0
  6
Continuous
 62
     7
370
     0
100
AcDbCircle
 10
63.3772802457
 20
88.9997336633
 30
0.0
 40
3.604286488543143
100
AcDbArc
 50
98.2759499588
 51
108.4466685232
  0
ARC
  5
384
330
1F
100
AcDbEntity
  8
0
  6
Continuous
 62
     7
370
     0
100
AcDbCircle
 10
62.3553571668
 20
91.9746319645
 30
0.0
 40
0.4597429901258022
100
AcDbArc
 50
75.0565642689
 51
104.9434357311
  0
ARC
  5
385
330
1F
100
AcDbEntity
  8
0
  6
Continuous
 62
     7
370
     0
100
AcDbCircle
 10
63.6143662683
 20
88.9998074632
 30
0.0
 40
3.604210933952104
100
AcDbArc
 50
98.2758430743
 51
108.4467754077
  0
LINE
  5
386
330
1F
100
AcDbEntity
  8
0
  6
Continuous
 62
     7
370
     0
100
AcDbLine
 10
63.0955797997
 20
92.5664861783
 30
0.0
 11
63.3149109226
 21
92.5664861783
 31
0.0
  0
ARC
  5
387
330
1F
100
AcDbEntity
  8
0
  6
Continuous
 62
     7
370
     0
100
AcDbCircle
 10
63.0266733133
 20
91.9324689412
 30
0.0
 40
0.6964616115327245
100
AcDbArc
 50
44.2929277494
 51
65.5524536333
  0
ARC
  5
388
330
1F
100
AcDbEntity
  8
0
  6
Continuous
 62
     7
370
     0
100
AcDbCircle
 10
63.8756793369
 20
88.4737449777
 30
0.0
 40
3.960620737603785
100
AcDbArc
 50
84.9229926578
 51
95.0770073422
  0
ARC
  5
389
330
1F
100
AcDbEntity
  8
0
  6
Continuous
 62
     7
370
     0
100
AcDbCircle
 10
63.7276602574
 20
91.9324689412
 30
0.0
 40
0.6964616115327245
100
AcDbArc
 50
44.2929277494
 51
65.5524536333
  0
LINE
  5
38A
330
1F
100
AcDbEntity
  8
0
  6
Continuous
 62
     7
370
     0
100
AcDbLine
 10
64.0158978668
 20
92.5664861783
 30
0.0
 11
64.1243578312
 21
92.5664861783
 31
0.0
  0
ARC
  5
38B
330
1F
100
AcDbEntity
  8
0
  6
Continuous
 62
     7
370
     0
100
AcDbCircle
 10
63.6055625982
 20
88.9997705639
 30
0.0
 40
3.604248710597851
100
AcDbArc
 50
71.5532780342
 51
81.7241034838
  0
LWPOLYLINE
  5
38C
330
1F
100
AcDbEntity
  8
0
  6
Continuous
 62
     7
370
     0
100
AcDbPolyline
 90
        3
 70
   128
 43
0.0
 10
64.0168617857
 20
92.5452278092
 10
63.9661363703
 20
92.5541293904
 10
63.8872552109
 20
92.5664861783
  0
LINE
  5
38D
330
1F
100
AcDbEntity
  8
0
  6
Continuous
 62
     7
370
     0
100
AcDbLine
 10
63.8872552109
 20
92.5664861783
 30
0.0
 11
63.6679231566
 21
92.5664861783
 31
0.0
  0
ARC
  5
38E
330
1F
100
AcDbEntity
  8
0
  6
Continuous
 62
     7
370
     0
100
AcDbCircle
 10
63.9436673553
 20
91.9545146257
 30
0.0
 40
0.6712257773987521
100
AcDbArc
 50
114.2555347559
 51
132.3585357884
  0
LINE
  5
38F
330
1F
100
AcDbEntity
  8
0
  6
Continuous
 62
     7
370
     0
100
AcDbLine
 10
62.9669362125
 20
92.5664861783
 30
0.0
 11
62.8584762481
 21
92.5664861783
 31
0.0
  0
SPLINE
  5
390
330
1F
100
AcDbEntity
  8
0
  6
Continuous
 62
     7
370
     0
100
AcDbSpline
210
0.0
220
0.0
230
1.0
 70
     8
 71
     3
 72
     8
 73
     4
 74
     0
 42
0.000000001
 43
0.00000001
 40
0.0
 40
0.0
 40
0.0
 40
0.0
 40
1.0
 40
1.0
 40
1.0
 40
1.0
 10
64.01589811269638
 20
92.56648667741462
 30
0.0
 10
64.01456363014441
 20
92.51726535153398
 30
0.0
 10
64.01322431644351
 20
92.46804527787624
 30
0.0
 10
64.01187982147374
 20
92.41882654719173
 30
0.0
  0
SPLINE
  5
391
330
1F
100
AcDbEntity
  8
0
  6
Continuous
 62
     7
370
     0
100
AcDbSpline
210
0.0
220
0.0
230
1.0
 70
     8
 71
     3
 72
     8
 73
     4
 74
     0
 42
0.000000001
 43
0.00000001
 40
0.0
 40
0.0
 40
0.0
 40
0.0
 40
1.0
 40
1.0
 40
1.0
 40
1.0
 10
63.88725506893593
 20
92.56648667741463
 30
0.0
 10
63.88330970444789
 20
92.51726528833359
 30
0.0
 10
63.87935005676989
 20
92.4680451514787
 30
0.0
 10
63.8753750907782
 20
92.4188263576006
 30
0.0
  0
SPLINE
  5
392
330
1F
100
AcDbEntity
  8
0
  6
Continuous
 62
     7
370
     0
100
AcDbSpline
210
0.0
220
0.0
230
1.0
 70
     8
 71
     3
 72
     8
 73
     4
 74
     0
 42
0.000000001
 43
0.00000001
 40
0.0
 40
0.0
 40
0.0
 40
0.0
 40
1.0
 40
1.0
 40
1.0
 40
1.0
 10
63.66792309670259
 20
92.56648667741462
 30
0.0
 10
63.66925758122157
 20
92.51726527898306
 30
0.0
 10
63.67059689690367
 20
92.4680451327781
 30
0.0
 10
63.67194139387048
 20
92.41882632955048
 30
0.0
  0
LINE
  5
393
330
1F
100
AcDbEntity
  8
0
  6
Continuous
 62
     7
370
     0
100
AcDbLine
 10
97.4428569344
 20
77.0208269454
 30
0.0
 11
99.1565090981
 21
77.0208269454
 31
0.0
  0
LINE
  5
394
330
1F
100
AcDbEntity
  8
0
  6
Continuous
 62
     7
370
     0
100
AcDbLine
 10
99.1565090981
 20
77.0208269454
 30
0.0
 11
99.1565090981
 21
69.0208265654
 31
0.0
  0
LINE
  5
395
330
1F
100
AcDbEntity
  8
0
  6
Continuous
 62
     7
370
     0
100
AcDbLine
 10
97.4428569344
 20
69.0208265654
 30
0.0
 11
99.1565090981
 21
69.0208265654
 31
0.0
  0
LINE
  5
396
330
1F
100
AcDbEntity
  8
0
  6
Continuous
 62
     7
370
     0
100
AcDbLine
 10
82.0435727392
 20
92.0208261445
 30
0.0
 11
85.4963040356
 21
92.0208261445
 31
0.0
  0
LINE
  5
397
330
1F
100
AcDbEntity
  8
0
  6
Continuous
 62
     7
370
     0
100
AcDbLine
 10
85.4963040356
 20
92.0208261445
 30
0.0
 11
85.4963040356
 21
81.0208271354
 31
0.0
  0
LINE
  5
398
330
1F
100
AcDbEntity
  8
0
  6
Continuous
 62
     7
370
     0
100
AcDbLine
 10
82.0435727392
 20
92.0208261445
 30
0.0
 11
82.0435727392
 21
81.0208271354
 31
0.0
  0
LINE
  5
399
330
1F
100
AcDbEntity
  8
0
  6
Continuous
 62
     7
370
     0
100
AcDbLine
 10
90.4101021034
 20
92.0208261445
 30
0.0
 11
90.4101021034
 21
81.0208271354
 31
0.0
  0
LINE
  5
39A
330
1F
100
AcDbEntity
  8
0
  6
Continuous
 62
     7
370
     0
100
AcDbLine
 10
85.4963040356
 20
92.0208261445
 30
0.0
 11
90.4101021034
 21
92.0208261445
 31
0.0
  0
LINE
  5
39B
330
1F
100
AcDbEntity
  8
0
  6
Continuous
 62
     8
370
     0
100
AcDbLine
 10
49.2032495704
 20
89.1208273455
 30
0.0
 11
49.0048312959
 21
89.1208273455
 31
0.0
  0
LWPOLYLINE
  5
39C
330
1F
100
AcDbEntity
  8
0
  6
Continuous
 62
     8
370
     0
100
AcDbPolyline
 90
        3
 70
   128
 43
0.0
 10
49.1213527885
 20
89.6208264961
 10
49.0251248148
 20
89.6112189725
 10
49.0048312959
 20
89.6066741183
  0
LINE
  5
39D
330
1F
100
AcDbEntity
  8
0
  6
Continuous
 62
     8
370
     0
100
AcDbLine
 10
49.0048312959
 20
84.9208270296
 30
0.0
 11
49.2032495704
 21
84.9208270296
 31
0.0
  0
LWPOLYLINE
  5
39E
330
1F
100
AcDbEntity
  8
0
  6
Continuous
 62
     8
370
     0
100
AcDbPolyline
 90
        3
 70
   128
 43
0.0
 10
49.0048312959
 20
84.4349793255
 10
49.0251248148
 20
84.4304344713
 10
49.1213527885
 20
84.4208269476
  0
LINE
  5
39F
330
1F
100
AcDbEntity
  8
0
  6
Continuous
 62
     8
370
     0
100
AcDbLine
 10
52.6559808669
 20
87.6910795554
 30
0.0
 11
52.6559808669
 21
89.1208273455
 31
0.0
  0
LINE
  5
3A0
330
1F
100
AcDbEntity
  8
0
  6
Continuous
 62
     8
370
     0
100
AcDbLine
 10
52.6559808669
 20
84.9208270296
 30
0.0
 11
52.6559808669
 21
86.3505738884
 31
0.0
  0
ELLIPSE
  5
3A1
330
1F
100
AcDbEntity
  8
0
  6
Continuous
 62
     8
370
     0
100
AcDbEllipse
 10
52.5740848604
 20
89.1208267554
 30
0.0
 11
0.499531798216232
 21
0.2977972734188939
 31
0.0
210
0.0
220
0.0
230
1.0
 40
0.0726430587
 41
4.833644287606955
 42
6.239905987730651
  0
ELLIPSE
  5
3A2
330
1F
100
AcDbEntity
  8
0
  6
Continuous
 62
     8
370
     0
100
AcDbEllipse
 10
52.5740848604
 20
84.9208267554
 30
0.0
 11
0.499531798216232
 21
-0.2977972734188939
 31
0.0
210
0.0
220
0.0
230
1.0
 40
0.0726430587
 41
0.0432793194491265
 42
1.449541019572625
  0
LINE
  5
3A3
330
1F
100
AcDbEntity
  8
0
  6
Continuous
 62
     8
370
     0
100
AcDbLine
 10
61.92791177
 20
82.4158310055
 30
0.0
 11
60.9914166299
 21
82.4158310055
 31
0.0
  0
LINE
  5
3A4
330
1F
100
AcDbEntity
  8
0
  6
Continuous
 62
     8
370
     0
100
AcDbLine
 10
61.92791177
 20
82.2240223273
 30
0.0
 11
61.0871621785
 21
82.2240223273
 31
0.0
  0
LINE
  5
3A5
330
1F
100
AcDbEntity
  8
0
  6
Continuous
 62
     8
370
     0
100
AcDbLine
 10
61.0871621785
 20
91.8176301851
 30
0.0
 11
61.92791177
 21
91.8176301851
 31
0.0
  0
LINE
  5
3A6
330
1F
100
AcDbEntity
  8
0
  6
Continuous
 62
     8
370
     0
100
AcDbLine
 10
60.9914166299
 20
91.6258224383
 30
0.0
 11
61.92791177
 21
91.6258224383
 31
0.0
  0
DIMENSION
  5
3A7
330
1F
100
AcDbEntity
  8
0
  6
Continuous
 62
     7
370
     0
100
AcDbDimension
  2
_D_14
 10
99.1565094474
 20
43.0208267554
 30
0.0
 11
72.4008553285
 21
43.0208267554
 31
0.0
 70
   160
  1
(<>)
 71
     2
 42
-1.0
  3
SLDDIMSTYLE0
100
AcDbAlignedDimension
 13
45.6452012096
 23
83.5208267554
 33
0.0
 14
99.1565094474
 24
69.0208267554
 34
0.0
 50
0.0
100
AcDbRotatedDimension
  0
DIMENSION
  5
3B3
330
1F
100
AcDbEntity
  8
0
  6
Continuous
 62
     7
370
     0
100
AcDbDimension
  2
_D_15
 10
99.1565094474
 20
55.0208267554
 30
0.0
 11
88.5496832107
 21
55.0208267554
 31
0.0
 70
   160
  1
(<>)
 71
     2
 42
-1.0
  3
SLDDIMSTYLE0
100
AcDbAlignedDimension
 13
77.9428569741
 23
73.0208267554
 33
0.0
 14
99.1565094474
 24
69.0208267554
 34
0.0
 50
0.0
100
AcDbRotatedDimension
  0
INSERT
  5
3CA
330
1F
100
AcDbEntity
  8
0
  6
Continuous
 62
     7
370
     0
100
AcDbBlockReference
  2
SW_CENTERMARKSYMBOL_3
 10
77.9428569741
 20
73.0208267554
 30
0.0
  0
ENDSEC
  0
SECTION
  2
OBJECTS
  0
DICTIONARY
  5
C
330
0
100
AcDbDictionary
281
     1
  3
ACAD_GROUP
350
D
  3
ACAD_LAYOUT
350
1A
  3
ACAD_MLINESTYLE
350
17
  3
ACAD_PLOTSETTINGS
350
19
  3
ACAD_PLOTSTYLENAME
350
E
  3
ACAD_SCALELIST
350
47
  0
DICTIONARY
  5
D
102
{ACAD_REACTORS
330
C
102
}
330
C
100
AcDbDictionary
281
     1
  0
DICTIONARY
  5
1A
102
{ACAD_REACTORS
330
C
102
}
330
C
100
AcDbDictionary
281
     1
  3
Layout1
350
1E
  3
Layout2
350
26
  3
Model
350
22
  0
DICTIONARY
  5
17
102
{ACAD_REACTORS
330
C
102
}
330
C
100
AcDbDictionary
281
     1
  3
Standard
350
18
  0
DICTIONARY
  5
19
102
{ACAD_REACTORS
330
C
102
}
330
C
100
AcDbDictionary
281
     1
  0
ACDBDICTIONARYWDFLT
  5
E
102
{ACAD_REACTORS
330
C
102
}
330
C
100
AcDbDictionary
281
     1
  3
Normal
350
F
100
AcDbDictionaryWithDefault
340
F
  0
DICTIONARY
  5
47
102
{ACAD_REACTORS
330
C
102
}
330
C
100
AcDbDictionary
281
     1
  3
A0
350
48
  3
A1
350
49
  3
A2
350
4A
  3
A3
350
4B
  3
A4
350
4C
  3
A5
350
4D
  3
A6
350
4E
  3
A7
350
4F
  3
A8
350
50
  3
A9
350
51
  3
B0
350
52
  3
B1
350
53
  3
B2
350
54
  3
B3
350
55
  3
B4
350
56
  3
B5
350
57
  3
B6
350
58
  3
B7
350
59
  3
B8
350
5A
  3
B9
350
5B
  3
C0
350
5C
  3
C1
350
5D
  3
C2
350
5E
  3
C3
350
5F
  3
C4
350
60
  3
C5
350
61
  3
C6
350
62
  3
C7
350
63
  3
C8
350
64
  3
C9
350
65
  3
D0
350
66
  3
D1
350
67
  3
D2
350
68
  0
LAYOUT
  5
1E
102
{ACAD_REACTORS
330
1A
102
}
330
1A
100
AcDbPlotSettings
  1

  2
none_device
  4

  6

 40
0.0
 41
0.0
 42
0.0
 43
0.0
 44
0.0
 45
0.0
 46
0.0
 47
0.0
 48
0.0
 49
0.0
140
0.0
141
0.0
142
1.0
143
1.0
 70
   688
 72
     1
 73
     0
 74
     5
  7

 75
    16
147
1.0
148
0.0
149
0.0
100
AcDbLayout
  1
Layout1
 70
     1
 71
     1
 10
0.0
 20
0.0
 11
420.0
 21
297.0
 12
0.0
 22
0.0
 32
0.0
 14
1.0000000000E+20
 24
1.0000000000E+20
 34
1.0000000000E+20
 15
-1.0000000000E+20
 25
-1.0000000000E+20
 35
-1.0000000000E+20
146
0.0
 13
0.0
 23
0.0
 33
0.0
 16
1.0
 26
0.0
 36
0.0
 17
0.0
 27
1.0
 37
0.0
 76
     0
330
1B
  0
LAYOUT
  5
26
102
{ACAD_REACTORS
330
1A
102
}
330
1A
100
AcDbPlotSettings
  1

  2
none_device
  4

  6

 40
0.0
 41
0.0
 42
0.0
 43
0.0
 44
0.0
 45
0.0
 46
0.0
 47
0.0
 48
0.0
 49
0.0
140
0.0
141
0.0
142
1.0
143
1.0
 70
   688
 72
     1
 73
     0
 74
     5
  7

 75
    16
147
1.0
148
0.0
149
0.0
100
AcDbLayout
  1
Layout2
 70
     1
 71
     2
 10
0.0
 20
0.0
 11
0.0
 21
0.0
 12
0.0
 22
0.0
 32
0.0
 14
0.0
 24
0.0
 34
0.0
 15
0.0
 25
0.0
 35
0.0
146
0.0
 13
0.0
 23
0.0
 33
0.0
 16
1.0
 26
0.0
 36
0.0
 17
0.0
 27
1.0
 37
0.0
 76
     0
330
23
  0
LAYOUT
  5
22
102
{ACAD_REACTORS
330
1A
102
}
330
1A
100
AcDbPlotSettings
  1

  2
none_device
  4
Letter_(8.50_x_11.00_Inches)
  6

 40
6.35
 41
6.35
 42
6.35000508
 43
6.35000508
 44
215.9
 45
279.4
 46
0.0
 47
0.0
 48
0.0
 49
0.0
140
0.0
141
0.0
142
1.0
143
1.0
 70
  1712
 72
     1
 73
     0
 74
     0
  7

 75
     0
147
1.0
148
0.0
149
0.0
100
AcDbLayout
  1
Model
 70
     1
 71
     0
 10
0.0
 20
0.0
 11
210.0
 21
297.0
 12
0.0
 22
0.0
 32
0.0
 14
0.0
 24
0.0
 34
0.0
 15
210.0
 25
297.0
 35
0.0
146
0.0
 13
0.0
 23
0.0
 33
0.0
 16
1.0
 26
0.0
 36
0.0
 17
0.0
 27
1.0
 37
0.0
 76
     0
330
1F
331
29
  0
MLINESTYLE
  5
18
102
{ACAD_REACTORS
330
17
102
}
330
17
100
AcDbMlineStyle
  2
Standard
 70
     0
  3

 62
   256
 51
90.0
 52
90.0
 71
     2
 49
0.5
 62
   256
  6
BYLAYER
 49
-0.5
 62
   256
  6
BYLAYER
  0
ACDBPLACEHOLDER
  5
F
102
{ACAD_REACTORS
330
E
102
}
330
E
  0
SCALE
  5
48
102
{ACAD_REACTORS
330
47
102
}
330
47
100
AcDbScale
 70
     0
300
1:1
140
1.0
141
1.0
290
     1
  0
SCALE
  5
49
102
{ACAD_REACTORS
330
47
102
}
330
47
100
AcDbScale
 70
     0
300
1:2
140
1.0
141
2.0
290
     0
  0
SCALE
  5
4A
102
{ACAD_REACTORS
330
47
102
}
330
47
100
AcDbScale
 70
     0
300
1:4
140
1.0
141
4.0
290
     0
  0
SCALE
  5
4B
102
{ACAD_REACTORS
330
47
102
}
330
47
100
AcDbScale
 70
     0
300
1:5
140
1.0
141
5.0
290
     0
  0
SCALE
  5
4C
102
{ACAD_REACTORS
330
47
102
}
330
47
100
AcDbScale
 70
     0
300
1:8
140
1.0
141
8.0
290
     0
  0
SCALE
  5
4D
102
{ACAD_REACTORS
330
47
102
}
330
47
100
AcDbScale
 70
     0
300
1:10
140
1.0
141
10.0
290
     0
  0
SCALE
  5
4E
102
{ACAD_REACTORS
330
47
102
}
330
47
100
AcDbScale
 70
     0
300
1:16
140
1.0
141
16.0
290
     0
  0
SCALE
  5
4F
102
{ACAD_REACTORS
330
47
102
}
330
47
100
AcDbScale
 70
     0
300
1:20
140
1.0
141
20.0
290
     0
  0
SCALE
  5
50
102
{ACAD_REACTORS
330
47
102
}
330
47
100
AcDbScale
 70
     0
300
1:30
140
1.0
141
30.0
290
     0
  0
SCALE
  5
51
102
{ACAD_REACTORS
330
47
102
}
330
47
100
AcDbScale
 70
     0
300
1:40
140
1.0
141
40.0
290
     0
  0
SCALE
  5
52
102
{ACAD_REACTORS
330
47
102
}
330
47
100
AcDbScale
 70
     0
300
1:50
140
1.0
141
50.0
290
     0
  0
SCALE
  5
53
102
{ACAD_REACTORS
330
47
102
}
330
47
100
AcDbScale
 70
     0
300
1:100
140
1.0
141
100.0
290
     0
  0
SCALE
  5
54
102
{ACAD_REACTORS
330
47
102
}
330
47
100
AcDbScale
 70
     0
300
2:1
140
2.0
141
1.0
290
     0
  0
SCALE
  5
55
102
{ACAD_REACTORS
330
47
102
}
330
47
100
AcDbScale
 70
     0
300
4:1
140
4.0
141
1.0
290
     0
  0
SCALE
  5
56
102
{ACAD_REACTORS
330
47
102
}
330
47
100
AcDbScale
 70
     0
300
8:1
140
8.0
141
1.0
290
     0
  0
SCALE
  5
57
102
{ACAD_REACTORS
330
47
102
}
330
47
100
AcDbScale
 70
     0
300
10:1
140
10.0
141
1.0
290
     0
  0
SCALE
  5
58
102
{ACAD_REACTORS
330
47
102
}
330
47
100
AcDbScale
 70
     0
300
100:1
140
100.0
141
1.0
290
     0
  0
SCALE
  5
59
102
{ACAD_REACTORS
330
47
102
}
330
47
100
AcDbScale
 70
     0
300
1/128" = 1'-0"
140
0.0078125
141
12.0
290
     0
  0
SCALE
  5
5A
102
{ACAD_REACTORS
330
47
102
}
330
47
100
AcDbScale
 70
     0
300
1/64" = 1'-0"
140
0.015625
141
12.0
290
     0
  0
SCALE
  5
5B
102
{ACAD_REACTORS
330
47
102
}
330
47
100
AcDbScale
 70
     0
300
1/32" = 1'-0"
140
0.03125
141
12.0
290
     0
  0
SCALE
  5
5C
102
{ACAD_REACTORS
330
47
102
}
330
47
100
AcDbScale
 70
     0
300
1/16" = 1'-0"
140
0.0625
141
12.0
290
     0
  0
SCALE
  5
5D
102
{ACAD_REACTORS
330
47
102
}
330
47
100
AcDbScale
 70
     0
300
3/32" = 1'-0"
140
0.09375
141
12.0
290
     0
  0
SCALE
  5
5E
102
{ACAD_REACTORS
330
47
102
}
330
47
100
AcDbScale
 70
     0
300
1/8" = 1'-0"
140
0.125
141
12.0
290
     0
  0
SCALE
  5
5F
102
{ACAD_REACTORS
330
47
102
}
330
47
100
AcDbScale
 70
     0
300
3/16" = 1'-0"
140
0.1875
141
12.0
290
     0
  0
SCALE
  5
60
102
{ACAD_REACTORS
330
47
102
}
330
47
100
AcDbScale
 70
     0
300
1/4" = 1'-0"
140
0.25
141
12.0
290
     0
  0
SCALE
  5
61
102
{ACAD_REACTORS
330
47
102
}
330
47
100
AcDbScale
 70
     0
300
3/8" = 1'-0"
140
0.375
141
12.0
290
     0
  0
SCALE
  5
62
102
{ACAD_REACTORS
330
47
102
}
330
47
100
AcDbScale
 70
     0
300
1/2" = 1'-0"
140
0.5
141
12.0
290
     0
  0
SCALE
  5
63
102
{ACAD_REACTORS
330
47
102
}
330
47
100
AcDbScale
 70
     0
300
3/4" = 1'-0"
140
0.75
141
12.0
290
     0
  0
SCALE
  5
64
102
{ACAD_REACTORS
330
47
102
}
330
47
100
AcDbScale
 70
     0
300
1" = 1'-0"
140
1.0
141
12.0
290
     0
  0
SCALE
  5
65
102
{ACAD_REACTORS
330
47
102
}
330
47
100
AcDbScale
 70
     0
300
1-1/2" = 1'-0"
140
1.5
141
12.0
290
     0
  0
SCALE
  5
66
102
{ACAD_REACTORS
330
47
102
}
330
47
100
AcDbScale
 70
     0
300
3" = 1'-0"
140
3.0
141
12.0
290
     0
  0
SCALE
  5
67
102
{ACAD_REACTORS
330
47
102
}
330
47
100
AcDbScale
 70
     0
300
6" = 1'-0"
140
6.0
141
12.0
290
     0
  0
SCALE
  5
68
102
{ACAD_REACTORS
330
47
102
}
330
47
100
AcDbScale
 70
     0
300
1'-0" = 1'-0"
140
12.0
141
12.0
290
     0
  0
ENDSEC
  0
EOF
