  0
SECTION
  2
HEADER
  9
$ACADVER
  1
AC1015
  9
$ACADMAINTVER
 70
     6
  9
$DWGCODEPAGE
  3
DOS932
  9
$INSBASE
 10
0.0
 20
0.0
 30
0.0
  9
$EXTMIN
 10
0.0
 20
0.0
 30
0.0
  9
$EXTMAX
 10
210.0
 20
297.0
 30
0.0
  9
$LIMMIN
 10
0.0
 20
0.0
  9
$LIMMAX
 10
210.0
 20
297.0
  9
$ORTHOMODE
 70
     0
  9
$REGENMODE
 70
     1
  9
$FILLMODE
 70
     1
  9
$QTEXTMODE
 70
     0
  9
$MIRRTEXT
 70
     1
  9
$LTSCALE
 40
1.0
  9
$ATTMODE
 70
     1
  9
$TEXTSIZE
 40
3.5
  9
$TRACEWID
 40
1.0
  9
$TEXTSTYLE
  7
Standard
  9
$CLAYER
  8
0
  9
$CELTYPE
  6
ByLayer
  9
$CECOLOR
 62
   256
  9
$CELTSCALE
 40
1.0
  9
$DISPSILH
 70
     0
  9
$DIMSCALE
 40
1.0
  9
$DIMASZ
 40
2.0
  9
$DIMEXO
 40
1.0
  9
$DIMDLI
 40
3.75
  9
$DIMRND
 40
0.0
  9
$DIMDLE
 40
0.0
  9
$DIMEXE
 40
1.0
  9
$DIMTP
 40
0.0
  9
$DIMTM
 40
0.0
  9
$DIMTXT
 40
3.5
  9
$DIMCEN
 40
2.5
  9
$DIMTSZ
 40
0.0
  9
$DIMTOL
 70
     0
  9
$DIMLIM
 70
     0
  9
$DIMTIH
 70
     1
  9
$DIMTOH
 70
     1
  9
$DIMSE1
 70
     0
  9
$DIMSE2
 70
     0
  9
$DIMTAD
 70
     1
  9
$DIMZIN
 70
     0
  9
$DIMBLK
  1

  9
$DIMASO
 70
     1
  9
$DIMSHO
 70
     1
  9
$DIMPOST
  1

  9
$DIMAPOST
  1

  9
$DIMALT
 70
     0
  9
$DIMALTD
 70
     3
  9
$DIMALTF
 40
0.0393700787
  9
$DIMLFAC
 40
1.0
  9
$DIMTOFL
 70
     1
  9
$DIMTVP
 40
0.0
  9
$DIMTIX
 70
     0
  9
$DIMSOXD
 70
     0
  9
$DIMSAH
 70
     0
  9
$DIMBLK1
  1

  9
$DIMBLK2
  1

  9
$DIMSTYLE
  2
ISO-25
  9
$DIMCLRD
 70
     0
  9
$DIMCLRE
 70
     0
  9
$DIMCLRT
 70
     0
  9
$DIMTFAC
 40
1.0
  9
$DIMGAP
 40
1.524
  9
$DIMJUST
 70
     0
  9
$DIMSD1
 70
     0
  9
$DIMSD2
 70
     0
  9
$DIMTOLJ
 70
     0
  9
$DIMTZIN
 70
     0
  9
$DIMALTZ
 70
     0
  9
$DIMALTTZ
 70
     0
  9
$DIMUPT
 70
     0
  9
$DIMDEC
 70
     2
  9
$DIMTDEC
 70
     2
  9
$DIMALTU
 70
     2
  9
$DIMALTTD
 70
     3
  9
$DIMTXSTY
  7
Standard
  9
$DIMAUNIT
 70
     0
  9
$DIMADEC
 70
     2
  9
$DIMALTRND
 40
0.0
  9
$DIMAZIN
 70
     0
  9
$DIMDSEP
 70
    44
  9
$DIMATFIT
 70
     3
  9
$DIMFRAC
 70
     0
  9
$DIMLDRBLK
  1

  9
$DIMLUNIT
 70
     2
  9
$DIMLWD
 70
    -2
  9
$DIMLWE
 70
    -2
  9
$DIMTMOVE
 70
     0
  9
$LUNITS
 70
     2
  9
$LUPREC
 70
     2
  9
$SKETCHINC
 40
1.0
  9
$FILLETRAD
 40
10.0
  9
$AUNITS
 70
     0
  9
$AUPREC
 70
     2
  9
$MENU
  1
.
  9
$ELEVATION
 40
0.0
  9
$PELEVATION
 40
0.0
  9
$THICKNESS
 40
0.0
  9
$LIMCHECK
 70
     0
  9
$CHAMFERA
 40
10.0
  9
$CHAMFERB
 40
10.0
  9
$CHAMFERC
 40
20.0
  9
$CHAMFERD
 40
0.0
  9
$SKPOLY
 70
     0
  9
$TDCREATE
 40
2456910.902525787
  9
$TDUCREATE
 40
2456910.527525787
  9
$TDUPDATE
 40
2456910.902528496
  9
$TDUUPDATE
 40
2456910.527528496
  9
$TDINDWG
 40
0.0000000116
  9
$TDUSRTIMER
 40
0.0000000116
  9
$USRTIMER
 70
     1
  9
$ANGBASE
 50
0.0
  9
$ANGDIR
 70
     0
  9
$PDMODE
 70
     0
  9
$PDSIZE
 40
-1.0
  9
$PLINEWID
 40
0.0
  9
$SPLFRAME
 70
     0
  9
$SPLINETYPE
 70
     6
  9
$SPLINESEGS
 70
     8
  9
$HANDSEED
  5
36B
  9
$SURFTAB1
 70
     6
  9
$SURFTAB2
 70
     6
  9
$SURFTYPE
 70
     6
  9
$SURFU
 70
     6
  9
$SURFV
 70
     6
  9
$UCSBASE
  2

  9
$UCSNAME
  2

  9
$UCSORG
 10
0.0
 20
0.0
 30
0.0
  9
$UCSXDIR
 10
1.0
 20
0.0
 30
0.0
  9
$UCSYDIR
 10
0.0
 20
1.0
 30
0.0
  9
$UCSORTHOREF
  2

  9
$UCSORTHOVIEW
 70
     0
  9
$UCSORGTOP
 10
0.0
 20
0.0
 30
0.0
  9
$UCSORGBOTTOM
 10
0.0
 20
0.0
 30
0.0
  9
$UCSORGLEFT
 10
0.0
 20
0.0
 30
0.0
  9
$UCSORGRIGHT
 10
0.0
 20
0.0
 30
0.0
  9
$UCSORGFRONT
 10
0.0
 20
0.0
 30
0.0
  9
$UCSORGBACK
 10
0.0
 20
0.0
 30
0.0
  9
$PUCSBASE
  2

  9
$PUCSNAME
  2

  9
$PUCSORG
 10
0.0
 20
0.0
 30
0.0
  9
$PUCSXDIR
 10
1.0
 20
0.0
 30
0.0
  9
$PUCSYDIR
 10
0.0
 20
1.0
 30
0.0
  9
$PUCSORTHOREF
  2

  9
$PUCSORTHOVIEW
 70
     0
  9
$PUCSORGTOP
 10
0.0
 20
0.0
 30
0.0
  9
$PUCSORGBOTTOM
 10
0.0
 20
0.0
 30
0.0
  9
$PUCSORGLEFT
 10
0.0
 20
0.0
 30
0.0
  9
$PUCSORGRIGHT
 10
0.0
 20
0.0
 30
0.0
  9
$PUCSORGFRONT
 10
0.0
 20
0.0
 30
0.0
  9
$PUCSORGBACK
 10
0.0
 20
0.0
 30
0.0
  9
$USERI1
 70
     0
  9
$USERI2
 70
     0
  9
$USERI3
 70
     0
  9
$USERI4
 70
     0
  9
$USERI5
 70
     0
  9
$USERR1
 40
0.0
  9
$USERR2
 40
0.0
  9
$USERR3
 40
0.0
  9
$USERR4
 40
0.0
  9
$USERR5
 40
0.0
  9
$WORLDVIEW
 70
     1
  9
$SHADEDGE
 70
     3
  9
$SHADEDIF
 70
    70
  9
$TILEMODE
 70
     1
  9
$MAXACTVP
 70
    64
  9
$PINSBASE
 10
0.0
 20
0.0
 30
0.0
  9
$PLIMCHECK
 70
     0
  9
$PEXTMIN
 10
1.0000000000E+20
 20
1.0000000000E+20
 30
1.0000000000E+20
  9
$PEXTMAX
 10
-1.0000000000E+20
 20
-1.0000000000E+20
 30
-1.0000000000E+20
  9
$PLIMMIN
 10
0.0
 20
0.0
  9
$PLIMMAX
 10
420.0
 20
297.0
  9
$UNITMODE
 70
     0
  9
$VISRETAIN
 70
     1
  9
$PLINEGEN
 70
     0
  9
$PSLTSCALE
 70
     1
  9
$TREEDEPTH
 70
  3020
  9
$CMLSTYLE
  2
Standard
  9
$CMLJUST
 70
     0
  9
$CMLSCALE
 40
20.0
  9
$PROXYGRAPHICS
 70
     1
  9
$MEASUREMENT
 70
     1
  9
$CELWEIGHT
370
    -1
  9
$ENDCAPS
280
     0
  9
$JOINSTYLE
280
     0
  9
$LWDISPLAY
290
     1
  9
$INSUNITS
 70
     4
  9
$HYPERLINKBASE
  1

  9
$STYLESHEET
  1

  9
$XEDIT
290
     1
  9
$CEPSNTYPE
380
     0
  9
$PSTYLEMODE
290
     1
  9
$FINGERPRINTGUID
  2
{2EFC7876-3265-403A-86EC-BF5AF4734B3D}
  9
$VERSIONGUID
  2
{FAEB1C32-E019-11D5-929B-00C0DF256EC4}
  9
$EXTNAMES
290
     1
  9
$PSVPSCALE
 40
0.0
  9
$OLESTARTUP
290
     0
  0
ENDSEC
  0
SECTION
  2
CLASSES
  0
CLASS
  1
ACDBDICTIONARYWDFLT
  2
AcDbDictionaryWithDefault
  3
ObjectDBX Classes
 90
        0
280
     0
281
     0
  0
CLASS
  1
VISUALSTYLE
  2
AcDbVisualStyle
  3
ObjectDBX Classes
 90
     4095
280
     0
281
     0
  0
CLASS
  1
MATERIAL
  2
AcDbMaterial
  3
ObjectDBX Classes
 90
     1153
280
     0
281
     0
  0
CLASS
  1
ACDBPLACEHOLDER
  2
AcDbPlaceHolder
  3
ObjectDBX Classes
 90
        0
280
     0
281
     0
  0
CLASS
  1
LAYOUT
  2
AcDbLayout
  3
ObjectDBX Classes
 90
        0
280
     0
281
     0
  0
ENDSEC
  0
SECTION
  2
TABLES
  0
TABLE
  2
VPORT
  5
8
330
0
100
AcDbSymbolTable
 70
     1
  0
VPORT
  5
29
330
8
100
AcDbSymbolTableRecord
100
AcDbViewportTableRecord
  2
*Active
 70
     0
 10
0.0
 20
0.0
 11
1.0
 21
1.0
 12
105.0
 22
148.5
 13
0.0
 23
0.0
 14
10.0
 24
10.0
 15
10.0
 25
10.0
 16
0.0
 26
0.0
 36
1.0
 17
0.0
 27
0.0
 37
0.0
 40
297.0
 41
0.7070707071
 42
50.0
 43
0.0
 44
0.0
 50
0.0
 51
0.0
 71
     0
 72
  2000
 73
     1
 74
     3
 75
     0
 76
     0
 77
     0
 78
     0
281
     0
 65
     1
110
0.0
120
0.0
130
0.0
111
1.0
121
0.0
131
0.0
112
0.0
122
1.0
132
0.0
 79
     0
146
0.0
  0
ENDTAB
  0
TABLE
  2
LTYPE
  5
5
330
0
100
AcDbSymbolTable
 70
     6
  0
LTYPE
  5
14
330
5
100
AcDbSymbolTableRecord
100
AcDbLinetypeTableRecord
  2
ByBlock
 70
     0
  3

 72
    65
 73
     0
 40
0.0
  0
LTYPE
  5
15
330
5
100
AcDbSymbolTableRecord
100
AcDbLinetypeTableRecord
  2
ByLayer
 70
     0
  3

 72
    65
 73
     0
 40
0.0
  0
LTYPE
  5
16
330
5
100
AcDbSymbolTableRecord
100
AcDbLinetypeTableRecord
  2
Continuous
 70
     0
  3
Solid line
 72
    65
 73
     0
 40
0.0
  0
LTYPE
  5
3F
330
5
100
AcDbSymbolTableRecord
100
AcDbLinetypeTableRecord
  2
HIDDEN
 70
     0
  3
Hidden __ __ __ __ __ __ __ __ __ __ __ __ __ __
 72
    65
 73
     2
 40
1.905
 49
1.27
 74
     0
 49
-0.635
 74
     0
  0
LTYPE
  5
40
330
5
100
AcDbSymbolTableRecord
100
AcDbLinetypeTableRecord
  2
PHANTOM
 70
     0
  3
Phantom ______  __  __  ______  __  __  ______
 72
    65
 73
     6
 40
12.7
 49
6.35
 74
     0
 49
-1.27
 74
     0
 49
1.27
 74
     0
 49
-1.27
 74
     0
 49
1.27
 74
     0
 49
-1.27
 74
     0
  0
LTYPE
  5
41
330
5
100
AcDbSymbolTableRecord
100
AcDbLinetypeTableRecord
  2
CENTER
 70
     0
  3
Center ____ _ ____ _ ____ _ ____ _ ____ _ ____
 72
    65
 73
     4
 40
10.16
 49
6.35
 74
     0
 49
-1.27
 74
     0
 49
1.27
 74
     0
 49
-1.27
 74
     0
  0
LTYPE
  5
42
330
5
100
AcDbSymbolTableRecord
100
AcDbLinetypeTableRecord
  2
CENTERX2
 70
     0
  3
Center (2x) ________  __  ________  __  _____
 72
    65
 73
     4
 40
20.32
 49
12.7
 74
     0
 49
-2.54
 74
     0
 49
2.54
 74
     0
 49
-2.54
 74
     0
  0
LTYPE
  5
43
330
5
100
AcDbSymbolTableRecord
100
AcDbLinetypeTableRecord
  2
DOT2
 70
     0
  3
Dot (.5x) ........................................
 72
    65
 73
     2
 40
0.635
 49
0.0
 74
     0
 49
-0.635
 74
     0
  0
ENDTAB
  0
TABLE
  2
LAYER
  5
2
330
0
100
AcDbSymbolTable
 70
     1
  0
LAYER
  5
10
330
2
100
AcDbSymbolTableRecord
100
AcDbLayerTableRecord
  2
0
 70
     0
 62
     7
  6
Continuous
370
    -3
390
F
  0
ENDTAB
  0
TABLE
  2
STYLE
  5
3
330
0
100
AcDbSymbolTable
 70
     3
  0
STYLE
  5
11
330
3
100
AcDbSymbolTableRecord
100
AcDbTextStyleTableRecord
  2
Standard
 70
     0
 40
0.0
 41
1.0
 50
0.0
 71
     0
 42
3.5
  3
txt
  4
bigfont
  0
STYLE
  5
4C
330
3
100
AcDbSymbolTableRecord
100
AcDbTextStyleTableRecord
  2
SLDTEXTSTYLE0
 70
     0
 40
0.0
 41
0.7
 50
0.0
 71
     0
 42
0.2
  3
TXT
  4
bigfont
  0
STYLE
  5
259
330
3
100
AcDbSymbolTableRecord
100
AcDbTextStyleTableRecord
  2
SLDTEXTSTYLE1
 70
     0
 40
0.0
 41
0.75
 50
0.0
 71
     0
 42
0.2
  3
TXT
  4
bigfont
  0
ENDTAB
  0
TABLE
  2
VIEW
  5
6
330
0
100
AcDbSymbolTable
 70
     0
  0
ENDTAB
  0
TABLE
  2
UCS
  5
7
330
0
100
AcDbSymbolTable
 70
     0
  0
ENDTAB
  0
TABLE
  2
APPID
  5
9
330
0
100
AcDbSymbolTable
 70
     1
  0
APPID
  5
12
330
9
100
AcDbSymbolTableRecord
100
AcDbRegAppTableRecord
  2
ACAD
 70
     0
  0
ENDTAB
  0
TABLE
  2
DIMSTYLE
  5
A
330
0
100
AcDbSymbolTable
 70
     6
100
AcDbDimStyleTable
  0
DIMSTYLE
105
27
330
A
100
AcDbSymbolTableRecord
100
AcDbDimStyleTableRecord
  2
ISO-25
 70
     0
 41
2.5
 42
0.625
 43
3.75
 44
1.25
 73
     0
 74
     0
 77
     1
 78
     8
140
2.5
141
2.5
143
0.0393700787
147
0.625
171
     3
172
     1
178
     0
271
     2
272
     2
274
     3
278
    44
283
     0
284
     8
340
11
  0
DIMSTYLE
105
25A
102
{ACAD_REACTORS
330
258
330
264
330
287
330
291
102
}
330
A
100
AcDbSymbolTableRecord
100
AcDbDimStyleTableRecord
  2
SLDDIMSTYLE0
 70
     0
 41
2.0
 44
0.0
 45
0.000000001
 73
     0
 74
     0
 77
     3
 78
    12
 79
     3
140
3.5
147
0.875
173
     1
178
     0
271
     2
272
     2
276
     2
284
    12
340
259
  0
DIMSTYLE
105
26F
102
{ACAD_REACTORS
330
26E
330
27B
102
}
330
A
100
AcDbSymbolTableRecord
100
AcDbDimStyleTableRecord
  2
SLDDIMSTYLE1
 70
     0
 41
2.0
 44
0.0
 45
0.000000001
 73
     0
 74
     0
 77
     3
 78
    12
 79
     3
140
3.5
147
0.875
172
     1
173
     1
178
     0
271
     2
272
     2
276
     2
284
    12
289
     0
340
259
  0
DIMSTYLE
105
29C
102
{ACAD_REACTORS
330
29B
102
}
330
A
100
AcDbSymbolTableRecord
100
AcDbDimStyleTableRecord
  2
SLDDIMSTYLE2
 70
     0
 41
2.0
 44
0.0
 45
0.000000001
 73
     0
 74
     0
 77
     3
 78
    12
 79
     3
140
3.5
141
0.0
147
0.875
173
     1
178
     0
271
     1
272
     1
276
     2
284
    12
340
259
  0
DIMSTYLE
105
2E1
102
{ACAD_REACTORS
330
2E0
330
2ED
102
}
330
A
100
AcDbSymbolTableRecord
100
AcDbDimStyleTableRecord
  2
SLDDIMSTYLE3
 70
     0
 41
2.0
 44
0.0
 45
0.000000001
 73
     0
 74
     0
 77
     3
 78
    12
 79
     3
140
3.5
147
0.875
172
     1
173
     1
178
     0
271
     1
272
     1
276
     2
284
    12
289
     0
340
259
  0
DIMSTYLE
105
2FA
102
{ACAD_REACTORS
330
2F9
102
}
330
A
100
AcDbSymbolTableRecord
100
AcDbDimStyleTableRecord
  2
SLDDIMSTYLE4
 70
     0
 41
2.0
 44
0.0
 45
0.000000001
 73
     0
 74
     0
 77
     3
 78
     8
 79
     2
140
3.5
147
0.875
172
     1
173
     1
178
     0
271
     1
272
     1
276
     2
284
    12
289
     0
340
259
  0
ENDTAB
  0
TABLE
  2
BLOCK_RECORD
  5
1
330
0
100
AcDbSymbolTable
 70
    12
  0
BLOCK_RECORD
  5
1F
330
1
100
AcDbSymbolTableRecord
100
AcDbBlockTableRecord
  2
*Model_Space
340
22
  0
BLOCK_RECORD
  5
1B
330
1
100
AcDbSymbolTableRecord
100
AcDbBlockTableRecord
  2
*Paper_Space
340
1E
  0
BLOCK_RECORD
  5
23
330
1
100
AcDbSymbolTableRecord
100
AcDbBlockTableRecord
  2
*Paper_Space0
340
26
  0
BLOCK_RECORD
  5
25B
330
1
100
AcDbSymbolTableRecord
100
AcDbBlockTableRecord
  2
_D
340
0
  0
BLOCK_RECORD
  5
265
330
1
100
AcDbSymbolTableRecord
100
AcDbBlockTableRecord
  2
_D_1
340
0
  0
BLOCK_RECORD
  5
270
330
1
100
AcDbSymbolTableRecord
100
AcDbBlockTableRecord
  2
_D_2
340
0
  0
BLOCK_RECORD
  5
27C
330
1
100
AcDbSymbolTableRecord
100
AcDbBlockTableRecord
  2
_D_3
340
0
  0
BLOCK_RECORD
  5
288
330
1
100
AcDbSymbolTableRecord
100
AcDbBlockTableRecord
  2
_D_4
340
0
  0
BLOCK_RECORD
  5
292
330
1
100
AcDbSymbolTableRecord
100
AcDbBlockTableRecord
  2
_D_5
340
0
  0
BLOCK_RECORD
  5
29D
330
1
100
AcDbSymbolTableRecord
100
AcDbBlockTableRecord
  2
_D_6
340
0
  0
BLOCK_RECORD
  5
2A4
330
1
100
AcDbSymbolTableRecord
100
AcDbBlockTableRecord
  2
SW_CENTERMARKSYMBOL_0
340
0
102
{BLKREFS
331
2AF
102
}
  0
BLOCK_RECORD
  5
2E2
330
1
100
AcDbSymbolTableRecord
100
AcDbBlockTableRecord
  2
_D_7
340
0
  0
BLOCK_RECORD
  5
2EE
330
1
100
AcDbSymbolTableRecord
100
AcDbBlockTableRecord
  2
_D_8
340
0
  0
BLOCK_RECORD
  5
2FB
330
1
100
AcDbSymbolTableRecord
100
AcDbBlockTableRecord
  2
_D_9
340
0
  0
ENDTAB
  0
ENDSEC
  0
SECTION
  2
BLOCKS
  0
BLOCK
  5
20
330
1F
100
AcDbEntity
  8
0
100
AcDbBlockBegin
  2
*Model_Space
 70
     0
 10
0.0
 20
0.0
 30
0.0
  3
*Model_Space
  1

  0
ENDBLK
  5
21
330
1F
100
AcDbEntity
  8
0
100
AcDbBlockEnd
  0
BLOCK
  5
1C
330
1B
100
AcDbEntity
 67
     1
  8
0
100
AcDbBlockBegin
  2
*Paper_Space
 70
     0
 10
0.0
 20
0.0
 30
0.0
  3
*Paper_Space
  1

  0
ENDBLK
  5
1D
330
1B
100
AcDbEntity
 67
     1
  8
0
100
AcDbBlockEnd
  0
BLOCK
  5
24
330
23
100
AcDbEntity
  8
0
100
AcDbBlockBegin
  2
*Paper_Space0
 70
     0
 10
0.0
 20
0.0
 30
0.0
  3
*Paper_Space0
  1

  0
ENDBLK
  5
25
330
23
100
AcDbEntity
  8
0
100
AcDbBlockEnd
  0
BLOCK
  5
25C
330
25B
100
AcDbEntity
  8
0
100
AcDbBlockBegin
  2
_D
 70
     0
 10
0.0
 20
0.0
 30
0.0
  3
_D
  1

  0
SOLID
  5
25E
330
25B
100
AcDbEntity
  8
0
  6
Continuous
 62
     7
370
     0
100
AcDbTrace
 10
132.5625881317
 20
187.7846699404
 30
0.0
 11
131.8125881317
 21
185.7846699404
 31
0.0
 12
133.3125881317
 22
185.7846699404
 32
0.0
 13
133.3125881317
 23
185.7846699404
 33
0.0
  0
SOLID
  5
25F
330
25B
100
AcDbEntity
  8
0
  6
Continuous
 62
     7
370
     0
100
AcDbTrace
 10
132.5625881317
 20
157.7846699404
 30
0.0
 11
133.3125881317
 21
159.7846699404
 31
0.0
 12
131.8125881317
 22
159.7846699404
 32
0.0
 13
131.8125881317
 23
159.7846699404
 33
0.0
  0
LINE
  5
260
330
25B
100
AcDbEntity
  8
0
  6
Continuous
 62
     7
370
     0
100
AcDbLine
 10
111.0197080292
 20
187.7846699404
 30
0.0
 11
133.5625881317
 21
187.7846699404
 31
0.0
  0
LINE
  5
261
330
25B
100
AcDbEntity
  8
0
  6
Continuous
 62
     7
370
     0
100
AcDbLine
 10
111.0197080292
 20
157.7846699404
 30
0.0
 11
133.5625881317
 21
157.7846699404
 31
0.0
  0
LINE
  5
262
330
25B
100
AcDbEntity
  8
0
  6
Continuous
 62
     7
370
     0
100
AcDbLine
 10
132.5625881317
 20
187.7846699404
 30
0.0
 11
132.5625881317
 21
157.7846699404
 31
0.0
  0
MTEXT
  5
263
330
25B
100
AcDbEntity
  8
0
  6
Continuous
 62
     7
370
     0
100
AcDbMText
 10
128.0508512171
 20
170.1985587469
 30
-0.7
 40
3.5
 41
0.0
 71
     1
 72
     1
  1
30
  7
SLDTEXTSTYLE1
 11
-1.414962237524464E-14
 21
1.0
 31
0.0
 73
     1
 44
1.0
  0
ENDBLK
  5
25D
330
25B
100
AcDbEntity
  8
0
100
AcDbBlockEnd
  0
BLOCK
  5
266
330
265
100
AcDbEntity
  8
0
100
AcDbBlockBegin
  2
_D_1
 70
     0
 10
0.0
 20
0.0
 30
0.0
  3
_D_1
  1

  0
SOLID
  5
268
330
265
100
AcDbEntity
  8
0
  6
Continuous
 62
     7
370
     0
100
AcDbTrace
 10
122.0197080292
 20
178.7846699404
 30
0.0
 11
121.2697080292
 21
176.7846699404
 31
0.0
 12
122.7697080292
 22
176.7846699404
 32
0.0
 13
122.7697080292
 23
176.7846699404
 33
0.0
  0
SOLID
  5
269
330
265
100
AcDbEntity
  8
0
  6
Continuous
 62
     7
370
     0
100
AcDbTrace
 10
122.0197080292
 20
166.7846699404
 30
0.0
 11
122.7697080292
 21
168.7846699404
 31
0.0
 12
121.2697080292
 22
168.7846699404
 32
0.0
 13
121.2697080292
 23
168.7846699404
 33
0.0
  0
LINE
  5
26A
330
265
100
AcDbEntity
  8
0
  6
Continuous
 62
     7
370
     0
100
AcDbLine
 10
103.0197080292
 20
178.7846699404
 30
0.0
 11
123.0197080292
 21
178.7846699404
 31
0.0
  0
LINE
  5
26B
330
265
100
AcDbEntity
  8
0
  6
Continuous
 62
     7
370
     0
100
AcDbLine
 10
103.0197080292
 20
166.7846699404
 30
0.0
 11
123.0197080292
 21
166.7846699404
 31
0.0
  0
LINE
  5
26C
330
265
100
AcDbEntity
  8
0
  6
Continuous
 62
     7
370
     0
100
AcDbLine
 10
122.0197080292
 20
178.7846699404
 30
0.0
 11
122.0197080292
 21
166.7846699404
 31
0.0
  0
MTEXT
  5
26D
330
265
100
AcDbEntity
  8
0
  6
Continuous
 62
     7
370
     0
100
AcDbMText
 10
117.5079711146
 20
170.1985587469
 30
-0.7
 40
3.5
 41
0.0
 71
     1
 72
     1
  1
12
  7
SLDTEXTSTYLE1
 11
-1.414962237524464E-14
 21
1.0
 31
0.0
 73
     1
 44
1.0
  0
ENDBLK
  5
267
330
265
100
AcDbEntity
  8
0
100
AcDbBlockEnd
  0
BLOCK
  5
271
330
270
100
AcDbEntity
  8
0
100
AcDbBlockBegin
  2
_D_2
 70
     0
 10
0.0
 20
0.0
 30
0.0
  3
_D_2
  1

  0
SOLID
  5
273
330
270
100
AcDbEntity
  8
0
  6
Continuous
 62
     7
370
     0
100
AcDbTrace
 10
99.0197080292
 20
195.8256996105
 30
0.0
 11
97.0197080292
 21
196.5756996105
 31
0.0
 12
97.0197080292
 22
195.0756996105
 32
0.0
 13
97.0197080292
 23
195.0756996105
 33
0.0
  0
SOLID
  5
274
330
270
100
AcDbEntity
  8
0
  6
Continuous
 62
     7
370
     0
100
AcDbTrace
 10
105.0197080292
 20
195.8256996105
 30
0.0
 11
107.0197080292
 21
195.0756996105
 31
0.0
 12
107.0197080292
 22
196.5756996105
 32
0.0
 13
107.0197080292
 23
196.5756996105
 33
0.0
  0
LINE
  5
275
330
270
100
AcDbEntity
  8
0
  6
Continuous
 62
     7
370
     0
100
AcDbLine
 10
99.0197080292
 20
176.7846699404
 30
0.0
 11
99.0197080292
 21
196.8256996105
 31
0.0
  0
LINE
  5
276
330
270
100
AcDbEntity
  8
0
  6
Continuous
 62
     7
370
     0
100
AcDbLine
 10
105.0197080292
 20
176.7846699404
 30
0.0
 11
105.0197080292
 21
196.8256996105
 31
0.0
  0
LINE
  5
277
330
270
100
AcDbEntity
  8
0
  6
Continuous
 62
     7
370
     0
100
AcDbLine
 10
99.0197080292
 20
195.8256996105
 30
0.0
 11
94.0197080292
 21
195.8256996105
 31
0.0
  0
LINE
  5
278
330
270
100
AcDbEntity
  8
0
  6
Continuous
 62
     7
370
     0
100
AcDbLine
 10
99.0197080292
 20
195.8256996105
 30
0.0
 11
105.0197080292
 21
195.8256996105
 31
0.0
  0
LINE
  5
279
330
270
100
AcDbEntity
  8
0
  6
Continuous
 62
     7
370
     0
100
AcDbLine
 10
105.0197080292
 20
195.8256996105
 30
0.0
 11
111.909754743
 21
195.8256996105
 31
0.0
  0
MTEXT
  5
27A
330
270
100
AcDbEntity
  8
0
  6
Continuous
 62
     7
370
     0
100
AcDbMText
 10
109.3236435495
 20
200.3374365251
 30
-0.7
 40
3.5
 41
0.0
 71
     1
 72
     1
  1
6
  7
SLDTEXTSTYLE1
 73
     1
 44
1.0
  0
ENDBLK
  5
272
330
270
100
AcDbEntity
  8
0
100
AcDbBlockEnd
  0
BLOCK
  5
27D
330
27C
100
AcDbEntity
  8
0
100
AcDbBlockBegin
  2
_D_3
 70
     0
 10
0.0
 20
0.0
 30
0.0
  3
_D_3
  1

  0
SOLID
  5
27F
330
27C
100
AcDbEntity
  8
0
  6
Continuous
 62
     7
370
     0
100
AcDbTrace
 10
102.0197080292
 20
147.7846699404
 30
0.0
 11
100.0197080292
 21
148.5346699404
 31
0.0
 12
100.0197080292
 22
147.0346699404
 32
0.0
 13
100.0197080292
 23
147.0346699404
 33
0.0
  0
SOLID
  5
280
330
27C
100
AcDbEntity
  8
0
  6
Continuous
 62
     7
370
     0
100
AcDbTrace
 10
112.0197080292
 20
147.7846699404
 30
0.0
 11
114.0197080292
 21
147.0346699404
 31
0.0
 12
114.0197080292
 22
148.5346699404
 32
0.0
 13
114.0197080292
 23
148.5346699404
 33
0.0
  0
LINE
  5
281
330
27C
100
AcDbEntity
  8
0
  6
Continuous
 62
     7
370
     0
100
AcDbLine
 10
102.0197080292
 20
167.1846699404
 30
0.0
 11
102.0197080292
 21
146.7846699404
 31
0.0
  0
LINE
  5
282
330
27C
100
AcDbEntity
  8
0
  6
Continuous
 62
     7
370
     0
100
AcDbLine
 10
112.0197080292
 20
158.7846699404
 30
0.0
 11
112.0197080292
 21
146.7846699404
 31
0.0
  0
LINE
  5
283
330
27C
100
AcDbEntity
  8
0
  6
Continuous
 62
     7
370
     0
100
AcDbLine
 10
102.0197080292
 20
147.7846699404
 30
0.0
 11
97.0197080292
 21
147.7846699404
 31
0.0
  0
LINE
  5
284
330
27C
100
AcDbEntity
  8
0
  6
Continuous
 62
     7
370
     0
100
AcDbLine
 10
102.0197080292
 20
147.7846699404
 30
0.0
 11
112.0197080292
 21
147.7846699404
 31
0.0
  0
LINE
  5
285
330
27C
100
AcDbEntity
  8
0
  6
Continuous
 62
     7
370
     0
100
AcDbLine
 10
112.0197080292
 20
147.7846699404
 30
0.0
 11
117.0197080292
 21
147.7846699404
 31
0.0
  0
MTEXT
  5
286
330
27C
100
AcDbEntity
  8
0
  6
Continuous
 62
     7
370
     0
100
AcDbMText
 10
104.3915234379
 20
152.296406855
 30
-0.7
 40
3.5
 41
0.0
 71
     1
 72
     1
  1
10
  7
SLDTEXTSTYLE1
 73
     1
 44
1.0
  0
ENDBLK
  5
27E
330
27C
100
AcDbEntity
  8
0
100
AcDbBlockEnd
  0
BLOCK
  5
289
330
288
100
AcDbEntity
  8
0
100
AcDbBlockBegin
  2
_D_4
 70
     0
 10
0.0
 20
0.0
 30
0.0
  3
_D_4
  1

  0
SOLID
  5
28B
330
288
100
AcDbEntity
  8
0
  6
Continuous
 62
     7
370
     0
100
AcDbTrace
 10
88.0197080292
 20
137.8747494044
 30
0.0
 11
90.0197080292
 21
137.1247494044
 31
0.0
 12
90.0197080292
 22
138.6247494044
 32
0.0
 13
90.0197080292
 23
138.6247494044
 33
0.0
  0
SOLID
  5
28C
330
288
100
AcDbEntity
  8
0
  6
Continuous
 62
     7
370
     0
100
AcDbTrace
 10
112.0197080292
 20
137.8747494044
 30
0.0
 11
110.0197080292
 21
138.6247494044
 31
0.0
 12
110.0197080292
 22
137.1247494044
 32
0.0
 13
110.0197080292
 23
137.1247494044
 33
0.0
  0
LINE
  5
28D
330
288
100
AcDbEntity
  8
0
  6
Continuous
 62
     7
370
     0
100
AcDbLine
 10
88.0197080292
 20
156.7846699404
 30
0.0
 11
88.0197080292
 21
136.8747494044
 31
0.0
  0
LINE
  5
28E
330
288
100
AcDbEntity
  8
0
  6
Continuous
 62
     7
370
     0
100
AcDbLine
 10
112.0197080292
 20
158.7846699404
 30
0.0
 11
112.0197080292
 21
136.8747494044
 31
0.0
  0
LINE
  5
28F
330
288
100
AcDbEntity
  8
0
  6
Continuous
 62
     7
370
     0
100
AcDbLine
 10
88.0197080292
 20
137.8747494044
 30
0.0
 11
112.0197080292
 21
137.8747494044
 31
0.0
  0
MTEXT
  5
290
330
288
100
AcDbEntity
  8
0
  6
Continuous
 62
     7
370
     0
100
AcDbMText
 10
97.4335968357
 20
142.3864863189
 30
-0.7
 40
3.5
 41
0.0
 71
     1
 72
     1
  1
24
  7
SLDTEXTSTYLE1
 73
     1
 44
1.0
  0
ENDBLK
  5
28A
330
288
100
AcDbEntity
  8
0
100
AcDbBlockEnd
  0
BLOCK
  5
293
330
292
100
AcDbEntity
  8
0
100
AcDbBlockBegin
  2
_D_5
 70
     0
 10
0.0
 20
0.0
 30
0.0
  3
_D_5
  1

  0
SOLID
  5
295
330
292
100
AcDbEntity
  8
0
  6
Continuous
 62
     7
370
     0
100
AcDbTrace
 10
62.0197080292
 20
126.1270267126
 30
0.0
 11
64.0197080292
 21
125.3770267126
 31
0.0
 12
64.0197080292
 22
126.8770267126
 32
0.0
 13
64.0197080292
 23
126.8770267126
 33
0.0
  0
SOLID
  5
296
330
292
100
AcDbEntity
  8
0
  6
Continuous
 62
     7
370
     0
100
AcDbTrace
 10
112.0197080292
 20
126.1270267126
 30
0.0
 11
110.0197080292
 21
126.8770267126
 31
0.0
 12
110.0197080292
 22
125.3770267126
 32
0.0
 13
110.0197080292
 23
125.3770267126
 33
0.0
  0
LINE
  5
297
330
292
100
AcDbEntity
  8
0
  6
Continuous
 62
     7
370
     0
100
AcDbLine
 10
62.0197080292
 20
158.7846699404
 30
0.0
 11
62.0197080292
 21
125.1270267126
 31
0.0
  0
LINE
  5
298
330
292
100
AcDbEntity
  8
0
  6
Continuous
 62
     7
370
     0
100
AcDbLine
 10
112.0197080292
 20
158.7846699404
 30
0.0
 11
112.0197080292
 21
125.1270267126
 31
0.0
  0
LINE
  5
299
330
292
100
AcDbEntity
  8
0
  6
Continuous
 62
     7
370
     0
100
AcDbLine
 10
62.0197080292
 20
126.1270267126
 30
0.0
 11
112.0197080292
 21
126.1270267126
 31
0.0
  0
MTEXT
  5
29A
330
292
100
AcDbEntity
  8
0
  6
Continuous
 62
     7
370
     0
100
AcDbMText
 10
86.0202854985
 20
130.6387636272
 30
-0.7
 40
3.5
 41
0.0
 71
     1
 72
     1
  1
50
  7
SLDTEXTSTYLE1
 73
     1
 44
1.0
  0
ENDBLK
  5
294
330
292
100
AcDbEntity
  8
0
100
AcDbBlockEnd
  0
BLOCK
  5
29E
330
29D
100
AcDbEntity
  8
0
100
AcDbBlockBegin
  2
_D_6
 70
     0
 10
0.0
 20
0.0
 30
0.0
  3
_D_6
  1

  0
SOLID
  5
2A0
330
29D
100
AcDbEntity
  8
0
  6
Continuous
 62
     7
370
     0
100
AcDbTrace
 10
103.5046322697
 20
174.2695941809
 30
0.0
 11
105.449175918
 21
175.1534776574
 31
0.0
 12
104.3885157462
 22
176.2141378292
 32
0.0
 13
104.3885157462
 23
176.2141378292
 33
0.0
  0
LINE
  5
2A1
330
29D
100
AcDbEntity
  8
0
  6
Continuous
 62
     7
370
     0
100
AcDbLine
 10
103.5046322697
 20
174.2695941809
 30
0.0
 11
129.5983239956
 21
200.3632859069
 31
0.0
  0
MTEXT
  5
2A2
330
29D
100
AcDbEntity
  8
0
  6
Continuous
 62
     7
370
     0
100
AcDbMText
 10
118.1110031285
 20
195.2424843847
 30
-0.7
 40
3.5
 41
0.0
 71
     1
 72
     1
  1
%%c
  7
SLDTEXTSTYLE1
 11
0.7071067811865465
 21
0.7071067811865487
 31
0.0
 73
     1
 44
1.0
  0
MTEXT
  5
2A3
330
29D
100
AcDbEntity
  8
0
  6
Continuous
 62
     7
370
     0
100
AcDbMText
 10
121.8056114682
 20
199.0127138019
 30
-0.7
 40
3.5
 41
0.0
 71
     1
 72
     1
  1
4.2
  7
SLDTEXTSTYLE1
 11
0.7071067811865465
 21
0.7071067811865487
 31
0.0
 73
     1
 44
1.0
  0
ENDBLK
  5
29F
330
29D
100
AcDbEntity
  8
0
100
AcDbBlockEnd
  0
BLOCK
  5
2A5
330
2A4
100
AcDbEntity
  8
0
100
AcDbBlockBegin
  2
SW_CENTERMARKSYMBOL_0
 70
     0
 10
0.0
 20
0.0
 30
0.0
  3
SW_CENTERMARKSYMBOL_0
  1

  0
LINE
  5
2A7
330
2A4
100
AcDbEntity
  8
0
  6
Continuous
 62
     0
370
     0
100
AcDbLine
 10
0.0
 20
0.0
 30
0.0
 11
0.0
 21
-2.5
 31
0.0
  0
LINE
  5
2A8
330
2A4
100
AcDbEntity
  8
0
  6
Continuous
 62
     0
370
     0
100
AcDbLine
 10
0.0
 20
0.0
 30
0.0
 11
2.5
 21
0.0
 31
0.0
  0
LINE
  5
2A9
330
2A4
100
AcDbEntity
  8
0
  6
Continuous
 62
     0
370
     0
100
AcDbLine
 10
0.0
 20
0.0
 30
0.0
 11
0.0
 21
2.5
 31
0.0
  0
LINE
  5
2AA
330
2A4
100
AcDbEntity
  8
0
  6
Continuous
 62
     0
370
     0
100
AcDbLine
 10
0.0
 20
0.0
 30
0.0
 11
-2.5
 21
0.0
 31
0.0
  0
LINE
  5
2AB
330
2A4
100
AcDbEntity
  8
0
  6
Continuous
 62
     0
370
     0
100
AcDbLine
 10
0.0
 20
-2.5
 30
0.0
 11
0.0
 21
-4.6
 31
0.0
  0
LINE
  5
2AC
330
2A4
100
AcDbEntity
  8
0
  6
Continuous
 62
     0
370
     0
100
AcDbLine
 10
2.5
 20
0.0
 30
0.0
 11
4.6
 21
0.0
 31
0.0
  0
LINE
  5
2AD
330
2A4
100
AcDbEntity
  8
0
  6
Continuous
 62
     0
370
     0
100
AcDbLine
 10
0.0
 20
2.5
 30
0.0
 11
0.0
 21
4.6
 31
0.0
  0
LINE
  5
2AE
330
2A4
100
AcDbEntity
  8
0
  6
Continuous
 62
     0
370
     0
100
AcDbLine
 10
-2.5
 20
0.0
 30
0.0
 11
-4.6
 21
0.0
 31
0.0
  0
ENDBLK
  5
2A6
330
2A4
100
AcDbEntity
  8
0
100
AcDbBlockEnd
  0
BLOCK
  5
2E3
330
2E2
100
AcDbEntity
  8
0
100
AcDbBlockBegin
  2
_D_7
 70
     0
 10
0.0
 20
0.0
 30
0.0
  3
_D_7
  1

  0
SOLID
  5
2E5
330
2E2
100
AcDbEntity
  8
0
  6
Continuous
 62
     7
370
     0
100
AcDbTrace
 10
136.2473512534
 20
88.5781483995
 30
0.0
 11
136.9973512534
 21
90.5781483995
 31
0.0
 12
135.4973512534
 22
90.5781483995
 32
0.0
 13
135.4973512534
 23
90.5781483995
 33
0.0
  0
SOLID
  5
2E6
330
2E2
100
AcDbEntity
  8
0
  6
Continuous
 62
     7
370
     0
100
AcDbTrace
 10
136.2473512534
 20
80.5781483995
 30
0.0
 11
135.4973512534
 21
78.5781483995
 31
0.0
 12
136.9973512534
 22
78.5781483995
 32
0.0
 13
136.9973512534
 23
78.5781483995
 33
0.0
  0
LINE
  5
2E7
330
2E2
100
AcDbEntity
  8
0
  6
Continuous
 62
     7
370
     0
100
AcDbLine
 10
89.0197080292
 20
88.5781483995
 30
0.0
 11
137.2473512534
 21
88.5781483995
 31
0.0
  0
LINE
  5
2E8
330
2E2
100
AcDbEntity
  8
0
  6
Continuous
 62
     7
370
     0
100
AcDbLine
 10
113.0197080292
 20
80.5781483995
 30
0.0
 11
137.2473512534
 21
80.5781483995
 31
0.0
  0
LINE
  5
2E9
330
2E2
100
AcDbEntity
  8
0
  6
Continuous
 62
     7
370
     0
100
AcDbLine
 10
136.2473512534
 20
88.5781483995
 30
0.0
 11
136.2473512534
 21
93.5781483995
 31
0.0
  0
LINE
  5
2EA
330
2E2
100
AcDbEntity
  8
0
  6
Continuous
 62
     7
370
     0
100
AcDbLine
 10
136.2473512534
 20
88.5781483995
 30
0.0
 11
136.2473512534
 21
80.5781483995
 31
0.0
  0
LINE
  5
2EB
330
2E2
100
AcDbEntity
  8
0
  6
Continuous
 62
     7
370
     0
100
AcDbLine
 10
136.2473512534
 20
80.5781483995
 30
0.0
 11
136.2473512534
 21
75.5781483995
 31
0.0
  0
MTEXT
  5
2EC
330
2E2
100
AcDbEntity
  8
0
  6
Continuous
 62
     7
370
     0
100
AcDbMText
 10
131.7356143388
 20
83.8562840508
 30
0.1
 40
3.5
 41
0.0
 71
     1
 72
     1
  1
8
  7
SLDTEXTSTYLE1
 11
-7.044195017643634E-15
 21
1.0
 31
0.0
 73
     1
 44
1.0
  0
ENDBLK
  5
2E4
330
2E2
100
AcDbEntity
  8
0
100
AcDbBlockEnd
  0
BLOCK
  5
2EF
330
2EE
100
AcDbEntity
  8
0
100
AcDbBlockBegin
  2
_D_8
 70
     0
 10
0.0
 20
0.0
 30
0.0
  3
_D_8
  1

  0
SOLID
  5
2F1
330
2EE
100
AcDbEntity
  8
0
  6
Continuous
 62
     7
370
     0
100
AcDbTrace
 10
128.0197080292
 20
83.7781483995
 30
0.0
 11
128.7697080292
 21
85.7781483995
 31
0.0
 12
127.2697080292
 22
85.7781483995
 32
0.0
 13
127.2697080292
 23
85.7781483995
 33
0.0
  0
SOLID
  5
2F2
330
2EE
100
AcDbEntity
  8
0
  6
Continuous
 62
     7
370
     0
100
AcDbTrace
 10
128.0197080292
 20
80.5781483995
 30
0.0
 11
127.2697080292
 21
78.5781483995
 31
0.0
 12
128.7697080292
 22
78.5781483995
 32
0.0
 13
128.7697080292
 23
78.5781483995
 33
0.0
  0
LINE
  5
2F3
330
2EE
100
AcDbEntity
  8
0
  6
Continuous
 62
     7
370
     0
100
AcDbLine
 10
113.0197080292
 20
83.7781483995
 30
0.0
 11
129.0197080292
 21
83.7781483995
 31
0.0
  0
LINE
  5
2F4
330
2EE
100
AcDbEntity
  8
0
  6
Continuous
 62
     7
370
     0
100
AcDbLine
 10
113.0197080292
 20
80.5781483995
 30
0.0
 11
129.0197080292
 21
80.5781483995
 31
0.0
  0
LINE
  5
2F5
330
2EE
100
AcDbEntity
  8
0
  6
Continuous
 62
     7
370
     0
100
AcDbLine
 10
128.0197080292
 20
83.7781483995
 30
0.0
 11
128.0197080292
 21
97.0763040587
 31
0.0
  0
LINE
  5
2F6
330
2EE
100
AcDbEntity
  8
0
  6
Continuous
 62
     7
370
     0
100
AcDbLine
 10
128.0197080292
 20
83.7781483995
 30
0.0
 11
128.0197080292
 21
80.5781483995
 31
0.0
  0
LINE
  5
2F7
330
2EE
100
AcDbEntity
  8
0
  6
Continuous
 62
     7
370
     0
100
AcDbLine
 10
128.0197080292
 20
80.5781483995
 30
0.0
 11
128.0197080292
 21
75.5781483995
 31
0.0
  0
MTEXT
  5
2F8
330
2EE
100
AcDbEntity
  8
0
  6
Continuous
 62
     7
370
     0
100
AcDbMText
 10
123.5079711146
 20
90.6110264242
 30
0.1
 40
3.5
 41
0.0
 71
     1
 72
     1
  1
3.2
  7
SLDTEXTSTYLE1
 11
-7.044195017643634E-15
 21
1.0
 31
0.0
 73
     1
 44
1.0
  0
ENDBLK
  5
2F0
330
2EE
100
AcDbEntity
  8
0
100
AcDbBlockEnd
  0
BLOCK
  5
2FC
330
2FB
100
AcDbEntity
  8
0
100
AcDbBlockBegin
  2
_D_9
 70
     0
 10
0.0
 20
0.0
 30
0.0
  3
_D_9
  1

  0
SOLID
  5
2FE
330
2FB
100
AcDbEntity
  8
0
  6
Continuous
 62
     7
370
     0
100
AcDbTrace
 10
119.335656738
 20
83.7781483995
 30
0.0
 11
120.085656738
 21
85.7781483995
 31
0.0
 12
118.585656738
 22
85.7781483995
 32
0.0
 13
118.585656738
 23
85.7781483995
 33
0.0
  0
SOLID
  5
2FF
330
2FB
100
AcDbEntity
  8
0
  6
Continuous
 62
     7
370
     0
100
AcDbTrace
 10
119.335656738
 20
82.9781483995
 30
0.0
 11
118.585656738
 21
80.9781483995
 31
0.0
 12
120.085656738
 22
80.9781483995
 32
0.0
 13
120.085656738
 23
80.9781483995
 33
0.0
  0
LINE
  5
300
330
2FB
100
AcDbEntity
  8
0
  6
Continuous
 62
     7
370
     0
100
AcDbLine
 10
113.0197080292
 20
83.7781483995
 30
0.0
 11
120.335656738
 21
83.7781483995
 31
0.0
  0
LINE
  5
301
330
2FB
100
AcDbEntity
  8
0
  6
Continuous
 62
     7
370
     0
100
AcDbLine
 10
106.0197080292
 20
82.9781483995
 30
0.0
 11
120.335656738
 21
82.9781483995
 31
0.0
  0
LINE
  5
302
330
2FB
100
AcDbEntity
  8
0
  6
Continuous
 62
     7
370
     0
100
AcDbLine
 10
119.335656738
 20
83.7781483995
 30
0.0
 11
119.335656738
 21
97.0763040587
 31
0.0
  0
LINE
  5
303
330
2FB
100
AcDbEntity
  8
0
  6
Continuous
 62
     7
370
     0
100
AcDbLine
 10
119.335656738
 20
83.7781483995
 30
0.0
 11
119.335656738
 21
82.9781483995
 31
0.0
  0
LINE
  5
304
330
2FB
100
AcDbEntity
  8
0
  6
Continuous
 62
     7
370
     0
100
AcDbLine
 10
119.335656738
 20
82.9781483995
 30
0.0
 11
119.335656738
 21
77.9781483995
 31
0.0
  0
MTEXT
  5
305
330
2FB
100
AcDbEntity
  8
0
  6
Continuous
 62
     7
370
     0
100
AcDbMText
 10
114.8239198234
 20
90.6110264242
 30
0.1
 40
3.5
 41
0.0
 71
     1
 72
     1
  1
0.8
  7
SLDTEXTSTYLE1
 11
-7.044195017643634E-15
 21
1.0
 31
0.0
 73
     1
 44
1.0
  0
ENDBLK
  5
2FD
330
2FB
100
AcDbEntity
  8
0
100
AcDbBlockEnd
  0
ENDSEC
  0
SECTION
  2
ENTITIES
  0
LINE
  5
44
330
1F
100
AcDbEntity
  8
0
  6
Continuous
 62
     7
370
     0
100
AcDbLine
 10
20.2604743903
 20
285.0
 30
0.0
 11
196.7604743903
 21
285.0
 31
0.0
  0
LINE
  5
45
330
1F
100
AcDbEntity
  8
0
  6
Continuous
 62
     7
370
     0
100
AcDbLine
 10
20.2604743903
 20
285.0
 30
0.0
 11
20.2604743903
 21
10.0
 31
0.0
  0
LINE
  5
46
330
1F
100
AcDbEntity
  8
0
  6
Continuous
 62
     7
370
     0
100
AcDbLine
 10
20.2604743903
 20
10.0
 30
0.0
 11
196.7604743903
 21
10.0
 31
0.0
  0
LINE
  5
47
330
1F
100
AcDbEntity
  8
0
  6
Continuous
 62
     7
370
     0
100
AcDbLine
 10
196.7604743903
 20
285.0
 30
0.0
 11
196.7604743903
 21
10.0
 31
0.0
  0
LINE
  5
48
330
1F
100
AcDbEntity
  8
0
  6
Continuous
 62
     7
370
     0
100
AcDbLine
 10
127.0104743903
 20
50.75
 30
0.0
 11
196.7604743903
 21
50.75
 31
0.0
  0
LINE
  5
49
330
1F
100
AcDbEntity
  8
0
  6
Continuous
 62
     7
370
     0
100
AcDbLine
 10
127.0104743903
 20
50.75
 30
0.0
 11
127.0104743903
 21
10.0
 31
0.0
  0
LINE
  5
4A
330
1F
100
AcDbEntity
  8
0
  6
Continuous
 62
     7
370
     0
100
AcDbLine
 10
127.0104743903
 20
22.75
 30
0.0
 11
196.7604743903
 21
22.75
 31
0.0
  0
LINE
  5
4B
330
1F
100
AcDbEntity
  8
0
  6
Continuous
 62
     7
370
     0
100
AcDbLine
 10
127.0104743903
 20
36.75
 30
0.0
 11
196.7604743903
 21
36.75
 31
0.0
  0
MTEXT
  5
4D
330
1F
100
AcDbEntity
  8
0
  6
Continuous
 62
     7
370
     0
100
AcDbMText
 10
162.5567289118
 20
30.4171582345
 30
0.0
 40
4.2333333333
 41
0.0
 71
     2
 72
     1
  1
CP-077
  7
SLDTEXTSTYLE0
 73
     1
 44
1.0
  0
MTEXT
  5
4E
330
1F
100
AcDbEntity
  8
0
  6
Continuous
 62
     7
370
     0
100
AcDbMText
 10
160.7777498374
 20
43.9409718514
 30
0.0
 40
4.2333333333
 41
0.0
 71
     2
 72
     1
  1
当板・角型・黒・引込用
  7
SLDTEXTSTYLE0
 73
     1
 44
1.0
  0
MTEXT
  5
4F
330
1F
100
AcDbEntity
  8
0
  6
Continuous
 62
     7
370
     0
100
AcDbMText
 10
162.5853949957
 20
16.8228189052
 30
0.0
 40
4.2333333333
 41
0.0
 71
     2
 72
     1
  1
023219
  7
SLDTEXTSTYLE0
 73
     1
 44
1.0
  0
LINE
  5
50
330
1F
100
AcDbEntity
  8
0
  6
Continuous
 62
     7
370
    15
100
AcDbLine
 10
79.5197080292
 20
163.2846699404
 30
0.0
 11
82.5197080292
 21
163.2846699404
 31
0.0
  0
LINE
  5
51
330
1F
100
AcDbEntity
  8
0
  6
Continuous
 62
     7
370
    15
100
AcDbLine
 10
82.5197080292
 20
166.2846699404
 30
0.0
 11
82.5197080292
 21
163.2846699404
 31
0.0
  0
LINE
  5
52
330
1F
100
AcDbEntity
  8
0
  6
Continuous
 62
     7
370
    15
100
AcDbLine
 10
79.5197080292
 20
166.2846699404
 30
0.0
 11
82.5197080292
 21
166.2846699404
 31
0.0
  0
LINE
  5
53
330
1F
100
AcDbEntity
  8
0
  6
Continuous
 62
     7
370
    15
100
AcDbLine
 10
79.5197080292
 20
166.2846699404
 30
0.0
 11
79.5197080292
 21
163.2846699404
 31
0.0
  0
LINE
  5
54
330
1F
100
AcDbEntity
  8
0
  6
Continuous
 62
     7
370
    15
100
AcDbLine
 10
75.5197080292
 20
163.2846699404
 30
0.0
 11
78.5197080292
 21
163.2846699404
 31
0.0
  0
LINE
  5
55
330
1F
100
AcDbEntity
  8
0
  6
Continuous
 62
     7
370
    15
100
AcDbLine
 10
78.5197080292
 20
166.2846699404
 30
0.0
 11
78.5197080292
 21
163.2846699404
 31
0.0
  0
LINE
  5
56
330
1F
100
AcDbEntity
  8
0
  6
Continuous
 62
     7
370
    15
100
AcDbLine
 10
75.5197080292
 20
166.2846699404
 30
0.0
 11
78.5197080292
 21
166.2846699404
 31
0.0
  0
LINE
  5
57
330
1F
100
AcDbEntity
  8
0
  6
Continuous
 62
     7
370
    15
100
AcDbLine
 10
75.5197080292
 20
166.2846699404
 30
0.0
 11
75.5197080292
 21
163.2846699404
 31
0.0
  0
LINE
  5
58
330
1F
100
AcDbEntity
  8
0
  6
Continuous
 62
     7
370
    15
100
AcDbLine
 10
71.5197080292
 20
163.2846699404
 30
0.0
 11
74.5197080292
 21
163.2846699404
 31
0.0
  0
LINE
  5
59
330
1F
100
AcDbEntity
  8
0
  6
Continuous
 62
     7
370
    15
100
AcDbLine
 10
74.5197080292
 20
166.2846699404
 30
0.0
 11
74.5197080292
 21
163.2846699404
 31
0.0
  0
LINE
  5
5A
330
1F
100
AcDbEntity
  8
0
  6
Continuous
 62
     7
370
    15
100
AcDbLine
 10
71.5197080292
 20
166.2846699404
 30
0.0
 11
74.5197080292
 21
166.2846699404
 31
0.0
  0
LINE
  5
5B
330
1F
100
AcDbEntity
  8
0
  6
Continuous
 62
     7
370
    15
100
AcDbLine
 10
71.5197080292
 20
166.2846699404
 30
0.0
 11
71.5197080292
 21
163.2846699404
 31
0.0
  0
LINE
  5
5C
330
1F
100
AcDbEntity
  8
0
  6
Continuous
 62
     7
370
    15
100
AcDbLine
 10
67.5197080292
 20
163.2846699404
 30
0.0
 11
70.5197080292
 21
163.2846699404
 31
0.0
  0
LINE
  5
5D
330
1F
100
AcDbEntity
  8
0
  6
Continuous
 62
     7
370
    15
100
AcDbLine
 10
70.5197080292
 20
166.2846699404
 30
0.0
 11
70.5197080292
 21
163.2846699404
 31
0.0
  0
LINE
  5
5E
330
1F
100
AcDbEntity
  8
0
  6
Continuous
 62
     7
370
    15
100
AcDbLine
 10
67.5197080292
 20
166.2846699404
 30
0.0
 11
70.5197080292
 21
166.2846699404
 31
0.0
  0
LINE
  5
5F
330
1F
100
AcDbEntity
  8
0
  6
Continuous
 62
     7
370
    15
100
AcDbLine
 10
67.5197080292
 20
166.2846699404
 30
0.0
 11
67.5197080292
 21
163.2846699404
 31
0.0
  0
LINE
  5
60
330
1F
100
AcDbEntity
  8
0
  6
Continuous
 62
     7
370
    15
100
AcDbLine
 10
79.5197080292
 20
167.2846699404
 30
0.0
 11
82.5197080292
 21
167.2846699404
 31
0.0
  0
LINE
  5
61
330
1F
100
AcDbEntity
  8
0
  6
Continuous
 62
     7
370
    15
100
AcDbLine
 10
82.5197080292
 20
170.2846699404
 30
0.0
 11
82.5197080292
 21
167.2846699404
 31
0.0
  0
LINE
  5
62
330
1F
100
AcDbEntity
  8
0
  6
Continuous
 62
     7
370
    15
100
AcDbLine
 10
79.5197080292
 20
170.2846699404
 30
0.0
 11
82.5197080292
 21
170.2846699404
 31
0.0
  0
LINE
  5
63
330
1F
100
AcDbEntity
  8
0
  6
Continuous
 62
     7
370
    15
100
AcDbLine
 10
79.5197080292
 20
170.2846699404
 30
0.0
 11
79.5197080292
 21
167.2846699404
 31
0.0
  0
LINE
  5
64
330
1F
100
AcDbEntity
  8
0
  6
Continuous
 62
     7
370
    15
100
AcDbLine
 10
75.5197080292
 20
167.2846699404
 30
0.0
 11
78.5197080292
 21
167.2846699404
 31
0.0
  0
LINE
  5
65
330
1F
100
AcDbEntity
  8
0
  6
Continuous
 62
     7
370
    15
100
AcDbLine
 10
78.5197080292
 20
170.2846699404
 30
0.0
 11
78.5197080292
 21
167.2846699404
 31
0.0
  0
LINE
  5
66
330
1F
100
AcDbEntity
  8
0
  6
Continuous
 62
     7
370
    15
100
AcDbLine
 10
75.5197080292
 20
170.2846699404
 30
0.0
 11
78.5197080292
 21
170.2846699404
 31
0.0
  0
LINE
  5
67
330
1F
100
AcDbEntity
  8
0
  6
Continuous
 62
     7
370
    15
100
AcDbLine
 10
75.5197080292
 20
170.2846699404
 30
0.0
 11
75.5197080292
 21
167.2846699404
 31
0.0
  0
LINE
  5
68
330
1F
100
AcDbEntity
  8
0
  6
Continuous
 62
     7
370
    15
100
AcDbLine
 10
71.5197080292
 20
167.2846699404
 30
0.0
 11
74.5197080292
 21
167.2846699404
 31
0.0
  0
LINE
  5
69
330
1F
100
AcDbEntity
  8
0
  6
Continuous
 62
     7
370
    15
100
AcDbLine
 10
74.5197080292
 20
170.2846699404
 30
0.0
 11
74.5197080292
 21
167.2846699404
 31
0.0
  0
LINE
  5
6A
330
1F
100
AcDbEntity
  8
0
  6
Continuous
 62
     7
370
    15
100
AcDbLine
 10
71.5197080292
 20
170.2846699404
 30
0.0
 11
74.5197080292
 21
170.2846699404
 31
0.0
  0
LINE
  5
6B
330
1F
100
AcDbEntity
  8
0
  6
Continuous
 62
     7
370
    15
100
AcDbLine
 10
71.5197080292
 20
170.2846699404
 30
0.0
 11
71.5197080292
 21
167.2846699404
 31
0.0
  0
LINE
  5
6C
330
1F
100
AcDbEntity
  8
0
  6
Continuous
 62
     7
370
    15
100
AcDbLine
 10
67.5197080292
 20
167.2846699404
 30
0.0
 11
70.5197080292
 21
167.2846699404
 31
0.0
  0
LINE
  5
6D
330
1F
100
AcDbEntity
  8
0
  6
Continuous
 62
     7
370
    15
100
AcDbLine
 10
70.5197080292
 20
170.2846699404
 30
0.0
 11
70.5197080292
 21
167.2846699404
 31
0.0
  0
LINE
  5
6E
330
1F
100
AcDbEntity
  8
0
  6
Continuous
 62
     7
370
    15
100
AcDbLine
 10
67.5197080292
 20
170.2846699404
 30
0.0
 11
70.5197080292
 21
170.2846699404
 31
0.0
  0
LINE
  5
6F
330
1F
100
AcDbEntity
  8
0
  6
Continuous
 62
     7
370
    15
100
AcDbLine
 10
67.5197080292
 20
170.2846699404
 30
0.0
 11
67.5197080292
 21
167.2846699404
 31
0.0
  0
LINE
  5
70
330
1F
100
AcDbEntity
  8
0
  6
Continuous
 62
     7
370
    15
100
AcDbLine
 10
79.5197080292
 20
171.2846699404
 30
0.0
 11
82.5197080292
 21
171.2846699404
 31
0.0
  0
LINE
  5
71
330
1F
100
AcDbEntity
  8
0
  6
Continuous
 62
     7
370
    15
100
AcDbLine
 10
82.5197080292
 20
174.2846699404
 30
0.0
 11
82.5197080292
 21
171.2846699404
 31
0.0
  0
LINE
  5
72
330
1F
100
AcDbEntity
  8
0
  6
Continuous
 62
     7
370
    15
100
AcDbLine
 10
79.5197080292
 20
174.2846699404
 30
0.0
 11
82.5197080292
 21
174.2846699404
 31
0.0
  0
LINE
  5
73
330
1F
100
AcDbEntity
  8
0
  6
Continuous
 62
     7
370
    15
100
AcDbLine
 10
79.5197080292
 20
174.2846699404
 30
0.0
 11
79.5197080292
 21
171.2846699404
 31
0.0
  0
LINE
  5
74
330
1F
100
AcDbEntity
  8
0
  6
Continuous
 62
     7
370
    15
100
AcDbLine
 10
75.5197080292
 20
171.2846699404
 30
0.0
 11
78.5197080292
 21
171.2846699404
 31
0.0
  0
LINE
  5
75
330
1F
100
AcDbEntity
  8
0
  6
Continuous
 62
     7
370
    15
100
AcDbLine
 10
78.5197080292
 20
174.2846699404
 30
0.0
 11
78.5197080292
 21
171.2846699404
 31
0.0
  0
LINE
  5
76
330
1F
100
AcDbEntity
  8
0
  6
Continuous
 62
     7
370
    15
100
AcDbLine
 10
75.5197080292
 20
174.2846699404
 30
0.0
 11
78.5197080292
 21
174.2846699404
 31
0.0
  0
LINE
  5
77
330
1F
100
AcDbEntity
  8
0
  6
Continuous
 62
     7
370
    15
100
AcDbLine
 10
75.5197080292
 20
174.2846699404
 30
0.0
 11
75.5197080292
 21
171.2846699404
 31
0.0
  0
LINE
  5
78
330
1F
100
AcDbEntity
  8
0
  6
Continuous
 62
     7
370
    15
100
AcDbLine
 10
71.5197080292
 20
171.2846699404
 30
0.0
 11
74.5197080292
 21
171.2846699404
 31
0.0
  0
LINE
  5
79
330
1F
100
AcDbEntity
  8
0
  6
Continuous
 62
     7
370
    15
100
AcDbLine
 10
74.5197080292
 20
174.2846699404
 30
0.0
 11
74.5197080292
 21
171.2846699404
 31
0.0
  0
LINE
  5
7A
330
1F
100
AcDbEntity
  8
0
  6
Continuous
 62
     7
370
    15
100
AcDbLine
 10
71.5197080292
 20
174.2846699404
 30
0.0
 11
74.5197080292
 21
174.2846699404
 31
0.0
  0
LINE
  5
7B
330
1F
100
AcDbEntity
  8
0
  6
Continuous
 62
     7
370
    15
100
AcDbLine
 10
71.5197080292
 20
174.2846699404
 30
0.0
 11
71.5197080292
 21
171.2846699404
 31
0.0
  0
LINE
  5
7C
330
1F
100
AcDbEntity
  8
0
  6
Continuous
 62
     7
370
    15
100
AcDbLine
 10
67.5197080292
 20
171.2846699404
 30
0.0
 11
70.5197080292
 21
171.2846699404
 31
0.0
  0
LINE
  5
7D
330
1F
100
AcDbEntity
  8
0
  6
Continuous
 62
     7
370
    15
100
AcDbLine
 10
70.5197080292
 20
174.2846699404
 30
0.0
 11
70.5197080292
 21
171.2846699404
 31
0.0
  0
LINE
  5
7E
330
1F
100
AcDbEntity
  8
0
  6
Continuous
 62
     7
370
    15
100
AcDbLine
 10
67.5197080292
 20
174.2846699404
 30
0.0
 11
70.5197080292
 21
174.2846699404
 31
0.0
  0
LINE
  5
7F
330
1F
100
AcDbEntity
  8
0
  6
Continuous
 62
     7
370
    15
100
AcDbLine
 10
67.5197080292
 20
174.2846699404
 30
0.0
 11
67.5197080292
 21
171.2846699404
 31
0.0
  0
LINE
  5
80
330
1F
100
AcDbEntity
  8
0
  6
Continuous
 62
     7
370
    15
100
AcDbLine
 10
79.5197080292
 20
175.2846699404
 30
0.0
 11
82.5197080292
 21
175.2846699404
 31
0.0
  0
LINE
  5
81
330
1F
100
AcDbEntity
  8
0
  6
Continuous
 62
     7
370
    15
100
AcDbLine
 10
82.5197080292
 20
178.2846699404
 30
0.0
 11
82.5197080292
 21
175.2846699404
 31
0.0
  0
LINE
  5
82
330
1F
100
AcDbEntity
  8
0
  6
Continuous
 62
     7
370
    15
100
AcDbLine
 10
79.5197080292
 20
178.2846699404
 30
0.0
 11
82.5197080292
 21
178.2846699404
 31
0.0
  0
LINE
  5
83
330
1F
100
AcDbEntity
  8
0
  6
Continuous
 62
     7
370
    15
100
AcDbLine
 10
79.5197080292
 20
178.2846699404
 30
0.0
 11
79.5197080292
 21
175.2846699404
 31
0.0
  0
LINE
  5
84
330
1F
100
AcDbEntity
  8
0
  6
Continuous
 62
     7
370
    15
100
AcDbLine
 10
75.5197080292
 20
175.2846699404
 30
0.0
 11
78.5197080292
 21
175.2846699404
 31
0.0
  0
LINE
  5
85
330
1F
100
AcDbEntity
  8
0
  6
Continuous
 62
     7
370
    15
100
AcDbLine
 10
78.5197080292
 20
178.2846699404
 30
0.0
 11
78.5197080292
 21
175.2846699404
 31
0.0
  0
LINE
  5
86
330
1F
100
AcDbEntity
  8
0
  6
Continuous
 62
     7
370
    15
100
AcDbLine
 10
75.5197080292
 20
178.2846699404
 30
0.0
 11
78.5197080292
 21
178.2846699404
 31
0.0
  0
LINE
  5
87
330
1F
100
AcDbEntity
  8
0
  6
Continuous
 62
     7
370
    15
100
AcDbLine
 10
75.5197080292
 20
178.2846699404
 30
0.0
 11
75.5197080292
 21
175.2846699404
 31
0.0
  0
LINE
  5
88
330
1F
100
AcDbEntity
  8
0
  6
Continuous
 62
     7
370
    15
100
AcDbLine
 10
71.5197080292
 20
175.2846699404
 30
0.0
 11
74.5197080292
 21
175.2846699404
 31
0.0
  0
LINE
  5
89
330
1F
100
AcDbEntity
  8
0
  6
Continuous
 62
     7
370
    15
100
AcDbLine
 10
74.5197080292
 20
178.2846699404
 30
0.0
 11
74.5197080292
 21
175.2846699404
 31
0.0
  0
LINE
  5
8A
330
1F
100
AcDbEntity
  8
0
  6
Continuous
 62
     7
370
    15
100
AcDbLine
 10
71.5197080292
 20
178.2846699404
 30
0.0
 11
74.5197080292
 21
178.2846699404
 31
0.0
  0
LINE
  5
8B
330
1F
100
AcDbEntity
  8
0
  6
Continuous
 62
     7
370
    15
100
AcDbLine
 10
71.5197080292
 20
178.2846699404
 30
0.0
 11
71.5197080292
 21
175.2846699404
 31
0.0
  0
LINE
  5
8C
330
1F
100
AcDbEntity
  8
0
  6
Continuous
 62
     7
370
    15
100
AcDbLine
 10
67.5197080292
 20
175.2846699404
 30
0.0
 11
70.5197080292
 21
175.2846699404
 31
0.0
  0
LINE
  5
8D
330
1F
100
AcDbEntity
  8
0
  6
Continuous
 62
     7
370
    15
100
AcDbLine
 10
70.5197080292
 20
178.2846699404
 30
0.0
 11
70.5197080292
 21
175.2846699404
 31
0.0
  0
LINE
  5
8E
330
1F
100
AcDbEntity
  8
0
  6
Continuous
 62
     7
370
    15
100
AcDbLine
 10
67.5197080292
 20
178.2846699404
 30
0.0
 11
70.5197080292
 21
178.2846699404
 31
0.0
  0
LINE
  5
8F
330
1F
100
AcDbEntity
  8
0
  6
Continuous
 62
     7
370
    15
100
AcDbLine
 10
67.5197080292
 20
178.2846699404
 30
0.0
 11
67.5197080292
 21
175.2846699404
 31
0.0
  0
LINE
  5
90
330
1F
100
AcDbEntity
  8
0
  6
Continuous
 62
     7
370
    15
100
AcDbLine
 10
79.5197080292
 20
179.2846699404
 30
0.0
 11
82.5197080292
 21
179.2846699404
 31
0.0
  0
LINE
  5
91
330
1F
100
AcDbEntity
  8
0
  6
Continuous
 62
     7
370
    15
100
AcDbLine
 10
82.5197080292
 20
182.2846699404
 30
0.0
 11
82.5197080292
 21
179.2846699404
 31
0.0
  0
LINE
  5
92
330
1F
100
AcDbEntity
  8
0
  6
Continuous
 62
     7
370
    15
100
AcDbLine
 10
79.5197080292
 20
182.2846699404
 30
0.0
 11
82.5197080292
 21
182.2846699404
 31
0.0
  0
LINE
  5
93
330
1F
100
AcDbEntity
  8
0
  6
Continuous
 62
     7
370
    15
100
AcDbLine
 10
79.5197080292
 20
182.2846699404
 30
0.0
 11
79.5197080292
 21
179.2846699404
 31
0.0
  0
LINE
  5
94
330
1F
100
AcDbEntity
  8
0
  6
Continuous
 62
     7
370
    15
100
AcDbLine
 10
75.5197080292
 20
179.2846699404
 30
0.0
 11
78.5197080292
 21
179.2846699404
 31
0.0
  0
LINE
  5
95
330
1F
100
AcDbEntity
  8
0
  6
Continuous
 62
     7
370
    15
100
AcDbLine
 10
78.5197080292
 20
182.2846699404
 30
0.0
 11
78.5197080292
 21
179.2846699404
 31
0.0
  0
LINE
  5
96
330
1F
100
AcDbEntity
  8
0
  6
Continuous
 62
     7
370
    15
100
AcDbLine
 10
75.5197080292
 20
182.2846699404
 30
0.0
 11
78.5197080292
 21
182.2846699404
 31
0.0
  0
LINE
  5
97
330
1F
100
AcDbEntity
  8
0
  6
Continuous
 62
     7
370
    15
100
AcDbLine
 10
75.5197080292
 20
182.2846699404
 30
0.0
 11
75.5197080292
 21
179.2846699404
 31
0.0
  0
LINE
  5
98
330
1F
100
AcDbEntity
  8
0
  6
Continuous
 62
     7
370
    15
100
AcDbLine
 10
71.5197080292
 20
179.2846699404
 30
0.0
 11
74.5197080292
 21
179.2846699404
 31
0.0
  0
LINE
  5
99
330
1F
100
AcDbEntity
  8
0
  6
Continuous
 62
     7
370
    15
100
AcDbLine
 10
74.5197080292
 20
182.2846699404
 30
0.0
 11
74.5197080292
 21
179.2846699404
 31
0.0
  0
LINE
  5
9A
330
1F
100
AcDbEntity
  8
0
  6
Continuous
 62
     7
370
    15
100
AcDbLine
 10
71.5197080292
 20
182.2846699404
 30
0.0
 11
74.5197080292
 21
182.2846699404
 31
0.0
  0
LINE
  5
9B
330
1F
100
AcDbEntity
  8
0
  6
Continuous
 62
     7
370
    15
100
AcDbLine
 10
71.5197080292
 20
182.2846699404
 30
0.0
 11
71.5197080292
 21
179.2846699404
 31
0.0
  0
LINE
  5
9C
330
1F
100
AcDbEntity
  8
0
  6
Continuous
 62
     7
370
    15
100
AcDbLine
 10
62.0197080292
 20
185.7846699404
 30
0.0
 11
62.0197080292
 21
159.7846699404
 31
0.0
  0
ARC
  5
9D
330
1F
100
AcDbEntity
  8
0
  6
Continuous
 62
     7
370
    15
100
AcDbCircle
 10
64.0197080292
 20
185.7846699404
 30
0.0
 40
2.000000000000007
100
AcDbArc
 50
90.0
 51
180.0
  0
LINE
  5
9E
330
1F
100
AcDbEntity
  8
0
  6
Continuous
 62
     7
370
    15
100
AcDbLine
 10
88.0197080292
 20
187.7846699404
 30
0.0
 11
64.0197080292
 21
187.7846699404
 31
0.0
  0
LINE
  5
9F
330
1F
100
AcDbEntity
  8
0
  6
Continuous
 62
     7
370
    15
100
AcDbLine
 10
63.5197080292
 20
183.2846699404
 30
0.0
 11
66.5197080292
 21
183.2846699404
 31
0.0
  0
LINE
  5
A0
330
1F
100
AcDbEntity
  8
0
  6
Continuous
 62
     7
370
    15
100
AcDbLine
 10
66.5197080292
 20
186.2846699404
 30
0.0
 11
66.5197080292
 21
183.2846699404
 31
0.0
  0
LINE
  5
A1
330
1F
100
AcDbEntity
  8
0
  6
Continuous
 62
     7
370
    15
100
AcDbLine
 10
63.5197080292
 20
186.2846699404
 30
0.0
 11
66.5197080292
 21
186.2846699404
 31
0.0
  0
LINE
  5
A2
330
1F
100
AcDbEntity
  8
0
  6
Continuous
 62
     7
370
    15
100
AcDbLine
 10
63.5197080292
 20
186.2846699404
 30
0.0
 11
63.5197080292
 21
183.2846699404
 31
0.0
  0
LINE
  5
A3
330
1F
100
AcDbEntity
  8
0
  6
Continuous
 62
     7
370
    15
100
AcDbLine
 10
67.5197080292
 20
179.2846699404
 30
0.0
 11
70.5197080292
 21
179.2846699404
 31
0.0
  0
LINE
  5
A4
330
1F
100
AcDbEntity
  8
0
  6
Continuous
 62
     7
370
    15
100
AcDbLine
 10
70.5197080292
 20
182.2846699404
 30
0.0
 11
70.5197080292
 21
179.2846699404
 31
0.0
  0
LINE
  5
A5
330
1F
100
AcDbEntity
  8
0
  6
Continuous
 62
     7
370
    15
100
AcDbLine
 10
67.5197080292
 20
182.2846699404
 30
0.0
 11
70.5197080292
 21
182.2846699404
 31
0.0
  0
LINE
  5
A6
330
1F
100
AcDbEntity
  8
0
  6
Continuous
 62
     7
370
    15
100
AcDbLine
 10
67.5197080292
 20
182.2846699404
 30
0.0
 11
67.5197080292
 21
179.2846699404
 31
0.0
  0
LINE
  5
A7
330
1F
100
AcDbEntity
  8
0
  6
Continuous
 62
     7
370
    15
100
AcDbLine
 10
63.5197080292
 20
179.2846699404
 30
0.0
 11
66.5197080292
 21
179.2846699404
 31
0.0
  0
LINE
  5
A8
330
1F
100
AcDbEntity
  8
0
  6
Continuous
 62
     7
370
    15
100
AcDbLine
 10
66.5197080292
 20
182.2846699404
 30
0.0
 11
66.5197080292
 21
179.2846699404
 31
0.0
  0
LINE
  5
A9
330
1F
100
AcDbEntity
  8
0
  6
Continuous
 62
     7
370
    15
100
AcDbLine
 10
63.5197080292
 20
182.2846699404
 30
0.0
 11
66.5197080292
 21
182.2846699404
 31
0.0
  0
LINE
  5
AA
330
1F
100
AcDbEntity
  8
0
  6
Continuous
 62
     7
370
    15
100
AcDbLine
 10
63.5197080292
 20
182.2846699404
 30
0.0
 11
63.5197080292
 21
179.2846699404
 31
0.0
  0
LINE
  5
AB
330
1F
100
AcDbEntity
  8
0
  6
Continuous
 62
     7
370
    15
100
AcDbLine
 10
63.5197080292
 20
175.2846699404
 30
0.0
 11
66.5197080292
 21
175.2846699404
 31
0.0
  0
LINE
  5
AC
330
1F
100
AcDbEntity
  8
0
  6
Continuous
 62
     7
370
    15
100
AcDbLine
 10
66.5197080292
 20
178.2846699404
 30
0.0
 11
66.5197080292
 21
175.2846699404
 31
0.0
  0
LINE
  5
AD
330
1F
100
AcDbEntity
  8
0
  6
Continuous
 62
     7
370
    15
100
AcDbLine
 10
63.5197080292
 20
178.2846699404
 30
0.0
 11
66.5197080292
 21
178.2846699404
 31
0.0
  0
LINE
  5
AE
330
1F
100
AcDbEntity
  8
0
  6
Continuous
 62
     7
370
    15
100
AcDbLine
 10
63.5197080292
 20
178.2846699404
 30
0.0
 11
63.5197080292
 21
175.2846699404
 31
0.0
  0
LINE
  5
AF
330
1F
100
AcDbEntity
  8
0
  6
Continuous
 62
     7
370
    15
100
AcDbLine
 10
63.5197080292
 20
171.2846699404
 30
0.0
 11
66.5197080292
 21
171.2846699404
 31
0.0
  0
LINE
  5
B0
330
1F
100
AcDbEntity
  8
0
  6
Continuous
 62
     7
370
    15
100
AcDbLine
 10
66.5197080292
 20
174.2846699404
 30
0.0
 11
66.5197080292
 21
171.2846699404
 31
0.0
  0
LINE
  5
B1
330
1F
100
AcDbEntity
  8
0
  6
Continuous
 62
     7
370
    15
100
AcDbLine
 10
63.5197080292
 20
174.2846699404
 30
0.0
 11
66.5197080292
 21
174.2846699404
 31
0.0
  0
LINE
  5
B2
330
1F
100
AcDbEntity
  8
0
  6
Continuous
 62
     7
370
    15
100
AcDbLine
 10
63.5197080292
 20
174.2846699404
 30
0.0
 11
63.5197080292
 21
171.2846699404
 31
0.0
  0
LINE
  5
B3
330
1F
100
AcDbEntity
  8
0
  6
Continuous
 62
     7
370
    15
100
AcDbLine
 10
63.5197080292
 20
167.2846699404
 30
0.0
 11
66.5197080292
 21
167.2846699404
 31
0.0
  0
LINE
  5
B4
330
1F
100
AcDbEntity
  8
0
  6
Continuous
 62
     7
370
    15
100
AcDbLine
 10
66.5197080292
 20
170.2846699404
 30
0.0
 11
66.5197080292
 21
167.2846699404
 31
0.0
  0
LINE
  5
B5
330
1F
100
AcDbEntity
  8
0
  6
Continuous
 62
     7
370
    15
100
AcDbLine
 10
63.5197080292
 20
170.2846699404
 30
0.0
 11
66.5197080292
 21
170.2846699404
 31
0.0
  0
LINE
  5
B6
330
1F
100
AcDbEntity
  8
0
  6
Continuous
 62
     7
370
    15
100
AcDbLine
 10
63.5197080292
 20
170.2846699404
 30
0.0
 11
63.5197080292
 21
167.2846699404
 31
0.0
  0
LINE
  5
B7
330
1F
100
AcDbEntity
  8
0
  6
Continuous
 62
     7
370
    15
100
AcDbLine
 10
63.5197080292
 20
163.2846699404
 30
0.0
 11
66.5197080292
 21
163.2846699404
 31
0.0
  0
LINE
  5
B8
330
1F
100
AcDbEntity
  8
0
  6
Continuous
 62
     7
370
    15
100
AcDbLine
 10
66.5197080292
 20
166.2846699404
 30
0.0
 11
66.5197080292
 21
163.2846699404
 31
0.0
  0
LINE
  5
B9
330
1F
100
AcDbEntity
  8
0
  6
Continuous
 62
     7
370
    15
100
AcDbLine
 10
63.5197080292
 20
166.2846699404
 30
0.0
 11
66.5197080292
 21
166.2846699404
 31
0.0
  0
LINE
  5
BA
330
1F
100
AcDbEntity
  8
0
  6
Continuous
 62
     7
370
    15
100
AcDbLine
 10
63.5197080292
 20
166.2846699404
 30
0.0
 11
63.5197080292
 21
163.2846699404
 31
0.0
  0
LINE
  5
BB
330
1F
100
AcDbEntity
  8
0
  6
Continuous
 62
     7
370
    15
100
AcDbLine
 10
63.5197080292
 20
159.2846699404
 30
0.0
 11
66.5197080292
 21
159.2846699404
 31
0.0
  0
LINE
  5
BC
330
1F
100
AcDbEntity
  8
0
  6
Continuous
 62
     7
370
    15
100
AcDbLine
 10
66.5197080292
 20
162.2846699404
 30
0.0
 11
66.5197080292
 21
159.2846699404
 31
0.0
  0
LINE
  5
BD
330
1F
100
AcDbEntity
  8
0
  6
Continuous
 62
     7
370
    15
100
AcDbLine
 10
63.5197080292
 20
162.2846699404
 30
0.0
 11
66.5197080292
 21
162.2846699404
 31
0.0
  0
LINE
  5
BE
330
1F
100
AcDbEntity
  8
0
  6
Continuous
 62
     7
370
    15
100
AcDbLine
 10
63.5197080292
 20
162.2846699404
 30
0.0
 11
63.5197080292
 21
159.2846699404
 31
0.0
  0
LINE
  5
BF
330
1F
100
AcDbEntity
  8
0
  6
Continuous
 62
     7
370
    15
100
AcDbLine
 10
67.5197080292
 20
183.2846699404
 30
0.0
 11
70.5197080292
 21
183.2846699404
 31
0.0
  0
LINE
  5
C0
330
1F
100
AcDbEntity
  8
0
  6
Continuous
 62
     7
370
    15
100
AcDbLine
 10
70.5197080292
 20
186.2846699404
 30
0.0
 11
70.5197080292
 21
183.2846699404
 31
0.0
  0
LINE
  5
C1
330
1F
100
AcDbEntity
  8
0
  6
Continuous
 62
     7
370
    15
100
AcDbLine
 10
67.5197080292
 20
186.2846699404
 30
0.0
 11
70.5197080292
 21
186.2846699404
 31
0.0
  0
LINE
  5
C2
330
1F
100
AcDbEntity
  8
0
  6
Continuous
 62
     7
370
    15
100
AcDbLine
 10
67.5197080292
 20
186.2846699404
 30
0.0
 11
67.5197080292
 21
183.2846699404
 31
0.0
  0
LINE
  5
C3
330
1F
100
AcDbEntity
  8
0
  6
Continuous
 62
     7
370
    15
100
AcDbLine
 10
67.5197080292
 20
159.2846699404
 30
0.0
 11
70.5197080292
 21
159.2846699404
 31
0.0
  0
LINE
  5
C4
330
1F
100
AcDbEntity
  8
0
  6
Continuous
 62
     7
370
    15
100
AcDbLine
 10
70.5197080292
 20
162.2846699404
 30
0.0
 11
70.5197080292
 21
159.2846699404
 31
0.0
  0
LINE
  5
C5
330
1F
100
AcDbEntity
  8
0
  6
Continuous
 62
     7
370
    15
100
AcDbLine
 10
67.5197080292
 20
162.2846699404
 30
0.0
 11
70.5197080292
 21
162.2846699404
 31
0.0
  0
LINE
  5
C6
330
1F
100
AcDbEntity
  8
0
  6
Continuous
 62
     7
370
    15
100
AcDbLine
 10
67.5197080292
 20
162.2846699404
 30
0.0
 11
67.5197080292
 21
159.2846699404
 31
0.0
  0
LINE
  5
C7
330
1F
100
AcDbEntity
  8
0
  6
Continuous
 62
     7
370
    15
100
AcDbLine
 10
71.5197080292
 20
183.2846699404
 30
0.0
 11
74.5197080292
 21
183.2846699404
 31
0.0
  0
LINE
  5
C8
330
1F
100
AcDbEntity
  8
0
  6
Continuous
 62
     7
370
    15
100
AcDbLine
 10
74.5197080292
 20
186.2846699404
 30
0.0
 11
74.5197080292
 21
183.2846699404
 31
0.0
  0
LINE
  5
C9
330
1F
100
AcDbEntity
  8
0
  6
Continuous
 62
     7
370
    15
100
AcDbLine
 10
71.5197080292
 20
186.2846699404
 30
0.0
 11
74.5197080292
 21
186.2846699404
 31
0.0
  0
LINE
  5
CA
330
1F
100
AcDbEntity
  8
0
  6
Continuous
 62
     7
370
    15
100
AcDbLine
 10
71.5197080292
 20
186.2846699404
 30
0.0
 11
71.5197080292
 21
183.2846699404
 31
0.0
  0
LINE
  5
CB
330
1F
100
AcDbEntity
  8
0
  6
Continuous
 62
     7
370
    15
100
AcDbLine
 10
71.5197080292
 20
159.2846699404
 30
0.0
 11
74.5197080292
 21
159.2846699404
 31
0.0
  0
LINE
  5
CC
330
1F
100
AcDbEntity
  8
0
  6
Continuous
 62
     7
370
    15
100
AcDbLine
 10
74.5197080292
 20
162.2846699404
 30
0.0
 11
74.5197080292
 21
159.2846699404
 31
0.0
  0
LINE
  5
CD
330
1F
100
AcDbEntity
  8
0
  6
Continuous
 62
     7
370
    15
100
AcDbLine
 10
71.5197080292
 20
162.2846699404
 30
0.0
 11
74.5197080292
 21
162.2846699404
 31
0.0
  0
LINE
  5
CE
330
1F
100
AcDbEntity
  8
0
  6
Continuous
 62
     7
370
    15
100
AcDbLine
 10
71.5197080292
 20
162.2846699404
 30
0.0
 11
71.5197080292
 21
159.2846699404
 31
0.0
  0
LINE
  5
CF
330
1F
100
AcDbEntity
  8
0
  6
Continuous
 62
     7
370
    15
100
AcDbLine
 10
75.5197080292
 20
183.2846699404
 30
0.0
 11
78.5197080292
 21
183.2846699404
 31
0.0
  0
LINE
  5
D0
330
1F
100
AcDbEntity
  8
0
  6
Continuous
 62
     7
370
    15
100
AcDbLine
 10
78.5197080292
 20
186.2846699404
 30
0.0
 11
78.5197080292
 21
183.2846699404
 31
0.0
  0
LINE
  5
D1
330
1F
100
AcDbEntity
  8
0
  6
Continuous
 62
     7
370
    15
100
AcDbLine
 10
75.5197080292
 20
186.2846699404
 30
0.0
 11
78.5197080292
 21
186.2846699404
 31
0.0
  0
LINE
  5
D2
330
1F
100
AcDbEntity
  8
0
  6
Continuous
 62
     7
370
    15
100
AcDbLine
 10
75.5197080292
 20
186.2846699404
 30
0.0
 11
75.5197080292
 21
183.2846699404
 31
0.0
  0
LINE
  5
D3
330
1F
100
AcDbEntity
  8
0
  6
Continuous
 62
     7
370
    15
100
AcDbLine
 10
75.5197080292
 20
159.2846699404
 30
0.0
 11
78.5197080292
 21
159.2846699404
 31
0.0
  0
LINE
  5
D4
330
1F
100
AcDbEntity
  8
0
  6
Continuous
 62
     7
370
    15
100
AcDbLine
 10
78.5197080292
 20
162.2846699404
 30
0.0
 11
78.5197080292
 21
159.2846699404
 31
0.0
  0
LINE
  5
D5
330
1F
100
AcDbEntity
  8
0
  6
Continuous
 62
     7
370
    15
100
AcDbLine
 10
75.5197080292
 20
162.2846699404
 30
0.0
 11
78.5197080292
 21
162.2846699404
 31
0.0
  0
LINE
  5
D6
330
1F
100
AcDbEntity
  8
0
  6
Continuous
 62
     7
370
    15
100
AcDbLine
 10
75.5197080292
 20
162.2846699404
 30
0.0
 11
75.5197080292
 21
159.2846699404
 31
0.0
  0
LINE
  5
D7
330
1F
100
AcDbEntity
  8
0
  6
Continuous
 62
     7
370
    15
100
AcDbLine
 10
79.5197080292
 20
183.2846699404
 30
0.0
 11
82.5197080292
 21
183.2846699404
 31
0.0
  0
LINE
  5
D8
330
1F
100
AcDbEntity
  8
0
  6
Continuous
 62
     7
370
    15
100
AcDbLine
 10
82.5197080292
 20
186.2846699404
 30
0.0
 11
82.5197080292
 21
183.2846699404
 31
0.0
  0
LINE
  5
D9
330
1F
100
AcDbEntity
  8
0
  6
Continuous
 62
     7
370
    15
100
AcDbLine
 10
79.5197080292
 20
186.2846699404
 30
0.0
 11
82.5197080292
 21
186.2846699404
 31
0.0
  0
LINE
  5
DA
330
1F
100
AcDbEntity
  8
0
  6
Continuous
 62
     7
370
    15
100
AcDbLine
 10
79.5197080292
 20
186.2846699404
 30
0.0
 11
79.5197080292
 21
183.2846699404
 31
0.0
  0
LINE
  5
DB
330
1F
100
AcDbEntity
  8
0
  6
Continuous
 62
     7
370
    15
100
AcDbLine
 10
79.5197080292
 20
159.2846699404
 30
0.0
 11
82.5197080292
 21
159.2846699404
 31
0.0
  0
LINE
  5
DC
330
1F
100
AcDbEntity
  8
0
  6
Continuous
 62
     7
370
    15
100
AcDbLine
 10
82.5197080292
 20
162.2846699404
 30
0.0
 11
82.5197080292
 21
159.2846699404
 31
0.0
  0
LINE
  5
DD
330
1F
100
AcDbEntity
  8
0
  6
Continuous
 62
     7
370
    15
100
AcDbLine
 10
79.5197080292
 20
162.2846699404
 30
0.0
 11
82.5197080292
 21
162.2846699404
 31
0.0
  0
LINE
  5
DE
330
1F
100
AcDbEntity
  8
0
  6
Continuous
 62
     7
370
    15
100
AcDbLine
 10
79.5197080292
 20
162.2846699404
 30
0.0
 11
79.5197080292
 21
159.2846699404
 31
0.0
  0
LINE
  5
DF
330
1F
100
AcDbEntity
  8
0
  6
Continuous
 62
     7
370
    15
100
AcDbLine
 10
83.5197080292
 20
183.2846699404
 30
0.0
 11
86.5197080292
 21
183.2846699404
 31
0.0
  0
LINE
  5
E0
330
1F
100
AcDbEntity
  8
0
  6
Continuous
 62
     7
370
    15
100
AcDbLine
 10
86.5197080292
 20
186.2846699404
 30
0.0
 11
86.5197080292
 21
183.2846699404
 31
0.0
  0
LINE
  5
E1
330
1F
100
AcDbEntity
  8
0
  6
Continuous
 62
     7
370
    15
100
AcDbLine
 10
83.5197080292
 20
186.2846699404
 30
0.0
 11
86.5197080292
 21
186.2846699404
 31
0.0
  0
LINE
  5
E2
330
1F
100
AcDbEntity
  8
0
  6
Continuous
 62
     7
370
    15
100
AcDbLine
 10
83.5197080292
 20
186.2846699404
 30
0.0
 11
83.5197080292
 21
183.2846699404
 31
0.0
  0
LINE
  5
E3
330
1F
100
AcDbEntity
  8
0
  6
Continuous
 62
     7
370
    15
100
AcDbLine
 10
83.5197080292
 20
179.2846699404
 30
0.0
 11
86.5197080292
 21
179.2846699404
 31
0.0
  0
LINE
  5
E4
330
1F
100
AcDbEntity
  8
0
  6
Continuous
 62
     7
370
    15
100
AcDbLine
 10
86.5197080292
 20
182.2846699404
 30
0.0
 11
86.5197080292
 21
179.2846699404
 31
0.0
  0
LINE
  5
E5
330
1F
100
AcDbEntity
  8
0
  6
Continuous
 62
     7
370
    15
100
AcDbLine
 10
83.5197080292
 20
182.2846699404
 30
0.0
 11
86.5197080292
 21
182.2846699404
 31
0.0
  0
LINE
  5
E6
330
1F
100
AcDbEntity
  8
0
  6
Continuous
 62
     7
370
    15
100
AcDbLine
 10
83.5197080292
 20
182.2846699404
 30
0.0
 11
83.5197080292
 21
179.2846699404
 31
0.0
  0
LINE
  5
E7
330
1F
100
AcDbEntity
  8
0
  6
Continuous
 62
     7
370
    15
100
AcDbLine
 10
83.5197080292
 20
175.2846699404
 30
0.0
 11
86.5197080292
 21
175.2846699404
 31
0.0
  0
LINE
  5
E8
330
1F
100
AcDbEntity
  8
0
  6
Continuous
 62
     7
370
    15
100
AcDbLine
 10
86.5197080292
 20
178.2846699404
 30
0.0
 11
86.5197080292
 21
175.2846699404
 31
0.0
  0
LINE
  5
E9
330
1F
100
AcDbEntity
  8
0
  6
Continuous
 62
     7
370
    15
100
AcDbLine
 10
83.5197080292
 20
178.2846699404
 30
0.0
 11
86.5197080292
 21
178.2846699404
 31
0.0
  0
LINE
  5
EA
330
1F
100
AcDbEntity
  8
0
  6
Continuous
 62
     7
370
    15
100
AcDbLine
 10
83.5197080292
 20
178.2846699404
 30
0.0
 11
83.5197080292
 21
175.2846699404
 31
0.0
  0
LINE
  5
EB
330
1F
100
AcDbEntity
  8
0
  6
Continuous
 62
     7
370
    15
100
AcDbLine
 10
83.5197080292
 20
171.2846699404
 30
0.0
 11
86.5197080292
 21
171.2846699404
 31
0.0
  0
LINE
  5
EC
330
1F
100
AcDbEntity
  8
0
  6
Continuous
 62
     7
370
    15
100
AcDbLine
 10
86.5197080292
 20
174.2846699404
 30
0.0
 11
86.5197080292
 21
171.2846699404
 31
0.0
  0
LINE
  5
ED
330
1F
100
AcDbEntity
  8
0
  6
Continuous
 62
     7
370
    15
100
AcDbLine
 10
83.5197080292
 20
174.2846699404
 30
0.0
 11
86.5197080292
 21
174.2846699404
 31
0.0
  0
LINE
  5
EE
330
1F
100
AcDbEntity
  8
0
  6
Continuous
 62
     7
370
    15
100
AcDbLine
 10
83.5197080292
 20
174.2846699404
 30
0.0
 11
83.5197080292
 21
171.2846699404
 31
0.0
  0
LINE
  5
EF
330
1F
100
AcDbEntity
  8
0
  6
Continuous
 62
     7
370
    15
100
AcDbLine
 10
83.5197080292
 20
167.2846699404
 30
0.0
 11
86.5197080292
 21
167.2846699404
 31
0.0
  0
LINE
  5
F0
330
1F
100
AcDbEntity
  8
0
  6
Continuous
 62
     7
370
    15
100
AcDbLine
 10
86.5197080292
 20
170.2846699404
 30
0.0
 11
86.5197080292
 21
167.2846699404
 31
0.0
  0
LINE
  5
F1
330
1F
100
AcDbEntity
  8
0
  6
Continuous
 62
     7
370
    15
100
AcDbLine
 10
83.5197080292
 20
170.2846699404
 30
0.0
 11
86.5197080292
 21
170.2846699404
 31
0.0
  0
LINE
  5
F2
330
1F
100
AcDbEntity
  8
0
  6
Continuous
 62
     7
370
    15
100
AcDbLine
 10
83.5197080292
 20
170.2846699404
 30
0.0
 11
83.5197080292
 21
167.2846699404
 31
0.0
  0
LINE
  5
F3
330
1F
100
AcDbEntity
  8
0
  6
Continuous
 62
     7
370
    15
100
AcDbLine
 10
83.5197080292
 20
163.2846699404
 30
0.0
 11
86.5197080292
 21
163.2846699404
 31
0.0
  0
LINE
  5
F4
330
1F
100
AcDbEntity
  8
0
  6
Continuous
 62
     7
370
    15
100
AcDbLine
 10
86.5197080292
 20
166.2846699404
 30
0.0
 11
86.5197080292
 21
163.2846699404
 31
0.0
  0
LINE
  5
F5
330
1F
100
AcDbEntity
  8
0
  6
Continuous
 62
     7
370
    15
100
AcDbLine
 10
83.5197080292
 20
166.2846699404
 30
0.0
 11
86.5197080292
 21
166.2846699404
 31
0.0
  0
LINE
  5
F6
330
1F
100
AcDbEntity
  8
0
  6
Continuous
 62
     7
370
    15
100
AcDbLine
 10
83.5197080292
 20
166.2846699404
 30
0.0
 11
83.5197080292
 21
163.2846699404
 31
0.0
  0
LINE
  5
F7
330
1F
100
AcDbEntity
  8
0
  6
Continuous
 62
     7
370
    15
100
AcDbLine
 10
83.5197080292
 20
159.2846699404
 30
0.0
 11
86.5197080292
 21
159.2846699404
 31
0.0
  0
LINE
  5
F8
330
1F
100
AcDbEntity
  8
0
  6
Continuous
 62
     7
370
    15
100
AcDbLine
 10
86.5197080292
 20
162.2846699404
 30
0.0
 11
86.5197080292
 21
159.2846699404
 31
0.0
  0
LINE
  5
F9
330
1F
100
AcDbEntity
  8
0
  6
Continuous
 62
     7
370
    15
100
AcDbLine
 10
83.5197080292
 20
162.2846699404
 30
0.0
 11
86.5197080292
 21
162.2846699404
 31
0.0
  0
LINE
  5
FA
330
1F
100
AcDbEntity
  8
0
  6
Continuous
 62
     7
370
    15
100
AcDbLine
 10
83.5197080292
 20
162.2846699404
 30
0.0
 11
83.5197080292
 21
159.2846699404
 31
0.0
  0
LINE
  5
FB
330
1F
100
AcDbEntity
  8
0
  6
Continuous
 62
     7
370
    15
100
AcDbLine
 10
88.0197080292
 20
157.7846699404
 30
0.0
 11
88.0197080292
 21
187.7846699404
 31
0.0
  0
LINE
  5
FC
330
1F
100
AcDbEntity
  8
0
  6
Continuous
 62
     7
370
    15
100
AcDbLine
 10
64.0197080292
 20
157.7846699404
 30
0.0
 11
88.0197080292
 21
157.7846699404
 31
0.0
  0
ARC
  5
FD
330
1F
100
AcDbEntity
  8
0
  6
Continuous
 62
     7
370
    15
100
AcDbCircle
 10
64.0197080292
 20
159.7846699404
 30
0.0
 40
2.0
100
AcDbArc
 50
180.0
 51
270.0
  0
LINE
  5
FE
330
1F
100
AcDbEntity
  8
0
  6
Continuous
 62
     7
370
    15
100
AcDbLine
 10
84.2839962034
 20
160.0489581147
 30
0.0
 11
83.5197080292
 21
159.2846699404
 31
0.0
  0
LINE
  5
FF
330
1F
100
AcDbEntity
  8
0
  6
Continuous
 62
     7
370
    15
100
AcDbLine
 10
84.2839962034
 20
160.0489581147
 30
0.0
 11
85.755419855
 21
160.0489581147
 31
0.0
  0
LINE
  5
100
330
1F
100
AcDbEntity
  8
0
  6
Continuous
 62
     7
370
    15
100
AcDbLine
 10
85.755419855
 20
160.0489581147
 30
0.0
 11
86.5197080292
 21
159.2846699404
 31
0.0
  0
LINE
  5
101
330
1F
100
AcDbEntity
  8
0
  6
Continuous
 62
     7
370
    15
100
AcDbLine
 10
64.2839962034
 20
160.0489581147
 30
0.0
 11
63.5197080292
 21
159.2846699404
 31
0.0
  0
LINE
  5
102
330
1F
100
AcDbEntity
  8
0
  6
Continuous
 62
     7
370
    15
100
AcDbLine
 10
64.2839962034
 20
160.0489581147
 30
0.0
 11
65.755419855
 21
160.0489581147
 31
0.0
  0
LINE
  5
103
330
1F
100
AcDbEntity
  8
0
  6
Continuous
 62
     7
370
    15
100
AcDbLine
 10
65.755419855
 20
160.0489581147
 30
0.0
 11
66.5197080292
 21
159.2846699404
 31
0.0
  0
LINE
  5
104
330
1F
100
AcDbEntity
  8
0
  6
Continuous
 62
     7
370
    15
100
AcDbLine
 10
72.2839962034
 20
161.5203817662
 30
0.0
 11
71.5197080292
 21
162.2846699404
 31
0.0
  0
LINE
  5
105
330
1F
100
AcDbEntity
  8
0
  6
Continuous
 62
     7
370
    15
100
AcDbLine
 10
72.2839962034
 20
161.5203817662
 30
0.0
 11
72.2839962034
 21
160.0489581147
 31
0.0
  0
LINE
  5
106
330
1F
100
AcDbEntity
  8
0
  6
Continuous
 62
     7
370
    15
100
AcDbLine
 10
72.2839962034
 20
160.0489581147
 30
0.0
 11
71.5197080292
 21
159.2846699404
 31
0.0
  0
LINE
  5
107
330
1F
100
AcDbEntity
  8
0
  6
Continuous
 62
     7
370
    15
100
AcDbLine
 10
73.755419855
 20
160.0489581147
 30
0.0
 11
74.5197080292
 21
159.2846699404
 31
0.0
  0
LINE
  5
108
330
1F
100
AcDbEntity
  8
0
  6
Continuous
 62
     7
370
    15
100
AcDbLine
 10
73.755419855
 20
161.5203817662
 30
0.0
 11
73.755419855
 21
160.0489581147
 31
0.0
  0
LINE
  5
109
330
1F
100
AcDbEntity
  8
0
  6
Continuous
 62
     7
370
    15
100
AcDbLine
 10
73.755419855
 20
161.5203817662
 30
0.0
 11
74.5197080292
 21
162.2846699404
 31
0.0
  0
LINE
  5
10A
330
1F
100
AcDbEntity
  8
0
  6
Continuous
 62
     7
370
    15
100
AcDbLine
 10
72.2839962034
 20
160.0489581147
 30
0.0
 11
73.755419855
 21
160.0489581147
 31
0.0
  0
LINE
  5
10B
330
1F
100
AcDbEntity
  8
0
  6
Continuous
 62
     7
370
    15
100
AcDbLine
 10
85.755419855
 20
161.5203817662
 30
0.0
 11
85.755419855
 21
160.0489581147
 31
0.0
  0
LINE
  5
10C
330
1F
100
AcDbEntity
  8
0
  6
Continuous
 62
     7
370
    15
100
AcDbLine
 10
85.755419855
 20
161.5203817662
 30
0.0
 11
86.5197080292
 21
162.2846699404
 31
0.0
  0
LINE
  5
10D
330
1F
100
AcDbEntity
  8
0
  6
Continuous
 62
     7
370
    15
100
AcDbLine
 10
68.2839962034
 20
161.5203817662
 30
0.0
 11
67.5197080292
 21
162.2846699404
 31
0.0
  0
LINE
  5
10E
330
1F
100
AcDbEntity
  8
0
  6
Continuous
 62
     7
370
    15
100
AcDbLine
 10
68.2839962034
 20
161.5203817662
 30
0.0
 11
68.2839962034
 21
160.0489581147
 31
0.0
  0
LINE
  5
10F
330
1F
100
AcDbEntity
  8
0
  6
Continuous
 62
     7
370
    15
100
AcDbLine
 10
68.2839962034
 20
160.0489581147
 30
0.0
 11
67.5197080292
 21
159.2846699404
 31
0.0
  0
LINE
  5
110
330
1F
100
AcDbEntity
  8
0
  6
Continuous
 62
     7
370
    15
100
AcDbLine
 10
80.2839962034
 20
161.5203817662
 30
0.0
 11
79.5197080292
 21
162.2846699404
 31
0.0
  0
LINE
  5
111
330
1F
100
AcDbEntity
  8
0
  6
Continuous
 62
     7
370
    15
100
AcDbLine
 10
80.2839962034
 20
161.5203817662
 30
0.0
 11
80.2839962034
 21
160.0489581147
 31
0.0
  0
LINE
  5
112
330
1F
100
AcDbEntity
  8
0
  6
Continuous
 62
     7
370
    15
100
AcDbLine
 10
80.2839962034
 20
160.0489581147
 30
0.0
 11
79.5197080292
 21
159.2846699404
 31
0.0
  0
LINE
  5
113
330
1F
100
AcDbEntity
  8
0
  6
Continuous
 62
     7
370
    15
100
AcDbLine
 10
69.755419855
 20
160.0489581147
 30
0.0
 11
70.5197080292
 21
159.2846699404
 31
0.0
  0
LINE
  5
114
330
1F
100
AcDbEntity
  8
0
  6
Continuous
 62
     7
370
    15
100
AcDbLine
 10
69.755419855
 20
161.5203817662
 30
0.0
 11
69.755419855
 21
160.0489581147
 31
0.0
  0
LINE
  5
115
330
1F
100
AcDbEntity
  8
0
  6
Continuous
 62
     7
370
    15
100
AcDbLine
 10
69.755419855
 20
161.5203817662
 30
0.0
 11
70.5197080292
 21
162.2846699404
 31
0.0
  0
LINE
  5
116
330
1F
100
AcDbEntity
  8
0
  6
Continuous
 62
     7
370
    15
100
AcDbLine
 10
68.2839962034
 20
160.0489581147
 30
0.0
 11
69.755419855
 21
160.0489581147
 31
0.0
  0
LINE
  5
117
330
1F
100
AcDbEntity
  8
0
  6
Continuous
 62
     7
370
    15
100
AcDbLine
 10
84.2839962034
 20
161.5203817662
 30
0.0
 11
83.5197080292
 21
162.2846699404
 31
0.0
  0
LINE
  5
118
330
1F
100
AcDbEntity
  8
0
  6
Continuous
 62
     7
370
    15
100
AcDbLine
 10
84.2839962034
 20
161.5203817662
 30
0.0
 11
84.2839962034
 21
160.0489581147
 31
0.0
  0
LINE
  5
119
330
1F
100
AcDbEntity
  8
0
  6
Continuous
 62
     7
370
    15
100
AcDbLine
 10
64.2839962034
 20
161.5203817662
 30
0.0
 11
63.5197080292
 21
162.2846699404
 31
0.0
  0
LINE
  5
11A
330
1F
100
AcDbEntity
  8
0
  6
Continuous
 62
     7
370
    15
100
AcDbLine
 10
64.2839962034
 20
161.5203817662
 30
0.0
 11
64.2839962034
 21
160.0489581147
 31
0.0
  0
LINE
  5
11B
330
1F
100
AcDbEntity
  8
0
  6
Continuous
 62
     7
370
    15
100
AcDbLine
 10
76.2839962034
 20
161.5203817662
 30
0.0
 11
75.5197080292
 21
162.2846699404
 31
0.0
  0
LINE
  5
11C
330
1F
100
AcDbEntity
  8
0
  6
Continuous
 62
     7
370
    15
100
AcDbLine
 10
76.2839962034
 20
161.5203817662
 30
0.0
 11
76.2839962034
 21
160.0489581147
 31
0.0
  0
LINE
  5
11D
330
1F
100
AcDbEntity
  8
0
  6
Continuous
 62
     7
370
    15
100
AcDbLine
 10
76.2839962034
 20
160.0489581147
 30
0.0
 11
75.5197080292
 21
159.2846699404
 31
0.0
  0
LINE
  5
11E
330
1F
100
AcDbEntity
  8
0
  6
Continuous
 62
     7
370
    15
100
AcDbLine
 10
65.755419855
 20
161.5203817662
 30
0.0
 11
65.755419855
 21
160.0489581147
 31
0.0
  0
LINE
  5
11F
330
1F
100
AcDbEntity
  8
0
  6
Continuous
 62
     7
370
    15
100
AcDbLine
 10
65.755419855
 20
161.5203817662
 30
0.0
 11
66.5197080292
 21
162.2846699404
 31
0.0
  0
LINE
  5
120
330
1F
100
AcDbEntity
  8
0
  6
Continuous
 62
     7
370
    15
100
AcDbLine
 10
77.755419855
 20
160.0489581147
 30
0.0
 11
78.5197080292
 21
159.2846699404
 31
0.0
  0
LINE
  5
121
330
1F
100
AcDbEntity
  8
0
  6
Continuous
 62
     7
370
    15
100
AcDbLine
 10
77.755419855
 20
161.5203817662
 30
0.0
 11
77.755419855
 21
160.0489581147
 31
0.0
  0
LINE
  5
122
330
1F
100
AcDbEntity
  8
0
  6
Continuous
 62
     7
370
    15
100
AcDbLine
 10
77.755419855
 20
161.5203817662
 30
0.0
 11
78.5197080292
 21
162.2846699404
 31
0.0
  0
LINE
  5
123
330
1F
100
AcDbEntity
  8
0
  6
Continuous
 62
     7
370
    15
100
AcDbLine
 10
76.2839962034
 20
160.0489581147
 30
0.0
 11
77.755419855
 21
160.0489581147
 31
0.0
  0
LINE
  5
124
330
1F
100
AcDbEntity
  8
0
  6
Continuous
 62
     7
370
    15
100
AcDbLine
 10
81.755419855
 20
160.0489581147
 30
0.0
 11
82.5197080292
 21
159.2846699404
 31
0.0
  0
LINE
  5
125
330
1F
100
AcDbEntity
  8
0
  6
Continuous
 62
     7
370
    15
100
AcDbLine
 10
81.755419855
 20
161.5203817662
 30
0.0
 11
81.755419855
 21
160.0489581147
 31
0.0
  0
LINE
  5
126
330
1F
100
AcDbEntity
  8
0
  6
Continuous
 62
     7
370
    15
100
AcDbLine
 10
81.755419855
 20
161.5203817662
 30
0.0
 11
82.5197080292
 21
162.2846699404
 31
0.0
  0
LINE
  5
127
330
1F
100
AcDbEntity
  8
0
  6
Continuous
 62
     7
370
    15
100
AcDbLine
 10
80.2839962034
 20
160.0489581147
 30
0.0
 11
81.755419855
 21
160.0489581147
 31
0.0
  0
LINE
  5
128
330
1F
100
AcDbEntity
  8
0
  6
Continuous
 62
     7
370
    15
100
AcDbLine
 10
68.2839962034
 20
165.5203817662
 30
0.0
 11
67.5197080292
 21
166.2846699404
 31
0.0
  0
LINE
  5
129
330
1F
100
AcDbEntity
  8
0
  6
Continuous
 62
     7
370
    15
100
AcDbLine
 10
68.2839962034
 20
165.5203817662
 30
0.0
 11
68.2839962034
 21
164.0489581147
 31
0.0
  0
LINE
  5
12A
330
1F
100
AcDbEntity
  8
0
  6
Continuous
 62
     7
370
    15
100
AcDbLine
 10
68.2839962034
 20
164.0489581147
 30
0.0
 11
67.5197080292
 21
163.2846699404
 31
0.0
  0
LINE
  5
12B
330
1F
100
AcDbEntity
  8
0
  6
Continuous
 62
     7
370
    15
100
AcDbLine
 10
73.755419855
 20
164.0489581147
 30
0.0
 11
74.5197080292
 21
163.2846699404
 31
0.0
  0
LINE
  5
12C
330
1F
100
AcDbEntity
  8
0
  6
Continuous
 62
     7
370
    15
100
AcDbLine
 10
73.755419855
 20
165.5203817662
 30
0.0
 11
73.755419855
 21
164.0489581147
 31
0.0
  0
LINE
  5
12D
330
1F
100
AcDbEntity
  8
0
  6
Continuous
 62
     7
370
    15
100
AcDbLine
 10
73.755419855
 20
165.5203817662
 30
0.0
 11
74.5197080292
 21
166.2846699404
 31
0.0
  0
LINE
  5
12E
330
1F
100
AcDbEntity
  8
0
  6
Continuous
 62
     7
370
    15
100
AcDbLine
 10
84.2839962034
 20
165.5203817662
 30
0.0
 11
83.5197080292
 21
166.2846699404
 31
0.0
  0
LINE
  5
12F
330
1F
100
AcDbEntity
  8
0
  6
Continuous
 62
     7
370
    15
100
AcDbLine
 10
84.2839962034
 20
165.5203817662
 30
0.0
 11
84.2839962034
 21
164.0489581147
 31
0.0
  0
LINE
  5
130
330
1F
100
AcDbEntity
  8
0
  6
Continuous
 62
     7
370
    15
100
AcDbLine
 10
84.2839962034
 20
164.0489581147
 30
0.0
 11
83.5197080292
 21
163.2846699404
 31
0.0
  0
LINE
  5
131
330
1F
100
AcDbEntity
  8
0
  6
Continuous
 62
     7
370
    15
100
AcDbLine
 10
81.755419855
 20
164.0489581147
 30
0.0
 11
82.5197080292
 21
163.2846699404
 31
0.0
  0
LINE
  5
132
330
1F
100
AcDbEntity
  8
0
  6
Continuous
 62
     7
370
    15
100
AcDbLine
 10
81.755419855
 20
165.5203817662
 30
0.0
 11
81.755419855
 21
164.0489581147
 31
0.0
  0
LINE
  5
133
330
1F
100
AcDbEntity
  8
0
  6
Continuous
 62
     7
370
    15
100
AcDbLine
 10
81.755419855
 20
165.5203817662
 30
0.0
 11
82.5197080292
 21
166.2846699404
 31
0.0
  0
LINE
  5
134
330
1F
100
AcDbEntity
  8
0
  6
Continuous
 62
     7
370
    15
100
AcDbLine
 10
80.2839962034
 20
161.5203817662
 30
0.0
 11
81.755419855
 21
161.5203817662
 31
0.0
  0
LINE
  5
135
330
1F
100
AcDbEntity
  8
0
  6
Continuous
 62
     7
370
    15
100
AcDbLine
 10
80.2839962034
 20
165.5203817662
 30
0.0
 11
79.5197080292
 21
166.2846699404
 31
0.0
  0
LINE
  5
136
330
1F
100
AcDbEntity
  8
0
  6
Continuous
 62
     7
370
    15
100
AcDbLine
 10
80.2839962034
 20
165.5203817662
 30
0.0
 11
80.2839962034
 21
164.0489581147
 31
0.0
  0
LINE
  5
137
330
1F
100
AcDbEntity
  8
0
  6
Continuous
 62
     7
370
    15
100
AcDbLine
 10
80.2839962034
 20
164.0489581147
 30
0.0
 11
79.5197080292
 21
163.2846699404
 31
0.0
  0
LINE
  5
138
330
1F
100
AcDbEntity
  8
0
  6
Continuous
 62
     7
370
    15
100
AcDbLine
 10
72.2839962034
 20
161.5203817662
 30
0.0
 11
73.755419855
 21
161.5203817662
 31
0.0
  0
LINE
  5
139
330
1F
100
AcDbEntity
  8
0
  6
Continuous
 62
     7
370
    15
100
AcDbLine
 10
64.2839962034
 20
164.0489581147
 30
0.0
 11
63.5197080292
 21
163.2846699404
 31
0.0
  0
LINE
  5
13A
330
1F
100
AcDbEntity
  8
0
  6
Continuous
 62
     7
370
    15
100
AcDbLine
 10
64.2839962034
 20
164.0489581147
 30
0.0
 11
65.755419855
 21
164.0489581147
 31
0.0
  0
LINE
  5
13B
330
1F
100
AcDbEntity
  8
0
  6
Continuous
 62
     7
370
    15
100
AcDbLine
 10
65.755419855
 20
164.0489581147
 30
0.0
 11
66.5197080292
 21
163.2846699404
 31
0.0
  0
LINE
  5
13C
330
1F
100
AcDbEntity
  8
0
  6
Continuous
 62
     7
370
    15
100
AcDbLine
 10
72.2839962034
 20
164.0489581147
 30
0.0
 11
71.5197080292
 21
163.2846699404
 31
0.0
  0
LINE
  5
13D
330
1F
100
AcDbEntity
  8
0
  6
Continuous
 62
     7
370
    15
100
AcDbLine
 10
72.2839962034
 20
164.0489581147
 30
0.0
 11
73.755419855
 21
164.0489581147
 31
0.0
  0
LINE
  5
13E
330
1F
100
AcDbEntity
  8
0
  6
Continuous
 62
     7
370
    15
100
AcDbLine
 10
64.2839962034
 20
161.5203817662
 30
0.0
 11
65.755419855
 21
161.5203817662
 31
0.0
  0
LINE
  5
13F
330
1F
100
AcDbEntity
  8
0
  6
Continuous
 62
     7
370
    15
100
AcDbLine
 10
68.2839962034
 20
161.5203817662
 30
0.0
 11
69.755419855
 21
161.5203817662
 31
0.0
  0
LINE
  5
140
330
1F
100
AcDbEntity
  8
0
  6
Continuous
 62
     7
370
    15
100
AcDbLine
 10
64.2839962034
 20
165.5203817662
 30
0.0
 11
63.5197080292
 21
166.2846699404
 31
0.0
  0
LINE
  5
141
330
1F
100
AcDbEntity
  8
0
  6
Continuous
 62
     7
370
    15
100
AcDbLine
 10
64.2839962034
 20
165.5203817662
 30
0.0
 11
64.2839962034
 21
164.0489581147
 31
0.0
  0
LINE
  5
142
330
1F
100
AcDbEntity
  8
0
  6
Continuous
 62
     7
370
    15
100
AcDbLine
 10
69.755419855
 20
164.0489581147
 30
0.0
 11
70.5197080292
 21
163.2846699404
 31
0.0
  0
LINE
  5
143
330
1F
100
AcDbEntity
  8
0
  6
Continuous
 62
     7
370
    15
100
AcDbLine
 10
69.755419855
 20
165.5203817662
 30
0.0
 11
69.755419855
 21
164.0489581147
 31
0.0
  0
LINE
  5
144
330
1F
100
AcDbEntity
  8
0
  6
Continuous
 62
     7
370
    15
100
AcDbLine
 10
69.755419855
 20
165.5203817662
 30
0.0
 11
70.5197080292
 21
166.2846699404
 31
0.0
  0
LINE
  5
145
330
1F
100
AcDbEntity
  8
0
  6
Continuous
 62
     7
370
    15
100
AcDbLine
 10
65.755419855
 20
165.5203817662
 30
0.0
 11
65.755419855
 21
164.0489581147
 31
0.0
  0
LINE
  5
146
330
1F
100
AcDbEntity
  8
0
  6
Continuous
 62
     7
370
    15
100
AcDbLine
 10
65.755419855
 20
165.5203817662
 30
0.0
 11
66.5197080292
 21
166.2846699404
 31
0.0
  0
LINE
  5
147
330
1F
100
AcDbEntity
  8
0
  6
Continuous
 62
     7
370
    15
100
AcDbLine
 10
76.2839962034
 20
164.0489581147
 30
0.0
 11
75.5197080292
 21
163.2846699404
 31
0.0
  0
LINE
  5
148
330
1F
100
AcDbEntity
  8
0
  6
Continuous
 62
     7
370
    15
100
AcDbLine
 10
76.2839962034
 20
164.0489581147
 30
0.0
 11
77.755419855
 21
164.0489581147
 31
0.0
  0
LINE
  5
149
330
1F
100
AcDbEntity
  8
0
  6
Continuous
 62
     7
370
    15
100
AcDbLine
 10
77.755419855
 20
164.0489581147
 30
0.0
 11
78.5197080292
 21
163.2846699404
 31
0.0
  0
LINE
  5
14A
330
1F
100
AcDbEntity
  8
0
  6
Continuous
 62
     7
370
    15
100
AcDbLine
 10
77.755419855
 20
165.5203817662
 30
0.0
 11
77.755419855
 21
164.0489581147
 31
0.0
  0
LINE
  5
14B
330
1F
100
AcDbEntity
  8
0
  6
Continuous
 62
     7
370
    15
100
AcDbLine
 10
77.755419855
 20
165.5203817662
 30
0.0
 11
78.5197080292
 21
166.2846699404
 31
0.0
  0
LINE
  5
14C
330
1F
100
AcDbEntity
  8
0
  6
Continuous
 62
     7
370
    15
100
AcDbLine
 10
84.2839962034
 20
161.5203817662
 30
0.0
 11
85.755419855
 21
161.5203817662
 31
0.0
  0
LINE
  5
14D
330
1F
100
AcDbEntity
  8
0
  6
Continuous
 62
     7
370
    15
100
AcDbLine
 10
76.2839962034
 20
161.5203817662
 30
0.0
 11
77.755419855
 21
161.5203817662
 31
0.0
  0
LINE
  5
14E
330
1F
100
AcDbEntity
  8
0
  6
Continuous
 62
     7
370
    15
100
AcDbLine
 10
76.2839962034
 20
165.5203817662
 30
0.0
 11
75.5197080292
 21
166.2846699404
 31
0.0
  0
LINE
  5
14F
330
1F
100
AcDbEntity
  8
0
  6
Continuous
 62
     7
370
    15
100
AcDbLine
 10
76.2839962034
 20
165.5203817662
 30
0.0
 11
76.2839962034
 21
164.0489581147
 31
0.0
  0
LINE
  5
150
330
1F
100
AcDbEntity
  8
0
  6
Continuous
 62
     7
370
    15
100
AcDbLine
 10
72.2839962034
 20
165.5203817662
 30
0.0
 11
71.5197080292
 21
166.2846699404
 31
0.0
  0
LINE
  5
151
330
1F
100
AcDbEntity
  8
0
  6
Continuous
 62
     7
370
    15
100
AcDbLine
 10
72.2839962034
 20
165.5203817662
 30
0.0
 11
72.2839962034
 21
164.0489581147
 31
0.0
  0
LINE
  5
152
330
1F
100
AcDbEntity
  8
0
  6
Continuous
 62
     7
370
    15
100
AcDbLine
 10
68.2839962034
 20
164.0489581147
 30
0.0
 11
69.755419855
 21
164.0489581147
 31
0.0
  0
LINE
  5
153
330
1F
100
AcDbEntity
  8
0
  6
Continuous
 62
     7
370
    15
100
AcDbLine
 10
80.2839962034
 20
164.0489581147
 30
0.0
 11
81.755419855
 21
164.0489581147
 31
0.0
  0
LINE
  5
154
330
1F
100
AcDbEntity
  8
0
  6
Continuous
 62
     7
370
    15
100
AcDbLine
 10
85.755419855
 20
164.0489581147
 30
0.0
 11
86.5197080292
 21
163.2846699404
 31
0.0
  0
LINE
  5
155
330
1F
100
AcDbEntity
  8
0
  6
Continuous
 62
     7
370
    15
100
AcDbLine
 10
85.755419855
 20
165.5203817662
 30
0.0
 11
85.755419855
 21
164.0489581147
 31
0.0
  0
LINE
  5
156
330
1F
100
AcDbEntity
  8
0
  6
Continuous
 62
     7
370
    15
100
AcDbLine
 10
85.755419855
 20
165.5203817662
 30
0.0
 11
86.5197080292
 21
166.2846699404
 31
0.0
  0
LINE
  5
157
330
1F
100
AcDbEntity
  8
0
  6
Continuous
 62
     7
370
    15
100
AcDbLine
 10
84.2839962034
 20
164.0489581147
 30
0.0
 11
85.755419855
 21
164.0489581147
 31
0.0
  0
LINE
  5
158
330
1F
100
AcDbEntity
  8
0
  6
Continuous
 62
     7
370
    15
100
AcDbLine
 10
72.2839962034
 20
165.5203817662
 30
0.0
 11
73.755419855
 21
165.5203817662
 31
0.0
  0
LINE
  5
159
330
1F
100
AcDbEntity
  8
0
  6
Continuous
 62
     7
370
    15
100
AcDbLine
 10
68.2839962034
 20
165.5203817662
 30
0.0
 11
69.755419855
 21
165.5203817662
 31
0.0
  0
LINE
  5
15A
330
1F
100
AcDbEntity
  8
0
  6
Continuous
 62
     7
370
    15
100
AcDbLine
 10
84.2839962034
 20
169.5203817662
 30
0.0
 11
83.5197080292
 21
170.2846699404
 31
0.0
  0
LINE
  5
15B
330
1F
100
AcDbEntity
  8
0
  6
Continuous
 62
     7
370
    15
100
AcDbLine
 10
84.2839962034
 20
169.5203817662
 30
0.0
 11
84.2839962034
 21
168.0489581147
 31
0.0
  0
LINE
  5
15C
330
1F
100
AcDbEntity
  8
0
  6
Continuous
 62
     7
370
    15
100
AcDbLine
 10
84.2839962034
 20
168.0489581147
 30
0.0
 11
83.5197080292
 21
167.2846699404
 31
0.0
  0
LINE
  5
15D
330
1F
100
AcDbEntity
  8
0
  6
Continuous
 62
     7
370
    15
100
AcDbLine
 10
64.2839962034
 20
169.5203817662
 30
0.0
 11
63.5197080292
 21
170.2846699404
 31
0.0
  0
LINE
  5
15E
330
1F
100
AcDbEntity
  8
0
  6
Continuous
 62
     7
370
    15
100
AcDbLine
 10
64.2839962034
 20
169.5203817662
 30
0.0
 11
64.2839962034
 21
168.0489581147
 31
0.0
  0
LINE
  5
15F
330
1F
100
AcDbEntity
  8
0
  6
Continuous
 62
     7
370
    15
100
AcDbLine
 10
64.2839962034
 20
168.0489581147
 30
0.0
 11
63.5197080292
 21
167.2846699404
 31
0.0
  0
LINE
  5
160
330
1F
100
AcDbEntity
  8
0
  6
Continuous
 62
     7
370
    15
100
AcDbLine
 10
76.2839962034
 20
168.0489581147
 30
0.0
 11
75.5197080292
 21
167.2846699404
 31
0.0
  0
LINE
  5
161
330
1F
100
AcDbEntity
  8
0
  6
Continuous
 62
     7
370
    15
100
AcDbLine
 10
76.2839962034
 20
168.0489581147
 30
0.0
 11
77.755419855
 21
168.0489581147
 31
0.0
  0
LINE
  5
162
330
1F
100
AcDbEntity
  8
0
  6
Continuous
 62
     7
370
    15
100
AcDbLine
 10
77.755419855
 20
168.0489581147
 30
0.0
 11
78.5197080292
 21
167.2846699404
 31
0.0
  0
LINE
  5
163
330
1F
100
AcDbEntity
  8
0
  6
Continuous
 62
     7
370
    15
100
AcDbLine
 10
65.755419855
 20
168.0489581147
 30
0.0
 11
66.5197080292
 21
167.2846699404
 31
0.0
  0
LINE
  5
164
330
1F
100
AcDbEntity
  8
0
  6
Continuous
 62
     7
370
    15
100
AcDbLine
 10
65.755419855
 20
169.5203817662
 30
0.0
 11
65.755419855
 21
168.0489581147
 31
0.0
  0
LINE
  5
165
330
1F
100
AcDbEntity
  8
0
  6
Continuous
 62
     7
370
    15
100
AcDbLine
 10
65.755419855
 20
169.5203817662
 30
0.0
 11
66.5197080292
 21
170.2846699404
 31
0.0
  0
LINE
  5
166
330
1F
100
AcDbEntity
  8
0
  6
Continuous
 62
     7
370
    15
100
AcDbLine
 10
77.755419855
 20
169.5203817662
 30
0.0
 11
77.755419855
 21
168.0489581147
 31
0.0
  0
LINE
  5
167
330
1F
100
AcDbEntity
  8
0
  6
Continuous
 62
     7
370
    15
100
AcDbLine
 10
77.755419855
 20
169.5203817662
 30
0.0
 11
78.5197080292
 21
170.2846699404
 31
0.0
  0
LINE
  5
168
330
1F
100
AcDbEntity
  8
0
  6
Continuous
 62
     7
370
    15
100
AcDbLine
 10
84.2839962034
 20
168.0489581147
 30
0.0
 11
85.755419855
 21
168.0489581147
 31
0.0
  0
LINE
  5
169
330
1F
100
AcDbEntity
  8
0
  6
Continuous
 62
     7
370
    15
100
AcDbLine
 10
85.755419855
 20
168.0489581147
 30
0.0
 11
86.5197080292
 21
167.2846699404
 31
0.0
  0
LINE
  5
16A
330
1F
100
AcDbEntity
  8
0
  6
Continuous
 62
     7
370
    15
100
AcDbLine
 10
64.2839962034
 20
168.0489581147
 30
0.0
 11
65.755419855
 21
168.0489581147
 31
0.0
  0
LINE
  5
16B
330
1F
100
AcDbEntity
  8
0
  6
Continuous
 62
     7
370
    15
100
AcDbLine
 10
64.2839962034
 20
165.5203817662
 30
0.0
 11
65.755419855
 21
165.5203817662
 31
0.0
  0
LINE
  5
16C
330
1F
100
AcDbEntity
  8
0
  6
Continuous
 62
     7
370
    15
100
AcDbLine
 10
80.2839962034
 20
165.5203817662
 30
0.0
 11
81.755419855
 21
165.5203817662
 31
0.0
  0
LINE
  5
16D
330
1F
100
AcDbEntity
  8
0
  6
Continuous
 62
     7
370
    15
100
AcDbLine
 10
76.2839962034
 20
165.5203817662
 30
0.0
 11
77.755419855
 21
165.5203817662
 31
0.0
  0
LINE
  5
16E
330
1F
100
AcDbEntity
  8
0
  6
Continuous
 62
     7
370
    15
100
AcDbLine
 10
69.755419855
 20
168.0489581147
 30
0.0
 11
70.5197080292
 21
167.2846699404
 31
0.0
  0
LINE
  5
16F
330
1F
100
AcDbEntity
  8
0
  6
Continuous
 62
     7
370
    15
100
AcDbLine
 10
69.755419855
 20
169.5203817662
 30
0.0
 11
69.755419855
 21
168.0489581147
 31
0.0
  0
LINE
  5
170
330
1F
100
AcDbEntity
  8
0
  6
Continuous
 62
     7
370
    15
100
AcDbLine
 10
69.755419855
 20
169.5203817662
 30
0.0
 11
70.5197080292
 21
170.2846699404
 31
0.0
  0
LINE
  5
171
330
1F
100
AcDbEntity
  8
0
  6
Continuous
 62
     7
370
    15
100
AcDbLine
 10
81.755419855
 20
168.0489581147
 30
0.0
 11
82.5197080292
 21
167.2846699404
 31
0.0
  0
LINE
  5
172
330
1F
100
AcDbEntity
  8
0
  6
Continuous
 62
     7
370
    15
100
AcDbLine
 10
81.755419855
 20
169.5203817662
 30
0.0
 11
81.755419855
 21
168.0489581147
 31
0.0
  0
LINE
  5
173
330
1F
100
AcDbEntity
  8
0
  6
Continuous
 62
     7
370
    15
100
AcDbLine
 10
81.755419855
 20
169.5203817662
 30
0.0
 11
82.5197080292
 21
170.2846699404
 31
0.0
  0
LINE
  5
174
330
1F
100
AcDbEntity
  8
0
  6
Continuous
 62
     7
370
    15
100
AcDbLine
 10
80.2839962034
 20
168.0489581147
 30
0.0
 11
79.5197080292
 21
167.2846699404
 31
0.0
  0
LINE
  5
175
330
1F
100
AcDbEntity
  8
0
  6
Continuous
 62
     7
370
    15
100
AcDbLine
 10
80.2839962034
 20
168.0489581147
 30
0.0
 11
81.755419855
 21
168.0489581147
 31
0.0
  0
LINE
  5
176
330
1F
100
AcDbEntity
  8
0
  6
Continuous
 62
     7
370
    15
100
AcDbLine
 10
72.2839962034
 20
169.5203817662
 30
0.0
 11
71.5197080292
 21
170.2846699404
 31
0.0
  0
LINE
  5
177
330
1F
100
AcDbEntity
  8
0
  6
Continuous
 62
     7
370
    15
100
AcDbLine
 10
72.2839962034
 20
169.5203817662
 30
0.0
 11
72.2839962034
 21
168.0489581147
 31
0.0
  0
LINE
  5
178
330
1F
100
AcDbEntity
  8
0
  6
Continuous
 62
     7
370
    15
100
AcDbLine
 10
72.2839962034
 20
168.0489581147
 30
0.0
 11
71.5197080292
 21
167.2846699404
 31
0.0
  0
LINE
  5
179
330
1F
100
AcDbEntity
  8
0
  6
Continuous
 62
     7
370
    15
100
AcDbLine
 10
80.2839962034
 20
169.5203817662
 30
0.0
 11
79.5197080292
 21
170.2846699404
 31
0.0
  0
LINE
  5
17A
330
1F
100
AcDbEntity
  8
0
  6
Continuous
 62
     7
370
    15
100
AcDbLine
 10
80.2839962034
 20
169.5203817662
 30
0.0
 11
80.2839962034
 21
168.0489581147
 31
0.0
  0
LINE
  5
17B
330
1F
100
AcDbEntity
  8
0
  6
Continuous
 62
     7
370
    15
100
AcDbLine
 10
76.2839962034
 20
169.5203817662
 30
0.0
 11
75.5197080292
 21
170.2846699404
 31
0.0
  0
LINE
  5
17C
330
1F
100
AcDbEntity
  8
0
  6
Continuous
 62
     7
370
    15
100
AcDbLine
 10
76.2839962034
 20
169.5203817662
 30
0.0
 11
76.2839962034
 21
168.0489581147
 31
0.0
  0
LINE
  5
17D
330
1F
100
AcDbEntity
  8
0
  6
Continuous
 62
     7
370
    15
100
AcDbLine
 10
68.2839962034
 20
168.0489581147
 30
0.0
 11
67.5197080292
 21
167.2846699404
 31
0.0
  0
LINE
  5
17E
330
1F
100
AcDbEntity
  8
0
  6
Continuous
 62
     7
370
    15
100
AcDbLine
 10
68.2839962034
 20
168.0489581147
 30
0.0
 11
69.755419855
 21
168.0489581147
 31
0.0
  0
LINE
  5
17F
330
1F
100
AcDbEntity
  8
0
  6
Continuous
 62
     7
370
    15
100
AcDbLine
 10
85.755419855
 20
169.5203817662
 30
0.0
 11
85.755419855
 21
168.0489581147
 31
0.0
  0
LINE
  5
180
330
1F
100
AcDbEntity
  8
0
  6
Continuous
 62
     7
370
    15
100
AcDbLine
 10
85.755419855
 20
169.5203817662
 30
0.0
 11
86.5197080292
 21
170.2846699404
 31
0.0
  0
LINE
  5
181
330
1F
100
AcDbEntity
  8
0
  6
Continuous
 62
     7
370
    15
100
AcDbLine
 10
84.2839962034
 20
165.5203817662
 30
0.0
 11
85.755419855
 21
165.5203817662
 31
0.0
  0
LINE
  5
182
330
1F
100
AcDbEntity
  8
0
  6
Continuous
 62
     7
370
    15
100
AcDbLine
 10
68.2839962034
 20
169.5203817662
 30
0.0
 11
67.5197080292
 21
170.2846699404
 31
0.0
  0
LINE
  5
183
330
1F
100
AcDbEntity
  8
0
  6
Continuous
 62
     7
370
    15
100
AcDbLine
 10
68.2839962034
 20
169.5203817662
 30
0.0
 11
68.2839962034
 21
168.0489581147
 31
0.0
  0
LINE
  5
184
330
1F
100
AcDbEntity
  8
0
  6
Continuous
 62
     7
370
    15
100
AcDbLine
 10
73.755419855
 20
168.0489581147
 30
0.0
 11
74.5197080292
 21
167.2846699404
 31
0.0
  0
LINE
  5
185
330
1F
100
AcDbEntity
  8
0
  6
Continuous
 62
     7
370
    15
100
AcDbLine
 10
73.755419855
 20
169.5203817662
 30
0.0
 11
73.755419855
 21
168.0489581147
 31
0.0
  0
LINE
  5
186
330
1F
100
AcDbEntity
  8
0
  6
Continuous
 62
     7
370
    15
100
AcDbLine
 10
73.755419855
 20
169.5203817662
 30
0.0
 11
74.5197080292
 21
170.2846699404
 31
0.0
  0
LINE
  5
187
330
1F
100
AcDbEntity
  8
0
  6
Continuous
 62
     7
370
    15
100
AcDbLine
 10
72.2839962034
 20
168.0489581147
 30
0.0
 11
73.755419855
 21
168.0489581147
 31
0.0
  0
LINE
  5
188
330
1F
100
AcDbEntity
  8
0
  6
Continuous
 62
     7
370
    15
100
AcDbLine
 10
65.755419855
 20
172.0489581147
 30
0.0
 11
66.5197080292
 21
171.2846699404
 31
0.0
  0
LINE
  5
189
330
1F
100
AcDbEntity
  8
0
  6
Continuous
 62
     7
370
    15
100
AcDbLine
 10
65.755419855
 20
173.5203817662
 30
0.0
 11
65.755419855
 21
172.0489581147
 31
0.0
  0
LINE
  5
18A
330
1F
100
AcDbEntity
  8
0
  6
Continuous
 62
     7
370
    15
100
AcDbLine
 10
65.755419855
 20
173.5203817662
 30
0.0
 11
66.5197080292
 21
174.2846699404
 31
0.0
  0
LINE
  5
18B
330
1F
100
AcDbEntity
  8
0
  6
Continuous
 62
     7
370
    15
100
AcDbLine
 10
69.755419855
 20
172.0489581147
 30
0.0
 11
70.5197080292
 21
171.2846699404
 31
0.0
  0
LINE
  5
18C
330
1F
100
AcDbEntity
  8
0
  6
Continuous
 62
     7
370
    15
100
AcDbLine
 10
69.755419855
 20
173.5203817662
 30
0.0
 11
69.755419855
 21
172.0489581147
 31
0.0
  0
LINE
  5
18D
330
1F
100
AcDbEntity
  8
0
  6
Continuous
 62
     7
370
    15
100
AcDbLine
 10
69.755419855
 20
173.5203817662
 30
0.0
 11
70.5197080292
 21
174.2846699404
 31
0.0
  0
LINE
  5
18E
330
1F
100
AcDbEntity
  8
0
  6
Continuous
 62
     7
370
    15
100
AcDbLine
 10
64.2839962034
 20
173.5203817662
 30
0.0
 11
63.5197080292
 21
174.2846699404
 31
0.0
  0
LINE
  5
18F
330
1F
100
AcDbEntity
  8
0
  6
Continuous
 62
     7
370
    15
100
AcDbLine
 10
64.2839962034
 20
173.5203817662
 30
0.0
 11
64.2839962034
 21
172.0489581147
 31
0.0
  0
LINE
  5
190
330
1F
100
AcDbEntity
  8
0
  6
Continuous
 62
     7
370
    15
100
AcDbLine
 10
64.2839962034
 20
172.0489581147
 30
0.0
 11
63.5197080292
 21
171.2846699404
 31
0.0
  0
LINE
  5
191
330
1F
100
AcDbEntity
  8
0
  6
Continuous
 62
     7
370
    15
100
AcDbLine
 10
64.2839962034
 20
169.5203817662
 30
0.0
 11
65.755419855
 21
169.5203817662
 31
0.0
  0
LINE
  5
192
330
1F
100
AcDbEntity
  8
0
  6
Continuous
 62
     7
370
    15
100
AcDbLine
 10
80.2839962034
 20
169.5203817662
 30
0.0
 11
81.755419855
 21
169.5203817662
 31
0.0
  0
LINE
  5
193
330
1F
100
AcDbEntity
  8
0
  6
Continuous
 62
     7
370
    15
100
AcDbLine
 10
84.2839962034
 20
173.5203817662
 30
0.0
 11
83.5197080292
 21
174.2846699404
 31
0.0
  0
LINE
  5
194
330
1F
100
AcDbEntity
  8
0
  6
Continuous
 62
     7
370
    15
100
AcDbLine
 10
84.2839962034
 20
173.5203817662
 30
0.0
 11
84.2839962034
 21
172.0489581147
 31
0.0
  0
LINE
  5
195
330
1F
100
AcDbEntity
  8
0
  6
Continuous
 62
     7
370
    15
100
AcDbLine
 10
84.2839962034
 20
172.0489581147
 30
0.0
 11
83.5197080292
 21
171.2846699404
 31
0.0
  0
LINE
  5
196
330
1F
100
AcDbEntity
  8
0
  6
Continuous
 62
     7
370
    15
100
AcDbLine
 10
81.755419855
 20
172.0489581147
 30
0.0
 11
82.5197080292
 21
171.2846699404
 31
0.0
  0
LINE
  5
197
330
1F
100
AcDbEntity
  8
0
  6
Continuous
 62
     7
370
    15
100
AcDbLine
 10
81.755419855
 20
173.5203817662
 30
0.0
 11
81.755419855
 21
172.0489581147
 31
0.0
  0
LINE
  5
198
330
1F
100
AcDbEntity
  8
0
  6
Continuous
 62
     7
370
    15
100
AcDbLine
 10
81.755419855
 20
173.5203817662
 30
0.0
 11
82.5197080292
 21
174.2846699404
 31
0.0
  0
LINE
  5
199
330
1F
100
AcDbEntity
  8
0
  6
Continuous
 62
     7
370
    15
100
AcDbLine
 10
76.2839962034
 20
169.5203817662
 30
0.0
 11
77.755419855
 21
169.5203817662
 31
0.0
  0
LINE
  5
19A
330
1F
100
AcDbEntity
  8
0
  6
Continuous
 62
     7
370
    15
100
AcDbLine
 10
80.2839962034
 20
173.5203817662
 30
0.0
 11
79.5197080292
 21
174.2846699404
 31
0.0
  0
LINE
  5
19B
330
1F
100
AcDbEntity
  8
0
  6
Continuous
 62
     7
370
    15
100
AcDbLine
 10
80.2839962034
 20
173.5203817662
 30
0.0
 11
80.2839962034
 21
172.0489581147
 31
0.0
  0
LINE
  5
19C
330
1F
100
AcDbEntity
  8
0
  6
Continuous
 62
     7
370
    15
100
AcDbLine
 10
80.2839962034
 20
172.0489581147
 30
0.0
 11
79.5197080292
 21
171.2846699404
 31
0.0
  0
LINE
  5
19D
330
1F
100
AcDbEntity
  8
0
  6
Continuous
 62
     7
370
    15
100
AcDbLine
 10
64.2839962034
 20
172.0489581147
 30
0.0
 11
65.755419855
 21
172.0489581147
 31
0.0
  0
LINE
  5
19E
330
1F
100
AcDbEntity
  8
0
  6
Continuous
 62
     7
370
    15
100
AcDbLine
 10
84.2839962034
 20
169.5203817662
 30
0.0
 11
85.755419855
 21
169.5203817662
 31
0.0
  0
LINE
  5
19F
330
1F
100
AcDbEntity
  8
0
  6
Continuous
 62
     7
370
    15
100
AcDbLine
 10
76.2839962034
 20
173.5203817662
 30
0.0
 11
75.5197080292
 21
174.2846699404
 31
0.0
  0
LINE
  5
1A0
330
1F
100
AcDbEntity
  8
0
  6
Continuous
 62
     7
370
    15
100
AcDbLine
 10
76.2839962034
 20
173.5203817662
 30
0.0
 11
76.2839962034
 21
172.0489581147
 31
0.0
  0
LINE
  5
1A1
330
1F
100
AcDbEntity
  8
0
  6
Continuous
 62
     7
370
    15
100
AcDbLine
 10
76.2839962034
 20
172.0489581147
 30
0.0
 11
75.5197080292
 21
171.2846699404
 31
0.0
  0
LINE
  5
1A2
330
1F
100
AcDbEntity
  8
0
  6
Continuous
 62
     7
370
    15
100
AcDbLine
 10
68.2839962034
 20
169.5203817662
 30
0.0
 11
69.755419855
 21
169.5203817662
 31
0.0
  0
LINE
  5
1A3
330
1F
100
AcDbEntity
  8
0
  6
Continuous
 62
     7
370
    15
100
AcDbLine
 10
68.2839962034
 20
172.0489581147
 30
0.0
 11
67.5197080292
 21
171.2846699404
 31
0.0
  0
LINE
  5
1A4
330
1F
100
AcDbEntity
  8
0
  6
Continuous
 62
     7
370
    15
100
AcDbLine
 10
68.2839962034
 20
172.0489581147
 30
0.0
 11
69.755419855
 21
172.0489581147
 31
0.0
  0
LINE
  5
1A5
330
1F
100
AcDbEntity
  8
0
  6
Continuous
 62
     7
370
    15
100
AcDbLine
 10
85.755419855
 20
172.0489581147
 30
0.0
 11
86.5197080292
 21
171.2846699404
 31
0.0
  0
LINE
  5
1A6
330
1F
100
AcDbEntity
  8
0
  6
Continuous
 62
     7
370
    15
100
AcDbLine
 10
85.755419855
 20
173.5203817662
 30
0.0
 11
85.755419855
 21
172.0489581147
 31
0.0
  0
LINE
  5
1A7
330
1F
100
AcDbEntity
  8
0
  6
Continuous
 62
     7
370
    15
100
AcDbLine
 10
85.755419855
 20
173.5203817662
 30
0.0
 11
86.5197080292
 21
174.2846699404
 31
0.0
  0
LINE
  5
1A8
330
1F
100
AcDbEntity
  8
0
  6
Continuous
 62
     7
370
    15
100
AcDbLine
 10
72.2839962034
 20
173.5203817662
 30
0.0
 11
71.5197080292
 21
174.2846699404
 31
0.0
  0
LINE
  5
1A9
330
1F
100
AcDbEntity
  8
0
  6
Continuous
 62
     7
370
    15
100
AcDbLine
 10
72.2839962034
 20
173.5203817662
 30
0.0
 11
72.2839962034
 21
172.0489581147
 31
0.0
  0
LINE
  5
1AA
330
1F
100
AcDbEntity
  8
0
  6
Continuous
 62
     7
370
    15
100
AcDbLine
 10
72.2839962034
 20
172.0489581147
 30
0.0
 11
71.5197080292
 21
171.2846699404
 31
0.0
  0
LINE
  5
1AB
330
1F
100
AcDbEntity
  8
0
  6
Continuous
 62
     7
370
    15
100
AcDbLine
 10
77.755419855
 20
172.0489581147
 30
0.0
 11
78.5197080292
 21
171.2846699404
 31
0.0
  0
LINE
  5
1AC
330
1F
100
AcDbEntity
  8
0
  6
Continuous
 62
     7
370
    15
100
AcDbLine
 10
77.755419855
 20
173.5203817662
 30
0.0
 11
77.755419855
 21
172.0489581147
 31
0.0
  0
LINE
  5
1AD
330
1F
100
AcDbEntity
  8
0
  6
Continuous
 62
     7
370
    15
100
AcDbLine
 10
77.755419855
 20
173.5203817662
 30
0.0
 11
78.5197080292
 21
174.2846699404
 31
0.0
  0
LINE
  5
1AE
330
1F
100
AcDbEntity
  8
0
  6
Continuous
 62
     7
370
    15
100
AcDbLine
 10
72.2839962034
 20
169.5203817662
 30
0.0
 11
73.755419855
 21
169.5203817662
 31
0.0
  0
LINE
  5
1AF
330
1F
100
AcDbEntity
  8
0
  6
Continuous
 62
     7
370
    15
100
AcDbLine
 10
68.2839962034
 20
173.5203817662
 30
0.0
 11
67.5197080292
 21
174.2846699404
 31
0.0
  0
LINE
  5
1B0
330
1F
100
AcDbEntity
  8
0
  6
Continuous
 62
     7
370
    15
100
AcDbLine
 10
68.2839962034
 20
173.5203817662
 30
0.0
 11
68.2839962034
 21
172.0489581147
 31
0.0
  0
LINE
  5
1B1
330
1F
100
AcDbEntity
  8
0
  6
Continuous
 62
     7
370
    15
100
AcDbLine
 10
72.2839962034
 20
172.0489581147
 30
0.0
 11
73.755419855
 21
172.0489581147
 31
0.0
  0
LINE
  5
1B2
330
1F
100
AcDbEntity
  8
0
  6
Continuous
 62
     7
370
    15
100
AcDbLine
 10
73.755419855
 20
172.0489581147
 30
0.0
 11
74.5197080292
 21
171.2846699404
 31
0.0
  0
LINE
  5
1B3
330
1F
100
AcDbEntity
  8
0
  6
Continuous
 62
     7
370
    15
100
AcDbLine
 10
73.755419855
 20
173.5203817662
 30
0.0
 11
73.755419855
 21
172.0489581147
 31
0.0
  0
LINE
  5
1B4
330
1F
100
AcDbEntity
  8
0
  6
Continuous
 62
     7
370
    15
100
AcDbLine
 10
73.755419855
 20
173.5203817662
 30
0.0
 11
74.5197080292
 21
174.2846699404
 31
0.0
  0
LINE
  5
1B5
330
1F
100
AcDbEntity
  8
0
  6
Continuous
 62
     7
370
    15
100
AcDbLine
 10
80.2839962034
 20
172.0489581147
 30
0.0
 11
81.755419855
 21
172.0489581147
 31
0.0
  0
LINE
  5
1B6
330
1F
100
AcDbEntity
  8
0
  6
Continuous
 62
     7
370
    15
100
AcDbLine
 10
76.2839962034
 20
172.0489581147
 30
0.0
 11
77.755419855
 21
172.0489581147
 31
0.0
  0
LINE
  5
1B7
330
1F
100
AcDbEntity
  8
0
  6
Continuous
 62
     7
370
    15
100
AcDbLine
 10
84.2839962034
 20
172.0489581147
 30
0.0
 11
85.755419855
 21
172.0489581147
 31
0.0
  0
LINE
  5
1B8
330
1F
100
AcDbEntity
  8
0
  6
Continuous
 62
     7
370
    15
100
AcDbLine
 10
72.2839962034
 20
177.5203817662
 30
0.0
 11
71.5197080292
 21
178.2846699404
 31
0.0
  0
LINE
  5
1B9
330
1F
100
AcDbEntity
  8
0
  6
Continuous
 62
     7
370
    15
100
AcDbLine
 10
72.2839962034
 20
177.5203817662
 30
0.0
 11
72.2839962034
 21
176.0489581147
 31
0.0
  0
LINE
  5
1BA
330
1F
100
AcDbEntity
  8
0
  6
Continuous
 62
     7
370
    15
100
AcDbLine
 10
72.2839962034
 20
176.0489581147
 30
0.0
 11
71.5197080292
 21
175.2846699404
 31
0.0
  0
LINE
  5
1BB
330
1F
100
AcDbEntity
  8
0
  6
Continuous
 62
     7
370
    15
100
AcDbLine
 10
80.2839962034
 20
177.5203817662
 30
0.0
 11
79.5197080292
 21
178.2846699404
 31
0.0
  0
LINE
  5
1BC
330
1F
100
AcDbEntity
  8
0
  6
Continuous
 62
     7
370
    15
100
AcDbLine
 10
80.2839962034
 20
177.5203817662
 30
0.0
 11
80.2839962034
 21
176.0489581147
 31
0.0
  0
LINE
  5
1BD
330
1F
100
AcDbEntity
  8
0
  6
Continuous
 62
     7
370
    15
100
AcDbLine
 10
80.2839962034
 20
176.0489581147
 30
0.0
 11
79.5197080292
 21
175.2846699404
 31
0.0
  0
LINE
  5
1BE
330
1F
100
AcDbEntity
  8
0
  6
Continuous
 62
     7
370
    15
100
AcDbLine
 10
64.2839962034
 20
177.5203817662
 30
0.0
 11
63.5197080292
 21
178.2846699404
 31
0.0
  0
LINE
  5
1BF
330
1F
100
AcDbEntity
  8
0
  6
Continuous
 62
     7
370
    15
100
AcDbLine
 10
64.2839962034
 20
177.5203817662
 30
0.0
 11
64.2839962034
 21
176.0489581147
 31
0.0
  0
LINE
  5
1C0
330
1F
100
AcDbEntity
  8
0
  6
Continuous
 62
     7
370
    15
100
AcDbLine
 10
64.2839962034
 20
176.0489581147
 30
0.0
 11
63.5197080292
 21
175.2846699404
 31
0.0
  0
LINE
  5
1C1
330
1F
100
AcDbEntity
  8
0
  6
Continuous
 62
     7
370
    15
100
AcDbLine
 10
72.2839962034
 20
173.5203817662
 30
0.0
 11
73.755419855
 21
173.5203817662
 31
0.0
  0
LINE
  5
1C2
330
1F
100
AcDbEntity
  8
0
  6
Continuous
 62
     7
370
    15
100
AcDbLine
 10
84.2839962034
 20
177.5203817662
 30
0.0
 11
83.5197080292
 21
178.2846699404
 31
0.0
  0
LINE
  5
1C3
330
1F
100
AcDbEntity
  8
0
  6
Continuous
 62
     7
370
    15
100
AcDbLine
 10
84.2839962034
 20
177.5203817662
 30
0.0
 11
84.2839962034
 21
176.0489581147
 31
0.0
  0
LINE
  5
1C4
330
1F
100
AcDbEntity
  8
0
  6
Continuous
 62
     7
370
    15
100
AcDbLine
 10
84.2839962034
 20
176.0489581147
 30
0.0
 11
83.5197080292
 21
175.2846699404
 31
0.0
  0
LINE
  5
1C5
330
1F
100
AcDbEntity
  8
0
  6
Continuous
 62
     7
370
    15
100
AcDbLine
 10
64.2839962034
 20
173.5203817662
 30
0.0
 11
65.755419855
 21
173.5203817662
 31
0.0
  0
LINE
  5
1C6
330
1F
100
AcDbEntity
  8
0
  6
Continuous
 62
     7
370
    15
100
AcDbLine
 10
73.755419855
 20
176.0489581147
 30
0.0
 11
74.5197080292
 21
175.2846699404
 31
0.0
  0
LINE
  5
1C7
330
1F
100
AcDbEntity
  8
0
  6
Continuous
 62
     7
370
    15
100
AcDbLine
 10
73.755419855
 20
177.5203817662
 30
0.0
 11
73.755419855
 21
176.0489581147
 31
0.0
  0
LINE
  5
1C8
330
1F
100
AcDbEntity
  8
0
  6
Continuous
 62
     7
370
    15
100
AcDbLine
 10
73.755419855
 20
177.5203817662
 30
0.0
 11
74.5197080292
 21
178.2846699404
 31
0.0
  0
LINE
  5
1C9
330
1F
100
AcDbEntity
  8
0
  6
Continuous
 62
     7
370
    15
100
AcDbLine
 10
68.2839962034
 20
177.5203817662
 30
0.0
 11
67.5197080292
 21
178.2846699404
 31
0.0
  0
LINE
  5
1CA
330
1F
100
AcDbEntity
  8
0
  6
Continuous
 62
     7
370
    15
100
AcDbLine
 10
68.2839962034
 20
177.5203817662
 30
0.0
 11
68.2839962034
 21
176.0489581147
 31
0.0
  0
LINE
  5
1CB
330
1F
100
AcDbEntity
  8
0
  6
Continuous
 62
     7
370
    15
100
AcDbLine
 10
68.2839962034
 20
176.0489581147
 30
0.0
 11
67.5197080292
 21
175.2846699404
 31
0.0
  0
LINE
  5
1CC
330
1F
100
AcDbEntity
  8
0
  6
Continuous
 62
     7
370
    15
100
AcDbLine
 10
69.755419855
 20
176.0489581147
 30
0.0
 11
70.5197080292
 21
175.2846699404
 31
0.0
  0
LINE
  5
1CD
330
1F
100
AcDbEntity
  8
0
  6
Continuous
 62
     7
370
    15
100
AcDbLine
 10
69.755419855
 20
177.5203817662
 30
0.0
 11
69.755419855
 21
176.0489581147
 31
0.0
  0
LINE
  5
1CE
330
1F
100
AcDbEntity
  8
0
  6
Continuous
 62
     7
370
    15
100
AcDbLine
 10
69.755419855
 20
177.5203817662
 30
0.0
 11
70.5197080292
 21
178.2846699404
 31
0.0
  0
LINE
  5
1CF
330
1F
100
AcDbEntity
  8
0
  6
Continuous
 62
     7
370
    15
100
AcDbLine
 10
81.755419855
 20
176.0489581147
 30
0.0
 11
82.5197080292
 21
175.2846699404
 31
0.0
  0
LINE
  5
1D0
330
1F
100
AcDbEntity
  8
0
  6
Continuous
 62
     7
370
    15
100
AcDbLine
 10
81.755419855
 20
177.5203817662
 30
0.0
 11
81.755419855
 21
176.0489581147
 31
0.0
  0
LINE
  5
1D1
330
1F
100
AcDbEntity
  8
0
  6
Continuous
 62
     7
370
    15
100
AcDbLine
 10
81.755419855
 20
177.5203817662
 30
0.0
 11
82.5197080292
 21
178.2846699404
 31
0.0
  0
LINE
  5
1D2
330
1F
100
AcDbEntity
  8
0
  6
Continuous
 62
     7
370
    15
100
AcDbLine
 10
80.2839962034
 20
176.0489581147
 30
0.0
 11
81.755419855
 21
176.0489581147
 31
0.0
  0
LINE
  5
1D3
330
1F
100
AcDbEntity
  8
0
  6
Continuous
 62
     7
370
    15
100
AcDbLine
 10
80.2839962034
 20
173.5203817662
 30
0.0
 11
81.755419855
 21
173.5203817662
 31
0.0
  0
LINE
  5
1D4
330
1F
100
AcDbEntity
  8
0
  6
Continuous
 62
     7
370
    15
100
AcDbLine
 10
64.2839962034
 20
176.0489581147
 30
0.0
 11
65.755419855
 21
176.0489581147
 31
0.0
  0
LINE
  5
1D5
330
1F
100
AcDbEntity
  8
0
  6
Continuous
 62
     7
370
    15
100
AcDbLine
 10
65.755419855
 20
176.0489581147
 30
0.0
 11
66.5197080292
 21
175.2846699404
 31
0.0
  0
LINE
  5
1D6
330
1F
100
AcDbEntity
  8
0
  6
Continuous
 62
     7
370
    15
100
AcDbLine
 10
76.2839962034
 20
177.5203817662
 30
0.0
 11
75.5197080292
 21
178.2846699404
 31
0.0
  0
LINE
  5
1D7
330
1F
100
AcDbEntity
  8
0
  6
Continuous
 62
     7
370
    15
100
AcDbLine
 10
76.2839962034
 20
177.5203817662
 30
0.0
 11
76.2839962034
 21
176.0489581147
 31
0.0
  0
LINE
  5
1D8
330
1F
100
AcDbEntity
  8
0
  6
Continuous
 62
     7
370
    15
100
AcDbLine
 10
76.2839962034
 20
176.0489581147
 30
0.0
 11
75.5197080292
 21
175.2846699404
 31
0.0
  0
LINE
  5
1D9
330
1F
100
AcDbEntity
  8
0
  6
Continuous
 62
     7
370
    15
100
AcDbLine
 10
68.2839962034
 20
173.5203817662
 30
0.0
 11
69.755419855
 21
173.5203817662
 31
0.0
  0
LINE
  5
1DA
330
1F
100
AcDbEntity
  8
0
  6
Continuous
 62
     7
370
    15
100
AcDbLine
 10
76.2839962034
 20
173.5203817662
 30
0.0
 11
77.755419855
 21
173.5203817662
 31
0.0
  0
LINE
  5
1DB
330
1F
100
AcDbEntity
  8
0
  6
Continuous
 62
     7
370
    15
100
AcDbLine
 10
85.755419855
 20
176.0489581147
 30
0.0
 11
86.5197080292
 21
175.2846699404
 31
0.0
  0
LINE
  5
1DC
330
1F
100
AcDbEntity
  8
0
  6
Continuous
 62
     7
370
    15
100
AcDbLine
 10
85.755419855
 20
177.5203817662
 30
0.0
 11
85.755419855
 21
176.0489581147
 31
0.0
  0
LINE
  5
1DD
330
1F
100
AcDbEntity
  8
0
  6
Continuous
 62
     7
370
    15
100
AcDbLine
 10
85.755419855
 20
177.5203817662
 30
0.0
 11
86.5197080292
 21
178.2846699404
 31
0.0
  0
LINE
  5
1DE
330
1F
100
AcDbEntity
  8
0
  6
Continuous
 62
     7
370
    15
100
AcDbLine
 10
65.755419855
 20
177.5203817662
 30
0.0
 11
65.755419855
 21
176.0489581147
 31
0.0
  0
LINE
  5
1DF
330
1F
100
AcDbEntity
  8
0
  6
Continuous
 62
     7
370
    15
100
AcDbLine
 10
65.755419855
 20
177.5203817662
 30
0.0
 11
66.5197080292
 21
178.2846699404
 31
0.0
  0
LINE
  5
1E0
330
1F
100
AcDbEntity
  8
0
  6
Continuous
 62
     7
370
    15
100
AcDbLine
 10
77.755419855
 20
176.0489581147
 30
0.0
 11
78.5197080292
 21
175.2846699404
 31
0.0
  0
LINE
  5
1E1
330
1F
100
AcDbEntity
  8
0
  6
Continuous
 62
     7
370
    15
100
AcDbLine
 10
77.755419855
 20
177.5203817662
 30
0.0
 11
77.755419855
 21
176.0489581147
 31
0.0
  0
LINE
  5
1E2
330
1F
100
AcDbEntity
  8
0
  6
Continuous
 62
     7
370
    15
100
AcDbLine
 10
77.755419855
 20
177.5203817662
 30
0.0
 11
78.5197080292
 21
178.2846699404
 31
0.0
  0
LINE
  5
1E3
330
1F
100
AcDbEntity
  8
0
  6
Continuous
 62
     7
370
    15
100
AcDbLine
 10
76.2839962034
 20
176.0489581147
 30
0.0
 11
77.755419855
 21
176.0489581147
 31
0.0
  0
LINE
  5
1E4
330
1F
100
AcDbEntity
  8
0
  6
Continuous
 62
     7
370
    15
100
AcDbLine
 10
68.2839962034
 20
176.0489581147
 30
0.0
 11
69.755419855
 21
176.0489581147
 31
0.0
  0
LINE
  5
1E5
330
1F
100
AcDbEntity
  8
0
  6
Continuous
 62
     7
370
    15
100
AcDbLine
 10
72.2839962034
 20
176.0489581147
 30
0.0
 11
73.755419855
 21
176.0489581147
 31
0.0
  0
LINE
  5
1E6
330
1F
100
AcDbEntity
  8
0
  6
Continuous
 62
     7
370
    15
100
AcDbLine
 10
84.2839962034
 20
173.5203817662
 30
0.0
 11
85.755419855
 21
173.5203817662
 31
0.0
  0
LINE
  5
1E7
330
1F
100
AcDbEntity
  8
0
  6
Continuous
 62
     7
370
    15
100
AcDbLine
 10
84.2839962034
 20
176.0489581147
 30
0.0
 11
85.755419855
 21
176.0489581147
 31
0.0
  0
LINE
  5
1E8
330
1F
100
AcDbEntity
  8
0
  6
Continuous
 62
     7
370
    15
100
AcDbLine
 10
64.2839962034
 20
181.5203817662
 30
0.0
 11
63.5197080292
 21
182.2846699404
 31
0.0
  0
LINE
  5
1E9
330
1F
100
AcDbEntity
  8
0
  6
Continuous
 62
     7
370
    15
100
AcDbLine
 10
64.2839962034
 20
181.5203817662
 30
0.0
 11
64.2839962034
 21
180.0489581147
 31
0.0
  0
LINE
  5
1EA
330
1F
100
AcDbEntity
  8
0
  6
Continuous
 62
     7
370
    15
100
AcDbLine
 10
64.2839962034
 20
180.0489581147
 30
0.0
 11
63.5197080292
 21
179.2846699404
 31
0.0
  0
LINE
  5
1EB
330
1F
100
AcDbEntity
  8
0
  6
Continuous
 62
     7
370
    15
100
AcDbLine
 10
72.2839962034
 20
177.5203817662
 30
0.0
 11
73.755419855
 21
177.5203817662
 31
0.0
  0
LINE
  5
1EC
330
1F
100
AcDbEntity
  8
0
  6
Continuous
 62
     7
370
    15
100
AcDbLine
 10
76.2839962034
 20
180.0489581147
 30
0.0
 11
75.5197080292
 21
179.2846699404
 31
0.0
  0
LINE
  5
1ED
330
1F
100
AcDbEntity
  8
0
  6
Continuous
 62
     7
370
    15
100
AcDbLine
 10
76.2839962034
 20
180.0489581147
 30
0.0
 11
77.755419855
 21
180.0489581147
 31
0.0
  0
LINE
  5
1EE
330
1F
100
AcDbEntity
  8
0
  6
Continuous
 62
     7
370
    15
100
AcDbLine
 10
77.755419855
 20
180.0489581147
 30
0.0
 11
78.5197080292
 21
179.2846699404
 31
0.0
  0
LINE
  5
1EF
330
1F
100
AcDbEntity
  8
0
  6
Continuous
 62
     7
370
    15
100
AcDbLine
 10
80.2839962034
 20
177.5203817662
 30
0.0
 11
81.755419855
 21
177.5203817662
 31
0.0
  0
LINE
  5
1F0
330
1F
100
AcDbEntity
  8
0
  6
Continuous
 62
     7
370
    15
100
AcDbLine
 10
68.2839962034
 20
177.5203817662
 30
0.0
 11
69.755419855
 21
177.5203817662
 31
0.0
  0
LINE
  5
1F1
330
1F
100
AcDbEntity
  8
0
  6
Continuous
 62
     7
370
    15
100
AcDbLine
 10
68.2839962034
 20
180.0489581147
 30
0.0
 11
67.5197080292
 21
179.2846699404
 31
0.0
  0
LINE
  5
1F2
330
1F
100
AcDbEntity
  8
0
  6
Continuous
 62
     7
370
    15
100
AcDbLine
 10
68.2839962034
 20
180.0489581147
 30
0.0
 11
69.755419855
 21
180.0489581147
 31
0.0
  0
LINE
  5
1F3
330
1F
100
AcDbEntity
  8
0
  6
Continuous
 62
     7
370
    15
100
AcDbLine
 10
69.755419855
 20
180.0489581147
 30
0.0
 11
70.5197080292
 21
179.2846699404
 31
0.0
  0
LINE
  5
1F4
330
1F
100
AcDbEntity
  8
0
  6
Continuous
 62
     7
370
    15
100
AcDbLine
 10
72.2839962034
 20
181.5203817662
 30
0.0
 11
71.5197080292
 21
182.2846699404
 31
0.0
  0
LINE
  5
1F5
330
1F
100
AcDbEntity
  8
0
  6
Continuous
 62
     7
370
    15
100
AcDbLine
 10
72.2839962034
 20
181.5203817662
 30
0.0
 11
72.2839962034
 21
180.0489581147
 31
0.0
  0
LINE
  5
1F6
330
1F
100
AcDbEntity
  8
0
  6
Continuous
 62
     7
370
    15
100
AcDbLine
 10
72.2839962034
 20
180.0489581147
 30
0.0
 11
71.5197080292
 21
179.2846699404
 31
0.0
  0
LINE
  5
1F7
330
1F
100
AcDbEntity
  8
0
  6
Continuous
 62
     7
370
    15
100
AcDbLine
 10
64.2839962034
 20
177.5203817662
 30
0.0
 11
65.755419855
 21
177.5203817662
 31
0.0
  0
LINE
  5
1F8
330
1F
100
AcDbEntity
  8
0
  6
Continuous
 62
     7
370
    15
100
AcDbLine
 10
73.755419855
 20
180.0489581147
 30
0.0
 11
74.5197080292
 21
179.2846699404
 31
0.0
  0
LINE
  5
1F9
330
1F
100
AcDbEntity
  8
0
  6
Continuous
 62
     7
370
    15
100
AcDbLine
 10
73.755419855
 20
181.5203817662
 30
0.0
 11
73.755419855
 21
180.0489581147
 31
0.0
  0
LINE
  5
1FA
330
1F
100
AcDbEntity
  8
0
  6
Continuous
 62
     7
370
    15
100
AcDbLine
 10
73.755419855
 20
181.5203817662
 30
0.0
 11
74.5197080292
 21
182.2846699404
 31
0.0
  0
LINE
  5
1FB
330
1F
100
AcDbEntity
  8
0
  6
Continuous
 62
     7
370
    15
100
AcDbLine
 10
85.755419855
 20
180.0489581147
 30
0.0
 11
86.5197080292
 21
179.2846699404
 31
0.0
  0
LINE
  5
1FC
330
1F
100
AcDbEntity
  8
0
  6
Continuous
 62
     7
370
    15
100
AcDbLine
 10
85.755419855
 20
181.5203817662
 30
0.0
 11
85.755419855
 21
180.0489581147
 31
0.0
  0
LINE
  5
1FD
330
1F
100
AcDbEntity
  8
0
  6
Continuous
 62
     7
370
    15
100
AcDbLine
 10
85.755419855
 20
181.5203817662
 30
0.0
 11
86.5197080292
 21
182.2846699404
 31
0.0
  0
LINE
  5
1FE
330
1F
100
AcDbEntity
  8
0
  6
Continuous
 62
     7
370
    15
100
AcDbLine
 10
65.755419855
 20
180.0489581147
 30
0.0
 11
66.5197080292
 21
179.2846699404
 31
0.0
  0
LINE
  5
1FF
330
1F
100
AcDbEntity
  8
0
  6
Continuous
 62
     7
370
    15
100
AcDbLine
 10
65.755419855
 20
181.5203817662
 30
0.0
 11
65.755419855
 21
180.0489581147
 31
0.0
  0
LINE
  5
200
330
1F
100
AcDbEntity
  8
0
  6
Continuous
 62
     7
370
    15
100
AcDbLine
 10
65.755419855
 20
181.5203817662
 30
0.0
 11
66.5197080292
 21
182.2846699404
 31
0.0
  0
LINE
  5
201
330
1F
100
AcDbEntity
  8
0
  6
Continuous
 62
     7
370
    15
100
AcDbLine
 10
84.2839962034
 20
180.0489581147
 30
0.0
 11
83.5197080292
 21
179.2846699404
 31
0.0
  0
LINE
  5
202
330
1F
100
AcDbEntity
  8
0
  6
Continuous
 62
     7
370
    15
100
AcDbLine
 10
84.2839962034
 20
180.0489581147
 30
0.0
 11
85.755419855
 21
180.0489581147
 31
0.0
  0
LINE
  5
203
330
1F
100
AcDbEntity
  8
0
  6
Continuous
 62
     7
370
    15
100
AcDbLine
 10
64.2839962034
 20
180.0489581147
 30
0.0
 11
65.755419855
 21
180.0489581147
 31
0.0
  0
LINE
  5
204
330
1F
100
AcDbEntity
  8
0
  6
Continuous
 62
     7
370
    15
100
AcDbLine
 10
77.755419855
 20
181.5203817662
 30
0.0
 11
77.755419855
 21
180.0489581147
 31
0.0
  0
LINE
  5
205
330
1F
100
AcDbEntity
  8
0
  6
Continuous
 62
     7
370
    15
100
AcDbLine
 10
77.755419855
 20
181.5203817662
 30
0.0
 11
78.5197080292
 21
182.2846699404
 31
0.0
  0
LINE
  5
206
330
1F
100
AcDbEntity
  8
0
  6
Continuous
 62
     7
370
    15
100
AcDbLine
 10
84.2839962034
 20
177.5203817662
 30
0.0
 11
85.755419855
 21
177.5203817662
 31
0.0
  0
LINE
  5
207
330
1F
100
AcDbEntity
  8
0
  6
Continuous
 62
     7
370
    15
100
AcDbLine
 10
76.2839962034
 20
181.5203817662
 30
0.0
 11
75.5197080292
 21
182.2846699404
 31
0.0
  0
LINE
  5
208
330
1F
100
AcDbEntity
  8
0
  6
Continuous
 62
     7
370
    15
100
AcDbLine
 10
76.2839962034
 20
181.5203817662
 30
0.0
 11
76.2839962034
 21
180.0489581147
 31
0.0
  0
LINE
  5
209
330
1F
100
AcDbEntity
  8
0
  6
Continuous
 62
     7
370
    15
100
AcDbLine
 10
72.2839962034
 20
180.0489581147
 30
0.0
 11
73.755419855
 21
180.0489581147
 31
0.0
  0
LINE
  5
20A
330
1F
100
AcDbEntity
  8
0
  6
Continuous
 62
     7
370
    15
100
AcDbLine
 10
81.755419855
 20
180.0489581147
 30
0.0
 11
82.5197080292
 21
179.2846699404
 31
0.0
  0
LINE
  5
20B
330
1F
100
AcDbEntity
  8
0
  6
Continuous
 62
     7
370
    15
100
AcDbLine
 10
81.755419855
 20
181.5203817662
 30
0.0
 11
81.755419855
 21
180.0489581147
 31
0.0
  0
LINE
  5
20C
330
1F
100
AcDbEntity
  8
0
  6
Continuous
 62
     7
370
    15
100
AcDbLine
 10
81.755419855
 20
181.5203817662
 30
0.0
 11
82.5197080292
 21
182.2846699404
 31
0.0
  0
LINE
  5
20D
330
1F
100
AcDbEntity
  8
0
  6
Continuous
 62
     7
370
    15
100
AcDbLine
 10
69.755419855
 20
181.5203817662
 30
0.0
 11
69.755419855
 21
180.0489581147
 31
0.0
  0
LINE
  5
20E
330
1F
100
AcDbEntity
  8
0
  6
Continuous
 62
     7
370
    15
100
AcDbLine
 10
69.755419855
 20
181.5203817662
 30
0.0
 11
70.5197080292
 21
182.2846699404
 31
0.0
  0
LINE
  5
20F
330
1F
100
AcDbEntity
  8
0
  6
Continuous
 62
     7
370
    15
100
AcDbLine
 10
80.2839962034
 20
181.5203817662
 30
0.0
 11
79.5197080292
 21
182.2846699404
 31
0.0
  0
LINE
  5
210
330
1F
100
AcDbEntity
  8
0
  6
Continuous
 62
     7
370
    15
100
AcDbLine
 10
80.2839962034
 20
181.5203817662
 30
0.0
 11
80.2839962034
 21
180.0489581147
 31
0.0
  0
LINE
  5
211
330
1F
100
AcDbEntity
  8
0
  6
Continuous
 62
     7
370
    15
100
AcDbLine
 10
80.2839962034
 20
180.0489581147
 30
0.0
 11
79.5197080292
 21
179.2846699404
 31
0.0
  0
LINE
  5
212
330
1F
100
AcDbEntity
  8
0
  6
Continuous
 62
     7
370
    15
100
AcDbLine
 10
76.2839962034
 20
177.5203817662
 30
0.0
 11
77.755419855
 21
177.5203817662
 31
0.0
  0
LINE
  5
213
330
1F
100
AcDbEntity
  8
0
  6
Continuous
 62
     7
370
    15
100
AcDbLine
 10
84.2839962034
 20
181.5203817662
 30
0.0
 11
83.5197080292
 21
182.2846699404
 31
0.0
  0
LINE
  5
214
330
1F
100
AcDbEntity
  8
0
  6
Continuous
 62
     7
370
    15
100
AcDbLine
 10
84.2839962034
 20
181.5203817662
 30
0.0
 11
84.2839962034
 21
180.0489581147
 31
0.0
  0
LINE
  5
215
330
1F
100
AcDbEntity
  8
0
  6
Continuous
 62
     7
370
    15
100
AcDbLine
 10
80.2839962034
 20
180.0489581147
 30
0.0
 11
81.755419855
 21
180.0489581147
 31
0.0
  0
LINE
  5
216
330
1F
100
AcDbEntity
  8
0
  6
Continuous
 62
     7
370
    15
100
AcDbLine
 10
68.2839962034
 20
181.5203817662
 30
0.0
 11
67.5197080292
 21
182.2846699404
 31
0.0
  0
LINE
  5
217
330
1F
100
AcDbEntity
  8
0
  6
Continuous
 62
     7
370
    15
100
AcDbLine
 10
68.2839962034
 20
181.5203817662
 30
0.0
 11
68.2839962034
 21
180.0489581147
 31
0.0
  0
LINE
  5
218
330
1F
100
AcDbEntity
  8
0
  6
Continuous
 62
     7
370
    15
100
AcDbLine
 10
84.2839962034
 20
184.0489581147
 30
0.0
 11
83.5197080292
 21
183.2846699404
 31
0.0
  0
LINE
  5
219
330
1F
100
AcDbEntity
  8
0
  6
Continuous
 62
     7
370
    15
100
AcDbLine
 10
84.2839962034
 20
184.0489581147
 30
0.0
 11
85.755419855
 21
184.0489581147
 31
0.0
  0
LINE
  5
21A
330
1F
100
AcDbEntity
  8
0
  6
Continuous
 62
     7
370
    15
100
AcDbLine
 10
85.755419855
 20
184.0489581147
 30
0.0
 11
86.5197080292
 21
183.2846699404
 31
0.0
  0
LINE
  5
21B
330
1F
100
AcDbEntity
  8
0
  6
Continuous
 62
     7
370
    15
100
AcDbLine
 10
64.2839962034
 20
181.5203817662
 30
0.0
 11
65.755419855
 21
181.5203817662
 31
0.0
  0
LINE
  5
21C
330
1F
100
AcDbEntity
  8
0
  6
Continuous
 62
     7
370
    15
100
AcDbLine
 10
81.755419855
 20
184.0489581147
 30
0.0
 11
82.5197080292
 21
183.2846699404
 31
0.0
  0
LINE
  5
21D
330
1F
100
AcDbEntity
  8
0
  6
Continuous
 62
     7
370
    15
100
AcDbLine
 10
81.755419855
 20
185.5203817662
 30
0.0
 11
81.755419855
 21
184.0489581147
 31
0.0
  0
LINE
  5
21E
330
1F
100
AcDbEntity
  8
0
  6
Continuous
 62
     7
370
    15
100
AcDbLine
 10
81.755419855
 20
185.5203817662
 30
0.0
 11
82.5197080292
 21
186.2846699404
 31
0.0
  0
LINE
  5
21F
330
1F
100
AcDbEntity
  8
0
  6
Continuous
 62
     7
370
    15
100
AcDbLine
 10
85.755419855
 20
185.5203817662
 30
0.0
 11
85.755419855
 21
184.0489581147
 31
0.0
  0
LINE
  5
220
330
1F
100
AcDbEntity
  8
0
  6
Continuous
 62
     7
370
    15
100
AcDbLine
 10
85.755419855
 20
185.5203817662
 30
0.0
 11
86.5197080292
 21
186.2846699404
 31
0.0
  0
LINE
  5
221
330
1F
100
AcDbEntity
  8
0
  6
Continuous
 62
     7
370
    15
100
AcDbLine
 10
65.755419855
 20
184.0489581147
 30
0.0
 11
66.5197080292
 21
183.2846699404
 31
0.0
  0
LINE
  5
222
330
1F
100
AcDbEntity
  8
0
  6
Continuous
 62
     7
370
    15
100
AcDbLine
 10
65.755419855
 20
185.5203817662
 30
0.0
 11
65.755419855
 21
184.0489581147
 31
0.0
  0
LINE
  5
223
330
1F
100
AcDbEntity
  8
0
  6
Continuous
 62
     7
370
    15
100
AcDbLine
 10
65.755419855
 20
185.5203817662
 30
0.0
 11
66.5197080292
 21
186.2846699404
 31
0.0
  0
LINE
  5
224
330
1F
100
AcDbEntity
  8
0
  6
Continuous
 62
     7
370
    15
100
AcDbLine
 10
76.2839962034
 20
185.5203817662
 30
0.0
 11
75.5197080292
 21
186.2846699404
 31
0.0
  0
LINE
  5
225
330
1F
100
AcDbEntity
  8
0
  6
Continuous
 62
     7
370
    15
100
AcDbLine
 10
76.2839962034
 20
185.5203817662
 30
0.0
 11
76.2839962034
 21
184.0489581147
 31
0.0
  0
LINE
  5
226
330
1F
100
AcDbEntity
  8
0
  6
Continuous
 62
     7
370
    15
100
AcDbLine
 10
76.2839962034
 20
184.0489581147
 30
0.0
 11
75.5197080292
 21
183.2846699404
 31
0.0
  0
LINE
  5
227
330
1F
100
AcDbEntity
  8
0
  6
Continuous
 62
     7
370
    15
100
AcDbLine
 10
77.755419855
 20
184.0489581147
 30
0.0
 11
78.5197080292
 21
183.2846699404
 31
0.0
  0
LINE
  5
228
330
1F
100
AcDbEntity
  8
0
  6
Continuous
 62
     7
370
    15
100
AcDbLine
 10
77.755419855
 20
185.5203817662
 30
0.0
 11
77.755419855
 21
184.0489581147
 31
0.0
  0
LINE
  5
229
330
1F
100
AcDbEntity
  8
0
  6
Continuous
 62
     7
370
    15
100
AcDbLine
 10
77.755419855
 20
185.5203817662
 30
0.0
 11
78.5197080292
 21
186.2846699404
 31
0.0
  0
LINE
  5
22A
330
1F
100
AcDbEntity
  8
0
  6
Continuous
 62
     7
370
    15
100
AcDbLine
 10
72.2839962034
 20
181.5203817662
 30
0.0
 11
73.755419855
 21
181.5203817662
 31
0.0
  0
LINE
  5
22B
330
1F
100
AcDbEntity
  8
0
  6
Continuous
 62
     7
370
    15
100
AcDbLine
 10
68.2839962034
 20
185.5203817662
 30
0.0
 11
67.5197080292
 21
186.2846699404
 31
0.0
  0
LINE
  5
22C
330
1F
100
AcDbEntity
  8
0
  6
Continuous
 62
     7
370
    15
100
AcDbLine
 10
68.2839962034
 20
185.5203817662
 30
0.0
 11
68.2839962034
 21
184.0489581147
 31
0.0
  0
LINE
  5
22D
330
1F
100
AcDbEntity
  8
0
  6
Continuous
 62
     7
370
    15
100
AcDbLine
 10
68.2839962034
 20
184.0489581147
 30
0.0
 11
67.5197080292
 21
183.2846699404
 31
0.0
  0
LINE
  5
22E
330
1F
100
AcDbEntity
  8
0
  6
Continuous
 62
     7
370
    15
100
AcDbLine
 10
69.755419855
 20
184.0489581147
 30
0.0
 11
70.5197080292
 21
183.2846699404
 31
0.0
  0
LINE
  5
22F
330
1F
100
AcDbEntity
  8
0
  6
Continuous
 62
     7
370
    15
100
AcDbLine
 10
69.755419855
 20
185.5203817662
 30
0.0
 11
69.755419855
 21
184.0489581147
 31
0.0
  0
LINE
  5
230
330
1F
100
AcDbEntity
  8
0
  6
Continuous
 62
     7
370
    15
100
AcDbLine
 10
69.755419855
 20
185.5203817662
 30
0.0
 11
70.5197080292
 21
186.2846699404
 31
0.0
  0
LINE
  5
231
330
1F
100
AcDbEntity
  8
0
  6
Continuous
 62
     7
370
    15
100
AcDbLine
 10
68.2839962034
 20
184.0489581147
 30
0.0
 11
69.755419855
 21
184.0489581147
 31
0.0
  0
LINE
  5
232
330
1F
100
AcDbEntity
  8
0
  6
Continuous
 62
     7
370
    15
100
AcDbLine
 10
72.2839962034
 20
185.5203817662
 30
0.0
 11
71.5197080292
 21
186.2846699404
 31
0.0
  0
LINE
  5
233
330
1F
100
AcDbEntity
  8
0
  6
Continuous
 62
     7
370
    15
100
AcDbLine
 10
72.2839962034
 20
185.5203817662
 30
0.0
 11
72.2839962034
 21
184.0489581147
 31
0.0
  0
LINE
  5
234
330
1F
100
AcDbEntity
  8
0
  6
Continuous
 62
     7
370
    15
100
AcDbLine
 10
72.2839962034
 20
184.0489581147
 30
0.0
 11
71.5197080292
 21
183.2846699404
 31
0.0
  0
LINE
  5
235
330
1F
100
AcDbEntity
  8
0
  6
Continuous
 62
     7
370
    15
100
AcDbLine
 10
73.755419855
 20
184.0489581147
 30
0.0
 11
74.5197080292
 21
183.2846699404
 31
0.0
  0
LINE
  5
236
330
1F
100
AcDbEntity
  8
0
  6
Continuous
 62
     7
370
    15
100
AcDbLine
 10
73.755419855
 20
185.5203817662
 30
0.0
 11
73.755419855
 21
184.0489581147
 31
0.0
  0
LINE
  5
237
330
1F
100
AcDbEntity
  8
0
  6
Continuous
 62
     7
370
    15
100
AcDbLine
 10
73.755419855
 20
185.5203817662
 30
0.0
 11
74.5197080292
 21
186.2846699404
 31
0.0
  0
LINE
  5
238
330
1F
100
AcDbEntity
  8
0
  6
Continuous
 62
     7
370
    15
100
AcDbLine
 10
84.2839962034
 20
185.5203817662
 30
0.0
 11
83.5197080292
 21
186.2846699404
 31
0.0
  0
LINE
  5
239
330
1F
100
AcDbEntity
  8
0
  6
Continuous
 62
     7
370
    15
100
AcDbLine
 10
84.2839962034
 20
185.5203817662
 30
0.0
 11
84.2839962034
 21
184.0489581147
 31
0.0
  0
LINE
  5
23A
330
1F
100
AcDbEntity
  8
0
  6
Continuous
 62
     7
370
    15
100
AcDbLine
 10
64.2839962034
 20
184.0489581147
 30
0.0
 11
63.5197080292
 21
183.2846699404
 31
0.0
  0
LINE
  5
23B
330
1F
100
AcDbEntity
  8
0
  6
Continuous
 62
     7
370
    15
100
AcDbLine
 10
64.2839962034
 20
184.0489581147
 30
0.0
 11
65.755419855
 21
184.0489581147
 31
0.0
  0
LINE
  5
23C
330
1F
100
AcDbEntity
  8
0
  6
Continuous
 62
     7
370
    15
100
AcDbLine
 10
84.2839962034
 20
181.5203817662
 30
0.0
 11
85.755419855
 21
181.5203817662
 31
0.0
  0
LINE
  5
23D
330
1F
100
AcDbEntity
  8
0
  6
Continuous
 62
     7
370
    15
100
AcDbLine
 10
80.2839962034
 20
184.0489581147
 30
0.0
 11
79.5197080292
 21
183.2846699404
 31
0.0
  0
LINE
  5
23E
330
1F
100
AcDbEntity
  8
0
  6
Continuous
 62
     7
370
    15
100
AcDbLine
 10
80.2839962034
 20
184.0489581147
 30
0.0
 11
81.755419855
 21
184.0489581147
 31
0.0
  0
LINE
  5
23F
330
1F
100
AcDbEntity
  8
0
  6
Continuous
 62
     7
370
    15
100
AcDbLine
 10
68.2839962034
 20
181.5203817662
 30
0.0
 11
69.755419855
 21
181.5203817662
 31
0.0
  0
LINE
  5
240
330
1F
100
AcDbEntity
  8
0
  6
Continuous
 62
     7
370
    15
100
AcDbLine
 10
64.2839962034
 20
185.5203817662
 30
0.0
 11
63.5197080292
 21
186.2846699404
 31
0.0
  0
LINE
  5
241
330
1F
100
AcDbEntity
  8
0
  6
Continuous
 62
     7
370
    15
100
AcDbLine
 10
64.2839962034
 20
185.5203817662
 30
0.0
 11
64.2839962034
 21
184.0489581147
 31
0.0
  0
LINE
  5
242
330
1F
100
AcDbEntity
  8
0
  6
Continuous
 62
     7
370
    15
100
AcDbLine
 10
76.2839962034
 20
181.5203817662
 30
0.0
 11
77.755419855
 21
181.5203817662
 31
0.0
  0
LINE
  5
243
330
1F
100
AcDbEntity
  8
0
  6
Continuous
 62
     7
370
    15
100
AcDbLine
 10
80.2839962034
 20
185.5203817662
 30
0.0
 11
79.5197080292
 21
186.2846699404
 31
0.0
  0
LINE
  5
244
330
1F
100
AcDbEntity
  8
0
  6
Continuous
 62
     7
370
    15
100
AcDbLine
 10
80.2839962034
 20
185.5203817662
 30
0.0
 11
80.2839962034
 21
184.0489581147
 31
0.0
  0
LINE
  5
245
330
1F
100
AcDbEntity
  8
0
  6
Continuous
 62
     7
370
    15
100
AcDbLine
 10
72.2839962034
 20
184.0489581147
 30
0.0
 11
73.755419855
 21
184.0489581147
 31
0.0
  0
LINE
  5
246
330
1F
100
AcDbEntity
  8
0
  6
Continuous
 62
     7
370
    15
100
AcDbLine
 10
80.2839962034
 20
181.5203817662
 30
0.0
 11
81.755419855
 21
181.5203817662
 31
0.0
  0
LINE
  5
247
330
1F
100
AcDbEntity
  8
0
  6
Continuous
 62
     7
370
    15
100
AcDbLine
 10
76.2839962034
 20
184.0489581147
 30
0.0
 11
77.755419855
 21
184.0489581147
 31
0.0
  0
LINE
  5
248
330
1F
100
AcDbEntity
  8
0
  6
Continuous
 62
     7
370
    15
100
AcDbLine
 10
68.2839962034
 20
185.5203817662
 30
0.0
 11
69.755419855
 21
185.5203817662
 31
0.0
  0
LINE
  5
249
330
1F
100
AcDbEntity
  8
0
  6
Continuous
 62
     7
370
    15
100
AcDbLine
 10
76.2839962034
 20
185.5203817662
 30
0.0
 11
77.755419855
 21
185.5203817662
 31
0.0
  0
LINE
  5
24A
330
1F
100
AcDbEntity
  8
0
  6
Continuous
 62
     7
370
    15
100
AcDbLine
 10
84.2839962034
 20
185.5203817662
 30
0.0
 11
85.755419855
 21
185.5203817662
 31
0.0
  0
LINE
  5
24B
330
1F
100
AcDbEntity
  8
0
  6
Continuous
 62
     7
370
    15
100
AcDbLine
 10
64.2839962034
 20
185.5203817662
 30
0.0
 11
65.755419855
 21
185.5203817662
 31
0.0
  0
LINE
  5
24C
330
1F
100
AcDbEntity
  8
0
  6
Continuous
 62
     7
370
    15
100
AcDbLine
 10
72.2839962034
 20
185.5203817662
 30
0.0
 11
73.755419855
 21
185.5203817662
 31
0.0
  0
LINE
  5
24D
330
1F
100
AcDbEntity
  8
0
  6
Continuous
 62
     7
370
    15
100
AcDbLine
 10
80.2839962034
 20
185.5203817662
 30
0.0
 11
81.755419855
 21
185.5203817662
 31
0.0
  0
LINE
  5
24E
330
1F
100
AcDbEntity
  8
0
  6
Continuous
 62
     7
370
    15
100
AcDbLine
 10
110.0197080292
 20
187.7846699404
 30
0.0
 11
88.0197080292
 21
187.7846699404
 31
0.0
  0
ARC
  5
24F
330
1F
100
AcDbEntity
  8
0
  6
Continuous
 62
     7
370
    15
100
AcDbCircle
 10
110.0197080292
 20
185.7846699404
 30
0.0
 40
2.0
100
AcDbArc
 50
0.0
 51
90.0
  0
LINE
  5
250
330
1F
100
AcDbEntity
  8
0
  6
Continuous
 62
     7
370
    15
100
AcDbLine
 10
112.0197080292
 20
185.7846699404
 30
0.0
 11
112.0197080292
 21
159.7846699404
 31
0.0
  0
ARC
  5
251
330
1F
100
AcDbEntity
  8
0
  6
Continuous
 62
     7
370
    15
100
AcDbCircle
 10
110.0197080292
 20
159.7846699404
 30
0.0
 40
2.000000000000028
100
AcDbArc
 50
270.0
 51
0.0
  0
LINE
  5
252
330
1F
100
AcDbEntity
  8
0
  6
Continuous
 62
     7
370
    15
100
AcDbLine
 10
88.0197080292
 20
157.7846699404
 30
0.0
 11
110.0197080292
 21
157.7846699404
 31
0.0
  0
ARC
  5
253
330
1F
100
AcDbEntity
  8
0
  6
Continuous
 62
     7
370
    15
100
AcDbCircle
 10
102.0197080292
 20
169.7846699404
 30
0.0
 40
3.0
100
AcDbArc
 50
180.0
 51
0.0
  0
LINE
  5
254
330
1F
100
AcDbEntity
  8
0
  6
Continuous
 62
     7
370
    15
100
AcDbLine
 10
105.0197080292
 20
169.7846699404
 30
0.0
 11
105.0197080292
 21
175.7846699404
 31
0.0
  0
ARC
  5
255
330
1F
100
AcDbEntity
  8
0
  6
Continuous
 62
     7
370
    15
100
AcDbCircle
 10
102.0197080292
 20
175.7846699404
 30
0.0
 40
3.0
100
AcDbArc
 50
0.0
 51
180.0
  0
LINE
  5
256
330
1F
100
AcDbEntity
  8
0
  6
Continuous
 62
     7
370
    15
100
AcDbLine
 10
99.0197080292
 20
175.7846699404
 30
0.0
 11
99.0197080292
 21
169.7846699404
 31
0.0
  0
CIRCLE
  5
257
330
1F
100
AcDbEntity
  8
0
  6
Continuous
 62
     7
370
    15
100
AcDbCircle
 10
102.0197080292
 20
172.7846699404
 30
0.0
 40
2.100000000000009
  0
DIMENSION
  5
258
330
1F
100
AcDbEntity
  8
0
  6
Continuous
 62
     7
370
     0
100
AcDbDimension
  2
_D
 10
132.5625881317
 20
157.7846699404
 30
0.0
 11
132.5625881317
 21
172.7846699404
 31
0.0
 70
   160
  1
<>
 71
     2
 42
-1.0
  3
SLDDIMSTYLE0
100
AcDbAlignedDimension
 13
110.0197080292
 23
187.7846699404
 33
0.0
 14
110.0197080292
 24
157.7846699404
 34
0.0
 50
90.0
100
AcDbRotatedDimension
  0
DIMENSION
  5
264
330
1F
100
AcDbEntity
  8
0
  6
Continuous
 62
     7
370
     0
100
AcDbDimension
  2
_D_1
 10
122.0197080292
 20
166.7846699404
 30
0.0
 11
122.0197080292
 21
172.7846699404
 31
0.0
 70
   160
  1
<>
 71
     2
 42
-1.0
  3
SLDDIMSTYLE0
100
AcDbAlignedDimension
 13
102.0197080292
 23
178.7846699404
 33
0.0
 14
102.0197080292
 24
166.7846699404
 34
0.0
 50
90.0
100
AcDbRotatedDimension
  0
DIMENSION
  5
26E
330
1F
100
AcDbEntity
  8
0
  6
Continuous
 62
     7
370
     0
100
AcDbDimension
  2
_D_2
 10
105.0197080292
 20
195.8256996105
 30
0.0
 11
110.6166991463
 21
195.8256996105
 31
0.0
 70
   160
  1
<>
 71
     2
 42
-1.0
  3
SLDDIMSTYLE1
100
AcDbAlignedDimension
 13
99.0197080292
 23
175.7846699404
 33
0.0
 14
105.0197080292
 24
175.7846699404
 34
0.0
 50
0.0
100
AcDbRotatedDimension
  0
DIMENSION
  5
27B
330
1F
100
AcDbEntity
  8
0
  6
Continuous
 62
     7
370
     0
100
AcDbDimension
  2
_D_3
 10
112.0197080292
 20
147.7846699404
 30
0.0
 11
106.9776346315
 21
147.7846699404
 31
0.0
 70
   160
  1
<>
 71
     2
 42
-1.0
  3
SLDDIMSTYLE1
100
AcDbAlignedDimension
 13
102.0197080292
 23
168.1846699404
 33
0.0
 14
112.0197080292
 24
159.7846699404
 34
0.0
 50
0.0
100
AcDbRotatedDimension
  0
DIMENSION
  5
287
330
1F
100
AcDbEntity
  8
0
  6
Continuous
 62
     7
370
     0
100
AcDbDimension
  2
_D_4
 10
112.0197080292
 20
137.8747494044
 30
0.0
 11
100.0197080292
 21
137.8747494044
 31
0.0
 70
   160
  1
<>
 71
     2
 42
-1.0
  3
SLDDIMSTYLE0
100
AcDbAlignedDimension
 13
88.0197080292
 23
157.7846699404
 33
0.0
 14
112.0197080292
 24
159.7846699404
 34
0.0
 50
0.0
100
AcDbRotatedDimension
  0
DIMENSION
  5
291
330
1F
100
AcDbEntity
  8
0
  6
Continuous
 62
     7
370
     0
100
AcDbDimension
  2
_D_5
 10
112.0197080292
 20
126.1270267126
 30
0.0
 11
88.606396692
 21
126.1270267126
 31
0.0
 70
   160
  1
<>
 71
     2
 42
-1.0
  3
SLDDIMSTYLE0
100
AcDbAlignedDimension
 13
62.0197080292
 23
159.7846699404
 33
0.0
 14
112.0197080292
 24
159.7846699404
 34
0.0
 50
0.0
100
AcDbRotatedDimension
  0
DIMENSION
  5
29B
330
1F
100
AcDbEntity
  8
0
  6
Continuous
 62
     7
370
     0
100
AcDbDimension
  2
_D_6
 10
100.5347837887
 20
171.2997456999
 30
0.0
 11
125.5295186989
 21
196.2944806101
 31
0.0
 70
   163
  1
<>
 71
     1
 42
-1.0
  3
SLDDIMSTYLE2
100
AcDbDiametricDimension
 15
103.5046322697
 25
174.2695941809
 35
0.0
 40
0.0
  0
INSERT
  5
2AF
330
1F
100
AcDbEntity
  8
0
  6
Continuous
 62
     7
370
     0
100
AcDbBlockReference
  2
SW_CENTERMARKSYMBOL_0
 10
102.0197080292
 20
172.7846699404
 30
0.0
  0
LINE
  5
2B0
330
1F
100
AcDbEntity
  8
0
  6
Continuous
 62
     7
370
    15
100
AcDbLine
 10
64.0197083272
 20
88.5781486275
 30
0.0
 11
64.0197083272
 21
80.5781484804
 31
0.0
  0
LINE
  5
2B1
330
1F
100
AcDbEntity
  8
0
  6
Continuous
 62
     7
370
    15
100
AcDbLine
 10
62.0197079994
 20
80.5781484804
 30
0.0
 11
62.0197079994
 21
88.5781486275
 31
0.0
  0
LINE
  5
2B2
330
1F
100
AcDbEntity
  8
0
  6
Continuous
 62
     7
370
    15
100
AcDbLine
 10
62.0197079994
 20
88.5781486275
 30
0.0
 11
64.0197083272
 21
88.5781486275
 31
0.0
  0
LINE
  5
2B3
330
1F
100
AcDbEntity
  8
0
  6
Continuous
 62
     7
370
    15
100
AcDbLine
 10
64.0197083272
 20
80.5781484804
 30
0.0
 11
62.0197079994
 21
80.5781484804
 31
0.0
  0
LINE
  5
2B4
330
1F
100
AcDbEntity
  8
0
  6
Continuous
 62
     7
370
    15
100
AcDbLine
 10
88.0197080411
 20
88.5781486275
 30
0.0
 11
88.0197080411
 21
80.5781484804
 31
0.0
  0
LINE
  5
2B5
330
1F
100
AcDbEntity
  8
0
  6
Continuous
 62
     7
370
    15
100
AcDbLine
 10
64.0197083272
 20
88.5781486275
 30
0.0
 11
88.0197080411
 21
88.5781486275
 31
0.0
  0
LINE
  5
2B6
330
1F
100
AcDbEntity
  8
0
  6
Continuous
 62
     7
370
    15
100
AcDbLine
 10
64.0197083272
 20
80.5781484804
 30
0.0
 11
88.0197080411
 21
80.5781484804
 31
0.0
  0
LINE
  5
2B7
330
1F
100
AcDbEntity
  8
0
  6
Continuous
 62
     7
370
    15
100
AcDbLine
 10
110.0197084166
 20
80.5781484804
 30
0.0
 11
110.0197084166
 21
83.7781483995
 31
0.0
  0
LINE
  5
2B8
330
1F
100
AcDbEntity
  8
0
  6
Continuous
 62
     7
370
    15
100
AcDbLine
 10
88.0197080411
 20
80.5781484804
 30
0.0
 11
88.0197080411
 21
83.7781483995
 31
0.0
  0
LINE
  5
2B9
330
1F
100
AcDbEntity
  8
0
  6
Continuous
 62
     7
370
    15
100
AcDbLine
 10
88.0197080411
 20
83.7781483995
 30
0.0
 11
110.0197084166
 21
83.7781483995
 31
0.0
  0
LINE
  5
2BA
330
1F
100
AcDbEntity
  8
0
  6
Continuous
 62
     7
370
    15
100
AcDbLine
 10
88.0197080411
 20
80.5781484804
 30
0.0
 11
110.0197084166
 21
80.5781484804
 31
0.0
  0
LINE
  5
2BB
330
1F
100
AcDbEntity
  8
0
  6
Continuous
 62
     7
370
    15
100
AcDbLine
 10
112.0197087445
 20
83.7781483995
 30
0.0
 11
112.0197087445
 21
80.5781484804
 31
0.0
  0
LINE
  5
2BC
330
1F
100
AcDbEntity
  8
0
  6
Continuous
 62
     7
370
    15
100
AcDbLine
 10
110.0197084166
 20
83.7781483995
 30
0.0
 11
112.0197087445
 21
83.7781483995
 31
0.0
  0
LINE
  5
2BD
330
1F
100
AcDbEntity
  8
0
  6
Continuous
 62
     7
370
    15
100
AcDbLine
 10
112.0197087445
 20
80.5781484804
 30
0.0
 11
110.0197084166
 21
80.5781484804
 31
0.0
  0
LINE
  5
2BE
330
1F
100
AcDbEntity
  8
0
  6
HIDDEN
 62
     7
370
     0
100
AcDbLine
 10
64.0197083272
 20
83.7781483995
 30
0.0
 11
63.5197073139
 21
83.7781483995
 31
0.0
  0
LINE
  5
2BF
330
1F
100
AcDbEntity
  8
0
  6
HIDDEN
 62
     7
370
     0
100
AcDbLine
 10
63.5197073139
 20
83.7781483995
 30
0.0
 11
63.5197073139
 21
80.5781484804
 31
0.0
  0
LINE
  5
2C0
330
1F
100
AcDbEntity
  8
0
  6
HIDDEN
 62
     7
370
     0
100
AcDbLine
 10
64.0197083272
 20
83.7781483995
 30
0.0
 11
64.0197083272
 21
80.5781484804
 31
0.0
  0
LINE
  5
2C1
330
1F
100
AcDbEntity
  8
0
  6
HIDDEN
 62
     7
370
     0
100
AcDbLine
 10
88.0197080411
 20
83.7781483995
 30
0.0
 11
64.0197083272
 21
83.7781483995
 31
0.0
  0
LINE
  5
2C2
330
1F
100
AcDbEntity
  8
0
  6
HIDDEN
 62
     7
370
     0
100
AcDbLine
 10
64.2839953222
 20
87.0781483816
 30
0.0
 11
63.5197073139
 21
88.5781486275
 31
0.0
  0
LINE
  5
2C3
330
1F
100
AcDbEntity
  8
0
  6
HIDDEN
 62
     7
370
     0
100
AcDbLine
 10
65.7554197975
 20
87.0781483816
 30
0.0
 11
66.5197078057
 21
88.5781486275
 31
0.0
  0
LINE
  5
2C4
330
1F
100
AcDbEntity
  8
0
  6
HIDDEN
 62
     7
370
     0
100
AcDbLine
 10
68.2839959778
 20
87.0781483816
 30
0.0
 11
67.5197079696
 21
88.5781486275
 31
0.0
  0
LINE
  5
2C5
330
1F
100
AcDbEntity
  8
0
  6
HIDDEN
 62
     7
370
     0
100
AcDbLine
 10
69.7554204531
 20
87.0781483816
 30
0.0
 11
70.5197084613
 21
88.5781486275
 31
0.0
  0
LINE
  5
2C6
330
1F
100
AcDbEntity
  8
0
  6
HIDDEN
 62
     7
370
     0
100
AcDbLine
 10
72.2839966335
 20
87.0781483816
 30
0.0
 11
71.5197086252
 21
88.5781486275
 31
0.0
  0
LINE
  5
2C7
330
1F
100
AcDbEntity
  8
0
  6
HIDDEN
 62
     7
370
     0
100
AcDbLine
 10
73.7554201774
 20
87.0781483816
 30
0.0
 11
74.5197081857
 21
88.5781486275
 31
0.0
  0
LINE
  5
2C8
330
1F
100
AcDbEntity
  8
0
  6
HIDDEN
 62
     7
370
     0
100
AcDbLine
 10
76.2839963578
 20
87.0781483816
 30
0.0
 11
75.5197083496
 21
88.5781486275
 31
0.0
  0
LINE
  5
2C9
330
1F
100
AcDbEntity
  8
0
  6
HIDDEN
 62
     7
370
     0
100
AcDbLine
 10
77.7554199018
 20
87.0781483816
 30
0.0
 11
78.51970791
 21
88.5781486275
 31
0.0
  0
LINE
  5
2CA
330
1F
100
AcDbEntity
  8
0
  6
HIDDEN
 62
     7
370
     0
100
AcDbLine
 10
80.2839960821
 20
87.0781483816
 30
0.0
 11
79.5197080739
 21
88.5781486275
 31
0.0
  0
LINE
  5
2CB
330
1F
100
AcDbEntity
  8
0
  6
HIDDEN
 62
     7
370
     0
100
AcDbLine
 10
81.7554196261
 20
87.0781483816
 30
0.0
 11
82.5197081
 21
88.5781486275
 31
0.0
  0
LINE
  5
2CC
330
1F
100
AcDbEntity
  8
0
  6
HIDDEN
 62
     7
370
     0
100
AcDbLine
 10
84.2839962721
 20
87.0781483816
 30
0.0
 11
83.5197077982
 21
88.5781486275
 31
0.0
  0
LINE
  5
2CD
330
1F
100
AcDbEntity
  8
0
  6
HIDDEN
 62
     7
370
     0
100
AcDbLine
 10
85.7554198161
 20
87.0781483816
 30
0.0
 11
86.5197080571
 21
88.5781486275
 31
0.0
  0
LINE
  5
2CE
330
1F
100
AcDbEntity
  8
0
  6
HIDDEN
 62
     7
370
     0
100
AcDbLine
 10
64.2839953222
 20
87.0781483816
 30
0.0
 11
65.7554197975
 21
87.0781483816
 31
0.0
  0
LINE
  5
2CF
330
1F
100
AcDbEntity
  8
0
  6
HIDDEN
 62
     7
370
     0
100
AcDbLine
 10
68.2839959778
 20
87.0781483816
 30
0.0
 11
69.7554204531
 21
87.0781483816
 31
0.0
  0
LINE
  5
2D0
330
1F
100
AcDbEntity
  8
0
  6
HIDDEN
 62
     7
370
     0
100
AcDbLine
 10
72.2839966335
 20
87.0781483816
 30
0.0
 11
73.7554201774
 21
87.0781483816
 31
0.0
  0
LINE
  5
2D1
330
1F
100
AcDbEntity
  8
0
  6
HIDDEN
 62
     7
370
     0
100
AcDbLine
 10
76.2839963578
 20
87.0781483816
 30
0.0
 11
77.7554199018
 21
87.0781483816
 31
0.0
  0
LINE
  5
2D2
330
1F
100
AcDbEntity
  8
0
  6
HIDDEN
 62
     7
370
     0
100
AcDbLine
 10
80.2839960821
 20
87.0781483816
 30
0.0
 11
81.7554196261
 21
87.0781483816
 31
0.0
  0
LINE
  5
2D3
330
1F
100
AcDbEntity
  8
0
  6
HIDDEN
 62
     7
370
     0
100
AcDbLine
 10
84.2839962721
 20
87.0781483816
 30
0.0
 11
85.7554198161
 21
87.0781483816
 31
0.0
  0
LINE
  5
2D4
330
1F
100
AcDbEntity
  8
0
  6
HIDDEN
 62
     7
370
     0
100
AcDbLine
 10
64.0197083272
 20
80.5781484804
 30
0.0
 11
64.0197083272
 21
88.5781486275
 31
0.0
  0
LINE
  5
2D5
330
1F
100
AcDbEntity
  8
0
  6
HIDDEN
 62
     7
370
     0
100
AcDbLine
 10
64.5197074779
 20
83.7781483995
 30
0.0
 11
64.5197074779
 21
80.5781484804
 31
0.0
  0
LINE
  5
2D6
330
1F
100
AcDbEntity
  8
0
  6
HIDDEN
 62
     7
370
     0
100
AcDbLine
 10
88.0197080411
 20
83.7781483995
 30
0.0
 11
64.5197074779
 21
83.7781483995
 31
0.0
  0
LINE
  5
2D7
330
1F
100
AcDbEntity
  8
0
  6
HIDDEN
 62
     7
370
     0
100
AcDbLine
 10
99.0197084762
 20
82.9781484197
 30
0.0
 11
99.0197084762
 21
83.7781483995
 31
0.0
  0
LINE
  5
2D8
330
1F
100
AcDbEntity
  8
0
  6
HIDDEN
 62
     7
370
     0
100
AcDbLine
 10
99.0197084762
 20
82.9781484197
 30
0.0
 11
105.0197075971
 21
82.9781484197
 31
0.0
  0
LINE
  5
2D9
330
1F
100
AcDbEntity
  8
0
  6
HIDDEN
 62
     7
370
     0
100
AcDbLine
 10
105.0197075971
 20
82.9781484197
 30
0.0
 11
105.0197075971
 21
83.7781483995
 31
0.0
  0
LINE
  5
2DA
330
1F
100
AcDbEntity
  8
0
  6
HIDDEN
 62
     7
370
     0
100
AcDbLine
 10
110.0197084166
 20
83.7781483995
 30
0.0
 11
110.0197084166
 21
80.5781484804
 31
0.0
  0
LINE
  5
2DB
330
1F
100
AcDbEntity
  8
0
  6
HIDDEN
 62
     7
370
     0
100
AcDbLine
 10
99.9197078787
 20
82.9781484197
 30
0.0
 11
99.9197078787
 21
80.5781484804
 31
0.0
  0
LINE
  5
2DC
330
1F
100
AcDbEntity
  8
0
  6
HIDDEN
 62
     7
370
     0
100
AcDbLine
 10
104.1197072633
 20
80.5781484804
 30
0.0
 11
104.1197072633
 21
82.9781484197
 31
0.0
  0
HATCH
  5
2DD
330
1F
100
AcDbEntity
  8
0
  6
Continuous
 62
     7
100
AcDbHatch
 10
0.0
 20
0.0
 30
0.0
210
0.0
220
0.0
230
1.0
  2
ANSI31
 70
     0
 71
     0
 91
        1
 92
        0
 93
        4
 72
     1
 10
64.01970802919715
 20
80.57814839952368
 11
88.01970802919715
 21
80.57814839952368
 72
     1
 10
88.01970802919715
 20
80.57814839952368
 11
88.01970802919715
 21
88.57814839952368
 72
     1
 10
88.01970802919715
 20
88.57814839952368
 11
64.01970802919715
 21
88.57814839952368
 72
     1
 10
64.01970802919715
 20
88.57814839952368
 11
64.01970802919715
 21
80.57814839952368
 97
        0
 75
     0
 76
     1
 52
0.0
 41
1.0
 77
     0
 78
     1
 53
45.0
 43
0.0
 44
0.0
 45
-2.245064030267288
 46
2.245064030267288
 79
     0
 98
        1
 10
0.0
 20
0.0
  0
HATCH
  5
2DE
330
1F
100
AcDbEntity
  8
0
  6
Continuous
 62
     7
100
AcDbHatch
 10
0.0
 20
0.0
 30
0.0
210
0.0
220
0.0
230
1.0
  2
ANSI31
 70
     0
 71
     0
 91
        1
 92
        0
 93
        4
 72
     1
 10
64.01970802919713
 20
88.57814839952368
 11
62.01970802919713
 21
88.57814839952367
 72
     1
 10
62.01970802919713
 20
88.57814839952367
 11
62.01970802919713
 21
80.57814839952368
 72
     1
 10
62.01970802919713
 20
80.57814839952368
 11
64.01970802919715
 21
80.57814839952368
 72
     1
 10
64.01970802919715
 20
80.57814839952368
 11
64.01970802919713
 21
88.57814839952368
 97
        0
 75
     0
 76
     1
 52
0.0
 41
1.0
 77
     0
 78
     1
 53
45.0
 43
0.0
 44
0.0
 45
-2.245064030267288
 46
2.245064030267288
 79
     0
 98
        1
 10
0.0
 20
0.0
  0
HATCH
  5
2DF
330
1F
100
AcDbEntity
  8
0
  6
Continuous
 62
     7
100
AcDbHatch
 10
0.0
 20
0.0
 30
0.0
210
0.0
220
0.0
230
1.0
  2
ANSI31
 70
     0
 71
     0
 91
        1
 92
        0
 93
        4
 72
     1
 10
88.01970802919715
 20
88.57814839952368
 11
64.01970802919713
 21
88.57814839952368
 72
     1
 10
64.01970802919713
 20
88.57814839952368
 11
64.01970802919715
 21
80.57814839952368
 72
     1
 10
64.01970802919715
 20
80.57814839952368
 11
88.01970802919715
 21
80.57814839952368
 72
     1
 10
88.01970802919715
 20
80.57814839952368
 11
88.01970802919715
 21
88.57814839952368
 97
        0
 75
     0
 76
     1
 52
0.0
 41
1.0
 77
     0
 78
     1
 53
45.0
 43
0.0
 44
0.0
 45
-2.245064030267288
 46
2.245064030267288
 79
     0
 98
        1
 10
0.0
 20
0.0
  0
DIMENSION
  5
2E0
330
1F
100
AcDbEntity
  8
0
  6
Continuous
 62
     7
370
     0
100
AcDbDimension
  2
_D_7
 10
136.2473512534
 20
80.5781483995
 30
0.0
 11
136.2473512534
 21
85.1493396475
 31
0.0
 70
   160
  1
<>
 71
     2
 42
-1.0
  3
SLDDIMSTYLE3
100
AcDbAlignedDimension
 13
88.0197080292
 23
88.5781483995
 33
0.0
 14
112.0197080292
 24
80.5781483995
 34
0.0
 50
90.0
100
AcDbRotatedDimension
  0
DIMENSION
  5
2ED
330
1F
100
AcDbEntity
  8
0
  6
Continuous
 62
     7
370
     0
100
AcDbDimension
  2
_D_8
 10
128.0197080292
 20
80.5781483995
 30
0.0
 11
128.0197080292
 21
93.8436652414
 31
0.0
 70
   160
  1
<>
 71
     2
 42
-1.0
  3
SLDDIMSTYLE3
100
AcDbAlignedDimension
 13
112.0197080292
 23
83.7781483995
 33
0.0
 14
112.0197080292
 24
80.5781483995
 34
0.0
 50
90.0
100
AcDbRotatedDimension
  0
DIMENSION
  5
2F9
330
1F
100
AcDbEntity
  8
0
  6
Continuous
 62
     7
370
     0
100
AcDbDimension
  2
_D_9
 10
119.335656738
 20
82.9781483995
 30
0.0
 11
119.335656738
 21
93.8436652414
 31
0.0
 70
   160
  1
<>
 71
     2
 42
-1.0
  3
SLDDIMSTYLE4
100
AcDbAlignedDimension
 13
112.0197080292
 23
83.7781483995
 33
0.0
 14
105.0197080292
 24
82.9781483995
 34
0.0
 50
90.0
100
AcDbRotatedDimension
  0
LINE
  5
306
330
1F
100
AcDbEntity
  8
0
  6
CENTERX2
 62
     7
370
     0
100
AcDbLine
 10
102.0197080292
 20
82.9781483995
 30
0.0
 11
102.0197080292
 21
85.7781483995
 31
0.0
  0
LINE
  5
307
330
1F
100
AcDbEntity
  8
0
  6
CENTERX2
 62
     7
370
     0
100
AcDbLine
 10
102.0197080292
 20
78.5781483995
 30
0.0
 11
102.0197080292
 21
82.9781483995
 31
0.0
  0
LINE
  5
308
330
1F
100
AcDbEntity
  8
0
  6
CENTERX2
 62
     7
370
     0
100
AcDbLine
 10
102.0197080292
 20
80.5781483995
 30
0.0
 11
102.0197080292
 21
82.9781483995
 31
0.0
  0
LINE
  5
309
330
1F
100
AcDbEntity
  8
0
  6
Continuous
 62
     7
370
    15
100
AcDbLine
 10
171.4183735102
 20
157.7846702757
 30
0.0
 11
176.2183737382
 21
157.7846702757
 31
0.0
  0
LINE
  5
30A
330
1F
100
AcDbEntity
  8
0
  6
Continuous
 62
     7
370
    15
100
AcDbLine
 10
171.4183735102
 20
157.7846702757
 30
0.0
 11
171.4183735102
 21
187.7846696052
 31
0.0
  0
LINE
  5
30B
330
1F
100
AcDbEntity
  8
0
  6
Continuous
 62
     7
370
    15
100
AcDbLine
 10
171.4183735102
 20
187.7846696052
 30
0.0
 11
176.2183737382
 21
187.7846696052
 31
0.0
  0
LINE
  5
30C
330
1F
100
AcDbEntity
  8
0
  6
Continuous
 62
     7
370
    15
100
AcDbLine
 10
179.4183736573
 20
157.7846702757
 30
0.0
 11
176.2183737382
 21
157.7846702757
 31
0.0
  0
LINE
  5
30D
330
1F
100
AcDbEntity
  8
0
  6
Continuous
 62
     7
370
    15
100
AcDbLine
 10
176.2183737382
 20
157.7846702757
 30
0.0
 11
176.2183737382
 21
159.7846696722
 31
0.0
  0
LINE
  5
30E
330
1F
100
AcDbEntity
  8
0
  6
Continuous
 62
     7
370
    15
100
AcDbLine
 10
176.2183737382
 20
159.7846696722
 30
0.0
 11
179.4183736573
 21
159.7846696722
 31
0.0
  0
LINE
  5
30F
330
1F
100
AcDbEntity
  8
0
  6
Continuous
 62
     7
370
    15
100
AcDbLine
 10
179.4183736573
 20
159.7846696722
 30
0.0
 11
179.4183736573
 21
157.7846702757
 31
0.0
  0
LINE
  5
310
330
1F
100
AcDbEntity
  8
0
  6
Continuous
 62
     7
370
    15
100
AcDbLine
 10
179.4183736573
 20
185.7846702087
 30
0.0
 11
176.2183737382
 21
185.7846702087
 31
0.0
  0
LINE
  5
311
330
1F
100
AcDbEntity
  8
0
  6
Continuous
 62
     7
370
    15
100
AcDbLine
 10
176.2183737382
 20
185.7846702087
 30
0.0
 11
176.2183737382
 21
159.7846696722
 31
0.0
  0
LINE
  5
312
330
1F
100
AcDbEntity
  8
0
  6
Continuous
 62
     7
370
    15
100
AcDbLine
 10
179.4183736573
 20
185.7846702087
 30
0.0
 11
179.4183736573
 21
159.7846696722
 31
0.0
  0
LINE
  5
313
330
1F
100
AcDbEntity
  8
0
  6
Continuous
 62
     7
370
    15
100
AcDbLine
 10
176.2183737382
 20
187.7846696052
 30
0.0
 11
179.4183736573
 21
187.7846696052
 31
0.0
  0
LINE
  5
314
330
1F
100
AcDbEntity
  8
0
  6
Continuous
 62
     7
370
    15
100
AcDbLine
 10
176.2183737382
 20
185.7846702087
 30
0.0
 11
176.2183737382
 21
187.7846696052
 31
0.0
  0
LINE
  5
315
330
1F
100
AcDbEntity
  8
0
  6
Continuous
 62
     7
370
    15
100
AcDbLine
 10
179.4183736573
 20
187.7846696052
 30
0.0
 11
179.4183736573
 21
185.7846702087
 31
0.0
  0
LINE
  5
316
330
1F
100
AcDbEntity
  8
0
  6
HIDDEN
 62
     7
370
     0
100
AcDbLine
 10
176.2183737382
 20
186.2846702906
 30
0.0
 11
179.4183736573
 21
186.2846702906
 31
0.0
  0
LINE
  5
317
330
1F
100
AcDbEntity
  8
0
  6
HIDDEN
 62
     7
370
     0
100
AcDbLine
 10
176.2183737382
 20
159.2846695903
 30
0.0
 11
179.4183736573
 21
159.2846695903
 31
0.0
  0
LINE
  5
318
330
1F
100
AcDbEntity
  8
0
  6
HIDDEN
 62
     7
370
     0
100
AcDbLine
 10
172.918373756
 20
160.0489585298
 30
0.0
 11
171.4183735102
 21
159.2846695903
 31
0.0
  0
LINE
  5
319
330
1F
100
AcDbEntity
  8
0
  6
HIDDEN
 62
     7
370
     0
100
AcDbLine
 10
172.918373756
 20
161.5203820738
 30
0.0
 11
171.4183735102
 21
162.284670082
 31
0.0
  0
LINE
  5
31A
330
1F
100
AcDbEntity
  8
0
  6
HIDDEN
 62
     7
370
     0
100
AcDbLine
 10
172.918373756
 20
164.0489582541
 30
0.0
 11
171.4183735102
 21
163.2846702459
 31
0.0
  0
LINE
  5
31B
330
1F
100
AcDbEntity
  8
0
  6
HIDDEN
 62
     7
370
     0
100
AcDbLine
 10
172.918373756
 20
165.5203817981
 30
0.0
 11
171.4183735102
 21
166.2846698063
 31
0.0
  0
LINE
  5
31C
330
1F
100
AcDbEntity
  8
0
  6
HIDDEN
 62
     7
370
     0
100
AcDbLine
 10
172.918373756
 20
168.0489579784
 30
0.0
 11
171.4183735102
 21
167.2846699702
 31
0.0
  0
LINE
  5
31D
330
1F
100
AcDbEntity
  8
0
  6
HIDDEN
 62
     7
370
     0
100
AcDbLine
 10
172.918373756
 20
169.5203817553
 30
0.0
 11
171.4183735102
 21
170.2846699963
 31
0.0
  0
LINE
  5
31E
330
1F
100
AcDbEntity
  8
0
  6
HIDDEN
 62
     7
370
     0
100
AcDbLine
 10
172.918373756
 20
172.0489581102
 30
0.0
 11
171.4183735102
 21
171.2846699274
 31
0.0
  0
LINE
  5
31F
330
1F
100
AcDbEntity
  8
0
  6
HIDDEN
 62
     7
370
     0
100
AcDbLine
 10
172.918373756
 20
173.5203817706
 30
0.0
 11
171.4183735102
 21
174.2846699535
 31
0.0
  0
LINE
  5
320
330
1F
100
AcDbEntity
  8
0
  6
HIDDEN
 62
     7
370
     0
100
AcDbLine
 10
172.918373756
 20
176.0489581256
 30
0.0
 11
171.4183735102
 21
175.2846698846
 31
0.0
  0
LINE
  5
321
330
1F
100
AcDbEntity
  8
0
  6
HIDDEN
 62
     7
370
     0
100
AcDbLine
 10
172.918373756
 20
177.5203819024
 30
0.0
 11
171.4183735102
 21
178.2846699106
 31
0.0
  0
LINE
  5
322
330
1F
100
AcDbEntity
  8
0
  6
HIDDEN
 62
     7
370
     0
100
AcDbLine
 10
172.918373756
 20
180.0489580828
 30
0.0
 11
171.4183735102
 21
179.2846700745
 31
0.0
  0
LINE
  5
323
330
1F
100
AcDbEntity
  8
0
  6
HIDDEN
 62
     7
370
     0
100
AcDbLine
 10
172.918373756
 20
181.5203816267
 30
0.0
 11
171.4183735102
 21
182.284669635
 31
0.0
  0
LINE
  5
324
330
1F
100
AcDbEntity
  8
0
  6
HIDDEN
 62
     7
370
     0
100
AcDbLine
 10
172.918373756
 20
184.0489578071
 30
0.0
 11
171.4183735102
 21
183.2846697989
 31
0.0
  0
LINE
  5
325
330
1F
100
AcDbEntity
  8
0
  6
HIDDEN
 62
     7
370
     0
100
AcDbLine
 10
172.918373756
 20
185.5203813511
 30
0.0
 11
171.4183735102
 21
186.2846702906
 31
0.0
  0
LINE
  5
326
330
1F
100
AcDbEntity
  8
0
  6
HIDDEN
 62
     7
370
     0
100
AcDbLine
 10
172.918373756
 20
161.5203820738
 30
0.0
 11
172.918373756
 21
160.0489585298
 31
0.0
  0
LINE
  5
327
330
1F
100
AcDbEntity
  8
0
  6
HIDDEN
 62
     7
370
     0
100
AcDbLine
 10
172.918373756
 20
165.5203817981
 30
0.0
 11
172.918373756
 21
164.0489582541
 31
0.0
  0
LINE
  5
328
330
1F
100
AcDbEntity
  8
0
  6
HIDDEN
 62
     7
370
     0
100
AcDbLine
 10
172.918373756
 20
169.5203817553
 30
0.0
 11
172.918373756
 21
168.0489579784
 31
0.0
  0
LINE
  5
329
330
1F
100
AcDbEntity
  8
0
  6
HIDDEN
 62
     7
370
     0
100
AcDbLine
 10
172.918373756
 20
173.5203817706
 30
0.0
 11
172.918373756
 21
172.0489581102
 31
0.0
  0
LINE
  5
32A
330
1F
100
AcDbEntity
  8
0
  6
HIDDEN
 62
     7
370
     0
100
AcDbLine
 10
172.918373756
 20
177.5203819024
 30
0.0
 11
172.918373756
 21
176.0489581256
 31
0.0
  0
LINE
  5
32B
330
1F
100
AcDbEntity
  8
0
  6
HIDDEN
 62
     7
370
     0
100
AcDbLine
 10
172.918373756
 20
181.5203816267
 30
0.0
 11
172.918373756
 21
180.0489580828
 31
0.0
  0
LINE
  5
32C
330
1F
100
AcDbEntity
  8
0
  6
HIDDEN
 62
     7
370
     0
100
AcDbLine
 10
172.918373756
 20
185.5203813511
 30
0.0
 11
172.918373756
 21
184.0489578071
 31
0.0
  0
LINE
  5
32D
330
1F
100
AcDbEntity
  8
0
  6
HIDDEN
 62
     7
370
     0
100
AcDbLine
 10
179.4183736573
 20
159.7846696722
 30
0.0
 11
171.4183735102
 21
159.7846696722
 31
0.0
  0
LINE
  5
32E
330
1F
100
AcDbEntity
  8
0
  6
HIDDEN
 62
     7
370
     0
100
AcDbLine
 10
176.2183737382
 20
159.7846696722
 30
0.0
 11
179.4183736573
 21
159.7846696722
 31
0.0
  0
LINE
  5
32F
330
1F
100
AcDbEntity
  8
0
  6
HIDDEN
 62
     7
370
     0
100
AcDbLine
 10
171.4183735102
 20
185.7846702087
 30
0.0
 11
179.4183736573
 21
185.7846702087
 31
0.0
  0
LINE
  5
330
330
1F
100
AcDbEntity
  8
0
  6
HIDDEN
 62
     7
370
     0
100
AcDbLine
 10
176.2183737382
 20
185.7846702087
 30
0.0
 11
179.4183736573
 21
185.7846702087
 31
0.0
  0
LINE
  5
331
330
1F
100
AcDbEntity
  8
0
  6
HIDDEN
 62
     7
370
     0
100
AcDbLine
 10
177.0183737179
 20
169.7846699144
 30
0.0
 11
176.2183737382
 21
169.7846699144
 31
0.0
  0
LINE
  5
332
330
1F
100
AcDbEntity
  8
0
  6
HIDDEN
 62
     7
370
     0
100
AcDbLine
 10
177.0183737179
 20
166.7846698883
 30
0.0
 11
177.0183737179
 21
169.7846699144
 31
0.0
  0
LINE
  5
333
330
1F
100
AcDbEntity
  8
0
  6
HIDDEN
 62
     7
370
     0
100
AcDbLine
 10
177.0183737179
 20
169.7846699144
 30
0.0
 11
177.0183737179
 21
175.7846699665
 31
0.0
  0
LINE
  5
334
330
1F
100
AcDbEntity
  8
0
  6
HIDDEN
 62
     7
370
     0
100
AcDbLine
 10
177.0183737179
 20
175.7846699665
 30
0.0
 11
176.2183737382
 21
175.7846699665
 31
0.0
  0
LINE
  5
335
330
1F
100
AcDbEntity
  8
0
  6
HIDDEN
 62
     7
370
     0
100
AcDbLine
 10
177.0183737179
 20
175.7846699665
 30
0.0
 11
177.0183737179
 21
178.7846699926
 31
0.0
  0
LINE
  5
336
330
1F
100
AcDbEntity
  8
0
  6
HIDDEN
 62
     7
370
     0
100
AcDbLine
 10
179.4183736573
 20
160.2846697542
 30
0.0
 11
176.2183737382
 21
160.2846697542
 31
0.0
  0
LINE
  5
337
330
1F
100
AcDbEntity
  8
0
  6
HIDDEN
 62
     7
370
     0
100
AcDbLine
 10
176.2183737382
 20
185.2846701267
 30
0.0
 11
179.4183736573
 21
185.2846701267
 31
0.0
  0
LINE
  5
338
330
1F
100
AcDbEntity
  8
0
  6
HIDDEN
 62
     7
370
     0
100
AcDbLine
 10
176.2183737382
 20
166.7846698883
 30
0.0
 11
177.0183737179
 21
166.7846698883
 31
0.0
  0
LINE
  5
339
330
1F
100
AcDbEntity
  8
0
  6
HIDDEN
 62
     7
370
     0
100
AcDbLine
 10
177.0183737179
 20
178.7846699926
 30
0.0
 11
176.2183737382
 21
178.7846699926
 31
0.0
  0
LINE
  5
33A
330
1F
100
AcDbEntity
  8
0
  6
HIDDEN
 62
     7
370
     0
100
AcDbLine
 10
177.0183737179
 20
170.6846700153
 30
0.0
 11
179.4183736573
 21
170.6846700153
 31
0.0
  0
LINE
  5
33B
330
1F
100
AcDbEntity
  8
0
  6
HIDDEN
 62
     7
370
     0
100
AcDbLine
 10
179.4183736573
 20
174.8846698656
 30
0.0
 11
177.0183737179
 21
174.8846698656
 31
0.0
  0
HATCH
  5
33C
330
1F
100
AcDbEntity
  8
0
  6
Continuous
 62
     7
100
AcDbHatch
 10
0.0
 20
0.0
 30
0.0
210
0.0
220
0.0
230
1.0
  2
ANSI31
 70
     0
 71
     0
 91
        1
 92
        0
 93
        8
 72
     1
 10
171.4183737381596
 20
187.784669940434
 11
171.4183737381596
 21
157.784669940434
 72
     1
 10
171.4183737381596
 20
157.784669940434
 11
179.4183737381596
 21
157.784669940434
 72
     1
 10
179.4183737381596
 20
157.784669940434
 11
179.4183737381596
 21
159.284669940434
 72
     1
 10
179.4183737381596
 20
159.284669940434
 11
176.2183737381596
 21
159.284669940434
 72
     1
 10
176.2183737381596
 20
159.284669940434
 11
176.2183737381596
 21
186.284669940434
 72
     1
 10
176.2183737381596
 20
186.284669940434
 11
179.4183737381596
 21
186.284669940434
 72
     1
 10
179.4183737381596
 20
186.284669940434
 11
179.4183737381596
 21
187.784669940434
 72
     1
 10
179.4183737381596
 20
187.784669940434
 11
171.4183737381596
 21
187.784669940434
 97
        0
 75
     0
 76
     1
 52
0.0
 41
1.0
 77
     0
 78
     1
 53
45.0
 43
0.0
 44
0.0
 45
-2.245064030267288
 46
2.245064030267288
 79
     0
 98
        1
 10
0.0
 20
0.0
  0
LINE
  5
33D
330
1F
100
AcDbEntity
  8
0
  6
CENTERX2
 62
     7
370
     0
100
AcDbLine
 10
175.0183737382
 20
172.7846699404
 30
0.0
 11
181.4183737382
 21
172.7846699404
 31
0.0
  0
LINE
  5
33E
330
1F
100
AcDbEntity
  8
0
  6
Continuous
 62
     7
370
    15
100
AcDbLine
 10
15.7308019398
 20
-1.0000000119
 30
0.0
 11
23.7308020869
 21
-1.0000000119
 31
0.0
  0
LINE
  5
33F
330
1F
100
AcDbEntity
  8
0
  6
Continuous
 62
     7
370
    15
100
AcDbLine
 10
23.7308020869
 20
22.999999702
 30
0.0
 11
15.7308019398
 21
22.999999702
 31
0.0
  0
LINE
  5
340
330
1F
100
AcDbEntity
  8
0
  6
Continuous
 62
     7
370
    15
100
AcDbLine
 10
23.7308020869
 20
-1.0000000119
 30
0.0
 11
23.7308020869
 21
22.999999702
 31
0.0
  0
LINE
  5
341
330
1F
100
AcDbEntity
  8
0
  6
Continuous
 62
     7
370
    15
100
AcDbLine
 10
15.7308019398
 20
-1.0000000119
 30
0.0
 11
15.7308019398
 21
22.999999702
 31
0.0
  0
LINE
  5
342
330
1F
100
AcDbEntity
  8
0
  6
Continuous
 62
     7
370
    15
100
AcDbLine
 10
15.7308019398
 20
25.0000000298
 30
0.0
 11
23.7308020869
 21
25.0000000298
 31
0.0
  0
LINE
  5
343
330
1F
100
AcDbEntity
  8
0
  6
Continuous
 62
     7
370
    15
100
AcDbLine
 10
23.7308020869
 20
25.0000000298
 30
0.0
 11
23.7308020869
 21
22.999999702
 31
0.0
  0
LINE
  5
344
330
1F
100
AcDbEntity
  8
0
  6
Continuous
 62
     7
370
    15
100
AcDbLine
 10
15.7308019398
 20
22.999999702
 30
0.0
 11
15.7308019398
 21
25.0000000298
 31
0.0
  0
LINE
  5
345
330
1F
100
AcDbEntity
  8
0
  6
Continuous
 62
     7
370
    15
100
AcDbLine
 10
23.7308020869
 20
-25.0000007153
 30
0.0
 11
20.5308021677
 21
-25.0000007153
 31
0.0
  0
LINE
  5
346
330
1F
100
AcDbEntity
  8
0
  6
Continuous
 62
     7
370
    15
100
AcDbLine
 10
20.5308021677
 20
-25.0000007153
 30
0.0
 11
20.5308021677
 21
-23.0000003874
 31
0.0
  0
LINE
  5
347
330
1F
100
AcDbEntity
  8
0
  6
Continuous
 62
     7
370
    15
100
AcDbLine
 10
20.5308021677
 20
-23.0000003874
 30
0.0
 11
23.7308020869
 21
-23.0000003874
 31
0.0
  0
LINE
  5
348
330
1F
100
AcDbEntity
  8
0
  6
Continuous
 62
     7
370
    15
100
AcDbLine
 10
23.7308020869
 20
-23.0000003874
 30
0.0
 11
23.7308020869
 21
-25.0000007153
 31
0.0
  0
LINE
  5
349
330
1F
100
AcDbEntity
  8
0
  6
Continuous
 62
     7
370
    15
100
AcDbLine
 10
23.7308020869
 20
-1.0000000119
 30
0.0
 11
20.5308021677
 21
-1.0000000119
 31
0.0
  0
LINE
  5
34A
330
1F
100
AcDbEntity
  8
0
  6
Continuous
 62
     7
370
    15
100
AcDbLine
 10
23.7308020869
 20
-23.0000003874
 30
0.0
 11
23.7308020869
 21
-1.0000000119
 31
0.0
  0
LINE
  5
34B
330
1F
100
AcDbEntity
  8
0
  6
Continuous
 62
     7
370
    15
100
AcDbLine
 10
20.5308021677
 20
-23.0000003874
 30
0.0
 11
20.5308021677
 21
-1.0000000119
 31
0.0
  0
LINE
  5
34C
330
1F
100
AcDbEntity
  8
0
  6
HIDDEN
 62
     7
370
     0
100
AcDbLine
 10
20.5308021677
 20
22.999999702
 30
0.0
 11
20.5308021677
 21
-1.0000000119
 31
0.0
  0
LINE
  5
34D
330
1F
100
AcDbEntity
  8
0
  6
HIDDEN
 62
     7
370
     0
100
AcDbLine
 10
17.2308021856
 20
1.2642882131
 30
0.0
 11
15.7308019398
 21
0.4999999721
 31
0.0
  0
LINE
  5
34E
330
1F
100
AcDbEntity
  8
0
  6
HIDDEN
 62
     7
370
     0
100
AcDbLine
 10
17.2308021856
 20
2.7357117571
 30
0.0
 11
15.7308019398
 21
3.500000231
 31
0.0
  0
LINE
  5
34F
330
1F
100
AcDbEntity
  8
0
  6
HIDDEN
 62
     7
370
     0
100
AcDbLine
 10
17.2308021856
 20
5.2642884031
 30
0.0
 11
15.7308019398
 21
4.4999999292
 31
0.0
  0
LINE
  5
350
330
1F
100
AcDbEntity
  8
0
  6
HIDDEN
 62
     7
370
     0
100
AcDbLine
 10
17.2308021856
 20
6.7357119471
 30
0.0
 11
15.7308019398
 21
7.4999999553
 31
0.0
  0
LINE
  5
351
330
1F
100
AcDbEntity
  8
0
  6
HIDDEN
 62
     7
370
     0
100
AcDbLine
 10
17.2308021856
 20
9.2642881274
 30
0.0
 11
15.7308019398
 21
8.5000001192
 31
0.0
  0
LINE
  5
352
330
1F
100
AcDbEntity
  8
0
  6
HIDDEN
 62
     7
370
     0
100
AcDbLine
 10
17.2308021856
 20
10.7357116714
 30
0.0
 11
15.7308019398
 21
11.4999996796
 31
0.0
  0
LINE
  5
353
330
1F
100
AcDbEntity
  8
0
  6
HIDDEN
 62
     7
370
     0
100
AcDbLine
 10
17.2308021856
 20
13.2642878518
 30
0.0
 11
15.7308019398
 21
12.4999998435
 31
0.0
  0
LINE
  5
354
330
1F
100
AcDbEntity
  8
0
  6
HIDDEN
 62
     7
370
     0
100
AcDbLine
 10
17.2308021856
 20
14.7357113957
 30
0.0
 11
15.7308019398
 21
15.499999404
 31
0.0
  0
LINE
  5
355
330
1F
100
AcDbEntity
  8
0
  6
HIDDEN
 62
     7
370
     0
100
AcDbLine
 10
20.5308021677
 20
23.5000007153
 30
0.0
 11
23.7308020869
 21
23.5000007153
 31
0.0
  0
LINE
  5
356
330
1F
100
AcDbEntity
  8
0
  6
HIDDEN
 62
     7
370
     0
100
AcDbLine
 10
20.5308021677
 20
23.5000007153
 30
0.0
 11
20.5308021677
 21
22.999999702
 31
0.0
  0
LINE
  5
357
330
1F
100
AcDbEntity
  8
0
  6
HIDDEN
 62
     7
370
     0
100
AcDbLine
 10
20.5308021677
 20
22.999999702
 30
0.0
 11
23.7308020869
 21
22.999999702
 31
0.0
  0
LINE
  5
358
330
1F
100
AcDbEntity
  8
0
  6
HIDDEN
 62
     7
370
     0
100
AcDbLine
 10
17.2308021856
 20
17.2642875761
 30
0.0
 11
15.7308019398
 21
16.4999995679
 31
0.0
  0
LINE
  5
359
330
1F
100
AcDbEntity
  8
0
  6
HIDDEN
 62
     7
370
     0
100
AcDbLine
 10
17.2308021856
 20
18.7357120514
 30
0.0
 11
15.7308019398
 21
19.5000000596
 31
0.0
  0
LINE
  5
35A
330
1F
100
AcDbEntity
  8
0
  6
HIDDEN
 62
     7
370
     0
100
AcDbLine
 10
17.2308021856
 20
21.2642882317
 30
0.0
 11
15.7308019398
 21
20.5000002235
 31
0.0
  0
LINE
  5
35B
330
1F
100
AcDbEntity
  8
0
  6
HIDDEN
 62
     7
370
     0
100
AcDbLine
 10
17.2308021856
 20
22.735712707
 30
0.0
 11
15.7308019398
 21
23.5000007153
 31
0.0
  0
LINE
  5
35C
330
1F
100
AcDbEntity
  8
0
  6
HIDDEN
 62
     7
370
     0
100
AcDbLine
 10
17.2308021856
 20
2.7357117571
 30
0.0
 11
17.2308021856
 21
1.2642882131
 31
0.0
  0
LINE
  5
35D
330
1F
100
AcDbEntity
  8
0
  6
HIDDEN
 62
     7
370
     0
100
AcDbLine
 10
17.2308021856
 20
6.7357119471
 30
0.0
 11
17.2308021856
 21
5.2642884031
 31
0.0
  0
LINE
  5
35E
330
1F
100
AcDbEntity
  8
0
  6
HIDDEN
 62
     7
370
     0
100
AcDbLine
 10
17.2308021856
 20
10.7357116714
 30
0.0
 11
17.2308021856
 21
9.2642881274
 31
0.0
  0
LINE
  5
35F
330
1F
100
AcDbEntity
  8
0
  6
HIDDEN
 62
     7
370
     0
100
AcDbLine
 10
17.2308021856
 20
14.7357113957
 30
0.0
 11
17.2308021856
 21
13.2642878518
 31
0.0
  0
LINE
  5
360
330
1F
100
AcDbEntity
  8
0
  6
HIDDEN
 62
     7
370
     0
100
AcDbLine
 10
17.2308021856
 20
18.7357120514
 30
0.0
 11
17.2308021856
 21
17.2642875761
 31
0.0
  0
LINE
  5
361
330
1F
100
AcDbEntity
  8
0
  6
HIDDEN
 62
     7
370
     0
100
AcDbLine
 10
17.2308021856
 20
22.735712707
 30
0.0
 11
17.2308021856
 21
21.2642882317
 31
0.0
  0
LINE
  5
362
330
1F
100
AcDbEntity
  8
0
  6
HIDDEN
 62
     7
370
     0
100
AcDbLine
 10
15.7308019398
 20
22.999999702
 30
0.0
 11
23.7308020869
 21
22.999999702
 31
0.0
  0
LINE
  5
363
330
1F
100
AcDbEntity
  8
0
  6
HIDDEN
 62
     7
370
     0
100
AcDbLine
 10
23.7308020869
 20
22.5000005513
 30
0.0
 11
20.5308021677
 21
22.5000005513
 31
0.0
  0
LINE
  5
364
330
1F
100
AcDbEntity
  8
0
  6
HIDDEN
 62
     7
370
     0
100
AcDbLine
 10
20.5308021677
 20
-1.0000000119
 30
0.0
 11
20.5308021677
 21
22.5000005513
 31
0.0
  0
LINE
  5
365
330
1F
100
AcDbEntity
  8
0
  6
HIDDEN
 62
     7
370
     0
100
AcDbLine
 10
21.3308021475
 20
-17.9999995679
 30
0.0
 11
20.5308021677
 21
-17.9999995679
 31
0.0
  0
LINE
  5
366
330
1F
100
AcDbEntity
  8
0
  6
HIDDEN
 62
     7
370
     0
100
AcDbLine
 10
21.3308021475
 20
-12.000000447
 30
0.0
 11
20.5308021677
 21
-12.000000447
 31
0.0
  0
LINE
  5
367
330
1F
100
AcDbEntity
  8
0
  6
HIDDEN
 62
     7
370
     0
100
AcDbLine
 10
21.3308021475
 20
-17.9999995679
 30
0.0
 11
21.3308021475
 21
-12.000000447
 31
0.0
  0
LINE
  5
368
330
1F
100
AcDbEntity
  8
0
  6
HIDDEN
 62
     7
370
     0
100
AcDbLine
 10
23.7308020869
 20
-23.0000003874
 30
0.0
 11
20.5308021677
 21
-23.0000003874
 31
0.0
  0
LINE
  5
369
330
1F
100
AcDbEntity
  8
0
  6
HIDDEN
 62
     7
370
     0
100
AcDbLine
 10
21.3308021475
 20
-17.0999992341
 30
0.0
 11
23.7308020869
 21
-17.0999992341
 31
0.0
  0
LINE
  5
36A
330
1F
100
AcDbEntity
  8
0
  6
HIDDEN
 62
     7
370
     0
100
AcDbLine
 10
23.7308020869
 20
-12.8999998495
 30
0.0
 11
21.3308021475
 21
-12.8999998495
 31
0.0
  0
ENDSEC
  0
SECTION
  2
OBJECTS
  0
DICTIONARY
  5
C
330
0
100
AcDbDictionary
281
     1
  3
ACAD_GROUP
350
D
  3
ACAD_LAYOUT
350
1A
  3
ACAD_MLINESTYLE
350
17
  3
ACAD_PLOTSETTINGS
350
19
  3
ACAD_PLOTSTYLENAME
350
E
  0
DICTIONARY
  5
D
102
{ACAD_REACTORS
330
C
102
}
330
C
100
AcDbDictionary
281
     1
  0
DICTIONARY
  5
1A
102
{ACAD_REACTORS
330
C
102
}
330
C
100
AcDbDictionary
281
     1
  3
Layout1
350
1E
  3
Layout2
350
26
  3
Model
350
22
  0
DICTIONARY
  5
17
102
{ACAD_REACTORS
330
C
102
}
330
C
100
AcDbDictionary
281
     1
  3
Standard
350
18
  0
DICTIONARY
  5
19
102
{ACAD_REACTORS
330
C
102
}
330
C
100
AcDbDictionary
281
     1
  0
ACDBDICTIONARYWDFLT
  5
E
102
{ACAD_REACTORS
330
C
102
}
330
C
100
AcDbDictionary
281
     1
  3
Normal
350
F
100
AcDbDictionaryWithDefault
340
F
  0
LAYOUT
  5
1E
102
{ACAD_REACTORS
330
1A
102
}
330
1A
100
AcDbPlotSettings
  1

  2
none_device
  4

  6

 40
0.0
 41
0.0
 42
0.0
 43
0.0
 44
0.0
 45
0.0
 46
0.0
 47
0.0
 48
0.0
 49
0.0
140
0.0
141
0.0
142
1.0
143
1.0
 70
   688
 72
     0
 73
     0
 74
     5
  7

 75
    16
147
1.0
148
0.0
149
0.0
100
AcDbLayout
  1
Layout1
 70
     1
 71
     1
 10
0.0
 20
0.0
 11
420.0
 21
297.0
 12
0.0
 22
0.0
 32
0.0
 14
1.0000000000E+20
 24
1.0000000000E+20
 34
1.0000000000E+20
 15
-1.0000000000E+20
 25
-1.0000000000E+20
 35
-1.0000000000E+20
146
0.0
 13
0.0
 23
0.0
 33
0.0
 16
1.0
 26
0.0
 36
0.0
 17
0.0
 27
1.0
 37
0.0
 76
     0
330
1B
  0
LAYOUT
  5
26
102
{ACAD_REACTORS
330
1A
102
}
330
1A
100
AcDbPlotSettings
  1

  2
none_device
  4

  6

 40
0.0
 41
0.0
 42
0.0
 43
0.0
 44
0.0
 45
0.0
 46
0.0
 47
0.0
 48
0.0
 49
0.0
140
0.0
141
0.0
142
1.0
143
1.0
 70
   688
 72
     0
 73
     0
 74
     5
  7

 75
    16
147
1.0
148
0.0
149
0.0
100
AcDbLayout
  1
Layout2
 70
     1
 71
     2
 10
0.0
 20
0.0
 11
0.0
 21
0.0
 12
0.0
 22
0.0
 32
0.0
 14
0.0
 24
0.0
 34
0.0
 15
0.0
 25
0.0
 35
0.0
146
0.0
 13
0.0
 23
0.0
 33
0.0
 16
1.0
 26
0.0
 36
0.0
 17
0.0
 27
1.0
 37
0.0
 76
     0
330
23
  0
LAYOUT
  5
22
102
{ACAD_REACTORS
330
1A
102
}
330
1A
100
AcDbPlotSettings
  1

  2
none_device
  4

  6

 40
0.0
 41
0.0
 42
0.0
 43
0.0
 44
0.0
 45
0.0
 46
0.0
 47
0.0
 48
0.0
 49
0.0
140
0.0
141
0.0
142
1.0
143
1.0
 70
  1712
 72
     0
 73
     0
 74
     0
  7

 75
     0
147
1.0
148
0.0
149
0.0
100
AcDbLayout
  1
Model
 70
     1
 71
     0
 10
0.0
 20
0.0
 11
210.0
 21
297.0
 12
0.0
 22
0.0
 32
0.0
 14
0.0
 24
0.0
 34
0.0
 15
210.0
 25
297.0
 35
0.0
146
0.0
 13
0.0
 23
0.0
 33
0.0
 16
1.0
 26
0.0
 36
0.0
 17
0.0
 27
1.0
 37
0.0
 76
     0
330
1F
331
29
  0
MLINESTYLE
  5
18
102
{ACAD_REACTORS
330
17
102
}
330
17
100
AcDbMlineStyle
  2
Standard
 70
     0
  3

 62
   256
 51
90.0
 52
90.0
 71
     2
 49
0.5
 62
   256
  6
BYLAYER
 49
-0.5
 62
   256
  6
BYLAYER
  0
ACDBPLACEHOLDER
  5
F
102
{ACAD_REACTORS
330
E
102
}
330
E
  0
ENDSEC
  0
EOF
