  0
SECTION
  2
HEADER
  9
$ACADVER
  1
AC1015
  9
$ACADMAINTVER
 70
     6
  9
$DWGCODEPAGE
  3
DOS932
  9
$INSBASE
 10
0.0
 20
0.0
 30
0.0
  9
$EXTMIN
 10
0.0
 20
0.0
 30
0.0
  9
$EXTMAX
 10
210.0
 20
297.0
 30
0.0
  9
$LIMMIN
 10
0.0
 20
0.0
  9
$LIMMAX
 10
210.0
 20
297.0
  9
$ORTHOMODE
 70
     0
  9
$REGENMODE
 70
     1
  9
$FILLMODE
 70
     1
  9
$QTEXTMODE
 70
     0
  9
$MIRRTEXT
 70
     1
  9
$LTSCALE
 40
1.0
  9
$ATTMODE
 70
     1
  9
$TEXTSIZE
 40
3.5
  9
$TRACEWID
 40
1.0
  9
$TEXTSTYLE
  7
Standard
  9
$CLAYER
  8
0
  9
$CELTYPE
  6
ByLayer
  9
$CECOLOR
 62
   256
  9
$CELTSCALE
 40
1.0
  9
$DISPSILH
 70
     0
  9
$DIMSCALE
 40
1.0
  9
$DIMASZ
 40
3.0
  9
$DIMEXO
 40
1.0
  9
$DIMDLI
 40
3.75
  9
$DIMRND
 40
0.0
  9
$DIMDLE
 40
0.0
  9
$DIMEXE
 40
1.0
  9
$DIMTP
 40
0.0
  9
$DIMTM
 40
0.0
  9
$DIMTXT
 40
3.5
  9
$DIMCEN
 40
2.5
  9
$DIMTSZ
 40
0.0
  9
$DIMTOL
 70
     0
  9
$DIMLIM
 70
     0
  9
$DIMTIH
 70
     1
  9
$DIMTOH
 70
     1
  9
$DIMSE1
 70
     0
  9
$DIMSE2
 70
     0
  9
$DIMTAD
 70
     1
  9
$DIMZIN
 70
     0
  9
$DIMBLK
  1

  9
$DIMASO
 70
     1
  9
$DIMSHO
 70
     1
  9
$DIMPOST
  1

  9
$DIMAPOST
  1

  9
$DIMALT
 70
     0
  9
$DIMALTD
 70
     3
  9
$DIMALTF
 40
0.0393700787
  9
$DIMLFAC
 40
1.0
  9
$DIMTOFL
 70
     1
  9
$DIMTVP
 40
0.0
  9
$DIMTIX
 70
     0
  9
$DIMSOXD
 70
     0
  9
$DIMSAH
 70
     0
  9
$DIMBLK1
  1

  9
$DIMBLK2
  1

  9
$DIMSTYLE
  2
ISO-25
  9
$DIMCLRD
 70
     0
  9
$DIMCLRE
 70
     0
  9
$DIMCLRT
 70
     0
  9
$DIMTFAC
 40
1.0
  9
$DIMGAP
 40
1.524
  9
$DIMJUST
 70
     0
  9
$DIMSD1
 70
     0
  9
$DIMSD2
 70
     0
  9
$DIMTOLJ
 70
     0
  9
$DIMTZIN
 70
     0
  9
$DIMALTZ
 70
     0
  9
$DIMALTTZ
 70
     0
  9
$DIMUPT
 70
     0
  9
$DIMDEC
 70
     1
  9
$DIMTDEC
 70
     3
  9
$DIMALTU
 70
     2
  9
$DIMALTTD
 70
     3
  9
$DIMTXSTY
  7
Standard
  9
$DIMAUNIT
 70
     0
  9
$DIMADEC
 70
     2
  9
$DIMALTRND
 40
0.0
  9
$DIMAZIN
 70
     0
  9
$DIMDSEP
 70
    44
  9
$DIMATFIT
 70
     3
  9
$DIMFRAC
 70
     0
  9
$DIMLDRBLK
  1

  9
$DIMLUNIT
 70
     2
  9
$DIMLWD
 70
    -2
  9
$DIMLWE
 70
    -2
  9
$DIMTMOVE
 70
     0
  9
$LUNITS
 70
     2
  9
$LUPREC
 70
     1
  9
$SKETCHINC
 40
1.0
  9
$FILLETRAD
 40
10.0
  9
$AUNITS
 70
     0
  9
$AUPREC
 70
     2
  9
$MENU
  1
.
  9
$ELEVATION
 40
0.0
  9
$PELEVATION
 40
0.0
  9
$THICKNESS
 40
0.0
  9
$LIMCHECK
 70
     0
  9
$CHAMFERA
 40
0.0
  9
$CHAMFERB
 40
0.0
  9
$CHAMFERC
 40
0.0
  9
$CHAMFERD
 40
0.0
  9
$SKPOLY
 70
     0
  9
$TDCREATE
 40
2457984.682578461
  9
$TDUCREATE
 40
2457984.307578461
  9
$TDUPDATE
 40
2457984.682580891
  9
$TDUUPDATE
 40
2457984.307580891
  9
$TDINDWG
 40
0.0000000116
  9
$TDUSRTIMER
 40
0.0000000116
  9
$USRTIMER
 70
     1
  9
$ANGBASE
 50
0.0
  9
$ANGDIR
 70
     0
  9
$PDMODE
 70
     0
  9
$PDSIZE
 40
-1.0
  9
$PLINEWID
 40
0.0
  9
$SPLFRAME
 70
     0
  9
$SPLINETYPE
 70
     6
  9
$SPLINESEGS
 70
     8
  9
$HANDSEED
  5
322
  9
$SURFTAB1
 70
     6
  9
$SURFTAB2
 70
     6
  9
$SURFTYPE
 70
     6
  9
$SURFU
 70
     6
  9
$SURFV
 70
     6
  9
$UCSBASE
  2

  9
$UCSNAME
  2

  9
$UCSORG
 10
0.0
 20
0.0
 30
0.0
  9
$UCSXDIR
 10
1.0
 20
0.0
 30
0.0
  9
$UCSYDIR
 10
0.0
 20
1.0
 30
0.0
  9
$UCSORTHOREF
  2

  9
$UCSORTHOVIEW
 70
     0
  9
$UCSORGTOP
 10
0.0
 20
0.0
 30
0.0
  9
$UCSORGBOTTOM
 10
0.0
 20
0.0
 30
0.0
  9
$UCSORGLEFT
 10
0.0
 20
0.0
 30
0.0
  9
$UCSORGRIGHT
 10
0.0
 20
0.0
 30
0.0
  9
$UCSORGFRONT
 10
0.0
 20
0.0
 30
0.0
  9
$UCSORGBACK
 10
0.0
 20
0.0
 30
0.0
  9
$PUCSBASE
  2

  9
$PUCSNAME
  2

  9
$PUCSORG
 10
0.0
 20
0.0
 30
0.0
  9
$PUCSXDIR
 10
1.0
 20
0.0
 30
0.0
  9
$PUCSYDIR
 10
0.0
 20
1.0
 30
0.0
  9
$PUCSORTHOREF
  2

  9
$PUCSORTHOVIEW
 70
     0
  9
$PUCSORGTOP
 10
0.0
 20
0.0
 30
0.0
  9
$PUCSORGBOTTOM
 10
0.0
 20
0.0
 30
0.0
  9
$PUCSORGLEFT
 10
0.0
 20
0.0
 30
0.0
  9
$PUCSORGRIGHT
 10
0.0
 20
0.0
 30
0.0
  9
$PUCSORGFRONT
 10
0.0
 20
0.0
 30
0.0
  9
$PUCSORGBACK
 10
0.0
 20
0.0
 30
0.0
  9
$USERI1
 70
     0
  9
$USERI2
 70
     0
  9
$USERI3
 70
     0
  9
$USERI4
 70
     0
  9
$USERI5
 70
     0
  9
$USERR1
 40
0.0
  9
$USERR2
 40
0.0
  9
$USERR3
 40
0.0
  9
$USERR4
 40
0.0
  9
$USERR5
 40
0.0
  9
$WORLDVIEW
 70
     1
  9
$SHADEDGE
 70
     3
  9
$SHADEDIF
 70
    70
  9
$TILEMODE
 70
     1
  9
$MAXACTVP
 70
    64
  9
$PINSBASE
 10
0.0
 20
0.0
 30
0.0
  9
$PLIMCHECK
 70
     0
  9
$PEXTMIN
 10
1.0000000000E+20
 20
1.0000000000E+20
 30
1.0000000000E+20
  9
$PEXTMAX
 10
-1.0000000000E+20
 20
-1.0000000000E+20
 30
-1.0000000000E+20
  9
$PLIMMIN
 10
0.0
 20
0.0
  9
$PLIMMAX
 10
420.0
 20
297.0
  9
$UNITMODE
 70
     0
  9
$VISRETAIN
 70
     1
  9
$PLINEGEN
 70
     0
  9
$PSLTSCALE
 70
     1
  9
$TREEDEPTH
 70
  3020
  9
$CMLSTYLE
  2
Standard
  9
$CMLJUST
 70
     0
  9
$CMLSCALE
 40
20.0
  9
$PROXYGRAPHICS
 70
     1
  9
$MEASUREMENT
 70
     1
  9
$CELWEIGHT
370
    -1
  9
$ENDCAPS
280
     0
  9
$JOINSTYLE
280
     0
  9
$LWDISPLAY
290
     1
  9
$INSUNITS
 70
     4
  9
$HYPERLINKBASE
  1

  9
$STYLESHEET
  1

  9
$XEDIT
290
     1
  9
$CEPSNTYPE
380
     0
  9
$PSTYLEMODE
290
     1
  9
$FINGERPRINTGUID
  2
{7FCA8E10-05A0-47D7-9AA9-43BFE03BA785}
  9
$VERSIONGUID
  2
{FAEB1C32-E019-11D5-929B-00C0DF256EC4}
  9
$EXTNAMES
290
     1
  9
$PSVPSCALE
 40
0.0
  9
$OLESTARTUP
290
     0
  0
ENDSEC
  0
SECTION
  2
CLASSES
  0
CLASS
  1
ACDBDICTIONARYWDFLT
  2
AcDbDictionaryWithDefault
  3
ObjectDBX Classes
 90
        0
280
     0
281
     0
  0
CLASS
  1
VISUALSTYLE
  2
AcDbVisualStyle
  3
ObjectDBX Classes
 90
     4095
280
     0
281
     0
  0
CLASS
  1
MATERIAL
  2
AcDbMaterial
  3
ObjectDBX Classes
 90
     1153
280
     0
281
     0
  0
CLASS
  1
SCALE
  2
AcDbScale
  3
ObjectDBX Classes
 90
     1153
280
     0
281
     0
  0
CLASS
  1
TABLESTYLE
  2
AcDbTableStyle
  3
ObjectDBX Classes
 90
     4095
280
     0
281
     0
  0
CLASS
  1
MLEADERSTYLE
  2
AcDbMLeaderStyle
  3
ACDB_MLEADERSTYLE_CLASS
 90
     4095
280
     0
281
     0
  0
CLASS
  1
SUN
  2
AcDbSun
  3
SCENEOE
 90
     1153
280
     0
281
     0
  0
CLASS
  1
ACDBPLACEHOLDER
  2
AcDbPlaceHolder
  3
ObjectDBX Classes
 90
        0
280
     0
281
     0
  0
CLASS
  1
LAYOUT
  2
AcDbLayout
  3
ObjectDBX Classes
 90
        0
280
     0
281
     0
  0
ENDSEC
  0
SECTION
  2
TABLES
  0
TABLE
  2
VPORT
  5
8
330
0
100
AcDbSymbolTable
 70
     1
  0
VPORT
  5
29
330
8
100
AcDbSymbolTableRecord
100
AcDbViewportTableRecord
  2
*Active
 70
     0
 10
0.0
 20
0.0
 11
1.0
 21
1.0
 12
105.0
 22
148.5
 13
0.0
 23
0.0
 14
10.0
 24
10.0
 15
10.0
 25
10.0
 16
0.0
 26
0.0
 36
1.0
 17
0.0
 27
0.0
 37
0.0
 40
297.0
 41
0.7070707071
 42
50.0
 43
0.0
 44
0.0
 50
0.0
 51
0.0
 71
     0
 72
  2000
 73
     1
 74
     3
 75
     0
 76
     0
 77
     0
 78
     0
281
     0
 65
     1
110
0.0
120
0.0
130
0.0
111
1.0
121
0.0
131
0.0
112
0.0
122
1.0
132
0.0
 79
     0
146
0.0
  0
ENDTAB
  0
TABLE
  2
LTYPE
  5
5
330
0
100
AcDbSymbolTable
 70
     6
  0
LTYPE
  5
14
330
5
100
AcDbSymbolTableRecord
100
AcDbLinetypeTableRecord
  2
ByBlock
 70
     0
  3

 72
    65
 73
     0
 40
0.0
  0
LTYPE
  5
15
330
5
100
AcDbSymbolTableRecord
100
AcDbLinetypeTableRecord
  2
ByLayer
 70
     0
  3

 72
    65
 73
     0
 40
0.0
  0
LTYPE
  5
16
330
5
100
AcDbSymbolTableRecord
100
AcDbLinetypeTableRecord
  2
Continuous
 70
     0
  3
Solid line
 72
    65
 73
     0
 40
0.0
  0
LTYPE
  5
6E
330
5
100
AcDbSymbolTableRecord
100
AcDbLinetypeTableRecord
  2
HIDDEN
 70
     0
  3
Hidden __ __ __ __ __ __ __ __ __ __ __ __ __ __
 72
    65
 73
     2
 40
1.905
 49
1.27
 74
     0
 49
-0.635
 74
     0
  0
LTYPE
  5
6F
330
5
100
AcDbSymbolTableRecord
100
AcDbLinetypeTableRecord
  2
PHANTOM
 70
     0
  3
Phantom ______  __  __  ______  __  __  ______
 72
    65
 73
     6
 40
12.7
 49
6.35
 74
     0
 49
-1.27
 74
     0
 49
1.27
 74
     0
 49
-1.27
 74
     0
 49
1.27
 74
     0
 49
-1.27
 74
     0
  0
LTYPE
  5
70
330
5
100
AcDbSymbolTableRecord
100
AcDbLinetypeTableRecord
  2
CENTER
 70
     0
  3
Center ____ _ ____ _ ____ _ ____ _ ____ _ ____
 72
    65
 73
     4
 40
10.16
 49
6.35
 74
     0
 49
-1.27
 74
     0
 49
1.27
 74
     0
 49
-1.27
 74
     0
  0
LTYPE
  5
71
330
5
100
AcDbSymbolTableRecord
100
AcDbLinetypeTableRecord
  2
CENTERX2
 70
     0
  3
Center (2x) ________  __  ________  __  _____
 72
    65
 73
     4
 40
20.32
 49
12.7
 74
     0
 49
-2.54
 74
     0
 49
2.54
 74
     0
 49
-2.54
 74
     0
  0
LTYPE
  5
72
330
5
100
AcDbSymbolTableRecord
100
AcDbLinetypeTableRecord
  2
DOT2
 70
     0
  3
Dot (.5x) ........................................
 72
    65
 73
     2
 40
0.635
 49
0.0
 74
     0
 49
-0.635
 74
     0
  0
ENDTAB
  0
TABLE
  2
LAYER
  5
2
330
0
100
AcDbSymbolTable
 70
     1
  0
LAYER
  5
10
330
2
100
AcDbSymbolTableRecord
100
AcDbLayerTableRecord
  2
0
 70
     0
 62
     7
  6
Continuous
370
    -3
390
F
  0
ENDTAB
  0
TABLE
  2
STYLE
  5
3
330
0
100
AcDbSymbolTable
 70
     2
  0
STYLE
  5
11
330
3
100
AcDbSymbolTableRecord
100
AcDbTextStyleTableRecord
  2
Standard
 70
     0
 40
0.0
 41
1.0
 50
0.0
 71
     0
 42
3.5
  3
txt
  4
bigfont
  0
STYLE
  5
7B
330
3
100
AcDbSymbolTableRecord
100
AcDbTextStyleTableRecord
  2
SLDTEXTSTYLE0
 70
     0
 40
0.0
 41
0.7
 50
0.0
 71
     0
 42
3.5
  3
TXT
  4
bigfont
  0
ENDTAB
  0
TABLE
  2
VIEW
  5
6
330
0
100
AcDbSymbolTable
 70
     0
  0
ENDTAB
  0
TABLE
  2
UCS
  5
7
330
0
100
AcDbSymbolTable
 70
     0
  0
ENDTAB
  0
TABLE
  2
APPID
  5
9
330
0
100
AcDbSymbolTable
 70
     1
  0
APPID
  5
12
330
9
100
AcDbSymbolTableRecord
100
AcDbRegAppTableRecord
  2
ACAD
 70
     0
  0
ENDTAB
  0
TABLE
  2
DIMSTYLE
  5
A
330
0
100
AcDbSymbolTable
 70
     6
100
AcDbDimStyleTable
  0
DIMSTYLE
105
27
330
A
100
AcDbSymbolTableRecord
100
AcDbDimStyleTableRecord
  2
ISO-25
 70
     0
 41
2.5
 42
0.625
 43
3.75
 44
1.25
 73
     0
 74
     0
 77
     1
 78
     8
140
2.5
141
2.5
143
0.0393700787
147
0.625
171
     3
172
     1
178
     0
271
     2
272
     2
274
     3
278
    44
283
     0
284
     8
340
11
  0
DIMSTYLE
105
10F
102
{ACAD_REACTORS
330
10E
330
131
330
167
330
30A
330
316
102
}
330
A
100
AcDbSymbolTableRecord
100
AcDbDimStyleTableRecord
  2
SLDDIMSTYLE0
 70
     0
 41
3.0
 44
0.0
 45
0.000000001
 73
     0
 74
     0
 77
     3
 78
    12
 79
     3
140
3.5
147
0.875
172
     1
173
     1
178
     0
271
     1
272
     3
276
     2
284
    12
289
     0
340
7B
  0
DIMSTYLE
105
11D
102
{ACAD_REACTORS
330
11C
330
127
330
13D
330
147
330
151
330
15B
330
239
102
}
330
A
100
AcDbSymbolTableRecord
100
AcDbDimStyleTableRecord
  2
SLDDIMSTYLE1
 70
     0
 41
3.0
 44
0.0
 45
0.000000001
 73
     0
 74
     0
 77
     3
 78
    12
 79
     3
140
3.5
147
0.875
173
     1
178
     0
271
     1
272
     3
276
     2
284
    12
340
7B
  0
DIMSTYLE
105
176
102
{ACAD_REACTORS
330
175
102
}
330
A
100
AcDbSymbolTableRecord
100
AcDbDimStyleTableRecord
  2
SLDDIMSTYLE2
 70
     0
 41
3.0
 44
0.0
 45
0.000000001
 78
    12
 79
     3
140
3.5
141
0.0
147
0.875
173
     1
178
     0
271
     1
272
     3
276
     2
284
    12
340
7B
  0
DIMSTYLE
105
187
330
A
100
AcDbSymbolTableRecord
100
AcDbDimStyleTableRecord
  2
SLDDIMSTYLE3
 70
     0
 41
3.0
 44
0.0
 45
0.000000001
146
3.0
147
0.0
173
     1
178
     0
271
     0
272
     0
276
     2
340
11
  0
DIMSTYLE
105
22D
102
{ACAD_REACTORS
330
22C
102
}
330
A
100
AcDbSymbolTableRecord
100
AcDbDimStyleTableRecord
  2
SLDDIMSTYLE4
 70
     0
 41
3.0
 44
0.0
 45
0.000000001
 73
     0
 74
     0
 77
     3
 78
    12
 79
     3
140
3.5
147
0.875
173
     1
178
     0
271
     0
272
     3
276
     2
284
    12
340
7B
  0
ENDTAB
  0
TABLE
  2
BLOCK_RECORD
  5
1
330
0
100
AcDbSymbolTable
 70
    23
  0
BLOCK_RECORD
  5
1F
330
1
100
AcDbSymbolTableRecord
100
AcDbBlockTableRecord
  2
*Model_Space
340
22
  0
BLOCK_RECORD
  5
1B
330
1
100
AcDbSymbolTableRecord
100
AcDbBlockTableRecord
  2
*Paper_Space
340
1E
  0
BLOCK_RECORD
  5
23
330
1
100
AcDbSymbolTableRecord
100
AcDbBlockTableRecord
  2
*Paper_Space0
340
26
  0
BLOCK_RECORD
  5
110
330
1
100
AcDbSymbolTableRecord
100
AcDbBlockTableRecord
  2
_D
340
0
  0
BLOCK_RECORD
  5
11E
330
1
100
AcDbSymbolTableRecord
100
AcDbBlockTableRecord
  2
_D_1
340
0
  0
BLOCK_RECORD
  5
128
330
1
100
AcDbSymbolTableRecord
100
AcDbBlockTableRecord
  2
_D_2
340
0
  0
BLOCK_RECORD
  5
132
330
1
100
AcDbSymbolTableRecord
100
AcDbBlockTableRecord
  2
_D_3
340
0
  0
BLOCK_RECORD
  5
13E
330
1
100
AcDbSymbolTableRecord
100
AcDbBlockTableRecord
  2
_D_4
340
0
  0
BLOCK_RECORD
  5
148
330
1
100
AcDbSymbolTableRecord
100
AcDbBlockTableRecord
  2
_D_5
340
0
  0
BLOCK_RECORD
  5
152
330
1
100
AcDbSymbolTableRecord
100
AcDbBlockTableRecord
  2
_D_6
340
0
  0
BLOCK_RECORD
  5
15C
330
1
100
AcDbSymbolTableRecord
100
AcDbBlockTableRecord
  2
_D_7
340
0
  0
BLOCK_RECORD
  5
168
330
1
100
AcDbSymbolTableRecord
100
AcDbBlockTableRecord
  2
_D_8
340
0
  0
BLOCK_RECORD
  5
177
330
1
100
AcDbSymbolTableRecord
100
AcDbBlockTableRecord
  2
_D_9
340
0
  0
BLOCK_RECORD
  5
181
330
1
100
AcDbSymbolTableRecord
100
AcDbBlockTableRecord
  2
SW_NOTE_0
340
0
102
{BLKREFS
331
186
102
}
  0
BLOCK_RECORD
  5
189
330
1
100
AcDbSymbolTableRecord
100
AcDbBlockTableRecord
  2
SW_NOTE_1
340
0
102
{BLKREFS
331
18E
102
}
  0
BLOCK_RECORD
  5
190
330
1
100
AcDbSymbolTableRecord
100
AcDbBlockTableRecord
  2
SW_CENTERMARKSYMBOL_0
340
0
102
{BLKREFS
331
19B
102
}
  0
BLOCK_RECORD
  5
19C
330
1
100
AcDbSymbolTableRecord
100
AcDbBlockTableRecord
  2
SW_CENTERMARKSYMBOL_1
340
0
102
{BLKREFS
331
1A7
102
}
  0
BLOCK_RECORD
  5
1A8
330
1
100
AcDbSymbolTableRecord
100
AcDbBlockTableRecord
  2
SW_CENTERMARKSYMBOL_2
340
0
102
{BLKREFS
331
1B3
102
}
  0
BLOCK_RECORD
  5
1B4
330
1
100
AcDbSymbolTableRecord
100
AcDbBlockTableRecord
  2
SW_CENTERMARKSYMBOL_3
340
0
102
{BLKREFS
331
1BF
102
}
  0
BLOCK_RECORD
  5
1C0
330
1
100
AcDbSymbolTableRecord
100
AcDbBlockTableRecord
  2
SW_CENTERMARKSYMBOL_4
340
0
102
{BLKREFS
331
1CB
102
}
  0
BLOCK_RECORD
  5
22E
330
1
100
AcDbSymbolTableRecord
100
AcDbBlockTableRecord
  2
_D_10
340
0
  0
BLOCK_RECORD
  5
23A
330
1
100
AcDbSymbolTableRecord
100
AcDbBlockTableRecord
  2
_D_11
340
0
  0
BLOCK_RECORD
  5
245
330
1
100
AcDbSymbolTableRecord
100
AcDbBlockTableRecord
  2
SW_CENTERMARKSYMBOL_5
340
0
102
{BLKREFS
331
250
102
}
  0
BLOCK_RECORD
  5
30B
330
1
100
AcDbSymbolTableRecord
100
AcDbBlockTableRecord
  2
_D_12
340
0
  0
BLOCK_RECORD
  5
317
330
1
100
AcDbSymbolTableRecord
100
AcDbBlockTableRecord
  2
_D_13
340
0
  0
ENDTAB
  0
ENDSEC
  0
SECTION
  2
BLOCKS
  0
BLOCK
  5
20
330
1F
100
AcDbEntity
  8
0
100
AcDbBlockBegin
  2
*Model_Space
 70
     0
 10
0.0
 20
0.0
 30
0.0
  3
*Model_Space
  1

  0
ENDBLK
  5
21
330
1F
100
AcDbEntity
  8
0
100
AcDbBlockEnd
  0
BLOCK
  5
1C
330
1B
100
AcDbEntity
 67
     1
  8
0
100
AcDbBlockBegin
  2
*Paper_Space
 70
     0
 10
0.0
 20
0.0
 30
0.0
  3
*Paper_Space
  1

  0
ENDBLK
  5
1D
330
1B
100
AcDbEntity
 67
     1
  8
0
100
AcDbBlockEnd
  0
BLOCK
  5
24
330
23
100
AcDbEntity
  8
0
100
AcDbBlockBegin
  2
*Paper_Space0
 70
     0
 10
0.0
 20
0.0
 30
0.0
  3
*Paper_Space0
  1

  0
ENDBLK
  5
25
330
23
100
AcDbEntity
  8
0
100
AcDbBlockEnd
  0
BLOCK
  5
111
330
110
100
AcDbEntity
  8
0
100
AcDbBlockBegin
  2
_D
 70
     0
 10
0.0
 20
0.0
 30
0.0
  3
_D
  1

  0
SOLID
  5
113
330
110
100
AcDbEntity
  8
0
  6
Continuous
 62
     7
370
     0
100
AcDbTrace
 10
91.117182234
 20
127.8580625799
 30
0.0
 11
94.117182234
 21
127.1080625799
 31
0.0
 12
94.117182234
 22
128.6080625799
 32
0.0
 13
94.117182234
 23
128.6080625799
 33
0.0
  0
SOLID
  5
114
330
110
100
AcDbEntity
  8
0
  6
Continuous
 62
     7
370
     0
100
AcDbTrace
 10
79.117182234
 20
127.8580625799
 30
0.0
 11
76.117182234
 21
128.6080625799
 31
0.0
 12
76.117182234
 22
127.1080625799
 32
0.0
 13
76.117182234
 23
127.1080625799
 33
0.0
  0
LINE
  5
115
330
110
100
AcDbEntity
  8
0
  6
Continuous
 62
     7
370
     0
100
AcDbLine
 10
91.117182234
 20
147.3580625799
 30
0.0
 11
91.117182234
 21
126.8580625799
 31
0.0
  0
LINE
  5
116
330
110
100
AcDbEntity
  8
0
  6
Continuous
 62
     7
370
     0
100
AcDbLine
 10
79.117182234
 20
147.3580625799
 30
0.0
 11
79.117182234
 21
126.8580625799
 31
0.0
  0
LINE
  5
117
330
110
100
AcDbEntity
  8
0
  6
Continuous
 62
     7
370
     0
100
AcDbLine
 10
91.117182234
 20
127.8580625799
 30
0.0
 11
96.117182234
 21
127.8580625799
 31
0.0
  0
LINE
  5
118
330
110
100
AcDbEntity
  8
0
  6
Continuous
 62
     7
370
     0
100
AcDbLine
 10
91.117182234
 20
127.8580625799
 30
0.0
 11
79.117182234
 21
127.8580625799
 31
0.0
  0
LINE
  5
119
330
110
100
AcDbEntity
  8
0
  6
Continuous
 62
     7
370
     0
100
AcDbLine
 10
79.117182234
 20
127.8580625799
 30
0.0
 11
74.117182234
 21
127.8580625799
 31
0.0
  0
MTEXT
  5
11A
330
110
100
AcDbEntity
  8
0
  6
Continuous
 62
     7
370
     0
100
AcDbMText
 10
81.1454113626
 20
132.3697999019
 30
0.0
 40
3.5
 41
0.0
 71
     1
 72
     1
  1
%%c
  7
SLDTEXTSTYLE0
 73
     1
 44
1.0
  0
MTEXT
  5
11B
330
110
100
AcDbEntity
  8
0
  6
Continuous
 62
     7
370
     0
100
AcDbMText
 10
85.0153418776
 20
132.3697999019
 30
0.0
 40
3.5
 41
0.0
 71
     1
 72
     1
  1
12
  7
SLDTEXTSTYLE0
 73
     1
 44
1.0
  0
ENDBLK
  5
112
330
110
100
AcDbEntity
  8
0
100
AcDbBlockEnd
  0
BLOCK
  5
11F
330
11E
100
AcDbEntity
  8
0
100
AcDbBlockBegin
  2
_D_1
 70
     0
 10
0.0
 20
0.0
 30
0.0
  3
_D_1
  1

  0
SOLID
  5
121
330
11E
100
AcDbEntity
  8
0
  6
Continuous
 62
     7
370
     0
100
AcDbTrace
 10
77.117182234
 20
121.8580625799
 30
0.0
 11
80.117182234
 21
121.1080625799
 31
0.0
 12
80.117182234
 22
122.6080625799
 32
0.0
 13
80.117182234
 23
122.6080625799
 33
0.0
  0
SOLID
  5
122
330
11E
100
AcDbEntity
  8
0
  6
Continuous
 62
     7
370
     0
100
AcDbTrace
 10
93.117182234
 20
121.8580625799
 30
0.0
 11
90.117182234
 21
122.6080625799
 31
0.0
 12
90.117182234
 22
121.1080625799
 32
0.0
 13
90.117182234
 23
121.1080625799
 33
0.0
  0
LINE
  5
123
330
11E
100
AcDbEntity
  8
0
  6
Continuous
 62
     7
370
     0
100
AcDbLine
 10
77.117182234
 20
166.8580625799
 30
0.0
 11
77.117182234
 21
120.8580625799
 31
0.0
  0
LINE
  5
124
330
11E
100
AcDbEntity
  8
0
  6
Continuous
 62
     7
370
     0
100
AcDbLine
 10
93.117182234
 20
166.8580625799
 30
0.0
 11
93.117182234
 21
120.8580625799
 31
0.0
  0
LINE
  5
125
330
11E
100
AcDbEntity
  8
0
  6
Continuous
 62
     7
370
     0
100
AcDbLine
 10
77.117182234
 20
121.8580625799
 30
0.0
 11
93.117182234
 21
121.8580625799
 31
0.0
  0
MTEXT
  5
126
330
11E
100
AcDbEntity
  8
0
  6
Continuous
 62
     7
370
     0
100
AcDbMText
 10
83.0803767365
 20
126.3697994363
 30
0.0
 40
3.5
 41
0.0
 71
     1
 72
     1
  1
16
  7
SLDTEXTSTYLE0
 73
     1
 44
1.0
  0
ENDBLK
  5
120
330
11E
100
AcDbEntity
  8
0
100
AcDbBlockEnd
  0
BLOCK
  5
129
330
128
100
AcDbEntity
  8
0
100
AcDbBlockBegin
  2
_D_2
 70
     0
 10
0.0
 20
0.0
 30
0.0
  3
_D_2
  1

  0
SOLID
  5
12B
330
128
100
AcDbEntity
  8
0
  6
Continuous
 62
     7
370
     0
100
AcDbTrace
 10
72.117182234
 20
115.8580625799
 30
0.0
 11
75.117182234
 21
115.1080625799
 31
0.0
 12
75.117182234
 22
116.6080625799
 32
0.0
 13
75.117182234
 23
116.6080625799
 33
0.0
  0
SOLID
  5
12C
330
128
100
AcDbEntity
  8
0
  6
Continuous
 62
     7
370
     0
100
AcDbTrace
 10
98.117182234
 20
115.8580625799
 30
0.0
 11
95.117182234
 21
116.6080625799
 31
0.0
 12
95.117182234
 22
115.1080625799
 32
0.0
 13
95.117182234
 23
115.1080625799
 33
0.0
  0
LINE
  5
12D
330
128
100
AcDbEntity
  8
0
  6
Continuous
 62
     7
370
     0
100
AcDbLine
 10
72.117182234
 20
162.8580625799
 30
0.0
 11
72.117182234
 21
114.8580625799
 31
0.0
  0
LINE
  5
12E
330
128
100
AcDbEntity
  8
0
  6
Continuous
 62
     7
370
     0
100
AcDbLine
 10
98.117182234
 20
162.8580625799
 30
0.0
 11
98.117182234
 21
114.8580625799
 31
0.0
  0
LINE
  5
12F
330
128
100
AcDbEntity
  8
0
  6
Continuous
 62
     7
370
     0
100
AcDbLine
 10
72.117182234
 20
115.8580625799
 30
0.0
 11
98.117182234
 21
115.8580625799
 31
0.0
  0
MTEXT
  5
130
330
128
100
AcDbEntity
  8
0
  6
Continuous
 62
     7
370
     0
100
AcDbMText
 10
83.0803767365
 20
120.3697994363
 30
0.0
 40
3.5
 41
0.0
 71
     1
 72
     1
  1
26
  7
SLDTEXTSTYLE0
 73
     1
 44
1.0
  0
ENDBLK
  5
12A
330
128
100
AcDbEntity
  8
0
100
AcDbBlockEnd
  0
BLOCK
  5
133
330
132
100
AcDbEntity
  8
0
100
AcDbBlockBegin
  2
_D_3
 70
     0
 10
0.0
 20
0.0
 30
0.0
  3
_D_3
  1

  0
SOLID
  5
135
330
132
100
AcDbEntity
  8
0
  6
Continuous
 62
     7
370
     0
100
AcDbTrace
 10
111.75237355
 20
163.8580625799
 30
0.0
 11
111.00237355
 21
160.8580625799
 31
0.0
 12
112.50237355
 22
160.8580625799
 32
0.0
 13
112.50237355
 23
160.8580625799
 33
0.0
  0
SOLID
  5
136
330
132
100
AcDbEntity
  8
0
  6
Continuous
 62
     7
370
     0
100
AcDbTrace
 10
111.75237355
 20
167.8580625799
 30
0.0
 11
112.50237355
 21
170.8580625799
 31
0.0
 12
111.00237355
 22
170.8580625799
 32
0.0
 13
111.00237355
 23
170.8580625799
 33
0.0
  0
LINE
  5
137
330
132
100
AcDbEntity
  8
0
  6
Continuous
 62
     7
370
     0
100
AcDbLine
 10
99.117182234
 20
163.8580625799
 30
0.0
 11
112.75237355
 21
163.8580625799
 31
0.0
  0
LINE
  5
138
330
132
100
AcDbEntity
  8
0
  6
Continuous
 62
     7
370
     0
100
AcDbLine
 10
94.117182234
 20
167.8580625799
 30
0.0
 11
112.75237355
 21
167.8580625799
 31
0.0
  0
LINE
  5
139
330
132
100
AcDbEntity
  8
0
  6
Continuous
 62
     7
370
     0
100
AcDbLine
 10
111.75237355
 20
163.8580625799
 30
0.0
 11
111.75237355
 21
158.8580625799
 31
0.0
  0
LINE
  5
13A
330
132
100
AcDbEntity
  8
0
  6
Continuous
 62
     7
370
     0
100
AcDbLine
 10
111.75237355
 20
163.8580625799
 30
0.0
 11
111.75237355
 21
167.8580625799
 31
0.0
  0
LINE
  5
13B
330
132
100
AcDbEntity
  8
0
  6
Continuous
 62
     7
370
     0
100
AcDbLine
 10
111.75237355
 20
167.8580625799
 30
0.0
 11
111.75237355
 21
172.8580625799
 31
0.0
  0
MTEXT
  5
13C
330
132
100
AcDbEntity
  8
0
  6
Continuous
 62
     7
370
     0
100
AcDbMText
 10
107.2406366937
 20
164.8396598312
 30
0.0
 40
3.5
 41
0.0
 71
     1
 72
     1
  1
4
  7
SLDTEXTSTYLE0
 11
-1.059690869644414E-14
 21
1.0
 31
0.0
 73
     1
 44
1.0
  0
ENDBLK
  5
134
330
132
100
AcDbEntity
  8
0
100
AcDbBlockEnd
  0
BLOCK
  5
13F
330
13E
100
AcDbEntity
  8
0
100
AcDbBlockBegin
  2
_D_4
 70
     0
 10
0.0
 20
0.0
 30
0.0
  3
_D_4
  1

  0
SOLID
  5
141
330
13E
100
AcDbEntity
  8
0
  6
Continuous
 62
     7
370
     0
100
AcDbTrace
 10
111.75237355
 20
193.8580625799
 30
0.0
 11
111.00237355
 21
190.8580625799
 31
0.0
 12
112.50237355
 22
190.8580625799
 32
0.0
 13
112.50237355
 23
190.8580625799
 33
0.0
  0
SOLID
  5
142
330
13E
100
AcDbEntity
  8
0
  6
Continuous
 62
     7
370
     0
100
AcDbTrace
 10
111.75237355
 20
167.8580625799
 30
0.0
 11
112.50237355
 21
170.8580625799
 31
0.0
 12
111.00237355
 22
170.8580625799
 32
0.0
 13
111.00237355
 23
170.8580625799
 33
0.0
  0
LINE
  5
143
330
13E
100
AcDbEntity
  8
0
  6
Continuous
 62
     7
370
     0
100
AcDbLine
 10
86.117182234
 20
193.8580625799
 30
0.0
 11
112.75237355
 21
193.8580625799
 31
0.0
  0
LINE
  5
144
330
13E
100
AcDbEntity
  8
0
  6
Continuous
 62
     7
370
     0
100
AcDbLine
 10
94.117182234
 20
167.8580625799
 30
0.0
 11
112.75237355
 21
167.8580625799
 31
0.0
  0
LINE
  5
145
330
13E
100
AcDbEntity
  8
0
  6
Continuous
 62
     7
370
     0
100
AcDbLine
 10
111.75237355
 20
193.8580625799
 30
0.0
 11
111.75237355
 21
167.8580625799
 31
0.0
  0
MTEXT
  5
146
330
13E
100
AcDbEntity
  8
0
  6
Continuous
 62
     7
370
     0
100
AcDbMText
 10
107.2406366937
 20
178.8212570824
 30
0.0
 40
3.5
 41
0.0
 71
     1
 72
     1
  1
26
  7
SLDTEXTSTYLE0
 11
-7.044195017643634E-15
 21
1.0
 31
0.0
 73
     1
 44
1.0
  0
ENDBLK
  5
140
330
13E
100
AcDbEntity
  8
0
100
AcDbBlockEnd
  0
BLOCK
  5
149
330
148
100
AcDbEntity
  8
0
100
AcDbBlockBegin
  2
_D_5
 70
     0
 10
0.0
 20
0.0
 30
0.0
  3
_D_5
  1

  0
SOLID
  5
14B
330
148
100
AcDbEntity
  8
0
  6
Continuous
 62
     7
370
     0
100
AcDbTrace
 10
120.523691836
 20
208.0580625799
 30
0.0
 11
119.773691836
 21
205.0580625799
 31
0.0
 12
121.273691836
 22
205.0580625799
 32
0.0
 13
121.273691836
 23
205.0580625799
 33
0.0
  0
SOLID
  5
14C
330
148
100
AcDbEntity
  8
0
  6
Continuous
 62
     7
370
     0
100
AcDbTrace
 10
120.523691836
 20
163.8580625799
 30
0.0
 11
121.273691836
 21
166.8580625799
 31
0.0
 12
119.773691836
 22
166.8580625799
 32
0.0
 13
119.773691836
 23
166.8580625799
 33
0.0
  0
LINE
  5
14D
330
148
100
AcDbEntity
  8
0
  6
Continuous
 62
     7
370
     0
100
AcDbLine
 10
89.117182234
 20
208.0580625799
 30
0.0
 11
121.523691836
 21
208.0580625799
 31
0.0
  0
LINE
  5
14E
330
148
100
AcDbEntity
  8
0
  6
Continuous
 62
     7
370
     0
100
AcDbLine
 10
99.117182234
 20
163.8580625799
 30
0.0
 11
121.523691836
 21
163.8580625799
 31
0.0
  0
LINE
  5
14F
330
148
100
AcDbEntity
  8
0
  6
Continuous
 62
     7
370
     0
100
AcDbLine
 10
120.523691836
 20
208.0580625799
 30
0.0
 11
120.523691836
 21
163.8580625799
 31
0.0
  0
MTEXT
  5
150
330
148
100
AcDbEntity
  8
0
  6
Continuous
 62
     7
370
     0
100
AcDbMText
 10
116.0119549796
 20
181.8844515849
 30
0.0
 40
3.5
 41
0.0
 71
     1
 72
     1
  1
44.2
  7
SLDTEXTSTYLE0
 11
-1.770233605404514E-14
 21
1.0
 31
0.0
 73
     1
 44
1.0
  0
ENDBLK
  5
14A
330
148
100
AcDbEntity
  8
0
100
AcDbBlockEnd
  0
BLOCK
  5
153
330
152
100
AcDbEntity
  8
0
100
AcDbBlockBegin
  2
_D_6
 70
     0
 10
0.0
 20
0.0
 30
0.0
  3
_D_6
  1

  0
SOLID
  5
155
330
152
100
AcDbEntity
  8
0
  6
Continuous
 62
     7
370
     0
100
AcDbTrace
 10
120.523691836
 20
163.8580625799
 30
0.0
 11
119.773691836
 21
160.8580625799
 31
0.0
 12
121.273691836
 22
160.8580625799
 32
0.0
 13
121.273691836
 23
160.8580625799
 33
0.0
  0
SOLID
  5
156
330
152
100
AcDbEntity
  8
0
  6
Continuous
 62
     7
370
     0
100
AcDbTrace
 10
120.523691836
 20
147.8580625799
 30
0.0
 11
121.273691836
 21
150.8580625799
 31
0.0
 12
119.773691836
 22
150.8580625799
 32
0.0
 13
119.773691836
 23
150.8580625799
 33
0.0
  0
LINE
  5
157
330
152
100
AcDbEntity
  8
0
  6
Continuous
 62
     7
370
     0
100
AcDbLine
 10
99.117182234
 20
163.8580625799
 30
0.0
 11
121.523691836
 21
163.8580625799
 31
0.0
  0
LINE
  5
158
330
152
100
AcDbEntity
  8
0
  6
Continuous
 62
     7
370
     0
100
AcDbLine
 10
91.617182234
 20
147.8580625799
 30
0.0
 11
121.523691836
 21
147.8580625799
 31
0.0
  0
LINE
  5
159
330
152
100
AcDbEntity
  8
0
  6
Continuous
 62
     7
370
     0
100
AcDbLine
 10
120.523691836
 20
163.8580625799
 30
0.0
 11
120.523691836
 21
147.8580625799
 31
0.0
  0
MTEXT
  5
15A
330
152
100
AcDbEntity
  8
0
  6
Continuous
 62
     7
370
     0
100
AcDbMText
 10
116.0119549796
 20
153.8212570824
 30
0.0
 40
3.5
 41
0.0
 71
     1
 72
     1
  1
16
  7
SLDTEXTSTYLE0
 11
-1.770233605404514E-14
 21
1.0
 31
0.0
 73
     1
 44
1.0
  0
ENDBLK
  5
154
330
152
100
AcDbEntity
  8
0
100
AcDbBlockEnd
  0
BLOCK
  5
15D
330
15C
100
AcDbEntity
  8
0
100
AcDbBlockBegin
  2
_D_7
 70
     0
 10
0.0
 20
0.0
 30
0.0
  3
_D_7
  1

  0
ARC
  5
15F
330
15C
100
AcDbEntity
  8
0
  6
Continuous
 62
     7
370
     0
100
AcDbCircle
 10
126.3503121009
 20
189.4582533204
 30
0.0
 40
4.554435549315972
100
AcDbArc
 50
243.4349488229
 51
296.5650511771
  0
ARC
  5
160
330
15C
100
AcDbEntity
  8
0
  6
Continuous
 62
     7
370
     0
100
AcDbCircle
 10
126.3503121009
 20
187.4214480557
 30
0.0
 40
4.554435549315972
100
AcDbArc
 50
63.4349488229
 51
116.5650511771
  0
SOLID
  5
161
330
15C
100
AcDbEntity
  8
0
  6
Continuous
 62
     7
370
     0
100
AcDbTrace
 10
128.3871175984
 20
137.8580625799
 30
0.0
 11
129.1371175984
 21
140.8580625799
 31
0.0
 12
127.6371175984
 22
140.8580625799
 32
0.0
 13
127.6371175984
 23
140.8580625799
 33
0.0
  0
SOLID
  5
162
330
15C
100
AcDbEntity
  8
0
  6
Continuous
 62
     7
370
     0
100
AcDbTrace
 10
128.3871175984
 20
239.0216389126
 30
0.0
 11
127.6371175984
 21
236.0216389126
 31
0.0
 12
129.1371175984
 22
236.0216389126
 32
0.0
 13
129.1371175984
 23
236.0216389126
 33
0.0
  0
LINE
  5
163
330
15C
100
AcDbEntity
  8
0
  6
Continuous
 62
     7
370
     0
100
AcDbLine
 10
87.167182234
 20
137.8580625799
 30
0.0
 11
129.3871175984
 21
137.8580625799
 31
0.0
  0
LINE
  5
164
330
15C
100
AcDbEntity
  8
0
  6
Continuous
 62
     7
370
     0
100
AcDbLine
 10
93.4476490979
 20
239.0216389126
 30
0.0
 11
129.3871175984
 21
239.0216389126
 31
0.0
  0
LINE
  5
165
330
15C
100
AcDbEntity
  8
0
  6
Continuous
 62
     7
370
     0
100
AcDbLine
 10
128.3871175984
 20
137.8580625799
 30
0.0
 11
128.3871175984
 21
239.0216389126
 31
0.0
  0
MTEXT
  5
166
330
15C
100
AcDbEntity
  8
0
  6
Continuous
 62
     7
370
     0
100
AcDbMText
 10
123.8753807421
 20
185.3846423254
 30
0.0
 40
3.5
 41
0.0
 71
     1
 72
     1
  1
102
  7
SLDTEXTSTYLE0
 11
6.123233995736766E-17
 21
1.0
 31
0.0
 73
     1
 44
1.0
  0
ENDBLK
  5
15E
330
15C
100
AcDbEntity
  8
0
100
AcDbBlockEnd
  0
BLOCK
  5
169
330
168
100
AcDbEntity
  8
0
100
AcDbBlockBegin
  2
_D_8
 70
     0
 10
0.0
 20
0.0
 30
0.0
  3
_D_8
  1

  0
ARC
  5
16B
330
168
100
AcDbEntity
  8
0
  6
Continuous
 62
     7
370
     0
100
AcDbCircle
 10
87.1539876733
 20
251.0584444101
 30
0.0
 40
4.554435549315953
100
AcDbArc
 50
153.4349488229
 51
206.5650511771
  0
ARC
  5
16C
330
168
100
AcDbEntity
  8
0
  6
Continuous
 62
     7
370
     0
100
AcDbCircle
 10
83.0803766783
 20
251.0584444101
 30
0.0
 40
4.554435549315978
100
AcDbArc
 50
333.4349488229
 51
26.5650511771
  0
SOLID
  5
16D
330
168
100
AcDbEntity
  8
0
  6
Continuous
 62
     7
370
     0
100
AcDbTrace
 10
77.7867153701
 20
249.0216389126
 30
0.0
 11
74.7867153701
 21
249.7716389126
 31
0.0
 12
74.7867153701
 22
248.2716389126
 32
0.0
 13
74.7867153701
 23
248.2716389126
 33
0.0
  0
SOLID
  5
16E
330
168
100
AcDbEntity
  8
0
  6
Continuous
 62
     7
370
     0
100
AcDbTrace
 10
92.4476490979
 20
249.0216389126
 30
0.0
 11
95.4476490979
 21
248.2716389126
 31
0.0
 12
95.4476490979
 22
249.7716389126
 32
0.0
 13
95.4476490979
 23
249.7716389126
 33
0.0
  0
LINE
  5
16F
330
168
100
AcDbEntity
  8
0
  6
Continuous
 62
     7
370
     0
100
AcDbLine
 10
77.7867153701
 20
240.0216389126
 30
0.0
 11
77.7867153701
 21
250.0216389126
 31
0.0
  0
LINE
  5
170
330
168
100
AcDbEntity
  8
0
  6
Continuous
 62
     7
370
     0
100
AcDbLine
 10
92.4476490979
 20
240.0216389126
 30
0.0
 11
92.4476490979
 21
250.0216389126
 31
0.0
  0
LINE
  5
171
330
168
100
AcDbEntity
  8
0
  6
Continuous
 62
     7
370
     0
100
AcDbLine
 10
77.7867153701
 20
249.0216389126
 30
0.0
 11
72.7867153701
 21
249.0216389126
 31
0.0
  0
LINE
  5
172
330
168
100
AcDbEntity
  8
0
  6
Continuous
 62
     7
370
     0
100
AcDbLine
 10
77.7867153701
 20
249.0216389126
 30
0.0
 11
92.4476490979
 21
249.0216389126
 31
0.0
  0
LINE
  5
173
330
168
100
AcDbEntity
  8
0
  6
Continuous
 62
     7
370
     0
100
AcDbLine
 10
92.4476490979
 20
249.0216389126
 30
0.0
 11
97.4476490979
 21
249.0216389126
 31
0.0
  0
MTEXT
  5
174
330
168
100
AcDbEntity
  8
0
  6
Continuous
 62
     7
370
     0
100
AcDbMText
 10
83.0803766783
 20
253.533375769
 30
0.0
 40
3.5
 41
0.0
 71
     1
 72
     1
  1
14
  7
SLDTEXTSTYLE0
 73
     1
 44
1.0
  0
ENDBLK
  5
16A
330
168
100
AcDbEntity
  8
0
100
AcDbBlockEnd
  0
BLOCK
  5
178
330
177
100
AcDbEntity
  8
0
100
AcDbBlockBegin
  2
_D_9
 70
     0
 10
0.0
 20
0.0
 30
0.0
  3
_D_9
  1

  0
SOLID
  5
17A
330
177
100
AcDbEntity
  8
0
  6
Continuous
 62
     7
370
     0
100
AcDbTrace
 10
75.4556449669
 20
168.9712983636
 30
0.0
 11
73.3808024853
 21
171.2642285144
 31
0.0
 12
72.5458756475
 22
170.0180755641
 32
0.0
 13
72.5458756475
 23
170.0180755641
 33
0.0
  0
LINE
  5
17B
330
177
100
AcDbEntity
  8
0
  6
Continuous
 62
     7
370
     0
100
AcDbLine
 10
75.4556449669
 20
168.9712983636
 30
0.0
 11
56.1823826216
 21
181.8844515849
 31
0.0
  0
LINE
  5
17C
330
177
100
AcDbEntity
  8
0
  6
Continuous
 62
     7
370
     0
100
AcDbLine
 10
56.1823826216
 20
181.8844515849
 30
0.0
 11
22.0059983872
 21
181.8844515849
 31
0.0
  0
MTEXT
  5
17D
330
177
100
AcDbEntity
  8
0
  6
Continuous
 62
     7
370
     0
100
AcDbMText
 10
28.1164132498
 20
190.4697994363
 30
0.0
 40
3.5
 41
0.0
 71
     1
 72
     1
  1
3-
  7
SLDTEXTSTYLE0
 73
     1
 44
1.0
  0
MTEXT
  5
17E
330
177
100
AcDbEntity
  8
0
  6
Continuous
 62
     7
370
     0
100
AcDbMText
 10
32.1900242448
 20
190.4697994363
 30
0.0
 40
3.5
 41
0.0
 71
     1
 72
     1
  1
M4
  7
SLDTEXTSTYLE0
 73
     1
 44
1.0
  0
MTEXT
  5
17F
330
177
100
AcDbEntity
  8
0
  6
Continuous
 62
     7
370
     0
100
AcDbMText
 10
36.2636352397
 20
190.4697994363
 30
0.0
 40
3.5
 41
0.0
 71
     1
 72
     1
  1
取付穴
  7
SLDTEXTSTYLE0
 73
     1
 44
1.0
  0
MTEXT
  5
180
330
177
100
AcDbEntity
  8
0
  6
Continuous
 62
     7
370
     0
100
AcDbMText
 10
22.0059983872
 20
186.3961884413
 30
0.0
 40
3.5
 41
0.0
 71
     1
 72
     1
  1
(両側口元面取有)
  7
SLDTEXTSTYLE0
 73
     1
 44
1.0
  0
ENDBLK
  5
179
330
177
100
AcDbEntity
  8
0
100
AcDbBlockEnd
  0
BLOCK
  5
182
330
181
100
AcDbEntity
  8
0
100
AcDbBlockBegin
  2
SW_NOTE_0
 70
     0
 10
0.0
 20
0.0
 30
0.0
  3
SW_NOTE_0
  1

  0
LINE
  5
184
330
181
100
AcDbEntity
  8
0
  6
Continuous
 62
     0
370
     0
100
AcDbLine
 10
-8.2682873652
 20
0.0
 30
0.0
 11
0.0
 21
0.0
 31
0.0
  0
MTEXT
  5
185
330
181
100
AcDbEntity
  8
0
  6
Continuous
 62
     0
370
     0
100
AcDbMText
 10
-8.7577271534
 20
4.5625321813
 30
0.0
 40
3.5
 41
0.0
 71
     1
 72
     1
  1
BF-5
  7
SLDTEXTSTYLE0
 73
     1
 44
1.0
  0
ENDBLK
  5
183
330
181
100
AcDbEntity
  8
0
100
AcDbBlockEnd
  0
BLOCK
  5
18A
330
189
100
AcDbEntity
  8
0
100
AcDbBlockBegin
  2
SW_NOTE_1
 70
     0
 10
0.0
 20
0.0
 30
0.0
  3
SW_NOTE_1
  1

  0
LINE
  5
18C
330
189
100
AcDbEntity
  8
0
  6
Continuous
 62
     0
370
     0
100
AcDbLine
 10
-28.6363409431
 20
0.0
 30
0.0
 11
0.0
 21
0.0
 31
0.0
  0
MTEXT
  5
18D
330
189
100
AcDbEntity
  8
0
  6
Continuous
 62
     0
370
     0
100
AcDbMText
 10
-29.0192506195
 20
4.5716090226
 30
0.0
 40
3.5
 41
0.0
 71
     1
 72
     1
  1
4-M3取付ボルト
  7
SLDTEXTSTYLE0
 73
     1
 44
1.0
  0
ENDBLK
  5
18B
330
189
100
AcDbEntity
  8
0
100
AcDbBlockEnd
  0
BLOCK
  5
191
330
190
100
AcDbEntity
  8
0
100
AcDbBlockBegin
  2
SW_CENTERMARKSYMBOL_0
 70
     0
 10
0.0
 20
0.0
 30
0.0
  3
SW_CENTERMARKSYMBOL_0
  1

  0
LINE
  5
193
330
190
100
AcDbEntity
  8
0
  6
Continuous
 62
     0
370
     0
100
AcDbLine
 10
0.0
 20
0.0
 30
0.0
 11
0.0
 21
2.5
 31
0.0
  0
LINE
  5
194
330
190
100
AcDbEntity
  8
0
  6
Continuous
 62
     0
370
     0
100
AcDbLine
 10
0.0
 20
0.0
 30
0.0
 11
-2.5
 21
0.0
 31
0.0
  0
LINE
  5
195
330
190
100
AcDbEntity
  8
0
  6
Continuous
 62
     0
370
     0
100
AcDbLine
 10
0.0
 20
0.0
 30
0.0
 11
0.0
 21
-2.5
 31
0.0
  0
LINE
  5
196
330
190
100
AcDbEntity
  8
0
  6
Continuous
 62
     0
370
     0
100
AcDbLine
 10
0.0
 20
0.0
 30
0.0
 11
2.5
 21
0.0
 31
0.0
  0
LINE
  5
197
330
190
100
AcDbEntity
  8
0
  6
Continuous
 62
     0
370
     0
100
AcDbLine
 10
0.0
 20
2.5
 30
0.0
 11
0.0
 21
4.75
 31
0.0
  0
LINE
  5
198
330
190
100
AcDbEntity
  8
0
  6
Continuous
 62
     0
370
     0
100
AcDbLine
 10
-2.5
 20
0.0
 30
0.0
 11
-4.75
 21
0.0
 31
0.0
  0
LINE
  5
199
330
190
100
AcDbEntity
  8
0
  6
Continuous
 62
     0
370
     0
100
AcDbLine
 10
0.0
 20
-2.5
 30
0.0
 11
0.0
 21
-4.75
 31
0.0
  0
LINE
  5
19A
330
190
100
AcDbEntity
  8
0
  6
Continuous
 62
     0
370
     0
100
AcDbLine
 10
2.5
 20
0.0
 30
0.0
 11
4.75
 21
0.0
 31
0.0
  0
ENDBLK
  5
192
330
190
100
AcDbEntity
  8
0
100
AcDbBlockEnd
  0
BLOCK
  5
19D
330
19C
100
AcDbEntity
  8
0
100
AcDbBlockBegin
  2
SW_CENTERMARKSYMBOL_1
 70
     0
 10
0.0
 20
0.0
 30
0.0
  3
SW_CENTERMARKSYMBOL_1
  1

  0
LINE
  5
19F
330
19C
100
AcDbEntity
  8
0
  6
Continuous
 62
     0
370
     0
100
AcDbLine
 10
0.0
 20
0.0
 30
0.0
 11
0.0
 21
2.5
 31
0.0
  0
LINE
  5
1A0
330
19C
100
AcDbEntity
  8
0
  6
Continuous
 62
     0
370
     0
100
AcDbLine
 10
0.0
 20
0.0
 30
0.0
 11
-2.5
 21
0.0
 31
0.0
  0
LINE
  5
1A1
330
19C
100
AcDbEntity
  8
0
  6
Continuous
 62
     0
370
     0
100
AcDbLine
 10
0.0
 20
0.0
 30
0.0
 11
0.0
 21
-2.5
 31
0.0
  0
LINE
  5
1A2
330
19C
100
AcDbEntity
  8
0
  6
Continuous
 62
     0
370
     0
100
AcDbLine
 10
0.0
 20
0.0
 30
0.0
 11
2.5
 21
0.0
 31
0.0
  0
LINE
  5
1A3
330
19C
100
AcDbEntity
  8
0
  6
Continuous
 62
     0
370
     0
100
AcDbLine
 10
0.0
 20
2.5
 30
0.0
 11
0.0
 21
4.3
 31
0.0
  0
LINE
  5
1A4
330
19C
100
AcDbEntity
  8
0
  6
Continuous
 62
     0
370
     0
100
AcDbLine
 10
-2.5
 20
0.0
 30
0.0
 11
-4.3
 21
0.0
 31
0.0
  0
LINE
  5
1A5
330
19C
100
AcDbEntity
  8
0
  6
Continuous
 62
     0
370
     0
100
AcDbLine
 10
0.0
 20
-2.5
 30
0.0
 11
0.0
 21
-4.3
 31
0.0
  0
LINE
  5
1A6
330
19C
100
AcDbEntity
  8
0
  6
Continuous
 62
     0
370
     0
100
AcDbLine
 10
2.5
 20
0.0
 30
0.0
 11
4.3
 21
0.0
 31
0.0
  0
ENDBLK
  5
19E
330
19C
100
AcDbEntity
  8
0
100
AcDbBlockEnd
  0
BLOCK
  5
1A9
330
1A8
100
AcDbEntity
  8
0
100
AcDbBlockBegin
  2
SW_CENTERMARKSYMBOL_2
 70
     0
 10
0.0
 20
0.0
 30
0.0
  3
SW_CENTERMARKSYMBOL_2
  1

  0
LINE
  5
1AB
330
1A8
100
AcDbEntity
  8
0
  6
Continuous
 62
     0
370
     0
100
AcDbLine
 10
0.0
 20
0.0
 30
0.0
 11
0.0
 21
2.5
 31
0.0
  0
LINE
  5
1AC
330
1A8
100
AcDbEntity
  8
0
  6
Continuous
 62
     0
370
     0
100
AcDbLine
 10
0.0
 20
0.0
 30
0.0
 11
-2.5
 21
0.0
 31
0.0
  0
LINE
  5
1AD
330
1A8
100
AcDbEntity
  8
0
  6
Continuous
 62
     0
370
     0
100
AcDbLine
 10
0.0
 20
0.0
 30
0.0
 11
0.0
 21
-2.5
 31
0.0
  0
LINE
  5
1AE
330
1A8
100
AcDbEntity
  8
0
  6
Continuous
 62
     0
370
     0
100
AcDbLine
 10
0.0
 20
0.0
 30
0.0
 11
2.5
 21
0.0
 31
0.0
  0
LINE
  5
1AF
330
1A8
100
AcDbEntity
  8
0
  6
Continuous
 62
     0
370
     0
100
AcDbLine
 10
0.0
 20
2.5
 30
0.0
 11
0.0
 21
4.3
 31
0.0
  0
LINE
  5
1B0
330
1A8
100
AcDbEntity
  8
0
  6
Continuous
 62
     0
370
     0
100
AcDbLine
 10
-2.5
 20
0.0
 30
0.0
 11
-4.3
 21
0.0
 31
0.0
  0
LINE
  5
1B1
330
1A8
100
AcDbEntity
  8
0
  6
Continuous
 62
     0
370
     0
100
AcDbLine
 10
0.0
 20
-2.5
 30
0.0
 11
0.0
 21
-4.3
 31
0.0
  0
LINE
  5
1B2
330
1A8
100
AcDbEntity
  8
0
  6
Continuous
 62
     0
370
     0
100
AcDbLine
 10
2.5
 20
0.0
 30
0.0
 11
4.3
 21
0.0
 31
0.0
  0
ENDBLK
  5
1AA
330
1A8
100
AcDbEntity
  8
0
100
AcDbBlockEnd
  0
BLOCK
  5
1B5
330
1B4
100
AcDbEntity
  8
0
100
AcDbBlockBegin
  2
SW_CENTERMARKSYMBOL_3
 70
     0
 10
0.0
 20
0.0
 30
0.0
  3
SW_CENTERMARKSYMBOL_3
  1

  0
LINE
  5
1B7
330
1B4
100
AcDbEntity
  8
0
  6
Continuous
 62
     0
370
     0
100
AcDbLine
 10
0.0
 20
0.0
 30
0.0
 11
0.0
 21
2.5
 31
0.0
  0
LINE
  5
1B8
330
1B4
100
AcDbEntity
  8
0
  6
Continuous
 62
     0
370
     0
100
AcDbLine
 10
0.0
 20
0.0
 30
0.0
 11
-2.5
 21
0.0
 31
0.0
  0
LINE
  5
1B9
330
1B4
100
AcDbEntity
  8
0
  6
Continuous
 62
     0
370
     0
100
AcDbLine
 10
0.0
 20
0.0
 30
0.0
 11
0.0
 21
-2.5
 31
0.0
  0
LINE
  5
1BA
330
1B4
100
AcDbEntity
  8
0
  6
Continuous
 62
     0
370
     0
100
AcDbLine
 10
0.0
 20
0.0
 30
0.0
 11
2.5
 21
0.0
 31
0.0
  0
LINE
  5
1BB
330
1B4
100
AcDbEntity
  8
0
  6
Continuous
 62
     0
370
     0
100
AcDbLine
 10
0.0
 20
2.5
 30
0.0
 11
0.0
 21
4.75
 31
0.0
  0
LINE
  5
1BC
330
1B4
100
AcDbEntity
  8
0
  6
Continuous
 62
     0
370
     0
100
AcDbLine
 10
-2.5
 20
0.0
 30
0.0
 11
-4.75
 21
0.0
 31
0.0
  0
LINE
  5
1BD
330
1B4
100
AcDbEntity
  8
0
  6
Continuous
 62
     0
370
     0
100
AcDbLine
 10
0.0
 20
-2.5
 30
0.0
 11
0.0
 21
-4.75
 31
0.0
  0
LINE
  5
1BE
330
1B4
100
AcDbEntity
  8
0
  6
Continuous
 62
     0
370
     0
100
AcDbLine
 10
2.5
 20
0.0
 30
0.0
 11
4.75
 21
0.0
 31
0.0
  0
ENDBLK
  5
1B6
330
1B4
100
AcDbEntity
  8
0
100
AcDbBlockEnd
  0
BLOCK
  5
1C1
330
1C0
100
AcDbEntity
  8
0
100
AcDbBlockBegin
  2
SW_CENTERMARKSYMBOL_4
 70
     0
 10
0.0
 20
0.0
 30
0.0
  3
SW_CENTERMARKSYMBOL_4
  1

  0
LINE
  5
1C3
330
1C0
100
AcDbEntity
  8
0
  6
Continuous
 62
     0
370
     0
100
AcDbLine
 10
0.0
 20
0.0
 30
0.0
 11
0.0
 21
2.5
 31
0.0
  0
LINE
  5
1C4
330
1C0
100
AcDbEntity
  8
0
  6
Continuous
 62
     0
370
     0
100
AcDbLine
 10
0.0
 20
0.0
 30
0.0
 11
-2.5
 21
0.0
 31
0.0
  0
LINE
  5
1C5
330
1C0
100
AcDbEntity
  8
0
  6
Continuous
 62
     0
370
     0
100
AcDbLine
 10
0.0
 20
0.0
 30
0.0
 11
0.0
 21
-2.5
 31
0.0
  0
LINE
  5
1C6
330
1C0
100
AcDbEntity
  8
0
  6
Continuous
 62
     0
370
     0
100
AcDbLine
 10
0.0
 20
0.0
 30
0.0
 11
2.5
 21
0.0
 31
0.0
  0
LINE
  5
1C7
330
1C0
100
AcDbEntity
  8
0
  6
Continuous
 62
     0
370
     0
100
AcDbLine
 10
0.0
 20
2.5
 30
0.0
 11
0.0
 21
4.75
 31
0.0
  0
LINE
  5
1C8
330
1C0
100
AcDbEntity
  8
0
  6
Continuous
 62
     0
370
     0
100
AcDbLine
 10
-2.5
 20
0.0
 30
0.0
 11
-4.75
 21
0.0
 31
0.0
  0
LINE
  5
1C9
330
1C0
100
AcDbEntity
  8
0
  6
Continuous
 62
     0
370
     0
100
AcDbLine
 10
0.0
 20
-2.5
 30
0.0
 11
0.0
 21
-4.75
 31
0.0
  0
LINE
  5
1CA
330
1C0
100
AcDbEntity
  8
0
  6
Continuous
 62
     0
370
     0
100
AcDbLine
 10
2.5
 20
0.0
 30
0.0
 11
4.75
 21
0.0
 31
0.0
  0
ENDBLK
  5
1C2
330
1C0
100
AcDbEntity
  8
0
100
AcDbBlockEnd
  0
BLOCK
  5
22F
330
22E
100
AcDbEntity
  8
0
100
AcDbBlockBegin
  2
_D_10
 70
     0
 10
0.0
 20
0.0
 30
0.0
  3
_D_10
  1

  0
ARC
  5
231
330
22E
100
AcDbEntity
  8
0
  6
Continuous
 62
     7
370
     0
100
AcDbCircle
 10
87.1539876733
 20
68.1270293781
 30
0.0
 40
4.554435549315966
100
AcDbArc
 50
153.4349488229
 51
206.5650511771
  0
ARC
  5
232
330
22E
100
AcDbEntity
  8
0
  6
Continuous
 62
     7
370
     0
100
AcDbCircle
 10
83.0803766783
 20
68.1270293781
 30
0.0
 40
4.554435549315966
100
AcDbArc
 50
333.4349488229
 51
26.5650511771
  0
SOLID
  5
233
330
22E
100
AcDbEntity
  8
0
  6
Continuous
 62
     7
370
     0
100
AcDbTrace
 10
104.523691836
 20
66.0902238806
 30
0.0
 11
101.523691836
 21
66.8402238806
 31
0.0
 12
101.523691836
 22
65.3402238806
 32
0.0
 13
101.523691836
 23
65.3402238806
 33
0.0
  0
SOLID
  5
234
330
22E
100
AcDbEntity
  8
0
  6
Continuous
 62
     7
370
     0
100
AcDbTrace
 10
65.710672632
 20
66.0902238806
 30
0.0
 11
68.710672632
 21
65.3402238806
 31
0.0
 12
68.710672632
 22
66.8402238806
 32
0.0
 13
68.710672632
 23
66.8402238806
 33
0.0
  0
LINE
  5
235
330
22E
100
AcDbEntity
  8
0
  6
Continuous
 62
     7
370
     0
100
AcDbLine
 10
104.523691836
 20
87.5902238806
 30
0.0
 11
104.523691836
 21
65.0902238806
 31
0.0
  0
LINE
  5
236
330
22E
100
AcDbEntity
  8
0
  6
Continuous
 62
     7
370
     0
100
AcDbLine
 10
65.710672632
 20
87.5902238806
 30
0.0
 11
65.710672632
 21
65.0902238806
 31
0.0
  0
LINE
  5
237
330
22E
100
AcDbEntity
  8
0
  6
Continuous
 62
     7
370
     0
100
AcDbLine
 10
104.523691836
 20
66.0902238806
 30
0.0
 11
65.710672632
 21
66.0902238806
 31
0.0
  0
MTEXT
  5
238
330
22E
100
AcDbEntity
  8
0
  6
Continuous
 62
     7
370
     0
100
AcDbMText
 10
83.0803766783
 20
70.601960737
 30
0.0
 40
3.5
 41
0.0
 71
     1
 72
     1
  1
39
  7
SLDTEXTSTYLE0
 73
     1
 44
1.0
  0
ENDBLK
  5
230
330
22E
100
AcDbEntity
  8
0
100
AcDbBlockEnd
  0
BLOCK
  5
23B
330
23A
100
AcDbEntity
  8
0
100
AcDbBlockBegin
  2
_D_11
 70
     0
 10
0.0
 20
0.0
 30
0.0
  3
_D_11
  1

  0
ARC
  5
23D
330
23A
100
AcDbEntity
  8
0
  6
Continuous
 62
     7
370
     0
100
AcDbCircle
 10
75.4139273748
 20
75.8082321963
 30
0.0
 40
4.554435549315966
100
AcDbArc
 50
153.4349488229
 51
206.5650511771
  0
ARC
  5
23E
330
23A
100
AcDbEntity
  8
0
  6
Continuous
 62
     7
370
     0
100
AcDbCircle
 10
75.4139273748
 20
75.8082321963
 30
0.0
 40
4.554435549315966
100
AcDbArc
 50
333.4349488229
 51
26.5650511771
  0
SOLID
  5
23F
330
23A
100
AcDbEntity
  8
0
  6
Continuous
 62
     7
370
     0
100
AcDbTrace
 10
65.710672632
 20
73.7714266988
 30
0.0
 11
68.710672632
 21
73.0214266988
 31
0.0
 12
68.710672632
 22
74.5214266988
 32
0.0
 13
68.710672632
 23
74.5214266988
 33
0.0
  0
SOLID
  5
240
330
23A
100
AcDbEntity
  8
0
  6
Continuous
 62
     7
370
     0
100
AcDbTrace
 10
85.117182234
 20
73.7714266988
 30
0.0
 11
82.117182234
 21
74.5214266988
 31
0.0
 12
82.117182234
 22
73.0214266988
 32
0.0
 13
82.117182234
 23
73.0214266988
 33
0.0
  0
LINE
  5
241
330
23A
100
AcDbEntity
  8
0
  6
Continuous
 62
     7
370
     0
100
AcDbLine
 10
65.710672632
 20
87.5902238806
 30
0.0
 11
65.710672632
 21
72.7714266988
 31
0.0
  0
LINE
  5
242
330
23A
100
AcDbEntity
  8
0
  6
Continuous
 62
     7
370
     0
100
AcDbLine
 10
85.117182234
 20
79.5902238806
 30
0.0
 11
85.117182234
 21
72.7714266988
 31
0.0
  0
LINE
  5
243
330
23A
100
AcDbEntity
  8
0
  6
Continuous
 62
     7
370
     0
100
AcDbLine
 10
65.710672632
 20
73.7714266988
 30
0.0
 11
85.117182234
 21
73.7714266988
 31
0.0
  0
MTEXT
  5
244
330
23A
100
AcDbEntity
  8
0
  6
Continuous
 62
     7
370
     0
100
AcDbMText
 10
71.3403163798
 20
78.2831635552
 30
0.0
 40
3.5
 41
0.0
 71
     1
 72
     1
  1
19.5
  7
SLDTEXTSTYLE0
 73
     1
 44
1.0
  0
ENDBLK
  5
23C
330
23A
100
AcDbEntity
  8
0
100
AcDbBlockEnd
  0
BLOCK
  5
246
330
245
100
AcDbEntity
  8
0
100
AcDbBlockBegin
  2
SW_CENTERMARKSYMBOL_5
 70
     0
 10
0.0
 20
0.0
 30
0.0
  3
SW_CENTERMARKSYMBOL_5
  1

  0
LINE
  5
248
330
245
100
AcDbEntity
  8
0
  6
Continuous
 62
     0
370
     0
100
AcDbLine
 10
0.0
 20
0.0
 30
0.0
 11
0.0
 21
2.5
 31
0.0
  0
LINE
  5
249
330
245
100
AcDbEntity
  8
0
  6
Continuous
 62
     0
370
     0
100
AcDbLine
 10
0.0
 20
0.0
 30
0.0
 11
-2.5
 21
0.0
 31
0.0
  0
LINE
  5
24A
330
245
100
AcDbEntity
  8
0
  6
Continuous
 62
     0
370
     0
100
AcDbLine
 10
0.0
 20
0.0
 30
0.0
 11
0.0
 21
-2.5
 31
0.0
  0
LINE
  5
24B
330
245
100
AcDbEntity
  8
0
  6
Continuous
 62
     0
370
     0
100
AcDbLine
 10
0.0
 20
0.0
 30
0.0
 11
2.5
 21
0.0
 31
0.0
  0
LINE
  5
24C
330
245
100
AcDbEntity
  8
0
  6
Continuous
 62
     0
370
     0
100
AcDbLine
 10
0.0
 20
5.0
 30
0.0
 11
0.0
 21
8.0
 31
0.0
  0
LINE
  5
24D
330
245
100
AcDbEntity
  8
0
  6
Continuous
 62
     0
370
     0
100
AcDbLine
 10
-5.0
 20
0.0
 30
0.0
 11
-8.0
 21
0.0
 31
0.0
  0
LINE
  5
24E
330
245
100
AcDbEntity
  8
0
  6
Continuous
 62
     0
370
     0
100
AcDbLine
 10
0.0
 20
-5.0
 30
0.0
 11
0.0
 21
-8.0
 31
0.0
  0
LINE
  5
24F
330
245
100
AcDbEntity
  8
0
  6
Continuous
 62
     0
370
     0
100
AcDbLine
 10
5.0
 20
0.0
 30
0.0
 11
8.0
 21
0.0
 31
0.0
  0
ENDBLK
  5
247
330
245
100
AcDbEntity
  8
0
100
AcDbBlockEnd
  0
BLOCK
  5
30C
330
30B
100
AcDbEntity
  8
0
100
AcDbBlockBegin
  2
_D_12
 70
     0
 10
0.0
 20
0.0
 30
0.0
  3
_D_12
  1

  0
SOLID
  5
30E
330
30B
100
AcDbEntity
  8
0
  6
Continuous
 62
     7
370
     0
100
AcDbTrace
 10
160.4897195474
 20
252.1907134114
 30
0.0
 11
157.4897195474
 21
252.9407134114
 31
0.0
 12
157.4897195474
 22
251.4407134114
 32
0.0
 13
157.4897195474
 23
251.4407134114
 33
0.0
  0
SOLID
  5
30F
330
30B
100
AcDbEntity
  8
0
  6
Continuous
 62
     7
370
     0
100
AcDbTrace
 10
166.4897195474
 20
252.1907134114
 30
0.0
 11
169.4897195474
 21
251.4407134114
 31
0.0
 12
169.4897195474
 22
252.9407134114
 32
0.0
 13
169.4897195474
 23
252.9407134114
 33
0.0
  0
LINE
  5
310
330
30B
100
AcDbEntity
  8
0
  6
Continuous
 62
     7
370
     0
100
AcDbLine
 10
160.4897195474
 20
240.0216389126
 30
0.0
 11
160.4897195474
 21
253.1907134114
 31
0.0
  0
LINE
  5
311
330
30B
100
AcDbEntity
  8
0
  6
Continuous
 62
     7
370
     0
100
AcDbLine
 10
166.4897195474
 20
240.0216389126
 30
0.0
 11
166.4897195474
 21
253.1907134114
 31
0.0
  0
LINE
  5
312
330
30B
100
AcDbEntity
  8
0
  6
Continuous
 62
     7
370
     0
100
AcDbLine
 10
160.4897195474
 20
252.1907134114
 30
0.0
 11
155.4897195474
 21
252.1907134114
 31
0.0
  0
LINE
  5
313
330
30B
100
AcDbEntity
  8
0
  6
Continuous
 62
     7
370
     0
100
AcDbLine
 10
160.4897195474
 20
252.1907134114
 30
0.0
 11
166.4897195474
 21
252.1907134114
 31
0.0
  0
LINE
  5
314
330
30B
100
AcDbEntity
  8
0
  6
Continuous
 62
     7
370
     0
100
AcDbLine
 10
166.4897195474
 20
252.1907134114
 30
0.0
 11
171.4897195474
 21
252.1907134114
 31
0.0
  0
MTEXT
  5
315
330
30B
100
AcDbEntity
  8
0
  6
Continuous
 62
     7
370
     0
100
AcDbMText
 10
162.4713167987
 20
256.7024502678
 30
0.0
 40
3.5
 41
0.0
 71
     1
 72
     1
  1
6
  7
SLDTEXTSTYLE0
 73
     1
 44
1.0
  0
ENDBLK
  5
30D
330
30B
100
AcDbEntity
  8
0
100
AcDbBlockEnd
  0
BLOCK
  5
318
330
317
100
AcDbEntity
  8
0
100
AcDbBlockBegin
  2
_D_13
 70
     0
 10
0.0
 20
0.0
 30
0.0
  3
_D_13
  1

  0
SOLID
  5
31A
330
317
100
AcDbEntity
  8
0
  6
Continuous
 62
     7
370
     0
100
AcDbTrace
 10
156.9897195474
 20
115.8580625799
 30
0.0
 11
153.9897195474
 21
116.6080625799
 31
0.0
 12
153.9897195474
 22
115.1080625799
 32
0.0
 13
153.9897195474
 23
115.1080625799
 33
0.0
  0
SOLID
  5
31B
330
317
100
AcDbEntity
  8
0
  6
Continuous
 62
     7
370
     0
100
AcDbTrace
 10
169.9897195474
 20
115.8580625799
 30
0.0
 11
172.9897195474
 21
115.1080625799
 31
0.0
 12
172.9897195474
 22
116.6080625799
 32
0.0
 13
172.9897195474
 23
116.6080625799
 33
0.0
  0
LINE
  5
31C
330
317
100
AcDbEntity
  8
0
  6
Continuous
 62
     7
370
     0
100
AcDbLine
 10
156.9897195474
 20
162.8580625799
 30
0.0
 11
156.9897195474
 21
114.8580625799
 31
0.0
  0
LINE
  5
31D
330
317
100
AcDbEntity
  8
0
  6
Continuous
 62
     7
370
     0
100
AcDbLine
 10
169.9897195474
 20
162.8580625799
 30
0.0
 11
169.9897195474
 21
114.8580625799
 31
0.0
  0
LINE
  5
31E
330
317
100
AcDbEntity
  8
0
  6
Continuous
 62
     7
370
     0
100
AcDbLine
 10
156.9897195474
 20
115.8580625799
 30
0.0
 11
151.9897195474
 21
115.8580625799
 31
0.0
  0
LINE
  5
31F
330
317
100
AcDbEntity
  8
0
  6
Continuous
 62
     7
370
     0
100
AcDbLine
 10
156.9897195474
 20
115.8580625799
 30
0.0
 11
169.9897195474
 21
115.8580625799
 31
0.0
  0
LINE
  5
320
330
317
100
AcDbEntity
  8
0
  6
Continuous
 62
     7
370
     0
100
AcDbLine
 10
169.9897195474
 20
115.8580625799
 30
0.0
 11
174.9897195474
 21
115.8580625799
 31
0.0
  0
MTEXT
  5
321
330
317
100
AcDbEntity
  8
0
  6
Continuous
 62
     7
370
     0
100
AcDbMText
 10
161.4529140499
 20
120.3697994363
 30
0.0
 40
3.5
 41
0.0
 71
     1
 72
     1
  1
13
  7
SLDTEXTSTYLE0
 73
     1
 44
1.0
  0
ENDBLK
  5
319
330
317
100
AcDbEntity
  8
0
100
AcDbBlockEnd
  0
ENDSEC
  0
SECTION
  2
ENTITIES
  0
LINE
  5
73
330
1F
100
AcDbEntity
  8
0
  6
Continuous
 62
     7
370
     0
100
AcDbLine
 10
20.2604743903
 20
285.0
 30
0.0
 11
196.7604743903
 21
285.0
 31
0.0
  0
LINE
  5
74
330
1F
100
AcDbEntity
  8
0
  6
Continuous
 62
     7
370
     0
100
AcDbLine
 10
20.2604743903
 20
285.0
 30
0.0
 11
20.2604743903
 21
10.0
 31
0.0
  0
LINE
  5
75
330
1F
100
AcDbEntity
  8
0
  6
Continuous
 62
     7
370
     0
100
AcDbLine
 10
20.2604743903
 20
10.0
 30
0.0
 11
196.7604743903
 21
10.0
 31
0.0
  0
LINE
  5
76
330
1F
100
AcDbEntity
  8
0
  6
Continuous
 62
     7
370
     0
100
AcDbLine
 10
196.7604743903
 20
285.0
 30
0.0
 11
196.7604743903
 21
10.0
 31
0.0
  0
LINE
  5
77
330
1F
100
AcDbEntity
  8
0
  6
Continuous
 62
     7
370
     0
100
AcDbLine
 10
127.0104743903
 20
50.75
 30
0.0
 11
196.7604743903
 21
50.75
 31
0.0
  0
LINE
  5
78
330
1F
100
AcDbEntity
  8
0
  6
Continuous
 62
     7
370
     0
100
AcDbLine
 10
127.0104743903
 20
50.75
 30
0.0
 11
127.0104743903
 21
10.0
 31
0.0
  0
LINE
  5
79
330
1F
100
AcDbEntity
  8
0
  6
Continuous
 62
     7
370
     0
100
AcDbLine
 10
127.0104743903
 20
22.75
 30
0.0
 11
196.7604743903
 21
22.75
 31
0.0
  0
LINE
  5
7A
330
1F
100
AcDbEntity
  8
0
  6
Continuous
 62
     7
370
     0
100
AcDbLine
 10
127.0104743903
 20
36.75
 30
0.0
 11
196.7604743903
 21
36.75
 31
0.0
  0
MTEXT
  5
7C
330
1F
100
AcDbEntity
  8
0
  6
Continuous
 62
     7
370
     0
100
AcDbMText
 10
161.6478356544
 20
30.4171582345
 30
0.0
 40
4.2333333333
 41
0.0
 71
     2
 72
     1
  1
CHK-EMBF-12
  7
SLDTEXTSTYLE0
 73
     1
 44
1.0
  0
MTEXT
  5
7D
330
1F
100
AcDbEntity
  8
0
  6
Continuous
 62
     7
370
     0
100
AcDbMText
 10
160.0290384738
 20
46.2742643966
 30
0.0
 40
3.7041666667
 41
0.0
 71
     2
 72
     1
  1
ランナーチャックEM(爪着脱式)
  7
SLDTEXTSTYLE0
 73
     1
 44
1.0
  0
MTEXT
  5
7E
330
1F
100
AcDbEntity
  8
0
  6
Continuous
 62
     7
370
     0
100
AcDbMText
 10
162.4996509202
 20
16.8228189052
 30
0.0
 40
4.2333333333
 41
0.0
 71
     2
 72
     1
  1
023284
  7
SLDTEXTSTYLE0
 73
     1
 44
1.0
  0
LINE
  5
7F
330
1F
100
AcDbEntity
  8
0
  6
Continuous
 62
     7
370
     0
100
AcDbLine
 10
79.1171822415
 20
148.3580627527
 30
0.0
 11
79.6171823235
 21
147.8580617394
 31
0.0
  0
LINE
  5
80
330
1F
100
AcDbEntity
  8
0
  6
Continuous
 62
     7
370
     0
100
AcDbLine
 10
90.6171822639
 20
147.8580617394
 30
0.0
 11
91.1171823458
 21
148.3580627527
 31
0.0
  0
LINE
  5
81
330
1F
100
AcDbEntity
  8
0
  6
Continuous
 62
     7
370
     0
100
AcDbLine
 10
79.1171822415
 20
163.8580624994
 30
0.0
 11
79.1171822415
 21
148.3580627527
 31
0.0
  0
LINE
  5
82
330
1F
100
AcDbEntity
  8
0
  6
Continuous
 62
     7
370
     0
100
AcDbLine
 10
91.1171823458
 20
148.3580627527
 30
0.0
 11
91.1171823458
 21
163.8580624994
 31
0.0
  0
LINE
  5
83
330
1F
100
AcDbEntity
  8
0
  6
Continuous
 62
     7
370
     0
100
AcDbLine
 10
101.4580811092
 20
205.6171604481
 30
0.0
 11
99.6899344677
 21
205.2800309893
 31
0.0
  0
LINE
  5
84
330
1F
100
AcDbEntity
  8
0
  6
Continuous
 62
     7
370
     0
100
AcDbLine
 10
100.7200563976
 20
199.8773598161
 30
0.0
 11
102.4882021078
 21
200.2144911375
 31
0.0
  0
ARC
  5
85
330
1F
100
AcDbEntity
  8
0
  6
Continuous
 62
     7
370
     0
100
AcDbCircle
 10
101.4955404725
 20
205.4207000969
 30
0.0
 40
0.2000000000000113
100
AcDbArc
 50
10.794953288
 51
100.7949532879
  0
ARC
  5
86
330
1F
100
AcDbEntity
  8
0
  6
Continuous
 62
     7
370
     0
100
AcDbCircle
 10
102.4507439131
 20
200.4109509627
 30
0.0
 40
0.2000000000000532
100
AcDbArc
 50
280.7949532879
 51
10.7949532879
  0
LINE
  5
87
330
1F
100
AcDbEntity
  8
0
  6
Continuous
 62
     7
370
     0
100
AcDbLine
 10
103.3310285488
 20
195.7941231366
 30
0.0
 11
101.5628828385
 21
195.4569927465
 31
0.0
  0
LINE
  5
88
330
1F
100
AcDbEntity
  8
0
  6
Continuous
 62
     7
370
     0
100
AcDbLine
 10
102.5930038372
 20
190.0543225046
 30
0.0
 11
104.36115141
 21
190.3914528947
 31
0.0
  0
ARC
  5
89
330
1F
100
AcDbEntity
  8
0
  6
Continuous
 62
     7
370
     0
100
AcDbCircle
 10
103.3684883953
 20
195.5976625789
 30
0.0
 40
0.2000000000000226
100
AcDbArc
 50
10.794953288
 51
100.7949532879
  0
ARC
  5
8A
330
1F
100
AcDbEntity
  8
0
  6
Continuous
 62
     7
370
     0
100
AcDbCircle
 10
104.323691836
 20
190.5879134448
 30
0.0
 40
0.1999999999999974
100
AcDbArc
 50
280.794953288
 51
10.794953288
  0
LINE
  5
8B
330
1F
100
AcDbEntity
  8
0
  6
Continuous
 62
     7
370
     0
100
AcDbLine
 10
67.7461615482
 20
200.2144911375
 30
0.0
 11
69.5143091211
 21
199.8773598161
 31
0.0
  0
LINE
  5
8C
330
1F
100
AcDbEntity
  8
0
  6
Continuous
 62
     7
370
     0
100
AcDbLine
 10
70.5444301197
 20
205.2800309893
 30
0.0
 11
68.7762825468
 21
205.6171604481
 31
0.0
  0
ARC
  5
8D
330
1F
100
AcDbEntity
  8
0
  6
Continuous
 62
     7
370
     0
100
AcDbCircle
 10
67.7836205549
 20
200.4109509627
 30
0.0
 40
0.1999999999999974
100
AcDbArc
 50
169.205046712
 51
259.205046712
  0
ARC
  5
8E
330
1F
100
AcDbEntity
  8
0
  6
Continuous
 62
     7
370
     0
100
AcDbCircle
 10
68.7388239955
 20
205.4207000969
 30
0.0
 40
0.1999999999999974
100
AcDbArc
 50
79.2050467121
 51
169.205046712
  0
ARC
  5
8F
330
1F
100
AcDbEntity
  8
0
  6
Continuous
 62
     7
370
     0
100
AcDbCircle
 10
65.910672632
 20
190.5879134448
 30
0.0
 40
0.2000000000000113
100
AcDbArc
 50
169.205046712
 51
259.205046712
  0
ARC
  5
90
330
1F
100
AcDbEntity
  8
0
  6
Continuous
 62
     7
370
     0
100
AcDbCircle
 10
66.8658760727
 20
195.5976625789
 30
0.0
 40
0.2000000000000113
100
AcDbArc
 50
79.2050467121
 51
169.205046712
  0
LINE
  5
91
330
1F
100
AcDbEntity
  8
0
  6
Continuous
 62
     7
370
     0
100
AcDbLine
 10
65.8732141086
 20
190.3914528947
 30
0.0
 11
67.6413598189
 21
190.0543225046
 31
0.0
  0
LINE
  5
92
330
1F
100
AcDbEntity
  8
0
  6
Continuous
 62
     7
370
     0
100
AcDbLine
 10
68.6714826801
 20
195.4569927465
 30
0.0
 11
66.9033351073
 21
195.7941231366
 31
0.0
  0
LINE
  5
93
330
1F
100
AcDbEntity
  8
0
  6
Continuous
 62
     7
370
     0
100
AcDbLine
 10
89.1171822508
 20
144.8580631104
 30
0.0
 11
89.4171822069
 21
145.1580607381
 31
0.0
  0
LINE
  5
94
330
1F
100
AcDbEntity
  8
0
  6
Continuous
 62
     7
370
     0
100
AcDbLine
 10
80.8171821476
 20
145.1580607381
 30
0.0
 11
81.1171821037
 21
144.8580631104
 31
0.0
  0
LINE
  5
95
330
1F
100
AcDbEntity
  8
0
  6
Continuous
 62
     7
370
     0
100
AcDbLine
 10
83.3171823246
 20
142.3580617692
 30
0.0
 11
83.5171822177
 21
140.3580614414
 31
0.0
  0
LINE
  5
96
330
1F
100
AcDbEntity
  8
0
  6
Continuous
 62
     7
370
     0
100
AcDbLine
 10
86.7171822532
 20
140.3580614414
 30
0.0
 11
86.9171822627
 21
142.3580617692
 31
0.0
  0
LINE
  5
97
330
1F
100
AcDbEntity
  8
0
  6
Continuous
 62
     7
370
     0
100
AcDbLine
 10
83.3171823246
 20
139.8580641534
 30
0.0
 11
83.6171822806
 21
137.8580638256
 31
0.0
  0
LINE
  5
98
330
1F
100
AcDbEntity
  8
0
  6
Continuous
 62
     7
370
     0
100
AcDbLine
 10
86.6171822485
 20
137.8580638256
 30
0.0
 11
86.9171822627
 21
139.8580641534
 31
0.0
  0
LINE
  5
99
330
1F
100
AcDbEntity
  8
0
  6
Continuous
 62
     7
370
     0
100
AcDbLine
 10
86.9171822627
 20
139.8580641534
 30
0.0
 11
86.9171822627
 21
140.3580614414
 31
0.0
  0
LINE
  5
9A
330
1F
100
AcDbEntity
  8
0
  6
Continuous
 62
     7
370
     0
100
AcDbLine
 10
83.3171823246
 20
140.3580614414
 30
0.0
 11
83.3171823246
 21
139.8580641534
 31
0.0
  0
LINE
  5
9B
330
1F
100
AcDbEntity
  8
0
  6
Continuous
 62
     7
370
     0
100
AcDbLine
 10
86.9171822627
 20
142.3580617692
 30
0.0
 11
86.9171822627
 21
142.8580627825
 31
0.0
  0
LINE
  5
9C
330
1F
100
AcDbEntity
  8
0
  6
Continuous
 62
     7
370
     0
100
AcDbLine
 10
83.3171823246
 20
142.8580627825
 30
0.0
 11
83.3171823246
 21
142.3580617692
 31
0.0
  0
LINE
  5
9D
330
1F
100
AcDbEntity
  8
0
  6
Continuous
 62
     7
370
     0
100
AcDbLine
 10
86.7171822532
 20
142.8580627825
 30
0.0
 11
86.7171822532
 21
144.8580631104
 31
0.0
  0
LINE
  5
9E
330
1F
100
AcDbEntity
  8
0
  6
Continuous
 62
     7
370
     0
100
AcDbLine
 10
83.5171822177
 20
144.8580631104
 30
0.0
 11
83.5171822177
 21
142.8580627825
 31
0.0
  0
LINE
  5
9F
330
1F
100
AcDbEntity
  8
0
  6
Continuous
 62
     7
370
     0
100
AcDbLine
 10
89.4171822069
 20
145.1580607381
 30
0.0
 11
89.4171822069
 21
147.8580617394
 31
0.0
  0
LINE
  5
A0
330
1F
100
AcDbEntity
  8
0
  6
Continuous
 62
     7
370
     0
100
AcDbLine
 10
80.8171821476
 20
147.8580617394
 30
0.0
 11
80.8171821476
 21
145.1580607381
 31
0.0
  0
LINE
  5
A1
330
1F
100
AcDbEntity
  8
0
  6
Continuous
 62
     7
370
     0
100
AcDbLine
 10
73.117182655
 20
204.8580617692
 30
0.0
 11
73.117182655
 21
163.8580624994
 31
0.0
  0
LINE
  5
A2
330
1F
100
AcDbEntity
  8
0
  6
Continuous
 62
     7
370
     0
100
AcDbLine
 10
97.1171819323
 20
204.8580617692
 30
0.0
 11
73.117182655
 21
204.8580617692
 31
0.0
  0
LINE
  5
A3
330
1F
100
AcDbEntity
  8
0
  6
Continuous
 62
     7
370
     0
100
AcDbLine
 10
97.1171819323
 20
163.8580624994
 30
0.0
 11
97.1171819323
 21
204.8580617692
 31
0.0
  0
CIRCLE
  5
A4
330
1F
100
AcDbEntity
  8
0
  6
Continuous
 62
     7
370
     0
100
AcDbCircle
 10
75.117182234
 20
197.3580625799
 30
0.0
 40
1.80000000000004
  0
CIRCLE
  5
A5
330
1F
100
AcDbEntity
  8
0
  6
Continuous
 62
     7
370
     0
100
AcDbCircle
 10
95.117182234
 20
197.3580625799
 30
0.0
 40
1.800000000000011
  0
CIRCLE
  5
A6
330
1F
100
AcDbEntity
  8
0
  6
Continuous
 62
     7
370
     0
100
AcDbCircle
 10
85.117182234
 20
193.8580625799
 30
0.0
 40
2.249999999999972
  0
CIRCLE
  5
A7
330
1F
100
AcDbEntity
  8
0
  6
Continuous
 62
     7
370
     0
100
AcDbCircle
 10
77.117182234
 20
167.8580625799
 30
0.0
 40
2.249999999999972
  0
CIRCLE
  5
A8
330
1F
100
AcDbEntity
  8
0
  6
Continuous
 62
     7
370
     0
100
AcDbCircle
 10
93.117182234
 20
167.8580625799
 30
0.0
 40
2.249999999999972
  0
LINE
  5
A9
330
1F
100
AcDbEntity
  8
0
  6
Continuous
 62
     7
370
     0
100
AcDbLine
 10
73.117182655
 20
163.8580624994
 30
0.0
 11
97.1171819323
 21
163.8580624994
 31
0.0
  0
LINE
  5
AA
330
1F
100
AcDbEntity
  8
0
  6
Continuous
 62
     7
370
     0
100
AcDbLine
 10
73.117182655
 20
204.8580617692
 30
0.0
 11
75.1171820515
 21
206.8580620971
 31
0.0
  0
LINE
  5
AB
330
1F
100
AcDbEntity
  8
0
  6
Continuous
 62
     7
370
     0
100
AcDbLine
 10
75.1171820515
 20
206.8580620971
 30
0.0
 11
82.1171822676
 21
206.8580620971
 31
0.0
  0
LINE
  5
AC
330
1F
100
AcDbEntity
  8
0
  6
Continuous
 62
     7
370
     0
100
AcDbLine
 10
82.1171822676
 20
208.0580619212
 30
0.0
 11
82.1171822676
 21
206.8580620971
 31
0.0
  0
LINE
  5
AD
330
1F
100
AcDbEntity
  8
0
  6
Continuous
 62
     7
370
     0
100
AcDbLine
 10
88.1171823197
 20
208.0580619212
 30
0.0
 11
82.1171822676
 21
208.0580619212
 31
0.0
  0
LINE
  5
AE
330
1F
100
AcDbEntity
  8
0
  6
Continuous
 62
     7
370
     0
100
AcDbLine
 10
88.1171823197
 20
206.8580620971
 30
0.0
 11
88.1171823197
 21
208.0580619212
 31
0.0
  0
LINE
  5
AF
330
1F
100
AcDbEntity
  8
0
  6
Continuous
 62
     7
370
     0
100
AcDbLine
 10
88.1171823197
 20
206.8580620971
 30
0.0
 11
95.1171825358
 21
206.8580620971
 31
0.0
  0
LINE
  5
B0
330
1F
100
AcDbEntity
  8
0
  6
Continuous
 62
     7
370
     0
100
AcDbLine
 10
95.1171825358
 20
206.8580620971
 30
0.0
 11
97.1171819323
 21
204.8580617692
 31
0.0
  0
LINE
  5
B1
330
1F
100
AcDbEntity
  8
0
  6
Continuous
 62
     7
370
     0
100
AcDbLine
 10
72.1171824911
 20
163.8580624994
 30
0.0
 11
72.1171824911
 21
203.858063468
 31
0.0
  0
LINE
  5
B2
330
1F
100
AcDbEntity
  8
0
  6
Continuous
 62
     7
370
     0
100
AcDbLine
 10
72.1171824911
 20
203.858063468
 30
0.0
 11
73.117182655
 21
204.8580617692
 31
0.0
  0
LINE
  5
B3
330
1F
100
AcDbEntity
  8
0
  6
Continuous
 62
     7
370
     0
100
AcDbLine
 10
73.117182655
 20
163.8580624994
 30
0.0
 11
72.1171824911
 21
163.8580624994
 31
0.0
  0
LINE
  5
B4
330
1F
100
AcDbEntity
  8
0
  6
Continuous
 62
     7
370
     0
100
AcDbLine
 10
98.1171820962
 20
203.858063468
 30
0.0
 11
98.1171820962
 21
163.8580624994
 31
0.0
  0
LINE
  5
B5
330
1F
100
AcDbEntity
  8
0
  6
Continuous
 62
     7
370
     0
100
AcDbLine
 10
97.1171819323
 20
204.8580617692
 30
0.0
 11
98.1171820962
 21
203.858063468
 31
0.0
  0
LINE
  5
B6
330
1F
100
AcDbEntity
  8
0
  6
Continuous
 62
     7
370
     0
100
AcDbLine
 10
98.1171820962
 20
163.8580624994
 30
0.0
 11
97.1171819323
 21
163.8580624994
 31
0.0
  0
CIRCLE
  5
B7
330
1F
100
AcDbEntity
  8
0
  6
Continuous
 62
     7
370
     0
100
AcDbCircle
 10
77.117182234
 20
167.8580625799
 30
0.0
 40
1.650000000000006
  0
CIRCLE
  5
B8
330
1F
100
AcDbEntity
  8
0
  6
Continuous
 62
     7
370
     0
100
AcDbCircle
 10
93.117182234
 20
167.8580625799
 30
0.0
 40
1.649999999999977
  0
CIRCLE
  5
B9
330
1F
100
AcDbEntity
  8
0
  6
Continuous
 62
     7
370
     0
100
AcDbCircle
 10
95.117182234
 20
197.3580625799
 30
0.0
 40
1.5
  0
CIRCLE
  5
BA
330
1F
100
AcDbEntity
  8
0
  6
Continuous
 62
     7
370
     0
100
AcDbCircle
 10
75.117182234
 20
197.3580625799
 30
0.0
 40
1.5
  0
CIRCLE
  5
BB
330
1F
100
AcDbEntity
  8
0
  6
Continuous
 62
     7
370
     0
100
AcDbCircle
 10
85.117182234
 20
193.8580625799
 30
0.0
 40
1.649999999999977
  0
LINE
  5
BC
330
1F
100
AcDbEntity
  8
0
  6
Continuous
 62
     7
370
     0
100
AcDbLine
 10
90.6171822639
 20
147.8580617394
 30
0.0
 11
79.6171823235
 21
147.8580617394
 31
0.0
  0
LINE
  5
BD
330
1F
100
AcDbEntity
  8
0
  6
Continuous
 62
     7
370
     0
100
AcDbLine
 10
79.1171822415
 20
148.3580627527
 30
0.0
 11
91.1171823458
 21
148.3580627527
 31
0.0
  0
LINE
  5
BE
330
1F
100
AcDbEntity
  8
0
  6
Continuous
 62
     7
370
     0
100
AcDbLine
 10
73.7254592308
 20
205.9460253503
 30
0.0
 11
74.2979143464
 21
206.038794392
 31
0.0
  0
LINE
  5
BF
330
1F
100
AcDbEntity
  8
0
  6
Continuous
 62
     7
370
     0
100
AcDbLine
 10
73.612450687
 20
205.3533316638
 30
0.0
 11
73.7254592308
 21
205.9460253503
 31
0.0
  0
LINE
  5
C0
330
1F
100
AcDbEntity
  8
0
  6
Continuous
 62
     7
370
     0
100
AcDbLine
 10
69.980434207
 20
186.304517002
 30
0.0
 11
72.1171824911
 21
197.5111038473
 31
0.0
  0
LINE
  5
C1
330
1F
100
AcDbEntity
  8
0
  6
Continuous
 62
     7
370
     0
100
AcDbLine
 10
67.0335228273
 20
186.8664016064
 30
0.0
 11
69.980434207
 21
186.304517002
 31
0.0
  0
LINE
  5
C2
330
1F
100
AcDbEntity
  8
0
  6
Continuous
 62
     7
370
     0
100
AcDbLine
 10
72.5413580143
 20
215.7533065465
 30
0.0
 11
67.0335228273
 21
186.8664016064
 31
0.0
  0
LINE
  5
C3
330
1F
100
AcDbEntity
  8
0
  6
Continuous
 62
     7
370
     0
100
AcDbLine
 10
72.5413580143
 20
215.7533065465
 30
0.0
 11
72.5364639142
 21
215.7835112002
 31
0.0
  0
LINE
  5
C4
330
1F
100
AcDbEntity
  8
0
  6
Continuous
 62
     7
370
     0
100
AcDbLine
 10
74.0682874524
 20
238.4190493312
 30
0.0
 11
72.8370836654
 21
237.2218974915
 31
0.0
  0
LINE
  5
C5
330
1F
100
AcDbEntity
  8
0
  6
Continuous
 62
     7
370
     0
100
AcDbLine
 10
74.0682874524
 20
238.4190493312
 30
0.0
 11
77.7867157662
 21
239.0216373887
 31
0.0
  0
LINE
  5
C6
330
1F
100
AcDbEntity
  8
0
  6
Continuous
 62
     7
370
     0
100
AcDbLine
 10
77.7867157662
 20
239.0216373887
 30
0.0
 11
82.4897785855
 21
210.0002476063
 31
0.0
  0
LINE
  5
C7
330
1F
100
AcDbEntity
  8
0
  6
Continuous
 62
     7
370
     0
100
AcDbLine
 10
81.9934860987
 20
209.3119927731
 30
0.0
 11
82.4897785855
 21
210.0002476063
 31
0.0
  0
LINE
  5
C8
330
1F
100
AcDbEntity
  8
0
  6
Continuous
 62
     7
370
     0
100
AcDbLine
 10
77.8475730398
 20
208.6401273545
 30
0.0
 11
81.9934860987
 21
209.3119927731
 31
0.0
  0
ARC
  5
C9
330
1F
100
AcDbEntity
  8
0
  6
Continuous
 62
     7
370
     0
100
AcDbCircle
 10
78.0875251889
 20
207.1594432342
 30
0.0
 40
1.50000000000001
100
AcDbArc
 50
99.2050467121
 51
189.2050467121
  0
LINE
  5
CA
330
1F
100
AcDbEntity
  8
0
  6
Continuous
 62
     7
370
     0
100
AcDbLine
 10
76.6167967298
 20
206.8580620971
 30
0.0
 11
76.6068418228
 21
206.9194902715
 31
0.0
  0
LINE
  5
CB
330
1F
100
AcDbEntity
  8
0
  6
Continuous
 62
     7
370
     0
100
AcDbLine
 10
72.5364639142
 20
215.7835112002
 30
0.0
 11
72.8370836654
 21
237.2218974915
 31
0.0
  0
ARC
  5
CC
330
1F
100
AcDbEntity
  8
0
  6
Continuous
 62
     7
370
     0
100
AcDbCircle
 10
92.1468392791
 20
207.1594432342
 30
0.0
 40
1.499999999999991
100
AcDbArc
 50
350.794953288
 51
80.794953288
  0
LINE
  5
CD
330
1F
100
AcDbEntity
  8
0
  6
Continuous
 62
     7
370
     0
100
AcDbLine
 10
92.3867915475
 20
208.6401273545
 30
0.0
 11
88.2408782558
 21
209.3119927731
 31
0.0
  0
LINE
  5
CE
330
1F
100
AcDbEntity
  8
0
  6
Continuous
 62
     7
370
     0
100
AcDbLine
 10
87.7445860018
 20
210.0002476063
 30
0.0
 11
88.2408782558
 21
209.3119927731
 31
0.0
  0
LINE
  5
CF
330
1F
100
AcDbEntity
  8
0
  6
Continuous
 62
     7
370
     0
100
AcDbLine
 10
92.4476492868
 20
239.0216373887
 30
0.0
 11
87.7445860018
 21
210.0002476063
 31
0.0
  0
LINE
  5
D0
330
1F
100
AcDbEntity
  8
0
  6
Continuous
 62
     7
370
     0
100
AcDbLine
 10
96.1660771349
 20
238.4190493312
 30
0.0
 11
92.4476492868
 21
239.0216373887
 31
0.0
  0
LINE
  5
D1
330
1F
100
AcDbEntity
  8
0
  6
Continuous
 62
     7
370
     0
100
AcDbLine
 10
97.3972809219
 20
237.2218974915
 30
0.0
 11
96.1660771349
 21
238.4190493312
 31
0.0
  0
LINE
  5
D2
330
1F
100
AcDbEntity
  8
0
  6
Continuous
 62
     7
370
     0
100
AcDbLine
 10
97.6979006731
 20
215.7835112002
 30
0.0
 11
97.3972809219
 21
237.2218974915
 31
0.0
  0
LINE
  5
D3
330
1F
100
AcDbEntity
  8
0
  6
Continuous
 62
     7
370
     0
100
AcDbLine
 10
97.693006573
 20
215.7533065465
 30
0.0
 11
97.6979006731
 21
215.7835112002
 31
0.0
  0
LINE
  5
D4
330
1F
100
AcDbEntity
  8
0
  6
Continuous
 62
     7
370
     0
100
AcDbLine
 10
97.693006573
 20
215.7533065465
 30
0.0
 11
103.2008408287
 21
186.8664016064
 31
0.0
  0
LINE
  5
D5
330
1F
100
AcDbEntity
  8
0
  6
Continuous
 62
     7
370
     0
100
AcDbLine
 10
103.2008408287
 20
186.8664016064
 30
0.0
 11
100.2539303803
 21
186.304517002
 31
0.0
  0
LINE
  5
D6
330
1F
100
AcDbEntity
  8
0
  6
Continuous
 62
     7
370
     0
100
AcDbLine
 10
100.2539303803
 20
186.304517002
 30
0.0
 11
98.1171820962
 21
197.5111038473
 31
0.0
  0
LINE
  5
D7
330
1F
100
AcDbEntity
  8
0
  6
Continuous
 62
     7
370
     0
100
AcDbLine
 10
96.621912969
 20
205.3533316638
 30
0.0
 11
96.5089053565
 21
205.9460253503
 31
0.0
  0
LINE
  5
D8
330
1F
100
AcDbEntity
  8
0
  6
Continuous
 62
     7
370
     0
100
AcDbLine
 10
96.5089053565
 20
205.9460253503
 30
0.0
 11
95.9364502409
 21
206.038794392
 31
0.0
  0
LINE
  5
D9
330
1F
100
AcDbEntity
  8
0
  6
Continuous
 62
     7
370
     0
100
AcDbLine
 10
93.6175678575
 20
206.8580620971
 30
0.0
 11
93.6275227645
 21
206.9194902715
 31
0.0
  0
LWPOLYLINE
  5
DA
330
1F
100
AcDbEntity
  8
0
  6
Continuous
 62
     7
370
     0
100
AcDbPolyline
 90
        8
 70
   128
 43
0.0
 10
102.2213465252
 20
202.6819055017
 10
102.3189305046
 20
202.1701102194
 10
102.4099877754
 20
201.6925410416
 10
102.4905397275
 20
201.2700726327
 10
102.557064099
 20
200.9211693939
 10
102.6066551635
 20
200.6610789385
 10
102.6371448019
 20
200.5011689898
 10
102.6472049483
 20
200.4484095659
  0
LWPOLYLINE
  5
DB
330
1F
100
AcDbEntity
  8
0
  6
Continuous
 62
     7
370
     0
100
AcDbPolyline
 90
       10
 70
   128
 43
0.0
 10
101.6920014003
 20
205.4581594702
 10
101.6920051256
 20
205.4581408438
 10
101.7028215059
 20
205.4014065352
 10
101.7340394386
 20
205.2376781639
 10
101.7842936048
 20
204.9741120126
 10
101.8513879457
 20
204.6222248163
 10
101.9323887953
 20
204.197396436
 10
102.0237589905
 20
203.7181955811
 10
102.1215012947
 20
203.205563971
 10
102.2213465252
 20
202.6819055017
  0
LWPOLYLINE
  5
DC
330
1F
100
AcDbEntity
  8
0
  6
Continuous
 62
     7
370
     0
100
AcDbPolyline
 90
        8
 70
   128
 43
0.0
 10
104.0942939648
 20
192.8588691216
 10
104.1918779442
 20
192.3470719766
 10
104.2829352149
 20
191.8695037302
 10
104.363487167
 20
191.4470353212
 10
104.4300115385
 20
191.0981320825
 10
104.479602603
 20
190.8380416271
 10
104.5100922414
 20
190.6781316783
 10
104.5201523879
 20
190.6253722545
  0
LWPOLYLINE
  5
DD
330
1F
100
AcDbEntity
  8
0
  6
Continuous
 62
     7
370
     0
100
AcDbPolyline
 90
       10
 70
   128
 43
0.0
 10
103.5649488398
 20
195.6351212274
 10
103.5649525651
 20
195.6351035323
 10
103.5757708081
 20
195.5783692237
 10
103.6069887408
 20
195.4146417838
 10
103.6572410443
 20
195.1510747012
 10
103.7243353852
 20
194.7991875049
 10
103.8053380975
 20
194.3743591245
 10
103.89670643
 20
193.8951582696
 10
103.9944487342
 20
193.3825266596
 10
104.0942939648
 20
192.8588691216
  0
LWPOLYLINE
  5
DE
330
1F
100
AcDbEntity
  8
0
  6
Continuous
 62
     7
370
     0
100
AcDbPolyline
 90
       17
 70
   128
 43
0.0
 10
67.5871605703
 20
200.4484095659
 10
67.5948719212
 20
200.4888550427
 10
67.6229121813
 20
200.6359183278
 10
67.6702624836
 20
200.8842629429
 10
67.7348571548
 20
201.2230315294
 10
67.8138668367
 20
201.6374216464
 10
67.9038437733
 20
202.1093227949
 10
68.000854058
 20
202.6181061801
 10
68.1006564477
 20
203.141541132
 10
68.1988904902
 20
203.6567469176
 10
68.2912609258
 20
204.1412078824
 10
68.3737332651
 20
204.573751339
 10
68.4427032897
 20
204.935471439
 10
68.4951535144
 20
205.2105617758
 10
68.5287947485
 20
205.3869989749
 10
68.5421555021
 20
205.4570698228
 10
68.5423641184
 20
205.4581594702
  0
LWPOLYLINE
  5
DF
330
1F
100
AcDbEntity
  8
0
  6
Continuous
 62
     7
370
     0
100
AcDbPolyline
 90
       17
 70
   128
 43
0.0
 10
65.7142112681
 20
190.6253722545
 10
65.7219244817
 20
190.6658177313
 10
65.7499647418
 20
190.8128819477
 10
65.7973150441
 20
191.0612247002
 10
65.8619078526
 20
191.3999951493
 10
65.9409193972
 20
191.8143852662
 10
66.0308963337
 20
192.2862845522
 10
66.1279047558
 20
192.7950698
 10
66.2277090081
 20
193.3185028892
 10
66.325941188
 20
193.8337086748
 10
66.4183134863
 20
194.318170571
 10
66.5007858255
 20
194.7507140275
 10
66.5697558501
 20
195.1124350589
 10
66.6222060749
 20
195.3875244644
 10
66.6558473089
 20
195.5639607322
 10
66.6692080626
 20
195.6340325114
 10
66.6694148162
 20
195.6351212274
  0
LINE
  5
E0
330
1F
100
AcDbEntity
  8
0
  6
Continuous
 62
     7
370
     0
100
AcDbLine
 10
86.6603808894
 20
145.1580607381
 30
0.0
 11
87.7629786914
 21
145.1580607381
 31
0.0
  0
SPLINE
  5
E1
330
1F
100
AcDbEntity
  8
0
  6
Continuous
 62
     7
370
     0
100
AcDbSpline
210
0.0
220
0.0
230
1.0
 70
     8
 71
     3
 72
     8
 73
     4
 74
     0
 42
0.000000001
 43
0.00000001
 40
0.0
 40
0.0
 40
0.0
 40
0.0
 40
1.0
 40
1.0
 40
1.0
 40
1.0
 10
87.76297858929688
 20
145.1580625797538
 30
0.0
 10
88.02152772733926
 20
144.971106058071
 30
0.0
 10
88.28720829119321
 20
144.8580625797829
 30
0.0
 10
88.56379574119136
 20
144.8580625797727
 30
0.0
  0
LINE
  5
E2
330
1F
100
AcDbEntity
  8
0
  6
Continuous
 62
     7
370
     0
100
AcDbLine
 10
85.0824669537
 20
144.8580631104
 30
0.0
 11
88.5637957321
 21
144.8580631104
 31
0.0
  0
SPLINE
  5
E3
330
1F
100
AcDbEntity
  8
0
  6
Continuous
 62
     7
370
     0
100
AcDbSpline
210
0.0
220
0.0
230
1.0
 70
     8
 71
     3
 72
     8
 73
     4
 74
     0
 42
0.000000001
 43
0.00000001
 40
0.0
 40
0.0
 40
0.0
 40
0.0
 40
1.0
 40
1.0
 40
1.0
 40
1.0
 10
85.08246694607158
 20
144.8580625798919
 30
0.0
 10
85.62744927570233
 20
144.8580625798675
 30
0.0
 10
86.15094089669354
 20
144.9711060580666
 30
0.0
 10
86.66038090049439
 20
145.1580625797351
 30
0.0
  0
LINE
  5
E4
330
1F
100
AcDbEntity
  8
0
  6
Continuous
 62
     7
370
     0
100
AcDbLine
 10
86.6603808894
 20
145.1580607381
 30
0.0
 11
86.6603808894
 21
147.8580617394
 31
0.0
  0
SPLINE
  5
E5
330
1F
100
AcDbEntity
  8
0
  6
Continuous
 62
     7
370
     0
100
AcDbSpline
210
0.0
220
0.0
230
1.0
 70
     8
 71
     3
 72
     8
 73
     4
 74
     0
 42
0.000000001
 43
0.00000001
 40
0.0
 40
0.0
 40
0.0
 40
0.0
 40
1.0
 40
1.0
 40
1.0
 40
1.0
 10
83.50455299169138
 20
145.1580625798513
 30
0.0
 10
84.01399299541771
 20
144.9711060581777
 30
0.0
 10
84.53748461650895
 20
144.8580625799164
 30
0.0
 10
85.08246694607158
 20
144.8580625798919
 30
0.0
  0
LINE
  5
E6
330
1F
100
AcDbEntity
  8
0
  6
Continuous
 62
     7
370
     0
100
AcDbLine
 10
83.5045530179
 20
147.8580617394
 30
0.0
 11
83.5045530179
 21
145.1580607381
 31
0.0
  0
LINE
  5
E7
330
1F
100
AcDbEntity
  8
0
  6
Continuous
 62
     7
370
     0
100
AcDbLine
 10
82.4129502939
 20
145.1580607381
 30
0.0
 11
83.5045530179
 21
145.1580607381
 31
0.0
  0
LINE
  5
E8
330
1F
100
AcDbEntity
  8
0
  6
Continuous
 62
     7
370
     0
100
AcDbLine
 10
81.6358533406
 20
144.8580631104
 30
0.0
 11
85.0824669537
 21
144.8580631104
 31
0.0
  0
SPLINE
  5
E9
330
1F
100
AcDbEntity
  8
0
  6
Continuous
 62
     7
370
     0
100
AcDbSpline
210
0.0
220
0.0
230
1.0
 70
     8
 71
     3
 72
     8
 73
     4
 74
     0
 42
0.000000001
 43
0.00000001
 40
0.0
 40
0.0
 40
0.0
 40
0.0
 40
1.0
 40
1.0
 40
1.0
 40
1.0
 10
81.63585343890281
 20
144.8580625797877
 30
0.0
 10
81.90424831851394
 20
144.8580625797483
 30
0.0
 10
82.16205937582585
 20
144.9711060579623
 30
0.0
 10
82.41295024155606
 20
145.1580625796376
 30
0.0
  0
LINE
  5
EA
330
1F
100
AcDbEntity
  8
0
  6
Continuous
 62
     7
370
     0
100
AcDbLine
 10
87.7629786914
 20
147.8580617394
 30
0.0
 11
87.7629786914
 21
145.1580607381
 31
0.0
  0
LINE
  5
EB
330
1F
100
AcDbEntity
  8
0
  6
Continuous
 62
     7
370
     0
100
AcDbLine
 10
82.4129502939
 20
145.1580607381
 30
0.0
 11
82.4129502939
 21
147.8580617394
 31
0.0
  0
LINE
  5
EC
330
1F
100
AcDbEntity
  8
0
  6
Continuous
 62
     7
370
     0
100
AcDbLine
 10
89.3646130057
 20
145.1580607381
 30
0.0
 11
89.3646130057
 21
147.8580617394
 31
0.0
  0
SPLINE
  5
ED
330
1F
100
AcDbEntity
  8
0
  6
Continuous
 62
     7
370
     0
100
AcDbSpline
210
0.0
220
0.0
230
1.0
 70
     8
 71
     3
 72
     8
 73
     4
 74
     0
 42
0.000000001
 43
0.00000001
 40
0.0
 40
0.0
 40
0.0
 40
0.0
 40
1.0
 40
1.0
 40
1.0
 40
1.0
 10
88.56379574116272
 20
144.8580625797878
 30
0.0
 10
88.84038319111463
 20
144.8580625797783
 30
0.0
 10
89.106063754812
 20
144.9711060579168
 30
0.0
 10
89.36461289282454
 20
145.1580625795098
 30
0.0
  0
SPLINE
  5
EE
330
1F
100
AcDbEntity
  8
0
  6
Continuous
 62
     7
370
     0
100
AcDbSpline
210
0.0
220
0.0
230
1.0
 70
     8
 71
     3
 72
     8
 73
     4
 74
     0
 42
0.000000001
 43
0.00000001
 40
0.0
 40
0.0
 40
0.0
 40
0.0
 40
1.0
 40
1.0
 40
1.0
 40
1.0
 10
80.85875663648702
 20
145.1580625796259
 30
0.0
 10
81.1096475021448
 20
144.9711060580078
 30
0.0
 10
81.3674585593354
 20
144.8580625798128
 30
0.0
 10
81.63585343886831
 20
144.8580625797726
 30
0.0
  0
LINE
  5
EF
330
1F
100
AcDbEntity
  8
0
  6
Continuous
 62
     7
370
     0
100
AcDbLine
 10
80.858756853
 20
147.8580617394
 30
0.0
 11
80.858756853
 21
145.1580607381
 31
0.0
  0
LINE
  5
F0
330
1F
100
AcDbEntity
  8
0
  6
Continuous
 62
     7
370
     0
100
AcDbLine
 10
89.3646130057
 20
145.1580607381
 30
0.0
 11
89.4171822069
 21
145.1580607381
 31
0.0
  0
LINE
  5
F1
330
1F
100
AcDbEntity
  8
0
  6
Continuous
 62
     7
370
     0
100
AcDbLine
 10
88.5637957321
 20
144.8580631104
 30
0.0
 11
89.1171822508
 21
144.8580631104
 31
0.0
  0
LINE
  5
F2
330
1F
100
AcDbEntity
  8
0
  6
Continuous
 62
     7
370
     0
100
AcDbLine
 10
80.8171821476
 20
145.1580607381
 30
0.0
 11
80.858756853
 21
145.1580607381
 31
0.0
  0
LINE
  5
F3
330
1F
100
AcDbEntity
  8
0
  6
Continuous
 62
     7
370
     0
100
AcDbLine
 10
81.1171821037
 20
144.8580631104
 30
0.0
 11
81.6358533406
 21
144.8580631104
 31
0.0
  0
LINE
  5
F4
330
1F
100
AcDbEntity
  8
0
  6
Continuous
 62
     7
370
     0
100
AcDbLine
 10
85.101560347
 20
142.3580617692
 30
0.0
 11
86.9171822627
 21
142.3580617692
 31
0.0
  0
LINE
  5
F5
330
1F
100
AcDbEntity
  8
0
  6
Continuous
 62
     7
370
     0
100
AcDbLine
 10
83.3171823246
 20
142.3580617692
 30
0.0
 11
85.101560347
 21
142.3580617692
 31
0.0
  0
LINE
  5
F6
330
1F
100
AcDbEntity
  8
0
  6
Continuous
 62
     7
370
     0
100
AcDbLine
 10
85.101560347
 20
139.8580641534
 30
0.0
 11
86.9171822627
 21
139.8580641534
 31
0.0
  0
LINE
  5
F7
330
1F
100
AcDbEntity
  8
0
  6
Continuous
 62
     7
370
     0
100
AcDbLine
 10
83.3171823246
 20
139.8580641534
 30
0.0
 11
85.101560347
 21
139.8580641534
 31
0.0
  0
LINE
  5
F8
330
1F
100
AcDbEntity
  8
0
  6
Continuous
 62
     7
370
     0
100
AcDbLine
 10
85.1041639757
 20
137.8580638256
 30
0.0
 11
86.6171822485
 21
137.8580638256
 31
0.0
  0
LINE
  5
F9
330
1F
100
AcDbEntity
  8
0
  6
Continuous
 62
     7
370
     0
100
AcDbLine
 10
83.6171822806
 20
137.8580638256
 30
0.0
 11
85.1041639757
 21
137.8580638256
 31
0.0
  0
LINE
  5
FA
330
1F
100
AcDbEntity
  8
0
  6
Continuous
 62
     7
370
     0
100
AcDbLine
 10
83.3171823246
 20
140.3580614414
 30
0.0
 11
86.9171143926
 21
140.3580614414
 31
0.0
  0
LINE
  5
FB
330
1F
100
AcDbEntity
  8
0
  6
Continuous
 62
     7
370
     0
100
AcDbLine
 10
83.3171823246
 20
142.8580627825
 30
0.0
 11
86.9171143926
 21
142.8580627825
 31
0.0
  0
LINE
  5
FC
330
1F
100
AcDbEntity
  8
0
  6
Continuous
 62
     7
370
     0
100
AcDbLine
 10
98.6197163069
 20
175.2125834163
 30
0.0
 11
100.34219834
 21
185.841577505
 31
0.0
  0
LINE
  5
FD
330
1F
100
AcDbEntity
  8
0
  6
Continuous
 62
     7
370
     0
100
AcDbLine
 10
98.1171820962
 20
175.2940215219
 30
0.0
 11
98.6197163069
 21
175.2125834163
 31
0.0
  0
LINE
  5
FE
330
1F
100
AcDbEntity
  8
0
  6
Continuous
 62
     7
370
     0
100
AcDbLine
 10
100.34219834
 20
185.841577505
 30
0.0
 11
98.1171820962
 21
197.5111038473
 31
0.0
  0
LINE
  5
FF
330
1F
100
AcDbEntity
  8
0
  6
Continuous
 62
     7
370
     0
100
AcDbLine
 10
98.6197163069
 20
175.2125834163
 30
0.0
 11
98.1171820962
 21
174.8502113905
 31
0.0
  0
LINE
  5
100
330
1F
100
AcDbEntity
  8
0
  6
Continuous
 62
     7
370
     0
100
AcDbLine
 10
101.7282559255
 20
186.580892564
 30
0.0
 11
101.7273860702
 21
186.5854593042
 31
0.0
  0
LINE
  5
101
330
1F
100
AcDbEntity
  8
0
  6
Continuous
 62
     7
370
     0
100
AcDbLine
 10
100.2548011669
 20
186.2999507275
 30
0.0
 11
101.7282559255
 21
186.580892564
 31
0.0
  0
LINE
  5
102
330
1F
100
AcDbEntity
  8
0
  6
Continuous
 62
     7
370
     0
100
AcDbLine
 10
71.6146482804
 20
175.2125834163
 30
0.0
 11
72.1171824911
 21
175.2940215219
 31
0.0
  0
LINE
  5
103
330
1F
100
AcDbEntity
  8
0
  6
Continuous
 62
     7
370
     0
100
AcDbLine
 10
71.6146482804
 20
175.2125834163
 30
0.0
 11
69.892165316
 21
185.841577505
 31
0.0
  0
LINE
  5
104
330
1F
100
AcDbEntity
  8
0
  6
Continuous
 62
     7
370
     0
100
AcDbLine
 10
69.892165316
 20
185.841577505
 30
0.0
 11
72.1171824911
 21
197.5111038473
 31
0.0
  0
LINE
  5
105
330
1F
100
AcDbEntity
  8
0
  6
Continuous
 62
     7
370
     0
100
AcDbLine
 10
71.6146482804
 20
175.2125834163
 30
0.0
 11
72.1171824911
 21
174.8502113905
 31
0.0
  0
LINE
  5
106
330
1F
100
AcDbEntity
  8
0
  6
Continuous
 62
     7
370
     0
100
AcDbLine
 10
69.9795643517
 20
186.2999507275
 30
0.0
 11
68.5061077306
 21
186.580892564
 31
0.0
  0
LINE
  5
107
330
1F
100
AcDbEntity
  8
0
  6
Continuous
 62
     7
370
     0
100
AcDbLine
 10
68.5061077306
 20
186.580892564
 30
0.0
 11
68.5069794485
 21
186.5854593042
 31
0.0
  0
LWPOLYLINE
  5
108
330
1F
100
AcDbEntity
  8
0
  6
Continuous
 62
     8
370
     0
100
AcDbPolyline
 90
       10
 70
   128
 43
0.0
 10
102.0289445945
 20
202.6231632617
 10
101.9247314611
 20
203.169728541
 10
101.8225001821
 20
203.7058983978
 10
101.7264361211
 20
204.2097215589
 10
101.6404731849
 20
204.6605748173
 10
101.5681280473
 20
205.0399956342
 10
101.5123660394
 20
205.332455137
 10
101.475467039
 20
205.5259765174
 10
101.4589435139
 20
205.612636083
 10
101.4580811092
 20
205.6171604481
  0
LWPOLYLINE
  5
109
330
1F
100
AcDbEntity
  8
0
  6
Continuous
 62
     8
370
     0
100
AcDbPolyline
 90
        9
 70
   128
 43
0.0
 10
102.4882021078
 20
200.2144911375
 10
102.4877159574
 20
200.2170410987
 10
102.4726788232
 20
200.2959092196
 10
102.4371898451
 20
200.4820377615
 10
102.3827018866
 20
200.7678066429
 10
102.311448259
 20
201.1415147271
 10
102.2263440022
 20
201.5878641095
 10
102.1308722624
 20
202.0885803785
 10
102.0289445945
 20
202.6231632617
  0
LWPOLYLINE
  5
10A
330
1F
100
AcDbEntity
  8
0
  6
Continuous
 62
     8
370
     0
100
AcDbPolyline
 90
       10
 70
   128
 43
0.0
 10
103.9018920341
 20
192.8001250189
 10
103.7976789006
 20
193.3466902983
 10
103.6954476216
 20
193.882860155
 10
103.5993835607
 20
194.3866851788
 10
103.5134206244
 20
194.8375365745
 10
103.4410773495
 20
195.2169592541
 10
103.385313479
 20
195.5094168943
 10
103.3484163412
 20
195.7029382747
 10
103.3318928161
 20
195.7895997029
 10
103.3310285488
 20
195.7941231366
  0
LWPOLYLINE
  5
10B
330
1F
100
AcDbEntity
  8
0
  6
Continuous
 62
     8
370
     0
100
AcDbPolyline
 90
        9
 70
   128
 43
0.0
 10
104.36115141
 20
190.3914528947
 10
104.3606652596
 20
190.3940037873
 10
104.3456262627
 20
190.4728719082
 10
104.3101372847
 20
190.6590013813
 10
104.2556511888
 20
190.9447693315
 10
104.1843956986
 20
191.3184774157
 10
104.0992914417
 20
191.7648267981
 10
104.003819702
 20
192.2655421358
 10
103.9018920341
 20
192.8001250189
  0
LWPOLYLINE
  5
10C
330
1F
100
AcDbEntity
  8
0
  6
Continuous
 62
     8
370
     0
100
AcDbPolyline
 90
       17
 70
   128
 43
0.0
 10
68.7762825468
 20
205.6171604481
 10
68.7704133519
 20
205.586380237
 10
68.7443847486
 20
205.4498613861
 10
68.6985729912
 20
205.2095969256
 10
68.6348574886
 20
204.8754253473
 10
68.5558440813
 20
204.4610277798
 10
68.4647700468
 20
203.9833710578
 10
68.3653625378
 20
203.4620073673
 10
68.2616914341
 20
202.9182826217
 10
68.1579998413
 20
202.3744572934
 10
68.0585364529
 20
201.8527955797
 10
67.9673692861
 20
201.3746564325
 10
67.8882329443
 20
200.9596106645
 10
67.8243665674
 20
200.6246530499
 10
67.7783853093
 20
200.3834963825
 10
67.7521723041
 20
200.246014544
 10
67.7461615482
 20
200.2144911375
  0
LWPOLYLINE
  5
10D
330
1F
100
AcDbEntity
  8
0
  6
Continuous
 62
     8
370
     0
100
AcDbPolyline
 90
       17
 70
   128
 43
0.0
 10
66.9033351073
 20
195.7941231366
 10
66.8974659124
 20
195.7633429256
 10
66.8714354464
 20
195.6268231433
 10
66.8256255516
 20
195.3865596142
 10
66.761910049
 20
195.0523880359
 10
66.6828966418
 20
194.6379913997
 10
66.5918226072
 20
194.160332815
 10
66.4924132356
 20
193.6389691245
 10
66.3887421319
 20
193.0952453103
 10
66.2850524017
 20
192.551419982
 10
66.1855871507
 20
192.0297591996
 10
66.0944218466
 20
191.5516181898
 10
66.0152855047
 20
191.1365733531
 10
65.9514191279
 20
190.8016157385
 10
65.9054378697
 20
190.560459071
 10
65.8792248645
 20
190.4229772326
 10
65.8732141086
 20
190.3914528947
  0
DIMENSION
  5
10E
330
1F
100
AcDbEntity
  8
0
  6
Continuous
 62
     7
370
     0
100
AcDbDimension
  2
_D
 10
79.117182234
 20
127.8580625799
 30
0.0
 11
85.117182234
 21
127.8580625799
 31
0.0
 70
   160
  1
%%c<>
 71
     2
 42
-1.0
  3
SLDDIMSTYLE0
100
AcDbAlignedDimension
 13
91.117182234
 23
148.3580625799
 33
0.0
 14
79.117182234
 24
148.3580625799
 34
0.0
 50
0.0
100
AcDbRotatedDimension
  0
DIMENSION
  5
11C
330
1F
100
AcDbEntity
  8
0
  6
Continuous
 62
     7
370
     0
100
AcDbDimension
  2
_D_1
 10
93.117182234
 20
121.8580625799
 30
0.0
 11
85.117182234
 21
121.8580625799
 31
0.0
 70
   160
  1
<>
 71
     2
 42
-1.0
  3
SLDDIMSTYLE1
100
AcDbAlignedDimension
 13
77.117182234
 23
167.8580625799
 33
0.0
 14
93.117182234
 24
167.8580625799
 34
0.0
 50
0.0
100
AcDbRotatedDimension
  0
DIMENSION
  5
127
330
1F
100
AcDbEntity
  8
0
  6
Continuous
 62
     7
370
     0
100
AcDbDimension
  2
_D_2
 10
98.117182234
 20
115.8580625799
 30
0.0
 11
85.117182234
 21
115.8580625799
 31
0.0
 70
   160
  1
<>
 71
     2
 42
-1.0
  3
SLDDIMSTYLE1
100
AcDbAlignedDimension
 13
72.117182234
 23
163.8580625799
 33
0.0
 14
98.117182234
 24
163.8580625799
 34
0.0
 50
0.0
100
AcDbRotatedDimension
  0
DIMENSION
  5
131
330
1F
100
AcDbEntity
  8
0
  6
Continuous
 62
     7
370
     0
100
AcDbDimension
  2
_D_3
 10
111.75237355
 20
167.8580625799
 30
0.0
 11
111.75237355
 21
165.8580625799
 31
0.0
 70
   160
  1
<>
 71
     2
 42
-1.0
  3
SLDDIMSTYLE0
100
AcDbAlignedDimension
 13
98.117182234
 23
163.8580625799
 33
0.0
 14
93.117182234
 24
167.8580625799
 34
0.0
 50
90.0
100
AcDbRotatedDimension
  0
DIMENSION
  5
13D
330
1F
100
AcDbEntity
  8
0
  6
Continuous
 62
     7
370
     0
100
AcDbDimension
  2
_D_4
 10
111.75237355
 20
167.8580625799
 30
0.0
 11
111.75237355
 21
180.8580625799
 31
0.0
 70
   160
  1
<>
 71
     2
 42
-1.0
  3
SLDDIMSTYLE1
100
AcDbAlignedDimension
 13
85.117182234
 23
193.8580625799
 33
0.0
 14
93.117182234
 24
167.8580625799
 34
0.0
 50
90.0
100
AcDbRotatedDimension
  0
DIMENSION
  5
147
330
1F
100
AcDbEntity
  8
0
  6
Continuous
 62
     7
370
     0
100
AcDbDimension
  2
_D_5
 10
120.523691836
 20
163.8580625799
 30
0.0
 11
120.523691836
 21
185.9580625799
 31
0.0
 70
   160
  1
<>
 71
     2
 42
-1.0
  3
SLDDIMSTYLE1
100
AcDbAlignedDimension
 13
88.117182234
 23
208.0580625799
 33
0.0
 14
98.117182234
 24
163.8580625799
 34
0.0
 50
90.0
100
AcDbRotatedDimension
  0
DIMENSION
  5
151
330
1F
100
AcDbEntity
  8
0
  6
Continuous
 62
     7
370
     0
100
AcDbDimension
  2
_D_6
 10
120.523691836
 20
147.8580625799
 30
0.0
 11
120.523691836
 21
155.8580625799
 31
0.0
 70
   160
  1
<>
 71
     2
 42
-1.0
  3
SLDDIMSTYLE1
100
AcDbAlignedDimension
 13
98.117182234
 23
163.8580625799
 33
0.0
 14
90.617182234
 24
147.8580625799
 34
0.0
 50
90.0
100
AcDbRotatedDimension
  0
DIMENSION
  5
15B
330
1F
100
AcDbEntity
  8
0
  6
Continuous
 62
     7
370
     0
100
AcDbDimension
  2
_D_7
 10
128.3871175984
 20
239.0216389126
 30
0.0
 11
128.3871175984
 21
188.4398507463
 31
0.0
 70
   160
  1
(<>)
 71
     2
 42
-1.0
  3
SLDDIMSTYLE1
100
AcDbAlignedDimension
 13
86.167182234
 23
137.8580625799
 33
0.0
 14
92.4476490979
 24
239.0216389126
 34
0.0
 50
90.0
100
AcDbRotatedDimension
  0
DIMENSION
  5
167
330
1F
100
AcDbEntity
  8
0
  6
Continuous
 62
     7
370
     0
100
AcDbDimension
  2
_D_8
 10
92.4476490979
 20
249.0216389126
 30
0.0
 11
85.117182234
 21
249.0216389126
 31
0.0
 70
   160
  1
(<>)
 71
     2
 42
-1.0
  3
SLDDIMSTYLE0
100
AcDbAlignedDimension
 13
77.7867153701
 23
239.0216389126
 33
0.0
 14
92.4476490979
 24
239.0216389126
 34
0.0
 50
0.0
100
AcDbRotatedDimension
  0
DIMENSION
  5
175
330
1F
100
AcDbEntity
  8
0
  6
Continuous
 62
     7
370
     0
100
AcDbDimension
  2
_D_9
 10
78.778719501
 20
166.7448267961
 30
0.0
 11
38.3004405044
 21
185.9580625799
 31
0.0
 70
   163
  1
3-<>取付穴\P(両側口元面取有)
 71
     1
 42
-1.0
  3
SLDDIMSTYLE2
100
AcDbDiametricDimension
 15
75.4556449669
 25
168.9712983636
 35
0.0
 40
0.0
  0
INSERT
  5
186
330
1F
100
AcDbEntity
  8
0
  6
Continuous
 62
     7
370
     0
100
AcDbBlockReference
  2
SW_NOTE_0
 10
45.9353575832
 20
165.233656368
 30
0.0
  0
LEADER
  5
188
330
1F
100
AcDbEntity
  8
0
  6
Continuous
 62
     7
370
     0
100
AcDbLeader
  3
SLDDIMSTYLE3
 76
     2
 10
84.1213304756
 20
140.976065753
 30
0.0
 10
45.9353575832
 20
165.233656368
 30
0.0
  0
INSERT
  5
18E
330
1F
100
AcDbEntity
  8
0
  6
Continuous
 62
     7
370
     0
100
AcDbBlockReference
  2
SW_NOTE_1
 10
56.0128542603
 20
218.01816
 30
0.0
  0
LEADER
  5
18F
330
1F
100
AcDbEntity
  8
0
  6
Continuous
 62
     7
370
     0
100
AcDbLeader
  3
SLDDIMSTYLE3
 76
     2
 10
69.1958077434
 20
202.1881976512
 30
0.0
 10
56.0128542603
 20
218.01816
 30
0.0
  0
INSERT
  5
19B
330
1F
100
AcDbEntity
  8
0
  6
Continuous
 62
     7
370
     0
100
AcDbBlockReference
  2
SW_CENTERMARKSYMBOL_0
 10
85.117182234
 20
193.8580625799
 30
0.0
  0
INSERT
  5
1A7
330
1F
100
AcDbEntity
  8
0
  6
Continuous
 62
     7
370
     0
100
AcDbBlockReference
  2
SW_CENTERMARKSYMBOL_1
 10
75.117182234
 20
197.3580625799
 30
0.0
  0
INSERT
  5
1B3
330
1F
100
AcDbEntity
  8
0
  6
Continuous
 62
     7
370
     0
100
AcDbBlockReference
  2
SW_CENTERMARKSYMBOL_2
 10
95.117182234
 20
197.3580625799
 30
0.0
  0
INSERT
  5
1BF
330
1F
100
AcDbEntity
  8
0
  6
Continuous
 62
     7
370
     0
100
AcDbBlockReference
  2
SW_CENTERMARKSYMBOL_3
 10
93.117182234
 20
167.8580625799
 30
0.0
  0
INSERT
  5
1CB
330
1F
100
AcDbEntity
  8
0
  6
Continuous
 62
     7
370
     0
100
AcDbBlockReference
  2
SW_CENTERMARKSYMBOL_4
 10
77.117182234
 20
167.8580625799
 30
0.0
  0
CIRCLE
  5
1CC
330
1F
100
AcDbEntity
  8
0
  6
Continuous
 62
     7
370
     0
100
AcDbCircle
 10
77.117182234
 20
167.8580625799
 30
0.0
 40
1.999999752660798
  0
CIRCLE
  5
1CD
330
1F
100
AcDbEntity
  8
0
  6
Continuous
 62
     7
370
     0
100
AcDbCircle
 10
93.117182234
 20
167.8580625799
 30
0.0
 40
1.999999752660798
  0
CIRCLE
  5
1CE
330
1F
100
AcDbEntity
  8
0
  6
Continuous
 62
     7
370
     0
100
AcDbCircle
 10
85.117182234
 20
193.8580625799
 30
0.0
 40
2.00000014754157
  0
LINE
  5
1CF
330
1F
100
AcDbEntity
  8
0
  6
CENTERX2
 62
     7
370
     0
100
AcDbLine
 10
85.117182234
 20
133.1881818746
 30
0.0
 11
85.117182234
 21
237.6215738499
 31
0.0
  0
LINE
  5
1D0
330
1F
100
AcDbEntity
  8
0
  6
Continuous
 62
     7
370
     0
100
AcDbLine
 10
103.8460909107
 20
91.3402238657
 30
0.0
 11
103.2008408287
 21
91.3402238657
 31
0.0
  0
LINE
  5
1D1
330
1F
100
AcDbEntity
  8
0
  6
Continuous
 62
     7
370
     0
100
AcDbLine
 10
103.2008408287
 20
85.8402238955
 30
0.0
 11
103.8460909107
 21
85.8402238955
 31
0.0
  0
SPLINE
  5
1D2
330
1F
100
AcDbEntity
  8
0
  6
Continuous
 62
     7
370
     0
100
AcDbSpline
210
0.0
220
0.0
230
1.0
 70
     8
 71
     3
 72
    10
 73
     6
 74
     0
 42
0.000000001
 43
0.00000001
 40
0.0
 40
0.0
 40
0.0
 40
0.0
 40
0.340008173654534
 40
0.8159388843963495
 40
1.0
 40
1.0
 40
1.0
 40
1.0
 10
104.2282144257263
 20
90.9719884657493
 30
0.0
 10
104.2097540153824
 20
91.01982446942174
 30
0.0
 10
104.1654534138423
 20
91.13461951993754
 30
0.0
 10
104.0932219876068
 20
91.23262005087861
 30
0.0
 10
104.0190932167537
 20
91.28380517946196
 30
0.0
 10
103.9984198936656
 20
91.29807988938002
 30
0.0
  0
SPLINE
  5
1D3
330
1F
100
AcDbEntity
  8
0
  6
Continuous
 62
     7
370
     0
100
AcDbSpline
210
0.0
220
0.0
230
1.0
 70
     8
 71
     3
 72
    12
 73
     8
 74
     0
 42
0.000000001
 43
0.00000001
 40
0.0
 40
0.0
 40
0.0
 40
0.0
 40
0.0888605057849745
 40
0.3145389764274674
 40
0.5475365422950191
 40
0.8647217753375395
 40
1.0
 40
1.0
 40
1.0
 40
1.0
 10
103.8353956022695
 20
85.85142025549023
 30
0.0
 10
103.857156196167
 20
85.84788296426859
 30
0.0
 10
103.9341820342547
 20
85.83536203666024
 30
0.0
 10
104.0518165528921
 20
85.91066976363497
 30
0.0
 10
104.1522085431793
 20
86.02929763913652
 30
0.0
 10
104.2210501677539
 20
86.155751115491
 30
0.0
 10
104.2570163371425
 20
86.27612535573884
 30
0.0
 10
104.2677695581153
 20
86.31211503233818
 30
0.0
  0
LINE
  5
1D4
330
1F
100
AcDbEntity
  8
0
  6
Continuous
 62
     7
370
     0
100
AcDbLine
 10
66.3882746079
 20
85.8402238955
 30
0.0
 11
67.0335228273
 21
85.8402238955
 31
0.0
  0
LINE
  5
1D5
330
1F
100
AcDbEntity
  8
0
  6
Continuous
 62
     7
370
     0
100
AcDbLine
 10
67.0335228273
 20
91.3402238657
 30
0.0
 11
66.3882746079
 21
91.3402238657
 31
0.0
  0
SPLINE
  5
1D6
330
1F
100
AcDbEntity
  8
0
  6
Continuous
 62
     7
370
     0
100
AcDbSpline
210
0.0
220
0.0
230
1.0
 70
     8
 71
     3
 72
    12
 73
     8
 74
     0
 42
0.000000001
 43
0.00000001
 40
0.0
 40
0.0
 40
0.0
 40
0.0
 40
0.109079382594916
 40
0.3334302959942588
 40
0.5705407665591197
 40
0.8990850966364716
 40
1.0
 40
1.0
 40
1.0
 40
1.0
 10
66.39816897897275
 20
91.32851597677974
 30
0.0
 10
66.37102590718904
 20
91.33159486633711
 30
0.0
 10
66.28805585140273
 20
91.34100631543068
 30
0.0
 10
66.17175412920017
 20
91.26016206211615
 30
0.0
 10
66.07289726206436
 20
91.13604048205234
 30
0.0
 10
66.00706628132546
 20
91.0110556707103
 30
0.0
 10
65.97332197408787
 20
90.89432631481543
 30
0.0
 10
65.9653926917747
 20
90.86689709510712
 30
0.0
  0
SPLINE
  5
1D7
330
1F
100
AcDbEntity
  8
0
  6
Continuous
 62
     7
370
     0
100
AcDbSpline
210
0.0
220
0.0
230
1.0
 70
     8
 71
     3
 72
    13
 73
     9
 74
     0
 42
0.000000001
 43
0.00000001
 40
0.0
 40
0.0
 40
0.0
 40
0.0
 40
0.1115763938385976
 40
0.3274582351736592
 40
0.5472067438336301
 40
0.7784321268479315
 40
0.9154506500413851
 40
1.0
 40
1.0
 40
1.0
 40
1.0
 10
65.81239501921688
 20
87.00254578433989
 30
0.0
 10
65.82313563086186
 20
86.93290912826744
 30
0.0
 10
65.85465754703922
 20
86.72853707682916
 30
0.0
 10
65.91894252026209
 20
86.43679868035433
 30
0.0
 10
66.01217541599743
 20
86.15466405257929
 30
0.0
 10
66.11226315225845
 20
85.98179242037307
 30
0.0
 10
66.23701890971498
 20
85.86241366349554
 30
0.0
 10
66.3303560899639
 20
85.85446319902357
 30
0.0
 10
66.36597315756829
 20
85.85142933588533
 30
0.0
  0
CIRCLE
  5
1D8
330
1F
100
AcDbEntity
  8
0
  6
Continuous
 62
     7
370
     0
100
AcDbCircle
 10
85.117182234
 20
88.5902238806
 30
0.0
 40
5.500000000000014
  0
CIRCLE
  5
1D9
330
1F
100
AcDbEntity
  8
0
  6
Continuous
 62
     7
370
     0
100
AcDbCircle
 10
85.117182234
 20
88.5902238806
 30
0.0
 40
6.000000000000014
  0
CIRCLE
  5
1DA
330
1F
100
AcDbEntity
  8
0
  6
Continuous
 62
     7
370
     0
100
AcDbCircle
 10
85.117182234
 20
88.5902238806
 30
0.0
 40
1.0
  0
LINE
  5
1DB
330
1F
100
AcDbEntity
  8
0
  6
Continuous
 62
     7
370
     0
100
AcDbLine
 10
97.1171819323
 20
82.0902237465
 30
0.0
 11
98.1171820962
 21
83.0902239104
 31
0.0
  0
LINE
  5
1DC
330
1F
100
AcDbEntity
  8
0
  6
Continuous
 62
     7
370
     0
100
AcDbLine
 10
73.117182655
 20
82.0902237465
 30
0.0
 11
97.1171819323
 21
82.0902237465
 31
0.0
  0
LINE
  5
1DD
330
1F
100
AcDbEntity
  8
0
  6
Continuous
 62
     7
370
     0
100
AcDbLine
 10
72.1171824911
 20
83.0902239104
 30
0.0
 11
73.117182655
 21
82.0902237465
 31
0.0
  0
LINE
  5
1DE
330
1F
100
AcDbEntity
  8
0
  6
Continuous
 62
     7
370
     0
100
AcDbLine
 10
72.1171824911
 20
94.0902238508
 30
0.0
 11
72.1171824911
 21
83.0902239104
 31
0.0
  0
LINE
  5
1DF
330
1F
100
AcDbEntity
  8
0
  6
Continuous
 62
     7
370
     0
100
AcDbLine
 10
73.117182655
 20
95.0902240147
 30
0.0
 11
72.1171824911
 21
94.0902238508
 31
0.0
  0
LINE
  5
1E0
330
1F
100
AcDbEntity
  8
0
  6
Continuous
 62
     7
370
     0
100
AcDbLine
 10
73.117182655
 20
95.0902240147
 30
0.0
 11
97.1171819323
 21
95.0902240147
 31
0.0
  0
LINE
  5
1E1
330
1F
100
AcDbEntity
  8
0
  6
Continuous
 62
     7
370
     0
100
AcDbLine
 10
98.1171820962
 20
94.0902238508
 30
0.0
 11
97.1171819323
 21
95.0902240147
 31
0.0
  0
LINE
  5
1E2
330
1F
100
AcDbEntity
  8
0
  6
Continuous
 62
     7
370
     0
100
AcDbLine
 10
98.1171820962
 20
94.0902238508
 30
0.0
 11
98.1171820962
 21
83.0902239104
 31
0.0
  0
LINE
  5
1E3
330
1F
100
AcDbEntity
  8
0
  6
Continuous
 62
     7
370
     0
100
AcDbLine
 10
68.2122884968
 20
90.0902238936
 30
0.0
 11
68.2122884968
 21
87.0902238676
 31
0.0
  0
LINE
  5
1E4
330
1F
100
AcDbEntity
  8
0
  6
Continuous
 62
     7
370
     0
100
AcDbLine
 10
68.5061077306
 20
87.0902238676
 30
0.0
 11
68.2122884968
 21
87.0902238676
 31
0.0
  0
LINE
  5
1E5
330
1F
100
AcDbEntity
  8
0
  6
Continuous
 62
     7
370
     0
100
AcDbLine
 10
69.892165316
 20
86.8800823373
 30
0.0
 11
69.6857432553
 21
87.0902238676
 31
0.0
  0
LINE
  5
1E6
330
1F
100
AcDbEntity
  8
0
  6
Continuous
 62
     7
370
     0
100
AcDbLine
 10
67.0335228273
 20
91.5902239067
 30
0.0
 11
67.0335228273
 21
85.5902238545
 31
0.0
  0
LINE
  5
1E7
330
1F
100
AcDbEntity
  8
0
  6
Continuous
 62
     7
370
     0
100
AcDbLine
 10
67.0335228273
 20
91.5902239067
 30
0.0
 11
69.892165316
 21
91.5902239067
 31
0.0
  0
LINE
  5
1E8
330
1F
100
AcDbEntity
  8
0
  6
Continuous
 62
     7
370
     0
100
AcDbLine
 10
69.6857432553
 20
90.0902238936
 30
0.0
 11
69.892165316
 21
90.3003654239
 31
0.0
  0
LINE
  5
1E9
330
1F
100
AcDbEntity
  8
0
  6
Continuous
 62
     7
370
     0
100
AcDbLine
 10
68.2122884968
 20
90.0902238936
 30
0.0
 11
68.5061077306
 21
90.0902238936
 31
0.0
  0
LINE
  5
1EA
330
1F
100
AcDbEntity
  8
0
  6
Continuous
 62
     7
370
     0
100
AcDbLine
 10
67.0335228273
 20
85.5902238545
 30
0.0
 11
69.892165316
 21
85.5902238545
 31
0.0
  0
LINE
  5
1EB
330
1F
100
AcDbEntity
  8
0
  6
Continuous
 62
     7
370
     0
100
AcDbLine
 10
100.548621332
 20
87.0902238676
 30
0.0
 11
100.34219834
 21
86.8800823373
 31
0.0
  0
LINE
  5
1EC
330
1F
100
AcDbEntity
  8
0
  6
Continuous
 62
     7
370
     0
100
AcDbLine
 10
102.0220770219
 20
87.0902238676
 30
0.0
 11
102.0220770219
 21
90.0902238936
 31
0.0
  0
LINE
  5
1ED
330
1F
100
AcDbEntity
  8
0
  6
Continuous
 62
     7
370
     0
100
AcDbLine
 10
101.7282559255
 20
90.0902238936
 30
0.0
 11
102.0220770219
 21
90.0902238936
 31
0.0
  0
LINE
  5
1EE
330
1F
100
AcDbEntity
  8
0
  6
Continuous
 62
     7
370
     0
100
AcDbLine
 10
100.34219834
 20
90.3003654239
 30
0.0
 11
100.548621332
 21
90.0902238936
 31
0.0
  0
LINE
  5
1EF
330
1F
100
AcDbEntity
  8
0
  6
Continuous
 62
     7
370
     0
100
AcDbLine
 10
103.2008408287
 20
85.5902238545
 30
0.0
 11
103.2008408287
 21
91.5902239067
 31
0.0
  0
LINE
  5
1F0
330
1F
100
AcDbEntity
  8
0
  6
Continuous
 62
     7
370
     0
100
AcDbLine
 10
102.0220770219
 20
87.0902238676
 30
0.0
 11
101.7282559255
 21
87.0902238676
 31
0.0
  0
LINE
  5
1F1
330
1F
100
AcDbEntity
  8
0
  6
Continuous
 62
     7
370
     0
100
AcDbLine
 10
103.2008408287
 20
91.5902239067
 30
0.0
 11
100.34219834
 21
91.5902239067
 31
0.0
  0
LINE
  5
1F2
330
1F
100
AcDbEntity
  8
0
  6
Continuous
 62
     7
370
     0
100
AcDbLine
 10
103.2008408287
 20
85.5902238545
 30
0.0
 11
100.34219834
 21
85.5902238545
 31
0.0
  0
LINE
  5
1F3
330
1F
100
AcDbEntity
  8
0
  6
Continuous
 62
     7
370
     0
100
AcDbLine
 10
103.9018920341
 20
91.3240370137
 30
0.0
 11
103.8460909107
 21
91.3402238657
 31
0.0
  0
ARC
  5
1F4
330
1F
100
AcDbEntity
  8
0
  6
Continuous
 62
     7
370
     0
100
AcDbCircle
 10
95.3170552591
 20
88.5702458679
 30
0.0
 40
9.226571639443698
100
AcDbArc
 50
346.2023726571
 51
14.6382609
  0
ARC
  5
1F5
330
1F
100
AcDbEntity
  8
0
  6
Continuous
 62
     7
370
     0
100
AcDbCircle
 10
75.4904634613
 20
88.5578748828
 30
0.0
 40
9.796284608030119
100
AcDbArc
 50
166.7207392316
 51
188.965715165
  0
CIRCLE
  5
1F6
330
1F
100
AcDbEntity
  8
0
  6
Continuous
 62
     7
370
     0
100
AcDbCircle
 10
85.117182234
 20
88.5902238806
 30
0.0
 40
1.799999999999998
  0
CIRCLE
  5
1F7
330
1F
100
AcDbEntity
  8
0
  6
Continuous
 62
     7
370
     0
100
AcDbCircle
 10
85.117182234
 20
88.5902238806
 30
0.0
 40
1.499999999999998
  0
CIRCLE
  5
1F8
330
1F
100
AcDbEntity
  8
0
  6
Continuous
 62
     7
370
     0
100
AcDbCircle
 10
85.117182234
 20
88.5902238806
 30
0.0
 40
1.050000000000006
  0
ARC
  5
1F9
330
1F
100
AcDbEntity
  8
0
  6
Continuous
 62
     7
370
     0
100
AcDbCircle
 10
85.117182234
 20
88.5902238806
 30
0.0
 40
4.299999999970412
100
AcDbArc
 50
172.0261705189
 51
188.9683617045
  0
SPLINE
  5
1FA
330
1F
100
AcDbEntity
  8
0
  6
Continuous
 62
     7
370
     0
100
AcDbSpline
210
0.0
220
0.0
230
1.0
 70
    24
 71
     3
 72
     8
 73
     4
 74
     0
 42
0.000000001
 43
0.00000001
 40
0.0
 40
0.0
 40
0.0
 40
0.0
 40
1.0
 40
1.0
 40
1.0
 40
1.0
 10
80.858756636487
 20
89.18672319176916
 30
0.0
 10
81.10964750214478
 20
89.63012192942985
 30
0.0
 10
81.36745855933539
 20
90.08575070257622
 30
0.0
 10
81.6358534388683
 20
90.56008423587359
 30
0.0
  0
ARC
  5
1FB
330
1F
100
AcDbEntity
  8
0
  6
Continuous
 62
     7
370
     0
100
AcDbCircle
 10
85.117182234
 20
88.5902238806
 30
0.0
 40
3.999999999940356
100
AcDbArc
 50
150.4972661119
 51
210.4972661049
  0
SPLINE
  5
1FC
330
1F
100
AcDbEntity
  8
0
  6
Continuous
 62
     7
370
     0
100
AcDbSpline
210
0.0
220
0.0
230
1.0
 70
    24
 71
     3
 72
     8
 73
     4
 74
     0
 42
0.000000001
 43
0.00000001
 40
0.0
 40
0.0
 40
0.0
 40
0.0
 40
1.0
 40
1.0
 40
1.0
 40
1.0
 10
81.67056872640434
 20
86.56023488356531
 30
0.0
 10
81.39398127646203
 20
87.02983843411904
 30
0.0
 10
81.12830071278293
 20
87.48092374555648
 30
0.0
 10
80.86975157479192
 20
87.91990097759832
 30
0.0
  0
ARC
  5
1FD
330
1F
100
AcDbEntity
  8
0
  6
Continuous
 62
     7
370
     0
100
AcDbCircle
 10
85.117182234
 20
88.5902238806
 30
0.0
 40
4.300000000089859
100
AcDbArc
 50
232.0261705205
 51
248.9683617021
  0
ARC
  5
1FE
330
1F
100
AcDbEntity
  8
0
  6
Continuous
 62
     7
370
     0
100
AcDbCircle
 10
85.117182234
 20
88.5902238806
 30
0.0
 40
3.999999999999992
100
AcDbArc
 50
210.4972661049
 51
270.497266093
  0
SPLINE
  5
1FF
330
1F
100
AcDbEntity
  8
0
  6
Continuous
 62
     7
370
     0
100
AcDbSpline
210
0.0
220
0.0
230
1.0
 70
    24
 71
     3
 72
     8
 73
     4
 74
     0
 42
0.000000001
 43
0.00000001
 40
0.0
 40
0.0
 40
0.0
 40
0.0
 40
1.0
 40
1.0
 40
1.0
 40
1.0
 10
85.15189752091187
 20
84.59037452732709
 30
0.0
 10
84.60691519151936
 20
84.58564454459338
 30
0.0
 10
84.083423570309
 20
84.58110108291393
 30
0.0
 10
83.57398356675543
 20
84.5766795773151
 30
0.0
  0
SPLINE
  5
200
330
1F
100
AcDbEntity
  8
0
  6
Continuous
 62
     7
370
     0
100
AcDbSpline
210
0.0
220
0.0
230
1.0
 70
    24
 71
     3
 72
     8
 73
     4
 74
     0
 42
0.000000001
 43
0.00000001
 40
0.0
 40
0.0
 40
0.0
 40
0.0
 40
1.0
 40
1.0
 40
1.0
 40
1.0
 10
82.47138587831958
 20
85.20056878887425
 30
0.0
 10
82.21283674025568
 20
85.63954602103985
 30
0.0
 10
81.94715617638343
 20
86.0906313328772
 30
0.0
 10
81.67056872637569
 20
86.56023488354201
 30
0.0
  0
ARC
  5
201
330
1F
100
AcDbEntity
  8
0
  6
Continuous
 62
     7
370
     0
100
AcDbCircle
 10
85.117182234
 20
88.5902238806
 30
0.0
 40
4.300000000035604
100
AcDbArc
 50
112.0261705174
 51
128.9683617051
  0
SPLINE
  5
202
330
1F
100
AcDbEntity
  8
0
  6
Continuous
 62
     7
370
     0
100
AcDbSpline
210
0.0
220
0.0
230
1.0
 70
    24
 71
     3
 72
     8
 73
     4
 74
     0
 42
0.000000001
 43
0.00000001
 40
0.0
 40
0.0
 40
0.0
 40
0.0
 40
1.0
 40
1.0
 40
1.0
 40
1.0
 10
83.50455299169137
 20
92.57637828384439
 30
0.0
 10
84.01399299541771
 20
92.58079978944471
 30
0.0
 10
84.53748461650893
 20
92.58534325112312
 30
0.0
 10
85.08246694607156
 20
92.59007323385832
 30
0.0
  0
ARC
  5
203
330
1F
100
AcDbEntity
  8
0
  6
Continuous
 62
     7
370
     0
100
AcDbCircle
 10
85.117182234
 20
88.5902238806
 30
0.0
 40
3.999999999999991
100
AcDbArc
 50
90.4972661158
 51
150.4972661119
  0
SPLINE
  5
204
330
1F
100
AcDbEntity
  8
0
  6
Continuous
 62
     7
370
     0
100
AcDbSpline
210
0.0
220
0.0
230
1.0
 70
    24
 71
     3
 72
     8
 73
     4
 74
     0
 42
0.000000001
 43
0.00000001
 40
0.0
 40
0.0
 40
0.0
 40
0.0
 40
1.0
 40
1.0
 40
1.0
 40
1.0
 10
81.6358534389028
 20
90.56008423586043
 30
0.0
 10
81.90424831851392
 20
91.03441776929603
 30
0.0
 10
82.16205937582583
 20
91.49004654273094
 30
0.0
 10
82.41295024155605
 20
91.93344528051963
 30
0.0
  0
ARC
  5
205
330
1F
100
AcDbEntity
  8
0
  6
Continuous
 62
     7
370
     0
100
AcDbCircle
 10
85.117182234
 20
88.5902238806
 30
0.0
 40
4.300000000147949
100
AcDbArc
 50
292.0261705212
 51
308.9683617008
  0
SPLINE
  5
206
330
1F
100
AcDbEntity
  8
0
  6
Continuous
 62
     7
370
     0
100
AcDbSpline
210
0.0
220
0.0
230
1.0
 70
    24
 71
     3
 72
     8
 73
     4
 74
     0
 42
0.000000001
 43
0.00000001
 40
0.0
 40
0.0
 40
0.0
 40
0.0
 40
1.0
 40
1.0
 40
1.0
 40
1.0
 10
86.72981147701451
 20
84.6040694773592
 30
0.0
 10
86.2203714727615
 20
84.59964797175431
 30
0.0
 10
85.69687985107073
 20
84.59510451006746
 30
0.0
 10
85.15189752091187
 20
84.59037452732709
 30
0.0
  0
ARC
  5
207
330
1F
100
AcDbEntity
  8
0
  6
Continuous
 62
     7
370
     0
100
AcDbCircle
 10
85.117182234
 20
88.5902238806
 30
0.0
 40
3.999999999999992
100
AcDbArc
 50
270.497266093
 51
330.4972661216
  0
SPLINE
  5
208
330
1F
100
AcDbEntity
  8
0
  6
Continuous
 62
     7
370
     0
100
AcDbSpline
210
0.0
220
0.0
230
1.0
 70
    24
 71
     3
 72
     8
 73
     4
 74
     0
 42
0.000000001
 43
0.00000001
 40
0.0
 40
0.0
 40
0.0
 40
0.0
 40
1.0
 40
1.0
 40
1.0
 40
1.0
 10
88.59851102940397
 20
86.62036352585753
 30
0.0
 10
88.33011614956466
 20
86.14602999201865
 30
0.0
 10
88.07230509201277
 20
85.69040121820728
 30
0.0
 10
87.82141422608373
 20
85.24700248006718
 30
0.0
  0
ARC
  5
209
330
1F
100
AcDbEntity
  8
0
  6
Continuous
 62
     7
370
     0
100
AcDbCircle
 10
85.117182234
 20
88.5902238806
 30
0.0
 40
4.299999999977213
100
AcDbArc
 50
52.0261705205
 51
68.9683617065
  0
SPLINE
  5
20A
330
1F
100
AcDbEntity
  8
0
  6
Continuous
 62
     7
370
     0
100
AcDbSpline
210
0.0
220
0.0
230
1.0
 70
    24
 71
     3
 72
     8
 73
     4
 74
     0
 42
0.000000001
 43
0.00000001
 40
0.0
 40
0.0
 40
0.0
 40
0.0
 40
1.0
 40
1.0
 40
1.0
 40
1.0
 10
87.76297858929686
 20
91.97987897294284
 30
0.0
 10
88.02152772733925
 20
91.5409017408138
 30
0.0
 10
88.2872082911932
 20
91.0898164290075
 30
0.0
 10
88.56379574119134
 20
90.62021287835897
 30
0.0
  0
ARC
  5
20B
330
1F
100
AcDbEntity
  8
0
  6
Continuous
 62
     7
370
     0
100
AcDbCircle
 10
85.117182234
 20
88.5902238806
 30
0.0
 40
3.999999999999991
100
AcDbArc
 50
30.4972661167
 51
90.4972661158
  0
SPLINE
  5
20C
330
1F
100
AcDbEntity
  8
0
  6
Continuous
 62
     7
370
     0
100
AcDbSpline
210
0.0
220
0.0
230
1.0
 70
    24
 71
     3
 72
     8
 73
     4
 74
     0
 42
0.000000001
 43
0.00000001
 40
0.0
 40
0.0
 40
0.0
 40
0.0
 40
1.0
 40
1.0
 40
1.0
 40
1.0
 10
85.08246694607156
 20
92.59007323385832
 30
0.0
 10
85.62744927570232
 20
92.59480321659409
 30
0.0
 10
86.15094089669353
 20
92.59934667827163
 30
0.0
 10
86.66038090049437
 20
92.6037681838726
 30
0.0
  0
ARC
  5
20D
330
1F
100
AcDbEntity
  8
0
  6
Continuous
 62
     7
370
     0
100
AcDbCircle
 10
85.117182234
 20
88.5902238806
 30
0.0
 40
4.2999999999704
100
AcDbArc
 50
352.0261705189
 51
8.9683617089
  0
ARC
  5
20E
330
1F
100
AcDbEntity
  8
0
  6
Continuous
 62
     7
370
     0
100
AcDbCircle
 10
85.117182234
 20
88.5902238806
 30
0.0
 40
3.999999999940355
100
AcDbArc
 50
330.4972661216
 51
30.4972661167
  0
SPLINE
  5
20F
330
1F
100
AcDbEntity
  8
0
  6
Continuous
 62
     7
370
     0
100
AcDbSpline
210
0.0
220
0.0
230
1.0
 70
    24
 71
     3
 72
     8
 73
     4
 74
     0
 42
0.000000001
 43
0.00000001
 40
0.0
 40
0.0
 40
0.0
 40
0.0
 40
1.0
 40
1.0
 40
1.0
 40
1.0
 10
88.5637957411627
 20
90.62021287833566
 30
0.0
 10
88.84038319111461
 20
90.15060932776565
 30
0.0
 10
89.10606375481198
 20
89.69952401629715
 30
0.0
 10
89.36461289282452
 20
89.26054678421877
 30
0.0
  0
SPLINE
  5
210
330
1F
100
AcDbEntity
  8
0
  6
Continuous
 62
     7
370
     0
100
AcDbSpline
210
0.0
220
0.0
230
1.0
 70
    24
 71
     3
 72
     8
 73
     4
 74
     0
 42
0.000000001
 43
0.00000001
 40
0.0
 40
0.0
 40
0.0
 40
0.0
 40
1.0
 40
1.0
 40
1.0
 40
1.0
 10
89.37560783192458
 20
87.99372457002707
 30
0.0
 10
89.12471696626653
 20
87.5503258323659
 30
0.0
 10
88.86690590896069
 20
87.09469705917046
 30
0.0
 10
88.59851102941631
 20
86.62036352585282
 30
0.0
  0
LINE
  5
211
330
1F
100
AcDbEntity
  8
0
  6
Continuous
 62
     7
370
     0
100
AcDbLine
 10
98.6197163069
 20
85.5902238545
 30
0.0
 11
98.1171820962
 21
86.0283184593
 31
0.0
  0
LINE
  5
212
330
1F
100
AcDbEntity
  8
0
  6
Continuous
 62
     7
370
     0
100
AcDbLine
 10
98.6197163069
 20
85.5902238545
 30
0.0
 11
98.1171820962
 21
85.5902238545
 31
0.0
  0
LINE
  5
213
330
1F
100
AcDbEntity
  8
0
  6
Continuous
 62
     7
370
     0
100
AcDbLine
 10
98.1171820962
 20
91.5902239067
 30
0.0
 11
98.6197163069
 21
91.5902239067
 31
0.0
  0
LINE
  5
214
330
1F
100
AcDbEntity
  8
0
  6
Continuous
 62
     7
370
     0
100
AcDbLine
 10
98.6197163069
 20
91.5902239067
 30
0.0
 11
98.1171820962
 21
91.1521293019
 31
0.0
  0
LINE
  5
215
330
1F
100
AcDbEntity
  8
0
  6
Continuous
 62
     7
370
     0
100
AcDbLine
 10
98.6197163069
 20
91.5902239067
 30
0.0
 11
98.6197163069
 21
85.5902238545
 31
0.0
  0
LINE
  5
216
330
1F
100
AcDbEntity
  8
0
  6
Continuous
 62
     7
370
     0
100
AcDbLine
 10
100.34219834
 20
91.5902239067
 30
0.0
 11
100.34219834
 21
85.5902238545
 31
0.0
  0
LINE
  5
217
330
1F
100
AcDbEntity
  8
0
  6
Continuous
 62
     7
370
     0
100
AcDbLine
 10
98.6197163069
 20
91.5902239067
 30
0.0
 11
100.34219834
 21
91.5902239067
 31
0.0
  0
LINE
  5
218
330
1F
100
AcDbEntity
  8
0
  6
Continuous
 62
     7
370
     0
100
AcDbLine
 10
98.6197163069
 20
85.5902238545
 30
0.0
 11
100.34219834
 21
85.5902238545
 31
0.0
  0
LINE
  5
219
330
1F
100
AcDbEntity
  8
0
  6
Continuous
 62
     7
370
     0
100
AcDbLine
 10
101.7282559255
 20
87.0902238676
 30
0.0
 11
101.7282559255
 21
90.0902238936
 31
0.0
  0
LINE
  5
21A
330
1F
100
AcDbEntity
  8
0
  6
Continuous
 62
     7
370
     0
100
AcDbLine
 10
100.34219834
 20
90.0902238936
 30
0.0
 11
101.7282559255
 21
90.0902238936
 31
0.0
  0
LINE
  5
21B
330
1F
100
AcDbEntity
  8
0
  6
Continuous
 62
     7
370
     0
100
AcDbLine
 10
100.34219834
 20
87.0902238676
 30
0.0
 11
101.7282559255
 21
87.0902238676
 31
0.0
  0
LINE
  5
21C
330
1F
100
AcDbEntity
  8
0
  6
Continuous
 62
     7
370
     0
100
AcDbLine
 10
71.6146482804
 20
85.5902238545
 30
0.0
 11
71.6146482804
 21
91.5902239067
 31
0.0
  0
LINE
  5
21D
330
1F
100
AcDbEntity
  8
0
  6
Continuous
 62
     7
370
     0
100
AcDbLine
 10
71.6146482804
 20
91.5902239067
 30
0.0
 11
72.1171824911
 21
91.1521293019
 31
0.0
  0
LINE
  5
21E
330
1F
100
AcDbEntity
  8
0
  6
Continuous
 62
     7
370
     0
100
AcDbLine
 10
71.6146482804
 20
85.5902238545
 30
0.0
 11
72.1171824911
 21
86.0283184593
 31
0.0
  0
LINE
  5
21F
330
1F
100
AcDbEntity
  8
0
  6
Continuous
 62
     7
370
     0
100
AcDbLine
 10
72.1171824911
 20
85.5902238545
 30
0.0
 11
71.6146482804
 21
85.5902238545
 31
0.0
  0
LINE
  5
220
330
1F
100
AcDbEntity
  8
0
  6
Continuous
 62
     7
370
     0
100
AcDbLine
 10
71.6146482804
 20
91.5902239067
 30
0.0
 11
72.1171824911
 21
91.5902239067
 31
0.0
  0
LINE
  5
221
330
1F
100
AcDbEntity
  8
0
  6
Continuous
 62
     7
370
     0
100
AcDbLine
 10
69.892165316
 20
85.5902238545
 30
0.0
 11
69.892165316
 21
91.5902239067
 31
0.0
  0
LINE
  5
222
330
1F
100
AcDbEntity
  8
0
  6
Continuous
 62
     7
370
     0
100
AcDbLine
 10
71.6146482804
 20
91.5902239067
 30
0.0
 11
69.892165316
 21
91.5902239067
 31
0.0
  0
LINE
  5
223
330
1F
100
AcDbEntity
  8
0
  6
Continuous
 62
     7
370
     0
100
AcDbLine
 10
71.6146482804
 20
85.5902238545
 30
0.0
 11
69.892165316
 21
85.5902238545
 31
0.0
  0
LINE
  5
224
330
1F
100
AcDbEntity
  8
0
  6
Continuous
 62
     7
370
     0
100
AcDbLine
 10
68.5061077306
 20
90.0902238936
 30
0.0
 11
68.5061077306
 21
87.0902238676
 31
0.0
  0
LINE
  5
225
330
1F
100
AcDbEntity
  8
0
  6
Continuous
 62
     7
370
     0
100
AcDbLine
 10
69.892165316
 20
90.0902238936
 30
0.0
 11
68.5061077306
 21
90.0902238936
 31
0.0
  0
LINE
  5
226
330
1F
100
AcDbEntity
  8
0
  6
Continuous
 62
     7
370
     0
100
AcDbLine
 10
69.892165316
 20
87.0902238676
 30
0.0
 11
68.5061077306
 21
87.0902238676
 31
0.0
  0
LWPOLYLINE
  5
227
330
1F
100
AcDbEntity
  8
0
  6
Continuous
 62
     8
370
     0
100
AcDbPolyline
 90
       16
 70
   128
 43
0.0
 10
103.8460909107
 20
85.8402238955
 10
103.9461298564
 20
85.8925944922
 10
104.0457888225
 20
86.0553351958
 10
104.137272639
 20
86.3218541053
 10
104.2168336639
 20
86.6812406603
 10
104.2812178561
 20
87.1187811281
 10
104.3277877101
 20
87.6165625668
 10
104.3546358773
 20
88.1542058923
 10
104.3606652596
 20
88.7096998049
 10
104.3456262627
 20
89.2603023822
 10
104.3101372847
 20
89.7834718489
 10
104.2556511888
 20
90.2577895467
 10
104.1843956986
 20
90.6638371089
 10
104.0992914417
 20
90.9849904274
 10
104.003819702
 20
91.2081017886
 10
103.9018920341
 20
91.3240370137
  0
LWPOLYLINE
  5
228
330
1F
100
AcDbEntity
  8
0
  6
Continuous
 62
     8
370
     0
100
AcDbPolyline
 90
        6
 70
   128
 43
0.0
 10
65.9806905964
 20
86.9089110783
 10
66.0524229237
 20
86.5052692388
 10
66.1379052976
 20
86.186985558
 10
66.2336378077
 20
85.9670907521
 10
66.335699586
 20
85.8545874507
 10
66.3882746079
 20
85.8402238955
  0
LWPOLYLINE
  5
229
330
1F
100
AcDbEntity
  8
0
  6
Continuous
 62
     8
370
     0
100
AcDbPolyline
 90
       12
 70
   128
 43
0.0
 10
66.3882746079
 20
91.3402238657
 10
66.2850524017
 20
91.2844336854
 10
66.1855871507
 20
91.1183432472
 10
66.0944218466
 20
90.8487512061
 10
66.0152855047
 20
90.486695015
 10
65.9514191279
 20
90.046997022
 10
65.9054378697
 20
89.5476585283
 10
65.8792248645
 20
89.0091225301
 10
65.8738511333
 20
88.4534367942
 10
65.8895383307
 20
87.9033511301
 10
65.9256438443
 20
87.3813861544
 10
65.9806905964
 20
86.9089110783
  0
POINT
  5
22A
330
1F
100
AcDbEntity
  8
0
  6
Continuous
 62
     7
370
     0
100
AcDbPoint
 10
65.710672632
 20
88.5902238806
 30
0.0
  0
POINT
  5
22B
330
1F
100
AcDbEntity
  8
0
  6
Continuous
 62
     7
370
     0
100
AcDbPoint
 10
104.523691836
 20
88.5902238806
 30
0.0
  0
DIMENSION
  5
22C
330
1F
100
AcDbEntity
  8
0
  6
Continuous
 62
     7
370
     0
100
AcDbDimension
  2
_D_10
 10
65.710672632
 20
66.0902238806
 30
0.0
 11
85.117182234
 21
66.0902238806
 31
0.0
 70
   160
  1
(<>)
 71
     2
 42
-1.0
  3
SLDDIMSTYLE4
100
AcDbAlignedDimension
 13
104.523691836
 23
88.5902238806
 33
0.0
 14
65.710672632
 24
88.5902238806
 34
0.0
100
AcDbRotatedDimension
  0
DIMENSION
  5
239
330
1F
100
AcDbEntity
  8
0
  6
Continuous
 62
     7
370
     0
100
AcDbDimension
  2
_D_11
 10
85.117182234
 20
73.7714266988
 30
0.0
 11
75.413927433
 21
73.7714266988
 31
0.0
 70
   160
  1
(<>)
 71
     2
 42
-1.0
  3
SLDDIMSTYLE1
100
AcDbAlignedDimension
 13
65.710672632
 23
88.5902238806
 33
0.0
 14
85.117182234
 24
80.5902238806
 34
0.0
100
AcDbRotatedDimension
  0
INSERT
  5
250
330
1F
100
AcDbEntity
  8
0
  6
Continuous
 62
     7
370
     0
100
AcDbBlockReference
  2
SW_CENTERMARKSYMBOL_5
 10
85.117182234
 20
88.5902238806
 30
0.0
  0
LINE
  5
251
330
1F
100
AcDbEntity
  8
0
  6
Continuous
 62
     7
370
     0
100
AcDbLine
 10
157.4897194953
 20
148.3580627527
 30
0.0
 11
157.9897195772
 21
147.8580617394
 31
0.0
  0
LINE
  5
252
330
1F
100
AcDbEntity
  8
0
  6
Continuous
 62
     7
370
     0
100
AcDbLine
 10
168.9897195176
 20
147.8580617394
 30
0.0
 11
169.4897195996
 21
148.3580627527
 31
0.0
  0
LINE
  5
253
330
1F
100
AcDbEntity
  8
0
  6
Continuous
 62
     7
370
     0
100
AcDbLine
 10
157.4897194953
 20
163.8580624994
 30
0.0
 11
157.4897194953
 21
148.3580627527
 31
0.0
  0
LINE
  5
254
330
1F
100
AcDbEntity
  8
0
  6
Continuous
 62
     7
370
     0
100
AcDbLine
 10
169.4897195996
 20
148.3580627527
 30
0.0
 11
169.4897195996
 21
163.8580624994
 31
0.0
  0
LINE
  5
255
330
1F
100
AcDbEntity
  8
0
  6
Continuous
 62
     7
370
     0
100
AcDbLine
 10
160.7397195623
 20
202.9158257928
 30
0.0
 11
160.7397195623
 21
202.5786944714
 31
0.0
  0
LINE
  5
256
330
1F
100
AcDbEntity
  8
0
  6
Continuous
 62
     7
370
     0
100
AcDbLine
 10
166.2397195325
 20
202.5786944714
 30
0.0
 11
166.2397195325
 21
202.9158257928
 31
0.0
  0
LINE
  5
257
330
1F
100
AcDbEntity
  8
0
  6
Continuous
 62
     7
370
     0
100
AcDbLine
 10
160.7397195623
 20
193.09278755
 30
0.0
 11
160.7397195623
 21
192.7556571599
 31
0.0
  0
LINE
  5
258
330
1F
100
AcDbEntity
  8
0
  6
Continuous
 62
     7
370
     0
100
AcDbLine
 10
166.2397195325
 20
192.7556571599
 30
0.0
 11
166.2397195325
 21
193.09278755
 31
0.0
  0
LINE
  5
259
330
1F
100
AcDbEntity
  8
0
  6
Continuous
 62
     7
370
     0
100
AcDbLine
 10
161.6897195783
 20
139.8580641534
 30
0.0
 11
161.9897195344
 21
137.8580638256
 31
0.0
  0
LINE
  5
25A
330
1F
100
AcDbEntity
  8
0
  6
Continuous
 62
     7
370
     0
100
AcDbLine
 10
164.9897195605
 20
137.8580638256
 30
0.0
 11
165.2897195165
 21
139.8580641534
 31
0.0
  0
LINE
  5
25B
330
1F
100
AcDbEntity
  8
0
  6
Continuous
 62
     7
370
     0
100
AcDbLine
 10
165.2897195165
 20
139.8580641534
 30
0.0
 11
165.2897195165
 21
140.3580614414
 31
0.0
  0
LINE
  5
25C
330
1F
100
AcDbEntity
  8
0
  6
Continuous
 62
     7
370
     0
100
AcDbLine
 10
161.6897195783
 20
140.3580614414
 30
0.0
 11
161.6897195783
 21
139.8580641534
 31
0.0
  0
LINE
  5
25D
330
1F
100
AcDbEntity
  8
0
  6
Continuous
 62
     7
370
     0
100
AcDbLine
 10
161.6897195783
 20
142.3580617692
 30
0.0
 11
161.8897195878
 21
140.3580614414
 31
0.0
  0
LINE
  5
25E
330
1F
100
AcDbEntity
  8
0
  6
Continuous
 62
     7
370
     0
100
AcDbLine
 10
165.089719507
 20
140.3580614414
 30
0.0
 11
165.2897195165
 21
142.3580617692
 31
0.0
  0
LINE
  5
25F
330
1F
100
AcDbEntity
  8
0
  6
Continuous
 62
     7
370
     0
100
AcDbLine
 10
165.2897195165
 20
142.3580617692
 30
0.0
 11
165.2897195165
 21
142.8580627825
 31
0.0
  0
LINE
  5
260
330
1F
100
AcDbEntity
  8
0
  6
Continuous
 62
     7
370
     0
100
AcDbLine
 10
161.6897195783
 20
142.8580627825
 30
0.0
 11
161.6897195783
 21
142.3580617692
 31
0.0
  0
LINE
  5
261
330
1F
100
AcDbEntity
  8
0
  6
Continuous
 62
     7
370
     0
100
AcDbLine
 10
165.089719507
 20
142.8580627825
 30
0.0
 11
165.089719507
 21
144.8580631104
 31
0.0
  0
LINE
  5
262
330
1F
100
AcDbEntity
  8
0
  6
Continuous
 62
     7
370
     0
100
AcDbLine
 10
161.8897195878
 20
144.8580631104
 30
0.0
 11
161.8897195878
 21
142.8580627825
 31
0.0
  0
LINE
  5
263
330
1F
100
AcDbEntity
  8
0
  6
Continuous
 62
     7
370
     0
100
AcDbLine
 10
164.9897195605
 20
186.6416478578
 30
0.0
 11
161.9897195344
 21
186.6416478578
 31
0.0
  0
LINE
  5
264
330
1F
100
AcDbEntity
  8
0
  6
Continuous
 62
     7
370
     0
100
AcDbLine
 10
161.9897195344
 20
186.5854593042
 30
0.0
 11
161.9897195344
 21
186.6416478578
 31
0.0
  0
LINE
  5
265
330
1F
100
AcDbEntity
  8
0
  6
Continuous
 62
     7
370
     0
100
AcDbLine
 10
161.6897195783
 20
186.304517002
 30
0.0
 11
161.9897195344
 21
186.3607055556
 31
0.0
  0
LINE
  5
266
330
1F
100
AcDbEntity
  8
0
  6
Continuous
 62
     7
370
     0
100
AcDbLine
 10
160.4897195213
 20
186.304517002
 30
0.0
 11
161.6897195783
 21
186.304517002
 31
0.0
  0
LINE
  5
267
330
1F
100
AcDbEntity
  8
0
  6
Continuous
 62
     7
370
     0
100
AcDbLine
 10
160.4897195213
 20
186.8664016064
 30
0.0
 11
160.4897195213
 21
186.304517002
 31
0.0
  0
LINE
  5
268
330
1F
100
AcDbEntity
  8
0
  6
Continuous
 62
     7
370
     0
100
AcDbLine
 10
166.4897195735
 20
186.8664016064
 30
0.0
 11
160.4897195213
 21
186.8664016064
 31
0.0
  0
LINE
  5
269
330
1F
100
AcDbEntity
  8
0
  6
Continuous
 62
     7
370
     0
100
AcDbLine
 10
165.2897195165
 20
186.304517002
 30
0.0
 11
166.4897195735
 21
186.304517002
 31
0.0
  0
LINE
  5
26A
330
1F
100
AcDbEntity
  8
0
  6
Continuous
 62
     7
370
     0
100
AcDbLine
 10
164.9897195605
 20
186.3607055556
 30
0.0
 11
165.2897195165
 21
186.304517002
 31
0.0
  0
LINE
  5
26B
330
1F
100
AcDbEntity
  8
0
  6
Continuous
 62
     7
370
     0
100
AcDbLine
 10
164.9897195605
 20
186.6416478578
 30
0.0
 11
164.9897195605
 21
186.5854593042
 31
0.0
  0
LINE
  5
26C
330
1F
100
AcDbEntity
  8
0
  6
Continuous
 62
     7
370
     0
100
AcDbLine
 10
166.4897195735
 20
186.8664016064
 30
0.0
 11
166.4897195735
 21
186.304517002
 31
0.0
  0
LINE
  5
26D
330
1F
100
AcDbEntity
  8
0
  6
Continuous
 62
     7
370
     0
100
AcDbLine
 10
166.4897195735
 20
215.7533065465
 30
0.0
 11
160.4897195213
 21
215.7533065465
 31
0.0
  0
LINE
  5
26E
330
1F
100
AcDbEntity
  8
0
  6
Continuous
 62
     7
370
     0
100
AcDbLine
 10
160.4897195213
 20
215.7533065465
 30
0.0
 11
160.4897195213
 21
186.8664016064
 31
0.0
  0
LINE
  5
26F
330
1F
100
AcDbEntity
  8
0
  6
Continuous
 62
     7
370
     0
100
AcDbLine
 10
166.4897195735
 20
215.7533065465
 30
0.0
 11
166.4897195735
 21
186.8664016064
 31
0.0
  0
ARC
  5
270
330
1F
100
AcDbEntity
  8
0
  6
Continuous
 62
     7
370
     0
100
AcDbCircle
 10
163.4897195474
 20
202.3580625799
 30
0.0
 40
3.750000000000017
100
AcDbArc
 50
156.4218215218
 51
216.8698976458
  0
ARC
  5
271
330
1F
100
AcDbEntity
  8
0
  6
Continuous
 62
     7
370
     0
100
AcDbCircle
 10
163.4897195474
 20
184.8580625799
 30
0.0
 40
5.0
100
AcDbArc
 50
126.8698976458
 51
180.0
  0
LINE
  5
272
330
1F
100
AcDbEntity
  8
0
  6
Continuous
 62
     7
370
     0
100
AcDbLine
 10
158.4897196592
 20
176.8580625348
 30
0.0
 11
158.4897196592
 21
184.8580626819
 31
0.0
  0
ARC
  5
273
330
1F
100
AcDbEntity
  8
0
  6
Continuous
 62
     7
370
     0
100
AcDbCircle
 10
163.4897195474
 20
176.8580625799
 30
0.0
 40
5.000000000000028
100
AcDbArc
 50
180.0
 51
0.0
  0
LINE
  5
274
330
1F
100
AcDbEntity
  8
0
  6
Continuous
 62
     7
370
     0
100
AcDbLine
 10
168.4897194357
 20
184.8580626819
 30
0.0
 11
168.4897194357
 21
176.8580625348
 31
0.0
  0
ARC
  5
275
330
1F
100
AcDbEntity
  8
0
  6
Continuous
 62
     7
370
     0
100
AcDbCircle
 10
163.4897195474
 20
184.8580625799
 30
0.0
 40
5.000000000000028
100
AcDbArc
 50
0.0
 51
53.1301023542
  0
ARC
  5
276
330
1F
100
AcDbEntity
  8
0
  6
Continuous
 62
     7
370
     0
100
AcDbCircle
 10
163.4897195474
 20
202.3580625799
 30
0.0
 40
3.750000000000023
100
AcDbArc
 50
323.1301023542
 51
23.5781784782
  0
LINE
  5
277
330
1F
100
AcDbEntity
  8
0
  6
Continuous
 62
     7
370
     0
100
AcDbLine
 10
168.9897195176
 20
203.858063468
 30
0.0
 11
166.926651422
 21
203.858063468
 31
0.0
  0
LINE
  5
278
330
1F
100
AcDbEntity
  8
0
  6
Continuous
 62
     7
370
     0
100
AcDbLine
 10
168.9897195176
 20
163.8580624994
 30
0.0
 11
168.9897195176
 21
203.858063468
 31
0.0
  0
LINE
  5
279
330
1F
100
AcDbEntity
  8
0
  6
Continuous
 62
     7
370
     0
100
AcDbLine
 10
157.9897195772
 20
203.858063468
 30
0.0
 11
157.9897195772
 21
163.8580624994
 31
0.0
  0
LINE
  5
27A
330
1F
100
AcDbEntity
  8
0
  6
Continuous
 62
     7
370
     0
100
AcDbLine
 10
160.0527876728
 20
203.858063468
 30
0.0
 11
157.9897195772
 21
203.858063468
 31
0.0
  0
LINE
  5
27B
330
1F
100
AcDbEntity
  8
0
  6
Continuous
 62
     7
370
     0
100
AcDbLine
 10
157.9897195772
 20
163.8580624994
 30
0.0
 11
168.9897195176
 21
163.8580624994
 31
0.0
  0
LINE
  5
27C
330
1F
100
AcDbEntity
  8
0
  6
Continuous
 62
     7
370
     0
100
AcDbLine
 10
168.9897195176
 20
203.858063468
 30
0.0
 11
169.9897196815
 21
204.8580617692
 31
0.0
  0
LINE
  5
27D
330
1F
100
AcDbEntity
  8
0
  6
Continuous
 62
     7
370
     0
100
AcDbLine
 10
169.9897196815
 20
204.8580617692
 30
0.0
 11
169.9897196815
 21
163.8580624994
 31
0.0
  0
LINE
  5
27E
330
1F
100
AcDbEntity
  8
0
  6
Continuous
 62
     7
370
     0
100
AcDbLine
 10
169.9897196815
 20
163.8580624994
 30
0.0
 11
168.9897195176
 21
163.8580624994
 31
0.0
  0
LINE
  5
27F
330
1F
100
AcDbEntity
  8
0
  6
Continuous
 62
     7
370
     0
100
AcDbLine
 10
156.9897194133
 20
163.8580624994
 30
0.0
 11
156.9897194133
 21
204.8580617692
 31
0.0
  0
LINE
  5
280
330
1F
100
AcDbEntity
  8
0
  6
Continuous
 62
     7
370
     0
100
AcDbLine
 10
156.9897194133
 20
204.8580617692
 30
0.0
 11
157.9897195772
 21
203.858063468
 31
0.0
  0
LINE
  5
281
330
1F
100
AcDbEntity
  8
0
  6
Continuous
 62
     7
370
     0
100
AcDbLine
 10
157.9897195772
 20
163.8580624994
 30
0.0
 11
156.9897194133
 21
163.8580624994
 31
0.0
  0
LINE
  5
282
330
1F
100
AcDbEntity
  8
0
  6
Continuous
 62
     7
370
     0
100
AcDbLine
 10
166.4897195735
 20
206.8580620971
 30
0.0
 11
167.9897193537
 21
206.8580620971
 31
0.0
  0
LINE
  5
283
330
1F
100
AcDbEntity
  8
0
  6
Continuous
 62
     7
370
     0
100
AcDbLine
 10
169.9897196815
 20
204.8580617692
 30
0.0
 11
167.9897193537
 21
206.8580620971
 31
0.0
  0
ARC
  5
284
330
1F
100
AcDbEntity
  8
0
  6
Continuous
 62
     7
370
     0
100
AcDbCircle
 10
163.4897195474
 20
202.3580625799
 30
0.0
 40
3.750000000000006
100
AcDbArc
 50
23.5781784782
 51
36.8698976458
  0
LINE
  5
285
330
1F
100
AcDbEntity
  8
0
  6
Continuous
 62
     7
370
     0
100
AcDbLine
 10
158.9897197411
 20
206.8580620971
 30
0.0
 11
156.9897194133
 21
204.8580617692
 31
0.0
  0
LINE
  5
286
330
1F
100
AcDbEntity
  8
0
  6
Continuous
 62
     7
370
     0
100
AcDbLine
 10
158.9897197411
 20
206.8580620971
 30
0.0
 11
160.4897195213
 21
206.8580620971
 31
0.0
  0
ARC
  5
287
330
1F
100
AcDbEntity
  8
0
  6
Continuous
 62
     7
370
     0
100
AcDbCircle
 10
163.4897195474
 20
202.3580625799
 30
0.0
 40
3.749999999999985
100
AcDbArc
 50
143.1301023542
 51
156.4218215218
  0
LINE
  5
288
330
1F
100
AcDbEntity
  8
0
  6
Continuous
 62
     7
370
     0
100
AcDbLine
 10
160.4897195213
 20
215.7835112002
 30
0.0
 11
166.4897195735
 21
215.7835112002
 31
0.0
  0
LINE
  5
289
330
1F
100
AcDbEntity
  8
0
  6
Continuous
 62
     7
370
     0
100
AcDbLine
 10
160.4897195213
 20
215.7533065465
 30
0.0
 11
160.4897195213
 21
215.7835112002
 31
0.0
  0
LINE
  5
28A
330
1F
100
AcDbEntity
  8
0
  6
Continuous
 62
     7
370
     0
100
AcDbLine
 10
166.4897195735
 20
215.7533065465
 30
0.0
 11
166.4897195735
 21
215.7835112002
 31
0.0
  0
LINE
  5
28B
330
1F
100
AcDbEntity
  8
0
  6
Continuous
 62
     7
370
     0
100
AcDbLine
 10
166.4897195735
 20
237.2218974915
 30
0.0
 11
160.4897195213
 21
237.2218974915
 31
0.0
  0
LINE
  5
28C
330
1F
100
AcDbEntity
  8
0
  6
Continuous
 62
     7
370
     0
100
AcDbLine
 10
160.4897195213
 20
215.7835112002
 30
0.0
 11
160.4897195213
 21
237.2218974915
 31
0.0
  0
LINE
  5
28D
330
1F
100
AcDbEntity
  8
0
  6
Continuous
 62
     7
370
     0
100
AcDbLine
 10
166.4897195735
 20
215.7835112002
 30
0.0
 11
166.4897195735
 21
237.2218974915
 31
0.0
  0
LINE
  5
28E
330
1F
100
AcDbEntity
  8
0
  6
Continuous
 62
     7
370
     0
100
AcDbLine
 10
160.4897195213
 20
238.4190493312
 30
0.0
 11
166.4897195735
 21
238.4190493312
 31
0.0
  0
LINE
  5
28F
330
1F
100
AcDbEntity
  8
0
  6
Continuous
 62
     7
370
     0
100
AcDbLine
 10
160.4897195213
 20
237.2218974915
 30
0.0
 11
160.4897195213
 21
238.4190493312
 31
0.0
  0
LINE
  5
290
330
1F
100
AcDbEntity
  8
0
  6
Continuous
 62
     7
370
     0
100
AcDbLine
 10
166.4897195735
 20
238.4190493312
 30
0.0
 11
166.4897195735
 21
237.2218974915
 31
0.0
  0
LINE
  5
291
330
1F
100
AcDbEntity
  8
0
  6
Continuous
 62
     7
370
     0
100
AcDbLine
 10
160.4897195213
 20
239.0216373887
 30
0.0
 11
166.4897195735
 21
239.0216373887
 31
0.0
  0
LINE
  5
292
330
1F
100
AcDbEntity
  8
0
  6
Continuous
 62
     7
370
     0
100
AcDbLine
 10
160.4897195213
 20
238.4190493312
 30
0.0
 11
160.4897195213
 21
239.0216373887
 31
0.0
  0
LINE
  5
293
330
1F
100
AcDbEntity
  8
0
  6
Continuous
 62
     7
370
     0
100
AcDbLine
 10
166.4897195735
 20
238.4190493312
 30
0.0
 11
166.4897195735
 21
239.0216373887
 31
0.0
  0
ARC
  5
294
330
1F
100
AcDbEntity
  8
0
  6
Continuous
 62
     7
370
     0
100
AcDbCircle
 10
163.4897195474
 20
180.8580625822
 30
0.0
 40
4.000000000000025
100
AcDbArc
 50
318.5903778907
 51
41.4096221093
  0
ARC
  5
295
330
1F
100
AcDbEntity
  8
0
  6
Continuous
 62
     7
370
     0
100
AcDbCircle
 10
163.4897195474
 20
180.8580625822
 30
0.0
 40
4.000000000000009
100
AcDbArc
 50
138.5903778907
 51
221.4096221093
  0
LINE
  5
296
330
1F
100
AcDbEntity
  8
0
  6
Continuous
 62
     7
370
     0
100
AcDbLine
 10
168.4087944889
 20
184.8580626819
 30
0.0
 11
168.4087944889
 21
176.8580625348
 31
0.0
  0
SPLINE
  5
297
330
1F
100
AcDbEntity
  8
0
  6
Continuous
 62
     7
370
     0
100
AcDbSpline
210
0.0
220
0.0
230
1.0
 70
     8
 71
     3
 72
    10
 73
     6
 74
     0
 42
0.000000001
 43
0.00000001
 40
0.0
 40
0.0
 40
0.0
 40
0.0
 40
0.5
 40
0.5
 40
1.0
 40
1.0
 40
1.0
 40
1.0
 10
168.1088403531933
 20
176.8580657263481
 30
0.0
 10
168.1865075048548
 20
176.8580652023162
 30
0.0
 10
168.2637170015042
 20
176.8580646782844
 30
0.0
 10
168.3745092630657
 20
176.8580636302209
 30
0.0
 10
168.4074391827374
 20
176.8580631061892
 30
0.0
 10
168.408794661438
 20
176.8580625821577
 30
0.0
  0
LINE
  5
298
330
1F
100
AcDbEntity
  8
0
  6
Continuous
 62
     7
370
     0
100
AcDbLine
 10
168.1088401676
 20
184.8580626819
 30
0.0
 11
168.1088401676
 21
176.8580657944
 31
0.0
  0
SPLINE
  5
299
330
1F
100
AcDbEntity
  8
0
  6
Continuous
 62
     7
370
     0
100
AcDbSpline
210
0.0
220
0.0
230
1.0
 70
    24
 71
     3
 72
     9
 73
     5
 74
     0
 42
0.000000001
 43
0.00000001
 40
0.0
 40
0.0
 40
0.0
 40
0.0
 40
0.499997837543848
 40
1.0
 40
1.0
 40
1.0
 40
1.0
 10
168.1088403529171
 20
184.8580625821579
 30
0.0
 10
168.1845697320204
 20
184.8580625821579
 30
0.0
 10
168.3422042753886
 20
184.8580625821579
 30
0.0
 10
168.4074729895406
 20
184.8580625821579
 30
0.0
 10
168.408794661464
 20
184.8580625821579
 30
0.0
  0
LINE
  5
29A
330
1F
100
AcDbEntity
  8
0
  6
Continuous
 62
     7
370
     0
100
AcDbLine
 10
158.570644606
 20
176.8580625348
 30
0.0
 11
158.570644606
 21
184.8580626819
 31
0.0
  0
SPLINE
  5
29B
330
1F
100
AcDbEntity
  8
0
  6
Continuous
 62
     7
370
     0
100
AcDbSpline
210
0.0
220
0.0
230
1.0
 70
     8
 71
     3
 72
    10
 73
     6
 74
     0
 42
0.000000001
 43
0.00000001
 40
0.0
 40
0.0
 40
0.0
 40
0.0
 40
0.5
 40
0.5
 40
1.0
 40
1.0
 40
1.0
 40
1.0
 10
158.8705987416546
 20
184.8580594372274
 30
0.0
 10
158.7929315899931
 20
184.8580599613827
 30
0.0
 10
158.7157220933437
 20
184.8580604855379
 30
0.0
 10
158.6049298317823
 20
184.858061533848
 30
0.0
 10
158.5719999121106
 20
184.858062058003
 30
0.0
 10
158.5706444334101
 20
184.8580625821579
 30
0.0
  0
LINE
  5
29C
330
1F
100
AcDbEntity
  8
0
  6
Continuous
 62
     7
370
     0
100
AcDbLine
 10
158.8705989272
 20
176.8580625348
 30
0.0
 11
158.8705989272
 21
184.8580594223
 31
0.0
  0
SPLINE
  5
29D
330
1F
100
AcDbEntity
  8
0
  6
Continuous
 62
     7
370
     0
100
AcDbSpline
210
0.0
220
0.0
230
1.0
 70
    24
 71
     3
 72
    10
 73
     6
 74
     0
 42
0.000000001
 43
0.00000001
 40
0.0
 40
0.0
 40
0.0
 40
0.0
 40
0.5
 40
0.5
 40
1.0
 40
1.0
 40
1.0
 40
1.0
 10
158.5706444333842
 20
176.8580625821579
 30
0.0
 10
158.5719999120856
 20
176.8580625821581
 30
0.0
 10
158.6049298318009
 20
176.8580625821582
 30
0.0
 10
158.715722093489
 20
176.8580625821582
 30
0.0
 10
158.792931590219
 20
176.8580625821581
 30
0.0
 10
158.870598741931
 20
176.8580625821579
 30
0.0
  0
SPLINE
  5
29E
330
1F
100
AcDbEntity
  8
0
  6
Continuous
 62
     7
370
     0
100
AcDbSpline
210
0.0
220
0.0
230
1.0
 70
     8
 71
     3
 72
    17
 73
    13
 74
     0
 42
0.000000001
 43
0.00000001
 40
0.0
 40
0.0
 40
0.0
 40
0.0
 40
0.062550137883576
 40
0.125101793286261
 40
0.250051444152696
 40
0.3750708483523499
 40
0.4376541028667049
 40
0.500238687037138
 40
0.625171040415573
 40
0.750090458566893
 40
0.875053743319954
 40
1.0
 40
1.0
 40
1.0
 40
1.0
 10
168.1088403531933
 20
176.8580657263481
 30
0.0
 10
168.1088403532142
 20
176.707159964356
 30
0.0
 10
168.0934400346115
 20
176.4051103746172
 30
0.0
 10
168.0041269851873
 20
175.8078140735477
 30
0.0
 10
167.7860114723345
 20
175.0805358959898
 30
0.0
 10
167.4257185047661
 20
174.4121542386693
 30
0.0
 10
167.0657100571155
 20
173.9266493344539
 30
0.0
 10
166.6592876658759
 20
173.4796075348338
 30
0.0
 10
166.0746622947418
 20
172.9955729936765
 30
0.0
 10
165.2714940895688
 20
172.5673879229539
 30
0.0
 10
164.401702019026
 20
172.3010497799778
 30
0.0
 10
163.7970850369821
 20
172.2402874127293
 30
0.0
 10
163.4956451007167
 20
172.2403565097273
 30
0.0
  0
SPLINE
  5
29F
330
1F
100
AcDbEntity
  8
0
  6
Continuous
 62
     7
370
     0
100
AcDbSpline
210
0.0
220
0.0
230
1.0
 70
     8
 71
     3
 72
    16
 73
    12
 74
     0
 42
0.000000001
 43
0.00000001
 40
0.0
 40
0.0
 40
0.0
 40
0.0
 40
0.124960700844018
 40
0.249906817750813
 40
0.374893842031836
 40
0.499865650388283
 40
0.624849774801164
 40
0.749813580946707
 40
0.87483503316308
 40
0.9374184756819526
 40
1.0
 40
1.0
 40
1.0
 40
1.0
 10
163.4956451007167
 20
172.2403565097273
 30
0.0
 10
163.1937216896381
 20
172.2404257175489
 30
0.0
 10
162.5881452713153
 20
172.2987073792784
 30
0.0
 10
161.7159356097204
 20
172.5633741119489
 30
0.0
 10
160.911801675798
 20
172.992856550274
 30
0.0
 10
160.2062053525405
 20
173.5702872451924
 30
0.0
 10
159.6271299234767
 20
174.2743459035375
 30
0.0
 10
159.1948219956209
 20
175.0772764667744
 30
0.0
 10
158.9766104952647
 20
175.8058463764419
 30
0.0
 10
158.8862152930836
 20
176.4041949742931
 30
0.0
 10
158.870598741931
 20
176.70685642165
 30
0.0
 10
158.870598741931
 20
176.8580625821579
 30
0.0
  0
SPLINE
  5
2A0
330
1F
100
AcDbEntity
  8
0
  6
Continuous
 62
     7
370
     0
100
AcDbSpline
210
0.0
220
0.0
230
1.0
 70
     8
 71
     3
 72
     9
 73
     5
 74
     0
 42
0.000000001
 43
0.00000001
 40
0.0
 40
0.0
 40
0.0
 40
0.0
 40
0.499967397181534
 40
1.0
 40
1.0
 40
1.0
 40
1.0
 10
163.4956451007167
 20
172.2403565097273
 30
0.0
 10
163.4971159729207
 20
172.164642430977
 30
0.0
 10
163.4931454204045
 20
172.0069962268376
 30
0.0
 10
163.4965234838218
 20
171.9415104423993
 30
0.0
 10
163.4967707059801
 20
171.9402763677797
 30
0.0
  0
SPLINE
  5
2A1
330
1F
100
AcDbEntity
  8
0
  6
Continuous
 62
     7
370
     0
100
AcDbSpline
210
0.0
220
0.0
230
1.0
 70
     8
 71
     3
 72
    14
 73
    10
 74
     0
 42
0.000000001
 43
0.00000001
 40
0.0
 40
0.0
 40
0.0
 40
0.0
 40
0.25
 40
0.25
 40
0.5
 40
0.5
 40
0.75
 40
0.75
 40
1.0
 40
1.0
 40
1.0
 40
1.0
 10
168.4087946614641
 20
176.8580625844528
 30
0.0
 10
168.4087946255569
 20
176.2147449078943
 30
0.0
 10
168.2810007229121
 20
175.5716794442846
 30
0.0
 10
167.7890527558418
 20
174.3828070133306
 30
0.0
 10
167.4250915488716
 20
173.8374661171615
 30
0.0
 10
166.5159554188787
 20
172.9270256281534
 30
0.0
 10
165.971136902706
 20
172.5622829533509
 30
0.0
 10
164.7829710486559
 20
172.0686310338274
 30
0.0
 10
164.1400895050419
 20
171.9399153143512
 30
0.0
 10
163.4967725460495
 20
171.9389929576168
 30
0.0
  0
SPLINE
  5
2A2
330
1F
100
AcDbEntity
  8
0
  6
Continuous
 62
     7
370
     0
100
AcDbSpline
210
0.0
220
0.0
230
1.0
 70
     8
 71
     3
 72
    14
 73
    10
 74
     0
 42
0.000000001
 43
0.00000001
 40
0.0
 40
0.0
 40
0.0
 40
0.0
 40
0.25
 40
0.25
 40
0.5
 40
0.5
 40
0.75
 40
0.75
 40
1.0
 40
1.0
 40
1.0
 40
1.0
 10
163.4967725460495
 20
171.9389929576168
 30
0.0
 10
162.852280088386
 20
171.9380688436292
 30
0.0
 10
162.2078582101448
 20
172.0654120279108
 30
0.0
 10
161.0164603958272
 20
172.557404760271
 30
0.0
 10
160.4699549315193
 20
172.9218600251787
 30
0.0
 10
159.5578507413619
 20
173.832657269203
 30
0.0
 10
159.1926121969078
 20
174.3786395831847
 30
0.0
 10
158.6989115821195
 20
175.5693307476566
 30
0.0
 10
158.5706444695917
 20
176.213569405514
 30
0.0
 10
158.5706444333839
 20
176.8580625821579
 30
0.0
  0
LINE
  5
2A3
330
1F
100
AcDbEntity
  8
0
  6
Continuous
 62
     7
370
     0
100
AcDbLine
 10
168.4087944889
 20
176.8580625348
 30
0.0
 11
168.4295760208
 21
176.8580625348
 31
0.0
  0
ARC
  5
2A4
330
1F
100
AcDbEntity
  8
0
  6
Continuous
 62
     7
370
     0
100
AcDbCircle
 10
163.4897195474
 20
176.8580625845
 30
0.0
 40
4.9398564681614
100
AcDbArc
 50
180.0000000266
 51
0.0000343334
  0
LINE
  5
2A5
330
1F
100
AcDbEntity
  8
0
  6
Continuous
 62
     7
370
     0
100
AcDbLine
 10
158.5498630741
 20
176.8580625348
 30
0.0
 11
158.570644606
 21
176.8580625348
 31
0.0
  0
LINE
  5
2A6
330
1F
100
AcDbEntity
  8
0
  6
Continuous
 62
     7
370
     0
100
AcDbLine
 10
158.570644606
 20
184.8580626819
 30
0.0
 11
158.5498630741
 21
184.8580626819
 31
0.0
  0
ARC
  5
2A7
330
1F
100
AcDbEntity
  8
0
  6
Continuous
 62
     7
370
     0
100
AcDbCircle
 10
163.4897195474
 20
184.8580625799
 30
0.0
 40
4.939856460831059
100
AcDbArc
 50
127.3948978734
 51
179.9999656666
  0
ARC
  5
2A8
330
1F
100
AcDbEntity
  8
0
  6
Continuous
 62
     7
370
     0
100
AcDbCircle
 10
163.4897195474
 20
184.8580625799
 30
0.0
 40
4.939856460831076
100
AcDbArc
 50
0.0
 51
52.6051021266
  0
LINE
  5
2A9
330
1F
100
AcDbEntity
  8
0
  6
Continuous
 62
     7
370
     0
100
AcDbLine
 10
168.4087944889
 20
184.8580626819
 30
0.0
 11
168.4295760208
 21
184.8580626819
 31
0.0
  0
LINE
  5
2AA
330
1F
100
AcDbEntity
  8
0
  6
Continuous
 62
     7
370
     0
100
AcDbLine
 10
168.4295760208
 20
184.8580626819
 30
0.0
 11
168.4295760208
 21
176.8580625348
 31
0.0
  0
LINE
  5
2AB
330
1F
100
AcDbEntity
  8
0
  6
Continuous
 62
     7
370
     0
100
AcDbLine
 10
158.5498630741
 20
176.8580625348
 30
0.0
 11
158.5498630741
 21
184.8580626819
 31
0.0
  0
LINE
  5
2AC
330
1F
100
AcDbEntity
  8
0
  6
Continuous
 62
     7
370
     0
100
AcDbLine
 10
163.4897195474
 20
147.8580617394
 30
0.0
 11
157.9897195772
 21
147.8580617394
 31
0.0
  0
LINE
  5
2AD
330
1F
100
AcDbEntity
  8
0
  6
Continuous
 62
     7
370
     0
100
AcDbLine
 10
168.9897195176
 20
147.8580617394
 30
0.0
 11
163.4897195474
 21
147.8580617394
 31
0.0
  0
LINE
  5
2AE
330
1F
100
AcDbEntity
  8
0
  6
Continuous
 62
     7
370
     0
100
AcDbLine
 10
163.4897195474
 20
148.3580627527
 30
0.0
 11
169.4897195996
 21
148.3580627527
 31
0.0
  0
LINE
  5
2AF
330
1F
100
AcDbEntity
  8
0
  6
Continuous
 62
     7
370
     0
100
AcDbLine
 10
157.4897194953
 20
148.3580627527
 30
0.0
 11
163.4897195474
 21
148.3580627527
 31
0.0
  0
LINE
  5
2B0
330
1F
100
AcDbEntity
  8
0
  6
Continuous
 62
     7
370
     0
100
AcDbLine
 10
160.1897195653
 20
208.0580619212
 30
0.0
 11
160.4897195213
 21
208.0580619212
 31
0.0
  0
LINE
  5
2B1
330
1F
100
AcDbEntity
  8
0
  6
Continuous
 62
     7
370
     0
100
AcDbLine
 10
166.4897195735
 20
208.0580619212
 30
0.0
 11
166.7897195295
 21
208.0580619212
 31
0.0
  0
LINE
  5
2B2
330
1F
100
AcDbEntity
  8
0
  6
Continuous
 62
     7
370
     0
100
AcDbLine
 10
158.9897197411
 20
206.8580620971
 30
0.0
 11
160.1897195653
 21
208.0580619212
 31
0.0
  0
LINE
  5
2B3
330
1F
100
AcDbEntity
  8
0
  6
Continuous
 62
     7
370
     0
100
AcDbLine
 10
166.7897195295
 20
208.0580619212
 30
0.0
 11
167.9897193537
 21
206.8580620971
 31
0.0
  0
CIRCLE
  5
2B4
330
1F
100
AcDbEntity
  8
0
  6
Continuous
 62
     7
370
     0
100
AcDbCircle
 10
163.456586424
 20
202.9289980203
 30
0.0
 40
2.717941760681614
  0
CIRCLE
  5
2B5
330
1F
100
AcDbEntity
  8
0
  6
Continuous
 62
     7
370
     0
100
AcDbCircle
 10
163.4569559725
 20
202.9535035561
 30
0.0
 40
2.516923667166371
  0
LINE
  5
2B6
330
1F
100
AcDbEntity
  8
0
  6
Continuous
 62
     7
370
     0
100
AcDbLine
 10
162.2973179185
 20
202.0954051104
 30
0.0
 11
163.6498478913
 21
201.5099682894
 31
0.0
  0
LINE
  5
2B7
330
1F
100
AcDbEntity
  8
0
  6
Continuous
 62
     7
370
     0
100
AcDbLine
 10
164.8422495202
 20
202.3678486284
 30
0.0
 11
163.6498478913
 21
201.5099682894
 31
0.0
  0
LINE
  5
2B8
330
1F
100
AcDbEntity
  8
0
  6
Continuous
 62
     7
370
     0
100
AcDbLine
 10
164.6821211764
 20
203.8111639258
 30
0.0
 11
164.8422495202
 21
202.3678486284
 31
0.0
  0
LINE
  5
2B9
330
1F
100
AcDbEntity
  8
0
  6
Continuous
 62
     7
370
     0
100
AcDbLine
 10
164.6821211764
 20
203.8111639258
 30
0.0
 11
163.3295912036
 21
204.3966007468
 31
0.0
  0
LINE
  5
2BA
330
1F
100
AcDbEntity
  8
0
  6
Continuous
 62
     7
370
     0
100
AcDbLine
 10
163.3295912036
 20
204.3966007468
 30
0.0
 11
162.1371895746
 21
203.5387204077
 31
0.0
  0
LINE
  5
2BB
330
1F
100
AcDbEntity
  8
0
  6
Continuous
 62
     7
370
     0
100
AcDbLine
 10
162.2973179185
 20
202.0954051104
 30
0.0
 11
162.1371895746
 21
203.5387204077
 31
0.0
  0
ARC
  5
2BC
330
1F
100
AcDbEntity
  8
0
  6
Continuous
 62
     7
370
     0
100
AcDbCircle
 10
163.4897195474
 20
202.6175795114
 30
0.0
 40
2.750274888876241
100
AcDbArc
 50
180.8101091729
 51
359.1898908271
  0
LINE
  5
2BD
330
1F
100
AcDbEntity
  8
0
  6
Continuous
 62
     7
370
     0
100
AcDbLine
 10
164.8210818387
 20
202.352617779
 30
0.0
 11
164.7622102612
 21
202.8832555797
 31
0.0
  0
LINE
  5
2BE
330
1F
100
AcDbEntity
  8
0
  6
Continuous
 62
     7
370
     0
100
AcDbLine
 10
164.7622102612
 20
202.8832555797
 30
0.0
 11
164.6821211764
 21
203.6051386085
 31
0.0
  0
LINE
  5
2BF
330
1F
100
AcDbEntity
  8
0
  6
Continuous
 62
     7
370
     0
100
AcDbLine
 10
164.6821211764
 20
203.6051386085
 30
0.0
 11
164.6821211764
 21
203.8111639258
 31
0.0
  0
LINE
  5
2C0
330
1F
100
AcDbEntity
  8
0
  6
Continuous
 62
     7
370
     0
100
AcDbLine
 10
163.3295912036
 20
204.1905754294
 30
0.0
 11
163.3295912036
 21
204.3966007468
 31
0.0
  0
LINE
  5
2C1
330
1F
100
AcDbEntity
  8
0
  6
Continuous
 62
     7
370
     0
100
AcDbLine
 10
163.3295912036
 20
204.1905754294
 30
0.0
 11
162.1583572562
 21
203.3479259398
 31
0.0
  0
LINE
  5
2C2
330
1F
100
AcDbEntity
  8
0
  6
Continuous
 62
     7
370
     0
100
AcDbLine
 10
164.6821211764
 20
203.6051386085
 30
0.0
 11
163.3295912036
 21
204.1905754294
 31
0.0
  0
ARC
  5
2C3
330
1F
100
AcDbEntity
  8
0
  6
Continuous
 62
     7
370
     0
100
AcDbCircle
 10
163.4568905301
 20
202.7505327075
 30
0.0
 40
1.2476854168396
100
AcDbArc
 50
197.3358011809
 51
214.9206860586
  0
ARC
  5
2C4
330
1F
100
AcDbEntity
  8
0
  6
Continuous
 62
     7
370
     0
100
AcDbCircle
 10
163.4899438547
 20
202.7284346548
 30
0.0
 40
1.281651796587886
100
AcDbArc
 50
6.938157453
 51
174.660246703
  0
ARC
  5
2C5
330
1F
100
AcDbEntity
  8
0
  6
Continuous
 62
     7
370
     0
100
AcDbCircle
 10
163.5313635076
 20
202.7472274891
 30
0.0
 40
1.238340571998776
100
AcDbArc
 50
335.6313523091
 51
6.3065002356
  0
CIRCLE
  5
2C6
330
1F
100
AcDbEntity
  8
0
  6
Continuous
 62
     7
370
     0
100
AcDbCircle
 10
163.4565865399
 20
193.1059598026
 30
0.0
 40
2.717941878656829
  0
CIRCLE
  5
2C7
330
1F
100
AcDbEntity
  8
0
  6
Continuous
 62
     7
370
     0
100
AcDbCircle
 10
163.4569559542
 20
193.1304667276
 30
0.0
 40
2.516923600509646
  0
LINE
  5
2C8
330
1F
100
AcDbEntity
  8
0
  6
Continuous
 62
     7
370
     0
100
AcDbLine
 10
162.2973179185
 20
192.2723677989
 30
0.0
 11
163.6498478913
 21
191.6869309779
 31
0.0
  0
LINE
  5
2C9
330
1F
100
AcDbEntity
  8
0
  6
Continuous
 62
     7
370
     0
100
AcDbLine
 10
164.8422495202
 20
192.5448103856
 30
0.0
 11
163.6498478913
 21
191.6869309779
 31
0.0
  0
LINE
  5
2CA
330
1F
100
AcDbEntity
  8
0
  6
Continuous
 62
     7
370
     0
100
AcDbLine
 10
164.6821211764
 20
193.988125683
 30
0.0
 11
164.8422495202
 21
192.5448103856
 31
0.0
  0
LINE
  5
2CB
330
1F
100
AcDbEntity
  8
0
  6
Continuous
 62
     7
370
     0
100
AcDbLine
 10
164.6821211764
 20
193.988125683
 30
0.0
 11
163.3295912036
 21
194.573562504
 31
0.0
  0
LINE
  5
2CC
330
1F
100
AcDbEntity
  8
0
  6
Continuous
 62
     7
370
     0
100
AcDbLine
 10
163.3295912036
 20
194.573562504
 30
0.0
 11
162.1371895746
 21
193.7156830963
 31
0.0
  0
LINE
  5
2CD
330
1F
100
AcDbEntity
  8
0
  6
Continuous
 62
     7
370
     0
100
AcDbLine
 10
162.2973179185
 20
192.2723677989
 30
0.0
 11
162.1371895746
 21
193.7156830963
 31
0.0
  0
ARC
  5
2CE
330
1F
100
AcDbEntity
  8
0
  6
Continuous
 62
     7
370
     0
100
AcDbCircle
 10
163.4897195474
 20
192.7945418839
 30
0.0
 40
2.750274884407274
100
AcDbArc
 50
180.8101025887
 51
359.1898974113
  0
LINE
  5
2CF
330
1F
100
AcDbEntity
  8
0
  6
Continuous
 62
     7
370
     0
100
AcDbLine
 10
164.8210818387
 20
192.5295813989
 30
0.0
 11
164.7622102612
 21
193.0602191996
 31
0.0
  0
LINE
  5
2D0
330
1F
100
AcDbEntity
  8
0
  6
Continuous
 62
     7
370
     0
100
AcDbLine
 10
164.7622102612
 20
193.0602191996
 30
0.0
 11
164.6821211764
 21
193.782101297
 31
0.0
  0
LINE
  5
2D1
330
1F
100
AcDbEntity
  8
0
  6
Continuous
 62
     7
370
     0
100
AcDbLine
 10
164.6821211764
 20
193.782101297
 30
0.0
 11
164.6821211764
 21
193.988125683
 31
0.0
  0
LINE
  5
2D2
330
1F
100
AcDbEntity
  8
0
  6
Continuous
 62
     7
370
     0
100
AcDbLine
 10
163.3295912036
 20
194.367538118
 30
0.0
 11
163.3295912036
 21
194.573562504
 31
0.0
  0
LINE
  5
2D3
330
1F
100
AcDbEntity
  8
0
  6
Continuous
 62
     7
370
     0
100
AcDbLine
 10
163.3295912036
 20
194.367538118
 30
0.0
 11
162.1583572562
 21
193.5248886284
 31
0.0
  0
LINE
  5
2D4
330
1F
100
AcDbEntity
  8
0
  6
Continuous
 62
     7
370
     0
100
AcDbLine
 10
164.6821211764
 20
193.782101297
 30
0.0
 11
163.3295912036
 21
194.367538118
 31
0.0
  0
ARC
  5
2D5
330
1F
100
AcDbEntity
  8
0
  6
Continuous
 62
     7
370
     0
100
AcDbCircle
 10
163.4568686355
 20
192.9274856677
 30
0.0
 40
1.24766189557636
100
AcDbArc
 50
197.3357151452
 51
214.9208953103
  0
ARC
  5
2D6
330
1F
100
AcDbEntity
  8
0
  6
Continuous
 62
     7
370
     0
100
AcDbCircle
 10
163.489943923
 20
192.9053965043
 30
0.0
 40
1.281651942657683
100
AcDbArc
 50
6.9382363848
 51
174.6602096417
  0
ARC
  5
2D7
330
1F
100
AcDbEntity
  8
0
  6
Continuous
 62
     7
370
     0
100
AcDbCircle
 10
163.5314442429
 20
192.9241782769
 30
0.0
 40
1.238261735004492
100
AcDbArc
 50
335.6303517886
 51
6.3075007561
  0
LINE
  5
2D8
330
1F
100
AcDbEntity
  8
0
  6
Continuous
 62
     7
370
     0
100
AcDbLine
 10
162.8193966319
 20
145.1580607381
 30
0.0
 11
164.0862188508
 21
145.1580607381
 31
0.0
  0
SPLINE
  5
2D9
330
1F
100
AcDbEntity
  8
0
  6
Continuous
 62
     7
370
     0
100
AcDbSpline
210
0.0
220
0.0
230
1.0
 70
     8
 71
     3
 72
     8
 73
     4
 74
     0
 42
0.000000001
 43
0.00000001
 40
0.0
 40
0.0
 40
0.0
 40
0.0
 40
1.0
 40
1.0
 40
1.0
 40
1.0
 10
164.086218857994
 20
145.1580625798588
 30
0.0
 10
164.5296175956551
 20
144.9711060581682
 30
0.0
 10
164.9852463688506
 20
144.8580625798962
 30
0.0
 10
165.4595799021682
 20
144.8580625797726
 30
0.0
  0
LINE
  5
2DA
330
1F
100
AcDbEntity
  8
0
  6
Continuous
 62
     7
370
     0
100
AcDbLine
 10
161.4597306327
 20
144.8580631104
 30
0.0
 11
165.4595799484
 21
144.8580631104
 31
0.0
  0
SPLINE
  5
2DB
330
1F
100
AcDbEntity
  8
0
  6
Continuous
 62
     7
370
     0
100
AcDbSpline
210
0.0
220
0.0
230
1.0
 70
     8
 71
     3
 72
     8
 73
     4
 74
     0
 42
0.000000001
 43
0.00000001
 40
0.0
 40
0.0
 40
0.0
 40
0.0
 40
1.0
 40
1.0
 40
1.0
 40
1.0
 10
161.4597305496854
 20
144.8580625797878
 30
0.0
 10
161.9293341002554
 20
144.8580625797783
 30
0.0
 10
162.3804194117239
 20
144.9711060579167
 30
0.0
 10
162.8193966438023
 20
145.1580625795098
 30
0.0
  0
LINE
  5
2DC
330
1F
100
AcDbEntity
  8
0
  6
Continuous
 62
     7
370
     0
100
AcDbLine
 10
162.8193966319
 20
145.1580607381
 30
0.0
 11
162.8193966319
 21
147.8580617394
 31
0.0
  0
LINE
  5
2DD
330
1F
100
AcDbEntity
  8
0
  6
Continuous
 62
     7
370
     0
100
AcDbLine
 10
164.0862188508
 20
147.8580617394
 30
0.0
 11
164.0862188508
 21
145.1580607381
 31
0.0
  0
LINE
  5
2DE
330
1F
100
AcDbEntity
  8
0
  6
Continuous
 62
     7
370
     0
100
AcDbLine
 10
166.8329410461
 20
145.1580607381
 30
0.0
 11
166.8329410461
 21
147.8580617394
 31
0.0
  0
SPLINE
  5
2DF
330
1F
100
AcDbEntity
  8
0
  6
Continuous
 62
     7
370
     0
100
AcDbSpline
210
0.0
220
0.0
230
1.0
 70
     8
 71
     3
 72
     8
 73
     4
 74
     0
 42
0.000000001
 43
0.00000001
 40
0.0
 40
0.0
 40
0.0
 40
0.0
 40
1.0
 40
1.0
 40
1.0
 40
1.0
 10
165.4595799021635
 20
144.8580625797781
 30
0.0
 10
165.9339134360024
 20
144.8580625796548
 30
0.0
 10
166.3895422098138
 20
144.9711060579987
 30
0.0
 10
166.8329409479539
 20
145.1580625798937
 30
0.0
  0
SPLINE
  5
2E0
330
1F
100
AcDbEntity
  8
0
  6
Continuous
 62
     7
370
     0
100
AcDbSpline
210
0.0
220
0.0
230
1.0
 70
     8
 71
     3
 72
     8
 73
     4
 74
     0
 42
0.000000001
 43
0.00000001
 40
0.0
 40
0.0
 40
0.0
 40
0.0
 40
1.0
 40
1.0
 40
1.0
 40
1.0
 10
160.1000644550782
 20
145.1580625797538
 30
0.0
 10
160.5390416872072
 20
144.971106058071
 30
0.0
 10
160.9901269990135
 20
144.8580625797829
 30
0.0
 10
161.4597305496621
 20
144.8580625797726
 30
0.0
  0
LINE
  5
2E1
330
1F
100
AcDbEntity
  8
0
  6
Continuous
 62
     7
370
     0
100
AcDbLine
 10
160.1000644007
 20
147.8580617394
 30
0.0
 11
160.1000644007
 21
145.1580607381
 31
0.0
  0
LINE
  5
2E2
330
1F
100
AcDbEntity
  8
0
  6
Continuous
 62
     7
370
     0
100
AcDbLine
 10
167.4758737647
 20
145.1580607381
 30
0.0
 11
166.8329410461
 21
145.1580607381
 31
0.0
  0
SPLINE
  5
2E3
330
1F
100
AcDbEntity
  8
0
  6
Continuous
 62
     7
370
     0
100
AcDbSpline
210
0.0
220
0.0
230
1.0
 70
     8
 71
     3
 72
     8
 73
     4
 74
     0
 42
0.000000001
 43
0.00000001
 40
0.0
 40
0.0
 40
0.0
 40
0.0
 40
1.0
 40
1.0
 40
1.0
 40
1.0
 10
167.4758739506618
 20
145.158062580118
 30
0.0
 10
167.4802954562668
 20
144.9711060581769
 30
0.0
 10
167.4848389179536
 20
144.8580625797802
 30
0.0
 10
167.4895689006939
 20
144.8580625798919
 30
0.0
  0
LINE
  5
2E4
330
1F
100
AcDbEntity
  8
0
  6
Continuous
 62
     7
370
     0
100
AcDbLine
 10
167.4895688632
 20
144.8580631104
 30
0.0
 11
165.4595799484
 21
144.8580631104
 31
0.0
  0
LINE
  5
2E5
330
1F
100
AcDbEntity
  8
0
  6
Continuous
 62
     7
370
     0
100
AcDbLine
 10
159.4761751332
 20
145.1580607381
 30
0.0
 11
160.1000644007
 21
145.1580607381
 31
0.0
  0
SPLINE
  5
2E6
330
1F
100
AcDbEntity
  8
0
  6
Continuous
 62
     7
370
     0
100
AcDbSpline
210
0.0
220
0.0
230
1.0
 70
     8
 71
     3
 72
     8
 73
     4
 74
     0
 42
0.000000001
 43
0.00000001
 40
0.0
 40
0.0
 40
0.0
 40
0.0
 40
1.0
 40
1.0
 40
1.0
 40
1.0
 10
159.4898701941627
 20
144.8580625798919
 30
0.0
 10
159.485140211427
 20
144.8580625798675
 30
0.0
 10
159.4805967497494
 20
144.9711060580666
 30
0.0
 10
159.4761752441484
 20
145.1580625797351
 30
0.0
  0
LINE
  5
2E7
330
1F
100
AcDbEntity
  8
0
  6
Continuous
 62
     7
370
     0
100
AcDbLine
 10
159.4898702317
 20
144.8580631104
 30
0.0
 11
161.4597306327
 21
144.8580631104
 31
0.0
  0
LINE
  5
2E8
330
1F
100
AcDbEntity
  8
0
  6
Continuous
 62
     7
370
     0
100
AcDbLine
 10
167.4758737647
 20
147.8580617394
 30
0.0
 11
167.4758737647
 21
145.1580607381
 31
0.0
  0
LINE
  5
2E9
330
1F
100
AcDbEntity
  8
0
  6
Continuous
 62
     7
370
     0
100
AcDbLine
 10
159.4761751332
 20
145.1580607381
 30
0.0
 11
159.4761751332
 21
147.8580617394
 31
0.0
  0
LINE
  5
2EA
330
1F
100
AcDbEntity
  8
0
  6
Continuous
 62
     7
370
     0
100
AcDbLine
 10
161.6897873321
 20
139.8580641534
 30
0.0
 11
165.2897195165
 21
139.8580641534
 31
0.0
  0
LINE
  5
2EB
330
1F
100
AcDbEntity
  8
0
  6
Continuous
 62
     7
370
     0
100
AcDbLine
 10
161.9897759958
 20
137.8580638256
 30
0.0
 11
164.9897195605
 21
137.8580638256
 31
0.0
  0
LINE
  5
2EC
330
1F
100
AcDbEntity
  8
0
  6
Continuous
 62
     7
370
     0
100
AcDbLine
 10
163.4740976681
 20
140.3580614414
 30
0.0
 11
165.2897195165
 21
140.3580614414
 31
0.0
  0
LINE
  5
2ED
330
1F
100
AcDbEntity
  8
0
  6
Continuous
 62
     7
370
     0
100
AcDbLine
 10
161.6897195783
 20
140.3580614414
 30
0.0
 11
163.4740976681
 21
140.3580614414
 31
0.0
  0
LINE
  5
2EE
330
1F
100
AcDbEntity
  8
0
  6
Continuous
 62
     7
370
     0
100
AcDbLine
 10
161.6897873321
 20
142.3580617692
 30
0.0
 11
165.2897195165
 21
142.3580617692
 31
0.0
  0
LINE
  5
2EF
330
1F
100
AcDbEntity
  8
0
  6
Continuous
 62
     7
370
     0
100
AcDbLine
 10
163.4740976681
 20
142.8580627825
 30
0.0
 11
165.2897195165
 21
142.8580627825
 31
0.0
  0
LINE
  5
2F0
330
1F
100
AcDbEntity
  8
0
  6
Continuous
 62
     7
370
     0
100
AcDbLine
 10
161.6897195783
 20
142.8580627825
 30
0.0
 11
163.4740976681
 21
142.8580627825
 31
0.0
  0
LINE
  5
2F1
330
1F
100
AcDbEntity
  8
0
  6
Continuous
 62
     7
370
     0
100
AcDbLine
 10
167.5032639616
 20
145.1580607381
 30
0.0
 11
167.5032639616
 21
147.8580617394
 31
0.0
  0
SPLINE
  5
2F2
330
1F
100
AcDbEntity
  8
0
  6
Continuous
 62
     7
370
     0
100
AcDbSpline
210
0.0
220
0.0
230
1.0
 70
     8
 71
     3
 72
     8
 73
     4
 74
     0
 42
0.000000001
 43
0.00000001
 40
0.0
 40
0.0
 40
0.0
 40
0.0
 40
1.0
 40
1.0
 40
1.0
 40
1.0
 10
167.4895689006939
 20
144.8580625798919
 30
0.0
 10
167.4942988834277
 20
144.8580625800037
 30
0.0
 10
167.4988423451071
 20
144.9711060583514
 30
0.0
 10
167.5032638507059
 20
145.1580625800043
 30
0.0
  0
LINE
  5
2F3
330
1F
100
AcDbEntity
  8
0
  6
Continuous
 62
     7
370
     0
100
AcDbLine
 10
164.9897195605
 20
186.580892564
 30
0.0
 11
161.9897195344
 21
186.580892564
 31
0.0
  0
LINE
  5
2F4
330
1F
100
AcDbEntity
  8
0
  6
Continuous
 62
     7
370
     0
100
AcDbLine
 10
164.9897195605
 20
186.2999507275
 30
0.0
 11
164.9897195605
 21
186.580892564
 31
0.0
  0
LINE
  5
2F5
330
1F
100
AcDbEntity
  8
0
  6
Continuous
 62
     7
370
     0
100
AcDbLine
 10
164.9897195605
 20
186.2999507275
 30
0.0
 11
161.9897195344
 21
186.2999507275
 31
0.0
  0
LINE
  5
2F6
330
1F
100
AcDbEntity
  8
0
  6
Continuous
 62
     7
370
     0
100
AcDbLine
 10
161.9897195344
 20
186.2999507275
 30
0.0
 11
161.9897195344
 21
186.580892564
 31
0.0
  0
LINE
  5
2F7
330
1F
100
AcDbEntity
  8
0
  6
Continuous
 62
     7
370
     0
100
AcDbLine
 10
161.9897195344
 20
186.580892564
 30
0.0
 11
161.9897195344
 21
186.5854593042
 31
0.0
  0
LINE
  5
2F8
330
1F
100
AcDbEntity
  8
0
  6
Continuous
 62
     7
370
     0
100
AcDbLine
 10
164.9897195605
 20
186.580892564
 30
0.0
 11
164.9897195605
 21
186.5854593042
 31
0.0
  0
LINE
  5
2F9
330
1F
100
AcDbEntity
  8
0
  6
Continuous
 62
     7
370
     0
100
AcDbLine
 10
160.4897195213
 20
185.841577505
 30
0.0
 11
166.4897195735
 21
185.841577505
 31
0.0
  0
LINE
  5
2FA
330
1F
100
AcDbEntity
  8
0
  6
Continuous
 62
     7
370
     0
100
AcDbLine
 10
160.4897195213
 20
175.2125834163
 30
0.0
 11
166.4897195735
 21
175.2125834163
 31
0.0
  0
LINE
  5
2FB
330
1F
100
AcDbEntity
  8
0
  6
Continuous
 62
     7
370
     0
100
AcDbLine
 10
160.4897195213
 20
175.2125834163
 30
0.0
 11
160.4897195213
 21
185.841577505
 31
0.0
  0
LINE
  5
2FC
330
1F
100
AcDbEntity
  8
0
  6
Continuous
 62
     7
370
     0
100
AcDbLine
 10
166.4897195735
 20
175.2125834163
 30
0.0
 11
166.4897195735
 21
185.841577505
 31
0.0
  0
LINE
  5
2FD
330
1F
100
AcDbEntity
  8
0
  6
Continuous
 62
     7
370
     0
100
AcDbLine
 10
160.4897195213
 20
185.841577505
 30
0.0
 11
160.4897195213
 21
186.304517002
 31
0.0
  0
LINE
  5
2FE
330
1F
100
AcDbEntity
  8
0
  6
Continuous
 62
     7
370
     0
100
AcDbLine
 10
166.4897195735
 20
185.841577505
 30
0.0
 11
166.4897195735
 21
186.304517002
 31
0.0
  0
LINE
  5
2FF
330
1F
100
AcDbEntity
  8
0
  6
Continuous
 62
     7
370
     0
100
AcDbLine
 10
165.4897196424
 20
174.3854292717
 30
0.0
 11
161.4897194524
 21
174.3854292717
 31
0.0
  0
LINE
  5
300
330
1F
100
AcDbEntity
  8
0
  6
Continuous
 62
     7
370
     0
100
AcDbLine
 10
160.4897195213
 20
175.2125834163
 30
0.0
 11
161.4897194524
 21
174.3854292717
 31
0.0
  0
LINE
  5
301
330
1F
100
AcDbEntity
  8
0
  6
Continuous
 62
     7
370
     0
100
AcDbLine
 10
166.4897195735
 20
175.2125834163
 30
0.0
 11
165.4897196424
 21
174.3854292717
 31
0.0
  0
SPLINE
  5
302
330
1F
100
AcDbEntity
  8
0
  6
Continuous
 62
     8
370
     0
100
AcDbSpline
210
0.0
220
0.0
230
1.0
 70
     8
 71
     3
 72
    12
 73
     8
 74
     0
 42
0.000000001
 43
0.00000001
 40
0.0
 40
0.0
 40
0.0
 40
0.0
 40
0.2278124087133358
 40
0.4564793607393285
 40
0.6848157379115896
 40
0.9129708018593137
 40
1.0
 40
1.0
 40
1.0
 40
1.0
 10
158.8705989272329
 20
184.8580594223159
 30
0.0
 10
158.8880833803227
 20
185.1592666620466
 30
0.0
 10
158.9231178721415
 20
185.7628109949428
 30
0.0
 10
159.1944844459492
 20
186.6362775795975
 30
0.0
 10
159.6286406836005
 20
187.4318603982295
 30
0.0
 10
160.0708709438506
 20
188.0102937960175
 30
0.0
 10
160.399090888926
 20
188.2674122005527
 30
0.0
 10
160.489719521347
 20
188.3384081583636
 30
0.0
  0
SPLINE
  5
303
330
1F
100
AcDbEntity
  8
0
  6
Continuous
 62
     8
370
     0
100
AcDbSpline
210
0.0
220
0.0
230
1.0
 70
     8
 71
     3
 72
    12
 73
     8
 74
     0
 42
0.000000001
 43
0.00000001
 40
0.0
 40
0.0
 40
0.0
 40
0.0
 40
0.0857125663213065
 40
0.3141881766324446
 40
0.5428631294726144
 40
0.7718702855399451
 40
1.0
 40
1.0
 40
1.0
 40
1.0
 10
166.489719573501
 20
188.3396375041621
 30
0.0
 10
166.5791002052096
 20
188.2698266091132
 30
0.0
 10
166.9067340506074
 20
188.0139276346001
 30
0.0
 10
167.3486190812485
 20
187.4359206893031
 30
0.0
 10
167.783701362124
 20
186.6391583117565
 30
0.0
 10
168.0560237261581
 20
185.7643295478291
 30
0.0
 10
168.0912572298616
 20
185.1597648309597
 30
0.0
 10
168.1088401676151
 20
184.8580626819449
 30
0.0
  0
SPLINE
  5
304
330
1F
100
AcDbEntity
  8
0
  6
Continuous
 62
     8
370
     0
100
AcDbSpline
210
0.0
220
0.0
230
1.0
 70
     8
 71
     3
 72
    12
 73
     8
 74
     0
 42
0.000000001
 43
0.00000001
 40
0.0
 40
0.0
 40
0.0
 40
0.0
 40
0.1374320595095889
 40
0.3530740965146303
 40
0.5687160866095644
 40
0.7843580702639741
 40
1.0
 40
1.0
 40
1.0
 40
1.0
 10
166.489719573501
 20
188.7287170674818
 30
0.0
 10
166.6528650502523
 20
188.6037352396318
 30
0.0
 10
167.0719989991283
 20
188.282646797049
 30
0.0
 10
167.6023110363929
 20
187.6070101802752
 30
0.0
 10
168.0615448322434
 20
186.7553235177883
 30
0.0
 10
168.3535706382662
 20
185.824540889496
 30
0.0
 10
168.39038654019
 20
185.1802220576114
 30
0.0
 10
168.4087944888505
 20
184.8580626819449
 30
0.0
  0
SPLINE
  5
305
330
1F
100
AcDbEntity
  8
0
  6
Continuous
 62
     8
370
     0
100
AcDbSpline
210
0.0
220
0.0
230
1.0
 70
     8
 71
     3
 72
    12
 73
     8
 74
     0
 42
0.000000001
 43
0.00000001
 40
0.0
 40
0.0
 40
0.0
 40
0.0
 40
0.2152375161137876
 40
0.4304750535830926
 40
0.6457126314537405
 40
0.8609502965698462
 40
1.0
 40
1.0
 40
1.0
 40
1.0
 10
158.5706446059975
 20
184.8580626819449
 30
0.0
 10
158.5889842471935
 20
185.1796356484365
 30
0.0
 10
158.6256635314053
 20
185.8227816133256
 30
0.0
 10
158.9166491752178
 20
186.7519779530612
 30
0.0
 10
159.3742109783351
 20
187.6025914812983
 30
0.0
 10
159.9046757875513
 20
188.2796078950673
 30
0.0
 10
160.3248218027302
 20
188.6024188230676
 30
0.0
 10
160.489719521347
 20
188.7291147422212
 30
0.0
  0
LINE
  5
306
330
1F
100
AcDbEntity
  8
0
  6
Continuous
 62
     8
370
     0
100
AcDbLine
 10
168.4897194357
 20
176.8580625348
 30
0.0
 11
168.4295760208
 21
176.8580625348
 31
0.0
  0
LINE
  5
307
330
1F
100
AcDbEntity
  8
0
  6
Continuous
 62
     8
370
     0
100
AcDbLine
 10
158.4897196592
 20
176.8580625348
 30
0.0
 11
158.5496688933
 21
176.8580625348
 31
0.0
  0
LINE
  5
308
330
1F
100
AcDbEntity
  8
0
  6
Continuous
 62
     8
370
     0
100
AcDbLine
 10
168.4897194357
 20
184.8580626819
 30
0.0
 11
168.4295760208
 21
184.8580626819
 31
0.0
  0
LINE
  5
309
330
1F
100
AcDbEntity
  8
0
  6
Continuous
 62
     8
370
     0
100
AcDbLine
 10
158.4897196592
 20
184.8580626819
 30
0.0
 11
158.5498630741
 21
184.8580626819
 31
0.0
  0
DIMENSION
  5
30A
330
1F
100
AcDbEntity
  8
0
  6
Continuous
 62
     7
370
     0
100
AcDbDimension
  2
_D_12
 10
166.4897195474
 20
252.1907134114
 30
0.0
 11
163.4897195474
 21
252.1907134114
 31
0.0
 70
   160
  1
<>
 71
     2
 42
-1.0
  3
SLDDIMSTYLE0
100
AcDbAlignedDimension
 13
160.4897195474
 23
239.0216389126
 33
0.0
 14
166.4897195474
 24
239.0216389126
 34
0.0
100
AcDbRotatedDimension
  0
DIMENSION
  5
316
330
1F
100
AcDbEntity
  8
0
  6
Continuous
 62
     7
370
     0
100
AcDbDimension
  2
_D_13
 10
169.9897195474
 20
115.8580625799
 30
0.0
 11
163.4897195474
 21
115.8580625799
 31
0.0
 70
   160
  1
<>
 71
     2
 42
-1.0
  3
SLDDIMSTYLE0
100
AcDbAlignedDimension
 13
156.9897195474
 23
163.8580625799
 33
0.0
 14
169.9897195474
 24
163.8580625799
 34
0.0
100
AcDbRotatedDimension
  0
ENDSEC
  0
SECTION
  2
OBJECTS
  0
DICTIONARY
  5
C
330
0
100
AcDbDictionary
281
     1
  3
ACAD_GROUP
350
D
  3
ACAD_LAYOUT
350
1A
  3
ACAD_MLINESTYLE
350
17
  3
ACAD_PLOTSETTINGS
350
19
  3
ACAD_PLOTSTYLENAME
350
E
  3
ACAD_SCALELIST
350
47
  0
DICTIONARY
  5
D
102
{ACAD_REACTORS
330
C
102
}
330
C
100
AcDbDictionary
281
     1
  0
DICTIONARY
  5
1A
102
{ACAD_REACTORS
330
C
102
}
330
C
100
AcDbDictionary
281
     1
  3
Layout1
350
1E
  3
Layout2
350
26
  3
Model
350
22
  0
DICTIONARY
  5
17
102
{ACAD_REACTORS
330
C
102
}
330
C
100
AcDbDictionary
281
     1
  3
Standard
350
18
  0
DICTIONARY
  5
19
102
{ACAD_REACTORS
330
C
102
}
330
C
100
AcDbDictionary
281
     1
  0
ACDBDICTIONARYWDFLT
  5
E
102
{ACAD_REACTORS
330
C
102
}
330
C
100
AcDbDictionary
281
     1
  3
Normal
350
F
100
AcDbDictionaryWithDefault
340
F
  0
DICTIONARY
  5
47
102
{ACAD_REACTORS
330
C
102
}
330
C
100
AcDbDictionary
281
     1
  3
A0
350
48
  3
A1
350
49
  3
A2
350
4A
  3
A3
350
4B
  3
A4
350
4C
  3
A5
350
4D
  3
A6
350
4E
  3
A7
350
4F
  3
A8
350
50
  3
A9
350
51
  3
B0
350
52
  3
B1
350
53
  3
B2
350
54
  3
B3
350
55
  3
B4
350
56
  3
B5
350
57
  3
B6
350
58
  3
B7
350
59
  3
B8
350
5A
  3
B9
350
5B
  3
C0
350
5C
  3
C1
350
5D
  3
C2
350
5E
  3
C3
350
5F
  3
C4
350
60
  3
C5
350
61
  3
C6
350
62
  3
C7
350
63
  3
C8
350
64
  3
C9
350
65
  3
D0
350
66
  3
D1
350
67
  3
D2
350
68
  0
LAYOUT
  5
1E
102
{ACAD_REACTORS
330
1A
102
}
330
1A
100
AcDbPlotSettings
  1

  2
none_device
  4

  6

 40
0.0
 41
0.0
 42
0.0
 43
0.0
 44
0.0
 45
0.0
 46
0.0
 47
0.0
 48
0.0
 49
0.0
140
0.0
141
0.0
142
1.0
143
1.0
 70
   688
 72
     1
 73
     0
 74
     5
  7

 75
    16
147
1.0
148
0.0
149
0.0
100
AcDbLayout
  1
Layout1
 70
     1
 71
     1
 10
0.0
 20
0.0
 11
420.0
 21
297.0
 12
0.0
 22
0.0
 32
0.0
 14
1.0000000000E+20
 24
1.0000000000E+20
 34
1.0000000000E+20
 15
-1.0000000000E+20
 25
-1.0000000000E+20
 35
-1.0000000000E+20
146
0.0
 13
0.0
 23
0.0
 33
0.0
 16
1.0
 26
0.0
 36
0.0
 17
0.0
 27
1.0
 37
0.0
 76
     0
330
1B
  0
LAYOUT
  5
26
102
{ACAD_REACTORS
330
1A
102
}
330
1A
100
AcDbPlotSettings
  1

  2
none_device
  4

  6

 40
0.0
 41
0.0
 42
0.0
 43
0.0
 44
0.0
 45
0.0
 46
0.0
 47
0.0
 48
0.0
 49
0.0
140
0.0
141
0.0
142
1.0
143
1.0
 70
   688
 72
     1
 73
     0
 74
     5
  7

 75
    16
147
1.0
148
0.0
149
0.0
100
AcDbLayout
  1
Layout2
 70
     1
 71
     2
 10
0.0
 20
0.0
 11
0.0
 21
0.0
 12
0.0
 22
0.0
 32
0.0
 14
0.0
 24
0.0
 34
0.0
 15
0.0
 25
0.0
 35
0.0
146
0.0
 13
0.0
 23
0.0
 33
0.0
 16
1.0
 26
0.0
 36
0.0
 17
0.0
 27
1.0
 37
0.0
 76
     0
330
23
  0
LAYOUT
  5
22
102
{ACAD_REACTORS
330
1A
102
}
330
1A
100
AcDbPlotSettings
  1

  2
none_device
  4
Letter_(8.50_x_11.00_Inches)
  6

 40
6.35
 41
6.35
 42
6.35000508
 43
6.35000508
 44
215.9
 45
279.4
 46
0.0
 47
0.0
 48
0.0
 49
0.0
140
0.0
141
0.0
142
1.0
143
1.0
 70
  1712
 72
     1
 73
     0
 74
     0
  7

 75
     0
147
1.0
148
0.0
149
0.0
100
AcDbLayout
  1
Model
 70
     1
 71
     0
 10
0.0
 20
0.0
 11
210.0
 21
297.0
 12
0.0
 22
0.0
 32
0.0
 14
0.0
 24
0.0
 34
0.0
 15
210.0
 25
297.0
 35
0.0
146
0.0
 13
0.0
 23
0.0
 33
0.0
 16
1.0
 26
0.0
 36
0.0
 17
0.0
 27
1.0
 37
0.0
 76
     0
330
1F
331
29
  0
MLINESTYLE
  5
18
102
{ACAD_REACTORS
330
17
102
}
330
17
100
AcDbMlineStyle
  2
Standard
 70
     0
  3

 62
   256
 51
90.0
 52
90.0
 71
     2
 49
0.5
 62
   256
  6
BYLAYER
 49
-0.5
 62
   256
  6
BYLAYER
  0
ACDBPLACEHOLDER
  5
F
102
{ACAD_REACTORS
330
E
102
}
330
E
  0
SCALE
  5
48
102
{ACAD_REACTORS
330
47
102
}
330
47
100
AcDbScale
 70
     0
300
1:1
140
1.0
141
1.0
290
     1
  0
SCALE
  5
49
102
{ACAD_REACTORS
330
47
102
}
330
47
100
AcDbScale
 70
     0
300
1:2
140
1.0
141
2.0
290
     0
  0
SCALE
  5
4A
102
{ACAD_REACTORS
330
47
102
}
330
47
100
AcDbScale
 70
     0
300
1:4
140
1.0
141
4.0
290
     0
  0
SCALE
  5
4B
102
{ACAD_REACTORS
330
47
102
}
330
47
100
AcDbScale
 70
     0
300
1:5
140
1.0
141
5.0
290
     0
  0
SCALE
  5
4C
102
{ACAD_REACTORS
330
47
102
}
330
47
100
AcDbScale
 70
     0
300
1:8
140
1.0
141
8.0
290
     0
  0
SCALE
  5
4D
102
{ACAD_REACTORS
330
47
102
}
330
47
100
AcDbScale
 70
     0
300
1:10
140
1.0
141
10.0
290
     0
  0
SCALE
  5
4E
102
{ACAD_REACTORS
330
47
102
}
330
47
100
AcDbScale
 70
     0
300
1:16
140
1.0
141
16.0
290
     0
  0
SCALE
  5
4F
102
{ACAD_REACTORS
330
47
102
}
330
47
100
AcDbScale
 70
     0
300
1:20
140
1.0
141
20.0
290
     0
  0
SCALE
  5
50
102
{ACAD_REACTORS
330
47
102
}
330
47
100
AcDbScale
 70
     0
300
1:30
140
1.0
141
30.0
290
     0
  0
SCALE
  5
51
102
{ACAD_REACTORS
330
47
102
}
330
47
100
AcDbScale
 70
     0
300
1:40
140
1.0
141
40.0
290
     0
  0
SCALE
  5
52
102
{ACAD_REACTORS
330
47
102
}
330
47
100
AcDbScale
 70
     0
300
1:50
140
1.0
141
50.0
290
     0
  0
SCALE
  5
53
102
{ACAD_REACTORS
330
47
102
}
330
47
100
AcDbScale
 70
     0
300
1:100
140
1.0
141
100.0
290
     0
  0
SCALE
  5
54
102
{ACAD_REACTORS
330
47
102
}
330
47
100
AcDbScale
 70
     0
300
2:1
140
2.0
141
1.0
290
     0
  0
SCALE
  5
55
102
{ACAD_REACTORS
330
47
102
}
330
47
100
AcDbScale
 70
     0
300
4:1
140
4.0
141
1.0
290
     0
  0
SCALE
  5
56
102
{ACAD_REACTORS
330
47
102
}
330
47
100
AcDbScale
 70
     0
300
8:1
140
8.0
141
1.0
290
     0
  0
SCALE
  5
57
102
{ACAD_REACTORS
330
47
102
}
330
47
100
AcDbScale
 70
     0
300
10:1
140
10.0
141
1.0
290
     0
  0
SCALE
  5
58
102
{ACAD_REACTORS
330
47
102
}
330
47
100
AcDbScale
 70
     0
300
100:1
140
100.0
141
1.0
290
     0
  0
SCALE
  5
59
102
{ACAD_REACTORS
330
47
102
}
330
47
100
AcDbScale
 70
     0
300
1/128" = 1'-0"
140
0.0078125
141
12.0
290
     0
  0
SCALE
  5
5A
102
{ACAD_REACTORS
330
47
102
}
330
47
100
AcDbScale
 70
     0
300
1/64" = 1'-0"
140
0.015625
141
12.0
290
     0
  0
SCALE
  5
5B
102
{ACAD_REACTORS
330
47
102
}
330
47
100
AcDbScale
 70
     0
300
1/32" = 1'-0"
140
0.03125
141
12.0
290
     0
  0
SCALE
  5
5C
102
{ACAD_REACTORS
330
47
102
}
330
47
100
AcDbScale
 70
     0
300
1/16" = 1'-0"
140
0.0625
141
12.0
290
     0
  0
SCALE
  5
5D
102
{ACAD_REACTORS
330
47
102
}
330
47
100
AcDbScale
 70
     0
300
3/32" = 1'-0"
140
0.09375
141
12.0
290
     0
  0
SCALE
  5
5E
102
{ACAD_REACTORS
330
47
102
}
330
47
100
AcDbScale
 70
     0
300
1/8" = 1'-0"
140
0.125
141
12.0
290
     0
  0
SCALE
  5
5F
102
{ACAD_REACTORS
330
47
102
}
330
47
100
AcDbScale
 70
     0
300
3/16" = 1'-0"
140
0.1875
141
12.0
290
     0
  0
SCALE
  5
60
102
{ACAD_REACTORS
330
47
102
}
330
47
100
AcDbScale
 70
     0
300
1/4" = 1'-0"
140
0.25
141
12.0
290
     0
  0
SCALE
  5
61
102
{ACAD_REACTORS
330
47
102
}
330
47
100
AcDbScale
 70
     0
300
3/8" = 1'-0"
140
0.375
141
12.0
290
     0
  0
SCALE
  5
62
102
{ACAD_REACTORS
330
47
102
}
330
47
100
AcDbScale
 70
     0
300
1/2" = 1'-0"
140
0.5
141
12.0
290
     0
  0
SCALE
  5
63
102
{ACAD_REACTORS
330
47
102
}
330
47
100
AcDbScale
 70
     0
300
3/4" = 1'-0"
140
0.75
141
12.0
290
     0
  0
SCALE
  5
64
102
{ACAD_REACTORS
330
47
102
}
330
47
100
AcDbScale
 70
     0
300
1" = 1'-0"
140
1.0
141
12.0
290
     0
  0
SCALE
  5
65
102
{ACAD_REACTORS
330
47
102
}
330
47
100
AcDbScale
 70
     0
300
1-1/2" = 1'-0"
140
1.5
141
12.0
290
     0
  0
SCALE
  5
66
102
{ACAD_REACTORS
330
47
102
}
330
47
100
AcDbScale
 70
     0
300
3" = 1'-0"
140
3.0
141
12.0
290
     0
  0
SCALE
  5
67
102
{ACAD_REACTORS
330
47
102
}
330
47
100
AcDbScale
 70
     0
300
6" = 1'-0"
140
6.0
141
12.0
290
     0
  0
SCALE
  5
68
102
{ACAD_REACTORS
330
47
102
}
330
47
100
AcDbScale
 70
     0
300
1'-0" = 1'-0"
140
12.0
141
12.0
290
     0
  0
ENDSEC
  0
EOF
