  0
SECTION
  2
HEADER
  9
$ACADVER
  1
AC1015
  9
$ACADMAINTVER
 70
     6
  9
$DWGCODEPAGE
  3
DOS932
  9
$INSBASE
 10
0.0
 20
0.0
 30
0.0
  9
$EXTMIN
 10
0.0
 20
0.0
 30
0.0
  9
$EXTMAX
 10
210.0
 20
297.0
 30
0.0
  9
$LIMMIN
 10
0.0
 20
0.0
  9
$LIMMAX
 10
210.0
 20
297.0
  9
$ORTHOMODE
 70
     0
  9
$REGENMODE
 70
     1
  9
$FILLMODE
 70
     1
  9
$QTEXTMODE
 70
     0
  9
$MIRRTEXT
 70
     1
  9
$LTSCALE
 40
1.0
  9
$ATTMODE
 70
     1
  9
$TEXTSIZE
 40
3.5
  9
$TRACEWID
 40
1.0
  9
$TEXTSTYLE
  7
Standard
  9
$CLAYER
  8
0
  9
$CELTYPE
  6
ByLayer
  9
$CECOLOR
 62
   256
  9
$CELTSCALE
 40
1.0
  9
$DISPSILH
 70
     0
  9
$DIMSCALE
 40
1.0
  9
$DIMASZ
 40
3.0
  9
$DIMEXO
 40
1.0
  9
$DIMDLI
 40
3.75
  9
$DIMRND
 40
0.0
  9
$DIMDLE
 40
0.0
  9
$DIMEXE
 40
1.0
  9
$DIMTP
 40
0.0
  9
$DIMTM
 40
0.0
  9
$DIMTXT
 40
3.5
  9
$DIMCEN
 40
2.5
  9
$DIMTSZ
 40
0.0
  9
$DIMTOL
 70
     0
  9
$DIMLIM
 70
     0
  9
$DIMTIH
 70
     1
  9
$DIMTOH
 70
     1
  9
$DIMSE1
 70
     0
  9
$DIMSE2
 70
     0
  9
$DIMTAD
 70
     1
  9
$DIMZIN
 70
     0
  9
$DIMBLK
  1

  9
$DIMASO
 70
     1
  9
$DIMSHO
 70
     1
  9
$DIMPOST
  1

  9
$DIMAPOST
  1

  9
$DIMALT
 70
     0
  9
$DIMALTD
 70
     3
  9
$DIMALTF
 40
0.0393700787
  9
$DIMLFAC
 40
1.0
  9
$DIMTOFL
 70
     1
  9
$DIMTVP
 40
0.0
  9
$DIMTIX
 70
     0
  9
$DIMSOXD
 70
     0
  9
$DIMSAH
 70
     0
  9
$DIMBLK1
  1

  9
$DIMBLK2
  1

  9
$DIMSTYLE
  2
ISO-25
  9
$DIMCLRD
 70
     0
  9
$DIMCLRE
 70
     0
  9
$DIMCLRT
 70
     0
  9
$DIMTFAC
 40
1.0
  9
$DIMGAP
 40
1.524
  9
$DIMJUST
 70
     0
  9
$DIMSD1
 70
     0
  9
$DIMSD2
 70
     0
  9
$DIMTOLJ
 70
     0
  9
$DIMTZIN
 70
     0
  9
$DIMALTZ
 70
     0
  9
$DIMALTTZ
 70
     0
  9
$DIMUPT
 70
     0
  9
$DIMDEC
 70
     1
  9
$DIMTDEC
 70
     3
  9
$DIMALTU
 70
     2
  9
$DIMALTTD
 70
     3
  9
$DIMTXSTY
  7
Standard
  9
$DIMAUNIT
 70
     0
  9
$DIMADEC
 70
     2
  9
$DIMALTRND
 40
0.0
  9
$DIMAZIN
 70
     0
  9
$DIMDSEP
 70
    44
  9
$DIMATFIT
 70
     3
  9
$DIMFRAC
 70
     0
  9
$DIMLDRBLK
  1

  9
$DIMLUNIT
 70
     2
  9
$DIMLWD
 70
    -2
  9
$DIMLWE
 70
    -2
  9
$DIMTMOVE
 70
     0
  9
$LUNITS
 70
     2
  9
$LUPREC
 70
     1
  9
$SKETCHINC
 40
1.0
  9
$FILLETRAD
 40
10.0
  9
$AUNITS
 70
     0
  9
$AUPREC
 70
     2
  9
$MENU
  1
.
  9
$ELEVATION
 40
0.0
  9
$PELEVATION
 40
0.0
  9
$THICKNESS
 40
0.0
  9
$LIMCHECK
 70
     0
  9
$CHAMFERA
 40
0.0
  9
$CHAMFERB
 40
0.0
  9
$CHAMFERC
 40
0.0
  9
$CHAMFERD
 40
0.0
  9
$SKPOLY
 70
     0
  9
$TDCREATE
 40
2457984.685183495
  9
$TDUCREATE
 40
2457984.310183495
  9
$TDUPDATE
 40
2457984.685185116
  9
$TDUUPDATE
 40
2457984.310185116
  9
$TDINDWG
 40
0.0000000116
  9
$TDUSRTIMER
 40
0.0000000116
  9
$USRTIMER
 70
     1
  9
$ANGBASE
 50
0.0
  9
$ANGDIR
 70
     0
  9
$PDMODE
 70
     0
  9
$PDSIZE
 40
-1.0
  9
$PLINEWID
 40
0.0
  9
$SPLFRAME
 70
     0
  9
$SPLINETYPE
 70
     6
  9
$SPLINESEGS
 70
     8
  9
$HANDSEED
  5
40C
  9
$SURFTAB1
 70
     6
  9
$SURFTAB2
 70
     6
  9
$SURFTYPE
 70
     6
  9
$SURFU
 70
     6
  9
$SURFV
 70
     6
  9
$UCSBASE
  2

  9
$UCSNAME
  2

  9
$UCSORG
 10
0.0
 20
0.0
 30
0.0
  9
$UCSXDIR
 10
1.0
 20
0.0
 30
0.0
  9
$UCSYDIR
 10
0.0
 20
1.0
 30
0.0
  9
$UCSORTHOREF
  2

  9
$UCSORTHOVIEW
 70
     0
  9
$UCSORGTOP
 10
0.0
 20
0.0
 30
0.0
  9
$UCSORGBOTTOM
 10
0.0
 20
0.0
 30
0.0
  9
$UCSORGLEFT
 10
0.0
 20
0.0
 30
0.0
  9
$UCSORGRIGHT
 10
0.0
 20
0.0
 30
0.0
  9
$UCSORGFRONT
 10
0.0
 20
0.0
 30
0.0
  9
$UCSORGBACK
 10
0.0
 20
0.0
 30
0.0
  9
$PUCSBASE
  2

  9
$PUCSNAME
  2

  9
$PUCSORG
 10
0.0
 20
0.0
 30
0.0
  9
$PUCSXDIR
 10
1.0
 20
0.0
 30
0.0
  9
$PUCSYDIR
 10
0.0
 20
1.0
 30
0.0
  9
$PUCSORTHOREF
  2

  9
$PUCSORTHOVIEW
 70
     0
  9
$PUCSORGTOP
 10
0.0
 20
0.0
 30
0.0
  9
$PUCSORGBOTTOM
 10
0.0
 20
0.0
 30
0.0
  9
$PUCSORGLEFT
 10
0.0
 20
0.0
 30
0.0
  9
$PUCSORGRIGHT
 10
0.0
 20
0.0
 30
0.0
  9
$PUCSORGFRONT
 10
0.0
 20
0.0
 30
0.0
  9
$PUCSORGBACK
 10
0.0
 20
0.0
 30
0.0
  9
$USERI1
 70
     0
  9
$USERI2
 70
     0
  9
$USERI3
 70
     0
  9
$USERI4
 70
     0
  9
$USERI5
 70
     0
  9
$USERR1
 40
0.0
  9
$USERR2
 40
0.0
  9
$USERR3
 40
0.0
  9
$USERR4
 40
0.0
  9
$USERR5
 40
0.0
  9
$WORLDVIEW
 70
     1
  9
$SHADEDGE
 70
     3
  9
$SHADEDIF
 70
    70
  9
$TILEMODE
 70
     1
  9
$MAXACTVP
 70
    64
  9
$PINSBASE
 10
0.0
 20
0.0
 30
0.0
  9
$PLIMCHECK
 70
     0
  9
$PEXTMIN
 10
1.0000000000E+20
 20
1.0000000000E+20
 30
1.0000000000E+20
  9
$PEXTMAX
 10
-1.0000000000E+20
 20
-1.0000000000E+20
 30
-1.0000000000E+20
  9
$PLIMMIN
 10
0.0
 20
0.0
  9
$PLIMMAX
 10
420.0
 20
297.0
  9
$UNITMODE
 70
     0
  9
$VISRETAIN
 70
     1
  9
$PLINEGEN
 70
     0
  9
$PSLTSCALE
 70
     1
  9
$TREEDEPTH
 70
  3020
  9
$CMLSTYLE
  2
Standard
  9
$CMLJUST
 70
     0
  9
$CMLSCALE
 40
20.0
  9
$PROXYGRAPHICS
 70
     1
  9
$MEASUREMENT
 70
     1
  9
$CELWEIGHT
370
    -1
  9
$ENDCAPS
280
     0
  9
$JOINSTYLE
280
     0
  9
$LWDISPLAY
290
     1
  9
$INSUNITS
 70
     4
  9
$HYPERLINKBASE
  1

  9
$STYLESHEET
  1

  9
$XEDIT
290
     1
  9
$CEPSNTYPE
380
     0
  9
$PSTYLEMODE
290
     1
  9
$FINGERPRINTGUID
  2
{0D98E29B-E38C-48F6-9017-5A36FCF5807D}
  9
$VERSIONGUID
  2
{FAEB1C32-E019-11D5-929B-00C0DF256EC4}
  9
$EXTNAMES
290
     1
  9
$PSVPSCALE
 40
0.0
  9
$OLESTARTUP
290
     0
  0
ENDSEC
  0
SECTION
  2
CLASSES
  0
CLASS
  1
ACDBDICTIONARYWDFLT
  2
AcDbDictionaryWithDefault
  3
ObjectDBX Classes
 90
        0
280
     0
281
     0
  0
CLASS
  1
VISUALSTYLE
  2
AcDbVisualStyle
  3
ObjectDBX Classes
 90
     4095
280
     0
281
     0
  0
CLASS
  1
MATERIAL
  2
AcDbMaterial
  3
ObjectDBX Classes
 90
     1153
280
     0
281
     0
  0
CLASS
  1
SCALE
  2
AcDbScale
  3
ObjectDBX Classes
 90
     1153
280
     0
281
     0
  0
CLASS
  1
TABLESTYLE
  2
AcDbTableStyle
  3
ObjectDBX Classes
 90
     4095
280
     0
281
     0
  0
CLASS
  1
MLEADERSTYLE
  2
AcDbMLeaderStyle
  3
ACDB_MLEADERSTYLE_CLASS
 90
     4095
280
     0
281
     0
  0
CLASS
  1
SUN
  2
AcDbSun
  3
SCENEOE
 90
     1153
280
     0
281
     0
  0
CLASS
  1
ACDBPLACEHOLDER
  2
AcDbPlaceHolder
  3
ObjectDBX Classes
 90
        0
280
     0
281
     0
  0
CLASS
  1
LAYOUT
  2
AcDbLayout
  3
ObjectDBX Classes
 90
        0
280
     0
281
     0
  0
ENDSEC
  0
SECTION
  2
TABLES
  0
TABLE
  2
VPORT
  5
8
330
0
100
AcDbSymbolTable
 70
     1
  0
VPORT
  5
29
330
8
100
AcDbSymbolTableRecord
100
AcDbViewportTableRecord
  2
*Active
 70
     0
 10
0.0
 20
0.0
 11
1.0
 21
1.0
 12
105.0
 22
148.5
 13
0.0
 23
0.0
 14
10.0
 24
10.0
 15
10.0
 25
10.0
 16
0.0
 26
0.0
 36
1.0
 17
0.0
 27
0.0
 37
0.0
 40
297.0
 41
0.7070707071
 42
50.0
 43
0.0
 44
0.0
 50
0.0
 51
0.0
 71
     0
 72
  2000
 73
     1
 74
     3
 75
     0
 76
     0
 77
     0
 78
     0
281
     0
 65
     1
110
0.0
120
0.0
130
0.0
111
1.0
121
0.0
131
0.0
112
0.0
122
1.0
132
0.0
 79
     0
146
0.0
  0
ENDTAB
  0
TABLE
  2
LTYPE
  5
5
330
0
100
AcDbSymbolTable
 70
     6
  0
LTYPE
  5
14
330
5
100
AcDbSymbolTableRecord
100
AcDbLinetypeTableRecord
  2
ByBlock
 70
     0
  3

 72
    65
 73
     0
 40
0.0
  0
LTYPE
  5
15
330
5
100
AcDbSymbolTableRecord
100
AcDbLinetypeTableRecord
  2
ByLayer
 70
     0
  3

 72
    65
 73
     0
 40
0.0
  0
LTYPE
  5
16
330
5
100
AcDbSymbolTableRecord
100
AcDbLinetypeTableRecord
  2
Continuous
 70
     0
  3
Solid line
 72
    65
 73
     0
 40
0.0
  0
LTYPE
  5
6E
330
5
100
AcDbSymbolTableRecord
100
AcDbLinetypeTableRecord
  2
HIDDEN
 70
     0
  3
Hidden __ __ __ __ __ __ __ __ __ __ __ __ __ __
 72
    65
 73
     2
 40
1.905
 49
1.27
 74
     0
 49
-0.635
 74
     0
  0
LTYPE
  5
6F
330
5
100
AcDbSymbolTableRecord
100
AcDbLinetypeTableRecord
  2
PHANTOM
 70
     0
  3
Phantom ______  __  __  ______  __  __  ______
 72
    65
 73
     6
 40
12.7
 49
6.35
 74
     0
 49
-1.27
 74
     0
 49
1.27
 74
     0
 49
-1.27
 74
     0
 49
1.27
 74
     0
 49
-1.27
 74
     0
  0
LTYPE
  5
70
330
5
100
AcDbSymbolTableRecord
100
AcDbLinetypeTableRecord
  2
CENTER
 70
     0
  3
Center ____ _ ____ _ ____ _ ____ _ ____ _ ____
 72
    65
 73
     4
 40
10.16
 49
6.35
 74
     0
 49
-1.27
 74
     0
 49
1.27
 74
     0
 49
-1.27
 74
     0
  0
LTYPE
  5
71
330
5
100
AcDbSymbolTableRecord
100
AcDbLinetypeTableRecord
  2
CENTERX2
 70
     0
  3
Center (2x) ________  __  ________  __  _____
 72
    65
 73
     4
 40
20.32
 49
12.7
 74
     0
 49
-2.54
 74
     0
 49
2.54
 74
     0
 49
-2.54
 74
     0
  0
LTYPE
  5
72
330
5
100
AcDbSymbolTableRecord
100
AcDbLinetypeTableRecord
  2
DOT2
 70
     0
  3
Dot (.5x) ........................................
 72
    65
 73
     2
 40
0.635
 49
0.0
 74
     0
 49
-0.635
 74
     0
  0
ENDTAB
  0
TABLE
  2
LAYER
  5
2
330
0
100
AcDbSymbolTable
 70
     1
  0
LAYER
  5
10
330
2
100
AcDbSymbolTableRecord
100
AcDbLayerTableRecord
  2
0
 70
     0
 62
     7
  6
Continuous
370
    -3
390
F
  0
ENDTAB
  0
TABLE
  2
STYLE
  5
3
330
0
100
AcDbSymbolTable
 70
     2
  0
STYLE
  5
11
330
3
100
AcDbSymbolTableRecord
100
AcDbTextStyleTableRecord
  2
Standard
 70
     0
 40
0.0
 41
1.0
 50
0.0
 71
     0
 42
3.5
  3
txt
  4
bigfont
  0
STYLE
  5
7B
330
3
100
AcDbSymbolTableRecord
100
AcDbTextStyleTableRecord
  2
SLDTEXTSTYLE0
 70
     0
 40
0.0
 41
0.7
 50
0.0
 71
     0
 42
3.5
  3
TXT
  4
bigfont
  0
ENDTAB
  0
TABLE
  2
VIEW
  5
6
330
0
100
AcDbSymbolTable
 70
     0
  0
ENDTAB
  0
TABLE
  2
UCS
  5
7
330
0
100
AcDbSymbolTable
 70
     0
  0
ENDTAB
  0
TABLE
  2
APPID
  5
9
330
0
100
AcDbSymbolTable
 70
     1
  0
APPID
  5
12
330
9
100
AcDbSymbolTableRecord
100
AcDbRegAppTableRecord
  2
ACAD
 70
     0
  0
ENDTAB
  0
TABLE
  2
DIMSTYLE
  5
A
330
0
100
AcDbSymbolTable
 70
     5
100
AcDbDimStyleTable
  0
DIMSTYLE
105
27
330
A
100
AcDbSymbolTableRecord
100
AcDbDimStyleTableRecord
  2
ISO-25
 70
     0
 41
2.5
 42
0.625
 43
3.75
 44
1.25
 73
     0
 74
     0
 77
     1
 78
     8
140
2.5
141
2.5
143
0.0393700787
147
0.625
171
     3
172
     1
178
     0
271
     2
272
     2
274
     3
278
    44
283
     0
284
     8
340
11
  0
DIMSTYLE
105
186
102
{ACAD_REACTORS
330
185
330
1A8
330
1D2
330
3F4
330
400
102
}
330
A
100
AcDbSymbolTableRecord
100
AcDbDimStyleTableRecord
  2
SLDDIMSTYLE0
 70
     0
 41
3.0
 44
0.0
 45
0.000000001
 73
     0
 74
     0
 77
     3
 78
    12
 79
     3
140
3.5
147
0.875
172
     1
173
     1
178
     0
271
     1
272
     3
276
     2
284
    12
289
     0
340
7B
  0
DIMSTYLE
105
194
102
{ACAD_REACTORS
330
193
330
19E
330
1B4
330
1BE
330
1C8
330
1E0
330
2C1
330
2CD
102
}
330
A
100
AcDbSymbolTableRecord
100
AcDbDimStyleTableRecord
  2
SLDDIMSTYLE1
 70
     0
 41
3.0
 44
0.0
 45
0.000000001
 73
     0
 74
     0
 77
     3
 78
    12
 79
     3
140
3.5
147
0.875
173
     1
178
     0
271
     1
272
     3
276
     2
284
    12
340
7B
  0
DIMSTYLE
105
1ED
102
{ACAD_REACTORS
330
1EC
102
}
330
A
100
AcDbSymbolTableRecord
100
AcDbDimStyleTableRecord
  2
SLDDIMSTYLE2
 70
     0
 41
3.0
 44
0.0
 45
0.000000001
 78
    12
 79
     3
140
3.5
141
0.0
147
0.875
173
     1
178
     0
271
     1
272
     3
276
     2
284
    12
340
7B
  0
DIMSTYLE
105
20C
330
A
100
AcDbSymbolTableRecord
100
AcDbDimStyleTableRecord
  2
SLDDIMSTYLE3
 70
     0
 41
3.0
 44
0.0
 45
0.000000001
146
3.0
147
0.0
173
     1
178
     0
271
     0
272
     0
276
     2
340
11
  0
ENDTAB
  0
TABLE
  2
BLOCK_RECORD
  5
1
330
0
100
AcDbSymbolTable
 70
    24
  0
BLOCK_RECORD
  5
1F
330
1
100
AcDbSymbolTableRecord
100
AcDbBlockTableRecord
  2
*Model_Space
340
22
  0
BLOCK_RECORD
  5
1B
330
1
100
AcDbSymbolTableRecord
100
AcDbBlockTableRecord
  2
*Paper_Space
340
1E
  0
BLOCK_RECORD
  5
23
330
1
100
AcDbSymbolTableRecord
100
AcDbBlockTableRecord
  2
*Paper_Space0
340
26
  0
BLOCK_RECORD
  5
187
330
1
100
AcDbSymbolTableRecord
100
AcDbBlockTableRecord
  2
_D
340
0
  0
BLOCK_RECORD
  5
195
330
1
100
AcDbSymbolTableRecord
100
AcDbBlockTableRecord
  2
_D_1
340
0
  0
BLOCK_RECORD
  5
19F
330
1
100
AcDbSymbolTableRecord
100
AcDbBlockTableRecord
  2
_D_2
340
0
  0
BLOCK_RECORD
  5
1A9
330
1
100
AcDbSymbolTableRecord
100
AcDbBlockTableRecord
  2
_D_3
340
0
  0
BLOCK_RECORD
  5
1B5
330
1
100
AcDbSymbolTableRecord
100
AcDbBlockTableRecord
  2
_D_4
340
0
  0
BLOCK_RECORD
  5
1BF
330
1
100
AcDbSymbolTableRecord
100
AcDbBlockTableRecord
  2
_D_5
340
0
  0
BLOCK_RECORD
  5
1C9
330
1
100
AcDbSymbolTableRecord
100
AcDbBlockTableRecord
  2
_D_6
340
0
  0
BLOCK_RECORD
  5
1D3
330
1
100
AcDbSymbolTableRecord
100
AcDbBlockTableRecord
  2
_D_7
340
0
  0
BLOCK_RECORD
  5
1E1
330
1
100
AcDbSymbolTableRecord
100
AcDbBlockTableRecord
  2
_D_8
340
0
  0
BLOCK_RECORD
  5
1EE
330
1
100
AcDbSymbolTableRecord
100
AcDbBlockTableRecord
  2
_D_9
340
0
  0
BLOCK_RECORD
  5
1F8
330
1
100
AcDbSymbolTableRecord
100
AcDbBlockTableRecord
  2
SW_NOTE_0
340
0
102
{BLKREFS
331
1FD
102
}
  0
BLOCK_RECORD
  5
1FF
330
1
100
AcDbSymbolTableRecord
100
AcDbBlockTableRecord
  2
_OPEN30
340
0
102
{BLKREFS
331
205
102
}
  0
BLOCK_RECORD
  5
206
330
1
100
AcDbSymbolTableRecord
100
AcDbBlockTableRecord
  2
SW_NOTE_1
340
0
102
{BLKREFS
331
20B
102
}
  0
BLOCK_RECORD
  5
20E
330
1
100
AcDbSymbolTableRecord
100
AcDbBlockTableRecord
  2
SW_CENTERMARKSYMBOL_0
340
0
102
{BLKREFS
331
219
102
}
  0
BLOCK_RECORD
  5
21A
330
1
100
AcDbSymbolTableRecord
100
AcDbBlockTableRecord
  2
SW_CENTERMARKSYMBOL_1
340
0
102
{BLKREFS
331
225
102
}
  0
BLOCK_RECORD
  5
226
330
1
100
AcDbSymbolTableRecord
100
AcDbBlockTableRecord
  2
SW_CENTERMARKSYMBOL_2
340
0
102
{BLKREFS
331
231
102
}
  0
BLOCK_RECORD
  5
232
330
1
100
AcDbSymbolTableRecord
100
AcDbBlockTableRecord
  2
SW_CENTERMARKSYMBOL_3
340
0
102
{BLKREFS
331
23D
102
}
  0
BLOCK_RECORD
  5
23E
330
1
100
AcDbSymbolTableRecord
100
AcDbBlockTableRecord
  2
SW_CENTERMARKSYMBOL_4
340
0
102
{BLKREFS
331
249
102
}
  0
BLOCK_RECORD
  5
2C2
330
1
100
AcDbSymbolTableRecord
100
AcDbBlockTableRecord
  2
_D_10
340
0
  0
BLOCK_RECORD
  5
2CE
330
1
100
AcDbSymbolTableRecord
100
AcDbBlockTableRecord
  2
_D_11
340
0
  0
BLOCK_RECORD
  5
2D9
330
1
100
AcDbSymbolTableRecord
100
AcDbBlockTableRecord
  2
SW_CENTERMARKSYMBOL_5
340
0
102
{BLKREFS
331
2E4
102
}
  0
BLOCK_RECORD
  5
3F5
330
1
100
AcDbSymbolTableRecord
100
AcDbBlockTableRecord
  2
_D_12
340
0
  0
BLOCK_RECORD
  5
401
330
1
100
AcDbSymbolTableRecord
100
AcDbBlockTableRecord
  2
_D_13
340
0
  0
ENDTAB
  0
ENDSEC
  0
SECTION
  2
BLOCKS
  0
BLOCK
  5
20
330
1F
100
AcDbEntity
  8
0
100
AcDbBlockBegin
  2
*Model_Space
 70
     0
 10
0.0
 20
0.0
 30
0.0
  3
*Model_Space
  1

  0
ENDBLK
  5
21
330
1F
100
AcDbEntity
  8
0
100
AcDbBlockEnd
  0
BLOCK
  5
1C
330
1B
100
AcDbEntity
 67
     1
  8
0
100
AcDbBlockBegin
  2
*Paper_Space
 70
     0
 10
0.0
 20
0.0
 30
0.0
  3
*Paper_Space
  1

  0
ENDBLK
  5
1D
330
1B
100
AcDbEntity
 67
     1
  8
0
100
AcDbBlockEnd
  0
BLOCK
  5
24
330
23
100
AcDbEntity
  8
0
100
AcDbBlockBegin
  2
*Paper_Space0
 70
     0
 10
0.0
 20
0.0
 30
0.0
  3
*Paper_Space0
  1

  0
ENDBLK
  5
25
330
23
100
AcDbEntity
  8
0
100
AcDbBlockEnd
  0
BLOCK
  5
188
330
187
100
AcDbEntity
  8
0
100
AcDbBlockBegin
  2
_D
 70
     0
 10
0.0
 20
0.0
 30
0.0
  3
_D
  1

  0
SOLID
  5
18A
330
187
100
AcDbEntity
  8
0
  6
Continuous
 62
     7
370
     0
100
AcDbTrace
 10
83.4724477236
 20
140.135782738
 30
0.0
 11
86.4724477236
 21
139.385782738
 31
0.0
 12
86.4724477236
 22
140.885782738
 32
0.0
 13
86.4724477236
 23
140.885782738
 33
0.0
  0
SOLID
  5
18B
330
187
100
AcDbEntity
  8
0
  6
Continuous
 62
     7
370
     0
100
AcDbTrace
 10
71.4724477236
 20
140.135782738
 30
0.0
 11
68.4724477236
 21
140.885782738
 31
0.0
 12
68.4724477236
 22
139.385782738
 32
0.0
 13
68.4724477236
 23
139.385782738
 33
0.0
  0
LINE
  5
18C
330
187
100
AcDbEntity
  8
0
  6
Continuous
 62
     7
370
     0
100
AcDbLine
 10
83.4724477236
 20
156.4010476545
 30
0.0
 11
83.4724477236
 21
139.135782738
 31
0.0
  0
LINE
  5
18D
330
187
100
AcDbEntity
  8
0
  6
Continuous
 62
     7
370
     0
100
AcDbLine
 10
71.4724477236
 20
156.4010476545
 30
0.0
 11
71.4724477236
 21
139.135782738
 31
0.0
  0
LINE
  5
18E
330
187
100
AcDbEntity
  8
0
  6
Continuous
 62
     7
370
     0
100
AcDbLine
 10
83.4724477236
 20
140.135782738
 30
0.0
 11
88.4724477236
 21
140.135782738
 31
0.0
  0
LINE
  5
18F
330
187
100
AcDbEntity
  8
0
  6
Continuous
 62
     7
370
     0
100
AcDbLine
 10
83.4724477236
 20
140.135782738
 30
0.0
 11
71.4724477236
 21
140.135782738
 31
0.0
  0
LINE
  5
190
330
187
100
AcDbEntity
  8
0
  6
Continuous
 62
     7
370
     0
100
AcDbLine
 10
71.4724477236
 20
140.135782738
 30
0.0
 11
66.4724477236
 21
140.135782738
 31
0.0
  0
MTEXT
  5
191
330
187
100
AcDbEntity
  8
0
  6
Continuous
 62
     7
370
     0
100
AcDbMText
 10
73.5006768522
 20
144.64752006
 30
0.0
 40
3.5
 41
0.0
 71
     1
 72
     1
  1
%%c
  7
SLDTEXTSTYLE0
 73
     1
 44
1.0
  0
MTEXT
  5
192
330
187
100
AcDbEntity
  8
0
  6
Continuous
 62
     7
370
     0
100
AcDbMText
 10
77.3706073672
 20
144.64752006
 30
0.0
 40
3.5
 41
0.0
 71
     1
 72
     1
  1
12
  7
SLDTEXTSTYLE0
 73
     1
 44
1.0
  0
ENDBLK
  5
189
330
187
100
AcDbEntity
  8
0
100
AcDbBlockEnd
  0
BLOCK
  5
196
330
195
100
AcDbEntity
  8
0
100
AcDbBlockBegin
  2
_D_1
 70
     0
 10
0.0
 20
0.0
 30
0.0
  3
_D_1
  1

  0
SOLID
  5
198
330
195
100
AcDbEntity
  8
0
  6
Continuous
 62
     7
370
     0
100
AcDbTrace
 10
69.4724477236
 20
134.1470305809
 30
0.0
 11
72.4724477236
 21
133.3970305809
 31
0.0
 12
72.4724477236
 22
134.8970305809
 32
0.0
 13
72.4724477236
 23
134.8970305809
 33
0.0
  0
SOLID
  5
199
330
195
100
AcDbEntity
  8
0
  6
Continuous
 62
     7
370
     0
100
AcDbTrace
 10
85.4724477236
 20
134.1470305809
 30
0.0
 11
82.4724477236
 21
134.8970305809
 31
0.0
 12
82.4724477236
 22
133.3970305809
 32
0.0
 13
82.4724477236
 23
133.3970305809
 33
0.0
  0
LINE
  5
19A
330
195
100
AcDbEntity
  8
0
  6
Continuous
 62
     7
370
     0
100
AcDbLine
 10
69.4724477236
 20
175.9010476545
 30
0.0
 11
69.4724477236
 21
133.1470305809
 31
0.0
  0
LINE
  5
19B
330
195
100
AcDbEntity
  8
0
  6
Continuous
 62
     7
370
     0
100
AcDbLine
 10
85.4724477236
 20
175.9010476545
 30
0.0
 11
85.4724477236
 21
133.1470305809
 31
0.0
  0
LINE
  5
19C
330
195
100
AcDbEntity
  8
0
  6
Continuous
 62
     7
370
     0
100
AcDbLine
 10
69.4724477236
 20
134.1470305809
 30
0.0
 11
85.4724477236
 21
134.1470305809
 31
0.0
  0
MTEXT
  5
19D
330
195
100
AcDbEntity
  8
0
  6
Continuous
 62
     7
370
     0
100
AcDbMText
 10
75.4356422261
 20
138.6587674373
 30
0.0
 40
3.5
 41
0.0
 71
     1
 72
     1
  1
16
  7
SLDTEXTSTYLE0
 73
     1
 44
1.0
  0
ENDBLK
  5
197
330
195
100
AcDbEntity
  8
0
100
AcDbBlockEnd
  0
BLOCK
  5
1A0
330
19F
100
AcDbEntity
  8
0
100
AcDbBlockBegin
  2
_D_2
 70
     0
 10
0.0
 20
0.0
 30
0.0
  3
_D_2
  1

  0
SOLID
  5
1A2
330
19F
100
AcDbEntity
  8
0
  6
Continuous
 62
     7
370
     0
100
AcDbTrace
 10
64.4724477236
 20
126.7762586953
 30
0.0
 11
67.4724477236
 21
126.0262586953
 31
0.0
 12
67.4724477236
 22
127.5262586953
 32
0.0
 13
67.4724477236
 23
127.5262586953
 33
0.0
  0
SOLID
  5
1A3
330
19F
100
AcDbEntity
  8
0
  6
Continuous
 62
     7
370
     0
100
AcDbTrace
 10
90.4724477236
 20
126.7762586953
 30
0.0
 11
87.4724477236
 21
127.5262586953
 31
0.0
 12
87.4724477236
 22
126.0262586953
 32
0.0
 13
87.4724477236
 23
126.0262586953
 33
0.0
  0
LINE
  5
1A4
330
19F
100
AcDbEntity
  8
0
  6
Continuous
 62
     7
370
     0
100
AcDbLine
 10
64.4724477236
 20
171.9010476545
 30
0.0
 11
64.4724477236
 21
125.7762586953
 31
0.0
  0
LINE
  5
1A5
330
19F
100
AcDbEntity
  8
0
  6
Continuous
 62
     7
370
     0
100
AcDbLine
 10
90.4724477236
 20
171.9010476545
 30
0.0
 11
90.4724477236
 21
125.7762586953
 31
0.0
  0
LINE
  5
1A6
330
19F
100
AcDbEntity
  8
0
  6
Continuous
 62
     7
370
     0
100
AcDbLine
 10
64.4724477236
 20
126.7762586953
 30
0.0
 11
90.4724477236
 21
126.7762586953
 31
0.0
  0
MTEXT
  5
1A7
330
19F
100
AcDbEntity
  8
0
  6
Continuous
 62
     7
370
     0
100
AcDbMText
 10
75.4356422261
 20
131.2879955517
 30
0.0
 40
3.5
 41
0.0
 71
     1
 72
     1
  1
26
  7
SLDTEXTSTYLE0
 73
     1
 44
1.0
  0
ENDBLK
  5
1A1
330
19F
100
AcDbEntity
  8
0
100
AcDbBlockEnd
  0
BLOCK
  5
1AA
330
1A9
100
AcDbEntity
  8
0
100
AcDbBlockBegin
  2
_D_3
 70
     0
 10
0.0
 20
0.0
 30
0.0
  3
_D_3
  1

  0
SOLID
  5
1AC
330
1A9
100
AcDbEntity
  8
0
  6
Continuous
 62
     7
370
     0
100
AcDbTrace
 10
102.853685244
 20
172.9010476545
 30
0.0
 11
102.103685244
 21
169.9010476545
 31
0.0
 12
103.603685244
 22
169.9010476545
 32
0.0
 13
103.603685244
 23
169.9010476545
 33
0.0
  0
SOLID
  5
1AD
330
1A9
100
AcDbEntity
  8
0
  6
Continuous
 62
     7
370
     0
100
AcDbTrace
 10
102.853685244
 20
176.9010476545
 30
0.0
 11
103.603685244
 21
179.9010476545
 31
0.0
 12
102.103685244
 22
179.9010476545
 32
0.0
 13
102.103685244
 23
179.9010476545
 33
0.0
  0
LINE
  5
1AE
330
1A9
100
AcDbEntity
  8
0
  6
Continuous
 62
     7
370
     0
100
AcDbLine
 10
91.4724477236
 20
172.9010476545
 30
0.0
 11
103.853685244
 21
172.9010476545
 31
0.0
  0
LINE
  5
1AF
330
1A9
100
AcDbEntity
  8
0
  6
Continuous
 62
     7
370
     0
100
AcDbLine
 10
70.4724477236
 20
176.9010476545
 30
0.0
 11
103.853685244
 21
176.9010476545
 31
0.0
  0
LINE
  5
1B0
330
1A9
100
AcDbEntity
  8
0
  6
Continuous
 62
     7
370
     0
100
AcDbLine
 10
102.853685244
 20
172.9010476545
 30
0.0
 11
102.853685244
 21
167.9010476545
 31
0.0
  0
LINE
  5
1B1
330
1A9
100
AcDbEntity
  8
0
  6
Continuous
 62
     7
370
     0
100
AcDbLine
 10
102.853685244
 20
172.9010476545
 30
0.0
 11
102.853685244
 21
176.9010476545
 31
0.0
  0
LINE
  5
1B2
330
1A9
100
AcDbEntity
  8
0
  6
Continuous
 62
     7
370
     0
100
AcDbLine
 10
102.853685244
 20
176.9010476545
 30
0.0
 11
102.853685244
 21
181.9010476545
 31
0.0
  0
MTEXT
  5
1B3
330
1A9
100
AcDbEntity
  8
0
  6
Continuous
 62
     7
370
     0
100
AcDbMText
 10
98.3419483877
 20
173.8826449058
 30
0.0
 40
3.5
 41
0.0
 71
     1
 72
     1
  1
4
  7
SLDTEXTSTYLE0
 11
-1.059690869644414E-14
 21
1.0
 31
0.0
 73
     1
 44
1.0
  0
ENDBLK
  5
1AB
330
1A9
100
AcDbEntity
  8
0
100
AcDbBlockEnd
  0
BLOCK
  5
1B6
330
1B5
100
AcDbEntity
  8
0
100
AcDbBlockBegin
  2
_D_4
 70
     0
 10
0.0
 20
0.0
 30
0.0
  3
_D_4
  1

  0
SOLID
  5
1B8
330
1B5
100
AcDbEntity
  8
0
  6
Continuous
 62
     7
370
     0
100
AcDbTrace
 10
102.853685244
 20
176.9010476545
 30
0.0
 11
103.603685244
 21
179.9010476545
 31
0.0
 12
102.103685244
 22
179.9010476545
 32
0.0
 13
102.103685244
 23
179.9010476545
 33
0.0
  0
SOLID
  5
1B9
330
1B5
100
AcDbEntity
  8
0
  6
Continuous
 62
     7
370
     0
100
AcDbTrace
 10
102.853685244
 20
202.9010476545
 30
0.0
 11
102.103685244
 21
199.9010476545
 31
0.0
 12
103.603685244
 22
199.9010476545
 32
0.0
 13
103.603685244
 23
199.9010476545
 33
0.0
  0
LINE
  5
1BA
330
1B5
100
AcDbEntity
  8
0
  6
Continuous
 62
     7
370
     0
100
AcDbLine
 10
86.4724477236
 20
176.9010476545
 30
0.0
 11
103.853685244
 21
176.9010476545
 31
0.0
  0
LINE
  5
1BB
330
1B5
100
AcDbEntity
  8
0
  6
Continuous
 62
     7
370
     0
100
AcDbLine
 10
78.4724477236
 20
202.9010476545
 30
0.0
 11
103.853685244
 21
202.9010476545
 31
0.0
  0
LINE
  5
1BC
330
1B5
100
AcDbEntity
  8
0
  6
Continuous
 62
     7
370
     0
100
AcDbLine
 10
102.853685244
 20
176.9010476545
 30
0.0
 11
102.853685244
 21
202.9010476545
 31
0.0
  0
MTEXT
  5
1BD
330
1B5
100
AcDbEntity
  8
0
  6
Continuous
 62
     7
370
     0
100
AcDbMText
 10
98.3419483877
 20
187.864242157
 30
0.0
 40
3.5
 41
0.0
 71
     1
 72
     1
  1
26
  7
SLDTEXTSTYLE0
 11
6.123233995736766E-17
 21
1.0
 31
0.0
 73
     1
 44
1.0
  0
ENDBLK
  5
1B7
330
1B5
100
AcDbEntity
  8
0
100
AcDbBlockEnd
  0
BLOCK
  5
1C0
330
1BF
100
AcDbEntity
  8
0
100
AcDbBlockBegin
  2
_D_5
 70
     0
 10
0.0
 20
0.0
 30
0.0
  3
_D_5
  1

  0
SOLID
  5
1C2
330
1BF
100
AcDbEntity
  8
0
  6
Continuous
 62
     7
370
     0
100
AcDbTrace
 10
110.466652194
 20
217.1010476545
 30
0.0
 11
109.716652194
 21
214.1010476545
 31
0.0
 12
111.216652194
 22
214.1010476545
 32
0.0
 13
111.216652194
 23
214.1010476545
 33
0.0
  0
SOLID
  5
1C3
330
1BF
100
AcDbEntity
  8
0
  6
Continuous
 62
     7
370
     0
100
AcDbTrace
 10
110.466652194
 20
172.9010476545
 30
0.0
 11
111.216652194
 21
175.9010476545
 31
0.0
 12
109.716652194
 22
175.9010476545
 32
0.0
 13
109.716652194
 23
175.9010476545
 33
0.0
  0
LINE
  5
1C4
330
1BF
100
AcDbEntity
  8
0
  6
Continuous
 62
     7
370
     0
100
AcDbLine
 10
81.4724477236
 20
217.1010476545
 30
0.0
 11
111.466652194
 21
217.1010476545
 31
0.0
  0
LINE
  5
1C5
330
1BF
100
AcDbEntity
  8
0
  6
Continuous
 62
     7
370
     0
100
AcDbLine
 10
91.4724477236
 20
172.9010476545
 30
0.0
 11
111.466652194
 21
172.9010476545
 31
0.0
  0
LINE
  5
1C6
330
1BF
100
AcDbEntity
  8
0
  6
Continuous
 62
     7
370
     0
100
AcDbLine
 10
110.466652194
 20
217.1010476545
 30
0.0
 11
110.466652194
 21
172.9010476545
 31
0.0
  0
MTEXT
  5
1C7
330
1BF
100
AcDbEntity
  8
0
  6
Continuous
 62
     7
370
     0
100
AcDbMText
 10
105.9549153377
 20
190.9274366596
 30
0.0
 40
3.5
 41
0.0
 71
     1
 72
     1
  1
44.2
  7
SLDTEXTSTYLE0
 11
-1.770233605404514E-14
 21
1.0
 31
0.0
 73
     1
 44
1.0
  0
ENDBLK
  5
1C1
330
1BF
100
AcDbEntity
  8
0
100
AcDbBlockEnd
  0
BLOCK
  5
1CA
330
1C9
100
AcDbEntity
  8
0
100
AcDbBlockBegin
  2
_D_6
 70
     0
 10
0.0
 20
0.0
 30
0.0
  3
_D_6
  1

  0
SOLID
  5
1CC
330
1C9
100
AcDbEntity
  8
0
  6
Continuous
 62
     7
370
     0
100
AcDbTrace
 10
110.466652194
 20
172.9010476545
 30
0.0
 11
109.716652194
 21
169.9010476545
 31
0.0
 12
111.216652194
 22
169.9010476545
 32
0.0
 13
111.216652194
 23
169.9010476545
 33
0.0
  0
SOLID
  5
1CD
330
1C9
100
AcDbEntity
  8
0
  6
Continuous
 62
     7
370
     0
100
AcDbTrace
 10
110.466652194
 20
156.9010476545
 30
0.0
 11
111.216652194
 21
159.9010476545
 31
0.0
 12
109.716652194
 22
159.9010476545
 32
0.0
 13
109.716652194
 23
159.9010476545
 33
0.0
  0
LINE
  5
1CE
330
1C9
100
AcDbEntity
  8
0
  6
Continuous
 62
     7
370
     0
100
AcDbLine
 10
91.4724477236
 20
172.9010476545
 30
0.0
 11
111.466652194
 21
172.9010476545
 31
0.0
  0
LINE
  5
1CF
330
1C9
100
AcDbEntity
  8
0
  6
Continuous
 62
     7
370
     0
100
AcDbLine
 10
83.9724477236
 20
156.9010476545
 30
0.0
 11
111.466652194
 21
156.9010476545
 31
0.0
  0
LINE
  5
1D0
330
1C9
100
AcDbEntity
  8
0
  6
Continuous
 62
     7
370
     0
100
AcDbLine
 10
110.466652194
 20
172.9010476545
 30
0.0
 11
110.466652194
 21
156.9010476545
 31
0.0
  0
MTEXT
  5
1D1
330
1C9
100
AcDbEntity
  8
0
  6
Continuous
 62
     7
370
     0
100
AcDbMText
 10
105.9549153377
 20
162.864242157
 30
0.0
 40
3.5
 41
0.0
 71
     1
 72
     1
  1
16
  7
SLDTEXTSTYLE0
 11
-1.770233605404514E-14
 21
1.0
 31
0.0
 73
     1
 44
1.0
  0
ENDBLK
  5
1CB
330
1C9
100
AcDbEntity
  8
0
100
AcDbBlockEnd
  0
BLOCK
  5
1D4
330
1D3
100
AcDbEntity
  8
0
100
AcDbBlockBegin
  2
_D_7
 70
     0
 10
0.0
 20
0.0
 30
0.0
  3
_D_7
  1

  0
ARC
  5
1D6
330
1D3
100
AcDbEntity
  8
0
  6
Continuous
 62
     7
370
     0
100
AcDbCircle
 10
79.5092531629
 20
260.1014294848
 30
0.0
 40
4.554435549315978
100
AcDbArc
 50
153.4349488229
 51
206.5650511771
  0
ARC
  5
1D7
330
1D3
100
AcDbEntity
  8
0
  6
Continuous
 62
     7
370
     0
100
AcDbCircle
 10
75.4356421679
 20
260.1014294848
 30
0.0
 40
4.554435549315966
100
AcDbArc
 50
333.4349488229
 51
26.5650511771
  0
SOLID
  5
1D8
330
1D3
100
AcDbEntity
  8
0
  6
Continuous
 62
     7
370
     0
100
AcDbTrace
 10
70.1419808597
 20
258.0646239873
 30
0.0
 11
67.1419808597
 21
258.8146239873
 31
0.0
 12
67.1419808597
 22
257.3146239873
 32
0.0
 13
67.1419808597
 23
257.3146239873
 33
0.0
  0
SOLID
  5
1D9
330
1D3
100
AcDbEntity
  8
0
  6
Continuous
 62
     7
370
     0
100
AcDbTrace
 10
84.8029145875
 20
258.0646239873
 30
0.0
 11
87.8029145875
 21
257.3146239873
 31
0.0
 12
87.8029145875
 22
258.8146239873
 32
0.0
 13
87.8029145875
 23
258.8146239873
 33
0.0
  0
LINE
  5
1DA
330
1D3
100
AcDbEntity
  8
0
  6
Continuous
 62
     7
370
     0
100
AcDbLine
 10
70.1419808597
 20
249.0646239873
 30
0.0
 11
70.1419808597
 21
259.0646239873
 31
0.0
  0
LINE
  5
1DB
330
1D3
100
AcDbEntity
  8
0
  6
Continuous
 62
     7
370
     0
100
AcDbLine
 10
84.8029145875
 20
249.0646239873
 30
0.0
 11
84.8029145875
 21
259.0646239873
 31
0.0
  0
LINE
  5
1DC
330
1D3
100
AcDbEntity
  8
0
  6
Continuous
 62
     7
370
     0
100
AcDbLine
 10
70.1419808597
 20
258.0646239873
 30
0.0
 11
65.1419808597
 21
258.0646239873
 31
0.0
  0
LINE
  5
1DD
330
1D3
100
AcDbEntity
  8
0
  6
Continuous
 62
     7
370
     0
100
AcDbLine
 10
70.1419808597
 20
258.0646239873
 30
0.0
 11
84.8029145875
 21
258.0646239873
 31
0.0
  0
LINE
  5
1DE
330
1D3
100
AcDbEntity
  8
0
  6
Continuous
 62
     7
370
     0
100
AcDbLine
 10
84.8029145875
 20
258.0646239873
 30
0.0
 11
89.8029145875
 21
258.0646239873
 31
0.0
  0
MTEXT
  5
1DF
330
1D3
100
AcDbEntity
  8
0
  6
Continuous
 62
     7
370
     0
100
AcDbMText
 10
75.4356421679
 20
262.5763608436
 30
0.0
 40
3.5
 41
0.0
 71
     1
 72
     1
  1
14
  7
SLDTEXTSTYLE0
 73
     1
 44
1.0
  0
ENDBLK
  5
1D5
330
1D3
100
AcDbEntity
  8
0
100
AcDbBlockEnd
  0
BLOCK
  5
1E2
330
1E1
100
AcDbEntity
  8
0
100
AcDbBlockBegin
  2
_D_8
 70
     0
 10
0.0
 20
0.0
 30
0.0
  3
_D_8
  1

  0
ARC
  5
1E4
330
1E1
100
AcDbEntity
  8
0
  6
Continuous
 62
     7
370
     0
100
AcDbCircle
 10
116.6450902387
 20
198.501238395
 30
0.0
 40
4.554435549315966
100
AcDbArc
 50
243.4349488229
 51
296.5650511771
  0
ARC
  5
1E5
330
1E1
100
AcDbEntity
  8
0
  6
Continuous
 62
     7
370
     0
100
AcDbCircle
 10
116.6450902387
 20
196.4644331304
 30
0.0
 40
4.554435549315966
100
AcDbArc
 50
63.4349488229
 51
116.5650511771
  0
SOLID
  5
1E6
330
1E1
100
AcDbEntity
  8
0
  6
Continuous
 62
     7
370
     0
100
AcDbTrace
 10
118.6818957362
 20
146.9010476545
 30
0.0
 11
119.4318957362
 21
149.9010476545
 31
0.0
 12
117.9318957362
 22
149.9010476545
 32
0.0
 13
117.9318957362
 23
149.9010476545
 33
0.0
  0
SOLID
  5
1E7
330
1E1
100
AcDbEntity
  8
0
  6
Continuous
 62
     7
370
     0
100
AcDbTrace
 10
118.6818957362
 20
248.0646239873
 30
0.0
 11
117.9318957362
 21
245.0646239873
 31
0.0
 12
119.4318957362
 22
245.0646239873
 32
0.0
 13
119.4318957362
 23
245.0646239873
 33
0.0
  0
LINE
  5
1E8
330
1E1
100
AcDbEntity
  8
0
  6
Continuous
 62
     7
370
     0
100
AcDbLine
 10
79.9724477236
 20
146.9010476545
 30
0.0
 11
119.6818957362
 21
146.9010476545
 31
0.0
  0
LINE
  5
1E9
330
1E1
100
AcDbEntity
  8
0
  6
Continuous
 62
     7
370
     0
100
AcDbLine
 10
85.8029145875
 20
248.0646239873
 30
0.0
 11
119.6818957362
 21
248.0646239873
 31
0.0
  0
LINE
  5
1EA
330
1E1
100
AcDbEntity
  8
0
  6
Continuous
 62
     7
370
     0
100
AcDbLine
 10
118.6818957362
 20
146.9010476545
 30
0.0
 11
118.6818957362
 21
248.0646239873
 31
0.0
  0
MTEXT
  5
1EB
330
1E1
100
AcDbEntity
  8
0
  6
Continuous
 62
     7
370
     0
100
AcDbMText
 10
114.1701588798
 20
194.4276274
 30
0.0
 40
3.5
 41
0.0
 71
     1
 72
     1
  1
102
  7
SLDTEXTSTYLE0
 11
6.123233995736766E-17
 21
1.0
 31
0.0
 73
     1
 44
1.0
  0
ENDBLK
  5
1E3
330
1E1
100
AcDbEntity
  8
0
100
AcDbBlockEnd
  0
BLOCK
  5
1EF
330
1EE
100
AcDbEntity
  8
0
100
AcDbBlockBegin
  2
_D_9
 70
     0
 10
0.0
 20
0.0
 30
0.0
  3
_D_9
  1

  0
SOLID
  5
1F1
330
1EE
100
AcDbEntity
  8
0
  6
Continuous
 62
     7
370
     0
100
AcDbTrace
 10
67.740396916
 20
177.9010476545
 30
0.0
 11
65.5173207047
 21
180.0505667074
 31
0.0
 12
64.7673207047
 22
178.7515286017
 32
0.0
 13
64.7673207047
 23
178.7515286017
 33
0.0
  0
LINE
  5
1F2
330
1EE
100
AcDbEntity
  8
0
  6
Continuous
 62
     7
370
     0
100
AcDbLine
 10
67.740396916
 20
177.9010476545
 30
0.0
 11
57.9610143712
 21
183.5471767993
 31
0.0
  0
LINE
  5
1F3
330
1EE
100
AcDbEntity
  8
0
  6
Continuous
 62
     7
370
     0
100
AcDbLine
 10
57.9610143712
 20
183.5471767993
 30
0.0
 11
23.7846301368
 21
183.5471767993
 31
0.0
  0
MTEXT
  5
1F4
330
1EE
100
AcDbEntity
  8
0
  6
Continuous
 62
     7
370
     0
100
AcDbMText
 10
29.8950449994
 20
192.1325246506
 30
0.0
 40
3.5
 41
0.0
 71
     1
 72
     1
  1
3-
  7
SLDTEXTSTYLE0
 73
     1
 44
1.0
  0
MTEXT
  5
1F5
330
1EE
100
AcDbEntity
  8
0
  6
Continuous
 62
     7
370
     0
100
AcDbMText
 10
33.9686559944
 20
192.1325246506
 30
0.0
 40
3.5
 41
0.0
 71
     1
 72
     1
  1
M4
  7
SLDTEXTSTYLE0
 73
     1
 44
1.0
  0
MTEXT
  5
1F6
330
1EE
100
AcDbEntity
  8
0
  6
Continuous
 62
     7
370
     0
100
AcDbMText
 10
38.0422669893
 20
192.1325246506
 30
0.0
 40
3.5
 41
0.0
 71
     1
 72
     1
  1
取付穴
  7
SLDTEXTSTYLE0
 73
     1
 44
1.0
  0
MTEXT
  5
1F7
330
1EE
100
AcDbEntity
  8
0
  6
Continuous
 62
     7
370
     0
100
AcDbMText
 10
23.7846301368
 20
188.0589136557
 30
0.0
 40
3.5
 41
0.0
 71
     1
 72
     1
  1
(両側口元面取有)
  7
SLDTEXTSTYLE0
 73
     1
 44
1.0
  0
ENDBLK
  5
1F0
330
1EE
100
AcDbEntity
  8
0
100
AcDbBlockEnd
  0
BLOCK
  5
1F9
330
1F8
100
AcDbEntity
  8
0
100
AcDbBlockBegin
  2
SW_NOTE_0
 70
     0
 10
0.0
 20
0.0
 30
0.0
  3
SW_NOTE_0
  1

  0
LINE
  5
1FB
330
1F8
100
AcDbEntity
  8
0
  6
Continuous
 62
     0
370
     0
100
AcDbLine
 10
-28.6363409431
 20
0.0
 30
0.0
 11
0.0
 21
0.0
 31
0.0
  0
MTEXT
  5
1FC
330
1F8
100
AcDbEntity
  8
0
  6
Continuous
 62
     0
370
     0
100
AcDbMText
 10
-29.0988393546
 20
4.5917447214
 30
0.0
 40
3.5
 41
0.0
 71
     1
 72
     1
  1
4-M3取付ボルト
  7
SLDTEXTSTYLE0
 73
     1
 44
1.0
  0
ENDBLK
  5
1FA
330
1F8
100
AcDbEntity
  8
0
100
AcDbBlockEnd
  0
BLOCK
  5
200
330
1FF
100
AcDbEntity
  8
0
100
AcDbBlockBegin
  2
_OPEN30
 70
     0
 10
0.0
 20
0.0
 30
0.0
  3
_OPEN30
  1

  0
LINE
  5
202
330
1FF
100
AcDbEntity
  8
0
  6
ByBlock
 62
     0
370
    -2
100
AcDbLine
 10
-1.0
 20
0.267949
 30
0.0
 11
0.0
 21
0.0
 31
0.0
  0
LINE
  5
203
330
1FF
100
AcDbEntity
  8
0
  6
ByBlock
 62
     0
370
    -2
100
AcDbLine
 10
0.0
 20
0.0
 30
0.0
 11
-1.0
 21
-0.267949
 31
0.0
  0
LINE
  5
204
330
1FF
100
AcDbEntity
  8
0
  6
ByBlock
 62
     0
370
    -2
100
AcDbLine
 10
0.0
 20
0.0
 30
0.0
 11
-1.0
 21
0.0
 31
0.0
  0
ENDBLK
  5
201
330
1FF
100
AcDbEntity
  8
0
100
AcDbBlockEnd
  0
BLOCK
  5
207
330
206
100
AcDbEntity
  8
0
100
AcDbBlockBegin
  2
SW_NOTE_1
 70
     0
 10
0.0
 20
0.0
 30
0.0
  3
SW_NOTE_1
  1

  0
LINE
  5
209
330
206
100
AcDbEntity
  8
0
  6
Continuous
 62
     0
370
     0
100
AcDbLine
 10
-8.2682873652
 20
0.0
 30
0.0
 11
0.0
 21
0.0
 31
0.0
  0
MTEXT
  5
20A
330
206
100
AcDbEntity
  8
0
  6
Continuous
 62
     0
370
     0
100
AcDbMText
 10
-8.647398756
 20
4.5944327995
 30
0.0
 40
3.5
 41
0.0
 71
     1
 72
     1
  1
BF-5
  7
SLDTEXTSTYLE0
 73
     1
 44
1.0
  0
ENDBLK
  5
208
330
206
100
AcDbEntity
  8
0
100
AcDbBlockEnd
  0
BLOCK
  5
20F
330
20E
100
AcDbEntity
  8
0
100
AcDbBlockBegin
  2
SW_CENTERMARKSYMBOL_0
 70
     0
 10
0.0
 20
0.0
 30
0.0
  3
SW_CENTERMARKSYMBOL_0
  1

  0
LINE
  5
211
330
20E
100
AcDbEntity
  8
0
  6
Continuous
 62
     0
370
     0
100
AcDbLine
 10
0.0
 20
0.0
 30
0.0
 11
0.0
 21
2.5
 31
0.0
  0
LINE
  5
212
330
20E
100
AcDbEntity
  8
0
  6
Continuous
 62
     0
370
     0
100
AcDbLine
 10
0.0
 20
0.0
 30
0.0
 11
-2.5
 21
0.0
 31
0.0
  0
LINE
  5
213
330
20E
100
AcDbEntity
  8
0
  6
Continuous
 62
     0
370
     0
100
AcDbLine
 10
0.0
 20
0.0
 30
0.0
 11
0.0
 21
-2.5
 31
0.0
  0
LINE
  5
214
330
20E
100
AcDbEntity
  8
0
  6
Continuous
 62
     0
370
     0
100
AcDbLine
 10
0.0
 20
0.0
 30
0.0
 11
2.5
 21
0.0
 31
0.0
  0
LINE
  5
215
330
20E
100
AcDbEntity
  8
0
  6
Continuous
 62
     0
370
     0
100
AcDbLine
 10
0.0
 20
2.5
 30
0.0
 11
0.0
 21
4.3
 31
0.0
  0
LINE
  5
216
330
20E
100
AcDbEntity
  8
0
  6
Continuous
 62
     0
370
     0
100
AcDbLine
 10
-2.5
 20
0.0
 30
0.0
 11
-4.3
 21
0.0
 31
0.0
  0
LINE
  5
217
330
20E
100
AcDbEntity
  8
0
  6
Continuous
 62
     0
370
     0
100
AcDbLine
 10
0.0
 20
-2.5
 30
0.0
 11
0.0
 21
-4.3
 31
0.0
  0
LINE
  5
218
330
20E
100
AcDbEntity
  8
0
  6
Continuous
 62
     0
370
     0
100
AcDbLine
 10
2.5
 20
0.0
 30
0.0
 11
4.3
 21
0.0
 31
0.0
  0
ENDBLK
  5
210
330
20E
100
AcDbEntity
  8
0
100
AcDbBlockEnd
  0
BLOCK
  5
21B
330
21A
100
AcDbEntity
  8
0
100
AcDbBlockBegin
  2
SW_CENTERMARKSYMBOL_1
 70
     0
 10
0.0
 20
0.0
 30
0.0
  3
SW_CENTERMARKSYMBOL_1
  1

  0
LINE
  5
21D
330
21A
100
AcDbEntity
  8
0
  6
Continuous
 62
     0
370
     0
100
AcDbLine
 10
0.0
 20
0.0
 30
0.0
 11
0.0
 21
2.5
 31
0.0
  0
LINE
  5
21E
330
21A
100
AcDbEntity
  8
0
  6
Continuous
 62
     0
370
     0
100
AcDbLine
 10
0.0
 20
0.0
 30
0.0
 11
-2.5
 21
0.0
 31
0.0
  0
LINE
  5
21F
330
21A
100
AcDbEntity
  8
0
  6
Continuous
 62
     0
370
     0
100
AcDbLine
 10
0.0
 20
0.0
 30
0.0
 11
0.0
 21
-2.5
 31
0.0
  0
LINE
  5
220
330
21A
100
AcDbEntity
  8
0
  6
Continuous
 62
     0
370
     0
100
AcDbLine
 10
0.0
 20
0.0
 30
0.0
 11
2.5
 21
0.0
 31
0.0
  0
LINE
  5
221
330
21A
100
AcDbEntity
  8
0
  6
Continuous
 62
     0
370
     0
100
AcDbLine
 10
0.0
 20
2.5
 30
0.0
 11
0.0
 21
4.75
 31
0.0
  0
LINE
  5
222
330
21A
100
AcDbEntity
  8
0
  6
Continuous
 62
     0
370
     0
100
AcDbLine
 10
-2.5
 20
0.0
 30
0.0
 11
-4.75
 21
0.0
 31
0.0
  0
LINE
  5
223
330
21A
100
AcDbEntity
  8
0
  6
Continuous
 62
     0
370
     0
100
AcDbLine
 10
0.0
 20
-2.5
 30
0.0
 11
0.0
 21
-4.75
 31
0.0
  0
LINE
  5
224
330
21A
100
AcDbEntity
  8
0
  6
Continuous
 62
     0
370
     0
100
AcDbLine
 10
2.5
 20
0.0
 30
0.0
 11
4.75
 21
0.0
 31
0.0
  0
ENDBLK
  5
21C
330
21A
100
AcDbEntity
  8
0
100
AcDbBlockEnd
  0
BLOCK
  5
227
330
226
100
AcDbEntity
  8
0
100
AcDbBlockBegin
  2
SW_CENTERMARKSYMBOL_2
 70
     0
 10
0.0
 20
0.0
 30
0.0
  3
SW_CENTERMARKSYMBOL_2
  1

  0
LINE
  5
229
330
226
100
AcDbEntity
  8
0
  6
Continuous
 62
     0
370
     0
100
AcDbLine
 10
0.0
 20
0.0
 30
0.0
 11
0.0
 21
2.5
 31
0.0
  0
LINE
  5
22A
330
226
100
AcDbEntity
  8
0
  6
Continuous
 62
     0
370
     0
100
AcDbLine
 10
0.0
 20
0.0
 30
0.0
 11
-2.5
 21
0.0
 31
0.0
  0
LINE
  5
22B
330
226
100
AcDbEntity
  8
0
  6
Continuous
 62
     0
370
     0
100
AcDbLine
 10
0.0
 20
0.0
 30
0.0
 11
0.0
 21
-2.5
 31
0.0
  0
LINE
  5
22C
330
226
100
AcDbEntity
  8
0
  6
Continuous
 62
     0
370
     0
100
AcDbLine
 10
0.0
 20
0.0
 30
0.0
 11
2.5
 21
0.0
 31
0.0
  0
LINE
  5
22D
330
226
100
AcDbEntity
  8
0
  6
Continuous
 62
     0
370
     0
100
AcDbLine
 10
0.0
 20
2.5
 30
0.0
 11
0.0
 21
4.3
 31
0.0
  0
LINE
  5
22E
330
226
100
AcDbEntity
  8
0
  6
Continuous
 62
     0
370
     0
100
AcDbLine
 10
-2.5
 20
0.0
 30
0.0
 11
-4.3
 21
0.0
 31
0.0
  0
LINE
  5
22F
330
226
100
AcDbEntity
  8
0
  6
Continuous
 62
     0
370
     0
100
AcDbLine
 10
0.0
 20
-2.5
 30
0.0
 11
0.0
 21
-4.3
 31
0.0
  0
LINE
  5
230
330
226
100
AcDbEntity
  8
0
  6
Continuous
 62
     0
370
     0
100
AcDbLine
 10
2.5
 20
0.0
 30
0.0
 11
4.3
 21
0.0
 31
0.0
  0
ENDBLK
  5
228
330
226
100
AcDbEntity
  8
0
100
AcDbBlockEnd
  0
BLOCK
  5
233
330
232
100
AcDbEntity
  8
0
100
AcDbBlockBegin
  2
SW_CENTERMARKSYMBOL_3
 70
     0
 10
0.0
 20
0.0
 30
0.0
  3
SW_CENTERMARKSYMBOL_3
  1

  0
LINE
  5
235
330
232
100
AcDbEntity
  8
0
  6
Continuous
 62
     0
370
     0
100
AcDbLine
 10
0.0
 20
0.0
 30
0.0
 11
0.0
 21
2.5
 31
0.0
  0
LINE
  5
236
330
232
100
AcDbEntity
  8
0
  6
Continuous
 62
     0
370
     0
100
AcDbLine
 10
0.0
 20
0.0
 30
0.0
 11
-2.5
 21
0.0
 31
0.0
  0
LINE
  5
237
330
232
100
AcDbEntity
  8
0
  6
Continuous
 62
     0
370
     0
100
AcDbLine
 10
0.0
 20
0.0
 30
0.0
 11
0.0
 21
-2.5
 31
0.0
  0
LINE
  5
238
330
232
100
AcDbEntity
  8
0
  6
Continuous
 62
     0
370
     0
100
AcDbLine
 10
0.0
 20
0.0
 30
0.0
 11
2.5
 21
0.0
 31
0.0
  0
LINE
  5
239
330
232
100
AcDbEntity
  8
0
  6
Continuous
 62
     0
370
     0
100
AcDbLine
 10
0.0
 20
2.5
 30
0.0
 11
0.0
 21
4.75
 31
0.0
  0
LINE
  5
23A
330
232
100
AcDbEntity
  8
0
  6
Continuous
 62
     0
370
     0
100
AcDbLine
 10
-2.5
 20
0.0
 30
0.0
 11
-4.75
 21
0.0
 31
0.0
  0
LINE
  5
23B
330
232
100
AcDbEntity
  8
0
  6
Continuous
 62
     0
370
     0
100
AcDbLine
 10
0.0
 20
-2.5
 30
0.0
 11
0.0
 21
-4.75
 31
0.0
  0
LINE
  5
23C
330
232
100
AcDbEntity
  8
0
  6
Continuous
 62
     0
370
     0
100
AcDbLine
 10
2.5
 20
0.0
 30
0.0
 11
4.75
 21
0.0
 31
0.0
  0
ENDBLK
  5
234
330
232
100
AcDbEntity
  8
0
100
AcDbBlockEnd
  0
BLOCK
  5
23F
330
23E
100
AcDbEntity
  8
0
100
AcDbBlockBegin
  2
SW_CENTERMARKSYMBOL_4
 70
     0
 10
0.0
 20
0.0
 30
0.0
  3
SW_CENTERMARKSYMBOL_4
  1

  0
LINE
  5
241
330
23E
100
AcDbEntity
  8
0
  6
Continuous
 62
     0
370
     0
100
AcDbLine
 10
0.0
 20
0.0
 30
0.0
 11
0.0
 21
2.5
 31
0.0
  0
LINE
  5
242
330
23E
100
AcDbEntity
  8
0
  6
Continuous
 62
     0
370
     0
100
AcDbLine
 10
0.0
 20
0.0
 30
0.0
 11
-2.5
 21
0.0
 31
0.0
  0
LINE
  5
243
330
23E
100
AcDbEntity
  8
0
  6
Continuous
 62
     0
370
     0
100
AcDbLine
 10
0.0
 20
0.0
 30
0.0
 11
0.0
 21
-2.5
 31
0.0
  0
LINE
  5
244
330
23E
100
AcDbEntity
  8
0
  6
Continuous
 62
     0
370
     0
100
AcDbLine
 10
0.0
 20
0.0
 30
0.0
 11
2.5
 21
0.0
 31
0.0
  0
LINE
  5
245
330
23E
100
AcDbEntity
  8
0
  6
Continuous
 62
     0
370
     0
100
AcDbLine
 10
0.0
 20
2.5
 30
0.0
 11
0.0
 21
4.75
 31
0.0
  0
LINE
  5
246
330
23E
100
AcDbEntity
  8
0
  6
Continuous
 62
     0
370
     0
100
AcDbLine
 10
-2.5
 20
0.0
 30
0.0
 11
-4.75
 21
0.0
 31
0.0
  0
LINE
  5
247
330
23E
100
AcDbEntity
  8
0
  6
Continuous
 62
     0
370
     0
100
AcDbLine
 10
0.0
 20
-2.5
 30
0.0
 11
0.0
 21
-4.75
 31
0.0
  0
LINE
  5
248
330
23E
100
AcDbEntity
  8
0
  6
Continuous
 62
     0
370
     0
100
AcDbLine
 10
2.5
 20
0.0
 30
0.0
 11
4.75
 21
0.0
 31
0.0
  0
ENDBLK
  5
240
330
23E
100
AcDbEntity
  8
0
100
AcDbBlockEnd
  0
BLOCK
  5
2C3
330
2C2
100
AcDbEntity
  8
0
100
AcDbBlockBegin
  2
_D_10
 70
     0
 10
0.0
 20
0.0
 30
0.0
  3
_D_10
  1

  0
ARC
  5
2C5
330
2C2
100
AcDbEntity
  8
0
  6
Continuous
 62
     7
370
     0
100
AcDbCircle
 10
80.7453079567
 20
75.6628502736
 30
0.0
 40
4.554435549315966
100
AcDbArc
 50
153.4349488229
 51
206.5650511771
  0
ARC
  5
2C6
330
2C2
100
AcDbEntity
  8
0
  6
Continuous
 62
     7
370
     0
100
AcDbCircle
 10
76.6716969618
 20
75.6628502736
 30
0.0
 40
4.554435549315966
100
AcDbArc
 50
333.4349488229
 51
26.5650511771
  0
SOLID
  5
2C7
330
2C2
100
AcDbEntity
  8
0
  6
Continuous
 62
     7
370
     0
100
AcDbTrace
 10
58.0659381216
 20
73.6260447761
 30
0.0
 11
61.0659381216
 21
72.8760447761
 31
0.0
 12
61.0659381216
 22
74.3760447761
 32
0.0
 13
61.0659381216
 23
74.3760447761
 33
0.0
  0
SOLID
  5
2C8
330
2C2
100
AcDbEntity
  8
0
  6
Continuous
 62
     7
370
     0
100
AcDbTrace
 10
99.3510669133
 20
73.6260447761
 30
0.0
 11
96.3510669133
 21
74.3760447761
 31
0.0
 12
96.3510669133
 22
72.8760447761
 32
0.0
 13
96.3510669133
 23
72.8760447761
 33
0.0
  0
LINE
  5
2C9
330
2C2
100
AcDbEntity
  8
0
  6
Continuous
 62
     7
370
     0
100
AcDbLine
 10
58.0659381216
 20
95.1260447647
 30
0.0
 11
58.0659381216
 21
72.6260447761
 31
0.0
  0
LINE
  5
2CA
330
2C2
100
AcDbEntity
  8
0
  6
Continuous
 62
     7
370
     0
100
AcDbLine
 10
99.3510669133
 20
92.1260447761
 30
0.0
 11
99.3510669133
 21
72.6260447761
 31
0.0
  0
LINE
  5
2CB
330
2C2
100
AcDbEntity
  8
0
  6
Continuous
 62
     7
370
     0
100
AcDbLine
 10
58.0659381216
 20
73.6260447761
 30
0.0
 11
99.3510669133
 21
73.6260447761
 31
0.0
  0
MTEXT
  5
2CC
330
2C2
100
AcDbEntity
  8
0
  6
Continuous
 62
     7
370
     0
100
AcDbMText
 10
76.6716969618
 20
78.1377816325
 30
0.0
 40
3.5
 41
0.0
 71
     1
 72
     1
  1
42
  7
SLDTEXTSTYLE0
 73
     1
 44
1.0
  0
ENDBLK
  5
2C4
330
2C2
100
AcDbEntity
  8
0
100
AcDbBlockEnd
  0
BLOCK
  5
2CF
330
2CE
100
AcDbEntity
  8
0
100
AcDbBlockBegin
  2
_D_11
 70
     0
 10
0.0
 20
0.0
 30
0.0
  3
_D_11
  1

  0
ARC
  5
2D1
330
2CE
100
AcDbEntity
  8
0
  6
Continuous
 62
     7
370
     0
100
AcDbCircle
 10
67.7691928644
 20
83.7103118079
 30
0.0
 40
4.554435549315966
100
AcDbArc
 50
153.4349488229
 51
206.5650511771
  0
ARC
  5
2D2
330
2CE
100
AcDbEntity
  8
0
  6
Continuous
 62
     7
370
     0
100
AcDbCircle
 10
67.7691928644
 20
83.7103118079
 30
0.0
 40
4.554435549315966
100
AcDbArc
 50
333.4349488229
 51
26.5650511771
  0
SOLID
  5
2D3
330
2CE
100
AcDbEntity
  8
0
  6
Continuous
 62
     7
370
     0
100
AcDbTrace
 10
58.0659381216
 20
81.6735063104
 30
0.0
 11
61.0659381216
 21
80.9235063104
 31
0.0
 12
61.0659381216
 22
82.4235063104
 32
0.0
 13
61.0659381216
 23
82.4235063104
 33
0.0
  0
SOLID
  5
2D4
330
2CE
100
AcDbEntity
  8
0
  6
Continuous
 62
     7
370
     0
100
AcDbTrace
 10
77.4724477236
 20
81.6735063104
 30
0.0
 11
74.4724477236
 21
82.4235063104
 31
0.0
 12
74.4724477236
 22
80.9235063104
 32
0.0
 13
74.4724477236
 23
80.9235063104
 33
0.0
  0
LINE
  5
2D5
330
2CE
100
AcDbEntity
  8
0
  6
Continuous
 62
     7
370
     0
100
AcDbLine
 10
58.0659381216
 20
95.1260447647
 30
0.0
 11
58.0659381216
 21
80.6735063104
 31
0.0
  0
LINE
  5
2D6
330
2CE
100
AcDbEntity
  8
0
  6
Continuous
 62
     7
370
     0
100
AcDbLine
 10
77.4724477236
 20
87.1260447761
 30
0.0
 11
77.4724477236
 21
80.6735063104
 31
0.0
  0
LINE
  5
2D7
330
2CE
100
AcDbEntity
  8
0
  6
Continuous
 62
     7
370
     0
100
AcDbLine
 10
58.0659381216
 20
81.6735063104
 30
0.0
 11
77.4724477236
 21
81.6735063104
 31
0.0
  0
MTEXT
  5
2D8
330
2CE
100
AcDbEntity
  8
0
  6
Continuous
 62
     7
370
     0
100
AcDbMText
 10
63.6955818694
 20
86.1852431668
 30
0.0
 40
3.5
 41
0.0
 71
     1
 72
     1
  1
19.5
  7
SLDTEXTSTYLE0
 73
     1
 44
1.0
  0
ENDBLK
  5
2D0
330
2CE
100
AcDbEntity
  8
0
100
AcDbBlockEnd
  0
BLOCK
  5
2DA
330
2D9
100
AcDbEntity
  8
0
100
AcDbBlockBegin
  2
SW_CENTERMARKSYMBOL_5
 70
     0
 10
0.0
 20
0.0
 30
0.0
  3
SW_CENTERMARKSYMBOL_5
  1

  0
LINE
  5
2DC
330
2D9
100
AcDbEntity
  8
0
  6
Continuous
 62
     0
370
     0
100
AcDbLine
 10
0.0
 20
0.0
 30
0.0
 11
0.0
 21
2.5
 31
0.0
  0
LINE
  5
2DD
330
2D9
100
AcDbEntity
  8
0
  6
Continuous
 62
     0
370
     0
100
AcDbLine
 10
0.0
 20
0.0
 30
0.0
 11
-2.5
 21
0.0
 31
0.0
  0
LINE
  5
2DE
330
2D9
100
AcDbEntity
  8
0
  6
Continuous
 62
     0
370
     0
100
AcDbLine
 10
0.0
 20
0.0
 30
0.0
 11
0.0
 21
-2.5
 31
0.0
  0
LINE
  5
2DF
330
2D9
100
AcDbEntity
  8
0
  6
Continuous
 62
     0
370
     0
100
AcDbLine
 10
0.0
 20
0.0
 30
0.0
 11
2.5
 21
0.0
 31
0.0
  0
LINE
  5
2E0
330
2D9
100
AcDbEntity
  8
0
  6
Continuous
 62
     0
370
     0
100
AcDbLine
 10
0.0
 20
5.0
 30
0.0
 11
0.0
 21
8.0
 31
0.0
  0
LINE
  5
2E1
330
2D9
100
AcDbEntity
  8
0
  6
Continuous
 62
     0
370
     0
100
AcDbLine
 10
-5.0
 20
0.0
 30
0.0
 11
-8.0
 21
0.0
 31
0.0
  0
LINE
  5
2E2
330
2D9
100
AcDbEntity
  8
0
  6
Continuous
 62
     0
370
     0
100
AcDbLine
 10
0.0
 20
-5.0
 30
0.0
 11
0.0
 21
-8.0
 31
0.0
  0
LINE
  5
2E3
330
2D9
100
AcDbEntity
  8
0
  6
Continuous
 62
     0
370
     0
100
AcDbLine
 10
5.0
 20
0.0
 30
0.0
 11
8.0
 21
0.0
 31
0.0
  0
ENDBLK
  5
2DB
330
2D9
100
AcDbEntity
  8
0
100
AcDbBlockEnd
  0
BLOCK
  5
3F6
330
3F5
100
AcDbEntity
  8
0
100
AcDbBlockBegin
  2
_D_12
 70
     0
 10
0.0
 20
0.0
 30
0.0
  3
_D_12
  1

  0
SOLID
  5
3F8
330
3F5
100
AcDbEntity
  8
0
  6
Continuous
 62
     7
370
     0
100
AcDbTrace
 10
169.1829893919
 20
259.5883241186
 30
0.0
 11
172.1829893919
 21
258.8383241186
 31
0.0
 12
172.1829893919
 22
260.3383241186
 32
0.0
 13
172.1829893919
 23
260.3383241186
 33
0.0
  0
SOLID
  5
3F9
330
3F5
100
AcDbEntity
  8
0
  6
Continuous
 62
     7
370
     0
100
AcDbTrace
 10
163.1829893919
 20
259.5883241186
 30
0.0
 11
160.1829893919
 21
260.3383241186
 31
0.0
 12
160.1829893919
 22
258.8383241186
 32
0.0
 13
160.1829893919
 23
258.8383241186
 33
0.0
  0
LINE
  5
3FA
330
3F5
100
AcDbEntity
  8
0
  6
Continuous
 62
     7
370
     0
100
AcDbLine
 10
169.1829893919
 20
248.2807801221
 30
0.0
 11
169.1829893919
 21
260.5883241186
 31
0.0
  0
LINE
  5
3FB
330
3F5
100
AcDbEntity
  8
0
  6
Continuous
 62
     7
370
     0
100
AcDbLine
 10
163.1829893919
 20
246.3018555018
 30
0.0
 11
163.1829893919
 21
260.5883241186
 31
0.0
  0
LINE
  5
3FC
330
3F5
100
AcDbEntity
  8
0
  6
Continuous
 62
     7
370
     0
100
AcDbLine
 10
169.1829893919
 20
259.5883241186
 30
0.0
 11
174.1829893919
 21
259.5883241186
 31
0.0
  0
LINE
  5
3FD
330
3F5
100
AcDbEntity
  8
0
  6
Continuous
 62
     7
370
     0
100
AcDbLine
 10
169.1829893919
 20
259.5883241186
 30
0.0
 11
163.1829893919
 21
259.5883241186
 31
0.0
  0
LINE
  5
3FE
330
3F5
100
AcDbEntity
  8
0
  6
Continuous
 62
     7
370
     0
100
AcDbLine
 10
163.1829893919
 20
259.5883241186
 30
0.0
 11
158.1829893919
 21
259.5883241186
 31
0.0
  0
MTEXT
  5
3FF
330
3F5
100
AcDbEntity
  8
0
  6
Continuous
 62
     7
370
     0
100
AcDbMText
 10
165.1645866432
 20
264.1000609749
 30
0.0
 40
3.5
 41
0.0
 71
     1
 72
     1
  1
6
  7
SLDTEXTSTYLE0
 73
     1
 44
1.0
  0
ENDBLK
  5
3F7
330
3F5
100
AcDbEntity
  8
0
100
AcDbBlockEnd
  0
BLOCK
  5
402
330
401
100
AcDbEntity
  8
0
100
AcDbBlockBegin
  2
_D_13
 70
     0
 10
0.0
 20
0.0
 30
0.0
  3
_D_13
  1

  0
SOLID
  5
404
330
401
100
AcDbEntity
  8
0
  6
Continuous
 62
     7
370
     0
100
AcDbTrace
 10
159.6829893919
 20
127.9387174654
 30
0.0
 11
156.6829893919
 21
128.6887174654
 31
0.0
 12
156.6829893919
 22
127.1887174654
 32
0.0
 13
156.6829893919
 23
127.1887174654
 33
0.0
  0
SOLID
  5
405
330
401
100
AcDbEntity
  8
0
  6
Continuous
 62
     7
370
     0
100
AcDbTrace
 10
172.6829893919
 20
127.9387174654
 30
0.0
 11
175.6829893919
 21
127.1887174654
 31
0.0
 12
175.6829893919
 22
128.6887174654
 32
0.0
 13
175.6829893919
 23
128.6887174654
 33
0.0
  0
LINE
  5
406
330
401
100
AcDbEntity
  8
0
  6
Continuous
 62
     7
370
     0
100
AcDbLine
 10
159.6829893919
 20
171.9010476545
 30
0.0
 11
159.6829893919
 21
126.9387174654
 31
0.0
  0
LINE
  5
407
330
401
100
AcDbEntity
  8
0
  6
Continuous
 62
     7
370
     0
100
AcDbLine
 10
172.6829893919
 20
171.9010476545
 30
0.0
 11
172.6829893919
 21
126.9387174654
 31
0.0
  0
LINE
  5
408
330
401
100
AcDbEntity
  8
0
  6
Continuous
 62
     7
370
     0
100
AcDbLine
 10
159.6829893919
 20
127.9387174654
 30
0.0
 11
154.6829893919
 21
127.9387174654
 31
0.0
  0
LINE
  5
409
330
401
100
AcDbEntity
  8
0
  6
Continuous
 62
     7
370
     0
100
AcDbLine
 10
159.6829893919
 20
127.9387174654
 30
0.0
 11
172.6829893919
 21
127.9387174654
 31
0.0
  0
LINE
  5
40A
330
401
100
AcDbEntity
  8
0
  6
Continuous
 62
     7
370
     0
100
AcDbLine
 10
172.6829893919
 20
127.9387174654
 30
0.0
 11
177.6829893919
 21
127.9387174654
 31
0.0
  0
MTEXT
  5
40B
330
401
100
AcDbEntity
  8
0
  6
Continuous
 62
     7
370
     0
100
AcDbMText
 10
164.1461838945
 20
132.4504543218
 30
0.0
 40
3.5
 41
0.0
 71
     1
 72
     1
  1
13
  7
SLDTEXTSTYLE0
 73
     1
 44
1.0
  0
ENDBLK
  5
403
330
401
100
AcDbEntity
  8
0
100
AcDbBlockEnd
  0
ENDSEC
  0
SECTION
  2
ENTITIES
  0
LINE
  5
73
330
1F
100
AcDbEntity
  8
0
  6
Continuous
 62
     7
370
     0
100
AcDbLine
 10
20.2604743903
 20
285.0
 30
0.0
 11
196.7604743903
 21
285.0
 31
0.0
  0
LINE
  5
74
330
1F
100
AcDbEntity
  8
0
  6
Continuous
 62
     7
370
     0
100
AcDbLine
 10
20.2604743903
 20
285.0
 30
0.0
 11
20.2604743903
 21
10.0
 31
0.0
  0
LINE
  5
75
330
1F
100
AcDbEntity
  8
0
  6
Continuous
 62
     7
370
     0
100
AcDbLine
 10
20.2604743903
 20
10.0
 30
0.0
 11
196.7604743903
 21
10.0
 31
0.0
  0
LINE
  5
76
330
1F
100
AcDbEntity
  8
0
  6
Continuous
 62
     7
370
     0
100
AcDbLine
 10
196.7604743903
 20
285.0
 30
0.0
 11
196.7604743903
 21
10.0
 31
0.0
  0
LINE
  5
77
330
1F
100
AcDbEntity
  8
0
  6
Continuous
 62
     7
370
     0
100
AcDbLine
 10
127.0104743903
 20
50.75
 30
0.0
 11
196.7604743903
 21
50.75
 31
0.0
  0
LINE
  5
78
330
1F
100
AcDbEntity
  8
0
  6
Continuous
 62
     7
370
     0
100
AcDbLine
 10
127.0104743903
 20
50.75
 30
0.0
 11
127.0104743903
 21
10.0
 31
0.0
  0
LINE
  5
79
330
1F
100
AcDbEntity
  8
0
  6
Continuous
 62
     7
370
     0
100
AcDbLine
 10
127.0104743903
 20
22.75
 30
0.0
 11
196.7604743903
 21
22.75
 31
0.0
  0
LINE
  5
7A
330
1F
100
AcDbEntity
  8
0
  6
Continuous
 62
     7
370
     0
100
AcDbLine
 10
127.0104743903
 20
36.75
 30
0.0
 11
196.7604743903
 21
36.75
 31
0.0
  0
MTEXT
  5
7C
330
1F
100
AcDbEntity
  8
0
  6
Continuous
 62
     7
370
     0
100
AcDbMText
 10
161.2504707832
 20
30.4171582345
 30
0.0
 40
4.2333333333
 41
0.0
 71
     2
 72
     1
  1
CHK-EMBF-12-C
  7
SLDTEXTSTYLE0
 73
     1
 44
1.0
  0
MTEXT
  5
7D
330
1F
100
AcDbEntity
  8
0
  6
Continuous
 62
     7
370
     0
100
AcDbMText
 10
159.7902156621
 20
45.7487547673
 30
0.0
 40
3.175
 41
0.0
 71
     2
 72
     1
  1
ランナーチャックEM (近接・爪着脱式)
  7
SLDTEXTSTYLE0
 73
     1
 44
1.0
  0
MTEXT
  5
7E
330
1F
100
AcDbEntity
  8
0
  6
Continuous
 62
     7
370
     0
100
AcDbMText
 10
162.5148398601
 20
16.8228189052
 30
0.0
 40
4.2333333333
 41
0.0
 71
     2
 72
     1
  1
023286
  7
SLDTEXTSTYLE0
 73
     1
 44
1.0
  0
LINE
  5
7F
330
1F
100
AcDbEntity
  8
0
  6
Continuous
 62
     7
370
     0
100
AcDbLine
 10
71.4724477311
 20
172.901047574
 30
0.0
 11
71.4724477311
 21
157.4010478274
 31
0.0
  0
LINE
  5
80
330
1F
100
AcDbEntity
  8
0
  6
Continuous
 62
     7
370
     0
100
AcDbLine
 10
83.4724478354
 20
157.4010478274
 30
0.0
 11
83.4724478354
 21
172.901047574
 31
0.0
  0
LINE
  5
81
330
1F
100
AcDbEntity
  8
0
  6
Continuous
 62
     7
370
     0
100
AcDbLine
 10
71.4724477311
 20
157.4010478274
 30
0.0
 11
71.9724478131
 21
156.9010468141
 31
0.0
  0
LINE
  5
82
330
1F
100
AcDbEntity
  8
0
  6
Continuous
 62
     7
370
     0
100
AcDbLine
 10
82.9724477535
 20
156.9010468141
 30
0.0
 11
83.4724478354
 21
157.4010478274
 31
0.0
  0
LINE
  5
83
330
1F
100
AcDbEntity
  8
0
  6
Continuous
 62
     7
370
     0
100
AcDbLine
 10
93.8133465988
 20
214.6601455227
 30
0.0
 11
92.0451999573
 21
214.3230160639
 31
0.0
  0
LINE
  5
84
330
1F
100
AcDbEntity
  8
0
  6
Continuous
 62
     7
370
     0
100
AcDbLine
 10
93.0753218872
 20
208.9203448907
 30
0.0
 11
94.8434675974
 21
209.2574762121
 31
0.0
  0
ARC
  5
85
330
1F
100
AcDbEntity
  8
0
  6
Continuous
 62
     7
370
     0
100
AcDbCircle
 10
93.8508059621
 20
214.4636851715
 30
0.0
 40
0.2000000000000253
100
AcDbArc
 50
10.7949532879
 51
100.794953288
  0
ARC
  5
86
330
1F
100
AcDbEntity
  8
0
  6
Continuous
 62
     7
370
     0
100
AcDbCircle
 10
94.8060094027
 20
209.4539360374
 30
0.0
 40
0.2000000000000113
100
AcDbArc
 50
280.794953288
 51
10.794953288
  0
ARC
  5
87
330
1F
100
AcDbEntity
  8
0
  6
Continuous
 62
     7
370
     0
100
AcDbCircle
 10
95.7237538849
 20
204.6406476536
 30
0.0
 40
0.2000000000000167
100
AcDbArc
 50
10.794953288
 51
100.7949532879
  0
ARC
  5
88
330
1F
100
AcDbEntity
  8
0
  6
Continuous
 62
     7
370
     0
100
AcDbCircle
 10
96.6789573256
 20
199.6308985194
 30
0.0
 40
0.1999999999999974
100
AcDbArc
 50
280.794953288
 51
10.794953288
  0
LINE
  5
89
330
1F
100
AcDbEntity
  8
0
  6
Continuous
 62
     7
370
     0
100
AcDbLine
 10
95.6862940384
 20
204.8371082113
 30
0.0
 11
93.9181483281
 21
204.4999778212
 31
0.0
  0
LINE
  5
8A
330
1F
100
AcDbEntity
  8
0
  6
Continuous
 62
     7
370
     0
100
AcDbLine
 10
94.9482693268
 20
199.0973075793
 30
0.0
 11
96.7164168996
 21
199.4344379694
 31
0.0
  0
LINE
  5
8B
330
1F
100
AcDbEntity
  8
0
  6
Continuous
 62
     7
370
     0
100
AcDbLine
 10
60.1014270378
 20
209.2574762121
 30
0.0
 11
61.8695746107
 21
208.9203448907
 31
0.0
  0
LINE
  5
8C
330
1F
100
AcDbEntity
  8
0
  6
Continuous
 62
     7
370
     0
100
AcDbLine
 10
62.8996956093
 20
214.3230160639
 30
0.0
 11
61.1315480364
 21
214.6601455227
 31
0.0
  0
ARC
  5
8D
330
1F
100
AcDbEntity
  8
0
  6
Continuous
 62
     7
370
     0
100
AcDbCircle
 10
60.1388860445
 20
209.4539360374
 30
0.0
 40
0.200000000000024
100
AcDbArc
 50
169.2050467121
 51
259.2050467121
  0
ARC
  5
8E
330
1F
100
AcDbEntity
  8
0
  6
Continuous
 62
     7
370
     0
100
AcDbCircle
 10
61.0940894851
 20
214.4636851715
 30
0.0
 40
0.199999999999996
100
AcDbArc
 50
79.2050467121
 51
169.2050467121
  0
LINE
  5
8F
330
1F
100
AcDbEntity
  8
0
  6
Continuous
 62
     7
370
     0
100
AcDbLine
 10
58.2284795982
 20
199.4344379694
 30
0.0
 11
59.9966253085
 21
199.0973075793
 31
0.0
  0
LINE
  5
90
330
1F
100
AcDbEntity
  8
0
  6
Continuous
 62
     7
370
     0
100
AcDbLine
 10
61.0267481697
 20
204.4999778212
 30
0.0
 11
59.2586005969
 21
204.8371082113
 31
0.0
  0
ARC
  5
91
330
1F
100
AcDbEntity
  8
0
  6
Continuous
 62
     7
370
     0
100
AcDbCircle
 10
58.2659381216
 20
199.6308985194
 30
0.0
 40
0.2000000000000044
100
AcDbArc
 50
169.205046712
 51
259.205046712
  0
ARC
  5
92
330
1F
100
AcDbEntity
  8
0
  6
Continuous
 62
     7
370
     0
100
AcDbCircle
 10
59.2211415623
 20
204.6406476536
 30
0.0
 40
0.200000000000024
100
AcDbArc
 50
79.2050467121
 51
169.205046712
  0
LINE
  5
93
330
1F
100
AcDbEntity
  8
0
  6
Continuous
 62
     7
370
     0
100
AcDbLine
 10
81.4724477404
 20
153.901048185
 30
0.0
 11
81.7724476965
 21
154.2010458127
 31
0.0
  0
LINE
  5
94
330
1F
100
AcDbEntity
  8
0
  6
Continuous
 62
     7
370
     0
100
AcDbLine
 10
73.1724476372
 20
154.2010458127
 30
0.0
 11
73.4724475933
 21
153.901048185
 31
0.0
  0
LINE
  5
95
330
1F
100
AcDbEntity
  8
0
  6
Continuous
 62
     7
370
     0
100
AcDbLine
 10
75.6724478142
 20
148.9010492281
 30
0.0
 11
75.9724477702
 21
146.9010489002
 31
0.0
  0
LINE
  5
96
330
1F
100
AcDbEntity
  8
0
  6
Continuous
 62
     7
370
     0
100
AcDbLine
 10
78.9724477381
 20
146.9010489002
 30
0.0
 11
79.2724477523
 21
148.9010492281
 31
0.0
  0
LINE
  5
97
330
1F
100
AcDbEntity
  8
0
  6
Continuous
 62
     7
370
     0
100
AcDbLine
 10
79.2724477523
 20
151.4010468439
 30
0.0
 11
79.2724477523
 21
151.9010478572
 31
0.0
  0
LINE
  5
98
330
1F
100
AcDbEntity
  8
0
  6
Continuous
 62
     7
370
     0
100
AcDbLine
 10
75.6724478142
 20
151.9010478572
 30
0.0
 11
75.6724478142
 21
151.4010468439
 31
0.0
  0
LINE
  5
99
330
1F
100
AcDbEntity
  8
0
  6
Continuous
 62
     7
370
     0
100
AcDbLine
 10
75.6724478142
 20
151.4010468439
 30
0.0
 11
75.8724477073
 21
149.4010465161
 31
0.0
  0
LINE
  5
9A
330
1F
100
AcDbEntity
  8
0
  6
Continuous
 62
     7
370
     0
100
AcDbLine
 10
79.0724477428
 20
149.4010465161
 30
0.0
 11
79.2724477523
 21
151.4010468439
 31
0.0
  0
LINE
  5
9B
330
1F
100
AcDbEntity
  8
0
  6
Continuous
 62
     7
370
     0
100
AcDbLine
 10
79.2724477523
 20
148.9010492281
 30
0.0
 11
79.2724477523
 21
149.4010465161
 31
0.0
  0
LINE
  5
9C
330
1F
100
AcDbEntity
  8
0
  6
Continuous
 62
     7
370
     0
100
AcDbLine
 10
75.6724478142
 20
149.4010465161
 30
0.0
 11
75.6724478142
 21
148.9010492281
 31
0.0
  0
LINE
  5
9D
330
1F
100
AcDbEntity
  8
0
  6
Continuous
 62
     7
370
     0
100
AcDbLine
 10
79.0724477428
 20
151.9010478572
 30
0.0
 11
79.0724477428
 21
153.901048185
 31
0.0
  0
LINE
  5
9E
330
1F
100
AcDbEntity
  8
0
  6
Continuous
 62
     7
370
     0
100
AcDbLine
 10
75.8724477073
 20
153.901048185
 30
0.0
 11
75.8724477073
 21
151.9010478572
 31
0.0
  0
LINE
  5
9F
330
1F
100
AcDbEntity
  8
0
  6
Continuous
 62
     7
370
     0
100
AcDbLine
 10
81.7724476965
 20
154.2010458127
 30
0.0
 11
81.7724476965
 21
156.9010468141
 31
0.0
  0
LINE
  5
A0
330
1F
100
AcDbEntity
  8
0
  6
Continuous
 62
     7
370
     0
100
AcDbLine
 10
73.1724476372
 20
156.9010468141
 30
0.0
 11
73.1724476372
 21
154.2010458127
 31
0.0
  0
LINE
  5
A1
330
1F
100
AcDbEntity
  8
0
  6
Continuous
 62
     7
370
     0
100
AcDbLine
 10
90.969312836
 20
225.7913650886
 30
0.0
 11
90.809344214
 21
224.8042451159
 31
0.0
  0
LINE
  5
A2
330
1F
100
AcDbEntity
  8
0
  6
Continuous
 62
     7
370
     0
100
AcDbLine
 10
91.3522615028
 20
224.7162612096
 30
0.0
 11
91.0323251901
 21
222.7420175389
 31
0.0
  0
LINE
  5
A3
330
1F
100
AcDbEntity
  8
0
  6
Continuous
 62
     7
370
     0
100
AcDbLine
 10
93.8949807478
 20
222.2781108633
 30
0.0
 11
94.2149161292
 21
224.252354534
 31
0.0
  0
LINE
  5
A4
330
1F
100
AcDbEntity
  8
0
  6
Continuous
 62
     7
370
     0
100
AcDbLine
 10
89.4724474219
 20
172.901047574
 30
0.0
 11
89.4724474219
 21
213.9010468439
 31
0.0
  0
LINE
  5
A5
330
1F
100
AcDbEntity
  8
0
  6
Continuous
 62
     7
370
     0
100
AcDbLine
 10
89.4724474219
 20
213.9010468439
 30
0.0
 11
90.4724475858
 21
212.9010485426
 31
0.0
  0
LINE
  5
A6
330
1F
100
AcDbEntity
  8
0
  6
Continuous
 62
     7
370
     0
100
AcDbLine
 10
90.4724475858
 20
212.9010485426
 30
0.0
 11
90.4724475858
 21
172.901047574
 31
0.0
  0
LINE
  5
A7
330
1F
100
AcDbEntity
  8
0
  6
Continuous
 62
     7
370
     0
100
AcDbLine
 10
90.4724475858
 20
172.901047574
 30
0.0
 11
89.4724474219
 21
172.901047574
 31
0.0
  0
LINE
  5
A8
330
1F
100
AcDbEntity
  8
0
  6
Continuous
 62
     7
370
     0
100
AcDbLine
 10
89.4724474219
 20
213.9010468439
 30
0.0
 11
65.4724481446
 21
213.9010468439
 31
0.0
  0
LINE
  5
A9
330
1F
100
AcDbEntity
  8
0
  6
Continuous
 62
     7
370
     0
100
AcDbLine
 10
65.4724481446
 20
213.9010468439
 30
0.0
 11
67.4724475411
 21
215.9010471717
 31
0.0
  0
LINE
  5
AA
330
1F
100
AcDbEntity
  8
0
  6
Continuous
 62
     7
370
     0
100
AcDbLine
 10
67.4724475411
 20
215.9010471717
 30
0.0
 11
74.4724477572
 21
215.9010471717
 31
0.0
  0
LINE
  5
AB
330
1F
100
AcDbEntity
  8
0
  6
Continuous
 62
     7
370
     0
100
AcDbLine
 10
74.4724477572
 20
217.1010469959
 30
0.0
 11
74.4724477572
 21
215.9010471717
 31
0.0
  0
LINE
  5
AC
330
1F
100
AcDbEntity
  8
0
  6
Continuous
 62
     7
370
     0
100
AcDbLine
 10
80.4724478093
 20
217.1010469959
 30
0.0
 11
74.4724477572
 21
217.1010469959
 31
0.0
  0
LINE
  5
AD
330
1F
100
AcDbEntity
  8
0
  6
Continuous
 62
     7
370
     0
100
AcDbLine
 10
80.4724478093
 20
215.9010471717
 30
0.0
 11
80.4724478093
 21
217.1010469959
 31
0.0
  0
LINE
  5
AE
330
1F
100
AcDbEntity
  8
0
  6
Continuous
 62
     7
370
     0
100
AcDbLine
 10
80.4724478093
 20
215.9010471717
 30
0.0
 11
87.4724480254
 21
215.9010471717
 31
0.0
  0
LINE
  5
AF
330
1F
100
AcDbEntity
  8
0
  6
Continuous
 62
     7
370
     0
100
AcDbLine
 10
87.4724480254
 20
215.9010471717
 30
0.0
 11
89.4724474219
 21
213.9010468439
 31
0.0
  0
LINE
  5
B0
330
1F
100
AcDbEntity
  8
0
  6
Continuous
 62
     7
370
     0
100
AcDbLine
 10
65.4724481446
 20
213.9010468439
 30
0.0
 11
65.4724481446
 21
172.901047574
 31
0.0
  0
LINE
  5
B1
330
1F
100
AcDbEntity
  8
0
  6
Continuous
 62
     7
370
     0
100
AcDbLine
 10
64.4724479807
 20
172.901047574
 30
0.0
 11
64.4724479807
 21
212.9010485426
 31
0.0
  0
LINE
  5
B2
330
1F
100
AcDbEntity
  8
0
  6
Continuous
 62
     7
370
     0
100
AcDbLine
 10
64.4724479807
 20
212.9010485426
 30
0.0
 11
65.4724481446
 21
213.9010468439
 31
0.0
  0
LINE
  5
B3
330
1F
100
AcDbEntity
  8
0
  6
Continuous
 62
     7
370
     0
100
AcDbLine
 10
65.4724481446
 20
172.901047574
 30
0.0
 11
64.4724479807
 21
172.901047574
 31
0.0
  0
CIRCLE
  5
B4
330
1F
100
AcDbEntity
  8
0
  6
Continuous
 62
     7
370
     0
100
AcDbCircle
 10
67.4724477236
 20
206.4010476545
 30
0.0
 40
1.800000000000011
  0
CIRCLE
  5
B5
330
1F
100
AcDbEntity
  8
0
  6
Continuous
 62
     7
370
     0
100
AcDbCircle
 10
87.4724477236
 20
206.4010476545
 30
0.0
 40
1.800000000000011
  0
CIRCLE
  5
B6
330
1F
100
AcDbEntity
  8
0
  6
Continuous
 62
     7
370
     0
100
AcDbCircle
 10
77.4724477236
 20
202.9010476545
 30
0.0
 40
2.25
  0
CIRCLE
  5
B7
330
1F
100
AcDbEntity
  8
0
  6
Continuous
 62
     7
370
     0
100
AcDbCircle
 10
85.4724477236
 20
176.9010476545
 30
0.0
 40
2.25
  0
CIRCLE
  5
B8
330
1F
100
AcDbEntity
  8
0
  6
Continuous
 62
     7
370
     0
100
AcDbCircle
 10
69.4724477236
 20
176.9010476545
 30
0.0
 40
2.25
  0
LINE
  5
B9
330
1F
100
AcDbEntity
  8
0
  6
Continuous
 62
     7
370
     0
100
AcDbLine
 10
65.4724481446
 20
172.901047574
 30
0.0
 11
89.4724474219
 21
172.901047574
 31
0.0
  0
CIRCLE
  5
BA
330
1F
100
AcDbEntity
  8
0
  6
Continuous
 62
     7
370
     0
100
AcDbCircle
 10
69.4724477236
 20
176.9010476545
 30
0.0
 40
1.649999999999977
  0
CIRCLE
  5
BB
330
1F
100
AcDbEntity
  8
0
  6
Continuous
 62
     7
370
     0
100
AcDbCircle
 10
77.4724477236
 20
202.9010476545
 30
0.0
 40
1.650000000000006
  0
CIRCLE
  5
BC
330
1F
100
AcDbEntity
  8
0
  6
Continuous
 62
     7
370
     0
100
AcDbCircle
 10
87.4724477236
 20
206.4010476545
 30
0.0
 40
1.5
  0
CIRCLE
  5
BD
330
1F
100
AcDbEntity
  8
0
  6
Continuous
 62
     7
370
     0
100
AcDbCircle
 10
85.4724477236
 20
176.9010476545
 30
0.0
 40
1.650000000000006
  0
CIRCLE
  5
BE
330
1F
100
AcDbEntity
  8
0
  6
Continuous
 62
     7
370
     0
100
AcDbCircle
 10
67.4724477236
 20
206.4010476545
 30
0.0
 40
1.5
  0
LINE
  5
BF
330
1F
100
AcDbEntity
  8
0
  6
Continuous
 62
     7
370
     0
100
AcDbLine
 10
71.4724477311
 20
157.4010478274
 30
0.0
 11
83.4724478354
 21
157.4010478274
 31
0.0
  0
LINE
  5
C0
330
1F
100
AcDbEntity
  8
0
  6
Continuous
 62
     7
370
     0
100
AcDbLine
 10
82.9724477535
 20
156.9010468141
 30
0.0
 11
71.9724478131
 21
156.9010468141
 31
0.0
  0
LINE
  5
C1
330
1F
100
AcDbEntity
  8
0
  6
Continuous
 62
     7
370
     0
100
AcDbLine
 10
89.3471901236
 20
239.2238343075
 30
0.0
 11
90.4669676838
 21
246.1336890176
 31
0.0
  0
LINE
  5
C2
330
1F
100
AcDbEntity
  8
0
  6
Continuous
 62
     7
370
     0
100
AcDbLine
 10
90.4669676838
 20
246.1336890176
 30
0.0
 11
89.6398135392
 21
247.2807804063
 31
0.0
  0
LINE
  5
C3
330
1F
100
AcDbEntity
  8
0
  6
Continuous
 62
     7
370
     0
100
AcDbLine
 10
89.6398135392
 20
247.2807804063
 30
0.0
 11
84.8029147764
 21
248.0646224633
 31
0.0
  0
CIRCLE
  5
C4
330
1F
100
AcDbEntity
  8
0
  6
Continuous
 62
     7
370
     0
100
AcDbCircle
 10
87.7299473647
 20
244.2472323227
 30
0.0
 40
1.000000000000032
  0
LINE
  5
C5
330
1F
100
AcDbEntity
  8
0
  6
Continuous
 62
     7
370
     0
100
AcDbLine
 10
84.8029147764
 20
248.0646224633
 30
0.0
 11
83.5231695255
 21
240.1676477805
 31
0.0
  0
LINE
  5
C6
330
1F
100
AcDbEntity
  8
0
  6
Continuous
 62
     7
370
     0
100
AcDbLine
 10
83.5231695255
 20
240.1676477805
 30
0.0
 11
89.3471901236
 21
239.2238343075
 31
0.0
  0
LINE
  5
C7
330
1F
100
AcDbEntity
  8
0
  6
Continuous
 62
     7
370
     0
100
AcDbLine
 10
87.1076368657
 20
225.4041248873
 30
0.0
 11
90.0690033031
 21
224.9242180899
 31
0.0
  0
LINE
  5
C8
330
1F
100
AcDbEntity
  8
0
  6
Continuous
 62
     7
370
     0
100
AcDbLine
 10
87.5875408692
 20
228.365492256
 30
0.0
 11
87.1076368657
 21
225.4041248873
 31
0.0
  0
LINE
  5
C9
330
1F
100
AcDbEntity
  8
0
  6
Continuous
 62
     7
370
     0
100
AcDbLine
 10
90.7463318599
 20
227.8535926655
 30
0.0
 11
87.5875408692
 21
228.365492256
 31
0.0
  0
LINE
  5
CA
330
1F
100
AcDbEntity
  8
0
  6
Continuous
 62
     7
370
     0
100
AcDbLine
 10
90.5383731169
 20
226.5703344659
 30
0.0
 11
90.7463318599
 21
227.8535926655
 31
0.0
  0
LINE
  5
CB
330
1F
100
AcDbEntity
  8
0
  6
Continuous
 62
     7
370
     0
100
AcDbLine
 10
90.0690033031
 20
224.9242180899
 30
0.0
 11
90.3409485636
 21
226.6023272589
 31
0.0
  0
LINE
  5
CC
330
1F
100
AcDbEntity
  8
0
  6
Continuous
 62
     7
370
     0
100
AcDbLine
 10
90.3409485636
 20
226.6023272589
 30
0.0
 11
90.5383731169
 21
226.5703344659
 31
0.0
  0
ARC
  5
CD
330
1F
100
AcDbEntity
  8
0
  6
Continuous
 62
     7
370
     0
100
AcDbCircle
 10
84.5021047687
 20
216.2024283088
 30
0.0
 40
1.500000000000019
100
AcDbArc
 50
350.794953288
 51
80.794953288
  0
LINE
  5
CE
330
1F
100
AcDbEntity
  8
0
  6
Continuous
 62
     7
370
     0
100
AcDbLine
 10
84.7420570371
 20
217.6831124291
 30
0.0
 11
80.5961437454
 21
218.3549778477
 31
0.0
  0
LINE
  5
CF
330
1F
100
AcDbEntity
  8
0
  6
Continuous
 62
     7
370
     0
100
AcDbLine
 10
80.0998514914
 20
219.0432326809
 30
0.0
 11
80.5961437454
 21
218.3549778477
 31
0.0
  0
LINE
  5
D0
330
1F
100
AcDbEntity
  8
0
  6
Continuous
 62
     7
370
     0
100
AcDbLine
 10
90.0482720626
 20
224.7962916211
 30
0.0
 11
95.5561063183
 21
195.9093866811
 31
0.0
  0
LINE
  5
D1
330
1F
100
AcDbEntity
  8
0
  6
Continuous
 62
     7
370
     0
100
AcDbLine
 10
95.5561063183
 20
195.9093866811
 30
0.0
 11
92.6091958699
 21
195.3475020767
 31
0.0
  0
LINE
  5
D2
330
1F
100
AcDbEntity
  8
0
  6
Continuous
 62
     7
370
     0
100
AcDbLine
 10
92.6091958699
 20
195.3475020767
 30
0.0
 11
90.4724475858
 21
206.5540889219
 31
0.0
  0
LINE
  5
D3
330
1F
100
AcDbEntity
  8
0
  6
Continuous
 62
     7
370
     0
100
AcDbLine
 10
88.9771784586
 20
214.3963167385
 30
0.0
 11
88.8641708461
 21
214.989010425
 31
0.0
  0
LINE
  5
D4
330
1F
100
AcDbEntity
  8
0
  6
Continuous
 62
     7
370
     0
100
AcDbLine
 10
88.8641708461
 20
214.989010425
 30
0.0
 11
88.2917157305
 21
215.0817794666
 31
0.0
  0
LINE
  5
D5
330
1F
100
AcDbEntity
  8
0
  6
Continuous
 62
     7
370
     0
100
AcDbLine
 10
85.9728333471
 20
215.9010471717
 30
0.0
 11
85.9827882541
 21
215.9624753461
 31
0.0
  0
CIRCLE
  5
D6
330
1F
100
AcDbEntity
  8
0
  6
Continuous
 62
     7
370
     0
100
AcDbCircle
 10
83.3460380353
 20
224.696750513
 30
0.0
 40
1.500000000000019
  0
LINE
  5
D7
330
1F
100
AcDbEntity
  8
0
  6
Continuous
 62
     7
370
     0
100
AcDbLine
 10
90.0482720626
 20
224.7962916211
 30
0.0
 11
90.0690033031
 21
224.9242180899
 31
0.0
  0
LINE
  5
D8
330
1F
100
AcDbEntity
  8
0
  6
Continuous
 62
     7
370
     0
100
AcDbLine
 10
83.5231695255
 20
240.1676477805
 30
0.0
 11
80.0998514914
 21
219.0432326809
 31
0.0
  0
LINE
  5
D9
330
1F
100
AcDbEntity
  8
0
  6
Continuous
 62
     7
370
     0
100
AcDbLine
 10
66.0807247204
 20
214.989010425
 30
0.0
 11
66.653179836
 21
215.0817794666
 31
0.0
  0
LINE
  5
DA
330
1F
100
AcDbEntity
  8
0
  6
Continuous
 62
     7
370
     0
100
AcDbLine
 10
65.9677161766
 20
214.3963167385
 30
0.0
 11
66.0807247204
 21
214.989010425
 31
0.0
  0
LINE
  5
DB
330
1F
100
AcDbEntity
  8
0
  6
Continuous
 62
     7
370
     0
100
AcDbLine
 10
62.3356996966
 20
195.3475020767
 30
0.0
 11
64.4724479807
 21
206.5540889219
 31
0.0
  0
LINE
  5
DC
330
1F
100
AcDbEntity
  8
0
  6
Continuous
 62
     7
370
     0
100
AcDbLine
 10
59.3887883169
 20
195.9093866811
 30
0.0
 11
62.3356996966
 21
195.3475020767
 31
0.0
  0
LINE
  5
DD
330
1F
100
AcDbEntity
  8
0
  6
Continuous
 62
     7
370
     0
100
AcDbLine
 10
64.8966235039
 20
224.7962916211
 30
0.0
 11
59.3887883169
 21
195.9093866811
 31
0.0
  0
LINE
  5
DE
330
1F
100
AcDbEntity
  8
0
  6
Continuous
 62
     7
370
     0
100
AcDbLine
 10
64.8966235039
 20
224.7962916211
 30
0.0
 11
64.8917294038
 21
224.8264962748
 31
0.0
  0
LINE
  5
DF
330
1F
100
AcDbEntity
  8
0
  6
Continuous
 62
     7
370
     0
100
AcDbLine
 10
66.423552942
 20
247.4620344058
 30
0.0
 11
70.1419812558
 21
248.0646224633
 31
0.0
  0
LINE
  5
E0
330
1F
100
AcDbEntity
  8
0
  6
Continuous
 62
     7
370
     0
100
AcDbLine
 10
74.3487515883
 20
218.3549778477
 30
0.0
 11
74.8450440751
 21
219.0432326809
 31
0.0
  0
LINE
  5
E1
330
1F
100
AcDbEntity
  8
0
  6
Continuous
 62
     7
370
     0
100
AcDbLine
 10
70.2028385294
 20
217.6831124291
 30
0.0
 11
74.3487515883
 21
218.3549778477
 31
0.0
  0
ARC
  5
E2
330
1F
100
AcDbEntity
  8
0
  6
Continuous
 62
     7
370
     0
100
AcDbCircle
 10
70.4427906785
 20
216.2024283088
 30
0.0
 40
1.499999999999998
100
AcDbArc
 50
99.2050467121
 51
189.2050467121
  0
LINE
  5
E3
330
1F
100
AcDbEntity
  8
0
  6
Continuous
 62
     7
370
     0
100
AcDbLine
 10
68.9720622194
 20
215.9010471717
 30
0.0
 11
68.9621073124
 21
215.9624753461
 31
0.0
  0
LINE
  5
E4
330
1F
100
AcDbEntity
  8
0
  6
Continuous
 62
     7
370
     0
100
AcDbLine
 10
70.1419812558
 20
248.0646224633
 30
0.0
 11
74.8450440751
 21
219.0432326809
 31
0.0
  0
LINE
  5
E5
330
1F
100
AcDbEntity
  8
0
  6
Continuous
 62
     7
370
     0
100
AcDbLine
 10
64.8917294038
 20
224.8264962748
 30
0.0
 11
65.192349155
 21
246.2648825661
 31
0.0
  0
LINE
  5
E6
330
1F
100
AcDbEntity
  8
0
  6
Continuous
 62
     7
370
     0
100
AcDbLine
 10
66.423552942
 20
247.4620344058
 30
0.0
 11
65.192349155
 21
246.2648825661
 31
0.0
  0
LWPOLYLINE
  5
E7
330
1F
100
AcDbEntity
  8
0
  6
Continuous
 62
     7
370
     0
100
AcDbPolyline
 90
        9
 70
   128
 43
0.0
 10
94.4871994597
 20
212.1938282565
 10
94.5870130253
 20
211.6703411505
 10
94.6841089917
 20
211.161097692
 10
94.7742461157
 20
210.6883564905
 10
94.853484903
 20
210.2727761433
 10
94.9183608336
 20
209.932521166
 10
94.9660389615
 20
209.6824629173
 10
94.9944368494
 20
209.5335276738
 10
95.0024704379
 20
209.4913946406
  0
LWPOLYLINE
  5
E8
330
1F
100
AcDbEntity
  8
0
  6
Continuous
 62
     7
370
     0
100
AcDbPolyline
 90
        9
 70
   128
 43
0.0
 10
94.0472668899
 20
214.5011445448
 10
94.0474252147
 20
214.5003119424
 10
94.0604171646
 20
214.4321745202
 10
94.0937082214
 20
214.2575757519
 10
94.1458417965
 20
213.9841487572
 10
94.2145417375
 20
213.6238405422
 10
94.2968035979
 20
213.1923997716
 10
94.3890343351
 20
212.7086820022
 10
94.4871994597
 20
212.1938282565
  0
LWPOLYLINE
  5
E9
330
1F
100
AcDbEntity
  8
0
  6
Continuous
 62
     7
370
     0
100
AcDbPolyline
 90
        9
 70
   128
 43
0.0
 10
96.3601487619
 20
202.370790945
 10
96.4599604649
 20
201.8473038391
 10
96.5570582939
 20
201.3380603806
 10
96.6471954179
 20
200.865319179
 10
96.7264323426
 20
200.4497388319
 10
96.7913082731
 20
200.1094838545
 10
96.8389882637
 20
199.8594246746
 10
96.867384289
 20
199.7104903624
 10
96.8754178775
 20
199.6683573291
  0
LWPOLYLINE
  5
EA
330
1F
100
AcDbEntity
  8
0
  6
Continuous
 62
     7
370
     0
100
AcDbPolyline
 90
        9
 70
   128
 43
0.0
 10
95.9202143294
 20
204.6781063021
 10
95.9203726543
 20
204.677274631
 10
95.9333646042
 20
204.6091372088
 10
95.9666556609
 20
204.4345393718
 10
96.018789236
 20
204.1611105145
 10
96.0874891771
 20
203.8008022994
 10
96.1697510374
 20
203.3693615288
 10
96.2619817746
 20
202.8856446907
 10
96.3601487619
 20
202.370790945
  0
LWPOLYLINE
  5
EB
330
1F
100
AcDbEntity
  8
0
  6
Continuous
 62
     7
370
     0
100
AcDbPolyline
 90
       17
 70
   128
 43
0.0
 10
59.9424260599
 20
209.4913946406
 10
59.9424539996
 20
209.4915417895
 10
59.9539670093
 20
209.5519287453
 10
59.9858499063
 20
209.7191458509
 10
60.0367094321
 20
209.9858822242
 10
60.1043197257
 20
210.3404832945
 10
60.1857284946
 20
210.7674499915
 10
60.2773780865
 20
211.248122336
 10
60.3752619518
 20
211.7614915535
 10
60.4751015944
 20
212.2851220832
 10
60.5725346995
 20
212.7961294666
 10
60.6633032603
 20
213.2721768633
 10
60.7434379799
 20
213.6924622521
 10
60.8094389481
 20
214.0386162267
 10
60.8584209276
 20
214.2955085204
 10
60.8882418764
 20
214.4519148335
 10
60.897629608
 20
214.5011445448
  0
LWPOLYLINE
  5
EC
330
1F
100
AcDbEntity
  8
0
  6
Continuous
 62
     7
370
     0
100
AcDbPolyline
 90
       17
 70
   128
 43
0.0
 10
58.0694767577
 20
199.6683573291
 10
58.0696574343
 20
199.6693026215
 10
58.0828170223
 20
199.7383229375
 10
58.1162682665
 20
199.9137608275
 10
58.1685471279
 20
200.1879487128
 10
58.2373700035
 20
200.5489032656
 10
58.3197287214
 20
200.9808478818
 10
58.4120227886
 20
201.4649065152
 10
58.5102214409
 20
201.9799213797
 10
58.6100294185
 20
202.5033852026
 10
58.7070862693
 20
203.0124200449
 10
58.7971507502
 20
203.4847775415
 10
58.8762852294
 20
203.8998149276
 10
58.9410307748
 20
204.2393919021
 10
58.9885598911
 20
204.4886678398
 10
59.0167957289
 20
204.6367490605
 10
59.0246803058
 20
204.6781063021
  0
LINE
  5
ED
330
1F
100
AcDbEntity
  8
0
  6
Continuous
 62
     7
370
     0
100
AcDbLine
 10
79.015646379
 20
154.2010458127
 30
0.0
 11
79.015646379
 21
156.9010468141
 31
0.0
  0
SPLINE
  5
EE
330
1F
100
AcDbEntity
  8
0
  6
Continuous
 62
     7
370
     0
100
AcDbSpline
210
0.0
220
0.0
230
1.0
 70
     8
 71
     3
 72
     8
 73
     4
 74
     0
 42
0.000000001
 43
0.00000001
 40
0.0
 40
0.0
 40
0.0
 40
0.0
 40
1.0
 40
1.0
 40
1.0
 40
1.0
 10
77.43773243567205
 20
153.9010476545189
 30
0.0
 10
77.9827147653028
 20
153.9010476544944
 30
0.0
 10
78.50620638629401
 20
154.0140911326936
 30
0.0
 10
79.01564639009487
 20
154.201047654362
 30
0.0
  0
SPLINE
  5
EF
330
1F
100
AcDbEntity
  8
0
  6
Continuous
 62
     7
370
     0
100
AcDbSpline
210
0.0
220
0.0
230
1.0
 70
     8
 71
     3
 72
     8
 73
     4
 74
     0
 42
0.000000001
 43
0.00000001
 40
0.0
 40
0.0
 40
0.0
 40
0.0
 40
1.0
 40
1.0
 40
1.0
 40
1.0
 10
75.85981848129187
 20
154.2010476544782
 30
0.0
 10
76.3692584850182
 20
154.0140911328046
 30
0.0
 10
76.89275010610943
 20
153.9010476545433
 30
0.0
 10
77.43773243567205
 20
153.9010476545189
 30
0.0
  0
LINE
  5
F0
330
1F
100
AcDbEntity
  8
0
  6
Continuous
 62
     7
370
     0
100
AcDbLine
 10
75.8598185075
 20
156.9010468141
 30
0.0
 11
75.8598185075
 21
154.2010458127
 31
0.0
  0
LINE
  5
F1
330
1F
100
AcDbEntity
  8
0
  6
Continuous
 62
     7
370
     0
100
AcDbLine
 10
79.015646379
 20
154.2010458127
 30
0.0
 11
80.118244181
 21
154.2010458127
 31
0.0
  0
SPLINE
  5
F2
330
1F
100
AcDbEntity
  8
0
  6
Continuous
 62
     7
370
     0
100
AcDbSpline
210
0.0
220
0.0
230
1.0
 70
     8
 71
     3
 72
     8
 73
     4
 74
     0
 42
0.000000001
 43
0.00000001
 40
0.0
 40
0.0
 40
0.0
 40
0.0
 40
1.0
 40
1.0
 40
1.0
 40
1.0
 10
80.11824407889735
 20
154.2010476543807
 30
0.0
 10
80.37679321693973
 20
154.0140911326979
 30
0.0
 10
80.6424737807937
 20
153.9010476544098
 30
0.0
 10
80.91906123079184
 20
153.9010476543996
 30
0.0
  0
LINE
  5
F3
330
1F
100
AcDbEntity
  8
0
  6
Continuous
 62
     7
370
     0
100
AcDbLine
 10
77.4377324433
 20
153.901048185
 30
0.0
 11
80.9190612217
 21
153.901048185
 31
0.0
  0
LINE
  5
F4
330
1F
100
AcDbEntity
  8
0
  6
Continuous
 62
     7
370
     0
100
AcDbLine
 10
74.7682157835
 20
154.2010458127
 30
0.0
 11
75.8598185075
 21
154.2010458127
 31
0.0
  0
LINE
  5
F5
330
1F
100
AcDbEntity
  8
0
  6
Continuous
 62
     7
370
     0
100
AcDbLine
 10
73.9911188302
 20
153.901048185
 30
0.0
 11
77.4377324433
 21
153.901048185
 31
0.0
  0
SPLINE
  5
F6
330
1F
100
AcDbEntity
  8
0
  6
Continuous
 62
     7
370
     0
100
AcDbSpline
210
0.0
220
0.0
230
1.0
 70
     8
 71
     3
 72
     8
 73
     4
 74
     0
 42
0.000000001
 43
0.00000001
 40
0.0
 40
0.0
 40
0.0
 40
0.0
 40
1.0
 40
1.0
 40
1.0
 40
1.0
 10
73.9911189285033
 20
153.9010476544146
 30
0.0
 10
74.25951380811442
 20
153.9010476543752
 30
0.0
 10
74.51732486542633
 20
154.0140911325892
 30
0.0
 10
74.76821573115654
 20
154.2010476542645
 30
0.0
  0
LINE
  5
F7
330
1F
100
AcDbEntity
  8
0
  6
Continuous
 62
     7
370
     0
100
AcDbLine
 10
80.118244181
 20
156.9010468141
 30
0.0
 11
80.118244181
 21
154.2010458127
 31
0.0
  0
LINE
  5
F8
330
1F
100
AcDbEntity
  8
0
  6
Continuous
 62
     7
370
     0
100
AcDbLine
 10
74.7682157835
 20
154.2010458127
 30
0.0
 11
74.7682157835
 21
156.9010468141
 31
0.0
  0
LINE
  5
F9
330
1F
100
AcDbEntity
  8
0
  6
Continuous
 62
     7
370
     0
100
AcDbLine
 10
81.7198784953
 20
154.2010458127
 30
0.0
 11
81.7198784953
 21
156.9010468141
 31
0.0
  0
SPLINE
  5
FA
330
1F
100
AcDbEntity
  8
0
  6
Continuous
 62
     7
370
     0
100
AcDbSpline
210
0.0
220
0.0
230
1.0
 70
     8
 71
     3
 72
     8
 73
     4
 74
     0
 42
0.000000001
 43
0.00000001
 40
0.0
 40
0.0
 40
0.0
 40
0.0
 40
1.0
 40
1.0
 40
1.0
 40
1.0
 10
80.9190612307632
 20
153.9010476544147
 30
0.0
 10
81.19564868071511
 20
153.9010476544053
 30
0.0
 10
81.46132924441248
 20
154.0140911325436
 30
0.0
 10
81.71987838242502
 20
154.2010476541367
 30
0.0
  0
SPLINE
  5
FB
330
1F
100
AcDbEntity
  8
0
  6
Continuous
 62
     7
370
     0
100
AcDbSpline
210
0.0
220
0.0
230
1.0
 70
     8
 71
     3
 72
     8
 73
     4
 74
     0
 42
0.000000001
 43
0.00000001
 40
0.0
 40
0.0
 40
0.0
 40
0.0
 40
1.0
 40
1.0
 40
1.0
 40
1.0
 10
73.2140221260875
 20
154.2010476542528
 30
0.0
 10
73.46491299174528
 20
154.0140911326347
 30
0.0
 10
73.72272404893589
 20
153.9010476544397
 30
0.0
 10
73.99111892846878
 20
153.9010476543995
 30
0.0
  0
LINE
  5
FC
330
1F
100
AcDbEntity
  8
0
  6
Continuous
 62
     7
370
     0
100
AcDbLine
 10
73.2140223426
 20
156.9010468141
 30
0.0
 11
73.2140223426
 21
154.2010458127
 31
0.0
  0
LINE
  5
FD
330
1F
100
AcDbEntity
  8
0
  6
Continuous
 62
     7
370
     0
100
AcDbLine
 10
81.7198784953
 20
154.2010458127
 30
0.0
 11
81.7724476965
 21
154.2010458127
 31
0.0
  0
LINE
  5
FE
330
1F
100
AcDbEntity
  8
0
  6
Continuous
 62
     7
370
     0
100
AcDbLine
 10
80.9190612217
 20
153.901048185
 30
0.0
 11
81.4724477404
 21
153.901048185
 31
0.0
  0
LINE
  5
FF
330
1F
100
AcDbEntity
  8
0
  6
Continuous
 62
     7
370
     0
100
AcDbLine
 10
73.1724476372
 20
154.2010458127
 30
0.0
 11
73.2140223426
 21
154.2010458127
 31
0.0
  0
LINE
  5
100
330
1F
100
AcDbEntity
  8
0
  6
Continuous
 62
     7
370
     0
100
AcDbLine
 10
73.4724475933
 20
153.901048185
 30
0.0
 11
73.9911188302
 21
153.901048185
 31
0.0
  0
LINE
  5
101
330
1F
100
AcDbEntity
  8
0
  6
Continuous
 62
     7
370
     0
100
AcDbLine
 10
77.4568258366
 20
148.9010492281
 30
0.0
 11
79.2724477523
 21
148.9010492281
 31
0.0
  0
LINE
  5
102
330
1F
100
AcDbEntity
  8
0
  6
Continuous
 62
     7
370
     0
100
AcDbLine
 10
75.6724478142
 20
148.9010492281
 30
0.0
 11
77.4568258366
 21
148.9010492281
 31
0.0
  0
LINE
  5
103
330
1F
100
AcDbEntity
  8
0
  6
Continuous
 62
     7
370
     0
100
AcDbLine
 10
77.4594294653
 20
146.9010489002
 30
0.0
 11
78.9724477381
 21
146.9010489002
 31
0.0
  0
LINE
  5
104
330
1F
100
AcDbEntity
  8
0
  6
Continuous
 62
     7
370
     0
100
AcDbLine
 10
75.9724477702
 20
146.9010489002
 30
0.0
 11
77.4594294653
 21
146.9010489002
 31
0.0
  0
LINE
  5
105
330
1F
100
AcDbEntity
  8
0
  6
Continuous
 62
     7
370
     0
100
AcDbLine
 10
77.4568258366
 20
151.4010468439
 30
0.0
 11
79.2724477523
 21
151.4010468439
 31
0.0
  0
LINE
  5
106
330
1F
100
AcDbEntity
  8
0
  6
Continuous
 62
     7
370
     0
100
AcDbLine
 10
75.6724478142
 20
151.4010468439
 30
0.0
 11
77.4568258366
 21
151.4010468439
 31
0.0
  0
LINE
  5
107
330
1F
100
AcDbEntity
  8
0
  6
Continuous
 62
     7
370
     0
100
AcDbLine
 10
75.6724478142
 20
151.9010478572
 30
0.0
 11
79.2723798822
 21
151.9010478572
 31
0.0
  0
LINE
  5
108
330
1F
100
AcDbEntity
  8
0
  6
Continuous
 62
     7
370
     0
100
AcDbLine
 10
75.6724478142
 20
149.4010465161
 30
0.0
 11
79.2723798822
 21
149.4010465161
 31
0.0
  0
LINE
  5
109
330
1F
100
AcDbEntity
  8
0
  6
Continuous
 62
     7
370
     0
100
AcDbLine
 10
93.2683654991
 20
244.6666622475
 30
0.0
 11
95.4400337232
 21
244.314734073
 31
0.0
  0
LINE
  5
10A
330
1F
100
AcDbEntity
  8
0
  6
Continuous
 62
     7
370
     0
100
AcDbLine
 10
90.6210885314
 20
226.455625327
 30
0.0
 11
90.324952167
 21
226.5036145166
 31
0.0
  0
LINE
  5
10B
330
1F
100
AcDbEntity
  8
0
  6
Continuous
 62
     7
370
     0
100
AcDbLine
 10
90.6210885314
 20
226.455625327
 30
0.0
 11
90.8450436709
 21
227.837596269
 31
0.0
  0
LINE
  5
10C
330
1F
100
AcDbEntity
  8
0
  6
Continuous
 62
     7
370
     0
100
AcDbLine
 10
92.3085565609
 20
238.7439312354
 30
0.0
 11
93.2683654991
 21
244.6666622475
 31
0.0
  0
LINE
  5
10D
330
1F
100
AcDbEntity
  8
0
  6
Continuous
 62
     7
370
     0
100
AcDbLine
 10
90.2289709938
 20
225.9113417879
 30
0.0
 11
95.6581438822
 21
225.0315176264
 31
0.0
  0
LINE
  5
10E
330
1F
100
AcDbEntity
  8
0
  6
Continuous
 62
     7
370
     0
100
AcDbLine
 10
95.6581438822
 20
225.0315176264
 30
0.0
 11
95.9780792636
 21
227.0057612971
 31
0.0
  0
LINE
  5
10F
330
1F
100
AcDbEntity
  8
0
  6
Continuous
 62
     7
370
     0
100
AcDbLine
 10
95.4981743289
 20
224.0443939284
 30
0.0
 11
92.783588816
 21
224.4843060092
 31
0.0
  0
LINE
  5
110
330
1F
100
AcDbEntity
  8
0
  6
Continuous
 62
     7
370
     0
100
AcDbLine
 10
92.783588816
 20
224.4843060092
 30
0.0
 11
92.943557438
 21
225.4714297072
 31
0.0
  0
LINE
  5
111
330
1F
100
AcDbEntity
  8
0
  6
Continuous
 62
     7
370
     0
100
AcDbLine
 10
95.4981743289
 20
224.0443939284
 30
0.0
 11
95.6581438822
 21
225.0315176264
 31
0.0
  0
LWPOLYLINE
  5
112
330
1F
100
AcDbEntity
  8
0
  6
Continuous
 62
     7
370
     0
100
AcDbPolyline
 90
        8
 70
   128
 43
0.0
 10
92.783588816
 20
224.4843060092
 10
92.3111214233
 20
224.5608719007
 10
91.8661122141
 20
224.6329897956
 10
91.4744230849
 20
224.696465017
 10
91.1588174222
 20
224.7476095275
 10
90.9376385552
 20
224.7834542707
 10
90.8237387357
 20
224.8019093588
 10
90.809344214
 20
224.8042451159
  0
LWPOLYLINE
  5
113
330
1F
100
AcDbEntity
  8
0
  6
Continuous
 62
     7
370
     0
100
AcDbPolyline
 90
       12
 70
   128
 43
0.0
 10
93.8949807478
 20
222.2781108633
 10
93.8370003296
 20
222.2875060455
 10
93.6677613226
 20
222.3149316326
 10
93.4009727953
 20
222.3581636265
 10
93.0582479504
 20
222.4137039796
 10
92.6673513768
 20
222.4770525411
 10
92.2599536297
 20
222.5430721358
 10
91.8690579874
 20
222.6064206973
 10
91.5263331426
 20
222.6619610504
 10
91.2595436839
 20
222.7051930443
 10
91.090304677
 20
222.7326223568
 10
91.0323251901
 20
222.7420175389
  0
LINE
  5
114
330
1F
100
AcDbEntity
  8
0
  6
Continuous
 62
     7
370
     0
100
AcDbLine
 10
90.4724475858
 20
184.3370065965
 30
0.0
 11
90.9749817965
 21
184.255568491
 31
0.0
  0
LINE
  5
115
330
1F
100
AcDbEntity
  8
0
  6
Continuous
 62
     7
370
     0
100
AcDbLine
 10
90.9749817965
 20
184.255568491
 30
0.0
 11
90.4724475858
 21
183.8931964651
 31
0.0
  0
LINE
  5
116
330
1F
100
AcDbEntity
  8
0
  6
Continuous
 62
     7
370
     0
100
AcDbLine
 10
92.6974638296
 20
194.8845625796
 30
0.0
 11
90.4724475858
 21
206.5540889219
 31
0.0
  0
LINE
  5
117
330
1F
100
AcDbEntity
  8
0
  6
Continuous
 62
     7
370
     0
100
AcDbLine
 10
90.9749817965
 20
184.255568491
 30
0.0
 11
92.6974638296
 21
194.8845625796
 31
0.0
  0
LINE
  5
118
330
1F
100
AcDbEntity
  8
0
  6
Continuous
 62
     7
370
     0
100
AcDbLine
 10
94.0835214151
 20
195.6238776386
 30
0.0
 11
94.0826515598
 21
195.6284443789
 31
0.0
  0
LINE
  5
119
330
1F
100
AcDbEntity
  8
0
  6
Continuous
 62
     7
370
     0
100
AcDbLine
 10
92.6100666565
 20
195.3429358021
 30
0.0
 11
94.0835214151
 21
195.6238776386
 31
0.0
  0
LINE
  5
11A
330
1F
100
AcDbEntity
  8
0
  6
Continuous
 62
     7
370
     0
100
AcDbLine
 10
63.96991377
 20
184.255568491
 30
0.0
 11
64.4724479807
 21
184.3370065965
 31
0.0
  0
LINE
  5
11B
330
1F
100
AcDbEntity
  8
0
  6
Continuous
 62
     7
370
     0
100
AcDbLine
 10
63.96991377
 20
184.255568491
 30
0.0
 11
62.2474308056
 21
194.8845625796
 31
0.0
  0
LINE
  5
11C
330
1F
100
AcDbEntity
  8
0
  6
Continuous
 62
     7
370
     0
100
AcDbLine
 10
62.2474308056
 20
194.8845625796
 30
0.0
 11
64.4724479807
 21
206.5540889219
 31
0.0
  0
LINE
  5
11D
330
1F
100
AcDbEntity
  8
0
  6
Continuous
 62
     7
370
     0
100
AcDbLine
 10
63.96991377
 20
184.255568491
 30
0.0
 11
64.4724479807
 21
183.8931964651
 31
0.0
  0
LINE
  5
11E
330
1F
100
AcDbEntity
  8
0
  6
Continuous
 62
     7
370
     0
100
AcDbLine
 10
62.3348298413
 20
195.3429358021
 30
0.0
 11
60.8613732202
 21
195.6238776386
 31
0.0
  0
LINE
  5
11F
330
1F
100
AcDbEntity
  8
0
  6
Continuous
 62
     7
370
     0
100
AcDbLine
 10
60.8613732202
 20
195.6238776386
 30
0.0
 11
60.8622449381
 21
195.6284443789
 31
0.0
  0
SPLINE
  5
120
330
1F
100
AcDbEntity
  8
0
  6
Continuous
 62
     7
370
     0
100
AcDbSpline
210
0.0
220
0.0
230
1.0
 70
     8
 71
     3
 72
    14
 73
    10
 74
     0
 42
0.000000001
 43
0.00000001
 40
0.0
 40
0.0
 40
0.0
 40
0.0
 40
0.125000000000002
 40
0.125000000000002
 40
0.2500000000000041
 40
0.2500000000000041
 40
0.500000000000002
 40
0.500000000000002
 40
1.0
 40
1.0
 40
1.0
 40
1.0
 10
88.14628855175661
 20
245.1564407783807
 30
0.0
 10
88.12410084774
 20
245.1666008851969
 30
0.0
 10
88.10409750053286
 20
245.1694531762222
 30
0.0
 10
88.07385371760242
 20
245.1704897824111
 30
0.0
 10
88.06200650229479
 20
245.1688526339602
 30
0.0
 10
88.03045836768644
 20
245.1618854753002
 30
0.0
 10
88.01486804026382
 20
245.1541713316112
 30
0.0
 10
87.97573219246144
 20
245.1286148800732
 30
0.0
 10
87.95954717528782
 20
245.1076698773322
 30
0.0
 10
87.94870685784636
 20
245.0851728242191
 30
0.0
  0
SPLINE
  5
121
330
1F
100
AcDbEntity
  8
0
  6
Continuous
 62
     7
370
     0
100
AcDbSpline
210
0.0
220
0.0
230
1.0
 70
     8
 71
     3
 72
    14
 73
    10
 74
     0
 42
0.000000001
 43
0.00000001
 40
0.0
 40
0.0
 40
0.0
 40
0.0
 40
0.4999999999999994
 40
0.4999999999999994
 40
0.7499999999999959
 40
0.7499999999999959
 40
0.8749999999999979
 40
0.8749999999999979
 40
1.0
 40
1.0
 40
1.0
 40
1.0
 10
87.51118787155018
 20
245.0851728242191
 30
0.0
 10
87.50034181499905
 20
245.1076817877818
 30
0.0
 10
87.48415174910998
 20
245.1286890760063
 30
0.0
 10
87.44469289366336
 20
245.1543552957052
 30
0.0
 10
87.42909713937362
 20
245.1620194333884
 30
0.0
 10
87.39746522147524
 20
245.1689156919781
 30
0.0
 10
87.38551248843751
 20
245.1705135095528
 30
0.0
 10
87.35547949911945
 20
245.1693992479638
 30
0.0
 10
87.33550420426472
 20
245.1664682372563
 30
0.0
 10
87.31360617763991
 20
245.1564407783807
 30
0.0
  0
ARC
  5
122
330
1F
100
AcDbEntity
  8
0
  6
Continuous
 62
     7
370
     0
100
AcDbCircle
 10
87.7299473647
 20
244.2472323227
 30
0.0
 40
0.8660254037844181
100
AcDbArc
 50
104.6315212283
 51
75.3684787717
  0
ARC
  5
123
330
1F
100
AcDbEntity
  8
0
  6
Continuous
 62
     7
370
     0
100
AcDbCircle
 10
87.4014453227
 20
244.9214625566
 30
0.0
 40
0.1500000000000364
100
AcDbArc
 50
295.9765162648
 51
14.439557232
  0
ARC
  5
124
330
1F
100
AcDbEntity
  8
0
  6
Continuous
 62
     7
370
     0
100
AcDbCircle
 10
87.7299473647
 20
244.2472323227
 30
0.0
 40
0.5999999999999676
100
AcDbArc
 50
115.9765162648
 51
64.0234837352
  0
ARC
  5
125
330
1F
100
AcDbEntity
  8
0
  6
Continuous
 62
     7
370
     0
100
AcDbCircle
 10
88.0584494067
 20
244.9214625566
 30
0.0
 40
0.150000000000024
100
AcDbArc
 50
165.560442768
 51
244.0234837352
  0
LINE
  5
126
330
1F
100
AcDbEntity
  8
0
  6
Continuous
 62
     7
370
     0
100
AcDbLine
 10
87.9131880519
 20
244.958866568
 30
0.0
 11
87.9385759053
 21
245.0574638263
 31
0.0
  0
LINE
  5
127
330
1F
100
AcDbEntity
  8
0
  6
Continuous
 62
     7
370
     0
100
AcDbLine
 10
87.5213191775
 20
245.0574638263
 30
0.0
 11
87.5467070309
 21
244.958866568
 31
0.0
  0
ARC
  5
128
330
1F
100
AcDbEntity
  8
0
  6
Continuous
 62
     7
370
     0
100
AcDbCircle
 10
87.3760573557
 20
245.02005951
 30
0.0
 40
0.1500000000000167
100
AcDbArc
 50
14.439557232
 51
25.7273245114
  0
ARC
  5
129
330
1F
100
AcDbEntity
  8
0
  6
Continuous
 62
     7
370
     0
100
AcDbCircle
 10
88.0838373737
 20
245.02005951
 30
0.0
 40
0.1499999999999958
100
AcDbArc
 50
154.2726754886
 51
165.560442768
  0
SPLINE
  5
12A
330
1F
100
AcDbEntity
  8
0
  6
Continuous
 62
     7
370
     0
100
AcDbSpline
210
0.0
220
0.0
230
1.0
 70
     8
 71
     3
 72
    14
 73
    10
 74
     0
 42
0.000000001
 43
0.00000001
 40
0.0
 40
0.0
 40
0.0
 40
0.0
 40
0.1249999999999993
 40
0.1249999999999993
 40
0.2499999999999987
 40
0.2499999999999987
 40
0.5000000000000016
 40
0.5000000000000016
 40
1.0
 40
1.0
 40
1.0
 40
1.0
 10
83.962478736059
 20
226.0642302614079
 30
0.0
 10
83.93972237363587
 20
226.0744885105813
 30
0.0
 10
83.91802156642817
 20
226.0790509380808
 30
0.0
 10
83.8839967166045
 20
226.082595414937
 30
0.0
 10
83.8699666308273
 20
226.0820181625069
 30
0.0
 10
83.83298542151289
 20
226.0778034720879
 30
0.0
 10
83.81415878528016
 20
226.0714977794598
 30
0.0
 10
83.76523687682803
 20
226.0493659269174
 30
0.0
 10
83.74311972098327
 20
226.0299821174332
 30
0.0
 10
83.72580520477699
 20
226.0089251586335
 30
0.0
  0
ARC
  5
12B
330
1F
100
AcDbEntity
  8
0
  6
Continuous
 62
     7
370
     0
100
AcDbCircle
 10
83.3460380353
 20
224.696750513
 30
0.0
 40
1.366025403784431
100
AcDbArc
 50
106.1414033176
 51
73.8585966824
  0
SPLINE
  5
12C
330
1F
100
AcDbEntity
  8
0
  6
Continuous
 62
     7
370
     0
100
AcDbSpline
210
0.0
220
0.0
230
1.0
 70
     8
 71
     3
 72
    14
 73
    10
 74
     0
 42
0.000000001
 43
0.00000001
 40
0.0
 40
0.0
 40
0.0
 40
0.0
 40
0.5000000000000027
 40
0.5000000000000027
 40
0.7500000000000013
 40
0.7500000000000013
 40
0.8750000000000007
 40
0.8750000000000007
 40
1.0
 40
1.0
 40
1.0
 40
1.0
 10
82.96627086578715
 20
226.0089251586334
 30
0.0
 10
82.94896374105731
 20
226.0299731283274
 30
0.0
 10
82.92685691912236
 20
226.0493001004725
 30
0.0
 10
82.87831162227964
 20
226.0713479301066
 30
0.0
 10
82.85955740584696
 20
226.0777239208354
 30
0.0
 10
82.82218599331796
 20
226.0820224524328
 30
0.0
 10
82.80820864609822
 20
226.0825877067585
 30
0.0
 10
82.77441502951851
 20
226.0791093673511
 30
0.0
 10
82.75250042628076
 20
226.0745546541165
 30
0.0
 10
82.72959733450513
 20
226.0642302614079
 30
0.0
  0
LINE
  5
12D
330
1F
100
AcDbEntity
  8
0
  6
Continuous
 62
     7
370
     0
100
AcDbLine
 10
83.6335591902
 20
225.739501597
 30
0.0
 11
83.687481836
 21
225.9350607113
 31
0.0
  0
LINE
  5
12E
330
1F
100
AcDbEntity
  8
0
  6
Continuous
 62
     7
370
     0
100
AcDbLine
 10
83.0045942148
 20
225.9350607113
 30
0.0
 11
83.0585168605
 21
225.739501597
 31
0.0
  0
ARC
  5
12F
330
1F
100
AcDbEntity
  8
0
  6
Continuous
 62
     7
370
     0
100
AcDbCircle
 10
82.8657118046
 20
225.6863396762
 30
0.0
 40
0.1999999999999911
100
AcDbArc
 50
295.8909827371
 51
15.4153010407
  0
ARC
  5
130
330
1F
100
AcDbEntity
  8
0
  6
Continuous
 62
     7
370
     0
100
AcDbCircle
 10
83.826364266
 20
225.6863396762
 30
0.0
 40
0.2000000000000124
100
AcDbArc
 50
164.5846989593
 51
244.1090172629
  0
ARC
  5
131
330
1F
100
AcDbEntity
  8
0
  6
Continuous
 62
     7
370
     0
100
AcDbCircle
 10
83.3460380353
 20
224.696750513
 30
0.0
 40
0.8999999999999851
100
AcDbArc
 50
115.8909827371
 51
64.1090172629
  0
ARC
  5
132
330
1F
100
AcDbEntity
  8
0
  6
Continuous
 62
     7
370
     0
100
AcDbCircle
 10
83.8802866426
 20
225.8818996283
 30
0.0
 40
0.2000000000000059
100
AcDbArc
 50
140.5705471975
 51
164.5846989593
  0
ARC
  5
133
330
1F
100
AcDbEntity
  8
0
  6
Continuous
 62
     7
370
     0
100
AcDbCircle
 10
82.8117894279
 20
225.8818996283
 30
0.0
 40
0.1999999999999972
100
AcDbArc
 50
15.4153010407
 51
39.4294528025
  0
SPLINE
  5
134
330
1F
100
AcDbEntity
  8
0
  6
Continuous
 62
     7
370
     0
100
AcDbSpline
210
0.0
220
0.0
230
1.0
 70
    24
 71
     3
 72
     8
 73
     4
 74
     0
 42
0.000000001
 43
0.00000001
 40
0.0
 40
0.0
 40
0.0
 40
0.0
 40
1.0
 40
1.0
 40
1.0
 40
1.0
 10
89.29086686268646
 20
231.0222234039598
 30
0.0
 10
89.30515672767244
 20
231.0604279266545
 30
0.0
 10
89.3199026000616
 20
231.099851603288
 30
0.0
 10
89.335710733756
 20
231.1421152777932
 30
0.0
  0
ARC
  5
135
330
1F
100
AcDbEntity
  8
0
  6
Continuous
 62
     7
370
     0
100
AcDbCircle
 10
89.1345515159
 20
231.6604500818
 30
0.0
 40
0.5560000000000032
100
AcDbArc
 50
291.2106065229
 51
297.7741857596
  0
SPLINE
  5
136
330
1F
100
AcDbEntity
  8
0
  6
Continuous
 62
     7
370
     0
100
AcDbSpline
210
0.0
220
0.0
230
1.0
 70
    24
 71
     3
 72
     8
 73
     4
 74
     0
 42
0.000000001
 43
0.00000001
 40
0.0
 40
0.0
 40
0.0
 40
0.0
 40
1.0
 40
1.0
 40
1.0
 40
1.0
 10
89.51353274594284
 20
231.1236624075706
 30
0.0
 10
89.47532822324817
 20
231.1379522725566
 30
0.0
 10
89.43590454661454
 20
231.1526981449457
 30
0.0
 10
89.39364087210944
 20
231.1685062786402
 30
0.0
  0
ARC
  5
137
330
1F
100
AcDbEntity
  8
0
  6
Continuous
 62
     7
370
     0
100
AcDbCircle
 10
89.1345515159
 20
231.6604500818
 30
0.0
 40
0.6570903894995055
100
AcDbArc
 50
283.7620500869
 51
305.2227421956
  0
ARC
  5
138
330
1F
100
AcDbEntity
  8
0
  6
Continuous
 62
     7
370
     0
100
AcDbCircle
 10
86.461288249
 20
224.5134096913
 30
0.0
 40
8.83766631397485
100
AcDbArc
 50
67.0928511964
 51
71.8917778274
  0
LWPOLYLINE
  5
139
330
1F
100
AcDbEntity
  8
0
  6
Continuous
 62
     7
370
     0
100
AcDbPolyline
 90
        9
 70
   128
 43
0.0
 10
89.2081483198
 20
232.9133564547
 10
89.1799329711
 20
232.8379193262
 10
89.1515416024
 20
232.7620165363
 10
89.1229891149
 20
232.6856778875
 10
89.0942866845
 20
232.6089406327
 10
89.0654464183
 20
232.5318382994
 10
89.0364832175
 20
232.4544006899
 10
89.0074082581
 20
232.3766725079
 10
88.9782364411
 20
232.2986761049
  0
ARC
  5
13A
330
1F
100
AcDbEntity
  8
0
  6
Continuous
 62
     7
370
     0
100
AcDbCircle
 10
89.1345515159
 20
231.6604500818
 30
0.0
 40
0.6570903894995096
100
AcDbArc
 50
103.7620500869
 51
125.2227421956
  0
LWPOLYLINE
  5
13B
330
1F
100
AcDbEntity
  8
0
  6
Continuous
 62
     7
370
     0
100
AcDbPolyline
 90
        9
 70
   128
 43
0.0
 10
88.755570252
 20
232.1972364501
 10
88.677576643
 20
232.2264091984
 10
88.5998447356
 20
232.2554850892
 10
88.5224099202
 20
232.2844492212
 10
88.4453057242
 20
232.3132866934
 10
88.368567538
 20
232.3419900552
 10
88.2922298206
 20
232.3705444053
 10
88.2163270307
 20
232.3989348427
 10
88.1408908335
 20
232.4271501914
  0
ARC
  5
13C
330
1F
100
AcDbEntity
  8
0
  6
Continuous
 62
     7
370
     0
100
AcDbCircle
 10
96.281506849
 20
228.9872482232
 30
0.0
 40
8.83756497364441
100
AcDbArc
 50
157.0930057253
 51
161.891994504
  0
LWPOLYLINE
  5
13D
330
1F
100
AcDbEntity
  8
0
  6
Continuous
 62
     7
370
     0
100
AcDbPolyline
 90
        9
 70
   128
 43
0.0
 10
87.881646019
 20
231.7340450302
 10
87.9570812849
 20
231.7058296815
 10
88.032985006
 20
231.6774392441
 10
88.1093227235
 20
231.6488886193
 10
88.1860599784
 20
231.6201852575
 10
88.2631641743
 20
231.5913440601
 10
88.3405989898
 20
231.562379928
 10
88.4183308972
 20
231.5333077625
 10
88.4963245062
 20
231.5041350142
  0
ARC
  5
13E
330
1F
100
AcDbEntity
  8
0
  6
Continuous
 62
     7
370
     0
100
AcDbCircle
 10
89.1345515159
 20
231.6604500818
 30
0.0
 40
0.6570903894995159
100
AcDbArc
 50
193.7620500869
 51
215.2227421956
  0
LWPOLYLINE
  5
13F
330
1F
100
AcDbEntity
  8
0
  6
Continuous
 62
     7
370
     0
100
AcDbPolyline
 90
        9
 70
   128
 43
0.0
 10
88.597764161
 20
231.2814706877
 10
88.5685914127
 20
231.2034742848
 10
88.5395164532
 20
231.1257423774
 10
88.5105532525
 20
231.0483084932
 10
88.4817139176
 20
230.9712061599
 10
88.4530114872
 20
230.8944651798
 10
88.4244580684
 20
230.8181302563
 10
88.396067631
 20
230.7422237412
 10
88.367851351
 20
230.6667903379
  0
ARC
  5
140
330
1F
100
AcDbEntity
  8
0
  6
Continuous
 62
     7
370
     0
100
AcDbCircle
 10
91.8078147203
 20
238.8074904242
 30
0.0
 40
8.837666313974905
100
AcDbArc
 50
247.0928511964
 51
251.8917778274
  0
LWPOLYLINE
  5
141
330
1F
100
AcDbEntity
  8
0
  6
Continuous
 62
     7
370
     0
100
AcDbPolyline
 90
        9
 70
   128
 43
0.0
 10
89.5135327173
 20
231.1236636654
 10
89.5915263263
 20
231.0944909171
 10
89.6692582337
 20
231.0654150263
 10
89.7466939805
 20
231.0364508942
 10
89.8237972451
 20
231.007613422
 10
89.9005354313
 20
230.9789100603
 10
89.9768731487
 20
230.9503557101
 10
90.0527759386
 20
230.9219652728
 10
90.1282121358
 20
230.8937499241
  0
ARC
  5
142
330
1F
100
AcDbEntity
  8
0
  6
Continuous
 62
     7
370
     0
100
AcDbCircle
 10
81.98800709
 20
234.3334981757
 30
0.0
 40
8.83712658177583
100
AcDbArc
 50
337.0928866217
 51
341.8921136077
  0
LWPOLYLINE
  5
143
330
1F
100
AcDbEntity
  8
0
  6
Continuous
 62
     7
370
     0
100
AcDbPolyline
 90
        9
 70
   128
 43
0.0
 10
90.3874569503
 20
231.5868550852
 10
90.3120216844
 20
231.615070434
 10
90.2361179633
 20
231.6434608713
 10
90.1597802458
 20
231.6720114962
 10
90.0830429909
 20
231.7007148579
 10
90.005938795
 20
231.7295560554
 10
89.9285039795
 20
231.7585201875
 10
89.8507720721
 20
231.787592353
 10
89.7727784631
 20
231.8167651013
  0
ARC
  5
144
330
1F
100
AcDbEntity
  8
0
  6
Continuous
 62
     7
370
     0
100
AcDbCircle
 10
89.1345515159
 20
231.6604500818
 30
0.0
 40
0.6570903894995227
100
AcDbArc
 50
13.7620500869
 51
35.2227421956
  0
CIRCLE
  5
145
330
1F
100
AcDbEntity
  8
0
  6
Continuous
 62
     7
370
     0
100
AcDbCircle
 10
89.1345515159
 20
231.6604500818
 30
0.0
 40
2.404255319148936
  0
LWPOLYLINE
  5
146
330
1F
100
AcDbEntity
  8
0
  6
Continuous
 62
     7
370
     0
100
AcDbPolyline
 90
        9
 70
   128
 43
0.0
 10
89.0609546495
 20
230.4075436607
 10
89.0891699982
 20
230.4829807893
 10
89.1175613669
 20
230.5588835791
 10
89.1461138544
 20
230.6352222279
 10
89.1748172162
 20
230.7119594828
 10
89.203656551
 20
230.7890618161
 10
89.2326197518
 20
230.8664994255
 10
89.2616947112
 20
230.9442313329
 10
89.2908665282
 20
231.0222240106
  0
LWPOLYLINE
  5
147
330
1F
100
AcDbEntity
  8
0
  6
Continuous
 62
     7
370
     0
100
AcDbPolyline
 90
        9
 70
   128
 43
0.0
 10
89.6713388083
 20
232.039433153
 10
89.7005115566
 20
232.1174258307
 10
89.7295865161
 20
232.1951577381
 10
89.7585497168
 20
232.2725916222
 10
89.7873890517
 20
232.3496976808
 10
89.8160924134
 20
232.4264349357
 10
89.8446449009
 20
232.5027698592
 10
89.8730353383
 20
232.5786763743
 10
89.9012516183
 20
232.6541097776
  0
SPLINE
  5
148
330
1F
100
AcDbEntity
  8
0
  6
Continuous
 62
     7
370
     0
100
AcDbSpline
210
0.0
220
0.0
230
1.0
 70
    24
 71
     3
 72
     8
 73
     4
 74
     0
 42
0.000000001
 43
0.00000001
 40
0.0
 40
0.0
 40
0.0
 40
0.0
 40
1.0
 40
1.0
 40
1.0
 40
1.0
 10
89.77277819370299
 20
231.8167654286401
 30
0.0
 10
89.7345736710083
 20
231.8310552936261
 30
0.0
 10
89.6951499943747
 20
231.8458011660152
 30
0.0
 10
89.65288631986958
 20
231.8616092997096
 30
0.0
  0
ARC
  5
149
330
1F
100
AcDbEntity
  8
0
  6
Continuous
 62
     7
370
     0
100
AcDbCircle
 10
89.1345515159
 20
231.6604500818
 30
0.0
 40
0.5560000000000165
100
AcDbArc
 50
21.2106065229
 51
27.7741857596
  0
SPLINE
  5
14A
330
1F
100
AcDbEntity
  8
0
  6
Continuous
 62
     7
370
     0
100
AcDbSpline
210
0.0
220
0.0
230
1.0
 70
    24
 71
     3
 72
     8
 73
     4
 74
     0
 42
0.000000001
 43
0.00000001
 40
0.0
 40
0.0
 40
0.0
 40
0.0
 40
1.0
 40
1.0
 40
1.0
 40
1.0
 10
89.67133919009214
 20
232.0394313118965
 30
0.0
 10
89.65704932510619
 20
232.0012267892018
 30
0.0
 10
89.64230345271702
 20
231.9618031125682
 30
0.0
 10
89.6264953190226
 20
231.9195394380631
 30
0.0
  0
SPLINE
  5
14B
330
1F
100
AcDbEntity
  8
0
  6
Continuous
 62
     7
370
     0
100
AcDbSpline
210
0.0
220
0.0
230
1.0
 70
    24
 71
     3
 72
     8
 73
     4
 74
     0
 42
0.000000001
 43
0.00000001
 40
0.0
 40
0.0
 40
0.0
 40
0.0
 40
1.0
 40
1.0
 40
1.0
 40
1.0
 10
88.97823616902267
 20
232.2986767596566
 30
0.0
 10
88.9639463040367
 20
232.260472236962
 30
0.0
 10
88.94920043164753
 20
232.2210485603283
 30
0.0
 10
88.93339229795312
 20
232.1787848858232
 30
0.0
  0
ARC
  5
14C
330
1F
100
AcDbEntity
  8
0
  6
Continuous
 62
     7
370
     0
100
AcDbCircle
 10
89.1345515159
 20
231.6604500818
 30
0.0
 40
0.5560000000000246
100
AcDbArc
 50
111.2106065229
 51
117.7741857596
  0
SPLINE
  5
14D
330
1F
100
AcDbEntity
  8
0
  6
Continuous
 62
     7
370
     0
100
AcDbSpline
210
0.0
220
0.0
230
1.0
 70
    24
 71
     3
 72
     8
 73
     4
 74
     0
 42
0.000000001
 43
0.00000001
 40
0.0
 40
0.0
 40
0.0
 40
0.0
 40
1.0
 40
1.0
 40
1.0
 40
1.0
 10
88.75557028576628
 20
232.1972377560458
 30
0.0
 10
88.79377480846095
 20
232.1829478910598
 30
0.0
 10
88.83319848509458
 20
232.1682020186707
 30
0.0
 10
88.87546215959968
 20
232.1523938849762
 30
0.0
  0
SPLINE
  5
14E
330
1F
100
AcDbEntity
  8
0
  6
Continuous
 62
     7
370
     0
100
AcDbSpline
210
0.0
220
0.0
230
1.0
 70
    24
 71
     3
 72
     8
 73
     4
 74
     0
 42
0.000000001
 43
0.00000001
 40
0.0
 40
0.0
 40
0.0
 40
0.0
 40
1.0
 40
1.0
 40
1.0
 40
1.0
 10
88.49632483800612
 20
231.5041347349763
 30
0.0
 10
88.53452936070082
 20
231.4898448699903
 30
0.0
 10
88.57395303733442
 20
231.4750989976012
 30
0.0
 10
88.61621671183954
 20
231.4592908639068
 30
0.0
  0
ARC
  5
14F
330
1F
100
AcDbEntity
  8
0
  6
Continuous
 62
     7
370
     0
100
AcDbCircle
 10
89.1345515159
 20
231.6604500818
 30
0.0
 40
0.5559999999999957
100
AcDbArc
 50
201.2106065229
 51
207.7741857596
  0
SPLINE
  5
150
330
1F
100
AcDbEntity
  8
0
  6
Continuous
 62
     7
370
     0
100
AcDbSpline
210
0.0
220
0.0
230
1.0
 70
    24
 71
     3
 72
     8
 73
     4
 74
     0
 42
0.000000001
 43
0.00000001
 40
0.0
 40
0.0
 40
0.0
 40
0.0
 40
1.0
 40
1.0
 40
1.0
 40
1.0
 10
88.59776384161698
 20
231.2814688517199
 30
0.0
 10
88.61205370660294
 20
231.3196733744146
 30
0.0
 10
88.6267995789921
 20
231.3590970510482
 30
0.0
 10
88.64260771268651
 20
231.4013607255533
 30
0.0
  0
LINE
  5
151
330
1F
100
AcDbEntity
  8
0
  6
Continuous
 62
     7
370
     0
100
AcDbLine
 10
89.6746375529
 20
231.5283754781
 30
0.0
 11
89.7813112406
 21
231.8135725275
 31
0.0
  0
LINE
  5
152
330
1F
100
AcDbEntity
  8
0
  6
Continuous
 62
     7
370
     0
100
AcDbLine
 10
89.5220654947
 20
231.1204710916
 30
0.0
 11
89.6287391824
 21
231.405668141
 31
0.0
  0
ELLIPSE
  5
153
330
1F
100
AcDbEntity
  8
0
  6
Continuous
 62
     7
370
     0
100
AcDbEllipse
 10
89.1986785054
 20
231.6364642823
 30
0.0
 11
0.4572285736297203
 21
-0.1710199244500359
 31
0.0
210
0.0
220
0.0
230
1.0
 40
0.9901159119
 41
6.147238359929622
 42
6.419132254429677
  0
LINE
  5
154
330
1F
100
AcDbEntity
  8
0
  6
Continuous
 62
     7
370
     0
100
AcDbLine
 10
89.2666242016
 20
232.2005370573
 30
0.0
 11
88.9814280835
 21
232.307210745
 31
0.0
  0
LINE
  5
155
330
1F
100
AcDbEntity
  8
0
  6
Continuous
 62
     7
370
     0
100
AcDbLine
 10
89.6745304508
 20
232.0479640678
 30
0.0
 11
89.3893343327
 21
232.1546377555
 31
0.0
  0
ELLIPSE
  5
156
330
1F
100
AcDbEntity
  8
0
  6
Continuous
 62
     7
370
     0
100
AcDbEllipse
 10
89.1585373154
 20
231.7245770714
 30
0.0
 11
0.1710199244499932
 21
0.4572285736297771
 31
0.0
210
0.0
220
0.0
230
1.0
 40
0.9901159119
 41
6.14723835992954
 42
6.419132254429584
  0
LINE
  5
157
330
1F
100
AcDbEntity
  8
0
  6
Continuous
 62
     7
370
     0
100
AcDbLine
 10
88.5944654164
 20
231.7925246373
 30
0.0
 11
88.4877917287
 21
231.507327588
 31
0.0
  0
LINE
  5
158
330
1F
100
AcDbEntity
  8
0
  6
Continuous
 62
     7
370
     0
100
AcDbLine
 10
88.7470374746
 20
232.2004290239
 30
0.0
 11
88.6403637869
 21
231.9152319745
 31
0.0
  0
ELLIPSE
  5
159
330
1F
100
AcDbEntity
  8
0
  6
Continuous
 62
     7
370
     0
100
AcDbEllipse
 10
89.0704245263
 20
231.6844358814
 30
0.0
 11
0.4572285736297488
 21
-0.171019924449979
 31
0.0
210
0.0
220
0.0
230
1.0
 40
0.9901159119
 41
3.005645706339695
 42
3.277539600839834
  0
LINE
  5
15A
330
1F
100
AcDbEntity
  8
0
  6
Continuous
 62
     7
370
     0
100
AcDbLine
 10
89.0024787677
 20
231.1203630582
 30
0.0
 11
89.2876748858
 21
231.0136893705
 31
0.0
  0
LINE
  5
15B
330
1F
100
AcDbEntity
  8
0
  6
Continuous
 62
     7
370
     0
100
AcDbLine
 10
88.5945725185
 20
231.2729360477
 30
0.0
 11
88.8797686366
 21
231.16626236
 31
0.0
  0
ELLIPSE
  5
15C
330
1F
100
AcDbEntity
  8
0
  6
Continuous
 62
     7
370
     0
100
AcDbEllipse
 10
89.1105657163
 20
231.5963230922
 30
0.0
 11
0.1710199244500217
 21
0.4572285736297488
 31
0.0
210
0.0
220
0.0
230
1.0
 40
0.9901159119
 41
3.005645706339816
 42
3.277539600839861
  0
CIRCLE
  5
15D
330
1F
100
AcDbEntity
  8
0
  6
Continuous
 62
     7
370
     0
100
AcDbCircle
 10
89.1345515159
 20
231.6604500818
 30
0.0
 40
2.499999999999997
  0
ARC
  5
15E
330
1F
100
AcDbEntity
  8
0
  6
Continuous
 62
     7
370
     0
100
AcDbCircle
 10
89.1345515159
 20
231.6604500818
 30
0.0
 40
0.5560000000000164
100
AcDbArc
 50
62.7262409497
 51
76.2585513328
  0
ARC
  5
15F
330
1F
100
AcDbEntity
  8
0
  6
Continuous
 62
     7
370
     0
100
AcDbCircle
 10
89.1345515159
 20
231.6604500818
 30
0.0
 40
0.5559999999999958
100
AcDbArc
 50
332.7262409497
 51
346.2585513328
  0
ARC
  5
160
330
1F
100
AcDbEntity
  8
0
  6
Continuous
 62
     7
370
     0
100
AcDbCircle
 10
89.1345515159
 20
231.6604500818
 30
0.0
 40
0.5559999999999943
100
AcDbArc
 50
152.7262409497
 51
166.2585513328
  0
ARC
  5
161
330
1F
100
AcDbEntity
  8
0
  6
Continuous
 62
     7
370
     0
100
AcDbCircle
 10
89.1345515159
 20
231.6604500818
 30
0.0
 40
0.5559999999999938
100
AcDbArc
 50
242.7262409497
 51
256.2585513328
  0
ARC
  5
162
330
1F
100
AcDbEntity
  8
0
  6
Continuous
 62
     7
370
     0
100
AcDbCircle
 10
89.1345515159
 20
231.6604500818
 30
0.0
 40
0.5560000000000246
100
AcDbArc
 50
76.2585513328
 51
111.2106065229
  0
ARC
  5
163
330
1F
100
AcDbEntity
  8
0
  6
Continuous
 62
     7
370
     0
100
AcDbCircle
 10
89.1345515159
 20
231.6604500818
 30
0.0
 40
0.5559999999999957
100
AcDbArc
 50
207.7741857596
 51
242.7262409497
  0
ARC
  5
164
330
1F
100
AcDbEntity
  8
0
  6
Continuous
 62
     7
370
     0
100
AcDbCircle
 10
89.1345515159
 20
231.6604500818
 30
0.0
 40
0.5560000000000032
100
AcDbArc
 50
256.2585513328
 51
291.2106065229
  0
ARC
  5
165
330
1F
100
AcDbEntity
  8
0
  6
Continuous
 62
     7
370
     0
100
AcDbCircle
 10
89.1345515159
 20
231.6604500818
 30
0.0
 40
0.5560000000000083
100
AcDbArc
 50
117.7741857596
 51
152.7262409497
  0
ARC
  5
166
330
1F
100
AcDbEntity
  8
0
  6
Continuous
 62
     7
370
     0
100
AcDbCircle
 10
89.1345515159
 20
231.6604500818
 30
0.0
 40
0.5560000000000004
100
AcDbArc
 50
27.7741857596
 51
62.7262409497
  0
ARC
  5
167
330
1F
100
AcDbEntity
  8
0
  6
Continuous
 62
     7
370
     0
100
AcDbCircle
 10
89.1345515159
 20
231.6604500818
 30
0.0
 40
0.5560000000000165
100
AcDbArc
 50
346.2585513328
 51
21.2106065229
  0
ARC
  5
168
330
1F
100
AcDbEntity
  8
0
  6
Continuous
 62
     7
370
     0
100
AcDbCircle
 10
89.1345515159
 20
231.6604500818
 30
0.0
 40
0.5559999999999938
100
AcDbArc
 50
297.7741857596
 51
332.7262409497
  0
ARC
  5
169
330
1F
100
AcDbEntity
  8
0
  6
Continuous
 62
     7
370
     0
100
AcDbCircle
 10
89.1345515159
 20
231.6604500818
 30
0.0
 40
0.5559999999999928
100
AcDbArc
 50
166.2585513328
 51
201.2106065229
  0
LINE
  5
16A
330
1F
100
AcDbEntity
  8
0
  6
Continuous
 62
     7
370
     0
100
AcDbLine
 10
89.3471901236
 20
239.2238343075
 30
0.0
 11
94.4802257163
 21
238.3919993356
 31
0.0
  0
LINE
  5
16B
330
1F
100
AcDbEntity
  8
0
  6
Continuous
 62
     7
370
     0
100
AcDbLine
 10
94.4802257163
 20
238.3919993356
 30
0.0
 11
95.6000032765
 21
245.3018540457
 31
0.0
  0
LINE
  5
16C
330
1F
100
AcDbEntity
  8
0
  6
Continuous
 62
     7
370
     0
100
AcDbLine
 10
96.4716411126
 20
226.9257755891
 30
0.0
 11
90.7463318599
 21
227.8535926655
 31
0.0
  0
LINE
  5
16D
330
1F
100
AcDbEntity
  8
0
  6
Continuous
 62
     7
370
     0
100
AcDbLine
 10
87.5875408692
 20
228.365492256
 30
0.0
 11
86.1068571848
 21
228.6054419294
 31
0.0
  0
LINE
  5
16E
330
1F
100
AcDbEntity
  8
0
  6
Continuous
 62
     7
370
     0
100
AcDbLine
 10
84.4525493612
 20
230.8996247069
 30
0.0
 11
86.1068571848
 21
228.6054419294
 31
0.0
  0
LINE
  5
16F
330
1F
100
AcDbEntity
  8
0
  6
Continuous
 62
     7
370
     0
100
AcDbLine
 10
85.8922627685
 20
239.7837230877
 30
0.0
 11
84.4525493612
 21
230.8996247069
 31
0.0
  0
CIRCLE
  5
170
330
1F
100
AcDbEntity
  8
0
  6
Continuous
 62
     7
370
     0
100
AcDbCircle
 10
94.9636438377
 20
233.2484307817
 30
0.0
 40
1.25
  0
LINE
  5
171
330
1F
100
AcDbEntity
  8
0
  6
Continuous
 62
     7
370
     0
100
AcDbLine
 10
99.3510669959
 20
244.693976076
 30
0.0
 11
95.6000032765
 21
245.3018540457
 31
0.0
  0
LINE
  5
172
330
1F
100
AcDbEntity
  8
0
  6
Continuous
 62
     7
370
     0
100
AcDbLine
 10
96.4716411126
 20
226.9257755891
 30
0.0
 11
99.3510669959
 21
244.693976076
 31
0.0
  0
LINE
  5
173
330
1F
100
AcDbEntity
  8
0
  6
Continuous
 62
     7
370
     0
100
AcDbLine
 10
95.6799871219
 20
245.7954177574
 30
0.0
 11
98.9374889923
 21
245.2675217703
 31
0.0
  0
ARC
  5
174
330
1F
100
AcDbEntity
  8
0
  6
Continuous
 62
     7
370
     0
100
AcDbCircle
 10
98.857505824
 20
244.7739606538
 30
0.0
 40
0.4999999999999877
100
AcDbArc
 50
350.794953288
 51
80.794953288
  0
LINE
  5
175
330
1F
100
AcDbEntity
  8
0
  6
Continuous
 62
     7
370
     0
100
AcDbLine
 10
95.6000032765
 20
245.3018540457
 30
0.0
 11
95.6799871219
 21
245.7954177574
 31
0.0
  0
LINE
  5
176
330
1F
100
AcDbEntity
  8
0
  6
Continuous
 62
     7
370
     0
100
AcDbLine
 10
80.9629775049
 20
225.2720968739
 30
0.0
 11
80.9276622185
 21
224.1514401451
 31
0.0
  0
LINE
  5
177
330
1F
100
AcDbEntity
  8
0
  6
Continuous
 62
     7
370
     0
100
AcDbLine
 10
83.5127796908
 20
246.7888036684
 30
0.0
 11
80.9629775049
 21
225.2720968739
 31
0.0
  0
LINE
  5
178
330
1F
100
AcDbEntity
  8
0
  6
Continuous
 62
     7
370
     0
100
AcDbLine
 10
90.3673524899
 20
247.4869044438
 30
0.0
 11
87.885191564
 21
247.5651243642
 31
0.0
  0
LINE
  5
179
330
1F
100
AcDbEntity
  8
0
  6
Continuous
 62
     7
370
     0
100
AcDbLine
 10
84.7380402429
 20
247.6643027679
 30
0.0
 11
84.5373285865
 21
247.6706283108
 31
0.0
  0
LINE
  5
17A
330
1F
100
AcDbEntity
  8
0
  6
Continuous
 62
     7
370
     0
100
AcDbLine
 10
91.2371556205
 20
246.5604992524
 30
0.0
 11
90.3673524899
 21
247.4869044438
 31
0.0
  0
LINE
  5
17B
330
1F
100
AcDbEntity
  8
0
  6
Continuous
 62
     7
370
     0
100
AcDbLine
 10
90.5359954504
 20
241.7226361052
 30
0.0
 11
91.2371556205
 21
246.5604992524
 31
0.0
  0
ARC
  5
17C
330
1F
100
AcDbEntity
  8
0
  6
Continuous
 62
     7
370
     0
100
AcDbCircle
 10
90.0411651099
 20
241.7943546051
 30
0.0
 40
0.5000000000000381
100
AcDbArc
 50
268.1950327735
 51
351.7534326742
  0
LINE
  5
17D
330
1F
100
AcDbEntity
  8
0
  6
Continuous
 62
     7
370
     0
100
AcDbLine
 10
89.6845095722
 20
241.3053439871
 30
0.0
 11
90.0254164753
 21
241.2946039752
 31
0.0
  0
ARC
  5
17E
330
1F
100
AcDbEntity
  8
0
  6
Continuous
 62
     7
370
     0
100
AcDbCircle
 10
84.5058311821
 20
246.6711229801
 30
0.0
 40
1.00000000000002
100
AcDbArc
 50
88.1950327735
 51
173.2417752957
  0
LWPOLYLINE
  5
17F
330
1F
100
AcDbEntity
  8
0
  6
Continuous
 62
     8
370
     0
100
AcDbPolyline
 90
        9
 70
   128
 43
0.0
 10
94.2877846701
 20
212.1718639449
 10
94.1852590931
 20
212.7095835224
 10
94.0885933978
 20
213.2165675924
 10
94.0017457051
 20
213.6720569745
 10
93.9282699419
 20
214.0574065909
 10
93.8711780054
 20
214.3568398372
 10
93.83280379
 20
214.5580967829
 10
93.8147212309
 20
214.6529389486
 10
93.8133465988
 20
214.6601455227
  0
LWPOLYLINE
  5
180
330
1F
100
AcDbEntity
  8
0
  6
Continuous
 62
     8
370
     0
100
AcDbPolyline
 90
       10
 70
   128
 43
0.0
 10
94.8434675974
 20
209.2574762121
 10
94.8432627065
 20
209.2585546837
 10
94.8297920567
 20
209.3292066768
 10
94.7957931948
 20
209.5075139717
 10
94.742661242
 20
209.7861768619
 10
94.672569905
 20
210.1537885085
 10
94.5883876575
 20
210.5952968762
 10
94.4935622556
 20
211.092628719
 10
94.3919735891
 20
211.6254216001
 10
94.2877846701
 20
212.1718639449
  0
LWPOLYLINE
  5
181
330
1F
100
AcDbEntity
  8
0
  6
Continuous
 62
     8
370
     0
100
AcDbPolyline
 90
        9
 70
   128
 43
0.0
 10
96.1607321096
 20
202.3488266334
 10
96.0582065327
 20
202.886546211
 10
95.9615408374
 20
203.3935293496
 10
95.8746931446
 20
203.8490196631
 10
95.8012192441
 20
204.2343692795
 10
95.744125445
 20
204.5338025257
 10
95.7057530922
 20
204.7350594715
 10
95.6876686705
 20
204.8299016372
 10
95.6862940384
 20
204.8371082113
  0
LWPOLYLINE
  5
182
330
1F
100
AcDbEntity
  8
0
  6
Continuous
 62
     8
370
     0
100
AcDbPolyline
 90
       10
 70
   128
 43
0.0
 10
96.7164168996
 20
199.4344379694
 10
96.716210146
 20
199.4355183036
 10
96.7027394963
 20
199.5061684341
 10
96.668742497
 20
199.6844757289
 10
96.6156086815
 20
199.9631395504
 10
96.5455173445
 20
200.3307511971
 10
96.461335097
 20
200.7722595647
 10
96.3665096951
 20
201.2695914075
 10
96.2649228913
 20
201.80238522
 10
96.1607321096
 20
202.3488266334
  0
LWPOLYLINE
  5
183
330
1F
100
AcDbEntity
  8
0
  6
Continuous
 62
     8
370
     0
100
AcDbPolyline
 90
       17
 70
   128
 43
0.0
 10
61.1315480364
 20
214.6601455227
 10
61.1279959721
 20
214.6415153459
 10
61.1053704215
 20
214.5228480861
 10
61.0627288861
 20
214.2992077336
 10
61.001818527
 20
213.979751052
 10
60.9251315636
 20
213.5775556729
 10
60.8358102781
 20
213.1090911046
 10
60.7375091804
 20
212.5935332791
 10
60.6342534465
 20
212.0519878284
 10
60.5302712811
 20
211.5066295431
 10
60.4298169655
 20
210.9797840879
 10
60.3370069457
 20
210.493019031
 10
60.2556372923
 20
210.0662646756
 10
60.1890421403
 20
209.7169907704
 10
60.1399465395
 20
209.4594968424
 10
60.1103602839
 20
209.3043254629
 10
60.1014270378
 20
209.2574762121
  0
LWPOLYLINE
  5
184
330
1F
100
AcDbEntity
  8
0
  6
Continuous
 62
     8
370
     0
100
AcDbPolyline
 90
       17
 70
   128
 43
0.0
 10
59.2586005969
 20
204.8371082113
 10
59.2552329344
 20
204.8194484726
 10
59.2329221708
 20
204.702436173
 10
59.190576796
 20
204.48034461
 10
59.1299290699
 20
204.1622653544
 10
59.0534618986
 20
203.7612220213
 10
58.9643082512
 20
203.293631965
 10
58.8661151869
 20
202.7786394522
 10
58.7629041565
 20
202.2373286948
 10
58.6588996393
 20
201.6918586508
 10
58.5583596421
 20
201.1645633668
 10
58.4654024733
 20
200.6770299688
 10
58.3838316543
 20
200.2492166996
 10
58.3169887704
 20
199.8986398742
 10
58.2676063222
 20
199.6396511734
 10
58.2377108676
 20
199.4828546361
 10
58.2284795982
 20
199.4344379694
  0
DIMENSION
  5
185
330
1F
100
AcDbEntity
  8
0
  6
Continuous
 62
     7
370
     0
100
AcDbDimension
  2
_D
 10
71.4724477236
 20
140.135782738
 30
0.0
 11
77.4724477236
 21
140.135782738
 31
0.0
 70
   160
  1
%%c<>
 71
     2
 42
-1.0
  3
SLDDIMSTYLE0
100
AcDbAlignedDimension
 13
83.4724477236
 23
157.4010476545
 33
0.0
 14
71.4724477236
 24
157.4010476545
 34
0.0
 50
0.0
100
AcDbRotatedDimension
  0
DIMENSION
  5
193
330
1F
100
AcDbEntity
  8
0
  6
Continuous
 62
     7
370
     0
100
AcDbDimension
  2
_D_1
 10
85.4724477236
 20
134.1470305809
 30
0.0
 11
77.4724477236
 21
134.1470305809
 31
0.0
 70
   160
  1
<>
 71
     2
 42
-1.0
  3
SLDDIMSTYLE1
100
AcDbAlignedDimension
 13
69.4724477236
 23
176.9010476545
 33
0.0
 14
85.4724477236
 24
176.9010476545
 34
0.0
 50
0.0
100
AcDbRotatedDimension
  0
DIMENSION
  5
19E
330
1F
100
AcDbEntity
  8
0
  6
Continuous
 62
     7
370
     0
100
AcDbDimension
  2
_D_2
 10
90.4724477236
 20
126.7762586953
 30
0.0
 11
77.4724477236
 21
126.7762586953
 31
0.0
 70
   160
  1
<>
 71
     2
 42
-1.0
  3
SLDDIMSTYLE1
100
AcDbAlignedDimension
 13
64.4724477236
 23
172.9010476545
 33
0.0
 14
90.4724477236
 24
172.9010476545
 34
0.0
 50
0.0
100
AcDbRotatedDimension
  0
DIMENSION
  5
1A8
330
1F
100
AcDbEntity
  8
0
  6
Continuous
 62
     7
370
     0
100
AcDbDimension
  2
_D_3
 10
102.853685244
 20
176.9010476545
 30
0.0
 11
102.853685244
 21
174.9010476545
 31
0.0
 70
   160
  1
<>
 71
     2
 42
-1.0
  3
SLDDIMSTYLE0
100
AcDbAlignedDimension
 13
90.4724477236
 23
172.9010476545
 33
0.0
 14
69.4724477236
 24
176.9010476545
 34
0.0
 50
90.0
100
AcDbRotatedDimension
  0
DIMENSION
  5
1B4
330
1F
100
AcDbEntity
  8
0
  6
Continuous
 62
     7
370
     0
100
AcDbDimension
  2
_D_4
 10
102.853685244
 20
202.9010476545
 30
0.0
 11
102.853685244
 21
189.9010476545
 31
0.0
 70
   160
  1
<>
 71
     2
 42
-1.0
  3
SLDDIMSTYLE1
100
AcDbAlignedDimension
 13
85.4724477236
 23
176.9010476545
 33
0.0
 14
77.4724477236
 24
202.9010476545
 34
0.0
 50
90.0
100
AcDbRotatedDimension
  0
DIMENSION
  5
1BE
330
1F
100
AcDbEntity
  8
0
  6
Continuous
 62
     7
370
     0
100
AcDbDimension
  2
_D_5
 10
110.466652194
 20
172.9010476545
 30
0.0
 11
110.466652194
 21
195.0010476545
 31
0.0
 70
   160
  1
<>
 71
     2
 42
-1.0
  3
SLDDIMSTYLE1
100
AcDbAlignedDimension
 13
80.4724477236
 23
217.1010476545
 33
0.0
 14
90.4724477236
 24
172.9010476545
 34
0.0
 50
90.0
100
AcDbRotatedDimension
  0
DIMENSION
  5
1C8
330
1F
100
AcDbEntity
  8
0
  6
Continuous
 62
     7
370
     0
100
AcDbDimension
  2
_D_6
 10
110.466652194
 20
156.9010476545
 30
0.0
 11
110.466652194
 21
164.9010476545
 31
0.0
 70
   160
  1
<>
 71
     2
 42
-1.0
  3
SLDDIMSTYLE1
100
AcDbAlignedDimension
 13
90.4724477236
 23
172.9010476545
 33
0.0
 14
82.9724477236
 24
156.9010476545
 34
0.0
 50
90.0
100
AcDbRotatedDimension
  0
DIMENSION
  5
1D2
330
1F
100
AcDbEntity
  8
0
  6
Continuous
 62
     7
370
     0
100
AcDbDimension
  2
_D_7
 10
84.8029145875
 20
258.0646239873
 30
0.0
 11
77.4724477236
 21
258.0646239873
 31
0.0
 70
   160
  1
(<>)
 71
     2
 42
-1.0
  3
SLDDIMSTYLE0
100
AcDbAlignedDimension
 13
70.1419808597
 23
248.0646239873
 33
0.0
 14
84.8029145875
 24
248.0646239873
 34
0.0
 50
0.0
100
AcDbRotatedDimension
  0
DIMENSION
  5
1E0
330
1F
100
AcDbEntity
  8
0
  6
Continuous
 62
     7
370
     0
100
AcDbDimension
  2
_D_8
 10
118.6818957362
 20
248.0646239873
 30
0.0
 11
118.6818957362
 21
197.4828358209
 31
0.0
 70
   160
  1
(<>)
 71
     2
 42
-1.0
  3
SLDDIMSTYLE1
100
AcDbAlignedDimension
 13
78.9724477236
 23
146.9010476545
 33
0.0
 14
84.8029145875
 24
248.0646239873
 34
0.0
 50
90.0
100
AcDbRotatedDimension
  0
DIMENSION
  5
1EC
330
1F
100
AcDbEntity
  8
0
  6
Continuous
 62
     7
370
     0
100
AcDbDimension
  2
_D_9
 10
71.2044985312
 20
175.9010476545
 30
0.0
 11
40.079072254
 21
187.6207877943
 31
0.0
 70
   163
  1
3-<>取付穴\P(両側口元面取有)
 71
     1
 42
-1.0
  3
SLDDIMSTYLE2
100
AcDbDiametricDimension
 15
67.740396916
 25
177.9010476545
 35
0.0
 40
0.0
  0
INSERT
  5
1FD
330
1F
100
AcDbEntity
  8
0
  6
Continuous
 62
     7
370
     0
100
AcDbBlockReference
  2
SW_NOTE_0
 10
56.9813772627
 20
215.4757871187
 30
0.0
  0
LINE
  5
1FE
330
1F
100
AcDbEntity
  8
0
  6
Continuous
 62
     7
370
     0
100
AcDbLine
 10
56.9813772627
 20
215.4757871187
 30
0.0
 11
60.8759448195
 21
211.5220011493
 31
0.0
  0
INSERT
  5
205
330
1F
100
AcDbEntity
  8
0
  6
Continuous
 62
     7
370
     0
100
AcDbBlockReference
  2
_OPEN30
 10
60.8759448195
 20
211.5220011493
 30
2.723551259
 41
3.0
 42
3.0
 50
314.5676926742
  0
INSERT
  5
20B
330
1F
100
AcDbEntity
  8
0
  6
Continuous
 62
     7
370
     0
100
AcDbBlockReference
  2
SW_NOTE_1
 10
50.5358418447
 20
164.2651333656
 30
0.0
  0
LEADER
  5
20D
330
1F
100
AcDbEntity
  8
0
  6
Continuous
 62
     7
370
     0
100
AcDbLeader
  3
SLDDIMSTYLE3
 76
     2
 10
76.1581831113
 20
150.5048318644
 30
0.0
 10
50.5358418447
 20
164.2651333656
 30
0.0
  0
INSERT
  5
219
330
1F
100
AcDbEntity
  8
0
  6
Continuous
 62
     7
370
     0
100
AcDbBlockReference
  2
SW_CENTERMARKSYMBOL_0
 10
67.4724477236
 20
206.4010476545
 30
0.0
  0
INSERT
  5
225
330
1F
100
AcDbEntity
  8
0
  6
Continuous
 62
     7
370
     0
100
AcDbBlockReference
  2
SW_CENTERMARKSYMBOL_1
 10
77.4724477236
 20
202.9010476545
 30
0.0
  0
INSERT
  5
231
330
1F
100
AcDbEntity
  8
0
  6
Continuous
 62
     7
370
     0
100
AcDbBlockReference
  2
SW_CENTERMARKSYMBOL_2
 10
87.4724477236
 20
206.4010476545
 30
0.0
  0
INSERT
  5
23D
330
1F
100
AcDbEntity
  8
0
  6
Continuous
 62
     7
370
     0
100
AcDbBlockReference
  2
SW_CENTERMARKSYMBOL_3
 10
69.4724477236
 20
176.9010476545
 30
0.0
  0
INSERT
  5
249
330
1F
100
AcDbEntity
  8
0
  6
Continuous
 62
     7
370
     0
100
AcDbBlockReference
  2
SW_CENTERMARKSYMBOL_4
 10
85.4724477236
 20
176.9010476545
 30
0.0
  0
CIRCLE
  5
24A
330
1F
100
AcDbEntity
  8
0
  6
Continuous
 62
     7
370
     0
100
AcDbCircle
 10
85.4724477236
 20
176.9010476545
 30
0.0
 40
1.999999752660798
  0
CIRCLE
  5
24B
330
1F
100
AcDbEntity
  8
0
  6
Continuous
 62
     7
370
     0
100
AcDbCircle
 10
69.4724477236
 20
176.9010476545
 30
0.0
 40
1.999999752660798
  0
CIRCLE
  5
24C
330
1F
100
AcDbEntity
  8
0
  6
Continuous
 62
     7
370
     0
100
AcDbCircle
 10
77.4724477236
 20
202.9010476545
 30
0.0
 40
2.00000014754157
  0
LINE
  5
24D
330
1F
100
AcDbEntity
  8
0
  6
CENTERX2
 62
     7
370
     0
100
AcDbLine
 10
77.4724477236
 20
250.4580145278
 30
0.0
 11
77.4724477236
 21
145.5571867606
 31
0.0
  0
LINE
  5
24E
330
1F
100
AcDbEntity
  8
0
  6
Continuous
 62
     7
370
     0
100
AcDbLine
 10
96.2013564003
 20
98.8760447612
 30
0.0
 11
95.5561063183
 21
98.8760447612
 31
0.0
  0
LINE
  5
24F
330
1F
100
AcDbEntity
  8
0
  6
Continuous
 62
     7
370
     0
100
AcDbLine
 10
95.5561063183
 20
93.376044791
 30
0.0
 11
96.2013564003
 21
93.376044791
 31
0.0
  0
SPLINE
  5
250
330
1F
100
AcDbEntity
  8
0
  6
Continuous
 62
     7
370
     0
100
AcDbSpline
210
0.0
220
0.0
230
1.0
 70
     8
 71
     3
 72
    10
 73
     6
 74
     0
 42
0.000000001
 43
0.00000001
 40
0.0
 40
0.0
 40
0.0
 40
0.0
 40
0.3523391964389863
 40
0.7559490971561978
 40
1.0
 40
1.0
 40
1.0
 40
1.0
 10
96.50128883547178
 20
98.67117800918982
 30
0.0
 10
96.47983949681243
 20
98.70676530519381
 30
0.0
 10
96.4338196149542
 20
98.78311838925698
 30
0.0
 10
96.32815850803833
 20
98.86618092398315
 30
0.0
 10
96.23575353160933
 20
98.8652239197683
 30
0.0
 10
96.20093357986799
 20
98.86486330238745
 30
0.0
  0
SPLINE
  5
251
330
1F
100
AcDbEntity
  8
0
  6
Continuous
 62
     7
370
     0
100
AcDbSpline
210
0.0
220
0.0
230
1.0
 70
     8
 71
     3
 72
    12
 73
     8
 74
     0
 42
0.000000001
 43
0.00000001
 40
0.0
 40
0.0
 40
0.0
 40
0.0
 40
0.0224482192553254
 40
0.3280331471658472
 40
0.6165996068770276
 40
0.97707762328171
 40
1.0
 40
1.0
 40
1.0
 40
1.0
 10
96.17740650898806
 20
93.38008184155092
 30
0.0
 10
96.18131433909225
 20
93.37874654752682
 30
0.0
 10
96.23841899372397
 20
93.3592340554162
 30
0.0
 10
96.3644479401012
 20
93.41293896046055
 30
0.0
 10
96.47299016021971
 20
93.51892408661453
 30
0.0
 10
96.5328223871848
 20
93.60111758192191
 30
0.0
 10
96.55841702852689
 20
93.67250192285289
 30
0.0
 10
96.55994725651138
 20
93.67676978168652
 30
0.0
  0
LINE
  5
252
330
1F
100
AcDbEntity
  8
0
  6
Continuous
 62
     7
370
     0
100
AcDbLine
 10
58.7435400975
 20
93.376044791
 30
0.0
 11
59.3887883169
 21
93.376044791
 31
0.0
  0
LINE
  5
253
330
1F
100
AcDbEntity
  8
0
  6
Continuous
 62
     7
370
     0
100
AcDbLine
 10
59.3887883169
 20
98.8760447612
 30
0.0
 11
58.7435400975
 21
98.8760447612
 31
0.0
  0
SPLINE
  5
254
330
1F
100
AcDbEntity
  8
0
  6
Continuous
 62
     7
370
     0
100
AcDbSpline
210
0.0
220
0.0
230
1.0
 70
     8
 71
     3
 72
    11
 73
     7
 74
     0
 42
0.000000001
 43
0.00000001
 40
0.0
 40
0.0
 40
0.0
 40
0.0
 40
0.1171769982624501
 40
0.4414100434239602
 40
0.782114689670622
 40
1.0
 40
1.0
 40
1.0
 40
1.0
 10
58.73715122467866
 20
98.865171337329
 30
0.0
 10
58.71698883997747
 20
98.86755146290078
 30
0.0
 10
58.64103639847058
 20
98.87651748308876
 30
0.0
 10
58.52996049572734
 20
98.79567090778613
 30
0.0
 10
58.44970909351643
 20
98.70765565320367
 30
0.0
 10
58.41303717598733
 20
98.62565905252487
 30
0.0
 10
58.39873281545034
 20
98.59367520717547
 30
0.0
  0
SPLINE
  5
255
330
1F
100
AcDbEntity
  8
0
  6
Continuous
 62
     7
370
     0
100
AcDbSpline
210
0.0
220
0.0
230
1.0
 70
     8
 71
     3
 72
    11
 73
     7
 74
     0
 42
0.000000001
 43
0.00000001
 40
0.0
 40
0.0
 40
0.0
 40
0.0
 40
0.279450506003357
 40
0.6255782155884257
 40
0.9461377349482447
 40
1.0
 40
1.0
 40
1.0
 40
1.0
 10
58.40658013946405
 20
93.6301996948348
 30
0.0
 10
58.42745737696955
 20
93.59410638629393
 30
0.0
 10
58.47419318422175
 20
93.51330786538726
 30
0.0
 10
58.56901620887005
 20
93.42209911234566
 30
0.0
 10
58.69504290349433
 20
93.36169443280932
 30
0.0
 10
58.75467749156557
 20
93.38047516599117
 30
0.0
 10
58.76325619644514
 20
93.38317685929701
 30
0.0
  0
LINE
  5
256
330
1F
100
AcDbEntity
  8
0
  6
Continuous
 62
     7
370
     0
100
AcDbLine
 10
91.6345518944
 20
99.6260448842
 30
0.0
 11
91.6345518944
 21
100.7310404925
 31
0.0
  0
ARC
  5
257
330
1F
100
AcDbEntity
  8
0
  6
Continuous
 62
     7
370
     0
100
AcDbCircle
 10
91.3945515159
 20
100.7310406164
 30
0.0
 40
0.2400000000000091
100
AcDbArc
 50
0.0
 51
53.0538731033
  0
ARC
  5
258
330
1F
100
AcDbEntity
  8
0
  6
Continuous
 62
     7
370
     0
100
AcDbCircle
 10
89.1345515159
 20
97.7260447761
 30
0.0
 40
4.000000000000007
100
AcDbArc
 50
53.0538731033
 51
70.4594415042
  0
LINE
  5
259
330
1F
100
AcDbEntity
  8
0
  6
Continuous
 62
     7
370
     0
100
AcDbLine
 10
99.3575061602
 20
93.926044788
 30
0.0
 11
99.3575061602
 21
98.8260448462
 31
0.0
  0
CIRCLE
  5
25A
330
1F
100
AcDbEntity
  8
0
  6
Continuous
 62
     7
370
     0
100
AcDbCircle
 10
77.4724477236
 20
96.1260447761
 30
0.0
 40
5.500000000000028
  0
CIRCLE
  5
25B
330
1F
100
AcDbEntity
  8
0
  6
Continuous
 62
     7
370
     0
100
AcDbCircle
 10
77.4724477236
 20
96.1260447761
 30
0.0
 40
6.0
  0
CIRCLE
  5
25C
330
1F
100
AcDbEntity
  8
0
  6
Continuous
 62
     7
370
     0
100
AcDbCircle
 10
77.4724477236
 20
96.1260447761
 30
0.0
 40
1.0
  0
LINE
  5
25D
330
1F
100
AcDbEntity
  8
0
  6
Continuous
 62
     7
370
     0
100
AcDbLine
 10
89.4724474219
 20
89.626044642
 30
0.0
 11
90.4724475858
 21
90.6260448059
 31
0.0
  0
LINE
  5
25E
330
1F
100
AcDbEntity
  8
0
  6
Continuous
 62
     7
370
     0
100
AcDbLine
 10
65.4724481446
 20
89.626044642
 30
0.0
 11
89.4724474219
 21
89.626044642
 31
0.0
  0
LINE
  5
25F
330
1F
100
AcDbEntity
  8
0
  6
Continuous
 62
     7
370
     0
100
AcDbLine
 10
64.4724479807
 20
90.6260448059
 30
0.0
 11
65.4724481446
 21
89.626044642
 31
0.0
  0
LINE
  5
260
330
1F
100
AcDbEntity
  8
0
  6
Continuous
 62
     7
370
     0
100
AcDbLine
 10
64.4724479807
 20
101.6260447463
 30
0.0
 11
64.4724479807
 21
90.6260448059
 31
0.0
  0
LINE
  5
261
330
1F
100
AcDbEntity
  8
0
  6
Continuous
 62
     7
370
     0
100
AcDbLine
 10
65.4724481446
 20
102.6260449102
 30
0.0
 11
64.4724479807
 21
101.6260447463
 31
0.0
  0
LINE
  5
262
330
1F
100
AcDbEntity
  8
0
  6
Continuous
 62
     7
370
     0
100
AcDbLine
 10
65.4724481446
 20
102.6260449102
 30
0.0
 11
89.4724474219
 21
102.6260449102
 31
0.0
  0
LINE
  5
263
330
1F
100
AcDbEntity
  8
0
  6
Continuous
 62
     7
370
     0
100
AcDbLine
 10
90.4724475858
 20
101.6260447463
 30
0.0
 11
89.4724474219
 21
102.6260449102
 31
0.0
  0
LINE
  5
264
330
1F
100
AcDbEntity
  8
0
  6
Continuous
 62
     7
370
     0
100
AcDbLine
 10
90.4724475858
 20
101.6260447463
 30
0.0
 11
90.4724475858
 21
90.6260448059
 31
0.0
  0
LINE
  5
265
330
1F
100
AcDbEntity
  8
0
  6
Continuous
 62
     7
370
     0
100
AcDbLine
 10
94.3773425115
 20
94.6260447631
 30
0.0
 11
94.3773425115
 21
97.6260447892
 31
0.0
  0
LINE
  5
266
330
1F
100
AcDbEntity
  8
0
  6
Continuous
 62
     7
370
     0
100
AcDbLine
 10
94.0835214151
 20
97.6260447892
 30
0.0
 11
94.3773425115
 21
97.6260447892
 31
0.0
  0
LINE
  5
267
330
1F
100
AcDbEntity
  8
0
  6
Continuous
 62
     7
370
     0
100
AcDbLine
 10
92.6974638296
 20
97.8361863194
 30
0.0
 11
92.9038868216
 21
97.6260447892
 31
0.0
  0
LINE
  5
268
330
1F
100
AcDbEntity
  8
0
  6
Continuous
 62
     7
370
     0
100
AcDbLine
 10
95.5561063183
 20
99.1260448022
 30
0.0
 11
92.6974638296
 21
99.1260448022
 31
0.0
  0
LINE
  5
269
330
1F
100
AcDbEntity
  8
0
  6
Continuous
 62
     7
370
     0
100
AcDbLine
 10
95.5561063183
 20
93.12604475
 30
0.0
 11
95.5561063183
 21
99.1260448022
 31
0.0
  0
LINE
  5
26A
330
1F
100
AcDbEntity
  8
0
  6
Continuous
 62
     7
370
     0
100
AcDbLine
 10
92.9038868216
 20
94.6260447631
 30
0.0
 11
92.6974638296
 21
94.4159032328
 31
0.0
  0
LINE
  5
26B
330
1F
100
AcDbEntity
  8
0
  6
Continuous
 62
     7
370
     0
100
AcDbLine
 10
94.3773425115
 20
94.6260447631
 30
0.0
 11
94.0835214151
 21
94.6260447631
 31
0.0
  0
LINE
  5
26C
330
1F
100
AcDbEntity
  8
0
  6
Continuous
 62
     7
370
     0
100
AcDbLine
 10
92.6974638296
 20
93.12604475
 30
0.0
 11
95.5561063183
 21
93.12604475
 31
0.0
  0
LINE
  5
26D
330
1F
100
AcDbEntity
  8
0
  6
Continuous
 62
     7
370
     0
100
AcDbLine
 10
60.5675539864
 20
97.6260447892
 30
0.0
 11
60.5675539864
 21
94.6260447631
 31
0.0
  0
LINE
  5
26E
330
1F
100
AcDbEntity
  8
0
  6
Continuous
 62
     7
370
     0
100
AcDbLine
 10
60.8613732202
 20
94.6260447631
 30
0.0
 11
60.5675539864
 21
94.6260447631
 31
0.0
  0
LINE
  5
26F
330
1F
100
AcDbEntity
  8
0
  6
Continuous
 62
     7
370
     0
100
AcDbLine
 10
62.2474308056
 20
94.4159032328
 30
0.0
 11
62.0410087449
 21
94.6260447631
 31
0.0
  0
LINE
  5
270
330
1F
100
AcDbEntity
  8
0
  6
Continuous
 62
     7
370
     0
100
AcDbLine
 10
59.3887883169
 20
93.12604475
 30
0.0
 11
62.2474308056
 21
93.12604475
 31
0.0
  0
LINE
  5
271
330
1F
100
AcDbEntity
  8
0
  6
Continuous
 62
     7
370
     0
100
AcDbLine
 10
59.3887883169
 20
99.1260448022
 30
0.0
 11
59.3887883169
 21
93.12604475
 31
0.0
  0
LINE
  5
272
330
1F
100
AcDbEntity
  8
0
  6
Continuous
 62
     7
370
     0
100
AcDbLine
 10
59.3887883169
 20
99.1260448022
 30
0.0
 11
62.2474308056
 21
99.1260448022
 31
0.0
  0
LINE
  5
273
330
1F
100
AcDbEntity
  8
0
  6
Continuous
 62
     7
370
     0
100
AcDbLine
 10
62.0410087449
 20
97.6260447892
 30
0.0
 11
62.2474308056
 21
97.8361863194
 31
0.0
  0
LINE
  5
274
330
1F
100
AcDbEntity
  8
0
  6
Continuous
 62
     7
370
     0
100
AcDbLine
 10
60.5675539864
 20
97.6260447892
 30
0.0
 11
60.8613732202
 21
97.6260447892
 31
0.0
  0
LINE
  5
275
330
1F
100
AcDbEntity
  8
0
  6
Continuous
 62
     7
370
     0
100
AcDbLine
 10
90.5383731169
 20
99.1260448022
 30
0.0
 11
90.5383731169
 21
99.8260447772
 31
0.0
  0
LINE
  5
276
330
1F
100
AcDbEntity
  8
0
  6
Continuous
 62
     7
370
     0
100
AcDbLine
 10
90.4724475858
 20
99.8260447772
 30
0.0
 11
90.5383731169
 21
99.8260447772
 31
0.0
  0
LINE
  5
277
330
1F
100
AcDbEntity
  8
0
  6
Continuous
 62
     7
370
     0
100
AcDbLine
 10
90.7463318599
 20
99.8260447772
 30
0.0
 11
90.7463318599
 21
99.1260448022
 31
0.0
  0
LINE
  5
278
330
1F
100
AcDbEntity
  8
0
  6
Continuous
 62
     7
370
     0
100
AcDbLine
 10
90.5383731169
 20
99.8260447772
 30
0.0
 11
90.7463318599
 21
99.8260447772
 31
0.0
  0
LWPOLYLINE
  5
279
330
1F
100
AcDbEntity
  8
0
  6
Continuous
 62
     7
370
     0
100
AcDbPolyline
 90
       17
 70
   128
 43
0.0
 10
96.2013564003
 20
93.376044791
 10
96.29371566
 20
93.4206192864
 10
96.3938253862
 20
93.5752649343
 10
96.4860561234
 20
93.8343397824
 10
96.5666304273
 20
94.1872373473
 10
96.6322495533
 20
94.619509789
 10
96.6802294297
 20
95.1134601159
 10
96.7086031032
 20
95.6488657061
 10
96.716210146
 20
96.2038070679
 10
96.7027394963
 20
96.7555648199
 10
96.668742497
 20
97.2815499658
 10
96.6156086815
 20
97.7602285816
 10
96.5455173445
 20
98.1720035447
 10
96.461335097
 20
98.5000167525
 10
96.3665096951
 20
98.7308392318
 10
96.2649228913
 20
98.8550210854
 10
96.2013564003
 20
98.8760447612
  0
ARC
  5
27A
330
1F
100
AcDbEntity
  8
0
  6
Continuous
 62
     7
370
     0
100
AcDbCircle
 10
88.6965357671
 20
96.1065724023
 30
0.0
 40
8.22225884021315
100
AcDbArc
 50
343.4577793897
 51
17.2529158476
  0
ARC
  5
27B
330
1F
100
AcDbEntity
  8
0
  6
Continuous
 62
     7
370
     0
100
AcDbCircle
 10
66.5571488202
 20
96.134255855
 30
0.0
 40
8.518352560741299
100
AcDbArc
 50
163.8321237685
 51
196.4404142784
  0
CIRCLE
  5
27C
330
1F
100
AcDbEntity
  8
0
  6
Continuous
 62
     7
370
     0
100
AcDbCircle
 10
77.4724477236
 20
96.1260447761
 30
0.0
 40
1.799999999999998
  0
CIRCLE
  5
27D
330
1F
100
AcDbEntity
  8
0
  6
Continuous
 62
     7
370
     0
100
AcDbCircle
 10
77.4724477236
 20
96.1260447761
 30
0.0
 40
1.499999999999998
  0
CIRCLE
  5
27E
330
1F
100
AcDbEntity
  8
0
  6
Continuous
 62
     7
370
     0
100
AcDbCircle
 10
77.4724477236
 20
96.1260447761
 30
0.0
 40
1.050000000000006
  0
ARC
  5
27F
330
1F
100
AcDbEntity
  8
0
  6
Continuous
 62
     7
370
     0
100
AcDbCircle
 10
77.4724477236
 20
96.1260447761
 30
0.0
 40
4.299999999970397
100
AcDbArc
 50
172.0261705189
 51
188.9683617045
  0
SPLINE
  5
280
330
1F
100
AcDbEntity
  8
0
  6
Continuous
 62
     7
370
     0
100
AcDbSpline
210
0.0
220
0.0
230
1.0
 70
    24
 71
     3
 72
     8
 73
     4
 74
     0
 42
0.000000001
 43
0.00000001
 40
0.0
 40
0.0
 40
0.0
 40
0.0
 40
1.0
 40
1.0
 40
1.0
 40
1.0
 10
73.2140221260875
 20
96.72254408729157
 30
0.0
 10
73.46491299174528
 20
97.16594282495225
 30
0.0
 10
73.72272404893589
 20
97.62157159809863
 30
0.0
 10
73.99111892846878
 20
98.095905131396
 30
0.0
  0
ARC
  5
281
330
1F
100
AcDbEntity
  8
0
  6
Continuous
 62
     7
370
     0
100
AcDbCircle
 10
77.4724477236
 20
96.1260447761
 30
0.0
 40
3.999999999940351
100
AcDbArc
 50
150.4972661119
 51
210.4972661049
  0
SPLINE
  5
282
330
1F
100
AcDbEntity
  8
0
  6
Continuous
 62
     7
370
     0
100
AcDbSpline
210
0.0
220
0.0
230
1.0
 70
    24
 71
     3
 72
     8
 73
     4
 74
     0
 42
0.000000001
 43
0.00000001
 40
0.0
 40
0.0
 40
0.0
 40
0.0
 40
1.0
 40
1.0
 40
1.0
 40
1.0
 10
74.02583421600482
 20
94.09605577908772
 30
0.0
 10
73.74924676606251
 20
94.56565932964145
 30
0.0
 10
73.48356620238343
 20
95.01674464107889
 30
0.0
 10
73.22501706439242
 20
95.45572187312072
 30
0.0
  0
ARC
  5
283
330
1F
100
AcDbEntity
  8
0
  6
Continuous
 62
     7
370
     0
100
AcDbCircle
 10
77.4724477236
 20
96.1260447761
 30
0.0
 40
4.300000000089859
100
AcDbArc
 50
232.0261705205
 51
248.9683617021
  0
ARC
  5
284
330
1F
100
AcDbEntity
  8
0
  6
Continuous
 62
     7
370
     0
100
AcDbCircle
 10
77.4724477236
 20
96.1260447761
 30
0.0
 40
3.999999999999992
100
AcDbArc
 50
210.4972661049
 51
270.497266093
  0
SPLINE
  5
285
330
1F
100
AcDbEntity
  8
0
  6
Continuous
 62
     7
370
     0
100
AcDbSpline
210
0.0
220
0.0
230
1.0
 70
    24
 71
     3
 72
     8
 73
     4
 74
     0
 42
0.000000001
 43
0.00000001
 40
0.0
 40
0.0
 40
0.0
 40
0.0
 40
1.0
 40
1.0
 40
1.0
 40
1.0
 10
77.50716301051236
 20
92.12619542284949
 30
0.0
 10
76.96218068111986
 20
92.12146544011577
 30
0.0
 10
76.43868905990948
 20
92.11692197843634
 30
0.0
 10
75.92924905635591
 20
92.11250047283751
 30
0.0
  0
SPLINE
  5
286
330
1F
100
AcDbEntity
  8
0
  6
Continuous
 62
     7
370
     0
100
AcDbSpline
210
0.0
220
0.0
230
1.0
 70
    24
 71
     3
 72
     8
 73
     4
 74
     0
 42
0.000000001
 43
0.00000001
 40
0.0
 40
0.0
 40
0.0
 40
0.0
 40
1.0
 40
1.0
 40
1.0
 40
1.0
 10
74.82665136792008
 20
92.73638968439666
 30
0.0
 10
74.56810222985618
 20
93.17536691656225
 30
0.0
 10
74.30242166598391
 20
93.6264522283996
 30
0.0
 10
74.02583421597618
 20
94.09605577906441
 30
0.0
  0
ARC
  5
287
330
1F
100
AcDbEntity
  8
0
  6
Continuous
 62
     7
370
     0
100
AcDbCircle
 10
77.4724477236
 20
96.1260447761
 30
0.0
 40
4.300000000035604
100
AcDbArc
 50
112.0261705174
 51
128.9683617051
  0
SPLINE
  5
288
330
1F
100
AcDbEntity
  8
0
  6
Continuous
 62
     7
370
     0
100
AcDbSpline
210
0.0
220
0.0
230
1.0
 70
    24
 71
     3
 72
     8
 73
     4
 74
     0
 42
0.000000001
 43
0.00000001
 40
0.0
 40
0.0
 40
0.0
 40
0.0
 40
1.0
 40
1.0
 40
1.0
 40
1.0
 10
75.85981848129187
 20
100.1121991793668
 30
0.0
 10
76.3692584850182
 20
100.1166206849671
 30
0.0
 10
76.89275010610943
 20
100.1211641466455
 30
0.0
 10
77.43773243567205
 20
100.1258941293807
 30
0.0
  0
ARC
  5
289
330
1F
100
AcDbEntity
  8
0
  6
Continuous
 62
     7
370
     0
100
AcDbCircle
 10
77.4724477236
 20
96.1260447761
 30
0.0
 40
3.999999999999991
100
AcDbArc
 50
90.4972661158
 51
150.4972661119
  0
SPLINE
  5
28A
330
1F
100
AcDbEntity
  8
0
  6
Continuous
 62
     7
370
     0
100
AcDbSpline
210
0.0
220
0.0
230
1.0
 70
    24
 71
     3
 72
     8
 73
     4
 74
     0
 42
0.000000001
 43
0.00000001
 40
0.0
 40
0.0
 40
0.0
 40
0.0
 40
1.0
 40
1.0
 40
1.0
 40
1.0
 10
73.9911189285033
 20
98.09590513138284
 30
0.0
 10
74.25951380811442
 20
98.57023866481843
 30
0.0
 10
74.51732486542633
 20
99.02586743825334
 30
0.0
 10
74.76821573115654
 20
99.46926617604204
 30
0.0
  0
ARC
  5
28B
330
1F
100
AcDbEntity
  8
0
  6
Continuous
 62
     7
370
     0
100
AcDbCircle
 10
77.4724477236
 20
96.1260447761
 30
0.0
 40
4.300000000147949
100
AcDbArc
 50
292.0261705212
 51
308.9683617008
  0
SPLINE
  5
28C
330
1F
100
AcDbEntity
  8
0
  6
Continuous
 62
     7
370
     0
100
AcDbSpline
210
0.0
220
0.0
230
1.0
 70
    24
 71
     3
 72
     8
 73
     4
 74
     0
 42
0.000000001
 43
0.00000001
 40
0.0
 40
0.0
 40
0.0
 40
0.0
 40
1.0
 40
1.0
 40
1.0
 40
1.0
 10
79.085076966615
 20
92.13989037288161
 30
0.0
 10
78.57563696236198
 20
92.13546886727671
 30
0.0
 10
78.05214534067122
 20
92.13092540558985
 30
0.0
 10
77.50716301051236
 20
92.12619542284949
 30
0.0
  0
ARC
  5
28D
330
1F
100
AcDbEntity
  8
0
  6
Continuous
 62
     7
370
     0
100
AcDbCircle
 10
77.4724477236
 20
96.1260447761
 30
0.0
 40
3.999999999999992
100
AcDbArc
 50
270.497266093
 51
330.4972661216
  0
SPLINE
  5
28E
330
1F
100
AcDbEntity
  8
0
  6
Continuous
 62
     7
370
     0
100
AcDbSpline
210
0.0
220
0.0
230
1.0
 70
    24
 71
     3
 72
     8
 73
     4
 74
     0
 42
0.000000001
 43
0.00000001
 40
0.0
 40
0.0
 40
0.0
 40
0.0
 40
1.0
 40
1.0
 40
1.0
 40
1.0
 10
80.95377651900446
 20
94.15618442137993
 30
0.0
 10
80.68538163916516
 20
93.68185088754106
 30
0.0
 10
80.42757058161327
 20
93.22622211372969
 30
0.0
 10
80.17667971568422
 20
92.78282337558959
 30
0.0
  0
ARC
  5
28F
330
1F
100
AcDbEntity
  8
0
  6
Continuous
 62
     7
370
     0
100
AcDbCircle
 10
77.4724477236
 20
96.1260447761
 30
0.0
 40
4.299999999977222
100
AcDbArc
 50
52.0261705205
 51
68.9683617065
  0
SPLINE
  5
290
330
1F
100
AcDbEntity
  8
0
  6
Continuous
 62
     7
370
     0
100
AcDbSpline
210
0.0
220
0.0
230
1.0
 70
    24
 71
     3
 72
     8
 73
     4
 74
     0
 42
0.000000001
 43
0.00000001
 40
0.0
 40
0.0
 40
0.0
 40
0.0
 40
1.0
 40
1.0
 40
1.0
 40
1.0
 10
80.11824407889735
 20
99.51569986846525
 30
0.0
 10
80.37679321693973
 20
99.0767226363362
 30
0.0
 10
80.6424737807937
 20
98.6256373245299
 30
0.0
 10
80.91906123079184
 20
98.15603377388138
 30
0.0
  0
ARC
  5
291
330
1F
100
AcDbEntity
  8
0
  6
Continuous
 62
     7
370
     0
100
AcDbCircle
 10
77.4724477236
 20
96.1260447761
 30
0.0
 40
3.999999999999991
100
AcDbArc
 50
30.4972661167
 51
90.4972661158
  0
SPLINE
  5
292
330
1F
100
AcDbEntity
  8
0
  6
Continuous
 62
     7
370
     0
100
AcDbSpline
210
0.0
220
0.0
230
1.0
 70
    24
 71
     3
 72
     8
 73
     4
 74
     0
 42
0.000000001
 43
0.00000001
 40
0.0
 40
0.0
 40
0.0
 40
0.0
 40
1.0
 40
1.0
 40
1.0
 40
1.0
 10
77.43773243567205
 20
100.1258941293807
 30
0.0
 10
77.9827147653028
 20
100.1306241121165
 30
0.0
 10
78.50620638629401
 20
100.135167573794
 30
0.0
 10
79.01564639009487
 20
100.139589079395
 30
0.0
  0
ARC
  5
293
330
1F
100
AcDbEntity
  8
0
  6
Continuous
 62
     7
370
     0
100
AcDbCircle
 10
77.4724477236
 20
96.1260447761
 30
0.0
 40
4.2999999999704
100
AcDbArc
 50
352.0261705189
 51
8.9683617089
  0
ARC
  5
294
330
1F
100
AcDbEntity
  8
0
  6
Continuous
 62
     7
370
     0
100
AcDbCircle
 10
77.4724477236
 20
96.1260447761
 30
0.0
 40
3.999999999940367
100
AcDbArc
 50
330.4972661216
 51
30.4972661167
  0
SPLINE
  5
295
330
1F
100
AcDbEntity
  8
0
  6
Continuous
 62
     7
370
     0
100
AcDbSpline
210
0.0
220
0.0
230
1.0
 70
    24
 71
     3
 72
     8
 73
     4
 74
     0
 42
0.000000001
 43
0.00000001
 40
0.0
 40
0.0
 40
0.0
 40
0.0
 40
1.0
 40
1.0
 40
1.0
 40
1.0
 10
80.9190612307632
 20
98.15603377385807
 30
0.0
 10
81.19564868071511
 20
97.68643022328806
 30
0.0
 10
81.46132924441248
 20
97.23534491181955
 30
0.0
 10
81.71987838242502
 20
96.79636767974118
 30
0.0
  0
SPLINE
  5
296
330
1F
100
AcDbEntity
  8
0
  6
Continuous
 62
     7
370
     0
100
AcDbSpline
210
0.0
220
0.0
230
1.0
 70
    24
 71
     3
 72
     8
 73
     4
 74
     0
 42
0.000000001
 43
0.00000001
 40
0.0
 40
0.0
 40
0.0
 40
0.0
 40
1.0
 40
1.0
 40
1.0
 40
1.0
 10
81.73087332152508
 20
95.52954546554948
 30
0.0
 10
81.47998245586703
 20
95.0861467278883
 30
0.0
 10
81.22217139856119
 20
94.63051795469286
 30
0.0
 10
80.95377651901681
 20
94.15618442137523
 30
0.0
  0
LINE
  5
297
330
1F
100
AcDbEntity
  8
0
  6
Continuous
 62
     7
370
     0
100
AcDbLine
 10
95.6581438822
 20
98.8760447612
 30
0.0
 11
95.6581438822
 21
99.1260448022
 31
0.0
  0
LINE
  5
298
330
1F
100
AcDbEntity
  8
0
  6
Continuous
 62
     7
370
     0
100
AcDbLine
 10
95.6581438822
 20
99.1260448022
 30
0.0
 11
95.9780792636
 21
99.1260448022
 31
0.0
  0
LINE
  5
299
330
1F
100
AcDbEntity
  8
0
  6
Continuous
 62
     7
370
     0
100
AcDbLine
 10
95.5561063183
 20
99.1260448022
 30
0.0
 11
95.6581438822
 21
99.1260448022
 31
0.0
  0
LINE
  5
29A
330
1F
100
AcDbEntity
  8
0
  6
Continuous
 62
     7
370
     0
100
AcDbLine
 10
90.9749817965
 20
93.12604475
 30
0.0
 11
90.4724475858
 21
93.5641393548
 31
0.0
  0
LINE
  5
29B
330
1F
100
AcDbEntity
  8
0
  6
Continuous
 62
     7
370
     0
100
AcDbLine
 10
90.9749817965
 20
93.12604475
 30
0.0
 11
90.4724475858
 21
93.12604475
 31
0.0
  0
LINE
  5
29C
330
1F
100
AcDbEntity
  8
0
  6
Continuous
 62
     7
370
     0
100
AcDbLine
 10
90.4724475858
 20
99.1260448022
 30
0.0
 11
90.9749817965
 21
99.1260448022
 31
0.0
  0
LINE
  5
29D
330
1F
100
AcDbEntity
  8
0
  6
Continuous
 62
     7
370
     0
100
AcDbLine
 10
90.9749817965
 20
99.1260448022
 30
0.0
 11
90.4724475858
 21
98.6879501974
 31
0.0
  0
LINE
  5
29E
330
1F
100
AcDbEntity
  8
0
  6
Continuous
 62
     7
370
     0
100
AcDbLine
 10
90.9749817965
 20
99.1260448022
 30
0.0
 11
90.9749817965
 21
93.12604475
 31
0.0
  0
LINE
  5
29F
330
1F
100
AcDbEntity
  8
0
  6
Continuous
 62
     7
370
     0
100
AcDbLine
 10
92.6974638296
 20
99.1260448022
 30
0.0
 11
92.6974638296
 21
93.12604475
 31
0.0
  0
LINE
  5
2A0
330
1F
100
AcDbEntity
  8
0
  6
Continuous
 62
     7
370
     0
100
AcDbLine
 10
90.9749817965
 20
99.1260448022
 30
0.0
 11
92.6974638296
 21
99.1260448022
 31
0.0
  0
LINE
  5
2A1
330
1F
100
AcDbEntity
  8
0
  6
Continuous
 62
     7
370
     0
100
AcDbLine
 10
90.9749817965
 20
93.12604475
 30
0.0
 11
92.6974638296
 21
93.12604475
 31
0.0
  0
LINE
  5
2A2
330
1F
100
AcDbEntity
  8
0
  6
Continuous
 62
     7
370
     0
100
AcDbLine
 10
94.0835214151
 20
94.6260447631
 30
0.0
 11
94.0835214151
 21
97.6260447892
 31
0.0
  0
LINE
  5
2A3
330
1F
100
AcDbEntity
  8
0
  6
Continuous
 62
     7
370
     0
100
AcDbLine
 10
92.6974638296
 20
97.6260447892
 30
0.0
 11
94.0835214151
 21
97.6260447892
 31
0.0
  0
LINE
  5
2A4
330
1F
100
AcDbEntity
  8
0
  6
Continuous
 62
     7
370
     0
100
AcDbLine
 10
92.6974638296
 20
94.6260447631
 30
0.0
 11
94.0835214151
 21
94.6260447631
 31
0.0
  0
LINE
  5
2A5
330
1F
100
AcDbEntity
  8
0
  6
Continuous
 62
     7
370
     0
100
AcDbLine
 10
63.96991377
 20
93.12604475
 30
0.0
 11
63.96991377
 21
99.1260448022
 31
0.0
  0
LINE
  5
2A6
330
1F
100
AcDbEntity
  8
0
  6
Continuous
 62
     7
370
     0
100
AcDbLine
 10
63.96991377
 20
99.1260448022
 30
0.0
 11
64.4724479807
 21
98.6879501974
 31
0.0
  0
LINE
  5
2A7
330
1F
100
AcDbEntity
  8
0
  6
Continuous
 62
     7
370
     0
100
AcDbLine
 10
63.96991377
 20
93.12604475
 30
0.0
 11
64.4724479807
 21
93.5641393548
 31
0.0
  0
LINE
  5
2A8
330
1F
100
AcDbEntity
  8
0
  6
Continuous
 62
     7
370
     0
100
AcDbLine
 10
64.4724479807
 20
93.12604475
 30
0.0
 11
63.96991377
 21
93.12604475
 31
0.0
  0
LINE
  5
2A9
330
1F
100
AcDbEntity
  8
0
  6
Continuous
 62
     7
370
     0
100
AcDbLine
 10
63.96991377
 20
99.1260448022
 30
0.0
 11
64.4724479807
 21
99.1260448022
 31
0.0
  0
LINE
  5
2AA
330
1F
100
AcDbEntity
  8
0
  6
Continuous
 62
     7
370
     0
100
AcDbLine
 10
62.2474308056
 20
93.12604475
 30
0.0
 11
62.2474308056
 21
99.1260448022
 31
0.0
  0
LINE
  5
2AB
330
1F
100
AcDbEntity
  8
0
  6
Continuous
 62
     7
370
     0
100
AcDbLine
 10
63.96991377
 20
99.1260448022
 30
0.0
 11
62.2474308056
 21
99.1260448022
 31
0.0
  0
LINE
  5
2AC
330
1F
100
AcDbEntity
  8
0
  6
Continuous
 62
     7
370
     0
100
AcDbLine
 10
63.96991377
 20
93.12604475
 30
0.0
 11
62.2474308056
 21
93.12604475
 31
0.0
  0
LINE
  5
2AD
330
1F
100
AcDbEntity
  8
0
  6
Continuous
 62
     7
370
     0
100
AcDbLine
 10
60.8613732202
 20
97.6260447892
 30
0.0
 11
60.8613732202
 21
94.6260447631
 31
0.0
  0
LINE
  5
2AE
330
1F
100
AcDbEntity
  8
0
  6
Continuous
 62
     7
370
     0
100
AcDbLine
 10
62.2474308056
 20
97.6260447892
 30
0.0
 11
60.8613732202
 21
97.6260447892
 31
0.0
  0
LINE
  5
2AF
330
1F
100
AcDbEntity
  8
0
  6
Continuous
 62
     7
370
     0
100
AcDbLine
 10
62.2474308056
 20
94.6260447631
 30
0.0
 11
60.8613732202
 21
94.6260447631
 31
0.0
  0
LINE
  5
2B0
330
1F
100
AcDbEntity
  8
0
  6
Continuous
 62
     7
370
     0
100
AcDbLine
 10
96.4716411126
 20
93.12604475
 30
0.0
 11
96.4716411126
 21
93.5285642294
 31
0.0
  0
LINE
  5
2B1
330
1F
100
AcDbEntity
  8
0
  6
Continuous
 62
     7
370
     0
100
AcDbLine
 10
96.4716411126
 20
98.7141052278
 30
0.0
 11
96.4716411126
 21
99.6260448842
 31
0.0
  0
LINE
  5
2B2
330
1F
100
AcDbEntity
  8
0
  6
Continuous
 62
     7
370
     0
100
AcDbLine
 10
95.5561063183
 20
93.12604475
 30
0.0
 11
96.4716411126
 21
93.12604475
 31
0.0
  0
LINE
  5
2B3
330
1F
100
AcDbEntity
  8
0
  6
Continuous
 62
     7
370
     0
100
AcDbLine
 10
95.9780792636
 20
99.1260448022
 30
0.0
 11
95.9780792636
 21
98.8760447612
 31
0.0
  0
LINE
  5
2B4
330
1F
100
AcDbEntity
  8
0
  6
Continuous
 62
     7
370
     0
100
AcDbLine
 10
96.4716411126
 20
99.6260448842
 30
0.0
 11
90.7463318599
 21
99.6260448842
 31
0.0
  0
LINE
  5
2B5
330
1F
100
AcDbEntity
  8
0
  6
Continuous
 62
     7
370
     0
100
AcDbLine
 10
99.3510669959
 20
98.8260448462
 30
0.0
 11
99.3510669959
 21
99.6260448842
 31
0.0
  0
LINE
  5
2B6
330
1F
100
AcDbEntity
  8
0
  6
Continuous
 62
     7
370
     0
100
AcDbLine
 10
99.3510669959
 20
93.926044788
 30
0.0
 11
99.3510669959
 21
98.8260448462
 31
0.0
  0
LINE
  5
2B7
330
1F
100
AcDbEntity
  8
0
  6
Continuous
 62
     7
370
     0
100
AcDbLine
 10
99.3510669959
 20
93.12604475
 30
0.0
 11
99.3510669959
 21
93.926044788
 31
0.0
  0
LINE
  5
2B8
330
1F
100
AcDbEntity
  8
0
  6
Continuous
 62
     7
370
     0
100
AcDbLine
 10
96.4716411126
 20
93.12604475
 30
0.0
 11
99.3510669959
 21
93.12604475
 31
0.0
  0
LINE
  5
2B9
330
1F
100
AcDbEntity
  8
0
  6
Continuous
 62
     7
370
     0
100
AcDbLine
 10
96.4716411126
 20
99.6260448842
 30
0.0
 11
99.3510669959
 21
99.6260448842
 31
0.0
  0
LINE
  5
2BA
330
1F
100
AcDbEntity
  8
0
  6
Continuous
 62
     7
370
     0
100
AcDbLine
 10
99.3510669959
 20
98.8260448462
 30
0.0
 11
99.3575061602
 21
98.8260448462
 31
0.0
  0
LINE
  5
2BB
330
1F
100
AcDbEntity
  8
0
  6
Continuous
 62
     7
370
     0
100
AcDbLine
 10
99.3575061602
 20
93.926044788
 30
0.0
 11
99.3510669959
 21
93.926044788
 31
0.0
  0
LWPOLYLINE
  5
2BC
330
1F
100
AcDbEntity
  8
0
  6
Continuous
 62
     8
370
     0
100
AcDbPolyline
 90
        3
 70
   128
 43
0.0
 10
58.5709827883
 20
93.5349663736
 10
58.6722045136
 20
93.4025474375
 10
58.7435400975
 20
93.376044791
  0
LWPOLYLINE
  5
2BD
330
1F
100
AcDbEntity
  8
0
  6
Continuous
 62
     8
370
     0
100
AcDbPolyline
 90
       15
 70
   128
 43
0.0
 10
58.7435400975
 20
98.8760447612
 10
58.6588996393
 20
98.8386591448
 10
58.5583596421
 20
98.6921625694
 10
58.4654024733
 20
98.4406090824
 10
58.3838316543
 20
98.0942970159
 10
58.3169887704
 20
97.667404359
 10
58.2676063222
 20
97.1774083113
 10
58.2377108676
 20
96.6443693282
 10
58.2285224391
 20
96.090110102
 10
58.2404210163
 20
95.5373220163
 10
58.2729148609
 20
95.0086362677
 10
58.3246777696
 20
94.5256974332
 10
58.3935881895
 20
94.108276909
 10
58.476826076
 20
93.7734641152
 10
58.5709827883
 20
93.5349663736
  0
LINE
  5
2BE
330
1F
100
AcDbEntity
  8
0
  6
Continuous
 62
     8
370
     0
100
AcDbLine
 10
90.4724475858
 20
100.7310404925
 30
0.0
 11
91.6345518944
 21
100.7310404925
 31
0.0
  0
LINE
  5
2BF
330
1F
100
AcDbEntity
  8
0
  6
Continuous
 62
     8
370
     0
100
AcDbLine
 10
90.4724475858
 20
100.922848705
 30
0.0
 11
91.5388072771
 21
100.922848705
 31
0.0
  0
POINT
  5
2C0
330
1F
100
AcDbEntity
  8
0
  6
Continuous
 62
     7
370
     0
100
AcDbPoint
 10
58.0659381216
 20
96.1260447647
 30
0.0
  0
DIMENSION
  5
2C1
330
1F
100
AcDbEntity
  8
0
  6
Continuous
 62
     7
370
     0
100
AcDbDimension
  2
_D_10
 10
99.3510669133
 20
73.6260447761
 30
0.0
 11
78.7085025175
 21
73.6260447761
 31
0.0
 70
   160
  1
(<>)
 71
     2
 42
-1.0
  3
SLDDIMSTYLE1
100
AcDbAlignedDimension
 13
58.0659381216
 23
96.1260447647
 33
0.0
 14
99.3510669133
 24
93.1260447761
 34
0.0
100
AcDbRotatedDimension
  0
DIMENSION
  5
2CD
330
1F
100
AcDbEntity
  8
0
  6
Continuous
 62
     7
370
     0
100
AcDbDimension
  2
_D_11
 10
77.4724477236
 20
81.6735063104
 30
0.0
 11
67.7691929226
 21
81.6735063104
 31
0.0
 70
   160
  1
(<>)
 71
     2
 42
-1.0
  3
SLDDIMSTYLE1
100
AcDbAlignedDimension
 13
58.0659381216
 23
96.1260447647
 33
0.0
 14
77.4724477236
 24
88.1260447761
 34
0.0
100
AcDbRotatedDimension
  0
INSERT
  5
2E4
330
1F
100
AcDbEntity
  8
0
  6
Continuous
 62
     7
370
     0
100
AcDbBlockReference
  2
SW_CENTERMARKSYMBOL_5
 10
77.4724477236
 20
96.1260447761
 30
0.0
  0
LINE
  5
2E5
330
1F
100
AcDbEntity
  8
0
  6
Continuous
 62
     7
370
     0
100
AcDbLine
 10
160.1829893398
 20
157.4010478274
 30
0.0
 11
160.6829894217
 21
156.9010468141
 31
0.0
  0
LINE
  5
2E6
330
1F
100
AcDbEntity
  8
0
  6
Continuous
 62
     7
370
     0
100
AcDbLine
 10
171.6829893621
 20
156.9010468141
 30
0.0
 11
172.1829894441
 21
157.4010478274
 31
0.0
  0
LINE
  5
2E7
330
1F
100
AcDbEntity
  8
0
  6
Continuous
 62
     7
370
     0
100
AcDbLine
 10
160.1829893398
 20
172.901047574
 30
0.0
 11
160.1829893398
 21
157.4010478274
 31
0.0
  0
LINE
  5
2E8
330
1F
100
AcDbEntity
  8
0
  6
Continuous
 62
     7
370
     0
100
AcDbLine
 10
172.1829894441
 20
157.4010478274
 30
0.0
 11
172.1829894441
 21
172.901047574
 31
0.0
  0
LINE
  5
2E9
330
1F
100
AcDbEntity
  8
0
  6
Continuous
 62
     7
370
     0
100
AcDbLine
 10
163.4329894068
 20
211.9588108674
 30
0.0
 11
163.4329894068
 21
211.621679546
 31
0.0
  0
LINE
  5
2EA
330
1F
100
AcDbEntity
  8
0
  6
Continuous
 62
     7
370
     0
100
AcDbLine
 10
168.932989377
 20
211.621679546
 30
0.0
 11
168.932989377
 21
211.9588108674
 31
0.0
  0
LINE
  5
2EB
330
1F
100
AcDbEntity
  8
0
  6
Continuous
 62
     7
370
     0
100
AcDbLine
 10
163.4329894068
 20
202.1357726247
 30
0.0
 11
163.4329894068
 21
201.7986422346
 31
0.0
  0
LINE
  5
2EC
330
1F
100
AcDbEntity
  8
0
  6
Continuous
 62
     7
370
     0
100
AcDbLine
 10
168.932989377
 20
201.7986422346
 30
0.0
 11
168.932989377
 21
202.1357726247
 31
0.0
  0
LINE
  5
2ED
330
1F
100
AcDbEntity
  8
0
  6
Continuous
 62
     7
370
     0
100
AcDbLine
 10
164.3829894229
 20
148.9010492281
 30
0.0
 11
164.6829893789
 21
146.9010489002
 31
0.0
  0
LINE
  5
2EE
330
1F
100
AcDbEntity
  8
0
  6
Continuous
 62
     7
370
     0
100
AcDbLine
 10
167.682989405
 20
146.9010489002
 30
0.0
 11
167.982989361
 21
148.9010492281
 31
0.0
  0
LINE
  5
2EF
330
1F
100
AcDbEntity
  8
0
  6
Continuous
 62
     7
370
     0
100
AcDbLine
 10
167.982989361
 20
148.9010492281
 30
0.0
 11
167.982989361
 21
149.4010465161
 31
0.0
  0
LINE
  5
2F0
330
1F
100
AcDbEntity
  8
0
  6
Continuous
 62
     7
370
     0
100
AcDbLine
 10
164.3829894229
 20
149.4010465161
 30
0.0
 11
164.3829894229
 21
148.9010492281
 31
0.0
  0
LINE
  5
2F1
330
1F
100
AcDbEntity
  8
0
  6
Continuous
 62
     7
370
     0
100
AcDbLine
 10
164.3829894229
 20
151.4010468439
 30
0.0
 11
164.5829894324
 21
149.4010465161
 31
0.0
  0
LINE
  5
2F2
330
1F
100
AcDbEntity
  8
0
  6
Continuous
 62
     7
370
     0
100
AcDbLine
 10
167.7829893515
 20
149.4010465161
 30
0.0
 11
167.982989361
 21
151.4010468439
 31
0.0
  0
LINE
  5
2F3
330
1F
100
AcDbEntity
  8
0
  6
Continuous
 62
     7
370
     0
100
AcDbLine
 10
167.982989361
 20
151.4010468439
 30
0.0
 11
167.982989361
 21
151.9010478572
 31
0.0
  0
LINE
  5
2F4
330
1F
100
AcDbEntity
  8
0
  6
Continuous
 62
     7
370
     0
100
AcDbLine
 10
164.3829894229
 20
151.9010478572
 30
0.0
 11
164.3829894229
 21
151.4010468439
 31
0.0
  0
LINE
  5
2F5
330
1F
100
AcDbEntity
  8
0
  6
Continuous
 62
     7
370
     0
100
AcDbLine
 10
167.7829893515
 20
151.9010478572
 30
0.0
 11
167.7829893515
 21
153.901048185
 31
0.0
  0
LINE
  5
2F6
330
1F
100
AcDbEntity
  8
0
  6
Continuous
 62
     7
370
     0
100
AcDbLine
 10
164.5829894324
 20
153.901048185
 30
0.0
 11
164.5829894324
 21
151.9010478572
 31
0.0
  0
LINE
  5
2F7
330
1F
100
AcDbEntity
  8
0
  6
Continuous
 62
     7
370
     0
100
AcDbLine
 10
164.4829893694
 20
224.0443939284
 30
0.0
 11
164.4829893694
 21
222.5100623385
 31
0.0
  0
LINE
  5
2F8
330
1F
100
AcDbEntity
  8
0
  6
Continuous
 62
     7
370
     0
100
AcDbLine
 10
167.3829894489
 20
222.5100623385
 30
0.0
 11
167.3829894489
 21
224.0443939284
 31
0.0
  0
LINE
  5
2F9
330
1F
100
AcDbEntity
  8
0
  6
Continuous
 62
     7
370
     0
100
AcDbLine
 10
161.5779936756
 20
229.1604505793
 30
0.0
 11
162.6829892839
 21
229.1604505793
 31
0.0
  0
LINE
  5
2FA
330
1F
100
AcDbEntity
  8
0
  6
Continuous
 62
     7
370
     0
100
AcDbLine
 10
162.6829892839
 20
234.1604495362
 30
0.0
 11
161.5779936756
 21
234.1604495362
 31
0.0
  0
ARC
  5
2FB
330
1F
100
AcDbEntity
  8
0
  6
Continuous
 62
     7
370
     0
100
AcDbCircle
 10
161.5779935517
 20
229.4004500818
 30
0.0
 40
0.2399999999999869
100
AcDbArc
 50
216.9461268967
 51
270.0
  0
ARC
  5
2FC
330
1F
100
AcDbEntity
  8
0
  6
Continuous
 62
     7
370
     0
100
AcDbCircle
 10
161.5779935517
 20
233.9204500818
 30
0.0
 40
0.2399999999999869
100
AcDbArc
 50
90.0
 51
143.0538731033
  0
ARC
  5
2FD
330
1F
100
AcDbEntity
  8
0
  6
Continuous
 62
     7
370
     0
100
AcDbCircle
 10
164.5829893919
 20
231.6604500818
 30
0.0
 40
4.000000000000004
100
AcDbArc
 50
195.3096496086
 51
216.9461268967
  0
ARC
  5
2FE
330
1F
100
AcDbEntity
  8
0
  6
Continuous
 62
     7
370
     0
100
AcDbCircle
 10
164.5829893919
 20
231.6604500818
 30
0.0
 40
4.000000000000034
100
AcDbArc
 50
143.0538731033
 51
164.6903503914
  0
LINE
  5
2FF
330
1F
100
AcDbEntity
  8
0
  6
Continuous
 62
     7
370
     0
100
AcDbLine
 10
167.582989342
 20
247.6711237744
 30
0.0
 11
164.7829894419
 21
247.6711237744
 31
0.0
  0
LINE
  5
300
330
1F
100
AcDbEntity
  8
0
  6
Continuous
 62
     7
370
     0
100
AcDbLine
 10
167.682989405
 20
195.6846329324
 30
0.0
 11
164.6829893789
 21
195.6846329324
 31
0.0
  0
LINE
  5
301
330
1F
100
AcDbEntity
  8
0
  6
Continuous
 62
     7
370
     0
100
AcDbLine
 10
164.6829893789
 20
195.6284443789
 30
0.0
 11
164.6829893789
 21
195.6846329324
 31
0.0
  0
LINE
  5
302
330
1F
100
AcDbEntity
  8
0
  6
Continuous
 62
     7
370
     0
100
AcDbLine
 10
164.3829894229
 20
195.3475020767
 30
0.0
 11
164.6829893789
 21
195.4036906302
 31
0.0
  0
LINE
  5
303
330
1F
100
AcDbEntity
  8
0
  6
Continuous
 62
     7
370
     0
100
AcDbLine
 10
163.1829893659
 20
195.3475020767
 30
0.0
 11
164.3829894229
 21
195.3475020767
 31
0.0
  0
LINE
  5
304
330
1F
100
AcDbEntity
  8
0
  6
Continuous
 62
     7
370
     0
100
AcDbLine
 10
163.1829893659
 20
195.9093866811
 30
0.0
 11
163.1829893659
 21
195.3475020767
 31
0.0
  0
LINE
  5
305
330
1F
100
AcDbEntity
  8
0
  6
Continuous
 62
     7
370
     0
100
AcDbLine
 10
169.182989418
 20
195.9093866811
 30
0.0
 11
163.1829893659
 21
195.9093866811
 31
0.0
  0
LINE
  5
306
330
1F
100
AcDbEntity
  8
0
  6
Continuous
 62
     7
370
     0
100
AcDbLine
 10
169.182989418
 20
195.3475020767
 30
0.0
 11
169.182989418
 21
195.9093866811
 31
0.0
  0
LINE
  5
307
330
1F
100
AcDbEntity
  8
0
  6
Continuous
 62
     7
370
     0
100
AcDbLine
 10
167.982989361
 20
195.3475020767
 30
0.0
 11
169.182989418
 21
195.3475020767
 31
0.0
  0
LINE
  5
308
330
1F
100
AcDbEntity
  8
0
  6
Continuous
 62
     7
370
     0
100
AcDbLine
 10
167.682989405
 20
195.4036906302
 30
0.0
 11
167.982989361
 21
195.3475020767
 31
0.0
  0
LINE
  5
309
330
1F
100
AcDbEntity
  8
0
  6
Continuous
 62
     7
370
     0
100
AcDbLine
 10
167.682989405
 20
195.6846329324
 30
0.0
 11
167.682989405
 21
195.6284443789
 31
0.0
  0
LINE
  5
30A
330
1F
100
AcDbEntity
  8
0
  6
Continuous
 62
     7
370
     0
100
AcDbLine
 10
163.1829893659
 20
224.7962916211
 30
0.0
 11
163.1829893659
 21
195.9093866811
 31
0.0
  0
LINE
  5
30B
330
1F
100
AcDbEntity
  8
0
  6
Continuous
 62
     7
370
     0
100
AcDbLine
 10
169.182989418
 20
224.7962916211
 30
0.0
 11
167.932989446
 21
224.7962916211
 31
0.0
  0
LINE
  5
30C
330
1F
100
AcDbEntity
  8
0
  6
Continuous
 62
     7
370
     0
100
AcDbLine
 10
163.9329894888
 20
224.7962916211
 30
0.0
 11
163.1829893659
 21
224.7962916211
 31
0.0
  0
LINE
  5
30D
330
1F
100
AcDbEntity
  8
0
  6
Continuous
 62
     7
370
     0
100
AcDbLine
 10
169.182989418
 20
195.9093866811
 30
0.0
 11
169.182989418
 21
224.7962916211
 31
0.0
  0
LINE
  5
30E
330
1F
100
AcDbEntity
  8
0
  6
Continuous
 62
     7
370
     0
100
AcDbLine
 10
169.182989418
 20
226.5703344659
 30
0.0
 11
168.6829893361
 21
226.5703344659
 31
0.0
  0
LINE
  5
30F
330
1F
100
AcDbEntity
  8
0
  6
Continuous
 62
     7
370
     0
100
AcDbLine
 10
163.1829893659
 20
226.5703344659
 30
0.0
 11
162.4829893908
 21
226.5703344659
 31
0.0
  0
LINE
  5
310
330
1F
100
AcDbEntity
  8
0
  6
Continuous
 62
     7
370
     0
100
AcDbLine
 10
162.4829893908
 20
226.5703344659
 30
0.0
 11
162.4829893908
 21
227.8535926655
 31
0.0
  0
LINE
  5
311
330
1F
100
AcDbEntity
  8
0
  6
Continuous
 62
     7
370
     0
100
AcDbLine
 10
162.4829893908
 20
227.8535926655
 30
0.0
 11
162.6829892839
 21
227.8535926655
 31
0.0
  0
LINE
  5
312
330
1F
100
AcDbEntity
  8
0
  6
Continuous
 62
     7
370
     0
100
AcDbLine
 10
169.182989418
 20
226.5703344659
 30
0.0
 11
169.182989418
 21
226.9257755891
 31
0.0
  0
LINE
  5
313
330
1F
100
AcDbEntity
  8
0
  6
Continuous
 62
     7
370
     0
100
AcDbLine
 10
162.4829893908
 20
228.365492256
 30
0.0
 11
162.6829892839
 21
228.365492256
 31
0.0
  0
LINE
  5
314
330
1F
100
AcDbEntity
  8
0
  6
Continuous
 62
     7
370
     0
100
AcDbLine
 10
162.4829893908
 20
227.8535926655
 30
0.0
 11
162.4829893908
 21
228.365492256
 31
0.0
  0
LINE
  5
315
330
1F
100
AcDbEntity
  8
0
  6
Continuous
 62
     7
370
     0
100
AcDbLine
 10
171.6829893621
 20
172.901047574
 30
0.0
 11
171.6829893621
 21
212.9010485426
 31
0.0
  0
LINE
  5
316
330
1F
100
AcDbEntity
  8
0
  6
Continuous
 62
     7
370
     0
100
AcDbLine
 10
171.6829893621
 20
212.9010485426
 30
0.0
 11
172.6829895261
 21
213.9010468439
 31
0.0
  0
LINE
  5
317
330
1F
100
AcDbEntity
  8
0
  6
Continuous
 62
     7
370
     0
100
AcDbLine
 10
172.6829895261
 20
213.9010468439
 30
0.0
 11
172.6829895261
 21
172.901047574
 31
0.0
  0
LINE
  5
318
330
1F
100
AcDbEntity
  8
0
  6
Continuous
 62
     7
370
     0
100
AcDbLine
 10
172.6829895261
 20
172.901047574
 30
0.0
 11
171.6829893621
 21
172.901047574
 31
0.0
  0
ARC
  5
319
330
1F
100
AcDbEntity
  8
0
  6
Continuous
 62
     7
370
     0
100
AcDbCircle
 10
166.1829893919
 20
211.4010476545
 30
0.0
 40
3.75
100
AcDbArc
 50
156.4218215218
 51
216.8698976458
  0
ARC
  5
31A
330
1F
100
AcDbEntity
  8
0
  6
Continuous
 62
     7
370
     0
100
AcDbCircle
 10
166.1829893919
 20
193.9010476545
 30
0.0
 40
5.000000000000023
100
AcDbArc
 50
126.8698976458
 51
180.0
  0
LINE
  5
31B
330
1F
100
AcDbEntity
  8
0
  6
Continuous
 62
     7
370
     0
100
AcDbLine
 10
161.1829895037
 20
185.9010476094
 30
0.0
 11
161.1829895037
 21
193.9010477566
 31
0.0
  0
ARC
  5
31C
330
1F
100
AcDbEntity
  8
0
  6
Continuous
 62
     7
370
     0
100
AcDbCircle
 10
166.1829893919
 20
185.9010476545
 30
0.0
 40
5.000000000000028
100
AcDbArc
 50
180.0
 51
0.0
  0
LINE
  5
31D
330
1F
100
AcDbEntity
  8
0
  6
Continuous
 62
     7
370
     0
100
AcDbLine
 10
171.1829892802
 20
193.9010477566
 30
0.0
 11
171.1829892802
 21
185.9010476094
 31
0.0
  0
ARC
  5
31E
330
1F
100
AcDbEntity
  8
0
  6
Continuous
 62
     7
370
     0
100
AcDbCircle
 10
166.1829893919
 20
193.9010476545
 30
0.0
 40
5.00000000000004
100
AcDbArc
 50
0.0
 51
53.1301023542
  0
ARC
  5
31F
330
1F
100
AcDbEntity
  8
0
  6
Continuous
 62
     7
370
     0
100
AcDbCircle
 10
166.1829893919
 20
211.4010476545
 30
0.0
 40
3.750000000000023
100
AcDbArc
 50
323.1301023542
 51
23.5781784782
  0
LINE
  5
320
330
1F
100
AcDbEntity
  8
0
  6
Continuous
 62
     7
370
     0
100
AcDbLine
 10
171.6829893621
 20
212.9010485426
 30
0.0
 11
169.6199212665
 21
212.9010485426
 31
0.0
  0
LINE
  5
321
330
1F
100
AcDbEntity
  8
0
  6
Continuous
 62
     7
370
     0
100
AcDbLine
 10
160.6829894217
 20
212.9010485426
 30
0.0
 11
160.6829894217
 21
172.901047574
 31
0.0
  0
LINE
  5
322
330
1F
100
AcDbEntity
  8
0
  6
Continuous
 62
     7
370
     0
100
AcDbLine
 10
162.7460575173
 20
212.9010485426
 30
0.0
 11
160.6829894217
 21
212.9010485426
 31
0.0
  0
LINE
  5
323
330
1F
100
AcDbEntity
  8
0
  6
Continuous
 62
     7
370
     0
100
AcDbLine
 10
160.6829894217
 20
172.901047574
 30
0.0
 11
171.6829893621
 21
172.901047574
 31
0.0
  0
LINE
  5
324
330
1F
100
AcDbEntity
  8
0
  6
Continuous
 62
     7
370
     0
100
AcDbLine
 10
159.6829892578
 20
172.901047574
 30
0.0
 11
159.6829892578
 21
213.9010468439
 31
0.0
  0
LINE
  5
325
330
1F
100
AcDbEntity
  8
0
  6
Continuous
 62
     7
370
     0
100
AcDbLine
 10
159.6829892578
 20
213.9010468439
 30
0.0
 11
160.6829894217
 21
212.9010485426
 31
0.0
  0
LINE
  5
326
330
1F
100
AcDbEntity
  8
0
  6
Continuous
 62
     7
370
     0
100
AcDbLine
 10
160.6829894217
 20
172.901047574
 30
0.0
 11
159.6829892578
 21
172.901047574
 31
0.0
  0
LINE
  5
327
330
1F
100
AcDbEntity
  8
0
  6
Continuous
 62
     7
370
     0
100
AcDbLine
 10
169.182989418
 20
215.9010471717
 30
0.0
 11
170.6829891982
 21
215.9010471717
 31
0.0
  0
LINE
  5
328
330
1F
100
AcDbEntity
  8
0
  6
Continuous
 62
     7
370
     0
100
AcDbLine
 10
172.6829895261
 20
213.9010468439
 30
0.0
 11
170.6829891982
 21
215.9010471717
 31
0.0
  0
ARC
  5
329
330
1F
100
AcDbEntity
  8
0
  6
Continuous
 62
     7
370
     0
100
AcDbCircle
 10
166.1829893919
 20
211.4010476545
 30
0.0
 40
3.749999999999988
100
AcDbArc
 50
23.5781784782
 51
36.8698976458
  0
LINE
  5
32A
330
1F
100
AcDbEntity
  8
0
  6
Continuous
 62
     7
370
     0
100
AcDbLine
 10
161.6829895857
 20
215.9010471717
 30
0.0
 11
159.6829892578
 21
213.9010468439
 31
0.0
  0
LINE
  5
32B
330
1F
100
AcDbEntity
  8
0
  6
Continuous
 62
     7
370
     0
100
AcDbLine
 10
161.6829895857
 20
215.9010471717
 30
0.0
 11
163.1829893659
 21
215.9010471717
 31
0.0
  0
ARC
  5
32C
330
1F
100
AcDbEntity
  8
0
  6
Continuous
 62
     7
370
     0
100
AcDbCircle
 10
166.1829893919
 20
211.4010476545
 30
0.0
 40
3.749999999999983
100
AcDbArc
 50
143.1301023542
 51
156.4218215218
  0
LINE
  5
32D
330
1F
100
AcDbEntity
  8
0
  6
Continuous
 62
     7
370
     0
100
AcDbLine
 10
169.182989418
 20
246.1336890176
 30
0.0
 11
167.682989405
 21
246.1336890176
 31
0.0
  0
LINE
  5
32E
330
1F
100
AcDbEntity
  8
0
  6
Continuous
 62
     7
370
     0
100
AcDbLine
 10
167.682989405
 20
246.1336890176
 30
0.0
 11
167.682989405
 21
245.7954177574
 31
0.0
  0
LINE
  5
32F
330
1F
100
AcDbEntity
  8
0
  6
Continuous
 62
     7
370
     0
100
AcDbLine
 10
169.182989418
 20
245.3018540457
 30
0.0
 11
169.182989418
 21
246.1336890176
 31
0.0
  0
LINE
  5
330
330
1F
100
AcDbEntity
  8
0
  6
Continuous
 62
     7
370
     0
100
AcDbLine
 10
162.4829893908
 20
239.2238343075
 30
0.0
 11
162.6829892839
 21
239.2238343075
 31
0.0
  0
LINE
  5
331
330
1F
100
AcDbEntity
  8
0
  6
Continuous
 62
     7
370
     0
100
AcDbLine
 10
162.4829893908
 20
239.2238343075
 30
0.0
 11
162.4829893908
 21
246.1336890176
 31
0.0
  0
LINE
  5
332
330
1F
100
AcDbEntity
  8
0
  6
Continuous
 62
     7
370
     0
100
AcDbLine
 10
164.6829893789
 20
246.1336890176
 30
0.0
 11
162.4829893908
 21
246.1336890176
 31
0.0
  0
LINE
  5
333
330
1F
100
AcDbEntity
  8
0
  6
Continuous
 62
     7
370
     0
100
AcDbLine
 10
164.6829893789
 20
245.7954177574
 30
0.0
 11
164.6829893789
 21
246.1336890176
 31
0.0
  0
LINE
  5
334
330
1F
100
AcDbEntity
  8
0
  6
Continuous
 62
     7
370
     0
100
AcDbLine
 10
167.682989405
 20
247.2807804063
 30
0.0
 11
169.182989418
 21
247.2807804063
 31
0.0
  0
LINE
  5
335
330
1F
100
AcDbEntity
  8
0
  6
Continuous
 62
     7
370
     0
100
AcDbLine
 10
167.682989405
 20
246.1336890176
 30
0.0
 11
167.682989405
 21
247.2807804063
 31
0.0
  0
LINE
  5
336
330
1F
100
AcDbEntity
  8
0
  6
Continuous
 62
     7
370
     0
100
AcDbLine
 10
169.182989418
 20
247.2807804063
 30
0.0
 11
169.182989418
 21
246.1336890176
 31
0.0
  0
LINE
  5
337
330
1F
100
AcDbEntity
  8
0
  6
Continuous
 62
     7
370
     0
100
AcDbLine
 10
162.4829893908
 20
247.2807804063
 30
0.0
 11
164.6829893789
 21
247.2807804063
 31
0.0
  0
LINE
  5
338
330
1F
100
AcDbEntity
  8
0
  6
Continuous
 62
     7
370
     0
100
AcDbLine
 10
162.4829893908
 20
246.1336890176
 30
0.0
 11
162.4829893908
 21
247.2807804063
 31
0.0
  0
LINE
  5
339
330
1F
100
AcDbEntity
  8
0
  6
Continuous
 62
     7
370
     0
100
AcDbLine
 10
164.6829893789
 20
247.2807804063
 30
0.0
 11
164.6829893789
 21
246.1336890176
 31
0.0
  0
LINE
  5
33A
330
1F
100
AcDbEntity
  8
0
  6
Continuous
 62
     7
370
     0
100
AcDbLine
 10
162.4829893908
 20
224.9242180899
 30
0.0
 11
163.1829893659
 21
224.9242180899
 31
0.0
  0
LINE
  5
33B
330
1F
100
AcDbEntity
  8
0
  6
Continuous
 62
     7
370
     0
100
AcDbLine
 10
162.4829893908
 20
224.9242180899
 30
0.0
 11
162.4829893908
 21
226.5703344659
 31
0.0
  0
LINE
  5
33C
330
1F
100
AcDbEntity
  8
0
  6
Continuous
 62
     7
370
     0
100
AcDbLine
 10
163.1829893659
 20
224.7962916211
 30
0.0
 11
163.1829893659
 21
224.9242180899
 31
0.0
  0
LINE
  5
33D
330
1F
100
AcDbEntity
  8
0
  6
Continuous
 62
     7
370
     0
100
AcDbLine
 10
169.182989418
 20
224.7962916211
 30
0.0
 11
169.182989418
 21
226.5703344659
 31
0.0
  0
LINE
  5
33E
330
1F
100
AcDbEntity
  8
0
  6
Continuous
 62
     7
370
     0
100
AcDbLine
 10
167.682989405
 20
248.0646224633
 30
0.0
 11
169.182989418
 21
248.0646224633
 31
0.0
  0
LINE
  5
33F
330
1F
100
AcDbEntity
  8
0
  6
Continuous
 62
     7
370
     0
100
AcDbLine
 10
167.682989405
 20
247.2807804063
 30
0.0
 11
167.682989405
 21
248.0646224633
 31
0.0
  0
LINE
  5
340
330
1F
100
AcDbEntity
  8
0
  6
Continuous
 62
     7
370
     0
100
AcDbLine
 10
169.182989418
 20
247.2807804063
 30
0.0
 11
169.182989418
 21
248.0646224633
 31
0.0
  0
LINE
  5
341
330
1F
100
AcDbEntity
  8
0
  6
Continuous
 62
     7
370
     0
100
AcDbLine
 10
162.4829893908
 20
248.0646224633
 30
0.0
 11
164.6829893789
 21
248.0646224633
 31
0.0
  0
LINE
  5
342
330
1F
100
AcDbEntity
  8
0
  6
Continuous
 62
     7
370
     0
100
AcDbLine
 10
162.4829893908
 20
247.2807804063
 30
0.0
 11
162.4829893908
 21
248.0646224633
 31
0.0
  0
LINE
  5
343
330
1F
100
AcDbEntity
  8
0
  6
Continuous
 62
     7
370
     0
100
AcDbLine
 10
164.6829893789
 20
247.2807804063
 30
0.0
 11
164.6829893789
 21
248.0646224633
 31
0.0
  0
LINE
  5
344
330
1F
100
AcDbEntity
  8
0
  6
Continuous
 62
     7
370
     0
100
AcDbLine
 10
166.1829893919
 20
156.9010468141
 30
0.0
 11
160.6829894217
 21
156.9010468141
 31
0.0
  0
LINE
  5
345
330
1F
100
AcDbEntity
  8
0
  6
Continuous
 62
     7
370
     0
100
AcDbLine
 10
171.6829893621
 20
156.9010468141
 30
0.0
 11
166.1829893919
 21
156.9010468141
 31
0.0
  0
LINE
  5
346
330
1F
100
AcDbEntity
  8
0
  6
Continuous
 62
     7
370
     0
100
AcDbLine
 10
166.1829893919
 20
157.4010478274
 30
0.0
 11
172.1829894441
 21
157.4010478274
 31
0.0
  0
LINE
  5
347
330
1F
100
AcDbEntity
  8
0
  6
Continuous
 62
     7
370
     0
100
AcDbLine
 10
160.1829893398
 20
157.4010478274
 30
0.0
 11
166.1829893919
 21
157.4010478274
 31
0.0
  0
LINE
  5
348
330
1F
100
AcDbEntity
  8
0
  6
Continuous
 62
     7
370
     0
100
AcDbLine
 10
162.8829894098
 20
217.1010469959
 30
0.0
 11
163.1829893659
 21
217.1010469959
 31
0.0
  0
LINE
  5
349
330
1F
100
AcDbEntity
  8
0
  6
Continuous
 62
     7
370
     0
100
AcDbLine
 10
169.182989418
 20
217.1010469959
 30
0.0
 11
169.4829893741
 21
217.1010469959
 31
0.0
  0
LINE
  5
34A
330
1F
100
AcDbEntity
  8
0
  6
Continuous
 62
     7
370
     0
100
AcDbLine
 10
161.6829895857
 20
215.9010471717
 30
0.0
 11
162.8829894098
 21
217.1010469959
 31
0.0
  0
LINE
  5
34B
330
1F
100
AcDbEntity
  8
0
  6
Continuous
 62
     7
370
     0
100
AcDbLine
 10
169.4829893741
 20
217.1010469959
 30
0.0
 11
170.6829891982
 21
215.9010471717
 31
0.0
  0
LINE
  5
34C
330
1F
100
AcDbEntity
  8
0
  6
Continuous
 62
     7
370
     0
100
AcDbLine
 10
167.682989405
 20
248.0646224633
 30
0.0
 11
164.6829893789
 21
248.0646224633
 31
0.0
  0
CIRCLE
  5
34D
330
1F
100
AcDbEntity
  8
0
  6
Continuous
 62
     7
370
     0
100
AcDbCircle
 10
166.149280712
 20
211.9602282464
 30
0.0
 40
2.71598289466803
  0
CIRCLE
  5
34E
330
1F
100
AcDbEntity
  8
0
  6
Continuous
 62
     7
370
     0
100
AcDbCircle
 10
166.1504522241
 20
211.9858819721
 30
0.0
 40
2.518120227965178
  0
LINE
  5
34F
330
1F
100
AcDbEntity
  8
0
  6
Continuous
 62
     7
370
     0
100
AcDbLine
 10
164.8486912227
 20
211.3717665837
 30
0.0
 11
166.066418481
 21
210.5489300505
 31
0.0
  0
LINE
  5
350
330
1F
100
AcDbEntity
  8
0
  6
Continuous
 62
     7
370
     0
100
AcDbLine
 10
167.4007165921
 20
211.1734339908
 30
0.0
 11
166.066418481
 21
210.5489300505
 31
0.0
  0
LINE
  5
351
330
1F
100
AcDbEntity
  8
0
  6
Continuous
 62
     7
370
     0
100
AcDbLine
 10
167.5172875612
 20
212.6207726017
 30
0.0
 11
167.4007165921
 21
211.1734339908
 31
0.0
  0
LINE
  5
352
330
1F
100
AcDbEntity
  8
0
  6
Continuous
 62
     7
370
     0
100
AcDbLine
 10
167.5172875612
 20
212.6207726017
 30
0.0
 11
166.2995603028
 21
213.4436091349
 31
0.0
  0
LINE
  5
353
330
1F
100
AcDbEntity
  8
0
  6
Continuous
 62
     7
370
     0
100
AcDbLine
 10
166.2995603028
 20
213.4436091349
 30
0.0
 11
164.9652621918
 21
212.8191051946
 31
0.0
  0
LINE
  5
354
330
1F
100
AcDbEntity
  8
0
  6
Continuous
 62
     7
370
     0
100
AcDbLine
 10
164.8486912227
 20
211.3717665837
 30
0.0
 11
164.9652621918
 21
212.8191051946
 31
0.0
  0
ARC
  5
355
330
1F
100
AcDbEntity
  8
0
  6
Continuous
 62
     7
370
     0
100
AcDbCircle
 10
166.1829893919
 20
211.6605853358
 30
0.0
 40
2.750275182327409
100
AcDbArc
 50
180.8105414046
 51
359.1894585954
  0
LINE
  5
356
330
1F
100
AcDbEntity
  8
0
  6
Continuous
 62
     7
370
     0
100
AcDbLine
 10
164.9652621918
 20
212.6130817399
 30
0.0
 11
164.9652621918
 21
212.8191051946
 31
0.0
  0
LINE
  5
357
330
1F
100
AcDbEntity
  8
0
  6
Continuous
 62
     7
370
     0
100
AcDbLine
 10
164.9652621918
 20
212.6130817399
 30
0.0
 11
164.9069584883
 21
211.8891870544
 31
0.0
  0
LINE
  5
358
330
1F
100
AcDbEntity
  8
0
  6
Continuous
 62
     7
370
     0
100
AcDbLine
 10
164.9069584883
 20
211.8891870544
 30
0.0
 11
164.8644282459
 21
211.3611327425
 31
0.0
  0
LINE
  5
359
330
1F
100
AcDbEntity
  8
0
  6
Continuous
 62
     7
370
     0
100
AcDbLine
 10
166.2995603028
 20
213.2375838176
 30
0.0
 11
166.2995603028
 21
213.4436091349
 31
0.0
  0
LINE
  5
35A
330
1F
100
AcDbEntity
  8
0
  6
Continuous
 62
     7
370
     0
100
AcDbLine
 10
167.501550538
 20
212.4253811256
 30
0.0
 11
166.2995603028
 21
213.2375838176
 31
0.0
  0
LINE
  5
35B
330
1F
100
AcDbEntity
  8
0
  6
Continuous
 62
     7
370
     0
100
AcDbLine
 10
166.2995603028
 20
213.2375838176
 30
0.0
 11
164.9652621918
 21
212.6130817399
 31
0.0
  0
ARC
  5
35C
330
1F
100
AcDbEntity
  8
0
  6
Continuous
 62
     7
370
     0
100
AcDbCircle
 10
166.1414998888
 20
211.7902446618
 30
0.0
 40
1.238499926038462
100
AcDbArc
 50
175.417820457
 51
205.7665252885
  0
ARC
  5
35D
330
1F
100
AcDbEntity
  8
0
  6
Continuous
 62
     7
370
     0
100
AcDbCircle
 10
166.1829930836
 20
211.7716577313
 30
0.0
 40
1.281435691043999
100
AcDbArc
 50
5.4333619981
 51
174.7376125765
  0
ARC
  5
35E
330
1F
100
AcDbEntity
  8
0
  6
Continuous
 62
     7
370
     0
100
AcDbCircle
 10
166.2175086787
 20
211.7927033586
 30
0.0
 40
1.245822938193004
100
AcDbArc
 50
326.5631741581
 51
345.9982170904
  0
CIRCLE
  5
35F
330
1F
100
AcDbEntity
  8
0
  6
Continuous
 62
     7
370
     0
100
AcDbCircle
 10
166.1492809868
 20
202.1371915118
 30
0.0
 40
2.715983123704146
  0
CIRCLE
  5
360
330
1F
100
AcDbEntity
  8
0
  6
Continuous
 62
     7
370
     0
100
AcDbCircle
 10
166.150452235
 20
202.1628446586
 30
0.0
 40
2.518120239005751
  0
LINE
  5
361
330
1F
100
AcDbEntity
  8
0
  6
Continuous
 62
     7
370
     0
100
AcDbLine
 10
164.8486912227
 20
201.5487292722
 30
0.0
 11
166.066418481
 21
200.7258936704
 31
0.0
  0
LINE
  5
362
330
1F
100
AcDbEntity
  8
0
  6
Continuous
 62
     7
370
     0
100
AcDbLine
 10
167.4007165921
 20
201.3503957481
 30
0.0
 11
166.066418481
 21
200.7258936704
 31
0.0
  0
LINE
  5
363
330
1F
100
AcDbEntity
  8
0
  6
Continuous
 62
     7
370
     0
100
AcDbLine
 10
167.5172875612
 20
202.797734359
 30
0.0
 11
167.4007165921
 21
201.3503957481
 31
0.0
  0
LINE
  5
364
330
1F
100
AcDbEntity
  8
0
  6
Continuous
 62
     7
370
     0
100
AcDbLine
 10
167.5172875612
 20
202.797734359
 30
0.0
 11
166.2995603028
 21
203.6205708921
 31
0.0
  0
LINE
  5
365
330
1F
100
AcDbEntity
  8
0
  6
Continuous
 62
     7
370
     0
100
AcDbLine
 10
166.2995603028
 20
203.6205708921
 30
0.0
 11
164.9652621918
 21
202.9960678831
 31
0.0
  0
LINE
  5
366
330
1F
100
AcDbEntity
  8
0
  6
Continuous
 62
     7
370
     0
100
AcDbLine
 10
164.8486912227
 20
201.5487292722
 30
0.0
 11
164.9652621918
 21
202.9960678831
 31
0.0
  0
ARC
  5
367
330
1F
100
AcDbEntity
  8
0
  6
Continuous
 62
     7
370
     0
100
AcDbCircle
 10
166.1829893919
 20
201.8375480244
 30
0.0
 40
2.750275182327409
100
AcDbArc
 50
180.8105414046
 51
359.1894585954
  0
LINE
  5
368
330
1F
100
AcDbEntity
  8
0
  6
Continuous
 62
     7
370
     0
100
AcDbLine
 10
164.9652621918
 20
202.7900444285
 30
0.0
 11
164.9652621918
 21
202.9960678831
 31
0.0
  0
LINE
  5
369
330
1F
100
AcDbEntity
  8
0
  6
Continuous
 62
     7
370
     0
100
AcDbLine
 10
164.9652621918
 20
202.7900444285
 30
0.0
 11
164.9069584883
 21
202.0661488116
 31
0.0
  0
LINE
  5
36A
330
1F
100
AcDbEntity
  8
0
  6
Continuous
 62
     7
370
     0
100
AcDbLine
 10
164.9069584883
 20
202.0661488116
 30
0.0
 11
164.8644282459
 21
201.5380954311
 31
0.0
  0
LINE
  5
36B
330
1F
100
AcDbEntity
  8
0
  6
Continuous
 62
     7
370
     0
100
AcDbLine
 10
166.2995603028
 20
203.4145465062
 30
0.0
 11
166.2995603028
 21
203.6205708921
 31
0.0
  0
LINE
  5
36C
330
1F
100
AcDbEntity
  8
0
  6
Continuous
 62
     7
370
     0
100
AcDbLine
 10
167.501550538
 20
202.6023438141
 30
0.0
 11
166.2995603028
 21
203.4145465062
 31
0.0
  0
LINE
  5
36D
330
1F
100
AcDbEntity
  8
0
  6
Continuous
 62
     7
370
     0
100
AcDbLine
 10
166.2995603028
 20
203.4145465062
 30
0.0
 11
164.9652621918
 21
202.7900444285
 31
0.0
  0
ARC
  5
36E
330
1F
100
AcDbEntity
  8
0
  6
Continuous
 62
     7
370
     0
100
AcDbCircle
 10
166.1415790171
 20
201.9672212163
 30
0.0
 40
1.238577619477721
100
AcDbArc
 50
175.4187952083
 51
205.7655505372
  0
ARC
  5
36F
330
1F
100
AcDbEntity
  8
0
  6
Continuous
 62
     7
370
     0
100
AcDbCircle
 10
166.1829931708
 20
201.9486203985
 30
0.0
 40
1.281435694429149
100
AcDbArc
 50
5.4334047717
 51
174.7376534498
  0
ARC
  5
370
330
1F
100
AcDbEntity
  8
0
  6
Continuous
 62
     7
370
     0
100
AcDbCircle
 10
166.2175086787
 20
201.9696660472
 30
0.0
 40
1.245822938193004
100
AcDbArc
 50
326.5631741581
 51
345.9982170904
  0
ARC
  5
371
330
1F
100
AcDbEntity
  8
0
  6
Continuous
 62
     7
370
     0
100
AcDbCircle
 10
166.1829893919
 20
189.9010476568
 30
0.0
 40
4.000000000000025
100
AcDbArc
 50
318.5903778907
 51
41.4096221093
  0
ARC
  5
372
330
1F
100
AcDbEntity
  8
0
  6
Continuous
 62
     7
370
     0
100
AcDbCircle
 10
166.1829893919
 20
189.9010476568
 30
0.0
 40
4.000000000000009
100
AcDbArc
 50
138.5903778907
 51
221.4096221093
  0
LINE
  5
373
330
1F
100
AcDbEntity
  8
0
  6
Continuous
 62
     7
370
     0
100
AcDbLine
 10
171.1020643334
 20
193.9010477566
 30
0.0
 11
171.1020643334
 21
185.9010476094
 31
0.0
  0
SPLINE
  5
374
330
1F
100
AcDbEntity
  8
0
  6
Continuous
 62
     7
370
     0
100
AcDbSpline
210
0.0
220
0.0
230
1.0
 70
     8
 71
     3
 72
    10
 73
     6
 74
     0
 42
0.000000001
 43
0.00000001
 40
0.0
 40
0.0
 40
0.0
 40
0.0
 40
0.5
 40
0.5
 40
1.0
 40
1.0
 40
1.0
 40
1.0
 10
170.8021101977117
 20
185.9010508009751
 30
0.0
 10
170.8797773493733
 20
185.9010502769432
 30
0.0
 10
170.9569868460227
 20
185.9010497529113
 30
0.0
 10
171.0677791075841
 20
185.9010487048478
 30
0.0
 10
171.1007090272559
 20
185.9010481808162
 30
0.0
 10
171.1020645059564
 20
185.9010476567846
 30
0.0
  0
LINE
  5
375
330
1F
100
AcDbEntity
  8
0
  6
Continuous
 62
     7
370
     0
100
AcDbLine
 10
170.8021100121
 20
193.9010477566
 30
0.0
 11
170.8021100121
 21
185.9010508691
 31
0.0
  0
SPLINE
  5
376
330
1F
100
AcDbEntity
  8
0
  6
Continuous
 62
     7
370
     0
100
AcDbSpline
210
0.0
220
0.0
230
1.0
 70
    24
 71
     3
 72
     9
 73
     5
 74
     0
 42
0.000000001
 43
0.00000001
 40
0.0
 40
0.0
 40
0.0
 40
0.0
 40
0.499997837543848
 40
1.0
 40
1.0
 40
1.0
 40
1.0
 10
170.8021101974355
 20
193.9010476567849
 30
0.0
 10
170.8778395765388
 20
193.9010476567849
 30
0.0
 10
171.0354741199071
 20
193.9010476567849
 30
0.0
 10
171.100742834059
 20
193.9010476567849
 30
0.0
 10
171.1020645059824
 20
193.9010476567849
 30
0.0
  0
LINE
  5
377
330
1F
100
AcDbEntity
  8
0
  6
Continuous
 62
     7
370
     0
100
AcDbLine
 10
161.2639144505
 20
185.9010476094
 30
0.0
 11
161.2639144505
 21
193.9010477566
 31
0.0
  0
SPLINE
  5
378
330
1F
100
AcDbEntity
  8
0
  6
Continuous
 62
     7
370
     0
100
AcDbSpline
210
0.0
220
0.0
230
1.0
 70
     8
 71
     3
 72
    10
 73
     6
 74
     0
 42
0.000000001
 43
0.00000001
 40
0.0
 40
0.0
 40
0.0
 40
0.0
 40
0.5
 40
0.5
 40
1.0
 40
1.0
 40
1.0
 40
1.0
 10
161.563868586173
 20
193.9010445118544
 30
0.0
 10
161.4862014345115
 20
193.9010450360096
 30
0.0
 10
161.4089919378621
 20
193.9010455601648
 30
0.0
 10
161.2981996763008
 20
193.901046608475
 30
0.0
 10
161.265269756629
 20
193.90104713263
 30
0.0
 10
161.2639142779285
 20
193.9010476567848
 30
0.0
  0
LINE
  5
379
330
1F
100
AcDbEntity
  8
0
  6
Continuous
 62
     7
370
     0
100
AcDbLine
 10
161.5638687718
 20
185.9010476094
 30
0.0
 11
161.5638687718
 21
193.9010444969
 31
0.0
  0
SPLINE
  5
37A
330
1F
100
AcDbEntity
  8
0
  6
Continuous
 62
     7
370
     0
100
AcDbSpline
210
0.0
220
0.0
230
1.0
 70
    24
 71
     3
 72
    10
 73
     6
 74
     0
 42
0.000000001
 43
0.00000001
 40
0.0
 40
0.0
 40
0.0
 40
0.0
 40
0.5
 40
0.5
 40
1.0
 40
1.0
 40
1.0
 40
1.0
 10
161.2639142779026
 20
185.9010476567849
 30
0.0
 10
161.265269756604
 20
185.9010476567851
 30
0.0
 10
161.2981996763193
 20
185.9010476567852
 30
0.0
 10
161.4089919380074
 20
185.9010476567852
 30
0.0
 10
161.4862014347375
 20
185.901047656785
 30
0.0
 10
161.5638685864494
 20
185.9010476567849
 30
0.0
  0
SPLINE
  5
37B
330
1F
100
AcDbEntity
  8
0
  6
Continuous
 62
     7
370
     0
100
AcDbSpline
210
0.0
220
0.0
230
1.0
 70
     8
 71
     3
 72
    17
 73
    13
 74
     0
 42
0.000000001
 43
0.00000001
 40
0.0
 40
0.0
 40
0.0
 40
0.0
 40
0.062550137883576
 40
0.125101793286261
 40
0.250051444152696
 40
0.3750708483523499
 40
0.4376541028667049
 40
0.500238687037138
 40
0.625171040415573
 40
0.750090458566893
 40
0.875053743319954
 40
1.0
 40
1.0
 40
1.0
 40
1.0
 10
170.8021101977118
 20
185.9010508009751
 30
0.0
 10
170.8021101977326
 20
185.7501450389829
 30
0.0
 10
170.7867098791299
 20
185.4480954492441
 30
0.0
 10
170.6973968297057
 20
184.8507991481746
 30
0.0
 10
170.4792813168529
 20
184.1235209706168
 30
0.0
 10
170.1189883492846
 20
183.4551393132962
 30
0.0
 10
169.7589799016339
 20
182.9696344090809
 30
0.0
 10
169.3525575103943
 20
182.5225926094607
 30
0.0
 10
168.7679321392602
 20
182.0385580683035
 30
0.0
 10
167.9647639340872
 20
181.6103729975808
 30
0.0
 10
167.0949718635444
 20
181.3440348546048
 30
0.0
 10
166.4903548815005
 20
181.2832724873563
 30
0.0
 10
166.1889149452351
 20
181.2833415843542
 30
0.0
  0
SPLINE
  5
37C
330
1F
100
AcDbEntity
  8
0
  6
Continuous
 62
     7
370
     0
100
AcDbSpline
210
0.0
220
0.0
230
1.0
 70
     8
 71
     3
 72
    16
 73
    12
 74
     0
 42
0.000000001
 43
0.00000001
 40
0.0
 40
0.0
 40
0.0
 40
0.0
 40
0.124960700844018
 40
0.249906817750813
 40
0.374893842031836
 40
0.499865650388283
 40
0.624849774801164
 40
0.749813580946707
 40
0.87483503316308
 40
0.9374184756819526
 40
1.0
 40
1.0
 40
1.0
 40
1.0
 10
166.1889149452351
 20
181.2833415843542
 30
0.0
 10
165.8869915341565
 20
181.2834107921758
 30
0.0
 10
165.2814151158337
 20
181.3416924539054
 30
0.0
 10
164.4092054542388
 20
181.6063591865759
 30
0.0
 10
163.6050715203164
 20
182.0358416249009
 30
0.0
 10
162.8994751970589
 20
182.6132723198193
 30
0.0
 10
162.3203997679951
 20
183.3173309781644
 30
0.0
 10
161.8880918401393
 20
184.1202615414013
 30
0.0
 10
161.6698803397831
 20
184.8488314510689
 30
0.0
 10
161.579485137602
 20
185.44718004892
 30
0.0
 10
161.5638685864494
 20
185.749841496277
 30
0.0
 10
161.5638685864494
 20
185.9010476567849
 30
0.0
  0
SPLINE
  5
37D
330
1F
100
AcDbEntity
  8
0
  6
Continuous
 62
     7
370
     0
100
AcDbSpline
210
0.0
220
0.0
230
1.0
 70
     8
 71
     3
 72
     9
 73
     5
 74
     0
 42
0.000000001
 43
0.00000001
 40
0.0
 40
0.0
 40
0.0
 40
0.0
 40
0.499967397181534
 40
1.0
 40
1.0
 40
1.0
 40
1.0
 10
166.1889149452351
 20
181.2833415843542
 30
0.0
 10
166.1903858174391
 20
181.2076275056039
 30
0.0
 10
166.186415264923
 20
181.0499813014646
 30
0.0
 10
166.1897933283402
 20
180.9844955170262
 30
0.0
 10
166.1900405504985
 20
180.9832614424067
 30
0.0
  0
SPLINE
  5
37E
330
1F
100
AcDbEntity
  8
0
  6
Continuous
 62
     7
370
     0
100
AcDbSpline
210
0.0
220
0.0
230
1.0
 70
     8
 71
     3
 72
    14
 73
    10
 74
     0
 42
0.000000001
 43
0.00000001
 40
0.0
 40
0.0
 40
0.0
 40
0.0
 40
0.25
 40
0.25
 40
0.5
 40
0.5
 40
0.75
 40
0.75
 40
1.0
 40
1.0
 40
1.0
 40
1.0
 10
171.1020645059825
 20
185.9010476590797
 30
0.0
 10
171.1020644700754
 20
185.2577299825212
 30
0.0
 10
170.9742705674305
 20
184.6146645189115
 30
0.0
 10
170.4823226003602
 20
183.4257920879575
 30
0.0
 10
170.11836139339
 20
182.8804511917884
 30
0.0
 10
169.2092252633971
 20
181.9700107027804
 30
0.0
 10
168.6644067472244
 20
181.6052680279778
 30
0.0
 10
167.4762408931743
 20
181.1116161084543
 30
0.0
 10
166.8333593495603
 20
180.9829003889782
 30
0.0
 10
166.190042390568
 20
180.9819780322437
 30
0.0
  0
SPLINE
  5
37F
330
1F
100
AcDbEntity
  8
0
  6
Continuous
 62
     7
370
     0
100
AcDbSpline
210
0.0
220
0.0
230
1.0
 70
     8
 71
     3
 72
    14
 73
    10
 74
     0
 42
0.000000001
 43
0.00000001
 40
0.0
 40
0.0
 40
0.0
 40
0.0
 40
0.25
 40
0.25
 40
0.5
 40
0.5
 40
0.75
 40
0.75
 40
1.0
 40
1.0
 40
1.0
 40
1.0
 10
166.190042390568
 20
180.9819780322437
 30
0.0
 10
165.5455499329045
 20
180.9810539182561
 30
0.0
 10
164.9011280546632
 20
181.1083971025377
 30
0.0
 10
163.7097302403456
 20
181.6003898348979
 30
0.0
 10
163.1632247760377
 20
181.9648450998057
 30
0.0
 10
162.2511205858804
 20
182.87564234383
 30
0.0
 10
161.8858820414263
 20
183.4216246578116
 30
0.0
 10
161.3921814266379
 20
184.6123158222834
 30
0.0
 10
161.2639143141102
 20
185.2565544801409
 30
0.0
 10
161.2639142779024
 20
185.9010476567849
 30
0.0
  0
LINE
  5
380
330
1F
100
AcDbEntity
  8
0
  6
Continuous
 62
     7
370
     0
100
AcDbLine
 10
171.1020643334
 20
185.9010476094
 30
0.0
 11
171.1228458653
 21
185.9010476094
 31
0.0
  0
ARC
  5
381
330
1F
100
AcDbEntity
  8
0
  6
Continuous
 62
     7
370
     0
100
AcDbCircle
 10
166.1829893919
 20
185.9010476591
 30
0.0
 40
4.9398564681614
100
AcDbArc
 50
180.0000000266
 51
0.0000343334
  0
LINE
  5
382
330
1F
100
AcDbEntity
  8
0
  6
Continuous
 62
     7
370
     0
100
AcDbLine
 10
161.2431329186
 20
185.9010476094
 30
0.0
 11
161.2639144505
 21
185.9010476094
 31
0.0
  0
LINE
  5
383
330
1F
100
AcDbEntity
  8
0
  6
Continuous
 62
     7
370
     0
100
AcDbLine
 10
161.2639144505
 20
193.9010477566
 30
0.0
 11
161.2431329186
 21
193.9010477566
 31
0.0
  0
ARC
  5
384
330
1F
100
AcDbEntity
  8
0
  6
Continuous
 62
     7
370
     0
100
AcDbCircle
 10
166.1829893919
 20
193.9010476545
 30
0.0
 40
4.939856460831082
100
AcDbArc
 50
127.3948978734
 51
179.9999656666
  0
ARC
  5
385
330
1F
100
AcDbEntity
  8
0
  6
Continuous
 62
     7
370
     0
100
AcDbCircle
 10
166.1829893919
 20
193.9010476545
 30
0.0
 40
4.939856460831089
100
AcDbArc
 50
0.0
 51
52.6051021266
  0
LINE
  5
386
330
1F
100
AcDbEntity
  8
0
  6
Continuous
 62
     7
370
     0
100
AcDbLine
 10
171.1020643334
 20
193.9010477566
 30
0.0
 11
171.1228458653
 21
193.9010477566
 31
0.0
  0
LINE
  5
387
330
1F
100
AcDbEntity
  8
0
  6
Continuous
 62
     7
370
     0
100
AcDbLine
 10
171.1228458653
 20
193.9010477566
 30
0.0
 11
171.1228458653
 21
185.9010476094
 31
0.0
  0
LINE
  5
388
330
1F
100
AcDbEntity
  8
0
  6
Continuous
 62
     7
370
     0
100
AcDbLine
 10
161.2431329186
 20
185.9010476094
 30
0.0
 11
161.2431329186
 21
193.9010477566
 31
0.0
  0
LINE
  5
389
330
1F
100
AcDbEntity
  8
0
  6
Continuous
 62
     7
370
     0
100
AcDbLine
 10
165.5126664764
 20
154.2010458127
 30
0.0
 11
166.7794886953
 21
154.2010458127
 31
0.0
  0
SPLINE
  5
38A
330
1F
100
AcDbEntity
  8
0
  6
Continuous
 62
     7
370
     0
100
AcDbSpline
210
0.0
220
0.0
230
1.0
 70
     8
 71
     3
 72
     8
 73
     4
 74
     0
 42
0.000000001
 43
0.00000001
 40
0.0
 40
0.0
 40
0.0
 40
0.0
 40
1.0
 40
1.0
 40
1.0
 40
1.0
 10
166.7794887025124
 20
154.2010476544857
 30
0.0
 10
167.2228874401736
 20
154.0140911327952
 30
0.0
 10
167.678516213369
 20
153.9010476545232
 30
0.0
 10
168.1528497466867
 20
153.9010476543996
 30
0.0
  0
LINE
  5
38B
330
1F
100
AcDbEntity
  8
0
  6
Continuous
 62
     7
370
     0
100
AcDbLine
 10
164.1530004772
 20
153.901048185
 30
0.0
 11
168.1528497929
 21
153.901048185
 31
0.0
  0
SPLINE
  5
38C
330
1F
100
AcDbEntity
  8
0
  6
Continuous
 62
     7
370
     0
100
AcDbSpline
210
0.0
220
0.0
230
1.0
 70
     8
 71
     3
 72
     8
 73
     4
 74
     0
 42
0.000000001
 43
0.00000001
 40
0.0
 40
0.0
 40
0.0
 40
0.0
 40
1.0
 40
1.0
 40
1.0
 40
1.0
 10
164.1530003942038
 20
153.9010476544147
 30
0.0
 10
164.6226039447738
 20
153.9010476544053
 30
0.0
 10
165.0736892562423
 20
154.0140911325436
 30
0.0
 10
165.5126664883207
 20
154.2010476541367
 30
0.0
  0
LINE
  5
38D
330
1F
100
AcDbEntity
  8
0
  6
Continuous
 62
     7
370
     0
100
AcDbLine
 10
165.5126664764
 20
154.2010458127
 30
0.0
 11
165.5126664764
 21
156.9010468141
 31
0.0
  0
LINE
  5
38E
330
1F
100
AcDbEntity
  8
0
  6
Continuous
 62
     7
370
     0
100
AcDbLine
 10
166.7794886953
 20
156.9010468141
 30
0.0
 11
166.7794886953
 21
154.2010458127
 31
0.0
  0
LINE
  5
38F
330
1F
100
AcDbEntity
  8
0
  6
Continuous
 62
     7
370
     0
100
AcDbLine
 10
169.5262108906
 20
154.2010458127
 30
0.0
 11
169.5262108906
 21
156.9010468141
 31
0.0
  0
SPLINE
  5
390
330
1F
100
AcDbEntity
  8
0
  6
Continuous
 62
     7
370
     0
100
AcDbSpline
210
0.0
220
0.0
230
1.0
 70
     8
 71
     3
 72
     8
 73
     4
 74
     0
 42
0.000000001
 43
0.00000001
 40
0.0
 40
0.0
 40
0.0
 40
0.0
 40
1.0
 40
1.0
 40
1.0
 40
1.0
 10
168.1528497466819
 20
153.901047654405
 30
0.0
 10
168.6271832805208
 20
153.9010476542817
 30
0.0
 10
169.0828120543322
 20
154.0140911326256
 30
0.0
 10
169.5262107924723
 20
154.2010476545206
 30
0.0
  0
SPLINE
  5
391
330
1F
100
AcDbEntity
  8
0
  6
Continuous
 62
     7
370
     0
100
AcDbSpline
210
0.0
220
0.0
230
1.0
 70
     8
 71
     3
 72
     8
 73
     4
 74
     0
 42
0.000000001
 43
0.00000001
 40
0.0
 40
0.0
 40
0.0
 40
0.0
 40
1.0
 40
1.0
 40
1.0
 40
1.0
 10
162.7933342995966
 20
154.2010476543807
 30
0.0
 10
163.2323115317257
 20
154.0140911326979
 30
0.0
 10
163.683396843532
 20
153.9010476544098
 30
0.0
 10
164.1530003941805
 20
153.9010476543996
 30
0.0
  0
LINE
  5
392
330
1F
100
AcDbEntity
  8
0
  6
Continuous
 62
     7
370
     0
100
AcDbLine
 10
162.7933342452
 20
156.9010468141
 30
0.0
 11
162.7933342452
 21
154.2010458127
 31
0.0
  0
LINE
  5
393
330
1F
100
AcDbEntity
  8
0
  6
Continuous
 62
     7
370
     0
100
AcDbLine
 10
170.1691436092
 20
154.2010458127
 30
0.0
 11
169.5262108906
 21
154.2010458127
 31
0.0
  0
SPLINE
  5
394
330
1F
100
AcDbEntity
  8
0
  6
Continuous
 62
     7
370
     0
100
AcDbSpline
210
0.0
220
0.0
230
1.0
 70
     8
 71
     3
 72
     8
 73
     4
 74
     0
 42
0.000000001
 43
0.00000001
 40
0.0
 40
0.0
 40
0.0
 40
0.0
 40
1.0
 40
1.0
 40
1.0
 40
1.0
 10
170.1691437951803
 20
154.2010476547449
 30
0.0
 10
170.1735653007852
 20
154.0140911328039
 30
0.0
 10
170.178108762472
 20
153.9010476544071
 30
0.0
 10
170.1828387452124
 20
153.9010476545189
 30
0.0
  0
LINE
  5
395
330
1F
100
AcDbEntity
  8
0
  6
Continuous
 62
     7
370
     0
100
AcDbLine
 10
170.1828387077
 20
153.901048185
 30
0.0
 11
168.1528497929
 21
153.901048185
 31
0.0
  0
LINE
  5
396
330
1F
100
AcDbEntity
  8
0
  6
Continuous
 62
     7
370
     0
100
AcDbLine
 10
162.1694449777
 20
154.2010458127
 30
0.0
 11
162.7933342452
 21
154.2010458127
 31
0.0
  0
SPLINE
  5
397
330
1F
100
AcDbEntity
  8
0
  6
Continuous
 62
     7
370
     0
100
AcDbSpline
210
0.0
220
0.0
230
1.0
 70
     8
 71
     3
 72
     8
 73
     4
 74
     0
 42
0.000000001
 43
0.00000001
 40
0.0
 40
0.0
 40
0.0
 40
0.0
 40
1.0
 40
1.0
 40
1.0
 40
1.0
 10
162.1831400386811
 20
153.9010476545189
 30
0.0
 10
162.1784100559454
 20
153.9010476544944
 30
0.0
 10
162.1738665942678
 20
154.0140911326936
 30
0.0
 10
162.1694450886669
 20
154.201047654362
 30
0.0
  0
LINE
  5
398
330
1F
100
AcDbEntity
  8
0
  6
Continuous
 62
     7
370
     0
100
AcDbLine
 10
162.1831400762
 20
153.901048185
 30
0.0
 11
164.1530004772
 21
153.901048185
 31
0.0
  0
LINE
  5
399
330
1F
100
AcDbEntity
  8
0
  6
Continuous
 62
     7
370
     0
100
AcDbLine
 10
170.1691436092
 20
156.9010468141
 30
0.0
 11
170.1691436092
 21
154.2010458127
 31
0.0
  0
LINE
  5
39A
330
1F
100
AcDbEntity
  8
0
  6
Continuous
 62
     7
370
     0
100
AcDbLine
 10
162.1694449777
 20
154.2010458127
 30
0.0
 11
162.1694449777
 21
156.9010468141
 31
0.0
  0
LINE
  5
39B
330
1F
100
AcDbEntity
  8
0
  6
Continuous
 62
     7
370
     0
100
AcDbLine
 10
164.3830571766
 20
148.9010492281
 30
0.0
 11
167.982989361
 21
148.9010492281
 31
0.0
  0
LINE
  5
39C
330
1F
100
AcDbEntity
  8
0
  6
Continuous
 62
     7
370
     0
100
AcDbLine
 10
164.6830458403
 20
146.9010489002
 30
0.0
 11
167.682989405
 21
146.9010489002
 31
0.0
  0
LINE
  5
39D
330
1F
100
AcDbEntity
  8
0
  6
Continuous
 62
     7
370
     0
100
AcDbLine
 10
166.1673675126
 20
149.4010465161
 30
0.0
 11
167.982989361
 21
149.4010465161
 31
0.0
  0
LINE
  5
39E
330
1F
100
AcDbEntity
  8
0
  6
Continuous
 62
     7
370
     0
100
AcDbLine
 10
164.3829894229
 20
149.4010465161
 30
0.0
 11
166.1673675126
 21
149.4010465161
 31
0.0
  0
LINE
  5
39F
330
1F
100
AcDbEntity
  8
0
  6
Continuous
 62
     7
370
     0
100
AcDbLine
 10
164.3830571766
 20
151.4010468439
 30
0.0
 11
167.982989361
 21
151.4010468439
 31
0.0
  0
LINE
  5
3A0
330
1F
100
AcDbEntity
  8
0
  6
Continuous
 62
     7
370
     0
100
AcDbLine
 10
166.1673675126
 20
151.9010478572
 30
0.0
 11
167.982989361
 21
151.9010478572
 31
0.0
  0
LINE
  5
3A1
330
1F
100
AcDbEntity
  8
0
  6
Continuous
 62
     7
370
     0
100
AcDbLine
 10
164.3829894229
 20
151.9010478572
 30
0.0
 11
166.1673675126
 21
151.9010478572
 31
0.0
  0
LINE
  5
3A2
330
1F
100
AcDbEntity
  8
0
  6
Continuous
 62
     7
370
     0
100
AcDbLine
 10
170.1965338061
 20
154.2010458127
 30
0.0
 11
170.1965338061
 21
156.9010468141
 31
0.0
  0
SPLINE
  5
3A3
330
1F
100
AcDbEntity
  8
0
  6
Continuous
 62
     7
370
     0
100
AcDbSpline
210
0.0
220
0.0
230
1.0
 70
     8
 71
     3
 72
     8
 73
     4
 74
     0
 42
0.000000001
 43
0.00000001
 40
0.0
 40
0.0
 40
0.0
 40
0.0
 40
1.0
 40
1.0
 40
1.0
 40
1.0
 10
170.1828387452124
 20
153.9010476545189
 30
0.0
 10
170.1875687279461
 20
153.9010476546306
 30
0.0
 10
170.1921121896255
 20
154.0140911329783
 30
0.0
 10
170.1965336952244
 20
154.2010476546313
 30
0.0
  0
LINE
  5
3A4
330
1F
100
AcDbEntity
  8
0
  6
Continuous
 62
     7
370
     0
100
AcDbLine
 10
167.932989446
 20
224.0443939284
 30
0.0
 11
167.932989446
 21
225.0315176264
 31
0.0
  0
LINE
  5
3A5
330
1F
100
AcDbEntity
  8
0
  6
Continuous
 62
     7
370
     0
100
AcDbLine
 10
167.932989446
 20
224.0443939284
 30
0.0
 11
163.9329894888
 21
224.0443939284
 31
0.0
  0
LINE
  5
3A6
330
1F
100
AcDbEntity
  8
0
  6
Continuous
 62
     7
370
     0
100
AcDbLine
 10
163.9329894888
 20
224.0443939284
 30
0.0
 11
163.9329894888
 21
225.0315176264
 31
0.0
  0
LINE
  5
3A7
330
1F
100
AcDbEntity
  8
0
  6
Continuous
 62
     7
370
     0
100
AcDbLine
 10
163.9329894888
 20
225.0315176264
 30
0.0
 11
163.1829893659
 21
225.0315176264
 31
0.0
  0
LINE
  5
3A8
330
1F
100
AcDbEntity
  8
0
  6
Continuous
 62
     7
370
     0
100
AcDbLine
 10
163.1829893659
 20
225.0315176264
 30
0.0
 11
163.1829893659
 21
226.9257755891
 31
0.0
  0
LINE
  5
3A9
330
1F
100
AcDbEntity
  8
0
  6
Continuous
 62
     7
370
     0
100
AcDbLine
 10
168.6829893361
 20
226.9257755891
 30
0.0
 11
168.6829893361
 21
225.0315176264
 31
0.0
  0
LINE
  5
3AA
330
1F
100
AcDbEntity
  8
0
  6
Continuous
 62
     7
370
     0
100
AcDbLine
 10
168.6829893361
 20
225.0315176264
 30
0.0
 11
167.932989446
 21
225.0315176264
 31
0.0
  0
ARC
  5
3AB
330
1F
100
AcDbEntity
  8
0
  6
Continuous
 62
     7
370
     0
100
AcDbCircle
 10
165.9329894092
 20
225.9101063114
 30
0.0
 40
3.696322379510049
100
AcDbArc
 50
246.9034449024
 51
293.0965550976
  0
LINE
  5
3AC
330
1F
100
AcDbEntity
  8
0
  6
Continuous
 62
     7
370
     0
100
AcDbLine
 10
167.682989405
 20
195.6238776386
 30
0.0
 11
164.6829893789
 21
195.6238776386
 31
0.0
  0
LINE
  5
3AD
330
1F
100
AcDbEntity
  8
0
  6
Continuous
 62
     7
370
     0
100
AcDbLine
 10
167.682989405
 20
195.3429358021
 30
0.0
 11
164.6829893789
 21
195.3429358021
 31
0.0
  0
LINE
  5
3AE
330
1F
100
AcDbEntity
  8
0
  6
Continuous
 62
     7
370
     0
100
AcDbLine
 10
164.6829893789
 20
195.3429358021
 30
0.0
 11
164.6829893789
 21
195.6238776386
 31
0.0
  0
LINE
  5
3AF
330
1F
100
AcDbEntity
  8
0
  6
Continuous
 62
     7
370
     0
100
AcDbLine
 10
167.682989405
 20
195.3429358021
 30
0.0
 11
167.682989405
 21
195.6238776386
 31
0.0
  0
LINE
  5
3B0
330
1F
100
AcDbEntity
  8
0
  6
Continuous
 62
     7
370
     0
100
AcDbLine
 10
164.6829893789
 20
195.6238776386
 30
0.0
 11
164.6829893789
 21
195.6284443789
 31
0.0
  0
LINE
  5
3B1
330
1F
100
AcDbEntity
  8
0
  6
Continuous
 62
     7
370
     0
100
AcDbLine
 10
167.682989405
 20
195.6238776386
 30
0.0
 11
167.682989405
 21
195.6284443789
 31
0.0
  0
LINE
  5
3B2
330
1F
100
AcDbEntity
  8
0
  6
Continuous
 62
     7
370
     0
100
AcDbLine
 10
163.1829893659
 20
194.8845625796
 30
0.0
 11
169.182989418
 21
194.8845625796
 31
0.0
  0
LINE
  5
3B3
330
1F
100
AcDbEntity
  8
0
  6
Continuous
 62
     7
370
     0
100
AcDbLine
 10
169.182989418
 20
184.255568491
 30
0.0
 11
169.182989418
 21
194.8845625796
 31
0.0
  0
LINE
  5
3B4
330
1F
100
AcDbEntity
  8
0
  6
Continuous
 62
     7
370
     0
100
AcDbLine
 10
163.1829893659
 20
184.255568491
 30
0.0
 11
169.182989418
 21
184.255568491
 31
0.0
  0
LINE
  5
3B5
330
1F
100
AcDbEntity
  8
0
  6
Continuous
 62
     7
370
     0
100
AcDbLine
 10
163.1829893659
 20
184.255568491
 30
0.0
 11
163.1829893659
 21
194.8845625796
 31
0.0
  0
LINE
  5
3B6
330
1F
100
AcDbEntity
  8
0
  6
Continuous
 62
     7
370
     0
100
AcDbLine
 10
163.1829893659
 20
194.8845625796
 30
0.0
 11
163.1829893659
 21
195.3475020767
 31
0.0
  0
LINE
  5
3B7
330
1F
100
AcDbEntity
  8
0
  6
Continuous
 62
     7
370
     0
100
AcDbLine
 10
169.182989418
 20
194.8845625796
 30
0.0
 11
169.182989418
 21
195.3475020767
 31
0.0
  0
LINE
  5
3B8
330
1F
100
AcDbEntity
  8
0
  6
Continuous
 62
     7
370
     0
100
AcDbLine
 10
169.182989418
 20
184.255568491
 30
0.0
 11
168.1829894869
 21
183.4284143463
 31
0.0
  0
LINE
  5
3B9
330
1F
100
AcDbEntity
  8
0
  6
Continuous
 62
     7
370
     0
100
AcDbLine
 10
168.1829894869
 20
183.4284143463
 30
0.0
 11
164.1829892969
 21
183.4284143463
 31
0.0
  0
LINE
  5
3BA
330
1F
100
AcDbEntity
  8
0
  6
Continuous
 62
     7
370
     0
100
AcDbLine
 10
163.1829893659
 20
184.255568491
 30
0.0
 11
164.1829892969
 21
183.4284143463
 31
0.0
  0
ARC
  5
3BB
330
1F
100
AcDbEntity
  8
0
  6
Continuous
 62
     7
370
     0
100
AcDbCircle
 10
164.1300566086
 20
231.5254769216
 30
0.0
 40
3.530339059239623
100
AcDbArc
 50
161.3555001948
 51
171.6289774927
  0
ARC
  5
3BC
330
1F
100
AcDbEntity
  8
0
  6
Continuous
 62
     7
370
     0
100
AcDbCircle
 10
161.3176295372
 20
232.7837331161
 30
0.0
 40
0.548186883613617
100
AcDbArc
 50
166.3223998351
 51
193.6776001649
  0
ARC
  5
3BD
330
1F
100
AcDbEntity
  8
0
  6
Continuous
 62
     7
370
     0
100
AcDbCircle
 10
164.1301231582
 20
231.784710727
 30
0.0
 40
3.530406231446849
100
AcDbArc
 50
161.3556475458
 51
171.6289878705
  0
LINE
  5
3BE
330
1F
100
AcDbEntity
  8
0
  6
Continuous
 62
     7
370
     0
100
AcDbLine
 10
160.6373294699
 20
232.2986761049
 30
0.0
 11
160.6373294699
 21
232.1972364501
 31
0.0
  0
ARC
  5
3BF
330
1F
100
AcDbEntity
  8
0
  6
Continuous
 62
     7
370
     0
100
AcDbCircle
 10
161.2896259536
 20
231.2412626906
 30
0.0
 40
0.7032727502200764
100
AcDbArc
 50
143.4121236993
 51
158.0508039728
  0
LINE
  5
3C0
330
1F
100
AcDbEntity
  8
0
  6
Continuous
 62
     7
370
     0
100
AcDbLine
 10
160.6373294699
 20
231.5041350142
 30
0.0
 11
160.6373294699
 21
231.2814706877
 31
0.0
  0
ARC
  5
3C1
330
1F
100
AcDbEntity
  8
0
  6
Continuous
 62
     7
370
     0
100
AcDbCircle
 10
164.0999342652
 20
231.7899931072
 30
0.0
 40
3.499746707932316
100
AcDbArc
 50
188.3548045163
 51
190.9918469675
  0
ARC
  5
3C2
330
1F
100
AcDbEntity
  8
0
  6
Continuous
 62
     7
370
     0
100
AcDbCircle
 10
164.1219889674
 20
231.5345796329
 30
0.0
 40
3.522124372756436
100
AcDbArc
 50
188.3643683713
 51
195.3147771346
  0
LINE
  5
3C3
330
1F
100
AcDbEntity
  8
0
  6
Continuous
 62
     7
370
     0
100
AcDbLine
 10
160.6373294699
 20
231.0222240106
 30
0.0
 11
160.6373294699
 21
231.1236636654
 31
0.0
  0
ARC
  5
3C4
330
1F
100
AcDbEntity
  8
0
  6
Continuous
 62
     7
370
     0
100
AcDbCircle
 10
161.3454272211
 20
231.4160566991
 30
0.0
 40
0.766091451118159
100
AcDbArc
 50
202.4370764928
 51
222.9829922595
  0
ARC
  5
3C5
330
1F
100
AcDbEntity
  8
0
  6
Continuous
 62
     7
370
     0
100
AcDbCircle
 10
164.6418999535
 20
231.2403025046
 30
0.0
 40
3.872449601765254
100
AcDbArc
 50
174.8656271835
 51
185.1343728165
  0
ARC
  5
3C6
330
1F
100
AcDbEntity
  8
0
  6
Continuous
 62
     7
370
     0
100
AcDbCircle
 10
161.3454366707
 20
232.109172667
 30
0.0
 40
0.766105731780999
100
AcDbArc
 50
202.4378113105
 51
222.9831016879
  0
LINE
  5
3C7
330
1F
100
AcDbEntity
  8
0
  6
Continuous
 62
     7
370
     0
100
AcDbLine
 10
160.6373294699
 20
231.8167651013
 30
0.0
 11
160.6373294699
 21
232.039433153
 31
0.0
  0
SPLINE
  5
3C8
330
1F
100
AcDbEntity
  8
0
  6
Continuous
 62
     7
370
     0
100
AcDbSpline
210
0.0
220
0.0
230
1.0
 70
     8
 71
     3
 72
     8
 73
     4
 74
     0
 42
0.000000001
 43
0.00000001
 40
0.0
 40
0.0
 40
0.0
 40
0.0
 40
1.0
 40
1.0
 40
1.0
 40
1.0
 10
160.6373294699487
 20
231.1236624075706
 30
0.0
 10
160.6865505428121
 20
231.1251215096588
 30
0.0
 10
160.7357703634654
 20
231.1265858940216
 30
0.0
 10
160.7849888411597
 20
231.1280559434706
 30
0.0
  0
SPLINE
  5
3C9
330
1F
100
AcDbEntity
  8
0
  6
Continuous
 62
     7
370
     0
100
AcDbSpline
210
0.0
220
0.0
230
1.0
 70
     8
 71
     3
 72
     8
 73
     4
 74
     0
 42
0.000000001
 43
0.00000001
 40
0.0
 40
0.0
 40
0.0
 40
0.0
 40
1.0
 40
1.0
 40
1.0
 40
1.0
 10
160.6373294699487
 20
231.2814688517199
 30
0.0
 10
160.6865505233817
 20
231.2853698176767
 30
0.0
 10
160.7357703246057
 20
231.2892849059936
 30
0.0
 10
160.7849887828718
 20
231.2932151401316
 30
0.0
  0
SPLINE
  5
3CA
330
1F
100
AcDbEntity
  8
0
  6
Continuous
 62
     7
370
     0
100
AcDbSpline
210
0.0
220
0.0
230
1.0
 70
     8
 71
     3
 72
     8
 73
     4
 74
     0
 42
0.000000001
 43
0.00000001
 40
0.0
 40
0.0
 40
0.0
 40
0.0
 40
1.0
 40
1.0
 40
1.0
 40
1.0
 10
160.6373294699487
 20
231.5041347349763
 30
0.0
 10
160.6865505187279
 20
231.5026756336021
 30
0.0
 10
160.7357703152983
 20
231.5012112499584
 30
0.0
 10
160.7849887689111
 20
231.4997412012342
 30
0.0
  0
LINE
  5
3CB
330
1F
100
AcDbEntity
  8
0
  6
Continuous
 62
     7
370
     0
100
AcDbLine
 10
168.38298938
 20
244.693976076
 30
0.0
 11
163.4829893219
 21
244.693976076
 31
0.0
  0
LINE
  5
3CC
330
1F
100
AcDbEntity
  8
0
  6
Continuous
 62
     7
370
     0
100
AcDbLine
 10
163.4829893219
 20
244.693976076
 30
0.0
 11
163.4829893219
 21
245.2675217703
 31
0.0
  0
LINE
  5
3CD
330
1F
100
AcDbEntity
  8
0
  6
Continuous
 62
     7
370
     0
100
AcDbLine
 10
163.4829893219
 20
245.2675217703
 30
0.0
 11
168.38298938
 21
245.2675217703
 31
0.0
  0
LINE
  5
3CE
330
1F
100
AcDbEntity
  8
0
  6
Continuous
 62
     7
370
     0
100
AcDbLine
 10
168.38298938
 20
245.2675217703
 30
0.0
 11
168.38298938
 21
244.693976076
 31
0.0
  0
LINE
  5
3CF
330
1F
100
AcDbEntity
  8
0
  6
Continuous
 62
     7
370
     0
100
AcDbLine
 10
169.182989418
 20
226.9257755891
 30
0.0
 11
169.182989418
 21
244.693976076
 31
0.0
  0
LINE
  5
3D0
330
1F
100
AcDbEntity
  8
0
  6
Continuous
 62
     7
370
     0
100
AcDbLine
 10
169.182989418
 20
226.9257755891
 30
0.0
 11
162.6829892839
 21
226.9257755891
 31
0.0
  0
LINE
  5
3D1
330
1F
100
AcDbEntity
  8
0
  6
Continuous
 62
     7
370
     0
100
AcDbLine
 10
162.6829892839
 20
226.9257755891
 30
0.0
 11
162.6829892839
 21
244.693976076
 31
0.0
  0
LINE
  5
3D2
330
1F
100
AcDbEntity
  8
0
  6
Continuous
 62
     7
370
     0
100
AcDbLine
 10
163.4829893219
 20
244.693976076
 30
0.0
 11
162.6829892839
 21
244.693976076
 31
0.0
  0
LINE
  5
3D3
330
1F
100
AcDbEntity
  8
0
  6
Continuous
 62
     7
370
     0
100
AcDbLine
 10
169.182989418
 20
244.693976076
 30
0.0
 11
168.38298938
 21
244.693976076
 31
0.0
  0
LINE
  5
3D4
330
1F
100
AcDbEntity
  8
0
  6
Continuous
 62
     7
370
     0
100
AcDbLine
 10
168.38298938
 20
244.773961784
 30
0.0
 11
168.6829893361
 21
244.773961784
 31
0.0
  0
LINE
  5
3D5
330
1F
100
AcDbEntity
  8
0
  6
Continuous
 62
     7
370
     0
100
AcDbLine
 10
168.6829893361
 20
244.773961784
 30
0.0
 11
168.6829893361
 21
245.3018540457
 31
0.0
  0
LINE
  5
3D6
330
1F
100
AcDbEntity
  8
0
  6
Continuous
 62
     7
370
     0
100
AcDbLine
 10
169.182989418
 20
245.3018540457
 30
0.0
 11
168.6829893361
 21
245.3018540457
 31
0.0
  0
LINE
  5
3D7
330
1F
100
AcDbEntity
  8
0
  6
Continuous
 62
     7
370
     0
100
AcDbLine
 10
169.182989418
 20
245.3018540457
 30
0.0
 11
169.182989418
 21
244.693976076
 31
0.0
  0
LINE
  5
3D8
330
1F
100
AcDbEntity
  8
0
  6
Continuous
 62
     7
370
     0
100
AcDbLine
 10
163.1829893659
 20
244.773961784
 30
0.0
 11
163.4829893219
 21
244.773961784
 31
0.0
  0
LINE
  5
3D9
330
1F
100
AcDbEntity
  8
0
  6
Continuous
 62
     7
370
     0
100
AcDbLine
 10
162.6829892839
 20
244.693976076
 30
0.0
 11
162.6829892839
 21
245.3018540457
 31
0.0
  0
LINE
  5
3DA
330
1F
100
AcDbEntity
  8
0
  6
Continuous
 62
     7
370
     0
100
AcDbLine
 10
163.1829893659
 20
245.3018540457
 30
0.0
 11
162.6829892839
 21
245.3018540457
 31
0.0
  0
LINE
  5
3DB
330
1F
100
AcDbEntity
  8
0
  6
Continuous
 62
     7
370
     0
100
AcDbLine
 10
163.1829893659
 20
245.3018540457
 30
0.0
 11
163.1829893659
 21
244.773961784
 31
0.0
  0
LINE
  5
3DC
330
1F
100
AcDbEntity
  8
0
  6
Continuous
 62
     7
370
     0
100
AcDbLine
 10
168.38298938
 20
245.7954177574
 30
0.0
 11
163.4829893219
 21
245.7954177574
 31
0.0
  0
LINE
  5
3DD
330
1F
100
AcDbEntity
  8
0
  6
Continuous
 62
     7
370
     0
100
AcDbLine
 10
163.4829893219
 20
245.7954177574
 30
0.0
 11
163.4829893219
 21
245.2675217703
 31
0.0
  0
LINE
  5
3DE
330
1F
100
AcDbEntity
  8
0
  6
Continuous
 62
     7
370
     0
100
AcDbLine
 10
168.38298938
 20
245.7954177574
 30
0.0
 11
168.38298938
 21
245.2675217703
 31
0.0
  0
LINE
  5
3DF
330
1F
100
AcDbEntity
  8
0
  6
Continuous
 62
     7
370
     0
100
AcDbLine
 10
167.582989342
 20
246.5604992524
 30
0.0
 11
164.7829894419
 21
246.5604992524
 31
0.0
  0
LINE
  5
3E0
330
1F
100
AcDbEntity
  8
0
  6
Continuous
 62
     7
370
     0
100
AcDbLine
 10
164.7829894419
 20
245.7954177574
 30
0.0
 11
164.7829894419
 21
246.5604992524
 31
0.0
  0
LINE
  5
3E1
330
1F
100
AcDbEntity
  8
0
  6
Continuous
 62
     7
370
     0
100
AcDbLine
 10
167.582989342
 20
245.7954177574
 30
0.0
 11
167.582989342
 21
246.5604992524
 31
0.0
  0
LINE
  5
3E2
330
1F
100
AcDbEntity
  8
0
  6
Continuous
 62
     7
370
     0
100
AcDbLine
 10
164.7829894419
 20
247.4869044438
 30
0.0
 11
167.582989342
 21
247.4869044438
 31
0.0
  0
LINE
  5
3E3
330
1F
100
AcDbEntity
  8
0
  6
Continuous
 62
     7
370
     0
100
AcDbLine
 10
164.7829894419
 20
246.5604992524
 30
0.0
 11
164.7829894419
 21
247.4869044438
 31
0.0
  0
LINE
  5
3E4
330
1F
100
AcDbEntity
  8
0
  6
Continuous
 62
     7
370
     0
100
AcDbLine
 10
167.582989342
 20
247.4869044438
 30
0.0
 11
167.582989342
 21
246.5604992524
 31
0.0
  0
LINE
  5
3E5
330
1F
100
AcDbEntity
  8
0
  6
Continuous
 62
     7
370
     0
100
AcDbLine
 10
167.582989342
 20
247.6706283108
 30
0.0
 11
164.7829894419
 21
247.6706283108
 31
0.0
  0
LINE
  5
3E6
330
1F
100
AcDbEntity
  8
0
  6
Continuous
 62
     7
370
     0
100
AcDbLine
 10
164.7829894419
 20
247.4869044438
 30
0.0
 11
164.7829894419
 21
247.6706283108
 31
0.0
  0
LINE
  5
3E7
330
1F
100
AcDbEntity
  8
0
  6
Continuous
 62
     7
370
     0
100
AcDbLine
 10
167.582989342
 20
247.4869044438
 30
0.0
 11
167.582989342
 21
247.6706283108
 31
0.0
  0
LINE
  5
3E8
330
1F
100
AcDbEntity
  8
0
  6
Continuous
 62
     7
370
     0
100
AcDbLine
 10
164.7829894419
 20
247.6706283108
 30
0.0
 11
164.7829894419
 21
247.6711237744
 31
0.0
  0
LINE
  5
3E9
330
1F
100
AcDbEntity
  8
0
  6
Continuous
 62
     7
370
     0
100
AcDbLine
 10
167.582989342
 20
247.6711237744
 30
0.0
 11
167.582989342
 21
247.6706283108
 31
0.0
  0
SPLINE
  5
3EA
330
1F
100
AcDbEntity
  8
0
  6
Continuous
 62
     8
370
     0
100
AcDbSpline
210
0.0
220
0.0
230
1.0
 70
     8
 71
     3
 72
    12
 73
     8
 74
     0
 42
0.000000001
 43
0.00000001
 40
0.0
 40
0.0
 40
0.0
 40
0.0
 40
0.2278124087133358
 40
0.4564793607393285
 40
0.6848157379115896
 40
0.9129708018593137
 40
1.0
 40
1.0
 40
1.0
 40
1.0
 10
161.5638687717513
 20
193.9010444969428
 30
0.0
 10
161.5813532248411
 20
194.2022517366736
 30
0.0
 10
161.6163877166599
 20
194.8057960695697
 30
0.0
 10
161.8877542904677
 20
195.6792626542245
 30
0.0
 10
162.3219105281189
 20
196.4748454728564
 30
0.0
 10
162.764140788369
 20
197.0532788706444
 30
0.0
 10
163.0923607334444
 20
197.3103972751796
 30
0.0
 10
163.1829893658654
 20
197.3813932329906
 30
0.0
  0
SPLINE
  5
3EB
330
1F
100
AcDbEntity
  8
0
  6
Continuous
 62
     8
370
     0
100
AcDbSpline
210
0.0
220
0.0
230
1.0
 70
     8
 71
     3
 72
    12
 73
     8
 74
     0
 42
0.000000001
 43
0.00000001
 40
0.0
 40
0.0
 40
0.0
 40
0.0
 40
0.0857125663213065
 40
0.3141881766324446
 40
0.5428631294726144
 40
0.7718702855399451
 40
1.0
 40
1.0
 40
1.0
 40
1.0
 10
169.1829894180194
 20
197.3826225787891
 30
0.0
 10
169.272370049728
 20
197.3128116837401
 30
0.0
 10
169.6000038951258
 20
197.056912709227
 30
0.0
 10
170.041888925767
 20
196.4789057639301
 30
0.0
 10
170.4769712066424
 20
195.6821433863834
 30
0.0
 10
170.7492935706765
 20
194.8073146224561
 30
0.0
 10
170.78452707438
 20
194.2027499055867
 30
0.0
 10
170.8021100121335
 20
193.9010477565718
 30
0.0
  0
SPLINE
  5
3EC
330
1F
100
AcDbEntity
  8
0
  6
Continuous
 62
     8
370
     0
100
AcDbSpline
210
0.0
220
0.0
230
1.0
 70
     8
 71
     3
 72
    12
 73
     8
 74
     0
 42
0.000000001
 43
0.00000001
 40
0.0
 40
0.0
 40
0.0
 40
0.0
 40
0.1374320595095889
 40
0.3530740965146303
 40
0.5687160866095644
 40
0.7843580702639741
 40
1.0
 40
1.0
 40
1.0
 40
1.0
 10
169.1829894180194
 20
197.7717021421087
 30
0.0
 10
169.3461348947707
 20
197.6467203142587
 30
0.0
 10
169.7652688436467
 20
197.325631871676
 30
0.0
 10
170.2955808809114
 20
196.6499952549021
 30
0.0
 10
170.7548146767618
 20
195.7983085924152
 30
0.0
 10
171.0468404827847
 20
194.8675259641229
 30
0.0
 10
171.0836563847084
 20
194.2232071322383
 30
0.0
 10
171.1020643333689
 20
193.9010477565718
 30
0.0
  0
SPLINE
  5
3ED
330
1F
100
AcDbEntity
  8
0
  6
Continuous
 62
     8
370
     0
100
AcDbSpline
210
0.0
220
0.0
230
1.0
 70
     8
 71
     3
 72
    12
 73
     8
 74
     0
 42
0.000000001
 43
0.00000001
 40
0.0
 40
0.0
 40
0.0
 40
0.0
 40
0.2152375161137876
 40
0.4304750535830926
 40
0.6457126314537405
 40
0.8609502965698462
 40
1.0
 40
1.0
 40
1.0
 40
1.0
 10
161.2639144505159
 20
193.9010477565718
 30
0.0
 10
161.282254091712
 20
194.2226207230634
 30
0.0
 10
161.3189333759237
 20
194.8657666879525
 30
0.0
 10
161.6099190197362
 20
195.7949630276881
 30
0.0
 10
162.0674808228535
 20
196.6455765559252
 30
0.0
 10
162.5979456320697
 20
197.3225929696943
 30
0.0
 10
163.0180916472487
 20
197.6454038976946
 30
0.0
 10
163.1829893658654
 20
197.7720998168481
 30
0.0
  0
LINE
  5
3EE
330
1F
100
AcDbEntity
  8
0
  6
Continuous
 62
     8
370
     0
100
AcDbLine
 10
171.1829892802
 20
185.9010476094
 30
0.0
 11
171.1230405117
 21
185.9010476094
 31
0.0
  0
LINE
  5
3EF
330
1F
100
AcDbEntity
  8
0
  6
Continuous
 62
     8
370
     0
100
AcDbLine
 10
161.1829895037
 20
185.9010476094
 30
0.0
 11
161.2429387378
 21
185.9010476094
 31
0.0
  0
LINE
  5
3F0
330
1F
100
AcDbEntity
  8
0
  6
Continuous
 62
     8
370
     0
100
AcDbLine
 10
171.1829892802
 20
193.9010477566
 30
0.0
 11
171.1230405117
 21
193.9010477566
 31
0.0
  0
LINE
  5
3F1
330
1F
100
AcDbEntity
  8
0
  6
Continuous
 62
     8
370
     0
100
AcDbLine
 10
161.1829895037
 20
193.9010477566
 30
0.0
 11
161.2429387378
 21
193.9010477566
 31
0.0
  0
LINE
  5
3F2
330
1F
100
AcDbEntity
  8
0
  6
Continuous
 62
     8
370
     0
100
AcDbLine
 10
161.5779936756
 20
229.1604505793
 30
0.0
 11
161.5779936756
 21
234.1604495362
 31
0.0
  0
LINE
  5
3F3
330
1F
100
AcDbEntity
  8
0
  6
Continuous
 62
     8
370
     0
100
AcDbLine
 10
161.386185463
 20
229.2561942652
 30
0.0
 11
161.386185463
 21
234.0647058502
 31
0.0
  0
DIMENSION
  5
3F4
330
1F
100
AcDbEntity
  8
0
  6
Continuous
 62
     7
370
     0
100
AcDbDimension
  2
_D_12
 10
163.1829893919
 20
259.5883241186
 30
0.0
 11
166.1829893919
 21
259.5883241186
 31
0.0
 70
   160
  1
<>
 71
     2
 42
-1.0
  3
SLDDIMSTYLE0
100
AcDbAlignedDimension
 13
169.1829893919
 23
247.2807801221
 33
0.0
 14
163.1829893919
 24
245.3018555018
 34
0.0
100
AcDbRotatedDimension
  0
DIMENSION
  5
400
330
1F
100
AcDbEntity
  8
0
  6
Continuous
 62
     7
370
     0
100
AcDbDimension
  2
_D_13
 10
172.6829893919
 20
127.9387174654
 30
0.0
 11
166.1829893919
 21
127.9387174654
 31
0.0
 70
   160
  1
<>
 71
     2
 42
-1.0
  3
SLDDIMSTYLE0
100
AcDbAlignedDimension
 13
159.6829893919
 23
172.9010476545
 33
0.0
 14
172.6829893919
 24
172.9010476545
 34
0.0
100
AcDbRotatedDimension
  0
ENDSEC
  0
SECTION
  2
OBJECTS
  0
DICTIONARY
  5
C
330
0
100
AcDbDictionary
281
     1
  3
ACAD_GROUP
350
D
  3
ACAD_LAYOUT
350
1A
  3
ACAD_MLINESTYLE
350
17
  3
ACAD_PLOTSETTINGS
350
19
  3
ACAD_PLOTSTYLENAME
350
E
  3
ACAD_SCALELIST
350
47
  0
DICTIONARY
  5
D
102
{ACAD_REACTORS
330
C
102
}
330
C
100
AcDbDictionary
281
     1
  0
DICTIONARY
  5
1A
102
{ACAD_REACTORS
330
C
102
}
330
C
100
AcDbDictionary
281
     1
  3
Layout1
350
1E
  3
Layout2
350
26
  3
Model
350
22
  0
DICTIONARY
  5
17
102
{ACAD_REACTORS
330
C
102
}
330
C
100
AcDbDictionary
281
     1
  3
Standard
350
18
  0
DICTIONARY
  5
19
102
{ACAD_REACTORS
330
C
102
}
330
C
100
AcDbDictionary
281
     1
  0
ACDBDICTIONARYWDFLT
  5
E
102
{ACAD_REACTORS
330
C
102
}
330
C
100
AcDbDictionary
281
     1
  3
Normal
350
F
100
AcDbDictionaryWithDefault
340
F
  0
DICTIONARY
  5
47
102
{ACAD_REACTORS
330
C
102
}
330
C
100
AcDbDictionary
281
     1
  3
A0
350
48
  3
A1
350
49
  3
A2
350
4A
  3
A3
350
4B
  3
A4
350
4C
  3
A5
350
4D
  3
A6
350
4E
  3
A7
350
4F
  3
A8
350
50
  3
A9
350
51
  3
B0
350
52
  3
B1
350
53
  3
B2
350
54
  3
B3
350
55
  3
B4
350
56
  3
B5
350
57
  3
B6
350
58
  3
B7
350
59
  3
B8
350
5A
  3
B9
350
5B
  3
C0
350
5C
  3
C1
350
5D
  3
C2
350
5E
  3
C3
350
5F
  3
C4
350
60
  3
C5
350
61
  3
C6
350
62
  3
C7
350
63
  3
C8
350
64
  3
C9
350
65
  3
D0
350
66
  3
D1
350
67
  3
D2
350
68
  0
LAYOUT
  5
1E
102
{ACAD_REACTORS
330
1A
102
}
330
1A
100
AcDbPlotSettings
  1

  2
none_device
  4

  6

 40
0.0
 41
0.0
 42
0.0
 43
0.0
 44
0.0
 45
0.0
 46
0.0
 47
0.0
 48
0.0
 49
0.0
140
0.0
141
0.0
142
1.0
143
1.0
 70
   688
 72
     1
 73
     0
 74
     5
  7

 75
    16
147
1.0
148
0.0
149
0.0
100
AcDbLayout
  1
Layout1
 70
     1
 71
     1
 10
0.0
 20
0.0
 11
420.0
 21
297.0
 12
0.0
 22
0.0
 32
0.0
 14
1.0000000000E+20
 24
1.0000000000E+20
 34
1.0000000000E+20
 15
-1.0000000000E+20
 25
-1.0000000000E+20
 35
-1.0000000000E+20
146
0.0
 13
0.0
 23
0.0
 33
0.0
 16
1.0
 26
0.0
 36
0.0
 17
0.0
 27
1.0
 37
0.0
 76
     0
330
1B
  0
LAYOUT
  5
26
102
{ACAD_REACTORS
330
1A
102
}
330
1A
100
AcDbPlotSettings
  1

  2
none_device
  4

  6

 40
0.0
 41
0.0
 42
0.0
 43
0.0
 44
0.0
 45
0.0
 46
0.0
 47
0.0
 48
0.0
 49
0.0
140
0.0
141
0.0
142
1.0
143
1.0
 70
   688
 72
     1
 73
     0
 74
     5
  7

 75
    16
147
1.0
148
0.0
149
0.0
100
AcDbLayout
  1
Layout2
 70
     1
 71
     2
 10
0.0
 20
0.0
 11
0.0
 21
0.0
 12
0.0
 22
0.0
 32
0.0
 14
0.0
 24
0.0
 34
0.0
 15
0.0
 25
0.0
 35
0.0
146
0.0
 13
0.0
 23
0.0
 33
0.0
 16
1.0
 26
0.0
 36
0.0
 17
0.0
 27
1.0
 37
0.0
 76
     0
330
23
  0
LAYOUT
  5
22
102
{ACAD_REACTORS
330
1A
102
}
330
1A
100
AcDbPlotSettings
  1

  2
none_device
  4
Letter_(8.50_x_11.00_Inches)
  6

 40
6.35
 41
6.35
 42
6.35000508
 43
6.35000508
 44
215.9
 45
279.4
 46
0.0
 47
0.0
 48
0.0
 49
0.0
140
0.0
141
0.0
142
1.0
143
1.0
 70
  1712
 72
     1
 73
     0
 74
     0
  7

 75
     0
147
1.0
148
0.0
149
0.0
100
AcDbLayout
  1
Model
 70
     1
 71
     0
 10
0.0
 20
0.0
 11
210.0
 21
297.0
 12
0.0
 22
0.0
 32
0.0
 14
0.0
 24
0.0
 34
0.0
 15
210.0
 25
297.0
 35
0.0
146
0.0
 13
0.0
 23
0.0
 33
0.0
 16
1.0
 26
0.0
 36
0.0
 17
0.0
 27
1.0
 37
0.0
 76
     0
330
1F
331
29
  0
MLINESTYLE
  5
18
102
{ACAD_REACTORS
330
17
102
}
330
17
100
AcDbMlineStyle
  2
Standard
 70
     0
  3

 62
   256
 51
90.0
 52
90.0
 71
     2
 49
0.5
 62
   256
  6
BYLAYER
 49
-0.5
 62
   256
  6
BYLAYER
  0
ACDBPLACEHOLDER
  5
F
102
{ACAD_REACTORS
330
E
102
}
330
E
  0
SCALE
  5
48
102
{ACAD_REACTORS
330
47
102
}
330
47
100
AcDbScale
 70
     0
300
1:1
140
1.0
141
1.0
290
     1
  0
SCALE
  5
49
102
{ACAD_REACTORS
330
47
102
}
330
47
100
AcDbScale
 70
     0
300
1:2
140
1.0
141
2.0
290
     0
  0
SCALE
  5
4A
102
{ACAD_REACTORS
330
47
102
}
330
47
100
AcDbScale
 70
     0
300
1:4
140
1.0
141
4.0
290
     0
  0
SCALE
  5
4B
102
{ACAD_REACTORS
330
47
102
}
330
47
100
AcDbScale
 70
     0
300
1:5
140
1.0
141
5.0
290
     0
  0
SCALE
  5
4C
102
{ACAD_REACTORS
330
47
102
}
330
47
100
AcDbScale
 70
     0
300
1:8
140
1.0
141
8.0
290
     0
  0
SCALE
  5
4D
102
{ACAD_REACTORS
330
47
102
}
330
47
100
AcDbScale
 70
     0
300
1:10
140
1.0
141
10.0
290
     0
  0
SCALE
  5
4E
102
{ACAD_REACTORS
330
47
102
}
330
47
100
AcDbScale
 70
     0
300
1:16
140
1.0
141
16.0
290
     0
  0
SCALE
  5
4F
102
{ACAD_REACTORS
330
47
102
}
330
47
100
AcDbScale
 70
     0
300
1:20
140
1.0
141
20.0
290
     0
  0
SCALE
  5
50
102
{ACAD_REACTORS
330
47
102
}
330
47
100
AcDbScale
 70
     0
300
1:30
140
1.0
141
30.0
290
     0
  0
SCALE
  5
51
102
{ACAD_REACTORS
330
47
102
}
330
47
100
AcDbScale
 70
     0
300
1:40
140
1.0
141
40.0
290
     0
  0
SCALE
  5
52
102
{ACAD_REACTORS
330
47
102
}
330
47
100
AcDbScale
 70
     0
300
1:50
140
1.0
141
50.0
290
     0
  0
SCALE
  5
53
102
{ACAD_REACTORS
330
47
102
}
330
47
100
AcDbScale
 70
     0
300
1:100
140
1.0
141
100.0
290
     0
  0
SCALE
  5
54
102
{ACAD_REACTORS
330
47
102
}
330
47
100
AcDbScale
 70
     0
300
2:1
140
2.0
141
1.0
290
     0
  0
SCALE
  5
55
102
{ACAD_REACTORS
330
47
102
}
330
47
100
AcDbScale
 70
     0
300
4:1
140
4.0
141
1.0
290
     0
  0
SCALE
  5
56
102
{ACAD_REACTORS
330
47
102
}
330
47
100
AcDbScale
 70
     0
300
8:1
140
8.0
141
1.0
290
     0
  0
SCALE
  5
57
102
{ACAD_REACTORS
330
47
102
}
330
47
100
AcDbScale
 70
     0
300
10:1
140
10.0
141
1.0
290
     0
  0
SCALE
  5
58
102
{ACAD_REACTORS
330
47
102
}
330
47
100
AcDbScale
 70
     0
300
100:1
140
100.0
141
1.0
290
     0
  0
SCALE
  5
59
102
{ACAD_REACTORS
330
47
102
}
330
47
100
AcDbScale
 70
     0
300
1/128" = 1'-0"
140
0.0078125
141
12.0
290
     0
  0
SCALE
  5
5A
102
{ACAD_REACTORS
330
47
102
}
330
47
100
AcDbScale
 70
     0
300
1/64" = 1'-0"
140
0.015625
141
12.0
290
     0
  0
SCALE
  5
5B
102
{ACAD_REACTORS
330
47
102
}
330
47
100
AcDbScale
 70
     0
300
1/32" = 1'-0"
140
0.03125
141
12.0
290
     0
  0
SCALE
  5
5C
102
{ACAD_REACTORS
330
47
102
}
330
47
100
AcDbScale
 70
     0
300
1/16" = 1'-0"
140
0.0625
141
12.0
290
     0
  0
SCALE
  5
5D
102
{ACAD_REACTORS
330
47
102
}
330
47
100
AcDbScale
 70
     0
300
3/32" = 1'-0"
140
0.09375
141
12.0
290
     0
  0
SCALE
  5
5E
102
{ACAD_REACTORS
330
47
102
}
330
47
100
AcDbScale
 70
     0
300
1/8" = 1'-0"
140
0.125
141
12.0
290
     0
  0
SCALE
  5
5F
102
{ACAD_REACTORS
330
47
102
}
330
47
100
AcDbScale
 70
     0
300
3/16" = 1'-0"
140
0.1875
141
12.0
290
     0
  0
SCALE
  5
60
102
{ACAD_REACTORS
330
47
102
}
330
47
100
AcDbScale
 70
     0
300
1/4" = 1'-0"
140
0.25
141
12.0
290
     0
  0
SCALE
  5
61
102
{ACAD_REACTORS
330
47
102
}
330
47
100
AcDbScale
 70
     0
300
3/8" = 1'-0"
140
0.375
141
12.0
290
     0
  0
SCALE
  5
62
102
{ACAD_REACTORS
330
47
102
}
330
47
100
AcDbScale
 70
     0
300
1/2" = 1'-0"
140
0.5
141
12.0
290
     0
  0
SCALE
  5
63
102
{ACAD_REACTORS
330
47
102
}
330
47
100
AcDbScale
 70
     0
300
3/4" = 1'-0"
140
0.75
141
12.0
290
     0
  0
SCALE
  5
64
102
{ACAD_REACTORS
330
47
102
}
330
47
100
AcDbScale
 70
     0
300
1" = 1'-0"
140
1.0
141
12.0
290
     0
  0
SCALE
  5
65
102
{ACAD_REACTORS
330
47
102
}
330
47
100
AcDbScale
 70
     0
300
1-1/2" = 1'-0"
140
1.5
141
12.0
290
     0
  0
SCALE
  5
66
102
{ACAD_REACTORS
330
47
102
}
330
47
100
AcDbScale
 70
     0
300
3" = 1'-0"
140
3.0
141
12.0
290
     0
  0
SCALE
  5
67
102
{ACAD_REACTORS
330
47
102
}
330
47
100
AcDbScale
 70
     0
300
6" = 1'-0"
140
6.0
141
12.0
290
     0
  0
SCALE
  5
68
102
{ACAD_REACTORS
330
47
102
}
330
47
100
AcDbScale
 70
     0
300
1'-0" = 1'-0"
140
12.0
141
12.0
290
     0
  0
ENDSEC
  0
EOF
