  0
SECTION
  2
HEADER
  9
$ACADVER
  1
AC1015
  9
$ACADMAINTVER
 70
     6
  9
$DWGCODEPAGE
  3
DOS932
  9
$INSBASE
 10
0.0
 20
0.0
 30
0.0
  9
$EXTMIN
 10
0.0
 20
0.0
 30
0.0
  9
$EXTMAX
 10
210.0
 20
297.0
 30
0.0
  9
$LIMMIN
 10
0.0
 20
0.0
  9
$LIMMAX
 10
210.0
 20
297.0
  9
$ORTHOMODE
 70
     0
  9
$REGENMODE
 70
     1
  9
$FILLMODE
 70
     1
  9
$QTEXTMODE
 70
     0
  9
$MIRRTEXT
 70
     1
  9
$LTSCALE
 40
1.0
  9
$ATTMODE
 70
     1
  9
$TEXTSIZE
 40
3.5
  9
$TRACEWID
 40
1.0
  9
$TEXTSTYLE
  7
Standard
  9
$CLAYER
  8
0
  9
$CELTYPE
  6
ByLayer
  9
$CECOLOR
 62
   256
  9
$CELTSCALE
 40
1.0
  9
$DISPSILH
 70
     0
  9
$DIMSCALE
 40
1.0
  9
$DIMASZ
 40
3.0
  9
$DIMEXO
 40
1.0
  9
$DIMDLI
 40
3.75
  9
$DIMRND
 40
0.0
  9
$DIMDLE
 40
0.0
  9
$DIMEXE
 40
1.0
  9
$DIMTP
 40
0.0
  9
$DIMTM
 40
0.0
  9
$DIMTXT
 40
3.5
  9
$DIMCEN
 40
2.5
  9
$DIMTSZ
 40
0.0
  9
$DIMTOL
 70
     0
  9
$DIMLIM
 70
     0
  9
$DIMTIH
 70
     1
  9
$DIMTOH
 70
     1
  9
$DIMSE1
 70
     0
  9
$DIMSE2
 70
     0
  9
$DIMTAD
 70
     1
  9
$DIMZIN
 70
     0
  9
$DIMBLK
  1

  9
$DIMASO
 70
     1
  9
$DIMSHO
 70
     1
  9
$DIMPOST
  1

  9
$DIMAPOST
  1

  9
$DIMALT
 70
     0
  9
$DIMALTD
 70
     3
  9
$DIMALTF
 40
0.0393700787
  9
$DIMLFAC
 40
1.0
  9
$DIMTOFL
 70
     1
  9
$DIMTVP
 40
0.0
  9
$DIMTIX
 70
     0
  9
$DIMSOXD
 70
     0
  9
$DIMSAH
 70
     0
  9
$DIMBLK1
  1

  9
$DIMBLK2
  1

  9
$DIMSTYLE
  2
ISO-25
  9
$DIMCLRD
 70
     0
  9
$DIMCLRE
 70
     0
  9
$DIMCLRT
 70
     0
  9
$DIMTFAC
 40
1.0
  9
$DIMGAP
 40
1.524
  9
$DIMJUST
 70
     0
  9
$DIMSD1
 70
     0
  9
$DIMSD2
 70
     0
  9
$DIMTOLJ
 70
     0
  9
$DIMTZIN
 70
     0
  9
$DIMALTZ
 70
     0
  9
$DIMALTTZ
 70
     0
  9
$DIMUPT
 70
     0
  9
$DIMDEC
 70
     1
  9
$DIMTDEC
 70
     3
  9
$DIMALTU
 70
     2
  9
$DIMALTTD
 70
     3
  9
$DIMTXSTY
  7
Standard
  9
$DIMAUNIT
 70
     0
  9
$DIMADEC
 70
     2
  9
$DIMALTRND
 40
0.0
  9
$DIMAZIN
 70
     0
  9
$DIMDSEP
 70
    44
  9
$DIMATFIT
 70
     3
  9
$DIMFRAC
 70
     0
  9
$DIMLDRBLK
  1

  9
$DIMLUNIT
 70
     2
  9
$DIMLWD
 70
    -2
  9
$DIMLWE
 70
    -2
  9
$DIMTMOVE
 70
     0
  9
$LUNITS
 70
     2
  9
$LUPREC
 70
     1
  9
$SKETCHINC
 40
1.0
  9
$FILLETRAD
 40
10.0
  9
$AUNITS
 70
     0
  9
$AUPREC
 70
     2
  9
$MENU
  1
.
  9
$ELEVATION
 40
0.0
  9
$PELEVATION
 40
0.0
  9
$THICKNESS
 40
0.0
  9
$LIMCHECK
 70
     0
  9
$CHAMFERA
 40
0.0
  9
$CHAMFERB
 40
0.0
  9
$CHAMFERC
 40
0.0
  9
$CHAMFERD
 40
0.0
  9
$SKPOLY
 70
     0
  9
$TDCREATE
 40
2457984.685422697
  9
$TDUCREATE
 40
2457984.310422697
  9
$TDUPDATE
 40
2457984.685425822
  9
$TDUUPDATE
 40
2457984.310425822
  9
$TDINDWG
 40
0.0000000116
  9
$TDUSRTIMER
 40
0.0000000116
  9
$USRTIMER
 70
     1
  9
$ANGBASE
 50
0.0
  9
$ANGDIR
 70
     0
  9
$PDMODE
 70
     0
  9
$PDSIZE
 40
-1.0
  9
$PLINEWID
 40
0.0
  9
$SPLFRAME
 70
     0
  9
$SPLINETYPE
 70
     6
  9
$SPLINESEGS
 70
     8
  9
$HANDSEED
  5
549
  9
$SURFTAB1
 70
     6
  9
$SURFTAB2
 70
     6
  9
$SURFTYPE
 70
     6
  9
$SURFU
 70
     6
  9
$SURFV
 70
     6
  9
$UCSBASE
  2

  9
$UCSNAME
  2

  9
$UCSORG
 10
0.0
 20
0.0
 30
0.0
  9
$UCSXDIR
 10
1.0
 20
0.0
 30
0.0
  9
$UCSYDIR
 10
0.0
 20
1.0
 30
0.0
  9
$UCSORTHOREF
  2

  9
$UCSORTHOVIEW
 70
     0
  9
$UCSORGTOP
 10
0.0
 20
0.0
 30
0.0
  9
$UCSORGBOTTOM
 10
0.0
 20
0.0
 30
0.0
  9
$UCSORGLEFT
 10
0.0
 20
0.0
 30
0.0
  9
$UCSORGRIGHT
 10
0.0
 20
0.0
 30
0.0
  9
$UCSORGFRONT
 10
0.0
 20
0.0
 30
0.0
  9
$UCSORGBACK
 10
0.0
 20
0.0
 30
0.0
  9
$PUCSBASE
  2

  9
$PUCSNAME
  2

  9
$PUCSORG
 10
0.0
 20
0.0
 30
0.0
  9
$PUCSXDIR
 10
1.0
 20
0.0
 30
0.0
  9
$PUCSYDIR
 10
0.0
 20
1.0
 30
0.0
  9
$PUCSORTHOREF
  2

  9
$PUCSORTHOVIEW
 70
     0
  9
$PUCSORGTOP
 10
0.0
 20
0.0
 30
0.0
  9
$PUCSORGBOTTOM
 10
0.0
 20
0.0
 30
0.0
  9
$PUCSORGLEFT
 10
0.0
 20
0.0
 30
0.0
  9
$PUCSORGRIGHT
 10
0.0
 20
0.0
 30
0.0
  9
$PUCSORGFRONT
 10
0.0
 20
0.0
 30
0.0
  9
$PUCSORGBACK
 10
0.0
 20
0.0
 30
0.0
  9
$USERI1
 70
     0
  9
$USERI2
 70
     0
  9
$USERI3
 70
     0
  9
$USERI4
 70
     0
  9
$USERI5
 70
     0
  9
$USERR1
 40
0.0
  9
$USERR2
 40
0.0
  9
$USERR3
 40
0.0
  9
$USERR4
 40
0.0
  9
$USERR5
 40
0.0
  9
$WORLDVIEW
 70
     1
  9
$SHADEDGE
 70
     3
  9
$SHADEDIF
 70
    70
  9
$TILEMODE
 70
     1
  9
$MAXACTVP
 70
    64
  9
$PINSBASE
 10
0.0
 20
0.0
 30
0.0
  9
$PLIMCHECK
 70
     0
  9
$PEXTMIN
 10
1.0000000000E+20
 20
1.0000000000E+20
 30
1.0000000000E+20
  9
$PEXTMAX
 10
-1.0000000000E+20
 20
-1.0000000000E+20
 30
-1.0000000000E+20
  9
$PLIMMIN
 10
0.0
 20
0.0
  9
$PLIMMAX
 10
420.0
 20
297.0
  9
$UNITMODE
 70
     0
  9
$VISRETAIN
 70
     1
  9
$PLINEGEN
 70
     0
  9
$PSLTSCALE
 70
     1
  9
$TREEDEPTH
 70
  3020
  9
$CMLSTYLE
  2
Standard
  9
$CMLJUST
 70
     0
  9
$CMLSCALE
 40
20.0
  9
$PROXYGRAPHICS
 70
     1
  9
$MEASUREMENT
 70
     1
  9
$CELWEIGHT
370
    -1
  9
$ENDCAPS
280
     0
  9
$JOINSTYLE
280
     0
  9
$LWDISPLAY
290
     1
  9
$INSUNITS
 70
     4
  9
$HYPERLINKBASE
  1

  9
$STYLESHEET
  1

  9
$XEDIT
290
     1
  9
$CEPSNTYPE
380
     0
  9
$PSTYLEMODE
290
     1
  9
$FINGERPRINTGUID
  2
{6F4EBC40-CF52-4349-B688-36E026EFF2CC}
  9
$VERSIONGUID
  2
{FAEB1C32-E019-11D5-929B-00C0DF256EC4}
  9
$EXTNAMES
290
     1
  9
$PSVPSCALE
 40
0.0
  9
$OLESTARTUP
290
     0
  0
ENDSEC
  0
SECTION
  2
CLASSES
  0
CLASS
  1
ACDBDICTIONARYWDFLT
  2
AcDbDictionaryWithDefault
  3
ObjectDBX Classes
 90
        0
280
     0
281
     0
  0
CLASS
  1
VISUALSTYLE
  2
AcDbVisualStyle
  3
ObjectDBX Classes
 90
     4095
280
     0
281
     0
  0
CLASS
  1
MATERIAL
  2
AcDbMaterial
  3
ObjectDBX Classes
 90
     1153
280
     0
281
     0
  0
CLASS
  1
SCALE
  2
AcDbScale
  3
ObjectDBX Classes
 90
     1153
280
     0
281
     0
  0
CLASS
  1
TABLESTYLE
  2
AcDbTableStyle
  3
ObjectDBX Classes
 90
     4095
280
     0
281
     0
  0
CLASS
  1
MLEADERSTYLE
  2
AcDbMLeaderStyle
  3
ACDB_MLEADERSTYLE_CLASS
 90
     4095
280
     0
281
     0
  0
CLASS
  1
SUN
  2
AcDbSun
  3
SCENEOE
 90
     1153
280
     0
281
     0
  0
CLASS
  1
ACDBPLACEHOLDER
  2
AcDbPlaceHolder
  3
ObjectDBX Classes
 90
        0
280
     0
281
     0
  0
CLASS
  1
LAYOUT
  2
AcDbLayout
  3
ObjectDBX Classes
 90
        0
280
     0
281
     0
  0
ENDSEC
  0
SECTION
  2
TABLES
  0
TABLE
  2
VPORT
  5
8
330
0
100
AcDbSymbolTable
 70
     1
  0
VPORT
  5
29
330
8
100
AcDbSymbolTableRecord
100
AcDbViewportTableRecord
  2
*Active
 70
     0
 10
0.0
 20
0.0
 11
1.0
 21
1.0
 12
105.0
 22
148.5
 13
0.0
 23
0.0
 14
10.0
 24
10.0
 15
10.0
 25
10.0
 16
0.0
 26
0.0
 36
1.0
 17
0.0
 27
0.0
 37
0.0
 40
297.0
 41
0.7070707071
 42
50.0
 43
0.0
 44
0.0
 50
0.0
 51
0.0
 71
     0
 72
  2000
 73
     1
 74
     3
 75
     0
 76
     0
 77
     0
 78
     0
281
     0
 65
     1
110
0.0
120
0.0
130
0.0
111
1.0
121
0.0
131
0.0
112
0.0
122
1.0
132
0.0
 79
     0
146
0.0
  0
ENDTAB
  0
TABLE
  2
LTYPE
  5
5
330
0
100
AcDbSymbolTable
 70
     6
  0
LTYPE
  5
14
330
5
100
AcDbSymbolTableRecord
100
AcDbLinetypeTableRecord
  2
ByBlock
 70
     0
  3

 72
    65
 73
     0
 40
0.0
  0
LTYPE
  5
15
330
5
100
AcDbSymbolTableRecord
100
AcDbLinetypeTableRecord
  2
ByLayer
 70
     0
  3

 72
    65
 73
     0
 40
0.0
  0
LTYPE
  5
16
330
5
100
AcDbSymbolTableRecord
100
AcDbLinetypeTableRecord
  2
Continuous
 70
     0
  3
Solid line
 72
    65
 73
     0
 40
0.0
  0
LTYPE
  5
6E
330
5
100
AcDbSymbolTableRecord
100
AcDbLinetypeTableRecord
  2
HIDDEN
 70
     0
  3
Hidden __ __ __ __ __ __ __ __ __ __ __ __ __ __
 72
    65
 73
     2
 40
1.905
 49
1.27
 74
     0
 49
-0.635
 74
     0
  0
LTYPE
  5
6F
330
5
100
AcDbSymbolTableRecord
100
AcDbLinetypeTableRecord
  2
PHANTOM
 70
     0
  3
Phantom ______  __  __  ______  __  __  ______
 72
    65
 73
     6
 40
12.7
 49
6.35
 74
     0
 49
-1.27
 74
     0
 49
1.27
 74
     0
 49
-1.27
 74
     0
 49
1.27
 74
     0
 49
-1.27
 74
     0
  0
LTYPE
  5
70
330
5
100
AcDbSymbolTableRecord
100
AcDbLinetypeTableRecord
  2
CENTER
 70
     0
  3
Center ____ _ ____ _ ____ _ ____ _ ____ _ ____
 72
    65
 73
     4
 40
10.16
 49
6.35
 74
     0
 49
-1.27
 74
     0
 49
1.27
 74
     0
 49
-1.27
 74
     0
  0
LTYPE
  5
71
330
5
100
AcDbSymbolTableRecord
100
AcDbLinetypeTableRecord
  2
CENTERX2
 70
     0
  3
Center (2x) ________  __  ________  __  _____
 72
    65
 73
     4
 40
20.32
 49
12.7
 74
     0
 49
-2.54
 74
     0
 49
2.54
 74
     0
 49
-2.54
 74
     0
  0
LTYPE
  5
72
330
5
100
AcDbSymbolTableRecord
100
AcDbLinetypeTableRecord
  2
DOT2
 70
     0
  3
Dot (.5x) ........................................
 72
    65
 73
     2
 40
0.635
 49
0.0
 74
     0
 49
-0.635
 74
     0
  0
ENDTAB
  0
TABLE
  2
LAYER
  5
2
330
0
100
AcDbSymbolTable
 70
     1
  0
LAYER
  5
10
330
2
100
AcDbSymbolTableRecord
100
AcDbLayerTableRecord
  2
0
 70
     0
 62
     7
  6
Continuous
370
    -3
390
F
  0
ENDTAB
  0
TABLE
  2
STYLE
  5
3
330
0
100
AcDbSymbolTable
 70
     2
  0
STYLE
  5
11
330
3
100
AcDbSymbolTableRecord
100
AcDbTextStyleTableRecord
  2
Standard
 70
     0
 40
0.0
 41
1.0
 50
0.0
 71
     0
 42
3.5
  3
txt
  4
bigfont
  0
STYLE
  5
7B
330
3
100
AcDbSymbolTableRecord
100
AcDbTextStyleTableRecord
  2
SLDTEXTSTYLE0
 70
     0
 40
0.0
 41
0.7
 50
0.0
 71
     0
 42
3.5
  3
TXT
  4
bigfont
  0
ENDTAB
  0
TABLE
  2
VIEW
  5
6
330
0
100
AcDbSymbolTable
 70
     0
  0
ENDTAB
  0
TABLE
  2
UCS
  5
7
330
0
100
AcDbSymbolTable
 70
     0
  0
ENDTAB
  0
TABLE
  2
APPID
  5
9
330
0
100
AcDbSymbolTable
 70
     1
  0
APPID
  5
12
330
9
100
AcDbSymbolTableRecord
100
AcDbRegAppTableRecord
  2
ACAD
 70
     0
  0
ENDTAB
  0
TABLE
  2
DIMSTYLE
  5
A
330
0
100
AcDbSymbolTable
 70
     7
100
AcDbDimStyleTable
  0
DIMSTYLE
105
27
330
A
100
AcDbSymbolTableRecord
100
AcDbDimStyleTableRecord
  2
ISO-25
 70
     0
 41
2.5
 42
0.625
 43
3.75
 44
1.25
 73
     0
 74
     0
 77
     1
 78
     8
140
2.5
141
2.5
143
0.0393700787
147
0.625
171
     3
172
     1
178
     0
271
     2
272
     2
274
     3
278
    44
283
     0
284
     8
340
11
  0
DIMSTYLE
105
192
102
{ACAD_REACTORS
330
191
330
1B4
330
1EA
330
531
330
53D
102
}
330
A
100
AcDbSymbolTableRecord
100
AcDbDimStyleTableRecord
  2
SLDDIMSTYLE0
 70
     0
 41
3.0
 44
0.0
 45
0.000000001
 73
     0
 74
     0
 77
     3
 78
    12
 79
     3
140
3.5
147
0.875
172
     1
173
     1
178
     0
271
     1
272
     3
276
     2
284
    12
289
     0
340
7B
  0
DIMSTYLE
105
1A0
102
{ACAD_REACTORS
330
19F
330
1AA
330
1C0
330
1CA
330
1D4
330
1DE
330
387
102
}
330
A
100
AcDbSymbolTableRecord
100
AcDbDimStyleTableRecord
  2
SLDDIMSTYLE1
 70
     0
 41
3.0
 44
0.0
 45
0.000000001
 73
     0
 74
     0
 77
     3
 78
    12
 79
     3
140
3.5
147
0.875
173
     1
178
     0
271
     1
272
     3
276
     2
284
    12
340
7B
  0
DIMSTYLE
105
1F9
102
{ACAD_REACTORS
330
1F8
102
}
330
A
100
AcDbSymbolTableRecord
100
AcDbDimStyleTableRecord
  2
SLDDIMSTYLE2
 70
     0
 41
3.0
 44
0.0
 45
0.000000001
 78
    12
 79
     3
140
3.5
141
0.0
147
0.875
173
     1
178
     0
271
     1
272
     3
276
     2
284
    12
340
7B
  0
DIMSTYLE
105
20A
330
A
100
AcDbSymbolTableRecord
100
AcDbDimStyleTableRecord
  2
SLDDIMSTYLE3
 70
     0
 41
3.0
 44
0.0
 45
0.000000001
146
3.0
147
0.0
173
     1
178
     0
271
     0
272
     0
276
     2
340
11
  0
DIMSTYLE
105
212
330
A
100
AcDbSymbolTableRecord
100
AcDbDimStyleTableRecord
  2
SLDDIMSTYLE4
 70
     0
 41
3.0
 44
0.0
 45
0.000000001
146
3.0
147
0.0
173
     1
178
     0
271
     0
272
     0
276
     2
340
11
341
213
343
213
344
213
  0
DIMSTYLE
105
37B
102
{ACAD_REACTORS
330
37A
102
}
330
A
100
AcDbSymbolTableRecord
100
AcDbDimStyleTableRecord
  2
SLDDIMSTYLE5
 70
     0
 41
3.0
 44
0.0
 45
0.000000001
 73
     0
 74
     0
 77
     3
 78
    12
 79
     3
140
3.5
147
0.875
173
     1
178
     0
271
     0
272
     3
276
     2
284
    12
340
7B
  0
ENDTAB
  0
TABLE
  2
BLOCK_RECORD
  5
1
330
0
100
AcDbSymbolTable
 70
    24
  0
BLOCK_RECORD
  5
1F
330
1
100
AcDbSymbolTableRecord
100
AcDbBlockTableRecord
  2
*Model_Space
340
22
  0
BLOCK_RECORD
  5
1B
330
1
100
AcDbSymbolTableRecord
100
AcDbBlockTableRecord
  2
*Paper_Space
340
1E
  0
BLOCK_RECORD
  5
23
330
1
100
AcDbSymbolTableRecord
100
AcDbBlockTableRecord
  2
*Paper_Space0
340
26
  0
BLOCK_RECORD
  5
193
330
1
100
AcDbSymbolTableRecord
100
AcDbBlockTableRecord
  2
_D
340
0
  0
BLOCK_RECORD
  5
1A1
330
1
100
AcDbSymbolTableRecord
100
AcDbBlockTableRecord
  2
_D_1
340
0
  0
BLOCK_RECORD
  5
1AB
330
1
100
AcDbSymbolTableRecord
100
AcDbBlockTableRecord
  2
_D_2
340
0
  0
BLOCK_RECORD
  5
1B5
330
1
100
AcDbSymbolTableRecord
100
AcDbBlockTableRecord
  2
_D_3
340
0
  0
BLOCK_RECORD
  5
1C1
330
1
100
AcDbSymbolTableRecord
100
AcDbBlockTableRecord
  2
_D_4
340
0
  0
BLOCK_RECORD
  5
1CB
330
1
100
AcDbSymbolTableRecord
100
AcDbBlockTableRecord
  2
_D_5
340
0
  0
BLOCK_RECORD
  5
1D5
330
1
100
AcDbSymbolTableRecord
100
AcDbBlockTableRecord
  2
_D_6
340
0
  0
BLOCK_RECORD
  5
1DF
330
1
100
AcDbSymbolTableRecord
100
AcDbBlockTableRecord
  2
_D_7
340
0
  0
BLOCK_RECORD
  5
1EB
330
1
100
AcDbSymbolTableRecord
100
AcDbBlockTableRecord
  2
_D_8
340
0
  0
BLOCK_RECORD
  5
1FA
330
1
100
AcDbSymbolTableRecord
100
AcDbBlockTableRecord
  2
_D_9
340
0
  0
BLOCK_RECORD
  5
204
330
1
100
AcDbSymbolTableRecord
100
AcDbBlockTableRecord
  2
SW_NOTE_0
340
0
102
{BLKREFS
331
209
102
}
  0
BLOCK_RECORD
  5
20C
330
1
100
AcDbSymbolTableRecord
100
AcDbBlockTableRecord
  2
SW_NOTE_1
340
0
102
{BLKREFS
331
211
102
}
  0
BLOCK_RECORD
  5
213
330
1
100
AcDbSymbolTableRecord
100
AcDbBlockTableRecord
  2
_OPEN30
340
0
  0
BLOCK_RECORD
  5
21A
330
1
100
AcDbSymbolTableRecord
100
AcDbBlockTableRecord
  2
SW_CENTERMARKSYMBOL_0
340
0
102
{BLKREFS
331
225
102
}
  0
BLOCK_RECORD
  5
226
330
1
100
AcDbSymbolTableRecord
100
AcDbBlockTableRecord
  2
SW_CENTERMARKSYMBOL_1
340
0
102
{BLKREFS
331
231
102
}
  0
BLOCK_RECORD
  5
232
330
1
100
AcDbSymbolTableRecord
100
AcDbBlockTableRecord
  2
SW_CENTERMARKSYMBOL_2
340
0
102
{BLKREFS
331
23D
102
}
  0
BLOCK_RECORD
  5
23E
330
1
100
AcDbSymbolTableRecord
100
AcDbBlockTableRecord
  2
SW_CENTERMARKSYMBOL_3
340
0
102
{BLKREFS
331
249
102
}
  0
BLOCK_RECORD
  5
24A
330
1
100
AcDbSymbolTableRecord
100
AcDbBlockTableRecord
  2
SW_CENTERMARKSYMBOL_4
340
0
102
{BLKREFS
331
255
102
}
  0
BLOCK_RECORD
  5
37C
330
1
100
AcDbSymbolTableRecord
100
AcDbBlockTableRecord
  2
_D_10
340
0
  0
BLOCK_RECORD
  5
388
330
1
100
AcDbSymbolTableRecord
100
AcDbBlockTableRecord
  2
_D_11
340
0
  0
BLOCK_RECORD
  5
393
330
1
100
AcDbSymbolTableRecord
100
AcDbBlockTableRecord
  2
SW_CENTERMARKSYMBOL_5
340
0
102
{BLKREFS
331
39E
102
}
  0
BLOCK_RECORD
  5
532
330
1
100
AcDbSymbolTableRecord
100
AcDbBlockTableRecord
  2
_D_12
340
0
  0
BLOCK_RECORD
  5
53E
330
1
100
AcDbSymbolTableRecord
100
AcDbBlockTableRecord
  2
_D_13
340
0
  0
ENDTAB
  0
ENDSEC
  0
SECTION
  2
BLOCKS
  0
BLOCK
  5
20
330
1F
100
AcDbEntity
  8
0
100
AcDbBlockBegin
  2
*Model_Space
 70
     0
 10
0.0
 20
0.0
 30
0.0
  3
*Model_Space
  1

  0
ENDBLK
  5
21
330
1F
100
AcDbEntity
  8
0
100
AcDbBlockEnd
  0
BLOCK
  5
1C
330
1B
100
AcDbEntity
 67
     1
  8
0
100
AcDbBlockBegin
  2
*Paper_Space
 70
     0
 10
0.0
 20
0.0
 30
0.0
  3
*Paper_Space
  1

  0
ENDBLK
  5
1D
330
1B
100
AcDbEntity
 67
     1
  8
0
100
AcDbBlockEnd
  0
BLOCK
  5
24
330
23
100
AcDbEntity
  8
0
100
AcDbBlockBegin
  2
*Paper_Space0
 70
     0
 10
0.0
 20
0.0
 30
0.0
  3
*Paper_Space0
  1

  0
ENDBLK
  5
25
330
23
100
AcDbEntity
  8
0
100
AcDbBlockEnd
  0
BLOCK
  5
194
330
193
100
AcDbEntity
  8
0
100
AcDbBlockBegin
  2
_D
 70
     0
 10
0.0
 20
0.0
 30
0.0
  3
_D
  1

  0
SOLID
  5
196
330
193
100
AcDbEntity
  8
0
  6
Continuous
 62
     7
370
     0
100
AcDbTrace
 10
77.3995253093
 20
132.489991255
 30
0.0
 11
74.3995253093
 21
133.239991255
 31
0.0
 12
74.3995253093
 22
131.739991255
 32
0.0
 13
74.3995253093
 23
131.739991255
 33
0.0
  0
SOLID
  5
197
330
193
100
AcDbEntity
  8
0
  6
Continuous
 62
     7
370
     0
100
AcDbTrace
 10
89.3995253093
 20
132.489991255
 30
0.0
 11
92.3995253093
 21
131.739991255
 31
0.0
 12
92.3995253093
 22
133.239991255
 32
0.0
 13
92.3995253093
 23
133.239991255
 33
0.0
  0
LINE
  5
198
330
193
100
AcDbEntity
  8
0
  6
Continuous
 62
     7
370
     0
100
AcDbLine
 10
77.3995253093
 20
148.1116446694
 30
0.0
 11
77.3995253093
 21
131.489991255
 31
0.0
  0
LINE
  5
199
330
193
100
AcDbEntity
  8
0
  6
Continuous
 62
     7
370
     0
100
AcDbLine
 10
89.3995253093
 20
148.1116446694
 30
0.0
 11
89.3995253093
 21
131.489991255
 31
0.0
  0
LINE
  5
19A
330
193
100
AcDbEntity
  8
0
  6
Continuous
 62
     7
370
     0
100
AcDbLine
 10
77.3995253093
 20
132.489991255
 30
0.0
 11
72.3995253093
 21
132.489991255
 31
0.0
  0
LINE
  5
19B
330
193
100
AcDbEntity
  8
0
  6
Continuous
 62
     7
370
     0
100
AcDbLine
 10
77.3995253093
 20
132.489991255
 30
0.0
 11
89.3995253093
 21
132.489991255
 31
0.0
  0
LINE
  5
19C
330
193
100
AcDbEntity
  8
0
  6
Continuous
 62
     7
370
     0
100
AcDbLine
 10
89.3995253093
 20
132.489991255
 30
0.0
 11
94.3995253093
 21
132.489991255
 31
0.0
  0
MTEXT
  5
19D
330
193
100
AcDbEntity
  8
0
  6
Continuous
 62
     7
370
     0
100
AcDbMText
 10
79.4277544378
 20
137.0017285771
 30
0.0
 40
3.5
 41
0.0
 71
     1
 72
     1
  1
%%c
  7
SLDTEXTSTYLE0
 73
     1
 44
1.0
  0
MTEXT
  5
19E
330
193
100
AcDbEntity
  8
0
  6
Continuous
 62
     7
370
     0
100
AcDbMText
 10
83.2976849529
 20
137.0017285771
 30
0.0
 40
3.5
 41
0.0
 71
     1
 72
     1
  1
12
  7
SLDTEXTSTYLE0
 73
     1
 44
1.0
  0
ENDBLK
  5
195
330
193
100
AcDbEntity
  8
0
100
AcDbBlockEnd
  0
BLOCK
  5
1A2
330
1A1
100
AcDbEntity
  8
0
100
AcDbBlockBegin
  2
_D_1
 70
     0
 10
0.0
 20
0.0
 30
0.0
  3
_D_1
  1

  0
SOLID
  5
1A4
330
1A1
100
AcDbEntity
  8
0
  6
Continuous
 62
     7
370
     0
100
AcDbTrace
 10
75.3995253093
 20
125.9078307195
 30
0.0
 11
78.3995253093
 21
125.1578307195
 31
0.0
 12
78.3995253093
 22
126.6578307195
 32
0.0
 13
78.3995253093
 23
126.6578307195
 33
0.0
  0
SOLID
  5
1A5
330
1A1
100
AcDbEntity
  8
0
  6
Continuous
 62
     7
370
     0
100
AcDbTrace
 10
91.3995253093
 20
125.9078307195
 30
0.0
 11
88.3995253093
 21
126.6578307195
 31
0.0
 12
88.3995253093
 22
125.1578307195
 32
0.0
 13
88.3995253093
 23
125.1578307195
 33
0.0
  0
LINE
  5
1A6
330
1A1
100
AcDbEntity
  8
0
  6
Continuous
 62
     7
370
     0
100
AcDbLine
 10
75.3995253093
 20
167.6116446694
 30
0.0
 11
75.3995253093
 21
124.9078307195
 31
0.0
  0
LINE
  5
1A7
330
1A1
100
AcDbEntity
  8
0
  6
Continuous
 62
     7
370
     0
100
AcDbLine
 10
91.3995253093
 20
167.6116446694
 30
0.0
 11
91.3995253093
 21
124.9078307195
 31
0.0
  0
LINE
  5
1A8
330
1A1
100
AcDbEntity
  8
0
  6
Continuous
 62
     7
370
     0
100
AcDbLine
 10
75.3995253093
 20
125.9078307195
 30
0.0
 11
91.3995253093
 21
125.9078307195
 31
0.0
  0
MTEXT
  5
1A9
330
1A1
100
AcDbEntity
  8
0
  6
Continuous
 62
     7
370
     0
100
AcDbMText
 10
81.3627198118
 20
130.4195675758
 30
0.0
 40
3.5
 41
0.0
 71
     1
 72
     1
  1
16
  7
SLDTEXTSTYLE0
 73
     1
 44
1.0
  0
ENDBLK
  5
1A3
330
1A1
100
AcDbEntity
  8
0
100
AcDbBlockEnd
  0
BLOCK
  5
1AC
330
1AB
100
AcDbEntity
  8
0
100
AcDbBlockBegin
  2
_D_2
 70
     0
 10
0.0
 20
0.0
 30
0.0
  3
_D_2
  1

  0
SOLID
  5
1AE
330
1AB
100
AcDbEntity
  8
0
  6
Continuous
 62
     7
370
     0
100
AcDbTrace
 10
70.3995253093
 20
120.0372551067
 30
0.0
 11
73.3995253093
 21
119.2872551067
 31
0.0
 12
73.3995253093
 22
120.7872551067
 32
0.0
 13
73.3995253093
 23
120.7872551067
 33
0.0
  0
SOLID
  5
1AF
330
1AB
100
AcDbEntity
  8
0
  6
Continuous
 62
     7
370
     0
100
AcDbTrace
 10
96.3995253093
 20
120.0372551067
 30
0.0
 11
93.3995253093
 21
120.7872551067
 31
0.0
 12
93.3995253093
 22
119.2872551067
 32
0.0
 13
93.3995253093
 23
119.2872551067
 33
0.0
  0
LINE
  5
1B0
330
1AB
100
AcDbEntity
  8
0
  6
Continuous
 62
     7
370
     0
100
AcDbLine
 10
70.3995253093
 20
163.6116446694
 30
0.0
 11
70.3995253093
 21
119.0372551067
 31
0.0
  0
LINE
  5
1B1
330
1AB
100
AcDbEntity
  8
0
  6
Continuous
 62
     7
370
     0
100
AcDbLine
 10
96.3995253093
 20
163.6116446694
 30
0.0
 11
96.3995253093
 21
119.0372551067
 31
0.0
  0
LINE
  5
1B2
330
1AB
100
AcDbEntity
  8
0
  6
Continuous
 62
     7
370
     0
100
AcDbLine
 10
70.3995253093
 20
120.0372551067
 30
0.0
 11
96.3995253093
 21
120.0372551067
 31
0.0
  0
MTEXT
  5
1B3
330
1AB
100
AcDbEntity
  8
0
  6
Continuous
 62
     7
370
     0
100
AcDbMText
 10
81.3627198118
 20
124.548991963
 30
0.0
 40
3.5
 41
0.0
 71
     1
 72
     1
  1
26
  7
SLDTEXTSTYLE0
 73
     1
 44
1.0
  0
ENDBLK
  5
1AD
330
1AB
100
AcDbEntity
  8
0
100
AcDbBlockEnd
  0
BLOCK
  5
1B6
330
1B5
100
AcDbEntity
  8
0
100
AcDbBlockBegin
  2
_D_3
 70
     0
 10
0.0
 20
0.0
 30
0.0
  3
_D_3
  1

  0
SOLID
  5
1B8
330
1B5
100
AcDbEntity
  8
0
  6
Continuous
 62
     7
370
     0
100
AcDbTrace
 10
107.6539893646
 20
164.6116446694
 30
0.0
 11
106.9039893646
 21
161.6116446694
 31
0.0
 12
108.4039893646
 22
161.6116446694
 32
0.0
 13
108.4039893646
 23
161.6116446694
 33
0.0
  0
SOLID
  5
1B9
330
1B5
100
AcDbEntity
  8
0
  6
Continuous
 62
     7
370
     0
100
AcDbTrace
 10
107.6539893646
 20
168.6116446694
 30
0.0
 11
108.4039893646
 21
171.6116446694
 31
0.0
 12
106.9039893646
 22
171.6116446694
 32
0.0
 13
106.9039893646
 23
171.6116446694
 33
0.0
  0
LINE
  5
1BA
330
1B5
100
AcDbEntity
  8
0
  6
Continuous
 62
     7
370
     0
100
AcDbLine
 10
97.3995253093
 20
164.6116446694
 30
0.0
 11
108.6539893646
 21
164.6116446694
 31
0.0
  0
LINE
  5
1BB
330
1B5
100
AcDbEntity
  8
0
  6
Continuous
 62
     7
370
     0
100
AcDbLine
 10
92.3995253093
 20
168.6116446694
 30
0.0
 11
108.6539893646
 21
168.6116446694
 31
0.0
  0
LINE
  5
1BC
330
1B5
100
AcDbEntity
  8
0
  6
Continuous
 62
     7
370
     0
100
AcDbLine
 10
107.6539893646
 20
164.6116446694
 30
0.0
 11
107.6539893646
 21
159.6116446694
 31
0.0
  0
LINE
  5
1BD
330
1B5
100
AcDbEntity
  8
0
  6
Continuous
 62
     7
370
     0
100
AcDbLine
 10
107.6539893646
 20
164.6116446694
 30
0.0
 11
107.6539893646
 21
168.6116446694
 31
0.0
  0
LINE
  5
1BE
330
1B5
100
AcDbEntity
  8
0
  6
Continuous
 62
     7
370
     0
100
AcDbLine
 10
107.6539893646
 20
168.6116446694
 30
0.0
 11
107.6539893646
 21
173.6116446694
 31
0.0
  0
MTEXT
  5
1BF
330
1B5
100
AcDbEntity
  8
0
  6
Continuous
 62
     7
370
     0
100
AcDbMText
 10
103.1422525083
 20
165.5932419207
 30
0.0
 40
3.5
 41
0.0
 71
     1
 72
     1
  1
4
  7
SLDTEXTSTYLE0
 11
-1.059690869644414E-14
 21
1.0
 31
0.0
 73
     1
 44
1.0
  0
ENDBLK
  5
1B7
330
1B5
100
AcDbEntity
  8
0
100
AcDbBlockEnd
  0
BLOCK
  5
1C2
330
1C1
100
AcDbEntity
  8
0
100
AcDbBlockBegin
  2
_D_4
 70
     0
 10
0.0
 20
0.0
 30
0.0
  3
_D_4
  1

  0
SOLID
  5
1C4
330
1C1
100
AcDbEntity
  8
0
  6
Continuous
 62
     7
370
     0
100
AcDbTrace
 10
107.6539893646
 20
168.6116446694
 30
0.0
 11
108.4039893646
 21
171.6116446694
 31
0.0
 12
106.9039893646
 22
171.6116446694
 32
0.0
 13
106.9039893646
 23
171.6116446694
 33
0.0
  0
SOLID
  5
1C5
330
1C1
100
AcDbEntity
  8
0
  6
Continuous
 62
     7
370
     0
100
AcDbTrace
 10
107.6539893646
 20
194.6116446694
 30
0.0
 11
106.9039893646
 21
191.6116446694
 31
0.0
 12
108.4039893646
 22
191.6116446694
 32
0.0
 13
108.4039893646
 23
191.6116446694
 33
0.0
  0
LINE
  5
1C6
330
1C1
100
AcDbEntity
  8
0
  6
Continuous
 62
     7
370
     0
100
AcDbLine
 10
92.3995253093
 20
168.6116446694
 30
0.0
 11
108.6539893646
 21
168.6116446694
 31
0.0
  0
LINE
  5
1C7
330
1C1
100
AcDbEntity
  8
0
  6
Continuous
 62
     7
370
     0
100
AcDbLine
 10
84.3995253093
 20
194.6116446694
 30
0.0
 11
108.6539893646
 21
194.6116446694
 31
0.0
  0
LINE
  5
1C8
330
1C1
100
AcDbEntity
  8
0
  6
Continuous
 62
     7
370
     0
100
AcDbLine
 10
107.6539893646
 20
168.6116446694
 30
0.0
 11
107.6539893646
 21
194.6116446694
 31
0.0
  0
MTEXT
  5
1C9
330
1C1
100
AcDbEntity
  8
0
  6
Continuous
 62
     7
370
     0
100
AcDbMText
 10
103.1422525083
 20
179.574839172
 30
0.0
 40
3.5
 41
0.0
 71
     1
 72
     1
  1
26
  7
SLDTEXTSTYLE0
 11
6.123233995736766E-17
 21
1.0
 31
0.0
 73
     1
 44
1.0
  0
ENDBLK
  5
1C3
330
1C1
100
AcDbEntity
  8
0
100
AcDbBlockEnd
  0
BLOCK
  5
1CC
330
1CB
100
AcDbEntity
  8
0
100
AcDbBlockBegin
  2
_D_5
 70
     0
 10
0.0
 20
0.0
 30
0.0
  3
_D_5
  1

  0
SOLID
  5
1CE
330
1CB
100
AcDbEntity
  8
0
  6
Continuous
 62
     7
370
     0
100
AcDbTrace
 10
118.2034960947
 20
208.8116446694
 30
0.0
 11
117.4534960947
 21
205.8116446694
 31
0.0
 12
118.9534960947
 22
205.8116446694
 32
0.0
 13
118.9534960947
 23
205.8116446694
 33
0.0
  0
SOLID
  5
1CF
330
1CB
100
AcDbEntity
  8
0
  6
Continuous
 62
     7
370
     0
100
AcDbTrace
 10
118.2034960947
 20
164.6116446694
 30
0.0
 11
118.9534960947
 21
167.6116446694
 31
0.0
 12
117.4534960947
 22
167.6116446694
 32
0.0
 13
117.4534960947
 23
167.6116446694
 33
0.0
  0
LINE
  5
1D0
330
1CB
100
AcDbEntity
  8
0
  6
Continuous
 62
     7
370
     0
100
AcDbLine
 10
87.3995253093
 20
208.8116446694
 30
0.0
 11
119.2034960947
 21
208.8116446694
 31
0.0
  0
LINE
  5
1D1
330
1CB
100
AcDbEntity
  8
0
  6
Continuous
 62
     7
370
     0
100
AcDbLine
 10
97.3995253093
 20
164.6116446694
 30
0.0
 11
119.2034960947
 21
164.6116446694
 31
0.0
  0
LINE
  5
1D2
330
1CB
100
AcDbEntity
  8
0
  6
Continuous
 62
     7
370
     0
100
AcDbLine
 10
118.2034960947
 20
208.8116446694
 30
0.0
 11
118.2034960947
 21
164.6116446694
 31
0.0
  0
MTEXT
  5
1D3
330
1CB
100
AcDbEntity
  8
0
  6
Continuous
 62
     7
370
     0
100
AcDbMText
 10
113.6917592384
 20
182.6380336745
 30
0.0
 40
3.5
 41
0.0
 71
     1
 72
     1
  1
44.2
  7
SLDTEXTSTYLE0
 11
-1.770233605404514E-14
 21
1.0
 31
0.0
 73
     1
 44
1.0
  0
ENDBLK
  5
1CD
330
1CB
100
AcDbEntity
  8
0
100
AcDbBlockEnd
  0
BLOCK
  5
1D6
330
1D5
100
AcDbEntity
  8
0
100
AcDbBlockBegin
  2
_D_6
 70
     0
 10
0.0
 20
0.0
 30
0.0
  3
_D_6
  1

  0
SOLID
  5
1D8
330
1D5
100
AcDbEntity
  8
0
  6
Continuous
 62
     7
370
     0
100
AcDbTrace
 10
118.2034960947
 20
164.6116446694
 30
0.0
 11
117.4534960947
 21
161.6116446694
 31
0.0
 12
118.9534960947
 22
161.6116446694
 32
0.0
 13
118.9534960947
 23
161.6116446694
 33
0.0
  0
SOLID
  5
1D9
330
1D5
100
AcDbEntity
  8
0
  6
Continuous
 62
     7
370
     0
100
AcDbTrace
 10
118.2034960947
 20
148.6116446694
 30
0.0
 11
118.9534960947
 21
151.6116446694
 31
0.0
 12
117.4534960947
 22
151.6116446694
 32
0.0
 13
117.4534960947
 23
151.6116446694
 33
0.0
  0
LINE
  5
1DA
330
1D5
100
AcDbEntity
  8
0
  6
Continuous
 62
     7
370
     0
100
AcDbLine
 10
97.3995253093
 20
164.6116446694
 30
0.0
 11
119.2034960947
 21
164.6116446694
 31
0.0
  0
LINE
  5
1DB
330
1D5
100
AcDbEntity
  8
0
  6
Continuous
 62
     7
370
     0
100
AcDbLine
 10
89.8995253093
 20
148.6116446694
 30
0.0
 11
119.2034960947
 21
148.6116446694
 31
0.0
  0
LINE
  5
1DC
330
1D5
100
AcDbEntity
  8
0
  6
Continuous
 62
     7
370
     0
100
AcDbLine
 10
118.2034960947
 20
164.6116446694
 30
0.0
 11
118.2034960947
 21
148.6116446694
 31
0.0
  0
MTEXT
  5
1DD
330
1D5
100
AcDbEntity
  8
0
  6
Continuous
 62
     7
370
     0
100
AcDbMText
 10
113.6917592384
 20
154.574839172
 30
0.0
 40
3.5
 41
0.0
 71
     1
 72
     1
  1
16
  7
SLDTEXTSTYLE0
 11
-1.770233605404514E-14
 21
1.0
 31
0.0
 73
     1
 44
1.0
  0
ENDBLK
  5
1D7
330
1D5
100
AcDbEntity
  8
0
100
AcDbBlockEnd
  0
BLOCK
  5
1E0
330
1DF
100
AcDbEntity
  8
0
100
AcDbBlockBegin
  2
_D_7
 70
     0
 10
0.0
 20
0.0
 30
0.0
  3
_D_7
  1

  0
ARC
  5
1E2
330
1DF
100
AcDbEntity
  8
0
  6
Continuous
 62
     7
370
     0
100
AcDbCircle
 10
126.8673718376
 20
190.2118354099
 30
0.0
 40
4.554435549315966
100
AcDbArc
 50
243.4349488229
 51
296.5650511771
  0
ARC
  5
1E3
330
1DF
100
AcDbEntity
  8
0
  6
Continuous
 62
     7
370
     0
100
AcDbCircle
 10
126.8673718376
 20
188.1750301453
 30
0.0
 40
4.554435549315966
100
AcDbArc
 50
63.4349488229
 51
116.5650511771
  0
SOLID
  5
1E4
330
1DF
100
AcDbEntity
  8
0
  6
Continuous
 62
     7
370
     0
100
AcDbTrace
 10
128.9041773351
 20
138.6116446694
 30
0.0
 11
129.6541773351
 21
141.6116446694
 31
0.0
 12
128.1541773351
 22
141.6116446694
 32
0.0
 13
128.1541773351
 23
141.6116446694
 33
0.0
  0
SOLID
  5
1E5
330
1DF
100
AcDbEntity
  8
0
  6
Continuous
 62
     7
370
     0
100
AcDbTrace
 10
128.9041773351
 20
239.7752210022
 30
0.0
 11
128.1541773351
 21
236.7752210022
 31
0.0
 12
129.6541773351
 22
236.7752210022
 32
0.0
 13
129.6541773351
 23
236.7752210022
 33
0.0
  0
LINE
  5
1E6
330
1DF
100
AcDbEntity
  8
0
  6
Continuous
 62
     7
370
     0
100
AcDbLine
 10
85.8995253093
 20
138.6116446694
 30
0.0
 11
129.9041773351
 21
138.6116446694
 31
0.0
  0
LINE
  5
1E7
330
1DF
100
AcDbEntity
  8
0
  6
Continuous
 62
     7
370
     0
100
AcDbLine
 10
91.7299921732
 20
239.7752210022
 30
0.0
 11
129.9041773351
 21
239.7752210022
 31
0.0
  0
LINE
  5
1E8
330
1DF
100
AcDbEntity
  8
0
  6
Continuous
 62
     7
370
     0
100
AcDbLine
 10
128.9041773351
 20
138.6116446694
 30
0.0
 11
128.9041773351
 21
239.7752210022
 31
0.0
  0
MTEXT
  5
1E9
330
1DF
100
AcDbEntity
  8
0
  6
Continuous
 62
     7
370
     0
100
AcDbMText
 10
124.3924404788
 20
186.138224415
 30
0.0
 40
3.5
 41
0.0
 71
     1
 72
     1
  1
102
  7
SLDTEXTSTYLE0
 11
6.123233995736766E-17
 21
1.0
 31
0.0
 73
     1
 44
1.0
  0
ENDBLK
  5
1E1
330
1DF
100
AcDbEntity
  8
0
100
AcDbBlockEnd
  0
BLOCK
  5
1EC
330
1EB
100
AcDbEntity
  8
0
100
AcDbBlockBegin
  2
_D_8
 70
     0
 10
0.0
 20
0.0
 30
0.0
  3
_D_8
  1

  0
ARC
  5
1EE
330
1EB
100
AcDbEntity
  8
0
  6
Continuous
 62
     7
370
     0
100
AcDbCircle
 10
85.4363307486
 20
250.3360306198
 30
0.0
 40
4.554435549315953
100
AcDbArc
 50
153.4349488229
 51
206.5650511771
  0
ARC
  5
1EF
330
1EB
100
AcDbEntity
  8
0
  6
Continuous
 62
     7
370
     0
100
AcDbCircle
 10
81.3627197536
 20
250.3360306198
 30
0.0
 40
4.554435549315978
100
AcDbArc
 50
333.4349488229
 51
26.5650511771
  0
SOLID
  5
1F0
330
1EB
100
AcDbEntity
  8
0
  6
Continuous
 62
     7
370
     0
100
AcDbTrace
 10
76.0690584454
 20
248.2992251223
 30
0.0
 11
73.0690584454
 21
249.0492251223
 31
0.0
 12
73.0690584454
 22
247.5492251223
 32
0.0
 13
73.0690584454
 23
247.5492251223
 33
0.0
  0
SOLID
  5
1F1
330
1EB
100
AcDbEntity
  8
0
  6
Continuous
 62
     7
370
     0
100
AcDbTrace
 10
90.7299921732
 20
248.2992251223
 30
0.0
 11
93.7299921732
 21
247.5492251223
 31
0.0
 12
93.7299921732
 22
249.0492251223
 32
0.0
 13
93.7299921732
 23
249.0492251223
 33
0.0
  0
LINE
  5
1F2
330
1EB
100
AcDbEntity
  8
0
  6
Continuous
 62
     7
370
     0
100
AcDbLine
 10
76.0690584454
 20
240.7752210022
 30
0.0
 11
76.0690584454
 21
249.2992251223
 31
0.0
  0
LINE
  5
1F3
330
1EB
100
AcDbEntity
  8
0
  6
Continuous
 62
     7
370
     0
100
AcDbLine
 10
90.7299921732
 20
240.7752210022
 30
0.0
 11
90.7299921732
 21
249.2992251223
 31
0.0
  0
LINE
  5
1F4
330
1EB
100
AcDbEntity
  8
0
  6
Continuous
 62
     7
370
     0
100
AcDbLine
 10
76.0690584454
 20
248.2992251223
 30
0.0
 11
71.0690584454
 21
248.2992251223
 31
0.0
  0
LINE
  5
1F5
330
1EB
100
AcDbEntity
  8
0
  6
Continuous
 62
     7
370
     0
100
AcDbLine
 10
76.0690584454
 20
248.2992251223
 30
0.0
 11
90.7299921732
 21
248.2992251223
 31
0.0
  0
LINE
  5
1F6
330
1EB
100
AcDbEntity
  8
0
  6
Continuous
 62
     7
370
     0
100
AcDbLine
 10
90.7299921732
 20
248.2992251223
 30
0.0
 11
95.7299921732
 21
248.2992251223
 31
0.0
  0
MTEXT
  5
1F7
330
1EB
100
AcDbEntity
  8
0
  6
Continuous
 62
     7
370
     0
100
AcDbMText
 10
81.3627197536
 20
252.8109619787
 30
0.0
 40
3.5
 41
0.0
 71
     1
 72
     1
  1
14
  7
SLDTEXTSTYLE0
 73
     1
 44
1.0
  0
ENDBLK
  5
1ED
330
1EB
100
AcDbEntity
  8
0
100
AcDbBlockEnd
  0
BLOCK
  5
1FB
330
1FA
100
AcDbEntity
  8
0
100
AcDbBlockBegin
  2
_D_9
 70
     0
 10
0.0
 20
0.0
 30
0.0
  3
_D_9
  1

  0
SOLID
  5
1FD
330
1FA
100
AcDbEntity
  8
0
  6
Continuous
 62
     7
370
     0
100
AcDbTrace
 10
73.6674745017
 20
169.6116446694
 30
0.0
 11
71.4443982904
 21
171.7611637223
 31
0.0
 12
70.6943982904
 22
170.4621256166
 32
0.0
 13
70.6943982904
 23
170.4621256166
 33
0.0
  0
LINE
  5
1FE
330
1FA
100
AcDbEntity
  8
0
  6
Continuous
 62
     7
370
     0
100
AcDbLine
 10
73.6674745017
 20
169.6116446694
 30
0.0
 11
62.2974131945
 21
176.1761526259
 31
0.0
  0
LINE
  5
1FF
330
1FA
100
AcDbEntity
  8
0
  6
Continuous
 62
     7
370
     0
100
AcDbLine
 10
62.2974131945
 20
176.1761526259
 30
0.0
 11
28.1210289601
 21
176.1761526259
 31
0.0
  0
MTEXT
  5
200
330
1FA
100
AcDbEntity
  8
0
  6
Continuous
 62
     7
370
     0
100
AcDbMText
 10
34.2314438227
 20
184.7615004772
 30
0.0
 40
3.5
 41
0.0
 71
     1
 72
     1
  1
3-
  7
SLDTEXTSTYLE0
 73
     1
 44
1.0
  0
MTEXT
  5
201
330
1FA
100
AcDbEntity
  8
0
  6
Continuous
 62
     7
370
     0
100
AcDbMText
 10
38.3050548177
 20
184.7615004772
 30
0.0
 40
3.5
 41
0.0
 71
     1
 72
     1
  1
M4
  7
SLDTEXTSTYLE0
 73
     1
 44
1.0
  0
MTEXT
  5
202
330
1FA
100
AcDbEntity
  8
0
  6
Continuous
 62
     7
370
     0
100
AcDbMText
 10
42.3786658126
 20
184.7615004772
 30
0.0
 40
3.5
 41
0.0
 71
     1
 72
     1
  1
取付穴
  7
SLDTEXTSTYLE0
 73
     1
 44
1.0
  0
MTEXT
  5
203
330
1FA
100
AcDbEntity
  8
0
  6
Continuous
 62
     7
370
     0
100
AcDbMText
 10
28.1210289601
 20
180.6878894822
 30
0.0
 40
3.5
 41
0.0
 71
     1
 72
     1
  1
(両側口元面取有)
  7
SLDTEXTSTYLE0
 73
     1
 44
1.0
  0
ENDBLK
  5
1FC
330
1FA
100
AcDbEntity
  8
0
100
AcDbBlockEnd
  0
BLOCK
  5
205
330
204
100
AcDbEntity
  8
0
100
AcDbBlockBegin
  2
SW_NOTE_0
 70
     0
 10
0.0
 20
0.0
 30
0.0
  3
SW_NOTE_0
  1

  0
LINE
  5
207
330
204
100
AcDbEntity
  8
0
  6
Continuous
 62
     0
370
     0
100
AcDbLine
 10
-8.2682873652
 20
0.0
 30
0.0
 11
0.0
 21
0.0
 31
0.0
  0
MTEXT
  5
208
330
204
100
AcDbEntity
  8
0
  6
Continuous
 62
     0
370
     0
100
AcDbMText
 10
-8.7411972587
 20
4.6001794742
 30
0.0
 40
3.5
 41
0.0
 71
     1
 72
     1
  1
BF-5
  7
SLDTEXTSTYLE0
 73
     1
 44
1.0
  0
ENDBLK
  5
206
330
204
100
AcDbEntity
  8
0
100
AcDbBlockEnd
  0
BLOCK
  5
20D
330
20C
100
AcDbEntity
  8
0
100
AcDbBlockBegin
  2
SW_NOTE_1
 70
     0
 10
0.0
 20
0.0
 30
0.0
  3
SW_NOTE_1
  1

  0
LINE
  5
20F
330
20C
100
AcDbEntity
  8
0
  6
Continuous
 62
     0
370
     0
100
AcDbLine
 10
-28.6363409431
 20
0.0
 30
0.0
 11
0.0
 21
0.0
 31
0.0
  0
MTEXT
  5
210
330
20C
100
AcDbEntity
  8
0
  6
Continuous
 62
     0
370
     0
100
AcDbMText
 10
-29.1193414151
 20
4.5769243988
 30
0.0
 40
3.5
 41
0.0
 71
     1
 72
     1
  1
4-M3取付ボルト
  7
SLDTEXTSTYLE0
 73
     1
 44
1.0
  0
ENDBLK
  5
20E
330
20C
100
AcDbEntity
  8
0
100
AcDbBlockEnd
  0
BLOCK
  5
214
330
213
100
AcDbEntity
  8
0
100
AcDbBlockBegin
  2
_OPEN30
 70
     0
 10
0.0
 20
0.0
 30
0.0
  3
_OPEN30
  1

  0
LINE
  5
216
330
213
100
AcDbEntity
  8
0
  6
ByBlock
 62
     0
370
    -2
100
AcDbLine
 10
-1.0
 20
0.267949
 30
0.0
 11
0.0
 21
0.0
 31
0.0
  0
LINE
  5
217
330
213
100
AcDbEntity
  8
0
  6
ByBlock
 62
     0
370
    -2
100
AcDbLine
 10
0.0
 20
0.0
 30
0.0
 11
-1.0
 21
-0.267949
 31
0.0
  0
LINE
  5
218
330
213
100
AcDbEntity
  8
0
  6
ByBlock
 62
     0
370
    -2
100
AcDbLine
 10
0.0
 20
0.0
 30
0.0
 11
-1.0
 21
0.0
 31
0.0
  0
ENDBLK
  5
215
330
213
100
AcDbEntity
  8
0
100
AcDbBlockEnd
  0
BLOCK
  5
21B
330
21A
100
AcDbEntity
  8
0
100
AcDbBlockBegin
  2
SW_CENTERMARKSYMBOL_0
 70
     0
 10
0.0
 20
0.0
 30
0.0
  3
SW_CENTERMARKSYMBOL_0
  1

  0
LINE
  5
21D
330
21A
100
AcDbEntity
  8
0
  6
Continuous
 62
     0
370
     0
100
AcDbLine
 10
0.0
 20
0.0
 30
0.0
 11
0.0
 21
2.5
 31
0.0
  0
LINE
  5
21E
330
21A
100
AcDbEntity
  8
0
  6
Continuous
 62
     0
370
     0
100
AcDbLine
 10
0.0
 20
0.0
 30
0.0
 11
-2.5
 21
0.0
 31
0.0
  0
LINE
  5
21F
330
21A
100
AcDbEntity
  8
0
  6
Continuous
 62
     0
370
     0
100
AcDbLine
 10
0.0
 20
0.0
 30
0.0
 11
0.0
 21
-2.5
 31
0.0
  0
LINE
  5
220
330
21A
100
AcDbEntity
  8
0
  6
Continuous
 62
     0
370
     0
100
AcDbLine
 10
0.0
 20
0.0
 30
0.0
 11
2.5
 21
0.0
 31
0.0
  0
LINE
  5
221
330
21A
100
AcDbEntity
  8
0
  6
Continuous
 62
     0
370
     0
100
AcDbLine
 10
0.0
 20
2.5
 30
0.0
 11
0.0
 21
4.3
 31
0.0
  0
LINE
  5
222
330
21A
100
AcDbEntity
  8
0
  6
Continuous
 62
     0
370
     0
100
AcDbLine
 10
-2.5
 20
0.0
 30
0.0
 11
-4.3
 21
0.0
 31
0.0
  0
LINE
  5
223
330
21A
100
AcDbEntity
  8
0
  6
Continuous
 62
     0
370
     0
100
AcDbLine
 10
0.0
 20
-2.5
 30
0.0
 11
0.0
 21
-4.3
 31
0.0
  0
LINE
  5
224
330
21A
100
AcDbEntity
  8
0
  6
Continuous
 62
     0
370
     0
100
AcDbLine
 10
2.5
 20
0.0
 30
0.0
 11
4.3
 21
0.0
 31
0.0
  0
ENDBLK
  5
21C
330
21A
100
AcDbEntity
  8
0
100
AcDbBlockEnd
  0
BLOCK
  5
227
330
226
100
AcDbEntity
  8
0
100
AcDbBlockBegin
  2
SW_CENTERMARKSYMBOL_1
 70
     0
 10
0.0
 20
0.0
 30
0.0
  3
SW_CENTERMARKSYMBOL_1
  1

  0
LINE
  5
229
330
226
100
AcDbEntity
  8
0
  6
Continuous
 62
     0
370
     0
100
AcDbLine
 10
0.0
 20
0.0
 30
0.0
 11
0.0
 21
2.5
 31
0.0
  0
LINE
  5
22A
330
226
100
AcDbEntity
  8
0
  6
Continuous
 62
     0
370
     0
100
AcDbLine
 10
0.0
 20
0.0
 30
0.0
 11
-2.5
 21
0.0
 31
0.0
  0
LINE
  5
22B
330
226
100
AcDbEntity
  8
0
  6
Continuous
 62
     0
370
     0
100
AcDbLine
 10
0.0
 20
0.0
 30
0.0
 11
0.0
 21
-2.5
 31
0.0
  0
LINE
  5
22C
330
226
100
AcDbEntity
  8
0
  6
Continuous
 62
     0
370
     0
100
AcDbLine
 10
0.0
 20
0.0
 30
0.0
 11
2.5
 21
0.0
 31
0.0
  0
LINE
  5
22D
330
226
100
AcDbEntity
  8
0
  6
Continuous
 62
     0
370
     0
100
AcDbLine
 10
0.0
 20
2.5
 30
0.0
 11
0.0
 21
4.15
 31
0.0
  0
LINE
  5
22E
330
226
100
AcDbEntity
  8
0
  6
Continuous
 62
     0
370
     0
100
AcDbLine
 10
-2.5
 20
0.0
 30
0.0
 11
-4.15
 21
0.0
 31
0.0
  0
LINE
  5
22F
330
226
100
AcDbEntity
  8
0
  6
Continuous
 62
     0
370
     0
100
AcDbLine
 10
0.0
 20
-2.5
 30
0.0
 11
0.0
 21
-4.15
 31
0.0
  0
LINE
  5
230
330
226
100
AcDbEntity
  8
0
  6
Continuous
 62
     0
370
     0
100
AcDbLine
 10
2.5
 20
0.0
 30
0.0
 11
4.15
 21
0.0
 31
0.0
  0
ENDBLK
  5
228
330
226
100
AcDbEntity
  8
0
100
AcDbBlockEnd
  0
BLOCK
  5
233
330
232
100
AcDbEntity
  8
0
100
AcDbBlockBegin
  2
SW_CENTERMARKSYMBOL_2
 70
     0
 10
0.0
 20
0.0
 30
0.0
  3
SW_CENTERMARKSYMBOL_2
  1

  0
LINE
  5
235
330
232
100
AcDbEntity
  8
0
  6
Continuous
 62
     0
370
     0
100
AcDbLine
 10
0.0
 20
0.0
 30
0.0
 11
0.0
 21
2.5
 31
0.0
  0
LINE
  5
236
330
232
100
AcDbEntity
  8
0
  6
Continuous
 62
     0
370
     0
100
AcDbLine
 10
0.0
 20
0.0
 30
0.0
 11
-2.5
 21
0.0
 31
0.0
  0
LINE
  5
237
330
232
100
AcDbEntity
  8
0
  6
Continuous
 62
     0
370
     0
100
AcDbLine
 10
0.0
 20
0.0
 30
0.0
 11
0.0
 21
-2.5
 31
0.0
  0
LINE
  5
238
330
232
100
AcDbEntity
  8
0
  6
Continuous
 62
     0
370
     0
100
AcDbLine
 10
0.0
 20
0.0
 30
0.0
 11
2.5
 21
0.0
 31
0.0
  0
LINE
  5
239
330
232
100
AcDbEntity
  8
0
  6
Continuous
 62
     0
370
     0
100
AcDbLine
 10
0.0
 20
2.5
 30
0.0
 11
0.0
 21
4.3
 31
0.0
  0
LINE
  5
23A
330
232
100
AcDbEntity
  8
0
  6
Continuous
 62
     0
370
     0
100
AcDbLine
 10
-2.5
 20
0.0
 30
0.0
 11
-4.3
 21
0.0
 31
0.0
  0
LINE
  5
23B
330
232
100
AcDbEntity
  8
0
  6
Continuous
 62
     0
370
     0
100
AcDbLine
 10
0.0
 20
-2.5
 30
0.0
 11
0.0
 21
-4.3
 31
0.0
  0
LINE
  5
23C
330
232
100
AcDbEntity
  8
0
  6
Continuous
 62
     0
370
     0
100
AcDbLine
 10
2.5
 20
0.0
 30
0.0
 11
4.3
 21
0.0
 31
0.0
  0
ENDBLK
  5
234
330
232
100
AcDbEntity
  8
0
100
AcDbBlockEnd
  0
BLOCK
  5
23F
330
23E
100
AcDbEntity
  8
0
100
AcDbBlockBegin
  2
SW_CENTERMARKSYMBOL_3
 70
     0
 10
0.0
 20
0.0
 30
0.0
  3
SW_CENTERMARKSYMBOL_3
  1

  0
LINE
  5
241
330
23E
100
AcDbEntity
  8
0
  6
Continuous
 62
     0
370
     0
100
AcDbLine
 10
0.0
 20
0.0
 30
0.0
 11
0.0
 21
2.5
 31
0.0
  0
LINE
  5
242
330
23E
100
AcDbEntity
  8
0
  6
Continuous
 62
     0
370
     0
100
AcDbLine
 10
0.0
 20
0.0
 30
0.0
 11
-2.5
 21
0.0
 31
0.0
  0
LINE
  5
243
330
23E
100
AcDbEntity
  8
0
  6
Continuous
 62
     0
370
     0
100
AcDbLine
 10
0.0
 20
0.0
 30
0.0
 11
0.0
 21
-2.5
 31
0.0
  0
LINE
  5
244
330
23E
100
AcDbEntity
  8
0
  6
Continuous
 62
     0
370
     0
100
AcDbLine
 10
0.0
 20
0.0
 30
0.0
 11
2.5
 21
0.0
 31
0.0
  0
LINE
  5
245
330
23E
100
AcDbEntity
  8
0
  6
Continuous
 62
     0
370
     0
100
AcDbLine
 10
0.0
 20
2.5
 30
0.0
 11
0.0
 21
4.75
 31
0.0
  0
LINE
  5
246
330
23E
100
AcDbEntity
  8
0
  6
Continuous
 62
     0
370
     0
100
AcDbLine
 10
-2.5
 20
0.0
 30
0.0
 11
-4.75
 21
0.0
 31
0.0
  0
LINE
  5
247
330
23E
100
AcDbEntity
  8
0
  6
Continuous
 62
     0
370
     0
100
AcDbLine
 10
0.0
 20
-2.5
 30
0.0
 11
0.0
 21
-4.75
 31
0.0
  0
LINE
  5
248
330
23E
100
AcDbEntity
  8
0
  6
Continuous
 62
     0
370
     0
100
AcDbLine
 10
2.5
 20
0.0
 30
0.0
 11
4.75
 21
0.0
 31
0.0
  0
ENDBLK
  5
240
330
23E
100
AcDbEntity
  8
0
100
AcDbBlockEnd
  0
BLOCK
  5
24B
330
24A
100
AcDbEntity
  8
0
100
AcDbBlockBegin
  2
SW_CENTERMARKSYMBOL_4
 70
     0
 10
0.0
 20
0.0
 30
0.0
  3
SW_CENTERMARKSYMBOL_4
  1

  0
LINE
  5
24D
330
24A
100
AcDbEntity
  8
0
  6
Continuous
 62
     0
370
     0
100
AcDbLine
 10
0.0
 20
0.0
 30
0.0
 11
0.0
 21
2.5
 31
0.0
  0
LINE
  5
24E
330
24A
100
AcDbEntity
  8
0
  6
Continuous
 62
     0
370
     0
100
AcDbLine
 10
0.0
 20
0.0
 30
0.0
 11
-2.5
 21
0.0
 31
0.0
  0
LINE
  5
24F
330
24A
100
AcDbEntity
  8
0
  6
Continuous
 62
     0
370
     0
100
AcDbLine
 10
0.0
 20
0.0
 30
0.0
 11
0.0
 21
-2.5
 31
0.0
  0
LINE
  5
250
330
24A
100
AcDbEntity
  8
0
  6
Continuous
 62
     0
370
     0
100
AcDbLine
 10
0.0
 20
0.0
 30
0.0
 11
2.5
 21
0.0
 31
0.0
  0
LINE
  5
251
330
24A
100
AcDbEntity
  8
0
  6
Continuous
 62
     0
370
     0
100
AcDbLine
 10
0.0
 20
2.5
 30
0.0
 11
0.0
 21
4.75
 31
0.0
  0
LINE
  5
252
330
24A
100
AcDbEntity
  8
0
  6
Continuous
 62
     0
370
     0
100
AcDbLine
 10
-2.5
 20
0.0
 30
0.0
 11
-4.75
 21
0.0
 31
0.0
  0
LINE
  5
253
330
24A
100
AcDbEntity
  8
0
  6
Continuous
 62
     0
370
     0
100
AcDbLine
 10
0.0
 20
-2.5
 30
0.0
 11
0.0
 21
-4.75
 31
0.0
  0
LINE
  5
254
330
24A
100
AcDbEntity
  8
0
  6
Continuous
 62
     0
370
     0
100
AcDbLine
 10
2.5
 20
0.0
 30
0.0
 11
4.75
 21
0.0
 31
0.0
  0
ENDBLK
  5
24C
330
24A
100
AcDbEntity
  8
0
100
AcDbBlockEnd
  0
BLOCK
  5
37D
330
37C
100
AcDbEntity
  8
0
100
AcDbBlockBegin
  2
_D_10
 70
     0
 10
0.0
 20
0.0
 30
0.0
  3
_D_10
  1

  0
ARC
  5
37F
330
37C
100
AcDbEntity
  8
0
  6
Continuous
 62
     7
370
     0
100
AcDbCircle
 10
90.4821700051
 20
57.621729715
 30
0.0
 40
4.554435549315966
100
AcDbArc
 50
153.4349488229
 51
206.5650511771
  0
ARC
  5
380
330
37C
100
AcDbEntity
  8
0
  6
Continuous
 62
     7
370
     0
100
AcDbCircle
 10
86.4085590102
 20
57.621729715
 30
0.0
 40
4.554435549315966
100
AcDbArc
 50
333.4349488229
 51
26.5650511771
  0
SOLID
  5
381
330
37C
100
AcDbEntity
  8
0
  6
Continuous
 62
     7
370
     0
100
AcDbTrace
 10
63.9930157073
 20
55.5849242175
 30
0.0
 11
66.9930157073
 21
54.8349242175
 31
0.0
 12
66.9930157073
 22
56.3349242175
 32
0.0
 13
66.9930157073
 23
56.3349242175
 33
0.0
  0
SOLID
  5
382
330
37C
100
AcDbEntity
  8
0
  6
Continuous
 62
     7
370
     0
100
AcDbTrace
 10
112.8977134244
 20
55.5849242175
 30
0.0
 11
109.8977134244
 21
56.3349242175
 31
0.0
 12
109.8977134244
 22
54.8349242175
 32
0.0
 13
109.8977134244
 23
54.8349242175
 33
0.0
  0
LINE
  5
383
330
37C
100
AcDbEntity
  8
0
  6
Continuous
 62
     7
370
     0
100
AcDbLine
 10
63.9930157073
 20
80.6990902711
 30
0.0
 11
63.9930157073
 21
54.5849242175
 31
0.0
  0
LINE
  5
384
330
37C
100
AcDbEntity
  8
0
  6
Continuous
 62
     7
370
     0
100
AcDbLine
 10
112.8977134244
 20
77.9990902711
 30
0.0
 11
112.8977134244
 21
54.5849242175
 31
0.0
  0
LINE
  5
385
330
37C
100
AcDbEntity
  8
0
  6
Continuous
 62
     7
370
     0
100
AcDbLine
 10
63.9930157073
 20
55.5849242175
 30
0.0
 11
112.8977134244
 21
55.5849242175
 31
0.0
  0
MTEXT
  5
386
330
37C
100
AcDbEntity
  8
0
  6
Continuous
 62
     7
370
     0
100
AcDbMText
 10
86.4085590102
 20
60.0966610739
 30
0.0
 40
3.5
 41
0.0
 71
     1
 72
     1
  1
49
  7
SLDTEXTSTYLE0
 73
     1
 44
1.0
  0
ENDBLK
  5
37E
330
37C
100
AcDbEntity
  8
0
100
AcDbBlockEnd
  0
BLOCK
  5
389
330
388
100
AcDbEntity
  8
0
100
AcDbBlockBegin
  2
_D_11
 70
     0
 10
0.0
 20
0.0
 30
0.0
  3
_D_11
  1

  0
ARC
  5
38B
330
388
100
AcDbEntity
  8
0
  6
Continuous
 62
     7
370
     0
100
AcDbCircle
 10
73.6962704501
 20
68.4850147868
 30
0.0
 40
4.554435549315966
100
AcDbArc
 50
153.4349488229
 51
206.5650511771
  0
ARC
  5
38C
330
388
100
AcDbEntity
  8
0
  6
Continuous
 62
     7
370
     0
100
AcDbCircle
 10
73.6962704501
 20
68.4850147868
 30
0.0
 40
4.554435549315966
100
AcDbArc
 50
333.4349488229
 51
26.5650511771
  0
SOLID
  5
38D
330
388
100
AcDbEntity
  8
0
  6
Continuous
 62
     7
370
     0
100
AcDbTrace
 10
63.9930157073
 20
66.4482092894
 30
0.0
 11
66.9930157073
 21
65.6982092894
 31
0.0
 12
66.9930157073
 22
67.1982092894
 32
0.0
 13
66.9930157073
 23
67.1982092894
 33
0.0
  0
SOLID
  5
38E
330
388
100
AcDbEntity
  8
0
  6
Continuous
 62
     7
370
     0
100
AcDbTrace
 10
83.3995253093
 20
66.4482092894
 30
0.0
 11
80.3995253093
 21
67.1982092894
 31
0.0
 12
80.3995253093
 22
65.6982092894
 32
0.0
 13
80.3995253093
 23
65.6982092894
 33
0.0
  0
LINE
  5
38F
330
388
100
AcDbEntity
  8
0
  6
Continuous
 62
     7
370
     0
100
AcDbLine
 10
63.9930157073
 20
80.6990902711
 30
0.0
 11
63.9930157073
 21
65.4482092894
 31
0.0
  0
LINE
  5
390
330
388
100
AcDbEntity
  8
0
  6
Continuous
 62
     7
370
     0
100
AcDbLine
 10
83.3995253093
 20
80.6990902711
 30
0.0
 11
83.3995253093
 21
65.4482092894
 31
0.0
  0
LINE
  5
391
330
388
100
AcDbEntity
  8
0
  6
Continuous
 62
     7
370
     0
100
AcDbLine
 10
63.9930157073
 20
66.4482092894
 30
0.0
 11
83.3995253093
 21
66.4482092894
 31
0.0
  0
MTEXT
  5
392
330
388
100
AcDbEntity
  8
0
  6
Continuous
 62
     7
370
     0
100
AcDbMText
 10
69.6226594551
 20
70.9599461457
 30
0.0
 40
3.5
 41
0.0
 71
     1
 72
     1
  1
19.5
  7
SLDTEXTSTYLE0
 73
     1
 44
1.0
  0
ENDBLK
  5
38A
330
388
100
AcDbEntity
  8
0
100
AcDbBlockEnd
  0
BLOCK
  5
394
330
393
100
AcDbEntity
  8
0
100
AcDbBlockBegin
  2
SW_CENTERMARKSYMBOL_5
 70
     0
 10
0.0
 20
0.0
 30
0.0
  3
SW_CENTERMARKSYMBOL_5
  1

  0
LINE
  5
396
330
393
100
AcDbEntity
  8
0
  6
Continuous
 62
     0
370
     0
100
AcDbLine
 10
0.0
 20
0.0
 30
0.0
 11
0.0
 21
2.5
 31
0.0
  0
LINE
  5
397
330
393
100
AcDbEntity
  8
0
  6
Continuous
 62
     0
370
     0
100
AcDbLine
 10
0.0
 20
0.0
 30
0.0
 11
-2.5
 21
0.0
 31
0.0
  0
LINE
  5
398
330
393
100
AcDbEntity
  8
0
  6
Continuous
 62
     0
370
     0
100
AcDbLine
 10
0.0
 20
0.0
 30
0.0
 11
0.0
 21
-2.5
 31
0.0
  0
LINE
  5
399
330
393
100
AcDbEntity
  8
0
  6
Continuous
 62
     0
370
     0
100
AcDbLine
 10
0.0
 20
0.0
 30
0.0
 11
2.5
 21
0.0
 31
0.0
  0
LINE
  5
39A
330
393
100
AcDbEntity
  8
0
  6
Continuous
 62
     0
370
     0
100
AcDbLine
 10
0.0
 20
5.0
 30
0.0
 11
0.0
 21
8.0
 31
0.0
  0
LINE
  5
39B
330
393
100
AcDbEntity
  8
0
  6
Continuous
 62
     0
370
     0
100
AcDbLine
 10
-5.0
 20
0.0
 30
0.0
 11
-8.0
 21
0.0
 31
0.0
  0
LINE
  5
39C
330
393
100
AcDbEntity
  8
0
  6
Continuous
 62
     0
370
     0
100
AcDbLine
 10
0.0
 20
-5.0
 30
0.0
 11
0.0
 21
-8.0
 31
0.0
  0
LINE
  5
39D
330
393
100
AcDbEntity
  8
0
  6
Continuous
 62
     0
370
     0
100
AcDbLine
 10
5.0
 20
0.0
 30
0.0
 11
8.0
 21
0.0
 31
0.0
  0
ENDBLK
  5
395
330
393
100
AcDbEntity
  8
0
100
AcDbBlockEnd
  0
BLOCK
  5
533
330
532
100
AcDbEntity
  8
0
100
AcDbBlockBegin
  2
_D_12
 70
     0
 10
0.0
 20
0.0
 30
0.0
  3
_D_12
  1

  0
SOLID
  5
535
330
532
100
AcDbEntity
  8
0
  6
Continuous
 62
     7
370
     0
100
AcDbTrace
 10
168.3174247713
 20
249.7752210022
 30
0.0
 11
171.3174247713
 21
249.0252210022
 31
0.0
 12
171.3174247713
 22
250.5252210022
 32
0.0
 13
171.3174247713
 23
250.5252210022
 33
0.0
  0
SOLID
  5
536
330
532
100
AcDbEntity
  8
0
  6
Continuous
 62
     7
370
     0
100
AcDbTrace
 10
162.3174247713
 20
249.7752210022
 30
0.0
 11
159.3174247713
 21
250.5252210022
 31
0.0
 12
159.3174247713
 22
249.0252210022
 32
0.0
 13
159.3174247713
 23
249.0252210022
 33
0.0
  0
LINE
  5
537
330
532
100
AcDbEntity
  8
0
  6
Continuous
 62
     7
370
     0
100
AcDbLine
 10
168.3174247713
 20
237.8388276989
 30
0.0
 11
168.3174247713
 21
250.7752210022
 31
0.0
  0
LINE
  5
538
330
532
100
AcDbEntity
  8
0
  6
Continuous
 62
     7
370
     0
100
AcDbLine
 10
162.3174247713
 20
237.8388276989
 30
0.0
 11
162.3174247713
 21
250.7752210022
 31
0.0
  0
LINE
  5
539
330
532
100
AcDbEntity
  8
0
  6
Continuous
 62
     7
370
     0
100
AcDbLine
 10
168.3174247713
 20
249.7752210022
 30
0.0
 11
173.3174247713
 21
249.7752210022
 31
0.0
  0
LINE
  5
53A
330
532
100
AcDbEntity
  8
0
  6
Continuous
 62
     7
370
     0
100
AcDbLine
 10
168.3174247713
 20
249.7752210022
 30
0.0
 11
162.3174247713
 21
249.7752210022
 31
0.0
  0
LINE
  5
53B
330
532
100
AcDbEntity
  8
0
  6
Continuous
 62
     7
370
     0
100
AcDbLine
 10
162.3174247713
 20
249.7752210022
 30
0.0
 11
157.3174247713
 21
249.7752210022
 31
0.0
  0
MTEXT
  5
53C
330
532
100
AcDbEntity
  8
0
  6
Continuous
 62
     7
370
     0
100
AcDbMText
 10
164.2990220226
 20
254.2869578586
 30
0.0
 40
3.5
 41
0.0
 71
     1
 72
     1
  1
6
  7
SLDTEXTSTYLE0
 73
     1
 44
1.0
  0
ENDBLK
  5
534
330
532
100
AcDbEntity
  8
0
100
AcDbBlockEnd
  0
BLOCK
  5
53F
330
53E
100
AcDbEntity
  8
0
100
AcDbBlockBegin
  2
_D_13
 70
     0
 10
0.0
 20
0.0
 30
0.0
  3
_D_13
  1

  0
SOLID
  5
541
330
53E
100
AcDbEntity
  8
0
  6
Continuous
 62
     7
370
     0
100
AcDbTrace
 10
158.8174247713
 20
116.6116446694
 30
0.0
 11
155.8174247713
 21
117.3616446694
 31
0.0
 12
155.8174247713
 22
115.8616446694
 32
0.0
 13
155.8174247713
 23
115.8616446694
 33
0.0
  0
SOLID
  5
542
330
53E
100
AcDbEntity
  8
0
  6
Continuous
 62
     7
370
     0
100
AcDbTrace
 10
171.8174247713
 20
116.6116446694
 30
0.0
 11
174.8174247713
 21
115.8616446694
 31
0.0
 12
174.8174247713
 22
117.3616446694
 32
0.0
 13
174.8174247713
 23
117.3616446694
 33
0.0
  0
LINE
  5
543
330
53E
100
AcDbEntity
  8
0
  6
Continuous
 62
     7
370
     0
100
AcDbLine
 10
158.8174247713
 20
163.6116446694
 30
0.0
 11
158.8174247713
 21
115.6116446694
 31
0.0
  0
LINE
  5
544
330
53E
100
AcDbEntity
  8
0
  6
Continuous
 62
     7
370
     0
100
AcDbLine
 10
171.8174247713
 20
163.6116446694
 30
0.0
 11
171.8174247713
 21
115.6116446694
 31
0.0
  0
LINE
  5
545
330
53E
100
AcDbEntity
  8
0
  6
Continuous
 62
     7
370
     0
100
AcDbLine
 10
158.8174247713
 20
116.6116446694
 30
0.0
 11
153.8174247713
 21
116.6116446694
 31
0.0
  0
LINE
  5
546
330
53E
100
AcDbEntity
  8
0
  6
Continuous
 62
     7
370
     0
100
AcDbLine
 10
158.8174247713
 20
116.6116446694
 30
0.0
 11
171.8174247713
 21
116.6116446694
 31
0.0
  0
LINE
  5
547
330
53E
100
AcDbEntity
  8
0
  6
Continuous
 62
     7
370
     0
100
AcDbLine
 10
171.8174247713
 20
116.6116446694
 30
0.0
 11
176.8174247713
 21
116.6116446694
 31
0.0
  0
MTEXT
  5
548
330
53E
100
AcDbEntity
  8
0
  6
Continuous
 62
     7
370
     0
100
AcDbMText
 10
163.2806192738
 20
121.1233815258
 30
0.0
 40
3.5
 41
0.0
 71
     1
 72
     1
  1
13
  7
SLDTEXTSTYLE0
 73
     1
 44
1.0
  0
ENDBLK
  5
540
330
53E
100
AcDbEntity
  8
0
100
AcDbBlockEnd
  0
ENDSEC
  0
SECTION
  2
ENTITIES
  0
LINE
  5
73
330
1F
100
AcDbEntity
  8
0
  6
Continuous
 62
     7
370
     0
100
AcDbLine
 10
20.2604743903
 20
285.0
 30
0.0
 11
196.7604743903
 21
285.0
 31
0.0
  0
LINE
  5
74
330
1F
100
AcDbEntity
  8
0
  6
Continuous
 62
     7
370
     0
100
AcDbLine
 10
20.2604743903
 20
285.0
 30
0.0
 11
20.2604743903
 21
10.0
 31
0.0
  0
LINE
  5
75
330
1F
100
AcDbEntity
  8
0
  6
Continuous
 62
     7
370
     0
100
AcDbLine
 10
20.2604743903
 20
10.0
 30
0.0
 11
196.7604743903
 21
10.0
 31
0.0
  0
LINE
  5
76
330
1F
100
AcDbEntity
  8
0
  6
Continuous
 62
     7
370
     0
100
AcDbLine
 10
196.7604743903
 20
285.0
 30
0.0
 11
196.7604743903
 21
10.0
 31
0.0
  0
LINE
  5
77
330
1F
100
AcDbEntity
  8
0
  6
Continuous
 62
     7
370
     0
100
AcDbLine
 10
127.0104743903
 20
50.75
 30
0.0
 11
196.7604743903
 21
50.75
 31
0.0
  0
LINE
  5
78
330
1F
100
AcDbEntity
  8
0
  6
Continuous
 62
     7
370
     0
100
AcDbLine
 10
127.0104743903
 20
50.75
 30
0.0
 11
127.0104743903
 21
10.0
 31
0.0
  0
LINE
  5
79
330
1F
100
AcDbEntity
  8
0
  6
Continuous
 62
     7
370
     0
100
AcDbLine
 10
127.0104743903
 20
22.75
 30
0.0
 11
196.7604743903
 21
22.75
 31
0.0
  0
LINE
  5
7A
330
1F
100
AcDbEntity
  8
0
  6
Continuous
 62
     7
370
     0
100
AcDbLine
 10
127.0104743903
 20
36.75
 30
0.0
 11
196.7604743903
 21
36.75
 31
0.0
  0
MTEXT
  5
7C
330
1F
100
AcDbEntity
  8
0
  6
Continuous
 62
     7
370
     0
100
AcDbMText
 10
161.1333680142
 20
30.4171582345
 30
0.0
 40
4.2333333333
 41
0.0
 71
     2
 72
     1
  1
CHK-EMBF-12-C1
  7
SLDTEXTSTYLE0
 73
     1
 44
1.0
  0
MTEXT
  5
7D
330
1F
100
AcDbEntity
  8
0
  6
Continuous
 62
     7
370
     0
100
AcDbMText
 10
158.320177536
 20
45.8768784841
 30
0.0
 40
2.9104166667
 41
0.0
 71
     2
 72
     1
  1
ランナーチャックEM (リミットSW・爪着脱式)
  7
SLDTEXTSTYLE0
 73
     1
 44
1.0
  0
MTEXT
  5
7E
330
1F
100
AcDbEntity
  8
0
  6
Continuous
 62
     7
370
     0
100
AcDbMText
 10
162.5099401721
 20
16.8228189052
 30
0.0
 40
4.2333333333
 41
0.0
 71
     2
 72
     1
  1
023288
  7
SLDTEXTSTYLE0
 73
     1
 44
1.0
  0
LINE
  5
7F
330
1F
100
AcDbEntity
  8
0
  6
Continuous
 62
     7
370
     0
100
AcDbLine
 10
77.3995253168
 20
164.611644589
 30
0.0
 11
77.3995253168
 21
149.1116448423
 31
0.0
  0
LINE
  5
80
330
1F
100
AcDbEntity
  8
0
  6
Continuous
 62
     7
370
     0
100
AcDbLine
 10
89.3995254211
 20
149.1116448423
 30
0.0
 11
89.3995254211
 21
164.611644589
 31
0.0
  0
LINE
  5
81
330
1F
100
AcDbEntity
  8
0
  6
Continuous
 62
     7
370
     0
100
AcDbLine
 10
77.3995253168
 20
149.1116448423
 30
0.0
 11
77.8995253988
 21
148.611643829
 31
0.0
  0
LINE
  5
82
330
1F
100
AcDbEntity
  8
0
  6
Continuous
 62
     7
370
     0
100
AcDbLine
 10
88.8995253391
 20
148.611643829
 30
0.0
 11
89.3995254211
 21
149.1116448423
 31
0.0
  0
LINE
  5
83
330
1F
100
AcDbEntity
  8
0
  6
Continuous
 62
     7
370
     0
100
AcDbLine
 10
66.0285046235
 20
200.9680732271
 30
0.0
 11
67.7966521963
 21
200.6309419056
 31
0.0
  0
LINE
  5
84
330
1F
100
AcDbEntity
  8
0
  6
Continuous
 62
     7
370
     0
100
AcDbLine
 10
68.826773195
 20
206.0336130788
 30
0.0
 11
67.0586256221
 21
206.3707425376
 31
0.0
  0
ARC
  5
85
330
1F
100
AcDbEntity
  8
0
  6
Continuous
 62
     7
370
     0
100
AcDbCircle
 10
66.0659636301
 20
201.1645330523
 30
0.0
 40
0.1999999999999947
100
AcDbArc
 50
169.2050467121
 51
259.2050467121
  0
ARC
  5
86
330
1F
100
AcDbEntity
  8
0
  6
Continuous
 62
     7
370
     0
100
AcDbCircle
 10
67.0211670708
 20
206.1742821864
 30
0.0
 40
0.2000000000000226
100
AcDbArc
 50
79.2050467121
 51
169.205046712
  0
LINE
  5
87
330
1F
100
AcDbEntity
  8
0
  6
Continuous
 62
     7
370
     0
100
AcDbLine
 10
64.1555571839
 20
191.1450349843
 30
0.0
 11
65.9237028941
 21
190.8079045942
 31
0.0
  0
LINE
  5
88
330
1F
100
AcDbEntity
  8
0
  6
Continuous
 62
     7
370
     0
100
AcDbLine
 10
66.9538257554
 20
196.2105748361
 30
0.0
 11
65.1856781825
 21
196.5477052262
 31
0.0
  0
ARC
  5
89
330
1F
100
AcDbEntity
  8
0
  6
Continuous
 62
     7
370
     0
100
AcDbCircle
 10
64.1930157073
 20
191.3414955344
 30
0.0
 40
0.199999999999999
100
AcDbArc
 50
169.2050467121
 51
259.205046712
  0
ARC
  5
8A
330
1F
100
AcDbEntity
  8
0
  6
Continuous
 62
     7
370
     0
100
AcDbCircle
 10
65.1482191479
 20
196.3512446685
 30
0.0
 40
0.2000000000000113
100
AcDbArc
 50
79.2050467121
 51
169.205046712
  0
ARC
  5
8B
330
1F
100
AcDbEntity
  8
0
  6
Continuous
 62
     7
370
     0
100
AcDbCircle
 10
99.7778835477
 20
206.1742821864
 30
0.0
 40
0.2000000000000167
100
AcDbArc
 50
10.794953288
 51
100.794953288
  0
ARC
  5
8C
330
1F
100
AcDbEntity
  8
0
  6
Continuous
 62
     7
370
     0
100
AcDbCircle
 10
100.7330869884
 20
201.1645330523
 30
0.0
 40
0.2000000000000113
100
AcDbArc
 50
280.794953288
 51
10.794953288
  0
LINE
  5
8D
330
1F
100
AcDbEntity
  8
0
  6
Continuous
 62
     7
370
     0
100
AcDbLine
 10
99.7404241845
 20
206.3707425376
 30
0.0
 11
97.9722775429
 21
206.0336130788
 31
0.0
  0
LINE
  5
8E
330
1F
100
AcDbEntity
  8
0
  6
Continuous
 62
     7
370
     0
100
AcDbLine
 10
99.0023994729
 20
200.6309419056
 30
0.0
 11
100.7705451831
 21
200.9680732271
 31
0.0
  0
LINE
  5
8F
330
1F
100
AcDbEntity
  8
0
  6
Continuous
 62
     7
370
     0
100
AcDbLine
 10
101.613371624
 20
196.5477052262
 30
0.0
 11
99.8452259138
 21
196.2105748361
 31
0.0
  0
LINE
  5
90
330
1F
100
AcDbEntity
  8
0
  6
Continuous
 62
     7
370
     0
100
AcDbLine
 10
100.8753469124
 20
190.8079045942
 30
0.0
 11
102.6434944853
 21
191.1450349843
 31
0.0
  0
ARC
  5
91
330
1F
100
AcDbEntity
  8
0
  6
Continuous
 62
     7
370
     0
100
AcDbCircle
 10
101.6508314706
 20
196.3512446685
 30
0.0
 40
0.200000000000006
100
AcDbArc
 50
10.7949532879
 51
100.7949532879
  0
ARC
  5
92
330
1F
100
AcDbEntity
  8
0
  6
Continuous
 62
     7
370
     0
100
AcDbCircle
 10
102.6060349113
 20
191.3414955344
 30
0.0
 40
0.1999999999999974
100
AcDbArc
 50
280.794953288
 51
10.794953288
  0
LINE
  5
93
330
1F
100
AcDbEntity
  8
0
  6
Continuous
 62
     7
370
     0
100
AcDbLine
 10
87.3995253261
 20
145.6116451999
 30
0.0
 11
87.6995252822
 21
145.9116428276
 31
0.0
  0
LINE
  5
94
330
1F
100
AcDbEntity
  8
0
  6
Continuous
 62
     7
370
     0
100
AcDbLine
 10
79.0995252229
 20
145.9116428276
 30
0.0
 11
79.399525179
 21
145.6116451999
 31
0.0
  0
LINE
  5
95
330
1F
100
AcDbEntity
  8
0
  6
Continuous
 62
     7
370
     0
100
AcDbLine
 10
81.5995253999
 20
140.611646243
 30
0.0
 11
81.8995253559
 21
138.6116459152
 31
0.0
  0
LINE
  5
96
330
1F
100
AcDbEntity
  8
0
  6
Continuous
 62
     7
370
     0
100
AcDbLine
 10
84.8995253238
 20
138.6116459152
 30
0.0
 11
85.199525338
 21
140.611646243
 31
0.0
  0
LINE
  5
97
330
1F
100
AcDbEntity
  8
0
  6
Continuous
 62
     7
370
     0
100
AcDbLine
 10
85.199525338
 20
140.611646243
 30
0.0
 11
85.199525338
 21
141.111643531
 31
0.0
  0
LINE
  5
98
330
1F
100
AcDbEntity
  8
0
  6
Continuous
 62
     7
370
     0
100
AcDbLine
 10
81.5995253999
 20
141.111643531
 30
0.0
 11
81.5995253999
 21
140.611646243
 31
0.0
  0
LINE
  5
99
330
1F
100
AcDbEntity
  8
0
  6
Continuous
 62
     7
370
     0
100
AcDbLine
 10
85.199525338
 20
143.1116438588
 30
0.0
 11
85.199525338
 21
143.6116448721
 31
0.0
  0
LINE
  5
9A
330
1F
100
AcDbEntity
  8
0
  6
Continuous
 62
     7
370
     0
100
AcDbLine
 10
81.5995253999
 20
143.6116448721
 30
0.0
 11
81.5995253999
 21
143.1116438588
 31
0.0
  0
LINE
  5
9B
330
1F
100
AcDbEntity
  8
0
  6
Continuous
 62
     7
370
     0
100
AcDbLine
 10
81.5995253999
 20
143.1116438588
 30
0.0
 11
81.799525293
 21
141.111643531
 31
0.0
  0
LINE
  5
9C
330
1F
100
AcDbEntity
  8
0
  6
Continuous
 62
     7
370
     0
100
AcDbLine
 10
84.9995253285
 20
141.111643531
 30
0.0
 11
85.199525338
 21
143.1116438588
 31
0.0
  0
LINE
  5
9D
330
1F
100
AcDbEntity
  8
0
  6
Continuous
 62
     7
370
     0
100
AcDbLine
 10
84.9995253285
 20
143.6116448721
 30
0.0
 11
84.9995253285
 21
145.6116451999
 31
0.0
  0
LINE
  5
9E
330
1F
100
AcDbEntity
  8
0
  6
Continuous
 62
     7
370
     0
100
AcDbLine
 10
81.799525293
 20
145.6116451999
 30
0.0
 11
81.799525293
 21
143.6116448721
 31
0.0
  0
LINE
  5
9F
330
1F
100
AcDbEntity
  8
0
  6
Continuous
 62
     7
370
     0
100
AcDbLine
 10
87.6995252822
 20
145.9116428276
 30
0.0
 11
87.6995252822
 21
148.611643829
 31
0.0
  0
LINE
  5
A0
330
1F
100
AcDbEntity
  8
0
  6
Continuous
 62
     7
370
     0
100
AcDbLine
 10
79.0995252229
 20
148.611643829
 30
0.0
 11
79.0995252229
 21
145.9116428276
 31
0.0
  0
LWPOLYLINE
  5
A1
330
1F
100
AcDbEntity
  8
0
  6
Continuous
 62
     7
370
     0
100
AcDbPolyline
 90
        3
 70
   128
 43
0.0
 10
97.6084405467
 20
232.8355214676
 10
97.6059920996
 20
232.7963910183
 10
97.6067110807
 20
232.7851480922
  0
ARC
  5
A2
330
1F
100
AcDbEntity
  8
0
  6
Continuous
 62
     7
370
     0
100
AcDbCircle
 10
98.3017662603
 20
235.8636053292
 30
0.0
 40
0.2000000000000287
100
AcDbArc
 50
80.794953288
 51
170.7949532879
  0
LINE
  5
A3
330
1F
100
AcDbEntity
  8
0
  6
Continuous
 62
     7
370
     0
100
AcDbLine
 10
98.5311847091
 20
236.0290377518
 30
0.0
 11
98.3337601557
 21
236.0610305449
 31
0.0
  0
LINE
  5
A4
330
1F
100
AcDbEntity
  8
0
  6
Continuous
 62
     7
370
     0
100
AcDbLine
 10
98.0883445501
 20
235.796885111
 30
0.0
 11
97.7922081858
 21
235.8448780259
 31
0.0
  0
LINE
  5
A5
330
1F
100
AcDbEntity
  8
0
  6
Continuous
 62
     7
370
     0
100
AcDbLine
 10
97.3283005789
 20
232.9822233995
 30
0.0
 11
97.6244378745
 21
232.9342342099
 31
0.0
  0
LINE
  5
A6
330
1F
100
AcDbEntity
  8
0
  6
Continuous
 62
     7
370
     0
100
AcDbLine
 10
107.6304661021
 20
217.7885449609
 30
0.0
 11
107.4385037556
 21
216.6039957782
 31
0.0
  0
LINE
  5
A7
330
1F
100
AcDbEntity
  8
0
  6
Continuous
 62
     7
370
     0
100
AcDbLine
 10
108.8204746976
 20
216.3800425013
 30
0.0
 11
109.0124370441
 21
217.5645879587
 31
0.0
  0
LINE
  5
A8
330
1F
100
AcDbEntity
  8
0
  6
Continuous
 62
     7
370
     0
100
AcDbLine
 10
105.6562205687
 20
218.1084803423
 30
0.0
 11
105.4642600849
 21
216.9239311596
 31
0.0
  0
LINE
  5
A9
330
1F
100
AcDbEntity
  8
0
  6
Continuous
 62
     7
370
     0
100
AcDbLine
 10
106.8462310269
 20
216.6999778828
 30
0.0
 11
107.0381915107
 21
217.8845233401
 31
0.0
  0
LINE
  5
AA
330
1F
100
AcDbEntity
  8
0
  6
Continuous
 62
     7
370
     0
100
AcDbLine
 10
107.7839964911
 20
216.5480083903
 30
0.0
 11
106.984156175
 21
211.6123973509
 31
0.0
  0
LINE
  5
AB
330
1F
100
AcDbEntity
  8
0
  6
Continuous
 62
     7
370
     0
100
AcDbLine
 10
107.675141646
 20
211.5004188498
 30
0.0
 11
108.4749819621
 21
216.4360298892
 31
0.0
  0
LINE
  5
AC
330
1F
100
AcDbEntity
  8
0
  6
Continuous
 62
     7
370
     0
100
AcDbLine
 10
105.8097528204
 20
216.8679437717
 30
0.0
 11
105.0099106416
 21
211.9323327323
 31
0.0
  0
LINE
  5
AD
330
1F
100
AcDbEntity
  8
0
  6
Continuous
 62
     7
370
     0
100
AcDbLine
 10
105.7008979753
 20
211.8203560939
 30
0.0
 11
106.5007382914
 21
216.7559652706
 31
0.0
  0
LINE
  5
AE
330
1F
100
AcDbEntity
  8
0
  6
Continuous
 62
     7
370
     0
100
AcDbLine
 10
71.3995257303
 20
164.611644589
 30
0.0
 11
95.3995250076
 21
164.611644589
 31
0.0
  0
LINE
  5
AF
330
1F
100
AcDbEntity
  8
0
  6
Continuous
 62
     7
370
     0
100
AcDbLine
 10
71.3995257303
 20
205.6116438588
 30
0.0
 11
71.3995257303
 21
164.611644589
 31
0.0
  0
LINE
  5
B0
330
1F
100
AcDbEntity
  8
0
  6
Continuous
 62
     7
370
     0
100
AcDbLine
 10
95.3995250076
 20
205.6116438588
 30
0.0
 11
71.3995257303
 21
205.6116438588
 31
0.0
  0
LINE
  5
B1
330
1F
100
AcDbEntity
  8
0
  6
Continuous
 62
     7
370
     0
100
AcDbLine
 10
95.3995250076
 20
164.611644589
 30
0.0
 11
95.3995250076
 21
205.6116438588
 31
0.0
  0
CIRCLE
  5
B2
330
1F
100
AcDbEntity
  8
0
  6
Continuous
 62
     7
370
     0
100
AcDbCircle
 10
73.3995253093
 20
198.1116446694
 30
0.0
 40
1.800000000000011
  0
CIRCLE
  5
B3
330
1F
100
AcDbEntity
  8
0
  6
Continuous
 62
     7
370
     0
100
AcDbCircle
 10
93.3995253093
 20
198.1116446694
 30
0.0
 40
1.80000000000004
  0
CIRCLE
  5
B4
330
1F
100
AcDbEntity
  8
0
  6
Continuous
 62
     7
370
     0
100
AcDbCircle
 10
83.3995253093
 20
194.6116446694
 30
0.0
 40
2.249999999999972
  0
CIRCLE
  5
B5
330
1F
100
AcDbEntity
  8
0
  6
Continuous
 62
     7
370
     0
100
AcDbCircle
 10
91.3995253093
 20
168.6116446694
 30
0.0
 40
2.249999999999972
  0
CIRCLE
  5
B6
330
1F
100
AcDbEntity
  8
0
  6
Continuous
 62
     7
370
     0
100
AcDbCircle
 10
75.3995253093
 20
168.6116446694
 30
0.0
 40
2.249999999999972
  0
LINE
  5
B7
330
1F
100
AcDbEntity
  8
0
  6
Continuous
 62
     7
370
     0
100
AcDbLine
 10
71.3995257303
 20
164.611644589
 30
0.0
 11
70.3995255664
 21
164.611644589
 31
0.0
  0
LINE
  5
B8
330
1F
100
AcDbEntity
  8
0
  6
Continuous
 62
     7
370
     0
100
AcDbLine
 10
70.3995255664
 20
164.611644589
 30
0.0
 11
70.3995255664
 21
204.6116455575
 31
0.0
  0
LINE
  5
B9
330
1F
100
AcDbEntity
  8
0
  6
Continuous
 62
     7
370
     0
100
AcDbLine
 10
70.3995255664
 20
204.6116455575
 30
0.0
 11
71.3995257303
 21
205.6116438588
 31
0.0
  0
LINE
  5
BA
330
1F
100
AcDbEntity
  8
0
  6
Continuous
 62
     7
370
     0
100
AcDbLine
 10
95.3995250076
 20
205.6116438588
 30
0.0
 11
96.3995251715
 21
204.6116455575
 31
0.0
  0
LINE
  5
BB
330
1F
100
AcDbEntity
  8
0
  6
Continuous
 62
     7
370
     0
100
AcDbLine
 10
96.3995251715
 20
204.6116455575
 30
0.0
 11
96.3995251715
 21
164.611644589
 31
0.0
  0
LINE
  5
BC
330
1F
100
AcDbEntity
  8
0
  6
Continuous
 62
     7
370
     0
100
AcDbLine
 10
96.3995251715
 20
164.611644589
 30
0.0
 11
95.3995250076
 21
164.611644589
 31
0.0
  0
LINE
  5
BD
330
1F
100
AcDbEntity
  8
0
  6
Continuous
 62
     7
370
     0
100
AcDbLine
 10
71.3995257303
 20
205.6116438588
 30
0.0
 11
73.3995251268
 21
207.6116441866
 31
0.0
  0
LINE
  5
BE
330
1F
100
AcDbEntity
  8
0
  6
Continuous
 62
     7
370
     0
100
AcDbLine
 10
73.3995251268
 20
207.6116441866
 30
0.0
 11
80.3995253429
 21
207.6116441866
 31
0.0
  0
LINE
  5
BF
330
1F
100
AcDbEntity
  8
0
  6
Continuous
 62
     7
370
     0
100
AcDbLine
 10
80.3995253429
 20
208.8116440108
 30
0.0
 11
80.3995253429
 21
207.6116441866
 31
0.0
  0
LINE
  5
C0
330
1F
100
AcDbEntity
  8
0
  6
Continuous
 62
     7
370
     0
100
AcDbLine
 10
86.399525395
 20
208.8116440108
 30
0.0
 11
80.3995253429
 21
208.8116440108
 31
0.0
  0
LINE
  5
C1
330
1F
100
AcDbEntity
  8
0
  6
Continuous
 62
     7
370
     0
100
AcDbLine
 10
86.399525395
 20
207.6116441866
 30
0.0
 11
86.399525395
 21
208.8116440108
 31
0.0
  0
LINE
  5
C2
330
1F
100
AcDbEntity
  8
0
  6
Continuous
 62
     7
370
     0
100
AcDbLine
 10
86.399525395
 20
207.6116441866
 30
0.0
 11
93.3995256111
 21
207.6116441866
 31
0.0
  0
LINE
  5
C3
330
1F
100
AcDbEntity
  8
0
  6
Continuous
 62
     7
370
     0
100
AcDbLine
 10
93.3995256111
 20
207.6116441866
 30
0.0
 11
95.3995250076
 21
205.6116438588
 31
0.0
  0
CIRCLE
  5
C4
330
1F
100
AcDbEntity
  8
0
  6
Continuous
 62
     7
370
     0
100
AcDbCircle
 10
83.3995253093
 20
194.6116446694
 30
0.0
 40
1.650000000000006
  0
CIRCLE
  5
C5
330
1F
100
AcDbEntity
  8
0
  6
Continuous
 62
     7
370
     0
100
AcDbCircle
 10
73.3995253093
 20
198.1116446694
 30
0.0
 40
1.5
  0
CIRCLE
  5
C6
330
1F
100
AcDbEntity
  8
0
  6
Continuous
 62
     7
370
     0
100
AcDbCircle
 10
91.3995253093
 20
168.6116446694
 30
0.0
 40
1.650000000000006
  0
CIRCLE
  5
C7
330
1F
100
AcDbEntity
  8
0
  6
Continuous
 62
     7
370
     0
100
AcDbCircle
 10
93.3995253093
 20
198.1116446694
 30
0.0
 40
1.5
  0
CIRCLE
  5
C8
330
1F
100
AcDbEntity
  8
0
  6
Continuous
 62
     7
370
     0
100
AcDbCircle
 10
75.3995253093
 20
168.6116446694
 30
0.0
 40
1.649999999999977
  0
LINE
  5
C9
330
1F
100
AcDbEntity
  8
0
  6
Continuous
 62
     7
370
     0
100
AcDbLine
 10
77.3995253168
 20
149.1116448423
 30
0.0
 11
89.3995254211
 21
149.1116448423
 31
0.0
  0
LINE
  5
CA
330
1F
100
AcDbEntity
  8
0
  6
Continuous
 62
     7
370
     0
100
AcDbLine
 10
88.8995253391
 20
148.611643829
 30
0.0
 11
77.8995253988
 21
148.611643829
 31
0.0
  0
CIRCLE
  5
CB
330
1F
100
AcDbEntity
  8
0
  6
Continuous
 62
     7
370
     0
100
AcDbCircle
 10
92.472478336
 20
236.1497911005
 30
0.0
 40
0.9999999999999776
  0
LINE
  5
CC
330
1F
100
AcDbEntity
  8
0
  6
Continuous
 62
     7
370
     0
100
AcDbLine
 10
98.1521364212
 20
238.0659035524
 30
0.0
 11
97.7385593489
 21
238.6394455215
 31
0.0
  0
LINE
  5
CD
330
1F
100
AcDbEntity
  8
0
  6
Continuous
 62
     7
370
     0
100
AcDbLine
 10
97.7385593489
 20
238.6394455215
 30
0.0
 11
90.7299923621
 21
239.7752194783
 31
0.0
  0
LINE
  5
CE
330
1F
100
AcDbEntity
  8
0
  6
Continuous
 62
     7
370
     0
100
AcDbLine
 10
90.7299923621
 20
239.7752194783
 30
0.0
 11
89.8021771483
 21
234.0499139508
 31
0.0
  0
LINE
  5
CF
330
1F
100
AcDbEntity
  8
0
  6
Continuous
 62
     7
370
     0
100
AcDbLine
 10
89.8021771483
 20
234.0499139508
 30
0.0
 11
97.3043059841
 21
232.834154286
 31
0.0
  0
LINE
  5
D0
330
1F
100
AcDbEntity
  8
0
  6
Continuous
 62
     7
370
     0
100
AcDbLine
 10
97.3043059841
 20
232.834154286
 30
0.0
 11
98.1521364212
 21
238.0659035524
 31
0.0
  0
LINE
  5
D1
330
1F
100
AcDbEntity
  8
0
  6
Continuous
 62
     7
370
     0
100
AcDbLine
 10
93.4159066439
 20
220.0920856675
 30
0.0
 11
93.0959703311
 21
218.1178382715
 31
0.0
  0
LINE
  5
D2
330
1F
100
AcDbEntity
  8
0
  6
Continuous
 62
     7
370
     0
100
AcDbLine
 10
97.3643949166
 20
219.4522111794
 30
0.0
 11
93.4159066439
 21
220.0920856675
 31
0.0
  0
LINE
  5
D3
330
1F
100
AcDbEntity
  8
0
  6
Continuous
 62
     7
370
     0
100
AcDbLine
 10
96.8844909131
 20
216.4908438107
 30
0.0
 11
97.3643949166
 21
219.4522111794
 31
0.0
  0
LINE
  5
D4
330
1F
100
AcDbEntity
  8
0
  6
Continuous
 62
     7
370
     0
100
AcDbLine
 10
95.8973681465
 20
216.6508152267
 30
0.0
 11
96.8844909131
 21
216.4908438107
 31
0.0
  0
LINE
  5
D5
330
1F
100
AcDbEntity
  8
0
  6
Continuous
 62
     7
370
     0
100
AcDbLine
 10
93.0959703311
 20
218.1178382715
 30
0.0
 11
95.8973681465
 21
216.6508152267
 31
0.0
  0
ARC
  5
D6
330
1F
100
AcDbEntity
  8
0
  6
Continuous
 62
     7
370
     0
100
AcDbCircle
 10
90.4291823544
 20
207.9130253237
 30
0.0
 40
1.500000000000022
100
AcDbArc
 50
350.794953288
 51
80.794953288
  0
LINE
  5
D7
330
1F
100
AcDbEntity
  8
0
  6
Continuous
 62
     7
370
     0
100
AcDbLine
 10
90.6691346228
 20
209.3937094441
 30
0.0
 11
86.5232213311
 21
210.0655748626
 31
0.0
  0
LINE
  5
D8
330
1F
100
AcDbEntity
  8
0
  6
Continuous
 62
     7
370
     0
100
AcDbLine
 10
86.0269290771
 20
210.7538296958
 30
0.0
 11
86.5232213311
 21
210.0655748626
 31
0.0
  0
LINE
  5
D9
330
1F
100
AcDbEntity
  8
0
  6
Continuous
 62
     7
370
     0
100
AcDbLine
 10
96.4682018295
 20
213.9220326325
 30
0.0
 11
101.483183904
 21
187.619983696
 31
0.0
  0
LINE
  5
DA
330
1F
100
AcDbEntity
  8
0
  6
Continuous
 62
     7
370
     0
100
AcDbLine
 10
101.483183904
 20
187.619983696
 30
0.0
 11
98.5362734556
 21
187.0580990916
 31
0.0
  0
LINE
  5
DB
330
1F
100
AcDbEntity
  8
0
  6
Continuous
 62
     7
370
     0
100
AcDbLine
 10
98.5362734556
 20
187.0580990916
 30
0.0
 11
96.3995251715
 21
198.2646859368
 31
0.0
  0
LINE
  5
DC
330
1F
100
AcDbEntity
  8
0
  6
Continuous
 62
     7
370
     0
100
AcDbLine
 10
94.9042560443
 20
206.1069137534
 30
0.0
 11
94.7912484318
 21
206.6996074399
 31
0.0
  0
LINE
  5
DD
330
1F
100
AcDbEntity
  8
0
  6
Continuous
 62
     7
370
     0
100
AcDbLine
 10
94.7912484318
 20
206.6996074399
 30
0.0
 11
94.2187933162
 21
206.7923764815
 31
0.0
  0
LINE
  5
DE
330
1F
100
AcDbEntity
  8
0
  6
Continuous
 62
     7
370
     0
100
AcDbLine
 10
91.8999109328
 20
207.6116441866
 30
0.0
 11
91.9098658398
 21
207.673072361
 31
0.0
  0
CIRCLE
  5
DF
330
1F
100
AcDbEntity
  8
0
  6
Continuous
 62
     7
370
     0
100
AcDbCircle
 10
89.4705400567
 20
216.3753539007
 30
0.0
 40
1.499999999999993
  0
LINE
  5
E0
330
1F
100
AcDbEntity
  8
0
  6
Continuous
 62
     7
370
     0
100
AcDbLine
 10
96.4682018295
 20
213.9220326325
 30
0.0
 11
96.8844909131
 21
216.4908438107
 31
0.0
  0
LINE
  5
E1
330
1F
100
AcDbEntity
  8
0
  6
Continuous
 62
     7
370
     0
100
AcDbLine
 10
89.8021771483
 20
234.0499139508
 30
0.0
 11
86.0269290771
 21
210.7538296958
 31
0.0
  0
LINE
  5
E2
330
1F
100
AcDbEntity
  8
0
  6
Continuous
 62
     7
370
     0
100
AcDbLine
 10
72.0078023061
 20
206.6996074399
 30
0.0
 11
72.5802574217
 21
206.7923764815
 31
0.0
  0
LINE
  5
E3
330
1F
100
AcDbEntity
  8
0
  6
Continuous
 62
     7
370
     0
100
AcDbLine
 10
71.8947937623
 20
206.1069137534
 30
0.0
 11
72.0078023061
 21
206.6996074399
 31
0.0
  0
LINE
  5
E4
330
1F
100
AcDbEntity
  8
0
  6
Continuous
 62
     7
370
     0
100
AcDbLine
 10
68.2627772823
 20
187.0580990916
 30
0.0
 11
70.3995255664
 21
198.2646859368
 31
0.0
  0
LINE
  5
E5
330
1F
100
AcDbEntity
  8
0
  6
Continuous
 62
     7
370
     0
100
AcDbLine
 10
65.3158659026
 20
187.619983696
 30
0.0
 11
68.2627772823
 21
187.0580990916
 31
0.0
  0
LINE
  5
E6
330
1F
100
AcDbEntity
  8
0
  6
Continuous
 62
     7
370
     0
100
AcDbLine
 10
70.8237010896
 20
216.506888636
 30
0.0
 11
65.3158659026
 21
187.619983696
 31
0.0
  0
LINE
  5
E7
330
1F
100
AcDbEntity
  8
0
  6
Continuous
 62
     7
370
     0
100
AcDbLine
 10
70.8237010896
 20
216.506888636
 30
0.0
 11
70.8188069895
 21
216.5370932897
 31
0.0
  0
LINE
  5
E8
330
1F
100
AcDbEntity
  8
0
  6
Continuous
 62
     7
370
     0
100
AcDbLine
 10
76.0690588415
 20
239.7752194783
 30
0.0
 11
80.7721216608
 21
210.7538296958
 31
0.0
  0
LINE
  5
E9
330
1F
100
AcDbEntity
  8
0
  6
Continuous
 62
     7
370
     0
100
AcDbLine
 10
80.275829174
 20
210.0655748626
 30
0.0
 11
80.7721216608
 21
210.7538296958
 31
0.0
  0
LINE
  5
EA
330
1F
100
AcDbEntity
  8
0
  6
Continuous
 62
     7
370
     0
100
AcDbLine
 10
76.1299161151
 20
209.3937094441
 30
0.0
 11
80.275829174
 21
210.0655748626
 31
0.0
  0
ARC
  5
EB
330
1F
100
AcDbEntity
  8
0
  6
Continuous
 62
     7
370
     0
100
AcDbCircle
 10
76.3698682642
 20
207.9130253237
 30
0.0
 40
1.500000000000014
100
AcDbArc
 50
99.2050467121
 51
189.2050467121
  0
LINE
  5
EC
330
1F
100
AcDbEntity
  8
0
  6
Continuous
 62
     7
370
     0
100
AcDbLine
 10
74.8991398051
 20
207.6116441866
 30
0.0
 11
74.8891848981
 21
207.673072361
 31
0.0
  0
LINE
  5
ED
330
1F
100
AcDbEntity
  8
0
  6
Continuous
 62
     7
370
     0
100
AcDbLine
 10
72.3506305277
 20
239.1726314207
 30
0.0
 11
76.0690588415
 21
239.7752194783
 31
0.0
  0
LINE
  5
EE
330
1F
100
AcDbEntity
  8
0
  6
Continuous
 62
     7
370
     0
100
AcDbLine
 10
70.8188069895
 20
216.5370932897
 30
0.0
 11
71.1194267407
 21
237.975479581
 31
0.0
  0
LINE
  5
EF
330
1F
100
AcDbEntity
  8
0
  6
Continuous
 62
     7
370
     0
100
AcDbLine
 10
72.3506305277
 20
239.1726314207
 30
0.0
 11
71.1194267407
 21
237.975479581
 31
0.0
  0
LWPOLYLINE
  5
F0
330
1F
100
AcDbEntity
  8
0
  6
Continuous
 62
     7
370
     0
100
AcDbPolyline
 90
        7
 70
   128
 43
0.0
 10
66.4782216683
 20
204.3945393642
 10
66.5738815352
 20
204.8962465605
 10
66.658939226
 20
205.3423388978
 10
66.7294142678
 20
205.711958476
 10
66.7820116416
 20
205.9878236731
 10
66.8142745182
 20
206.1570319464
 10
66.8247071937
 20
206.2117415598
  0
LWPOLYLINE
  5
F1
330
1F
100
AcDbEntity
  8
0
  6
Continuous
 62
     7
370
     0
100
AcDbPolyline
 90
       10
 70
   128
 43
0.0
 10
65.8695036456
 20
201.2019916555
 10
65.8726906314
 20
201.218712621
 10
65.8956253812
 20
201.3389985194
 10
65.939671351
 20
201.5700019082
 10
66.0027665928
 20
201.9009231707
 10
66.0819644019
 20
202.3162893137
 10
66.1735599771
 20
202.7966766735
 10
66.2732692346
 20
203.3196236124
 10
66.3764318362
 20
203.8606773248
 10
66.4782216683
 20
204.3945393642
  0
LWPOLYLINE
  5
F2
330
1F
100
AcDbEntity
  8
0
  6
Continuous
 62
     7
370
     0
100
AcDbPolyline
 90
        7
 70
   128
 43
0.0
 10
64.6052742287
 20
194.5715011215
 10
64.7009340957
 20
195.0732083177
 10
64.7859899238
 20
195.5193015864
 10
64.8564649656
 20
195.8889211645
 10
64.909064202
 20
196.1647854304
 10
64.9413270786
 20
196.333994635
 10
64.9517578915
 20
196.388703317
  0
LWPOLYLINE
  5
F3
330
1F
100
AcDbEntity
  8
0
  6
Continuous
 62
     7
370
     0
100
AcDbPolyline
 90
       10
 70
   128
 43
0.0
 10
63.9965543434
 20
191.378954344
 10
63.9997431919
 20
191.3956753095
 10
64.0226779416
 20
191.5159602767
 10
64.0667239115
 20
191.7469645968
 10
64.1298191532
 20
192.0778858593
 10
64.2090169623
 20
192.4932510709
 10
64.3006125376
 20
192.9736384308
 10
64.400321795
 20
193.4965853697
 10
64.5034843966
 20
194.037639082
 10
64.6052742287
 20
194.5715011215
  0
LWPOLYLINE
  5
F4
330
1F
100
AcDbEntity
  8
0
  6
Continuous
 62
     7
370
     0
100
AcDbPolyline
 90
       16
 70
   128
 43
0.0
 10
99.9743444756
 20
206.2117415598
 10
99.9796213493
 20
206.1840682408
 10
100.0058827832
 20
206.0463330826
 10
100.0530021176
 20
205.7992066374
 10
100.1187758431
 20
205.4542447558
 10
100.20012687
 20
205.0275779446
 10
100.2932535395
 20
204.5391551336
 10
100.3938009873
 20
204.0118160775
 10
100.497067897
 20
203.4702184727
 10
100.5982244298
 20
202.9396849802
 10
100.6925394669
 20
202.4450241705
 10
100.77560599
 20
202.0093663713
 10
100.8435385212
 20
201.6530814698
 10
100.8931612506
 20
201.3928308269
 10
100.9221514597
 20
201.2407793781
 10
100.9295480236
 20
201.2019916555
  0
LWPOLYLINE
  5
F5
330
1F
100
AcDbEntity
  8
0
  6
Continuous
 62
     7
370
     0
100
AcDbPolyline
 90
       16
 70
   128
 43
0.0
 10
101.8472919151
 20
196.388703317
 10
101.8525687888
 20
196.3610309293
 10
101.8788302228
 20
196.2232957711
 10
101.9259495571
 20
195.976169326
 10
101.9917232826
 20
195.6312074443
 10
102.0730761722
 20
195.2045397019
 10
102.1662028417
 20
194.7161178222
 10
102.2667502895
 20
194.188778766
 10
102.3700153366
 20
193.64718023
 10
102.4711718693
 20
193.1166476687
 10
102.5654887691
 20
192.6219877904
 10
102.6485534295
 20
192.1863299912
 10
102.7164859608
 20
191.8300450897
 10
102.7661086902
 20
191.5697925841
 10
102.7951007619
 20
191.4177420666
 10
102.8024954632
 20
191.378954344
  0
LINE
  5
F6
330
1F
100
AcDbEntity
  8
0
  6
Continuous
 62
     7
370
     0
100
AcDbLine
 10
84.9427239647
 20
145.9116428276
 30
0.0
 11
86.0453217667
 21
145.9116428276
 31
0.0
  0
SPLINE
  5
F7
330
1F
100
AcDbEntity
  8
0
  6
Continuous
 62
     7
370
     0
100
AcDbSpline
210
0.0
220
0.0
230
1.0
 70
     8
 71
     3
 72
     8
 73
     4
 74
     0
 42
0.000000001
 43
0.00000001
 40
0.0
 40
0.0
 40
0.0
 40
0.0
 40
1.0
 40
1.0
 40
1.0
 40
1.0
 10
86.04532166458142
 20
145.911644669306
 30
0.0
 10
86.3038708026238
 20
145.7246881476231
 30
0.0
 10
86.56955136647777
 20
145.611644669335
 30
0.0
 10
86.84613881647591
 20
145.6116446693248
 30
0.0
  0
LINE
  5
F8
330
1F
100
AcDbEntity
  8
0
  6
Continuous
 62
     7
370
     0
100
AcDbLine
 10
83.3648100289
 20
145.6116451999
 30
0.0
 11
86.8461388074
 21
145.6116451999
 31
0.0
  0
SPLINE
  5
F9
330
1F
100
AcDbEntity
  8
0
  6
Continuous
 62
     7
370
     0
100
AcDbSpline
210
0.0
220
0.0
230
1.0
 70
     8
 71
     3
 72
     8
 73
     4
 74
     0
 42
0.000000001
 43
0.00000001
 40
0.0
 40
0.0
 40
0.0
 40
0.0
 40
1.0
 40
1.0
 40
1.0
 40
1.0
 10
83.36481002135612
 20
145.6116446694441
 30
0.0
 10
83.90979235098688
 20
145.6116446694196
 30
0.0
 10
84.43328397197808
 20
145.7246881476187
 30
0.0
 10
84.94272397577895
 20
145.9116446692873
 30
0.0
  0
LINE
  5
FA
330
1F
100
AcDbEntity
  8
0
  6
Continuous
 62
     7
370
     0
100
AcDbLine
 10
84.9427239647
 20
145.9116428276
 30
0.0
 11
84.9427239647
 21
148.611643829
 31
0.0
  0
SPLINE
  5
FB
330
1F
100
AcDbEntity
  8
0
  6
Continuous
 62
     7
370
     0
100
AcDbSpline
210
0.0
220
0.0
230
1.0
 70
     8
 71
     3
 72
     8
 73
     4
 74
     0
 42
0.000000001
 43
0.00000001
 40
0.0
 40
0.0
 40
0.0
 40
0.0
 40
1.0
 40
1.0
 40
1.0
 40
1.0
 10
81.78689606697594
 20
145.9116446694034
 30
0.0
 10
82.29633607070227
 20
145.7246881477298
 30
0.0
 10
82.8198276917935
 20
145.6116446694685
 30
0.0
 10
83.36481002135612
 20
145.6116446694441
 30
0.0
  0
LINE
  5
FC
330
1F
100
AcDbEntity
  8
0
  6
Continuous
 62
     7
370
     0
100
AcDbLine
 10
81.7868960932
 20
148.611643829
 30
0.0
 11
81.7868960932
 21
145.9116428276
 31
0.0
  0
LINE
  5
FD
330
1F
100
AcDbEntity
  8
0
  6
Continuous
 62
     7
370
     0
100
AcDbLine
 10
80.6952933691
 20
145.9116428276
 30
0.0
 11
81.7868960932
 21
145.9116428276
 31
0.0
  0
LINE
  5
FE
330
1F
100
AcDbEntity
  8
0
  6
Continuous
 62
     7
370
     0
100
AcDbLine
 10
79.9181964159
 20
145.6116451999
 30
0.0
 11
83.3648100289
 21
145.6116451999
 31
0.0
  0
SPLINE
  5
FF
330
1F
100
AcDbEntity
  8
0
  6
Continuous
 62
     7
370
     0
100
AcDbSpline
210
0.0
220
0.0
230
1.0
 70
     8
 71
     3
 72
     8
 73
     4
 74
     0
 42
0.000000001
 43
0.00000001
 40
0.0
 40
0.0
 40
0.0
 40
0.0
 40
1.0
 40
1.0
 40
1.0
 40
1.0
 10
79.91819651418737
 20
145.6116446693399
 30
0.0
 10
80.1865913937985
 20
145.6116446693004
 30
0.0
 10
80.4444024511104
 20
145.7246881475144
 30
0.0
 10
80.69529331684062
 20
145.9116446691897
 30
0.0
  0
LINE
  5
100
330
1F
100
AcDbEntity
  8
0
  6
Continuous
 62
     7
370
     0
100
AcDbLine
 10
86.0453217667
 20
148.611643829
 30
0.0
 11
86.0453217667
 21
145.9116428276
 31
0.0
  0
LINE
  5
101
330
1F
100
AcDbEntity
  8
0
  6
Continuous
 62
     7
370
     0
100
AcDbLine
 10
80.6952933691
 20
145.9116428276
 30
0.0
 11
80.6952933691
 21
148.611643829
 31
0.0
  0
LINE
  5
102
330
1F
100
AcDbEntity
  8
0
  6
Continuous
 62
     7
370
     0
100
AcDbLine
 10
87.6469560809
 20
145.9116428276
 30
0.0
 11
87.6469560809
 21
148.611643829
 31
0.0
  0
SPLINE
  5
103
330
1F
100
AcDbEntity
  8
0
  6
Continuous
 62
     7
370
     0
100
AcDbSpline
210
0.0
220
0.0
230
1.0
 70
     8
 71
     3
 72
     8
 73
     4
 74
     0
 42
0.000000001
 43
0.00000001
 40
0.0
 40
0.0
 40
0.0
 40
0.0
 40
1.0
 40
1.0
 40
1.0
 40
1.0
 10
86.84613881644728
 20
145.61164466934
 30
0.0
 10
87.12272626639918
 20
145.6116446693305
 30
0.0
 10
87.38840683009654
 20
145.7246881474689
 30
0.0
 10
87.6469559681091
 20
145.9116446690619
 30
0.0
  0
SPLINE
  5
104
330
1F
100
AcDbEntity
  8
0
  6
Continuous
 62
     7
370
     0
100
AcDbSpline
210
0.0
220
0.0
230
1.0
 70
     8
 71
     3
 72
     8
 73
     4
 74
     0
 42
0.000000001
 43
0.00000001
 40
0.0
 40
0.0
 40
0.0
 40
0.0
 40
1.0
 40
1.0
 40
1.0
 40
1.0
 10
79.14109971177157
 20
145.911644669178
 30
0.0
 10
79.39199057742935
 20
145.7246881475599
 30
0.0
 10
79.64980163461996
 20
145.6116446693649
 30
0.0
 10
79.91819651415285
 20
145.6116446693247
 30
0.0
  0
LINE
  5
105
330
1F
100
AcDbEntity
  8
0
  6
Continuous
 62
     7
370
     0
100
AcDbLine
 10
79.1410999283
 20
148.611643829
 30
0.0
 11
79.1410999283
 21
145.9116428276
 31
0.0
  0
LINE
  5
106
330
1F
100
AcDbEntity
  8
0
  6
Continuous
 62
     7
370
     0
100
AcDbLine
 10
87.6469560809
 20
145.9116428276
 30
0.0
 11
87.6995252822
 21
145.9116428276
 31
0.0
  0
LINE
  5
107
330
1F
100
AcDbEntity
  8
0
  6
Continuous
 62
     7
370
     0
100
AcDbLine
 10
86.8461388074
 20
145.6116451999
 30
0.0
 11
87.3995253261
 21
145.6116451999
 31
0.0
  0
LINE
  5
108
330
1F
100
AcDbEntity
  8
0
  6
Continuous
 62
     7
370
     0
100
AcDbLine
 10
79.0995252229
 20
145.9116428276
 30
0.0
 11
79.1410999283
 21
145.9116428276
 31
0.0
  0
LINE
  5
109
330
1F
100
AcDbEntity
  8
0
  6
Continuous
 62
     7
370
     0
100
AcDbLine
 10
79.399525179
 20
145.6116451999
 30
0.0
 11
79.9181964159
 21
145.6116451999
 31
0.0
  0
LINE
  5
10A
330
1F
100
AcDbEntity
  8
0
  6
Continuous
 62
     7
370
     0
100
AcDbLine
 10
83.3839034223
 20
140.611646243
 30
0.0
 11
85.199525338
 21
140.611646243
 31
0.0
  0
LINE
  5
10B
330
1F
100
AcDbEntity
  8
0
  6
Continuous
 62
     7
370
     0
100
AcDbLine
 10
81.5995253999
 20
140.611646243
 30
0.0
 11
83.3839034223
 21
140.611646243
 31
0.0
  0
LINE
  5
10C
330
1F
100
AcDbEntity
  8
0
  6
Continuous
 62
     7
370
     0
100
AcDbLine
 10
83.386507051
 20
138.6116459152
 30
0.0
 11
84.8995253238
 21
138.6116459152
 31
0.0
  0
LINE
  5
10D
330
1F
100
AcDbEntity
  8
0
  6
Continuous
 62
     7
370
     0
100
AcDbLine
 10
81.8995253559
 20
138.6116459152
 30
0.0
 11
83.386507051
 21
138.6116459152
 31
0.0
  0
LINE
  5
10E
330
1F
100
AcDbEntity
  8
0
  6
Continuous
 62
     7
370
     0
100
AcDbLine
 10
81.5995253999
 20
141.111643531
 30
0.0
 11
85.1994574679
 21
141.111643531
 31
0.0
  0
LINE
  5
10F
330
1F
100
AcDbEntity
  8
0
  6
Continuous
 62
     7
370
     0
100
AcDbLine
 10
83.3839034223
 20
143.1116438588
 30
0.0
 11
85.199525338
 21
143.1116438588
 31
0.0
  0
LINE
  5
110
330
1F
100
AcDbEntity
  8
0
  6
Continuous
 62
     7
370
     0
100
AcDbLine
 10
81.5995253999
 20
143.1116438588
 30
0.0
 11
83.3839034223
 21
143.1116438588
 31
0.0
  0
LINE
  5
111
330
1F
100
AcDbEntity
  8
0
  6
Continuous
 62
     7
370
     0
100
AcDbLine
 10
81.5995253999
 20
143.6116448721
 30
0.0
 11
85.1994574679
 21
143.6116448721
 31
0.0
  0
LINE
  5
112
330
1F
100
AcDbEntity
  8
0
  6
Continuous
 62
     7
370
     0
100
AcDbLine
 10
99.2968864649
 20
235.7529937407
 30
0.0
 11
99.4728514835
 21
236.8388264557
 31
0.0
  0
LINE
  5
113
330
1F
100
AcDbEntity
  8
0
  6
Continuous
 62
     7
370
     0
100
AcDbLine
 10
91.8977670282
 20
221.351151832
 30
0.0
 11
92.7249202415
 21
220.2040604433
 31
0.0
  0
LINE
  5
114
330
1F
100
AcDbEntity
  8
0
  6
Continuous
 62
     7
370
     0
100
AcDbLine
 10
91.8977670282
 20
221.351151832
 30
0.0
 11
93.7693938523
 21
232.9004830798
 31
0.0
  0
LINE
  5
115
330
1F
100
AcDbEntity
  8
0
  6
Continuous
 62
     7
370
     0
100
AcDbLine
 10
94.3429386154
 20
233.3140573582
 30
0.0
 11
93.7693938523
 21
232.9004830798
 31
0.0
  0
ARC
  5
116
330
1F
100
AcDbEntity
  8
0
  6
Continuous
 62
     7
370
     0
100
AcDbCircle
 10
104.0752609395
 20
233.3577603243
 30
0.0
 40
1.600000000000008
100
AcDbArc
 50
260.794953288
 51
80.794953288
  0
LINE
  5
117
330
1F
100
AcDbEntity
  8
0
  6
Continuous
 62
     7
370
     0
100
AcDbLine
 10
97.3043059841
 20
232.834154286
 30
0.0
 11
103.8193115875
 21
231.7783660373
 31
0.0
  0
LINE
  5
118
330
1F
100
AcDbEntity
  8
0
  6
Continuous
 62
     7
370
     0
100
AcDbLine
 10
110.0982716218
 20
217.3886238715
 30
0.0
 11
97.3643949166
 21
219.4522111794
 31
0.0
  0
LINE
  5
119
330
1F
100
AcDbEntity
  8
0
  6
Continuous
 62
     7
370
     0
100
AcDbLine
 10
93.4159066439
 20
220.0920856675
 30
0.0
 11
92.7249202415
 21
220.2040604433
 31
0.0
  0
LINE
  5
11A
330
1F
100
AcDbEntity
  8
0
  6
Continuous
 62
     7
370
     0
100
AcDbLine
 10
104.3312093154
 20
234.9371551653
 30
0.0
 11
99.2968864649
 21
235.7529937407
 31
0.0
  0
LINE
  5
11B
330
1F
100
AcDbEntity
  8
0
  6
Continuous
 62
     7
370
     0
100
AcDbLine
 10
112.8977136597
 20
234.6632606467
 30
0.0
 11
99.4728514835
 21
236.8388264557
 31
0.0
  0
LINE
  5
11C
330
1F
100
AcDbEntity
  8
0
  6
Continuous
 62
     7
370
     0
100
AcDbLine
 10
110.0982716218
 20
217.3886238715
 30
0.0
 11
112.8977136597
 21
234.6632606467
 31
0.0
  0
LINE
  5
11D
330
1F
100
AcDbEntity
  8
0
  6
Continuous
 62
     7
370
     0
100
AcDbLine
 10
99.5528362602
 20
237.3323901674
 30
0.0
 11
99.4728514835
 21
236.8388264557
 31
0.0
  0
LINE
  5
11E
330
1F
100
AcDbEntity
  8
0
  6
Continuous
 62
     7
370
     0
100
AcDbLine
 10
99.5528362602
 20
237.3323901674
 30
0.0
 11
112.4841356561
 21
235.2368063411
 31
0.0
  0
ARC
  5
11F
330
1F
100
AcDbEntity
  8
0
  6
Continuous
 62
     7
370
     0
100
AcDbCircle
 10
112.4041523351
 20
234.7432451205
 30
0.0
 40
0.5000000000000062
100
AcDbArc
 50
350.7949532879
 51
80.7949532879
  0
LINE
  5
120
330
1F
100
AcDbEntity
  8
0
  6
Continuous
 62
     7
370
     0
100
AcDbLine
 10
96.3995251715
 20
176.0476036115
 30
0.0
 11
96.9020593822
 21
175.9661655059
 31
0.0
  0
LINE
  5
121
330
1F
100
AcDbEntity
  8
0
  6
Continuous
 62
     7
370
     0
100
AcDbLine
 10
96.9020593822
 20
175.9661655059
 30
0.0
 11
96.3995251715
 21
175.60379348
 31
0.0
  0
LINE
  5
122
330
1F
100
AcDbEntity
  8
0
  6
Continuous
 62
     7
370
     0
100
AcDbLine
 10
98.6245414153
 20
186.5951595945
 30
0.0
 11
96.3995251715
 21
198.2646859368
 31
0.0
  0
LINE
  5
123
330
1F
100
AcDbEntity
  8
0
  6
Continuous
 62
     7
370
     0
100
AcDbLine
 10
96.9020593822
 20
175.9661655059
 30
0.0
 11
98.6245414153
 21
186.5951595945
 31
0.0
  0
LINE
  5
124
330
1F
100
AcDbEntity
  8
0
  6
Continuous
 62
     7
370
     0
100
AcDbLine
 10
98.5371442422
 20
187.053532817
 30
0.0
 11
100.0105990007
 21
187.3344746536
 31
0.0
  0
LINE
  5
125
330
1F
100
AcDbEntity
  8
0
  6
Continuous
 62
     7
370
     0
100
AcDbLine
 10
100.0105990007
 20
187.3344746536
 30
0.0
 11
100.0097291455
 21
187.3390413938
 31
0.0
  0
LINE
  5
126
330
1F
100
AcDbEntity
  8
0
  6
Continuous
 62
     7
370
     0
100
AcDbLine
 10
69.8969913557
 20
175.9661655059
 30
0.0
 11
70.3995255664
 21
176.0476036114
 31
0.0
  0
LINE
  5
127
330
1F
100
AcDbEntity
  8
0
  6
Continuous
 62
     7
370
     0
100
AcDbLine
 10
69.8969913557
 20
175.9661655059
 30
0.0
 11
68.1745083913
 21
186.5951595945
 31
0.0
  0
LINE
  5
128
330
1F
100
AcDbEntity
  8
0
  6
Continuous
 62
     7
370
     0
100
AcDbLine
 10
68.1745083913
 20
186.5951595945
 30
0.0
 11
70.3995255664
 21
198.2646859368
 31
0.0
  0
LINE
  5
129
330
1F
100
AcDbEntity
  8
0
  6
Continuous
 62
     7
370
     0
100
AcDbLine
 10
69.8969913557
 20
175.9661655059
 30
0.0
 11
70.3995255664
 21
175.60379348
 31
0.0
  0
LINE
  5
12A
330
1F
100
AcDbEntity
  8
0
  6
Continuous
 62
     7
370
     0
100
AcDbLine
 10
66.7884508058
 20
187.3344746536
 30
0.0
 11
66.7893225238
 21
187.3390413938
 31
0.0
  0
LINE
  5
12B
330
1F
100
AcDbEntity
  8
0
  6
Continuous
 62
     7
370
     0
100
AcDbLine
 10
68.261907427
 20
187.053532817
 30
0.0
 11
66.7884508058
 21
187.3344746536
 31
0.0
  0
SPLINE
  5
12C
330
1F
100
AcDbEntity
  8
0
  6
Continuous
 62
     7
370
     0
100
AcDbSpline
210
0.0
220
0.0
230
1.0
 70
     8
 71
     3
 72
    14
 73
    10
 74
     0
 42
0.000000001
 43
0.00000001
 40
0.0
 40
0.0
 40
0.0
 40
0.0
 40
0.5000000000000004
 40
0.5000000000000004
 40
0.750000000000004
 40
0.750000000000004
 40
0.875000000000002
 40
0.875000000000002
 40
1.0
 40
1.0
 40
1.0
 40
1.0
 10
92.25371884287803
 20
236.9877316020479
 30
0.0
 10
92.24287278632691
 20
237.0102405656106
 30
0.0
 10
92.22668272043784
 20
237.0312478538351
 30
0.0
 10
92.18722386499121
 20
237.056914073534
 30
0.0
 10
92.17162811070146
 20
237.0645782112172
 30
0.0
 10
92.13999619280311
 20
237.0714744698069
 30
0.0
 10
92.12804345976535
 20
237.0730722873816
 30
0.0
 10
92.09801047044732
 20
237.0719580257926
 30
0.0
 10
92.07803517559259
 20
237.0690270150852
 30
0.0
 10
92.05613714896778
 20
237.0589995562095
 30
0.0
  0
ARC
  5
12D
330
1F
100
AcDbEntity
  8
0
  6
Continuous
 62
     7
370
     0
100
AcDbCircle
 10
92.472478336
 20
236.1497911005
 30
0.0
 40
0.8660254037844456
100
AcDbArc
 50
104.6315212283
 51
75.3684787717
  0
SPLINE
  5
12E
330
1F
100
AcDbEntity
  8
0
  6
Continuous
 62
     7
370
     0
100
AcDbSpline
210
0.0
220
0.0
230
1.0
 70
     8
 71
     3
 72
    14
 73
    10
 74
     0
 42
0.000000001
 43
0.00000001
 40
0.0
 40
0.0
 40
0.0
 40
0.0
 40
0.125
 40
0.125
 40
0.2500000000000001
 40
0.2500000000000001
 40
0.5000000000000021
 40
0.5000000000000021
 40
1.0
 40
1.0
 40
1.0
 40
1.0
 10
92.88881952308448
 20
237.0589995562095
 30
0.0
 10
92.86663181906785
 20
237.0691596630257
 30
0.0
 10
92.84662847186071
 20
237.0720119540509
 30
0.0
 10
92.81638468893027
 20
237.0730485602399
 30
0.0
 10
92.80453747362264
 20
237.071411411789
 30
0.0
 10
92.77298933901427
 20
237.064444253129
 30
0.0
 10
92.75739901159166
 20
237.0567301094401
 30
0.0
 10
92.71826316378929
 20
237.031173657902
 30
0.0
 10
92.70207814661569
 20
237.010228655161
 30
0.0
 10
92.69123782917421
 20
236.9877316020479
 30
0.0
  0
ARC
  5
12F
330
1F
100
AcDbEntity
  8
0
  6
Continuous
 62
     7
370
     0
100
AcDbCircle
 10
92.1439762941
 20
236.8240213345
 30
0.0
 40
0.1500000000000029
100
AcDbArc
 50
295.9765162648
 51
14.439557232
  0
ARC
  5
130
330
1F
100
AcDbEntity
  8
0
  6
Continuous
 62
     7
370
     0
100
AcDbCircle
 10
92.472478336
 20
236.1497911005
 30
0.0
 40
0.600000000000038
100
AcDbArc
 50
115.9765162648
 51
64.0234837352
  0
ARC
  5
131
330
1F
100
AcDbEntity
  8
0
  6
Continuous
 62
     7
370
     0
100
AcDbCircle
 10
92.800980378
 20
236.8240213345
 30
0.0
 40
0.1500000000000029
100
AcDbArc
 50
165.560442768
 51
244.0234837352
  0
LINE
  5
132
330
1F
100
AcDbEntity
  8
0
  6
Continuous
 62
     7
370
     0
100
AcDbLine
 10
92.6557183176
 20
236.8614240667
 30
0.0
 11
92.6811071023
 21
236.960021325
 31
0.0
  0
LINE
  5
133
330
1F
100
AcDbEntity
  8
0
  6
Continuous
 62
     7
370
     0
100
AcDbLine
 10
92.2638503745
 20
236.960021325
 30
0.0
 11
92.2892382279
 21
236.8614240667
 31
0.0
  0
ARC
  5
134
330
1F
100
AcDbEntity
  8
0
  6
Continuous
 62
     7
370
     0
100
AcDbCircle
 10
92.118588327
 20
236.9226182879
 30
0.0
 40
0.1499999999999924
100
AcDbArc
 50
14.439557232
 51
25.7273245114
  0
ARC
  5
135
330
1F
100
AcDbEntity
  8
0
  6
Continuous
 62
     7
370
     0
100
AcDbCircle
 10
92.826368345
 20
236.9226182879
 30
0.0
 40
0.1500000000000052
100
AcDbArc
 50
154.2726754886
 51
165.560442768
  0
SPLINE
  5
136
330
1F
100
AcDbEntity
  8
0
  6
Continuous
 62
     7
370
     0
100
AcDbSpline
210
0.0
220
0.0
230
1.0
 70
     8
 71
     3
 72
    14
 73
    10
 74
     0
 42
0.000000001
 43
0.00000001
 40
0.0
 40
0.0
 40
0.0
 40
0.0
 40
0.1249999999999975
 40
0.1249999999999975
 40
0.249999999999995
 40
0.249999999999995
 40
0.4999999999999942
 40
0.4999999999999942
 40
1.0
 40
1.0
 40
1.0
 40
1.0
 10
90.08698075746914
 20
217.7428336491825
 30
0.0
 10
90.06422439504601
 20
217.7530918983559
 30
0.0
 10
90.0425235878383
 20
217.7576543258554
 30
0.0
 10
90.00849873801464
 20
217.7611988027116
 30
0.0
 10
89.99446865223744
 20
217.7606215502815
 30
0.0
 10
89.95748744292304
 20
217.7564068598625
 30
0.0
 10
89.93866080669031
 20
217.7501011672344
 30
0.0
 10
89.88973889823818
 20
217.727969314692
 30
0.0
 10
89.86762174239341
 20
217.7085855052078
 30
0.0
 10
89.85030722618711
 20
217.6875285464081
 30
0.0
  0
SPLINE
  5
137
330
1F
100
AcDbEntity
  8
0
  6
Continuous
 62
     7
370
     0
100
AcDbSpline
210
0.0
220
0.0
230
1.0
 70
     8
 71
     3
 72
    14
 73
    10
 74
     0
 42
0.000000001
 43
0.00000001
 40
0.0
 40
0.0
 40
0.0
 40
0.0
 40
0.4999999999999951
 40
0.4999999999999951
 40
0.7499999999999953
 40
0.7499999999999953
 40
0.8749999999999977
 40
0.8749999999999977
 40
1.0
 40
1.0
 40
1.0
 40
1.0
 10
89.09077288719729
 20
217.687528546408
 30
0.0
 10
89.07346576246745
 20
217.7085765161021
 30
0.0
 10
89.0513589405325
 20
217.7279034882472
 30
0.0
 10
89.00281364368978
 20
217.7499513178813
 30
0.0
 10
88.9840594272571
 20
217.75632730861
 30
0.0
 10
88.94668801472811
 20
217.7606258402075
 30
0.0
 10
88.93271066750836
 20
217.7611910945332
 30
0.0
 10
88.89891705092865
 20
217.7577127551258
 30
0.0
 10
88.87700244769091
 20
217.7531580418911
 30
0.0
 10
88.85409935591528
 20
217.7428336491825
 30
0.0
  0
ARC
  5
138
330
1F
100
AcDbEntity
  8
0
  6
Continuous
 62
     7
370
     0
100
AcDbCircle
 10
89.4705400567
 20
216.3753539007
 30
0.0
 40
1.366025403784463
100
AcDbArc
 50
106.1414033176
 51
73.8585966824
  0
ARC
  5
139
330
1F
100
AcDbEntity
  8
0
  6
Continuous
 62
     7
370
     0
100
AcDbCircle
 10
89.9508662874
 20
217.364943064
 30
0.0
 40
0.2000000000000124
100
AcDbArc
 50
164.5846989593
 51
244.1090172629
  0
ARC
  5
13A
330
1F
100
AcDbEntity
  8
0
  6
Continuous
 62
     7
370
     0
100
AcDbCircle
 10
89.4705400567
 20
216.3753539007
 30
0.0
 40
0.9000000000000107
100
AcDbArc
 50
115.8909827371
 51
64.1090172629
  0
ARC
  5
13B
330
1F
100
AcDbEntity
  8
0
  6
Continuous
 62
     7
370
     0
100
AcDbCircle
 10
88.990213826
 20
217.364943064
 30
0.0
 40
0.2000000000000048
100
AcDbArc
 50
295.8909827371
 51
15.4153010407
  0
LINE
  5
13C
330
1F
100
AcDbEntity
  8
0
  6
Continuous
 62
     7
370
     0
100
AcDbLine
 10
89.1290963538
 20
217.6136649331
 30
0.0
 11
89.1830185339
 21
217.4181058189
 31
0.0
  0
LINE
  5
13D
330
1F
100
AcDbEntity
  8
0
  6
Continuous
 62
     7
370
     0
100
AcDbLine
 10
89.7580613293
 20
217.4181058189
 30
0.0
 11
89.811983975
 21
217.6136649331
 31
0.0
  0
ARC
  5
13E
330
1F
100
AcDbEntity
  8
0
  6
Continuous
 62
     7
370
     0
100
AcDbCircle
 10
90.004788664
 20
217.5605030161
 30
0.0
 40
0.2000000000000239
100
AcDbArc
 50
140.5705471975
 51
164.5846989593
  0
ARC
  5
13F
330
1F
100
AcDbEntity
  8
0
  6
Continuous
 62
     7
370
     0
100
AcDbCircle
 10
88.9362914494
 20
217.5605030161
 30
0.0
 40
0.2000000000000239
100
AcDbArc
 50
15.4153010407
 51
39.4294528025
  0
CIRCLE
  5
140
330
1F
100
AcDbEntity
  8
0
  6
Continuous
 62
     7
370
     0
100
AcDbCircle
 10
104.0832593463
 20
233.4071164332
 30
0.0
 40
1.199999999999976
  0
CIRCLE
  5
141
330
1F
100
AcDbEntity
  8
0
  6
Continuous
 62
     7
370
     0
100
AcDbCircle
 10
104.0832593463
 20
233.4071164332
 30
0.0
 40
1.499999999999963
  0
LINE
  5
142
330
1F
100
AcDbEntity
  8
0
  6
Continuous
 62
     7
370
     0
100
AcDbLine
 10
98.7849887371
 20
232.5942008873
 30
0.0
 11
99.2968864649
 21
235.7529937407
 31
0.0
  0
LINE
  5
143
330
1F
100
AcDbEntity
  8
0
  6
Continuous
 62
     7
370
     0
100
AcDbLine
 10
98.6751560032
 20
236.9174449822
 30
0.0
 11
99.4648532852
 21
236.7894700846
 31
0.0
  0
LINE
  5
144
330
1F
100
AcDbEntity
  8
0
  6
Continuous
 62
     7
370
     0
100
AcDbLine
 10
98.6751560032
 20
236.9174449822
 30
0.0
 11
97.9952914551
 21
232.722175785
 31
0.0
  0
LWPOLYLINE
  5
145
330
1F
100
AcDbEntity
  8
0
  6
Continuous
 62
     7
370
     0
100
AcDbPolyline
 90
       14
 70
   128
 43
0.0
 10
97.6084405467
 20
232.8355214676
 10
97.609018898
 20
232.8390865704
 10
97.6227568373
 20
232.9238630017
 10
97.6538229644
 20
233.1155627152
 10
97.699912256
 20
233.399970003
 10
97.7576076895
 20
233.7559885463
 10
97.8226289064
 20
234.1572209379
 10
97.8901535183
 20
234.573898383
 10
97.9551747352
 20
234.9751307746
 10
98.0128701687
 20
235.3311493179
 10
98.0589594603
 20
235.6155566057
 10
98.0900255874
 20
235.8072563192
 10
98.1037635267
 20
235.8920327505
 10
98.104341878
 20
235.8955978533
  0
LWPOLYLINE
  5
146
330
1F
100
AcDbEntity
  8
0
  6
Continuous
 62
     7
370
     0
100
AcDbPolyline
 90
        5
 70
   128
 43
0.0
 10
108.1294892266
 20
216.4920172771
 10
107.8650606707
 20
216.5348692914
 10
107.6408894643
 20
216.5711983224
 10
107.4911011293
 20
216.595472314
 10
107.4385037556
 20
216.6039957782
  0
LWPOLYLINE
  5
147
330
1F
100
AcDbEntity
  8
0
  6
Continuous
 62
     7
370
     0
100
AcDbPolyline
 90
        5
 70
   128
 43
0.0
 10
108.8204746976
 20
216.3800425013
 10
108.7678773239
 20
216.3885659655
 10
108.618088989
 20
216.4128399571
 10
108.3939177826
 20
216.4491652628
 10
108.1294892266
 20
216.4920172771
  0
LWPOLYLINE
  5
148
330
1F
100
AcDbEntity
  8
0
  6
Continuous
 62
     7
370
     0
100
AcDbPolyline
 90
        5
 70
   128
 43
0.0
 10
106.1552455559
 20
216.8119563838
 10
105.890817
 20
216.8548083981
 10
105.666643931
 20
216.8911337038
 10
105.5168574586
 20
216.9154076954
 10
105.4642600849
 20
216.9239311596
  0
LWPOLYLINE
  5
149
330
1F
100
AcDbEntity
  8
0
  6
Continuous
 62
     7
370
     0
100
AcDbPolyline
 90
        5
 70
   128
 43
0.0
 10
106.8462310269
 20
216.6999778828
 10
106.7936317906
 20
216.708501347
 10
106.6438453183
 20
216.7327753385
 10
106.4196741119
 20
216.7691043695
 10
106.1552455559
 20
216.8119563838
  0
LWPOLYLINE
  5
14A
330
1F
100
AcDbEntity
  8
0
  6
Continuous
 62
     7
370
     0
100
AcDbPolyline
 90
        5
 70
   128
 43
0.0
 10
107.3296489105
 20
211.5564081004
 10
107.1974346325
 20
211.5778341075
 10
107.085348098
 20
211.595998623
 10
107.0104548618
 20
211.6081356188
 10
106.984156175
 20
211.6123973509
  0
LWPOLYLINE
  5
14B
330
1F
100
AcDbEntity
  8
0
  6
Continuous
 62
     7
370
     0
100
AcDbPolyline
 90
        5
 70
   128
 43
0.0
 10
107.675141646
 20
211.5004188498
 10
107.6488429591
 20
211.5046805819
 10
107.5739497229
 20
211.5168175777
 10
107.4618631884
 20
211.5349820932
 10
107.3296489105
 20
211.5564081004
  0
LWPOLYLINE
  5
14C
330
1F
100
AcDbEntity
  8
0
  6
Continuous
 62
     7
370
     0
100
AcDbPolyline
 90
        5
 70
   128
 43
0.0
 10
105.3554052398
 20
211.8763434818
 10
105.2231890991
 20
211.8977694889
 10
105.1111044273
 20
211.9159340044
 10
105.0362111911
 20
211.9280710002
 10
105.0099106416
 20
211.9323327323
  0
LWPOLYLINE
  5
14D
330
1F
100
AcDbEntity
  8
0
  6
Continuous
 62
     7
370
     0
100
AcDbPolyline
 90
        5
 70
   128
 43
0.0
 10
105.7008979753
 20
211.8203560939
 10
105.6745974258
 20
211.824617826
 10
105.5997041896
 20
211.8367548218
 10
105.4876195177
 20
211.8549174746
 10
105.3554052398
 20
211.8763434818
  0
LWPOLYLINE
  5
14E
330
1F
100
AcDbEntity
  8
0
  6
Continuous
 62
     7
370
     0
100
AcDbPolyline
 90
        9
 70
   128
 43
0.0
 10
95.0877573252
 20
223.0089246413
 10
95.0396889731
 20
223.0769186398
 10
94.9917817399
 20
223.1446891209
 10
94.9440579772
 20
223.2121988317
 10
94.8965381741
 20
223.2794179698
 10
94.8492437512
 20
223.3463204583
 10
94.8021961287
 20
223.4128727695
 10
94.7554167271
 20
223.4790451011
 10
94.7089251041
 20
223.544811376
  0
ARC
  5
14F
330
1F
100
AcDbEntity
  8
0
  6
Continuous
 62
     7
370
     0
100
AcDbCircle
 10
99.504204863
 20
216.1205124613
 30
0.0
 40
8.83826466798127
100
AcDbArc
 50
122.8580093875
 51
127.6566024418
  0
LWPOLYLINE
  5
150
330
1F
100
AcDbEntity
  8
0
  6
Continuous
 62
     7
370
     0
100
AcDbPolyline
 90
        9
 70
   128
 43
0.0
 10
94.1046653226
 20
223.1176472386
 10
94.1511569455
 20
223.0518809637
 10
94.1979372784
 20
222.9857049068
 10
94.2449849009
 20
222.9191525956
 10
94.2922793239
 20
222.8522501072
 10
94.339799127
 20
222.785030969
 10
94.3875228897
 20
222.7175212582
 10
94.4354301229
 20
222.6497545024
 10
94.4834984749
 20
222.5817567786
  0
ARC
  5
151
330
1F
100
AcDbEntity
  8
0
  6
Continuous
 62
     7
370
     0
100
AcDbCircle
 10
95.0990854015
 20
222.351931291
 30
0.0
 40
0.6570903894995175
100
AcDbArc
 50
159.5271100384
 51
180.9878021471
  0
ARC
  5
152
330
1F
100
AcDbEntity
  8
0
  6
Continuous
 62
     7
370
     0
100
AcDbCircle
 10
101.3297451153
 20
226.75652811
 30
0.0
 40
8.83734324494599
100
AcDbArc
 50
212.8578292622
 51
217.6569348452
  0
LWPOLYLINE
  5
153
330
1F
100
AcDbEntity
  8
0
  6
Continuous
 62
     7
370
     0
100
AcDbPolyline
 90
        9
 70
   128
 43
0.0
 10
94.3333711386
 20
221.3575109025
 10
94.3991364822
 20
221.4040025255
 10
94.4653106764
 20
221.450784721
 10
94.5318629876
 20
221.4978314122
 10
94.5987645447
 20
221.5451239725
 10
94.6659855455
 20
221.5926437756
 10
94.733494325
 20
221.6403684696
 10
94.8012620121
 20
221.6882757028
 10
94.8692588046
 20
221.7363431236
  0
ARC
  5
154
330
1F
100
AcDbEntity
  8
0
  6
Continuous
 62
     7
370
     0
100
AcDbCircle
 10
95.0990854015
 20
222.351931291
 30
0.0
 40
0.6570903894995391
100
AcDbArc
 50
249.5271100384
 51
270.9878021471
  0
LWPOLYLINE
  5
155
330
1F
100
AcDbEntity
  8
0
  6
Continuous
 62
     7
370
     0
100
AcDbPolyline
 90
        9
 70
   128
 43
0.0
 10
95.1104136094
 20
221.6949402472
 10
95.1584819615
 20
221.6269425234
 10
95.2063882634
 20
221.5591757676
 10
95.2541129574
 20
221.4916660568
 10
95.3016327605
 20
221.4244431933
 10
95.3489262521
 20
221.3575444301
 10
95.3959738746
 20
221.290992119
 10
95.4427542075
 20
221.2248160621
 10
95.4892458305
 20
221.1590497872
  0
ARC
  5
156
330
1F
100
AcDbEntity
  8
0
  6
Continuous
 62
     7
370
     0
100
AcDbCircle
 10
90.6946796898
 20
228.5822664455
 30
0.0
 40
8.836968373471937
100
AcDbArc
 50
302.8579298721
 51
307.6572362635
  0
LWPOLYLINE
  5
157
330
1F
100
AcDbEntity
  8
0
  6
Continuous
 62
     7
370
     0
100
AcDbPolyline
 90
        9
 70
   128
 43
0.0
 10
96.0935046807
 20
221.5862176498
 10
96.0470139891
 20
221.6519839248
 10
96.0002336562
 20
221.7181562563
 10
95.9531860337
 20
221.7847085675
 10
95.9058916107
 20
221.851611056
 10
95.8583718076
 20
221.9188301941
 10
95.8106480449
 20
221.9863399049
 10
95.7627408117
 20
222.0541066607
 10
95.7146724597
 20
222.1221043846
  0
ARC
  5
158
330
1F
100
AcDbEntity
  8
0
  6
Continuous
 62
     7
370
     0
100
AcDbCircle
 10
95.0990854015
 20
222.351931291
 30
0.0
 40
0.6570903894995179
100
AcDbArc
 50
339.5271100384
 51
0.9878021471
  0
LWPOLYLINE
  5
159
330
1F
100
AcDbEntity
  8
0
  6
Continuous
 62
     7
370
     0
100
AcDbPolyline
 90
        9
 70
   128
 43
0.0
 10
95.75607813
 20
222.363261052
 10
95.8240749225
 20
222.4113284727
 10
95.8918426096
 20
222.459235706
 10
95.9593513891
 20
222.5069566747
 10
96.0265723899
 20
222.5544764778
 10
96.0934730157
 20
222.6017727634
 10
96.1600262582
 20
222.6488194546
 10
96.2262004524
 20
222.6956016501
 10
96.291965796
 20
222.7420932731
  0
ARC
  5
15A
330
1F
100
AcDbEntity
  8
0
  6
Continuous
 62
     7
370
     0
100
AcDbCircle
 10
88.8678954148
 20
217.9469285354
 30
0.0
 40
8.83801029006104
100
AcDbArc
 50
32.8581868432
 51
37.6569102659
  0
LWPOLYLINE
  5
15B
330
1F
100
AcDbEntity
  8
0
  6
Continuous
 62
     7
370
     0
100
AcDbPolyline
 90
        9
 70
   128
 43
0.0
 10
95.864799796
 20
223.3463502606
 10
95.7990335211
 20
223.2998586377
 10
95.7328602582
 20
223.2530801674
 10
95.6663070157
 20
223.2060334762
 10
95.5994063899
 20
223.1587371906
 10
95.5321853891
 20
223.1112173876
 10
95.4646766096
 20
223.0634926936
 10
95.3969089225
 20
223.0155854603
 10
95.32891213
 20
222.9675180396
  0
ARC
  5
15C
330
1F
100
AcDbEntity
  8
0
  6
Continuous
 62
     7
370
     0
100
AcDbCircle
 10
95.0990854015
 20
222.351931291
 30
0.0
 40
0.6570903894995175
100
AcDbArc
 50
69.5271100384
 51
90.9878021471
  0
CIRCLE
  5
15D
330
1F
100
AcDbEntity
  8
0
  6
Continuous
 62
     7
370
     0
100
AcDbCircle
 10
95.0990854015
 20
222.351931291
 30
0.0
 40
2.404255319148938
  0
LWPOLYLINE
  5
15E
330
1F
100
AcDbEntity
  8
0
  6
Continuous
 62
     7
370
     0
100
AcDbPolyline
 90
        9
 70
   128
 43
0.0
 10
94.4420928046
 20
222.3406038364
 10
94.3740960121
 20
222.2925364157
 10
94.306328325
 20
222.2446291825
 10
94.2388186142
 20
222.1969044885
 10
94.1715985447
 20
222.1493846854
 10
94.1046969876
 20
222.1020883998
 10
94.0381446764
 20
222.0550417086
 10
93.9719704822
 20
222.0082632383
 10
93.9062051386
 20
221.9617716154
  0
SPLINE
  5
15F
330
1F
100
AcDbEntity
  8
0
  6
Continuous
 62
     7
370
     0
100
AcDbSpline
210
0.0
220
0.0
230
1.0
 70
    24
 71
     3
 72
     8
 73
     4
 74
     0
 42
0.000000001
 43
0.00000001
 40
0.0
 40
0.0
 40
0.0
 40
0.0
 40
1.0
 40
1.0
 40
1.0
 40
1.0
 10
94.48349829428915
 20
222.5817579504027
 30
0.0
 10
94.50704411020006
 20
222.5484505886228
 30
0.0
 10
94.53134130244518
 20
222.5140803474128
 30
0.0
 10
94.55738881277709
 20
222.4772341470784
 30
0.0
  0
ARC
  5
160
330
1F
100
AcDbEntity
  8
0
  6
Continuous
 62
     7
370
     0
100
AcDbCircle
 10
95.0990854015
 20
222.351931291
 30
0.0
 40
0.555999999999999
100
AcDbArc
 50
166.9756664744
 51
173.539245711
  0
SPLINE
  5
161
330
1F
100
AcDbEntity
  8
0
  6
Continuous
 62
     7
370
     0
100
AcDbSpline
210
0.0
220
0.0
230
1.0
 70
    24
 71
     3
 72
     8
 73
     4
 74
     0
 42
0.000000001
 43
0.00000001
 40
0.0
 40
0.0
 40
0.0
 40
0.0
 40
1.0
 40
1.0
 40
1.0
 40
1.0
 10
94.44209266353704
 20
222.340603351106
 30
0.0
 10
94.47540002531692
 20
222.3641491670169
 30
0.0
 10
94.5097702665269
 20
222.388446359262
 30
0.0
 10
94.54661646686131
 20
222.414493869594
 30
0.0
  0
SPLINE
  5
162
330
1F
100
AcDbEntity
  8
0
  6
Continuous
 62
     7
370
     0
100
AcDbSpline
210
0.0
220
0.0
230
1.0
 70
    24
 71
     3
 72
     8
 73
     4
 74
     0
 42
0.000000001
 43
0.00000001
 40
0.0
 40
0.0
 40
0.0
 40
0.0
 40
1.0
 40
1.0
 40
1.0
 40
1.0
 10
95.08775746166516
 20
223.0089240289273
 30
0.0
 10
95.11130327757606
 20
222.9756166671474
 30
0.0
 10
95.13560046982118
 20
222.9412464259374
 30
0.0
 10
95.1616479801531
 20
222.904400225603
 30
0.0
  0
ARC
  5
163
330
1F
100
AcDbEntity
  8
0
  6
Continuous
 62
     7
370
     0
100
AcDbCircle
 10
95.0990854015
 20
222.351931291
 30
0.0
 40
0.5560000000000008
100
AcDbArc
 50
76.9756664744
 51
83.539245711
  0
SPLINE
  5
164
330
1F
100
AcDbEntity
  8
0
  6
Continuous
 62
     7
370
     0
100
AcDbSpline
210
0.0
220
0.0
230
1.0
 70
    24
 71
     3
 72
     8
 73
     4
 74
     0
 42
0.000000001
 43
0.00000001
 40
0.0
 40
0.0
 40
0.0
 40
0.0
 40
1.0
 40
1.0
 40
1.0
 40
1.0
 10
95.32891206096181
 20
222.9675183981751
 30
0.0
 10
95.29560469918191
 20
222.9439725822642
 30
0.0
 10
95.26123445797194
 20
222.9196753900191
 30
0.0
 10
95.22438825763753
 20
222.8936278796872
 30
0.0
  0
SPLINE
  5
165
330
1F
100
AcDbEntity
  8
0
  6
Continuous
 62
     7
370
     0
100
AcDbSpline
210
0.0
220
0.0
230
1.0
 70
    24
 71
     3
 72
     8
 73
     4
 74
     0
 42
0.000000001
 43
0.00000001
 40
0.0
 40
0.0
 40
0.0
 40
0.0
 40
1.0
 40
1.0
 40
1.0
 40
1.0
 10
95.11041334135825
 20
221.6949385529779
 30
0.0
 10
95.08686752544735
 20
221.7282459147578
 30
0.0
 10
95.06257033320223
 20
221.7626161559677
 30
0.0
 10
95.03652282287031
 20
221.7994623563022
 30
0.0
  0
SPLINE
  5
166
330
1F
100
AcDbEntity
  8
0
  6
Continuous
 62
     7
370
     0
100
AcDbSpline
210
0.0
220
0.0
230
1.0
 70
    24
 71
     3
 72
     8
 73
     4
 74
     0
 42
0.000000001
 43
0.00000001
 40
0.0
 40
0.0
 40
0.0
 40
0.0
 40
1.0
 40
1.0
 40
1.0
 40
1.0
 10
94.8692587420616
 20
221.73634418373
 30
0.0
 10
94.90256610384148
 20
221.7598899996409
 30
0.0
 10
94.93693634505148
 20
221.784187191886
 30
0.0
 10
94.97378254538589
 20
221.810234702218
 30
0.0
  0
ARC
  5
167
330
1F
100
AcDbEntity
  8
0
  6
Continuous
 62
     7
370
     0
100
AcDbCircle
 10
95.0990854015
 20
222.351931291
 30
0.0
 40
0.5560000000000275
100
AcDbArc
 50
256.9756664744
 51
263.539245711
  0
ARC
  5
168
330
1F
100
AcDbEntity
  8
0
  6
Continuous
 62
     7
370
     0
100
AcDbCircle
 10
95.0990854015
 20
222.351931291
 30
0.0
 40
0.5560000000000008
100
AcDbArc
 50
346.9756664744
 51
353.539245711
  0
SPLINE
  5
169
330
1F
100
AcDbEntity
  8
0
  6
Continuous
 62
     7
370
     0
100
AcDbSpline
210
0.0
220
0.0
230
1.0
 70
    24
 71
     3
 72
     8
 73
     4
 74
     0
 42
0.000000001
 43
0.00000001
 40
0.0
 40
0.0
 40
0.0
 40
0.0
 40
1.0
 40
1.0
 40
1.0
 40
1.0
 10
95.71467250873425
 20
222.1221046315025
 30
0.0
 10
95.69112669282336
 20
222.1554119932824
 30
0.0
 10
95.66682950057823
 20
222.1897822344924
 30
0.0
 10
95.64078199024631
 20
222.2266284348268
 30
0.0
  0
SPLINE
  5
16A
330
1F
100
AcDbEntity
  8
0
  6
Continuous
 62
     7
370
     0
100
AcDbSpline
210
0.0
220
0.0
230
1.0
 70
    24
 71
     3
 72
     8
 73
     4
 74
     0
 42
0.000000001
 43
0.00000001
 40
0.0
 40
0.0
 40
0.0
 40
0.0
 40
1.0
 40
1.0
 40
1.0
 40
1.0
 10
95.75607813948638
 20
222.3632592307991
 30
0.0
 10
95.7227707777065
 20
222.3397134148882
 30
0.0
 10
95.6884005364965
 20
222.3154162226431
 30
0.0
 10
95.65155433616209
 20
222.2893687123112
 30
0.0
  0
LINE
  5
16B
330
1F
100
AcDbEntity
  8
0
  6
Continuous
 62
     7
370
     0
100
AcDbLine
 10
94.7268782094
 20
222.7649665555
 30
0.0
 11
94.4782392964
 21
222.5891961833
 31
0.0
  0
LINE
  5
16C
330
1F
100
AcDbEntity
  8
0
  6
Continuous
 62
     7
370
     0
100
AcDbLine
 10
95.0824981466
 20
223.016364046
 30
0.0
 11
94.8338592336
 21
222.8405936738
 31
0.0
  0
ELLIPSE
  5
16D
330
1F
100
AcDbEntity
  8
0
  6
Continuous
 62
     7
370
     0
100
AcDbEllipse
 10
95.0595633192
 20
222.4078383064
 30
0.0
 11
-0.2817943809932046
 21
0.3986197560872143
 31
0.0
210
0.0
220
0.0
230
1.0
 40
0.9901159119
 41
6.147238359929593
 42
6.419132254429673
  0
LINE
  5
16E
330
1F
100
AcDbEntity
  8
0
  6
Continuous
 62
     7
370
     0
100
AcDbLine
 10
95.5121209755
 20
222.7241373738
 30
0.0
 11
95.3363515347
 21
222.9727781495
 31
0.0
  0
LINE
  5
16F
330
1F
100
AcDbEntity
  8
0
  6
Continuous
 62
     7
370
     0
100
AcDbLine
 10
95.7635175347
 20
222.3685174366
 30
0.0
 11
95.5877480939
 21
222.6171582123
 31
0.0
  0
ELLIPSE
  5
170
330
1F
100
AcDbEntity
  8
0
  6
Continuous
 62
     7
370
     0
100
AcDbEllipse
 10
95.154992417
 20
222.3914533733
 30
0.0
 11
0.3986197560872144
 21
0.2817943809932331
 31
0.0
210
0.0
220
0.0
230
1.0
 40
0.9901159119
 41
6.147238359929549
 42
6.419132254429644
  0
LINE
  5
171
330
1F
100
AcDbEntity
  8
0
  6
Continuous
 62
     7
370
     0
100
AcDbLine
 10
94.6860499591
 20
221.9797237893
 30
0.0
 11
94.8618193999
 21
221.731086739
 31
0.0
  0
LINE
  5
172
330
1F
100
AcDbEntity
  8
0
  6
Continuous
 62
     7
370
     0
100
AcDbLine
 10
94.4346533999
 20
222.3353437265
 30
0.0
 11
94.6104228407
 21
222.0867066761
 31
0.0
  0
ELLIPSE
  5
173
330
1F
100
AcDbEntity
  8
0
  6
Continuous
 62
     7
370
     0
100
AcDbEllipse
 10
95.043178386
 20
222.3124092086
 30
0.0
 11
0.3986197560872001
 21
0.2817943809932615
 31
0.0
210
0.0
220
0.0
230
1.0
 40
0.9901159119
 41
3.005645706339624
 42
3.277539600839715
  0
LINE
  5
174
330
1F
100
AcDbEntity
  8
0
  6
Continuous
 62
     7
370
     0
100
AcDbLine
 10
95.4712927252
 20
221.9388946077
 30
0.0
 11
95.7199316382
 21
222.1146649798
 31
0.0
  0
LINE
  5
175
330
1F
100
AcDbEntity
  8
0
  6
Continuous
 62
     7
370
     0
100
AcDbLine
 10
95.1156718567
 20
221.6875008425
 30
0.0
 11
95.3643117011
 21
221.8632674893
 31
0.0
  0
ELLIPSE
  5
176
330
1F
100
AcDbEntity
  8
0
  6
Continuous
 62
     7
370
     0
100
AcDbEllipse
 10
95.1386074839
 20
222.2960242755
 30
0.0
 11
-0.2817943809932189
 21
0.3986197560872142
 31
0.0
210
0.0
220
0.0
230
1.0
 40
0.9901159119
 41
3.005645706339736
 42
3.277539600839829
  0
CIRCLE
  5
177
330
1F
100
AcDbEntity
  8
0
  6
Continuous
 62
     7
370
     0
100
AcDbCircle
 10
95.0990854015
 20
222.351931291
 30
0.0
 40
2.499999999999995
  0
ARC
  5
178
330
1F
100
AcDbEntity
  8
0
  6
Continuous
 62
     7
370
     0
100
AcDbCircle
 10
95.0990854015
 20
222.351931291
 30
0.0
 40
0.5559999999999913
100
AcDbArc
 50
118.4913009012
 51
132.0236112843
  0
ARC
  5
179
330
1F
100
AcDbEntity
  8
0
  6
Continuous
 62
     7
370
     0
100
AcDbCircle
 10
95.0990854015
 20
222.351931291
 30
0.0
 40
0.5560000000000027
100
AcDbArc
 50
28.4913009012
 51
42.0236112843
  0
ARC
  5
17A
330
1F
100
AcDbEntity
  8
0
  6
Continuous
 62
     7
370
     0
100
AcDbCircle
 10
95.0990854015
 20
222.351931291
 30
0.0
 40
0.5560000000000096
100
AcDbArc
 50
298.4913009012
 51
312.0236112843
  0
ARC
  5
17B
330
1F
100
AcDbEntity
  8
0
  6
Continuous
 62
     7
370
     0
100
AcDbCircle
 10
95.0990854015
 20
222.351931291
 30
0.0
 40
0.5560000000000038
100
AcDbArc
 50
208.4913009012
 51
222.0236112843
  0
ARC
  5
17C
330
1F
100
AcDbEntity
  8
0
  6
Continuous
 62
     7
370
     0
100
AcDbCircle
 10
95.0990854015
 20
222.351931291
 30
0.0
 40
0.5560000000000008
100
AcDbArc
 50
83.539245711
 51
118.4913009012
  0
ARC
  5
17D
330
1F
100
AcDbEntity
  8
0
  6
Continuous
 62
     7
370
     0
100
AcDbCircle
 10
95.0990854015
 20
222.351931291
 30
0.0
 40
0.555999999999999
100
AcDbArc
 50
132.0236112843
 51
166.9756664744
  0
ARC
  5
17E
330
1F
100
AcDbEntity
  8
0
  6
Continuous
 62
     7
370
     0
100
AcDbCircle
 10
95.0990854015
 20
222.351931291
 30
0.0
 40
0.5559999999999968
100
AcDbArc
 50
42.0236112843
 51
76.9756664744
  0
ARC
  5
17F
330
1F
100
AcDbEntity
  8
0
  6
Continuous
 62
     7
370
     0
100
AcDbCircle
 10
95.0990854015
 20
222.351931291
 30
0.0
 40
0.5560000000000275
100
AcDbArc
 50
263.539245711
 51
298.4913009012
  0
ARC
  5
180
330
1F
100
AcDbEntity
  8
0
  6
Continuous
 62
     7
370
     0
100
AcDbCircle
 10
95.0990854015
 20
222.351931291
 30
0.0
 40
0.5560000000000074
100
AcDbArc
 50
312.0236112843
 51
346.9756664744
  0
ARC
  5
181
330
1F
100
AcDbEntity
  8
0
  6
Continuous
 62
     7
370
     0
100
AcDbCircle
 10
95.0990854015
 20
222.351931291
 30
0.0
 40
0.5560000000000038
100
AcDbArc
 50
173.539245711
 51
208.4913009012
  0
ARC
  5
182
330
1F
100
AcDbEntity
  8
0
  6
Continuous
 62
     7
370
     0
100
AcDbCircle
 10
95.0990854015
 20
222.351931291
 30
0.0
 40
0.5560000000000027
100
AcDbArc
 50
353.539245711
 51
28.4913009012
  0
ARC
  5
183
330
1F
100
AcDbEntity
  8
0
  6
Continuous
 62
     7
370
     0
100
AcDbCircle
 10
95.0990854015
 20
222.351931291
 30
0.0
 40
0.5560000000000129
100
AcDbArc
 50
222.0236112843
 51
256.9756664744
  0
LINE
  5
184
330
1F
100
AcDbEntity
  8
0
  6
Continuous
 62
     7
370
     0
100
AcDbLine
 10
89.6622110069
 20
238.5044521769
 30
0.0
 11
86.9708848096
 21
217.8759290954
 31
0.0
  0
ARC
  5
185
330
1F
100
AcDbEntity
  8
0
  6
Continuous
 62
     7
370
     0
100
AcDbCircle
 10
90.653807328
 20
238.3750825852
 30
0.0
 40
1.000000000000001
100
AcDbArc
 50
89.9868343239
 51
172.5668194287
  0
LINE
  5
186
330
1F
100
AcDbEntity
  8
0
  6
Continuous
 62
     7
370
     0
100
AcDbLine
 10
94.1758248866
 20
239.374273934
 30
0.0
 11
93.2027576402
 21
239.3744974514
 31
0.0
  0
LINE
  5
187
330
1F
100
AcDbEntity
  8
0
  6
Continuous
 62
     7
370
     0
100
AcDbLine
 10
90.6651471652
 20
239.3750785967
 30
0.0
 11
90.6540369525
 21
239.375082322
 31
0.0
  0
LINE
  5
188
330
1F
100
AcDbEntity
  8
0
  6
Continuous
 62
     7
370
     0
100
AcDbLine
 10
94.3636419162
 20
239.1863702914
 30
0.0
 11
94.1758248866
 21
239.374273934
 31
0.0
  0
LINE
  5
189
330
1F
100
AcDbEntity
  8
0
  6
Continuous
 62
     7
370
     0
100
AcDbLine
 10
86.9708848096
 20
217.8759290954
 30
0.0
 11
86.9705863208
 21
216.5768942913
 31
0.0
  0
LWPOLYLINE
  5
18A
330
1F
100
AcDbEntity
  8
0
  6
Continuous
 62
     8
370
     0
100
AcDbPolyline
 90
       10
 70
   128
 43
0.0
 10
66.6849659666
 20
204.4110144606
 10
66.5789050892
 20
203.8547503879
 10
66.4712963536
 20
203.2903838089
 10
66.3668485269
 20
202.7425835958
 10
66.2701232269
 20
202.2352884641
 10
66.1853486583
 20
201.7906732043
 10
66.1162296221
 20
201.428167068
 10
66.0657873288
 20
201.1636137148
 10
66.0362271503
 20
201.0085745832
 10
66.0285046235
 20
200.9680732271
  0
LWPOLYLINE
  5
18B
330
1F
100
AcDbEntity
  8
0
  6
Continuous
 62
     8
370
     0
100
AcDbPolyline
 90
        8
 70
   128
 43
0.0
 10
67.0586256221
 20
206.3707425376
 10
67.0582922086
 20
206.3689879259
 10
67.0431824312
 20
206.2897491386
 10
67.0062387273
 20
206.0959912022
 10
66.9490741476
 20
205.7961779764
 10
66.8741864994
 20
205.4034150323
 10
66.7848503128
 20
204.9348685076
 10
66.6849659666
 20
204.4110144606
  0
LWPOLYLINE
  5
18C
330
1F
100
AcDbEntity
  8
0
  6
Continuous
 62
     8
370
     0
100
AcDbPolyline
 90
       10
 70
   128
 43
0.0
 10
64.8120185271
 20
194.5879771491
 10
64.705955787
 20
194.0317121452
 10
64.5983489141
 20
193.4673464974
 10
64.4939010873
 20
192.919545353
 10
64.3971757874
 20
192.4122511526
 10
64.3124012187
 20
191.9676349616
 10
64.2432821825
 20
191.6051288253
 10
64.1928398892
 20
191.3405754721
 10
64.1632797107
 20
191.1855372717
 10
64.1555571839
 20
191.1450349843
  0
LWPOLYLINE
  5
18D
330
1F
100
AcDbEntity
  8
0
  6
Continuous
 62
     8
370
     0
100
AcDbPolyline
 90
        8
 70
   128
 43
0.0
 10
65.1856781825
 20
196.5477052262
 10
65.1853429064
 20
196.5459496831
 10
65.1702349916
 20
196.4667118272
 10
65.1332912877
 20
196.2729529595
 10
65.0761267081
 20
195.9731406649
 10
65.0012390599
 20
195.5803786522
 10
64.9119010106
 20
195.1118311962
 10
64.8120185271
 20
194.5879771491
  0
LWPOLYLINE
  5
18E
330
1F
100
AcDbEntity
  8
0
  6
Continuous
 62
     8
370
     0
100
AcDbPolyline
 90
       17
 70
   128
 43
0.0
 10
100.7705451831
 20
200.9680732271
 10
100.7688017473
 20
200.9772206774
 10
100.7487783119
 20
201.0822366109
 10
100.7071966216
 20
201.3003225556
 10
100.6458727553
 20
201.6219492188
 10
100.5674851969
 20
202.0330610802
 10
100.4754630759
 20
202.5156873396
 10
100.3738278434
 20
203.0487372657
 10
100.2670200452
 20
203.6089147558
 10
100.1597074702
 20
204.1717353394
 10
100.0565802589
 20
204.7126009246
 10
99.9621478751
 20
205.2078745445
 10
99.8805342153
 20
205.6359103998
 10
99.8153081074
 20
205.9780000826
 10
99.7693212613
 20
206.2191921404
 10
99.7445797458
 20
206.3489477267
 10
99.7404241845
 20
206.3707425376
  0
LWPOLYLINE
  5
18F
330
1F
100
AcDbEntity
  8
0
  6
Continuous
 62
     8
370
     0
100
AcDbPolyline
 90
       17
 70
   128
 43
0.0
 10
102.6434944853
 20
191.1450349843
 10
102.6417491868
 20
191.154183366
 10
102.6217257515
 20
191.2591983681
 10
102.5801440611
 20
191.4772852441
 10
102.5188201949
 20
191.7989119073
 10
102.4404344991
 20
192.2100228375
 10
102.3484123781
 20
192.6926500281
 10
102.2467752829
 20
193.2256999543
 10
102.1399674848
 20
193.7858765131
 10
102.0326549098
 20
194.3486970967
 10
101.9295295611
 20
194.8895626819
 10
101.8350953147
 20
195.3848363018
 10
101.7534816548
 20
195.812872157
 10
101.6882574096
 20
196.1549618399
 10
101.6422687009
 20
196.3961548289
 10
101.617529048
 20
196.5259104153
 10
101.613371624
 20
196.5477052262
  0
LWPOLYLINE
  5
190
330
1F
100
AcDbEntity
  8
0
  6
Continuous
 62
     8
370
     0
100
AcDbPolyline
 90
       12
 70
   128
 43
0.0
 10
98.3337601557
 20
236.0610305449
 10
98.3242206186
 20
236.0021672329
 10
98.2962548643
 20
235.8295931598
 10
98.2517665163
 20
235.5550690671
 10
98.1937879607
 20
235.1972996374
 10
98.1262707993
 20
234.7806668958
 10
98.0538157657
 20
234.3335650047
 10
97.981360732
 20
233.886466839
 10
97.9138435706
 20
233.4698340973
 10
97.8558650151
 20
233.1120646676
 10
97.811376667
 20
232.8375368496
 10
97.7978669017
 20
232.7541723033
  0
DIMENSION
  5
191
330
1F
100
AcDbEntity
  8
0
  6
Continuous
 62
     7
370
     0
100
AcDbDimension
  2
_D
 10
89.3995253093
 20
132.489991255
 30
0.0
 11
83.3995253093
 21
132.489991255
 31
0.0
 70
   160
  1
%%c<>
 71
     2
 42
-1.0
  3
SLDDIMSTYLE0
100
AcDbAlignedDimension
 13
77.3995253093
 23
149.1116446694
 33
0.0
 14
89.3995253093
 24
149.1116446694
 34
0.0
 50
0.0
100
AcDbRotatedDimension
  0
DIMENSION
  5
19F
330
1F
100
AcDbEntity
  8
0
  6
Continuous
 62
     7
370
     0
100
AcDbDimension
  2
_D_1
 10
91.3995253093
 20
125.9078307195
 30
0.0
 11
83.3995253093
 21
125.9078307195
 31
0.0
 70
   160
  1
<>
 71
     2
 42
-1.0
  3
SLDDIMSTYLE1
100
AcDbAlignedDimension
 13
75.3995253093
 23
168.6116446694
 33
0.0
 14
91.3995253093
 24
168.6116446694
 34
0.0
 50
0.0
100
AcDbRotatedDimension
  0
DIMENSION
  5
1AA
330
1F
100
AcDbEntity
  8
0
  6
Continuous
 62
     7
370
     0
100
AcDbDimension
  2
_D_2
 10
96.3995253093
 20
120.0372551067
 30
0.0
 11
83.3995253093
 21
120.0372551067
 31
0.0
 70
   160
  1
<>
 71
     2
 42
-1.0
  3
SLDDIMSTYLE1
100
AcDbAlignedDimension
 13
70.3995253093
 23
164.6116446694
 33
0.0
 14
96.3995253093
 24
164.6116446694
 34
0.0
 50
0.0
100
AcDbRotatedDimension
  0
DIMENSION
  5
1B4
330
1F
100
AcDbEntity
  8
0
  6
Continuous
 62
     7
370
     0
100
AcDbDimension
  2
_D_3
 10
107.6539893646
 20
168.6116446694
 30
0.0
 11
107.6539893646
 21
166.6116446694
 31
0.0
 70
   160
  1
<>
 71
     2
 42
-1.0
  3
SLDDIMSTYLE0
100
AcDbAlignedDimension
 13
96.3995253093
 23
164.6116446694
 33
0.0
 14
91.3995253093
 24
168.6116446694
 34
0.0
 50
90.0
100
AcDbRotatedDimension
  0
DIMENSION
  5
1C0
330
1F
100
AcDbEntity
  8
0
  6
Continuous
 62
     7
370
     0
100
AcDbDimension
  2
_D_4
 10
107.6539893646
 20
194.6116446694
 30
0.0
 11
107.6539893646
 21
181.6116446694
 31
0.0
 70
   160
  1
<>
 71
     2
 42
-1.0
  3
SLDDIMSTYLE1
100
AcDbAlignedDimension
 13
91.3995253093
 23
168.6116446694
 33
0.0
 14
83.3995253093
 24
194.6116446694
 34
0.0
 50
90.0
100
AcDbRotatedDimension
  0
DIMENSION
  5
1CA
330
1F
100
AcDbEntity
  8
0
  6
Continuous
 62
     7
370
     0
100
AcDbDimension
  2
_D_5
 10
118.2034960947
 20
164.6116446694
 30
0.0
 11
118.2034960947
 21
186.7116446694
 31
0.0
 70
   160
  1
<>
 71
     2
 42
-1.0
  3
SLDDIMSTYLE1
100
AcDbAlignedDimension
 13
86.3995253093
 23
208.8116446694
 33
0.0
 14
96.3995253093
 24
164.6116446694
 34
0.0
 50
90.0
100
AcDbRotatedDimension
  0
DIMENSION
  5
1D4
330
1F
100
AcDbEntity
  8
0
  6
Continuous
 62
     7
370
     0
100
AcDbDimension
  2
_D_6
 10
118.2034960947
 20
148.6116446694
 30
0.0
 11
118.2034960947
 21
156.6116446694
 31
0.0
 70
   160
  1
<>
 71
     2
 42
-1.0
  3
SLDDIMSTYLE1
100
AcDbAlignedDimension
 13
96.3995253093
 23
164.6116446694
 33
0.0
 14
88.8995253093
 24
148.6116446694
 34
0.0
 50
90.0
100
AcDbRotatedDimension
  0
DIMENSION
  5
1DE
330
1F
100
AcDbEntity
  8
0
  6
Continuous
 62
     7
370
     0
100
AcDbDimension
  2
_D_7
 10
128.9041773351
 20
239.7752210022
 30
0.0
 11
128.9041773351
 21
189.1934328358
 31
0.0
 70
   160
  1
(<>)
 71
     2
 42
-1.0
  3
SLDDIMSTYLE1
100
AcDbAlignedDimension
 13
84.8995253093
 23
138.6116446694
 33
0.0
 14
90.7299921732
 24
239.7752210022
 34
0.0
 50
90.0
100
AcDbRotatedDimension
  0
DIMENSION
  5
1EA
330
1F
100
AcDbEntity
  8
0
  6
Continuous
 62
     7
370
     0
100
AcDbDimension
  2
_D_8
 10
90.7299921732
 20
248.2992251223
 30
0.0
 11
83.3995253093
 21
248.2992251223
 31
0.0
 70
   160
  1
(<>)
 71
     2
 42
-1.0
  3
SLDDIMSTYLE0
100
AcDbAlignedDimension
 13
76.0690584454
 23
239.7752210022
 33
0.0
 14
90.7299921732
 24
239.7752210022
 34
0.0
 50
0.0
100
AcDbRotatedDimension
  0
DIMENSION
  5
1F8
330
1F
100
AcDbEntity
  8
0
  6
Continuous
 62
     7
370
     0
100
AcDbDimension
  2
_D_9
 10
77.1315761168
 20
167.6116446694
 30
0.0
 11
44.4154710773
 21
180.2497636208
 31
0.0
 70
   163
  1
3-<>取付穴\P(両側口元面取有)
 71
     1
 42
-1.0
  3
SLDDIMSTYLE2
100
AcDbDiametricDimension
 15
73.6674745017
 25
169.6116446694
 35
0.0
 40
0.0
  0
INSERT
  5
209
330
1F
100
AcDbEntity
  8
0
  6
Continuous
 62
     7
370
     0
100
AcDbBlockReference
  2
SW_NOTE_0
 10
49.083057341
 20
153.3692495884
 30
0.0
  0
LEADER
  5
20B
330
1F
100
AcDbEntity
  8
0
  6
Continuous
 62
     7
370
     0
100
AcDbLeader
  3
SLDDIMSTYLE3
 76
     2
 10
82.3547953593
 20
142.0799943427
 30
0.0
 10
49.083057341
 20
153.3692495884
 30
0.0
  0
INSERT
  5
211
330
1F
100
AcDbEntity
  8
0
  6
Continuous
 62
     7
370
     0
100
AcDbBlockReference
  2
SW_NOTE_1
 10
61.097600023
 20
214.6283294915
 30
0.0
  0
LEADER
  5
219
330
1F
100
AcDbEntity
  8
0
  6
Continuous
 62
     7
370
     0
100
AcDbLeader
  3
SLDDIMSTYLE4
 76
     2
 10
66.6955477985
 20
204.4665089542
 30
0.0
 10
61.097600023
 20
214.6283294915
 30
0.0
  0
INSERT
  5
225
330
1F
100
AcDbEntity
  8
0
  6
Continuous
 62
     7
370
     0
100
AcDbBlockReference
  2
SW_CENTERMARKSYMBOL_0
 10
73.3995253093
 20
198.1116446694
 30
0.0
  0
INSERT
  5
231
330
1F
100
AcDbEntity
  8
0
  6
Continuous
 62
     7
370
     0
100
AcDbBlockReference
  2
SW_CENTERMARKSYMBOL_1
 10
83.3995253093
 20
194.6116446694
 30
0.0
  0
INSERT
  5
23D
330
1F
100
AcDbEntity
  8
0
  6
Continuous
 62
     7
370
     0
100
AcDbBlockReference
  2
SW_CENTERMARKSYMBOL_2
 10
93.3995253093
 20
198.1116446694
 30
0.0
  0
INSERT
  5
249
330
1F
100
AcDbEntity
  8
0
  6
Continuous
 62
     7
370
     0
100
AcDbBlockReference
  2
SW_CENTERMARKSYMBOL_3
 10
91.3995253093
 20
168.6116446694
 30
0.0
  0
INSERT
  5
255
330
1F
100
AcDbEntity
  8
0
  6
Continuous
 62
     7
370
     0
100
AcDbBlockReference
  2
SW_CENTERMARKSYMBOL_4
 10
75.3995253093
 20
168.6116446694
 30
0.0
  0
CIRCLE
  5
256
330
1F
100
AcDbEntity
  8
0
  6
Continuous
 62
     7
370
     0
100
AcDbCircle
 10
75.3995253093
 20
168.6116446694
 30
0.0
 40
1.999999752660798
  0
CIRCLE
  5
257
330
1F
100
AcDbEntity
  8
0
  6
Continuous
 62
     7
370
     0
100
AcDbCircle
 10
91.3995253093
 20
168.6116446694
 30
0.0
 40
1.999999752660798
  0
CIRCLE
  5
258
330
1F
100
AcDbEntity
  8
0
  6
Continuous
 62
     7
370
     0
100
AcDbCircle
 10
83.3995253093
 20
194.6116446694
 30
0.0
 40
2.00000014754157
  0
LINE
  5
259
330
1F
100
AcDbEntity
  8
0
  6
CENTERX2
 62
     7
370
     0
100
AcDbLine
 10
83.3995253093
 20
137.737201979
 30
0.0
 11
83.3995253093
 21
240.9223728814
 31
0.0
  0
LINE
  5
25A
330
1F
100
AcDbEntity
  8
0
  6
Continuous
 62
     7
370
     0
100
AcDbLine
 10
64.6706176832
 20
78.949090286
 30
0.0
 11
65.3158659026
 21
78.949090286
 31
0.0
  0
LINE
  5
25B
330
1F
100
AcDbEntity
  8
0
  6
Continuous
 62
     7
370
     0
100
AcDbLine
 10
65.3158659026
 20
84.4490902562
 30
0.0
 11
64.6706176832
 21
84.4490902562
 31
0.0
  0
SPLINE
  5
25C
330
1F
100
AcDbEntity
  8
0
  6
Continuous
 62
     7
370
     0
100
AcDbSpline
210
0.0
220
0.0
230
1.0
 70
     8
 71
     3
 72
    10
 73
     6
 74
     0
 42
0.000000001
 43
0.00000001
 40
0.0
 40
0.0
 40
0.0
 40
0.0
 40
0.2504077567999723
 40
0.6778637045309086
 40
1.0
 40
1.0
 40
1.0
 40
1.0
 10
64.3588052973079
 20
79.17610435454891
 30
0.0
 10
64.37264175964548
 20
79.1480308280339
 30
0.0
 10
64.4100976106048
 20
79.07203468108578
 30
0.0
 10
64.49617814435638
 20
78.98624049144837
 30
0.0
 10
64.59897320923945
 20
78.96614629429092
 30
0.0
 10
64.6431492552089
 20
78.95751083909319
 30
0.0
  0
SPLINE
  5
25D
330
1F
100
AcDbEntity
  8
0
  6
Continuous
 62
     7
370
     0
100
AcDbSpline
210
0.0
220
0.0
230
1.0
 70
     8
 71
     3
 72
    11
 73
     7
 74
     0
 42
0.000000001
 43
0.00000001
 40
0.0
 40
0.0
 40
0.0
 40
0.0
 40
0.1397748343858009
 40
0.4730540554707249
 40
0.8309550792545543
 40
1.0
 40
1.0
 40
1.0
 40
1.0
 10
64.66081644444935
 20
84.43725687159942
 30
0.0
 10
64.63692598956591
 20
84.43910971122678
 30
0.0
 10
64.55607111594499
 20
84.44538046306637
 30
0.0
 10
64.44609610708348
 20
84.35787575686088
 30
0.0
 10
64.3712881197465
 20
84.27315036421788
 30
0.0
 10
64.33788990822613
 20
84.19492443369263
 30
0.0
 10
64.3271757200288
 20
84.16982945694373
 30
0.0
  0
LINE
  5
25E
330
1F
100
AcDbEntity
  8
0
  6
Continuous
 62
     7
370
     0
100
AcDbLine
 10
102.128433986
 20
84.4490902562
 30
0.0
 11
101.483183904
 21
84.4490902562
 31
0.0
  0
LINE
  5
25F
330
1F
100
AcDbEntity
  8
0
  6
Continuous
 62
     7
370
     0
100
AcDbLine
 10
101.483183904
 20
78.949090286
 30
0.0
 11
102.128433986
 21
78.949090286
 31
0.0
  0
SPLINE
  5
260
330
1F
100
AcDbEntity
  8
0
  6
Continuous
 62
     7
370
     0
100
AcDbSpline
210
0.0
220
0.0
230
1.0
 70
     8
 71
     3
 72
    11
 73
     7
 74
     0
 42
0.000000001
 43
0.00000001
 40
0.0
 40
0.0
 40
0.0
 40
0.0
 40
0.1531542102029884
 40
0.544704567007595
 40
0.9059880794318506
 40
1.0
 40
1.0
 40
1.0
 40
1.0
 10
102.4356456383991
 20
84.2334725492333
 30
0.0
 10
102.4262560361882
 20
84.25313255266252
 30
0.0
 10
102.3928612036216
 20
84.32305484628466
 30
0.0
 10
102.3094152248887
 20
84.39676038313434
 30
0.0
 10
102.1797769038679
 20
84.4634716516274
 30
0.0
 10
102.1139582489867
 20
84.4426060661369
 30
0.0
 10
102.1003676488923
 20
84.43829762457655
 30
0.0
  0
SPLINE
  5
261
330
1F
100
AcDbEntity
  8
0
  6
Continuous
 62
     7
370
     0
100
AcDbSpline
210
0.0
220
0.0
230
1.0
 70
     8
 71
     3
 72
    11
 73
     7
 74
     0
 42
0.000000001
 43
0.00000001
 40
0.0
 40
0.0
 40
0.0
 40
0.0
 40
0.1230658276221784
 40
0.4485609321470208
 40
0.7923548017648746
 40
1.0
 40
1.0
 40
1.0
 40
1.0
 10
102.1342603400277
 20
78.96046802109824
 30
0.0
 10
102.1556768874839
 20
78.95802949737066
 30
0.0
 10
102.2337377649501
 20
78.94914135597962
 30
0.0
 10
102.3458479085826
 20
79.03294020992469
 30
0.0
 10
102.4252124588463
 20
79.12146665247951
 30
0.0
 10
102.4613994260241
 20
79.20427838638864
 30
0.0
 10
102.4750256821441
 20
79.23546126751945
 30
0.0
  0
LINE
  5
262
330
1F
100
AcDbEntity
  8
0
  6
Continuous
 62
     7
370
     0
100
AcDbLine
 10
112.904152824
 20
78.9990902011
 30
0.0
 11
112.904152824
 21
84.3990903412
 31
0.0
  0
LINE
  5
263
330
1F
100
AcDbEntity
  8
0
  6
Continuous
 62
     7
370
     0
100
AcDbLine
 10
108.1294892266
 20
82.0490902587
 30
0.0
 11
107.3296489105
 21
82.0490902587
 31
0.0
  0
LINE
  5
264
330
1F
100
AcDbEntity
  8
0
  6
Continuous
 62
     7
370
     0
100
AcDbLine
 10
107.3296489105
 20
81.3490902836
 30
0.0
 11
108.1294892266
 21
81.3490902836
 31
0.0
  0
LINE
  5
265
330
1F
100
AcDbEntity
  8
0
  6
Continuous
 62
     7
370
     0
100
AcDbLine
 10
106.1552455559
 20
82.0490902587
 30
0.0
 11
105.3554052398
 21
82.0490902587
 31
0.0
  0
LINE
  5
266
330
1F
100
AcDbEntity
  8
0
  6
Continuous
 62
     7
370
     0
100
AcDbLine
 10
105.3554052398
 20
81.3490902836
 30
0.0
 11
106.1552455559
 21
81.3490902836
 31
0.0
  0
LINE
  5
267
330
1F
100
AcDbEntity
  8
0
  6
Continuous
 62
     7
370
     0
100
AcDbLine
 10
108.6093941614
 20
82.3990902462
 30
0.0
 11
108.1294892266
 21
82.3990902462
 31
0.0
  0
LINE
  5
268
330
1F
100
AcDbEntity
  8
0
  6
Continuous
 62
     7
370
     0
100
AcDbLine
 10
108.1294892266
 20
80.9990902961
 30
0.0
 11
108.6093941614
 21
80.9990902961
 31
0.0
  0
LINE
  5
269
330
1F
100
AcDbEntity
  8
0
  6
Continuous
 62
     7
370
     0
100
AcDbLine
 10
106.635148628
 20
82.3990902462
 30
0.0
 11
106.1552455559
 21
82.3990902462
 31
0.0
  0
LINE
  5
26A
330
1F
100
AcDbEntity
  8
0
  6
Continuous
 62
     7
370
     0
100
AcDbLine
 10
106.1552455559
 20
80.9990902961
 30
0.0
 11
106.635148628
 21
80.9990902961
 31
0.0
  0
LINE
  5
26B
330
1F
100
AcDbEntity
  8
0
  6
Continuous
 62
     7
370
     0
100
AcDbLine
 10
105.5241478518
 20
84.0952270263
 30
0.0
 11
105.5241478518
 21
82.0490902587
 31
0.0
  0
LINE
  5
26C
330
1F
100
AcDbEntity
  8
0
  6
Continuous
 62
     7
370
     0
100
AcDbLine
 10
105.5241478518
 20
81.3490902836
 30
0.0
 11
105.5241478518
 21
79.302953516
 31
0.0
  0
SPLINE
  5
26D
330
1F
100
AcDbEntity
  8
0
  6
Continuous
 62
     7
370
     0
100
AcDbSpline
210
0.0
220
0.0
230
1.0
 70
     8
 71
     3
 72
    12
 73
     8
 74
     0
 42
0.000000001
 43
0.00000001
 40
0.0
 40
0.0
 40
0.0
 40
0.0
 40
0.1695557125216696
 40
0.3890811479951548
 40
0.6152142207304465
 40
0.8251758904916685
 40
1.0
 40
1.0
 40
1.0
 40
1.0
 10
105.5253175929114
 20
79.3090806872283
 30
0.0
 10
105.5257419465477
 20
79.2907912688449
 30
0.0
 10
105.5267157149776
 20
79.24882236201807
 30
0.0
 10
105.5556983296223
 20
79.18597461500502
 30
0.0
 10
105.606229856233
 20
79.13409868093218
 30
0.0
 10
105.6676241735642
 20
79.10390525614416
 30
0.0
 10
105.7091456928596
 20
79.10059448462256
 30
0.0
 10
105.7280106380507
 20
79.09909026405559
 30
0.0
  0
SPLINE
  5
26E
330
1F
100
AcDbEntity
  8
0
  6
Continuous
 62
     7
370
     0
100
AcDbSpline
210
0.0
220
0.0
230
1.0
 70
     8
 71
     3
 72
    12
 73
     8
 74
     0
 42
0.000000001
 43
0.00000001
 40
0.0
 40
0.0
 40
0.0
 40
0.0
 40
0.2025396902830892
 40
0.425246650579153
 40
0.6508759196209405
 40
0.8497385356440806
 40
1.0
 40
1.0
 40
1.0
 40
1.0
 10
105.7280106380507
 20
84.2990902782117
 30
0.0
 10
105.7061081316063
 20
84.29706915430548
 30
0.0
 10
105.6601222436465
 20
84.29282565926346
 30
0.0
 10
105.5963531921331
 20
84.25682211159842
 30
0.0
 10
105.5499146339227
 20
84.2024278741181
 30
0.0
 10
105.526096245496
 20
84.14284005136206
 30
0.0
 10
105.5252185234504
 20
84.10525361039073
 30
0.0
 10
105.5248407557532
 20
84.08907657197462
 30
0.0
  0
LINE
  5
26F
330
1F
100
AcDbEntity
  8
0
  6
Continuous
 62
     7
370
     0
100
AcDbLine
 10
102.5832602665
 20
78.9990902011
 30
0.0
 11
102.5832602665
 21
78.6990902451
 31
0.0
  0
LINE
  5
270
330
1F
100
AcDbEntity
  8
0
  6
Continuous
 62
     7
370
     0
100
AcDbLine
 10
102.5832602665
 20
78.1990901631
 30
0.0
 11
102.5832602665
 21
77.7990903769
 31
0.0
  0
LINE
  5
271
330
1F
100
AcDbEntity
  8
0
  6
Continuous
 62
     7
370
     0
100
AcDbLine
 10
105.5832588956
 20
77.7990903769
 30
0.0
 11
105.5832588956
 21
78.1990901631
 31
0.0
  0
LINE
  5
272
330
1F
100
AcDbEntity
  8
0
  6
Continuous
 62
     7
370
     0
100
AcDbLine
 10
105.5832588956
 20
78.6990902451
 30
0.0
 11
105.5832588956
 21
78.9990902011
 31
0.0
  0
LINE
  5
273
330
1F
100
AcDbEntity
  8
0
  6
Continuous
 62
     7
370
     0
100
AcDbLine
 10
102.5832602665
 20
77.7990903769
 30
0.0
 11
102.8832597569
 21
77.4990904209
 31
0.0
  0
LINE
  5
274
330
1F
100
AcDbEntity
  8
0
  6
Continuous
 62
     7
370
     0
100
AcDbLine
 10
105.2832594052
 20
77.4990904209
 30
0.0
 11
105.5832588956
 21
77.7990903769
 31
0.0
  0
LINE
  5
275
330
1F
100
AcDbEntity
  8
0
  6
Continuous
 62
     7
370
     0
100
AcDbLine
 10
105.5832588956
 20
84.3990903412
 30
0.0
 11
105.5832588956
 21
84.6990902972
 31
0.0
  0
LINE
  5
276
330
1F
100
AcDbEntity
  8
0
  6
Continuous
 62
     7
370
     0
100
AcDbLine
 10
105.5832588956
 20
85.1990903792
 30
0.0
 11
105.5832588956
 21
85.5990901653
 31
0.0
  0
LINE
  5
277
330
1F
100
AcDbEntity
  8
0
  6
Continuous
 62
     7
370
     0
100
AcDbLine
 10
102.5832602665
 20
85.5990901653
 30
0.0
 11
102.5832602665
 21
85.1990903792
 31
0.0
  0
LINE
  5
278
330
1F
100
AcDbEntity
  8
0
  6
Continuous
 62
     7
370
     0
100
AcDbLine
 10
102.5832602665
 20
84.6990902972
 30
0.0
 11
102.5832602665
 21
84.3990903412
 31
0.0
  0
LINE
  5
279
330
1F
100
AcDbEntity
  8
0
  6
Continuous
 62
     7
370
     0
100
AcDbLine
 10
105.5832588956
 20
85.5990901653
 30
0.0
 11
105.2832594052
 21
85.8990901214
 31
0.0
  0
LINE
  5
27A
330
1F
100
AcDbEntity
  8
0
  6
Continuous
 62
     7
370
     0
100
AcDbLine
 10
102.8832597569
 20
85.8990901214
 30
0.0
 11
102.5832602665
 21
85.5990901653
 31
0.0
  0
LINE
  5
27B
330
1F
100
AcDbEntity
  8
0
  6
Continuous
 62
     7
370
     0
100
AcDbLine
 10
97.5990854114
 20
85.1990903792
 30
0.0
 11
97.5990854114
 21
86.3040859875
 31
0.0
  0
ARC
  5
27C
330
1F
100
AcDbEntity
  8
0
  6
Continuous
 62
     7
370
     0
100
AcDbCircle
 10
97.3590854015
 20
86.3040861114
 30
0.0
 40
0.2400000000000091
100
AcDbArc
 50
0.0
 51
53.0538731033
  0
ARC
  5
27D
330
1F
100
AcDbEntity
  8
0
  6
Continuous
 62
     7
370
     0
100
AcDbCircle
 10
95.0990854015
 20
83.2990902711
 30
0.0
 40
3.999999999999998
100
AcDbArc
 50
53.0538731033
 51
71.0277619604
  0
LINE
  5
27E
330
1F
100
AcDbEntity
  8
0
  6
Continuous
 62
     7
370
     0
100
AcDbLine
 10
97.5990854114
 20
77.0940945548
 30
0.0
 11
97.5990854114
 21
78.1990901631
 31
0.0
  0
ARC
  5
27F
330
1F
100
AcDbEntity
  8
0
  6
Continuous
 62
     7
370
     0
100
AcDbCircle
 10
97.3590854015
 20
77.0940944309
 30
0.0
 40
0.2400000000000091
100
AcDbArc
 50
306.9461268967
 51
0.0
  0
ARC
  5
280
330
1F
100
AcDbEntity
  8
0
  6
Continuous
 62
     7
370
     0
100
AcDbCircle
 10
95.0990854015
 20
80.0990902711
 30
0.0
 40
3.999999999999994
100
AcDbArc
 50
288.9722380396
 51
306.9461268967
  0
CIRCLE
  5
281
330
1F
100
AcDbEntity
  8
0
  6
Continuous
 62
     7
370
     0
100
AcDbCircle
 10
83.3995253093
 20
81.6990902711
 30
0.0
 40
5.500000000000028
  0
CIRCLE
  5
282
330
1F
100
AcDbEntity
  8
0
  6
Continuous
 62
     7
370
     0
100
AcDbCircle
 10
83.3995253093
 20
81.6990902711
 30
0.0
 40
6.0
  0
CIRCLE
  5
283
330
1F
100
AcDbEntity
  8
0
  6
Continuous
 62
     7
370
     0
100
AcDbCircle
 10
83.3995253093
 20
81.6990902711
 30
0.0
 40
1.0
  0
LINE
  5
284
330
1F
100
AcDbEntity
  8
0
  6
Continuous
 62
     7
370
     0
100
AcDbLine
 10
95.3995250076
 20
75.199090137
 30
0.0
 11
96.3995251715
 21
76.1990903009
 31
0.0
  0
LINE
  5
285
330
1F
100
AcDbEntity
  8
0
  6
Continuous
 62
     7
370
     0
100
AcDbLine
 10
71.3995257303
 20
75.199090137
 30
0.0
 11
95.3995250076
 21
75.199090137
 31
0.0
  0
LINE
  5
286
330
1F
100
AcDbEntity
  8
0
  6
Continuous
 62
     7
370
     0
100
AcDbLine
 10
70.3995255664
 20
87.1990902413
 30
0.0
 11
70.3995255664
 21
76.1990903009
 31
0.0
  0
LINE
  5
287
330
1F
100
AcDbEntity
  8
0
  6
Continuous
 62
     7
370
     0
100
AcDbLine
 10
71.3995257303
 20
88.1990904052
 30
0.0
 11
70.3995255664
 21
87.1990902413
 31
0.0
  0
LINE
  5
288
330
1F
100
AcDbEntity
  8
0
  6
Continuous
 62
     7
370
     0
100
AcDbLine
 10
71.3995257303
 20
88.1990904052
 30
0.0
 11
95.3995250076
 21
88.1990904052
 31
0.0
  0
LINE
  5
289
330
1F
100
AcDbEntity
  8
0
  6
Continuous
 62
     7
370
     0
100
AcDbLine
 10
96.3995251715
 20
87.1990902413
 30
0.0
 11
95.3995250076
 21
88.1990904052
 31
0.0
  0
LINE
  5
28A
330
1F
100
AcDbEntity
  8
0
  6
Continuous
 62
     7
370
     0
100
AcDbLine
 10
96.3995251715
 20
87.1990902413
 30
0.0
 11
96.3995251715
 21
76.1990903009
 31
0.0
  0
LINE
  5
28B
330
1F
100
AcDbEntity
  8
0
  6
Continuous
 62
     7
370
     0
100
AcDbLine
 10
70.3995255664
 20
76.1990903009
 30
0.0
 11
71.3995257303
 21
75.199090137
 31
0.0
  0
LINE
  5
28C
330
1F
100
AcDbEntity
  8
0
  6
Continuous
 62
     7
370
     0
100
AcDbLine
 10
66.4946315721
 20
83.1990902842
 30
0.0
 11
66.4946315721
 21
80.1990902581
 31
0.0
  0
LINE
  5
28D
330
1F
100
AcDbEntity
  8
0
  6
Continuous
 62
     7
370
     0
100
AcDbLine
 10
66.7884508058
 20
80.1990902581
 30
0.0
 11
66.4946315721
 21
80.1990902581
 31
0.0
  0
LINE
  5
28E
330
1F
100
AcDbEntity
  8
0
  6
Continuous
 62
     7
370
     0
100
AcDbLine
 10
68.1745083913
 20
79.9889487278
 30
0.0
 11
67.9680863306
 21
80.1990902581
 31
0.0
  0
LINE
  5
28F
330
1F
100
AcDbEntity
  8
0
  6
Continuous
 62
     7
370
     0
100
AcDbLine
 10
65.3158659026
 20
84.6990902972
 30
0.0
 11
65.3158659026
 21
78.6990902451
 31
0.0
  0
LINE
  5
290
330
1F
100
AcDbEntity
  8
0
  6
Continuous
 62
     7
370
     0
100
AcDbLine
 10
65.3158659026
 20
84.6990902972
 30
0.0
 11
68.1745083913
 21
84.6990902972
 31
0.0
  0
LINE
  5
291
330
1F
100
AcDbEntity
  8
0
  6
Continuous
 62
     7
370
     0
100
AcDbLine
 10
67.9680863306
 20
83.1990902842
 30
0.0
 11
68.1745083913
 21
83.4092318144
 31
0.0
  0
LINE
  5
292
330
1F
100
AcDbEntity
  8
0
  6
Continuous
 62
     7
370
     0
100
AcDbLine
 10
66.4946315721
 20
83.1990902842
 30
0.0
 11
66.7884508058
 21
83.1990902842
 31
0.0
  0
LINE
  5
293
330
1F
100
AcDbEntity
  8
0
  6
Continuous
 62
     7
370
     0
100
AcDbLine
 10
65.3158659026
 20
78.6990902451
 30
0.0
 11
68.1745083913
 21
78.6990902451
 31
0.0
  0
LINE
  5
294
330
1F
100
AcDbEntity
  8
0
  6
Continuous
 62
     7
370
     0
100
AcDbLine
 10
101.483183904
 20
78.6990902451
 30
0.0
 11
101.483183904
 21
84.6990902972
 31
0.0
  0
LINE
  5
295
330
1F
100
AcDbEntity
  8
0
  6
Continuous
 62
     7
370
     0
100
AcDbLine
 10
98.8309644073
 20
80.1990902581
 30
0.0
 11
98.6245414153
 21
79.9889487278
 31
0.0
  0
LINE
  5
296
330
1F
100
AcDbEntity
  8
0
  6
Continuous
 62
     7
370
     0
100
AcDbLine
 10
100.3044200972
 20
80.1990902581
 30
0.0
 11
100.0105990007
 21
80.1990902581
 31
0.0
  0
LINE
  5
297
330
1F
100
AcDbEntity
  8
0
  6
Continuous
 62
     7
370
     0
100
AcDbLine
 10
100.3044200972
 20
80.1990902581
 30
0.0
 11
100.3044200972
 21
83.1990902842
 31
0.0
  0
LINE
  5
298
330
1F
100
AcDbEntity
  8
0
  6
Continuous
 62
     7
370
     0
100
AcDbLine
 10
100.0105990007
 20
83.1990902842
 30
0.0
 11
100.3044200972
 21
83.1990902842
 31
0.0
  0
LINE
  5
299
330
1F
100
AcDbEntity
  8
0
  6
Continuous
 62
     7
370
     0
100
AcDbLine
 10
98.6245414153
 20
83.4092318144
 30
0.0
 11
98.8309644073
 21
83.1990902842
 31
0.0
  0
LINE
  5
29A
330
1F
100
AcDbEntity
  8
0
  6
Continuous
 62
     7
370
     0
100
AcDbLine
 10
101.483183904
 20
84.6990902972
 30
0.0
 11
98.6245414153
 21
84.6990902972
 31
0.0
  0
LINE
  5
29B
330
1F
100
AcDbEntity
  8
0
  6
Continuous
 62
     7
370
     0
100
AcDbLine
 10
101.483183904
 20
78.6990902451
 30
0.0
 11
98.6245414153
 21
78.6990902451
 31
0.0
  0
LINE
  5
29C
330
1F
100
AcDbEntity
  8
0
  6
Continuous
 62
     7
370
     0
100
AcDbLine
 10
96.8844909131
 20
85.3990902723
 30
0.0
 11
96.8844909131
 21
84.6990902972
 31
0.0
  0
LINE
  5
29D
330
1F
100
AcDbEntity
  8
0
  6
Continuous
 62
     7
370
     0
100
AcDbLine
 10
96.8844909131
 20
85.3990902723
 30
0.0
 11
97.3643949166
 21
85.3990902723
 31
0.0
  0
LINE
  5
29E
330
1F
100
AcDbEntity
  8
0
  6
Continuous
 62
     7
370
     0
100
AcDbLine
 10
97.3643949166
 20
85.3990902723
 30
0.0
 11
97.3643949166
 21
84.6990902972
 31
0.0
  0
LINE
  5
29F
330
1F
100
AcDbEntity
  8
0
  6
Continuous
 62
     7
370
     0
100
AcDbLine
 10
97.3643949166
 20
77.99909027
 30
0.0
 11
97.3643949166
 21
78.6990902451
 31
0.0
  0
LINE
  5
2A0
330
1F
100
AcDbEntity
  8
0
  6
Continuous
 62
     7
370
     0
100
AcDbLine
 10
97.3643949166
 20
77.99909027
 30
0.0
 11
96.8844909131
 21
77.99909027
 31
0.0
  0
LINE
  5
2A1
330
1F
100
AcDbEntity
  8
0
  6
Continuous
 62
     7
370
     0
100
AcDbLine
 10
96.8844909131
 20
77.99909027
 30
0.0
 11
96.8844909131
 21
78.6990902451
 31
0.0
  0
LINE
  5
2A2
330
1F
100
AcDbEntity
  8
0
  6
Continuous
 62
     7
370
     0
100
AcDbLine
 10
96.8844909131
 20
77.99909027
 30
0.0
 11
96.3995251715
 21
77.99909027
 31
0.0
  0
LINE
  5
2A3
330
1F
100
AcDbEntity
  8
0
  6
Continuous
 62
     7
370
     0
100
AcDbLine
 10
96.3995251715
 20
85.3990902723
 30
0.0
 11
96.8844909131
 21
85.3990902723
 31
0.0
  0
LINE
  5
2A4
330
1F
100
AcDbEntity
  8
0
  6
Continuous
 62
     7
370
     0
100
AcDbLine
 10
98.1521364212
 20
77.99909027
 30
0.0
 11
97.5990854114
 21
77.99909027
 31
0.0
  0
LINE
  5
2A5
330
1F
100
AcDbEntity
  8
0
  6
Continuous
 62
     7
370
     0
100
AcDbLine
 10
98.1521364212
 20
77.99909027
 30
0.0
 11
98.1521364212
 21
78.1990901631
 31
0.0
  0
LINE
  5
2A6
330
1F
100
AcDbEntity
  8
0
  6
Continuous
 62
     7
370
     0
100
AcDbLine
 10
97.5990854114
 20
85.3990902723
 30
0.0
 11
98.1521364212
 21
85.3990902723
 31
0.0
  0
LINE
  5
2A7
330
1F
100
AcDbEntity
  8
0
  6
Continuous
 62
     7
370
     0
100
AcDbLine
 10
98.1521364212
 20
85.1990903792
 30
0.0
 11
98.1521364212
 21
85.3990902723
 31
0.0
  0
ARC
  5
2A8
330
1F
100
AcDbEntity
  8
0
  6
Continuous
 62
     7
370
     0
100
AcDbCircle
 10
72.0585605845
 20
81.70970633
 30
0.0
 40
8.109212991816761
100
AcDbArc
 50
162.9901317828
 51
197.3985299983
  0
LINE
  5
2A9
330
1F
100
AcDbEntity
  8
0
  6
Continuous
 62
     7
370
     0
100
AcDbLine
 10
102.128433986
 20
84.4490902562
 30
0.0
 11
102.1178634748
 21
84.4485112064
 31
0.0
  0
ARC
  5
2AA
330
1F
100
AcDbEntity
  8
0
  6
Continuous
 62
     7
370
     0
100
AcDbCircle
 10
94.4222530015
 20
81.6838208814
 30
0.0
 40
8.413748972636656
100
AcDbArc
 50
343.6951527156
 51
16.8128841748
  0
CIRCLE
  5
2AB
330
1F
100
AcDbEntity
  8
0
  6
Continuous
 62
     7
370
     0
100
AcDbCircle
 10
83.3995253093
 20
81.6990902711
 30
0.0
 40
1.800000000000012
  0
CIRCLE
  5
2AC
330
1F
100
AcDbEntity
  8
0
  6
Continuous
 62
     7
370
     0
100
AcDbCircle
 10
83.3995253093
 20
81.6990902711
 30
0.0
 40
1.500000000000012
  0
CIRCLE
  5
2AD
330
1F
100
AcDbEntity
  8
0
  6
Continuous
 62
     7
370
     0
100
AcDbCircle
 10
83.3995253093
 20
81.6990902711
 30
0.0
 40
1.050000000000006
  0
ARC
  5
2AE
330
1F
100
AcDbEntity
  8
0
  6
Continuous
 62
     7
370
     0
100
AcDbCircle
 10
83.3995253093
 20
81.6990902711
 30
0.0
 40
4.2999999999704
100
AcDbArc
 50
172.0261705189
 51
188.9683617045
  0
SPLINE
  5
2AF
330
1F
100
AcDbEntity
  8
0
  6
Continuous
 62
     7
370
     0
100
AcDbSpline
210
0.0
220
0.0
230
1.0
 70
    24
 71
     3
 72
     8
 73
     4
 74
     0
 42
0.000000001
 43
0.00000001
 40
0.0
 40
0.0
 40
0.0
 40
0.0
 40
1.0
 40
1.0
 40
1.0
 40
1.0
 10
79.14109971177157
 20
82.29558958230578
 30
0.0
 10
79.39199057742935
 20
82.73898831996647
 30
0.0
 10
79.64980163461996
 20
83.19461709311284
 30
0.0
 10
79.91819651415285
 20
83.6689506264102
 30
0.0
  0
ARC
  5
2B0
330
1F
100
AcDbEntity
  8
0
  6
Continuous
 62
     7
370
     0
100
AcDbCircle
 10
83.3995253093
 20
81.6990902711
 30
0.0
 40
3.999999999940344
100
AcDbArc
 50
150.4972661119
 51
210.4972661049
  0
SPLINE
  5
2B1
330
1F
100
AcDbEntity
  8
0
  6
Continuous
 62
     7
370
     0
100
AcDbSpline
210
0.0
220
0.0
230
1.0
 70
    24
 71
     3
 72
     8
 73
     4
 74
     0
 42
0.000000001
 43
0.00000001
 40
0.0
 40
0.0
 40
0.0
 40
0.0
 40
1.0
 40
1.0
 40
1.0
 40
1.0
 10
79.9529118016889
 20
79.66910127410193
 30
0.0
 10
79.67632435174659
 20
80.13870482465565
 30
0.0
 10
79.4106437880675
 20
80.58979013609309
 30
0.0
 10
79.15209465007648
 20
81.02876736813492
 30
0.0
  0
ARC
  5
2B2
330
1F
100
AcDbEntity
  8
0
  6
Continuous
 62
     7
370
     0
100
AcDbCircle
 10
83.3995253093
 20
81.6990902711
 30
0.0
 40
4.300000000089859
100
AcDbArc
 50
232.0261705205
 51
248.9683617021
  0
ARC
  5
2B3
330
1F
100
AcDbEntity
  8
0
  6
Continuous
 62
     7
370
     0
100
AcDbCircle
 10
83.3995253093
 20
81.6990902711
 30
0.0
 40
3.999999999999992
100
AcDbArc
 50
210.4972661049
 51
270.497266093
  0
SPLINE
  5
2B4
330
1F
100
AcDbEntity
  8
0
  6
Continuous
 62
     7
370
     0
100
AcDbSpline
210
0.0
220
0.0
230
1.0
 70
    24
 71
     3
 72
     8
 73
     4
 74
     0
 42
0.000000001
 43
0.00000001
 40
0.0
 40
0.0
 40
0.0
 40
0.0
 40
1.0
 40
1.0
 40
1.0
 40
1.0
 10
83.43424059619645
 20
77.69924091786369
 30
0.0
 10
82.88925826680394
 20
77.69451093512998
 30
0.0
 10
82.36576664559355
 20
77.68996747345054
 30
0.0
 10
81.85632664203999
 20
77.68554596785171
 30
0.0
  0
SPLINE
  5
2B5
330
1F
100
AcDbEntity
  8
0
  6
Continuous
 62
     7
370
     0
100
AcDbSpline
210
0.0
220
0.0
230
1.0
 70
    24
 71
     3
 72
     8
 73
     4
 74
     0
 42
0.000000001
 43
0.00000001
 40
0.0
 40
0.0
 40
0.0
 40
0.0
 40
1.0
 40
1.0
 40
1.0
 40
1.0
 10
80.75372895360415
 20
78.30943517941085
 30
0.0
 10
80.49517981554024
 20
78.74841241157645
 30
0.0
 10
80.22949925166799
 20
79.19949772341381
 30
0.0
 10
79.95291180166025
 20
79.66910127407861
 30
0.0
  0
ARC
  5
2B6
330
1F
100
AcDbEntity
  8
0
  6
Continuous
 62
     7
370
     0
100
AcDbCircle
 10
83.3995253093
 20
81.6990902711
 30
0.0
 40
4.300000000035618
100
AcDbArc
 50
112.0261705174
 51
128.9683617051
  0
SPLINE
  5
2B7
330
1F
100
AcDbEntity
  8
0
  6
Continuous
 62
     7
370
     0
100
AcDbSpline
210
0.0
220
0.0
230
1.0
 70
    24
 71
     3
 72
     8
 73
     4
 74
     0
 42
0.000000001
 43
0.00000001
 40
0.0
 40
0.0
 40
0.0
 40
0.0
 40
1.0
 40
1.0
 40
1.0
 40
1.0
 10
81.78689606697594
 20
85.685244674381
 30
0.0
 10
82.29633607070227
 20
85.68966617998133
 30
0.0
 10
82.8198276917935
 20
85.69420964165974
 30
0.0
 10
83.36481002135612
 20
85.69893962439492
 30
0.0
  0
ARC
  5
2B8
330
1F
100
AcDbEntity
  8
0
  6
Continuous
 62
     7
370
     0
100
AcDbCircle
 10
83.3995253093
 20
81.6990902711
 30
0.0
 40
4.000000000000005
100
AcDbArc
 50
90.4972661158
 51
150.4972661119
  0
SPLINE
  5
2B9
330
1F
100
AcDbEntity
  8
0
  6
Continuous
 62
     7
370
     0
100
AcDbSpline
210
0.0
220
0.0
230
1.0
 70
    24
 71
     3
 72
     8
 73
     4
 74
     0
 42
0.000000001
 43
0.00000001
 40
0.0
 40
0.0
 40
0.0
 40
0.0
 40
1.0
 40
1.0
 40
1.0
 40
1.0
 10
79.91819651418737
 20
83.66895062639703
 30
0.0
 10
80.1865913937985
 20
84.14328415983263
 30
0.0
 10
80.4444024511104
 20
84.59891293326754
 30
0.0
 10
80.69529331684062
 20
85.04231167105627
 30
0.0
  0
ARC
  5
2BA
330
1F
100
AcDbEntity
  8
0
  6
Continuous
 62
     7
370
     0
100
AcDbCircle
 10
83.3995253093
 20
81.6990902711
 30
0.0
 40
4.300000000147949
100
AcDbArc
 50
292.0261705212
 51
308.9683617008
  0
SPLINE
  5
2BB
330
1F
100
AcDbEntity
  8
0
  6
Continuous
 62
     7
370
     0
100
AcDbSpline
210
0.0
220
0.0
230
1.0
 70
    24
 71
     3
 72
     8
 73
     4
 74
     0
 42
0.000000001
 43
0.00000001
 40
0.0
 40
0.0
 40
0.0
 40
0.0
 40
1.0
 40
1.0
 40
1.0
 40
1.0
 10
85.01215455229908
 20
77.71293586789581
 30
0.0
 10
84.50271454804606
 20
77.70851436229091
 30
0.0
 10
83.97922292635529
 20
77.70397090060406
 30
0.0
 10
83.43424059619645
 20
77.69924091786369
 30
0.0
  0
ARC
  5
2BC
330
1F
100
AcDbEntity
  8
0
  6
Continuous
 62
     7
370
     0
100
AcDbCircle
 10
83.3995253093
 20
81.6990902711
 30
0.0
 40
3.999999999999992
100
AcDbArc
 50
270.497266093
 51
330.4972661216
  0
SPLINE
  5
2BD
330
1F
100
AcDbEntity
  8
0
  6
Continuous
 62
     7
370
     0
100
AcDbSpline
210
0.0
220
0.0
230
1.0
 70
    24
 71
     3
 72
     8
 73
     4
 74
     0
 42
0.000000001
 43
0.00000001
 40
0.0
 40
0.0
 40
0.0
 40
0.0
 40
1.0
 40
1.0
 40
1.0
 40
1.0
 10
86.88085410468854
 20
79.72922991639415
 30
0.0
 10
86.61245922484923
 20
79.25489638255527
 30
0.0
 10
86.35464816729734
 20
78.79926760874389
 30
0.0
 10
86.10375730136829
 20
78.35586887060379
 30
0.0
  0
ARC
  5
2BE
330
1F
100
AcDbEntity
  8
0
  6
Continuous
 62
     7
370
     0
100
AcDbCircle
 10
83.3995253093
 20
81.6990902711
 30
0.0
 40
4.299999999977233
100
AcDbArc
 50
52.0261705205
 51
68.9683617065
  0
SPLINE
  5
2BF
330
1F
100
AcDbEntity
  8
0
  6
Continuous
 62
     7
370
     0
100
AcDbSpline
210
0.0
220
0.0
230
1.0
 70
    24
 71
     3
 72
     8
 73
     4
 74
     0
 42
0.000000001
 43
0.00000001
 40
0.0
 40
0.0
 40
0.0
 40
0.0
 40
1.0
 40
1.0
 40
1.0
 40
1.0
 10
86.04532166458142
 20
85.08874536347945
 30
0.0
 10
86.3038708026238
 20
84.6497681313504
 30
0.0
 10
86.56955136647777
 20
84.1986828195441
 30
0.0
 10
86.84613881647591
 20
83.72907926889559
 30
0.0
  0
ARC
  5
2C0
330
1F
100
AcDbEntity
  8
0
  6
Continuous
 62
     7
370
     0
100
AcDbCircle
 10
83.3995253093
 20
81.6990902711
 30
0.0
 40
4.000000000000005
100
AcDbArc
 50
30.4972661167
 51
90.4972661158
  0
SPLINE
  5
2C1
330
1F
100
AcDbEntity
  8
0
  6
Continuous
 62
     7
370
     0
100
AcDbSpline
210
0.0
220
0.0
230
1.0
 70
    24
 71
     3
 72
     8
 73
     4
 74
     0
 42
0.000000001
 43
0.00000001
 40
0.0
 40
0.0
 40
0.0
 40
0.0
 40
1.0
 40
1.0
 40
1.0
 40
1.0
 10
83.36481002135612
 20
85.69893962439492
 30
0.0
 10
83.90979235098688
 20
85.7036696071307
 30
0.0
 10
84.43328397197808
 20
85.70821306880825
 30
0.0
 10
84.94272397577895
 20
85.71263457440921
 30
0.0
  0
ARC
  5
2C2
330
1F
100
AcDbEntity
  8
0
  6
Continuous
 62
     7
370
     0
100
AcDbCircle
 10
83.3995253093
 20
81.6990902711
 30
0.0
 40
4.299999999970412
100
AcDbArc
 50
352.0261705189
 51
8.9683617089
  0
ARC
  5
2C3
330
1F
100
AcDbEntity
  8
0
  6
Continuous
 62
     7
370
     0
100
AcDbCircle
 10
83.3995253093
 20
81.6990902711
 30
0.0
 40
3.999999999940367
100
AcDbArc
 50
330.4972661216
 51
30.4972661167
  0
SPLINE
  5
2C4
330
1F
100
AcDbEntity
  8
0
  6
Continuous
 62
     7
370
     0
100
AcDbSpline
210
0.0
220
0.0
230
1.0
 70
    24
 71
     3
 72
     8
 73
     4
 74
     0
 42
0.000000001
 43
0.00000001
 40
0.0
 40
0.0
 40
0.0
 40
0.0
 40
1.0
 40
1.0
 40
1.0
 40
1.0
 10
86.84613881644728
 20
83.72907926887228
 30
0.0
 10
87.12272626639918
 20
83.25947571830227
 30
0.0
 10
87.38840683009654
 20
82.80839040683377
 30
0.0
 10
87.6469559681091
 20
82.36941317475538
 30
0.0
  0
SPLINE
  5
2C5
330
1F
100
AcDbEntity
  8
0
  6
Continuous
 62
     7
370
     0
100
AcDbSpline
210
0.0
220
0.0
230
1.0
 70
    24
 71
     3
 72
     8
 73
     4
 74
     0
 42
0.000000001
 43
0.00000001
 40
0.0
 40
0.0
 40
0.0
 40
0.0
 40
1.0
 40
1.0
 40
1.0
 40
1.0
 10
87.65795090720916
 20
81.1025909605637
 30
0.0
 10
87.4070600415511
 20
80.6591922229025
 30
0.0
 10
87.14924898424526
 20
80.20356344970708
 30
0.0
 10
86.88085410470089
 20
79.72922991638943
 30
0.0
  0
LINE
  5
2C6
330
1F
100
AcDbEntity
  8
0
  6
Continuous
 62
     7
370
     0
100
AcDbLine
 10
109.6047097728
 20
84.6990902972
 30
0.0
 11
109.6047097728
 21
78.6990902451
 31
0.0
  0
LINE
  5
2C7
330
1F
100
AcDbEntity
  8
0
  6
Continuous
 62
     7
370
     0
100
AcDbLine
 10
101.483183904
 20
84.6990902972
 30
0.0
 11
109.6047097728
 21
84.6990902972
 31
0.0
  0
LINE
  5
2C8
330
1F
100
AcDbEntity
  8
0
  6
Continuous
 62
     7
370
     0
100
AcDbLine
 10
110.0982716218
 20
85.1990903792
 30
0.0
 11
97.3643949166
 21
85.1990903792
 31
0.0
  0
LINE
  5
2C9
330
1F
100
AcDbEntity
  8
0
  6
Continuous
 62
     7
370
     0
100
AcDbLine
 10
110.0982716218
 20
78.1990901631
 30
0.0
 11
110.0982716218
 21
85.1990903792
 31
0.0
  0
LINE
  5
2CA
330
1F
100
AcDbEntity
  8
0
  6
Continuous
 62
     7
370
     0
100
AcDbLine
 10
109.6047097728
 20
78.6990902451
 30
0.0
 11
101.483183904
 21
78.6990902451
 31
0.0
  0
LINE
  5
2CB
330
1F
100
AcDbEntity
  8
0
  6
Continuous
 62
     7
370
     0
100
AcDbLine
 10
97.3643949166
 20
78.1990901631
 30
0.0
 11
110.0982716218
 21
78.1990901631
 31
0.0
  0
LINE
  5
2CC
330
1F
100
AcDbEntity
  8
0
  6
Continuous
 62
     7
370
     0
100
AcDbLine
 10
112.8977136597
 20
84.3990903412
 30
0.0
 11
112.8977136597
 21
85.1990903792
 31
0.0
  0
LINE
  5
2CD
330
1F
100
AcDbEntity
  8
0
  6
Continuous
 62
     7
370
     0
100
AcDbLine
 10
112.8977136597
 20
78.9990902011
 30
0.0
 11
112.8977136597
 21
84.3990903412
 31
0.0
  0
LINE
  5
2CE
330
1F
100
AcDbEntity
  8
0
  6
Continuous
 62
     7
370
     0
100
AcDbLine
 10
112.8977136597
 20
78.1990901631
 30
0.0
 11
112.8977136597
 21
78.9990902011
 31
0.0
  0
LINE
  5
2CF
330
1F
100
AcDbEntity
  8
0
  6
Continuous
 62
     7
370
     0
100
AcDbLine
 10
110.0982716218
 20
85.1990903792
 30
0.0
 11
112.8977136597
 21
85.1990903792
 31
0.0
  0
LINE
  5
2D0
330
1F
100
AcDbEntity
  8
0
  6
Continuous
 62
     7
370
     0
100
AcDbLine
 10
110.0982716218
 20
78.1990901631
 30
0.0
 11
112.8977136597
 21
78.1990901631
 31
0.0
  0
LINE
  5
2D1
330
1F
100
AcDbEntity
  8
0
  6
Continuous
 62
     7
370
     0
100
AcDbLine
 10
112.8977136597
 20
84.3990903412
 30
0.0
 11
112.904152824
 21
84.3990903412
 31
0.0
  0
LINE
  5
2D2
330
1F
100
AcDbEntity
  8
0
  6
Continuous
 62
     7
370
     0
100
AcDbLine
 10
112.904152824
 20
78.9990902011
 30
0.0
 11
112.8977136597
 21
78.9990902011
 31
0.0
  0
LINE
  5
2D3
330
1F
100
AcDbEntity
  8
0
  6
Continuous
 62
     7
370
     0
100
AcDbLine
 10
108.1595262423
 20
84.3990903412
 30
0.0
 11
109.6047097728
 21
84.3990903412
 31
0.0
  0
LINE
  5
2D4
330
1F
100
AcDbEntity
  8
0
  6
Continuous
 62
     7
370
     0
100
AcDbLine
 10
108.1595262423
 20
78.9990902011
 30
0.0
 11
109.6047097728
 21
78.9990902011
 31
0.0
  0
LINE
  5
2D5
330
1F
100
AcDbEntity
  8
0
  6
Continuous
 62
     7
370
     0
100
AcDbLine
 10
96.9020593822
 20
78.6990902451
 30
0.0
 11
96.3995251715
 21
79.1371848498
 31
0.0
  0
LINE
  5
2D6
330
1F
100
AcDbEntity
  8
0
  6
Continuous
 62
     7
370
     0
100
AcDbLine
 10
96.9020593822
 20
78.6990902451
 30
0.0
 11
96.3995251715
 21
78.6990902451
 31
0.0
  0
LINE
  5
2D7
330
1F
100
AcDbEntity
  8
0
  6
Continuous
 62
     7
370
     0
100
AcDbLine
 10
96.3995251715
 20
84.6990902972
 30
0.0
 11
96.9020593822
 21
84.6990902972
 31
0.0
  0
LINE
  5
2D8
330
1F
100
AcDbEntity
  8
0
  6
Continuous
 62
     7
370
     0
100
AcDbLine
 10
96.9020593822
 20
84.6990902972
 30
0.0
 11
96.3995251715
 21
84.2609956925
 31
0.0
  0
LINE
  5
2D9
330
1F
100
AcDbEntity
  8
0
  6
Continuous
 62
     7
370
     0
100
AcDbLine
 10
96.9020593822
 20
84.6990902972
 30
0.0
 11
96.9020593822
 21
78.6990902451
 31
0.0
  0
LINE
  5
2DA
330
1F
100
AcDbEntity
  8
0
  6
Continuous
 62
     7
370
     0
100
AcDbLine
 10
98.6245414153
 20
84.6990902972
 30
0.0
 11
98.6245414153
 21
78.6990902451
 31
0.0
  0
LINE
  5
2DB
330
1F
100
AcDbEntity
  8
0
  6
Continuous
 62
     7
370
     0
100
AcDbLine
 10
96.9020593822
 20
84.6990902972
 30
0.0
 11
98.6245414153
 21
84.6990902972
 31
0.0
  0
LINE
  5
2DC
330
1F
100
AcDbEntity
  8
0
  6
Continuous
 62
     7
370
     0
100
AcDbLine
 10
96.9020593822
 20
78.6990902451
 30
0.0
 11
98.6245414153
 21
78.6990902451
 31
0.0
  0
LINE
  5
2DD
330
1F
100
AcDbEntity
  8
0
  6
Continuous
 62
     7
370
     0
100
AcDbLine
 10
100.0105990007
 20
80.1990902581
 30
0.0
 11
100.0105990007
 21
83.1990902842
 31
0.0
  0
LINE
  5
2DE
330
1F
100
AcDbEntity
  8
0
  6
Continuous
 62
     7
370
     0
100
AcDbLine
 10
98.6245414153
 20
83.1990902842
 30
0.0
 11
100.0105990007
 21
83.1990902842
 31
0.0
  0
LINE
  5
2DF
330
1F
100
AcDbEntity
  8
0
  6
Continuous
 62
     7
370
     0
100
AcDbLine
 10
98.6245414153
 20
80.1990902581
 30
0.0
 11
100.0105990007
 21
80.1990902581
 31
0.0
  0
LINE
  5
2E0
330
1F
100
AcDbEntity
  8
0
  6
Continuous
 62
     7
370
     0
100
AcDbLine
 10
69.8969913557
 20
78.6990902451
 30
0.0
 11
69.8969913557
 21
84.6990902972
 31
0.0
  0
LINE
  5
2E1
330
1F
100
AcDbEntity
  8
0
  6
Continuous
 62
     7
370
     0
100
AcDbLine
 10
69.8969913557
 20
84.6990902972
 30
0.0
 11
70.3995255664
 21
84.2609956925
 31
0.0
  0
LINE
  5
2E2
330
1F
100
AcDbEntity
  8
0
  6
Continuous
 62
     7
370
     0
100
AcDbLine
 10
69.8969913557
 20
78.6990902451
 30
0.0
 11
70.3995255664
 21
79.1371848498
 31
0.0
  0
LINE
  5
2E3
330
1F
100
AcDbEntity
  8
0
  6
Continuous
 62
     7
370
     0
100
AcDbLine
 10
70.3995255664
 20
78.6990902451
 30
0.0
 11
69.8969913557
 21
78.6990902451
 31
0.0
  0
LINE
  5
2E4
330
1F
100
AcDbEntity
  8
0
  6
Continuous
 62
     7
370
     0
100
AcDbLine
 10
69.8969913557
 20
84.6990902972
 30
0.0
 11
70.3995255664
 21
84.6990902972
 31
0.0
  0
LINE
  5
2E5
330
1F
100
AcDbEntity
  8
0
  6
Continuous
 62
     7
370
     0
100
AcDbLine
 10
68.1745083913
 20
78.6990902451
 30
0.0
 11
68.1745083913
 21
84.6990902972
 31
0.0
  0
LINE
  5
2E6
330
1F
100
AcDbEntity
  8
0
  6
Continuous
 62
     7
370
     0
100
AcDbLine
 10
69.8969913557
 20
84.6990902972
 30
0.0
 11
68.1745083913
 21
84.6990902972
 31
0.0
  0
LINE
  5
2E7
330
1F
100
AcDbEntity
  8
0
  6
Continuous
 62
     7
370
     0
100
AcDbLine
 10
69.8969913557
 20
78.6990902451
 30
0.0
 11
68.1745083913
 21
78.6990902451
 31
0.0
  0
LINE
  5
2E8
330
1F
100
AcDbEntity
  8
0
  6
Continuous
 62
     7
370
     0
100
AcDbLine
 10
66.7884508058
 20
83.1990902842
 30
0.0
 11
66.7884508058
 21
80.1990902581
 31
0.0
  0
LINE
  5
2E9
330
1F
100
AcDbEntity
  8
0
  6
Continuous
 62
     7
370
     0
100
AcDbLine
 10
68.1745083913
 20
83.1990902842
 30
0.0
 11
66.7884508058
 21
83.1990902842
 31
0.0
  0
LINE
  5
2EA
330
1F
100
AcDbEntity
  8
0
  6
Continuous
 62
     7
370
     0
100
AcDbLine
 10
68.1745083913
 20
80.1990902581
 30
0.0
 11
66.7884508058
 21
80.1990902581
 31
0.0
  0
ARC
  5
2EB
330
1F
100
AcDbEntity
  8
0
  6
Continuous
 62
     7
370
     0
100
AcDbCircle
 10
108.1258387845
 20
81.6990902711
 30
0.0
 40
0.3500190237572951
100
AcDbArc
 50
270.5975638624
 51
89.4024361376
  0
CIRCLE
  5
2EC
330
1F
100
AcDbEntity
  8
0
  6
Continuous
 62
     7
370
     0
100
AcDbCircle
 10
107.3284914925
 20
81.7019621274
 30
0.0
 40
0.3471300608642411
  0
ARC
  5
2ED
330
1F
100
AcDbEntity
  8
0
  6
Continuous
 62
     7
370
     0
100
AcDbCircle
 10
106.1515938557
 20
81.6990902711
 30
0.0
 40
0.3500190368803147
100
AcDbArc
 50
270.5977697891
 51
89.4022302109
  0
CIRCLE
  5
2EE
330
1F
100
AcDbEntity
  8
0
  6
Continuous
 62
     7
370
     0
100
AcDbCircle
 10
105.354247719
 20
81.7019616172
 30
0.0
 40
0.3471305713779702
  0
ARC
  5
2EF
330
1F
100
AcDbEntity
  8
0
  6
Continuous
 62
     7
370
     0
100
AcDbCircle
 10
108.1314502244
 20
81.7091735728
 30
0.0
 40
0.689919460316559
100
AcDbArc
 50
90.1628553085
 51
150.4824331844
  0
ARC
  5
2F0
330
1F
100
AcDbEntity
  8
0
  6
Continuous
 62
     7
370
     0
100
AcDbCircle
 10
108.1306036146
 20
81.7029338668
 30
0.0
 40
0.6961572712768677
100
AcDbArc
 50
210.5494023208
 51
90.0917174278
  0
ARC
  5
2F1
330
1F
100
AcDbEntity
  8
0
  6
Continuous
 62
     7
370
     0
100
AcDbCircle
 10
108.602092019
 20
81.6990902711
 30
0.0
 40
0.7000380606364541
100
AcDbArc
 50
270.5976668256
 51
89.4023331744
  0
ARC
  5
2F2
330
1F
100
AcDbEntity
  8
0
  6
Continuous
 62
     7
370
     0
100
AcDbCircle
 10
106.1572061051
 20
81.7091711446
 30
0.0
 40
0.6899218872146162
100
AcDbArc
 50
90.162817485
 51
150.4823155649
  0
ARC
  5
2F3
330
1F
100
AcDbEntity
  8
0
  6
Continuous
 62
     7
370
     0
100
AcDbCircle
 10
106.1563585748
 20
81.7029335836
 30
0.0
 40
0.6961575523730561
100
AcDbArc
 50
210.549361593
 51
90.0916047144
  0
ARC
  5
2F4
330
1F
100
AcDbEntity
  8
0
  6
Continuous
 62
     7
370
     0
100
AcDbCircle
 10
106.6331384661
 20
81.6891714448
 30
0.0
 40
0.6900840764079738
100
AcDbArc
 50
270.1668984472
 51
331.6067173964
  0
ARC
  5
2F5
330
1F
100
AcDbEntity
  8
0
  6
Continuous
 62
     7
370
     0
100
AcDbCircle
 10
106.6331384661
 20
81.7090090975
 30
0.0
 40
0.6900840764079738
100
AcDbArc
 50
28.3932826036
 51
89.8331015528
  0
ARC
  5
2F6
330
1F
100
AcDbEntity
  8
0
  6
Continuous
 62
     7
370
     0
100
AcDbCircle
 10
110.2404618658
 20
79.477284803
 30
0.0
 40
0.8501407005518912
100
AcDbArc
 50
171.7624877241
 51
206.4144532123
  0
LINE
  5
2F7
330
1F
100
AcDbEntity
  8
0
  6
Continuous
 62
     7
370
     0
100
AcDbLine
 10
109.3990923747
 20
79.599090346
 30
0.0
 11
109.3990923747
 21
83.7990901963
 31
0.0
  0
ARC
  5
2F8
330
1F
100
AcDbEntity
  8
0
  6
Continuous
 62
     7
370
     0
100
AcDbCircle
 10
110.2404618658
 20
83.9208957393
 30
0.0
 40
0.8501407005518848
100
AcDbArc
 50
153.5855467877
 51
188.2375122759
  0
LINE
  5
2F9
330
1F
100
AcDbEntity
  8
0
  6
Continuous
 62
     7
370
     0
100
AcDbLine
 10
109.4790762201
 20
79.0990902641
 30
0.0
 11
105.7280106381
 21
79.0990902641
 31
0.0
  0
ELLIPSE
  5
2FA
330
1F
100
AcDbEntity
  8
0
  6
Continuous
 62
     7
370
     0
100
AcDbEllipse
 10
106.0241479572
 20
79.5990902711
 30
0.0
 11
0.3010654471663515
 21
0.4987398002735831
 31
0.0
210
0.0
220
0.0
230
1.0
 40
0.1178378891
 41
1.641809831151959
 42
3.212606157947147
  0
LINE
  5
2FB
330
1F
100
AcDbEntity
  8
0
  6
Continuous
 62
     7
370
     0
100
AcDbLine
 10
105.944163157
 20
79.599090346
 30
0.0
 11
109.3990923747
 21
79.599090346
 31
0.0
  0
LINE
  5
2FC
330
1F
100
AcDbEntity
  8
0
  6
Continuous
 62
     7
370
     0
100
AcDbLine
 10
109.3990923747
 20
83.7990901963
 30
0.0
 11
105.944163157
 21
83.7990901963
 31
0.0
  0
ELLIPSE
  5
2FD
330
1F
100
AcDbEntity
  8
0
  6
Continuous
 62
     7
370
     0
100
AcDbEllipse
 10
106.0241479572
 20
83.7990902711
 30
0.0
 11
-0.3010654471663657
 21
0.4987398002735973
 31
0.0
210
0.0
220
0.0
230
1.0
 40
0.1178378891
 41
6.212171802822493
 42
7.782968129617429
  0
LINE
  5
2FE
330
1F
100
AcDbEntity
  8
0
  6
Continuous
 62
     7
370
     0
100
AcDbLine
 10
105.7280106381
 20
84.2990902782
 30
0.0
 11
109.4790762201
 21
84.2990902782
 31
0.0
  0
LINE
  5
2FF
330
1F
100
AcDbEntity
  8
0
  6
Continuous
 62
     7
370
     0
100
AcDbLine
 10
109.6047097728
 20
79.0990902641
 30
0.0
 11
109.4790762201
 21
79.0990902641
 31
0.0
  0
LINE
  5
300
330
1F
100
AcDbEntity
  8
0
  6
Continuous
 62
     7
370
     0
100
AcDbLine
 10
109.4790762201
 20
84.2990902782
 30
0.0
 11
109.6047097728
 21
84.2990902782
 31
0.0
  0
ELLIPSE
  5
301
330
1F
100
AcDbEntity
  8
0
  6
Continuous
 62
     7
370
     0
100
AcDbEllipse
 10
106.0241479572
 20
79.5990902711
 30
0.0
 11
0.4995533307659628
 21
0.2979001630438063
 31
0.0
210
0.0
220
0.0
230
1.0
 40
0.0709292331
 41
3.099320404805205
 42
3.259978777730254
  0
ELLIPSE
  5
302
330
1F
100
AcDbEntity
  8
0
  6
Continuous
 62
     7
370
     0
100
AcDbEllipse
 10
106.0241479572
 20
83.7990902711
 30
0.0
 11
0.4995533307659628
 21
-0.2979001630438347
 31
0.0
210
0.0
220
0.0
230
1.0
 40
0.0709292331
 41
3.023206529450435
 42
3.183864902375453
  0
LINE
  5
303
330
1F
100
AcDbEntity
  8
0
  6
Continuous
 62
     7
370
     0
100
AcDbLine
 10
106.0319514856
 20
84.3990903412
 30
0.0
 11
102.2930117235
 21
84.3990903412
 31
0.0
  0
LINE
  5
304
330
1F
100
AcDbEntity
  8
0
  6
Continuous
 62
     7
370
     0
100
AcDbLine
 10
106.0319514856
 20
84.2990902782
 30
0.0
 11
106.0319514856
 21
84.3990903412
 31
0.0
  0
LINE
  5
305
330
1F
100
AcDbEntity
  8
0
  6
Continuous
 62
     7
370
     0
100
AcDbLine
 10
106.0319514856
 20
78.9990902011
 30
0.0
 11
106.0319514856
 21
79.0990902641
 31
0.0
  0
LINE
  5
306
330
1F
100
AcDbEntity
  8
0
  6
Continuous
 62
     7
370
     0
100
AcDbLine
 10
106.0319514856
 20
78.9990902011
 30
0.0
 11
102.2762702688
 21
78.9990902011
 31
0.0
  0
LINE
  5
307
330
1F
100
AcDbEntity
  8
0
  6
Continuous
 62
     7
370
     0
100
AcDbLine
 10
108.1595262423
 20
78.9990902011
 30
0.0
 11
108.1595262423
 21
79.0990902641
 31
0.0
  0
LINE
  5
308
330
1F
100
AcDbEntity
  8
0
  6
Continuous
 62
     7
370
     0
100
AcDbLine
 10
108.1595262423
 20
78.9990902011
 30
0.0
 11
106.0319514856
 21
78.9990902011
 31
0.0
  0
LINE
  5
309
330
1F
100
AcDbEntity
  8
0
  6
Continuous
 62
     7
370
     0
100
AcDbLine
 10
108.1595262423
 20
84.2990902782
 30
0.0
 11
108.1595262423
 21
84.3990903412
 31
0.0
  0
LINE
  5
30A
330
1F
100
AcDbEntity
  8
0
  6
Continuous
 62
     7
370
     0
100
AcDbLine
 10
108.1595262423
 20
84.3990903412
 30
0.0
 11
106.0319514856
 21
84.3990903412
 31
0.0
  0
LINE
  5
30B
330
1F
100
AcDbEntity
  8
0
  6
Continuous
 62
     7
370
     0
100
AcDbLine
 10
103.843308045
 20
77.7990903769
 30
0.0
 11
105.5832588956
 21
77.7990903769
 31
0.0
  0
LINE
  5
30C
330
1F
100
AcDbEntity
  8
0
  6
Continuous
 62
     7
370
     0
100
AcDbLine
 10
102.5832602665
 20
77.7990903769
 30
0.0
 11
103.843308045
 21
77.7990903769
 31
0.0
  0
LINE
  5
30D
330
1F
100
AcDbEntity
  8
0
  6
Continuous
 62
     7
370
     0
100
AcDbLine
 10
103.8912972346
 20
77.4990904209
 30
0.0
 11
102.8832597569
 21
77.4990904209
 31
0.0
  0
LINE
  5
30E
330
1F
100
AcDbEntity
  8
0
  6
Continuous
 62
     7
370
     0
100
AcDbLine
 10
105.2832594052
 20
77.4990904209
 30
0.0
 11
103.8912972346
 21
77.4990904209
 31
0.0
  0
LINE
  5
30F
330
1F
100
AcDbEntity
  8
0
  6
Continuous
 62
     7
370
     0
100
AcDbLine
 10
105.5832588956
 20
85.5990901653
 30
0.0
 11
102.5832602665
 21
85.5990901653
 31
0.0
  0
LINE
  5
310
330
1F
100
AcDbEntity
  8
0
  6
Continuous
 62
     7
370
     0
100
AcDbLine
 10
102.8832597569
 20
85.8990901214
 30
0.0
 11
105.2832594052
 21
85.8990901214
 31
0.0
  0
LINE
  5
311
330
1F
100
AcDbEntity
  8
0
  6
Continuous
 62
     7
370
     0
100
AcDbLine
 10
76.8995252348
 20
75.199090137
 30
0.0
 11
76.8995252348
 21
75.0990903069
 31
0.0
  0
LINE
  5
312
330
1F
100
AcDbEntity
  8
0
  6
Continuous
 62
     7
370
     0
100
AcDbLine
 10
89.8995255031
 20
75.0990903069
 30
0.0
 11
89.8995255031
 21
75.199090137
 31
0.0
  0
LINE
  5
313
330
1F
100
AcDbEntity
  8
0
  6
Continuous
 62
     7
370
     0
100
AcDbLine
 10
89.8995255031
 20
75.0990903069
 30
0.0
 11
76.8995252348
 21
75.0990903069
 31
0.0
  0
LINE
  5
314
330
1F
100
AcDbEntity
  8
0
  6
Continuous
 62
     7
370
     0
100
AcDbLine
 10
75.8995255366
 20
75.0990903069
 30
0.0
 11
75.8995255366
 21
75.199090137
 31
0.0
  0
LINE
  5
315
330
1F
100
AcDbEntity
  8
0
  6
Continuous
 62
     7
370
     0
100
AcDbLine
 10
76.8995252348
 20
75.0990903069
 30
0.0
 11
75.8995255366
 21
75.0990903069
 31
0.0
  0
LINE
  5
316
330
1F
100
AcDbEntity
  8
0
  6
Continuous
 62
     7
370
     0
100
AcDbLine
 10
90.8995252013
 20
75.199090137
 30
0.0
 11
90.8995252013
 21
75.0990903069
 31
0.0
  0
LINE
  5
317
330
1F
100
AcDbEntity
  8
0
  6
Continuous
 62
     7
370
     0
100
AcDbLine
 10
90.8995252013
 20
75.0990903069
 30
0.0
 11
89.8995255031
 21
75.0990903069
 31
0.0
  0
LINE
  5
318
330
1F
100
AcDbEntity
  8
0
  6
Continuous
 62
     7
370
     0
100
AcDbLine
 10
80.6792732239
 20
75.0865900953
 30
0.0
 11
80.6792732239
 21
75.0990903069
 31
0.0
  0
LINE
  5
319
330
1F
100
AcDbEntity
  8
0
  6
Continuous
 62
     7
370
     0
100
AcDbLine
 10
80.3463018875
 20
75.0865900953
 30
0.0
 11
80.3463018875
 21
75.0990903069
 31
0.0
  0
LINE
  5
31A
330
1F
100
AcDbEntity
  8
0
  6
Continuous
 62
     7
370
     0
100
AcDbLine
 10
81.0122445602
 20
75.0865900953
 30
0.0
 11
81.0122445602
 21
75.0990903069
 31
0.0
  0
LINE
  5
31B
330
1F
100
AcDbEntity
  8
0
  6
Continuous
 62
     7
370
     0
100
AcDbLine
 10
81.863171412
 20
75.0865900953
 30
0.0
 11
81.863171412
 21
75.0990903069
 31
0.0
  0
LINE
  5
31C
330
1F
100
AcDbEntity
  8
0
  6
Continuous
 62
     7
370
     0
100
AcDbLine
 10
81.5302000757
 20
75.0865900953
 30
0.0
 11
81.5302000757
 21
75.0990903069
 31
0.0
  0
LINE
  5
31D
330
1F
100
AcDbEntity
  8
0
  6
Continuous
 62
     7
370
     0
100
AcDbLine
 10
82.1961428648
 20
75.0865900953
 30
0.0
 11
82.1961428648
 21
75.0990903069
 31
0.0
  0
LINE
  5
31E
330
1F
100
AcDbEntity
  8
0
  6
Continuous
 62
     7
370
     0
100
AcDbLine
 10
83.5187792456
 20
75.0865900953
 30
0.0
 11
83.5187792456
 21
75.0990903069
 31
0.0
  0
LINE
  5
31F
330
1F
100
AcDbEntity
  8
0
  6
Continuous
 62
     7
370
     0
100
AcDbLine
 10
82.5753603041
 20
75.0865900953
 30
0.0
 11
83.5187792456
 21
75.0865900953
 31
0.0
  0
LINE
  5
320
330
1F
100
AcDbEntity
  8
0
  6
Continuous
 62
     7
370
     0
100
AcDbLine
 10
82.5753603041
 20
75.0865900953
 30
0.0
 11
82.5753603041
 21
75.0990903069
 31
0.0
  0
LINE
  5
321
330
1F
100
AcDbEntity
  8
0
  6
Continuous
 62
     7
370
     0
100
AcDbLine
 10
84.2402172913
 20
75.0865900953
 30
0.0
 11
84.2402172913
 21
75.0990903069
 31
0.0
  0
LINE
  5
322
330
1F
100
AcDbEntity
  8
0
  6
Continuous
 62
     7
370
     0
100
AcDbLine
 10
83.9164951086
 20
75.0865900953
 30
0.0
 11
83.9164951086
 21
75.0990903069
 31
0.0
  0
LINE
  5
323
330
1F
100
AcDbEntity
  8
0
  6
Continuous
 62
     7
370
     0
100
AcDbLine
 10
84.5731886713
 20
75.0865900953
 30
0.0
 11
84.5731886713
 21
75.0990903069
 31
0.0
  0
LINE
  5
324
330
1F
100
AcDbEntity
  8
0
  6
Continuous
 62
     7
370
     0
100
AcDbLine
 10
85.8865758547
 20
75.0865900953
 30
0.0
 11
85.8865758547
 21
75.0990903069
 31
0.0
  0
LINE
  5
325
330
1F
100
AcDbEntity
  8
0
  6
Continuous
 62
     7
370
     0
100
AcDbLine
 10
84.9431569133
 20
75.0865900953
 30
0.0
 11
85.8865758547
 21
75.0865900953
 31
0.0
  0
LINE
  5
326
330
1F
100
AcDbEntity
  8
0
  6
Continuous
 62
     7
370
     0
100
AcDbLine
 10
84.9431569133
 20
75.0865900953
 30
0.0
 11
84.9431569133
 21
75.0990903069
 31
0.0
  0
LINE
  5
327
330
1F
100
AcDbEntity
  8
0
  6
Continuous
 62
     7
370
     0
100
AcDbLine
 10
86.5987646304
 20
75.0865900953
 30
0.0
 11
86.5987646304
 21
75.0990903069
 31
0.0
  0
LINE
  5
328
330
1F
100
AcDbEntity
  8
0
  6
Continuous
 62
     7
370
     0
100
AcDbLine
 10
86.3120392807
 20
75.0865900953
 30
0.0
 11
86.3120392807
 21
75.0990903069
 31
0.0
  0
LINE
  5
329
330
1F
100
AcDbEntity
  8
0
  6
Continuous
 62
     7
370
     0
100
AcDbLine
 10
86.8854899801
 20
75.0865900953
 30
0.0
 11
86.8854899801
 21
75.0990903069
 31
0.0
  0
LINE
  5
32A
330
1F
100
AcDbEntity
  8
0
  6
Continuous
 62
     7
370
     0
100
AcDbLine
 10
80.1983144976
 20
75.0865900953
 30
0.0
 11
80.1983144976
 21
75.0990903069
 31
0.0
  0
LINE
  5
32B
330
1F
100
AcDbEntity
  8
0
  6
Continuous
 62
     7
370
     0
100
AcDbLine
 10
81.1602319501
 20
75.0865900953
 30
0.0
 11
81.1602319501
 21
75.0990903069
 31
0.0
  0
LINE
  5
32C
330
1F
100
AcDbEntity
  8
0
  6
Continuous
 62
     7
370
     0
100
AcDbLine
 10
81.3822126858
 20
75.0865900953
 30
0.0
 11
81.3822126858
 21
75.0990903069
 31
0.0
  0
LINE
  5
32D
330
1F
100
AcDbEntity
  8
0
  6
Continuous
 62
     7
370
     0
100
AcDbLine
 10
82.3441301383
 20
75.0865900953
 30
0.0
 11
82.3441301383
 21
75.0990903069
 31
0.0
  0
LINE
  5
32E
330
1F
100
AcDbEntity
  8
0
  6
Continuous
 62
     7
370
     0
100
AcDbLine
 10
84.7119267475
 20
75.0865900953
 30
0.0
 11
84.7119267475
 21
75.0990903069
 31
0.0
  0
LINE
  5
32F
330
1F
100
AcDbEntity
  8
0
  6
Continuous
 62
     7
370
     0
100
AcDbLine
 10
83.768507806
 20
75.0865900953
 30
0.0
 11
83.768507806
 21
75.0990903069
 31
0.0
  0
LINE
  5
330
330
1F
100
AcDbEntity
  8
0
  6
Continuous
 62
     7
370
     0
100
AcDbLine
 10
86.0900583122
 20
75.0865900953
 30
0.0
 11
86.0900583122
 21
75.0990903069
 31
0.0
  0
LINE
  5
331
330
1F
100
AcDbEntity
  8
0
  6
Continuous
 62
     7
370
     0
100
AcDbLine
 10
87.1074709486
 20
75.0865900953
 30
0.0
 11
87.1074709486
 21
75.0990903069
 31
0.0
  0
LINE
  5
332
330
1F
100
AcDbEntity
  8
0
  6
Continuous
 62
     7
370
     0
100
AcDbLine
 10
79.8235312015
 20
75.0865900953
 30
0.0
 11
80.1417399108
 21
75.0865900953
 31
0.0
  0
LINE
  5
333
330
1F
100
AcDbEntity
  8
0
  6
Continuous
 62
     7
370
     0
100
AcDbLine
 10
79.8235312015
 20
75.0865900953
 30
0.0
 11
79.8235312015
 21
75.0990903069
 31
0.0
  0
LINE
  5
334
330
1F
100
AcDbEntity
  8
0
  6
Continuous
 62
     7
370
     0
100
AcDbLine
 10
83.6799018927
 20
75.0865900953
 30
0.0
 11
83.6799018927
 21
75.0990903069
 31
0.0
  0
LINE
  5
335
330
1F
100
AcDbEntity
  8
0
  6
Continuous
 62
     7
370
     0
100
AcDbLine
 10
85.8865758547
 20
75.0865900953
 30
0.0
 11
86.2000076942
 21
75.0865900953
 31
0.0
  0
LINE
  5
336
330
1F
100
AcDbEntity
  8
0
  6
Continuous
 62
     7
370
     0
100
AcDbLine
 10
77.3746441029
 20
75.0865900953
 30
0.0
 11
77.3746441029
 21
75.0990903069
 31
0.0
  0
LINE
  5
337
330
1F
100
AcDbEntity
  8
0
  6
Continuous
 62
     7
370
     0
100
AcDbLine
 10
77.214810057
 20
75.0865900953
 30
0.0
 11
77.3746441029
 21
75.0865900953
 31
0.0
  0
LINE
  5
338
330
1F
100
AcDbEntity
  8
0
  6
Continuous
 62
     7
370
     0
100
AcDbLine
 10
77.214810057
 20
75.0865900953
 30
0.0
 11
77.214810057
 21
75.0990903069
 31
0.0
  0
LINE
  5
339
330
1F
100
AcDbEntity
  8
0
  6
Continuous
 62
     7
370
     0
100
AcDbLine
 10
78.2329132691
 20
75.0865900953
 30
0.0
 11
78.2329132691
 21
75.0990903069
 31
0.0
  0
LINE
  5
33A
330
1F
100
AcDbEntity
  8
0
  6
Continuous
 62
     7
370
     0
100
AcDbLine
 10
78.0099620953
 20
75.0865900953
 30
0.0
 11
78.0099620953
 21
75.0990903069
 31
0.0
  0
LINE
  5
33B
330
1F
100
AcDbEntity
  8
0
  6
Continuous
 62
     7
370
     0
100
AcDbLine
 10
78.4555510528
 20
75.0865900953
 30
0.0
 11
78.4555510528
 21
75.0990903069
 31
0.0
  0
LINE
  5
33C
330
1F
100
AcDbEntity
  8
0
  6
Continuous
 62
     7
370
     0
100
AcDbLine
 10
81.1770041384
 20
75.0865900953
 30
0.0
 11
81.1770041384
 21
75.0990903069
 31
0.0
  0
LINE
  5
33D
330
1F
100
AcDbEntity
  8
0
  6
Continuous
 62
     7
370
     0
100
AcDbLine
 10
84.8600377123
 20
75.0865900953
 30
0.0
 11
84.8600377123
 21
75.0990903069
 31
0.0
  0
LINE
  5
33E
330
1F
100
AcDbEntity
  8
0
  6
Continuous
 62
     7
370
     0
100
AcDbLine
 10
84.6980053376
 20
75.0865900953
 30
0.0
 11
84.8600377123
 21
75.0865900953
 31
0.0
  0
LINE
  5
33F
330
1F
100
AcDbEntity
  8
0
  6
Continuous
 62
     7
370
     0
100
AcDbLine
 10
84.8600377123
 20
75.0865900953
 30
0.0
 11
84.9431569133
 21
75.0865900953
 31
0.0
  0
LINE
  5
340
330
1F
100
AcDbEntity
  8
0
  6
Continuous
 62
     7
370
     0
100
AcDbLine
 10
87.5428668134
 20
75.0865900953
 30
0.0
 11
87.5428668134
 21
75.0990903069
 31
0.0
  0
LINE
  5
341
330
1F
100
AcDbEntity
  8
0
  6
Continuous
 62
     7
370
     0
100
AcDbLine
 10
87.367331833
 20
75.0865900953
 30
0.0
 11
87.5428668134
 21
75.0865900953
 31
0.0
  0
LINE
  5
342
330
1F
100
AcDbEntity
  8
0
  6
Continuous
 62
     7
370
     0
100
AcDbLine
 10
87.367331833
 20
75.0865900953
 30
0.0
 11
87.367331833
 21
75.0990903069
 31
0.0
  0
LINE
  5
343
330
1F
100
AcDbEntity
  8
0
  6
Continuous
 62
     7
370
     0
100
AcDbLine
 10
87.8534288987
 20
75.0865900953
 30
0.0
 11
87.8534288987
 21
75.0990903069
 31
0.0
  0
LINE
  5
344
330
1F
100
AcDbEntity
  8
0
  6
Continuous
 62
     7
370
     0
100
AcDbLine
 10
87.5428668134
 20
75.0865900953
 30
0.0
 11
87.8534288987
 21
75.0865900953
 31
0.0
  0
LINE
  5
345
330
1F
100
AcDbEntity
  8
0
  6
Continuous
 62
     7
370
     0
100
AcDbLine
 10
88.1212847218
 20
75.0865900953
 30
0.0
 11
88.1212847218
 21
75.0990903069
 31
0.0
  0
LINE
  5
346
330
1F
100
AcDbEntity
  8
0
  6
Continuous
 62
     7
370
     0
100
AcDbLine
 10
87.961450443
 20
75.0865900953
 30
0.0
 11
87.961450443
 21
75.0990903069
 31
0.0
  0
LINE
  5
347
330
1F
100
AcDbEntity
  8
0
  6
Continuous
 62
     7
370
     0
100
AcDbLine
 10
87.961450443
 20
75.0865900953
 30
0.0
 11
88.1212847218
 21
75.0865900953
 31
0.0
  0
LINE
  5
348
330
1F
100
AcDbEntity
  8
0
  6
Continuous
 62
     7
370
     0
100
AcDbLine
 10
88.5317665435
 20
75.0865900953
 30
0.0
 11
88.5317665435
 21
75.0990903069
 31
0.0
  0
LINE
  5
349
330
1F
100
AcDbEntity
  8
0
  6
Continuous
 62
     7
370
     0
100
AcDbLine
 10
88.3719324976
 20
75.0865900953
 30
0.0
 11
88.3719324976
 21
75.0990903069
 31
0.0
  0
LINE
  5
34A
330
1F
100
AcDbEntity
  8
0
  6
Continuous
 62
     7
370
     0
100
AcDbLine
 10
88.3719324976
 20
75.0865900953
 30
0.0
 11
88.5317665435
 21
75.0865900953
 31
0.0
  0
LINE
  5
34B
330
1F
100
AcDbEntity
  8
0
  6
Continuous
 62
     7
370
     0
100
AcDbLine
 10
89.0718744978
 20
75.0865900953
 30
0.0
 11
89.0718744978
 21
75.0990903069
 31
0.0
  0
LINE
  5
34C
330
1F
100
AcDbEntity
  8
0
  6
Continuous
 62
     7
370
     0
100
AcDbLine
 10
88.9120404519
 20
75.0865900953
 30
0.0
 11
88.9120404519
 21
75.0990903069
 31
0.0
  0
LINE
  5
34D
330
1F
100
AcDbEntity
  8
0
  6
Continuous
 62
     7
370
     0
100
AcDbLine
 10
88.9120404519
 20
75.0865900953
 30
0.0
 11
89.0718744978
 21
75.0865900953
 31
0.0
  0
LINE
  5
34E
330
1F
100
AcDbEntity
  8
0
  6
Continuous
 62
     7
370
     0
100
AcDbLine
 10
89.6399929099
 20
75.0865900953
 30
0.0
 11
89.6399929099
 21
75.0990903069
 31
0.0
  0
LINE
  5
34F
330
1F
100
AcDbEntity
  8
0
  6
Continuous
 62
     7
370
     0
100
AcDbLine
 10
89.4170412704
 20
75.0865900953
 30
0.0
 11
89.4170412704
 21
75.0990903069
 31
0.0
  0
LINE
  5
350
330
1F
100
AcDbEntity
  8
0
  6
Continuous
 62
     7
370
     0
100
AcDbLine
 10
89.8626302279
 20
75.0865900953
 30
0.0
 11
89.8626302279
 21
75.0990903069
 31
0.0
  0
LINE
  5
351
330
1F
100
AcDbEntity
  8
0
  6
Continuous
 62
     7
370
     0
100
AcDbLine
 10
77.8818433084
 20
75.0865900953
 30
0.0
 11
77.8818433084
 21
75.0990903069
 31
0.0
  0
LINE
  5
352
330
1F
100
AcDbEntity
  8
0
  6
Continuous
 62
     7
370
     0
100
AcDbLine
 10
78.6244915709
 20
75.0865900953
 30
0.0
 11
78.6244915709
 21
75.0990903069
 31
0.0
  0
LINE
  5
353
330
1F
100
AcDbEntity
  8
0
  6
Continuous
 62
     7
370
     0
100
AcDbLine
 10
89.2889224835
 20
75.0865900953
 30
0.0
 11
89.2889224835
 21
75.0990903069
 31
0.0
  0
LINE
  5
354
330
1F
100
AcDbEntity
  8
0
  6
Continuous
 62
     7
370
     0
100
AcDbLine
 10
90.0315712117
 20
75.0865900953
 30
0.0
 11
90.0315712117
 21
75.0990903069
 31
0.0
  0
LINE
  5
355
330
1F
100
AcDbEntity
  8
0
  6
Continuous
 62
     7
370
     0
100
AcDbLine
 10
83.5919773291
 20
75.0865900953
 30
0.0
 11
83.5919773291
 21
75.0990903069
 31
0.0
  0
LINE
  5
356
330
1F
100
AcDbEntity
  8
0
  6
Continuous
 62
     7
370
     0
100
AcDbLine
 10
87.8534288987
 20
75.0865900953
 30
0.0
 11
87.961450443
 21
75.0865900953
 31
0.0
  0
LINE
  5
357
330
1F
100
AcDbEntity
  8
0
  6
Continuous
 62
     7
370
     0
100
AcDbLine
 10
79.6020869076
 20
75.0865900953
 30
0.0
 11
79.6020869076
 21
75.0990903069
 31
0.0
  0
LINE
  5
358
330
1F
100
AcDbEntity
  8
0
  6
Continuous
 62
     7
370
     0
100
AcDbLine
 10
78.8324330844
 20
75.0865900953
 30
0.0
 11
79.6020869076
 21
75.0865900953
 31
0.0
  0
LINE
  5
359
330
1F
100
AcDbEntity
  8
0
  6
Continuous
 62
     7
370
     0
100
AcDbLine
 10
78.8324330844
 20
75.0865900953
 30
0.0
 11
78.8324330844
 21
75.0990903069
 31
0.0
  0
LINE
  5
35A
330
1F
100
AcDbEntity
  8
0
  6
Continuous
 62
     7
370
     0
100
AcDbLine
 10
82.4538569342
 20
75.0865900953
 30
0.0
 11
82.4538569342
 21
75.0990903069
 31
0.0
  0
LINE
  5
35B
330
1F
100
AcDbEntity
  8
0
  6
Continuous
 62
     7
370
     0
100
AcDbLine
 10
82.4007049579
 20
75.0865900953
 30
0.0
 11
82.4538569342
 21
75.0865900953
 31
0.0
  0
LINE
  5
35C
330
1F
100
AcDbEntity
  8
0
  6
Continuous
 62
     7
370
     0
100
AcDbLine
 10
87.2068067457
 20
75.0865900953
 30
0.0
 11
87.2068067457
 21
75.0990903069
 31
0.0
  0
LINE
  5
35D
330
1F
100
AcDbEntity
  8
0
  6
Continuous
 62
     7
370
     0
100
AcDbLine
 10
87.1640457682
 20
75.0865900953
 30
0.0
 11
87.2068067457
 21
75.0865900953
 31
0.0
  0
LINE
  5
35E
330
1F
100
AcDbEntity
  8
0
  6
Continuous
 62
     7
370
     0
100
AcDbLine
 10
88.5317665435
 20
75.0865900953
 30
0.0
 11
88.9120404519
 21
75.0865900953
 31
0.0
  0
LINE
  5
35F
330
1F
100
AcDbEntity
  8
0
  6
Continuous
 62
     7
370
     0
100
AcDbLine
 10
77.5724747129
 20
75.0865900953
 30
0.0
 11
77.5724747129
 21
75.0990903069
 31
0.0
  0
LINE
  5
360
330
1F
100
AcDbEntity
  8
0
  6
Continuous
 62
     7
370
     0
100
AcDbLine
 10
77.3746441029
 20
75.0865900953
 30
0.0
 11
77.5724747129
 21
75.0865900953
 31
0.0
  0
LINE
  5
361
330
1F
100
AcDbEntity
  8
0
  6
Continuous
 62
     7
370
     0
100
AcDbLine
 10
81.3748342827
 20
75.0865900953
 30
0.0
 11
81.3748342827
 21
75.0990903069
 31
0.0
  0
LINE
  5
362
330
1F
100
AcDbEntity
  8
0
  6
Continuous
 62
     7
370
     0
100
AcDbLine
 10
81.1770041384
 20
75.0865900953
 30
0.0
 11
81.3748342827
 21
75.0865900953
 31
0.0
  0
LINE
  5
363
330
1F
100
AcDbEntity
  8
0
  6
Continuous
 62
     7
370
     0
100
AcDbLine
 10
87.2304744463
 20
75.0865900953
 30
0.0
 11
87.2304744463
 21
75.0990903069
 31
0.0
  0
LINE
  5
364
330
1F
100
AcDbEntity
  8
0
  6
Continuous
 62
     7
370
     0
100
AcDbLine
 10
87.2304744463
 20
75.0865900953
 30
0.0
 11
87.2068067457
 21
75.0865900953
 31
0.0
  0
LINE
  5
365
330
1F
100
AcDbEntity
  8
0
  6
Continuous
 62
     7
370
     0
100
AcDbLine
 10
87.367331833
 20
75.0865900953
 30
0.0
 11
87.2304744463
 21
75.0865900953
 31
0.0
  0
LINE
  5
366
330
1F
100
AcDbEntity
  8
0
  6
Continuous
 62
     7
370
     0
100
AcDbLine
 10
83.6206967271
 20
75.0865900953
 30
0.0
 11
83.5187792456
 21
75.0865900953
 31
0.0
  0
LINE
  5
367
330
1F
100
AcDbEntity
  8
0
  6
Continuous
 62
     7
370
     0
100
AcDbLine
 10
82.5559445567
 20
75.0865900953
 30
0.0
 11
82.5559445567
 21
75.0990903069
 31
0.0
  0
LINE
  5
368
330
1F
100
AcDbEntity
  8
0
  6
Continuous
 62
     7
370
     0
100
AcDbLine
 10
82.4956124326
 20
75.0865900953
 30
0.0
 11
82.4956124326
 21
75.0990903069
 31
0.0
  0
LINE
  5
369
330
1F
100
AcDbEntity
  8
0
  6
Continuous
 62
     7
370
     0
100
AcDbLine
 10
82.5559445567
 20
75.0865900953
 30
0.0
 11
82.4956124326
 21
75.0865900953
 31
0.0
  0
LINE
  5
36A
330
1F
100
AcDbEntity
  8
0
  6
Continuous
 62
     7
370
     0
100
AcDbLine
 10
82.4956124326
 20
75.0865900953
 30
0.0
 11
82.4538569342
 21
75.0865900953
 31
0.0
  0
LWPOLYLINE
  5
36B
330
1F
100
AcDbEntity
  8
0
  6
Continuous
 62
     8
370
     0
100
AcDbPolyline
 90
       17
 70
   128
 43
0.0
 10
64.6706176832
 20
84.4490902562
 10
64.5983489141
 20
84.4218863238
 10
64.4939010873
 20
84.2821634904
 10
64.3971757874
 20
84.0295480628
 10
64.3124012187
 20
83.6750804045
 10
64.2432821825
 20
83.2342524844
 10
64.1928398892
 20
82.7263305726
 10
64.1632797107
 20
82.173513383
 10
64.1558905974
 20
81.599961606
 10
64.1710003748
 20
81.0307422251
 10
64.2079440787
 20
80.4907328746
 10
64.2651086584
 20
80.0035345199
 10
64.3399963066
 20
79.5904402219
 10
64.4293324932
 20
79.2695039016
 10
64.5292168394
 20
79.0547520918
 10
64.6352777168
 20
78.9555706613
 10
64.6706176832
 20
78.949090286
  0
LWPOLYLINE
  5
36C
330
1F
100
AcDbEntity
  8
0
  6
Continuous
 62
     8
370
     0
100
AcDbPolyline
 90
       17
 70
   128
 43
0.0
 10
102.128433986
 20
78.949090286
 10
102.2242111996
 20
78.9970550284
 10
102.3273384109
 20
79.1624220618
 10
102.4217707947
 20
79.4386537344
 10
102.5033844545
 20
79.8136773118
 10
102.5686105624
 20
80.2711024479
 10
102.6145974085
 20
80.7909374888
 10
102.639338924
 20
81.3504631986
 10
102.6417491868
 20
81.925225564
 10
102.6217257515
 20
82.4901047343
 10
102.5801440611
 20
83.0204127886
 10
102.5188201949
 20
83.4929727315
 10
102.4404344991
 20
83.8871313789
 10
102.3484123781
 20
84.1856621735
 10
102.2467752829
 20
84.3755176355
 10
102.1399674848
 20
84.4484006119
 10
102.128433986
 20
84.4490902562
  0
LINE
  5
36D
330
1F
100
AcDbEntity
  8
0
  6
Continuous
 62
     8
370
     0
100
AcDbLine
 10
109.3990923747
 20
79.599090346
 30
0.0
 11
109.6047097728
 21
79.599090346
 31
0.0
  0
LWPOLYLINE
  5
36E
330
1F
100
AcDbEntity
  8
0
  6
Continuous
 62
     8
370
     0
100
AcDbPolyline
 90
        3
 70
   128
 43
0.0
 10
109.4790762201
 20
79.0990902641
 10
109.5753637984
 20
79.1086975549
 10
109.6047097728
 20
79.1155600053
  0
LINE
  5
36F
330
1F
100
AcDbEntity
  8
0
  6
Continuous
 62
     8
370
     0
100
AcDbLine
 10
109.6047097728
 20
83.7990901963
 30
0.0
 11
109.3990923747
 21
83.7990901963
 31
0.0
  0
LWPOLYLINE
  5
370
330
1F
100
AcDbEntity
  8
0
  6
Continuous
 62
     8
370
     0
100
AcDbPolyline
 90
        3
 70
   128
 43
0.0
 10
109.6047097728
 20
84.282620537
 10
109.5753637984
 20
84.2894829874
 10
109.4790762201
 20
84.2990902782
  0
LINE
  5
371
330
1F
100
AcDbEntity
  8
0
  6
Continuous
 62
     8
370
     0
100
AcDbLine
 10
105.944163157
 20
81.03255097
 30
0.0
 11
105.944163157
 21
79.599090346
 31
0.0
  0
LINE
  5
372
330
1F
100
AcDbEntity
  8
0
  6
Continuous
 62
     8
370
     0
100
AcDbLine
 10
105.944163157
 20
83.7990901963
 30
0.0
 11
105.944163157
 21
82.3656295723
 31
0.0
  0
ELLIPSE
  5
373
330
1F
100
AcDbEntity
  8
0
  6
Continuous
 62
     8
370
     0
100
AcDbEllipse
 10
106.0241479572
 20
79.5990902711
 30
0.0
 11
0.4995533307659628
 21
0.2979001630438063
 31
0.0
210
0.0
220
0.0
230
1.0
 40
0.0709292331
 41
1.689182450934768
 42
3.099320404805205
  0
ELLIPSE
  5
374
330
1F
100
AcDbEntity
  8
0
  6
Continuous
 62
     8
370
     0
100
AcDbEllipse
 10
106.0241479572
 20
83.7990902711
 30
0.0
 11
0.4995533307659628
 21
-0.2979001630438347
 31
0.0
210
0.0
220
0.0
230
1.0
 40
0.0709292331
 41
3.183864902375453
 42
4.594002856244801
  0
LINE
  5
375
330
1F
100
AcDbEntity
  8
0
  6
Continuous
 62
     8
370
     0
100
AcDbLine
 10
96.3995251715
 20
86.3040859875
 30
0.0
 11
97.5990854114
 21
86.3040859875
 31
0.0
  0
LINE
  5
376
330
1F
100
AcDbEntity
  8
0
  6
Continuous
 62
     8
370
     0
100
AcDbLine
 10
96.3995251715
 20
86.4958942
 30
0.0
 11
97.5033407941
 21
86.4958942
 31
0.0
  0
LINE
  5
377
330
1F
100
AcDbEntity
  8
0
  6
Continuous
 62
     8
370
     0
100
AcDbLine
 10
97.5990854114
 20
77.0940945548
 30
0.0
 11
96.3995251715
 21
77.0940945548
 31
0.0
  0
LINE
  5
378
330
1F
100
AcDbEntity
  8
0
  6
Continuous
 62
     8
370
     0
100
AcDbLine
 10
97.5033407941
 20
76.9022863422
 30
0.0
 11
96.3995251715
 21
76.9022863422
 31
0.0
  0
POINT
  5
379
330
1F
100
AcDbEntity
  8
0
  6
Continuous
 62
     7
370
     0
100
AcDbPoint
 10
63.9930157073
 20
81.6990902711
 30
0.0
  0
DIMENSION
  5
37A
330
1F
100
AcDbEntity
  8
0
  6
Continuous
 62
     7
370
     0
100
AcDbDimension
  2
_D_10
 10
112.8977134244
 20
55.5849242175
 30
0.0
 11
88.4453645659
 21
55.5849242175
 31
0.0
 70
   160
  1
(<>)
 71
     2
 42
-1.0
  3
SLDDIMSTYLE5
100
AcDbAlignedDimension
 13
63.9930157073
 23
81.6990902711
 33
0.0
 14
112.8977134244
 24
78.9990902711
 34
0.0
100
AcDbRotatedDimension
  0
DIMENSION
  5
387
330
1F
100
AcDbEntity
  8
0
  6
Continuous
 62
     7
370
     0
100
AcDbDimension
  2
_D_11
 10
83.3995253093
 20
66.4482092894
 30
0.0
 11
73.6962705083
 21
66.4482092894
 31
0.0
 70
   160
  1
(<>)
 71
     2
 42
-1.0
  3
SLDDIMSTYLE1
100
AcDbAlignedDimension
 13
63.9930157073
 23
81.6990902711
 33
0.0
 14
83.3995253093
 24
81.6990902711
 34
0.0
 50
0.0
100
AcDbRotatedDimension
  0
INSERT
  5
39E
330
1F
100
AcDbEntity
  8
0
  6
Continuous
 62
     7
370
     0
100
AcDbBlockReference
  2
SW_CENTERMARKSYMBOL_5
 10
83.3995253093
 20
81.6990902711
 30
0.0
  0
LINE
  5
39F
330
1F
100
AcDbEntity
  8
0
  6
Continuous
 62
     7
370
     0
100
AcDbLine
 10
159.3174247192
 20
149.1116448423
 30
0.0
 11
159.8174248011
 21
148.611643829
 31
0.0
  0
LINE
  5
3A0
330
1F
100
AcDbEntity
  8
0
  6
Continuous
 62
     7
370
     0
100
AcDbLine
 10
170.8174247415
 20
148.611643829
 30
0.0
 11
171.3174248235
 21
149.1116448423
 31
0.0
  0
LINE
  5
3A1
330
1F
100
AcDbEntity
  8
0
  6
Continuous
 62
     7
370
     0
100
AcDbLine
 10
159.3174247192
 20
164.611644589
 30
0.0
 11
159.3174247192
 21
149.1116448423
 31
0.0
  0
LINE
  5
3A2
330
1F
100
AcDbEntity
  8
0
  6
Continuous
 62
     7
370
     0
100
AcDbLine
 10
171.3174248235
 20
149.1116448423
 30
0.0
 11
171.3174248235
 21
164.611644589
 31
0.0
  0
LINE
  5
3A3
330
1F
100
AcDbEntity
  8
0
  6
Continuous
 62
     7
370
     0
100
AcDbLine
 10
162.5674247862
 20
203.6694078823
 30
0.0
 11
162.5674247862
 21
203.3322765609
 31
0.0
  0
LINE
  5
3A4
330
1F
100
AcDbEntity
  8
0
  6
Continuous
 62
     7
370
     0
100
AcDbLine
 10
168.0674247564
 20
203.3322765609
 30
0.0
 11
168.0674247564
 21
203.6694078823
 31
0.0
  0
LINE
  5
3A5
330
1F
100
AcDbEntity
  8
0
  6
Continuous
 62
     7
370
     0
100
AcDbLine
 10
162.5674247862
 20
193.8463696396
 30
0.0
 11
162.5674247862
 21
193.5092392495
 31
0.0
  0
LINE
  5
3A6
330
1F
100
AcDbEntity
  8
0
  6
Continuous
 62
     7
370
     0
100
AcDbLine
 10
168.0674247564
 20
193.5092392495
 30
0.0
 11
168.0674247564
 21
193.8463696396
 31
0.0
  0
LINE
  5
3A7
330
1F
100
AcDbEntity
  8
0
  6
Continuous
 62
     7
370
     0
100
AcDbLine
 10
163.5174248022
 20
140.611646243
 30
0.0
 11
163.8174247583
 21
138.6116459152
 31
0.0
  0
LINE
  5
3A8
330
1F
100
AcDbEntity
  8
0
  6
Continuous
 62
     7
370
     0
100
AcDbLine
 10
166.8174247843
 20
138.6116459152
 30
0.0
 11
167.1174247404
 21
140.611646243
 31
0.0
  0
LINE
  5
3A9
330
1F
100
AcDbEntity
  8
0
  6
Continuous
 62
     7
370
     0
100
AcDbLine
 10
167.1174247404
 20
140.611646243
 30
0.0
 11
167.1174247404
 21
141.111643531
 31
0.0
  0
LINE
  5
3AA
330
1F
100
AcDbEntity
  8
0
  6
Continuous
 62
     7
370
     0
100
AcDbLine
 10
163.5174248022
 20
141.111643531
 30
0.0
 11
163.5174248022
 21
140.611646243
 31
0.0
  0
LINE
  5
3AB
330
1F
100
AcDbEntity
  8
0
  6
Continuous
 62
     7
370
     0
100
AcDbLine
 10
163.5174248022
 20
143.1116438588
 30
0.0
 11
163.7174248117
 21
141.111643531
 31
0.0
  0
LINE
  5
3AC
330
1F
100
AcDbEntity
  8
0
  6
Continuous
 62
     7
370
     0
100
AcDbLine
 10
166.9174247309
 20
141.111643531
 30
0.0
 11
167.1174247404
 21
143.1116438588
 31
0.0
  0
LINE
  5
3AD
330
1F
100
AcDbEntity
  8
0
  6
Continuous
 62
     7
370
     0
100
AcDbLine
 10
167.1174247404
 20
143.1116438588
 30
0.0
 11
167.1174247404
 21
143.6116448721
 31
0.0
  0
LINE
  5
3AE
330
1F
100
AcDbEntity
  8
0
  6
Continuous
 62
     7
370
     0
100
AcDbLine
 10
163.5174248022
 20
143.6116448721
 30
0.0
 11
163.5174248022
 21
143.1116438588
 31
0.0
  0
LINE
  5
3AF
330
1F
100
AcDbEntity
  8
0
  6
Continuous
 62
     7
370
     0
100
AcDbLine
 10
166.9174247309
 20
143.6116448721
 30
0.0
 11
166.9174247309
 21
145.6116451999
 31
0.0
  0
LINE
  5
3B0
330
1F
100
AcDbEntity
  8
0
  6
Continuous
 62
     7
370
     0
100
AcDbLine
 10
163.7174248117
 20
145.6116451999
 30
0.0
 11
163.7174248117
 21
143.6116448721
 31
0.0
  0
LINE
  5
3B1
330
1F
100
AcDbEntity
  8
0
  6
Continuous
 62
     7
370
     0
100
AcDbLine
 10
164.6174247963
 20
217.3886238715
 30
0.0
 11
164.6174247963
 21
216.4920172771
 31
0.0
  0
LINE
  5
3B2
330
1F
100
AcDbEntity
  8
0
  6
Continuous
 62
     7
370
     0
100
AcDbLine
 10
166.0174247463
 20
216.4920172771
 30
0.0
 11
166.0174247463
 21
217.3886238715
 31
0.0
  0
LINE
  5
3B3
330
1F
100
AcDbEntity
  8
0
  6
Continuous
 62
     7
370
     0
100
AcDbLine
 10
164.9674247838
 20
216.3950442454
 30
0.0
 11
164.9674247838
 21
211.5564081004
 31
0.0
  0
LINE
  5
3B4
330
1F
100
AcDbEntity
  8
0
  6
Continuous
 62
     7
370
     0
100
AcDbLine
 10
165.6674247588
 20
211.5564081004
 30
0.0
 11
165.6674247588
 21
216.3950442454
 31
0.0
  0
LINE
  5
3B5
330
1F
100
AcDbEntity
  8
0
  6
Continuous
 62
     7
370
     0
100
AcDbLine
 10
168.8174248793
 20
231.9071157953
 30
0.0
 11
169.2174246655
 21
231.9071157953
 31
0.0
  0
LINE
  5
3B6
330
1F
100
AcDbEntity
  8
0
  6
Continuous
 62
     7
370
     0
100
AcDbLine
 10
169.2174246655
 20
234.9071181496
 30
0.0
 11
168.8174248793
 21
234.9071181496
 31
0.0
  0
LINE
  5
3B7
330
1F
100
AcDbEntity
  8
0
  6
Continuous
 62
     7
370
     0
100
AcDbLine
 10
168.3174247974
 20
234.9071181496
 30
0.0
 11
168.0174248413
 21
234.9071181496
 31
0.0
  0
LINE
  5
3B8
330
1F
100
AcDbEntity
  8
0
  6
Continuous
 62
     7
370
     0
100
AcDbLine
 10
169.2174246655
 20
231.9071157953
 30
0.0
 11
169.5174246215
 21
232.2071171483
 31
0.0
  0
LINE
  5
3B9
330
1F
100
AcDbEntity
  8
0
  6
Continuous
 62
     7
370
     0
100
AcDbLine
 10
169.5174246215
 20
234.6071167966
 30
0.0
 11
169.2174246655
 21
234.9071181496
 31
0.0
  0
LINE
  5
3BA
330
1F
100
AcDbEntity
  8
0
  6
Continuous
 62
     7
370
     0
100
AcDbLine
 10
162.6174247013
 20
234.9071181496
 30
0.0
 11
162.3174247452
 21
234.9071181496
 31
0.0
  0
LINE
  5
3BB
330
1F
100
AcDbEntity
  8
0
  6
Continuous
 62
     7
370
     0
100
AcDbLine
 10
161.8174246633
 20
234.9071181496
 30
0.0
 11
161.4174248771
 21
234.9071181496
 31
0.0
  0
LINE
  5
3BC
330
1F
100
AcDbEntity
  8
0
  6
Continuous
 62
     7
370
     0
100
AcDbLine
 10
161.4174248771
 20
231.9071157953
 30
0.0
 11
161.8174246633
 21
231.9071157953
 31
0.0
  0
LINE
  5
3BD
330
1F
100
AcDbEntity
  8
0
  6
Continuous
 62
     7
370
     0
100
AcDbLine
 10
161.4174248771
 20
234.9071181496
 30
0.0
 11
161.1174249211
 21
234.6071167966
 31
0.0
  0
LINE
  5
3BE
330
1F
100
AcDbEntity
  8
0
  6
Continuous
 62
     7
370
     0
100
AcDbLine
 10
161.1174249211
 20
232.2071171483
 30
0.0
 11
161.4174248771
 21
231.9071157953
 31
0.0
  0
LINE
  5
3BF
330
1F
100
AcDbEntity
  8
0
  6
Continuous
 62
     7
370
     0
100
AcDbLine
 10
160.7124290549
 20
219.8519311031
 30
0.0
 11
161.8174246633
 21
219.8519311031
 31
0.0
  0
LINE
  5
3C0
330
1F
100
AcDbEntity
  8
0
  6
Continuous
 62
     7
370
     0
100
AcDbLine
 10
161.8174246633
 20
224.85193006
 30
0.0
 11
160.7124290549
 21
224.85193006
 31
0.0
  0
ARC
  5
3C1
330
1F
100
AcDbEntity
  8
0
  6
Continuous
 62
     7
370
     0
100
AcDbCircle
 10
160.712428931
 20
220.091931291
 30
0.0
 40
0.2399999999999869
100
AcDbArc
 50
216.9461268967
 51
270.0
  0
ARC
  5
3C2
330
1F
100
AcDbEntity
  8
0
  6
Continuous
 62
     7
370
     0
100
AcDbCircle
 10
160.712428931
 20
224.611931291
 30
0.0
 40
0.2399999999999869
100
AcDbArc
 50
90.0
 51
143.0538731033
  0
ARC
  5
3C3
330
1F
100
AcDbEntity
  8
0
  6
Continuous
 62
     7
370
     0
100
AcDbCircle
 10
163.7174247713
 20
222.351931291
 30
0.0
 40
4.000000000000002
100
AcDbArc
 50
189.4549807878
 51
216.9461268967
  0
ARC
  5
3C4
330
1F
100
AcDbEntity
  8
0
  6
Continuous
 62
     7
370
     0
100
AcDbCircle
 10
163.7174247713
 20
222.351931291
 30
0.0
 40
3.999999999999992
100
AcDbArc
 50
143.0538731033
 51
170.5450192122
  0
ARC
  5
3C5
330
1F
100
AcDbEntity
  8
0
  6
Continuous
 62
     7
370
     0
100
AcDbCircle
 10
169.9224206116
 20
224.611931291
 30
0.0
 40
0.2399999999999869
100
AcDbArc
 50
36.9461268967
 51
90.0
  0
ARC
  5
3C6
330
1F
100
AcDbEntity
  8
0
  6
Continuous
 62
     7
370
     0
100
AcDbCircle
 10
169.9224206116
 20
220.091931291
 30
0.0
 40
0.2399999999999869
100
AcDbArc
 50
270.0
 51
323.0538731033
  0
LINE
  5
3C7
330
1F
100
AcDbEntity
  8
0
  6
Continuous
 62
     7
370
     0
100
AcDbLine
 10
169.9224204877
 20
224.85193006
 30
0.0
 11
168.8174248793
 21
224.85193006
 31
0.0
  0
LINE
  5
3C8
330
1F
100
AcDbEntity
  8
0
  6
Continuous
 62
     7
370
     0
100
AcDbLine
 10
168.8174248793
 20
219.8519311031
 30
0.0
 11
169.9224204877
 21
219.8519311031
 31
0.0
  0
ARC
  5
3C9
330
1F
100
AcDbEntity
  8
0
  6
Continuous
 62
     7
370
     0
100
AcDbCircle
 10
166.9174247713
 20
222.351931291
 30
0.0
 40
4.000000000000022
100
AcDbArc
 50
11.6560426733
 51
36.9461268967
  0
ARC
  5
3CA
330
1F
100
AcDbEntity
  8
0
  6
Continuous
 62
     7
370
     0
100
AcDbCircle
 10
166.9174247713
 20
222.351931291
 30
0.0
 40
4.000000000000022
100
AcDbArc
 50
323.0538731033
 51
348.3439573267
  0
LINE
  5
3CB
330
1F
100
AcDbEntity
  8
0
  6
Continuous
 62
     7
370
     0
100
AcDbLine
 10
162.3174247452
 20
187.619983696
 30
0.0
 11
162.3174247452
 21
187.0580990916
 31
0.0
  0
LINE
  5
3CC
330
1F
100
AcDbEntity
  8
0
  6
Continuous
 62
     7
370
     0
100
AcDbLine
 10
168.3174247974
 20
187.619983696
 30
0.0
 11
162.3174247452
 21
187.619983696
 31
0.0
  0
LINE
  5
3CD
330
1F
100
AcDbEntity
  8
0
  6
Continuous
 62
     7
370
     0
100
AcDbLine
 10
168.3174247974
 20
187.619983696
 30
0.0
 11
168.3174247974
 21
187.0580990916
 31
0.0
  0
LINE
  5
3CE
330
1F
100
AcDbEntity
  8
0
  6
Continuous
 62
     7
370
     0
100
AcDbLine
 10
167.1174247404
 20
187.0580990916
 30
0.0
 11
168.3174247974
 21
187.0580990916
 31
0.0
  0
LINE
  5
3CF
330
1F
100
AcDbEntity
  8
0
  6
Continuous
 62
     7
370
     0
100
AcDbLine
 10
166.8174247843
 20
187.1142876452
 30
0.0
 11
167.1174247404
 21
187.0580990916
 31
0.0
  0
LINE
  5
3D0
330
1F
100
AcDbEntity
  8
0
  6
Continuous
 62
     7
370
     0
100
AcDbLine
 10
166.8174247843
 20
187.3952299474
 30
0.0
 11
166.8174247843
 21
187.3390413938
 31
0.0
  0
LINE
  5
3D1
330
1F
100
AcDbEntity
  8
0
  6
Continuous
 62
     7
370
     0
100
AcDbLine
 10
166.8174247843
 20
187.3952299474
 30
0.0
 11
163.8174247583
 21
187.3952299474
 31
0.0
  0
LINE
  5
3D2
330
1F
100
AcDbEntity
  8
0
  6
Continuous
 62
     7
370
     0
100
AcDbLine
 10
163.8174247583
 20
187.3390413938
 30
0.0
 11
163.8174247583
 21
187.3952299474
 31
0.0
  0
LINE
  5
3D3
330
1F
100
AcDbEntity
  8
0
  6
Continuous
 62
     7
370
     0
100
AcDbLine
 10
163.5174248022
 20
187.0580990916
 30
0.0
 11
163.8174247583
 21
187.1142876452
 31
0.0
  0
LINE
  5
3D4
330
1F
100
AcDbEntity
  8
0
  6
Continuous
 62
     7
370
     0
100
AcDbLine
 10
162.3174247452
 20
187.0580990916
 30
0.0
 11
163.5174248022
 21
187.0580990916
 31
0.0
  0
LINE
  5
3D5
330
1F
100
AcDbEntity
  8
0
  6
Continuous
 62
     7
370
     0
100
AcDbLine
 10
168.3174247974
 20
213.9220326325
 30
0.0
 11
165.6674247588
 21
213.9220326325
 31
0.0
  0
LINE
  5
3D6
330
1F
100
AcDbEntity
  8
0
  6
Continuous
 62
     7
370
     0
100
AcDbLine
 10
164.9674247838
 20
213.9220326325
 30
0.0
 11
162.3174247452
 21
213.9220326325
 31
0.0
  0
LINE
  5
3D7
330
1F
100
AcDbEntity
  8
0
  6
Continuous
 62
     7
370
     0
100
AcDbLine
 10
162.3174247452
 20
213.9220326325
 30
0.0
 11
162.3174247452
 21
187.619983696
 31
0.0
  0
LINE
  5
3D8
330
1F
100
AcDbEntity
  8
0
  6
Continuous
 62
     7
370
     0
100
AcDbLine
 10
168.3174247974
 20
213.9220326325
 30
0.0
 11
168.3174247974
 21
187.619983696
 31
0.0
  0
LINE
  5
3D9
330
1F
100
AcDbEntity
  8
0
  6
Continuous
 62
     7
370
     0
100
AcDbLine
 10
169.0174247724
 20
238.0659035524
 30
0.0
 11
169.0174247724
 21
234.9071181496
 31
0.0
  0
LINE
  5
3DA
330
1F
100
AcDbEntity
  8
0
  6
Continuous
 62
     7
370
     0
100
AcDbLine
 10
169.0174247724
 20
238.0659035524
 30
0.0
 11
166.8174247843
 21
238.0659035524
 31
0.0
  0
LINE
  5
3DB
330
1F
100
AcDbEntity
  8
0
  6
Continuous
 62
     7
370
     0
100
AcDbLine
 10
166.8174247843
 20
238.0659035524
 30
0.0
 11
166.8174247843
 21
237.3323901674
 31
0.0
  0
LINE
  5
3DC
330
1F
100
AcDbEntity
  8
0
  6
Continuous
 62
     7
370
     0
100
AcDbLine
 10
161.6174247702
 20
234.9071181496
 30
0.0
 11
161.6174247702
 21
238.0659035524
 31
0.0
  0
LINE
  5
3DD
330
1F
100
AcDbEntity
  8
0
  6
Continuous
 62
     7
370
     0
100
AcDbLine
 10
163.8174247583
 20
238.0659035524
 30
0.0
 11
161.6174247702
 21
238.0659035524
 31
0.0
  0
LINE
  5
3DE
330
1F
100
AcDbEntity
  8
0
  6
Continuous
 62
     7
370
     0
100
AcDbLine
 10
163.8174247583
 20
237.3323901674
 30
0.0
 11
163.8174247583
 21
238.0659035524
 31
0.0
  0
LINE
  5
3DF
330
1F
100
AcDbEntity
  8
0
  6
Continuous
 62
     7
370
     0
100
AcDbLine
 10
166.8174247843
 20
238.6394455215
 30
0.0
 11
169.0174247724
 21
238.6394455215
 31
0.0
  0
LINE
  5
3E0
330
1F
100
AcDbEntity
  8
0
  6
Continuous
 62
     7
370
     0
100
AcDbLine
 10
169.0174247724
 20
238.6394455215
 30
0.0
 11
169.0174247724
 21
238.0659035524
 31
0.0
  0
LINE
  5
3E1
330
1F
100
AcDbEntity
  8
0
  6
Continuous
 62
     7
370
     0
100
AcDbLine
 10
166.8174247843
 20
238.0659035524
 30
0.0
 11
166.8174247843
 21
238.6394455215
 31
0.0
  0
LINE
  5
3E2
330
1F
100
AcDbEntity
  8
0
  6
Continuous
 62
     7
370
     0
100
AcDbLine
 10
161.6174247702
 20
238.6394455215
 30
0.0
 11
163.8174247583
 21
238.6394455215
 31
0.0
  0
LINE
  5
3E3
330
1F
100
AcDbEntity
  8
0
  6
Continuous
 62
     7
370
     0
100
AcDbLine
 10
161.6174247702
 20
238.0659035524
 30
0.0
 11
161.6174247702
 21
238.6394455215
 31
0.0
  0
LINE
  5
3E4
330
1F
100
AcDbEntity
  8
0
  6
Continuous
 62
     7
370
     0
100
AcDbLine
 10
163.8174247583
 20
238.6394455215
 30
0.0
 11
163.8174247583
 21
238.0659035524
 31
0.0
  0
LINE
  5
3E5
330
1F
100
AcDbEntity
  8
0
  6
Continuous
 62
     7
370
     0
100
AcDbLine
 10
161.6174247702
 20
216.4908438107
 30
0.0
 11
162.3174247452
 21
216.4908438107
 31
0.0
  0
LINE
  5
3E6
330
1F
100
AcDbEntity
  8
0
  6
Continuous
 62
     7
370
     0
100
AcDbLine
 10
161.6174247702
 20
216.4908438107
 30
0.0
 11
161.6174247702
 21
219.4522111794
 31
0.0
  0
LINE
  5
3E7
330
1F
100
AcDbEntity
  8
0
  6
Continuous
 62
     7
370
     0
100
AcDbLine
 10
161.6174247702
 20
219.4522111794
 30
0.0
 11
161.8174246633
 21
219.4522111794
 31
0.0
  0
LINE
  5
3E8
330
1F
100
AcDbEntity
  8
0
  6
Continuous
 62
     7
370
     0
100
AcDbLine
 10
169.0174247724
 20
219.4522111794
 30
0.0
 11
168.8174248793
 21
219.4522111794
 31
0.0
  0
LINE
  5
3E9
330
1F
100
AcDbEntity
  8
0
  6
Continuous
 62
     7
370
     0
100
AcDbLine
 10
169.0174247724
 20
219.4522111794
 30
0.0
 11
169.0174247724
 21
216.4908438107
 31
0.0
  0
LINE
  5
3EA
330
1F
100
AcDbEntity
  8
0
  6
Continuous
 62
     7
370
     0
100
AcDbLine
 10
169.0174247724
 20
216.4908438107
 30
0.0
 11
168.3174247974
 21
216.4908438107
 31
0.0
  0
LINE
  5
3EB
330
1F
100
AcDbEntity
  8
0
  6
Continuous
 62
     7
370
     0
100
AcDbLine
 10
162.3174247452
 20
213.9220326325
 30
0.0
 11
162.3174247452
 21
216.4908438107
 31
0.0
  0
LINE
  5
3EC
330
1F
100
AcDbEntity
  8
0
  6
Continuous
 62
     7
370
     0
100
AcDbLine
 10
168.3174247974
 20
213.9220326325
 30
0.0
 11
168.3174247974
 21
216.4908438107
 31
0.0
  0
LINE
  5
3ED
330
1F
100
AcDbEntity
  8
0
  6
Continuous
 62
     7
370
     0
100
AcDbLine
 10
166.8174247843
 20
239.7752194783
 30
0.0
 11
169.0174247724
 21
239.7752194783
 31
0.0
  0
LINE
  5
3EE
330
1F
100
AcDbEntity
  8
0
  6
Continuous
 62
     7
370
     0
100
AcDbLine
 10
169.0174247724
 20
239.7752194783
 30
0.0
 11
169.0174247724
 21
238.6394455215
 31
0.0
  0
LINE
  5
3EF
330
1F
100
AcDbEntity
  8
0
  6
Continuous
 62
     7
370
     0
100
AcDbLine
 10
166.8174247843
 20
239.7752194783
 30
0.0
 11
166.8174247843
 21
238.6394455215
 31
0.0
  0
LINE
  5
3F0
330
1F
100
AcDbEntity
  8
0
  6
Continuous
 62
     7
370
     0
100
AcDbLine
 10
161.6174247702
 20
239.7752194783
 30
0.0
 11
163.8174247583
 21
239.7752194783
 31
0.0
  0
LINE
  5
3F1
330
1F
100
AcDbEntity
  8
0
  6
Continuous
 62
     7
370
     0
100
AcDbLine
 10
161.6174247702
 20
238.6394455215
 30
0.0
 11
161.6174247702
 21
239.7752194783
 31
0.0
  0
LINE
  5
3F2
330
1F
100
AcDbEntity
  8
0
  6
Continuous
 62
     7
370
     0
100
AcDbLine
 10
163.8174247583
 20
239.7752194783
 30
0.0
 11
163.8174247583
 21
238.6394455215
 31
0.0
  0
LINE
  5
3F3
330
1F
100
AcDbEntity
  8
0
  6
Continuous
 62
     7
370
     0
100
AcDbLine
 10
169.0174247724
 20
219.8519311031
 30
0.0
 11
169.0174247724
 21
219.4522111794
 31
0.0
  0
LINE
  5
3F4
330
1F
100
AcDbEntity
  8
0
  6
Continuous
 62
     7
370
     0
100
AcDbLine
 10
161.6174247702
 20
219.4522111794
 30
0.0
 11
161.6174247702
 21
219.8519311031
 31
0.0
  0
LINE
  5
3F5
330
1F
100
AcDbEntity
  8
0
  6
Continuous
 62
     7
370
     0
100
AcDbLine
 10
170.8174247415
 20
164.611644589
 30
0.0
 11
170.8174247415
 21
204.6116455575
 31
0.0
  0
LINE
  5
3F6
330
1F
100
AcDbEntity
  8
0
  6
Continuous
 62
     7
370
     0
100
AcDbLine
 10
170.8174247415
 20
204.6116455575
 30
0.0
 11
171.8174249054
 21
205.6116438588
 31
0.0
  0
LINE
  5
3F7
330
1F
100
AcDbEntity
  8
0
  6
Continuous
 62
     7
370
     0
100
AcDbLine
 10
171.8174249054
 20
205.6116438588
 30
0.0
 11
171.8174249054
 21
164.611644589
 31
0.0
  0
LINE
  5
3F8
330
1F
100
AcDbEntity
  8
0
  6
Continuous
 62
     7
370
     0
100
AcDbLine
 10
171.8174249054
 20
164.611644589
 30
0.0
 11
170.8174247415
 21
164.611644589
 31
0.0
  0
ARC
  5
3F9
330
1F
100
AcDbEntity
  8
0
  6
Continuous
 62
     7
370
     0
100
AcDbCircle
 10
165.3174247713
 20
203.1116446694
 30
0.0
 40
3.75
100
AcDbArc
 50
156.4218215218
 51
216.8698976458
  0
ARC
  5
3FA
330
1F
100
AcDbEntity
  8
0
  6
Continuous
 62
     7
370
     0
100
AcDbCircle
 10
165.3174247713
 20
185.6116446694
 30
0.0
 40
5.000000000000028
100
AcDbArc
 50
126.8698976458
 51
180.0
  0
LINE
  5
3FB
330
1F
100
AcDbEntity
  8
0
  6
Continuous
 62
     7
370
     0
100
AcDbLine
 10
160.3174248831
 20
177.6116446243
 30
0.0
 11
160.3174248831
 21
185.6116447715
 31
0.0
  0
ARC
  5
3FC
330
1F
100
AcDbEntity
  8
0
  6
Continuous
 62
     7
370
     0
100
AcDbCircle
 10
165.3174247713
 20
177.6116446694
 30
0.0
 40
5.000000000000028
100
AcDbArc
 50
180.0
 51
0.0
  0
LINE
  5
3FD
330
1F
100
AcDbEntity
  8
0
  6
Continuous
 62
     7
370
     0
100
AcDbLine
 10
170.3174246595
 20
185.6116447715
 30
0.0
 11
170.3174246595
 21
177.6116446243
 31
0.0
  0
ARC
  5
3FE
330
1F
100
AcDbEntity
  8
0
  6
Continuous
 62
     7
370
     0
100
AcDbCircle
 10
165.3174247713
 20
185.6116446694
 30
0.0
 40
4.999999999999983
100
AcDbArc
 50
0.0
 51
53.1301023542
  0
ARC
  5
3FF
330
1F
100
AcDbEntity
  8
0
  6
Continuous
 62
     7
370
     0
100
AcDbCircle
 10
165.3174247713
 20
203.1116446694
 30
0.0
 40
3.75
100
AcDbArc
 50
323.1301023542
 51
23.5781784782
  0
LINE
  5
400
330
1F
100
AcDbEntity
  8
0
  6
Continuous
 62
     7
370
     0
100
AcDbLine
 10
170.8174247415
 20
204.6116455575
 30
0.0
 11
168.7543566459
 21
204.6116455575
 31
0.0
  0
LINE
  5
401
330
1F
100
AcDbEntity
  8
0
  6
Continuous
 62
     7
370
     0
100
AcDbLine
 10
159.8174248011
 20
204.6116455575
 30
0.0
 11
159.8174248011
 21
164.611644589
 31
0.0
  0
LINE
  5
402
330
1F
100
AcDbEntity
  8
0
  6
Continuous
 62
     7
370
     0
100
AcDbLine
 10
161.8804928967
 20
204.6116455575
 30
0.0
 11
159.8174248011
 21
204.6116455575
 31
0.0
  0
LINE
  5
403
330
1F
100
AcDbEntity
  8
0
  6
Continuous
 62
     7
370
     0
100
AcDbLine
 10
159.8174248011
 20
164.611644589
 30
0.0
 11
170.8174247415
 21
164.611644589
 31
0.0
  0
LINE
  5
404
330
1F
100
AcDbEntity
  8
0
  6
Continuous
 62
     7
370
     0
100
AcDbLine
 10
158.8174246372
 20
164.611644589
 30
0.0
 11
158.8174246372
 21
205.6116438588
 31
0.0
  0
LINE
  5
405
330
1F
100
AcDbEntity
  8
0
  6
Continuous
 62
     7
370
     0
100
AcDbLine
 10
158.8174246372
 20
205.6116438588
 30
0.0
 11
159.8174248011
 21
204.6116455575
 31
0.0
  0
LINE
  5
406
330
1F
100
AcDbEntity
  8
0
  6
Continuous
 62
     7
370
     0
100
AcDbLine
 10
159.8174248011
 20
164.611644589
 30
0.0
 11
158.8174246372
 21
164.611644589
 31
0.0
  0
LINE
  5
407
330
1F
100
AcDbEntity
  8
0
  6
Continuous
 62
     7
370
     0
100
AcDbLine
 10
168.3174247974
 20
207.6116441866
 30
0.0
 11
169.8174245776
 21
207.6116441866
 31
0.0
  0
LINE
  5
408
330
1F
100
AcDbEntity
  8
0
  6
Continuous
 62
     7
370
     0
100
AcDbLine
 10
171.8174249054
 20
205.6116438588
 30
0.0
 11
169.8174245776
 21
207.6116441866
 31
0.0
  0
ARC
  5
409
330
1F
100
AcDbEntity
  8
0
  6
Continuous
 62
     7
370
     0
100
AcDbCircle
 10
165.3174247713
 20
203.1116446694
 30
0.0
 40
3.75
100
AcDbArc
 50
23.5781784782
 51
36.8698976458
  0
LINE
  5
40A
330
1F
100
AcDbEntity
  8
0
  6
Continuous
 62
     7
370
     0
100
AcDbLine
 10
160.817424965
 20
207.6116441866
 30
0.0
 11
158.8174246372
 21
205.6116438588
 31
0.0
  0
LINE
  5
40B
330
1F
100
AcDbEntity
  8
0
  6
Continuous
 62
     7
370
     0
100
AcDbLine
 10
160.817424965
 20
207.6116441866
 30
0.0
 11
162.3174247452
 21
207.6116441866
 31
0.0
  0
ARC
  5
40C
330
1F
100
AcDbEntity
  8
0
  6
Continuous
 62
     7
370
     0
100
AcDbCircle
 10
165.3174247713
 20
203.1116446694
 30
0.0
 40
3.75
100
AcDbArc
 50
143.1301023542
 51
156.4218215218
  0
LINE
  5
40D
330
1F
100
AcDbEntity
  8
0
  6
Continuous
 62
     7
370
     0
100
AcDbLine
 10
165.3174247713
 20
148.611643829
 30
0.0
 11
159.8174248011
 21
148.611643829
 31
0.0
  0
LINE
  5
40E
330
1F
100
AcDbEntity
  8
0
  6
Continuous
 62
     7
370
     0
100
AcDbLine
 10
170.8174247415
 20
148.611643829
 30
0.0
 11
165.3174247713
 21
148.611643829
 31
0.0
  0
LINE
  5
40F
330
1F
100
AcDbEntity
  8
0
  6
Continuous
 62
     7
370
     0
100
AcDbLine
 10
165.3174247713
 20
149.1116448423
 30
0.0
 11
171.3174248235
 21
149.1116448423
 31
0.0
  0
LINE
  5
410
330
1F
100
AcDbEntity
  8
0
  6
Continuous
 62
     7
370
     0
100
AcDbLine
 10
159.3174247192
 20
149.1116448423
 30
0.0
 11
165.3174247713
 21
149.1116448423
 31
0.0
  0
LINE
  5
411
330
1F
100
AcDbEntity
  8
0
  6
Continuous
 62
     7
370
     0
100
AcDbLine
 10
162.0174247892
 20
208.8116440108
 30
0.0
 11
162.3174247452
 21
208.8116440108
 31
0.0
  0
LINE
  5
412
330
1F
100
AcDbEntity
  8
0
  6
Continuous
 62
     7
370
     0
100
AcDbLine
 10
168.3174247974
 20
208.8116440108
 30
0.0
 11
168.6174247534
 21
208.8116440108
 31
0.0
  0
LINE
  5
413
330
1F
100
AcDbEntity
  8
0
  6
Continuous
 62
     7
370
     0
100
AcDbLine
 10
160.817424965
 20
207.6116441866
 30
0.0
 11
162.0174247892
 21
208.8116440108
 31
0.0
  0
LINE
  5
414
330
1F
100
AcDbEntity
  8
0
  6
Continuous
 62
     7
370
     0
100
AcDbLine
 10
168.6174247534
 20
208.8116440108
 30
0.0
 11
169.8174245776
 21
207.6116441866
 31
0.0
  0
LINE
  5
415
330
1F
100
AcDbEntity
  8
0
  6
Continuous
 62
     7
370
     0
100
AcDbLine
 10
166.8174247843
 20
239.7752194783
 30
0.0
 11
163.8174247583
 21
239.7752194783
 31
0.0
  0
ARC
  5
416
330
1F
100
AcDbEntity
  8
0
  6
Continuous
 62
     7
370
     0
100
AcDbCircle
 10
165.3750369814
 20
203.6610876028
 30
0.0
 40
2.692400631042158
100
AcDbArc
 50
0.1770604478
 51
62.0071151838
  0
ARC
  5
417
330
1F
100
AcDbEntity
  8
0
  6
Continuous
 62
     7
370
     0
100
AcDbCircle
 10
165.3149918552
 20
203.6305255629
 30
0.0
 40
2.747842177651768
100
AcDbArc
 50
61.2006574691
 51
179.1892303094
  0
CIRCLE
  5
418
330
1F
100
AcDbEntity
  8
0
  6
Continuous
 62
     7
370
     0
100
AcDbCircle
 10
165.3470651927
 20
203.6758523979
 30
0.0
 40
2.528344854128022
  0
LINE
  5
419
330
1F
100
AcDbEntity
  8
0
  6
Continuous
 62
     7
370
     0
100
AcDbLine
 10
165.2843261964
 20
205.1583635738
 30
0.0
 11
164.0211965078
 21
204.4044579496
 31
0.0
  0
LINE
  5
41A
330
1F
100
AcDbEntity
  8
0
  6
Continuous
 62
     7
370
     0
100
AcDbLine
 10
164.0542950136
 20
202.9529619148
 30
0.0
 11
164.0211965078
 21
204.4044579496
 31
0.0
  0
LINE
  5
41B
330
1F
100
AcDbEntity
  8
0
  6
Continuous
 62
     7
370
     0
100
AcDbLine
 10
165.3505233462
 20
202.2553696414
 30
0.0
 11
164.0542950136
 21
202.9529619148
 31
0.0
  0
LINE
  5
41C
330
1F
100
AcDbEntity
  8
0
  6
Continuous
 62
     7
370
     0
100
AcDbLine
 10
165.3505233462
 20
202.2553696414
 30
0.0
 11
166.6136530348
 21
203.0092752656
 31
0.0
  0
LINE
  5
41D
330
1F
100
AcDbEntity
  8
0
  6
Continuous
 62
     7
370
     0
100
AcDbLine
 10
166.6136530348
 20
203.0092752656
 30
0.0
 11
166.580554529
 21
204.4607713004
 31
0.0
  0
LINE
  5
41E
330
1F
100
AcDbEntity
  8
0
  6
Continuous
 62
     7
370
     0
100
AcDbLine
 10
165.2843261964
 20
205.1583635738
 30
0.0
 11
166.580554529
 21
204.4607713004
 31
0.0
  0
ARC
  5
41F
330
1F
100
AcDbEntity
  8
0
  6
Continuous
 62
     7
370
     0
100
AcDbCircle
 10
165.3174247713
 20
203.3704198188
 30
0.0
 40
2.750264501128276
100
AcDbArc
 50
180.7946572994
 51
359.2053427006
  0
LINE
  5
420
330
1F
100
AcDbEntity
  8
0
  6
Continuous
 62
     7
370
     0
100
AcDbLine
 10
166.580554529
 20
204.2547478458
 30
0.0
 11
166.580554529
 21
204.4607713004
 31
0.0
  0
LINE
  5
421
330
1F
100
AcDbEntity
  8
0
  6
Continuous
 62
     7
370
     0
100
AcDbLine
 10
166.6090181916
 20
203.0065092375
 30
0.0
 11
166.580554529
 21
204.2547478458
 31
0.0
  0
SPLINE
  5
422
330
1F
100
AcDbEntity
  8
0
  6
Continuous
 62
     7
370
     0
100
AcDbSpline
210
0.0
220
0.0
230
1.0
 70
     8
 71
     3
 72
     8
 73
     4
 74
     0
 42
0.000000001
 43
0.00000001
 40
0.0
 40
0.0
 40
0.0
 40
0.0
 40
1.0
 40
1.0
 40
1.0
 40
1.0
 10
164.6333504226498
 20
204.5638012583355
 30
0.0
 10
164.6460859536002
 20
204.5717082561619
 30
0.0
 10
164.6589636165856
 20
204.5793943566785
 30
0.0
 10
164.6719753846675
 20
204.5868547689655
 30
0.0
  0
LINE
  5
423
330
1F
100
AcDbEntity
  8
0
  6
Continuous
 62
     7
370
     0
100
AcDbLine
 10
164.6333504123
 20
204.5638016542
 30
0.0
 11
164.025831351
 21
204.201200523
 31
0.0
  0
LINE
  5
424
330
1F
100
AcDbEntity
  8
0
  6
Continuous
 62
     7
370
     0
100
AcDbLine
 10
165.2843261964
 20
204.9523401191
 30
0.0
 11
165.2843261964
 21
205.1583635738
 31
0.0
  0
LINE
  5
425
330
1F
100
AcDbEntity
  8
0
  6
Continuous
 62
     7
370
     0
100
AcDbLine
 10
165.2843261964
 20
204.9523401191
 30
0.0
 11
164.6719753863
 21
204.5868556132
 31
0.0
  0
LINE
  5
426
330
1F
100
AcDbEntity
  8
0
  6
Continuous
 62
     7
370
     0
100
AcDbLine
 10
166.580554529
 20
204.2547478458
 30
0.0
 11
165.9322383003
 21
204.6036529472
 31
0.0
  0
LINE
  5
427
330
1F
100
AcDbEntity
  8
0
  6
Continuous
 62
     7
370
     0
100
AcDbLine
 10
165.9322383003
 20
204.6036529472
 30
0.0
 11
165.2843261964
 21
204.9523401191
 31
0.0
  0
ARC
  5
428
330
1F
100
AcDbEntity
  8
0
  6
Continuous
 62
     7
370
     0
100
AcDbCircle
 10
165.3498089136
 20
203.5015546163
 30
0.0
 40
1.246533080768475
100
AcDbArc
 50
331.6561695167
 51
62.1447503554
  0
ARC
  5
429
330
1F
100
AcDbEntity
  8
0
  6
Continuous
 62
     7
370
     0
100
AcDbCircle
 10
165.2904189473
 20
203.4963579066
 30
0.0
 40
1.253465282282494
100
AcDbArc
 50
121.6145124224
 51
176.048140207
  0
ARC
  5
42A
330
1F
100
AcDbEntity
  8
0
  6
Continuous
 62
     7
370
     0
100
AcDbCircle
 10
165.3172551935
 20
203.4587105815
 30
0.0
 40
1.299652739085585
100
AcDbArc
 50
61.7584122357
 51
119.7688236258
  0
ARC
  5
42B
330
1F
100
AcDbEntity
  8
0
  6
Continuous
 62
     7
370
     0
100
AcDbCircle
 10
165.2790399616
 20
203.5021384771
 30
0.0
 40
1.241908621194269
100
AcDbArc
 50
186.4299732685
 51
210.6654450493
  0
ARC
  5
42C
330
1F
100
AcDbEntity
  8
0
  6
Continuous
 62
     7
370
     0
100
AcDbCircle
 10
165.3750421097
 20
193.8380524527
 30
0.0
 40
2.692395493167314
100
AcDbArc
 50
0.176994972
 51
62.0071806596
  0
ARC
  5
42D
330
1F
100
AcDbEntity
  8
0
  6
Continuous
 62
     7
370
     0
100
AcDbCircle
 10
165.3149918552
 20
193.8074873201
 30
0.0
 40
2.747842177651768
100
AcDbArc
 50
61.2006574691
 51
179.1892303094
  0
CIRCLE
  5
42E
330
1F
100
AcDbEntity
  8
0
  6
Continuous
 62
     7
370
     0
100
AcDbCircle
 10
165.3470621819
 20
193.8528164564
 30
0.0
 40
2.528345070735782
  0
LINE
  5
42F
330
1F
100
AcDbEntity
  8
0
  6
Continuous
 62
     7
370
     0
100
AcDbLine
 10
165.2843261964
 20
195.3353262624
 30
0.0
 11
164.0211965078
 21
194.5814206382
 31
0.0
  0
LINE
  5
430
330
1F
100
AcDbEntity
  8
0
  6
Continuous
 62
     7
370
     0
100
AcDbLine
 10
164.0542950136
 20
193.129923672
 30
0.0
 11
164.0211965078
 21
194.5814206382
 31
0.0
  0
LINE
  5
431
330
1F
100
AcDbEntity
  8
0
  6
Continuous
 62
     7
370
     0
100
AcDbLine
 10
165.3505233462
 20
192.4323313987
 30
0.0
 11
164.0542950136
 21
193.129923672
 31
0.0
  0
LINE
  5
432
330
1F
100
AcDbEntity
  8
0
  6
Continuous
 62
     7
370
     0
100
AcDbLine
 10
165.3505233462
 20
192.4323313987
 30
0.0
 11
166.6136530348
 21
193.1862370228
 31
0.0
  0
LINE
  5
433
330
1F
100
AcDbEntity
  8
0
  6
Continuous
 62
     7
370
     0
100
AcDbLine
 10
166.6136530348
 20
193.1862370228
 30
0.0
 11
166.580554529
 21
194.6377349203
 31
0.0
  0
LINE
  5
434
330
1F
100
AcDbEntity
  8
0
  6
Continuous
 62
     7
370
     0
100
AcDbLine
 10
165.2843261964
 20
195.3353262624
 30
0.0
 11
166.580554529
 21
194.6377349203
 31
0.0
  0
ARC
  5
435
330
1F
100
AcDbEntity
  8
0
  6
Continuous
 62
     7
370
     0
100
AcDbCircle
 10
165.3174247713
 20
193.5473818752
 30
0.0
 40
2.750264492360849
100
AcDbArc
 50
180.7946441309
 51
359.2053558692
  0
LINE
  5
436
330
1F
100
AcDbEntity
  8
0
  6
Continuous
 62
     7
370
     0
100
AcDbLine
 10
166.580554529
 20
194.4317105343
 30
0.0
 11
166.580554529
 21
194.6377349203
 31
0.0
  0
LINE
  5
437
330
1F
100
AcDbEntity
  8
0
  6
Continuous
 62
     7
370
     0
100
AcDbLine
 10
166.6090181916
 20
193.1834709948
 30
0.0
 11
166.580554529
 21
194.4317105343
 31
0.0
  0
SPLINE
  5
438
330
1F
100
AcDbEntity
  8
0
  6
Continuous
 62
     7
370
     0
100
AcDbSpline
210
0.0
220
0.0
230
1.0
 70
     8
 71
     3
 72
     8
 73
     4
 74
     0
 42
0.000000001
 43
0.00000001
 40
0.0
 40
0.0
 40
0.0
 40
0.0
 40
1.0
 40
1.0
 40
1.0
 40
1.0
 10
164.6333504226498
 20
194.7407637404283
 30
0.0
 10
164.6460859536002
 20
194.7486707382546
 30
0.0
 10
164.6589636165856
 20
194.7563568387713
 30
0.0
 10
164.6719753846675
 20
194.7638172510582
 30
0.0
  0
LINE
  5
439
330
1F
100
AcDbEntity
  8
0
  6
Continuous
 62
     7
370
     0
100
AcDbLine
 10
164.6333504123
 20
194.7407634115
 30
0.0
 11
164.025831351
 21
194.3781632116
 31
0.0
  0
LINE
  5
43A
330
1F
100
AcDbEntity
  8
0
  6
Continuous
 62
     7
370
     0
100
AcDbLine
 10
165.2843261964
 20
195.1293018764
 30
0.0
 11
165.2843261964
 21
195.3353262624
 31
0.0
  0
LINE
  5
43B
330
1F
100
AcDbEntity
  8
0
  6
Continuous
 62
     7
370
     0
100
AcDbLine
 10
165.2843261964
 20
195.1293018764
 30
0.0
 11
164.6719753863
 21
194.7638173705
 31
0.0
  0
LINE
  5
43C
330
1F
100
AcDbEntity
  8
0
  6
Continuous
 62
     7
370
     0
100
AcDbLine
 10
166.580554529
 20
194.4317105343
 30
0.0
 11
165.9322383003
 21
194.7806147044
 31
0.0
  0
LINE
  5
43D
330
1F
100
AcDbEntity
  8
0
  6
Continuous
 62
     7
370
     0
100
AcDbLine
 10
165.9322383003
 20
194.7806147044
 30
0.0
 11
165.2843261964
 21
195.1293018764
 31
0.0
  0
ARC
  5
43E
330
1F
100
AcDbEntity
  8
0
  6
Continuous
 62
     7
370
     0
100
AcDbCircle
 10
165.3498093951
 20
193.6785165198
 30
0.0
 40
1.246532726423898
100
AcDbArc
 50
331.6561530901
 51
62.144766782
  0
ARC
  5
43F
330
1F
100
AcDbEntity
  8
0
  6
Continuous
 62
     7
370
     0
100
AcDbCircle
 10
165.2904153307
 20
193.6733216874
 30
0.0
 40
1.253461663251108
100
AcDbArc
 50
121.6144201301
 51
176.0481361511
  0
ARC
  5
440
330
1F
100
AcDbEntity
  8
0
  6
Continuous
 62
     7
370
     0
100
AcDbCircle
 10
165.3172551176
 20
193.6356780396
 30
0.0
 40
1.299647752901325
100
AcDbArc
 50
61.7582903619
 51
119.7689454997
  0
ARC
  5
441
330
1F
100
AcDbEntity
  8
0
  6
Continuous
 62
     7
370
     0
100
AcDbCircle
 10
165.2790474186
 20
193.6791039297
 30
0.0
 40
1.241916445136723
100
AcDbArc
 50
186.4301041534
 51
210.6653792722
  0
ARC
  5
442
330
1F
100
AcDbEntity
  8
0
  6
Continuous
 62
     7
370
     0
100
AcDbCircle
 10
165.3174247713
 20
181.6116446717
 30
0.0
 40
4.000000000000004
100
AcDbArc
 50
318.5903778907
 51
41.4096221093
  0
ARC
  5
443
330
1F
100
AcDbEntity
  8
0
  6
Continuous
 62
     7
370
     0
100
AcDbCircle
 10
165.3174247713
 20
181.6116446717
 30
0.0
 40
4.000000000000009
100
AcDbArc
 50
138.5903778907
 51
221.4096221093
  0
LINE
  5
444
330
1F
100
AcDbEntity
  8
0
  6
Continuous
 62
     7
370
     0
100
AcDbLine
 10
170.2364997127
 20
185.6116447715
 30
0.0
 11
170.2364997127
 21
177.6116446243
 31
0.0
  0
SPLINE
  5
445
330
1F
100
AcDbEntity
  8
0
  6
Continuous
 62
     7
370
     0
100
AcDbSpline
210
0.0
220
0.0
230
1.0
 70
     8
 71
     3
 72
    10
 73
     6
 74
     0
 42
0.000000001
 43
0.00000001
 40
0.0
 40
0.0
 40
0.0
 40
0.0
 40
0.5
 40
0.5
 40
1.0
 40
1.0
 40
1.0
 40
1.0
 10
169.9365455770746
 20
177.6116478159003
 30
0.0
 10
170.0142127287362
 20
177.6116472918684
 30
0.0
 10
170.0914222253856
 20
177.6116467678365
 30
0.0
 10
170.2022144869471
 20
177.611645719773
 30
0.0
 10
170.2351444066188
 20
177.6116451957414
 30
0.0
 10
170.2364998853193
 20
177.6116446717098
 30
0.0
  0
LINE
  5
446
330
1F
100
AcDbEntity
  8
0
  6
Continuous
 62
     7
370
     0
100
AcDbLine
 10
169.9365453915
 20
185.6116447715
 30
0.0
 11
169.9365453915
 21
177.611647884
 31
0.0
  0
SPLINE
  5
447
330
1F
100
AcDbEntity
  8
0
  6
Continuous
 62
     7
370
     0
100
AcDbSpline
210
0.0
220
0.0
230
1.0
 70
    24
 71
     3
 72
     9
 73
     5
 74
     0
 42
0.000000001
 43
0.00000001
 40
0.0
 40
0.0
 40
0.0
 40
0.0
 40
0.499997837543848
 40
1.0
 40
1.0
 40
1.0
 40
1.0
 10
169.9365455767984
 20
185.6116446717101
 30
0.0
 10
170.0122749559018
 20
185.6116446717101
 30
0.0
 10
170.16990949927
 20
185.6116446717101
 30
0.0
 10
170.2351782134219
 20
185.6116446717101
 30
0.0
 10
170.2364998853454
 20
185.6116446717101
 30
0.0
  0
LINE
  5
448
330
1F
100
AcDbEntity
  8
0
  6
Continuous
 62
     7
370
     0
100
AcDbLine
 10
160.3983498299
 20
177.6116446243
 30
0.0
 11
160.3983498299
 21
185.6116447715
 31
0.0
  0
SPLINE
  5
449
330
1F
100
AcDbEntity
  8
0
  6
Continuous
 62
     7
370
     0
100
AcDbSpline
210
0.0
220
0.0
230
1.0
 70
     8
 71
     3
 72
    10
 73
     6
 74
     0
 42
0.000000001
 43
0.00000001
 40
0.0
 40
0.0
 40
0.0
 40
0.0
 40
0.5
 40
0.5
 40
1.0
 40
1.0
 40
1.0
 40
1.0
 10
160.698303965536
 20
185.6116415267796
 30
0.0
 10
160.6206368138744
 20
185.6116420509348
 30
0.0
 10
160.5434273172251
 20
185.61164257509
 30
0.0
 10
160.4326350556637
 20
185.6116436234002
 30
0.0
 10
160.3997051359919
 20
185.6116441475552
 30
0.0
 10
160.3983496572914
 20
185.6116446717101
 30
0.0
  0
LINE
  5
44A
330
1F
100
AcDbEntity
  8
0
  6
Continuous
 62
     7
370
     0
100
AcDbLine
 10
160.6983041511
 20
177.6116446243
 30
0.0
 11
160.6983041511
 21
185.6116415119
 31
0.0
  0
SPLINE
  5
44B
330
1F
100
AcDbEntity
  8
0
  6
Continuous
 62
     7
370
     0
100
AcDbSpline
210
0.0
220
0.0
230
1.0
 70
    24
 71
     3
 72
    10
 73
     6
 74
     0
 42
0.000000001
 43
0.00000001
 40
0.0
 40
0.0
 40
0.0
 40
0.0
 40
0.5
 40
0.5
 40
1.0
 40
1.0
 40
1.0
 40
1.0
 10
160.3983496572656
 20
177.6116446717101
 30
0.0
 10
160.399705135967
 20
177.6116446717103
 30
0.0
 10
160.4326350556823
 20
177.6116446717104
 30
0.0
 10
160.5434273173703
 20
177.6116446717103
 30
0.0
 10
160.6206368141004
 20
177.6116446717102
 30
0.0
 10
160.6983039658123
 20
177.6116446717101
 30
0.0
  0
SPLINE
  5
44C
330
1F
100
AcDbEntity
  8
0
  6
Continuous
 62
     7
370
     0
100
AcDbSpline
210
0.0
220
0.0
230
1.0
 70
     8
 71
     3
 72
    17
 73
    13
 74
     0
 42
0.000000001
 43
0.00000001
 40
0.0
 40
0.0
 40
0.0
 40
0.0
 40
0.062550137883576
 40
0.125101793286261
 40
0.250051444152696
 40
0.3750708483523499
 40
0.4376541028667049
 40
0.500238687037138
 40
0.625171040415573
 40
0.750090458566893
 40
0.875053743319954
 40
1.0
 40
1.0
 40
1.0
 40
1.0
 10
169.9365455770747
 20
177.6116478159003
 30
0.0
 10
169.9365455770955
 20
177.4607420539081
 30
0.0
 10
169.9211452584928
 20
177.1586924641693
 30
0.0
 10
169.8318322090687
 20
176.5613961630999
 30
0.0
 10
169.6137166962159
 20
175.834117985542
 30
0.0
 10
169.2534237286475
 20
175.1657363282214
 30
0.0
 10
168.8934152809969
 20
174.6802314240061
 30
0.0
 10
168.4869928897573
 20
174.2331896243859
 30
0.0
 10
167.9023675186232
 20
173.7491550832287
 30
0.0
 10
167.0991993134502
 20
173.3209700125061
 30
0.0
 10
166.2294072429074
 20
173.05463186953
 30
0.0
 10
165.6247902608634
 20
172.9938695022815
 30
0.0
 10
165.323350324598
 20
172.9939385992795
 30
0.0
  0
SPLINE
  5
44D
330
1F
100
AcDbEntity
  8
0
  6
Continuous
 62
     7
370
     0
100
AcDbSpline
210
0.0
220
0.0
230
1.0
 70
     8
 71
     3
 72
    16
 73
    12
 74
     0
 42
0.000000001
 43
0.00000001
 40
0.0
 40
0.0
 40
0.0
 40
0.0
 40
0.124960700844018
 40
0.249906817750813
 40
0.374893842031836
 40
0.499865650388283
 40
0.624849774801164
 40
0.749813580946707
 40
0.87483503316308
 40
0.9374184756819526
 40
1.0
 40
1.0
 40
1.0
 40
1.0
 10
165.323350324598
 20
172.9939385992795
 30
0.0
 10
165.0214269135194
 20
172.994007807101
 30
0.0
 10
164.4158504951967
 20
173.0522894688306
 30
0.0
 10
163.5436408336017
 20
173.3169562015011
 30
0.0
 10
162.7395068996793
 20
173.7464386398262
 30
0.0
 10
162.0339105764218
 20
174.3238693347445
 30
0.0
 10
161.454835147358
 20
175.0279279930897
 30
0.0
 10
161.0225272195023
 20
175.8308585563265
 30
0.0
 10
160.804315719146
 20
176.5594284659941
 30
0.0
 10
160.7139205169649
 20
177.1577770638453
 30
0.0
 10
160.6983039658123
 20
177.4604385112022
 30
0.0
 10
160.6983039658123
 20
177.6116446717101
 30
0.0
  0
SPLINE
  5
44E
330
1F
100
AcDbEntity
  8
0
  6
Continuous
 62
     7
370
     0
100
AcDbSpline
210
0.0
220
0.0
230
1.0
 70
     8
 71
     3
 72
     9
 73
     5
 74
     0
 42
0.000000001
 43
0.00000001
 40
0.0
 40
0.0
 40
0.0
 40
0.0
 40
0.499967397181534
 40
1.0
 40
1.0
 40
1.0
 40
1.0
 10
165.323350324598
 20
172.9939385992795
 30
0.0
 10
165.324821196802
 20
172.9182245205291
 30
0.0
 10
165.3208506442859
 20
172.7605783163897
 30
0.0
 10
165.3242287077032
 20
172.6950925319514
 30
0.0
 10
165.3244759298614
 20
172.6938584573319
 30
0.0
  0
SPLINE
  5
44F
330
1F
100
AcDbEntity
  8
0
  6
Continuous
 62
     7
370
     0
100
AcDbSpline
210
0.0
220
0.0
230
1.0
 70
     8
 71
     3
 72
    14
 73
    10
 74
     0
 42
0.000000001
 43
0.00000001
 40
0.0
 40
0.0
 40
0.0
 40
0.0
 40
0.25
 40
0.25
 40
0.5
 40
0.5
 40
0.75
 40
0.75
 40
1.0
 40
1.0
 40
1.0
 40
1.0
 10
170.2364998853454
 20
177.6116446740049
 30
0.0
 10
170.2364998494383
 20
176.9683269974464
 30
0.0
 10
170.1087059467934
 20
176.3252615338367
 30
0.0
 10
169.6167579797232
 20
175.1363891028827
 30
0.0
 10
169.2527967727529
 20
174.5910482067137
 30
0.0
 10
168.3436606427601
 20
173.6806077177056
 30
0.0
 10
167.7988421265873
 20
173.315865042903
 30
0.0
 10
166.6106762725373
 20
172.8222131233795
 30
0.0
 10
165.9677947289232
 20
172.6934974039034
 30
0.0
 10
165.3244777699309
 20
172.6925750471689
 30
0.0
  0
SPLINE
  5
450
330
1F
100
AcDbEntity
  8
0
  6
Continuous
 62
     7
370
     0
100
AcDbSpline
210
0.0
220
0.0
230
1.0
 70
     8
 71
     3
 72
    14
 73
    10
 74
     0
 42
0.000000001
 43
0.00000001
 40
0.0
 40
0.0
 40
0.0
 40
0.0
 40
0.25
 40
0.25
 40
0.5
 40
0.5
 40
0.75
 40
0.75
 40
1.0
 40
1.0
 40
1.0
 40
1.0
 10
165.3244777699309
 20
172.6925750471689
 30
0.0
 10
164.6799853122674
 20
172.6916509331813
 30
0.0
 10
164.0355634340261
 20
172.8189941174629
 30
0.0
 10
162.8441656197085
 20
173.3109868498231
 30
0.0
 10
162.2976601554006
 20
173.6754421147309
 30
0.0
 10
161.3855559652433
 20
174.5862393587552
 30
0.0
 10
161.0203174207892
 20
175.1322216727368
 30
0.0
 10
160.5266168060009
 20
176.3229128372087
 30
0.0
 10
160.3983496934731
 20
176.9671514950661
 30
0.0
 10
160.3983496572653
 20
177.6116446717101
 30
0.0
  0
LINE
  5
451
330
1F
100
AcDbEntity
  8
0
  6
Continuous
 62
     7
370
     0
100
AcDbLine
 10
170.2364997127
 20
177.6116446243
 30
0.0
 11
170.2572812447
 21
177.6116446243
 31
0.0
  0
ARC
  5
452
330
1F
100
AcDbEntity
  8
0
  6
Continuous
 62
     7
370
     0
100
AcDbCircle
 10
165.3174247713
 20
177.611644674
 30
0.0
 40
4.939856468161343
100
AcDbArc
 50
180.0000000266
 51
0.0000343334
  0
LINE
  5
453
330
1F
100
AcDbEntity
  8
0
  6
Continuous
 62
     7
370
     0
100
AcDbLine
 10
160.3775682979
 20
177.6116446243
 30
0.0
 11
160.3983498299
 21
177.6116446243
 31
0.0
  0
LINE
  5
454
330
1F
100
AcDbEntity
  8
0
  6
Continuous
 62
     7
370
     0
100
AcDbLine
 10
160.3983498299
 20
185.6116447715
 30
0.0
 11
160.3775682979
 21
185.6116447715
 31
0.0
  0
ARC
  5
455
330
1F
100
AcDbEntity
  8
0
  6
Continuous
 62
     7
370
     0
100
AcDbCircle
 10
165.3174247713
 20
185.6116446694
 30
0.0
 40
4.939856460831098
100
AcDbArc
 50
127.3948978734
 51
179.9999656666
  0
ARC
  5
456
330
1F
100
AcDbEntity
  8
0
  6
Continuous
 62
     7
370
     0
100
AcDbCircle
 10
165.3174247713
 20
185.6116446694
 30
0.0
 40
4.939856460831065
100
AcDbArc
 50
0.0
 51
52.6051021266
  0
LINE
  5
457
330
1F
100
AcDbEntity
  8
0
  6
Continuous
 62
     7
370
     0
100
AcDbLine
 10
170.2364997127
 20
185.6116447715
 30
0.0
 11
170.2572812447
 21
185.6116447715
 31
0.0
  0
LINE
  5
458
330
1F
100
AcDbEntity
  8
0
  6
Continuous
 62
     7
370
     0
100
AcDbLine
 10
170.2572812447
 20
185.6116447715
 30
0.0
 11
170.2572812447
 21
177.6116446243
 31
0.0
  0
LINE
  5
459
330
1F
100
AcDbEntity
  8
0
  6
Continuous
 62
     7
370
     0
100
AcDbLine
 10
160.3775682979
 20
177.6116446243
 30
0.0
 11
160.3775682979
 21
185.6116447715
 31
0.0
  0
LINE
  5
45A
330
1F
100
AcDbEntity
  8
0
  6
Continuous
 62
     7
370
     0
100
AcDbLine
 10
164.6471018558
 20
145.9116428276
 30
0.0
 11
165.9139240747
 21
145.9116428276
 31
0.0
  0
SPLINE
  5
45B
330
1F
100
AcDbEntity
  8
0
  6
Continuous
 62
     7
370
     0
100
AcDbSpline
210
0.0
220
0.0
230
1.0
 70
     8
 71
     3
 72
     8
 73
     4
 74
     0
 42
0.000000001
 43
0.00000001
 40
0.0
 40
0.0
 40
0.0
 40
0.0
 40
1.0
 40
1.0
 40
1.0
 40
1.0
 10
165.9139240818753
 20
145.9116446694109
 30
0.0
 10
166.3573228195365
 20
145.7246881477204
 30
0.0
 10
166.8129515927319
 20
145.6116446694484
 30
0.0
 10
167.2872851260496
 20
145.6116446693248
 30
0.0
  0
LINE
  5
45C
330
1F
100
AcDbEntity
  8
0
  6
Continuous
 62
     7
370
     0
100
AcDbLine
 10
163.2874358566
 20
145.6116451999
 30
0.0
 11
167.2872851723
 21
145.6116451999
 31
0.0
  0
SPLINE
  5
45D
330
1F
100
AcDbEntity
  8
0
  6
Continuous
 62
     7
370
     0
100
AcDbSpline
210
0.0
220
0.0
230
1.0
 70
     8
 71
     3
 72
     8
 73
     4
 74
     0
 42
0.000000001
 43
0.00000001
 40
0.0
 40
0.0
 40
0.0
 40
0.0
 40
1.0
 40
1.0
 40
1.0
 40
1.0
 10
163.2874357735667
 20
145.61164466934
 30
0.0
 10
163.7570393241367
 20
145.6116446693305
 30
0.0
 10
164.2081246356053
 20
145.7246881474689
 30
0.0
 10
164.6471018676836
 20
145.9116446690619
 30
0.0
  0
LINE
  5
45E
330
1F
100
AcDbEntity
  8
0
  6
Continuous
 62
     7
370
     0
100
AcDbLine
 10
164.6471018558
 20
145.9116428276
 30
0.0
 11
164.6471018558
 21
148.611643829
 31
0.0
  0
LINE
  5
45F
330
1F
100
AcDbEntity
  8
0
  6
Continuous
 62
     7
370
     0
100
AcDbLine
 10
165.9139240747
 20
148.611643829
 30
0.0
 11
165.9139240747
 21
145.9116428276
 31
0.0
  0
LINE
  5
460
330
1F
100
AcDbEntity
  8
0
  6
Continuous
 62
     7
370
     0
100
AcDbLine
 10
168.66064627
 20
145.9116428276
 30
0.0
 11
168.66064627
 21
148.611643829
 31
0.0
  0
SPLINE
  5
461
330
1F
100
AcDbEntity
  8
0
  6
Continuous
 62
     7
370
     0
100
AcDbSpline
210
0.0
220
0.0
230
1.0
 70
     8
 71
     3
 72
     8
 73
     4
 74
     0
 42
0.000000001
 43
0.00000001
 40
0.0
 40
0.0
 40
0.0
 40
0.0
 40
1.0
 40
1.0
 40
1.0
 40
1.0
 10
167.2872851260449
 20
145.6116446693302
 30
0.0
 10
167.7616186598837
 20
145.611644669207
 30
0.0
 10
168.2172474336951
 20
145.7246881475508
 30
0.0
 10
168.6606461718352
 20
145.9116446694458
 30
0.0
  0
SPLINE
  5
462
330
1F
100
AcDbEntity
  8
0
  6
Continuous
 62
     7
370
     0
100
AcDbSpline
210
0.0
220
0.0
230
1.0
 70
     8
 71
     3
 72
     8
 73
     4
 74
     0
 42
0.000000001
 43
0.00000001
 40
0.0
 40
0.0
 40
0.0
 40
0.0
 40
1.0
 40
1.0
 40
1.0
 40
1.0
 10
161.9277696789595
 20
145.911644669306
 30
0.0
 10
162.3667469110886
 20
145.7246881476231
 30
0.0
 10
162.8178322228949
 20
145.611644669335
 30
0.0
 10
163.2874357735434
 20
145.6116446693248
 30
0.0
  0
LINE
  5
463
330
1F
100
AcDbEntity
  8
0
  6
Continuous
 62
     7
370
     0
100
AcDbLine
 10
161.9277696246
 20
148.611643829
 30
0.0
 11
161.9277696246
 21
145.9116428276
 31
0.0
  0
LINE
  5
464
330
1F
100
AcDbEntity
  8
0
  6
Continuous
 62
     7
370
     0
100
AcDbLine
 10
169.3035789886
 20
145.9116428276
 30
0.0
 11
168.66064627
 21
145.9116428276
 31
0.0
  0
SPLINE
  5
465
330
1F
100
AcDbEntity
  8
0
  6
Continuous
 62
     7
370
     0
100
AcDbSpline
210
0.0
220
0.0
230
1.0
 70
     8
 71
     3
 72
     8
 73
     4
 74
     0
 42
0.000000001
 43
0.00000001
 40
0.0
 40
0.0
 40
0.0
 40
0.0
 40
1.0
 40
1.0
 40
1.0
 40
1.0
 10
169.3035791745432
 20
145.9116446696702
 30
0.0
 10
169.3080006801481
 20
145.724688147729
 30
0.0
 10
169.3125441418349
 20
145.6116446693323
 30
0.0
 10
169.3172741245753
 20
145.6116446694441
 30
0.0
  0
LINE
  5
466
330
1F
100
AcDbEntity
  8
0
  6
Continuous
 62
     7
370
     0
100
AcDbLine
 10
169.317274087
 20
145.6116451999
 30
0.0
 11
167.2872851723
 21
145.6116451999
 31
0.0
  0
LINE
  5
467
330
1F
100
AcDbEntity
  8
0
  6
Continuous
 62
     7
370
     0
100
AcDbLine
 10
161.3038803571
 20
145.9116428276
 30
0.0
 11
161.9277696246
 21
145.9116428276
 31
0.0
  0
SPLINE
  5
468
330
1F
100
AcDbEntity
  8
0
  6
Continuous
 62
     7
370
     0
100
AcDbSpline
210
0.0
220
0.0
230
1.0
 70
     8
 71
     3
 72
     8
 73
     4
 74
     0
 42
0.000000001
 43
0.00000001
 40
0.0
 40
0.0
 40
0.0
 40
0.0
 40
1.0
 40
1.0
 40
1.0
 40
1.0
 10
161.3175754180441
 20
145.6116446694441
 30
0.0
 10
161.3128454353083
 20
145.6116446694196
 30
0.0
 10
161.3083019736308
 20
145.7246881476187
 30
0.0
 10
161.3038804680298
 20
145.9116446692873
 30
0.0
  0
LINE
  5
469
330
1F
100
AcDbEntity
  8
0
  6
Continuous
 62
     7
370
     0
100
AcDbLine
 10
161.3175754556
 20
145.6116451999
 30
0.0
 11
163.2874358566
 21
145.6116451999
 31
0.0
  0
LINE
  5
46A
330
1F
100
AcDbEntity
  8
0
  6
Continuous
 62
     7
370
     0
100
AcDbLine
 10
169.3035789886
 20
148.611643829
 30
0.0
 11
169.3035789886
 21
145.9116428276
 31
0.0
  0
LINE
  5
46B
330
1F
100
AcDbEntity
  8
0
  6
Continuous
 62
     7
370
     0
100
AcDbLine
 10
161.3038803571
 20
145.9116428276
 30
0.0
 11
161.3038803571
 21
148.611643829
 31
0.0
  0
LINE
  5
46C
330
1F
100
AcDbEntity
  8
0
  6
Continuous
 62
     7
370
     0
100
AcDbLine
 10
163.5174925559
 20
140.611646243
 30
0.0
 11
167.1174247404
 21
140.611646243
 31
0.0
  0
LINE
  5
46D
330
1F
100
AcDbEntity
  8
0
  6
Continuous
 62
     7
370
     0
100
AcDbLine
 10
163.8174812197
 20
138.6116459152
 30
0.0
 11
166.8174247843
 21
138.6116459152
 31
0.0
  0
LINE
  5
46E
330
1F
100
AcDbEntity
  8
0
  6
Continuous
 62
     7
370
     0
100
AcDbLine
 10
165.3018028919
 20
141.111643531
 30
0.0
 11
167.1174247404
 21
141.111643531
 31
0.0
  0
LINE
  5
46F
330
1F
100
AcDbEntity
  8
0
  6
Continuous
 62
     7
370
     0
100
AcDbLine
 10
163.5174248022
 20
141.111643531
 30
0.0
 11
165.3018028919
 21
141.111643531
 31
0.0
  0
LINE
  5
470
330
1F
100
AcDbEntity
  8
0
  6
Continuous
 62
     7
370
     0
100
AcDbLine
 10
163.5174925559
 20
143.1116438588
 30
0.0
 11
167.1174247404
 21
143.1116438588
 31
0.0
  0
LINE
  5
471
330
1F
100
AcDbEntity
  8
0
  6
Continuous
 62
     7
370
     0
100
AcDbLine
 10
165.3018028919
 20
143.6116448721
 30
0.0
 11
167.1174247404
 21
143.6116448721
 31
0.0
  0
LINE
  5
472
330
1F
100
AcDbEntity
  8
0
  6
Continuous
 62
     7
370
     0
100
AcDbLine
 10
163.5174248022
 20
143.6116448721
 30
0.0
 11
165.3018028919
 21
143.6116448721
 31
0.0
  0
LINE
  5
473
330
1F
100
AcDbEntity
  8
0
  6
Continuous
 62
     7
370
     0
100
AcDbLine
 10
169.3309691855
 20
145.9116428276
 30
0.0
 11
169.3309691855
 21
148.611643829
 31
0.0
  0
SPLINE
  5
474
330
1F
100
AcDbEntity
  8
0
  6
Continuous
 62
     7
370
     0
100
AcDbSpline
210
0.0
220
0.0
230
1.0
 70
     8
 71
     3
 72
     8
 73
     4
 74
     0
 42
0.000000001
 43
0.00000001
 40
0.0
 40
0.0
 40
0.0
 40
0.0
 40
1.0
 40
1.0
 40
1.0
 40
1.0
 10
169.3172741245753
 20
145.6116446694441
 30
0.0
 10
169.322004107309
 20
145.6116446695558
 30
0.0
 10
169.3265475689885
 20
145.7246881479035
 30
0.0
 10
169.3309690745873
 20
145.9116446695565
 30
0.0
  0
LINE
  5
475
330
1F
100
AcDbEntity
  8
0
  6
Continuous
 62
     7
370
     0
100
AcDbLine
 10
168.0174248413
 20
234.6632606467
 30
0.0
 11
162.6174247013
 21
234.6632606467
 31
0.0
  0
LINE
  5
476
330
1F
100
AcDbEntity
  8
0
  6
Continuous
 62
     7
370
     0
100
AcDbLine
 10
162.6174247013
 20
234.6632606467
 30
0.0
 11
162.6174247013
 21
235.2368063411
 31
0.0
  0
LINE
  5
477
330
1F
100
AcDbEntity
  8
0
  6
Continuous
 62
     7
370
     0
100
AcDbLine
 10
162.6174247013
 20
235.2368063411
 30
0.0
 11
168.0174248413
 21
235.2368063411
 31
0.0
  0
LINE
  5
478
330
1F
100
AcDbEntity
  8
0
  6
Continuous
 62
     7
370
     0
100
AcDbLine
 10
168.0174248413
 20
235.2368063411
 30
0.0
 11
168.0174248413
 21
234.6632606467
 31
0.0
  0
LINE
  5
479
330
1F
100
AcDbEntity
  8
0
  6
Continuous
 62
     7
370
     0
100
AcDbLine
 10
168.8174248793
 20
217.3886238715
 30
0.0
 11
168.8174248793
 21
234.6632606467
 31
0.0
  0
LINE
  5
47A
330
1F
100
AcDbEntity
  8
0
  6
Continuous
 62
     7
370
     0
100
AcDbLine
 10
168.8174248793
 20
217.3886238715
 30
0.0
 11
161.8174246633
 21
217.3886238715
 31
0.0
  0
LINE
  5
47B
330
1F
100
AcDbEntity
  8
0
  6
Continuous
 62
     7
370
     0
100
AcDbLine
 10
161.8174246633
 20
217.3886238715
 30
0.0
 11
161.8174246633
 21
234.6632606467
 31
0.0
  0
LINE
  5
47C
330
1F
100
AcDbEntity
  8
0
  6
Continuous
 62
     7
370
     0
100
AcDbLine
 10
162.6174247013
 20
234.6632606467
 30
0.0
 11
161.8174246633
 21
234.6632606467
 31
0.0
  0
LINE
  5
47D
330
1F
100
AcDbEntity
  8
0
  6
Continuous
 62
     7
370
     0
100
AcDbLine
 10
168.8174248793
 20
234.6632606467
 30
0.0
 11
168.0174248413
 21
234.6632606467
 31
0.0
  0
LINE
  5
47E
330
1F
100
AcDbEntity
  8
0
  6
Continuous
 62
     7
370
     0
100
AcDbLine
 10
168.8174248793
 20
236.8388264557
 30
0.0
 11
168.8174248793
 21
234.6632606467
 31
0.0
  0
LINE
  5
47F
330
1F
100
AcDbEntity
  8
0
  6
Continuous
 62
     7
370
     0
100
AcDbLine
 10
168.0174248413
 20
234.7432463547
 30
0.0
 11
168.3174247974
 21
234.7432463547
 31
0.0
  0
LINE
  5
480
330
1F
100
AcDbEntity
  8
0
  6
Continuous
 62
     7
370
     0
100
AcDbLine
 10
168.3174247974
 20
234.7432463547
 30
0.0
 11
168.3174247974
 21
236.8388264557
 31
0.0
  0
LINE
  5
481
330
1F
100
AcDbEntity
  8
0
  6
Continuous
 62
     7
370
     0
100
AcDbLine
 10
168.8174248793
 20
236.8388264557
 30
0.0
 11
168.3174247974
 21
236.8388264557
 31
0.0
  0
LINE
  5
482
330
1F
100
AcDbEntity
  8
0
  6
Continuous
 62
     7
370
     0
100
AcDbLine
 10
162.3174247452
 20
236.8388264557
 30
0.0
 11
162.3174247452
 21
234.7432463547
 31
0.0
  0
LINE
  5
483
330
1F
100
AcDbEntity
  8
0
  6
Continuous
 62
     7
370
     0
100
AcDbLine
 10
162.3174247452
 20
234.7432463547
 30
0.0
 11
162.6174247013
 21
234.7432463547
 31
0.0
  0
LINE
  5
484
330
1F
100
AcDbEntity
  8
0
  6
Continuous
 62
     7
370
     0
100
AcDbLine
 10
161.8174246633
 20
234.6632606467
 30
0.0
 11
161.8174246633
 21
236.8388264557
 31
0.0
  0
LINE
  5
485
330
1F
100
AcDbEntity
  8
0
  6
Continuous
 62
     7
370
     0
100
AcDbLine
 10
162.3174247452
 20
236.8388264557
 30
0.0
 11
161.8174246633
 21
236.8388264557
 31
0.0
  0
LINE
  5
486
330
1F
100
AcDbEntity
  8
0
  6
Continuous
 62
     7
370
     0
100
AcDbLine
 10
168.0174248413
 20
237.3323901674
 30
0.0
 11
162.6174247013
 21
237.3323901674
 31
0.0
  0
LINE
  5
487
330
1F
100
AcDbEntity
  8
0
  6
Continuous
 62
     7
370
     0
100
AcDbLine
 10
162.6174247013
 20
237.3323901674
 30
0.0
 11
162.6174247013
 21
235.2368063411
 31
0.0
  0
LINE
  5
488
330
1F
100
AcDbEntity
  8
0
  6
Continuous
 62
     7
370
     0
100
AcDbLine
 10
168.0174248413
 20
237.3323901674
 30
0.0
 11
168.0174248413
 21
235.2368063411
 31
0.0
  0
LINE
  5
489
330
1F
100
AcDbEntity
  8
0
  6
Continuous
 62
     7
370
     0
100
AcDbLine
 10
166.8174247843
 20
187.3344746536
 30
0.0
 11
163.8174247583
 21
187.3344746536
 31
0.0
  0
LINE
  5
48A
330
1F
100
AcDbEntity
  8
0
  6
Continuous
 62
     7
370
     0
100
AcDbLine
 10
166.8174247843
 20
187.053532817
 30
0.0
 11
163.8174247583
 21
187.053532817
 31
0.0
  0
LINE
  5
48B
330
1F
100
AcDbEntity
  8
0
  6
Continuous
 62
     7
370
     0
100
AcDbLine
 10
163.8174247583
 20
187.053532817
 30
0.0
 11
163.8174247583
 21
187.3344746536
 31
0.0
  0
LINE
  5
48C
330
1F
100
AcDbEntity
  8
0
  6
Continuous
 62
     7
370
     0
100
AcDbLine
 10
166.8174247843
 20
187.053532817
 30
0.0
 11
166.8174247843
 21
187.3344746536
 31
0.0
  0
LINE
  5
48D
330
1F
100
AcDbEntity
  8
0
  6
Continuous
 62
     7
370
     0
100
AcDbLine
 10
163.8174247583
 20
187.3344746536
 30
0.0
 11
163.8174247583
 21
187.3390413938
 31
0.0
  0
LINE
  5
48E
330
1F
100
AcDbEntity
  8
0
  6
Continuous
 62
     7
370
     0
100
AcDbLine
 10
166.8174247843
 20
187.3344746536
 30
0.0
 11
166.8174247843
 21
187.3390413938
 31
0.0
  0
LINE
  5
48F
330
1F
100
AcDbEntity
  8
0
  6
Continuous
 62
     7
370
     0
100
AcDbLine
 10
162.3174247452
 20
186.5951595945
 30
0.0
 11
168.3174247974
 21
186.5951595945
 31
0.0
  0
LINE
  5
490
330
1F
100
AcDbEntity
  8
0
  6
Continuous
 62
     7
370
     0
100
AcDbLine
 10
162.3174247452
 20
175.9661655059
 30
0.0
 11
168.3174247974
 21
175.9661655059
 31
0.0
  0
LINE
  5
491
330
1F
100
AcDbEntity
  8
0
  6
Continuous
 62
     7
370
     0
100
AcDbLine
 10
162.3174247452
 20
175.9661655059
 30
0.0
 11
162.3174247452
 21
186.5951595945
 31
0.0
  0
LINE
  5
492
330
1F
100
AcDbEntity
  8
0
  6
Continuous
 62
     7
370
     0
100
AcDbLine
 10
168.3174247974
 20
175.9661655059
 30
0.0
 11
168.3174247974
 21
186.5951595945
 31
0.0
  0
LINE
  5
493
330
1F
100
AcDbEntity
  8
0
  6
Continuous
 62
     7
370
     0
100
AcDbLine
 10
162.3174247452
 20
186.5951595945
 30
0.0
 11
162.3174247452
 21
187.0580990916
 31
0.0
  0
LINE
  5
494
330
1F
100
AcDbEntity
  8
0
  6
Continuous
 62
     7
370
     0
100
AcDbLine
 10
168.3174247974
 20
186.5951595945
 30
0.0
 11
168.3174247974
 21
187.0580990916
 31
0.0
  0
LINE
  5
495
330
1F
100
AcDbEntity
  8
0
  6
Continuous
 62
     7
370
     0
100
AcDbLine
 10
167.3174248663
 20
175.1390113613
 30
0.0
 11
163.3174246763
 21
175.1390113613
 31
0.0
  0
LINE
  5
496
330
1F
100
AcDbEntity
  8
0
  6
Continuous
 62
     7
370
     0
100
AcDbLine
 10
162.3174247452
 20
175.9661655059
 30
0.0
 11
163.3174246763
 21
175.1390113613
 31
0.0
  0
LINE
  5
497
330
1F
100
AcDbEntity
  8
0
  6
Continuous
 62
     7
370
     0
100
AcDbLine
 10
168.3174247974
 20
175.9661655059
 30
0.0
 11
167.3174248663
 21
175.1390113613
 31
0.0
  0
ARC
  5
498
330
1F
100
AcDbEntity
  8
0
  6
Continuous
 62
     7
370
     0
100
AcDbCircle
 10
165.3174247713
 20
218.2077333442
 30
0.0
 40
1.853019586489865
100
AcDbArc
 50
247.8048891826
 51
292.1951108174
  0
ARC
  5
499
330
1F
100
AcDbEntity
  8
0
  6
Continuous
 62
     7
370
     0
100
AcDbCircle
 10
165.3174247713
 20
212.4142288075
 30
0.0
 40
0.9264752326887243
100
AcDbArc
 50
247.8040171686
 51
292.1959828314
  0
LINE
  5
49A
330
1F
100
AcDbEntity
  8
0
  6
Continuous
 62
     7
370
     0
100
AcDbLine
 10
169.2174246655
 20
231.9071157953
 30
0.0
 11
169.2174246655
 21
234.9071181496
 31
0.0
  0
LINE
  5
49B
330
1F
100
AcDbEntity
  8
0
  6
Continuous
 62
     7
370
     0
100
AcDbLine
 10
169.5174246215
 20
234.6071167966
 30
0.0
 11
169.5174246215
 21
232.2071171483
 31
0.0
  0
LINE
  5
49C
330
1F
100
AcDbEntity
  8
0
  6
Continuous
 62
     7
370
     0
100
AcDbLine
 10
161.4174248771
 20
234.9071181496
 30
0.0
 11
161.4174248771
 21
231.9071157953
 31
0.0
  0
LINE
  5
49D
330
1F
100
AcDbEntity
  8
0
  6
Continuous
 62
     7
370
     0
100
AcDbLine
 10
161.1174249211
 20
234.5916642925
 30
0.0
 11
161.1174249211
 21
234.6071167966
 31
0.0
  0
LINE
  5
49E
330
1F
100
AcDbEntity
  8
0
  6
Continuous
 62
     7
370
     0
100
AcDbLine
 10
161.1174249211
 20
232.2071171483
 30
0.0
 11
161.1174249211
 21
234.5916642925
 31
0.0
  0
ARC
  5
49F
330
1F
100
AcDbEntity
  8
0
  6
Continuous
 62
     7
370
     0
100
AcDbCircle
 10
162.4679123559
 20
222.1262159376
 30
0.0
 40
2.734360772687806
100
AcDbArc
 50
162.1452958459
 51
170.4098835111
  0
LINE
  5
4A0
330
1F
100
AcDbEntity
  8
0
  6
Continuous
 62
     7
370
     0
100
AcDbLine
 10
159.7717648492
 20
222.5817567786
 30
0.0
 11
159.7717648492
 21
222.363261052
 31
0.0
  0
LINE
  5
4A1
330
1F
100
AcDbEntity
  8
0
  6
Continuous
 62
     7
370
     0
100
AcDbLine
 10
159.7717648492
 20
221.7363431236
 30
0.0
 11
159.7717648492
 21
221.6949402472
 31
0.0
  0
ARC
  5
4A2
330
1F
100
AcDbEntity
  8
0
  6
Continuous
 62
     7
370
     0
100
AcDbCircle
 10
162.487734525
 20
222.1550084097
 30
0.0
 40
2.754660413505117
100
AcDbArc
 50
189.6142794535
 51
201.1956661232
  0
ARC
  5
4A3
330
1F
100
AcDbEntity
  8
0
  6
Continuous
 62
     7
370
     0
100
AcDbCircle
 10
161.3794189391
 20
221.3726337185
 30
0.0
 40
1.475535207846122
100
AcDbArc
 50
171.6771892446
 51
188.3228107554
  0
ARC
  5
4A4
330
1F
100
AcDbEntity
  8
0
  6
Continuous
 62
     7
370
     0
100
AcDbCircle
 10
162.4876398255
 20
222.582153377
 30
0.0
 40
2.754563842426854
100
AcDbArc
 50
189.614215292
 51
201.1959342904
  0
LINE
  5
4A5
330
1F
100
AcDbEntity
  8
0
  6
Continuous
 62
     7
370
     0
100
AcDbLine
 10
159.7717648492
 20
222.1221043846
 30
0.0
 11
159.7717648492
 21
222.363261052
 31
0.0
  0
ARC
  5
4A6
330
1F
100
AcDbEntity
  8
0
  6
Continuous
 62
     7
370
     0
100
AcDbCircle
 10
161.2567673166
 20
222.002638918
 30
0.0
 40
1.528162508219529
100
AcDbArc
 50
151.0605775581
 51
166.3503577261
  0
ARC
  5
4A7
330
1F
100
AcDbEntity
  8
0
  6
Continuous
 62
     7
370
     0
100
AcDbCircle
 10
162.848932986
 20
223.0442217668
 30
0.0
 40
2.945047740706695
100
AcDbArc
 50
174.1117435106
 51
185.8882564894
  0
ARC
  5
4A8
330
1F
100
AcDbEntity
  8
0
  6
Continuous
 62
     7
370
     0
100
AcDbCircle
 10
161.2566459151
 20
222.6069432247
 30
0.0
 40
1.528033369005017
100
AcDbArc
 50
151.0599276007
 51
166.3510076835
  0
LINE
  5
4A9
330
1F
100
AcDbEntity
  8
0
  6
Continuous
 62
     7
370
     0
100
AcDbLine
 10
159.7717648492
 20
222.9675180396
 30
0.0
 11
159.7717648492
 21
223.0089246413
 31
0.0
  0
SPLINE
  5
4AA
330
1F
100
AcDbEntity
  8
0
  6
Continuous
 62
     7
370
     0
100
AcDbSpline
210
0.0
220
0.0
230
1.0
 70
     8
 71
     3
 72
     8
 73
     4
 74
     0
 42
0.000000001
 43
0.00000001
 40
0.0
 40
0.0
 40
0.0
 40
0.0
 40
1.0
 40
1.0
 40
1.0
 40
1.0
 10
159.7717648493117
 20
222.9675183981751
 30
0.0
 10
159.8209859095235
 20
222.9651141948907
 30
0.0
 10
159.8702057175259
 20
222.962701287857
 30
0.0
 10
159.9194241825701
 20
222.9602790463051
 30
0.0
  0
LINE
  5
4AB
330
1F
100
AcDbEntity
  8
0
  6
Continuous
 62
     7
370
     0
100
AcDbLine
 10
159.8872586274
 20
221.7029533466
 30
0.0
 11
159.7717648492
 21
221.6949402472
 31
0.0
  0
LINE
  5
4AC
330
1F
100
AcDbEntity
  8
0
  6
Continuous
 62
     7
370
     0
100
AcDbLine
 10
159.7717648492
 20
221.7363431236
 30
0.0
 11
159.876640153
 21
221.7414877495
 31
0.0
  0
LINE
  5
4AD
330
1F
100
AcDbEntity
  8
0
  6
Continuous
 62
     7
370
     0
100
AcDbLine
 10
159.7717648492
 20
222.5817567786
 30
0.0
 11
159.854687483
 21
222.5760049304
 31
0.0
  0
ARC
  5
4AE
330
1F
100
AcDbEntity
  8
0
  6
Continuous
 62
     7
370
     0
100
AcDbCircle
 10
169.834302494
 20
222.6104225167
 30
0.0
 40
1.077124435222158
100
AcDbArc
 50
17.2308174549
 51
35.1116284692
  0
ARC
  5
4AF
330
1F
100
AcDbEntity
  8
0
  6
Continuous
 62
     7
370
     0
100
AcDbCircle
 10
167.2413236358
 20
222.9010104319
 30
0.0
 40
3.489640328604616
100
AcDbArc
 50
354.5911112685
 51
5.4088887315
  0
ARC
  5
4B0
330
1F
100
AcDbEntity
  8
0
  6
Continuous
 62
     7
370
     0
100
AcDbCircle
 10
169.834302494
 20
221.95253625
 30
0.0
 40
1.077124435222158
100
AcDbArc
 50
17.2308174549
 51
35.1116284692
  0
LINE
  5
4B1
330
1F
100
AcDbEntity
  8
0
  6
Continuous
 62
     7
370
     0
100
AcDbLine
 10
170.8630846934
 20
222.2716040095
 30
0.0
 11
170.8630846934
 21
222.0385722002
 31
0.0
  0
ARC
  5
4B2
330
1F
100
AcDbEntity
  8
0
  6
Continuous
 62
     7
370
     0
100
AcDbCircle
 10
167.6911657597
 20
222.5309127661
 30
0.0
 40
3.20990170480982
100
AcDbArc
 50
340.4185388213
 51
351.1770408262
  0
ARC
  5
4B3
330
1F
100
AcDbEntity
  8
0
  6
Continuous
 62
     7
370
     0
100
AcDbCircle
 10
169.8000072603
 20
221.2857245585
 30
0.0
 40
0.9309605554403009
100
AcDbArc
 50
349.5158957083
 51
10.4841042917
  0
ARC
  5
4B4
330
1F
100
AcDbEntity
  8
0
  6
Continuous
 62
     7
370
     0
100
AcDbCircle
 10
167.6910895929
 20
222.1921349346
 30
0.0
 40
3.209980980537287
100
AcDbArc
 50
340.4186174236
 51
351.1767881998
  0
LINE
  5
4B5
330
1F
100
AcDbEntity
  8
0
  6
Continuous
 62
     7
370
     0
100
AcDbLine
 10
170.8630846934
 20
221.6997682234
 30
0.0
 11
170.8630846934
 21
221.7743746122
 31
0.0
  0
ARC
  5
4B6
330
1F
100
AcDbEntity
  8
0
  6
Continuous
 62
     7
370
     0
100
AcDbCircle
 10
169.9434461214
 20
222.7094097407
 30
0.0
 40
0.9604928915080615
100
AcDbArc
 50
338.1498058839
 51
343.2289183252
  0
LINE
  5
4B7
330
1F
100
AcDbEntity
  8
0
  6
Continuous
 62
     7
370
     0
100
AcDbLine
 10
170.8630846934
 20
222.4322608789
 30
0.0
 11
170.8630846934
 21
222.6652926883
 31
0.0
  0
ARC
  5
4B8
330
1F
100
AcDbEntity
  8
0
  6
Continuous
 62
     7
370
     0
100
AcDbCircle
 10
167.7133537412
 20
222.1774398174
 30
0.0
 40
3.18728810971619
100
AcDbArc
 50
8.8044191091
 51
13.6502913352
  0
ARC
  5
4B9
330
1F
100
AcDbEntity
  8
0
  6
Continuous
 62
     7
370
     0
100
AcDbCircle
 10
167.7192665776
 20
222.5173118002
 30
0.0
 40
3.181280909149999
100
AcDbArc
 50
8.8016442334
 51
11.656586571
  0
LINE
  5
4BA
330
1F
100
AcDbEntity
  8
0
  6
Continuous
 62
     7
370
     0
100
AcDbLine
 10
170.8630846934
 20
223.0040929397
 30
0.0
 11
170.8630846934
 21
222.9294902762
 31
0.0
  0
SPLINE
  5
4BB
330
1F
100
AcDbEntity
  8
0
  6
Continuous
 62
     7
370
     0
100
AcDbSpline
210
0.0
220
0.0
230
1.0
 70
     8
 71
     3
 72
     8
 73
     4
 74
     0
 42
0.000000001
 43
0.00000001
 40
0.0
 40
0.0
 40
0.0
 40
0.0
 40
1.0
 40
1.0
 40
1.0
 40
1.0
 10
170.863084693299
 20
222.9294888693362
 30
0.0
 10
170.8138636487141
 20
222.9275820083512
 30
0.0
 10
170.7646438563378
 20
222.9256682441086
 30
0.0
 10
170.7154254069188
 20
222.9237470763229
 30
0.0
  0
LINE
  5
4BC
330
1F
100
AcDbEntity
  8
0
  6
Continuous
 62
     7
370
     0
100
AcDbLine
 10
170.8630846934
 20
221.6997682234
 30
0.0
 11
170.778949012
 21
221.7061235687
 31
0.0
  0
LINE
  5
4BD
330
1F
100
AcDbEntity
  8
0
  6
Continuous
 62
     7
370
     0
100
AcDbLine
 10
170.8630846934
 20
222.4322608789
 30
0.0
 11
170.7825937429
 21
222.4353901228
 31
0.0
  0
SPLINE
  5
4BE
330
1F
100
AcDbEntity
  8
0
  6
Continuous
 62
     7
370
     0
100
AcDbSpline
210
0.0
220
0.0
230
1.0
 70
     8
 71
     3
 72
     8
 73
     4
 74
     0
 42
0.000000001
 43
0.00000001
 40
0.0
 40
0.0
 40
0.0
 40
0.0
 40
1.0
 40
1.0
 40
1.0
 40
1.0
 10
170.863084693299
 20
222.6652921430454
 30
0.0
 10
170.8138636654683
 20
222.6615893902542
 30
0.0
 10
170.7646438898453
 20
222.6578732326853
 30
0.0
 10
170.7154254571787
 20
222.6541426988824
 30
0.0
  0
LINE
  5
4BF
330
1F
100
AcDbEntity
  8
0
  6
Continuous
 62
     7
370
     0
100
AcDbLine
 10
171.9174247355
 20
173.6116446672
 30
0.0
 11
171.8174249054
 21
173.6116446672
 31
0.0
  0
LINE
  5
4C0
330
1F
100
AcDbEntity
  8
0
  6
Continuous
 62
     7
370
     0
100
AcDbLine
 10
171.8174249054
 20
174.6116448311
 30
0.0
 11
171.9174247355
 21
174.6116448311
 31
0.0
  0
LINE
  5
4C1
330
1F
100
AcDbEntity
  8
0
  6
Continuous
 62
     7
370
     0
100
AcDbLine
 10
171.9174247355
 20
174.6116448311
 30
0.0
 11
171.9174247355
 21
173.6116446672
 31
0.0
  0
LINE
  5
4C2
330
1F
100
AcDbEntity
  8
0
  6
Continuous
 62
     7
370
     0
100
AcDbLine
 10
171.9174247355
 20
187.6116446337
 30
0.0
 11
171.8174249054
 21
187.6116446337
 31
0.0
  0
LINE
  5
4C3
330
1F
100
AcDbEntity
  8
0
  6
Continuous
 62
     7
370
     0
100
AcDbLine
 10
171.9174247355
 20
187.6116446337
 30
0.0
 11
171.9174247355
 21
174.6116448311
 31
0.0
  0
LINE
  5
4C4
330
1F
100
AcDbEntity
  8
0
  6
Continuous
 62
     7
370
     0
100
AcDbLine
 10
171.8174249054
 20
188.6116447976
 30
0.0
 11
171.9174247355
 21
188.6116447976
 31
0.0
  0
LINE
  5
4C5
330
1F
100
AcDbEntity
  8
0
  6
Continuous
 62
     7
370
     0
100
AcDbLine
 10
171.9174247355
 20
188.6116447976
 30
0.0
 11
171.9174247355
 21
187.6116446337
 31
0.0
  0
LINE
  5
4C6
330
1F
100
AcDbEntity
  8
0
  6
Continuous
 62
     7
370
     0
100
AcDbLine
 10
171.9299249471
 20
180.6136541244
 30
0.0
 11
171.9174247355
 21
180.6136541244
 31
0.0
  0
LINE
  5
4C7
330
1F
100
AcDbEntity
  8
0
  6
Continuous
 62
     7
370
     0
100
AcDbLine
 10
171.9299249471
 20
179.9523359049
 30
0.0
 11
171.9174247355
 21
179.9523359049
 31
0.0
  0
LINE
  5
4C8
330
1F
100
AcDbEntity
  8
0
  6
Continuous
 62
     7
370
     0
100
AcDbLine
 10
171.9299249471
 20
181.368235132
 30
0.0
 11
171.9174247355
 21
181.368235132
 31
0.0
  0
LINE
  5
4C9
330
1F
100
AcDbEntity
  8
0
  6
Continuous
 62
     7
370
     0
100
AcDbLine
 10
171.9299249471
 20
179.8345798278
 30
0.0
 11
171.9174247355
 21
179.8345798278
 31
0.0
  0
LINE
  5
4CA
330
1F
100
AcDbEntity
  8
0
  6
Continuous
 62
     7
370
     0
100
AcDbLine
 10
171.9299249471
 20
181.486933271
 30
0.0
 11
171.9174247355
 21
181.486933271
 31
0.0
  0
LINE
  5
4CB
330
1F
100
AcDbEntity
  8
0
  6
Continuous
 62
     7
370
     0
100
AcDbLine
 10
171.9299249471
 20
185.0644447958
 30
0.0
 11
171.9174247355
 21
185.0644447958
 31
0.0
  0
LINE
  5
4CC
330
1F
100
AcDbEntity
  8
0
  6
Continuous
 62
     7
370
     0
100
AcDbLine
 10
171.9299249471
 20
184.9553096225
 30
0.0
 11
171.9174247355
 21
184.9553096225
 31
0.0
  0
LINE
  5
4CD
330
1F
100
AcDbEntity
  8
0
  6
Continuous
 62
     7
370
     0
100
AcDbLine
 10
171.9299249471
 20
185.0644447958
 30
0.0
 11
171.9299249471
 21
184.9553096225
 31
0.0
  0
LINE
  5
4CE
330
1F
100
AcDbEntity
  8
0
  6
Continuous
 62
     7
370
     0
100
AcDbLine
 10
171.9299249471
 20
185.2132654866
 30
0.0
 11
171.9174247355
 21
185.2132654866
 31
0.0
  0
LINE
  5
4CF
330
1F
100
AcDbEntity
  8
0
  6
Continuous
 62
     7
370
     0
100
AcDbLine
 10
171.9299249471
 20
185.2132654866
 30
0.0
 11
171.9299249471
 21
185.0644447958
 31
0.0
  0
LINE
  5
4D0
330
1F
100
AcDbEntity
  8
0
  6
Continuous
 62
     7
370
     0
100
AcDbLine
 10
171.9299249471
 20
184.8312928459
 30
0.0
 11
171.9174247355
 21
184.8312928459
 31
0.0
  0
LINE
  5
4D1
330
1F
100
AcDbEntity
  8
0
  6
Continuous
 62
     7
370
     0
100
AcDbLine
 10
171.9299249471
 20
184.9553096225
 30
0.0
 11
171.9299249471
 21
184.8312928459
 31
0.0
  0
LINE
  5
4D2
330
1F
100
AcDbEntity
  8
0
  6
Continuous
 62
     7
370
     0
100
AcDbLine
 10
171.9299249471
 20
185.3571254877
 30
0.0
 11
171.9174247355
 21
185.3571254877
 31
0.0
  0
LINE
  5
4D3
330
1F
100
AcDbEntity
  8
0
  6
Continuous
 62
     7
370
     0
100
AcDbLine
 10
171.9299249471
 20
185.3571254877
 30
0.0
 11
171.9299249471
 21
185.2132654866
 31
0.0
  0
LINE
  5
4D4
330
1F
100
AcDbEntity
  8
0
  6
Continuous
 62
     7
370
     0
100
AcDbLine
 10
171.9299249471
 20
184.6923937673
 30
0.0
 11
171.9174247355
 21
184.6923937673
 31
0.0
  0
LINE
  5
4D5
330
1F
100
AcDbEntity
  8
0
  6
Continuous
 62
     7
370
     0
100
AcDbLine
 10
171.9299249471
 20
184.8312928459
 30
0.0
 11
171.9299249471
 21
184.6923937673
 31
0.0
  0
LINE
  5
4D6
330
1F
100
AcDbEntity
  8
0
  6
Continuous
 62
     7
370
     0
100
AcDbLine
 10
171.9299249471
 20
185.4861029541
 30
0.0
 11
171.9174247355
 21
185.4861029541
 31
0.0
  0
LINE
  5
4D7
330
1F
100
AcDbEntity
  8
0
  6
Continuous
 62
     7
370
     0
100
AcDbLine
 10
171.9299249471
 20
185.4861029541
 30
0.0
 11
171.9299249471
 21
185.3571254877
 31
0.0
  0
LINE
  5
4D8
330
1F
100
AcDbEntity
  8
0
  6
Continuous
 62
     7
370
     0
100
AcDbLine
 10
171.9299249471
 20
185.6150808861
 30
0.0
 11
171.9174247355
 21
185.6150808861
 31
0.0
  0
LINE
  5
4D9
330
1F
100
AcDbEntity
  8
0
  6
Continuous
 62
     7
370
     0
100
AcDbLine
 10
171.9299249471
 20
185.6150808861
 30
0.0
 11
171.9299249471
 21
185.4861029541
 31
0.0
  0
LINE
  5
4DA
330
1F
100
AcDbEntity
  8
0
  6
Continuous
 62
     7
370
     0
100
AcDbLine
 10
171.9299249471
 20
184.5534944558
 30
0.0
 11
171.9174247355
 21
184.5534944558
 31
0.0
  0
LINE
  5
4DB
330
1F
100
AcDbEntity
  8
0
  6
Continuous
 62
     7
370
     0
100
AcDbLine
 10
171.9299249471
 20
184.6923937673
 30
0.0
 11
171.9299249471
 21
184.5534944558
 31
0.0
  0
LINE
  5
4DC
330
1F
100
AcDbEntity
  8
0
  6
Continuous
 62
     7
370
     0
100
AcDbLine
 10
171.9299249471
 20
185.7291767491
 30
0.0
 11
171.9174247355
 21
185.7291767491
 31
0.0
  0
LINE
  5
4DD
330
1F
100
AcDbEntity
  8
0
  6
Continuous
 62
     7
370
     0
100
AcDbLine
 10
171.9299249471
 20
185.7291767491
 30
0.0
 11
171.9299249471
 21
185.6150808861
 31
0.0
  0
LINE
  5
4DE
330
1F
100
AcDbEntity
  8
0
  6
Continuous
 62
     7
370
     0
100
AcDbLine
 10
171.9299249471
 20
185.8581542155
 30
0.0
 11
171.9174247355
 21
185.8581542155
 31
0.0
  0
LINE
  5
4DF
330
1F
100
AcDbEntity
  8
0
  6
Continuous
 62
     7
370
     0
100
AcDbLine
 10
171.9299249471
 20
185.8581542155
 30
0.0
 11
171.9299249471
 21
185.7291767491
 31
0.0
  0
LINE
  5
4E0
330
1F
100
AcDbEntity
  8
0
  6
Continuous
 62
     7
370
     0
100
AcDbLine
 10
171.9299249471
 20
184.4443595154
 30
0.0
 11
171.9174247355
 21
184.4443595154
 31
0.0
  0
LINE
  5
4E1
330
1F
100
AcDbEntity
  8
0
  6
Continuous
 62
     7
370
     0
100
AcDbLine
 10
171.9299249471
 20
184.5534944558
 30
0.0
 11
171.9299249471
 21
184.4443595154
 31
0.0
  0
LINE
  5
4E2
330
1F
100
AcDbEntity
  8
0
  6
Continuous
 62
     7
370
     0
100
AcDbLine
 10
171.9299249471
 20
186.0168962857
 30
0.0
 11
171.9174247355
 21
186.0168962857
 31
0.0
  0
LINE
  5
4E3
330
1F
100
AcDbEntity
  8
0
  6
Continuous
 62
     7
370
     0
100
AcDbLine
 10
171.9299249471
 20
186.0168962857
 30
0.0
 11
171.9299249471
 21
185.8581542155
 31
0.0
  0
LINE
  5
4E4
330
1F
100
AcDbEntity
  8
0
  6
Continuous
 62
     7
370
     0
100
AcDbLine
 10
171.9299249471
 20
184.3600277906
 30
0.0
 11
171.9174247355
 21
184.3600277906
 31
0.0
  0
LINE
  5
4E5
330
1F
100
AcDbEntity
  8
0
  6
Continuous
 62
     7
370
     0
100
AcDbLine
 10
171.9299249471
 20
184.4443595154
 30
0.0
 11
171.9299249471
 21
184.3600277906
 31
0.0
  0
LINE
  5
4E6
330
1F
100
AcDbEntity
  8
0
  6
Continuous
 62
     7
370
     0
100
AcDbLine
 10
171.9299249471
 20
186.1309921486
 30
0.0
 11
171.9174247355
 21
186.1309921486
 31
0.0
  0
LINE
  5
4E7
330
1F
100
AcDbEntity
  8
0
  6
Continuous
 62
     7
370
     0
100
AcDbLine
 10
171.9299249471
 20
186.1309921486
 30
0.0
 11
171.9299249471
 21
186.0168962857
 31
0.0
  0
LINE
  5
4E8
330
1F
100
AcDbEntity
  8
0
  6
Continuous
 62
     7
370
     0
100
AcDbLine
 10
171.9299249471
 20
184.270735609
 30
0.0
 11
171.9174247355
 21
184.270735609
 31
0.0
  0
LINE
  5
4E9
330
1F
100
AcDbEntity
  8
0
  6
Continuous
 62
     7
370
     0
100
AcDbLine
 10
171.9299249471
 20
184.3600277906
 30
0.0
 11
171.9299249471
 21
184.270735609
 31
0.0
  0
LINE
  5
4EA
330
1F
100
AcDbEntity
  8
0
  6
Continuous
 62
     7
370
     0
100
AcDbLine
 10
171.9299249471
 20
186.2450875459
 30
0.0
 11
171.9174247355
 21
186.2450875459
 31
0.0
  0
LINE
  5
4EB
330
1F
100
AcDbEntity
  8
0
  6
Continuous
 62
     7
370
     0
100
AcDbLine
 10
171.9299249471
 20
186.2450875459
 30
0.0
 11
171.9299249471
 21
186.1309921486
 31
0.0
  0
LINE
  5
4EC
330
1F
100
AcDbEntity
  8
0
  6
Continuous
 62
     7
370
     0
100
AcDbLine
 10
171.9299249471
 20
184.2062466429
 30
0.0
 11
171.9174247355
 21
184.2062466429
 31
0.0
  0
LINE
  5
4ED
330
1F
100
AcDbEntity
  8
0
  6
Continuous
 62
     7
370
     0
100
AcDbLine
 10
171.9299249471
 20
184.270735609
 30
0.0
 11
171.9299249471
 21
184.2062466429
 31
0.0
  0
LINE
  5
4EE
330
1F
100
AcDbEntity
  8
0
  6
Continuous
 62
     7
370
     0
100
AcDbLine
 10
171.9299249471
 20
186.3294192707
 30
0.0
 11
171.9174247355
 21
186.3294192707
 31
0.0
  0
LINE
  5
4EF
330
1F
100
AcDbEntity
  8
0
  6
Continuous
 62
     7
370
     0
100
AcDbLine
 10
171.9299249471
 20
186.3294192707
 30
0.0
 11
171.9299249471
 21
186.2450875459
 31
0.0
  0
LINE
  5
4F0
330
1F
100
AcDbEntity
  8
0
  6
Continuous
 62
     7
370
     0
100
AcDbLine
 10
171.9299249471
 20
186.470606376
 30
0.0
 11
171.9174247355
 21
186.470606376
 31
0.0
  0
LINE
  5
4F1
330
1F
100
AcDbEntity
  8
0
  6
Continuous
 62
     7
370
     0
100
AcDbLine
 10
171.9299249471
 20
186.470606376
 30
0.0
 11
171.9299249471
 21
186.3294192707
 31
0.0
  0
LINE
  5
4F2
330
1F
100
AcDbEntity
  8
0
  6
Continuous
 62
     7
370
     0
100
AcDbLine
 10
171.9299249471
 20
177.1362600965
 30
0.0
 11
171.9174247355
 21
177.1362600965
 31
0.0
  0
LINE
  5
4F3
330
1F
100
AcDbEntity
  8
0
  6
Continuous
 62
     7
370
     0
100
AcDbLine
 10
171.9299249471
 20
176.3593270561
 30
0.0
 11
171.9174247355
 21
176.3593270561
 31
0.0
  0
LINE
  5
4F4
330
1F
100
AcDbEntity
  8
0
  6
Continuous
 62
     7
370
     0
100
AcDbLine
 10
171.9299249471
 20
177.9039441725
 30
0.0
 11
171.9174247355
 21
177.9039441725
 31
0.0
  0
LINE
  5
4F5
330
1F
100
AcDbEntity
  8
0
  6
Continuous
 62
     7
370
     0
100
AcDbLine
 10
171.9299249471
 20
184.1467183666
 30
0.0
 11
171.9174247355
 21
184.1467183666
 31
0.0
  0
LINE
  5
4F6
330
1F
100
AcDbEntity
  8
0
  6
Continuous
 62
     7
370
     0
100
AcDbLine
 10
171.9299249471
 20
184.2062466429
 30
0.0
 11
171.9299249471
 21
184.1467183666
 31
0.0
  0
LINE
  5
4F7
330
1F
100
AcDbEntity
  8
0
  6
Continuous
 62
     7
370
     0
100
AcDbLine
 10
171.9299249471
 20
186.5400560317
 30
0.0
 11
171.9174247355
 21
186.5400560317
 31
0.0
  0
LINE
  5
4F8
330
1F
100
AcDbEntity
  8
0
  6
Continuous
 62
     7
370
     0
100
AcDbLine
 10
171.9299249471
 20
186.5400560317
 30
0.0
 11
171.9299249471
 21
186.470606376
 31
0.0
  0
LINE
  5
4F9
330
1F
100
AcDbEntity
  8
0
  6
Continuous
 62
     7
370
     0
100
AcDbLine
 10
171.9299249471
 20
176.2305232813
 30
0.0
 11
171.9174247355
 21
176.2305232813
 31
0.0
  0
LINE
  5
4FA
330
1F
100
AcDbEntity
  8
0
  6
Continuous
 62
     7
370
     0
100
AcDbLine
 10
171.9299249471
 20
178.0334331678
 30
0.0
 11
171.9174247355
 21
178.0334331678
 31
0.0
  0
LINE
  5
4FB
330
1F
100
AcDbEntity
  8
0
  6
Continuous
 62
     7
370
     0
100
AcDbLine
 10
171.9299249471
 20
186.5999032861
 30
0.0
 11
171.9174247355
 21
186.5999032861
 31
0.0
  0
LINE
  5
4FC
330
1F
100
AcDbEntity
  8
0
  6
Continuous
 62
     7
370
     0
100
AcDbLine
 10
171.9299249471
 20
186.5999032861
 30
0.0
 11
171.9299249471
 21
186.5400560317
 31
0.0
  0
LINE
  5
4FD
330
1F
100
AcDbEntity
  8
0
  6
Continuous
 62
     7
370
     0
100
AcDbLine
 10
171.9299249471
 20
184.1070328491
 30
0.0
 11
171.9174247355
 21
184.1070328491
 31
0.0
  0
LINE
  5
4FE
330
1F
100
AcDbEntity
  8
0
  6
Continuous
 62
     7
370
     0
100
AcDbLine
 10
171.9299249471
 20
184.1467183666
 30
0.0
 11
171.9299249471
 21
184.1070328491
 31
0.0
  0
LINE
  5
4FF
330
1F
100
AcDbEntity
  8
0
  6
Continuous
 62
     7
370
     0
100
AcDbLine
 10
171.9299249471
 20
186.7031729897
 30
0.0
 11
171.9174247355
 21
186.7031729897
 31
0.0
  0
LINE
  5
500
330
1F
100
AcDbEntity
  8
0
  6
Continuous
 62
     7
370
     0
100
AcDbLine
 10
171.9299249471
 20
186.7031729897
 30
0.0
 11
171.9299249471
 21
186.5999032861
 31
0.0
  0
LINE
  5
501
330
1F
100
AcDbEntity
  8
0
  6
Continuous
 62
     7
370
     0
100
AcDbLine
 10
171.9299249471
 20
184.09215078
 30
0.0
 11
171.9174247355
 21
184.09215078
 31
0.0
  0
LINE
  5
502
330
1F
100
AcDbEntity
  8
0
  6
Continuous
 62
     7
370
     0
100
AcDbLine
 10
171.9299249471
 20
184.1070328491
 30
0.0
 11
171.9299249471
 21
184.09215078
 31
0.0
  0
LINE
  5
503
330
1F
100
AcDbEntity
  8
0
  6
Continuous
 62
     7
370
     0
100
AcDbLine
 10
171.9299249471
 20
186.8321509218
 30
0.0
 11
171.9174247355
 21
186.8321509218
 31
0.0
  0
LINE
  5
504
330
1F
100
AcDbEntity
  8
0
  6
Continuous
 62
     7
370
     0
100
AcDbLine
 10
171.9299249471
 20
186.8321509218
 30
0.0
 11
171.9299249471
 21
186.7031729897
 31
0.0
  0
LINE
  5
505
330
1F
100
AcDbEntity
  8
0
  6
Continuous
 62
     7
370
     0
100
AcDbLine
 10
171.9299249471
 20
184.0822296334
 30
0.0
 11
171.9174247355
 21
184.0822296334
 31
0.0
  0
LINE
  5
506
330
1F
100
AcDbEntity
  8
0
  6
Continuous
 62
     7
370
     0
100
AcDbLine
 10
171.9299249471
 20
184.09215078
 30
0.0
 11
171.9299249471
 21
184.0822296334
 31
0.0
  0
LINE
  5
507
330
1F
100
AcDbEntity
  8
0
  6
Continuous
 62
     7
370
     0
100
AcDbLine
 10
171.9299249471
 20
186.9214428706
 30
0.0
 11
171.9174247355
 21
186.9214428706
 31
0.0
  0
LINE
  5
508
330
1F
100
AcDbEntity
  8
0
  6
Continuous
 62
     7
370
     0
100
AcDbLine
 10
171.9299249471
 20
186.9214428706
 30
0.0
 11
171.9299249471
 21
186.8321509218
 31
0.0
  0
LINE
  5
509
330
1F
100
AcDbEntity
  8
0
  6
Continuous
 62
     7
370
     0
100
AcDbLine
 10
171.9299249471
 20
186.995853216
 30
0.0
 11
171.9174247355
 21
186.995853216
 31
0.0
  0
LINE
  5
50A
330
1F
100
AcDbEntity
  8
0
  6
Continuous
 62
     7
370
     0
100
AcDbLine
 10
171.9299249471
 20
186.995853216
 30
0.0
 11
171.9299249471
 21
186.9214428706
 31
0.0
  0
LINE
  5
50B
330
1F
100
AcDbEntity
  8
0
  6
Continuous
 62
     7
370
     0
100
AcDbLine
 10
171.9299249471
 20
179.8342658557
 30
0.0
 11
171.9174247355
 21
179.8342658557
 31
0.0
  0
LINE
  5
50C
330
1F
100
AcDbEntity
  8
0
  6
Continuous
 62
     7
370
     0
100
AcDbLine
 10
171.9299249471
 20
187.0653028717
 30
0.0
 11
171.9174247355
 21
187.0653028717
 31
0.0
  0
LINE
  5
50D
330
1F
100
AcDbEntity
  8
0
  6
Continuous
 62
     7
370
     0
100
AcDbLine
 10
171.9299249471
 20
187.0653028717
 30
0.0
 11
171.9299249471
 21
186.995853216
 31
0.0
  0
LINE
  5
50E
330
1F
100
AcDbEntity
  8
0
  6
Continuous
 62
     7
370
     0
100
AcDbLine
 10
171.9299249471
 20
187.1198704583
 30
0.0
 11
171.9174247355
 21
187.1198704583
 31
0.0
  0
LINE
  5
50F
330
1F
100
AcDbEntity
  8
0
  6
Continuous
 62
     7
370
     0
100
AcDbLine
 10
171.9299249471
 20
187.1198704583
 30
0.0
 11
171.9299249471
 21
187.0653028717
 31
0.0
  0
LINE
  5
510
330
1F
100
AcDbEntity
  8
0
  6
Continuous
 62
     7
370
     0
100
AcDbLine
 10
171.9299249471
 20
187.1793987347
 30
0.0
 11
171.9174247355
 21
187.1793987347
 31
0.0
  0
LINE
  5
511
330
1F
100
AcDbEntity
  8
0
  6
Continuous
 62
     7
370
     0
100
AcDbLine
 10
171.9299249471
 20
187.1793987347
 30
0.0
 11
171.9299249471
 21
187.1198704583
 31
0.0
  0
LINE
  5
512
330
1F
100
AcDbEntity
  8
0
  6
Continuous
 62
     7
370
     0
100
AcDbLine
 10
171.9299249471
 20
187.2141235625
 30
0.0
 11
171.9174247355
 21
187.2141235625
 31
0.0
  0
LINE
  5
513
330
1F
100
AcDbEntity
  8
0
  6
Continuous
 62
     7
370
     0
100
AcDbLine
 10
171.9299249471
 20
187.2141235625
 30
0.0
 11
171.9299249471
 21
187.1793987347
 31
0.0
  0
LINE
  5
514
330
1F
100
AcDbEntity
  8
0
  6
Continuous
 62
     7
370
     0
100
AcDbLine
 10
171.9299249471
 20
187.238927011
 30
0.0
 11
171.9174247355
 21
187.238927011
 31
0.0
  0
LINE
  5
515
330
1F
100
AcDbEntity
  8
0
  6
Continuous
 62
     7
370
     0
100
AcDbLine
 10
171.9299249471
 20
187.238927011
 30
0.0
 11
171.9299249471
 21
187.2141235625
 31
0.0
  0
LINE
  5
516
330
1F
100
AcDbEntity
  8
0
  6
Continuous
 62
     7
370
     0
100
AcDbLine
 10
171.9299249471
 20
187.2438877007
 30
0.0
 11
171.9174247355
 21
187.2438877007
 31
0.0
  0
LINE
  5
517
330
1F
100
AcDbEntity
  8
0
  6
Continuous
 62
     7
370
     0
100
AcDbLine
 10
171.9299249471
 20
187.2438877007
 30
0.0
 11
171.9299249471
 21
187.238927011
 31
0.0
  0
LINE
  5
518
330
1F
100
AcDbEntity
  8
0
  6
Continuous
 62
     7
370
     0
100
AcDbLine
 10
166.7174247214
 20
238.3740446648
 30
0.0
 11
163.9174248212
 21
238.3740446648
 31
0.0
  0
LINE
  5
519
330
1F
100
AcDbEntity
  8
0
  6
Continuous
 62
     7
370
     0
100
AcDbLine
 10
163.9174248212
 20
237.3323901674
 30
0.0
 11
163.9174248212
 21
238.3740446648
 31
0.0
  0
LINE
  5
51A
330
1F
100
AcDbEntity
  8
0
  6
Continuous
 62
     7
370
     0
100
AcDbLine
 10
166.7174247214
 20
237.3323901674
 30
0.0
 11
166.7174247214
 21
238.3740446648
 31
0.0
  0
LINE
  5
51B
330
1F
100
AcDbEntity
  8
0
  6
Continuous
 62
     7
370
     0
100
AcDbLine
 10
163.9174248212
 20
239.374273934
 30
0.0
 11
166.7174247214
 21
239.374273934
 31
0.0
  0
LINE
  5
51C
330
1F
100
AcDbEntity
  8
0
  6
Continuous
 62
     7
370
     0
100
AcDbLine
 10
163.9174248212
 20
238.3740446648
 30
0.0
 11
163.9174248212
 21
239.374273934
 31
0.0
  0
LINE
  5
51D
330
1F
100
AcDbEntity
  8
0
  6
Continuous
 62
     7
370
     0
100
AcDbLine
 10
166.7174247214
 20
239.374273934
 30
0.0
 11
166.7174247214
 21
238.3740446648
 31
0.0
  0
LINE
  5
51E
330
1F
100
AcDbEntity
  8
0
  6
Continuous
 62
     7
370
     0
100
AcDbLine
 10
166.7174247214
 20
239.375082322
 30
0.0
 11
163.9174248212
 21
239.375082322
 31
0.0
  0
LINE
  5
51F
330
1F
100
AcDbEntity
  8
0
  6
Continuous
 62
     7
370
     0
100
AcDbLine
 10
163.9174248212
 20
239.374273934
 30
0.0
 11
163.9174248212
 21
239.375082322
 31
0.0
  0
LINE
  5
520
330
1F
100
AcDbEntity
  8
0
  6
Continuous
 62
     7
370
     0
100
AcDbLine
 10
166.7174247214
 20
239.374273934
 30
0.0
 11
166.7174247214
 21
239.375082322
 31
0.0
  0
ARC
  5
521
330
1F
100
AcDbEntity
  8
0
  6
Continuous
 62
     8
370
     0
100
AcDbCircle
 10
165.3174247713
 20
203.7075498759
 30
0.0
 40
2.750264483593571
100
AcDbArc
 50
180.7946309623
 51
359.2053690377
  0
ARC
  5
522
330
1F
100
AcDbEntity
  8
0
  6
Continuous
 62
     8
370
     0
100
AcDbCircle
 10
165.3174247713
 20
193.8845122653
 30
0.0
 40
2.750264492360849
100
AcDbArc
 50
180.7946441309
 51
359.2053558692
  0
SPLINE
  5
523
330
1F
100
AcDbEntity
  8
0
  6
Continuous
 62
     8
370
     0
100
AcDbSpline
210
0.0
220
0.0
230
1.0
 70
     8
 71
     3
 72
    12
 73
     8
 74
     0
 42
0.000000001
 43
0.00000001
 40
0.0
 40
0.0
 40
0.0
 40
0.0
 40
0.2278124087133358
 40
0.4564793607393285
 40
0.6848157379115896
 40
0.9129708018593137
 40
1.0
 40
1.0
 40
1.0
 40
1.0
 10
160.6983041511143
 20
185.611641511868
 30
0.0
 10
160.715788604204
 20
185.9128487515988
 30
0.0
 10
160.7508230960228
 20
186.5163930844949
 30
0.0
 10
161.0221896698306
 20
187.3898596691497
 30
0.0
 10
161.4563459074818
 20
188.1854424877816
 30
0.0
 10
161.898576167732
 20
188.7638758855697
 30
0.0
 10
162.2267961128073
 20
189.0209942901048
 30
0.0
 10
162.3174247452283
 20
189.0919902479158
 30
0.0
  0
SPLINE
  5
524
330
1F
100
AcDbEntity
  8
0
  6
Continuous
 62
     8
370
     0
100
AcDbSpline
210
0.0
220
0.0
230
1.0
 70
     8
 71
     3
 72
    12
 73
     8
 74
     0
 42
0.000000001
 43
0.00000001
 40
0.0
 40
0.0
 40
0.0
 40
0.0
 40
0.0857125663213065
 40
0.3141881766324446
 40
0.5428631294726144
 40
0.7718702855399451
 40
1.0
 40
1.0
 40
1.0
 40
1.0
 10
168.3174247973824
 20
189.0932195937143
 30
0.0
 10
168.4068054290909
 20
189.0234086986653
 30
0.0
 10
168.7344392744887
 20
188.7675097241522
 30
0.0
 10
169.1763243051299
 20
188.1895027788553
 30
0.0
 10
169.6114065860053
 20
187.3927404013087
 30
0.0
 10
169.8837289500395
 20
186.5179116373813
 30
0.0
 10
169.918962453743
 20
185.9133469205119
 30
0.0
 10
169.9365453914965
 20
185.6116447714971
 30
0.0
  0
SPLINE
  5
525
330
1F
100
AcDbEntity
  8
0
  6
Continuous
 62
     8
370
     0
100
AcDbSpline
210
0.0
220
0.0
230
1.0
 70
     8
 71
     3
 72
    12
 73
     8
 74
     0
 42
0.000000001
 43
0.00000001
 40
0.0
 40
0.0
 40
0.0
 40
0.0
 40
0.1374320595095889
 40
0.3530740965146303
 40
0.5687160866095644
 40
0.7843580702639741
 40
1.0
 40
1.0
 40
1.0
 40
1.0
 10
168.3174247973824
 20
189.482299157034
 30
0.0
 10
168.4805702741337
 20
189.357317329184
 30
0.0
 10
168.8997042230096
 20
189.0362288866012
 30
0.0
 10
169.4300162602743
 20
188.3605922698273
 30
0.0
 10
169.8892500561247
 20
187.5089056073404
 30
0.0
 10
170.1812758621476
 20
186.5781229790482
 30
0.0
 10
170.2180917640713
 20
185.9338041471635
 30
0.0
 10
170.2364997127319
 20
185.6116447714971
 30
0.0
  0
SPLINE
  5
526
330
1F
100
AcDbEntity
  8
0
  6
Continuous
 62
     8
370
     0
100
AcDbSpline
210
0.0
220
0.0
230
1.0
 70
     8
 71
     3
 72
    12
 73
     8
 74
     0
 42
0.000000001
 43
0.00000001
 40
0.0
 40
0.0
 40
0.0
 40
0.0
 40
0.2152375161137876
 40
0.4304750535830926
 40
0.6457126314537405
 40
0.8609502965698462
 40
1.0
 40
1.0
 40
1.0
 40
1.0
 10
160.3983498298788
 20
185.6116447714971
 30
0.0
 10
160.4166894710749
 20
185.9332177379886
 30
0.0
 10
160.4533687552866
 20
186.5763637028777
 30
0.0
 10
160.7443543990991
 20
187.5055600426133
 30
0.0
 10
161.2019162022164
 20
188.3561735708504
 30
0.0
 10
161.7323810114326
 20
189.0331899846195
 30
0.0
 10
162.1525270266116
 20
189.3560009126198
 30
0.0
 10
162.3174247452283
 20
189.4826968317733
 30
0.0
  0
LINE
  5
527
330
1F
100
AcDbEntity
  8
0
  6
Continuous
 62
     8
370
     0
100
AcDbLine
 10
170.3174246595
 20
177.6116446243
 30
0.0
 11
170.2572812447
 21
177.6116446243
 31
0.0
  0
LINE
  5
528
330
1F
100
AcDbEntity
  8
0
  6
Continuous
 62
     8
370
     0
100
AcDbLine
 10
160.3174248831
 20
177.6116446243
 30
0.0
 11
160.3773741172
 21
177.6116446243
 31
0.0
  0
LINE
  5
529
330
1F
100
AcDbEntity
  8
0
  6
Continuous
 62
     8
370
     0
100
AcDbLine
 10
170.3174246595
 20
185.6116447715
 30
0.0
 11
170.2572812447
 21
185.6116447715
 31
0.0
  0
LINE
  5
52A
330
1F
100
AcDbEntity
  8
0
  6
Continuous
 62
     8
370
     0
100
AcDbLine
 10
160.3174248831
 20
185.6116447715
 30
0.0
 11
160.3775682979
 21
185.6116447715
 31
0.0
  0
LINE
  5
52B
330
1F
100
AcDbEntity
  8
0
  6
Continuous
 62
     8
370
     0
100
AcDbLine
 10
160.7124290549
 20
219.8519311031
 30
0.0
 11
160.7124290549
 21
224.85193006
 31
0.0
  0
LINE
  5
52C
330
1F
100
AcDbEntity
  8
0
  6
Continuous
 62
     8
370
     0
100
AcDbLine
 10
160.5206208424
 20
219.9476747891
 30
0.0
 11
160.5206208424
 21
224.7561863741
 31
0.0
  0
LINE
  5
52D
330
1F
100
AcDbEntity
  8
0
  6
Continuous
 62
     8
370
     0
100
AcDbLine
 10
170.1142287002
 20
220.2144651791
 30
0.0
 11
170.1142287002
 21
219.9476747891
 31
0.0
  0
LINE
  5
52E
330
1F
100
AcDbEntity
  8
0
  6
Continuous
 62
     8
370
     0
100
AcDbLine
 10
170.1142287002
 20
224.7561863741
 30
0.0
 11
170.1142287002
 21
220.2144651791
 31
0.0
  0
LINE
  5
52F
330
1F
100
AcDbEntity
  8
0
  6
Continuous
 62
     8
370
     0
100
AcDbLine
 10
169.9224204877
 20
220.1293422958
 30
0.0
 11
169.9224204877
 21
219.8519311031
 31
0.0
  0
LINE
  5
530
330
1F
100
AcDbEntity
  8
0
  6
Continuous
 62
     8
370
     0
100
AcDbLine
 10
169.9224204877
 20
224.85193006
 30
0.0
 11
169.9224204877
 21
220.1293422958
 31
0.0
  0
DIMENSION
  5
531
330
1F
100
AcDbEntity
  8
0
  6
Continuous
 62
     7
370
     0
100
AcDbDimension
  2
_D_12
 10
162.3174247713
 20
249.7752210022
 30
0.0
 11
165.3174247713
 21
249.7752210022
 31
0.0
 70
   160
  1
<>
 71
     2
 42
-1.0
  3
SLDDIMSTYLE0
100
AcDbAlignedDimension
 13
168.3174247713
 23
236.8388276989
 33
0.0
 14
162.3174247713
 24
236.8388276989
 34
0.0
 50
0.0
100
AcDbRotatedDimension
  0
DIMENSION
  5
53D
330
1F
100
AcDbEntity
  8
0
  6
Continuous
 62
     7
370
     0
100
AcDbDimension
  2
_D_13
 10
171.8174247713
 20
116.6116446694
 30
0.0
 11
165.3174247713
 21
116.6116446694
 31
0.0
 70
   160
  1
<>
 71
     2
 42
-1.0
  3
SLDDIMSTYLE0
100
AcDbAlignedDimension
 13
158.8174247713
 23
164.6116446694
 33
0.0
 14
171.8174247713
 24
164.6116446694
 34
0.0
100
AcDbRotatedDimension
  0
ENDSEC
  0
SECTION
  2
OBJECTS
  0
DICTIONARY
  5
C
330
0
100
AcDbDictionary
281
     1
  3
ACAD_GROUP
350
D
  3
ACAD_LAYOUT
350
1A
  3
ACAD_MLINESTYLE
350
17
  3
ACAD_PLOTSETTINGS
350
19
  3
ACAD_PLOTSTYLENAME
350
E
  3
ACAD_SCALELIST
350
47
  0
DICTIONARY
  5
D
102
{ACAD_REACTORS
330
C
102
}
330
C
100
AcDbDictionary
281
     1
  0
DICTIONARY
  5
1A
102
{ACAD_REACTORS
330
C
102
}
330
C
100
AcDbDictionary
281
     1
  3
Layout1
350
1E
  3
Layout2
350
26
  3
Model
350
22
  0
DICTIONARY
  5
17
102
{ACAD_REACTORS
330
C
102
}
330
C
100
AcDbDictionary
281
     1
  3
Standard
350
18
  0
DICTIONARY
  5
19
102
{ACAD_REACTORS
330
C
102
}
330
C
100
AcDbDictionary
281
     1
  0
ACDBDICTIONARYWDFLT
  5
E
102
{ACAD_REACTORS
330
C
102
}
330
C
100
AcDbDictionary
281
     1
  3
Normal
350
F
100
AcDbDictionaryWithDefault
340
F
  0
DICTIONARY
  5
47
102
{ACAD_REACTORS
330
C
102
}
330
C
100
AcDbDictionary
281
     1
  3
A0
350
48
  3
A1
350
49
  3
A2
350
4A
  3
A3
350
4B
  3
A4
350
4C
  3
A5
350
4D
  3
A6
350
4E
  3
A7
350
4F
  3
A8
350
50
  3
A9
350
51
  3
B0
350
52
  3
B1
350
53
  3
B2
350
54
  3
B3
350
55
  3
B4
350
56
  3
B5
350
57
  3
B6
350
58
  3
B7
350
59
  3
B8
350
5A
  3
B9
350
5B
  3
C0
350
5C
  3
C1
350
5D
  3
C2
350
5E
  3
C3
350
5F
  3
C4
350
60
  3
C5
350
61
  3
C6
350
62
  3
C7
350
63
  3
C8
350
64
  3
C9
350
65
  3
D0
350
66
  3
D1
350
67
  3
D2
350
68
  0
LAYOUT
  5
1E
102
{ACAD_REACTORS
330
1A
102
}
330
1A
100
AcDbPlotSettings
  1

  2
none_device
  4

  6

 40
0.0
 41
0.0
 42
0.0
 43
0.0
 44
0.0
 45
0.0
 46
0.0
 47
0.0
 48
0.0
 49
0.0
140
0.0
141
0.0
142
1.0
143
1.0
 70
   688
 72
     1
 73
     0
 74
     5
  7

 75
    16
147
1.0
148
0.0
149
0.0
100
AcDbLayout
  1
Layout1
 70
     1
 71
     1
 10
0.0
 20
0.0
 11
420.0
 21
297.0
 12
0.0
 22
0.0
 32
0.0
 14
1.0000000000E+20
 24
1.0000000000E+20
 34
1.0000000000E+20
 15
-1.0000000000E+20
 25
-1.0000000000E+20
 35
-1.0000000000E+20
146
0.0
 13
0.0
 23
0.0
 33
0.0
 16
1.0
 26
0.0
 36
0.0
 17
0.0
 27
1.0
 37
0.0
 76
     0
330
1B
  0
LAYOUT
  5
26
102
{ACAD_REACTORS
330
1A
102
}
330
1A
100
AcDbPlotSettings
  1

  2
none_device
  4

  6

 40
0.0
 41
0.0
 42
0.0
 43
0.0
 44
0.0
 45
0.0
 46
0.0
 47
0.0
 48
0.0
 49
0.0
140
0.0
141
0.0
142
1.0
143
1.0
 70
   688
 72
     1
 73
     0
 74
     5
  7

 75
    16
147
1.0
148
0.0
149
0.0
100
AcDbLayout
  1
Layout2
 70
     1
 71
     2
 10
0.0
 20
0.0
 11
0.0
 21
0.0
 12
0.0
 22
0.0
 32
0.0
 14
0.0
 24
0.0
 34
0.0
 15
0.0
 25
0.0
 35
0.0
146
0.0
 13
0.0
 23
0.0
 33
0.0
 16
1.0
 26
0.0
 36
0.0
 17
0.0
 27
1.0
 37
0.0
 76
     0
330
23
  0
LAYOUT
  5
22
102
{ACAD_REACTORS
330
1A
102
}
330
1A
100
AcDbPlotSettings
  1

  2
none_device
  4
Letter_(8.50_x_11.00_Inches)
  6

 40
6.35
 41
6.35
 42
6.35000508
 43
6.35000508
 44
215.9
 45
279.4
 46
0.0
 47
0.0
 48
0.0
 49
0.0
140
0.0
141
0.0
142
1.0
143
1.0
 70
  1712
 72
     1
 73
     0
 74
     0
  7

 75
     0
147
1.0
148
0.0
149
0.0
100
AcDbLayout
  1
Model
 70
     1
 71
     0
 10
0.0
 20
0.0
 11
210.0
 21
297.0
 12
0.0
 22
0.0
 32
0.0
 14
0.0
 24
0.0
 34
0.0
 15
210.0
 25
297.0
 35
0.0
146
0.0
 13
0.0
 23
0.0
 33
0.0
 16
1.0
 26
0.0
 36
0.0
 17
0.0
 27
1.0
 37
0.0
 76
     0
330
1F
331
29
  0
MLINESTYLE
  5
18
102
{ACAD_REACTORS
330
17
102
}
330
17
100
AcDbMlineStyle
  2
Standard
 70
     0
  3

 62
   256
 51
90.0
 52
90.0
 71
     2
 49
0.5
 62
   256
  6
BYLAYER
 49
-0.5
 62
   256
  6
BYLAYER
  0
ACDBPLACEHOLDER
  5
F
102
{ACAD_REACTORS
330
E
102
}
330
E
  0
SCALE
  5
48
102
{ACAD_REACTORS
330
47
102
}
330
47
100
AcDbScale
 70
     0
300
1:1
140
1.0
141
1.0
290
     1
  0
SCALE
  5
49
102
{ACAD_REACTORS
330
47
102
}
330
47
100
AcDbScale
 70
     0
300
1:2
140
1.0
141
2.0
290
     0
  0
SCALE
  5
4A
102
{ACAD_REACTORS
330
47
102
}
330
47
100
AcDbScale
 70
     0
300
1:4
140
1.0
141
4.0
290
     0
  0
SCALE
  5
4B
102
{ACAD_REACTORS
330
47
102
}
330
47
100
AcDbScale
 70
     0
300
1:5
140
1.0
141
5.0
290
     0
  0
SCALE
  5
4C
102
{ACAD_REACTORS
330
47
102
}
330
47
100
AcDbScale
 70
     0
300
1:8
140
1.0
141
8.0
290
     0
  0
SCALE
  5
4D
102
{ACAD_REACTORS
330
47
102
}
330
47
100
AcDbScale
 70
     0
300
1:10
140
1.0
141
10.0
290
     0
  0
SCALE
  5
4E
102
{ACAD_REACTORS
330
47
102
}
330
47
100
AcDbScale
 70
     0
300
1:16
140
1.0
141
16.0
290
     0
  0
SCALE
  5
4F
102
{ACAD_REACTORS
330
47
102
}
330
47
100
AcDbScale
 70
     0
300
1:20
140
1.0
141
20.0
290
     0
  0
SCALE
  5
50
102
{ACAD_REACTORS
330
47
102
}
330
47
100
AcDbScale
 70
     0
300
1:30
140
1.0
141
30.0
290
     0
  0
SCALE
  5
51
102
{ACAD_REACTORS
330
47
102
}
330
47
100
AcDbScale
 70
     0
300
1:40
140
1.0
141
40.0
290
     0
  0
SCALE
  5
52
102
{ACAD_REACTORS
330
47
102
}
330
47
100
AcDbScale
 70
     0
300
1:50
140
1.0
141
50.0
290
     0
  0
SCALE
  5
53
102
{ACAD_REACTORS
330
47
102
}
330
47
100
AcDbScale
 70
     0
300
1:100
140
1.0
141
100.0
290
     0
  0
SCALE
  5
54
102
{ACAD_REACTORS
330
47
102
}
330
47
100
AcDbScale
 70
     0
300
2:1
140
2.0
141
1.0
290
     0
  0
SCALE
  5
55
102
{ACAD_REACTORS
330
47
102
}
330
47
100
AcDbScale
 70
     0
300
4:1
140
4.0
141
1.0
290
     0
  0
SCALE
  5
56
102
{ACAD_REACTORS
330
47
102
}
330
47
100
AcDbScale
 70
     0
300
8:1
140
8.0
141
1.0
290
     0
  0
SCALE
  5
57
102
{ACAD_REACTORS
330
47
102
}
330
47
100
AcDbScale
 70
     0
300
10:1
140
10.0
141
1.0
290
     0
  0
SCALE
  5
58
102
{ACAD_REACTORS
330
47
102
}
330
47
100
AcDbScale
 70
     0
300
100:1
140
100.0
141
1.0
290
     0
  0
SCALE
  5
59
102
{ACAD_REACTORS
330
47
102
}
330
47
100
AcDbScale
 70
     0
300
1/128" = 1'-0"
140
0.0078125
141
12.0
290
     0
  0
SCALE
  5
5A
102
{ACAD_REACTORS
330
47
102
}
330
47
100
AcDbScale
 70
     0
300
1/64" = 1'-0"
140
0.015625
141
12.0
290
     0
  0
SCALE
  5
5B
102
{ACAD_REACTORS
330
47
102
}
330
47
100
AcDbScale
 70
     0
300
1/32" = 1'-0"
140
0.03125
141
12.0
290
     0
  0
SCALE
  5
5C
102
{ACAD_REACTORS
330
47
102
}
330
47
100
AcDbScale
 70
     0
300
1/16" = 1'-0"
140
0.0625
141
12.0
290
     0
  0
SCALE
  5
5D
102
{ACAD_REACTORS
330
47
102
}
330
47
100
AcDbScale
 70
     0
300
3/32" = 1'-0"
140
0.09375
141
12.0
290
     0
  0
SCALE
  5
5E
102
{ACAD_REACTORS
330
47
102
}
330
47
100
AcDbScale
 70
     0
300
1/8" = 1'-0"
140
0.125
141
12.0
290
     0
  0
SCALE
  5
5F
102
{ACAD_REACTORS
330
47
102
}
330
47
100
AcDbScale
 70
     0
300
3/16" = 1'-0"
140
0.1875
141
12.0
290
     0
  0
SCALE
  5
60
102
{ACAD_REACTORS
330
47
102
}
330
47
100
AcDbScale
 70
     0
300
1/4" = 1'-0"
140
0.25
141
12.0
290
     0
  0
SCALE
  5
61
102
{ACAD_REACTORS
330
47
102
}
330
47
100
AcDbScale
 70
     0
300
3/8" = 1'-0"
140
0.375
141
12.0
290
     0
  0
SCALE
  5
62
102
{ACAD_REACTORS
330
47
102
}
330
47
100
AcDbScale
 70
     0
300
1/2" = 1'-0"
140
0.5
141
12.0
290
     0
  0
SCALE
  5
63
102
{ACAD_REACTORS
330
47
102
}
330
47
100
AcDbScale
 70
     0
300
3/4" = 1'-0"
140
0.75
141
12.0
290
     0
  0
SCALE
  5
64
102
{ACAD_REACTORS
330
47
102
}
330
47
100
AcDbScale
 70
     0
300
1" = 1'-0"
140
1.0
141
12.0
290
     0
  0
SCALE
  5
65
102
{ACAD_REACTORS
330
47
102
}
330
47
100
AcDbScale
 70
     0
300
1-1/2" = 1'-0"
140
1.5
141
12.0
290
     0
  0
SCALE
  5
66
102
{ACAD_REACTORS
330
47
102
}
330
47
100
AcDbScale
 70
     0
300
3" = 1'-0"
140
3.0
141
12.0
290
     0
  0
SCALE
  5
67
102
{ACAD_REACTORS
330
47
102
}
330
47
100
AcDbScale
 70
     0
300
6" = 1'-0"
140
6.0
141
12.0
290
     0
  0
SCALE
  5
68
102
{ACAD_REACTORS
330
47
102
}
330
47
100
AcDbScale
 70
     0
300
1'-0" = 1'-0"
140
12.0
141
12.0
290
     0
  0
ENDSEC
  0
EOF
