  0
SECTION
  2
HEADER
  9
$ACADVER
  1
AC1015
  9
$ACADMAINTVER
 70
     6
  9
$DWGCODEPAGE
  3
DOS932
  9
$INSBASE
 10
0.0
 20
0.0
 30
0.0
  9
$EXTMIN
 10
0.0
 20
0.0
 30
0.0
  9
$EXTMAX
 10
210.0
 20
297.0
 30
0.0
  9
$LIMMIN
 10
0.0
 20
0.0
  9
$LIMMAX
 10
210.0
 20
297.0
  9
$ORTHOMODE
 70
     0
  9
$REGENMODE
 70
     1
  9
$FILLMODE
 70
     1
  9
$QTEXTMODE
 70
     0
  9
$MIRRTEXT
 70
     1
  9
$LTSCALE
 40
1.0
  9
$ATTMODE
 70
     1
  9
$TEXTSIZE
 40
3.5
  9
$TRACEWID
 40
1.0
  9
$TEXTSTYLE
  7
Standard
  9
$CLAYER
  8
0
  9
$CELTYPE
  6
ByLayer
  9
$CECOLOR
 62
   256
  9
$CELTSCALE
 40
1.0
  9
$DISPSILH
 70
     0
  9
$DIMSCALE
 40
1.0
  9
$DIMASZ
 40
3.0
  9
$DIMEXO
 40
1.0
  9
$DIMDLI
 40
3.75
  9
$DIMRND
 40
0.0
  9
$DIMDLE
 40
0.0
  9
$DIMEXE
 40
1.0
  9
$DIMTP
 40
0.0
  9
$DIMTM
 40
0.0
  9
$DIMTXT
 40
3.5
  9
$DIMCEN
 40
2.5
  9
$DIMTSZ
 40
0.0
  9
$DIMTOL
 70
     0
  9
$DIMLIM
 70
     0
  9
$DIMTIH
 70
     1
  9
$DIMTOH
 70
     1
  9
$DIMSE1
 70
     0
  9
$DIMSE2
 70
     0
  9
$DIMTAD
 70
     1
  9
$DIMZIN
 70
     0
  9
$DIMBLK
  1

  9
$DIMASO
 70
     1
  9
$DIMSHO
 70
     1
  9
$DIMPOST
  1

  9
$DIMAPOST
  1

  9
$DIMALT
 70
     0
  9
$DIMALTD
 70
     3
  9
$DIMALTF
 40
0.0393700787
  9
$DIMLFAC
 40
1.0
  9
$DIMTOFL
 70
     1
  9
$DIMTVP
 40
0.0
  9
$DIMTIX
 70
     0
  9
$DIMSOXD
 70
     0
  9
$DIMSAH
 70
     0
  9
$DIMBLK1
  1

  9
$DIMBLK2
  1

  9
$DIMSTYLE
  2
ISO-25
  9
$DIMCLRD
 70
     0
  9
$DIMCLRE
 70
     0
  9
$DIMCLRT
 70
     0
  9
$DIMTFAC
 40
1.0
  9
$DIMGAP
 40
1.524
  9
$DIMJUST
 70
     0
  9
$DIMSD1
 70
     0
  9
$DIMSD2
 70
     0
  9
$DIMTOLJ
 70
     0
  9
$DIMTZIN
 70
     0
  9
$DIMALTZ
 70
     0
  9
$DIMALTTZ
 70
     0
  9
$DIMUPT
 70
     0
  9
$DIMDEC
 70
     1
  9
$DIMTDEC
 70
     3
  9
$DIMALTU
 70
     2
  9
$DIMALTTD
 70
     3
  9
$DIMTXSTY
  7
Standard
  9
$DIMAUNIT
 70
     0
  9
$DIMADEC
 70
     2
  9
$DIMALTRND
 40
0.0
  9
$DIMAZIN
 70
     0
  9
$DIMDSEP
 70
    44
  9
$DIMATFIT
 70
     3
  9
$DIMFRAC
 70
     0
  9
$DIMLDRBLK
  1

  9
$DIMLUNIT
 70
     2
  9
$DIMLWD
 70
    -2
  9
$DIMLWE
 70
    -2
  9
$DIMTMOVE
 70
     0
  9
$LUNITS
 70
     2
  9
$LUPREC
 70
     1
  9
$SKETCHINC
 40
1.0
  9
$FILLETRAD
 40
10.0
  9
$AUNITS
 70
     0
  9
$AUPREC
 70
     2
  9
$MENU
  1
.
  9
$ELEVATION
 40
0.0
  9
$PELEVATION
 40
0.0
  9
$THICKNESS
 40
0.0
  9
$LIMCHECK
 70
     0
  9
$CHAMFERA
 40
0.0
  9
$CHAMFERB
 40
0.0
  9
$CHAMFERC
 40
0.0
  9
$CHAMFERD
 40
0.0
  9
$SKPOLY
 70
     0
  9
$TDCREATE
 40
2457781.558296482
  9
$TDUCREATE
 40
2457781.183296482
  9
$TDUPDATE
 40
2457781.558297569
  9
$TDUUPDATE
 40
2457781.183297569
  9
$TDINDWG
 40
0.0000000116
  9
$TDUSRTIMER
 40
0.0000000116
  9
$USRTIMER
 70
     1
  9
$ANGBASE
 50
0.0
  9
$ANGDIR
 70
     0
  9
$PDMODE
 70
     0
  9
$PDSIZE
 40
-1.0
  9
$PLINEWID
 40
0.0
  9
$SPLFRAME
 70
     0
  9
$SPLINETYPE
 70
     6
  9
$SPLINESEGS
 70
     8
  9
$HANDSEED
  5
1B5
  9
$SURFTAB1
 70
     6
  9
$SURFTAB2
 70
     6
  9
$SURFTYPE
 70
     6
  9
$SURFU
 70
     6
  9
$SURFV
 70
     6
  9
$UCSBASE
  2

  9
$UCSNAME
  2

  9
$UCSORG
 10
0.0
 20
0.0
 30
0.0
  9
$UCSXDIR
 10
1.0
 20
0.0
 30
0.0
  9
$UCSYDIR
 10
0.0
 20
1.0
 30
0.0
  9
$UCSORTHOREF
  2

  9
$UCSORTHOVIEW
 70
     0
  9
$UCSORGTOP
 10
0.0
 20
0.0
 30
0.0
  9
$UCSORGBOTTOM
 10
0.0
 20
0.0
 30
0.0
  9
$UCSORGLEFT
 10
0.0
 20
0.0
 30
0.0
  9
$UCSORGRIGHT
 10
0.0
 20
0.0
 30
0.0
  9
$UCSORGFRONT
 10
0.0
 20
0.0
 30
0.0
  9
$UCSORGBACK
 10
0.0
 20
0.0
 30
0.0
  9
$PUCSBASE
  2

  9
$PUCSNAME
  2

  9
$PUCSORG
 10
0.0
 20
0.0
 30
0.0
  9
$PUCSXDIR
 10
1.0
 20
0.0
 30
0.0
  9
$PUCSYDIR
 10
0.0
 20
1.0
 30
0.0
  9
$PUCSORTHOREF
  2

  9
$PUCSORTHOVIEW
 70
     0
  9
$PUCSORGTOP
 10
0.0
 20
0.0
 30
0.0
  9
$PUCSORGBOTTOM
 10
0.0
 20
0.0
 30
0.0
  9
$PUCSORGLEFT
 10
0.0
 20
0.0
 30
0.0
  9
$PUCSORGRIGHT
 10
0.0
 20
0.0
 30
0.0
  9
$PUCSORGFRONT
 10
0.0
 20
0.0
 30
0.0
  9
$PUCSORGBACK
 10
0.0
 20
0.0
 30
0.0
  9
$USERI1
 70
     0
  9
$USERI2
 70
     0
  9
$USERI3
 70
     0
  9
$USERI4
 70
     0
  9
$USERI5
 70
     0
  9
$USERR1
 40
0.0
  9
$USERR2
 40
0.0
  9
$USERR3
 40
0.0
  9
$USERR4
 40
0.0
  9
$USERR5
 40
0.0
  9
$WORLDVIEW
 70
     1
  9
$SHADEDGE
 70
     3
  9
$SHADEDIF
 70
    70
  9
$TILEMODE
 70
     1
  9
$MAXACTVP
 70
    64
  9
$PINSBASE
 10
0.0
 20
0.0
 30
0.0
  9
$PLIMCHECK
 70
     0
  9
$PEXTMIN
 10
1.0000000000E+20
 20
1.0000000000E+20
 30
1.0000000000E+20
  9
$PEXTMAX
 10
-1.0000000000E+20
 20
-1.0000000000E+20
 30
-1.0000000000E+20
  9
$PLIMMIN
 10
0.0
 20
0.0
  9
$PLIMMAX
 10
420.0
 20
297.0
  9
$UNITMODE
 70
     0
  9
$VISRETAIN
 70
     1
  9
$PLINEGEN
 70
     0
  9
$PSLTSCALE
 70
     1
  9
$TREEDEPTH
 70
  3020
  9
$CMLSTYLE
  2
Standard
  9
$CMLJUST
 70
     0
  9
$CMLSCALE
 40
20.0
  9
$PROXYGRAPHICS
 70
     1
  9
$MEASUREMENT
 70
     1
  9
$CELWEIGHT
370
    -1
  9
$ENDCAPS
280
     0
  9
$JOINSTYLE
280
     0
  9
$LWDISPLAY
290
     1
  9
$INSUNITS
 70
     4
  9
$HYPERLINKBASE
  1

  9
$STYLESHEET
  1

  9
$XEDIT
290
     1
  9
$CEPSNTYPE
380
     0
  9
$PSTYLEMODE
290
     1
  9
$FINGERPRINTGUID
  2
{3A07869D-9684-42FE-8BD3-4E2737396610}
  9
$VERSIONGUID
  2
{FAEB1C32-E019-11D5-929B-00C0DF256EC4}
  9
$EXTNAMES
290
     1
  9
$PSVPSCALE
 40
0.0
  9
$OLESTARTUP
290
     0
  0
ENDSEC
  0
SECTION
  2
CLASSES
  0
CLASS
  1
ACDBDICTIONARYWDFLT
  2
AcDbDictionaryWithDefault
  3
ObjectDBX Classes
 90
        0
280
     0
281
     0
  0
CLASS
  1
VISUALSTYLE
  2
AcDbVisualStyle
  3
ObjectDBX Classes
 90
     4095
280
     0
281
     0
  0
CLASS
  1
MATERIAL
  2
AcDbMaterial
  3
ObjectDBX Classes
 90
     1153
280
     0
281
     0
  0
CLASS
  1
SCALE
  2
AcDbScale
  3
ObjectDBX Classes
 90
     1153
280
     0
281
     0
  0
CLASS
  1
TABLESTYLE
  2
AcDbTableStyle
  3
ObjectDBX Classes
 90
     4095
280
     0
281
     0
  0
CLASS
  1
MLEADERSTYLE
  2
AcDbMLeaderStyle
  3
ACDB_MLEADERSTYLE_CLASS
 90
     4095
280
     0
281
     0
  0
CLASS
  1
SUN
  2
AcDbSun
  3
SCENEOE
 90
     1153
280
     0
281
     0
  0
CLASS
  1
ACDBPLACEHOLDER
  2
AcDbPlaceHolder
  3
ObjectDBX Classes
 90
        0
280
     0
281
     0
  0
CLASS
  1
LAYOUT
  2
AcDbLayout
  3
ObjectDBX Classes
 90
        0
280
     0
281
     0
  0
ENDSEC
  0
SECTION
  2
TABLES
  0
TABLE
  2
VPORT
  5
8
330
0
100
AcDbSymbolTable
 70
     1
  0
VPORT
  5
29
330
8
100
AcDbSymbolTableRecord
100
AcDbViewportTableRecord
  2
*Active
 70
     0
 10
0.0
 20
0.0
 11
1.0
 21
1.0
 12
105.0
 22
148.5
 13
0.0
 23
0.0
 14
10.0
 24
10.0
 15
10.0
 25
10.0
 16
0.0
 26
0.0
 36
1.0
 17
0.0
 27
0.0
 37
0.0
 40
297.0
 41
0.7070707071
 42
50.0
 43
0.0
 44
0.0
 50
0.0
 51
0.0
 71
     0
 72
  2000
 73
     1
 74
     3
 75
     0
 76
     0
 77
     0
 78
     0
281
     0
 65
     1
110
0.0
120
0.0
130
0.0
111
1.0
121
0.0
131
0.0
112
0.0
122
1.0
132
0.0
 79
     0
146
0.0
  0
ENDTAB
  0
TABLE
  2
LTYPE
  5
5
330
0
100
AcDbSymbolTable
 70
     6
  0
LTYPE
  5
14
330
5
100
AcDbSymbolTableRecord
100
AcDbLinetypeTableRecord
  2
ByBlock
 70
     0
  3

 72
    65
 73
     0
 40
0.0
  0
LTYPE
  5
15
330
5
100
AcDbSymbolTableRecord
100
AcDbLinetypeTableRecord
  2
ByLayer
 70
     0
  3

 72
    65
 73
     0
 40
0.0
  0
LTYPE
  5
16
330
5
100
AcDbSymbolTableRecord
100
AcDbLinetypeTableRecord
  2
Continuous
 70
     0
  3
Solid line
 72
    65
 73
     0
 40
0.0
  0
LTYPE
  5
6E
330
5
100
AcDbSymbolTableRecord
100
AcDbLinetypeTableRecord
  2
HIDDEN
 70
     0
  3
Hidden __ __ __ __ __ __ __ __ __ __ __ __ __ __
 72
    65
 73
     2
 40
1.905
 49
1.27
 74
     0
 49
-0.635
 74
     0
  0
LTYPE
  5
6F
330
5
100
AcDbSymbolTableRecord
100
AcDbLinetypeTableRecord
  2
PHANTOM
 70
     0
  3
Phantom ______  __  __  ______  __  __  ______
 72
    65
 73
     6
 40
12.7
 49
6.35
 74
     0
 49
-1.27
 74
     0
 49
1.27
 74
     0
 49
-1.27
 74
     0
 49
1.27
 74
     0
 49
-1.27
 74
     0
  0
LTYPE
  5
70
330
5
100
AcDbSymbolTableRecord
100
AcDbLinetypeTableRecord
  2
CENTER
 70
     0
  3
Center ____ _ ____ _ ____ _ ____ _ ____ _ ____
 72
    65
 73
     4
 40
10.16
 49
6.35
 74
     0
 49
-1.27
 74
     0
 49
1.27
 74
     0
 49
-1.27
 74
     0
  0
LTYPE
  5
71
330
5
100
AcDbSymbolTableRecord
100
AcDbLinetypeTableRecord
  2
CENTERX2
 70
     0
  3
Center (2x) ________  __  ________  __  _____
 72
    65
 73
     4
 40
20.32
 49
12.7
 74
     0
 49
-2.54
 74
     0
 49
2.54
 74
     0
 49
-2.54
 74
     0
  0
LTYPE
  5
72
330
5
100
AcDbSymbolTableRecord
100
AcDbLinetypeTableRecord
  2
DOT2
 70
     0
  3
Dot (.5x) ........................................
 72
    65
 73
     2
 40
0.635
 49
0.0
 74
     0
 49
-0.635
 74
     0
  0
ENDTAB
  0
TABLE
  2
LAYER
  5
2
330
0
100
AcDbSymbolTable
 70
     1
  0
LAYER
  5
10
330
2
100
AcDbSymbolTableRecord
100
AcDbLayerTableRecord
  2
0
 70
     0
 62
     7
  6
Continuous
370
    -3
390
F
  0
ENDTAB
  0
TABLE
  2
STYLE
  5
3
330
0
100
AcDbSymbolTable
 70
     2
  0
STYLE
  5
11
330
3
100
AcDbSymbolTableRecord
100
AcDbTextStyleTableRecord
  2
Standard
 70
     0
 40
0.0
 41
1.0
 50
0.0
 71
     0
 42
3.5
  3
txt
  4
bigfont
  0
STYLE
  5
7B
330
3
100
AcDbSymbolTableRecord
100
AcDbTextStyleTableRecord
  2
SLDTEXTSTYLE0
 70
     0
 40
0.0
 41
0.7
 50
0.0
 71
     0
 42
3.5
  3
TXT
  4
bigfont
  0
ENDTAB
  0
TABLE
  2
VIEW
  5
6
330
0
100
AcDbSymbolTable
 70
     0
  0
ENDTAB
  0
TABLE
  2
UCS
  5
7
330
0
100
AcDbSymbolTable
 70
     0
  0
ENDTAB
  0
TABLE
  2
APPID
  5
9
330
0
100
AcDbSymbolTable
 70
     1
  0
APPID
  5
12
330
9
100
AcDbSymbolTableRecord
100
AcDbRegAppTableRecord
  2
ACAD
 70
     0
  0
ENDTAB
  0
TABLE
  2
DIMSTYLE
  5
A
330
0
100
AcDbSymbolTable
 70
     4
100
AcDbDimStyleTable
  0
DIMSTYLE
105
27
330
A
100
AcDbSymbolTableRecord
100
AcDbDimStyleTableRecord
  2
ISO-25
 70
     0
 41
2.5
 42
0.625
 43
3.75
 44
1.25
 73
     0
 74
     0
 77
     1
 78
     8
140
2.5
141
2.5
143
0.0393700787
147
0.625
171
     3
172
     1
178
     0
271
     2
272
     2
274
     3
278
    44
283
     0
284
     8
340
11
  0
DIMSTYLE
105
99
102
{ACAD_REACTORS
330
98
330
E7
330
144
102
}
330
A
100
AcDbSymbolTableRecord
100
AcDbDimStyleTableRecord
  2
SLDDIMSTYLE0
 70
     0
 41
3.0
 44
0.0
 45
0.000000001
 73
     0
 74
     0
 77
     3
 78
    12
 79
     3
140
3.5
147
0.875
173
     1
178
     0
271
     1
272
     3
276
     2
284
    12
340
7B
  0
DIMSTYLE
105
F4
102
{ACAD_REACTORS
330
F3
102
}
330
A
100
AcDbSymbolTableRecord
100
AcDbDimStyleTableRecord
  2
SLDDIMSTYLE1
 70
     0
 41
3.0
 44
0.0
 45
0.000000001
 73
     0
 74
     0
 77
     3
 78
    12
 79
     3
140
3.5
147
0.875
172
     1
173
     1
178
     0
271
     1
272
     3
276
     2
284
    12
289
     0
340
7B
  0
DIMSTYLE
105
1B3
330
A
100
AcDbSymbolTableRecord
100
AcDbDimStyleTableRecord
  2
SLDDIMSTYLE2
 70
     0
 41
3.0
 44
0.0
 45
0.000000001
146
3.0
147
0.0
173
     1
178
     0
271
     0
272
     0
276
     2
340
11
  0
ENDTAB
  0
TABLE
  2
BLOCK_RECORD
  5
1
330
0
100
AcDbSymbolTable
 70
     6
  0
BLOCK_RECORD
  5
1F
330
1
100
AcDbSymbolTableRecord
100
AcDbBlockTableRecord
  2
*Model_Space
340
22
  0
BLOCK_RECORD
  5
1B
330
1
100
AcDbSymbolTableRecord
100
AcDbBlockTableRecord
  2
*Paper_Space
340
1E
  0
BLOCK_RECORD
  5
23
330
1
100
AcDbSymbolTableRecord
100
AcDbBlockTableRecord
  2
*Paper_Space0
340
26
  0
BLOCK_RECORD
  5
9A
330
1
100
AcDbSymbolTableRecord
100
AcDbBlockTableRecord
  2
_D
340
0
  0
BLOCK_RECORD
  5
E8
330
1
100
AcDbSymbolTableRecord
100
AcDbBlockTableRecord
  2
_D_1
340
0
  0
BLOCK_RECORD
  5
F5
330
1
100
AcDbSymbolTableRecord
100
AcDbBlockTableRecord
  2
_D_2
340
0
  0
BLOCK_RECORD
  5
145
330
1
100
AcDbSymbolTableRecord
100
AcDbBlockTableRecord
  2
_D_3
340
0
  0
BLOCK_RECORD
  5
1AD
330
1
100
AcDbSymbolTableRecord
100
AcDbBlockTableRecord
  2
SW_NOTE_0
340
0
102
{BLKREFS
331
1B2
102
}
  0
ENDTAB
  0
ENDSEC
  0
SECTION
  2
BLOCKS
  0
BLOCK
  5
20
330
1F
100
AcDbEntity
  8
0
100
AcDbBlockBegin
  2
*Model_Space
 70
     0
 10
0.0
 20
0.0
 30
0.0
  3
*Model_Space
  1

  0
ENDBLK
  5
21
330
1F
100
AcDbEntity
  8
0
100
AcDbBlockEnd
  0
BLOCK
  5
1C
330
1B
100
AcDbEntity
 67
     1
  8
0
100
AcDbBlockBegin
  2
*Paper_Space
 70
     0
 10
0.0
 20
0.0
 30
0.0
  3
*Paper_Space
  1

  0
ENDBLK
  5
1D
330
1B
100
AcDbEntity
 67
     1
  8
0
100
AcDbBlockEnd
  0
BLOCK
  5
24
330
23
100
AcDbEntity
  8
0
100
AcDbBlockBegin
  2
*Paper_Space0
 70
     0
 10
0.0
 20
0.0
 30
0.0
  3
*Paper_Space0
  1

  0
ENDBLK
  5
25
330
23
100
AcDbEntity
  8
0
100
AcDbBlockEnd
  0
BLOCK
  5
9B
330
9A
100
AcDbEntity
  8
0
100
AcDbBlockBegin
  2
_D
 70
     0
 10
0.0
 20
0.0
 30
0.0
  3
_D
  1

  0
SOLID
  5
9D
330
9A
100
AcDbEntity
  8
0
  6
Continuous
 62
     7
370
     0
100
AcDbTrace
 10
91.5325661942
 20
126.777876684
 30
0.0
 11
91.2886181828
 21
123.6951847812
 31
0.0
 12
92.7679964914
 22
123.9430553526
 32
0.0
 13
92.7679964914
 23
123.9430553526
 33
0.0
  0
SOLID
  5
9E
330
9A
100
AcDbEntity
  8
0
  6
Continuous
 62
     7
370
     0
100
AcDbTrace
 10
98.1424480988
 20
87.3277884559
 30
0.0
 11
98.3863961103
 21
90.4104803587
 31
0.0
 12
96.9070178017
 22
90.1626097873
 32
0.0
 13
96.9070178017
 23
90.1626097873
 33
0.0
  0
LINE
  5
9F
330
9A
100
AcDbEntity
  8
0
  6
Continuous
 62
     7
370
     0
100
AcDbLine
 10
99.9361641403
 20
128.1859036997
 30
0.0
 11
90.5463139885
 21
126.6126296364
 31
0.0
  0
LINE
  5
A0
330
9A
100
AcDbEntity
  8
0
  6
Continuous
 62
     7
370
     0
100
AcDbLine
 10
105.5597938392
 20
88.570568424
 30
0.0
 11
97.1561958931
 21
87.1625414082
 31
0.0
  0
LINE
  5
A1
330
9A
100
AcDbEntity
  8
0
  6
Continuous
 62
     7
370
     0
100
AcDbLine
 10
91.5325661942
 20
126.777876684
 30
0.0
 11
98.1424480988
 21
87.3277884559
 31
0.0
  0
MTEXT
  5
A2
330
9A
100
AcDbEntity
  8
0
  6
Continuous
 62
     7
370
     0
100
AcDbMText
 10
98.9506414777
 20
109.8071876795
 30
0.0
 40
3.5
 41
0.0
 71
     1
 72
     1
  1
40
  7
SLDTEXTSTYLE0
 11
0.1652470476148899
 21
-0.9862522057032685
 31
0.0
 73
     1
 44
1.0
  0
ENDBLK
  5
9C
330
9A
100
AcDbEntity
  8
0
100
AcDbBlockEnd
  0
BLOCK
  5
E9
330
E8
100
AcDbEntity
  8
0
100
AcDbBlockBegin
  2
_D_1
 70
     0
 10
0.0
 20
0.0
 30
0.0
  3
_D_1
  1

  0
ARC
  5
EB
330
E8
100
AcDbEntity
  8
0
  6
Continuous
 62
     7
370
     0
100
AcDbCircle
 10
46.5069021462
 20
125.8542960802
 30
0.0
 40
4.554435549315978
100
AcDbArc
 50
243.4349488229
 51
296.5650511771
  0
ARC
  5
EC
330
E8
100
AcDbEntity
  8
0
  6
Continuous
 62
     7
370
     0
100
AcDbCircle
 10
46.5069021462
 20
125.8542960802
 30
0.0
 40
4.55443554931594
100
AcDbArc
 50
63.4349488229
 51
116.5650511771
  0
SOLID
  5
ED
330
E8
100
AcDbEntity
  8
0
  6
Continuous
 62
     7
370
     0
100
AcDbTrace
 10
48.5437076437
 20
162.9727768053
 30
0.0
 11
47.7937076437
 21
159.9727768053
 31
0.0
 12
49.2937076437
 22
159.9727768053
 32
0.0
 13
49.2937076437
 23
159.9727768053
 33
0.0
  0
SOLID
  5
EE
330
E8
100
AcDbEntity
  8
0
  6
Continuous
 62
     7
370
     0
100
AcDbTrace
 10
48.5437076437
 20
88.7358154716
 30
0.0
 11
49.2937076437
 21
91.7358154716
 31
0.0
 12
47.7937076437
 22
91.7358154716
 32
0.0
 13
47.7937076437
 23
91.7358154716
 33
0.0
  0
LINE
  5
EF
330
E8
100
AcDbEntity
  8
0
  6
Continuous
 62
     7
370
     0
100
AcDbLine
 10
56.4537659317
 20
162.9727768053
 30
0.0
 11
47.5437076437
 21
162.9727768053
 31
0.0
  0
LINE
  5
F0
330
E8
100
AcDbEntity
  8
0
  6
Continuous
 62
     7
370
     0
100
AcDbLine
 10
56.4537659317
 20
88.7358154716
 30
0.0
 11
47.5437076437
 21
88.7358154716
 31
0.0
  0
LINE
  5
F1
330
E8
100
AcDbEntity
  8
0
  6
Continuous
 62
     7
370
     0
100
AcDbLine
 10
48.5437076437
 20
162.9727768053
 30
0.0
 11
48.5437076437
 21
88.7358154716
 31
0.0
  0
MTEXT
  5
F2
330
E8
100
AcDbEntity
  8
0
  6
Continuous
 62
     7
370
     0
100
AcDbMText
 10
44.0319707873
 20
121.7806850852
 30
0.0
 40
3.5
 41
0.0
 71
     1
 72
     1
  1
74.2
  7
SLDTEXTSTYLE0
 11
-7.044195017643634E-15
 21
1.0
 31
0.0
 73
     1
 44
1.0
  0
ENDBLK
  5
EA
330
E8
100
AcDbEntity
  8
0
100
AcDbBlockEnd
  0
BLOCK
  5
F6
330
F5
100
AcDbEntity
  8
0
100
AcDbBlockBegin
  2
_D_2
 70
     0
 10
0.0
 20
0.0
 30
0.0
  3
_D_2
  1

  0
SOLID
  5
F8
330
F5
100
AcDbEntity
  8
0
  6
Continuous
 62
     7
370
     0
100
AcDbTrace
 10
57.4537659317
 20
78.7358154716
 30
0.0
 11
54.4537659317
 21
79.4858154716
 31
0.0
 12
54.4537659317
 22
77.9858154716
 32
0.0
 13
54.4537659317
 23
77.9858154716
 33
0.0
  0
SOLID
  5
F9
330
F5
100
AcDbEntity
  8
0
  6
Continuous
 62
     7
370
     0
100
AcDbTrace
 10
67.4537659317
 20
78.7358154716
 30
0.0
 11
70.4537659317
 21
77.9858154716
 31
0.0
 12
70.4537659317
 22
79.4858154716
 32
0.0
 13
70.4537659317
 23
79.4858154716
 33
0.0
  0
LINE
  5
FA
330
F5
100
AcDbEntity
  8
0
  6
Continuous
 62
     7
370
     0
100
AcDbLine
 10
57.4537659317
 20
87.7358154716
 30
0.0
 11
57.4537659317
 21
77.7358154716
 31
0.0
  0
LINE
  5
FB
330
F5
100
AcDbEntity
  8
0
  6
Continuous
 62
     7
370
     0
100
AcDbLine
 10
67.4537659317
 20
87.7358154716
 30
0.0
 11
67.4537659317
 21
77.7358154716
 31
0.0
  0
LINE
  5
FC
330
F5
100
AcDbEntity
  8
0
  6
Continuous
 62
     7
370
     0
100
AcDbLine
 10
57.4537659317
 20
78.7358154716
 30
0.0
 11
52.4537659317
 21
78.7358154716
 31
0.0
  0
LINE
  5
FD
330
F5
100
AcDbEntity
  8
0
  6
Continuous
 62
     7
370
     0
100
AcDbLine
 10
57.4537659317
 20
78.7358154716
 30
0.0
 11
67.4537659317
 21
78.7358154716
 31
0.0
  0
LINE
  5
FE
330
F5
100
AcDbEntity
  8
0
  6
Continuous
 62
     7
370
     0
100
AcDbLine
 10
67.4537659317
 20
78.7358154716
 30
0.0
 11
72.4537659317
 21
78.7358154716
 31
0.0
  0
MTEXT
  5
FF
330
F5
100
AcDbEntity
  8
0
  6
Continuous
 62
     7
370
     0
100
AcDbMText
 10
60.4169604342
 20
83.2475523279
 30
0.0
 40
3.5
 41
0.0
 71
     1
 72
     1
  1
10
  7
SLDTEXTSTYLE0
 73
     1
 44
1.0
  0
ENDBLK
  5
F7
330
F5
100
AcDbEntity
  8
0
100
AcDbBlockEnd
  0
BLOCK
  5
146
330
145
100
AcDbEntity
  8
0
100
AcDbBlockBegin
  2
_D_3
 70
     0
 10
0.0
 20
0.0
 30
0.0
  3
_D_3
  1

  0
ARC
  5
148
330
145
100
AcDbEntity
  8
0
  6
Continuous
 62
     7
370
     0
100
AcDbCircle
 10
112.6314383479
 20
217.8510324983
 30
0.0
 40
4.554435549315966
100
AcDbArc
 50
153.4349488229
 51
206.5650511771
  0
ARC
  5
149
330
145
100
AcDbEntity
  8
0
  6
Continuous
 62
     7
370
     0
100
AcDbCircle
 10
112.6314383479
 20
217.8510324983
 30
0.0
 40
4.554435549315978
100
AcDbArc
 50
333.4349488229
 51
26.5650511771
  0
SOLID
  5
14A
330
145
100
AcDbEntity
  8
0
  6
Continuous
 62
     7
370
     0
100
AcDbTrace
 10
100.1014111879
 20
215.8142270008
 30
0.0
 11
103.1014111879
 21
215.0642270008
 31
0.0
 12
103.1014111879
 22
216.5642270008
 32
0.0
 13
103.1014111879
 23
216.5642270008
 33
0.0
  0
SOLID
  5
14B
330
145
100
AcDbEntity
  8
0
  6
Continuous
 62
     7
370
     0
100
AcDbTrace
 10
125.1614656243
 20
215.8142270008
 30
0.0
 11
122.1614656243
 21
216.5642270008
 31
0.0
 12
122.1614656243
 22
215.0642270008
 32
0.0
 13
122.1614656243
 23
215.0642270008
 33
0.0
  0
LINE
  5
14C
330
145
100
AcDbEntity
  8
0
  6
Continuous
 62
     7
370
     0
100
AcDbLine
 10
100.1014111879
 20
210.6843609023
 30
0.0
 11
100.1014111879
 21
216.8142270008
 31
0.0
  0
LINE
  5
14D
330
145
100
AcDbEntity
  8
0
  6
Continuous
 62
     7
370
     0
100
AcDbLine
 10
125.1614656243
 20
210.6843609023
 30
0.0
 11
125.1614656243
 21
216.8142270008
 31
0.0
  0
LINE
  5
14E
330
145
100
AcDbEntity
  8
0
  6
Continuous
 62
     7
370
     0
100
AcDbLine
 10
100.1014111879
 20
215.8142270008
 30
0.0
 11
125.1614656243
 21
215.8142270008
 31
0.0
  0
MTEXT
  5
14F
330
145
100
AcDbEntity
  8
0
  6
Continuous
 62
     7
370
     0
100
AcDbMText
 10
108.557827353
 20
220.3259638572
 30
0.0
 40
3.5
 41
0.0
 71
     1
 72
     1
  1
25.1
  7
SLDTEXTSTYLE0
 73
     1
 44
1.0
  0
ENDBLK
  5
147
330
145
100
AcDbEntity
  8
0
100
AcDbBlockEnd
  0
BLOCK
  5
1AE
330
1AD
100
AcDbEntity
  8
0
100
AcDbBlockBegin
  2
SW_NOTE_0
 70
     0
 10
0.0
 20
0.0
 30
0.0
  3
SW_NOTE_0
  1

  0
LINE
  5
1B0
330
1AD
100
AcDbEntity
  8
0
  6
Continuous
 62
     0
370
     0
100
AcDbLine
 10
28.3899622846
 20
0.0
 30
0.0
 11
0.0
 21
0.0
 31
0.0
  0
MTEXT
  5
1B1
330
1AD
100
AcDbEntity
  8
0
  6
Continuous
 62
     0
370
     0
100
AcDbMText
 10
0.4250072686
 20
4.6175930622
 30
0.0
 40
3.5
 41
0.0
 71
     1
 72
     1
  1
2-M4取付ボルト
  7
SLDTEXTSTYLE0
 73
     1
 44
1.0
  0
ENDBLK
  5
1AF
330
1AD
100
AcDbEntity
  8
0
100
AcDbBlockEnd
  0
ENDSEC
  0
SECTION
  2
ENTITIES
  0
LINE
  5
73
330
1F
100
AcDbEntity
  8
0
  6
Continuous
 62
     7
370
     0
100
AcDbLine
 10
20.2604743903
 20
285.0
 30
0.0
 11
196.7604743903
 21
285.0
 31
0.0
  0
LINE
  5
74
330
1F
100
AcDbEntity
  8
0
  6
Continuous
 62
     7
370
     0
100
AcDbLine
 10
20.2604743903
 20
285.0
 30
0.0
 11
20.2604743903
 21
10.0
 31
0.0
  0
LINE
  5
75
330
1F
100
AcDbEntity
  8
0
  6
Continuous
 62
     7
370
     0
100
AcDbLine
 10
20.2604743903
 20
10.0
 30
0.0
 11
196.7604743903
 21
10.0
 31
0.0
  0
LINE
  5
76
330
1F
100
AcDbEntity
  8
0
  6
Continuous
 62
     7
370
     0
100
AcDbLine
 10
196.7604743903
 20
285.0
 30
0.0
 11
196.7604743903
 21
10.0
 31
0.0
  0
LINE
  5
77
330
1F
100
AcDbEntity
  8
0
  6
Continuous
 62
     7
370
     0
100
AcDbLine
 10
127.0104743903
 20
50.75
 30
0.0
 11
196.7604743903
 21
50.75
 31
0.0
  0
LINE
  5
78
330
1F
100
AcDbEntity
  8
0
  6
Continuous
 62
     7
370
     0
100
AcDbLine
 10
127.0104743903
 20
50.75
 30
0.0
 11
127.0104743903
 21
10.0
 31
0.0
  0
LINE
  5
79
330
1F
100
AcDbEntity
  8
0
  6
Continuous
 62
     7
370
     0
100
AcDbLine
 10
127.0104743903
 20
22.75
 30
0.0
 11
196.7604743903
 21
22.75
 31
0.0
  0
LINE
  5
7A
330
1F
100
AcDbEntity
  8
0
  6
Continuous
 62
     7
370
     0
100
AcDbLine
 10
127.0104743903
 20
36.75
 30
0.0
 11
196.7604743903
 21
36.75
 31
0.0
  0
MTEXT
  5
7C
330
1F
100
AcDbEntity
  8
0
  6
Continuous
 62
     7
370
     0
100
AcDbMText
 10
161.7497485522
 20
30.4171582345
 30
0.0
 40
4.2333333333
 41
0.0
 71
     2
 72
     1
  1
CHK-EXF-20
  7
SLDTEXTSTYLE0
 73
     1
 44
1.0
  0
MTEXT
  5
7D
330
1F
100
AcDbEntity
  8
0
  6
Continuous
 62
     7
370
     0
100
AcDbMText
 10
159.7757620622
 20
43.9409718514
 30
0.0
 40
4.2333333333
 41
0.0
 71
     2
 72
     1
  1
ランナーチャックEX(着脱爪)
  7
SLDTEXTSTYLE0
 73
     1
 44
1.0
  0
MTEXT
  5
7E
330
1F
100
AcDbEntity
  8
0
  6
Continuous
 62
     7
370
     0
100
AcDbMText
 10
162.5853949957
 20
16.8228189052
 30
0.0
 40
4.2333333333
 41
0.0
 71
     2
 72
     1
  1
023291
  7
SLDTEXTSTYLE0
 73
     1
 44
1.0
  0
LINE
  5
7F
330
1F
100
AcDbEntity
  8
0
  6
Continuous
 62
     7
370
     0
100
AcDbLine
 10
109.3896893009
 20
143.5614997782
 30
0.0
 11
109.1566236152
 21
143.4012487683
 31
0.0
  0
LINE
  5
80
330
1F
100
AcDbEntity
  8
0
  6
Continuous
 62
     7
370
     0
100
AcDbLine
 10
108.501291533
 20
139.8613985085
 30
0.0
 11
108.6615425429
 21
139.6283328228
 31
0.0
  0
LINE
  5
81
330
1F
100
AcDbEntity
  8
0
  6
Continuous
 62
     7
370
     0
100
AcDbLine
 10
116.076073125
 20
142.3236502896
 30
0.0
 11
109.3896893009
 21
143.5614997782
 31
0.0
  0
LINE
  5
82
330
1F
100
AcDbEntity
  8
0
  6
Continuous
 62
     7
370
     0
100
AcDbLine
 10
108.6615425429
 20
139.6283328228
 30
0.0
 11
115.347926367
 21
138.3904833342
 31
0.0
  0
LINE
  5
83
330
1F
100
AcDbEntity
  8
0
  6
Continuous
 62
     7
370
     0
100
AcDbLine
 10
112.1202396434
 20
158.3108758608
 30
0.0
 11
111.8871739577
 21
158.1506248509
 31
0.0
  0
LINE
  5
84
330
1F
100
AcDbEntity
  8
0
  6
Continuous
 62
     7
370
     0
100
AcDbLine
 10
111.2318418755
 20
154.6107745911
 30
0.0
 11
111.3920928854
 21
154.3777089054
 31
0.0
  0
LINE
  5
85
330
1F
100
AcDbEntity
  8
0
  6
Continuous
 62
     7
370
     0
100
AcDbLine
 10
118.8066234675
 20
157.0730263722
 30
0.0
 11
112.1202396434
 21
158.3108758608
 31
0.0
  0
LINE
  5
86
330
1F
100
AcDbEntity
  8
0
  6
Continuous
 62
     7
370
     0
100
AcDbLine
 10
111.3920928854
 20
154.3777089054
 30
0.0
 11
118.0784767095
 21
153.1398594168
 31
0.0
  0
LINE
  5
87
330
1F
100
AcDbEntity
  8
0
  6
Continuous
 62
     7
370
     0
100
AcDbLine
 10
112.1343831785
 20
113.1317939432
 30
0.0
 11
112.4354327564
 21
91.7270999722
 31
0.0
  0
LINE
  5
88
330
1F
100
AcDbEntity
  8
0
  6
Continuous
 62
     7
370
     0
100
AcDbLine
 10
110.1072548173
 20
89.3324977727
 30
0.0
 11
112.4354327564
 21
91.7270999722
 31
0.0
  0
LINE
  5
89
330
1F
100
AcDbEntity
  8
0
  6
Continuous
 62
     7
370
     0
100
AcDbLine
 10
110.1072548173
 20
89.3324977727
 30
0.0
 11
106.5460460449
 21
88.7358154716
 31
0.0
  0
LINE
  5
8A
330
1F
100
AcDbEntity
  8
0
  6
Continuous
 62
     7
370
     0
100
AcDbLine
 10
106.5460460449
 20
88.7358154716
 30
0.0
 11
100.1014111879
 21
127.199651494
 31
0.0
  0
LINE
  5
8B
330
1F
100
AcDbEntity
  8
0
  6
Continuous
 62
     7
370
     0
100
AcDbLine
 10
100.922416346
 20
128.3511507473
 30
0.0
 11
100.1014111879
 21
127.199651494
 31
0.0
  0
LINE
  5
8C
330
1F
100
AcDbEntity
  8
0
  6
Continuous
 62
     7
370
     0
100
AcDbLine
 10
100.922416346
 20
128.3511507473
 30
0.0
 11
110.438726706
 21
129.9456132814
 31
0.0
  0
ARC
  5
8D
330
1F
100
AcDbEntity
  8
0
  6
Continuous
 62
     7
370
     0
100
AcDbCircle
 10
109.6124914679
 20
134.8768743099
 30
0.0
 40
4.999999999999987
100
AcDbArc
 50
279.5115862628
 51
349.5115862628
  0
LINE
  5
8E
330
1F
100
AcDbEntity
  8
0
  6
Continuous
 62
     7
370
     0
100
AcDbLine
 10
125.1614656243
 20
158.4390355823
 30
0.0
 11
120.3377680259
 21
132.3832881821
 31
0.0
  0
ARC
  5
8F
330
1F
100
AcDbEntity
  8
0
  6
Continuous
 62
     7
370
     0
100
AcDbCircle
 10
110.5048506375
 20
134.2036550771
 30
0.0
 40
10.00000000000001
100
AcDbArc
 50
316.1303647985
 51
349.5115862628
  0
ARC
  5
90
330
1F
100
AcDbEntity
  8
0
  6
Continuous
 62
     7
370
     0
100
AcDbCircle
 10
132.1324053275
 20
113.413059171
 30
0.0
 40
20.00000000000002
100
AcDbArc
 50
136.1303647985
 51
180.8057920863
  0
LINE
  5
91
330
1F
100
AcDbEntity
  8
0
  6
Continuous
 62
     7
370
     0
100
AcDbLine
 10
114.5289501621
 20
133.9666908624
 30
0.0
 11
119.8988436045
 21
162.9727768053
 31
0.0
  0
LINE
  5
92
330
1F
100
AcDbEntity
  8
0
  6
Continuous
 62
     7
370
     0
100
AcDbLine
 10
125.1614656243
 20
158.4390355823
 30
0.0
 11
122.3570729516
 21
162.5176850815
 31
0.0
  0
LINE
  5
93
330
1F
100
AcDbEntity
  8
0
  6
Continuous
 62
     7
370
     0
100
AcDbLine
 10
119.8988436045
 20
162.9727768053
 30
0.0
 11
122.3570729516
 21
162.5176850815
 31
0.0
  0
LINE
  5
94
330
1F
100
AcDbEntity
  8
0
  6
Continuous
 62
     7
370
     0
100
AcDbLine
 10
108.501291533
 20
139.8613985085
 30
0.0
 11
109.1566236152
 21
143.4012487683
 31
0.0
  0
LINE
  5
95
330
1F
100
AcDbEntity
  8
0
  6
Continuous
 62
     7
370
     0
100
AcDbLine
 10
109.3896893009
 20
143.5614997782
 30
0.0
 11
108.6615425429
 21
139.6283328228
 31
0.0
  0
LINE
  5
96
330
1F
100
AcDbEntity
  8
0
  6
Continuous
 62
     7
370
     0
100
AcDbLine
 10
111.2318418755
 20
154.6107745911
 30
0.0
 11
111.8871739577
 21
158.1506248509
 31
0.0
  0
LINE
  5
97
330
1F
100
AcDbEntity
  8
0
  6
Continuous
 62
     7
370
     0
100
AcDbLine
 10
112.1202396434
 20
158.3108758608
 30
0.0
 11
111.3920928854
 21
154.3777089054
 31
0.0
  0
DIMENSION
  5
98
330
1F
100
AcDbEntity
  8
0
  6
Continuous
 62
     7
370
     0
100
AcDbDimension
  2
_D
 10
98.1424480988
 20
87.3277884559
 30
0.0
 11
94.8375071465
 21
107.0528325699
 31
0.0
 70
   160
  1
<>
 71
     2
 42
-1.0
  3
SLDDIMSTYLE0
100
AcDbAlignedDimension
 13
100.922416346
 23
128.3511507473
 33
0.0
 14
106.5460460449
 24
88.7358154716
 34
0.0
 50
-80.4884137372
100
AcDbRotatedDimension
  0
LINE
  5
A3
330
1F
100
AcDbEntity
  8
0
  6
Continuous
 62
     7
370
     0
100
AcDbLine
 10
64.4537659317
 20
139.8473640813
 30
0.0
 11
64.4537659317
 21
141.5949163005
 31
0.0
  0
LINE
  5
A4
330
1F
100
AcDbEntity
  8
0
  6
Continuous
 62
     7
370
     0
100
AcDbLine
 10
60.4537659317
 20
141.5949163005
 30
0.0
 11
60.4537659317
 21
139.8473640813
 31
0.0
  0
LINE
  5
A5
330
1F
100
AcDbEntity
  8
0
  6
Continuous
 62
     7
370
     0
100
AcDbLine
 10
64.4537659317
 20
154.5967401639
 30
0.0
 11
64.4537659317
 21
156.3442923831
 31
0.0
  0
LINE
  5
A6
330
1F
100
AcDbEntity
  8
0
  6
Continuous
 62
     7
370
     0
100
AcDbLine
 10
60.4537659317
 20
156.3442923831
 30
0.0
 11
60.4537659317
 21
154.5967401639
 31
0.0
  0
LINE
  5
A7
330
1F
100
AcDbEntity
  8
0
  6
Continuous
 62
     7
370
     0
100
AcDbLine
 10
57.4537659317
 20
128.3511507473
 30
0.0
 11
67.4537659317
 21
128.3511507473
 31
0.0
  0
LINE
  5
A8
330
1F
100
AcDbEntity
  8
0
  6
Continuous
 62
     7
370
     0
100
AcDbLine
 10
67.4537659317
 20
127.199651494
 30
0.0
 11
57.4537659317
 21
127.199651494
 31
0.0
  0
LINE
  5
A9
330
1F
100
AcDbEntity
  8
0
  6
Continuous
 62
     7
370
     0
100
AcDbLine
 10
67.4537659317
 20
128.3511507473
 30
0.0
 11
67.4537659317
 21
127.199651494
 31
0.0
  0
LINE
  5
AA
330
1F
100
AcDbEntity
  8
0
  6
Continuous
 62
     7
370
     0
100
AcDbLine
 10
57.4537659317
 20
127.199651494
 30
0.0
 11
57.4537659317
 21
128.3511507473
 31
0.0
  0
LINE
  5
AB
330
1F
100
AcDbEntity
  8
0
  6
Continuous
 62
     7
370
     0
100
AcDbLine
 10
57.4537659317
 20
88.7358154716
 30
0.0
 11
67.4537659317
 21
88.7358154716
 31
0.0
  0
LINE
  5
AC
330
1F
100
AcDbEntity
  8
0
  6
Continuous
 62
     7
370
     0
100
AcDbLine
 10
67.4537659317
 20
88.7358154716
 30
0.0
 11
67.4537659317
 21
127.199651494
 31
0.0
  0
LINE
  5
AD
330
1F
100
AcDbEntity
  8
0
  6
Continuous
 62
     7
370
     0
100
AcDbLine
 10
57.4537659317
 20
88.7358154716
 30
0.0
 11
57.4537659317
 21
127.199651494
 31
0.0
  0
LINE
  5
AE
330
1F
100
AcDbEntity
  8
0
  6
Continuous
 62
     7
370
     0
100
AcDbLine
 10
67.4537659317
 20
129.9456132814
 30
0.0
 11
57.4537659317
 21
129.9456132814
 31
0.0
  0
LINE
  5
AF
330
1F
100
AcDbEntity
  8
0
  6
Continuous
 62
     7
370
     0
100
AcDbLine
 10
67.4537659317
 20
128.3511507473
 30
0.0
 11
67.4537659317
 21
129.9456132814
 31
0.0
  0
LINE
  5
B0
330
1F
100
AcDbEntity
  8
0
  6
Continuous
 62
     7
370
     0
100
AcDbLine
 10
57.4537659317
 20
128.3511507473
 30
0.0
 11
57.4537659317
 21
129.9456132814
 31
0.0
  0
LINE
  5
B1
330
1F
100
AcDbEntity
  8
0
  6
Continuous
 62
     7
370
     0
100
AcDbLine
 10
57.4537659317
 20
133.9666908624
 30
0.0
 11
67.4537659317
 21
133.9666908624
 31
0.0
  0
LINE
  5
B2
330
1F
100
AcDbEntity
  8
0
  6
Continuous
 62
     7
370
     0
100
AcDbLine
 10
67.4537659317
 20
133.9666908624
 30
0.0
 11
67.4537659317
 21
129.9456132814
 31
0.0
  0
LINE
  5
B3
330
1F
100
AcDbEntity
  8
0
  6
Continuous
 62
     7
370
     0
100
AcDbLine
 10
57.4537659317
 20
129.9456132814
 30
0.0
 11
57.4537659317
 21
133.9666908624
 31
0.0
  0
LINE
  5
B4
330
1F
100
AcDbEntity
  8
0
  6
Continuous
 62
     7
370
     0
100
AcDbLine
 10
57.4537659317
 20
162.9727768053
 30
0.0
 11
59.6537659317
 21
162.9727768053
 31
0.0
  0
LINE
  5
B5
330
1F
100
AcDbEntity
  8
0
  6
Continuous
 62
     7
370
     0
100
AcDbLine
 10
59.6537659317
 20
160.7112058059
 30
0.0
 11
59.6537659317
 21
162.9727768053
 31
0.0
  0
ARC
  5
B6
330
1F
100
AcDbEntity
  8
0
  6
Continuous
 62
     7
370
     0
100
AcDbCircle
 10
62.4933336495
 20
160.7270216751
 30
0.0
 40
2.760477590284715
100
AcDbArc
 50
288.0668658489
 51
359.6717279957
  0
ARC
  5
B7
330
1F
100
AcDbEntity
  8
0
  6
Continuous
 62
     7
370
     0
100
AcDbCircle
 10
62.4141982139
 20
160.7270216751
 30
0.0
 40
2.760477590284721
100
AcDbArc
 50
180.3282720043
 51
251.9331341511
  0
LINE
  5
B8
330
1F
100
AcDbEntity
  8
0
  6
Continuous
 62
     7
370
     0
100
AcDbLine
 10
65.2537659317
 20
162.9727768053
 30
0.0
 11
65.2537659317
 21
160.7112058059
 31
0.0
  0
LINE
  5
B9
330
1F
100
AcDbEntity
  8
0
  6
Continuous
 62
     7
370
     0
100
AcDbLine
 10
65.2537659317
 20
162.9727768053
 30
0.0
 11
67.4537659317
 21
162.9727768053
 31
0.0
  0
ARC
  5
BA
330
1F
100
AcDbEntity
  8
0
  6
Continuous
 62
     7
370
     0
100
AcDbCircle
 10
62.4537659317
 20
140.3627306498
 30
0.0
 40
2.239607650368337
100
AcDbArc
 50
153.2544068444
 51
26.7455931556
  0
ARC
  5
BB
330
1F
100
AcDbEntity
  8
0
  6
Continuous
 62
     7
370
     0
100
AcDbCircle
 10
62.4537659317
 20
155.1121067325
 30
0.0
 40
2.239607650368324
100
AcDbArc
 50
153.2544068444
 51
26.7455931556
  0
LINE
  5
BC
330
1F
100
AcDbEntity
  8
0
  6
Continuous
 62
     7
370
     0
100
AcDbLine
 10
59.6537659317
 20
145.9618297233
 30
0.0
 11
59.6537659317
 21
149.5016799831
 31
0.0
  0
ARC
  5
BD
330
1F
100
AcDbEntity
  8
0
  6
Continuous
 62
     7
370
     0
100
AcDbCircle
 10
62.4933336495
 20
145.9776455925
 30
0.0
 40
2.760477590284622
100
AcDbArc
 50
288.0668658489
 51
359.6717279957
  0
ARC
  5
BE
330
1F
100
AcDbEntity
  8
0
  6
Continuous
 62
     7
370
     0
100
AcDbCircle
 10
62.4141982139
 20
145.9776455925
 30
0.0
 40
2.760477590284634
100
AcDbArc
 50
180.3282720043
 51
251.9331341511
  0
LINE
  5
BF
330
1F
100
AcDbEntity
  8
0
  6
Continuous
 62
     7
370
     0
100
AcDbLine
 10
65.2537659317
 20
149.5016799831
 30
0.0
 11
65.2537659317
 21
145.9618297233
 31
0.0
  0
ARC
  5
C0
330
1F
100
AcDbEntity
  8
0
  6
Continuous
 62
     7
370
     0
100
AcDbCircle
 10
62.4537659317
 20
149.4657350428
 30
0.0
 40
2.800230711697741
100
AcDbArc
 50
0.7354929469
 51
179.2645070531
  0
LINE
  5
C1
330
1F
100
AcDbEntity
  8
0
  6
Continuous
 62
     7
370
     0
100
AcDbLine
 10
67.4537659317
 20
133.9666908624
 30
0.0
 11
67.4537659317
 21
162.9727768053
 31
0.0
  0
LINE
  5
C2
330
1F
100
AcDbEntity
  8
0
  6
Continuous
 62
     7
370
     0
100
AcDbLine
 10
57.4537659317
 20
133.9666908624
 30
0.0
 11
57.4537659317
 21
162.9727768053
 31
0.0
  0
ARC
  5
C3
330
1F
100
AcDbEntity
  8
0
  6
Continuous
 62
     7
370
     0
100
AcDbCircle
 10
62.5192820801
 20
139.8095056572
 30
0.0
 40
2.184596746529018
100
AcDbArc
 50
7.2185990595
 51
27.6855628905
  0
ARC
  5
C4
330
1F
100
AcDbEntity
  8
0
  6
Continuous
 62
     7
370
     0
100
AcDbCircle
 10
62.3882497833
 20
139.8095056572
 30
0.0
 40
2.184596746529368
100
AcDbArc
 50
152.3144371095
 51
172.7814009405
  0
ARC
  5
C5
330
1F
100
AcDbEntity
  8
0
  6
Continuous
 62
     7
370
     0
100
AcDbCircle
 10
62.4244153352
 20
145.9241271279
 30
0.0
 40
2.470707260945347
100
AcDbArc
 50
180.3921096583
 51
258.9979102627
  0
ARC
  5
C6
330
1F
100
AcDbEntity
  8
0
  6
Continuous
 62
     7
370
     0
100
AcDbCircle
 10
62.4831165282
 20
145.9241271279
 30
0.0
 40
2.470707260945361
100
AcDbArc
 50
281.0020897373
 51
359.6078903417
  0
LINE
  5
C7
330
1F
100
AcDbEntity
  8
0
  6
Continuous
 62
     7
370
     0
100
AcDbLine
 10
64.9537659317
 20
145.9072187164
 30
0.0
 11
65.2537659317
 21
145.9618297233
 31
0.0
  0
LINE
  5
C8
330
1F
100
AcDbEntity
  8
0
  6
Continuous
 62
     7
370
     0
100
AcDbLine
 10
59.9537659317
 20
145.9072187164
 30
0.0
 11
59.6537659317
 21
145.9618297233
 31
0.0
  0
LINE
  5
C9
330
1F
100
AcDbEntity
  8
0
  6
Continuous
 62
     7
370
     0
100
AcDbLine
 10
59.9537659317
 20
149.4470689763
 30
0.0
 11
59.9537659317
 21
145.9072187164
 31
0.0
  0
LINE
  5
CA
330
1F
100
AcDbEntity
  8
0
  6
Continuous
 62
     7
370
     0
100
AcDbLine
 10
59.6537659317
 20
149.5016799831
 30
0.0
 11
59.9537659317
 21
149.4470689763
 31
0.0
  0
LINE
  5
CB
330
1F
100
AcDbEntity
  8
0
  6
Continuous
 62
     7
370
     0
100
AcDbLine
 10
64.9537659317
 20
145.9072187164
 30
0.0
 11
64.9537659317
 21
149.4470689763
 31
0.0
  0
LINE
  5
CC
330
1F
100
AcDbEntity
  8
0
  6
Continuous
 62
     7
370
     0
100
AcDbLine
 10
65.2537659317
 20
149.5016799831
 30
0.0
 11
64.9537659317
 21
149.4470689763
 31
0.0
  0
ARC
  5
CD
330
1F
100
AcDbEntity
  8
0
  6
Continuous
 62
     7
370
     0
100
AcDbCircle
 10
62.4537659317
 20
149.4141671678
 30
0.0
 40
2.500216496425378
100
AcDbArc
 50
0.7540103737
 51
179.2459896263
  0
ARC
  5
CE
330
1F
100
AcDbEntity
  8
0
  6
Continuous
 62
     7
370
     0
100
AcDbCircle
 10
62.4537659317
 20
149.1411121336
 30
0.0
 40
2.500216496425379
100
AcDbArc
 50
0.7540103737
 51
179.2459896263
  0
ARC
  5
CF
330
1F
100
AcDbEntity
  8
0
  6
Continuous
 62
     7
370
     0
100
AcDbCircle
 10
62.52103131
 20
154.5595554861
 30
0.0
 40
2.182734760104908
100
AcDbArc
 50
0.0204048155
 51
27.691235831
  0
ARC
  5
D0
330
1F
100
AcDbEntity
  8
0
  6
Continuous
 62
     7
370
     0
100
AcDbCircle
 10
62.3882497833
 20
154.5588817398
 30
0.0
 40
2.184596746530672
100
AcDbArc
 50
152.3144371095
 51
172.7814009404
  0
ARC
  5
D1
330
1F
100
AcDbEntity
  8
0
  6
Continuous
 62
     7
370
     0
100
AcDbCircle
 10
62.4244153352
 20
160.6735032106
 30
0.0
 40
2.470707260945347
100
AcDbArc
 50
180.3921096583
 51
258.9979102627
  0
ARC
  5
D2
330
1F
100
AcDbEntity
  8
0
  6
Continuous
 62
     7
370
     0
100
AcDbCircle
 10
62.4831165282
 20
160.6735032106
 30
0.0
 40
2.470707260945268
100
AcDbArc
 50
281.0020897373
 51
359.6078903417
  0
LINE
  5
D3
330
1F
100
AcDbEntity
  8
0
  6
Continuous
 62
     7
370
     0
100
AcDbLine
 10
64.9537659317
 20
160.6565947991
 30
0.0
 11
65.2537659317
 21
160.7112058059
 31
0.0
  0
LINE
  5
D4
330
1F
100
AcDbEntity
  8
0
  6
Continuous
 62
     7
370
     0
100
AcDbLine
 10
59.9537659317
 20
160.6565947991
 30
0.0
 11
59.6537659317
 21
160.7112058059
 31
0.0
  0
LINE
  5
D5
330
1F
100
AcDbEntity
  8
0
  6
Continuous
 62
     7
370
     0
100
AcDbLine
 10
59.9537659317
 20
162.9181657984
 30
0.0
 11
59.9537659317
 21
160.6565947991
 31
0.0
  0
LINE
  5
D6
330
1F
100
AcDbEntity
  8
0
  6
Continuous
 62
     7
370
     0
100
AcDbLine
 10
59.6537659317
 20
162.9727768053
 30
0.0
 11
59.9537659317
 21
162.9181657984
 31
0.0
  0
LINE
  5
D7
330
1F
100
AcDbEntity
  8
0
  6
Continuous
 62
     7
370
     0
100
AcDbLine
 10
64.9537659317
 20
160.6565947991
 30
0.0
 11
64.9537659317
 21
162.9181657984
 31
0.0
  0
LINE
  5
D8
330
1F
100
AcDbEntity
  8
0
  6
Continuous
 62
     7
370
     0
100
AcDbLine
 10
64.9537659317
 20
162.9181657984
 30
0.0
 11
65.2537659317
 21
162.9727768053
 31
0.0
  0
LINE
  5
D9
330
1F
100
AcDbEntity
  8
0
  6
Continuous
 62
     7
370
     0
100
AcDbLine
 10
64.9537659317
 20
162.6451107642
 30
0.0
 11
59.9537659317
 21
162.6451107642
 31
0.0
  0
CIRCLE
  5
DA
330
1F
100
AcDbEntity
  8
0
  6
Continuous
 62
     7
370
     0
100
AcDbCircle
 10
62.4337060631
 20
141.6097365908
 30
0.0
 40
1.786090330666915
  0
CIRCLE
  5
DB
330
1F
100
AcDbEntity
  8
0
  6
Continuous
 62
     7
370
     0
100
AcDbCircle
 10
62.4280091845
 20
141.5774980732
 30
0.0
 40
1.978000604539943
  0
ARC
  5
DC
330
1F
100
AcDbEntity
  8
0
  6
Continuous
 62
     7
370
     0
100
AcDbCircle
 10
62.3912091421
 20
139.8476055946
 30
0.0
 40
1.937443225500713
100
AcDbArc
 50
180.0071422438
 51
202.8749800293
  0
ARC
  5
DD
330
1F
100
AcDbEntity
  8
0
  6
Continuous
 62
     7
370
     0
100
AcDbCircle
 10
62.515716901
 20
139.8477282012
 30
0.0
 40
1.938049064925158
100
AcDbArc
 50
337.1286424373
 51
359.9892352897
  0
CIRCLE
  5
DE
330
1F
100
AcDbEntity
  8
0
  6
Continuous
 62
     7
370
     0
100
AcDbCircle
 10
62.4333342323
 20
156.3632028576
 30
0.0
 40
1.783455568850443
  0
CIRCLE
  5
DF
330
1F
100
AcDbEntity
  8
0
  6
Continuous
 62
     7
370
     0
100
AcDbCircle
 10
62.4289323497
 20
156.3327320732
 30
0.0
 40
1.976616533942963
  0
ARC
  5
E0
330
1F
100
AcDbEntity
  8
0
  6
Continuous
 62
     7
370
     0
100
AcDbCircle
 10
62.3911375468
 20
154.5969671876
 30
0.0
 40
1.9373716283882
100
AcDbArc
 50
180.0067139938
 51
202.8754082792
  0
ARC
  5
E1
330
1F
100
AcDbEntity
  8
0
  6
Continuous
 62
     7
370
     0
100
AcDbCircle
 10
62.5156319471
 20
154.597121477
 30
0.0
 40
1.938134022115021
100
AcDbArc
 50
337.129150233
 51
359.988727494
  0
ARC
  5
E2
330
1F
100
AcDbEntity
  8
0
  6
Continuous
 62
     1
370
     0
100
AcDbCircle
 10
62.520943586
 20
139.8103817944
 30
0.0
 40
2.132839295739009
100
AcDbArc
 50
2.0599967252
 51
25.0118532419
  0
ARC
  5
E3
330
1F
100
AcDbEntity
  8
0
  6
Continuous
 62
     1
370
     0
100
AcDbCircle
 10
62.3885468133
 20
139.8099102926
 30
0.0
 40
2.134813552112959
100
AcDbArc
 50
154.9989036224
 51
177.9292464105
  0
LINE
  5
E4
330
1F
100
AcDbEntity
  8
0
  6
Continuous
 62
     1
370
     0
100
AcDbLine
 10
60.4183233671
 20
155.381233371
 30
0.0
 11
60.4537659317
 21
155.4615345907
 31
0.0
  0
ARC
  5
E5
330
1F
100
AcDbEntity
  8
0
  6
Continuous
 62
     1
370
     0
100
AcDbCircle
 10
62.5208702292
 20
154.559740217
 30
0.0
 40
2.132913239975292
100
AcDbArc
 50
2.0603999816
 51
25.0114499856
  0
LWPOLYLINE
  5
E6
330
1F
100
AcDbEntity
  8
0
  6
Continuous
 62
     1
370
     0
100
AcDbPolyline
 90
        3
 70
   128
 43
0.0
 10
60.2551273623
 20
154.6364248755
 10
60.2971101729
 20
154.9876247805
 10
60.4183233671
 20
155.381233371
  0
DIMENSION
  5
E7
330
1F
100
AcDbEntity
  8
0
  6
Continuous
 62
     7
370
     0
100
AcDbDimension
  2
_D_1
 10
48.5437076437
 20
88.7358154716
 30
0.0
 11
48.5437076437
 21
125.8542961384
 31
0.0
 70
   160
  1
(<>)
 71
     2
 42
-1.0
  3
SLDDIMSTYLE0
100
AcDbAlignedDimension
 13
57.4537659317
 23
162.9727768053
 33
0.0
 14
57.4537659317
 24
88.7358154716
 34
0.0
 50
90.0
100
AcDbRotatedDimension
  0
DIMENSION
  5
F3
330
1F
100
AcDbEntity
  8
0
  6
Continuous
 62
     7
370
     0
100
AcDbDimension
  2
_D_2
 10
67.4537659317
 20
78.7358154716
 30
0.0
 11
62.4537659317
 21
78.7358154716
 31
0.0
 70
   160
  1
<>
 71
     2
 42
-1.0
  3
SLDDIMSTYLE1
100
AcDbAlignedDimension
 13
57.4537659317
 23
88.7358154716
 33
0.0
 14
67.4537659317
 24
88.7358154716
 34
0.0
100
AcDbRotatedDimension
  0
LINE
  5
100
330
1F
100
AcDbEntity
  8
0
  6
Continuous
 62
     7
370
     0
100
AcDbLine
 10
111.7561662644
 20
206.6843609023
 30
0.0
 11
109.0256159219
 21
206.6843609023
 31
0.0
  0
LINE
  5
101
330
1F
100
AcDbEntity
  8
0
  6
Continuous
 62
     7
370
     0
100
AcDbLine
 10
109.0256159219
 20
202.6843609023
 30
0.0
 11
111.7561662644
 21
202.6843609023
 31
0.0
  0
LINE
  5
102
330
1F
100
AcDbEntity
  8
0
  6
Continuous
 62
     7
370
     0
100
AcDbLine
 10
108.958215058
 20
206.6497890231
 30
0.0
 11
108.7682967966
 21
206.453246211
 31
0.0
  0
LINE
  5
103
330
1F
100
AcDbEntity
  8
0
  6
Continuous
 62
     7
370
     0
100
AcDbLine
 10
108.7682967966
 20
202.9154755935
 30
0.0
 11
108.958215058
 21
202.7189327814
 31
0.0
  0
LINE
  5
104
330
1F
100
AcDbEntity
  8
0
  6
Continuous
 62
     7
370
     0
100
AcDbLine
 10
118.6301892132
 20
206.6843609023
 30
0.0
 11
111.7561662644
 21
206.6843609023
 31
0.0
  0
LINE
  5
105
330
1F
100
AcDbEntity
  8
0
  6
Continuous
 62
     7
370
     0
100
AcDbLine
 10
111.7561662644
 20
202.6843609023
 30
0.0
 11
118.6301892132
 21
202.6843609023
 31
0.0
  0
LINE
  5
106
330
1F
100
AcDbEntity
  8
0
  6
Continuous
 62
     7
370
     0
100
AcDbLine
 10
111.6887654005
 20
206.6497890231
 30
0.0
 11
111.4988471391
 21
206.453246211
 31
0.0
  0
LINE
  5
107
330
1F
100
AcDbEntity
  8
0
  6
Continuous
 62
     7
370
     0
100
AcDbLine
 10
111.4988471391
 20
202.9154755935
 30
0.0
 11
111.6887654005
 21
202.7189327814
 31
0.0
  0
LINE
  5
108
330
1F
100
AcDbEntity
  8
0
  6
Continuous
 62
     7
370
     0
100
AcDbLine
 10
119.8988436045
 20
201.8843609023
 30
0.0
 11
119.8988436045
 21
199.6843609023
 31
0.0
  0
LINE
  5
109
330
1F
100
AcDbEntity
  8
0
  6
Continuous
 62
     7
370
     0
100
AcDbLine
 10
120.1938311262
 20
202.1843609023
 30
0.0
 11
119.8988436045
 21
201.8843609023
 31
0.0
  0
LINE
  5
10A
330
1F
100
AcDbEntity
  8
0
  6
Continuous
 62
     7
370
     0
100
AcDbLine
 10
121.6687687344
 20
202.1843609023
 30
0.0
 11
120.1938311262
 21
202.1843609023
 31
0.0
  0
LINE
  5
10B
330
1F
100
AcDbEntity
  8
0
  6
Continuous
 62
     7
370
     0
100
AcDbLine
 10
121.6687687344
 20
202.1843609023
 30
0.0
 11
121.6687687344
 21
207.1843609023
 31
0.0
  0
LINE
  5
10C
330
1F
100
AcDbEntity
  8
0
  6
Continuous
 62
     7
370
     0
100
AcDbLine
 10
120.1938311262
 20
207.1843609023
 30
0.0
 11
121.6687687344
 21
207.1843609023
 31
0.0
  0
LINE
  5
10D
330
1F
100
AcDbEntity
  8
0
  6
Continuous
 62
     7
370
     0
100
AcDbLine
 10
119.8988436045
 20
207.4843609023
 30
0.0
 11
120.1938311262
 21
207.1843609023
 31
0.0
  0
LINE
  5
10E
330
1F
100
AcDbEntity
  8
0
  6
Continuous
 62
     7
370
     0
100
AcDbLine
 10
119.8988436045
 20
209.6843609023
 30
0.0
 11
119.8988436045
 21
207.4843609023
 31
0.0
  0
LINE
  5
10F
330
1F
100
AcDbEntity
  8
0
  6
Continuous
 62
     7
370
     0
100
AcDbLine
 10
122.3570729516
 20
199.6843609023
 30
0.0
 11
122.3570729516
 21
209.6843609023
 31
0.0
  0
LINE
  5
110
330
1F
100
AcDbEntity
  8
0
  6
Continuous
 62
     7
370
     0
100
AcDbLine
 10
119.8988436045
 20
199.6843609023
 30
0.0
 11
122.3570729516
 21
199.6843609023
 31
0.0
  0
LINE
  5
111
330
1F
100
AcDbEntity
  8
0
  6
Continuous
 62
     7
370
     0
100
AcDbLine
 10
119.8988436045
 20
209.6843609023
 30
0.0
 11
122.3570729516
 21
209.6843609023
 31
0.0
  0
LINE
  5
112
330
1F
100
AcDbEntity
  8
0
  6
Continuous
 62
     7
370
     0
100
AcDbLine
 10
114.5289501621
 20
199.6843609023
 30
0.0
 11
119.8988436045
 21
199.6843609023
 31
0.0
  0
LINE
  5
113
330
1F
100
AcDbEntity
  8
0
  6
Continuous
 62
     7
370
     0
100
AcDbLine
 10
119.4801592187
 20
207.4843609023
 30
0.0
 11
119.8988436045
 21
207.4843609023
 31
0.0
  0
LWPOLYLINE
  5
114
330
1F
100
AcDbEntity
  8
0
  6
Continuous
 62
     7
370
     0
100
AcDbPolyline
 90
       19
 70
   128
 43
0.0
 10
119.4801592187
 20
201.8843609023
 10
119.3916502683
 20
201.9268991938
 10
119.3058306177
 20
202.0532215641
 10
119.2253078534
 20
202.2594897717
 10
119.1525286188
 20
202.5394364615
 10
119.0897042742
 20
202.8845555951
 10
119.0387437056
 20
203.2843609023
 10
119.0011953239
 20
203.7267045009
 10
118.9782000178
 20
204.1981460048
 10
118.9704564881
 20
204.6843609023
 10
118.9782000178
 20
205.1705757997
 10
119.0011953239
 20
205.6420173036
 10
119.0387437056
 20
206.0843609023
 10
119.0897042742
 20
206.4841662094
 10
119.1525286188
 20
206.829285343
 10
119.2253078534
 20
207.1092320329
 10
119.3058306177
 20
207.3155002405
 10
119.3916502683
 20
207.4418226107
 10
119.4801592187
 20
207.4843609023
  0
LINE
  5
115
330
1F
100
AcDbEntity
  8
0
  6
Continuous
 62
     7
370
     0
100
AcDbLine
 10
119.8988436045
 20
201.8843609023
 30
0.0
 11
119.4801592187
 21
201.8843609023
 31
0.0
  0
LWPOLYLINE
  5
116
330
1F
100
AcDbEntity
  8
0
  6
Continuous
 62
     7
370
     0
100
AcDbPolyline
 90
        7
 70
   128
 43
0.0
 10
115.8996388707
 20
206.6843609023
 10
115.8821464869
 20
206.7310328918
 10
115.8085624923
 20
206.870936931
 10
115.7314884685
 20
206.9318124154
 10
115.6537100715
 20
206.9114591465
 10
115.5780384151
 20
206.8106127444
 10
115.5243606214
 20
206.6843609023
  0
LWPOLYLINE
  5
117
330
1F
100
AcDbEntity
  8
0
  6
Continuous
 62
     7
370
     0
100
AcDbPolyline
 90
        7
 70
   128
 43
0.0
 10
115.5243606214
 20
202.6843609023
 10
115.5780384151
 20
202.5581090601
 10
115.6537100715
 20
202.457262658
 10
115.7314884685
 20
202.4369093891
 10
115.8085624923
 20
202.4977848735
 10
115.8821464869
 20
202.6376889127
 10
115.8996388707
 20
202.6843609023
  0
LWPOLYLINE
  5
118
330
1F
100
AcDbEntity
  8
0
  6
Continuous
 62
     7
370
     0
100
AcDbPolyline
 90
       12
 70
   128
 43
0.0
 10
118.8521326399
 20
204.6843609023
 10
118.8447309496
 20
205.1101762021
 10
118.8227933951
 20
205.5206014275
 10
118.7871128568
 20
205.9008027415
 10
118.7389789224
 20
206.2370386781
 10
118.6801312775
 20
206.5171567944
 10
118.6126968294
 20
206.7310328918
 10
118.5391128348
 20
206.870936931
 10
118.462038811
 20
206.9318124154
 10
118.384260414
 20
206.9114591465
 10
118.3085887576
 20
206.8106127444
 10
118.2549109639
 20
206.6843609023
  0
LWPOLYLINE
  5
119
330
1F
100
AcDbEntity
  8
0
  6
Continuous
 62
     7
370
     0
100
AcDbPolyline
 90
       12
 70
   128
 43
0.0
 10
118.2549109639
 20
202.6843609023
 10
118.3085887576
 20
202.5581090601
 10
118.384260414
 20
202.457262658
 10
118.462038811
 20
202.4369093891
 10
118.5391128348
 20
202.4977848735
 10
118.6126968294
 20
202.6376889127
 10
118.6801312775
 20
202.8515650101
 10
118.7389789224
 20
203.1316831264
 10
118.7871128568
 20
203.467919063
 10
118.8227933951
 20
203.848120377
 10
118.8447309496
 20
204.2585456024
 10
118.8521326399
 20
204.6843609023
  0
LINE
  5
11A
330
1F
100
AcDbEntity
  8
0
  6
Continuous
 62
     7
370
     0
100
AcDbLine
 10
116.7496088762
 20
207.4843609023
 30
0.0
 11
117.4049409584
 21
207.4843609023
 31
0.0
  0
ARC
  5
11B
330
1F
100
AcDbEntity
  8
0
  6
Continuous
 62
     7
370
     0
100
AcDbCircle
 10
117.5480446506
 20
202.7199106769
 30
0.0
 40
1.155700269038244
100
AcDbArc
 50
181.7627177693
 51
226.3011804142
  0
ARC
  5
11C
330
1F
100
AcDbEntity
  8
0
  6
Continuous
 62
     7
370
     0
100
AcDbCircle
 10
117.4282107953
 20
206.7022446846
 30
0.0
 40
1.035473969983836
100
AcDbArc
 50
130.9464910403
 51
180.9896107763
  0
LINE
  5
11D
330
1F
100
AcDbEntity
  8
0
  6
Continuous
 62
     7
370
     0
100
AcDbLine
 10
117.4049409584
 20
201.8843609023
 30
0.0
 11
116.7496088762
 21
201.8843609023
 31
0.0
  0
ARC
  5
11E
330
1F
100
AcDbEntity
  8
0
  6
Continuous
 62
     7
370
     0
100
AcDbCircle
 10
116.6065051839
 20
206.6488111276
 30
0.0
 40
1.155700269038175
100
AcDbArc
 50
1.7627177693
 51
46.3011804142
  0
ARC
  5
11F
330
1F
100
AcDbEntity
  8
0
  6
Continuous
 62
     7
370
     0
100
AcDbCircle
 10
116.7263390393
 20
202.6664771199
 30
0.0
 40
1.035473969984275
100
AcDbArc
 50
310.9464910403
 51
0.9896107762
  0
LINE
  5
120
330
1F
100
AcDbEntity
  8
0
  6
Continuous
 62
     7
370
     0
100
AcDbLine
 10
114.5289501621
 20
209.6843609023
 30
0.0
 11
119.8988436045
 21
209.6843609023
 31
0.0
  0
LINE
  5
121
330
1F
100
AcDbEntity
  8
0
  6
Continuous
 62
     7
370
     0
100
AcDbLine
 10
120.1938311262
 20
207.1843609023
 30
0.0
 11
119.7751467403
 21
207.1843609023
 31
0.0
  0
LINE
  5
122
330
1F
100
AcDbEntity
  8
0
  6
Continuous
 62
     7
370
     0
100
AcDbLine
 10
119.7751467403
 20
207.1843609023
 30
0.0
 11
119.4801592187
 21
207.4843609023
 31
0.0
  0
LINE
  5
123
330
1F
100
AcDbEntity
  8
0
  6
Continuous
 62
     7
370
     0
100
AcDbLine
 10
119.7751467403
 20
202.1843609023
 30
0.0
 11
120.1938311262
 21
202.1843609023
 31
0.0
  0
LINE
  5
124
330
1F
100
AcDbEntity
  8
0
  6
Continuous
 62
     7
370
     0
100
AcDbLine
 10
119.7751467403
 20
202.1843609023
 30
0.0
 11
119.4801592187
 21
201.8843609023
 31
0.0
  0
LWPOLYLINE
  5
125
330
1F
100
AcDbEntity
  8
0
  6
Continuous
 62
     7
370
     0
100
AcDbPolyline
 90
       18
 70
   128
 43
0.0
 10
121.2500843486
 20
207.1843609023
 10
121.1664614638
 20
207.1417936515
 10
121.085686256
 20
207.0155414758
 10
121.0105094281
 20
206.8099037416
 10
120.9434910368
 20
206.5318831953
 10
120.886913313
 20
206.1909474932
 10
120.8427029433
 20
205.7987067917
 10
120.8123654587
 20
205.3685183774
 10
120.7969339659
 20
204.9150318009
 10
120.7969339659
 20
204.4536900036
 10
120.8123654587
 20
204.0002034271
 10
120.8427029433
 20
203.5700150128
 10
120.886913313
 20
203.1777743113
 10
120.9434910368
 20
202.8368386092
 10
121.0105094281
 20
202.5588180629
 10
121.085686256
 20
202.3531803287
 10
121.1664614638
 20
202.226928153
 10
121.2500843486
 20
202.1843609023
  0
LINE
  5
126
330
1F
100
AcDbEntity
  8
0
  6
Continuous
 62
     7
370
     0
100
AcDbLine
 10
125.1614656243
 20
209.6843609023
 30
0.0
 11
125.1614656243
 21
199.6843609023
 31
0.0
  0
LINE
  5
127
330
1F
100
AcDbEntity
  8
0
  6
Continuous
 62
     7
370
     0
100
AcDbLine
 10
125.1614656243
 20
199.6843609023
 30
0.0
 11
122.3570729516
 21
199.6843609023
 31
0.0
  0
LINE
  5
128
330
1F
100
AcDbEntity
  8
0
  6
Continuous
 62
     7
370
     0
100
AcDbLine
 10
122.3570729516
 20
209.6843609023
 30
0.0
 11
125.1614656243
 21
209.6843609023
 31
0.0
  0
LWPOLYLINE
  5
129
330
1F
100
AcDbEntity
  8
0
  6
Continuous
 62
     7
370
     0
100
AcDbPolyline
 90
       18
 70
   128
 43
0.0
 10
119.7751467403
 20
207.1843609023
 10
119.6915238555
 20
207.1417936515
 10
119.6107486478
 20
207.0155414758
 10
119.5355718199
 20
206.8099037416
 10
119.4685534286
 20
206.5318831953
 10
119.4119757048
 20
206.1909474932
 10
119.367765335
 20
205.7987067917
 10
119.3374278504
 20
205.3685183774
 10
119.3219963576
 20
204.9150318009
 10
119.3219963576
 20
204.4536900036
 10
119.3374278504
 20
204.0002034271
 10
119.367765335
 20
203.5700150128
 10
119.4119757048
 20
203.1777743113
 10
119.4685534286
 20
202.8368386092
 10
119.5355718199
 20
202.5588180629
 10
119.6107486478
 20
202.3531803287
 10
119.6915238555
 20
202.226928153
 10
119.7751467403
 20
202.1843609023
  0
LINE
  5
12A
330
1F
100
AcDbEntity
  8
0
  6
Continuous
 62
     7
370
     0
100
AcDbLine
 10
117.6344804899
 20
207.1843609023
 30
0.0
 11
117.0445963978
 21
207.1843609023
 31
0.0
  0
LINE
  5
12B
330
1F
100
AcDbEntity
  8
0
  6
Continuous
 62
     7
370
     0
100
AcDbLine
 10
117.0445963978
 20
207.1843609023
 30
0.0
 11
116.7496088762
 21
207.4843609023
 31
0.0
  0
LINE
  5
12C
330
1F
100
AcDbEntity
  8
0
  6
Continuous
 62
     7
370
     0
100
AcDbLine
 10
117.0445963978
 20
202.1843609023
 30
0.0
 11
117.6344804899
 21
202.1843609023
 31
0.0
  0
LINE
  5
12D
330
1F
100
AcDbEntity
  8
0
  6
Continuous
 62
     7
370
     0
100
AcDbLine
 10
117.0445963978
 20
202.1843609023
 30
0.0
 11
116.7496088762
 21
201.8843609023
 31
0.0
  0
LWPOLYLINE
  5
12E
330
1F
100
AcDbEntity
  8
0
  6
Continuous
 62
     7
370
     0
100
AcDbPolyline
 90
        5
 70
   128
 43
0.0
 10
117.0445963978
 20
207.1843609023
 10
116.960973513
 20
207.1417936515
 10
116.8801983053
 20
207.0155414758
 10
116.8050214774
 20
206.8099037416
 10
116.7715413636
 20
206.6843609023
  0
LWPOLYLINE
  5
12F
330
1F
100
AcDbEntity
  8
0
  6
Continuous
 62
     7
370
     0
100
AcDbPolyline
 90
        5
 70
   128
 43
0.0
 10
116.7715413636
 20
202.6843609023
 10
116.8050214774
 20
202.5588180629
 10
116.8801983053
 20
202.3531803287
 10
116.960973513
 20
202.226928153
 10
117.0445963978
 20
202.1843609023
  0
LINE
  5
130
330
1F
100
AcDbEntity
  8
0
  6
Continuous
 62
     7
370
     0
100
AcDbLine
 10
114.5289501621
 20
199.6843609023
 30
0.0
 11
110.438726706
 21
199.6843609023
 31
0.0
  0
LINE
  5
131
330
1F
100
AcDbEntity
  8
0
  6
Continuous
 62
     7
370
     0
100
AcDbLine
 10
110.438726706
 20
209.6843609023
 30
0.0
 11
114.5289501621
 21
209.6843609023
 31
0.0
  0
LINE
  5
132
330
1F
100
AcDbEntity
  8
0
  6
Continuous
 62
     7
370
     0
100
AcDbLine
 10
100.922416346
 20
209.6843609023
 30
0.0
 11
100.922416346
 21
199.6843609023
 31
0.0
  0
LINE
  5
133
330
1F
100
AcDbEntity
  8
0
  6
Continuous
 62
     7
370
     0
100
AcDbLine
 10
100.922416346
 20
199.6843609023
 30
0.0
 11
110.438726706
 21
199.6843609023
 31
0.0
  0
LINE
  5
134
330
1F
100
AcDbEntity
  8
0
  6
Continuous
 62
     7
370
     0
100
AcDbLine
 10
100.922416346
 20
209.6843609023
 30
0.0
 11
110.438726706
 21
209.6843609023
 31
0.0
  0
LINE
  5
135
330
1F
100
AcDbEntity
  8
0
  6
Continuous
 62
     7
370
     0
100
AcDbLine
 10
100.1014111879
 20
199.6843609023
 30
0.0
 11
100.1014111879
 21
209.6843609023
 31
0.0
  0
LINE
  5
136
330
1F
100
AcDbEntity
  8
0
  6
Continuous
 62
     7
370
     0
100
AcDbLine
 10
100.922416346
 20
199.6843609023
 30
0.0
 11
100.1014111879
 21
199.6843609023
 31
0.0
  0
LINE
  5
137
330
1F
100
AcDbEntity
  8
0
  6
Continuous
 62
     7
370
     0
100
AcDbLine
 10
100.1014111879
 20
209.6843609023
 30
0.0
 11
100.922416346
 21
209.6843609023
 31
0.0
  0
LWPOLYLINE
  5
138
330
1F
100
AcDbEntity
  8
0
  6
Continuous
 62
     7
370
     0
100
AcDbPolyline
 90
       15
 70
   128
 43
0.0
 10
109.2266026004
 20
206.3519830293
 10
109.2835962632
 20
206.095593044
 10
109.3300281806
 20
205.7814270489
 10
109.3639974243
 20
205.4223470369
 10
109.3841132895
 20
205.0330537859
 10
109.3895522304
 20
204.6294850072
 10
109.3800915761
 20
204.2281628542
 10
109.3561186468
 20
203.8455175028
 10
109.3186148971
 20
203.4972144987
 10
109.269115735
 20
203.1975134079
 10
109.2096476619
 20
202.9586840282
 10
109.1426453078
 20
202.7905040625
 10
109.0708517568
 20
202.6998588183
 10
108.9972062454
 20
202.6904593226
 10
108.958215058
 20
202.7189327814
  0
LWPOLYLINE
  5
139
330
1F
100
AcDbEntity
  8
0
  6
Continuous
 62
     7
370
     0
100
AcDbPolyline
 90
        5
 70
   128
 43
0.0
 10
108.958215058
 20
206.6497890231
 10
109.0171594553
 20
206.6838213188
 10
109.0906002197
 20
206.6522435165
 10
109.1613805193
 20
206.5401003688
 10
109.2266026004
 20
206.3519830293
  0
LWPOLYLINE
  5
13A
330
1F
100
AcDbEntity
  8
0
  6
Continuous
 62
     7
370
     0
100
AcDbPolyline
 90
       30
 70
   128
 43
0.0
 10
109.0098455848
 20
206.1852208166
 10
108.9468841121
 20
206.3637454903
 10
108.8784085255
 20
206.4637440071
 10
108.8076206675
 20
206.4805405476
 10
108.7378304995
 20
206.4133497242
 10
108.6723013322
 20
206.2653133052
 10
108.6140972366
 20
206.0433533088
 10
108.5659397717
 20
205.757848338
 10
108.5300807269
 20
205.4221482877
 10
108.5081968312
 20
205.0519501193
 10
108.5013113514
 20
204.6645638876
 10
108.5097462449
 20
204.2781033424
 10
108.5331071053
 20
203.9106389491
 10
108.5703016048
 20
203.5793529344
 10
108.61959057
 20
203.2997358642
 10
108.6786693035
 20
203.0848623219
 10
108.7447753496
 20
202.9447795554
 10
108.814817663
 20
202.8860376793
 10
108.8855211428
 20
202.9113833985
 10
108.9535797731
 20
203.0196315752
 10
109.0158112078
 20
203.205720645
 10
109.0693055744
 20
203.4609492898
 10
109.1115615355
 20
203.773383302
 10
109.1406032495
 20
204.1284136142
 10
109.1550727581
 20
204.5094394037
 10
109.1542934831
 20
204.8986443281
 10
109.1383018626
 20
205.2778295977
 10
109.107845647
 20
205.6292649306
 10
109.0643489351
 20
205.9365176014
 10
109.0098455848
 20
206.1852208166
  0
LWPOLYLINE
  5
13B
330
1F
100
AcDbEntity
  8
0
  6
Continuous
 62
     7
370
     0
100
AcDbPolyline
 90
       16
 70
   128
 43
0.0
 10
111.8943237425
 20
206.5347632337
 10
111.9593012687
 20
206.3441090673
 10
112.015962424
 20
206.085504616
 10
112.0619874939
 20
205.7695371764
 10
112.0954922068
 20
205.4091424927
 10
112.1151048757
 20
205.0190751654
 10
112.1200225557
 20
204.615304597
 10
112.1100439164
 20
204.2143612017
 10
112.0855774845
 20
203.8326596495
 10
112.0476249184
 20
203.4858268465
 10
111.9977400009
 20
203.1880621687
 10
111.9379650262
 20
202.9515561368
 10
111.8707471888
 20
202.7859913356
 10
111.7988383949
 20
202.6981460075
 10
111.725182599
 20
202.6916165506
 10
111.6887654005
 20
202.7189327814
  0
LWPOLYLINE
  5
13C
330
1F
100
AcDbEntity
  8
0
  6
Continuous
 62
     7
370
     0
100
AcDbPolyline
 90
        4
 70
   128
 43
0.0
 10
111.6887654005
 20
206.6497890231
 10
111.7502918924
 20
206.6841005428
 10
111.823690033
 20
206.6496617113
 10
111.8943237425
 20
206.5347632337
  0
LWPOLYLINE
  5
13D
330
1F
100
AcDbEntity
  8
0
  6
Continuous
 62
     7
370
     0
100
AcDbPolyline
 90
       30
 70
   128
 43
0.0
 10
111.6838496469
 20
206.3497230006
 10
111.615772812
 20
206.4576251729
 10
111.545065093
 20
206.4826114788
 10
111.4750327044
 20
206.4235135863
 10
111.4089502829
 20
206.2830948472
 10
111.349907769
 20
206.0679210858
 10
111.300665925
 20
205.7880535878
 10
111.2635272449
 20
205.4565786466
 10
111.240228292
 20
205.0889956619
 10
111.2318584995
 20
204.7024924056
 10
111.2388092296
 20
204.3151413403
 10
111.2607554739
 20
203.9450545713
 10
111.2966710504
 20
203.6095369448
 10
111.3448765866
 20
203.3242768919
 10
111.4031180452
 20
203.1026128557
 10
111.4686721204
 20
202.9549096001
 10
111.5384735765
 20
202.8880735653
 10
111.609258575
 20
202.90522993
 10
111.677717288
 20
203.0055764816
 10
111.7406486621
 20
203.1844211268
 10
111.7951100963
 20
203.4334012889
 10
111.8385550345
 20
203.7408749321
 10
111.8689520395
 20
204.0924649307
 10
111.8848797813
 20
204.4717313271
 10
111.8855934963
 20
204.8609400461
 10
111.871059812
 20
205.2418921206
 10
111.8419583074
 20
205.596774655
 10
111.7996497364
 20
205.9089937363
 10
111.7461124008
 20
206.1639503475
 10
111.6838496469
 20
206.3497230006
  0
LINE
  5
13E
330
1F
100
AcDbEntity
  8
0
  6
Continuous
 62
     1
370
     0
100
AcDbLine
 10
114.5289501621
 20
209.6843609023
 30
0.0
 11
114.5289501621
 21
206.6843609023
 31
0.0
  0
LINE
  5
13F
330
1F
100
AcDbEntity
  8
0
  6
Continuous
 62
     1
370
     0
100
AcDbLine
 10
114.5289501621
 20
202.6843609023
 30
0.0
 11
114.5289501621
 21
199.6843609023
 31
0.0
  0
LINE
  5
140
330
1F
100
AcDbEntity
  8
0
  6
Continuous
 62
     1
370
     0
100
AcDbLine
 10
117.4049409584
 20
201.8843609023
 30
0.0
 11
117.5874096152
 21
202.0699300977
 31
0.0
  0
LINE
  5
141
330
1F
100
AcDbEntity
  8
0
  6
Continuous
 62
     1
370
     0
100
AcDbLine
 10
117.4049409584
 20
207.4843609023
 30
0.0
 11
117.5874096152
 21
207.2987917068
 31
0.0
  0
LINE
  5
142
330
1F
100
AcDbEntity
  8
0
  6
Continuous
 62
     1
370
     0
100
AcDbLine
 10
110.438726706
 20
199.6843609023
 30
0.0
 11
110.438726706
 21
202.6843609023
 31
0.0
  0
LINE
  5
143
330
1F
100
AcDbEntity
  8
0
  6
Continuous
 62
     1
370
     0
100
AcDbLine
 10
110.438726706
 20
206.6843609023
 30
0.0
 11
110.438726706
 21
209.6843609023
 31
0.0
  0
DIMENSION
  5
144
330
1F
100
AcDbEntity
  8
0
  6
Continuous
 62
     7
370
     0
100
AcDbDimension
  2
_D_3
 10
125.1614656243
 20
215.8142270008
 30
0.0
 11
112.6314384061
 21
215.8142270008
 31
0.0
 70
   160
  1
(<>)
 71
     2
 42
-1.0
  3
SLDDIMSTYLE0
100
AcDbAlignedDimension
 13
100.1014111879
 23
209.6843609023
 33
0.0
 14
125.1614656243
 24
209.6843609023
 34
0.0
100
AcDbRotatedDimension
  0
LINE
  5
150
330
1F
100
AcDbEntity
  8
0
  6
Continuous
 62
     7
370
     0
100
AcDbLine
 10
159.4668531899
 20
139.3376613507
 30
0.0
 11
159.4668531899
 21
139.8109567434
 31
0.0
  0
LINE
  5
151
330
1F
100
AcDbEntity
  8
0
  6
Continuous
 62
     7
370
     0
100
AcDbLine
 10
152.4668531899
 20
139.8109567434
 30
0.0
 11
152.4668531899
 21
139.3376613507
 31
0.0
  0
LINE
  5
152
330
1F
100
AcDbEntity
  8
0
  6
Continuous
 62
     7
370
     0
100
AcDbLine
 10
159.4668531899
 20
154.0870374333
 30
0.0
 11
159.4668531899
 21
154.560332826
 31
0.0
  0
LINE
  5
153
330
1F
100
AcDbEntity
  8
0
  6
Continuous
 62
     7
370
     0
100
AcDbLine
 10
152.4668531899
 20
154.560332826
 30
0.0
 11
152.4668531899
 21
154.0870374333
 31
0.0
  0
CIRCLE
  5
154
330
1F
100
AcDbEntity
  8
0
  6
Continuous
 62
     7
370
     0
100
AcDbCircle
 10
155.9605652732
 20
154.0589279856
 30
0.0
 40
3.977877153149156
  0
CIRCLE
  5
155
330
1F
100
AcDbEntity
  8
0
  6
Continuous
 62
     7
370
     0
100
AcDbCircle
 10
155.9605652732
 20
139.3095519029
 30
0.0
 40
3.977877153149099
  0
LINE
  5
156
330
1F
100
AcDbEntity
  8
0
  6
Continuous
 62
     7
370
     0
100
AcDbLine
 10
160.9668531899
 20
158.4390355823
 30
0.0
 11
150.9668531899
 21
158.4390355823
 31
0.0
  0
LINE
  5
157
330
1F
100
AcDbEntity
  8
0
  6
Continuous
 62
     7
370
     0
100
AcDbLine
 10
150.9668531899
 20
132.3832881821
 30
0.0
 11
160.9668531899
 21
132.3832881821
 31
0.0
  0
LINE
  5
158
330
1F
100
AcDbEntity
  8
0
  6
Continuous
 62
     7
370
     0
100
AcDbLine
 10
150.9668531899
 20
158.4390355823
 30
0.0
 11
150.9668531899
 21
132.3832881821
 31
0.0
  0
LINE
  5
159
330
1F
100
AcDbEntity
  8
0
  6
Continuous
 62
     7
370
     0
100
AcDbLine
 10
160.9668531899
 20
158.4390355823
 30
0.0
 11
160.9668531899
 21
132.3832881821
 31
0.0
  0
LINE
  5
15A
330
1F
100
AcDbEntity
  8
0
  6
Continuous
 62
     7
370
     0
100
AcDbLine
 10
150.9668531899
 20
162.5176850815
 30
0.0
 11
160.9668531899
 21
162.5176850815
 31
0.0
  0
LINE
  5
15B
330
1F
100
AcDbEntity
  8
0
  6
Continuous
 62
     7
370
     0
100
AcDbLine
 10
150.9668531899
 20
158.4390355823
 30
0.0
 11
150.9668531899
 21
162.5176850815
 31
0.0
  0
LINE
  5
15C
330
1F
100
AcDbEntity
  8
0
  6
Continuous
 62
     7
370
     0
100
AcDbLine
 10
160.9668531899
 20
162.5176850815
 30
0.0
 11
160.9668531899
 21
158.4390355823
 31
0.0
  0
ARC
  5
15D
330
1F
100
AcDbEntity
  8
0
  6
Continuous
 62
     7
370
     0
100
AcDbCircle
 10
156.0014677032
 20
154.5946752666
 30
0.0
 40
3.967660390110695
100
AcDbArc
 50
269.5001359776
 51
355.5565134453
  0
ARC
  5
15E
330
1F
100
AcDbEntity
  8
0
  6
Continuous
 62
     7
370
     0
100
AcDbCircle
 10
155.9382965381
 20
154.6012797046
 30
0.0
 40
3.974216431891392
100
AcDbArc
 50
184.5316493705
 51
270.4117012066
  0
LINE
  5
15F
330
1F
100
AcDbEntity
  8
0
  6
Continuous
 62
     7
370
     0
100
AcDbLine
 10
153.1668531899
 20
162.9727768053
 30
0.0
 11
150.9668531899
 21
162.9727768053
 31
0.0
  0
LINE
  5
160
330
1F
100
AcDbEntity
  8
0
  6
Continuous
 62
     7
370
     0
100
AcDbLine
 10
153.4668531899
 20
162.9181657984
 30
0.0
 11
153.1668531899
 21
162.9727768053
 31
0.0
  0
LINE
  5
161
330
1F
100
AcDbEntity
  8
0
  6
Continuous
 62
     7
370
     0
100
AcDbLine
 10
153.4668531899
 20
162.6451107642
 30
0.0
 11
153.4668531899
 21
162.9181657984
 31
0.0
  0
LINE
  5
162
330
1F
100
AcDbEntity
  8
0
  6
Continuous
 62
     7
370
     0
100
AcDbLine
 10
153.4668531899
 20
162.6451107642
 30
0.0
 11
158.4668531899
 21
162.6451107642
 31
0.0
  0
LINE
  5
163
330
1F
100
AcDbEntity
  8
0
  6
Continuous
 62
     7
370
     0
100
AcDbLine
 10
158.4668531899
 20
162.9181657984
 30
0.0
 11
158.4668531899
 21
162.6451107642
 31
0.0
  0
LINE
  5
164
330
1F
100
AcDbEntity
  8
0
  6
Continuous
 62
     7
370
     0
100
AcDbLine
 10
158.7668531899
 20
162.9727768053
 30
0.0
 11
158.4668531899
 21
162.9181657984
 31
0.0
  0
LINE
  5
165
330
1F
100
AcDbEntity
  8
0
  6
Continuous
 62
     7
370
     0
100
AcDbLine
 10
160.9668531899
 20
162.9727768053
 30
0.0
 11
158.7668531899
 21
162.9727768053
 31
0.0
  0
LINE
  5
166
330
1F
100
AcDbEntity
  8
0
  6
Continuous
 62
     7
370
     0
100
AcDbLine
 10
150.9668531899
 20
162.9727768053
 30
0.0
 11
150.9668531899
 21
162.5176850815
 31
0.0
  0
LINE
  5
167
330
1F
100
AcDbEntity
  8
0
  6
Continuous
 62
     7
370
     0
100
AcDbLine
 10
160.9668531899
 20
162.9727768053
 30
0.0
 11
160.9668531899
 21
162.5176850815
 31
0.0
  0
ARC
  5
168
330
1F
100
AcDbEntity
  8
0
  6
Continuous
 62
     7
370
     0
100
AcDbCircle
 10
156.0014677032
 20
139.8452991839
 30
0.0
 40
3.967660390110691
100
AcDbArc
 50
269.5001359776
 51
355.5565134453
  0
ARC
  5
169
330
1F
100
AcDbEntity
  8
0
  6
Continuous
 62
     7
370
     0
100
AcDbCircle
 10
155.9382965381
 20
139.851903622
 30
0.0
 40
3.97421643189139
100
AcDbArc
 50
184.5316493705
 51
270.4117012066
  0
LINE
  5
16A
330
1F
100
AcDbEntity
  8
0
  6
Continuous
 62
     7
370
     0
100
AcDbLine
 10
160.9668531899
 20
127.2734564417
 30
0.0
 11
150.9668531899
 21
127.2734564417
 31
0.0
  0
LINE
  5
16B
330
1F
100
AcDbEntity
  8
0
  6
Continuous
 62
     7
370
     0
100
AcDbLine
 10
150.9668531899
 20
127.2734564417
 30
0.0
 11
150.9668531899
 21
132.3832881821
 31
0.0
  0
LINE
  5
16C
330
1F
100
AcDbEntity
  8
0
  6
Continuous
 62
     7
370
     0
100
AcDbLine
 10
160.9668531899
 20
132.3832881821
 30
0.0
 11
160.9668531899
 21
127.2734564417
 31
0.0
  0
LINE
  5
16D
330
1F
100
AcDbEntity
  8
0
  6
Continuous
 62
     7
370
     0
100
AcDbLine
 10
160.9668531899
 20
113.1317939432
 30
0.0
 11
150.9668531899
 21
113.1317939432
 31
0.0
  0
LINE
  5
16E
330
1F
100
AcDbEntity
  8
0
  6
Continuous
 62
     7
370
     0
100
AcDbLine
 10
150.9668531899
 20
113.1317939432
 30
0.0
 11
150.9668531899
 21
127.2734564417
 31
0.0
  0
LINE
  5
16F
330
1F
100
AcDbEntity
  8
0
  6
Continuous
 62
     7
370
     0
100
AcDbLine
 10
160.9668531899
 20
127.2734564417
 30
0.0
 11
160.9668531899
 21
113.1317939432
 31
0.0
  0
LINE
  5
170
330
1F
100
AcDbEntity
  8
0
  6
Continuous
 62
     7
370
     0
100
AcDbLine
 10
160.9668531899
 20
89.3324977727
 30
0.0
 11
150.9668531899
 21
89.3324977727
 31
0.0
  0
LINE
  5
171
330
1F
100
AcDbEntity
  8
0
  6
Continuous
 62
     7
370
     0
100
AcDbLine
 10
150.9668531899
 20
91.7270999722
 30
0.0
 11
160.9668531899
 21
91.7270999722
 31
0.0
  0
LINE
  5
172
330
1F
100
AcDbEntity
  8
0
  6
Continuous
 62
     7
370
     0
100
AcDbLine
 10
150.9668531899
 20
89.3324977727
 30
0.0
 11
150.9668531899
 21
91.7270999722
 31
0.0
  0
LINE
  5
173
330
1F
100
AcDbEntity
  8
0
  6
Continuous
 62
     7
370
     0
100
AcDbLine
 10
160.9668531899
 20
91.7270999722
 30
0.0
 11
160.9668531899
 21
89.3324977727
 31
0.0
  0
LINE
  5
174
330
1F
100
AcDbEntity
  8
0
  6
Continuous
 62
     7
370
     0
100
AcDbLine
 10
150.9668531899
 20
113.1317939432
 30
0.0
 11
150.9668531899
 21
91.7270999722
 31
0.0
  0
LINE
  5
175
330
1F
100
AcDbEntity
  8
0
  6
Continuous
 62
     7
370
     0
100
AcDbLine
 10
160.9668531899
 20
113.1317939432
 30
0.0
 11
160.9668531899
 21
91.7270999722
 31
0.0
  0
LINE
  5
176
330
1F
100
AcDbEntity
  8
0
  6
Continuous
 62
     7
370
     0
100
AcDbLine
 10
160.9668531899
 20
88.7358154716
 30
0.0
 11
150.9668531899
 21
88.7358154716
 31
0.0
  0
LINE
  5
177
330
1F
100
AcDbEntity
  8
0
  6
Continuous
 62
     7
370
     0
100
AcDbLine
 10
150.9668531899
 20
89.3324977727
 30
0.0
 11
150.9668531899
 21
88.7358154716
 31
0.0
  0
LINE
  5
178
330
1F
100
AcDbEntity
  8
0
  6
Continuous
 62
     7
370
     0
100
AcDbLine
 10
160.9668531899
 20
89.3324977727
 30
0.0
 11
160.9668531899
 21
88.7358154716
 31
0.0
  0
CIRCLE
  5
179
330
1F
100
AcDbEntity
  8
0
  6
Continuous
 62
     7
370
     0
100
AcDbCircle
 10
155.9265390063
 20
139.3322838158
 30
0.0
 40
3.266791211000843
  0
ARC
  5
17A
330
1F
100
AcDbEntity
  8
0
  6
Continuous
 62
     7
370
     0
100
AcDbCircle
 10
155.8673188546
 20
139.3397459765
 30
0.0
 40
3.400466303751647
100
AcDbArc
 50
180.0351246733
 51
214.009337955
  0
ARC
  5
17B
330
1F
100
AcDbEntity
  8
0
  6
Continuous
 62
     7
370
     0
100
AcDbCircle
 10
155.9598192856
 20
139.3939813117
 30
0.0
 40
3.507486100239324
100
AcDbArc
 50
213.8985863821
 51
359.0799579368
  0
LINE
  5
17C
330
1F
100
AcDbEntity
  8
0
  6
Continuous
 62
     7
370
     0
100
AcDbLine
 10
155.1759403327
 20
137.7409038032
 30
0.0
 11
156.9456612515
 21
137.8475726154
 31
0.0
  0
LINE
  5
17D
330
1F
100
AcDbEntity
  8
0
  6
Continuous
 62
     7
370
     0
100
AcDbLine
 10
157.7365741087
 20
139.407922825
 30
0.0
 11
156.9456612515
 21
137.8475726154
 31
0.0
  0
LINE
  5
17E
330
1F
100
AcDbEntity
  8
0
  6
Continuous
 62
     7
370
     0
100
AcDbLine
 10
156.757766047
 20
140.8616042223
 30
0.0
 11
157.7365741087
 21
139.407922825
 31
0.0
  0
LINE
  5
17F
330
1F
100
AcDbEntity
  8
0
  6
Continuous
 62
     7
370
     0
100
AcDbLine
 10
156.757766047
 20
140.8616042223
 30
0.0
 11
154.9880451282
 21
140.7549354101
 31
0.0
  0
LINE
  5
180
330
1F
100
AcDbEntity
  8
0
  6
Continuous
 62
     7
370
     0
100
AcDbLine
 10
154.9880451282
 20
140.7549354101
 30
0.0
 11
154.197132271
 21
139.1945852006
 31
0.0
  0
LINE
  5
181
330
1F
100
AcDbEntity
  8
0
  6
Continuous
 62
     7
370
     0
100
AcDbLine
 10
155.1759403327
 20
137.7409038032
 30
0.0
 11
154.197132271
 21
139.1945852006
 31
0.0
  0
ARC
  5
182
330
1F
100
AcDbEntity
  8
0
  6
Continuous
 62
     7
370
     0
100
AcDbCircle
 10
156.0331940797
 20
139.799513268
 30
0.0
 40
3.433678179180104
100
AcDbArc
 50
0.1909509345
 51
62.9471078086
  0
ARC
  5
183
330
1F
100
AcDbEntity
  8
0
  6
Continuous
 62
     7
370
     0
100
AcDbCircle
 10
155.8996705075
 20
139.8000305152
 30
0.0
 40
3.432834706008126
100
AcDbArc
 50
117.0443059415
 51
179.8176353154
  0
LINE
  5
184
330
1F
100
AcDbEntity
  8
0
  6
Continuous
 62
     7
370
     0
100
AcDbLine
 10
156.9456612515
 20
137.993201967
 30
0.0
 11
156.9456612515
 21
137.8475726154
 31
0.0
  0
LINE
  5
185
330
1F
100
AcDbEntity
  8
0
  6
Continuous
 62
     7
370
     0
100
AcDbLine
 10
156.9456612515
 20
137.993201967
 30
0.0
 11
157.3411176801
 21
138.7733770718
 31
0.0
  0
LINE
  5
186
330
1F
100
AcDbEntity
  8
0
  6
Continuous
 62
     7
370
     0
100
AcDbLine
 10
157.3411176801
 20
138.7733770718
 30
0.0
 11
157.6944603806
 21
139.4704682264
 31
0.0
  0
LINE
  5
187
330
1F
100
AcDbEntity
  8
0
  6
Continuous
 62
     7
370
     0
100
AcDbLine
 10
154.2392459991
 20
139.2776691508
 30
0.0
 11
154.6865363018
 21
138.6133738535
 31
0.0
  0
LINE
  5
188
330
1F
100
AcDbEntity
  8
0
  6
Continuous
 62
     7
370
     0
100
AcDbLine
 10
154.6865363018
 20
138.6133738535
 30
0.0
 11
155.1759403327
 21
137.8865331548
 31
0.0
  0
LINE
  5
189
330
1F
100
AcDbEntity
  8
0
  6
Continuous
 62
     7
370
     0
100
AcDbLine
 10
155.1759403327
 20
137.8865331548
 30
0.0
 11
155.1759403327
 21
137.7409038032
 31
0.0
  0
LINE
  5
18A
330
1F
100
AcDbEntity
  8
0
  6
Continuous
 62
     7
370
     0
100
AcDbLine
 10
156.0608007921
 20
137.9398675609
 30
0.0
 11
155.1759403327
 21
137.8865331548
 31
0.0
  0
LINE
  5
18B
330
1F
100
AcDbEntity
  8
0
  6
Continuous
 62
     7
370
     0
100
AcDbLine
 10
156.9456612515
 20
137.993201967
 30
0.0
 11
156.0608007921
 21
137.9398675609
 31
0.0
  0
ARC
  5
18C
330
1F
100
AcDbEntity
  8
0
  6
Continuous
 62
     7
370
     0
100
AcDbCircle
 10
155.9730661061
 20
139.4134418478
 30
0.0
 40
1.542153414619323
100
AcDbArc
 50
52.7706541403
 51
68.5075262512
  0
ARC
  5
18D
330
1F
100
AcDbEntity
  8
0
  6
Continuous
 62
     7
370
     0
100
AcDbCircle
 10
155.9213052384
 20
139.4470443288
 30
0.0
 40
1.489852606158205
100
AcDbArc
 50
170.2519058163
 51
214.0257710552
  0
ARC
  5
18E
330
1F
100
AcDbEntity
  8
0
  6
Continuous
 62
     7
370
     0
100
AcDbCircle
 10
155.9554867689
 20
139.4213886585
 30
0.0
 40
1.532706087440336
100
AcDbArc
 50
118.4286071147
 51
136.1335959942
  0
ARC
  5
18F
330
1F
100
AcDbEntity
  8
0
  6
Continuous
 62
     7
370
     0
100
AcDbCircle
 10
156.014906698
 20
139.4468122886
 30
0.0
 40
1.487397243667939
100
AcDbArc
 50
333.0790453418
 51
14.9564364676
  0
ARC
  5
190
330
1F
100
AcDbEntity
  8
0
  6
Continuous
 62
     7
370
     0
100
AcDbCircle
 10
155.9736566929
 20
139.473799405
 30
0.0
 40
1.536405218791541
100
AcDbArc
 50
273.2515316076
 51
332.8781825875
  0
ARC
  5
191
330
1F
100
AcDbEntity
  8
0
  6
Continuous
 62
     7
370
     0
100
AcDbCircle
 10
155.9637019902
 20
139.4805619593
 30
0.0
 40
1.543751083028582
100
AcDbArc
 50
214.1762775152
 51
273.6061683764
  0
CIRCLE
  5
192
330
1F
100
AcDbEntity
  8
0
  6
Continuous
 62
     7
370
     0
100
AcDbCircle
 10
155.9282279534
 20
154.0719115776
 30
0.0
 40
3.26443421014675
  0
ARC
  5
193
330
1F
100
AcDbEntity
  8
0
  6
Continuous
 62
     7
370
     0
100
AcDbCircle
 10
155.8578199547
 20
154.0875606129
 30
0.0
 40
3.390966805250859
100
AcDbArc
 50
180.0088399514
 51
202.6616666067
  0
ARC
  5
194
330
1F
100
AcDbEntity
  8
0
  6
Continuous
 62
     7
370
     0
100
AcDbCircle
 10
155.9605899657
 20
154.1417325292
 30
0.0
 40
3.506689799578808
100
AcDbArc
 50
202.8314862393
 51
359.1063009809
  0
LINE
  5
195
330
1F
100
AcDbEntity
  8
0
  6
Continuous
 62
     7
370
     0
100
AcDbLine
 10
154.8826212687
 20
152.6711725455
 30
0.0
 11
156.6396821276
 21
152.4376175291
 31
0.0
  0
LINE
  5
196
330
1F
100
AcDbEntity
  8
0
  6
Continuous
 62
     7
370
     0
100
AcDbLine
 10
157.7239140487
 20
153.817075079
 30
0.0
 11
156.6396821276
 21
152.4376175291
 31
0.0
  0
LINE
  5
197
330
1F
100
AcDbEntity
  8
0
  6
Continuous
 62
     7
370
     0
100
AcDbLine
 10
157.051085111
 20
155.4300876453
 30
0.0
 11
157.7239140487
 21
153.817075079
 31
0.0
  0
LINE
  5
198
330
1F
100
AcDbEntity
  8
0
  6
Continuous
 62
     7
370
     0
100
AcDbLine
 10
157.051085111
 20
155.4300876453
 30
0.0
 11
155.2940242521
 21
155.6636426618
 31
0.0
  0
LINE
  5
199
330
1F
100
AcDbEntity
  8
0
  6
Continuous
 62
     7
370
     0
100
AcDbLine
 10
155.2940242521
 20
155.6636426618
 30
0.0
 11
154.209792331
 21
154.2841851119
 31
0.0
  0
LINE
  5
19A
330
1F
100
AcDbEntity
  8
0
  6
Continuous
 62
     7
370
     0
100
AcDbLine
 10
154.8826212687
 20
152.6711725455
 30
0.0
 11
154.209792331
 21
154.2841851119
 31
0.0
  0
ARC
  5
19B
330
1F
100
AcDbEntity
  8
0
  6
Continuous
 62
     7
370
     0
100
AcDbCircle
 10
156.0302063183
 20
154.547053493
 30
0.0
 40
3.43667252742875
100
AcDbArc
 50
0.2213919487
 51
62.9166667945
  0
ARC
  5
19C
330
1F
100
AcDbEntity
  8
0
  6
Continuous
 62
     7
370
     0
100
AcDbCircle
 10
155.9014393132
 20
154.5483197389
 30
0.0
 40
3.434607132210484
100
AcDbArc
 50
117.0623428079
 51
179.7995984489
  0
LINE
  5
19D
330
1F
100
AcDbEntity
  8
0
  6
Continuous
 62
     7
370
     0
100
AcDbLine
 10
154.2494771466
 20
154.3346757103
 30
0.0
 11
154.5462067999
 21
153.6233081803
 31
0.0
  0
LINE
  5
19E
330
1F
100
AcDbEntity
  8
0
  6
Continuous
 62
     7
370
     0
100
AcDbLine
 10
154.5462067999
 20
153.6233081803
 30
0.0
 11
154.8826212687
 21
152.8168018971
 31
0.0
  0
LINE
  5
19F
330
1F
100
AcDbEntity
  8
0
  6
Continuous
 62
     7
370
     0
100
AcDbLine
 10
154.8826212687
 20
152.8168018971
 30
0.0
 11
154.8826212687
 21
152.6711725455
 31
0.0
  0
LINE
  5
1A0
330
1F
100
AcDbEntity
  8
0
  6
Continuous
 62
     7
370
     0
100
AcDbLine
 10
156.6396821276
 20
152.5832468807
 30
0.0
 11
156.6396821276
 21
152.4376175291
 31
0.0
  0
LINE
  5
1A1
330
1F
100
AcDbEntity
  8
0
  6
Continuous
 62
     7
370
     0
100
AcDbLine
 10
156.6396821276
 20
152.5832468807
 30
0.0
 11
157.1817980882
 21
153.2729756556
 31
0.0
  0
LINE
  5
1A2
330
1F
100
AcDbEntity
  8
0
  6
Continuous
 62
     7
370
     0
100
AcDbLine
 10
157.1817980882
 20
153.2729756556
 30
0.0
 11
157.6842292331
 21
153.9122138322
 31
0.0
  0
LINE
  5
1A3
330
1F
100
AcDbEntity
  8
0
  6
Continuous
 62
     7
370
     0
100
AcDbLine
 10
155.7611516982
 20
152.7000243889
 30
0.0
 11
154.8826212687
 21
152.8168018971
 31
0.0
  0
LINE
  5
1A4
330
1F
100
AcDbEntity
  8
0
  6
Continuous
 62
     7
370
     0
100
AcDbLine
 10
156.6396821276
 20
152.5832468807
 30
0.0
 11
155.7611516982
 21
152.7000243889
 31
0.0
  0
ARC
  5
1A5
330
1F
100
AcDbEntity
  8
0
  6
Continuous
 62
     7
370
     0
100
AcDbCircle
 10
155.9629254628
 20
154.1583259598
 30
0.0
 40
1.54718033832232
100
AcDbArc
 50
107.2673410397
 51
122.077285345
  0
ARC
  5
1A6
330
1F
100
AcDbEntity
  8
0
  6
Continuous
 62
     7
370
     0
100
AcDbCircle
 10
155.91815059
 20
154.1962222082
 30
0.0
 40
1.486761664347899
100
AcDbArc
 50
161.788632803
 51
202.6650703454
  0
ARC
  5
1A7
330
1F
100
AcDbEntity
  8
0
  6
Continuous
 62
     7
370
     0
100
AcDbCircle
 10
155.9820225769
 20
154.1754779749
 30
0.0
 40
1.526671900276906
100
AcDbArc
 50
38.3496659326
 51
57.5085378471
  0
ARC
  5
1A8
330
1F
100
AcDbEntity
  8
0
  6
Continuous
 62
     7
370
     0
100
AcDbCircle
 10
156.0101603573
 20
154.1968471837
 30
0.0
 40
1.492070230532566
100
AcDbArc
 50
321.743160045
 51
6.809657944
  0
ARC
  5
1A9
330
1F
100
AcDbEntity
  8
0
  6
Continuous
 62
     7
370
     0
100
AcDbCircle
 10
155.9684964066
 20
154.2336472278
 30
0.0
 40
1.547575794630432
100
AcDbArc
 50
262.3003388141
 51
321.628419558
  0
ARC
  5
1AA
330
1F
100
AcDbEntity
  8
0
  6
Continuous
 62
     7
370
     0
100
AcDbCircle
 10
155.9572131297
 20
154.2190328257
 30
0.0
 40
1.531609191639004
100
AcDbArc
 50
202.8893942955
 51
262.6453818401
  0
ARC
  5
1AB
330
1F
100
AcDbEntity
  8
0
  6
Continuous
 62
     1
370
     0
100
AcDbCircle
 10
155.9668531899
 20
139.2941699331
 30
0.0
 40
3.500270204342097
100
AcDbArc
 50
0.7119275514
 51
179.2880724486
  0
ARC
  5
1AC
330
1F
100
AcDbEntity
  8
0
  6
Continuous
 62
     1
370
     0
100
AcDbCircle
 10
155.9668531899
 20
154.0435663292
 30
0.0
 40
3.500269952002455
100
AcDbArc
 50
0.7115950661
 51
179.2884049339
  0
INSERT
  5
1B2
330
1F
100
AcDbEntity
  8
0
  6
Continuous
 62
     7
370
     0
100
AcDbBlockReference
  2
SW_NOTE_0
 10
167.0438596491
 20
169.4348372864
 30
0.0
  0
LEADER
  5
1B4
330
1F
100
AcDbEntity
  8
0
  6
Continuous
 62
     7
370
     0
100
AcDbLeader
  3
SLDDIMSTYLE2
 76
     2
 10
158.8246158823
 20
156.0739662676
 30
0.0
 10
167.0438596491
 20
169.4348372864
 30
0.0
  0
ENDSEC
  0
SECTION
  2
OBJECTS
  0
DICTIONARY
  5
C
330
0
100
AcDbDictionary
281
     1
  3
ACAD_GROUP
350
D
  3
ACAD_LAYOUT
350
1A
  3
ACAD_MLINESTYLE
350
17
  3
ACAD_PLOTSETTINGS
350
19
  3
ACAD_PLOTSTYLENAME
350
E
  3
ACAD_SCALELIST
350
47
  0
DICTIONARY
  5
D
102
{ACAD_REACTORS
330
C
102
}
330
C
100
AcDbDictionary
281
     1
  0
DICTIONARY
  5
1A
102
{ACAD_REACTORS
330
C
102
}
330
C
100
AcDbDictionary
281
     1
  3
Layout1
350
1E
  3
Layout2
350
26
  3
Model
350
22
  0
DICTIONARY
  5
17
102
{ACAD_REACTORS
330
C
102
}
330
C
100
AcDbDictionary
281
     1
  3
Standard
350
18
  0
DICTIONARY
  5
19
102
{ACAD_REACTORS
330
C
102
}
330
C
100
AcDbDictionary
281
     1
  0
ACDBDICTIONARYWDFLT
  5
E
102
{ACAD_REACTORS
330
C
102
}
330
C
100
AcDbDictionary
281
     1
  3
Normal
350
F
100
AcDbDictionaryWithDefault
340
F
  0
DICTIONARY
  5
47
102
{ACAD_REACTORS
330
C
102
}
330
C
100
AcDbDictionary
281
     1
  3
A0
350
48
  3
A1
350
49
  3
A2
350
4A
  3
A3
350
4B
  3
A4
350
4C
  3
A5
350
4D
  3
A6
350
4E
  3
A7
350
4F
  3
A8
350
50
  3
A9
350
51
  3
B0
350
52
  3
B1
350
53
  3
B2
350
54
  3
B3
350
55
  3
B4
350
56
  3
B5
350
57
  3
B6
350
58
  3
B7
350
59
  3
B8
350
5A
  3
B9
350
5B
  3
C0
350
5C
  3
C1
350
5D
  3
C2
350
5E
  3
C3
350
5F
  3
C4
350
60
  3
C5
350
61
  3
C6
350
62
  3
C7
350
63
  3
C8
350
64
  3
C9
350
65
  3
D0
350
66
  3
D1
350
67
  3
D2
350
68
  0
LAYOUT
  5
1E
102
{ACAD_REACTORS
330
1A
102
}
330
1A
100
AcDbPlotSettings
  1

  2
none_device
  4

  6

 40
0.0
 41
0.0
 42
0.0
 43
0.0
 44
0.0
 45
0.0
 46
0.0
 47
0.0
 48
0.0
 49
0.0
140
0.0
141
0.0
142
1.0
143
1.0
 70
   688
 72
     1
 73
     0
 74
     5
  7

 75
    16
147
1.0
148
0.0
149
0.0
100
AcDbLayout
  1
Layout1
 70
     1
 71
     1
 10
0.0
 20
0.0
 11
420.0
 21
297.0
 12
0.0
 22
0.0
 32
0.0
 14
1.0000000000E+20
 24
1.0000000000E+20
 34
1.0000000000E+20
 15
-1.0000000000E+20
 25
-1.0000000000E+20
 35
-1.0000000000E+20
146
0.0
 13
0.0
 23
0.0
 33
0.0
 16
1.0
 26
0.0
 36
0.0
 17
0.0
 27
1.0
 37
0.0
 76
     0
330
1B
  0
LAYOUT
  5
26
102
{ACAD_REACTORS
330
1A
102
}
330
1A
100
AcDbPlotSettings
  1

  2
none_device
  4

  6

 40
0.0
 41
0.0
 42
0.0
 43
0.0
 44
0.0
 45
0.0
 46
0.0
 47
0.0
 48
0.0
 49
0.0
140
0.0
141
0.0
142
1.0
143
1.0
 70
   688
 72
     1
 73
     0
 74
     5
  7

 75
    16
147
1.0
148
0.0
149
0.0
100
AcDbLayout
  1
Layout2
 70
     1
 71
     2
 10
0.0
 20
0.0
 11
0.0
 21
0.0
 12
0.0
 22
0.0
 32
0.0
 14
0.0
 24
0.0
 34
0.0
 15
0.0
 25
0.0
 35
0.0
146
0.0
 13
0.0
 23
0.0
 33
0.0
 16
1.0
 26
0.0
 36
0.0
 17
0.0
 27
1.0
 37
0.0
 76
     0
330
23
  0
LAYOUT
  5
22
102
{ACAD_REACTORS
330
1A
102
}
330
1A
100
AcDbPlotSettings
  1

  2
none_device
  4
Letter_(8.50_x_11.00_Inches)
  6

 40
6.35
 41
6.35
 42
6.35000508
 43
6.35000508
 44
215.9
 45
279.4
 46
0.0
 47
0.0
 48
0.0
 49
0.0
140
0.0
141
0.0
142
1.0
143
1.0
 70
  1712
 72
     1
 73
     0
 74
     0
  7

 75
     0
147
1.0
148
0.0
149
0.0
100
AcDbLayout
  1
Model
 70
     1
 71
     0
 10
0.0
 20
0.0
 11
210.0
 21
297.0
 12
0.0
 22
0.0
 32
0.0
 14
0.0
 24
0.0
 34
0.0
 15
210.0
 25
297.0
 35
0.0
146
0.0
 13
0.0
 23
0.0
 33
0.0
 16
1.0
 26
0.0
 36
0.0
 17
0.0
 27
1.0
 37
0.0
 76
     0
330
1F
331
29
  0
MLINESTYLE
  5
18
102
{ACAD_REACTORS
330
17
102
}
330
17
100
AcDbMlineStyle
  2
Standard
 70
     0
  3

 62
   256
 51
90.0
 52
90.0
 71
     2
 49
0.5
 62
   256
  6
BYLAYER
 49
-0.5
 62
   256
  6
BYLAYER
  0
ACDBPLACEHOLDER
  5
F
102
{ACAD_REACTORS
330
E
102
}
330
E
  0
SCALE
  5
48
102
{ACAD_REACTORS
330
47
102
}
330
47
100
AcDbScale
 70
     0
300
1:1
140
1.0
141
1.0
290
     1
  0
SCALE
  5
49
102
{ACAD_REACTORS
330
47
102
}
330
47
100
AcDbScale
 70
     0
300
1:2
140
1.0
141
2.0
290
     0
  0
SCALE
  5
4A
102
{ACAD_REACTORS
330
47
102
}
330
47
100
AcDbScale
 70
     0
300
1:4
140
1.0
141
4.0
290
     0
  0
SCALE
  5
4B
102
{ACAD_REACTORS
330
47
102
}
330
47
100
AcDbScale
 70
     0
300
1:5
140
1.0
141
5.0
290
     0
  0
SCALE
  5
4C
102
{ACAD_REACTORS
330
47
102
}
330
47
100
AcDbScale
 70
     0
300
1:8
140
1.0
141
8.0
290
     0
  0
SCALE
  5
4D
102
{ACAD_REACTORS
330
47
102
}
330
47
100
AcDbScale
 70
     0
300
1:10
140
1.0
141
10.0
290
     0
  0
SCALE
  5
4E
102
{ACAD_REACTORS
330
47
102
}
330
47
100
AcDbScale
 70
     0
300
1:16
140
1.0
141
16.0
290
     0
  0
SCALE
  5
4F
102
{ACAD_REACTORS
330
47
102
}
330
47
100
AcDbScale
 70
     0
300
1:20
140
1.0
141
20.0
290
     0
  0
SCALE
  5
50
102
{ACAD_REACTORS
330
47
102
}
330
47
100
AcDbScale
 70
     0
300
1:30
140
1.0
141
30.0
290
     0
  0
SCALE
  5
51
102
{ACAD_REACTORS
330
47
102
}
330
47
100
AcDbScale
 70
     0
300
1:40
140
1.0
141
40.0
290
     0
  0
SCALE
  5
52
102
{ACAD_REACTORS
330
47
102
}
330
47
100
AcDbScale
 70
     0
300
1:50
140
1.0
141
50.0
290
     0
  0
SCALE
  5
53
102
{ACAD_REACTORS
330
47
102
}
330
47
100
AcDbScale
 70
     0
300
1:100
140
1.0
141
100.0
290
     0
  0
SCALE
  5
54
102
{ACAD_REACTORS
330
47
102
}
330
47
100
AcDbScale
 70
     0
300
2:1
140
2.0
141
1.0
290
     0
  0
SCALE
  5
55
102
{ACAD_REACTORS
330
47
102
}
330
47
100
AcDbScale
 70
     0
300
4:1
140
4.0
141
1.0
290
     0
  0
SCALE
  5
56
102
{ACAD_REACTORS
330
47
102
}
330
47
100
AcDbScale
 70
     0
300
8:1
140
8.0
141
1.0
290
     0
  0
SCALE
  5
57
102
{ACAD_REACTORS
330
47
102
}
330
47
100
AcDbScale
 70
     0
300
10:1
140
10.0
141
1.0
290
     0
  0
SCALE
  5
58
102
{ACAD_REACTORS
330
47
102
}
330
47
100
AcDbScale
 70
     0
300
100:1
140
100.0
141
1.0
290
     0
  0
SCALE
  5
59
102
{ACAD_REACTORS
330
47
102
}
330
47
100
AcDbScale
 70
     0
300
1/128" = 1'-0"
140
0.0078125
141
12.0
290
     0
  0
SCALE
  5
5A
102
{ACAD_REACTORS
330
47
102
}
330
47
100
AcDbScale
 70
     0
300
1/64" = 1'-0"
140
0.015625
141
12.0
290
     0
  0
SCALE
  5
5B
102
{ACAD_REACTORS
330
47
102
}
330
47
100
AcDbScale
 70
     0
300
1/32" = 1'-0"
140
0.03125
141
12.0
290
     0
  0
SCALE
  5
5C
102
{ACAD_REACTORS
330
47
102
}
330
47
100
AcDbScale
 70
     0
300
1/16" = 1'-0"
140
0.0625
141
12.0
290
     0
  0
SCALE
  5
5D
102
{ACAD_REACTORS
330
47
102
}
330
47
100
AcDbScale
 70
     0
300
3/32" = 1'-0"
140
0.09375
141
12.0
290
     0
  0
SCALE
  5
5E
102
{ACAD_REACTORS
330
47
102
}
330
47
100
AcDbScale
 70
     0
300
1/8" = 1'-0"
140
0.125
141
12.0
290
     0
  0
SCALE
  5
5F
102
{ACAD_REACTORS
330
47
102
}
330
47
100
AcDbScale
 70
     0
300
3/16" = 1'-0"
140
0.1875
141
12.0
290
     0
  0
SCALE
  5
60
102
{ACAD_REACTORS
330
47
102
}
330
47
100
AcDbScale
 70
     0
300
1/4" = 1'-0"
140
0.25
141
12.0
290
     0
  0
SCALE
  5
61
102
{ACAD_REACTORS
330
47
102
}
330
47
100
AcDbScale
 70
     0
300
3/8" = 1'-0"
140
0.375
141
12.0
290
     0
  0
SCALE
  5
62
102
{ACAD_REACTORS
330
47
102
}
330
47
100
AcDbScale
 70
     0
300
1/2" = 1'-0"
140
0.5
141
12.0
290
     0
  0
SCALE
  5
63
102
{ACAD_REACTORS
330
47
102
}
330
47
100
AcDbScale
 70
     0
300
3/4" = 1'-0"
140
0.75
141
12.0
290
     0
  0
SCALE
  5
64
102
{ACAD_REACTORS
330
47
102
}
330
47
100
AcDbScale
 70
     0
300
1" = 1'-0"
140
1.0
141
12.0
290
     0
  0
SCALE
  5
65
102
{ACAD_REACTORS
330
47
102
}
330
47
100
AcDbScale
 70
     0
300
1-1/2" = 1'-0"
140
1.5
141
12.0
290
     0
  0
SCALE
  5
66
102
{ACAD_REACTORS
330
47
102
}
330
47
100
AcDbScale
 70
     0
300
3" = 1'-0"
140
3.0
141
12.0
290
     0
  0
SCALE
  5
67
102
{ACAD_REACTORS
330
47
102
}
330
47
100
AcDbScale
 70
     0
300
6" = 1'-0"
140
6.0
141
12.0
290
     0
  0
SCALE
  5
68
102
{ACAD_REACTORS
330
47
102
}
330
47
100
AcDbScale
 70
     0
300
1'-0" = 1'-0"
140
12.0
141
12.0
290
     0
  0
ENDSEC
  0
EOF
