  0
SECTION
  2
HEADER
  9
$ACADVER
  1
AC1015
  9
$ACADMAINTVER
 70
     6
  9
$DWGCODEPAGE
  3
DOS932
  9
$INSBASE
 10
0.0
 20
0.0
 30
0.0
  9
$EXTMIN
 10
0.0
 20
0.0
 30
0.0
  9
$EXTMAX
 10
210.0
 20
297.0
 30
0.0
  9
$LIMMIN
 10
0.0
 20
0.0
  9
$LIMMAX
 10
210.0
 20
297.0
  9
$ORTHOMODE
 70
     0
  9
$REGENMODE
 70
     1
  9
$FILLMODE
 70
     1
  9
$QTEXTMODE
 70
     0
  9
$MIRRTEXT
 70
     1
  9
$LTSCALE
 40
1.0
  9
$ATTMODE
 70
     1
  9
$TEXTSIZE
 40
3.5
  9
$TRACEWID
 40
1.0
  9
$TEXTSTYLE
  7
Standard
  9
$CLAYER
  8
0
  9
$CELTYPE
  6
ByLayer
  9
$CECOLOR
 62
   256
  9
$CELTSCALE
 40
1.0
  9
$DISPSILH
 70
     0
  9
$DIMSCALE
 40
1.0
  9
$DIMASZ
 40
3.0
  9
$DIMEXO
 40
1.0
  9
$DIMDLI
 40
3.75
  9
$DIMRND
 40
0.0
  9
$DIMDLE
 40
0.0
  9
$DIMEXE
 40
1.0
  9
$DIMTP
 40
0.0
  9
$DIMTM
 40
0.0
  9
$DIMTXT
 40
3.5
  9
$DIMCEN
 40
2.5
  9
$DIMTSZ
 40
0.0
  9
$DIMTOL
 70
     0
  9
$DIMLIM
 70
     0
  9
$DIMTIH
 70
     1
  9
$DIMTOH
 70
     1
  9
$DIMSE1
 70
     0
  9
$DIMSE2
 70
     0
  9
$DIMTAD
 70
     1
  9
$DIMZIN
 70
     0
  9
$DIMBLK
  1

  9
$DIMASO
 70
     1
  9
$DIMSHO
 70
     1
  9
$DIMPOST
  1

  9
$DIMAPOST
  1

  9
$DIMALT
 70
     0
  9
$DIMALTD
 70
     3
  9
$DIMALTF
 40
0.0393700787
  9
$DIMLFAC
 40
2.0
  9
$DIMTOFL
 70
     1
  9
$DIMTVP
 40
0.0
  9
$DIMTIX
 70
     0
  9
$DIMSOXD
 70
     0
  9
$DIMSAH
 70
     0
  9
$DIMBLK1
  1

  9
$DIMBLK2
  1

  9
$DIMSTYLE
  2
ISO-25
  9
$DIMCLRD
 70
     0
  9
$DIMCLRE
 70
     0
  9
$DIMCLRT
 70
     0
  9
$DIMTFAC
 40
1.0
  9
$DIMGAP
 40
1.524
  9
$DIMJUST
 70
     0
  9
$DIMSD1
 70
     0
  9
$DIMSD2
 70
     0
  9
$DIMTOLJ
 70
     0
  9
$DIMTZIN
 70
     0
  9
$DIMALTZ
 70
     0
  9
$DIMALTTZ
 70
     0
  9
$DIMUPT
 70
     0
  9
$DIMDEC
 70
     1
  9
$DIMTDEC
 70
     3
  9
$DIMALTU
 70
     2
  9
$DIMALTTD
 70
     3
  9
$DIMTXSTY
  7
Standard
  9
$DIMAUNIT
 70
     0
  9
$DIMADEC
 70
     2
  9
$DIMALTRND
 40
0.0
  9
$DIMAZIN
 70
     0
  9
$DIMDSEP
 70
    44
  9
$DIMATFIT
 70
     3
  9
$DIMFRAC
 70
     0
  9
$DIMLDRBLK
  1

  9
$DIMLUNIT
 70
     2
  9
$DIMLWD
 70
    -2
  9
$DIMLWE
 70
    -2
  9
$DIMTMOVE
 70
     0
  9
$LUNITS
 70
     2
  9
$LUPREC
 70
     1
  9
$SKETCHINC
 40
1.0
  9
$FILLETRAD
 40
10.0
  9
$AUNITS
 70
     0
  9
$AUPREC
 70
     2
  9
$MENU
  1
.
  9
$ELEVATION
 40
0.0
  9
$PELEVATION
 40
0.0
  9
$THICKNESS
 40
0.0
  9
$LIMCHECK
 70
     0
  9
$CHAMFERA
 40
0.0
  9
$CHAMFERB
 40
0.0
  9
$CHAMFERC
 40
0.0
  9
$CHAMFERD
 40
0.0
  9
$SKPOLY
 70
     0
  9
$TDCREATE
 40
2457984.687851887
  9
$TDUCREATE
 40
2457984.312851887
  9
$TDUPDATE
 40
2457984.68785478
  9
$TDUUPDATE
 40
2457984.31285478
  9
$TDINDWG
 40
0.0000000116
  9
$TDUSRTIMER
 40
0.0000000116
  9
$USRTIMER
 70
     1
  9
$ANGBASE
 50
0.0
  9
$ANGDIR
 70
     0
  9
$PDMODE
 70
     0
  9
$PDSIZE
 40
-1.0
  9
$PLINEWID
 40
0.0
  9
$SPLFRAME
 70
     0
  9
$SPLINETYPE
 70
     6
  9
$SPLINESEGS
 70
     8
  9
$HANDSEED
  5
463
  9
$SURFTAB1
 70
     6
  9
$SURFTAB2
 70
     6
  9
$SURFTYPE
 70
     6
  9
$SURFU
 70
     6
  9
$SURFV
 70
     6
  9
$UCSBASE
  2

  9
$UCSNAME
  2

  9
$UCSORG
 10
0.0
 20
0.0
 30
0.0
  9
$UCSXDIR
 10
1.0
 20
0.0
 30
0.0
  9
$UCSYDIR
 10
0.0
 20
1.0
 30
0.0
  9
$UCSORTHOREF
  2

  9
$UCSORTHOVIEW
 70
     0
  9
$UCSORGTOP
 10
0.0
 20
0.0
 30
0.0
  9
$UCSORGBOTTOM
 10
0.0
 20
0.0
 30
0.0
  9
$UCSORGLEFT
 10
0.0
 20
0.0
 30
0.0
  9
$UCSORGRIGHT
 10
0.0
 20
0.0
 30
0.0
  9
$UCSORGFRONT
 10
0.0
 20
0.0
 30
0.0
  9
$UCSORGBACK
 10
0.0
 20
0.0
 30
0.0
  9
$PUCSBASE
  2

  9
$PUCSNAME
  2

  9
$PUCSORG
 10
0.0
 20
0.0
 30
0.0
  9
$PUCSXDIR
 10
1.0
 20
0.0
 30
0.0
  9
$PUCSYDIR
 10
0.0
 20
1.0
 30
0.0
  9
$PUCSORTHOREF
  2

  9
$PUCSORTHOVIEW
 70
     0
  9
$PUCSORGTOP
 10
0.0
 20
0.0
 30
0.0
  9
$PUCSORGBOTTOM
 10
0.0
 20
0.0
 30
0.0
  9
$PUCSORGLEFT
 10
0.0
 20
0.0
 30
0.0
  9
$PUCSORGRIGHT
 10
0.0
 20
0.0
 30
0.0
  9
$PUCSORGFRONT
 10
0.0
 20
0.0
 30
0.0
  9
$PUCSORGBACK
 10
0.0
 20
0.0
 30
0.0
  9
$USERI1
 70
     0
  9
$USERI2
 70
     0
  9
$USERI3
 70
     0
  9
$USERI4
 70
     0
  9
$USERI5
 70
     0
  9
$USERR1
 40
0.0
  9
$USERR2
 40
0.0
  9
$USERR3
 40
0.0
  9
$USERR4
 40
0.0
  9
$USERR5
 40
0.0
  9
$WORLDVIEW
 70
     1
  9
$SHADEDGE
 70
     3
  9
$SHADEDIF
 70
    70
  9
$TILEMODE
 70
     1
  9
$MAXACTVP
 70
    64
  9
$PINSBASE
 10
0.0
 20
0.0
 30
0.0
  9
$PLIMCHECK
 70
     0
  9
$PEXTMIN
 10
1.0000000000E+20
 20
1.0000000000E+20
 30
1.0000000000E+20
  9
$PEXTMAX
 10
-1.0000000000E+20
 20
-1.0000000000E+20
 30
-1.0000000000E+20
  9
$PLIMMIN
 10
0.0
 20
0.0
  9
$PLIMMAX
 10
420.0
 20
297.0
  9
$UNITMODE
 70
     0
  9
$VISRETAIN
 70
     1
  9
$PLINEGEN
 70
     0
  9
$PSLTSCALE
 70
     1
  9
$TREEDEPTH
 70
  3020
  9
$CMLSTYLE
  2
Standard
  9
$CMLJUST
 70
     0
  9
$CMLSCALE
 40
20.0
  9
$PROXYGRAPHICS
 70
     1
  9
$MEASUREMENT
 70
     1
  9
$CELWEIGHT
370
    -1
  9
$ENDCAPS
280
     0
  9
$JOINSTYLE
280
     0
  9
$LWDISPLAY
290
     1
  9
$INSUNITS
 70
     4
  9
$HYPERLINKBASE
  1

  9
$STYLESHEET
  1

  9
$XEDIT
290
     1
  9
$CEPSNTYPE
380
     0
  9
$PSTYLEMODE
290
     1
  9
$FINGERPRINTGUID
  2
{94F74000-45F7-4DBD-96EA-3CCC6F9C5CF3}
  9
$VERSIONGUID
  2
{FAEB1C32-E019-11D5-929B-00C0DF256EC4}
  9
$EXTNAMES
290
     1
  9
$PSVPSCALE
 40
0.0
  9
$OLESTARTUP
290
     0
  0
ENDSEC
  0
SECTION
  2
CLASSES
  0
CLASS
  1
ACDBDICTIONARYWDFLT
  2
AcDbDictionaryWithDefault
  3
ObjectDBX Classes
 90
        0
280
     0
281
     0
  0
CLASS
  1
VISUALSTYLE
  2
AcDbVisualStyle
  3
ObjectDBX Classes
 90
     4095
280
     0
281
     0
  0
CLASS
  1
MATERIAL
  2
AcDbMaterial
  3
ObjectDBX Classes
 90
     1153
280
     0
281
     0
  0
CLASS
  1
SCALE
  2
AcDbScale
  3
ObjectDBX Classes
 90
     1153
280
     0
281
     0
  0
CLASS
  1
TABLESTYLE
  2
AcDbTableStyle
  3
ObjectDBX Classes
 90
     4095
280
     0
281
     0
  0
CLASS
  1
MLEADERSTYLE
  2
AcDbMLeaderStyle
  3
ACDB_MLEADERSTYLE_CLASS
 90
     4095
280
     0
281
     0
  0
CLASS
  1
SUN
  2
AcDbSun
  3
SCENEOE
 90
     1153
280
     0
281
     0
  0
CLASS
  1
ACDBPLACEHOLDER
  2
AcDbPlaceHolder
  3
ObjectDBX Classes
 90
        0
280
     0
281
     0
  0
CLASS
  1
LAYOUT
  2
AcDbLayout
  3
ObjectDBX Classes
 90
        0
280
     0
281
     0
  0
ENDSEC
  0
SECTION
  2
TABLES
  0
TABLE
  2
VPORT
  5
8
330
0
100
AcDbSymbolTable
 70
     1
  0
VPORT
  5
29
330
8
100
AcDbSymbolTableRecord
100
AcDbViewportTableRecord
  2
*Active
 70
     0
 10
0.0
 20
0.0
 11
1.0
 21
1.0
 12
105.0
 22
148.5
 13
0.0
 23
0.0
 14
10.0
 24
10.0
 15
10.0
 25
10.0
 16
0.0
 26
0.0
 36
1.0
 17
0.0
 27
0.0
 37
0.0
 40
297.0
 41
0.7070707071
 42
50.0
 43
0.0
 44
0.0
 50
0.0
 51
0.0
 71
     0
 72
  2000
 73
     1
 74
     3
 75
     0
 76
     0
 77
     0
 78
     0
281
     0
 65
     1
110
0.0
120
0.0
130
0.0
111
1.0
121
0.0
131
0.0
112
0.0
122
1.0
132
0.0
 79
     0
146
0.0
  0
ENDTAB
  0
TABLE
  2
LTYPE
  5
5
330
0
100
AcDbSymbolTable
 70
     6
  0
LTYPE
  5
14
330
5
100
AcDbSymbolTableRecord
100
AcDbLinetypeTableRecord
  2
ByBlock
 70
     0
  3

 72
    65
 73
     0
 40
0.0
  0
LTYPE
  5
15
330
5
100
AcDbSymbolTableRecord
100
AcDbLinetypeTableRecord
  2
ByLayer
 70
     0
  3

 72
    65
 73
     0
 40
0.0
  0
LTYPE
  5
16
330
5
100
AcDbSymbolTableRecord
100
AcDbLinetypeTableRecord
  2
Continuous
 70
     0
  3
Solid line
 72
    65
 73
     0
 40
0.0
  0
LTYPE
  5
6E
330
5
100
AcDbSymbolTableRecord
100
AcDbLinetypeTableRecord
  2
HIDDEN
 70
     0
  3
Hidden __ __ __ __ __ __ __ __ __ __ __ __ __ __
 72
    65
 73
     2
 40
1.905
 49
1.27
 74
     0
 49
-0.635
 74
     0
  0
LTYPE
  5
6F
330
5
100
AcDbSymbolTableRecord
100
AcDbLinetypeTableRecord
  2
PHANTOM
 70
     0
  3
Phantom ______  __  __  ______  __  __  ______
 72
    65
 73
     6
 40
12.7
 49
6.35
 74
     0
 49
-1.27
 74
     0
 49
1.27
 74
     0
 49
-1.27
 74
     0
 49
1.27
 74
     0
 49
-1.27
 74
     0
  0
LTYPE
  5
70
330
5
100
AcDbSymbolTableRecord
100
AcDbLinetypeTableRecord
  2
CENTER
 70
     0
  3
Center ____ _ ____ _ ____ _ ____ _ ____ _ ____
 72
    65
 73
     4
 40
10.16
 49
6.35
 74
     0
 49
-1.27
 74
     0
 49
1.27
 74
     0
 49
-1.27
 74
     0
  0
LTYPE
  5
71
330
5
100
AcDbSymbolTableRecord
100
AcDbLinetypeTableRecord
  2
CENTERX2
 70
     0
  3
Center (2x) ________  __  ________  __  _____
 72
    65
 73
     4
 40
20.32
 49
12.7
 74
     0
 49
-2.54
 74
     0
 49
2.54
 74
     0
 49
-2.54
 74
     0
  0
LTYPE
  5
72
330
5
100
AcDbSymbolTableRecord
100
AcDbLinetypeTableRecord
  2
DOT2
 70
     0
  3
Dot (.5x) ........................................
 72
    65
 73
     2
 40
0.635
 49
0.0
 74
     0
 49
-0.635
 74
     0
  0
ENDTAB
  0
TABLE
  2
LAYER
  5
2
330
0
100
AcDbSymbolTable
 70
     1
  0
LAYER
  5
10
330
2
100
AcDbSymbolTableRecord
100
AcDbLayerTableRecord
  2
0
 70
     0
 62
     7
  6
Continuous
370
    -3
390
F
  0
ENDTAB
  0
TABLE
  2
STYLE
  5
3
330
0
100
AcDbSymbolTable
 70
     2
  0
STYLE
  5
11
330
3
100
AcDbSymbolTableRecord
100
AcDbTextStyleTableRecord
  2
Standard
 70
     0
 40
0.0
 41
1.0
 50
0.0
 71
     0
 42
3.5
  3
txt
  4
bigfont
  0
STYLE
  5
7B
330
3
100
AcDbSymbolTableRecord
100
AcDbTextStyleTableRecord
  2
SLDTEXTSTYLE0
 70
     0
 40
0.0
 41
0.7
 50
0.0
 71
     0
 42
3.5
  3
TXT
  4
bigfont
  0
ENDTAB
  0
TABLE
  2
VIEW
  5
6
330
0
100
AcDbSymbolTable
 70
     0
  0
ENDTAB
  0
TABLE
  2
UCS
  5
7
330
0
100
AcDbSymbolTable
 70
     0
  0
ENDTAB
  0
TABLE
  2
APPID
  5
9
330
0
100
AcDbSymbolTable
 70
     1
  0
APPID
  5
12
330
9
100
AcDbSymbolTableRecord
100
AcDbRegAppTableRecord
  2
ACAD
 70
     0
  0
ENDTAB
  0
TABLE
  2
DIMSTYLE
  5
A
330
0
100
AcDbSymbolTable
 70
     6
100
AcDbDimStyleTable
  0
DIMSTYLE
105
27
330
A
100
AcDbSymbolTableRecord
100
AcDbDimStyleTableRecord
  2
ISO-25
 70
     0
 41
2.5
 42
0.625
 43
3.75
 44
1.25
 73
     0
 74
     0
 77
     1
 78
     8
140
2.5
141
2.5
143
0.0393700787
147
0.625
171
     3
172
     1
178
     0
271
     2
272
     2
274
     3
278
    44
283
     0
284
     8
340
11
  0
DIMSTYLE
105
153
102
{ACAD_REACTORS
330
152
330
15E
330
168
330
17F
330
189
330
193
330
19D
330
1A9
330
2A3
330
445
102
}
330
A
100
AcDbSymbolTableRecord
100
AcDbDimStyleTableRecord
  2
SLDDIMSTYLE0
 70
     0
 41
3.0
 44
0.0
 45
0.000000001
 73
     0
 74
     0
 77
     3
 78
    12
 79
     3
140
3.5
147
0.875
173
     1
178
     0
271
     1
272
     3
276
     2
284
    12
340
7B
  0
DIMSTYLE
105
173
102
{ACAD_REACTORS
330
172
330
44F
102
}
330
A
100
AcDbSymbolTableRecord
100
AcDbDimStyleTableRecord
  2
SLDDIMSTYLE1
 70
     0
 41
3.0
 44
0.0
 45
0.000000001
 73
     0
 74
     0
 77
     3
 78
    12
 79
     3
140
3.5
147
0.875
172
     1
173
     1
178
     0
271
     1
272
     3
276
     2
284
    12
289
     0
340
7B
  0
DIMSTYLE
105
1B6
102
{ACAD_REACTORS
330
1B5
102
}
330
A
100
AcDbSymbolTableRecord
100
AcDbDimStyleTableRecord
  2
SLDDIMSTYLE2
 70
     0
 41
3.0
 44
0.0
 45
0.000000001
 78
    12
 79
     3
140
3.5
141
0.0
147
0.875
173
     1
178
     0
271
     1
272
     3
276
     2
284
    12
340
7B
  0
DIMSTYLE
105
1C7
330
A
100
AcDbSymbolTableRecord
100
AcDbDimStyleTableRecord
  2
SLDDIMSTYLE3
 70
     0
 41
3.0
 44
0.0
 45
0.000000001
146
3.0
147
0.0
173
     1
178
     0
271
     0
272
     0
276
     2
340
11
  0
DIMSTYLE
105
297
102
{ACAD_REACTORS
330
296
102
}
330
A
100
AcDbSymbolTableRecord
100
AcDbDimStyleTableRecord
  2
SLDDIMSTYLE4
 70
     0
 41
3.0
 44
0.0
 45
0.000000001
 73
     0
 74
     0
 77
     3
 78
    12
 79
     3
140
3.5
147
0.875
173
     1
178
     0
271
     0
272
     3
276
     2
284
    12
340
7B
  0
ENDTAB
  0
TABLE
  2
BLOCK_RECORD
  5
1
330
0
100
AcDbSymbolTable
 70
    23
  0
BLOCK_RECORD
  5
1F
330
1
100
AcDbSymbolTableRecord
100
AcDbBlockTableRecord
  2
*Model_Space
340
22
  0
BLOCK_RECORD
  5
1B
330
1
100
AcDbSymbolTableRecord
100
AcDbBlockTableRecord
  2
*Paper_Space
340
1E
  0
BLOCK_RECORD
  5
23
330
1
100
AcDbSymbolTableRecord
100
AcDbBlockTableRecord
  2
*Paper_Space0
340
26
  0
BLOCK_RECORD
  5
154
330
1
100
AcDbSymbolTableRecord
100
AcDbBlockTableRecord
  2
_D
340
0
  0
BLOCK_RECORD
  5
15F
330
1
100
AcDbSymbolTableRecord
100
AcDbBlockTableRecord
  2
_D_1
340
0
  0
BLOCK_RECORD
  5
169
330
1
100
AcDbSymbolTableRecord
100
AcDbBlockTableRecord
  2
_D_2
340
0
  0
BLOCK_RECORD
  5
174
330
1
100
AcDbSymbolTableRecord
100
AcDbBlockTableRecord
  2
_D_3
340
0
  0
BLOCK_RECORD
  5
180
330
1
100
AcDbSymbolTableRecord
100
AcDbBlockTableRecord
  2
_D_4
340
0
  0
BLOCK_RECORD
  5
18A
330
1
100
AcDbSymbolTableRecord
100
AcDbBlockTableRecord
  2
_D_5
340
0
  0
BLOCK_RECORD
  5
194
330
1
100
AcDbSymbolTableRecord
100
AcDbBlockTableRecord
  2
_D_6
340
0
  0
BLOCK_RECORD
  5
19E
330
1
100
AcDbSymbolTableRecord
100
AcDbBlockTableRecord
  2
_D_7
340
0
  0
BLOCK_RECORD
  5
1AA
330
1
100
AcDbSymbolTableRecord
100
AcDbBlockTableRecord
  2
_D_8
340
0
  0
BLOCK_RECORD
  5
1B7
330
1
100
AcDbSymbolTableRecord
100
AcDbBlockTableRecord
  2
_D_9
340
0
  0
BLOCK_RECORD
  5
1C1
330
1
100
AcDbSymbolTableRecord
100
AcDbBlockTableRecord
  2
SW_NOTE_0
340
0
102
{BLKREFS
331
1C6
102
}
  0
BLOCK_RECORD
  5
1C9
330
1
100
AcDbSymbolTableRecord
100
AcDbBlockTableRecord
  2
SW_CENTERMARKSYMBOL_0
340
0
102
{BLKREFS
331
1D4
102
}
  0
BLOCK_RECORD
  5
1D5
330
1
100
AcDbSymbolTableRecord
100
AcDbBlockTableRecord
  2
SW_CENTERMARKSYMBOL_1
340
0
102
{BLKREFS
331
1E0
102
}
  0
BLOCK_RECORD
  5
1E1
330
1
100
AcDbSymbolTableRecord
100
AcDbBlockTableRecord
  2
SW_CENTERMARKSYMBOL_2
340
0
102
{BLKREFS
331
1EC
102
}
  0
BLOCK_RECORD
  5
1ED
330
1
100
AcDbSymbolTableRecord
100
AcDbBlockTableRecord
  2
SW_CENTERMARKSYMBOL_3
340
0
102
{BLKREFS
331
1F8
102
}
  0
BLOCK_RECORD
  5
1F9
330
1
100
AcDbSymbolTableRecord
100
AcDbBlockTableRecord
  2
SW_CENTERMARKSYMBOL_4
340
0
102
{BLKREFS
331
204
102
}
  0
BLOCK_RECORD
  5
298
330
1
100
AcDbSymbolTableRecord
100
AcDbBlockTableRecord
  2
_D_10
340
0
  0
BLOCK_RECORD
  5
2A4
330
1
100
AcDbSymbolTableRecord
100
AcDbBlockTableRecord
  2
_D_11
340
0
  0
BLOCK_RECORD
  5
2AF
330
1
100
AcDbSymbolTableRecord
100
AcDbBlockTableRecord
  2
SW_CENTERMARKSYMBOL_5
340
0
102
{BLKREFS
331
2BA
102
}
  0
BLOCK_RECORD
  5
446
330
1
100
AcDbSymbolTableRecord
100
AcDbBlockTableRecord
  2
_D_12
340
0
  0
BLOCK_RECORD
  5
450
330
1
100
AcDbSymbolTableRecord
100
AcDbBlockTableRecord
  2
_D_13
340
0
  0
BLOCK_RECORD
  5
45B
330
1
100
AcDbSymbolTableRecord
100
AcDbBlockTableRecord
  2
SW_NOTE_1
340
0
102
{BLKREFS
331
461
102
}
  0
ENDTAB
  0
ENDSEC
  0
SECTION
  2
BLOCKS
  0
BLOCK
  5
20
330
1F
100
AcDbEntity
  8
0
100
AcDbBlockBegin
  2
*Model_Space
 70
     0
 10
0.0
 20
0.0
 30
0.0
  3
*Model_Space
  1

  0
ENDBLK
  5
21
330
1F
100
AcDbEntity
  8
0
100
AcDbBlockEnd
  0
BLOCK
  5
1C
330
1B
100
AcDbEntity
 67
     1
  8
0
100
AcDbBlockBegin
  2
*Paper_Space
 70
     0
 10
0.0
 20
0.0
 30
0.0
  3
*Paper_Space
  1

  0
ENDBLK
  5
1D
330
1B
100
AcDbEntity
 67
     1
  8
0
100
AcDbBlockEnd
  0
BLOCK
  5
24
330
23
100
AcDbEntity
  8
0
100
AcDbBlockBegin
  2
*Paper_Space0
 70
     0
 10
0.0
 20
0.0
 30
0.0
  3
*Paper_Space0
  1

  0
ENDBLK
  5
25
330
23
100
AcDbEntity
  8
0
100
AcDbBlockEnd
  0
BLOCK
  5
155
330
154
100
AcDbEntity
  8
0
100
AcDbBlockBegin
  2
_D
 70
     0
 10
0.0
 20
0.0
 30
0.0
  3
_D
  1

  0
SOLID
  5
157
330
154
100
AcDbEntity
  8
0
  6
Continuous
 62
     7
370
     0
100
AcDbTrace
 10
76.6243464131
 20
94.609451244
 30
0.0
 11
79.6243464131
 21
93.859451244
 31
0.0
 12
79.6243464131
 22
95.359451244
 32
0.0
 13
79.6243464131
 23
95.359451244
 33
0.0
  0
SOLID
  5
158
330
154
100
AcDbEntity
  8
0
  6
Continuous
 62
     7
370
     0
100
AcDbTrace
 10
96.6243464131
 20
94.609451244
 30
0.0
 11
93.6243464131
 21
95.359451244
 31
0.0
 12
93.6243464131
 22
93.859451244
 32
0.0
 13
93.6243464131
 23
93.859451244
 33
0.0
  0
LINE
  5
159
330
154
100
AcDbEntity
  8
0
  6
Continuous
 62
     7
370
     0
100
AcDbLine
 10
76.6243464131
 20
112.5633708042
 30
0.0
 11
76.6243464131
 21
93.609451244
 31
0.0
  0
LINE
  5
15A
330
154
100
AcDbEntity
  8
0
  6
Continuous
 62
     7
370
     0
100
AcDbLine
 10
96.6243464131
 20
112.5633708042
 30
0.0
 11
96.6243464131
 21
93.609451244
 31
0.0
  0
LINE
  5
15B
330
154
100
AcDbEntity
  8
0
  6
Continuous
 62
     7
370
     0
100
AcDbLine
 10
76.6243464131
 20
94.609451244
 30
0.0
 11
96.6243464131
 21
94.609451244
 31
0.0
  0
MTEXT
  5
15C
330
154
100
AcDbEntity
  8
0
  6
Continuous
 62
     7
370
     0
100
AcDbMText
 10
82.6525755417
 20
99.121188566
 30
0.0
 40
3.5
 41
0.0
 71
     1
 72
     1
  1
%%c
  7
SLDTEXTSTYLE0
 73
     1
 44
1.0
  0
MTEXT
  5
15D
330
154
100
AcDbEntity
  8
0
  6
Continuous
 62
     7
370
     0
100
AcDbMText
 10
86.5225060567
 20
99.121188566
 30
0.0
 40
3.5
 41
0.0
 71
     1
 72
     1
  1
20
  7
SLDTEXTSTYLE0
 73
     1
 44
1.0
  0
ENDBLK
  5
156
330
154
100
AcDbEntity
  8
0
100
AcDbBlockEnd
  0
BLOCK
  5
160
330
15F
100
AcDbEntity
  8
0
100
AcDbBlockBegin
  2
_D_1
 70
     0
 10
0.0
 20
0.0
 30
0.0
  3
_D_1
  1

  0
SOLID
  5
162
330
15F
100
AcDbEntity
  8
0
  6
Continuous
 62
     7
370
     0
100
AcDbTrace
 10
70.6243464131
 20
88.9788066568
 30
0.0
 11
73.6243464131
 21
88.2288066568
 31
0.0
 12
73.6243464131
 22
89.7288066568
 32
0.0
 13
73.6243464131
 23
89.7288066568
 33
0.0
  0
SOLID
  5
163
330
15F
100
AcDbEntity
  8
0
  6
Continuous
 62
     7
370
     0
100
AcDbTrace
 10
102.6243464131
 20
88.9788066568
 30
0.0
 11
99.6243464131
 21
89.7288066568
 31
0.0
 12
99.6243464131
 22
88.2288066568
 32
0.0
 13
99.6243464131
 23
88.2288066568
 33
0.0
  0
LINE
  5
164
330
15F
100
AcDbEntity
  8
0
  6
Continuous
 62
     7
370
     0
100
AcDbLine
 10
70.6243464131
 20
141.5633708042
 30
0.0
 11
70.6243464131
 21
87.9788066568
 31
0.0
  0
LINE
  5
165
330
15F
100
AcDbEntity
  8
0
  6
Continuous
 62
     7
370
     0
100
AcDbLine
 10
102.6243464131
 20
141.5633708042
 30
0.0
 11
102.6243464131
 21
87.9788066568
 31
0.0
  0
LINE
  5
166
330
15F
100
AcDbEntity
  8
0
  6
Continuous
 62
     7
370
     0
100
AcDbLine
 10
70.6243464131
 20
88.9788066568
 30
0.0
 11
102.6243464131
 21
88.9788066568
 31
0.0
  0
MTEXT
  5
167
330
15F
100
AcDbEntity
  8
0
  6
Continuous
 62
     7
370
     0
100
AcDbMText
 10
84.5875409156
 20
93.4905435131
 30
0.0
 40
3.5
 41
0.0
 71
     1
 72
     1
  1
32
  7
SLDTEXTSTYLE0
 73
     1
 44
1.0
  0
ENDBLK
  5
161
330
15F
100
AcDbEntity
  8
0
100
AcDbBlockEnd
  0
BLOCK
  5
16A
330
169
100
AcDbEntity
  8
0
100
AcDbBlockBegin
  2
_D_2
 70
     0
 10
0.0
 20
0.0
 30
0.0
  3
_D_2
  1

  0
SOLID
  5
16C
330
169
100
AcDbEntity
  8
0
  6
Continuous
 62
     7
370
     0
100
AcDbTrace
 10
107.6243464131
 20
83.3481620695
 30
0.0
 11
104.6243464131
 21
84.0981620695
 31
0.0
 12
104.6243464131
 22
82.5981620695
 32
0.0
 13
104.6243464131
 23
82.5981620695
 33
0.0
  0
SOLID
  5
16D
330
169
100
AcDbEntity
  8
0
  6
Continuous
 62
     7
370
     0
100
AcDbTrace
 10
65.6243464131
 20
83.3481620695
 30
0.0
 11
68.6243464131
 21
82.5981620695
 31
0.0
 12
68.6243464131
 22
84.0981620695
 32
0.0
 13
68.6243464131
 23
84.0981620695
 33
0.0
  0
LINE
  5
16E
330
169
100
AcDbEntity
  8
0
  6
Continuous
 62
     7
370
     0
100
AcDbLine
 10
107.6243464131
 20
136.5633708042
 30
0.0
 11
107.6243464131
 21
82.3481620695
 31
0.0
  0
LINE
  5
16F
330
169
100
AcDbEntity
  8
0
  6
Continuous
 62
     7
370
     0
100
AcDbLine
 10
65.6243464131
 20
136.5633708042
 30
0.0
 11
65.6243464131
 21
82.3481620695
 31
0.0
  0
LINE
  5
170
330
169
100
AcDbEntity
  8
0
  6
Continuous
 62
     7
370
     0
100
AcDbLine
 10
107.6243464131
 20
83.3481620695
 30
0.0
 11
65.6243464131
 21
83.3481620695
 31
0.0
  0
MTEXT
  5
171
330
169
100
AcDbEntity
  8
0
  6
Continuous
 62
     7
370
     0
100
AcDbMText
 10
84.5875409156
 20
87.8598989259
 30
0.0
 40
3.5
 41
0.0
 71
     1
 72
     1
  1
42
  7
SLDTEXTSTYLE0
 73
     1
 44
1.0
  0
ENDBLK
  5
16B
330
169
100
AcDbEntity
  8
0
100
AcDbBlockEnd
  0
BLOCK
  5
175
330
174
100
AcDbEntity
  8
0
100
AcDbBlockBegin
  2
_D_3
 70
     0
 10
0.0
 20
0.0
 30
0.0
  3
_D_3
  1

  0
SOLID
  5
177
330
174
100
AcDbEntity
  8
0
  6
Continuous
 62
     7
370
     0
100
AcDbTrace
 10
122.3794238585
 20
137.5633708042
 30
0.0
 11
121.6294238585
 21
134.5633708042
 31
0.0
 12
123.1294238585
 22
134.5633708042
 32
0.0
 13
123.1294238585
 23
134.5633708042
 33
0.0
  0
SOLID
  5
178
330
174
100
AcDbEntity
  8
0
  6
Continuous
 62
     7
370
     0
100
AcDbTrace
 10
122.3794238585
 20
142.5633708042
 30
0.0
 11
123.1294238585
 21
145.5633708042
 31
0.0
 12
121.6294238585
 22
145.5633708042
 32
0.0
 13
121.6294238585
 23
145.5633708042
 33
0.0
  0
LINE
  5
179
330
174
100
AcDbEntity
  8
0
  6
Continuous
 62
     7
370
     0
100
AcDbLine
 10
108.6243464131
 20
137.5633708042
 30
0.0
 11
123.3794238585
 21
137.5633708042
 31
0.0
  0
LINE
  5
17A
330
174
100
AcDbEntity
  8
0
  6
Continuous
 62
     7
370
     0
100
AcDbLine
 10
103.6243464131
 20
142.5633708042
 30
0.0
 11
123.3794238585
 21
142.5633708042
 31
0.0
  0
LINE
  5
17B
330
174
100
AcDbEntity
  8
0
  6
Continuous
 62
     7
370
     0
100
AcDbLine
 10
122.3794238585
 20
137.5633708042
 30
0.0
 11
122.3794238585
 21
132.5633708042
 31
0.0
  0
LINE
  5
17C
330
174
100
AcDbEntity
  8
0
  6
Continuous
 62
     7
370
     0
100
AcDbLine
 10
122.3794238585
 20
137.5633708042
 30
0.0
 11
122.3794238585
 21
142.5633708042
 31
0.0
  0
LINE
  5
17D
330
174
100
AcDbEntity
  8
0
  6
Continuous
 62
     7
370
     0
100
AcDbLine
 10
122.3794238585
 20
142.5633708042
 30
0.0
 11
122.3794238585
 21
147.5633708042
 31
0.0
  0
MTEXT
  5
17E
330
174
100
AcDbEntity
  8
0
  6
Continuous
 62
     7
370
     0
100
AcDbMText
 10
117.8676870021
 20
139.0449680554
 30
0.0
 40
3.5
 41
0.0
 71
     1
 72
     1
  1
5
  7
SLDTEXTSTYLE0
 11
-1.037486409151910E-14
 21
1.0
 31
0.0
 73
     1
 44
1.0
  0
ENDBLK
  5
176
330
174
100
AcDbEntity
  8
0
100
AcDbBlockEnd
  0
BLOCK
  5
181
330
180
100
AcDbEntity
  8
0
100
AcDbBlockBegin
  2
_D_4
 70
     0
 10
0.0
 20
0.0
 30
0.0
  3
_D_4
  1

  0
SOLID
  5
183
330
180
100
AcDbEntity
  8
0
  6
Continuous
 62
     7
370
     0
100
AcDbTrace
 10
122.3794238585
 20
142.5633708042
 30
0.0
 11
123.1294238585
 21
145.5633708042
 31
0.0
 12
121.6294238585
 22
145.5633708042
 32
0.0
 13
121.6294238585
 23
145.5633708042
 33
0.0
  0
SOLID
  5
184
330
180
100
AcDbEntity
  8
0
  6
Continuous
 62
     7
370
     0
100
AcDbTrace
 10
122.3794238585
 20
185.5633708042
 30
0.0
 11
121.6294238585
 21
182.5633708042
 31
0.0
 12
123.1294238585
 22
182.5633708042
 32
0.0
 13
123.1294238585
 23
182.5633708042
 33
0.0
  0
LINE
  5
185
330
180
100
AcDbEntity
  8
0
  6
Continuous
 62
     7
370
     0
100
AcDbLine
 10
103.6243464131
 20
142.5633708042
 30
0.0
 11
123.3794238585
 21
142.5633708042
 31
0.0
  0
LINE
  5
186
330
180
100
AcDbEntity
  8
0
  6
Continuous
 62
     7
370
     0
100
AcDbLine
 10
87.6243464131
 20
185.5633708042
 30
0.0
 11
123.3794238585
 21
185.5633708042
 31
0.0
  0
LINE
  5
187
330
180
100
AcDbEntity
  8
0
  6
Continuous
 62
     7
370
     0
100
AcDbLine
 10
122.3794238585
 20
142.5633708042
 30
0.0
 11
122.3794238585
 21
185.5633708042
 31
0.0
  0
MTEXT
  5
188
330
180
100
AcDbEntity
  8
0
  6
Continuous
 62
     7
370
     0
100
AcDbMText
 10
117.8676870021
 20
162.0265653067
 30
0.0
 40
3.5
 41
0.0
 71
     1
 72
     1
  1
43
  7
SLDTEXTSTYLE0
 11
6.123233995736766E-17
 21
1.0
 31
0.0
 73
     1
 44
1.0
  0
ENDBLK
  5
182
330
180
100
AcDbEntity
  8
0
100
AcDbBlockEnd
  0
BLOCK
  5
18B
330
18A
100
AcDbEntity
  8
0
100
AcDbBlockBegin
  2
_D_5
 70
     0
 10
0.0
 20
0.0
 30
0.0
  3
_D_5
  1

  0
SOLID
  5
18D
330
18A
100
AcDbEntity
  8
0
  6
Continuous
 62
     7
370
     0
100
AcDbTrace
 10
132.0806702949
 20
207.7550374642
 30
0.0
 11
131.3306702949
 21
204.7550374642
 31
0.0
 12
132.8306702949
 22
204.7550374642
 32
0.0
 13
132.8306702949
 23
204.7550374642
 33
0.0
  0
SOLID
  5
18E
330
18A
100
AcDbEntity
  8
0
  6
Continuous
 62
     7
370
     0
100
AcDbTrace
 10
132.0806702949
 20
137.5633708042
 30
0.0
 11
132.8306702949
 21
140.5633708042
 31
0.0
 12
131.3306702949
 22
140.5633708042
 32
0.0
 13
131.3306702949
 23
140.5633708042
 33
0.0
  0
LINE
  5
18F
330
18A
100
AcDbEntity
  8
0
  6
Continuous
 62
     7
370
     0
100
AcDbLine
 10
93.6243464131
 20
207.7550374642
 30
0.0
 11
133.0806702949
 21
207.7550374642
 31
0.0
  0
LINE
  5
190
330
18A
100
AcDbEntity
  8
0
  6
Continuous
 62
     7
370
     0
100
AcDbLine
 10
108.6243464131
 20
137.5633708042
 30
0.0
 11
133.0806702949
 21
137.5633708042
 31
0.0
  0
LINE
  5
191
330
18A
100
AcDbEntity
  8
0
  6
Continuous
 62
     7
370
     0
100
AcDbLine
 10
132.0806702949
 20
207.7550374642
 30
0.0
 11
132.0806702949
 21
137.5633708042
 31
0.0
  0
MTEXT
  5
192
330
18A
100
AcDbEntity
  8
0
  6
Continuous
 62
     7
370
     0
100
AcDbMText
 10
127.5689334385
 20
168.5855931392
 30
0.0
 40
3.5
 41
0.0
 71
     1
 72
     1
  1
70.2
  7
SLDTEXTSTYLE0
 11
-1.770233605404514E-14
 21
1.0
 31
0.0
 73
     1
 44
1.0
  0
ENDBLK
  5
18C
330
18A
100
AcDbEntity
  8
0
100
AcDbBlockEnd
  0
BLOCK
  5
195
330
194
100
AcDbEntity
  8
0
100
AcDbBlockBegin
  2
_D_6
 70
     0
 10
0.0
 20
0.0
 30
0.0
  3
_D_6
  1

  0
SOLID
  5
197
330
194
100
AcDbEntity
  8
0
  6
Continuous
 62
     7
370
     0
100
AcDbTrace
 10
132.0806702949
 20
137.5633708042
 30
0.0
 11
131.3306702949
 21
134.5633708042
 31
0.0
 12
132.8306702949
 22
134.5633708042
 32
0.0
 13
132.8306702949
 23
134.5633708042
 33
0.0
  0
SOLID
  5
198
330
194
100
AcDbEntity
  8
0
  6
Continuous
 62
     7
370
     0
100
AcDbTrace
 10
132.0806702949
 20
112.5633708042
 30
0.0
 11
132.8306702949
 21
115.5633708042
 31
0.0
 12
131.3306702949
 22
115.5633708042
 32
0.0
 13
131.3306702949
 23
115.5633708042
 33
0.0
  0
LINE
  5
199
330
194
100
AcDbEntity
  8
0
  6
Continuous
 62
     7
370
     0
100
AcDbLine
 10
108.6243464131
 20
137.5633708042
 30
0.0
 11
133.0806702949
 21
137.5633708042
 31
0.0
  0
LINE
  5
19A
330
194
100
AcDbEntity
  8
0
  6
Continuous
 62
     7
370
     0
100
AcDbLine
 10
96.6243464131
 20
112.5633708042
 30
0.0
 11
133.0806702949
 21
112.5633708042
 31
0.0
  0
LINE
  5
19B
330
194
100
AcDbEntity
  8
0
  6
Continuous
 62
     7
370
     0
100
AcDbLine
 10
132.0806702949
 20
137.5633708042
 30
0.0
 11
132.0806702949
 21
112.5633708042
 31
0.0
  0
MTEXT
  5
19C
330
194
100
AcDbEntity
  8
0
  6
Continuous
 62
     7
370
     0
100
AcDbMText
 10
127.5689334385
 20
123.0265653067
 30
0.0
 40
3.5
 41
0.0
 71
     1
 72
     1
  1
25
  7
SLDTEXTSTYLE0
 11
-1.770233605404514E-14
 21
1.0
 31
0.0
 73
     1
 44
1.0
  0
ENDBLK
  5
196
330
194
100
AcDbEntity
  8
0
100
AcDbBlockEnd
  0
BLOCK
  5
19F
330
19E
100
AcDbEntity
  8
0
100
AcDbBlockBegin
  2
_D_7
 70
     0
 10
0.0
 20
0.0
 30
0.0
  3
_D_7
  1

  0
ARC
  5
1A1
330
19E
100
AcDbEntity
  8
0
  6
Continuous
 62
     7
370
     0
100
AcDbCircle
 10
142.0438647974
 20
177.0241488428
 30
0.0
 40
4.554435549315953
100
AcDbArc
 50
243.4349488229
 51
296.5650511771
  0
ARC
  5
1A2
330
19E
100
AcDbEntity
  8
0
  6
Continuous
 62
     7
370
     0
100
AcDbCircle
 10
142.0438647974
 20
174.9873435781
 30
0.0
 40
4.554435549315978
100
AcDbArc
 50
63.4349488229
 51
116.5650511771
  0
SOLID
  5
1A3
330
19E
100
AcDbEntity
  8
0
  6
Continuous
 62
     7
370
     0
100
AcDbTrace
 10
144.0806702949
 20
249.4481217332
 30
0.0
 11
143.3306702949
 21
246.4481217332
 31
0.0
 12
144.8306702949
 22
246.4481217332
 32
0.0
 13
144.8306702949
 23
246.4481217332
 33
0.0
  0
SOLID
  5
1A4
330
19E
100
AcDbEntity
  8
0
  6
Continuous
 62
     7
370
     0
100
AcDbTrace
 10
144.0806702949
 20
102.5633708042
 30
0.0
 11
144.8306702949
 21
105.5633708042
 31
0.0
 12
143.3306702949
 22
105.5633708042
 32
0.0
 13
143.3306702949
 23
105.5633708042
 33
0.0
  0
LINE
  5
1A5
330
19E
100
AcDbEntity
  8
0
  6
Continuous
 62
     7
370
     0
100
AcDbLine
 10
98.4652507155
 20
249.4481217332
 30
0.0
 11
145.0806702949
 21
249.4481217332
 31
0.0
  0
LINE
  5
1A6
330
19E
100
AcDbEntity
  8
0
  6
Continuous
 62
     7
370
     0
100
AcDbLine
 10
89.6243464131
 20
102.5633708042
 30
0.0
 11
145.0806702949
 21
102.5633708042
 31
0.0
  0
LINE
  5
1A7
330
19E
100
AcDbEntity
  8
0
  6
Continuous
 62
     7
370
     0
100
AcDbLine
 10
144.0806702949
 20
249.4481217332
 30
0.0
 11
144.0806702949
 21
102.5633708042
 31
0.0
  0
MTEXT
  5
1A8
330
19E
100
AcDbEntity
  8
0
  6
Continuous
 62
     7
370
     0
100
AcDbMText
 10
139.5689334385
 20
172.9505378478
 30
0.0
 40
3.5
 41
0.0
 71
     1
 72
     1
  1
147
  7
SLDTEXTSTYLE0
 11
-7.044195017643634E-15
 21
1.0
 31
0.0
 73
     1
 44
1.0
  0
ENDBLK
  5
1A0
330
19E
100
AcDbEntity
  8
0
100
AcDbBlockEnd
  0
BLOCK
  5
1AB
330
1AA
100
AcDbEntity
  8
0
100
AcDbBlockBegin
  2
_D_8
 70
     0
 10
0.0
 20
0.0
 30
0.0
  3
_D_8
  1

  0
ARC
  5
1AD
330
1AA
100
AcDbEntity
  8
0
  6
Continuous
 62
     7
370
     0
100
AcDbCircle
 10
88.6611518524
 20
263.6227608076
 30
0.0
 40
4.554435549315978
100
AcDbArc
 50
153.4349488229
 51
206.5650511771
  0
ARC
  5
1AE
330
1AA
100
AcDbEntity
  8
0
  6
Continuous
 62
     7
370
     0
100
AcDbCircle
 10
84.5875408574
 20
263.6227608076
 30
0.0
 40
4.554435549315978
100
AcDbArc
 50
333.4349488229
 51
26.5650511771
  0
SOLID
  5
1AF
330
1AA
100
AcDbEntity
  8
0
  6
Continuous
 62
     7
370
     0
100
AcDbTrace
 10
75.7834421107
 20
261.5859553101
 30
0.0
 11
78.7834421107
 21
260.8359553101
 31
0.0
 12
78.7834421107
 22
262.3359553101
 32
0.0
 13
78.7834421107
 23
262.3359553101
 33
0.0
  0
SOLID
  5
1B0
330
1AA
100
AcDbEntity
  8
0
  6
Continuous
 62
     7
370
     0
100
AcDbTrace
 10
97.4652507155
 20
261.5859553101
 30
0.0
 11
94.4652507155
 21
262.3359553101
 31
0.0
 12
94.4652507155
 22
260.8359553101
 32
0.0
 13
94.4652507155
 23
260.8359553101
 33
0.0
  0
LINE
  5
1B1
330
1AA
100
AcDbEntity
  8
0
  6
Continuous
 62
     7
370
     0
100
AcDbLine
 10
75.7834421107
 20
250.4481217332
 30
0.0
 11
75.7834421107
 21
262.5859553101
 31
0.0
  0
LINE
  5
1B2
330
1AA
100
AcDbEntity
  8
0
  6
Continuous
 62
     7
370
     0
100
AcDbLine
 10
97.4652507155
 20
250.4481217332
 30
0.0
 11
97.4652507155
 21
262.5859553101
 31
0.0
  0
LINE
  5
1B3
330
1AA
100
AcDbEntity
  8
0
  6
Continuous
 62
     7
370
     0
100
AcDbLine
 10
75.7834421107
 20
261.5859553101
 30
0.0
 11
97.4652507155
 21
261.5859553101
 31
0.0
  0
MTEXT
  5
1B4
330
1AA
100
AcDbEntity
  8
0
  6
Continuous
 62
     7
370
     0
100
AcDbMText
 10
84.5875408574
 20
266.0976921665
 30
0.0
 40
3.5
 41
0.0
 71
     1
 72
     1
  1
21
  7
SLDTEXTSTYLE0
 73
     1
 44
1.0
  0
ENDBLK
  5
1AC
330
1AA
100
AcDbEntity
  8
0
100
AcDbBlockEnd
  0
BLOCK
  5
1B8
330
1B7
100
AcDbEntity
  8
0
100
AcDbBlockBegin
  2
_D_9
 70
     0
 10
0.0
 20
0.0
 30
0.0
  3
_D_9
  1

  0
SOLID
  5
1BA
330
1B7
100
AcDbEntity
  8
0
  6
Continuous
 62
     7
370
     0
100
AcDbTrace
 10
68.5030260695
 20
144.6846911477
 30
0.0
 11
66.9120358119
 21
147.3363415772
 31
0.0
 12
65.8513756401
 22
146.2756814054
 32
0.0
 13
65.8513756401
 23
146.2756814054
 33
0.0
  0
LINE
  5
1BB
330
1B7
100
AcDbEntity
  8
0
  6
Continuous
 62
     7
370
     0
100
AcDbLine
 10
68.5030260695
 20
144.6846911477
 30
0.0
 11
56.7095204655
 21
156.4781967518
 31
0.0
  0
LINE
  5
1BC
330
1B7
100
AcDbEntity
  8
0
  6
Continuous
 62
     7
370
     0
100
AcDbLine
 10
56.7095204655
 20
156.4781967518
 30
0.0
 11
22.533136231
 21
156.4781967518
 31
0.0
  0
MTEXT
  5
1BD
330
1B7
100
AcDbEntity
  8
0
  6
Continuous
 62
     7
370
     0
100
AcDbMText
 10
28.6435510937
 20
165.0635446031
 30
0.0
 40
3.5
 41
0.0
 71
     1
 72
     1
  1
3-
  7
SLDTEXTSTYLE0
 73
     1
 44
1.0
  0
MTEXT
  5
1BE
330
1B7
100
AcDbEntity
  8
0
  6
Continuous
 62
     7
370
     0
100
AcDbMText
 10
32.7171620886
 20
165.0635446031
 30
0.0
 40
3.5
 41
0.0
 71
     1
 72
     1
  1
M6
  7
SLDTEXTSTYLE0
 73
     1
 44
1.0
  0
MTEXT
  5
1BF
330
1B7
100
AcDbEntity
  8
0
  6
Continuous
 62
     7
370
     0
100
AcDbMText
 10
36.7907730836
 20
165.0635446031
 30
0.0
 40
3.5
 41
0.0
 71
     1
 72
     1
  1
取付穴
  7
SLDTEXTSTYLE0
 73
     1
 44
1.0
  0
MTEXT
  5
1C0
330
1B7
100
AcDbEntity
  8
0
  6
Continuous
 62
     7
370
     0
100
AcDbMText
 10
22.533136231
 20
160.9899336081
 30
0.0
 40
3.5
 41
0.0
 71
     1
 72
     1
  1
(両側口元面取有)
  7
SLDTEXTSTYLE0
 73
     1
 44
1.0
  0
ENDBLK
  5
1B9
330
1B7
100
AcDbEntity
  8
0
100
AcDbBlockEnd
  0
BLOCK
  5
1C2
330
1C1
100
AcDbEntity
  8
0
100
AcDbBlockBegin
  2
SW_NOTE_0
 70
     0
 10
0.0
 20
0.0
 30
0.0
  3
SW_NOTE_0
  1

  0
LINE
  5
1C4
330
1C1
100
AcDbEntity
  8
0
  6
Continuous
 62
     0
370
     0
100
AcDbLine
 10
-8.2682873652
 20
0.0
 30
0.0
 11
0.0
 21
0.0
 31
0.0
  0
MTEXT
  5
1C5
330
1C1
100
AcDbEntity
  8
0
  6
Continuous
 62
     0
370
     0
100
AcDbMText
 10
-8.706733877
 20
4.5496994502
 30
0.0
 40
3.5
 41
0.0
 71
     1
 72
     1
  1
BF-6
  7
SLDTEXTSTYLE0
 73
     1
 44
1.0
  0
ENDBLK
  5
1C3
330
1C1
100
AcDbEntity
  8
0
100
AcDbBlockEnd
  0
BLOCK
  5
1CA
330
1C9
100
AcDbEntity
  8
0
100
AcDbBlockBegin
  2
SW_CENTERMARKSYMBOL_0
 70
     0
 10
0.0
 20
0.0
 30
0.0
  3
SW_CENTERMARKSYMBOL_0
  1

  0
LINE
  5
1CC
330
1C9
100
AcDbEntity
  8
0
  6
Continuous
 62
     0
370
     0
100
AcDbLine
 10
0.0
 20
0.0
 30
0.0
 11
0.0
 21
2.5
 31
0.0
  0
LINE
  5
1CD
330
1C9
100
AcDbEntity
  8
0
  6
Continuous
 62
     0
370
     0
100
AcDbLine
 10
0.0
 20
0.0
 30
0.0
 11
-2.5
 21
0.0
 31
0.0
  0
LINE
  5
1CE
330
1C9
100
AcDbEntity
  8
0
  6
Continuous
 62
     0
370
     0
100
AcDbLine
 10
0.0
 20
0.0
 30
0.0
 11
0.0
 21
-2.5
 31
0.0
  0
LINE
  5
1CF
330
1C9
100
AcDbEntity
  8
0
  6
Continuous
 62
     0
370
     0
100
AcDbLine
 10
0.0
 20
0.0
 30
0.0
 11
2.5
 21
0.0
 31
0.0
  0
LINE
  5
1D0
330
1C9
100
AcDbEntity
  8
0
  6
Continuous
 62
     0
370
     0
100
AcDbLine
 10
0.0
 20
2.5
 30
0.0
 11
0.0
 21
4.5
 31
0.0
  0
LINE
  5
1D1
330
1C9
100
AcDbEntity
  8
0
  6
Continuous
 62
     0
370
     0
100
AcDbLine
 10
-2.5
 20
0.0
 30
0.0
 11
-4.5
 21
0.0
 31
0.0
  0
LINE
  5
1D2
330
1C9
100
AcDbEntity
  8
0
  6
Continuous
 62
     0
370
     0
100
AcDbLine
 10
0.0
 20
-2.5
 30
0.0
 11
0.0
 21
-4.5
 31
0.0
  0
LINE
  5
1D3
330
1C9
100
AcDbEntity
  8
0
  6
Continuous
 62
     0
370
     0
100
AcDbLine
 10
2.5
 20
0.0
 30
0.0
 11
4.5
 21
0.0
 31
0.0
  0
ENDBLK
  5
1CB
330
1C9
100
AcDbEntity
  8
0
100
AcDbBlockEnd
  0
BLOCK
  5
1D6
330
1D5
100
AcDbEntity
  8
0
100
AcDbBlockBegin
  2
SW_CENTERMARKSYMBOL_1
 70
     0
 10
0.0
 20
0.0
 30
0.0
  3
SW_CENTERMARKSYMBOL_1
  1

  0
LINE
  5
1D8
330
1D5
100
AcDbEntity
  8
0
  6
Continuous
 62
     0
370
     0
100
AcDbLine
 10
0.0
 20
0.0
 30
0.0
 11
0.0
 21
2.5
 31
0.0
  0
LINE
  5
1D9
330
1D5
100
AcDbEntity
  8
0
  6
Continuous
 62
     0
370
     0
100
AcDbLine
 10
0.0
 20
0.0
 30
0.0
 11
-2.5
 21
0.0
 31
0.0
  0
LINE
  5
1DA
330
1D5
100
AcDbEntity
  8
0
  6
Continuous
 62
     0
370
     0
100
AcDbLine
 10
0.0
 20
0.0
 30
0.0
 11
0.0
 21
-2.5
 31
0.0
  0
LINE
  5
1DB
330
1D5
100
AcDbEntity
  8
0
  6
Continuous
 62
     0
370
     0
100
AcDbLine
 10
0.0
 20
0.0
 30
0.0
 11
2.5
 21
0.0
 31
0.0
  0
LINE
  5
1DC
330
1D5
100
AcDbEntity
  8
0
  6
Continuous
 62
     0
370
     0
100
AcDbLine
 10
0.0
 20
5.0
 30
0.0
 11
0.0
 21
5.75
 31
0.0
  0
LINE
  5
1DD
330
1D5
100
AcDbEntity
  8
0
  6
Continuous
 62
     0
370
     0
100
AcDbLine
 10
-5.0
 20
0.0
 30
0.0
 11
-5.75
 21
0.0
 31
0.0
  0
LINE
  5
1DE
330
1D5
100
AcDbEntity
  8
0
  6
Continuous
 62
     0
370
     0
100
AcDbLine
 10
0.0
 20
-5.0
 30
0.0
 11
0.0
 21
-5.75
 31
0.0
  0
LINE
  5
1DF
330
1D5
100
AcDbEntity
  8
0
  6
Continuous
 62
     0
370
     0
100
AcDbLine
 10
5.0
 20
0.0
 30
0.0
 11
5.75
 21
0.0
 31
0.0
  0
ENDBLK
  5
1D7
330
1D5
100
AcDbEntity
  8
0
100
AcDbBlockEnd
  0
BLOCK
  5
1E2
330
1E1
100
AcDbEntity
  8
0
100
AcDbBlockBegin
  2
SW_CENTERMARKSYMBOL_2
 70
     0
 10
0.0
 20
0.0
 30
0.0
  3
SW_CENTERMARKSYMBOL_2
  1

  0
LINE
  5
1E4
330
1E1
100
AcDbEntity
  8
0
  6
Continuous
 62
     0
370
     0
100
AcDbLine
 10
0.0
 20
0.0
 30
0.0
 11
0.0
 21
2.5
 31
0.0
  0
LINE
  5
1E5
330
1E1
100
AcDbEntity
  8
0
  6
Continuous
 62
     0
370
     0
100
AcDbLine
 10
0.0
 20
0.0
 30
0.0
 11
-2.5
 21
0.0
 31
0.0
  0
LINE
  5
1E6
330
1E1
100
AcDbEntity
  8
0
  6
Continuous
 62
     0
370
     0
100
AcDbLine
 10
0.0
 20
0.0
 30
0.0
 11
0.0
 21
-2.5
 31
0.0
  0
LINE
  5
1E7
330
1E1
100
AcDbEntity
  8
0
  6
Continuous
 62
     0
370
     0
100
AcDbLine
 10
0.0
 20
0.0
 30
0.0
 11
2.5
 21
0.0
 31
0.0
  0
LINE
  5
1E8
330
1E1
100
AcDbEntity
  8
0
  6
Continuous
 62
     0
370
     0
100
AcDbLine
 10
0.0
 20
5.0
 30
0.0
 11
0.0
 21
5.5
 31
0.0
  0
LINE
  5
1E9
330
1E1
100
AcDbEntity
  8
0
  6
Continuous
 62
     0
370
     0
100
AcDbLine
 10
-5.0
 20
0.0
 30
0.0
 11
-5.5
 21
0.0
 31
0.0
  0
LINE
  5
1EA
330
1E1
100
AcDbEntity
  8
0
  6
Continuous
 62
     0
370
     0
100
AcDbLine
 10
0.0
 20
-5.0
 30
0.0
 11
0.0
 21
-5.5
 31
0.0
  0
LINE
  5
1EB
330
1E1
100
AcDbEntity
  8
0
  6
Continuous
 62
     0
370
     0
100
AcDbLine
 10
5.0
 20
0.0
 30
0.0
 11
5.5
 21
0.0
 31
0.0
  0
ENDBLK
  5
1E3
330
1E1
100
AcDbEntity
  8
0
100
AcDbBlockEnd
  0
BLOCK
  5
1EE
330
1ED
100
AcDbEntity
  8
0
100
AcDbBlockBegin
  2
SW_CENTERMARKSYMBOL_3
 70
     0
 10
0.0
 20
0.0
 30
0.0
  3
SW_CENTERMARKSYMBOL_3
  1

  0
LINE
  5
1F0
330
1ED
100
AcDbEntity
  8
0
  6
Continuous
 62
     0
370
     0
100
AcDbLine
 10
0.0
 20
0.0
 30
0.0
 11
0.0
 21
2.5
 31
0.0
  0
LINE
  5
1F1
330
1ED
100
AcDbEntity
  8
0
  6
Continuous
 62
     0
370
     0
100
AcDbLine
 10
0.0
 20
0.0
 30
0.0
 11
-2.5
 21
0.0
 31
0.0
  0
LINE
  5
1F2
330
1ED
100
AcDbEntity
  8
0
  6
Continuous
 62
     0
370
     0
100
AcDbLine
 10
0.0
 20
0.0
 30
0.0
 11
0.0
 21
-2.5
 31
0.0
  0
LINE
  5
1F3
330
1ED
100
AcDbEntity
  8
0
  6
Continuous
 62
     0
370
     0
100
AcDbLine
 10
0.0
 20
0.0
 30
0.0
 11
2.5
 21
0.0
 31
0.0
  0
LINE
  5
1F4
330
1ED
100
AcDbEntity
  8
0
  6
Continuous
 62
     0
370
     0
100
AcDbLine
 10
0.0
 20
5.0
 30
0.0
 11
0.0
 21
5.75
 31
0.0
  0
LINE
  5
1F5
330
1ED
100
AcDbEntity
  8
0
  6
Continuous
 62
     0
370
     0
100
AcDbLine
 10
-5.0
 20
0.0
 30
0.0
 11
-5.75
 21
0.0
 31
0.0
  0
LINE
  5
1F6
330
1ED
100
AcDbEntity
  8
0
  6
Continuous
 62
     0
370
     0
100
AcDbLine
 10
0.0
 20
-5.0
 30
0.0
 11
0.0
 21
-5.75
 31
0.0
  0
LINE
  5
1F7
330
1ED
100
AcDbEntity
  8
0
  6
Continuous
 62
     0
370
     0
100
AcDbLine
 10
5.0
 20
0.0
 30
0.0
 11
5.75
 21
0.0
 31
0.0
  0
ENDBLK
  5
1EF
330
1ED
100
AcDbEntity
  8
0
100
AcDbBlockEnd
  0
BLOCK
  5
1FA
330
1F9
100
AcDbEntity
  8
0
100
AcDbBlockBegin
  2
SW_CENTERMARKSYMBOL_4
 70
     0
 10
0.0
 20
0.0
 30
0.0
  3
SW_CENTERMARKSYMBOL_4
  1

  0
LINE
  5
1FC
330
1F9
100
AcDbEntity
  8
0
  6
Continuous
 62
     0
370
     0
100
AcDbLine
 10
0.0
 20
0.0
 30
0.0
 11
0.0
 21
2.5
 31
0.0
  0
LINE
  5
1FD
330
1F9
100
AcDbEntity
  8
0
  6
Continuous
 62
     0
370
     0
100
AcDbLine
 10
0.0
 20
0.0
 30
0.0
 11
-2.5
 21
0.0
 31
0.0
  0
LINE
  5
1FE
330
1F9
100
AcDbEntity
  8
0
  6
Continuous
 62
     0
370
     0
100
AcDbLine
 10
0.0
 20
0.0
 30
0.0
 11
0.0
 21
-2.5
 31
0.0
  0
LINE
  5
1FF
330
1F9
100
AcDbEntity
  8
0
  6
Continuous
 62
     0
370
     0
100
AcDbLine
 10
0.0
 20
0.0
 30
0.0
 11
2.5
 21
0.0
 31
0.0
  0
LINE
  5
200
330
1F9
100
AcDbEntity
  8
0
  6
Continuous
 62
     0
370
     0
100
AcDbLine
 10
0.0
 20
5.0
 30
0.0
 11
0.0
 21
5.75
 31
0.0
  0
LINE
  5
201
330
1F9
100
AcDbEntity
  8
0
  6
Continuous
 62
     0
370
     0
100
AcDbLine
 10
-5.0
 20
0.0
 30
0.0
 11
-5.75
 21
0.0
 31
0.0
  0
LINE
  5
202
330
1F9
100
AcDbEntity
  8
0
  6
Continuous
 62
     0
370
     0
100
AcDbLine
 10
0.0
 20
-5.0
 30
0.0
 11
0.0
 21
-5.75
 31
0.0
  0
LINE
  5
203
330
1F9
100
AcDbEntity
  8
0
  6
Continuous
 62
     0
370
     0
100
AcDbLine
 10
5.0
 20
0.0
 30
0.0
 11
5.75
 21
0.0
 31
0.0
  0
ENDBLK
  5
1FB
330
1F9
100
AcDbEntity
  8
0
100
AcDbBlockEnd
  0
BLOCK
  5
299
330
298
100
AcDbEntity
  8
0
100
AcDbBlockBegin
  2
_D_10
 70
     0
 10
0.0
 20
0.0
 30
0.0
  3
_D_10
  1

  0
ARC
  5
29B
330
298
100
AcDbEntity
  8
0
  6
Continuous
 62
     7
370
     0
100
AcDbCircle
 10
88.6611518524
 20
28.3746683088
 30
0.0
 40
4.554435549315968
100
AcDbArc
 50
153.4349488229
 51
206.5650511771
  0
ARC
  5
29C
330
298
100
AcDbEntity
  8
0
  6
Continuous
 62
     7
370
     0
100
AcDbCircle
 10
84.5875408574
 20
28.3746683088
 30
0.0
 40
4.554435549315968
100
AcDbArc
 50
333.4349488229
 51
26.5650511771
  0
SOLID
  5
29D
330
298
100
AcDbEntity
  8
0
  6
Continuous
 62
     7
370
     0
100
AcDbTrace
 10
57.1680225313
 20
26.3378628113
 30
0.0
 11
60.1680225313
 21
25.5878628113
 31
0.0
 12
60.1680225313
 22
27.0878628113
 32
0.0
 13
60.1680225313
 23
27.0878628113
 33
0.0
  0
SOLID
  5
29E
330
298
100
AcDbEntity
  8
0
  6
Continuous
 62
     7
370
     0
100
AcDbTrace
 10
116.0806702949
 20
26.3378628113
 30
0.0
 11
113.0806702949
 21
27.0878628113
 31
0.0
 12
113.0806702949
 22
25.5878628113
 32
0.0
 13
113.0806702949
 23
25.5878628113
 33
0.0
  0
LINE
  5
29F
330
298
100
AcDbEntity
  8
0
  6
Continuous
 62
     7
370
     0
100
AcDbLine
 10
57.1680225313
 20
49.8694029851
 30
0.0
 11
57.1680225313
 21
25.3378628113
 31
0.0
  0
LINE
  5
2A0
330
298
100
AcDbEntity
  8
0
  6
Continuous
 62
     7
370
     0
100
AcDbLine
 10
116.0806702949
 20
49.8694029851
 30
0.0
 11
116.0806702949
 21
25.3378628113
 31
0.0
  0
LINE
  5
2A1
330
298
100
AcDbEntity
  8
0
  6
Continuous
 62
     7
370
     0
100
AcDbLine
 10
57.1680225313
 20
26.3378628113
 30
0.0
 11
116.0806702949
 21
26.3378628113
 31
0.0
  0
MTEXT
  5
2A2
330
298
100
AcDbEntity
  8
0
  6
Continuous
 62
     7
370
     0
100
AcDbMText
 10
84.5875408574
 20
30.8495996676
 30
0.0
 40
3.5
 41
0.0
 71
     1
 72
     1
  1
59
  7
SLDTEXTSTYLE0
 73
     1
 44
1.0
  0
ENDBLK
  5
29A
330
298
100
AcDbEntity
  8
0
100
AcDbBlockEnd
  0
BLOCK
  5
2A5
330
2A4
100
AcDbEntity
  8
0
100
AcDbBlockBegin
  2
_D_11
 70
     0
 10
0.0
 20
0.0
 30
0.0
  3
_D_11
  1

  0
ARC
  5
2A7
330
2A4
100
AcDbEntity
  8
0
  6
Continuous
 62
     7
370
     0
100
AcDbCircle
 10
71.896184414
 20
37.5362084826
 30
0.0
 40
4.554435549315975
100
AcDbArc
 50
153.4349488229
 51
206.5650511771
  0
ARC
  5
2A8
330
2A4
100
AcDbEntity
  8
0
  6
Continuous
 62
     7
370
     0
100
AcDbCircle
 10
71.896184414
 20
37.5362084826
 30
0.0
 40
4.554435549315966
100
AcDbArc
 50
333.4349488229
 51
26.5650511771
  0
SOLID
  5
2A9
330
2A4
100
AcDbEntity
  8
0
  6
Continuous
 62
     7
370
     0
100
AcDbTrace
 10
57.1680225313
 20
35.4994029851
 30
0.0
 11
60.1680225313
 21
34.7494029851
 31
0.0
 12
60.1680225313
 22
36.2494029851
 32
0.0
 13
60.1680225313
 23
36.2494029851
 33
0.0
  0
SOLID
  5
2AA
330
2A4
100
AcDbEntity
  8
0
  6
Continuous
 62
     7
370
     0
100
AcDbTrace
 10
86.6243464131
 20
35.4994029851
 30
0.0
 11
83.6243464131
 21
36.2494029851
 31
0.0
 12
83.6243464131
 22
34.7494029851
 32
0.0
 13
83.6243464131
 23
34.7494029851
 33
0.0
  0
LINE
  5
2AB
330
2A4
100
AcDbEntity
  8
0
  6
Continuous
 62
     7
370
     0
100
AcDbLine
 10
57.1680225313
 20
49.8694029851
 30
0.0
 11
57.1680225313
 21
34.4994029851
 31
0.0
  0
LINE
  5
2AC
330
2A4
100
AcDbEntity
  8
0
  6
Continuous
 62
     7
370
     0
100
AcDbLine
 10
86.6243464131
 20
43.3694029851
 30
0.0
 11
86.6243464131
 21
34.4994029851
 31
0.0
  0
LINE
  5
2AD
330
2A4
100
AcDbEntity
  8
0
  6
Continuous
 62
     7
370
     0
100
AcDbLine
 10
57.1680225313
 20
35.4994029851
 30
0.0
 11
86.6243464131
 21
35.4994029851
 31
0.0
  0
MTEXT
  5
2AE
330
2A4
100
AcDbEntity
  8
0
  6
Continuous
 62
     7
370
     0
100
AcDbMText
 10
67.822573419
 20
40.0111398414
 30
0.0
 40
3.5
 41
0.0
 71
     1
 72
     1
  1
29.5
  7
SLDTEXTSTYLE0
 73
     1
 44
1.0
  0
ENDBLK
  5
2A6
330
2A4
100
AcDbEntity
  8
0
100
AcDbBlockEnd
  0
BLOCK
  5
2B0
330
2AF
100
AcDbEntity
  8
0
100
AcDbBlockBegin
  2
SW_CENTERMARKSYMBOL_5
 70
     0
 10
0.0
 20
0.0
 30
0.0
  3
SW_CENTERMARKSYMBOL_5
  1

  0
LINE
  5
2B2
330
2AF
100
AcDbEntity
  8
0
  6
Continuous
 62
     0
370
     0
100
AcDbLine
 10
0.0
 20
0.0
 30
0.0
 11
0.0
 21
2.5
 31
0.0
  0
LINE
  5
2B3
330
2AF
100
AcDbEntity
  8
0
  6
Continuous
 62
     0
370
     0
100
AcDbLine
 10
0.0
 20
0.0
 30
0.0
 11
-2.5
 21
0.0
 31
0.0
  0
LINE
  5
2B4
330
2AF
100
AcDbEntity
  8
0
  6
Continuous
 62
     0
370
     0
100
AcDbLine
 10
0.0
 20
0.0
 30
0.0
 11
0.0
 21
-2.5
 31
0.0
  0
LINE
  5
2B5
330
2AF
100
AcDbEntity
  8
0
  6
Continuous
 62
     0
370
     0
100
AcDbLine
 10
0.0
 20
0.0
 30
0.0
 11
2.5
 21
0.0
 31
0.0
  0
LINE
  5
2B6
330
2AF
100
AcDbEntity
  8
0
  6
Continuous
 62
     0
370
     0
100
AcDbLine
 10
0.0
 20
5.0
 30
0.0
 11
0.0
 21
11.5
 31
0.0
  0
LINE
  5
2B7
330
2AF
100
AcDbEntity
  8
0
  6
Continuous
 62
     0
370
     0
100
AcDbLine
 10
-5.0
 20
0.0
 30
0.0
 11
-11.5
 21
0.0
 31
0.0
  0
LINE
  5
2B8
330
2AF
100
AcDbEntity
  8
0
  6
Continuous
 62
     0
370
     0
100
AcDbLine
 10
0.0
 20
-5.0
 30
0.0
 11
0.0
 21
-11.5
 31
0.0
  0
LINE
  5
2B9
330
2AF
100
AcDbEntity
  8
0
  6
Continuous
 62
     0
370
     0
100
AcDbLine
 10
5.0
 20
0.0
 30
0.0
 11
11.5
 21
0.0
 31
0.0
  0
ENDBLK
  5
2B1
330
2AF
100
AcDbEntity
  8
0
100
AcDbBlockEnd
  0
BLOCK
  5
447
330
446
100
AcDbEntity
  8
0
100
AcDbBlockBegin
  2
_D_12
 70
     0
 10
0.0
 20
0.0
 30
0.0
  3
_D_12
  1

  0
SOLID
  5
449
330
446
100
AcDbEntity
  8
0
  6
Continuous
 62
     7
370
     0
100
AcDbTrace
 10
166.5638636888
 20
86.5633708042
 30
0.0
 11
169.5638636888
 21
85.8133708042
 31
0.0
 12
169.5638636888
 22
87.3133708042
 32
0.0
 13
169.5638636888
 23
87.3133708042
 33
0.0
  0
SOLID
  5
44A
330
446
100
AcDbEntity
  8
0
  6
Continuous
 62
     7
370
     0
100
AcDbTrace
 10
187.0638636888
 20
86.5633708042
 30
0.0
 11
184.0638636888
 21
87.3133708042
 31
0.0
 12
184.0638636888
 22
85.8133708042
 32
0.0
 13
184.0638636888
 23
85.8133708042
 33
0.0
  0
LINE
  5
44B
330
446
100
AcDbEntity
  8
0
  6
Continuous
 62
     7
370
     0
100
AcDbLine
 10
166.5638636888
 20
136.5633708042
 30
0.0
 11
166.5638636888
 21
85.5633708042
 31
0.0
  0
LINE
  5
44C
330
446
100
AcDbEntity
  8
0
  6
Continuous
 62
     7
370
     0
100
AcDbLine
 10
187.0638636888
 20
136.5633708042
 30
0.0
 11
187.0638636888
 21
85.5633708042
 31
0.0
  0
LINE
  5
44D
330
446
100
AcDbEntity
  8
0
  6
Continuous
 62
     7
370
     0
100
AcDbLine
 10
166.5638636888
 20
86.5633708042
 30
0.0
 11
187.0638636888
 21
86.5633708042
 31
0.0
  0
MTEXT
  5
44E
330
446
100
AcDbEntity
  8
0
  6
Continuous
 62
     7
370
     0
100
AcDbMText
 10
172.7402526938
 20
91.0751076605
 30
0.0
 40
3.5
 41
0.0
 71
     1
 72
     1
  1
20.5
  7
SLDTEXTSTYLE0
 73
     1
 44
1.0
  0
ENDBLK
  5
448
330
446
100
AcDbEntity
  8
0
100
AcDbBlockEnd
  0
BLOCK
  5
451
330
450
100
AcDbEntity
  8
0
100
AcDbBlockBegin
  2
_D_13
 70
     0
 10
0.0
 20
0.0
 30
0.0
  3
_D_13
  1

  0
SOLID
  5
453
330
450
100
AcDbEntity
  8
0
  6
Continuous
 62
     7
370
     0
100
AcDbTrace
 10
171.8138636888
 20
263.9819393842
 30
0.0
 11
168.8138636888
 21
264.7319393842
 31
0.0
 12
168.8138636888
 22
263.2319393842
 32
0.0
 13
168.8138636888
 23
263.2319393842
 33
0.0
  0
SOLID
  5
454
330
450
100
AcDbEntity
  8
0
  6
Continuous
 62
     7
370
     0
100
AcDbTrace
 10
181.8138636888
 20
263.9819393842
 30
0.0
 11
184.8138636888
 21
263.2319393842
 31
0.0
 12
184.8138636888
 22
264.7319393842
 32
0.0
 13
184.8138636888
 23
264.7319393842
 33
0.0
  0
LINE
  5
455
330
450
100
AcDbEntity
  8
0
  6
Continuous
 62
     7
370
     0
100
AcDbLine
 10
171.8138636888
 20
245.4228231047
 30
0.0
 11
171.8138636888
 21
264.9819393842
 31
0.0
  0
LINE
  5
456
330
450
100
AcDbEntity
  8
0
  6
Continuous
 62
     7
370
     0
100
AcDbLine
 10
181.8138636888
 20
245.8228231047
 30
0.0
 11
181.8138636888
 21
264.9819393842
 31
0.0
  0
LINE
  5
457
330
450
100
AcDbEntity
  8
0
  6
Continuous
 62
     7
370
     0
100
AcDbLine
 10
171.8138636888
 20
263.9819393842
 30
0.0
 11
166.8138636888
 21
263.9819393842
 31
0.0
  0
LINE
  5
458
330
450
100
AcDbEntity
  8
0
  6
Continuous
 62
     7
370
     0
100
AcDbLine
 10
171.8138636888
 20
263.9819393842
 30
0.0
 11
181.8138636888
 21
263.9819393842
 31
0.0
  0
LINE
  5
459
330
450
100
AcDbEntity
  8
0
  6
Continuous
 62
     7
370
     0
100
AcDbLine
 10
181.8138636888
 20
263.9819393842
 30
0.0
 11
186.8138636888
 21
263.9819393842
 31
0.0
  0
MTEXT
  5
45A
330
450
100
AcDbEntity
  8
0
  6
Continuous
 62
     7
370
     0
100
AcDbMText
 10
174.7770581913
 20
268.4936762406
 30
0.0
 40
3.5
 41
0.0
 71
     1
 72
     1
  1
10
  7
SLDTEXTSTYLE0
 73
     1
 44
1.0
  0
ENDBLK
  5
452
330
450
100
AcDbEntity
  8
0
100
AcDbBlockEnd
  0
BLOCK
  5
45C
330
45B
100
AcDbEntity
  8
0
100
AcDbBlockBegin
  2
SW_NOTE_1
 70
     0
 10
0.0
 20
0.0
 30
0.0
  3
SW_NOTE_1
  1

  0
LINE
  5
45E
330
45B
100
AcDbEntity
  8
0
  6
Continuous
 62
     0
370
     0
100
AcDbLine
 10
-20.4891198845
 20
0.0
 30
0.0
 11
0.0
 21
0.0
 31
0.0
  0
MTEXT
  5
45F
330
45B
100
AcDbEntity
  8
0
  6
Continuous
 62
     0
370
     0
100
AcDbMText
 10
-20.9681886517
 20
9.0897519741
 30
0.0
 40
3.5
 41
0.0
 71
     1
 72
     1
  1
4-M4
  7
SLDTEXTSTYLE0
 73
     1
 44
1.0
  0
MTEXT
  5
460
330
45B
100
AcDbEntity
  8
0
  6
Continuous
 62
     0
370
     0
100
AcDbMText
 10
-20.9681886517
 20
4.5897521678
 30
0.0
 40
3.5
 41
0.0
 71
     1
 72
     1
  1
取付ボルト
  7
SLDTEXTSTYLE0
 73
     1
 44
1.0
  0
ENDBLK
  5
45D
330
45B
100
AcDbEntity
  8
0
100
AcDbBlockEnd
  0
ENDSEC
  0
SECTION
  2
ENTITIES
  0
LINE
  5
73
330
1F
100
AcDbEntity
  8
0
  6
Continuous
 62
     7
370
     0
100
AcDbLine
 10
20.2604743903
 20
285.0
 30
0.0
 11
196.7604743903
 21
285.0
 31
0.0
  0
LINE
  5
74
330
1F
100
AcDbEntity
  8
0
  6
Continuous
 62
     7
370
     0
100
AcDbLine
 10
20.2604743903
 20
285.0
 30
0.0
 11
20.2604743903
 21
10.0
 31
0.0
  0
LINE
  5
75
330
1F
100
AcDbEntity
  8
0
  6
Continuous
 62
     7
370
     0
100
AcDbLine
 10
20.2604743903
 20
10.0
 30
0.0
 11
196.7604743903
 21
10.0
 31
0.0
  0
LINE
  5
76
330
1F
100
AcDbEntity
  8
0
  6
Continuous
 62
     7
370
     0
100
AcDbLine
 10
196.7604743903
 20
285.0
 30
0.0
 11
196.7604743903
 21
10.0
 31
0.0
  0
LINE
  5
77
330
1F
100
AcDbEntity
  8
0
  6
Continuous
 62
     7
370
     0
100
AcDbLine
 10
127.0104743903
 20
50.75
 30
0.0
 11
196.7604743903
 21
50.75
 31
0.0
  0
LINE
  5
78
330
1F
100
AcDbEntity
  8
0
  6
Continuous
 62
     7
370
     0
100
AcDbLine
 10
127.0104743903
 20
50.75
 30
0.0
 11
127.0104743903
 21
10.0
 31
0.0
  0
LINE
  5
79
330
1F
100
AcDbEntity
  8
0
  6
Continuous
 62
     7
370
     0
100
AcDbLine
 10
127.0104743903
 20
22.75
 30
0.0
 11
196.7604743903
 21
22.75
 31
0.0
  0
LINE
  5
7A
330
1F
100
AcDbEntity
  8
0
  6
Continuous
 62
     7
370
     0
100
AcDbLine
 10
127.0104743903
 20
36.75
 30
0.0
 11
196.7604743903
 21
36.75
 31
0.0
  0
MTEXT
  5
7C
330
1F
100
AcDbEntity
  8
0
  6
Continuous
 62
     7
370
     0
100
AcDbMText
 10
161.160806771
 20
30.4171582345
 30
0.0
 40
4.2333333333
 41
0.0
 71
     2
 72
     1
  1
CHK-EXBF-20-C
  7
SLDTEXTSTYLE0
 73
     1
 44
1.0
  0
MTEXT
  5
7D
330
1F
100
AcDbEntity
  8
0
  6
Continuous
 62
     7
370
     0
100
AcDbMText
 10
159.912585327
 20
45.7295739066
 30
0.0
 40
3.175
 41
0.0
 71
     2
 72
     1
  1
ランナーチャックEX(近接・爪着脱式)
  7
SLDTEXTSTYLE0
 73
     1
 44
1.0
  0
MTEXT
  5
7E
330
1F
100
AcDbEntity
  8
0
  6
Continuous
 62
     7
370
     0
100
AcDbMText
 10
162.5177791142
 20
16.8228189052
 30
0.0
 40
4.2333333333
 41
0.0
 71
     2
 72
     1
  1
023292
  7
SLDTEXTSTYLE0
 73
     1
 44
1.0
  0
LINE
  5
7F
330
1F
100
AcDbEntity
  8
0
  6
Continuous
 62
     7
370
     0
100
AcDbLine
 10
76.6243459712
 20
137.5633709296
 30
0.0
 11
76.6243459712
 21
113.563370721
 31
0.0
  0
LINE
  5
80
330
1F
100
AcDbEntity
  8
0
  6
Continuous
 62
     7
370
     0
100
AcDbLine
 10
96.6243492494
 20
113.563370721
 30
0.0
 11
96.6243492494
 21
137.5633709296
 31
0.0
  0
LINE
  5
81
330
1F
100
AcDbEntity
  8
0
  6
Continuous
 62
     7
370
     0
100
AcDbLine
 10
76.6243459712
 20
113.563370721
 30
0.0
 11
77.6243479977
 21
112.563370557
 31
0.0
  0
LINE
  5
82
330
1F
100
AcDbEntity
  8
0
  6
Continuous
 62
     7
370
     0
100
AcDbLine
 10
95.6243472228
 20
112.563370557
 30
0.0
 11
96.6243492494
 21
113.563370721
 31
0.0
  0
LINE
  5
83
330
1F
100
AcDbEntity
  8
0
  6
Continuous
 62
     7
370
     0
100
AcDbLine
 10
84.274345083
 20
107.5633716001
 30
0.0
 11
84.6243472825
 21
105.063370259
 31
0.0
  0
LINE
  5
84
330
1F
100
AcDbEntity
  8
0
  6
Continuous
 62
     7
370
     0
100
AcDbLine
 10
88.6243479381
 20
105.063370259
 30
0.0
 11
88.9743464122
 21
107.5633716001
 31
0.0
  0
LINE
  5
85
330
1F
100
AcDbEntity
  8
0
  6
Continuous
 62
     7
370
     0
100
AcDbLine
 10
84.274345083
 20
105.063370259
 30
0.0
 11
84.6243472825
 21
102.5633707806
 31
0.0
  0
LINE
  5
86
330
1F
100
AcDbEntity
  8
0
  6
Continuous
 62
     7
370
     0
100
AcDbLine
 10
88.6243479381
 20
102.5633707806
 30
0.0
 11
88.9743464122
 21
105.063370259
 31
0.0
  0
LINE
  5
87
330
1F
100
AcDbEntity
  8
0
  6
Continuous
 62
     7
370
     0
100
AcDbLine
 10
88.7243459056
 20
107.5633716001
 30
0.0
 11
88.7243459056
 21
110.0633710786
 31
0.0
  0
LINE
  5
88
330
1F
100
AcDbEntity
  8
0
  6
Continuous
 62
     7
370
     0
100
AcDbLine
 10
84.5243455897
 20
110.0633710786
 30
0.0
 11
84.5243455897
 21
107.5633716001
 31
0.0
  0
LINE
  5
89
330
1F
100
AcDbEntity
  8
0
  6
Continuous
 62
     7
370
     0
100
AcDbLine
 10
105.2370267044
 20
225.3323223605
 30
0.0
 11
105.0717802773
 21
224.3460666551
 31
0.0
  0
LINE
  5
8A
330
1F
100
AcDbEntity
  8
0
  6
Continuous
 62
     7
370
     0
100
AcDbLine
 10
105.6142197977
 20
224.255184473
 30
0.0
 11
104.7879876624
 21
219.3239208474
 31
0.0
  0
LINE
  5
8B
330
1F
100
AcDbEntity
  8
0
  6
Continuous
 62
     7
370
     0
100
AcDbLine
 10
107.6481165419
 20
218.844706954
 30
0.0
 11
108.4743561278
 21
223.775963129
 31
0.0
  0
LINE
  5
8C
330
1F
100
AcDbEntity
  8
0
  6
Continuous
 62
     7
370
     0
100
AcDbLine
 10
103.4243451486
 20
204.755040647
 30
0.0
 11
69.8243463467
 21
204.755040647
 31
0.0
  0
LINE
  5
8D
330
1F
100
AcDbEntity
  8
0
  6
Continuous
 62
     7
370
     0
100
AcDbLine
 10
103.4243451486
 20
204.755040647
 30
0.0
 11
106.6243471632
 21
201.5550386324
 31
0.0
  0
LINE
  5
8E
330
1F
100
AcDbEntity
  8
0
  6
Continuous
 62
     7
370
     0
100
AcDbLine
 10
106.6243471632
 20
137.5633709296
 30
0.0
 11
106.6243471632
 21
201.5550386324
 31
0.0
  0
LINE
  5
8F
330
1F
100
AcDbEntity
  8
0
  6
Continuous
 62
     7
370
     0
100
AcDbLine
 10
106.6243471632
 20
137.5633709296
 30
0.0
 11
66.6243480573
 21
137.5633709296
 31
0.0
  0
LINE
  5
90
330
1F
100
AcDbEntity
  8
0
  6
Continuous
 62
     7
370
     0
100
AcDbLine
 10
66.6243480573
 20
201.5550386324
 30
0.0
 11
66.6243480573
 21
137.5633709296
 31
0.0
  0
CIRCLE
  5
91
330
1F
100
AcDbEntity
  8
0
  6
Continuous
 62
     7
370
     0
100
AcDbCircle
 10
102.6243464131
 20
188.5584983842
 30
0.0
 40
2.999999999999972
  0
CIRCLE
  5
92
330
1F
100
AcDbEntity
  8
0
  6
Continuous
 62
     7
370
     0
100
AcDbCircle
 10
70.6243464131
 20
188.5584983842
 30
0.0
 40
3.0
  0
CIRCLE
  5
93
330
1F
100
AcDbEntity
  8
0
  6
Continuous
 62
     7
370
     0
100
AcDbCircle
 10
86.6243464131
 20
185.5633708042
 30
0.0
 40
3.25
  0
CIRCLE
  5
94
330
1F
100
AcDbEntity
  8
0
  6
Continuous
 62
     7
370
     0
100
AcDbCircle
 10
102.6243464131
 20
142.5633708042
 30
0.0
 40
3.249999999999943
  0
CIRCLE
  5
95
330
1F
100
AcDbEntity
  8
0
  6
Continuous
 62
     7
370
     0
100
AcDbCircle
 10
70.6243464131
 20
142.5633708042
 30
0.0
 40
3.249999999999943
  0
LINE
  5
96
330
1F
100
AcDbEntity
  8
0
  6
Continuous
 62
     7
370
     0
100
AcDbLine
 10
66.6243480573
 20
201.5550386324
 30
0.0
 11
69.8243463467
 21
204.755040647
 31
0.0
  0
LINE
  5
97
330
1F
100
AcDbEntity
  8
0
  6
Continuous
 62
     7
370
     0
100
AcDbLine
 10
66.6243480573
 20
137.5633709296
 30
0.0
 11
65.6243460308
 21
137.5633709296
 31
0.0
  0
LINE
  5
98
330
1F
100
AcDbEntity
  8
0
  6
Continuous
 62
     7
370
     0
100
AcDbLine
 10
65.6243460308
 20
137.5633709296
 30
0.0
 11
65.6243460308
 21
200.5550366058
 31
0.0
  0
LINE
  5
99
330
1F
100
AcDbEntity
  8
0
  6
Continuous
 62
     7
370
     0
100
AcDbLine
 10
65.6243460308
 20
200.5550366058
 30
0.0
 11
66.6243480573
 21
201.5550386324
 31
0.0
  0
CIRCLE
  5
9A
330
1F
100
AcDbEntity
  8
0
  6
Continuous
 62
     7
370
     0
100
AcDbCircle
 10
70.6243464131
 20
142.5633708042
 30
0.0
 40
2.499999999999972
  0
CIRCLE
  5
9B
330
1F
100
AcDbEntity
  8
0
  6
Continuous
 62
     7
370
     0
100
AcDbCircle
 10
102.6243464131
 20
188.5584983842
 30
0.0
 40
2.5
  0
LINE
  5
9C
330
1F
100
AcDbEntity
  8
0
  6
Continuous
 62
     7
370
     0
100
AcDbLine
 10
71.6243470142
 20
206.555033864
 30
0.0
 11
80.6243466268
 21
206.555033864
 31
0.0
  0
LINE
  5
9D
330
1F
100
AcDbEntity
  8
0
  6
Continuous
 62
     7
370
     0
100
AcDbLine
 10
80.6243466268
 20
206.555033864
 30
0.0
 11
80.6243466268
 21
207.7550392761
 31
0.0
  0
LINE
  5
9E
330
1F
100
AcDbEntity
  8
0
  6
Continuous
 62
     7
370
     0
100
AcDbLine
 10
80.6243466268
 20
207.7550392761
 30
0.0
 11
92.6243448685
 21
207.7550392761
 31
0.0
  0
LINE
  5
9F
330
1F
100
AcDbEntity
  8
0
  6
Continuous
 62
     7
370
     0
100
AcDbLine
 10
92.6243448685
 20
207.7550392761
 30
0.0
 11
92.6243448685
 21
206.555033864
 31
0.0
  0
LINE
  5
A0
330
1F
100
AcDbEntity
  8
0
  6
Continuous
 62
     7
370
     0
100
AcDbLine
 10
92.6243448685
 20
206.555033864
 30
0.0
 11
101.624344481
 21
206.555033864
 31
0.0
  0
LINE
  5
A1
330
1F
100
AcDbEntity
  8
0
  6
Continuous
 62
     7
370
     0
100
AcDbLine
 10
101.624344481
 20
206.555033864
 30
0.0
 11
103.4243451486
 21
204.755040647
 31
0.0
  0
LINE
  5
A2
330
1F
100
AcDbEntity
  8
0
  6
Continuous
 62
     7
370
     0
100
AcDbLine
 10
69.8243463467
 20
204.755040647
 30
0.0
 11
71.6243470142
 21
206.555033864
 31
0.0
  0
CIRCLE
  5
A3
330
1F
100
AcDbEntity
  8
0
  6
Continuous
 62
     7
370
     0
100
AcDbCircle
 10
102.6243464131
 20
142.5633708042
 30
0.0
 40
2.499999999999972
  0
LINE
  5
A4
330
1F
100
AcDbEntity
  8
0
  6
Continuous
 62
     7
370
     0
100
AcDbLine
 10
107.6243491898
 20
200.5550366058
 30
0.0
 11
107.6243491898
 21
137.5633709296
 31
0.0
  0
LINE
  5
A5
330
1F
100
AcDbEntity
  8
0
  6
Continuous
 62
     7
370
     0
100
AcDbLine
 10
106.6243471632
 20
201.5550386324
 30
0.0
 11
107.6243491898
 21
200.5550366058
 31
0.0
  0
LINE
  5
A6
330
1F
100
AcDbEntity
  8
0
  6
Continuous
 62
     7
370
     0
100
AcDbLine
 10
107.6243491898
 20
137.5633709296
 30
0.0
 11
106.6243471632
 21
137.5633709296
 31
0.0
  0
CIRCLE
  5
A7
330
1F
100
AcDbEntity
  8
0
  6
Continuous
 62
     7
370
     0
100
AcDbCircle
 10
70.6243464131
 20
188.5584983842
 30
0.0
 40
2.5
  0
CIRCLE
  5
A8
330
1F
100
AcDbEntity
  8
0
  6
Continuous
 62
     7
370
     0
100
AcDbCircle
 10
86.6243464131
 20
185.5633708042
 30
0.0
 40
2.5
  0
LINE
  5
A9
330
1F
100
AcDbEntity
  8
0
  6
Continuous
 62
     7
370
     0
100
AcDbLine
 10
76.6243459712
 20
113.563370721
 30
0.0
 11
96.6243492494
 21
113.563370721
 31
0.0
  0
LINE
  5
AA
330
1F
100
AcDbEntity
  8
0
  6
Continuous
 62
     7
370
     0
100
AcDbLine
 10
95.6243472228
 20
112.563370557
 30
0.0
 11
77.6243479977
 21
112.563370557
 31
0.0
  0
LINE
  5
AB
330
1F
100
AcDbEntity
  8
0
  6
Continuous
 62
     7
370
     0
100
AcDbLine
 10
57.1680227349
 20
179.7449018969
 30
0.0
 11
61.9917204658
 21
205.8006476774
 31
0.0
  0
ARC
  5
AC
330
1F
100
AcDbEntity
  8
0
  6
Continuous
 62
     7
370
     0
100
AcDbCircle
 10
71.8246375181
 20
203.9802821276
 30
0.0
 40
9.999999999999995
100
AcDbArc
 50
136.1303647985
 51
169.5115862628
  0
ARC
  5
AD
330
1F
100
AcDbEntity
  8
0
  6
Continuous
 62
     7
370
     0
100
AcDbCircle
 10
50.1970828281
 20
224.7708780337
 30
0.0
 40
19.99999999999999
100
AcDbArc
 50
316.1303647985
 51
0.8057920863
  0
LINE
  5
AE
330
1F
100
AcDbEntity
  8
0
  6
Continuous
 62
     7
370
     0
100
AcDbLine
 10
70.1951058636
 20
225.0521432771
 30
0.0
 11
69.8940539787
 21
246.4568343177
 31
0.0
  0
LINE
  5
AF
330
1F
100
AcDbEntity
  8
0
  6
Continuous
 62
     7
370
     0
100
AcDbLine
 10
72.2222337554
 20
248.8514360204
 30
0.0
 11
69.8940539787
 21
246.4568343177
 31
0.0
  0
LINE
  5
B0
330
1F
100
AcDbEntity
  8
0
  6
Continuous
 62
     7
370
     0
100
AcDbLine
 10
72.2222337554
 20
248.8514360204
 30
0.0
 11
75.7834436427
 21
249.448123218
 31
0.0
  0
LINE
  5
B1
330
1F
100
AcDbEntity
  8
0
  6
Continuous
 62
     7
370
     0
100
AcDbLine
 10
75.7834436427
 20
249.448123218
 30
0.0
 11
82.2280766497
 21
210.9842848196
 31
0.0
  0
LINE
  5
B2
330
1F
100
AcDbEntity
  8
0
  6
Continuous
 62
     7
370
     0
100
AcDbLine
 10
81.4070710967
 20
209.8327901377
 30
0.0
 11
82.2280766497
 21
210.9842848196
 31
0.0
  0
LINE
  5
B3
330
1F
100
AcDbEntity
  8
0
  6
Continuous
 62
     7
370
     0
100
AcDbLine
 10
81.4070710967
 20
209.8327901377
 30
0.0
 11
71.8907611499
 21
208.2383211865
 31
0.0
  0
ARC
  5
B4
330
1F
100
AcDbEntity
  8
0
  6
Continuous
 62
     7
370
     0
100
AcDbCircle
 10
72.7169966877
 20
203.3070628948
 30
0.0
 40
4.99999999999999
100
AcDbArc
 50
99.5115862628
 51
169.5115862628
  0
LINE
  5
B5
330
1F
100
AcDbEntity
  8
0
  6
Continuous
 62
     7
370
     0
100
AcDbLine
 10
67.8005376885
 20
204.2172428384
 30
0.0
 11
67.4629295299
 21
202.3936238303
 31
0.0
  0
LINE
  5
B6
330
1F
100
AcDbEntity
  8
0
  6
Continuous
 62
     7
370
     0
100
AcDbLine
 10
65.6243460308
 20
192.4623053684
 30
0.0
 11
62.4306453447
 21
175.2111602738
 31
0.0
  0
LINE
  5
B7
330
1F
100
AcDbEntity
  8
0
  6
Continuous
 62
     7
370
     0
100
AcDbLine
 10
62.4306453447
 20
175.2111602738
 30
0.0
 11
59.9724156837
 21
175.6662529125
 31
0.0
  0
LINE
  5
B8
330
1F
100
AcDbEntity
  8
0
  6
Continuous
 62
     7
370
     0
100
AcDbLine
 10
57.1680227349
 20
179.7449018969
 30
0.0
 11
59.9724156837
 21
175.6662529125
 31
0.0
  0
ARC
  5
B9
330
1F
100
AcDbEntity
  8
0
  6
Continuous
 62
     7
370
     0
100
AcDbCircle
 10
100.5316961385
 20
203.3070628948
 30
0.0
 40
4.999999999999988
100
AcDbArc
 50
10.4884137372
 51
80.4884137372
  0
LINE
  5
BA
330
1F
100
AcDbEntity
  8
0
  6
Continuous
 62
     7
370
     0
100
AcDbLine
 10
91.8416203986
 20
209.8327901377
 30
0.0
 11
101.3579340706
 21
208.2383211865
 31
0.0
  0
LINE
  5
BB
330
1F
100
AcDbEntity
  8
0
  6
Continuous
 62
     7
370
     0
100
AcDbLine
 10
91.0206148456
 20
210.9842848196
 30
0.0
 11
91.8416203986
 21
209.8327901377
 31
0.0
  0
LINE
  5
BC
330
1F
100
AcDbEntity
  8
0
  6
Continuous
 62
     7
370
     0
100
AcDbLine
 10
97.4652515779
 20
249.448123218
 30
0.0
 11
91.0206148456
 21
210.9842848196
 31
0.0
  0
LINE
  5
BD
330
1F
100
AcDbEntity
  8
0
  6
Continuous
 62
     7
370
     0
100
AcDbLine
 10
104.2703883777
 20
248.3079161658
 30
0.0
 11
97.4652515779
 21
249.448123218
 31
0.0
  0
LINE
  5
BE
330
1F
100
AcDbEntity
  8
0
  6
Continuous
 62
     7
370
     0
100
AcDbLine
 10
105.091397656
 20
247.156421484
 30
0.0
 11
104.2703883777
 21
248.3079161658
 31
0.0
  0
LINE
  5
BF
330
1F
100
AcDbEntity
  8
0
  6
Continuous
 62
     7
370
     0
100
AcDbLine
 10
103.6867993007
 20
238.7732740655
 30
0.0
 11
105.091397656
 21
247.156421484
 31
0.0
  0
LINE
  5
C0
330
1F
100
AcDbEntity
  8
0
  6
Continuous
 62
     7
370
     0
100
AcDbLine
 10
103.6867993007
 20
238.7732740655
 30
0.0
 11
101.2211637626
 21
239.1863938584
 31
0.0
  0
ARC
  5
C1
330
1F
100
AcDbEntity
  8
0
  6
Continuous
 62
     7
370
     0
100
AcDbCircle
 10
100.8906715787
 20
237.2138873104
 30
0.0
 40
2.00000000000004
100
AcDbArc
 50
80.4884137372
 51
170.4884137372
  0
LINE
  5
C2
330
1F
100
AcDbEntity
  8
0
  6
Continuous
 62
     7
370
     0
100
AcDbLine
 10
98.9181669484
 20
237.5443827524
 30
0.0
 11
97.4309416542
 21
228.6681112065
 31
0.0
  0
ARC
  5
C3
330
1F
100
AcDbEntity
  8
0
  6
Continuous
 62
     7
370
     0
100
AcDbCircle
 10
99.4034481502
 20
228.3376174591
 30
0.0
 40
2.000000000000017
100
AcDbArc
 50
170.4884137372
 51
260.4884137372
  0
LINE
  5
C4
330
1F
100
AcDbEntity
  8
0
  6
Continuous
 62
     7
370
     0
100
AcDbLine
 10
99.0729527603
 20
226.3651143923
 30
0.0
 11
104.4973405133
 21
225.4562553181
 31
0.0
  0
LINE
  5
C5
330
1F
100
AcDbEntity
  8
0
  6
Continuous
 62
     7
370
     0
100
AcDbLine
 10
103.8247095476
 20
221.4417707338
 30
0.0
 11
104.4973405133
 21
225.4562553181
 31
0.0
  0
ARC
  5
C6
330
1F
100
AcDbEntity
  8
0
  6
Continuous
 62
     7
370
     0
100
AcDbCircle
 10
113.6872345545
 20
219.7893004192
 30
0.0
 40
10.0
100
AcDbArc
 50
170.4884137372
 51
227.4884137372
  0
LINE
  5
C7
330
1F
100
AcDbEntity
  8
0
  6
Continuous
 62
     7
370
     0
100
AcDbLine
 10
108.1995414625
 20
211.2539585843
 30
0.0
 11
106.9298433195
 21
212.4178957357
 31
0.0
  0
ARC
  5
C8
330
1F
100
AcDbEntity
  8
0
  6
Continuous
 62
     7
370
     0
100
AcDbCircle
 10
101.4421487643
 20
203.8825482804
 30
0.0
 40
10.00000000000002
100
AcDbArc
 50
10.4884137372
 51
47.4884137372
  0
LINE
  5
C9
330
1F
100
AcDbEntity
  8
0
  6
Continuous
 62
     7
370
     0
100
AcDbLine
 10
116.0806687603
 20
179.7449018969
 30
0.0
 11
111.2750666271
 21
205.7029184117
 31
0.0
  0
LINE
  5
CA
330
1F
100
AcDbEntity
  8
0
  6
Continuous
 62
     7
370
     0
100
AcDbLine
 10
113.2762776742
 20
175.6662529125
 30
0.0
 11
116.0806687603
 21
179.7449018969
 31
0.0
  0
LINE
  5
CB
330
1F
100
AcDbEntity
  8
0
  6
Continuous
 62
     7
370
     0
100
AcDbLine
 10
110.8180480133
 20
175.2111602738
 30
0.0
 11
113.2762776742
 21
175.6662529125
 31
0.0
  0
LINE
  5
CC
330
1F
100
AcDbEntity
  8
0
  6
Continuous
 62
     7
370
     0
100
AcDbLine
 10
107.6243491898
 20
192.4623053684
 30
0.0
 11
110.8180480133
 21
175.2111602738
 31
0.0
  0
LINE
  5
CD
330
1F
100
AcDbEntity
  8
0
  6
Continuous
 62
     7
370
     0
100
AcDbLine
 10
105.4481538067
 20
204.2172428384
 30
0.0
 11
105.7857619653
 21
202.3936238303
 31
0.0
  0
CIRCLE
  5
CE
330
1F
100
AcDbEntity
  8
0
  6
Continuous
 62
     7
370
     0
100
AcDbCircle
 10
100.7812747414
 20
243.8228231047
 30
0.0
 40
1.00000000000002
  0
CIRCLE
  5
CF
330
1F
100
AcDbEntity
  8
0
  6
Continuous
 62
     7
370
     0
100
AcDbCircle
 10
94.4591119217
 20
213.9569519926
 30
0.0
 40
1.500000000000002
  0
LINE
  5
D0
330
1F
100
AcDbEntity
  8
0
  6
Continuous
 62
     7
370
     0
100
AcDbLine
 10
105.9682713876
 20
234.2352669849
 30
0.0
 11
105.670367373
 21
232.4572753324
 31
0.0
  0
LINE
  5
D1
330
1F
100
AcDbEntity
  8
0
  6
Continuous
 62
     7
370
     0
100
AcDbLine
 10
102.6931228171
 20
226.0330345645
 30
0.0
 11
102.7019964586
 21
225.8833002462
 31
0.0
  0
LINE
  5
D2
330
1F
100
AcDbEntity
  8
0
  6
Continuous
 62
     7
370
     0
100
AcDbLine
 10
102.2538365851
 20
226.0415282264
 30
0.0
 11
102.2391738425
 21
225.8922483935
 31
0.0
  0
ARC
  5
D3
330
1F
100
AcDbEntity
  8
0
  6
Continuous
 62
     7
370
     0
100
AcDbCircle
 10
102.5274518149
 20
228.828128522
 30
0.0
 40
2.950000000000016
100
AcDbArc
 50
273.3920750982
 51
264.3920750982
  0
LINE
  5
D4
330
1F
100
AcDbEntity
  8
0
  6
Continuous
 62
     7
370
     0
100
AcDbLine
 10
88.649344636
 20
110.0633710786
 30
0.0
 11
88.649344636
 21
112.563370557
 31
0.0
  0
LINE
  5
D5
330
1F
100
AcDbEntity
  8
0
  6
Continuous
 62
     7
370
     0
100
AcDbLine
 10
84.5993468593
 20
110.0633710786
 30
0.0
 11
84.5993468593
 21
112.563370557
 31
0.0
  0
LINE
  5
D6
330
1F
100
AcDbEntity
  8
0
  6
Continuous
 62
     7
370
     0
100
AcDbLine
 10
84.5993468593
 20
110.0633710786
 30
0.0
 11
88.649344636
 21
110.0633710786
 31
0.0
  0
LINE
  5
D7
330
1F
100
AcDbEntity
  8
0
  6
Continuous
 62
     7
370
     0
100
AcDbLine
 10
82.5743461082
 20
110.0633710786
 30
0.0
 11
82.5743461082
 21
112.563370557
 31
0.0
  0
LINE
  5
D8
330
1F
100
AcDbEntity
  8
0
  6
Continuous
 62
     7
370
     0
100
AcDbLine
 10
82.5743461082
 20
110.0633710786
 30
0.0
 11
84.5993468593
 21
110.0633710786
 31
0.0
  0
LINE
  5
D9
330
1F
100
AcDbEntity
  8
0
  6
Continuous
 62
     7
370
     0
100
AcDbLine
 10
90.674345387
 20
110.0633710786
 30
0.0
 11
90.674345387
 21
112.563370557
 31
0.0
  0
LINE
  5
DA
330
1F
100
AcDbEntity
  8
0
  6
Continuous
 62
     7
370
     0
100
AcDbLine
 10
88.649344636
 20
110.0633710786
 30
0.0
 11
90.674345387
 21
110.0633710786
 31
0.0
  0
LINE
  5
DB
330
1F
100
AcDbEntity
  8
0
  6
Continuous
 62
     7
370
     0
100
AcDbLine
 10
88.9743464122
 20
107.5633716001
 30
0.0
 11
84.274345083
 21
107.5633716001
 31
0.0
  0
LINE
  5
DC
330
1F
100
AcDbEntity
  8
0
  6
Continuous
 62
     7
370
     0
100
AcDbLine
 10
87.6243459115
 20
102.5633707806
 30
0.0
 11
84.6243472825
 21
102.5633707806
 31
0.0
  0
LINE
  5
DD
330
1F
100
AcDbEntity
  8
0
  6
Continuous
 62
     7
370
     0
100
AcDbLine
 10
88.6243479381
 20
102.5633707806
 30
0.0
 11
87.6243459115
 21
102.5633707806
 31
0.0
  0
LINE
  5
DE
330
1F
100
AcDbEntity
  8
0
  6
Continuous
 62
     7
370
     0
100
AcDbLine
 10
87.7993451486
 20
105.063370259
 30
0.0
 11
84.274345083
 21
105.063370259
 31
0.0
  0
LINE
  5
DF
330
1F
100
AcDbEntity
  8
0
  6
Continuous
 62
     7
370
     0
100
AcDbLine
 10
88.9743464122
 20
105.063370259
 30
0.0
 11
87.7993451486
 21
105.063370259
 31
0.0
  0
CIRCLE
  5
E0
330
1F
100
AcDbEntity
  8
0
  6
Continuous
 62
     7
370
     0
100
AcDbCircle
 10
102.6243464131
 20
188.5584983842
 30
0.0
 40
1.999999999999985
  0
SPLINE
  5
E1
330
1F
100
AcDbEntity
  8
0
  6
Continuous
 62
     7
370
     0
100
AcDbSpline
210
0.0
220
0.0
230
1.0
 70
     8
 71
     3
 72
    14
 73
    10
 74
     0
 42
0.000000001
 43
0.00000001
 40
0.0
 40
0.0
 40
0.0
 40
0.0
 40
0.1250000000000016
 40
0.1250000000000016
 40
0.2500000000000033
 40
0.2500000000000033
 40
0.4999999999999986
 40
0.4999999999999986
 40
1.0
 40
1.0
 40
1.0
 40
1.0
 10
95.07555262247979
 20
215.3244317410586
 30
0.0
 10
95.05279626005668
 20
215.334689990232
 30
0.0
 10
95.03109545284896
 20
215.3392524177315
 30
0.0
 10
94.99707060302528
 20
215.3427968945877
 30
0.0
 10
94.9830405172481
 20
215.3422196421577
 30
0.0
 10
94.94605930793367
 20
215.3380049517386
 30
0.0
 10
94.92723267170093
 20
215.3316992591105
 30
0.0
 10
94.8783107632488
 20
215.3095674065681
 30
0.0
 10
94.85619360740405
 20
215.2901835970839
 30
0.0
 10
94.83887909119777
 20
215.2691266382842
 30
0.0
  0
ARC
  5
E2
330
1F
100
AcDbEntity
  8
0
  6
Continuous
 62
     7
370
     0
100
AcDbCircle
 10
94.4591119217
 20
213.9569519926
 30
0.0
 40
1.366025403784455
100
AcDbArc
 50
106.1414033176
 51
73.8585966824
  0
SPLINE
  5
E3
330
1F
100
AcDbEntity
  8
0
  6
Continuous
 62
     7
370
     0
100
AcDbSpline
210
0.0
220
0.0
230
1.0
 70
     8
 71
     3
 72
    14
 73
    10
 74
     0
 42
0.000000001
 43
0.00000001
 40
0.0
 40
0.0
 40
0.0
 40
0.0
 40
0.5000000000000021
 40
0.5000000000000021
 40
0.750000000000001
 40
0.750000000000001
 40
0.8750000000000006
 40
0.8750000000000006
 40
1.0
 40
1.0
 40
1.0
 40
1.0
 10
94.07934475220793
 20
215.2691266382841
 30
0.0
 10
94.0620376274781
 20
215.2901746079782
 30
0.0
 10
94.03993080554314
 20
215.3095015801233
 30
0.0
 10
93.99138550870043
 20
215.3315494097573
 30
0.0
 10
93.97263129226775
 20
215.3379254004861
 30
0.0
 10
93.93525987973877
 20
215.3422239320836
 30
0.0
 10
93.92128253251903
 20
215.3427891864093
 30
0.0
 10
93.88748891593931
 20
215.3393108470019
 30
0.0
 10
93.86557431270154
 20
215.3347561337672
 30
0.0
 10
93.84267122092594
 20
215.3244317410586
 30
0.0
  0
ARC
  5
E4
330
1F
100
AcDbEntity
  8
0
  6
Continuous
 62
     7
370
     0
100
AcDbCircle
 10
93.978785691
 20
214.9465411559
 30
0.0
 40
0.2000000000000384
100
AcDbArc
 50
295.8909827371
 51
15.4153010407
  0
ARC
  5
E5
330
1F
100
AcDbEntity
  8
0
  6
Continuous
 62
     7
370
     0
100
AcDbCircle
 10
94.4591119217
 20
213.9569519926
 30
0.0
 40
0.9000000000000045
100
AcDbArc
 50
115.8909827371
 51
64.1090172629
  0
LINE
  5
E6
330
1F
100
AcDbEntity
  8
0
  6
Continuous
 62
     7
370
     0
100
AcDbLine
 10
94.1176684628
 20
215.195263566
 30
0.0
 11
94.1715883146
 21
214.9997007265
 31
0.0
  0
ARC
  5
E7
330
1F
100
AcDbEntity
  8
0
  6
Continuous
 62
     7
370
     0
100
AcDbCircle
 10
94.9394381524
 20
214.9465411559
 30
0.0
 40
0.2000000000000066
100
AcDbArc
 50
164.5846989593
 51
244.1090172629
  0
LINE
  5
E8
330
1F
100
AcDbEntity
  8
0
  6
Continuous
 62
     7
370
     0
100
AcDbLine
 10
94.7466315756
 20
214.9997007265
 30
0.0
 11
94.800558878
 21
215.195263566
 31
0.0
  0
ARC
  5
E9
330
1F
100
AcDbEntity
  8
0
  6
Continuous
 62
     7
370
     0
100
AcDbCircle
 10
94.993360529
 20
215.1421011079
 30
0.0
 40
0.2000000000000169
100
AcDbArc
 50
140.5705471975
 51
164.5846989593
  0
ARC
  5
EA
330
1F
100
AcDbEntity
  8
0
  6
Continuous
 62
     7
370
     0
100
AcDbCircle
 10
93.9248633144
 20
215.1421011079
 30
0.0
 40
0.200000000000026
100
AcDbArc
 50
15.4153010407
 51
39.4294528025
  0
SPLINE
  5
EB
330
1F
100
AcDbEntity
  8
0
  6
Continuous
 62
     7
370
     0
100
AcDbSpline
210
0.0
220
0.0
230
1.0
 70
     8
 71
     3
 72
    12
 73
     8
 74
     0
 42
0.000000001
 43
0.00000001
 40
0.0
 40
0.0
 40
0.0
 40
0.0
 40
0.5
 40
0.5
 40
0.75
 40
0.75
 40
1.0
 40
1.0
 40
1.0
 40
1.0
 10
101.043344512444
 20
243.0386615947784
 30
0.0
 10
101.0643645514029
 20
243.0064418589774
 30
0.0
 10
101.0945577717039
 20
242.9781821944449
 30
0.0
 10
101.1624123909371
 20
242.9523925201289
 30
0.0
 10
101.1887755740773
 20
242.946813103312
 30
0.0
 10
101.2500321299867
 20
242.9494355295862
 30
0.0
 10
101.2861174961192
 20
242.9587721759334
 30
0.0
 10
101.3182432886715
 20
242.9792208410228
 30
0.0
  0
ARC
  5
EC
330
1F
100
AcDbEntity
  8
0
  6
Continuous
 62
     7
370
     0
100
AcDbCircle
 10
100.7812747414
 20
243.8228231047
 30
0.0
 40
0.8267949192431452
100
AcDbArc
 50
288.4798247181
 51
251.5201752819
  0
SPLINE
  5
ED
330
1F
100
AcDbEntity
  8
0
  6
Continuous
 62
     7
370
     0
100
AcDbSpline
210
0.0
220
0.0
230
1.0
 70
     8
 71
     3
 72
    12
 73
     8
 74
     0
 42
0.000000001
 43
0.00000001
 40
0.0
 40
0.0
 40
0.0
 40
0.0
 40
0.2499999999999924
 40
0.2499999999999924
 40
0.4999999999999848
 40
0.4999999999999848
 40
1.0
 40
1.0
 40
1.0
 40
1.0
 10
100.2443061940693
 20
242.9792208410228
 30
0.0
 10
100.2764505922871
 20
242.958760333081
 30
0.0
 10
100.3123521242895
 20
242.9494729382788
 30
0.0
 10
100.3735449350147
 20
242.9467927654085
 30
0.0
 10
100.3999870703462
 20
242.9523808401349
 30
0.0
 10
100.4673078155676
 20
242.9778325736235
 30
0.0
 10
100.4981784705331
 20
243.0064319557879
 30
0.0
 10
100.5192049702969
 20
243.0386615947783
 30
0.0
  0
ARC
  5
EE
330
1F
100
AcDbEntity
  8
0
  6
Continuous
 62
     7
370
     0
100
AcDbCircle
 10
100.3516999035
 20
243.1479412937
 30
0.0
 40
0.1999999999999995
100
AcDbArc
 50
342.0
 51
57.5224878141
  0
ARC
  5
EF
330
1F
100
AcDbEntity
  8
0
  6
Continuous
 62
     7
370
     0
100
AcDbCircle
 10
100.7812747414
 20
243.8228231047
 30
0.0
 40
0.6000000000000139
100
AcDbArc
 50
302.4775121859
 51
237.5224878141
  0
ARC
  5
F0
330
1F
100
AcDbEntity
  8
0
  6
Continuous
 62
     7
370
     0
100
AcDbCircle
 10
101.2108495792
 20
243.1479412937
 30
0.0
 40
0.2000000000000327
100
AcDbArc
 50
122.4775121859
 51
198.0
  0
ARC
  5
F1
330
1F
100
AcDbEntity
  8
0
  6
Continuous
 62
     7
370
     0
100
AcDbCircle
 10
100.3516999035
 20
243.1479412937
 30
0.0
 40
0.2000000000000133
100
AcDbArc
 50
326.8797162241
 51
342.0
  0
ARC
  5
F2
330
1F
100
AcDbEntity
  8
0
  6
Continuous
 62
     7
370
     0
100
AcDbCircle
 10
101.2108495792
 20
243.1479412937
 30
0.0
 40
0.2000000000000327
100
AcDbArc
 50
198.0
 51
213.1202837759
  0
LINE
  5
F3
330
1F
100
AcDbEntity
  8
0
  6
Continuous
 62
     7
370
     0
100
AcDbLine
 10
106.6455515156
 20
238.2775347843
 30
0.0
 11
107.6370375286
 21
244.1950466647
 31
0.0
  0
LINE
  5
F4
330
1F
100
AcDbEntity
  8
0
  6
Continuous
 62
     7
370
     0
100
AcDbLine
 10
107.6370375286
 20
244.1950466647
 30
0.0
 11
109.8067881594
 21
243.831503035
 31
0.0
  0
LINE
  5
F5
330
1F
100
AcDbEntity
  8
0
  6
Continuous
 62
     7
370
     0
100
AcDbLine
 10
109.7564818392
 20
223.5611405387
 30
0.0
 11
107.0442842374
 21
224.015573801
 31
0.0
  0
LINE
  5
F6
330
1F
100
AcDbEntity
  8
0
  6
Continuous
 62
     7
370
     0
100
AcDbLine
 10
107.0442842374
 20
224.015573801
 30
0.0
 11
107.2095381151
 21
225.0018220558
 31
0.0
  0
LINE
  5
F7
330
1F
100
AcDbEntity
  8
0
  6
Continuous
 62
     7
370
     0
100
AcDbLine
 10
109.7564818392
 20
223.5611405387
 30
0.0
 11
109.9217282663
 21
224.547396244
 31
0.0
  0
LWPOLYLINE
  5
F8
330
1F
100
AcDbEntity
  8
0
  6
Continuous
 62
     7
370
     0
100
AcDbPolyline
 90
        7
 70
   128
 43
0.0
 10
107.0442842374
 20
224.015573801
 10
106.4885677824
 20
224.1086837067
 10
105.9778677354
 20
224.1942536249
 10
105.553564621
 20
224.2653470649
 10
105.2500354181
 20
224.3161972775
 10
105.091859592
 20
224.3427064433
 10
105.0717802773
 20
224.3460666551
  0
LWPOLYLINE
  5
F9
330
1F
100
AcDbEntity
  8
0
  6
Continuous
 62
     7
370
     0
100
AcDbPolyline
 90
       11
 70
   128
 43
0.0
 10
107.6481165419
 20
218.844706954
 10
107.5618760715
 20
218.8591536298
 10
107.3135482202
 20
218.9007576718
 10
106.933084322
 20
218.9645048394
 10
106.4663799534
 20
219.0427061333
 10
105.9697242508
 20
219.125921668
 10
105.5030198822
 20
219.2041155114
 10
105.1225559841
 20
219.267862679
 10
104.8742281328
 20
219.309466721
 10
104.7879876624
 20
219.3239208474
 10
104.7879876624
 20
219.3239208474
  0
LINE
  5
FA
330
1F
100
AcDbEntity
  8
0
  6
Continuous
 62
     7
370
     0
100
AcDbLine
 10
100.8658306728
 20
208.320776762
 30
0.0
 11
100.5699755679
 21
206.555033864
 31
0.0
  0
LINE
  5
FB
330
1F
100
AcDbEntity
  8
0
  6
Continuous
 62
     7
370
     0
100
AcDbLine
 10
101.2198152075
 20
208.2614626899
 30
0.0
 11
100.8658306728
 21
208.320776762
 31
0.0
  0
ARC
  5
FC
330
1F
100
AcDbEntity
  8
0
  6
Continuous
 62
     7
370
     0
100
AcDbCircle
 10
100.3605304832
 20
203.1329538993
 30
0.0
 40
5.199999999999995
100
AcDbArc
 50
10.4884137372
 51
80.4884137372
  0
LINE
  5
FD
330
1F
100
AcDbEntity
  8
0
  6
Continuous
 62
     7
370
     0
100
AcDbLine
 10
110.9315948615
 20
174.5978322043
 30
0.0
 11
107.6243491898
 21
192.4623053684
 31
0.0
  0
LINE
  5
FE
330
1F
100
AcDbEntity
  8
0
  6
Continuous
 62
     7
370
     0
100
AcDbLine
 10
105.7857619653
 20
202.3936238303
 30
0.0
 11
105.4736496935
 21
204.0795412078
 31
0.0
  0
LINE
  5
FF
330
1F
100
AcDbEntity
  8
0
  6
Continuous
 62
     7
370
     0
100
AcDbLine
 10
107.6243491898
 20
154.8590220674
 30
0.0
 11
110.9315948615
 21
174.5978322043
 31
0.0
  0
LINE
  5
100
330
1F
100
AcDbEntity
  8
0
  6
Continuous
 62
     7
370
     0
100
AcDbLine
 10
72.3828645478
 20
208.320776762
 30
0.0
 11
72.6787159274
 21
206.555033864
 31
0.0
  0
LINE
  5
101
330
1F
100
AcDbEntity
  8
0
  6
Continuous
 62
     7
370
     0
100
AcDbLine
 10
65.6243460308
 20
154.8590220674
 30
0.0
 11
62.3170984964
 21
174.5978322043
 31
0.0
  0
LINE
  5
102
330
1F
100
AcDbEntity
  8
0
  6
Continuous
 62
     7
370
     0
100
AcDbLine
 10
62.3170984964
 20
174.5978322043
 30
0.0
 11
65.6243460308
 21
192.4623053684
 31
0.0
  0
LINE
  5
103
330
1F
100
AcDbEntity
  8
0
  6
Continuous
 62
     7
370
     0
100
AcDbLine
 10
67.4629295299
 20
202.3936238303
 30
0.0
 11
67.775045527
 21
204.0795412078
 31
0.0
  0
ARC
  5
104
330
1F
100
AcDbEntity
  8
0
  6
Continuous
 62
     7
370
     0
100
AcDbCircle
 10
72.888162343
 20
203.1329538993
 30
0.0
 40
5.200000000000039
100
AcDbArc
 50
99.5115862628
 51
169.5115862628
  0
LINE
  5
105
330
1F
100
AcDbEntity
  8
0
  6
Continuous
 62
     7
370
     0
100
AcDbLine
 10
72.0288762877
 20
208.2614626899
 30
0.0
 11
72.3828645478
 21
208.320776762
 31
0.0
  0
LINE
  5
106
330
1F
100
AcDbEntity
  8
0
  6
Continuous
 62
     7
370
     0
100
AcDbLine
 10
95.9097119103
 20
247.5438889279
 30
0.0
 11
91.8340990375
 21
217.2900166526
 31
0.0
  0
LINE
  5
107
330
1F
100
AcDbEntity
  8
0
  6
Continuous
 62
     7
370
     0
100
AcDbLine
 10
91.8340990375
 20
217.2900166526
 30
0.0
 11
91.2411594818
 21
212.3005788936
 31
0.0
  0
LINE
  5
108
330
1F
100
AcDbEntity
  8
0
  6
Continuous
 62
     7
370
     0
100
AcDbLine
 10
105.2361102829
 20
244.9013989582
 30
0.0
 11
104.8052357564
 21
245.4484950914
 31
0.0
  0
LINE
  5
109
330
1F
100
AcDbEntity
  8
0
  6
Continuous
 62
     7
370
     0
100
AcDbLine
 10
104.6460690031
 20
239.9363320484
 30
0.0
 11
105.2361102829
 21
244.9013989582
 31
0.0
  0
LINE
  5
10A
330
1F
100
AcDbEntity
  8
0
  6
Continuous
 62
     7
370
     0
100
AcDbLine
 10
103.8138764034
 20
239.5317133679
 30
0.0
 11
104.0905611644
 21
239.4988339557
 31
0.0
  0
ARC
  5
10B
330
1F
100
AcDbEntity
  8
0
  6
Continuous
 62
     7
370
     0
100
AcDbCircle
 10
104.1495642888
 20
239.9953396716
 30
0.0
 40
0.5000000000000036
100
AcDbArc
 50
263.2228396912
 51
353.2228396912
  0
ARC
  5
10C
330
1F
100
AcDbEntity
  8
0
  6
Continuous
 62
     7
370
     0
100
AcDbCircle
 10
97.3962799054
 20
247.3436273859
 30
0.0
 40
1.500000000000008
100
AcDbArc
 50
91.2365790214
 51
172.327665981
  0
SPLINE
  5
10D
330
1F
100
AcDbEntity
  8
0
  6
Continuous
 62
     7
370
     0
100
AcDbSpline
210
0.0
220
0.0
230
1.0
 70
    24
 71
     3
 72
     8
 73
     4
 74
     0
 42
0.000000001
 43
0.00000001
 40
0.0
 40
0.0
 40
0.0
 40
0.0
 40
1.0
 40
1.0
 40
1.0
 40
1.0
 10
101.9699514862979
 20
229.2089794002374
 30
0.0
 10
102.0174491713613
 20
229.2080608259816
 30
0.0
 10
102.0664908570803
 20
229.2071123917599
 30
0.0
 10
102.1196703709476
 20
229.2060839346402
 30
0.0
  0
ARC
  5
10E
330
1F
100
AcDbEntity
  8
0
  6
Continuous
 62
     7
370
     0
100
AcDbCircle
 10
102.5274518149
 20
228.828128522
 30
0.0
 40
0.6751696141506939
100
AcDbArc
 50
122.1227029927
 51
145.6614472038
  0
SPLINE
  5
10F
330
1F
100
AcDbEntity
  8
0
  6
Continuous
 62
     7
370
     0
100
AcDbSpline
210
0.0
220
0.0
230
1.0
 70
    24
 71
     3
 72
     8
 73
     4
 74
     0
 42
0.000000001
 43
0.00000001
 40
0.0
 40
0.0
 40
0.0
 40
0.0
 40
1.0
 40
1.0
 40
1.0
 40
1.0
 10
102.1684410382025
 20
229.3999372925304
 30
0.0
 10
102.1675224639466
 20
229.3524396074669
 30
0.0
 10
102.166574029725
 20
229.303397921748
 30
0.0
 10
102.1655455726052
 20
229.2502184078807
 30
0.0
  0
ARC
  5
110
330
1F
100
AcDbEntity
  8
0
  6
Continuous
 62
     7
370
     0
100
AcDbCircle
 10
102.5274518149
 20
228.828128522
 30
0.0
 40
0.5559999999999995
100
AcDbArc
 50
130.6102854799
 51
137.1738647166
  0
SPLINE
  5
111
330
1F
100
AcDbEntity
  8
0
  6
Continuous
 62
     7
370
     0
100
AcDbSpline
210
0.0
220
0.0
230
1.0
 70
    24
 71
     3
 72
     8
 73
     4
 74
     0
 42
0.000000001
 43
0.00000001
 40
0.0
 40
0.0
 40
0.0
 40
0.0
 40
1.0
 40
1.0
 40
1.0
 40
1.0
 10
103.0992605854615
 20
229.1871392986837
 30
0.0
 10
103.0517629003981
 20
229.1880578729395
 30
0.0
 10
103.0027212146792
 20
229.1890063071611
 30
0.0
 10
102.9495417008119
 20
229.1900347642809
 30
0.0
  0
ARC
  5
112
330
1F
100
AcDbEntity
  8
0
  6
Continuous
 62
     7
370
     0
100
AcDbCircle
 10
102.5274518149
 20
228.828128522
 30
0.0
 40
0.5560000000000179
100
AcDbArc
 50
40.6102854799
 51
47.1738647166
  0
SPLINE
  5
113
330
1F
100
AcDbEntity
  8
0
  6
Continuous
 62
     7
370
     0
100
AcDbSpline
210
0.0
220
0.0
230
1.0
 70
    24
 71
     3
 72
     8
 73
     4
 74
     0
 42
0.000000001
 43
0.00000001
 40
0.0
 40
0.0
 40
0.0
 40
0.0
 40
1.0
 40
1.0
 40
1.0
 40
1.0
 10
102.9083026931686
 20
229.3856288505882
 30
0.0
 10
102.9073841189127
 20
229.3381311655248
 30
0.0
 10
102.9064356846911
 20
229.2890894798058
 30
0.0
 10
102.9054072275713
 20
229.2359099659386
 30
0.0
  0
ARC
  5
114
330
1F
100
AcDbEntity
  8
0
  6
Continuous
 62
     7
370
     0
100
AcDbCircle
 10
102.5274518149
 20
228.828128522
 30
0.0
 40
0.6751696141507056
100
AcDbArc
 50
32.1227029927
 51
55.6614472038
  0
SPLINE
  5
115
330
1F
100
AcDbEntity
  8
0
  6
Continuous
 62
     7
370
     0
100
AcDbSpline
210
0.0
220
0.0
230
1.0
 70
    24
 71
     3
 72
     8
 73
     4
 74
     0
 42
0.000000001
 43
0.00000001
 40
0.0
 40
0.0
 40
0.0
 40
0.0
 40
1.0
 40
1.0
 40
1.0
 40
1.0
 10
101.9556430443558
 20
228.4691177452713
 30
0.0
 10
102.0031407294192
 20
228.4681991710155
 30
0.0
 10
102.0521824151381
 20
228.4672507367938
 30
0.0
 10
102.1053619290054
 20
228.4662222796741
 30
0.0
  0
ARC
  5
116
330
1F
100
AcDbEntity
  8
0
  6
Continuous
 62
     7
370
     0
100
AcDbCircle
 10
102.5274518149
 20
228.828128522
 30
0.0
 40
0.5560000000000078
100
AcDbArc
 50
220.6102854799
 51
227.1738647166
  0
SPLINE
  5
117
330
1F
100
AcDbEntity
  8
0
  6
Continuous
 62
     7
370
     0
100
AcDbSpline
210
0.0
220
0.0
230
1.0
 70
    24
 71
     3
 72
     8
 73
     4
 74
     0
 42
0.000000001
 43
0.00000001
 40
0.0
 40
0.0
 40
0.0
 40
0.0
 40
1.0
 40
1.0
 40
1.0
 40
1.0
 10
102.1466009366487
 20
228.2706281933668
 30
0.0
 10
102.1475195109045
 20
228.3181258784302
 30
0.0
 10
102.1484679451262
 20
228.3671675641491
 30
0.0
 10
102.149496402246
 20
228.4203470780164
 30
0.0
  0
ARC
  5
118
330
1F
100
AcDbEntity
  8
0
  6
Continuous
 62
     7
370
     0
100
AcDbCircle
 10
102.5274518149
 20
228.828128522
 30
0.0
 40
0.6751696141506821
100
AcDbArc
 50
212.1227029927
 51
235.6614472038
  0
ARC
  5
119
330
1F
100
AcDbEntity
  8
0
  6
Continuous
 62
     7
370
     0
100
AcDbCircle
 10
102.5274518149
 20
228.828128522
 30
0.0
 40
0.6751696141506939
100
AcDbArc
 50
302.1227029927
 51
325.6614472038
  0
SPLINE
  5
11A
330
1F
100
AcDbEntity
  8
0
  6
Continuous
 62
     7
370
     0
100
AcDbSpline
210
0.0
220
0.0
230
1.0
 70
    24
 71
     3
 72
     8
 73
     4
 74
     0
 42
0.000000001
 43
0.00000001
 40
0.0
 40
0.0
 40
0.0
 40
0.0
 40
1.0
 40
1.0
 40
1.0
 40
1.0
 10
102.8864625916148
 20
228.2563197514246
 30
0.0
 10
102.8873811658707
 20
228.303817436488
 30
0.0
 10
102.8883296000923
 20
228.352859122207
 30
0.0
 10
102.8893580572121
 20
228.4060386360742
 30
0.0
  0
ARC
  5
11B
330
1F
100
AcDbEntity
  8
0
  6
Continuous
 62
     7
370
     0
100
AcDbCircle
 10
102.5274518149
 20
228.828128522
 30
0.0
 40
0.5560000000000087
100
AcDbArc
 50
310.6102854799
 51
317.1738647166
  0
SPLINE
  5
11C
330
1F
100
AcDbEntity
  8
0
  6
Continuous
 62
     7
370
     0
100
AcDbSpline
210
0.0
220
0.0
230
1.0
 70
    24
 71
     3
 72
     8
 73
     4
 74
     0
 42
0.000000001
 43
0.00000001
 40
0.0
 40
0.0
 40
0.0
 40
0.0
 40
1.0
 40
1.0
 40
1.0
 40
1.0
 10
103.0849521435194
 20
228.4472776437176
 30
0.0
 10
103.0374544584559
 20
228.4481962179734
 30
0.0
 10
102.988412772737
 20
228.449144652195
 30
0.0
 10
102.9352332588697
 20
228.4501731093148
 30
0.0
  0
ARC
  5
11D
330
1F
100
AcDbEntity
  8
0
  6
Continuous
 62
     7
370
     0
100
AcDbCircle
 10
112.1905389888
 20
228.6413021354
 30
0.0
 40
10.97746151987541
100
AcDbArc
 50
176.9607846906
 51
180.8238906658
  0
ARC
  5
11E
330
1F
100
AcDbEntity
  8
0
  6
Continuous
 62
     7
370
     0
100
AcDbCircle
 10
102.7142761732
 20
238.4908740173
 30
0.0
 40
10.97712097489568
100
AcDbArc
 50
266.9607330451
 51
270.8239200079
  0
LWPOLYLINE
  5
11F
330
1F
100
AcDbEntity
  8
0
  6
Continuous
 62
     7
370
     0
100
AcDbPolyline
 90
        9
 70
   128
 43
0.0
 10
102.8721230159
 20
227.51488799
 10
102.8738888035
 20
227.606269361
 10
102.8756694923
 20
227.6980903163
 10
102.877450181
 20
227.7903136029
 10
102.8792383204
 20
227.8829094186
 10
102.8810413609
 20
227.9758405103
 10
102.8828444014
 20
228.0690770759
 10
102.8846474419
 20
228.1625818624
 10
102.8864653836
 20
228.2563176169
  0
ARC
  5
120
330
1F
100
AcDbEntity
  8
0
  6
Continuous
 62
     7
370
     0
100
AcDbCircle
 10
92.8647050156
 20
229.0149517923
 30
0.0
 40
10.97712097491094
100
AcDbArc
 50
356.9607330451
 51
0.8239200079
  0
ARC
  5
121
330
1F
100
AcDbEntity
  8
0
  6
Continuous
 62
     7
370
     0
100
AcDbCircle
 10
102.3407397413
 20
219.1711991474
 30
0.0
 40
10.97130468323638
100
AcDbArc
 50
86.959708648
 51
90.8249444049
  0
LWPOLYLINE
  5
122
330
1F
100
AcDbEntity
  8
0
  6
Continuous
 62
     7
370
     0
100
AcDbPolyline
 90
        9
 70
   128
 43
0.0
 10
102.1827803979
 20
230.141366662
 10
102.1810146103
 20
230.049985291
 10
102.1792339216
 20
229.9581643357
 10
102.1774532328
 20
229.8659410491
 10
102.1756650935
 20
229.7733452334
 10
102.173862053
 20
229.6804141416
 10
102.1720590125
 20
229.5871850266
 10
102.170255972
 20
229.4936802401
 10
102.1684380303
 20
229.3999370351
  0
CIRCLE
  5
123
330
1F
100
AcDbEntity
  8
0
  6
Continuous
 62
     7
370
     0
100
AcDbCircle
 10
102.5274518149
 20
228.828128522
 30
0.0
 40
2.674418604651137
  0
LWPOLYLINE
  5
124
330
1F
100
AcDbEntity
  8
0
  6
Continuous
 62
     7
370
     0
100
AcDbPolyline
 90
        9
 70
   128
 43
0.0
 10
102.9083030353
 20
229.3856319203
 10
102.9101135264
 20
229.4793676748
 10
102.9119240175
 20
229.5728724613
 10
102.913727058
 20
229.6661090269
 10
102.9155226479
 20
229.7590401187
 10
102.9173182378
 20
229.8516284837
 10
102.9190989266
 20
229.943859221
 10
102.9208721648
 20
230.0356801762
 10
102.9226379524
 20
230.1270615473
  0
LWPOLYLINE
  5
125
330
1F
100
AcDbEntity
  8
0
  6
Continuous
 62
     7
370
     0
100
AcDbPolyline
 90
        9
 70
   128
 43
0.0
 10
101.9699545632
 20
229.2089786544
 10
101.8762113581
 20
229.2107891454
 10
101.7827065716
 20
229.2125996365
 10
101.689470006
 20
229.214402677
 10
101.5965389142
 20
229.216198267
 10
101.5039505492
 20
229.2179938569
 10
101.4117272625
 20
229.2197745456
 10
101.3199063073
 20
229.2215477838
 10
101.2285174857
 20
229.223321022
  0
LWPOLYLINE
  5
126
330
1F
100
AcDbEntity
  8
0
  6
Continuous
 62
     7
370
     0
100
AcDbPolyline
 90
        9
 70
   128
 43
0.0
 10
101.2142123709
 20
228.483456017
 10
101.3055937419
 20
228.4816902294
 10
101.3974146972
 20
228.4799169912
 10
101.4896379838
 20
228.4781288519
 10
101.5822337995
 20
228.4763407125
 10
101.6751648913
 20
228.4745451226
 10
101.7684014569
 20
228.4727420821
 10
101.8619062434
 20
228.470931591
 10
101.9556419979
 20
228.4691210999
  0
LWPOLYLINE
  5
127
330
1F
100
AcDbEntity
  8
0
  6
Continuous
 62
     7
370
     0
100
AcDbPolyline
 90
        9
 70
   128
 43
0.0
 10
103.8406910429
 20
229.172798635
 10
103.7493096719
 20
229.1745644226
 10
103.6574887166
 20
229.1763451113
 10
103.56526543
 20
229.1781258001
 10
103.4726696144
 20
229.17992139
 10
103.3797385226
 20
229.18171698
 10
103.286501957
 20
229.1835200205
 10
103.1929971705
 20
229.185323061
 10
103.099261416
 20
229.1871410026
  0
LWPOLYLINE
  5
128
330
1F
100
AcDbEntity
  8
0
  6
Continuous
 62
     7
370
     0
100
AcDbPolyline
 90
        9
 70
   128
 43
0.0
 10
102.1466003786
 20
228.2706301822
 10
102.1447898875
 20
228.1768869772
 10
102.1429793964
 20
228.0833821907
 10
102.1411763559
 20
227.9901530757
 10
102.139380766
 20
227.8972219839
 10
102.137585176
 20
227.8046261682
 10
102.1358044873
 20
227.7124028816
 10
102.1340312491
 20
227.6205819263
 10
102.1322654615
 20
227.5291931047
  0
LWPOLYLINE
  5
129
330
1F
100
AcDbEntity
  8
0
  6
Continuous
 62
     7
370
     0
100
AcDbPolyline
 90
        9
 70
   128
 43
0.0
 10
103.0849488507
 20
228.4472759976
 10
103.1786920557
 20
228.4454655065
 10
103.2721968422
 20
228.4436550154
 10
103.3654334078
 20
228.4418519749
 10
103.4583644996
 20
228.440056385
 10
103.5509528647
 20
228.4382682457
 10
103.6431761513
 20
228.4364801063
 10
103.7349971066
 20
228.4347068681
 10
103.8263859282
 20
228.4329410805
  0
LINE
  5
12A
330
1F
100
AcDbEntity
  8
0
  6
Continuous
 62
     7
370
     0
100
AcDbLine
 10
101.9966723452
 20
228.6625828757
 30
0.0
 11
101.9929172526
 21
228.4683983936
 31
0.0
  0
LINE
  5
12B
330
1F
100
AcDbEntity
  8
0
  6
Continuous
 62
     7
370
     0
100
AcDbLine
 10
102.0072223673
 20
229.208255948
 30
0.0
 11
102.0034672747
 21
229.0140714659
 31
0.0
  0
ELLIPSE
  5
12C
330
1F
100
AcDbEntity
  8
0
  6
Continuous
 62
     7
370
     0
100
AcDbEllipse
 10
102.4585042207
 20
228.8294619235
 30
0.0
 11
0.4915997202740386
 21
-0.009507218017205332
 31
0.0
210
0.0
220
0.0
230
1.0
 40
0.9901159119
 41
2.772178939413048
 42
3.511006367766634
  0
LINE
  5
12D
330
1F
100
AcDbEntity
  8
0
  6
Continuous
 62
     7
370
     0
100
AcDbLine
 10
102.6929961572
 20
228.2973479643
 30
0.0
 11
102.8871806393
 21
228.2935928716
 31
0.0
  0
LINE
  5
12E
330
1F
100
AcDbEntity
  8
0
  6
Continuous
 62
     7
370
     0
100
AcDbLine
 10
102.1473230849
 20
228.3078979864
 30
0.0
 11
102.341507567
 21
228.3041428938
 31
0.0
  0
ELLIPSE
  5
12F
330
1F
100
AcDbEntity
  8
0
  6
Continuous
 62
     7
370
     0
100
AcDbEllipse
 10
102.5261184134
 20
228.7591809278
 30
0.0
 11
0.009507218017205332
 21
0.4915997202739959
 31
0.0
210
0.0
220
0.0
230
1.0
 40
0.9901159119
 41
2.772178939413072
 42
3.51100636776656
  0
LINE
  5
130
330
1F
100
AcDbEntity
  8
0
  6
Continuous
 62
     7
370
     0
100
AcDbLine
 10
102.3619072566
 20
229.3589141383
 30
0.0
 11
102.1677227745
 21
229.3626692309
 31
0.0
  0
LINE
  5
131
330
1F
100
AcDbEntity
  8
0
  6
Continuous
 62
     7
370
     0
100
AcDbLine
 10
102.907580329
 20
229.3483566656
 30
0.0
 11
102.7133958469
 21
229.3521117582
 31
0.0
  0
ELLIPSE
  5
132
330
1F
100
AcDbEntity
  8
0
  6
Continuous
 62
     7
370
     0
100
AcDbEllipse
 10
102.5287852164
 20
228.8970761162
 30
0.0
 11
0.009507218017205332
 21
0.4915997202740243
 31
0.0
210
0.0
220
0.0
230
1.0
 40
0.9901159119
 41
5.9137715930028
 42
6.652599021356352
  0
LINE
  5
133
330
1F
100
AcDbEntity
  8
0
  6
Continuous
 62
     7
370
     0
100
AcDbLine
 10
103.0582310687
 20
228.9936792269
 30
0.0
 11
103.0619861613
 21
229.187863709
 31
0.0
  0
LINE
  5
134
330
1F
100
AcDbEntity
  8
0
  6
Continuous
 62
     7
370
     0
100
AcDbLine
 10
103.0476810465
 20
228.4479987039
 30
0.0
 11
103.0514361391
 21
228.642183186
 31
0.0
  0
ELLIPSE
  5
135
330
1F
100
AcDbEntity
  8
0
  6
Continuous
 62
     7
370
     0
100
AcDbEllipse
 10
102.5963994091
 20
228.8267951205
 30
0.0
 11
0.4915997202740527
 21
-0.009507218017176911
 31
0.0
210
0.0
220
0.0
230
1.0
 40
0.9901159119
 41
5.913771593002733
 42
6.652599021356309
  0
CIRCLE
  5
136
330
1F
100
AcDbEntity
  8
0
  6
Continuous
 62
     7
370
     0
100
AcDbCircle
 10
102.5274518149
 20
228.828128522
 30
0.0
 40
2.800000000000007
  0
ARC
  5
137
330
1F
100
AcDbEntity
  8
0
  6
Continuous
 62
     7
370
     0
100
AcDbCircle
 10
102.5274518149
 20
228.828128522
 30
0.0
 40
0.5559999999999912
100
AcDbArc
 50
250.4617875707
 51
287.3223626258
  0
ARC
  5
138
330
1F
100
AcDbEntity
  8
0
  6
Continuous
 62
     7
370
     0
100
AcDbCircle
 10
102.5274518149
 20
228.828128522
 30
0.0
 40
0.5560000000000047
100
AcDbArc
 50
160.4617875707
 51
197.3223626258
  0
ARC
  5
139
330
1F
100
AcDbEntity
  8
0
  6
Continuous
 62
     7
370
     0
100
AcDbCircle
 10
102.5274518149
 20
228.828128522
 30
0.0
 40
0.5560000000000047
100
AcDbArc
 50
340.4617875707
 51
17.3223626258
  0
ARC
  5
13A
330
1F
100
AcDbEntity
  8
0
  6
Continuous
 62
     7
370
     0
100
AcDbCircle
 10
102.5274518149
 20
228.828128522
 30
0.0
 40
0.5560000000000178
100
AcDbArc
 50
70.4617875707
 51
107.3223626258
  0
ARC
  5
13B
330
1F
100
AcDbEntity
  8
0
  6
Continuous
 62
     7
370
     0
100
AcDbCircle
 10
102.5274518149
 20
228.828128522
 30
0.0
 40
0.5560000000000179
100
AcDbArc
 50
17.3223626258
 51
40.6102854799
  0
ARC
  5
13C
330
1F
100
AcDbEntity
  8
0
  6
Continuous
 62
     7
370
     0
100
AcDbCircle
 10
102.5274518149
 20
228.828128522
 30
0.0
 40
0.5560000000000087
100
AcDbArc
 50
287.3223626258
 51
310.6102854799
  0
ARC
  5
13D
330
1F
100
AcDbEntity
  8
0
  6
Continuous
 62
     7
370
     0
100
AcDbCircle
 10
102.5274518149
 20
228.828128522
 30
0.0
 40
0.5560000000000078
100
AcDbArc
 50
317.1738647166
 51
340.4617875707
  0
ARC
  5
13E
330
1F
100
AcDbEntity
  8
0
  6
Continuous
 62
     7
370
     0
100
AcDbCircle
 10
102.5274518149
 20
228.828128522
 30
0.0
 40
0.5559999999999995
100
AcDbArc
 50
107.3223626258
 51
130.6102854799
  0
ARC
  5
13F
330
1F
100
AcDbEntity
  8
0
  6
Continuous
 62
     7
370
     0
100
AcDbCircle
 10
102.5274518149
 20
228.828128522
 30
0.0
 40
0.5559999999999996
100
AcDbArc
 50
137.1738647166
 51
160.4617875707
  0
ARC
  5
140
330
1F
100
AcDbEntity
  8
0
  6
Continuous
 62
     7
370
     0
100
AcDbCircle
 10
102.5274518149
 20
228.828128522
 30
0.0
 40
0.5560000000000078
100
AcDbArc
 50
227.1738647166
 51
250.4617875707
  0
ARC
  5
141
330
1F
100
AcDbEntity
  8
0
  6
Continuous
 62
     7
370
     0
100
AcDbCircle
 10
102.5274518149
 20
228.828128522
 30
0.0
 40
0.5560000000000047
100
AcDbArc
 50
197.3223626258
 51
220.6102854799
  0
ARC
  5
142
330
1F
100
AcDbEntity
  8
0
  6
Continuous
 62
     7
370
     0
100
AcDbCircle
 10
102.5274518149
 20
228.828128522
 30
0.0
 40
0.5560000000000178
100
AcDbArc
 50
47.1738647166
 51
70.4617875707
  0
CIRCLE
  5
143
330
1F
100
AcDbEntity
  8
0
  6
Continuous
 62
     7
370
     0
100
AcDbCircle
 10
70.6243464131
 20
188.5584983842
 30
0.0
 40
2.000000000000012
  0
LINE
  5
144
330
1F
100
AcDbEntity
  8
0
  6
Continuous
 62
     7
370
     0
100
AcDbLine
 10
101.9115420113
 20
239.0707161441
 30
0.0
 11
101.6812445651
 21
238.9065202489
 31
0.0
  0
LINE
  5
145
330
1F
100
AcDbEntity
  8
0
  6
Continuous
 62
     7
370
     0
100
AcDbLine
 10
103.6867993007
 20
238.7732740655
 30
0.0
 11
107.8290538917
 21
238.0792375817
 31
0.0
  0
ARC
  5
146
330
1F
100
AcDbEntity
  8
0
  6
Continuous
 62
     7
370
     0
100
AcDbCircle
 10
107.9943024998
 20
239.0654887085
 30
0.0
 40
1.000000000000022
100
AcDbArc
 50
260.4884137372
 51
350.4884137372
  0
LINE
  5
147
330
1F
100
AcDbEntity
  8
0
  6
Continuous
 62
     7
370
     0
100
AcDbLine
 10
108.9805560241
 20
238.9002394094
 30
0.0
 11
109.9720345865
 21
244.8177512898
 31
0.0
  0
LINE
  5
148
330
1F
100
AcDbEntity
  8
0
  6
Continuous
 62
     7
370
     0
100
AcDbLine
 10
110.4148523937
 20
224.4647693052
 30
0.0
 11
104.4973405133
 21
225.4562553181
 31
0.0
  0
LINE
  5
149
330
1F
100
AcDbEntity
  8
0
  6
Continuous
 62
     7
370
     0
100
AcDbLine
 10
99.7643740902
 20
227.4659898295
 30
0.0
 11
99.803035153
 21
227.69672686
 31
0.0
  0
LINE
  5
14A
330
1F
100
AcDbEntity
  8
0
  6
Continuous
 62
     7
370
     0
100
AcDbLine
 10
100.3206046353
 20
230.7857599272
 30
0.0
 11
101.6812445651
 21
238.9065202489
 31
0.0
  0
CIRCLE
  5
14B
330
1F
100
AcDbEntity
  8
0
  6
Continuous
 62
     7
370
     0
100
AcDbCircle
 10
107.2986958758
 20
233.09840136
 30
0.0
 40
1.749999999999984
  0
LINE
  5
14C
330
1F
100
AcDbEntity
  8
0
  6
Continuous
 62
     7
370
     0
100
AcDbLine
 10
99.7643740902
 20
227.4659898295
 30
0.0
 11
100.7495792637
 21
226.0841902509
 31
0.0
  0
LINE
  5
14D
330
1F
100
AcDbEntity
  8
0
  6
Continuous
 62
     7
370
     0
100
AcDbLine
 10
113.719795836
 20
244.1898163571
 30
0.0
 11
109.9720345865
 21
244.8177512898
 31
0.0
  0
LINE
  5
14E
330
1F
100
AcDbEntity
  8
0
  6
Continuous
 62
     7
370
     0
100
AcDbLine
 10
110.4148523937
 20
224.4647693052
 30
0.0
 11
113.719795836
 21
244.1898163571
 31
0.0
  0
LINE
  5
14F
330
1F
100
AcDbEntity
  8
0
  6
Continuous
 62
     7
370
     0
100
AcDbLine
 10
110.0546615253
 20
245.3108828678
 30
0.0
 11
109.9720345865
 21
244.8177512898
 31
0.0
  0
LINE
  5
150
330
1F
100
AcDbEntity
  8
0
  6
Continuous
 62
     7
370
     0
100
AcDbLine
 10
110.0546615253
 20
245.3108828678
 30
0.0
 11
113.3092911969
 21
244.7655674233
 31
0.0
  0
ARC
  5
151
330
1F
100
AcDbEntity
  8
0
  6
Continuous
 62
     7
370
     0
100
AcDbCircle
 10
113.22666927
 20
244.272439638
 30
0.0
 40
0.50000000000001
100
AcDbArc
 50
350.4884137372
 51
80.4884137372
  0
DIMENSION
  5
152
330
1F
100
AcDbEntity
  8
0
  6
Continuous
 62
     7
370
     0
100
AcDbDimension
  2
_D
 10
96.6243464131
 20
94.609451244
 30
0.0
 11
86.6243464131
 21
94.609451244
 31
0.0
 70
   160
  1
%%c<>
 71
     2
 42
-1.0
  3
SLDDIMSTYLE0
100
AcDbAlignedDimension
 13
76.6243464131
 23
113.5633708042
 33
0.0
 14
96.6243464131
 24
113.5633708042
 34
0.0
 50
0.0
100
AcDbRotatedDimension
  0
DIMENSION
  5
15E
330
1F
100
AcDbEntity
  8
0
  6
Continuous
 62
     7
370
     0
100
AcDbDimension
  2
_D_1
 10
102.6243464131
 20
88.9788066568
 30
0.0
 11
86.6243464131
 21
88.9788066568
 31
0.0
 70
   160
  1
<>
 71
     2
 42
-1.0
  3
SLDDIMSTYLE0
100
AcDbAlignedDimension
 13
70.6243464131
 23
142.5633708042
 33
0.0
 14
102.6243464131
 24
142.5633708042
 34
0.0
 50
0.0
100
AcDbRotatedDimension
  0
DIMENSION
  5
168
330
1F
100
AcDbEntity
  8
0
  6
Continuous
 62
     7
370
     0
100
AcDbDimension
  2
_D_2
 10
65.6243464131
 20
83.3481620695
 30
0.0
 11
86.6243464131
 21
83.3481620695
 31
0.0
 70
   160
  1
<>
 71
     2
 42
-1.0
  3
SLDDIMSTYLE0
100
AcDbAlignedDimension
 13
107.6243464131
 23
137.5633708042
 33
0.0
 14
65.6243464131
 24
137.5633708042
 34
0.0
 50
0.0
100
AcDbRotatedDimension
  0
DIMENSION
  5
172
330
1F
100
AcDbEntity
  8
0
  6
Continuous
 62
     7
370
     0
100
AcDbDimension
  2
_D_3
 10
122.3794238585
 20
142.5633708042
 30
0.0
 11
122.3794238585
 21
140.0633708042
 31
0.0
 70
   160
  1
<>
 71
     2
 42
-1.0
  3
SLDDIMSTYLE1
100
AcDbAlignedDimension
 13
107.6243464131
 23
137.5633708042
 33
0.0
 14
102.6243464131
 24
142.5633708042
 34
0.0
 50
90.0
100
AcDbRotatedDimension
  0
DIMENSION
  5
17F
330
1F
100
AcDbEntity
  8
0
  6
Continuous
 62
     7
370
     0
100
AcDbDimension
  2
_D_4
 10
122.3794238585
 20
185.5633708042
 30
0.0
 11
122.3794238585
 21
164.0633708042
 31
0.0
 70
   160
  1
<>
 71
     2
 42
-1.0
  3
SLDDIMSTYLE0
100
AcDbAlignedDimension
 13
102.6243464131
 23
142.5633708042
 33
0.0
 14
86.6243464131
 24
185.5633708042
 34
0.0
 50
90.0
100
AcDbRotatedDimension
  0
DIMENSION
  5
189
330
1F
100
AcDbEntity
  8
0
  6
Continuous
 62
     7
370
     0
100
AcDbDimension
  2
_D_5
 10
132.0806702949
 20
137.5633708042
 30
0.0
 11
132.0806702949
 21
172.6592041342
 31
0.0
 70
   160
  1
<>
 71
     2
 42
-1.0
  3
SLDDIMSTYLE0
100
AcDbAlignedDimension
 13
92.6243464131
 23
207.7550374642
 33
0.0
 14
107.6243464131
 24
137.5633708042
 34
0.0
 50
90.0
100
AcDbRotatedDimension
  0
DIMENSION
  5
193
330
1F
100
AcDbEntity
  8
0
  6
Continuous
 62
     7
370
     0
100
AcDbDimension
  2
_D_6
 10
132.0806702949
 20
112.5633708042
 30
0.0
 11
132.0806702949
 21
125.0633708042
 31
0.0
 70
   160
  1
<>
 71
     2
 42
-1.0
  3
SLDDIMSTYLE0
100
AcDbAlignedDimension
 13
107.6243464131
 23
137.5633708042
 33
0.0
 14
95.6243464131
 24
112.5633708042
 34
0.0
 50
90.0
100
AcDbRotatedDimension
  0
DIMENSION
  5
19D
330
1F
100
AcDbEntity
  8
0
  6
Continuous
 62
     7
370
     0
100
AcDbDimension
  2
_D_7
 10
144.0806702949
 20
102.5633708042
 30
0.0
 11
144.0806702949
 21
176.0057462687
 31
0.0
 70
   160
  1
(<>)
 71
     2
 42
-1.0
  3
SLDDIMSTYLE0
100
AcDbAlignedDimension
 13
97.4652507155
 23
249.4481217332
 33
0.0
 14
88.6243464131
 24
102.5633708042
 34
0.0
 50
90.0
100
AcDbRotatedDimension
  0
DIMENSION
  5
1A9
330
1F
100
AcDbEntity
  8
0
  6
Continuous
 62
     7
370
     0
100
AcDbDimension
  2
_D_8
 10
97.4652507155
 20
261.5859553101
 30
0.0
 11
86.6243464131
 21
261.5859553101
 31
0.0
 70
   160
  1
(<>)
 71
     2
 42
-1.0
  3
SLDDIMSTYLE0
100
AcDbAlignedDimension
 13
75.7834421107
 23
249.4481217332
 33
0.0
 14
97.4652507155
 24
249.4481217332
 34
0.0
 50
0.0
100
AcDbRotatedDimension
  0
DIMENSION
  5
1B5
330
1F
100
AcDbEntity
  8
0
  6
Continuous
 62
     7
370
     0
100
AcDbDimension
  2
_D_9
 10
72.7456667567
 20
140.4420504606
 30
0.0
 11
38.8275783483
 21
160.5518077467
 31
0.0
 70
   163
  1
3-<>取付穴\P(両側口元面取有)
 71
     1
 42
-1.0
  3
SLDDIMSTYLE2
100
AcDbDiametricDimension
 15
68.5030260695
 25
144.6846911477
 35
0.0
 40
0.0
  0
INSERT
  5
1C6
330
1F
100
AcDbEntity
  8
0
  6
Continuous
 62
     7
370
     0
100
AcDbBlockReference
  2
SW_NOTE_0
 10
58.284025864
 20
113.7808718644
 30
0.0
  0
LEADER
  5
1C8
330
1F
100
AcDbEntity
  8
0
  6
Continuous
 62
     7
370
     0
100
AcDbLeader
  3
SLDDIMSTYLE3
 76
     2
 10
85.0880213742
 20
103.565851648
 30
0.0
 10
58.284025864
 20
113.7808718644
 30
0.0
  0
INSERT
  5
1D4
330
1F
100
AcDbEntity
  8
0
  6
Continuous
 62
     7
370
     0
100
AcDbBlockReference
  2
SW_CENTERMARKSYMBOL_0
 10
70.6243464131
 20
188.5584983842
 30
0.0
  0
INSERT
  5
1E0
330
1F
100
AcDbEntity
  8
0
  6
Continuous
 62
     7
370
     0
100
AcDbBlockReference
  2
SW_CENTERMARKSYMBOL_1
 10
86.6243464131
 20
185.5633708042
 30
0.0
  0
INSERT
  5
1EC
330
1F
100
AcDbEntity
  8
0
  6
Continuous
 62
     7
370
     0
100
AcDbBlockReference
  2
SW_CENTERMARKSYMBOL_2
 10
102.6243464131
 20
188.5584983842
 30
0.0
  0
INSERT
  5
1F8
330
1F
100
AcDbEntity
  8
0
  6
Continuous
 62
     7
370
     0
100
AcDbBlockReference
  2
SW_CENTERMARKSYMBOL_3
 10
70.6243464131
 20
142.5633708042
 30
0.0
  0
INSERT
  5
204
330
1F
100
AcDbEntity
  8
0
  6
Continuous
 62
     7
370
     0
100
AcDbBlockReference
  2
SW_CENTERMARKSYMBOL_4
 10
102.6243464131
 20
142.5633708042
 30
0.0
  0
CIRCLE
  5
205
330
1F
100
AcDbEntity
  8
0
  6
Continuous
 62
     7
370
     0
100
AcDbCircle
 10
70.6243464131
 20
142.5633708042
 30
0.0
 40
2.999999546756115
  0
CIRCLE
  5
206
330
1F
100
AcDbEntity
  8
0
  6
Continuous
 62
     7
370
     0
100
AcDbCircle
 10
102.6243464131
 20
142.5633708042
 30
0.0
 40
2.999999546755774
  0
CIRCLE
  5
207
330
1F
100
AcDbEntity
  8
0
  6
Continuous
 62
     7
370
     0
100
AcDbCircle
 10
86.6243464131
 20
185.5633708042
 30
0.0
 40
2.999999949087382
  0
LINE
  5
208
330
1F
100
AcDbEntity
  8
0
  6
CENTERX2
 62
     7
370
     0
100
AcDbLine
 10
86.6243464131
 20
99.8939552239
 30
0.0
 11
86.6243464131
 21
249.724503632
 31
0.0
  0
CIRCLE
  5
209
330
1F
100
AcDbEntity
  8
0
  6
Continuous
 62
     7
370
     0
100
AcDbCircle
 10
86.6243464131
 20
55.8694029851
 30
0.0
 40
8.999999999999993
  0
CIRCLE
  5
20A
330
1F
100
AcDbEntity
  8
0
  6
Continuous
 62
     7
370
     0
100
AcDbCircle
 10
86.6243464131
 20
55.8694029851
 30
0.0
 40
10.0
  0
LINE
  5
20B
330
1F
100
AcDbEntity
  8
0
  6
Continuous
 62
     7
370
     0
100
AcDbLine
 10
66.6243480573
 20
66.1194032682
 30
0.0
 11
65.6243460308
 21
65.1194031043
 31
0.0
  0
LINE
  5
20C
330
1F
100
AcDbEntity
  8
0
  6
Continuous
 62
     7
370
     0
100
AcDbLine
 10
106.6243471632
 20
66.1194032682
 30
0.0
 11
66.6243480573
 21
66.1194032682
 31
0.0
  0
LINE
  5
20D
330
1F
100
AcDbEntity
  8
0
  6
Continuous
 62
     7
370
     0
100
AcDbLine
 10
107.6243491898
 20
65.1194031043
 30
0.0
 11
106.6243471632
 21
66.1194032682
 31
0.0
  0
LINE
  5
20E
330
1F
100
AcDbEntity
  8
0
  6
Continuous
 62
     7
370
     0
100
AcDbLine
 10
107.6243491898
 20
65.1194031043
 30
0.0
 11
107.6243491898
 21
46.6194028659
 31
0.0
  0
LINE
  5
20F
330
1F
100
AcDbEntity
  8
0
  6
Continuous
 62
     7
370
     0
100
AcDbLine
 10
106.6243471632
 20
45.619402702
 30
0.0
 11
107.6243491898
 21
46.6194028659
 31
0.0
  0
LINE
  5
210
330
1F
100
AcDbEntity
  8
0
  6
Continuous
 62
     7
370
     0
100
AcDbLine
 10
106.6243471632
 20
45.619402702
 30
0.0
 11
66.6243480573
 21
45.619402702
 31
0.0
  0
LINE
  5
211
330
1F
100
AcDbEntity
  8
0
  6
Continuous
 62
     7
370
     0
100
AcDbLine
 10
65.6243460308
 20
46.6194028659
 30
0.0
 11
66.6243480573
 21
45.619402702
 31
0.0
  0
LINE
  5
212
330
1F
100
AcDbEntity
  8
0
  6
Continuous
 62
     7
370
     0
100
AcDbLine
 10
65.6243460308
 20
65.1194031043
 30
0.0
 11
65.6243460308
 21
46.6194028659
 31
0.0
  0
LINE
  5
213
330
1F
100
AcDbEntity
  8
0
  6
Continuous
 62
     7
370
     0
100
AcDbLine
 10
62.1356563697
 20
58.3694029292
 30
0.0
 11
62.3170984964
 21
58.5539281992
 31
0.0
  0
LINE
  5
214
330
1F
100
AcDbEntity
  8
0
  6
Continuous
 62
     7
370
     0
100
AcDbLine
 10
60.6607189457
 20
58.3694029292
 30
0.0
 11
62.1356563697
 21
58.3694029292
 31
0.0
  0
LINE
  5
215
330
1F
100
AcDbEntity
  8
0
  6
Continuous
 62
     7
370
     0
100
AcDbLine
 10
60.6607189457
 20
58.3694029292
 30
0.0
 11
60.6607189457
 21
53.369403041
 31
0.0
  0
LINE
  5
216
330
1F
100
AcDbEntity
  8
0
  6
Continuous
 62
     7
370
     0
100
AcDbLine
 10
62.1356563697
 20
53.369403041
 30
0.0
 11
60.6607189457
 21
53.369403041
 31
0.0
  0
LINE
  5
217
330
1F
100
AcDbEntity
  8
0
  6
Continuous
 62
     7
370
     0
100
AcDbLine
 10
62.3170984964
 20
53.1848777709
 30
0.0
 11
62.1356563697
 21
53.369403041
 31
0.0
  0
LINE
  5
218
330
1F
100
AcDbEntity
  8
0
  6
Continuous
 62
     7
370
     0
100
AcDbLine
 10
59.9724156837
 20
60.8694028733
 30
0.0
 11
59.9724156837
 21
50.8694030968
 31
0.0
  0
LINE
  5
219
330
1F
100
AcDbEntity
  8
0
  6
Continuous
 62
     7
370
     0
100
AcDbLine
 10
62.3170984964
 20
60.8694028733
 30
0.0
 11
59.9724156837
 21
60.8694028733
 31
0.0
  0
LINE
  5
21A
330
1F
100
AcDbEntity
  8
0
  6
Continuous
 62
     7
370
     0
100
AcDbLine
 10
62.3170984964
 20
50.8694030968
 30
0.0
 11
59.9724156837
 21
50.8694030968
 31
0.0
  0
LINE
  5
21B
330
1F
100
AcDbEntity
  8
0
  6
Continuous
 62
     7
370
     0
100
AcDbLine
 10
111.1130388508
 20
53.369403041
 30
0.0
 11
110.9315948615
 21
53.1848777709
 31
0.0
  0
LINE
  5
21C
330
1F
100
AcDbEntity
  8
0
  6
Continuous
 62
     7
370
     0
100
AcDbLine
 10
112.587970687
 20
53.369403041
 30
0.0
 11
111.1130388508
 21
53.369403041
 31
0.0
  0
LINE
  5
21D
330
1F
100
AcDbEntity
  8
0
  6
Continuous
 62
     7
370
     0
100
AcDbLine
 10
112.587970687
 20
53.369403041
 30
0.0
 11
112.587970687
 21
58.3694029292
 31
0.0
  0
LINE
  5
21E
330
1F
100
AcDbEntity
  8
0
  6
Continuous
 62
     7
370
     0
100
AcDbLine
 10
111.1130388508
 20
58.3694029292
 30
0.0
 11
112.587970687
 21
58.3694029292
 31
0.0
  0
LINE
  5
21F
330
1F
100
AcDbEntity
  8
0
  6
Continuous
 62
     7
370
     0
100
AcDbLine
 10
110.9315948615
 20
58.5539281992
 30
0.0
 11
111.1130388508
 21
58.3694029292
 31
0.0
  0
LINE
  5
220
330
1F
100
AcDbEntity
  8
0
  6
Continuous
 62
     7
370
     0
100
AcDbLine
 10
113.2762776742
 20
50.8694030968
 30
0.0
 11
113.2762776742
 21
60.8694028733
 31
0.0
  0
LINE
  5
221
330
1F
100
AcDbEntity
  8
0
  6
Continuous
 62
     7
370
     0
100
AcDbLine
 10
110.9315948615
 20
60.8694028733
 30
0.0
 11
113.2762776742
 21
60.8694028733
 31
0.0
  0
LINE
  5
222
330
1F
100
AcDbEntity
  8
0
  6
Continuous
 62
     7
370
     0
100
AcDbLine
 10
110.9315948615
 20
50.8694030968
 30
0.0
 11
113.2762776742
 21
50.8694030968
 31
0.0
  0
LINE
  5
223
330
1F
100
AcDbEntity
  8
0
  6
Continuous
 62
     7
370
     0
100
AcDbLine
 10
57.1680227349
 20
50.8694030968
 30
0.0
 11
57.1680227349
 21
60.8694028733
 31
0.0
  0
LINE
  5
224
330
1F
100
AcDbEntity
  8
0
  6
Continuous
 62
     7
370
     0
100
AcDbLine
 10
57.1680227349
 20
60.8694028733
 30
0.0
 11
59.9724156837
 21
60.8694028733
 31
0.0
  0
LINE
  5
225
330
1F
100
AcDbEntity
  8
0
  6
Continuous
 62
     7
370
     0
100
AcDbLine
 10
59.9724156837
 20
50.8694030968
 30
0.0
 11
57.1680227349
 21
50.8694030968
 31
0.0
  0
LINE
  5
226
330
1F
100
AcDbEntity
  8
0
  6
Continuous
 62
     7
370
     0
100
AcDbLine
 10
116.0806687603
 20
60.8694028733
 30
0.0
 11
116.0806687603
 21
50.8694030968
 31
0.0
  0
LINE
  5
227
330
1F
100
AcDbEntity
  8
0
  6
Continuous
 62
     7
370
     0
100
AcDbLine
 10
113.2762776742
 20
60.8694028733
 30
0.0
 11
116.0806687603
 21
60.8694028733
 31
0.0
  0
LINE
  5
228
330
1F
100
AcDbEntity
  8
0
  6
Continuous
 62
     7
370
     0
100
AcDbLine
 10
116.0806687603
 20
50.8694030968
 30
0.0
 11
113.2762776742
 21
50.8694030968
 31
0.0
  0
CIRCLE
  5
229
330
1F
100
AcDbEntity
  8
0
  6
Continuous
 62
     7
370
     0
100
AcDbCircle
 10
86.6243464131
 20
55.8694029851
 30
0.0
 40
2.349999999999984
  0
CIRCLE
  5
22A
330
1F
100
AcDbEntity
  8
0
  6
Continuous
 62
     7
370
     0
100
AcDbCircle
 10
86.6243464131
 20
55.8694029851
 30
0.0
 40
2.000000000000048
  0
ARC
  5
22B
330
1F
100
AcDbEntity
  8
0
  6
Continuous
 62
     7
370
     0
100
AcDbCircle
 10
86.6243464131
 20
55.8694029851
 30
0.0
 40
1.499999999999737
100
AcDbArc
 50
330.0
 51
150.0
  0
ARC
  5
22C
330
1F
100
AcDbEntity
  8
0
  6
Continuous
 62
     7
370
     0
100
AcDbCircle
 10
86.6243464131
 20
55.8694029851
 30
0.0
 40
1.499999999999737
100
AcDbArc
 50
150.0
 51
330.0
  0
LINE
  5
22D
330
1F
100
AcDbEntity
  8
0
  6
Continuous
 62
     7
370
     0
100
AcDbLine
 10
90.674345387
 20
55.8694029851
 30
0.0
 11
88.649344636
 21
52.3620000267
 31
0.0
  0
LINE
  5
22E
330
1F
100
AcDbEntity
  8
0
  6
Continuous
 62
     7
370
     0
100
AcDbLine
 10
88.649344636
 20
52.3620000267
 30
0.0
 11
84.5993468593
 21
52.3620000267
 31
0.0
  0
LINE
  5
22F
330
1F
100
AcDbEntity
  8
0
  6
Continuous
 62
     7
370
     0
100
AcDbLine
 10
84.5993468593
 20
52.3620000267
 30
0.0
 11
82.5743461082
 21
55.8694029851
 31
0.0
  0
LINE
  5
230
330
1F
100
AcDbEntity
  8
0
  6
Continuous
 62
     7
370
     0
100
AcDbLine
 10
82.5743461082
 20
55.8694029851
 30
0.0
 11
84.5993468593
 21
59.3768059434
 31
0.0
  0
LINE
  5
231
330
1F
100
AcDbEntity
  8
0
  6
Continuous
 62
     7
370
     0
100
AcDbLine
 10
84.5993468593
 20
59.3768059434
 30
0.0
 11
88.649344636
 21
59.3768059434
 31
0.0
  0
LINE
  5
232
330
1F
100
AcDbEntity
  8
0
  6
Continuous
 62
     7
370
     0
100
AcDbLine
 10
88.649344636
 20
59.3768059434
 30
0.0
 11
90.674345387
 21
55.8694029851
 31
0.0
  0
LINE
  5
233
330
1F
100
AcDbEntity
  8
0
  6
Continuous
 62
     7
370
     0
100
AcDbLine
 10
87.6243459115
 20
54.7513689771
 30
0.0
 11
87.6243459115
 21
56.987436993
 31
0.0
  0
LINE
  5
234
330
1F
100
AcDbEntity
  8
0
  6
Continuous
 62
     7
370
     0
100
AcDbLine
 10
85.6243455837
 20
56.987436993
 30
0.0
 11
85.6243455837
 21
54.7513689771
 31
0.0
  0
LINE
  5
235
330
1F
100
AcDbEntity
  8
0
  6
Continuous
 62
     7
370
     0
100
AcDbLine
 10
110.9315948615
 20
60.8694028733
 30
0.0
 11
110.9315948615
 21
50.8694030968
 31
0.0
  0
LINE
  5
236
330
1F
100
AcDbEntity
  8
0
  6
Continuous
 62
     7
370
     0
100
AcDbLine
 10
107.6243491898
 20
60.8694028733
 30
0.0
 11
110.9315948615
 21
60.8694028733
 31
0.0
  0
LINE
  5
237
330
1F
100
AcDbEntity
  8
0
  6
Continuous
 62
     7
370
     0
100
AcDbLine
 10
107.6243491898
 20
50.8694030968
 30
0.0
 11
110.9315948615
 21
50.8694030968
 31
0.0
  0
LINE
  5
238
330
1F
100
AcDbEntity
  8
0
  6
Continuous
 62
     7
370
     0
100
AcDbLine
 10
112.2929873
 20
53.369403041
 30
0.0
 11
112.2929873
 21
58.3694029292
 31
0.0
  0
LINE
  5
239
330
1F
100
AcDbEntity
  8
0
  6
Continuous
 62
     7
370
     0
100
AcDbLine
 10
110.9315948615
 20
58.3694029292
 30
0.0
 11
112.2929873
 21
58.3694029292
 31
0.0
  0
LINE
  5
23A
330
1F
100
AcDbEntity
  8
0
  6
Continuous
 62
     7
370
     0
100
AcDbLine
 10
110.9315948615
 20
53.369403041
 30
0.0
 11
112.2929873
 21
53.369403041
 31
0.0
  0
LINE
  5
23B
330
1F
100
AcDbEntity
  8
0
  6
Continuous
 62
     7
370
     0
100
AcDbLine
 10
62.3170984964
 20
50.8694030968
 30
0.0
 11
62.3170984964
 21
60.8694028733
 31
0.0
  0
LINE
  5
23C
330
1F
100
AcDbEntity
  8
0
  6
Continuous
 62
     7
370
     0
100
AcDbLine
 10
65.6243460308
 20
60.8694028733
 30
0.0
 11
62.3170984964
 21
60.8694028733
 31
0.0
  0
LINE
  5
23D
330
1F
100
AcDbEntity
  8
0
  6
Continuous
 62
     7
370
     0
100
AcDbLine
 10
65.6243460308
 20
50.8694030968
 30
0.0
 11
62.3170984964
 21
50.8694030968
 31
0.0
  0
LINE
  5
23E
330
1F
100
AcDbEntity
  8
0
  6
Continuous
 62
     7
370
     0
100
AcDbLine
 10
60.9557060579
 20
58.3694029292
 30
0.0
 11
60.9557060579
 21
53.369403041
 31
0.0
  0
LINE
  5
23F
330
1F
100
AcDbEntity
  8
0
  6
Continuous
 62
     7
370
     0
100
AcDbLine
 10
62.3170984964
 20
58.3694029292
 30
0.0
 11
60.9557060579
 21
58.3694029292
 31
0.0
  0
LINE
  5
240
330
1F
100
AcDbEntity
  8
0
  6
Continuous
 62
     7
370
     0
100
AcDbLine
 10
62.3170984964
 20
53.369403041
 30
0.0
 11
60.9557060579
 21
53.369403041
 31
0.0
  0
LINE
  5
241
330
1F
100
AcDbEntity
  8
0
  6
Continuous
 62
     7
370
     0
100
AcDbLine
 10
74.12434463
 20
45.5194028718
 30
0.0
 11
74.12434463
 21
45.619402702
 31
0.0
  0
LINE
  5
242
330
1F
100
AcDbEntity
  8
0
  6
Continuous
 62
     7
370
     0
100
AcDbLine
 10
75.1243466566
 20
45.619402702
 30
0.0
 11
75.1243466566
 21
45.5194028718
 31
0.0
  0
LINE
  5
243
330
1F
100
AcDbEntity
  8
0
  6
Continuous
 62
     7
370
     0
100
AcDbLine
 10
75.1243466566
 20
45.5194028718
 30
0.0
 11
74.12434463
 21
45.5194028718
 31
0.0
  0
LINE
  5
244
330
1F
100
AcDbEntity
  8
0
  6
Continuous
 62
     7
370
     0
100
AcDbLine
 10
98.1243448387
 20
45.5194028718
 30
0.0
 11
98.1243448387
 21
45.619402702
 31
0.0
  0
LINE
  5
245
330
1F
100
AcDbEntity
  8
0
  6
Continuous
 62
     7
370
     0
100
AcDbLine
 10
98.1243448387
 20
45.5194028718
 30
0.0
 11
75.1243466566
 21
45.5194028718
 31
0.0
  0
LINE
  5
246
330
1F
100
AcDbEntity
  8
0
  6
Continuous
 62
     7
370
     0
100
AcDbLine
 10
99.1243468652
 20
45.619402702
 30
0.0
 11
99.1243468652
 21
45.5194028718
 31
0.0
  0
LINE
  5
247
330
1F
100
AcDbEntity
  8
0
  6
Continuous
 62
     7
370
     0
100
AcDbLine
 10
99.1243468652
 20
45.5194028718
 30
0.0
 11
98.1243448387
 21
45.5194028718
 31
0.0
  0
LINE
  5
248
330
1F
100
AcDbEntity
  8
0
  6
Continuous
 62
     7
370
     0
100
AcDbLine
 10
82.9853685627
 20
45.4994027195
 30
0.0
 11
82.9853685627
 21
45.5194028718
 31
0.0
  0
LINE
  5
249
330
1F
100
AcDbEntity
  8
0
  6
Continuous
 62
     7
370
     0
100
AcDbLine
 10
81.475895835
 20
45.4994027195
 30
0.0
 11
82.9853685627
 21
45.4994027195
 31
0.0
  0
LINE
  5
24A
330
1F
100
AcDbEntity
  8
0
  6
Continuous
 62
     7
370
     0
100
AcDbLine
 10
81.475895835
 20
45.4994027195
 30
0.0
 11
81.475895835
 21
45.5194028718
 31
0.0
  0
LINE
  5
24B
330
1F
100
AcDbEntity
  8
0
  6
Continuous
 62
     7
370
     0
100
AcDbLine
 10
84.2284606824
 20
45.4994027195
 30
0.0
 11
84.2284606824
 21
45.5194028718
 31
0.0
  0
LINE
  5
24C
330
1F
100
AcDbEntity
  8
0
  6
Continuous
 62
     7
370
     0
100
AcDbLine
 10
83.7844992111
 20
45.4994027195
 30
0.0
 11
83.7844992111
 21
45.5194028718
 31
0.0
  0
LINE
  5
24D
330
1F
100
AcDbEntity
  8
0
  6
Continuous
 62
     7
370
     0
100
AcDbLine
 10
84.5836298595
 20
45.4994027195
 30
0.0
 11
84.5836298595
 21
45.5194028718
 31
0.0
  0
LINE
  5
24E
330
1F
100
AcDbEntity
  8
0
  6
Continuous
 62
     7
370
     0
100
AcDbLine
 10
86.7738397847
 20
45.4994027195
 30
0.0
 11
86.7738397847
 21
45.5194028718
 31
0.0
  0
LINE
  5
24F
330
1F
100
AcDbEntity
  8
0
  6
Continuous
 62
     7
370
     0
100
AcDbLine
 10
85.2643707822
 20
45.4994027195
 30
0.0
 11
85.2643707822
 21
45.5194028718
 31
0.0
  0
LINE
  5
250
330
1F
100
AcDbEntity
  8
0
  6
Continuous
 62
     7
370
     0
100
AcDbLine
 10
85.2643707822
 20
45.4994027195
 30
0.0
 11
86.7738397847
 21
45.4994027195
 31
0.0
  0
LINE
  5
251
330
1F
100
AcDbEntity
  8
0
  6
Continuous
 62
     7
370
     0
100
AcDbLine
 10
87.9281433354
 20
45.4994027195
 30
0.0
 11
87.9281433354
 21
45.5194028718
 31
0.0
  0
LINE
  5
252
330
1F
100
AcDbEntity
  8
0
  6
Continuous
 62
     7
370
     0
100
AcDbLine
 10
87.4101864229
 20
45.4994027195
 30
0.0
 11
87.4101864229
 21
45.5194028718
 31
0.0
  0
LINE
  5
253
330
1F
100
AcDbEntity
  8
0
  6
Continuous
 62
     7
370
     0
100
AcDbLine
 10
88.460897101
 20
45.4994027195
 30
0.0
 11
88.460897101
 21
45.5194028718
 31
0.0
  0
LINE
  5
254
330
1F
100
AcDbEntity
  8
0
  6
Continuous
 62
     7
370
     0
100
AcDbLine
 10
90.5623147319
 20
45.4994027195
 30
0.0
 11
90.5623147319
 21
45.5194028718
 31
0.0
  0
LINE
  5
255
330
1F
100
AcDbEntity
  8
0
  6
Continuous
 62
     7
370
     0
100
AcDbLine
 10
89.0528457294
 20
45.4994027195
 30
0.0
 11
90.5623147319
 21
45.4994027195
 31
0.0
  0
LINE
  5
256
330
1F
100
AcDbEntity
  8
0
  6
Continuous
 62
     7
370
     0
100
AcDbLine
 10
89.0528457294
 20
45.4994027195
 30
0.0
 11
89.0528457294
 21
45.5194028718
 31
0.0
  0
LINE
  5
257
330
1F
100
AcDbEntity
  8
0
  6
Continuous
 62
     7
370
     0
100
AcDbLine
 10
91.7018177042
 20
45.4994027195
 30
0.0
 11
91.7018177042
 21
45.5194028718
 31
0.0
  0
LINE
  5
258
330
1F
100
AcDbEntity
  8
0
  6
Continuous
 62
     7
370
     0
100
AcDbLine
 10
91.2430556546
 20
45.4994027195
 30
0.0
 11
91.2430556546
 21
45.5194028718
 31
0.0
  0
LINE
  5
259
330
1F
100
AcDbEntity
  8
0
  6
Continuous
 62
     7
370
     0
100
AcDbLine
 10
92.1605797539
 20
45.4994027195
 30
0.0
 11
92.1605797539
 21
45.5194028718
 31
0.0
  0
LINE
  5
25A
330
1F
100
AcDbEntity
  8
0
  6
Continuous
 62
     7
370
     0
100
AcDbLine
 10
84.8352061639
 20
45.4994027195
 30
0.0
 11
84.8352061639
 21
45.5194028718
 31
0.0
  0
LINE
  5
25B
330
1F
100
AcDbEntity
  8
0
  6
Continuous
 62
     7
370
     0
100
AcDbLine
 10
83.3849320243
 20
45.4994027195
 30
0.0
 11
83.3849320243
 21
45.5194028718
 31
0.0
  0
LINE
  5
25C
330
1F
100
AcDbEntity
  8
0
  6
Continuous
 62
     7
370
     0
100
AcDbLine
 10
88.682875974
 20
45.4994027195
 30
0.0
 11
88.682875974
 21
45.5194028718
 31
0.0
  0
LINE
  5
25D
330
1F
100
AcDbEntity
  8
0
  6
Continuous
 62
     7
370
     0
100
AcDbLine
 10
87.1734069715
 20
45.4994027195
 30
0.0
 11
87.1734069715
 21
45.5194028718
 31
0.0
  0
LINE
  5
25E
330
1F
100
AcDbEntity
  8
0
  6
Continuous
 62
     7
370
     0
100
AcDbLine
 10
90.8878864775
 20
45.4994027195
 30
0.0
 11
90.8878864775
 21
45.5194028718
 31
0.0
  0
LINE
  5
25F
330
1F
100
AcDbEntity
  8
0
  6
Continuous
 62
     7
370
     0
100
AcDbLine
 10
92.515748931
 20
45.4994027195
 30
0.0
 11
92.515748931
 21
45.5194028718
 31
0.0
  0
LINE
  5
260
330
1F
100
AcDbEntity
  8
0
  6
Continuous
 62
     7
370
     0
100
AcDbLine
 10
84.8648035953
 20
45.4994027195
 30
0.0
 11
84.8648035953
 21
45.5194028718
 31
0.0
  0
LINE
  5
261
330
1F
100
AcDbEntity
  8
0
  6
Continuous
 62
     7
370
     0
100
AcDbLine
 10
77.7551839183
 20
45.4994027195
 30
0.0
 11
77.7551839183
 21
45.5194028718
 31
0.0
  0
LINE
  5
262
330
1F
100
AcDbEntity
  8
0
  6
Continuous
 62
     7
370
     0
100
AcDbLine
 10
77.4202914963
 20
45.4994027195
 30
0.0
 11
77.4202914963
 21
45.5194028718
 31
0.0
  0
LINE
  5
263
330
1F
100
AcDbEntity
  8
0
  6
Continuous
 62
     7
370
     0
100
AcDbLine
 10
78.0895249973
 20
45.4994027195
 30
0.0
 11
78.0895249973
 21
45.5194028718
 31
0.0
  0
LINE
  5
264
330
1F
100
AcDbEntity
  8
0
  6
Continuous
 62
     7
370
     0
100
AcDbLine
 10
85.2181287537
 20
45.4994027195
 30
0.0
 11
85.2181287537
 21
45.5194028718
 31
0.0
  0
LINE
  5
265
330
1F
100
AcDbEntity
  8
0
  6
Continuous
 62
     7
370
     0
100
AcDbLine
 10
85.2181287537
 20
45.4994027195
 30
0.0
 11
85.2643707822
 21
45.4994027195
 31
0.0
  0
LINE
  5
266
330
1F
100
AcDbEntity
  8
0
  6
Continuous
 62
     7
370
     0
100
AcDbLine
 10
88.1532551775
 20
45.4994027195
 30
0.0
 11
88.154633535
 21
45.4994027195
 31
0.0
  0
LINE
  5
267
330
1F
100
AcDbEntity
  8
0
  6
Continuous
 62
     7
370
     0
100
AcDbLine
 10
92.6065305303
 20
45.4994027195
 30
0.0
 11
92.6065305303
 21
45.5194028718
 31
0.0
  0
LINE
  5
268
330
1F
100
AcDbEntity
  8
0
  6
Continuous
 62
     7
370
     0
100
AcDbLine
 10
92.3664616476
 20
45.4994027195
 30
0.0
 11
92.6065305303
 21
45.4994027195
 31
0.0
  0
LINE
  5
269
330
1F
100
AcDbEntity
  8
0
  6
Continuous
 62
     7
370
     0
100
AcDbLine
 10
93.223032547
 20
45.4994027195
 30
0.0
 11
93.223032547
 21
45.5194028718
 31
0.0
  0
LINE
  5
26A
330
1F
100
AcDbEntity
  8
0
  6
Continuous
 62
     7
370
     0
100
AcDbLine
 10
92.9829636643
 20
45.4994027195
 30
0.0
 11
92.9829636643
 21
45.5194028718
 31
0.0
  0
LINE
  5
26B
330
1F
100
AcDbEntity
  8
0
  6
Continuous
 62
     7
370
     0
100
AcDbLine
 10
92.9829636643
 20
45.4994027195
 30
0.0
 11
93.223032547
 21
45.4994027195
 31
0.0
  0
LINE
  5
26C
330
1F
100
AcDbEntity
  8
0
  6
Continuous
 62
     7
370
     0
100
AcDbLine
 10
94.0342219601
 20
45.4994027195
 30
0.0
 11
94.0342219601
 21
45.5194028718
 31
0.0
  0
LINE
  5
26D
330
1F
100
AcDbEntity
  8
0
  6
Continuous
 62
     7
370
     0
100
AcDbLine
 10
93.7941530774
 20
45.4994027195
 30
0.0
 11
93.7941530774
 21
45.5194028718
 31
0.0
  0
LINE
  5
26E
330
1F
100
AcDbEntity
  8
0
  6
Continuous
 62
     7
370
     0
100
AcDbLine
 10
93.7941530774
 20
45.4994027195
 30
0.0
 11
94.0342219601
 21
45.4994027195
 31
0.0
  0
LINE
  5
26F
330
1F
100
AcDbEntity
  8
0
  6
Continuous
 62
     7
370
     0
100
AcDbLine
 10
94.8875071536
 20
45.4994027195
 30
0.0
 11
94.8875071536
 21
45.5194028718
 31
0.0
  0
LINE
  5
270
330
1F
100
AcDbEntity
  8
0
  6
Continuous
 62
     7
370
     0
100
AcDbLine
 10
94.5526184569
 20
45.4994027195
 30
0.0
 11
94.5526184569
 21
45.5194028718
 31
0.0
  0
LINE
  5
271
330
1F
100
AcDbEntity
  8
0
  6
Continuous
 62
     7
370
     0
100
AcDbLine
 10
95.2218519578
 20
45.4994027195
 30
0.0
 11
95.2218519578
 21
45.5194028718
 31
0.0
  0
LINE
  5
272
330
1F
100
AcDbEntity
  8
0
  6
Continuous
 62
     7
370
     0
100
AcDbLine
 10
80.6609960328
 20
45.4994027195
 30
0.0
 11
80.6609960328
 21
45.5194028718
 31
0.0
  0
LINE
  5
273
330
1F
100
AcDbEntity
  8
0
  6
Continuous
 62
     7
370
     0
100
AcDbLine
 10
80.3469354341
 20
45.4994027195
 30
0.0
 11
80.3469354341
 21
45.5194028718
 31
0.0
  0
LINE
  5
274
330
1F
100
AcDbEntity
  8
0
  6
Continuous
 62
     7
370
     0
100
AcDbLine
 10
80.975604249
 20
45.4994027195
 30
0.0
 11
80.975604249
 21
45.5194028718
 31
0.0
  0
LINE
  5
275
330
1F
100
AcDbEntity
  8
0
  6
Continuous
 62
     7
370
     0
100
AcDbLine
 10
86.895753635
 20
45.4994027195
 30
0.0
 11
86.895753635
 21
45.5194028718
 31
0.0
  0
LINE
  5
276
330
1F
100
AcDbEntity
  8
0
  6
Continuous
 62
     7
370
     0
100
AcDbLine
 10
86.7738397847
 20
45.4994027195
 30
0.0
 11
86.895753635
 21
45.4994027195
 31
0.0
  0
LINE
  5
277
330
1F
100
AcDbEntity
  8
0
  6
Continuous
 62
     7
370
     0
100
AcDbLine
 10
88.6796051691
 20
45.4994027195
 30
0.0
 11
89.0174331198
 21
45.4994027195
 31
0.0
  0
LINE
  5
278
330
1F
100
AcDbEntity
  8
0
  6
Continuous
 62
     7
370
     0
100
AcDbLine
 10
77.2279100547
 20
45.4994027195
 30
0.0
 11
77.2279100547
 21
45.5194028718
 31
0.0
  0
LINE
  5
279
330
1F
100
AcDbEntity
  8
0
  6
Continuous
 62
     7
370
     0
100
AcDbLine
 10
78.3432954977
 20
45.4994027195
 30
0.0
 11
78.3432954977
 21
45.5194028718
 31
0.0
  0
LINE
  5
27A
330
1F
100
AcDbEntity
  8
0
  6
Continuous
 62
     7
370
     0
100
AcDbLine
 10
80.1035771201
 20
45.4994027195
 30
0.0
 11
80.1035771201
 21
45.5194028718
 31
0.0
  0
LINE
  5
27B
330
1F
100
AcDbEntity
  8
0
  6
Continuous
 62
     7
370
     0
100
AcDbLine
 10
81.2189625631
 20
45.4994027195
 30
0.0
 11
81.2189625631
 21
45.5194028718
 31
0.0
  0
LINE
  5
27C
330
1F
100
AcDbEntity
  8
0
  6
Continuous
 62
     7
370
     0
100
AcDbLine
 10
94.3602370153
 20
45.4994027195
 30
0.0
 11
94.3602370153
 21
45.5194028718
 31
0.0
  0
LINE
  5
27D
330
1F
100
AcDbEntity
  8
0
  6
Continuous
 62
     7
370
     0
100
AcDbLine
 10
95.475618733
 20
45.4994027195
 30
0.0
 11
95.475618733
 21
45.5194028718
 31
0.0
  0
LINE
  5
27E
330
1F
100
AcDbEntity
  8
0
  6
Continuous
 62
     7
370
     0
100
AcDbLine
 10
79.8115478883
 20
45.4994027195
 30
0.0
 11
79.8115478883
 21
45.5194028718
 31
0.0
  0
LINE
  5
27F
330
1F
100
AcDbEntity
  8
0
  6
Continuous
 62
     7
370
     0
100
AcDbLine
 10
78.6556052099
 20
45.4994027195
 30
0.0
 11
79.8115478883
 21
45.4994027195
 31
0.0
  0
LINE
  5
280
330
1F
100
AcDbEntity
  8
0
  6
Continuous
 62
     7
370
     0
100
AcDbLine
 10
78.6556052099
 20
45.4994027195
 30
0.0
 11
78.6556052099
 21
45.5194028718
 31
0.0
  0
LINE
  5
281
330
1F
100
AcDbEntity
  8
0
  6
Continuous
 62
     7
370
     0
100
AcDbLine
 10
82.9853685627
 20
45.4994027195
 30
0.0
 11
83.3051251302
 21
45.4994027195
 31
0.0
  0
LINE
  5
282
330
1F
100
AcDbEntity
  8
0
  6
Continuous
 62
     7
370
     0
100
AcDbLine
 10
90.5623147319
 20
45.4994027195
 30
0.0
 11
90.8080795834
 21
45.4994027195
 31
0.0
  0
LINE
  5
283
330
1F
100
AcDbEntity
  8
0
  6
Continuous
 62
     7
370
     0
100
AcDbLine
 10
84.9446142147
 20
45.4994027195
 30
0.0
 11
85.2181287537
 21
45.4994027195
 31
0.0
  0
LINE
  5
284
330
1F
100
AcDbEntity
  8
0
  6
Continuous
 62
     7
370
     0
100
AcDbLine
 10
93.223032547
 20
45.4994027195
 30
0.0
 11
93.7941530774
 21
45.4994027195
 31
0.0
  0
LINE
  5
285
330
1F
100
AcDbEntity
  8
0
  6
Continuous
 62
     7
370
     0
100
AcDbLine
 10
87.1481271515
 20
45.4994027195
 30
0.0
 11
87.1481271515
 21
45.5194028718
 31
0.0
  0
LINE
  5
286
330
1F
100
AcDbEntity
  8
0
  6
Continuous
 62
     7
370
     0
100
AcDbLine
 10
92.625108553
 20
45.4994027195
 30
0.0
 11
92.625108553
 21
45.5194028718
 31
0.0
  0
LINE
  5
287
330
1F
100
AcDbEntity
  8
0
  6
Continuous
 62
     7
370
     0
100
AcDbLine
 10
92.625108553
 20
45.4994027195
 30
0.0
 11
92.6065305303
 21
45.4994027195
 31
0.0
  0
LINE
  5
288
330
1F
100
AcDbEntity
  8
0
  6
Continuous
 62
     7
370
     0
100
AcDbLine
 10
87.0274612735
 20
45.4994027195
 30
0.0
 11
87.0274612735
 21
45.5194028718
 31
0.0
  0
LINE
  5
289
330
1F
100
AcDbEntity
  8
0
  6
Continuous
 62
     7
370
     0
100
AcDbLine
 10
87.1481271515
 20
45.4994027195
 30
0.0
 11
87.0274612735
 21
45.4994027195
 31
0.0
  0
LINE
  5
28A
330
1F
100
AcDbEntity
  8
0
  6
Continuous
 62
     7
370
     0
100
AcDbLine
 10
86.9007641504
 20
45.4994027195
 30
0.0
 11
86.9007641504
 21
45.5194028718
 31
0.0
  0
LINE
  5
28B
330
1F
100
AcDbEntity
  8
0
  6
Continuous
 62
     7
370
     0
100
AcDbLine
 10
87.0274612735
 20
45.4994027195
 30
0.0
 11
86.9007641504
 21
45.4994027195
 31
0.0
  0
LINE
  5
28C
330
1F
100
AcDbEntity
  8
0
  6
Continuous
 62
     7
370
     0
100
AcDbLine
 10
81.427645875
 20
45.4994027195
 30
0.0
 11
81.427645875
 21
45.5194028718
 31
0.0
  0
LINE
  5
28D
330
1F
100
AcDbEntity
  8
0
  6
Continuous
 62
     7
370
     0
100
AcDbLine
 10
81.475895835
 20
45.4994027195
 30
0.0
 11
81.427645875
 21
45.4994027195
 31
0.0
  0
LINE
  5
28E
330
1F
100
AcDbEntity
  8
0
  6
Continuous
 62
     7
370
     0
100
AcDbLine
 10
86.9007641504
 20
45.4994027195
 30
0.0
 11
86.895753635
 21
45.4994027195
 31
0.0
  0
LINE
  5
28F
330
1F
100
AcDbEntity
  8
0
  6
Continuous
 62
     7
370
     0
100
AcDbLine
 10
81.2941463719
 20
45.4994027195
 30
0.0
 11
81.2941463719
 21
45.5194028718
 31
0.0
  0
LINE
  5
290
330
1F
100
AcDbEntity
  8
0
  6
Continuous
 62
     7
370
     0
100
AcDbLine
 10
81.427645875
 20
45.4994027195
 30
0.0
 11
81.2941463719
 21
45.4994027195
 31
0.0
  0
LINE
  5
291
330
1F
100
AcDbEntity
  8
0
  6
Continuous
 62
     7
370
     0
100
AcDbLine
 10
92.7998581956
 20
45.4994027195
 30
0.0
 11
92.7998581956
 21
45.5194028718
 31
0.0
  0
LINE
  5
292
330
1F
100
AcDbEntity
  8
0
  6
Continuous
 62
     7
370
     0
100
AcDbLine
 10
92.7998581956
 20
45.4994027195
 30
0.0
 11
92.625108553
 21
45.4994027195
 31
0.0
  0
LINE
  5
293
330
1F
100
AcDbEntity
  8
0
  6
Continuous
 62
     7
370
     0
100
AcDbLine
 10
92.9746041129
 20
45.4994027195
 30
0.0
 11
92.9746041129
 21
45.5194028718
 31
0.0
  0
LINE
  5
294
330
1F
100
AcDbEntity
  8
0
  6
Continuous
 62
     7
370
     0
100
AcDbLine
 10
92.9746041129
 20
45.4994027195
 30
0.0
 11
92.7998581956
 21
45.4994027195
 31
0.0
  0
LINE
  5
295
330
1F
100
AcDbEntity
  8
0
  6
Continuous
 62
     7
370
     0
100
AcDbLine
 10
92.9829636643
 20
45.4994027195
 30
0.0
 11
92.9746041129
 21
45.4994027195
 31
0.0
  0
DIMENSION
  5
296
330
1F
100
AcDbEntity
  8
0
  6
Continuous
 62
     7
370
     0
100
AcDbDimension
  2
_D_10
 10
116.0806702949
 20
26.3378628113
 30
0.0
 11
86.6243464131
 21
26.3378628113
 31
0.0
 70
   160
  1
(<>)
 71
     2
 42
-1.0
  3
SLDDIMSTYLE4
100
AcDbAlignedDimension
 13
57.1680225313
 23
50.8694029851
 33
0.0
 14
116.0806702949
 24
50.8694029851
 34
0.0
 50
0.0
100
AcDbRotatedDimension
  0
DIMENSION
  5
2A3
330
1F
100
AcDbEntity
  8
0
  6
Continuous
 62
     7
370
     0
100
AcDbDimension
  2
_D_11
 10
86.6243464131
 20
35.4994029851
 30
0.0
 11
71.8961844722
 21
35.4994029851
 31
0.0
 70
   160
  1
(<>)
 71
     2
 42
-1.0
  3
SLDDIMSTYLE0
100
AcDbAlignedDimension
 13
57.1680225313
 23
50.8694029851
 33
0.0
 14
86.6243464131
 24
44.3694029851
 34
0.0
100
AcDbRotatedDimension
  0
INSERT
  5
2BA
330
1F
100
AcDbEntity
  8
0
  6
Continuous
 62
     7
370
     0
100
AcDbBlockReference
  2
SW_CENTERMARKSYMBOL_5
 10
86.6243464131
 20
55.8694029851
 30
0.0
  0
LINE
  5
2BB
330
1F
100
AcDbEntity
  8
0
  6
Continuous
 62
     7
370
     0
100
AcDbLine
 10
166.8138639123
 20
113.563370721
 30
0.0
 11
167.8138640762
 21
112.563370557
 31
0.0
  0
LINE
  5
2BC
330
1F
100
AcDbEntity
  8
0
  6
Continuous
 62
     7
370
     0
100
AcDbLine
 10
185.8138633013
 20
112.563370557
 30
0.0
 11
186.8138634652
 21
113.563370721
 31
0.0
  0
LINE
  5
2BD
330
1F
100
AcDbEntity
  8
0
  6
Continuous
 62
     7
370
     0
100
AcDbLine
 10
166.8138639123
 20
137.5633709296
 30
0.0
 11
166.8138639123
 21
113.563370721
 31
0.0
  0
LINE
  5
2BE
330
1F
100
AcDbEntity
  8
0
  6
Continuous
 62
     7
370
     0
100
AcDbLine
 10
186.8138634652
 20
113.563370721
 30
0.0
 11
186.8138634652
 21
137.5633709296
 31
0.0
  0
LINE
  5
2BF
330
1F
100
AcDbEntity
  8
0
  6
Continuous
 62
     7
370
     0
100
AcDbLine
 10
173.3138635807
 20
231.7781251087
 30
0.0
 11
172.6138638385
 21
231.7781251087
 31
0.0
  0
LINE
  5
2C0
330
1F
100
AcDbEntity
  8
0
  6
Continuous
 62
     7
370
     0
100
AcDbLine
 10
181.013863539
 20
231.7781251087
 30
0.0
 11
180.3138637968
 21
231.7781251087
 31
0.0
  0
LINE
  5
2C1
330
1F
100
AcDbEntity
  8
0
  6
Continuous
 62
     7
370
     0
100
AcDbLine
 10
174.4638637227
 20
105.063370259
 30
0.0
 11
174.8138635938
 21
102.5633707806
 31
0.0
  0
LINE
  5
2C2
330
1F
100
AcDbEntity
  8
0
  6
Continuous
 62
     7
370
     0
100
AcDbLine
 10
178.8138637837
 20
102.5633707806
 30
0.0
 11
179.1638636549
 21
105.063370259
 31
0.0
  0
LINE
  5
2C3
330
1F
100
AcDbEntity
  8
0
  6
Continuous
 62
     7
370
     0
100
AcDbLine
 10
174.4638637227
 20
107.5633716001
 30
0.0
 11
174.8138635938
 21
105.063370259
 31
0.0
  0
LINE
  5
2C4
330
1F
100
AcDbEntity
  8
0
  6
Continuous
 62
     7
370
     0
100
AcDbLine
 10
178.8138637837
 20
105.063370259
 30
0.0
 11
179.1638636549
 21
107.5633716001
 31
0.0
  0
LINE
  5
2C5
330
1F
100
AcDbEntity
  8
0
  6
Continuous
 62
     7
370
     0
100
AcDbLine
 10
178.9138636139
 20
107.5633716001
 30
0.0
 11
178.9138636139
 21
110.0633710786
 31
0.0
  0
LINE
  5
2C6
330
1F
100
AcDbEntity
  8
0
  6
Continuous
 62
     7
370
     0
100
AcDbLine
 10
174.7138637636
 20
110.0633710786
 30
0.0
 11
174.7138637636
 21
107.5633716001
 31
0.0
  0
LINE
  5
2C7
330
1F
100
AcDbEntity
  8
0
  6
Continuous
 62
     7
370
     0
100
AcDbLine
 10
175.3638637072
 20
223.5611405387
 30
0.0
 11
175.3638637072
 21
219.0843101754
 31
0.0
  0
LINE
  5
2C8
330
1F
100
AcDbEntity
  8
0
  6
Continuous
 62
     7
370
     0
100
AcDbLine
 10
178.2638636703
 20
219.0843101754
 30
0.0
 11
178.2638636703
 21
223.5611405387
 31
0.0
  0
LINE
  5
2C9
330
1F
100
AcDbEntity
  8
0
  6
Continuous
 62
     7
370
     0
100
AcDbLine
 10
173.3138635807
 20
198.8462757482
 30
0.0
 11
173.3138635807
 21
198.3729776158
 31
0.0
  0
LINE
  5
2CA
330
1F
100
AcDbEntity
  8
0
  6
Continuous
 62
     7
370
     0
100
AcDbLine
 10
180.3138637968
 20
198.3729776158
 30
0.0
 11
180.3138637968
 21
198.8462757482
 31
0.0
  0
LINE
  5
2CB
330
1F
100
AcDbEntity
  8
0
  6
Continuous
 62
     7
370
     0
100
AcDbLine
 10
173.3138635807
 20
184.0969015076
 30
0.0
 11
173.3138635807
 21
183.6236033752
 31
0.0
  0
LINE
  5
2CC
330
1F
100
AcDbEntity
  8
0
  6
Continuous
 62
     7
370
     0
100
AcDbLine
 10
180.3138637968
 20
183.6236033752
 30
0.0
 11
180.3138637968
 21
184.0969015076
 31
0.0
  0
LINE
  5
2CD
330
1F
100
AcDbEntity
  8
0
  6
Continuous
 62
     7
370
     0
100
AcDbLine
 10
178.7138637208
 20
248.8436278119
 30
0.0
 11
174.9138636567
 21
248.8436278119
 31
0.0
  0
LINE
  5
2CE
330
1F
100
AcDbEntity
  8
0
  6
Continuous
 62
     7
370
     0
100
AcDbLine
 10
171.2173651956
 20
226.0281320824
 30
0.0
 11
172.6138638385
 21
226.0281320824
 31
0.0
  0
LINE
  5
2CF
330
1F
100
AcDbEntity
  8
0
  6
Continuous
 62
     7
370
     0
100
AcDbLine
 10
172.6138638385
 20
231.6281300201
 30
0.0
 11
171.2173651956
 21
231.6281300201
 31
0.0
  0
ARC
  5
2D0
330
1F
100
AcDbEntity
  8
0
  6
Continuous
 62
     7
370
     0
100
AcDbCircle
 10
171.2173652213
 20
226.298128522
 30
0.0
 40
0.2699999999999982
100
AcDbArc
 50
212.3360259976
 51
270.0
  0
ARC
  5
2D1
330
1F
100
AcDbEntity
  8
0
  6
Continuous
 62
     7
370
     0
100
AcDbCircle
 10
171.2173652213
 20
231.358128522
 30
0.0
 40
0.2700000000000387
100
AcDbArc
 50
90.0
 51
147.6639740024
  0
ARC
  5
2D2
330
1F
100
AcDbEntity
  8
0
  6
Continuous
 62
     7
370
     0
100
AcDbCircle
 10
175.2138636888
 20
228.828128522
 30
0.0
 40
4.999999999999996
100
AcDbArc
 50
195.221844477
 51
212.3360259976
  0
ARC
  5
2D3
330
1F
100
AcDbEntity
  8
0
  6
Continuous
 62
     7
370
     0
100
AcDbCircle
 10
175.2138636888
 20
228.828128522
 30
0.0
 40
5.000000000000011
100
AcDbArc
 50
147.6639740024
 51
164.778155523
  0
LINE
  5
2D4
330
1F
100
AcDbEntity
  8
0
  6
Continuous
 62
     7
370
     0
100
AcDbLine
 10
182.4103621819
 20
231.6281300201
 30
0.0
 11
181.013863539
 21
231.6281300201
 31
0.0
  0
LINE
  5
2D5
330
1F
100
AcDbEntity
  8
0
  6
Continuous
 62
     7
370
     0
100
AcDbLine
 10
181.013863539
 20
226.0281320824
 30
0.0
 11
182.4103621819
 21
226.0281320824
 31
0.0
  0
ARC
  5
2D6
330
1F
100
AcDbEntity
  8
0
  6
Continuous
 62
     7
370
     0
100
AcDbCircle
 10
182.4103621562
 20
231.358128522
 30
0.0
 40
0.2700000000000387
100
AcDbArc
 50
32.3360259976
 51
90.0
  0
ARC
  5
2D7
330
1F
100
AcDbEntity
  8
0
  6
Continuous
 62
     7
370
     0
100
AcDbCircle
 10
182.4103621562
 20
226.298128522
 30
0.0
 40
0.2699999999999982
100
AcDbArc
 50
270.0
 51
327.6639740024
  0
ARC
  5
2D8
330
1F
100
AcDbEntity
  8
0
  6
Continuous
 62
     7
370
     0
100
AcDbCircle
 10
178.4138636888
 20
228.828128522
 30
0.0
 40
5.000000000000011
100
AcDbArc
 50
15.2261556909
 51
32.3360259976
  0
ARC
  5
2D9
330
1F
100
AcDbEntity
  8
0
  6
Continuous
 62
     7
370
     0
100
AcDbCircle
 10
178.4138636888
 20
228.828128522
 30
0.0
 40
5.000000000000001
100
AcDbArc
 50
327.6639740024
 51
344.7738443091
  0
LINE
  5
2DA
330
1F
100
AcDbEntity
  8
0
  6
Continuous
 62
     7
370
     0
100
AcDbLine
 10
171.8138638005
 20
179.7449018969
 30
0.0
 11
181.813863577
 21
179.7449018969
 31
0.0
  0
LINE
  5
2DB
330
1F
100
AcDbEntity
  8
0
  6
Continuous
 62
     7
370
     0
100
AcDbLine
 10
181.813863577
 20
175.6662529125
 30
0.0
 11
171.8138638005
 21
175.6662529125
 31
0.0
  0
LINE
  5
2DC
330
1F
100
AcDbEntity
  8
0
  6
Continuous
 62
     7
370
     0
100
AcDbLine
 10
171.8138638005
 20
175.6662529125
 30
0.0
 11
171.8138638005
 21
179.7449018969
 31
0.0
  0
LINE
  5
2DD
330
1F
100
AcDbEntity
  8
0
  6
Continuous
 62
     7
370
     0
100
AcDbLine
 10
181.813863577
 20
179.7449018969
 30
0.0
 11
181.813863577
 21
175.6662529125
 31
0.0
  0
CIRCLE
  5
2DE
330
1F
100
AcDbEntity
  8
0
  6
Continuous
 62
     7
370
     0
100
AcDbCircle
 10
176.8225486104
 20
184.123091912
 30
0.0
 40
3.97979881847853
  0
CIRCLE
  5
2DF
330
1F
100
AcDbEntity
  8
0
  6
Continuous
 62
     7
370
     0
100
AcDbCircle
 10
176.8225486068
 20
198.8724698426
 30
0.0
 40
3.979798853845779
  0
LINE
  5
2E0
330
1F
100
AcDbEntity
  8
0
  6
Continuous
 62
     7
370
     0
100
AcDbLine
 10
181.813863577
 20
205.7029184117
 30
0.0
 11
171.8138638005
 21
205.7029184117
 31
0.0
  0
LINE
  5
2E1
330
1F
100
AcDbEntity
  8
0
  6
Continuous
 62
     7
370
     0
100
AcDbLine
 10
171.8138638005
 20
179.7449018969
 30
0.0
 11
171.8138638005
 21
205.7029184117
 31
0.0
  0
LINE
  5
2E2
330
1F
100
AcDbEntity
  8
0
  6
Continuous
 62
     7
370
     0
100
AcDbLine
 10
181.813863577
 20
179.7449018969
 30
0.0
 11
181.813863577
 21
205.7029184117
 31
0.0
  0
ARC
  5
2E3
330
1F
100
AcDbEntity
  8
0
  6
Continuous
 62
     7
370
     0
100
AcDbCircle
 10
176.7812023547
 20
183.5871297127
 30
0.0
 40
3.969773247775691
100
AcDbArc
 50
89.5285933001
 51
175.528011214
  0
ARC
  5
2E4
330
1F
100
AcDbEntity
  8
0
  6
Continuous
 62
     7
370
     0
100
AcDbCircle
 10
176.8465250228
 20
183.5871297127
 30
0.0
 40
3.969773247775691
100
AcDbArc
 50
4.471988786
 51
90.4714066999
  0
LINE
  5
2E5
330
1F
100
AcDbEntity
  8
0
  6
Continuous
 62
     7
370
     0
100
AcDbLine
 10
179.6138635889
 20
175.2111602738
 30
0.0
 11
181.813863577
 21
175.2111602738
 31
0.0
  0
LINE
  5
2E6
330
1F
100
AcDbEntity
  8
0
  6
Continuous
 62
     7
370
     0
100
AcDbLine
 10
179.3138636329
 20
175.2657730295
 30
0.0
 11
179.6138635889
 21
175.2111602738
 31
0.0
  0
LINE
  5
2E7
330
1F
100
AcDbEntity
  8
0
  6
Continuous
 62
     7
370
     0
100
AcDbLine
 10
179.3138636329
 20
175.5388256325
 30
0.0
 11
179.3138636329
 21
175.2657730295
 31
0.0
  0
LINE
  5
2E8
330
1F
100
AcDbEntity
  8
0
  6
Continuous
 62
     7
370
     0
100
AcDbLine
 10
179.3138636329
 20
175.5388256325
 30
0.0
 11
174.3138637446
 21
175.5388256325
 31
0.0
  0
LINE
  5
2E9
330
1F
100
AcDbEntity
  8
0
  6
Continuous
 62
     7
370
     0
100
AcDbLine
 10
174.3138637446
 20
175.2657730295
 30
0.0
 11
174.3138637446
 21
175.5388256325
 31
0.0
  0
LINE
  5
2EA
330
1F
100
AcDbEntity
  8
0
  6
Continuous
 62
     7
370
     0
100
AcDbLine
 10
174.0138637886
 20
175.2111602738
 30
0.0
 11
174.3138637446
 21
175.2657730295
 31
0.0
  0
LINE
  5
2EB
330
1F
100
AcDbEntity
  8
0
  6
Continuous
 62
     7
370
     0
100
AcDbLine
 10
171.8138638005
 20
175.2111602738
 30
0.0
 11
174.0138637886
 21
175.2111602738
 31
0.0
  0
LINE
  5
2EC
330
1F
100
AcDbEntity
  8
0
  6
Continuous
 62
     7
370
     0
100
AcDbLine
 10
171.8138638005
 20
175.2111602738
 30
0.0
 11
171.8138638005
 21
175.6662529125
 31
0.0
  0
LINE
  5
2ED
330
1F
100
AcDbEntity
  8
0
  6
Continuous
 62
     7
370
     0
100
AcDbLine
 10
181.813863577
 20
175.2111602738
 30
0.0
 11
181.813863577
 21
175.6662529125
 31
0.0
  0
ARC
  5
2EE
330
1F
100
AcDbEntity
  8
0
  6
Continuous
 62
     7
370
     0
100
AcDbCircle
 10
176.781203782
 20
198.3365064377
 30
0.0
 40
3.969774476972835
100
AcDbArc
 50
89.5286140463
 51
175.528048567
  0
ARC
  5
2EF
330
1F
100
AcDbEntity
  8
0
  6
Continuous
 62
     7
370
     0
100
AcDbCircle
 10
176.8465235955
 20
198.3365064377
 30
0.0
 40
3.969774476972824
100
AcDbArc
 50
4.471951433
 51
90.4713859537
  0
LINE
  5
2F0
330
1F
100
AcDbEntity
  8
0
  6
Continuous
 62
     7
370
     0
100
AcDbLine
 10
171.8138638005
 20
211.2539585843
 30
0.0
 11
181.813863577
 21
211.2539585843
 31
0.0
  0
LINE
  5
2F1
330
1F
100
AcDbEntity
  8
0
  6
Continuous
 62
     7
370
     0
100
AcDbLine
 10
171.8138638005
 20
205.7029184117
 30
0.0
 11
171.8138638005
 21
211.2539585843
 31
0.0
  0
LINE
  5
2F2
330
1F
100
AcDbEntity
  8
0
  6
Continuous
 62
     7
370
     0
100
AcDbLine
 10
181.813863577
 20
211.2539585843
 30
0.0
 11
181.813863577
 21
205.7029184117
 31
0.0
  0
LINE
  5
2F3
330
1F
100
AcDbEntity
  8
0
  6
Continuous
 62
     7
370
     0
100
AcDbLine
 10
181.813863577
 20
212.4178957357
 30
0.0
 11
171.8138638005
 21
212.4178957357
 31
0.0
  0
LINE
  5
2F4
330
1F
100
AcDbEntity
  8
0
  6
Continuous
 62
     7
370
     0
100
AcDbLine
 10
171.8138638005
 20
211.2539585843
 30
0.0
 11
171.8138638005
 21
212.4178957357
 31
0.0
  0
LINE
  5
2F5
330
1F
100
AcDbEntity
  8
0
  6
Continuous
 62
     7
370
     0
100
AcDbLine
 10
181.813863577
 20
211.2539585843
 30
0.0
 11
181.813863577
 21
212.4178957357
 31
0.0
  0
LINE
  5
2F6
330
1F
100
AcDbEntity
  8
0
  6
Continuous
 62
     7
370
     0
100
AcDbLine
 10
186.063863808
 20
137.5633709296
 30
0.0
 11
186.063863808
 21
200.5550366058
 31
0.0
  0
LINE
  5
2F7
330
1F
100
AcDbEntity
  8
0
  6
Continuous
 62
     7
370
     0
100
AcDbLine
 10
186.063863808
 20
200.5550366058
 30
0.0
 11
187.0638639719
 21
201.5550386324
 31
0.0
  0
LINE
  5
2F8
330
1F
100
AcDbEntity
  8
0
  6
Continuous
 62
     7
370
     0
100
AcDbLine
 10
187.0638639719
 20
201.5550386324
 30
0.0
 11
187.0638639719
 21
137.5633709296
 31
0.0
  0
LINE
  5
2F9
330
1F
100
AcDbEntity
  8
0
  6
Continuous
 62
     7
370
     0
100
AcDbLine
 10
187.0638639719
 20
137.5633709296
 30
0.0
 11
186.063863808
 21
137.5633709296
 31
0.0
  0
ARC
  5
2FA
330
1F
100
AcDbEntity
  8
0
  6
Continuous
 62
     7
370
     0
100
AcDbCircle
 10
176.8138636888
 20
168.4584983842
 30
0.0
 40
8.0
100
AcDbArc
 50
128.6821874535
 51
180.0
  0
LINE
  5
2FB
330
1F
100
AcDbEntity
  8
0
  6
Continuous
 62
     7
370
     0
100
AcDbLine
 10
168.8138633088
 20
168.4584979131
 30
0.0
 11
168.8138633088
 21
155.8584969654
 31
0.0
  0
ARC
  5
2FC
330
1F
100
AcDbEntity
  8
0
  6
Continuous
 62
     7
370
     0
100
AcDbCircle
 10
176.8138636888
 20
155.8584983842
 30
0.0
 40
8.0
100
AcDbArc
 50
180.0
 51
0.0
  0
LINE
  5
2FD
330
1F
100
AcDbEntity
  8
0
  6
Continuous
 62
     7
370
     0
100
AcDbLine
 10
184.8138640687
 20
155.8584969654
 30
0.0
 11
184.8138640687
 21
168.4584979131
 31
0.0
  0
ARC
  5
2FE
330
1F
100
AcDbEntity
  8
0
  6
Continuous
 62
     7
370
     0
100
AcDbCircle
 10
176.8138636888
 20
168.4584983842
 30
0.0
 40
8.0
100
AcDbArc
 50
0.0
 51
51.3178125465
  0
ARC
  5
2FF
330
1F
100
AcDbEntity
  8
0
  6
Continuous
 62
     7
370
     0
100
AcDbCircle
 10
176.8138636888
 20
200.0550374642
 30
0.0
 40
5.499999999999987
100
AcDbArc
 50
335.3800226713
 51
5.2159085705
  0
LINE
  5
300
330
1F
100
AcDbEntity
  8
0
  6
Continuous
 62
     7
370
     0
100
AcDbLine
 10
186.063863808
 20
200.5550366058
 30
0.0
 11
182.2910890967
 21
200.5550366058
 31
0.0
  0
LINE
  5
301
330
1F
100
AcDbEntity
  8
0
  6
Continuous
 62
     7
370
     0
100
AcDbLine
 10
167.5638635695
 20
200.5550366058
 30
0.0
 11
167.5638635695
 21
137.5633709296
 31
0.0
  0
LINE
  5
302
330
1F
100
AcDbEntity
  8
0
  6
Continuous
 62
     7
370
     0
100
AcDbLine
 10
171.3366382808
 20
200.5550366058
 30
0.0
 11
167.5638635695
 21
200.5550366058
 31
0.0
  0
ARC
  5
303
330
1F
100
AcDbEntity
  8
0
  6
Continuous
 62
     7
370
     0
100
AcDbCircle
 10
176.8138636888
 20
200.0550374642
 30
0.0
 40
5.500000000000015
100
AcDbArc
 50
174.7840914295
 51
204.6199773287
  0
LINE
  5
304
330
1F
100
AcDbEntity
  8
0
  6
Continuous
 62
     7
370
     0
100
AcDbLine
 10
167.5638635695
 20
137.5633709296
 30
0.0
 11
186.063863808
 21
137.5633709296
 31
0.0
  0
LINE
  5
305
330
1F
100
AcDbEntity
  8
0
  6
Continuous
 62
     7
370
     0
100
AcDbLine
 10
166.5638634056
 20
137.5633709296
 30
0.0
 11
166.5638634056
 21
201.5550386324
 31
0.0
  0
LINE
  5
306
330
1F
100
AcDbEntity
  8
0
  6
Continuous
 62
     7
370
     0
100
AcDbLine
 10
166.5638634056
 20
201.5550386324
 30
0.0
 11
167.5638635695
 21
200.5550366058
 31
0.0
  0
LINE
  5
307
330
1F
100
AcDbEntity
  8
0
  6
Continuous
 62
     7
370
     0
100
AcDbLine
 10
167.5638635695
 20
137.5633709296
 30
0.0
 11
166.5638634056
 21
137.5633709296
 31
0.0
  0
LINE
  5
308
330
1F
100
AcDbEntity
  8
0
  6
Continuous
 62
     7
370
     0
100
AcDbLine
 10
185.2638633043
 20
206.555033864
 30
0.0
 11
181.813863577
 21
206.555033864
 31
0.0
  0
LINE
  5
309
330
1F
100
AcDbEntity
  8
0
  6
Continuous
 62
     7
370
     0
100
AcDbLine
 10
187.0638639719
 20
204.755040647
 30
0.0
 11
185.2638633043
 21
206.555033864
 31
0.0
  0
LINE
  5
30A
330
1F
100
AcDbEntity
  8
0
  6
Continuous
 62
     7
370
     0
100
AcDbLine
 10
187.0638639719
 20
204.755040647
 30
0.0
 11
187.0638639719
 21
201.5550386324
 31
0.0
  0
ARC
  5
30B
330
1F
100
AcDbEntity
  8
0
  6
Continuous
 62
     7
370
     0
100
AcDbCircle
 10
176.8138636888
 20
200.0550374642
 30
0.0
 40
5.499999999999987
100
AcDbArc
 50
5.2159085705
 51
24.6199773287
  0
LINE
  5
30C
330
1F
100
AcDbEntity
  8
0
  6
Continuous
 62
     7
370
     0
100
AcDbLine
 10
166.5638634056
 20
204.755040647
 30
0.0
 11
166.5638634056
 21
201.5550386324
 31
0.0
  0
LINE
  5
30D
330
1F
100
AcDbEntity
  8
0
  6
Continuous
 62
     7
370
     0
100
AcDbLine
 10
168.3638640732
 20
206.555033864
 30
0.0
 11
166.5638634056
 21
204.755040647
 31
0.0
  0
LINE
  5
30E
330
1F
100
AcDbEntity
  8
0
  6
Continuous
 62
     7
370
     0
100
AcDbLine
 10
171.8138638005
 20
206.555033864
 30
0.0
 11
168.3638640732
 21
206.555033864
 31
0.0
  0
ARC
  5
30F
330
1F
100
AcDbEntity
  8
0
  6
Continuous
 62
     7
370
     0
100
AcDbCircle
 10
176.8138636888
 20
200.0550374642
 30
0.0
 40
5.500000000000015
100
AcDbArc
 50
155.3800226713
 51
174.7840914295
  0
LINE
  5
310
330
1F
100
AcDbEntity
  8
0
  6
Continuous
 62
     7
370
     0
100
AcDbLine
 10
171.8138638005
 20
212.4178957357
 30
0.0
 11
171.8138638005
 21
221.4417707338
 31
0.0
  0
LINE
  5
311
330
1F
100
AcDbEntity
  8
0
  6
Continuous
 62
     7
370
     0
100
AcDbLine
 10
181.813863577
 20
221.4417707338
 30
0.0
 11
181.813863577
 21
212.4178957357
 31
0.0
  0
LINE
  5
312
330
1F
100
AcDbEntity
  8
0
  6
Continuous
 62
     7
370
     0
100
AcDbLine
 10
181.813863577
 20
247.156421484
 30
0.0
 11
178.8138637837
 21
247.156421484
 31
0.0
  0
LINE
  5
313
330
1F
100
AcDbEntity
  8
0
  6
Continuous
 62
     7
370
     0
100
AcDbLine
 10
180.3138637968
 20
238.7732740655
 30
0.0
 11
181.813863577
 21
238.7732740655
 31
0.0
  0
LINE
  5
314
330
1F
100
AcDbEntity
  8
0
  6
Continuous
 62
     7
370
     0
100
AcDbLine
 10
178.8138637837
 20
245.3108828678
 30
0.0
 11
178.8138637837
 21
247.156421484
 31
0.0
  0
LINE
  5
315
330
1F
100
AcDbEntity
  8
0
  6
Continuous
 62
     7
370
     0
100
AcDbLine
 10
181.813863577
 20
238.7732740655
 30
0.0
 11
181.813863577
 21
247.156421484
 31
0.0
  0
LINE
  5
316
330
1F
100
AcDbEntity
  8
0
  6
Continuous
 62
     7
370
     0
100
AcDbLine
 10
174.8138635938
 20
247.156421484
 30
0.0
 11
171.8138638005
 21
247.156421484
 31
0.0
  0
LINE
  5
317
330
1F
100
AcDbEntity
  8
0
  6
Continuous
 62
     7
370
     0
100
AcDbLine
 10
174.8138635938
 20
247.156421484
 30
0.0
 11
174.8138635938
 21
245.3108828678
 31
0.0
  0
LINE
  5
318
330
1F
100
AcDbEntity
  8
0
  6
Continuous
 62
     7
370
     0
100
AcDbLine
 10
171.8138638005
 20
238.7732740655
 30
0.0
 11
173.3138635807
 21
238.7732740655
 31
0.0
  0
LINE
  5
319
330
1F
100
AcDbEntity
  8
0
  6
Continuous
 62
     7
370
     0
100
AcDbLine
 10
171.8138638005
 20
238.7732740655
 30
0.0
 11
171.8138638005
 21
247.156421484
 31
0.0
  0
LINE
  5
31A
330
1F
100
AcDbEntity
  8
0
  6
Continuous
 62
     7
370
     0
100
AcDbLine
 10
178.8138637837
 20
248.3079161658
 30
0.0
 11
181.813863577
 21
248.3079161658
 31
0.0
  0
LINE
  5
31B
330
1F
100
AcDbEntity
  8
0
  6
Continuous
 62
     7
370
     0
100
AcDbLine
 10
178.8138637837
 20
247.156421484
 30
0.0
 11
178.8138637837
 21
248.3079161658
 31
0.0
  0
LINE
  5
31C
330
1F
100
AcDbEntity
  8
0
  6
Continuous
 62
     7
370
     0
100
AcDbLine
 10
181.813863577
 20
248.3079161658
 30
0.0
 11
181.813863577
 21
247.156421484
 31
0.0
  0
LINE
  5
31D
330
1F
100
AcDbEntity
  8
0
  6
Continuous
 62
     7
370
     0
100
AcDbLine
 10
171.8138638005
 20
248.3079161658
 30
0.0
 11
174.8138635938
 21
248.3079161658
 31
0.0
  0
LINE
  5
31E
330
1F
100
AcDbEntity
  8
0
  6
Continuous
 62
     7
370
     0
100
AcDbLine
 10
174.8138635938
 20
248.3079161658
 30
0.0
 11
174.8138635938
 21
247.156421484
 31
0.0
  0
LINE
  5
31F
330
1F
100
AcDbEntity
  8
0
  6
Continuous
 62
     7
370
     0
100
AcDbLine
 10
171.8138638005
 20
247.156421484
 30
0.0
 11
171.8138638005
 21
248.3079161658
 31
0.0
  0
LINE
  5
320
330
1F
100
AcDbEntity
  8
0
  6
Continuous
 62
     7
370
     0
100
AcDbLine
 10
173.3138635807
 20
225.4562553181
 30
0.0
 11
171.8138638005
 21
225.4562553181
 31
0.0
  0
LINE
  5
321
330
1F
100
AcDbEntity
  8
0
  6
Continuous
 62
     7
370
     0
100
AcDbLine
 10
181.813863577
 20
225.4562553181
 30
0.0
 11
180.3138637968
 21
225.4562553181
 31
0.0
  0
LINE
  5
322
330
1F
100
AcDbEntity
  8
0
  6
Continuous
 62
     7
370
     0
100
AcDbLine
 10
171.8138638005
 20
221.4417707338
 30
0.0
 11
171.8138638005
 21
225.4562553181
 31
0.0
  0
LINE
  5
323
330
1F
100
AcDbEntity
  8
0
  6
Continuous
 62
     7
370
     0
100
AcDbLine
 10
181.813863577
 20
221.4417707338
 30
0.0
 11
181.813863577
 21
225.4562553181
 31
0.0
  0
LINE
  5
324
330
1F
100
AcDbEntity
  8
0
  6
Continuous
 62
     7
370
     0
100
AcDbLine
 10
181.813863577
 20
225.4562553181
 30
0.0
 11
181.813863577
 21
226.0281320824
 31
0.0
  0
LINE
  5
325
330
1F
100
AcDbEntity
  8
0
  6
Continuous
 62
     7
370
     0
100
AcDbLine
 10
171.8138638005
 20
226.0281320824
 30
0.0
 11
171.8138638005
 21
225.4562553181
 31
0.0
  0
LINE
  5
326
330
1F
100
AcDbEntity
  8
0
  6
Continuous
 62
     7
370
     0
100
AcDbLine
 10
178.8138637837
 20
249.448123218
 30
0.0
 11
181.813863577
 21
249.448123218
 31
0.0
  0
LINE
  5
327
330
1F
100
AcDbEntity
  8
0
  6
Continuous
 62
     7
370
     0
100
AcDbLine
 10
178.8138637837
 20
249.448123218
 30
0.0
 11
178.8138637837
 21
248.3079161658
 31
0.0
  0
LINE
  5
328
330
1F
100
AcDbEntity
  8
0
  6
Continuous
 62
     7
370
     0
100
AcDbLine
 10
181.813863577
 20
248.3079161658
 30
0.0
 11
181.813863577
 21
249.448123218
 31
0.0
  0
LINE
  5
329
330
1F
100
AcDbEntity
  8
0
  6
Continuous
 62
     7
370
     0
100
AcDbLine
 10
171.8138638005
 20
249.448123218
 30
0.0
 11
174.8138635938
 21
249.448123218
 31
0.0
  0
LINE
  5
32A
330
1F
100
AcDbEntity
  8
0
  6
Continuous
 62
     7
370
     0
100
AcDbLine
 10
174.8138635938
 20
249.448123218
 30
0.0
 11
174.8138635938
 21
248.3079161658
 31
0.0
  0
LINE
  5
32B
330
1F
100
AcDbEntity
  8
0
  6
Continuous
 62
     7
370
     0
100
AcDbLine
 10
171.8138638005
 20
248.3079161658
 30
0.0
 11
171.8138638005
 21
249.448123218
 31
0.0
  0
LINE
  5
32C
330
1F
100
AcDbEntity
  8
0
  6
Continuous
 62
     7
370
     0
100
AcDbLine
 10
181.813863577
 20
237.5443827524
 30
0.0
 11
181.813863577
 21
238.7732740655
 31
0.0
  0
LINE
  5
32D
330
1F
100
AcDbEntity
  8
0
  6
Continuous
 62
     7
370
     0
100
AcDbLine
 10
171.8138638005
 20
238.7732740655
 30
0.0
 11
171.8138638005
 21
237.5443827524
 31
0.0
  0
LINE
  5
32E
330
1F
100
AcDbEntity
  8
0
  6
Continuous
 62
     7
370
     0
100
AcDbLine
 10
181.813863577
 20
231.6281300201
 30
0.0
 11
181.813863577
 21
237.5443827524
 31
0.0
  0
LINE
  5
32F
330
1F
100
AcDbEntity
  8
0
  6
Continuous
 62
     7
370
     0
100
AcDbLine
 10
171.8138638005
 20
237.5443827524
 30
0.0
 11
171.8138638005
 21
231.6281300201
 31
0.0
  0
LINE
  5
330
330
1F
100
AcDbEntity
  8
0
  6
Continuous
 62
     7
370
     0
100
AcDbLine
 10
185.8138633013
 20
112.563370557
 30
0.0
 11
167.8138640762
 21
112.563370557
 31
0.0
  0
LINE
  5
331
330
1F
100
AcDbEntity
  8
0
  6
Continuous
 62
     7
370
     0
100
AcDbLine
 10
166.8138639123
 20
113.563370721
 30
0.0
 11
186.8138634652
 21
113.563370721
 31
0.0
  0
LINE
  5
332
330
1F
100
AcDbEntity
  8
0
  6
Continuous
 62
     7
370
     0
100
AcDbLine
 10
169.5638638974
 20
207.7550392761
 30
0.0
 11
171.8138638005
 21
207.7550392761
 31
0.0
  0
LINE
  5
333
330
1F
100
AcDbEntity
  8
0
  6
Continuous
 62
     7
370
     0
100
AcDbLine
 10
181.813863577
 20
207.7550392761
 30
0.0
 11
184.0638634801
 21
207.7550392761
 31
0.0
  0
LINE
  5
334
330
1F
100
AcDbEntity
  8
0
  6
Continuous
 62
     7
370
     0
100
AcDbLine
 10
169.5638638974
 20
207.7550392761
 30
0.0
 11
168.3638640732
 21
206.555033864
 31
0.0
  0
LINE
  5
335
330
1F
100
AcDbEntity
  8
0
  6
Continuous
 62
     7
370
     0
100
AcDbLine
 10
185.2638633043
 20
206.555033864
 30
0.0
 11
184.0638634801
 21
207.7550392761
 31
0.0
  0
LINE
  5
336
330
1F
100
AcDbEntity
  8
0
  6
Continuous
 62
     7
370
     0
100
AcDbLine
 10
178.8138637837
 20
249.448123218
 30
0.0
 11
174.8138635938
 21
249.448123218
 31
0.0
  0
LINE
  5
337
330
1F
100
AcDbEntity
  8
0
  6
Continuous
 62
     7
370
     0
100
AcDbLine
 10
172.6138638385
 20
225.8833002462
 30
0.0
 11
173.3138635807
 21
225.8833002462
 31
0.0
  0
LINE
  5
338
330
1F
100
AcDbEntity
  8
0
  6
Continuous
 62
     7
370
     0
100
AcDbLine
 10
172.6138638385
 20
225.8833002462
 30
0.0
 11
172.6138638385
 21
231.7781251087
 31
0.0
  0
LINE
  5
339
330
1F
100
AcDbEntity
  8
0
  6
Continuous
 62
     7
370
     0
100
AcDbLine
 10
181.013863539
 20
225.8960183873
 30
0.0
 11
180.3138637968
 21
225.8960183873
 31
0.0
  0
LINE
  5
33A
330
1F
100
AcDbEntity
  8
0
  6
Continuous
 62
     7
370
     0
100
AcDbLine
 10
181.013863539
 20
225.8813705458
 30
0.0
 11
180.3138637968
 21
225.8813705458
 31
0.0
  0
LINE
  5
33B
330
1F
100
AcDbEntity
  8
0
  6
Continuous
 62
     7
370
     0
100
AcDbLine
 10
181.013863539
 20
231.7781251087
 30
0.0
 11
181.013863539
 21
225.8960183873
 31
0.0
  0
LINE
  5
33C
330
1F
100
AcDbEntity
  8
0
  6
Continuous
 62
     7
370
     0
100
AcDbLine
 10
181.013863539
 20
225.8960183873
 30
0.0
 11
181.013863539
 21
225.8813705458
 31
0.0
  0
LINE
  5
33D
330
1F
100
AcDbEntity
  8
0
  6
Continuous
 62
     7
370
     0
100
AcDbLine
 10
180.3212666471
 20
112.563370557
 30
0.0
 11
180.3212666471
 21
110.0633710786
 31
0.0
  0
LINE
  5
33E
330
1F
100
AcDbEntity
  8
0
  6
Continuous
 62
     7
370
     0
100
AcDbLine
 10
176.8138636888
 20
110.0633710786
 30
0.0
 11
180.3212666471
 21
110.0633710786
 31
0.0
  0
LINE
  5
33F
330
1F
100
AcDbEntity
  8
0
  6
Continuous
 62
     7
370
     0
100
AcDbLine
 10
176.8138636888
 20
110.0633710786
 30
0.0
 11
176.8138636888
 21
112.563370557
 31
0.0
  0
LINE
  5
340
330
1F
100
AcDbEntity
  8
0
  6
Continuous
 62
     7
370
     0
100
AcDbLine
 10
173.3064607304
 20
110.0633710786
 30
0.0
 11
176.8138636888
 21
110.0633710786
 31
0.0
  0
LINE
  5
341
330
1F
100
AcDbEntity
  8
0
  6
Continuous
 62
     7
370
     0
100
AcDbLine
 10
173.3064607304
 20
110.0633710786
 30
0.0
 11
173.3064607304
 21
112.563370557
 31
0.0
  0
LINE
  5
342
330
1F
100
AcDbEntity
  8
0
  6
Continuous
 62
     7
370
     0
100
AcDbLine
 10
174.7787040711
 20
105.063370259
 30
0.0
 11
174.4638637227
 21
105.063370259
 31
0.0
  0
LINE
  5
343
330
1F
100
AcDbEntity
  8
0
  6
Continuous
 62
     7
370
     0
100
AcDbLine
 10
179.1638636549
 20
105.063370259
 30
0.0
 11
174.7787040711
 21
105.063370259
 31
0.0
  0
LINE
  5
344
330
1F
100
AcDbEntity
  8
0
  6
Continuous
 62
     7
370
     0
100
AcDbLine
 10
175.0818128983
 20
102.5633707806
 30
0.0
 11
174.8138635938
 21
102.5633707806
 31
0.0
  0
LINE
  5
345
330
1F
100
AcDbEntity
  8
0
  6
Continuous
 62
     7
370
     0
100
AcDbLine
 10
178.8138637837
 20
102.5633707806
 30
0.0
 11
175.0818128983
 21
102.5633707806
 31
0.0
  0
LINE
  5
346
330
1F
100
AcDbEntity
  8
0
  6
Continuous
 62
     7
370
     0
100
AcDbLine
 10
177.9888636718
 20
107.5633716001
 30
0.0
 11
174.4638637227
 21
107.5633716001
 31
0.0
  0
LINE
  5
347
330
1F
100
AcDbEntity
  8
0
  6
Continuous
 62
     7
370
     0
100
AcDbLine
 10
179.1638636549
 20
107.5633716001
 30
0.0
 11
177.9888636718
 21
107.5633716001
 31
0.0
  0
ARC
  5
348
330
1F
100
AcDbEntity
  8
0
  6
Continuous
 62
     7
370
     0
100
AcDbCircle
 10
176.8138636888
 20
162.1584983842
 30
0.0
 40
7.141428428542836
100
AcDbArc
 50
314.4382406712
 51
45.5617593289
  0
ARC
  5
349
330
1F
100
AcDbEntity
  8
0
  6
Continuous
 62
     7
370
     0
100
AcDbCircle
 10
176.8138636888
 20
162.1584983842
 30
0.0
 40
7.141428428542856
100
AcDbArc
 50
134.4382406712
 51
225.5617593289
  0
SPLINE
  5
34A
330
1F
100
AcDbEntity
  8
0
  6
Continuous
 62
     7
370
     0
100
AcDbSpline
210
0.0
220
0.0
230
1.0
 70
     8
 71
     3
 72
    14
 73
    10
 74
     0
 42
0.000000001
 43
0.00000001
 40
0.0
 40
0.0
 40
0.0
 40
0.0
 40
0.25
 40
0.25
 40
0.5
 40
0.5
 40
0.75
 40
0.75
 40
1.0
 40
1.0
 40
1.0
 40
1.0
 10
184.7083335547897
 20
155.8584983841572
 30
0.0
 10
184.7083335547897
 20
154.8251146951933
 30
0.0
 10
184.5028616350541
 20
153.7921375985836
 30
0.0
 10
183.7119440009685
 20
151.8826935196542
 30
0.0
 10
183.1268094789338
 20
151.0069778220425
 30
0.0
 10
181.665384250866
 20
149.5455525939747
 30
0.0
 10
180.7896685532544
 20
148.96041807194
 30
0.0
 10
178.880224474325
 20
148.1695004378544
 30
0.0
 10
177.8472473777152
 20
147.9640285181188
 30
0.0
 10
176.8138636887513
 20
147.9640285181188
 30
0.0
  0
SPLINE
  5
34B
330
1F
100
AcDbEntity
  8
0
  6
Continuous
 62
     7
370
     0
100
AcDbSpline
210
0.0
220
0.0
230
1.0
 70
     8
 71
     3
 72
    14
 73
    10
 74
     0
 42
0.000000001
 43
0.00000001
 40
0.0
 40
0.0
 40
0.0
 40
0.0
 40
0.25
 40
0.25
 40
0.5
 40
0.5
 40
0.75
 40
0.75
 40
1.0
 40
1.0
 40
1.0
 40
1.0
 10
176.8138636887513
 20
147.9640285181188
 30
0.0
 10
175.7804799997875
 20
147.9640285181188
 30
0.0
 10
174.7475029031777
 20
148.1695004378544
 30
0.0
 10
172.8380588242483
 20
148.96041807194
 30
0.0
 10
171.9623431266366
 20
149.5455525939747
 30
0.0
 10
170.5009178985688
 20
151.0069778220425
 30
0.0
 10
169.9157833765341
 20
151.8826935196542
 30
0.0
 10
169.1248657424485
 20
153.7921375985836
 30
0.0
 10
168.9193938227129
 20
154.8251146951934
 30
0.0
 10
168.9193938227129
 20
155.8584983841572
 30
0.0
  0
SPLINE
  5
34C
330
1F
100
AcDbEntity
  8
0
  6
Continuous
 62
     7
370
     0
100
AcDbSpline
210
0.0
220
0.0
230
1.0
 70
    24
 71
     3
 72
    10
 73
     6
 74
     0
 42
0.000000001
 43
0.00000001
 40
0.0
 40
0.0
 40
0.0
 40
0.0
 40
0.5
 40
0.5
 40
1.0
 40
1.0
 40
1.0
 40
1.0
 10
169.4193176702911
 20
155.8584983841572
 30
0.0
 10
169.2898724174349
 20
155.8584983841572
 30
0.0
 10
169.1611899228818
 20
155.8584983841572
 30
0.0
 10
168.9765361534006
 20
155.8584983841572
 30
0.0
 10
168.9216529538772
 20
155.8584983841572
 30
0.0
 10
168.9193938227129
 20
155.8584983841572
 30
0.0
  0
SPLINE
  5
34D
330
1F
100
AcDbEntity
  8
0
  6
Continuous
 62
     7
370
     0
100
AcDbSpline
210
0.0
220
0.0
230
1.0
 70
     8
 71
     3
 72
    14
 73
    10
 74
     0
 42
0.000000001
 43
0.00000001
 40
0.0
 40
0.0
 40
0.0
 40
0.0
 40
0.2500000000000001
 40
0.2500000000000001
 40
0.5000000000000001
 40
0.5000000000000001
 40
0.75
 40
0.75
 40
1.0
 40
1.0
 40
1.0
 40
1.0
 10
176.8138636887514
 20
148.463952365697
 30
0.0
 10
175.8459198784086
 20
148.463952365697
 30
0.0
 10
174.878356912622
 20
148.6564126058105
 30
0.0
 10
173.0898299626287
 20
149.3972447251675
 30
0.0
 10
172.269569687403
 20
149.9453251186071
 30
0.0
 10
170.9006904232012
 20
151.3142043828089
 30
0.0
 10
170.3526100297616
 20
152.1344646580346
 30
0.0
 10
169.6117779104046
 20
153.9229916080279
 30
0.0
 10
169.4193176702911
 20
154.8905545738145
 30
0.0
 10
169.4193176702911
 20
155.8584983841572
 30
0.0
  0
SPLINE
  5
34E
330
1F
100
AcDbEntity
  8
0
  6
Continuous
 62
     7
370
     0
100
AcDbSpline
210
0.0
220
0.0
230
1.0
 70
     8
 71
     3
 72
    14
 73
    10
 74
     0
 42
0.000000001
 43
0.00000001
 40
0.0
 40
0.0
 40
0.0
 40
0.0
 40
0.25
 40
0.25
 40
0.5
 40
0.5
 40
0.75
 40
0.75
 40
1.0
 40
1.0
 40
1.0
 40
1.0
 10
184.2084097072116
 20
155.8584983841572
 30
0.0
 10
184.2084097072116
 20
154.8905545738145
 30
0.0
 10
184.0159494670981
 20
153.922991608028
 30
0.0
 10
183.2751173477411
 20
152.1344646580346
 30
0.0
 10
182.7270369543014
 20
151.3142043828089
 30
0.0
 10
181.3581576900996
 20
149.9453251186071
 30
0.0
 10
180.537897414874
 20
149.3972447251675
 30
0.0
 10
178.7493704648807
 20
148.6564126058105
 30
0.0
 10
177.7818074990941
 20
148.463952365697
 30
0.0
 10
176.8138636887514
 20
148.463952365697
 30
0.0
  0
SPLINE
  5
34F
330
1F
100
AcDbEntity
  8
0
  6
Continuous
 62
     7
370
     0
100
AcDbSpline
210
0.0
220
0.0
230
1.0
 70
    24
 71
     3
 72
    10
 73
     6
 74
     0
 42
0.000000001
 43
0.00000001
 40
0.0
 40
0.0
 40
0.0
 40
0.0
 40
0.4999999999999989
 40
0.4999999999999989
 40
1.0
 40
1.0
 40
1.0
 40
1.0
 10
184.2084097072116
 20
155.8584983841572
 30
0.0
 10
184.3378549615117
 20
155.8584983842017
 30
0.0
 10
184.4665374579228
 20
155.8584983842275
 30
0.0
 10
184.6511912294637
 20
155.8584983842275
 30
0.0
 10
184.706074429129
 20
155.8584983842017
 30
0.0
 10
184.7083335591972
 20
155.8584983841572
 30
0.0
  0
LINE
  5
350
330
1F
100
AcDbEntity
  8
0
  6
Continuous
 62
     7
370
     0
100
AcDbLine
 10
184.7083331138
 20
168.4584979131
 30
0.0
 11
184.7083331138
 21
155.8584969654
 31
0.0
  0
LINE
  5
351
330
1F
100
AcDbEntity
  8
0
  6
Continuous
 62
     7
370
     0
100
AcDbLine
 10
184.208409866
 20
168.4584979131
 30
0.0
 11
184.208409866
 21
155.8584969654
 31
0.0
  0
SPLINE
  5
352
330
1F
100
AcDbEntity
  8
0
  6
Continuous
 62
     7
370
     0
100
AcDbSpline
210
0.0
220
0.0
230
1.0
 70
    24
 71
     3
 72
    10
 73
     6
 74
     0
 42
0.000000001
 43
0.00000001
 40
0.0
 40
0.0
 40
0.0
 40
0.0
 40
0.5
 40
0.5
 40
1.0
 40
1.0
 40
1.0
 40
1.0
 10
184.2084097072116
 20
168.4584983841572
 30
0.0
 10
184.3378549600678
 20
168.4584983841572
 30
0.0
 10
184.4665374546209
 20
168.4584983841572
 30
0.0
 10
184.6511912241021
 20
168.4584983841572
 30
0.0
 10
184.7060744236255
 20
168.4584983841572
 30
0.0
 10
184.7083335547897
 20
168.4584983841572
 30
0.0
  0
LINE
  5
353
330
1F
100
AcDbEntity
  8
0
  6
Continuous
 62
     7
370
     0
100
AcDbLine
 10
169.4193175115
 20
155.8584969654
 30
0.0
 11
169.4193175115
 21
168.4584979131
 31
0.0
  0
LINE
  5
354
330
1F
100
AcDbEntity
  8
0
  6
Continuous
 62
     7
370
     0
100
AcDbLine
 10
168.9193942637
 20
155.8584969654
 30
0.0
 11
168.9193942637
 21
168.4584979131
 31
0.0
  0
SPLINE
  5
355
330
1F
100
AcDbEntity
  8
0
  6
Continuous
 62
     7
370
     0
100
AcDbSpline
210
0.0
220
0.0
230
1.0
 70
    24
 71
     3
 72
    10
 73
     6
 74
     0
 42
0.000000001
 43
0.00000001
 40
0.0
 40
0.0
 40
0.0
 40
0.0
 40
0.5000000000000012
 40
0.5000000000000012
 40
1.0
 40
1.0
 40
1.0
 40
1.0
 10
168.9193938227129
 20
168.4584983841572
 30
0.0
 10
168.9216529538771
 20
168.4584983841572
 30
0.0
 10
168.9765361534006
 20
168.4584983841572
 30
0.0
 10
169.1611899228818
 20
168.4584983841572
 30
0.0
 10
169.2898724174349
 20
168.4584983841572
 30
0.0
 10
169.4193176702911
 20
168.4584983841572
 30
0.0
  0
LINE
  5
356
330
1F
100
AcDbEntity
  8
0
  6
Continuous
 62
     7
370
     0
100
AcDbLine
 10
184.7083331138
 20
155.8584969654
 30
0.0
 11
184.7588638828
 21
155.8584969654
 31
0.0
  0
ARC
  5
357
330
1F
100
AcDbEntity
  8
0
  6
Continuous
 62
     7
370
     0
100
AcDbCircle
 10
176.8138636888
 20
155.8584983842
 30
0.0
 40
7.945000000000022
100
AcDbArc
 50
180.0
 51
0.0
  0
LINE
  5
358
330
1F
100
AcDbEntity
  8
0
  6
Continuous
 62
     7
370
     0
100
AcDbLine
 10
168.9193942637
 20
155.8584969654
 30
0.0
 11
168.8688634947
 21
155.8584969654
 31
0.0
  0
LINE
  5
359
330
1F
100
AcDbEntity
  8
0
  6
Continuous
 62
     7
370
     0
100
AcDbLine
 10
184.7083331138
 20
168.4584979131
 30
0.0
 11
184.7588638828
 21
168.4584979131
 31
0.0
  0
LINE
  5
35A
330
1F
100
AcDbEntity
  8
0
  6
Continuous
 62
     7
370
     0
100
AcDbLine
 10
184.7588638828
 20
168.4584979131
 30
0.0
 11
184.7588638828
 21
155.8584969654
 31
0.0
  0
LINE
  5
35B
330
1F
100
AcDbEntity
  8
0
  6
Continuous
 62
     7
370
     0
100
AcDbLine
 10
168.8688634947
 20
168.4584979131
 30
0.0
 11
168.9193942637
 21
168.4584979131
 31
0.0
  0
LINE
  5
35C
330
1F
100
AcDbEntity
  8
0
  6
Continuous
 62
     7
370
     0
100
AcDbLine
 10
168.8688634947
 20
155.8584969654
 30
0.0
 11
168.8688634947
 21
168.4584979131
 31
0.0
  0
ARC
  5
35D
330
1F
100
AcDbEntity
  8
0
  6
Continuous
 62
     7
370
     0
100
AcDbCircle
 10
176.8138636888
 20
168.4584983842
 30
0.0
 40
7.945000000000022
100
AcDbArc
 50
129.0004592744
 51
180.0
  0
ARC
  5
35E
330
1F
100
AcDbEntity
  8
0
  6
Continuous
 62
     7
370
     0
100
AcDbCircle
 10
176.8138636888
 20
168.4584983842
 30
0.0
 40
7.945000000000192
100
AcDbArc
 50
0.0
 51
50.9995407256
  0
LINE
  5
35F
330
1F
100
AcDbEntity
  8
0
  6
Continuous
 62
     7
370
     0
100
AcDbLine
 10
178.8138637837
 20
223.5611405387
 30
0.0
 11
178.8138637837
 21
224.4647693052
 31
0.0
  0
LINE
  5
360
330
1F
100
AcDbEntity
  8
0
  6
Continuous
 62
     7
370
     0
100
AcDbLine
 10
178.8138637837
 20
223.5611405387
 30
0.0
 11
174.8138635938
 21
223.5611405387
 31
0.0
  0
LINE
  5
361
330
1F
100
AcDbEntity
  8
0
  6
Continuous
 62
     7
370
     0
100
AcDbLine
 10
174.8138635938
 20
223.5611405387
 30
0.0
 11
174.8138635938
 21
224.4647693052
 31
0.0
  0
LWPOLYLINE
  5
362
330
1F
100
AcDbEntity
  8
0
  6
Continuous
 62
     7
370
     0
100
AcDbPolyline
 90
       11
 70
   128
 43
0.0
 10
178.2638636703
 20
219.0843101754
 10
178.241834981
 20
219.0427061333
 10
178.0696004915
 20
218.9645048394
 10
177.7459057101
 20
218.9007576718
 10
177.3097929015
 20
218.8591536298
 10
176.8138636888
 20
218.844706954
 10
176.317934476
 20
218.8591536298
 10
175.8818216674
 20
218.9007576718
 10
175.558126886
 20
218.9645048394
 10
175.3858923965
 20
219.0427061333
 10
175.3638637072
 20
219.0843101754
  0
CIRCLE
  5
363
330
1F
100
AcDbEntity
  8
0
  6
Continuous
 62
     7
370
     0
100
AcDbCircle
 10
176.7867230834
 20
198.9204371147
 30
0.0
 40
3.27781613560765
  0
ARC
  5
364
330
1F
100
AcDbEntity
  8
0
  6
Continuous
 62
     7
370
     0
100
AcDbCircle
 10
176.7630011833
 20
198.8644111407
 30
0.0
 40
3.449185279722307
100
AcDbArc
 50
180.3012555576
 51
253.5976075699
  0
ARC
  5
365
330
1F
100
AcDbEntity
  8
0
  6
Continuous
 62
     7
370
     0
100
AcDbCircle
 10
176.8252811154
 20
198.8869689021
 30
0.0
 40
3.488820009313381
100
AcDbArc
 50
252.7210065083
 51
359.3316941443
  0
LINE
  5
366
330
1F
100
AcDbEntity
  8
0
  6
Continuous
 62
     7
370
     0
100
AcDbLine
 10
177.211912587
 20
197.183768095
 30
0.0
 11
178.5091928957
 21
198.3721878543
 31
0.0
  0
LINE
  5
367
330
1F
100
AcDbEntity
  8
0
  6
Continuous
 62
     7
370
     0
100
AcDbLine
 10
178.1111439975
 20
200.0710990443
 30
0.0
 11
178.5091928957
 21
198.3721878543
 31
0.0
  0
LINE
  5
368
330
1F
100
AcDbEntity
  8
0
  6
Continuous
 62
     7
370
     0
100
AcDbLine
 10
176.4158147905
 20
200.5815979256
 30
0.0
 11
178.1111439975
 21
200.0710990443
 31
0.0
  0
LINE
  5
369
330
1F
100
AcDbEntity
  8
0
  6
Continuous
 62
     7
370
     0
100
AcDbLine
 10
176.4158147905
 20
200.5815979256
 30
0.0
 11
175.1185344818
 21
199.3931781664
 31
0.0
  0
LINE
  5
36A
330
1F
100
AcDbEntity
  8
0
  6
Continuous
 62
     7
370
     0
100
AcDbLine
 10
175.1185344818
 20
199.3931781664
 30
0.0
 11
175.51658338
 21
197.6942669763
 31
0.0
  0
LINE
  5
36B
330
1F
100
AcDbEntity
  8
0
  6
Continuous
 62
     7
370
     0
100
AcDbLine
 10
177.211912587
 20
197.183768095
 30
0.0
 11
175.51658338
 21
197.6942669763
 31
0.0
  0
ARC
  5
36C
330
1F
100
AcDbEntity
  8
0
  6
Continuous
 62
     7
370
     0
100
AcDbCircle
 10
176.8770085694
 20
198.3863884529
 30
0.0
 40
3.436881392298079
100
AcDbArc
 50
297.0854526403
 51
359.7764292021
  0
ARC
  5
36D
330
1F
100
AcDbEntity
  8
0
  6
Continuous
 62
     7
370
     0
100
AcDbCircle
 10
176.753102671
 20
198.3878532412
 30
0.0
 40
3.439271260649008
100
AcDbArc
 50
180.2478179657
 51
242.8903001919
  0
LINE
  5
36E
330
1F
100
AcDbEntity
  8
0
  6
Continuous
 62
     7
370
     0
100
AcDbLine
 10
178.4811018786
 20
198.3464535489
 30
0.0
 11
178.3101684466
 21
199.0760144009
 31
0.0
  0
LINE
  5
36F
330
1F
100
AcDbEntity
  8
0
  6
Continuous
 62
     7
370
     0
100
AcDbLine
 10
178.3101684466
 20
199.0760144009
 30
0.0
 11
178.1111439975
 21
199.925469996
 31
0.0
  0
LINE
  5
370
330
1F
100
AcDbEntity
  8
0
  6
Continuous
 62
     7
370
     0
100
AcDbLine
 10
178.1111439975
 20
199.925469996
 30
0.0
 11
178.1111439975
 21
200.0710990443
 31
0.0
  0
LINE
  5
371
330
1F
100
AcDbEntity
  8
0
  6
Continuous
 62
     7
370
     0
100
AcDbLine
 10
175.7671745779
 20
199.8417627229
 30
0.0
 11
176.4158147905
 21
200.4359688773
 31
0.0
  0
LINE
  5
372
330
1F
100
AcDbEntity
  8
0
  6
Continuous
 62
     7
370
     0
100
AcDbLine
 10
175.1466254989
 20
199.2732834234
 30
0.0
 11
175.7671745779
 21
199.8417627229
 31
0.0
  0
LINE
  5
373
330
1F
100
AcDbEntity
  8
0
  6
Continuous
 62
     7
370
     0
100
AcDbLine
 10
176.4158147905
 20
200.4359688773
 30
0.0
 11
176.4158147905
 21
200.5815979256
 31
0.0
  0
LINE
  5
374
330
1F
100
AcDbEntity
  8
0
  6
Continuous
 62
     7
370
     0
100
AcDbLine
 10
178.1111439975
 20
199.925469996
 30
0.0
 11
177.2634794231
 21
200.1807194366
 31
0.0
  0
LINE
  5
375
330
1F
100
AcDbEntity
  8
0
  6
Continuous
 62
     7
370
     0
100
AcDbLine
 10
177.2634794231
 20
200.1807194366
 30
0.0
 11
176.4158147905
 21
200.4359688773
 31
0.0
  0
ARC
  5
376
330
1F
100
AcDbEntity
  8
0
  6
Continuous
 62
     7
370
     0
100
AcDbCircle
 10
176.8147774677
 20
198.783219929
 30
0.0
 40
1.555936693471857
100
AcDbArc
 50
277.6372500851
 51
290.9899014667
  0
ARC
  5
377
330
1F
100
AcDbEntity
  8
0
  6
Continuous
 62
     7
370
     0
100
AcDbCircle
 10
176.7875945276
 20
198.7474331011
 30
0.0
 40
1.511531582254514
100
AcDbArc
 50
205.3233129595
 51
228.6941607399
  0
ARC
  5
378
330
1F
100
AcDbEntity
  8
0
  6
Continuous
 62
     7
370
     0
100
AcDbCircle
 10
176.7749582681
 20
198.735383999
 30
0.0
 40
1.496563345404737
100
AcDbArc
 50
132.3299169077
 51
180.9736902436
  0
ARC
  5
379
330
1F
100
AcDbEntity
  8
0
  6
Continuous
 62
     7
370
     0
100
AcDbCircle
 10
176.8139294472
 20
198.693077817
 30
0.0
 40
1.554082613467555
100
AcDbArc
 50
73.1857237645
 51
132.3417762975
  0
ARC
  5
37A
330
1F
100
AcDbEntity
  8
0
  6
Continuous
 62
     7
370
     0
100
AcDbCircle
 10
176.8312712527
 20
198.7229971852
 30
0.0
 40
1.520446666221652
100
AcDbArc
 50
13.4254479769
 51
73.4851438126
  0
ARC
  5
37B
330
1F
100
AcDbEntity
  8
0
  6
Continuous
 62
     7
370
     0
100
AcDbCircle
 10
176.8614289985
 20
198.7370771399
 30
0.0
 40
1.48785901734053
100
AcDbArc
 50
334.2244589374
 51
13.1677007999
  0
CIRCLE
  5
37C
330
1F
100
AcDbEntity
  8
0
  6
Continuous
 62
     7
370
     0
100
AcDbCircle
 10
176.7867229905
 20
184.1710626563
 30
0.0
 40
3.277815900453198
  0
ARC
  5
37D
330
1F
100
AcDbEntity
  8
0
  6
Continuous
 62
     7
370
     0
100
AcDbCircle
 10
176.7630139415
 20
184.1150427506
 30
0.0
 40
3.449198068540604
100
AcDbArc
 50
180.3013516272
 51
253.5974491815
  0
ARC
  5
37E
330
1F
100
AcDbEntity
  8
0
  6
Continuous
 62
     7
370
     0
100
AcDbCircle
 10
176.8252800723
 20
184.1375923244
 30
0.0
 40
3.488821025069107
100
AcDbArc
 50
252.7210296372
 51
359.3317327223
  0
LINE
  5
37F
330
1F
100
AcDbEntity
  8
0
  6
Continuous
 62
     7
370
     0
100
AcDbLine
 10
177.211912587
 20
182.4343901291
 30
0.0
 11
178.5091928957
 21
183.6228098883
 31
0.0
  0
LINE
  5
380
330
1F
100
AcDbEntity
  8
0
  6
Continuous
 62
     7
370
     0
100
AcDbLine
 10
178.1111439975
 20
185.3217248037
 30
0.0
 11
178.5091928957
 21
183.6228098883
 31
0.0
  0
LINE
  5
381
330
1F
100
AcDbEntity
  8
0
  6
Continuous
 62
     7
370
     0
100
AcDbLine
 10
176.4158147905
 20
185.832223685
 30
0.0
 11
178.1111439975
 21
185.3217248037
 31
0.0
  0
LINE
  5
382
330
1F
100
AcDbEntity
  8
0
  6
Continuous
 62
     7
370
     0
100
AcDbLine
 10
176.4158147905
 20
185.832223685
 30
0.0
 11
175.1185344818
 21
184.6438039257
 31
0.0
  0
LINE
  5
383
330
1F
100
AcDbEntity
  8
0
  6
Continuous
 62
     7
370
     0
100
AcDbLine
 10
175.1185344818
 20
184.6438039257
 30
0.0
 11
175.51658338
 21
182.9448890104
 31
0.0
  0
LINE
  5
384
330
1F
100
AcDbEntity
  8
0
  6
Continuous
 62
     7
370
     0
100
AcDbLine
 10
177.211912587
 20
182.4343901291
 30
0.0
 11
175.51658338
 21
182.9448890104
 31
0.0
  0
ARC
  5
385
330
1F
100
AcDbEntity
  8
0
  6
Continuous
 62
     7
370
     0
100
AcDbCircle
 10
176.8769807805
 20
183.6370275457
 30
0.0
 40
3.436909233041902
100
AcDbArc
 50
297.0857356105
 51
359.7762087329
  0
ARC
  5
386
330
1F
100
AcDbEntity
  8
0
  6
Continuous
 62
     7
370
     0
100
AcDbCircle
 10
176.7531026418
 20
183.6384752391
 30
0.0
 40
3.439271215196591
100
AcDbArc
 50
180.247755306
 51
242.8903003505
  0
LINE
  5
387
330
1F
100
AcDbEntity
  8
0
  6
Continuous
 62
     7
370
     0
100
AcDbLine
 10
178.4811018786
 20
183.597075583
 30
0.0
 11
178.3101684466
 21
184.3266401603
 31
0.0
  0
LINE
  5
388
330
1F
100
AcDbEntity
  8
0
  6
Continuous
 62
     7
370
     0
100
AcDbLine
 10
178.3101684466
 20
184.3266401603
 30
0.0
 11
178.1111439975
 21
185.1760957553
 31
0.0
  0
LINE
  5
389
330
1F
100
AcDbEntity
  8
0
  6
Continuous
 62
     7
370
     0
100
AcDbLine
 10
178.1111439975
 20
185.1760957553
 30
0.0
 11
178.1111439975
 21
185.3217248037
 31
0.0
  0
LINE
  5
38A
330
1F
100
AcDbEntity
  8
0
  6
Continuous
 62
     7
370
     0
100
AcDbLine
 10
175.7671745779
 20
185.092384757
 30
0.0
 11
176.4158147905
 21
185.6865946367
 31
0.0
  0
LINE
  5
38B
330
1F
100
AcDbEntity
  8
0
  6
Continuous
 62
     7
370
     0
100
AcDbLine
 10
175.1466254989
 20
184.5239091828
 30
0.0
 11
175.7671745779
 21
185.092384757
 31
0.0
  0
LINE
  5
38C
330
1F
100
AcDbEntity
  8
0
  6
Continuous
 62
     7
370
     0
100
AcDbLine
 10
176.4158147905
 20
185.6865946367
 30
0.0
 11
176.4158147905
 21
185.832223685
 31
0.0
  0
LINE
  5
38D
330
1F
100
AcDbEntity
  8
0
  6
Continuous
 62
     7
370
     0
100
AcDbLine
 10
178.1111439975
 20
185.1760957553
 30
0.0
 11
177.2634794231
 21
185.431345196
 31
0.0
  0
LINE
  5
38E
330
1F
100
AcDbEntity
  8
0
  6
Continuous
 62
     7
370
     0
100
AcDbLine
 10
177.2634794231
 20
185.431345196
 30
0.0
 11
176.4158147905
 21
185.6865946367
 31
0.0
  0
ARC
  5
38F
330
1F
100
AcDbEntity
  8
0
  6
Continuous
 62
     7
370
     0
100
AcDbCircle
 10
176.8147774677
 20
184.0338456884
 30
0.0
 40
1.555936693471801
100
AcDbArc
 50
277.6372500851
 51
290.9899014667
  0
ARC
  5
390
330
1F
100
AcDbEntity
  8
0
  6
Continuous
 62
     7
370
     0
100
AcDbCircle
 10
176.7875945276
 20
183.9980551351
 30
0.0
 40
1.511531582254502
100
AcDbArc
 50
205.3233129595
 51
228.6941607399
  0
ARC
  5
391
330
1F
100
AcDbEntity
  8
0
  6
Continuous
 62
     7
370
     0
100
AcDbCircle
 10
176.7749540831
 20
183.986008007
 30
0.0
 40
1.496559067986995
100
AcDbArc
 50
132.3298493487
 51
180.9734833221
  0
ARC
  5
392
330
1F
100
AcDbEntity
  8
0
  6
Continuous
 62
     7
370
     0
100
AcDbCircle
 10
176.8139366783
 20
183.9436842796
 30
0.0
 40
1.554098993518294
100
AcDbArc
 50
73.1861847552
 51
132.3415866753
  0
ARC
  5
393
330
1F
100
AcDbEntity
  8
0
  6
Continuous
 62
     7
370
     0
100
AcDbCircle
 10
176.8312635607
 20
183.9736156566
 30
0.0
 40
1.520455840124852
100
AcDbArc
 50
13.4256478085
 51
73.484943981
  0
ARC
  5
394
330
1F
100
AcDbEntity
  8
0
  6
Continuous
 62
     7
370
     0
100
AcDbCircle
 10
176.8615389672
 20
183.987690751
 30
0.0
 40
1.487754707894716
100
AcDbArc
 50
334.2230386328
 51
13.1691211045
  0
LINE
  5
395
330
1F
100
AcDbEntity
  8
0
  6
Continuous
 62
     7
370
     0
100
AcDbLine
 10
179.3138636329
 20
175.4842166021
 30
0.0
 11
174.3138637446
 21
175.4842166021
 31
0.0
  0
LINE
  5
396
330
1F
100
AcDbEntity
  8
0
  6
Continuous
 62
     7
370
     0
100
AcDbLine
 10
179.3138636329
 20
175.2111602738
 30
0.0
 11
174.3138637446
 21
175.2111602738
 31
0.0
  0
LINE
  5
397
330
1F
100
AcDbEntity
  8
0
  6
Continuous
 62
     7
370
     0
100
AcDbLine
 10
174.3138637446
 20
175.2111602738
 30
0.0
 11
174.3138637446
 21
175.4842166021
 31
0.0
  0
LINE
  5
398
330
1F
100
AcDbEntity
  8
0
  6
Continuous
 62
     7
370
     0
100
AcDbLine
 10
179.3138636329
 20
175.2111602738
 30
0.0
 11
179.3138636329
 21
175.4842166021
 31
0.0
  0
LINE
  5
399
330
1F
100
AcDbEntity
  8
0
  6
Continuous
 62
     7
370
     0
100
AcDbLine
 10
171.8138638005
 20
174.5978322043
 30
0.0
 11
181.813863577
 21
174.5978322043
 31
0.0
  0
LINE
  5
39A
330
1F
100
AcDbEntity
  8
0
  6
Continuous
 62
     7
370
     0
100
AcDbLine
 10
181.813863577
 20
152.5018278672
 30
0.0
 11
181.813863577
 21
174.5978322043
 31
0.0
  0
LINE
  5
39B
330
1F
100
AcDbEntity
  8
0
  6
Continuous
 62
     7
370
     0
100
AcDbLine
 10
171.8138638005
 20
152.5018278672
 30
0.0
 11
181.813863577
 21
152.5018278672
 31
0.0
  0
LINE
  5
39C
330
1F
100
AcDbEntity
  8
0
  6
Continuous
 62
     7
370
     0
100
AcDbLine
 10
171.8138638005
 20
152.5018278672
 30
0.0
 11
171.8138638005
 21
174.5978322043
 31
0.0
  0
LINE
  5
39D
330
1F
100
AcDbEntity
  8
0
  6
Continuous
 62
     7
370
     0
100
AcDbLine
 10
171.8138638005
 20
174.5978322043
 30
0.0
 11
171.8138638005
 21
175.2111602738
 31
0.0
  0
LINE
  5
39E
330
1F
100
AcDbEntity
  8
0
  6
Continuous
 62
     7
370
     0
100
AcDbLine
 10
181.813863577
 20
174.5978322043
 30
0.0
 11
181.813863577
 21
175.2111602738
 31
0.0
  0
LINE
  5
39F
330
1F
100
AcDbEntity
  8
0
  6
Continuous
 62
     7
370
     0
100
AcDbLine
 10
181.813863577
 20
152.5018278672
 30
0.0
 11
179.8138637148
 21
150.8598167612
 31
0.0
  0
LINE
  5
3A0
330
1F
100
AcDbEntity
  8
0
  6
Continuous
 62
     7
370
     0
100
AcDbLine
 10
179.8138637148
 20
150.8598167612
 30
0.0
 11
173.8138636627
 21
150.8598167612
 31
0.0
  0
LINE
  5
3A1
330
1F
100
AcDbEntity
  8
0
  6
Continuous
 62
     7
370
     0
100
AcDbLine
 10
171.8138638005
 20
152.5018278672
 30
0.0
 11
173.8138636627
 21
150.8598167612
 31
0.0
  0
LINE
  5
3A2
330
1F
100
AcDbEntity
  8
0
  6
Continuous
 62
     7
370
     0
100
AcDbLine
 10
187.163863802
 20
147.5633707061
 30
0.0
 11
187.0638639719
 21
147.5633707061
 31
0.0
  0
LINE
  5
3A3
330
1F
100
AcDbEntity
  8
0
  6
Continuous
 62
     7
370
     0
100
AcDbLine
 10
187.0638639719
 20
148.56337087
 30
0.0
 11
187.163863802
 21
148.56337087
 31
0.0
  0
LINE
  5
3A4
330
1F
100
AcDbEntity
  8
0
  6
Continuous
 62
     7
370
     0
100
AcDbLine
 10
187.163863802
 20
148.56337087
 30
0.0
 11
187.163863802
 21
147.5633707061
 31
0.0
  0
LINE
  5
3A5
330
1F
100
AcDbEntity
  8
0
  6
Continuous
 62
     7
370
     0
100
AcDbLine
 10
187.163863802
 20
171.5633709147
 30
0.0
 11
187.0638639719
 21
171.5633709147
 31
0.0
  0
LINE
  5
3A6
330
1F
100
AcDbEntity
  8
0
  6
Continuous
 62
     7
370
     0
100
AcDbLine
 10
187.163863802
 20
171.5633709147
 30
0.0
 11
187.163863802
 21
148.56337087
 31
0.0
  0
LINE
  5
3A7
330
1F
100
AcDbEntity
  8
0
  6
Continuous
 62
     7
370
     0
100
AcDbLine
 10
187.0638639719
 20
172.5633692159
 30
0.0
 11
187.163863802
 21
172.5633692159
 31
0.0
  0
LINE
  5
3A8
330
1F
100
AcDbEntity
  8
0
  6
Continuous
 62
     7
370
     0
100
AcDbLine
 10
187.163863802
 20
172.5633692159
 30
0.0
 11
187.163863802
 21
171.5633709147
 31
0.0
  0
LINE
  5
3A9
330
1F
100
AcDbEntity
  8
0
  6
Continuous
 62
     7
370
     0
100
AcDbLine
 10
187.1838639543
 20
157.8055422916
 30
0.0
 11
187.163863802
 21
157.8055422916
 31
0.0
  0
LINE
  5
3AA
330
1F
100
AcDbEntity
  8
0
  6
Continuous
 62
     7
370
     0
100
AcDbLine
 10
187.1838639543
 20
156.6512424662
 30
0.0
 11
187.163863802
 21
156.6512424662
 31
0.0
  0
LINE
  5
3AB
330
1F
100
AcDbEntity
  8
0
  6
Continuous
 62
     7
370
     0
100
AcDbLine
 10
187.1838639543
 20
159.1226298525
 30
0.0
 11
187.163863802
 21
159.1226298525
 31
0.0
  0
LINE
  5
3AC
330
1F
100
AcDbEntity
  8
0
  6
Continuous
 62
     7
370
     0
100
AcDbLine
 10
187.1838639543
 20
156.4446080639
 30
0.0
 11
187.163863802
 21
156.4446080639
 31
0.0
  0
LINE
  5
3AD
330
1F
100
AcDbEntity
  8
0
  6
Continuous
 62
     7
370
     0
100
AcDbLine
 10
187.1838639543
 20
159.3298118725
 30
0.0
 11
187.163863802
 21
159.3298118725
 31
0.0
  0
LINE
  5
3AE
330
1F
100
AcDbEntity
  8
0
  6
Continuous
 62
     7
370
     0
100
AcDbLine
 10
187.1838639543
 20
165.1167262509
 30
0.0
 11
187.163863802
 21
165.1167262509
 31
0.0
  0
LINE
  5
3AF
330
1F
100
AcDbEntity
  8
0
  6
Continuous
 62
     7
370
     0
100
AcDbLine
 10
187.1838639543
 20
164.9421107187
 30
0.0
 11
187.163863802
 21
164.9421107187
 31
0.0
  0
LINE
  5
3B0
330
1F
100
AcDbEntity
  8
0
  6
Continuous
 62
     7
370
     0
100
AcDbLine
 10
187.1838639543
 20
165.1167262509
 30
0.0
 11
187.1838639543
 21
164.9421107187
 31
0.0
  0
LINE
  5
3B1
330
1F
100
AcDbEntity
  8
0
  6
Continuous
 62
     7
370
     0
100
AcDbLine
 10
187.1838639543
 20
165.3548393562
 30
0.0
 11
187.163863802
 21
165.3548393562
 31
0.0
  0
LINE
  5
3B2
330
1F
100
AcDbEntity
  8
0
  6
Continuous
 62
     7
370
     0
100
AcDbLine
 10
187.1838639543
 20
165.3548393562
 30
0.0
 11
187.1838639543
 21
165.1167262509
 31
0.0
  0
LINE
  5
3B3
330
1F
100
AcDbEntity
  8
0
  6
Continuous
 62
     7
370
     0
100
AcDbLine
 10
187.1838639543
 20
164.743683131
 30
0.0
 11
187.163863802
 21
164.743683131
 31
0.0
  0
LINE
  5
3B4
330
1F
100
AcDbEntity
  8
0
  6
Continuous
 62
     7
370
     0
100
AcDbLine
 10
187.1838639543
 20
164.9421107187
 30
0.0
 11
187.1838639543
 21
164.743683131
 31
0.0
  0
LINE
  5
3B5
330
1F
100
AcDbEntity
  8
0
  6
Continuous
 62
     7
370
     0
100
AcDbLine
 10
187.1838639543
 20
165.5850138678
 30
0.0
 11
187.163863802
 21
165.5850138678
 31
0.0
  0
LINE
  5
3B6
330
1F
100
AcDbEntity
  8
0
  6
Continuous
 62
     7
370
     0
100
AcDbLine
 10
187.1838639543
 20
165.5850138678
 30
0.0
 11
187.1838639543
 21
165.3548393562
 31
0.0
  0
LINE
  5
3B7
330
1F
100
AcDbEntity
  8
0
  6
Continuous
 62
     7
370
     0
100
AcDbLine
 10
187.1838639543
 20
164.5214434876
 30
0.0
 11
187.163863802
 21
164.5214434876
 31
0.0
  0
LINE
  5
3B8
330
1F
100
AcDbEntity
  8
0
  6
Continuous
 62
     7
370
     0
100
AcDbLine
 10
187.1838639543
 20
164.743683131
 30
0.0
 11
187.1838639543
 21
164.5214434876
 31
0.0
  0
LINE
  5
3B9
330
1F
100
AcDbEntity
  8
0
  6
Continuous
 62
     7
370
     0
100
AcDbLine
 10
187.1838639543
 20
165.7913800492
 30
0.0
 11
187.163863802
 21
165.7913800492
 31
0.0
  0
LINE
  5
3BA
330
1F
100
AcDbEntity
  8
0
  6
Continuous
 62
     7
370
     0
100
AcDbLine
 10
187.1838639543
 20
165.7913800492
 30
0.0
 11
187.1838639543
 21
165.5850138678
 31
0.0
  0
LINE
  5
3BB
330
1F
100
AcDbEntity
  8
0
  6
Continuous
 62
     7
370
     0
100
AcDbLine
 10
187.1838639543
 20
165.9977425053
 30
0.0
 11
187.163863802
 21
165.9977425053
 31
0.0
  0
LINE
  5
3BC
330
1F
100
AcDbEntity
  8
0
  6
Continuous
 62
     7
370
     0
100
AcDbLine
 10
187.1838639543
 20
165.9977425053
 30
0.0
 11
187.1838639543
 21
165.7913800492
 31
0.0
  0
LINE
  5
3BD
330
1F
100
AcDbEntity
  8
0
  6
Continuous
 62
     7
370
     0
100
AcDbLine
 10
187.1838639543
 20
164.2992075696
 30
0.0
 11
187.163863802
 21
164.2992075696
 31
0.0
  0
LINE
  5
3BE
330
1F
100
AcDbEntity
  8
0
  6
Continuous
 62
     7
370
     0
100
AcDbLine
 10
187.1838639543
 20
164.5214434876
 30
0.0
 11
187.1838639543
 21
164.2992075696
 31
0.0
  0
LINE
  5
3BF
330
1F
100
AcDbEntity
  8
0
  6
Continuous
 62
     7
370
     0
100
AcDbLine
 10
187.1838639543
 20
166.1802966311
 30
0.0
 11
187.163863802
 21
166.1802966311
 31
0.0
  0
LINE
  5
3C0
330
1F
100
AcDbEntity
  8
0
  6
Continuous
 62
     7
370
     0
100
AcDbLine
 10
187.1838639543
 20
166.1802966311
 30
0.0
 11
187.1838639543
 21
165.9977425053
 31
0.0
  0
LINE
  5
3C1
330
1F
100
AcDbEntity
  8
0
  6
Continuous
 62
     7
370
     0
100
AcDbLine
 10
187.1838639543
 20
166.3866628124
 30
0.0
 11
187.163863802
 21
166.3866628124
 31
0.0
  0
LINE
  5
3C2
330
1F
100
AcDbEntity
  8
0
  6
Continuous
 62
     7
370
     0
100
AcDbLine
 10
187.1838639543
 20
166.3866628124
 30
0.0
 11
187.1838639543
 21
166.1802966311
 31
0.0
  0
LINE
  5
3C3
330
1F
100
AcDbEntity
  8
0
  6
Continuous
 62
     7
370
     0
100
AcDbLine
 10
187.1838639543
 20
164.1245883121
 30
0.0
 11
187.163863802
 21
164.1245883121
 31
0.0
  0
LINE
  5
3C4
330
1F
100
AcDbEntity
  8
0
  6
Continuous
 62
     7
370
     0
100
AcDbLine
 10
187.1838639543
 20
164.2992075696
 30
0.0
 11
187.1838639543
 21
164.1245883121
 31
0.0
  0
LINE
  5
3C5
330
1F
100
AcDbEntity
  8
0
  6
Continuous
 62
     7
370
     0
100
AcDbLine
 10
187.1838639543
 20
166.6406493797
 30
0.0
 11
187.163863802
 21
166.6406493797
 31
0.0
  0
LINE
  5
3C6
330
1F
100
AcDbEntity
  8
0
  6
Continuous
 62
     7
370
     0
100
AcDbLine
 10
187.1838639543
 20
166.6406493797
 30
0.0
 11
187.1838639543
 21
166.3866628124
 31
0.0
  0
LINE
  5
3C7
330
1F
100
AcDbEntity
  8
0
  6
Continuous
 62
     7
370
     0
100
AcDbLine
 10
187.1838639543
 20
163.9896582975
 30
0.0
 11
187.163863802
 21
163.9896582975
 31
0.0
  0
LINE
  5
3C8
330
1F
100
AcDbEntity
  8
0
  6
Continuous
 62
     7
370
     0
100
AcDbLine
 10
187.1838639543
 20
164.1245883121
 30
0.0
 11
187.1838639543
 21
163.9896582975
 31
0.0
  0
LINE
  5
3C9
330
1F
100
AcDbEntity
  8
0
  6
Continuous
 62
     7
370
     0
100
AcDbLine
 10
187.1838639543
 20
166.8232035055
 30
0.0
 11
187.163863802
 21
166.8232035055
 31
0.0
  0
LINE
  5
3CA
330
1F
100
AcDbEntity
  8
0
  6
Continuous
 62
     7
370
     0
100
AcDbLine
 10
187.1838639543
 20
166.8232035055
 30
0.0
 11
187.1838639543
 21
166.6406493797
 31
0.0
  0
LINE
  5
3CB
330
1F
100
AcDbEntity
  8
0
  6
Continuous
 62
     7
370
     0
100
AcDbLine
 10
187.1838639543
 20
163.8467896893
 30
0.0
 11
187.163863802
 21
163.8467896893
 31
0.0
  0
LINE
  5
3CC
330
1F
100
AcDbEntity
  8
0
  6
Continuous
 62
     7
370
     0
100
AcDbLine
 10
187.1838639543
 20
163.9896582975
 30
0.0
 11
187.1838639543
 21
163.8467896893
 31
0.0
  0
LINE
  5
3CD
330
1F
100
AcDbEntity
  8
0
  6
Continuous
 62
     7
370
     0
100
AcDbLine
 10
187.1838639543
 20
167.005753906
 30
0.0
 11
187.163863802
 21
167.005753906
 31
0.0
  0
LINE
  5
3CE
330
1F
100
AcDbEntity
  8
0
  6
Continuous
 62
     7
370
     0
100
AcDbLine
 10
187.1838639543
 20
167.005753906
 30
0.0
 11
187.1838639543
 21
166.8232035055
 31
0.0
  0
LINE
  5
3CF
330
1F
100
AcDbEntity
  8
0
  6
Continuous
 62
     7
370
     0
100
AcDbLine
 10
187.1838639543
 20
151.8491812213
 30
0.0
 11
187.163863802
 21
151.8491812213
 31
0.0
  0
LINE
  5
3D0
330
1F
100
AcDbEntity
  8
0
  6
Continuous
 62
     7
370
     0
100
AcDbLine
 10
187.1838639543
 20
150.606087239
 30
0.0
 11
187.163863802
 21
150.606087239
 31
0.0
  0
LINE
  5
3D1
330
1F
100
AcDbEntity
  8
0
  6
Continuous
 62
     7
370
     0
100
AcDbLine
 10
187.1838639543
 20
153.077476488
 30
0.0
 11
187.163863802
 21
153.077476488
 31
0.0
  0
LINE
  5
3D2
330
1F
100
AcDbEntity
  8
0
  6
Continuous
 62
     7
370
     0
100
AcDbLine
 10
187.1838639543
 20
163.7436103239
 30
0.0
 11
187.163863802
 21
163.7436103239
 31
0.0
  0
LINE
  5
3D3
330
1F
100
AcDbEntity
  8
0
  6
Continuous
 62
     7
370
     0
100
AcDbLine
 10
187.1838639543
 20
163.8467896893
 30
0.0
 11
187.1838639543
 21
163.7436103239
 31
0.0
  0
LINE
  5
3D4
330
1F
100
AcDbEntity
  8
0
  6
Continuous
 62
     7
370
     0
100
AcDbLine
 10
187.1838639543
 20
167.1406839206
 30
0.0
 11
187.163863802
 21
167.1406839206
 31
0.0
  0
LINE
  5
3D5
330
1F
100
AcDbEntity
  8
0
  6
Continuous
 62
     7
370
     0
100
AcDbLine
 10
187.1838639543
 20
167.1406839206
 30
0.0
 11
187.1838639543
 21
167.005753906
 31
0.0
  0
LINE
  5
3D6
330
1F
100
AcDbEntity
  8
0
  6
Continuous
 62
     7
370
     0
100
AcDbLine
 10
187.1838639543
 20
167.3665855243
 30
0.0
 11
187.163863802
 21
167.3665855243
 31
0.0
  0
LINE
  5
3D7
330
1F
100
AcDbEntity
  8
0
  6
Continuous
 62
     7
370
     0
100
AcDbLine
 10
187.1838639543
 20
167.3665855243
 30
0.0
 11
187.1838639543
 21
167.1406839206
 31
0.0
  0
LINE
  5
3D8
330
1F
100
AcDbEntity
  8
0
  6
Continuous
 62
     7
370
     0
100
AcDbLine
 10
187.1838639543
 20
150.400002317
 30
0.0
 11
187.163863802
 21
150.400002317
 31
0.0
  0
LINE
  5
3D9
330
1F
100
AcDbEntity
  8
0
  6
Continuous
 62
     7
370
     0
100
AcDbLine
 10
187.1838639543
 20
153.2846585079
 30
0.0
 11
187.163863802
 21
153.2846585079
 31
0.0
  0
LINE
  5
3DA
330
1F
100
AcDbEntity
  8
0
  6
Continuous
 62
     7
370
     0
100
AcDbLine
 10
187.1838639543
 20
163.6483658268
 30
0.0
 11
187.163863802
 21
163.6483658268
 31
0.0
  0
LINE
  5
3DB
330
1F
100
AcDbEntity
  8
0
  6
Continuous
 62
     7
370
     0
100
AcDbLine
 10
187.1838639543
 20
163.7436103239
 30
0.0
 11
187.1838639543
 21
163.6483658268
 31
0.0
  0
LINE
  5
3DC
330
1F
100
AcDbEntity
  8
0
  6
Continuous
 62
     7
370
     0
100
AcDbLine
 10
187.1838639543
 20
167.4777034833
 30
0.0
 11
187.163863802
 21
167.4777034833
 31
0.0
  0
LINE
  5
3DD
330
1F
100
AcDbEntity
  8
0
  6
Continuous
 62
     7
370
     0
100
AcDbLine
 10
187.1838639543
 20
167.4777034833
 30
0.0
 11
187.1838639543
 21
167.3665855243
 31
0.0
  0
LINE
  5
3DE
330
1F
100
AcDbEntity
  8
0
  6
Continuous
 62
     7
370
     0
100
AcDbLine
 10
187.1838639543
 20
167.5734583452
 30
0.0
 11
187.163863802
 21
167.5734583452
 31
0.0
  0
LINE
  5
3DF
330
1F
100
AcDbEntity
  8
0
  6
Continuous
 62
     7
370
     0
100
AcDbLine
 10
187.1838639543
 20
167.5734583452
 30
0.0
 11
187.1838639543
 21
167.4777034833
 31
0.0
  0
LINE
  5
3E0
330
1F
100
AcDbEntity
  8
0
  6
Continuous
 62
     7
370
     0
100
AcDbLine
 10
187.1838639543
 20
163.5848682537
 30
0.0
 11
187.163863802
 21
163.5848682537
 31
0.0
  0
LINE
  5
3E1
330
1F
100
AcDbEntity
  8
0
  6
Continuous
 62
     7
370
     0
100
AcDbLine
 10
187.1838639543
 20
163.6483658268
 30
0.0
 11
187.1838639543
 21
163.5848682537
 31
0.0
  0
LINE
  5
3E2
330
1F
100
AcDbEntity
  8
0
  6
Continuous
 62
     7
370
     0
100
AcDbLine
 10
187.1838639543
 20
167.738689871
 30
0.0
 11
187.163863802
 21
167.738689871
 31
0.0
  0
LINE
  5
3E3
330
1F
100
AcDbEntity
  8
0
  6
Continuous
 62
     7
370
     0
100
AcDbLine
 10
187.1838639543
 20
167.738689871
 30
0.0
 11
187.1838639543
 21
167.5734583452
 31
0.0
  0
LINE
  5
3E4
330
1F
100
AcDbEntity
  8
0
  6
Continuous
 62
     7
370
     0
100
AcDbLine
 10
187.1838639543
 20
163.5610561981
 30
0.0
 11
187.163863802
 21
163.5610561981
 31
0.0
  0
LINE
  5
3E5
330
1F
100
AcDbEntity
  8
0
  6
Continuous
 62
     7
370
     0
100
AcDbLine
 10
187.1838639543
 20
163.5848682537
 30
0.0
 11
187.1838639543
 21
163.5610561981
 31
0.0
  0
LINE
  5
3E6
330
1F
100
AcDbEntity
  8
0
  6
Continuous
 62
     7
370
     0
100
AcDbLine
 10
187.1838639543
 20
167.9450560524
 30
0.0
 11
187.163863802
 21
167.9450560524
 31
0.0
  0
LINE
  5
3E7
330
1F
100
AcDbEntity
  8
0
  6
Continuous
 62
     7
370
     0
100
AcDbLine
 10
187.1838639543
 20
167.9450560524
 30
0.0
 11
187.1838639543
 21
167.738689871
 31
0.0
  0
LINE
  5
3E8
330
1F
100
AcDbEntity
  8
0
  6
Continuous
 62
     7
370
     0
100
AcDbLine
 10
187.1838639543
 20
163.5451827361
 30
0.0
 11
187.163863802
 21
163.5451827361
 31
0.0
  0
LINE
  5
3E9
330
1F
100
AcDbEntity
  8
0
  6
Continuous
 62
     7
370
     0
100
AcDbLine
 10
187.1838639543
 20
163.5610561981
 30
0.0
 11
187.1838639543
 21
163.5451827361
 31
0.0
  0
LINE
  5
3EA
330
1F
100
AcDbEntity
  8
0
  6
Continuous
 62
     7
370
     0
100
AcDbLine
 10
187.1838639543
 20
168.0879246607
 30
0.0
 11
187.163863802
 21
168.0879246607
 31
0.0
  0
LINE
  5
3EB
330
1F
100
AcDbEntity
  8
0
  6
Continuous
 62
     7
370
     0
100
AcDbLine
 10
187.1838639543
 20
168.0879246607
 30
0.0
 11
187.1838639543
 21
167.9450560524
 31
0.0
  0
LINE
  5
3EC
330
1F
100
AcDbEntity
  8
0
  6
Continuous
 62
     7
370
     0
100
AcDbLine
 10
187.1838639543
 20
168.2069812133
 30
0.0
 11
187.163863802
 21
168.2069812133
 31
0.0
  0
LINE
  5
3ED
330
1F
100
AcDbEntity
  8
0
  6
Continuous
 62
     7
370
     0
100
AcDbLine
 10
187.1838639543
 20
168.2069812133
 30
0.0
 11
187.1838639543
 21
168.0879246607
 31
0.0
  0
LINE
  5
3EE
330
1F
100
AcDbEntity
  8
0
  6
Continuous
 62
     7
370
     0
100
AcDbLine
 10
187.1838639543
 20
168.3180991723
 30
0.0
 11
187.163863802
 21
168.3180991723
 31
0.0
  0
LINE
  5
3EF
330
1F
100
AcDbEntity
  8
0
  6
Continuous
 62
     7
370
     0
100
AcDbLine
 10
187.1838639543
 20
168.3180991723
 30
0.0
 11
187.1838639543
 21
168.2069812133
 31
0.0
  0
LINE
  5
3F0
330
1F
100
AcDbEntity
  8
0
  6
Continuous
 62
     7
370
     0
100
AcDbLine
 10
187.1838639543
 20
168.4054088011
 30
0.0
 11
187.163863802
 21
168.4054088011
 31
0.0
  0
LINE
  5
3F1
330
1F
100
AcDbEntity
  8
0
  6
Continuous
 62
     7
370
     0
100
AcDbLine
 10
187.1838639543
 20
168.4054088011
 30
0.0
 11
187.1838639543
 21
168.3180991723
 31
0.0
  0
LINE
  5
3F2
330
1F
100
AcDbEntity
  8
0
  6
Continuous
 62
     7
370
     0
100
AcDbLine
 10
187.1838639543
 20
168.5006532981
 30
0.0
 11
187.163863802
 21
168.5006532981
 31
0.0
  0
LINE
  5
3F3
330
1F
100
AcDbEntity
  8
0
  6
Continuous
 62
     7
370
     0
100
AcDbLine
 10
187.1838639543
 20
168.5006532981
 30
0.0
 11
187.1838639543
 21
168.4054088011
 31
0.0
  0
LINE
  5
3F4
330
1F
100
AcDbEntity
  8
0
  6
Continuous
 62
     7
370
     0
100
AcDbLine
 10
187.1838639543
 20
168.5562122776
 30
0.0
 11
187.163863802
 21
168.5562122776
 31
0.0
  0
LINE
  5
3F5
330
1F
100
AcDbEntity
  8
0
  6
Continuous
 62
     7
370
     0
100
AcDbLine
 10
187.1838639543
 20
168.5562122776
 30
0.0
 11
187.1838639543
 21
168.5006532981
 31
0.0
  0
LINE
  5
3F6
330
1F
100
AcDbEntity
  8
0
  6
Continuous
 62
     7
370
     0
100
AcDbLine
 10
187.1838639543
 20
168.5958977952
 30
0.0
 11
187.163863802
 21
168.5958977952
 31
0.0
  0
LINE
  5
3F7
330
1F
100
AcDbEntity
  8
0
  6
Continuous
 62
     7
370
     0
100
AcDbLine
 10
187.1838639543
 20
168.5958977952
 30
0.0
 11
187.1838639543
 21
168.5562122776
 31
0.0
  0
LINE
  5
3F8
330
1F
100
AcDbEntity
  8
0
  6
Continuous
 62
     7
370
     0
100
AcDbLine
 10
187.1838639543
 20
168.6038363888
 30
0.0
 11
187.163863802
 21
168.6038363888
 31
0.0
  0
LINE
  5
3F9
330
1F
100
AcDbEntity
  8
0
  6
Continuous
 62
     7
370
     0
100
AcDbLine
 10
187.1838639543
 20
168.6038363888
 30
0.0
 11
187.1838639543
 21
168.5958977952
 31
0.0
  0
LINE
  5
3FA
330
1F
100
AcDbEntity
  8
0
  6
Continuous
 62
     7
370
     0
100
AcDbLine
 10
187.1838639543
 20
151.7603889271
 30
0.0
 11
187.1838639543
 21
152.0119670942
 31
0.0
  0
LINE
  5
3FB
330
1F
100
AcDbEntity
  8
0
  6
Continuous
 62
     7
370
     0
100
AcDbLine
 10
174.9138636567
 20
248.2344608917
 30
0.0
 11
178.7138637208
 21
248.2344608917
 31
0.0
  0
LINE
  5
3FC
330
1F
100
AcDbEntity
  8
0
  6
Continuous
 62
     7
370
     0
100
AcDbLine
 10
178.7138637208
 20
248.2344608917
 30
0.0
 11
178.7138637208
 21
245.3108828678
 31
0.0
  0
LINE
  5
3FD
330
1F
100
AcDbEntity
  8
0
  6
Continuous
 62
     7
370
     0
100
AcDbLine
 10
174.9138636567
 20
245.3108828678
 30
0.0
 11
174.9138636567
 21
248.2344608917
 31
0.0
  0
LINE
  5
3FE
330
1F
100
AcDbEntity
  8
0
  6
Continuous
 62
     7
370
     0
100
AcDbLine
 10
178.7138637208
 20
248.833144845
 30
0.0
 11
174.9138636567
 21
248.833144845
 31
0.0
  0
LINE
  5
3FF
330
1F
100
AcDbEntity
  8
0
  6
Continuous
 62
     7
370
     0
100
AcDbLine
 10
178.7138637208
 20
248.2344608917
 30
0.0
 11
178.7138637208
 21
248.833144845
 31
0.0
  0
LINE
  5
400
330
1F
100
AcDbEntity
  8
0
  6
Continuous
 62
     7
370
     0
100
AcDbLine
 10
174.9138636567
 20
248.2344608917
 30
0.0
 11
174.9138636567
 21
248.833144845
 31
0.0
  0
LINE
  5
401
330
1F
100
AcDbEntity
  8
0
  6
Continuous
 62
     7
370
     0
100
AcDbLine
 10
178.7138637208
 20
248.8436278119
 30
0.0
 11
178.7138637208
 21
248.833144845
 31
0.0
  0
LINE
  5
402
330
1F
100
AcDbEntity
  8
0
  6
Continuous
 62
     7
370
     0
100
AcDbLine
 10
174.9138636567
 20
248.833144845
 30
0.0
 11
174.9138636567
 21
248.8436278119
 31
0.0
  0
ARC
  5
403
330
1F
100
AcDbEntity
  8
0
  6
Continuous
 62
     7
370
     0
100
AcDbCircle
 10
175.8584116868
 20
228.853598714
 30
0.0
 40
5.469189409333135
100
AcDbArc
 50
176.1237957014
 51
180.2668417924
  0
ARC
  5
404
330
1F
100
AcDbEntity
  8
0
  6
Continuous
 62
     7
370
     0
100
AcDbCircle
 10
170.4996851667
 20
226.8014221441
 30
0.0
 40
1.684883528121808
100
AcDbArc
 50
93.3328063172
 51
98.1901502186
  0
LINE
  5
405
330
1F
100
AcDbEntity
  8
0
  6
Continuous
 62
     7
370
     0
100
AcDbLine
 10
170.2596587182
 20
228.4691210999
 30
0.0
 11
170.2596587182
 21
228.4472759976
 31
0.0
  0
LWPOLYLINE
  5
406
330
1F
100
AcDbEntity
  8
0
  6
Continuous
 62
     7
370
     0
100
AcDbPolyline
 90
        9
 70
   128
 43
0.0
 10
170.4017333739
 20
227.51488799
 10
170.3962613881
 20
227.5139417662
 10
170.3923512303
 20
227.513785304
 10
170.3900047631
 20
227.5144037022
 10
170.3892224521
 20
227.5158044114
 10
170.3900047631
 20
227.5179874315
 10
170.3923512303
 20
227.520945312
 10
170.3962613881
 20
227.5246780529
 10
170.4017333739
 20
227.5291931047
  0
ARC
  5
407
330
1F
100
AcDbEntity
  8
0
  6
Continuous
 62
     7
370
     0
100
AcDbCircle
 10
175.21211398
 20
228.8209926871
 30
0.0
 40
4.984543214328657
100
AcDbArc
 50
186.5047289808
 51
195.1906069552
  0
LINE
  5
408
330
1F
100
AcDbEntity
  8
0
  6
Continuous
 62
     7
370
     0
100
AcDbLine
 10
170.2596587182
 20
228.2563176169
 30
0.0
 11
170.2596587182
 21
228.4472759976
 31
0.0
  0
ARC
  5
409
330
1F
100
AcDbEntity
  8
0
  6
Continuous
 62
     7
370
     0
100
AcDbCircle
 10
170.4996851667
 20
230.1149749534
 30
0.0
 40
1.684883528103666
100
AcDbArc
 50
261.8098497814
 51
266.6671936828
  0
ARC
  5
40A
330
1F
100
AcDbEntity
  8
0
  6
Continuous
 62
     7
370
     0
100
AcDbCircle
 10
175.8642776591
 20
228.8028698578
 30
0.0
 40
5.475055923748456
100
AcDbArc
 50
176.1257897662
 51
183.8742102338
  0
ARC
  5
40B
330
1F
100
AcDbEntity
  8
0
  6
Continuous
 62
     7
370
     0
100
AcDbCircle
 10
170.5002535345
 20
230.8595963903
 30
0.0
 40
1.689672420768972
100
AcDbArc
 50
261.8137501988
 51
266.6573445253
  0
LINE
  5
40C
330
1F
100
AcDbEntity
  8
0
  6
Continuous
 62
     7
370
     0
100
AcDbLine
 10
170.2596587182
 20
229.1871410026
 30
0.0
 11
170.2596587182
 21
229.3856319203
 31
0.0
  0
ARC
  5
40D
330
1F
100
AcDbEntity
  8
0
  6
Continuous
 62
     7
370
     0
100
AcDbCircle
 10
175.21211398
 20
228.8209568501
 30
0.0
 40
4.984543214328657
100
AcDbArc
 50
164.8093930448
 51
173.4952710192
  0
ARC
  5
40E
330
1F
100
AcDbEntity
  8
0
  6
Continuous
 62
     7
370
     0
100
AcDbCircle
 10
170.4132722038
 20
230.1499574324
 30
0.0
 40
0.0256391527478634
100
AcDbArc
 50
200.6581049339
 51
243.2532851235
  0
ARC
  5
40F
330
1F
100
AcDbEntity
  8
0
  6
Continuous
 62
     7
370
     0
100
AcDbCircle
 10
175.2119431006
 20
228.8352947092
 30
0.0
 40
4.984369725536863
100
AcDbArc
 50
164.8092415918
 51
173.4954224722
  0
LINE
  5
410
330
1F
100
AcDbEntity
  8
0
  6
Continuous
 62
     7
370
     0
100
AcDbLine
 10
170.2596587182
 20
229.3999370351
 30
0.0
 11
170.2596587182
 21
229.3856319203
 31
0.0
  0
LINE
  5
411
330
1F
100
AcDbEntity
  8
0
  6
Continuous
 62
     7
370
     0
100
AcDbLine
 10
170.3997794591
 20
228.4475069656
 30
0.0
 11
170.2596587182
 21
228.4472759976
 31
0.0
  0
LINE
  5
412
330
1F
100
AcDbEntity
  8
0
  6
Continuous
 62
     7
370
     0
100
AcDbLine
 10
170.2596587182
 20
228.4691210999
 30
0.0
 11
170.4017333739
 21
228.4688901319
 31
0.0
  0
ARC
  5
413
330
1F
100
AcDbEntity
  8
0
  6
Continuous
 62
     7
370
     0
100
AcDbCircle
 10
183.1248508368
 20
228.184901055
 30
0.0
 40
1.05921916953928
100
AcDbArc
 50
76.7253040226
 51
84.5205678802
  0
ARC
  5
414
330
1F
100
AcDbEntity
  8
0
  6
Continuous
 62
     7
370
     0
100
AcDbCircle
 10
177.7668398941
 20
228.8694668724
 30
0.0
 40
5.471665693642106
100
AcDbArc
 50
356.1245976937
 51
3.8754023063
  0
ARC
  5
415
330
1F
100
AcDbEntity
  8
0
  6
Continuous
 62
     7
370
     0
100
AcDbCircle
 10
183.1251471215
 20
227.4473953411
 30
0.0
 40
1.057079700506004
100
AcDbArc
 50
76.7144453519
 51
84.525576796
  0
LINE
  5
416
330
1F
100
AcDbEntity
  8
0
  6
Continuous
 62
     7
370
     0
100
AcDbLine
 10
183.3680686593
 20
228.4761842503
 30
0.0
 11
183.3680686593
 21
228.2753613009
 31
0.0
  0
ARC
  5
417
330
1F
100
AcDbEntity
  8
0
  6
Continuous
 62
     7
370
     0
100
AcDbCircle
 10
178.4188761376
 20
228.8398179264
 30
0.0
 40
4.981276733842711
100
AcDbArc
 50
344.8045479738
 51
353.4935159897
  0
ARC
  5
418
330
1F
100
AcDbEntity
  8
0
  6
Continuous
 62
     7
370
     0
100
AcDbCircle
 10
183.2106262884
 20
227.5106980347
 30
0.0
 40
0.0280491437873556
100
AcDbArc
 50
8.7756936935
 51
56.7779395566
  0
ARC
  5
419
330
1F
100
AcDbEntity
  8
0
  6
Continuous
 62
     7
370
     0
100
AcDbCircle
 10
178.4188761376
 20
228.8164007516
 30
0.0
 40
4.981276733842703
100
AcDbArc
 50
344.8045479738
 51
353.4935159897
  0
LINE
  5
41A
330
1F
100
AcDbEntity
  8
0
  6
Continuous
 62
     7
370
     0
100
AcDbLine
 10
183.3680686593
 20
228.2519441261
 30
0.0
 11
183.3680686593
 21
228.2753613009
 31
0.0
  0
ARC
  5
41B
330
1F
100
AcDbEntity
  8
0
  6
Continuous
 62
     7
370
     0
100
AcDbCircle
 10
177.7718679449
 20
228.7865556304
 30
0.0
 40
5.466637192131988
100
AcDbArc
 50
356.9855004211
 51
0.4357167998
  0
ARC
  5
41C
330
1F
100
AcDbEntity
  8
0
  6
Continuous
 62
     7
370
     0
100
AcDbCircle
 10
183.1244950298
 20
230.2128068336
 30
0.0
 40
1.061071463626427
100
AcDbArc
 50
275.4891386574
 51
283.2708391947
  0
LINE
  5
41D
330
1F
100
AcDbEntity
  8
0
  6
Continuous
 62
     7
370
     0
100
AcDbLine
 10
183.3680686593
 20
229.1800704016
 30
0.0
 11
183.3680686593
 21
229.2158182873
 31
0.0
  0
LWPOLYLINE
  5
41E
330
1F
100
AcDbEntity
  8
0
  6
Continuous
 62
     7
370
     0
100
AcDbPolyline
 90
        9
 70
   128
 43
0.0
 10
183.2259940036
 20
230.1455166354
 10
183.2314659894
 20
230.1453154697
 10
183.2353761472
 20
230.1443394437
 10
183.2377226145
 20
230.1425811066
 10
183.2385049254
 20
230.1400404587
 10
183.2377226145
 20
230.1367174997
 10
183.2353761472
 20
230.1326196804
 10
183.2314659894
 20
230.1277470007
 10
183.2309407235
 20
230.1271658554
  0
ARC
  5
41F
330
1F
100
AcDbEntity
  8
0
  6
Continuous
 62
     7
370
     0
100
AcDbCircle
 10
178.4182903756
 20
228.8397490708
 30
0.0
 40
4.981871446326385
100
AcDbArc
 50
6.5070036305
 51
15.194932406
  0
LINE
  5
420
330
1F
100
AcDbEntity
  8
0
  6
Continuous
 62
     7
370
     0
100
AcDbLine
 10
183.3680686593
 20
229.4043179765
 30
0.0
 11
183.3680686593
 21
229.2158182873
 31
0.0
  0
LINE
  5
421
330
1F
100
AcDbEntity
  8
0
  6
Continuous
 62
     7
370
     0
100
AcDbLine
 10
183.2259940036
 20
229.2154383077
 30
0.0
 11
183.3680686593
 21
229.2158182873
 31
0.0
  0
LINE
  5
422
330
1F
100
AcDbEntity
  8
0
  6
Continuous
 62
     7
370
     0
100
AcDbLine
 10
183.3680686593
 20
229.1800704016
 30
0.0
 11
183.2259940036
 21
229.1804503813
 31
0.0
  0
LINE
  5
423
330
1F
100
AcDbEntity
  8
0
  6
Continuous
 62
     7
370
     0
100
AcDbLine
 10
179.5138637588
 20
244.1898163571
 30
0.0
 11
174.1138636187
 21
244.1898163571
 31
0.0
  0
LINE
  5
424
330
1F
100
AcDbEntity
  8
0
  6
Continuous
 62
     7
370
     0
100
AcDbLine
 10
174.1138636187
 20
244.1898163571
 30
0.0
 11
174.1138636187
 21
244.7655674233
 31
0.0
  0
LINE
  5
425
330
1F
100
AcDbEntity
  8
0
  6
Continuous
 62
     7
370
     0
100
AcDbLine
 10
174.1138636187
 20
244.7655674233
 30
0.0
 11
179.5138637588
 21
244.7655674233
 31
0.0
  0
LINE
  5
426
330
1F
100
AcDbEntity
  8
0
  6
Continuous
 62
     7
370
     0
100
AcDbLine
 10
179.5138637588
 20
244.7655674233
 30
0.0
 11
179.5138637588
 21
244.1898163571
 31
0.0
  0
LINE
  5
427
330
1F
100
AcDbEntity
  8
0
  6
Continuous
 62
     7
370
     0
100
AcDbLine
 10
180.3138637968
 20
224.4647693052
 30
0.0
 11
180.3138637968
 21
244.1898163571
 31
0.0
  0
LINE
  5
428
330
1F
100
AcDbEntity
  8
0
  6
Continuous
 62
     7
370
     0
100
AcDbLine
 10
180.3138637968
 20
224.4647693052
 30
0.0
 11
173.3138635807
 21
224.4647693052
 31
0.0
  0
LINE
  5
429
330
1F
100
AcDbEntity
  8
0
  6
Continuous
 62
     7
370
     0
100
AcDbLine
 10
173.3138635807
 20
224.4647693052
 30
0.0
 11
173.3138635807
 21
244.1898163571
 31
0.0
  0
LINE
  5
42A
330
1F
100
AcDbEntity
  8
0
  6
Continuous
 62
     7
370
     0
100
AcDbLine
 10
174.1138636187
 20
244.1898163571
 30
0.0
 11
173.3138635807
 21
244.1898163571
 31
0.0
  0
LINE
  5
42B
330
1F
100
AcDbEntity
  8
0
  6
Continuous
 62
     7
370
     0
100
AcDbLine
 10
180.3138637968
 20
244.1898163571
 30
0.0
 11
179.5138637588
 21
244.1898163571
 31
0.0
  0
LINE
  5
42C
330
1F
100
AcDbEntity
  8
0
  6
Continuous
 62
     7
370
     0
100
AcDbLine
 10
180.3138637968
 20
244.8177512898
 30
0.0
 11
180.3138637968
 21
244.1898163571
 31
0.0
  0
LINE
  5
42D
330
1F
100
AcDbEntity
  8
0
  6
Continuous
 62
     7
370
     0
100
AcDbLine
 10
179.5138637588
 20
244.2724432959
 30
0.0
 11
179.8138637148
 21
244.2724432959
 31
0.0
  0
LINE
  5
42E
330
1F
100
AcDbEntity
  8
0
  6
Continuous
 62
     7
370
     0
100
AcDbLine
 10
179.8138637148
 20
244.2724432959
 30
0.0
 11
179.8138637148
 21
244.8177512898
 31
0.0
  0
LINE
  5
42F
330
1F
100
AcDbEntity
  8
0
  6
Continuous
 62
     7
370
     0
100
AcDbLine
 10
180.3138637968
 20
244.8177512898
 30
0.0
 11
179.8138637148
 21
244.8177512898
 31
0.0
  0
LINE
  5
430
330
1F
100
AcDbEntity
  8
0
  6
Continuous
 62
     7
370
     0
100
AcDbLine
 10
173.8138636627
 20
244.8177512898
 30
0.0
 11
173.8138636627
 21
244.2724432959
 31
0.0
  0
LINE
  5
431
330
1F
100
AcDbEntity
  8
0
  6
Continuous
 62
     7
370
     0
100
AcDbLine
 10
173.8138636627
 20
244.2724432959
 30
0.0
 11
174.1138636187
 21
244.2724432959
 31
0.0
  0
LINE
  5
432
330
1F
100
AcDbEntity
  8
0
  6
Continuous
 62
     7
370
     0
100
AcDbLine
 10
173.3138635807
 20
244.1898163571
 30
0.0
 11
173.3138635807
 21
244.8177512898
 31
0.0
  0
LINE
  5
433
330
1F
100
AcDbEntity
  8
0
  6
Continuous
 62
     7
370
     0
100
AcDbLine
 10
173.8138636627
 20
244.8177512898
 30
0.0
 11
173.3138635807
 21
244.8177512898
 31
0.0
  0
LINE
  5
434
330
1F
100
AcDbEntity
  8
0
  6
Continuous
 62
     7
370
     0
100
AcDbLine
 10
179.5138637588
 20
245.3108828678
 30
0.0
 11
174.1138636187
 21
245.3108828678
 31
0.0
  0
LINE
  5
435
330
1F
100
AcDbEntity
  8
0
  6
Continuous
 62
     7
370
     0
100
AcDbLine
 10
174.1138636187
 20
245.3108828678
 30
0.0
 11
174.1138636187
 21
244.7655674233
 31
0.0
  0
LINE
  5
436
330
1F
100
AcDbEntity
  8
0
  6
Continuous
 62
     7
370
     0
100
AcDbLine
 10
179.5138637588
 20
245.3108828678
 30
0.0
 11
179.5138637588
 21
244.7655674233
 31
0.0
  0
LINE
  5
437
330
1F
100
AcDbEntity
  8
0
  6
Continuous
 62
     8
370
     0
100
AcDbLine
 10
171.8138638005
 20
221.4417707338
 30
0.0
 11
175.3638637072
 21
221.4417707338
 31
0.0
  0
LINE
  5
438
330
1F
100
AcDbEntity
  8
0
  6
Continuous
 62
     8
370
     0
100
AcDbLine
 10
178.2638636703
 20
221.4417707338
 30
0.0
 11
181.813863577
 21
221.4417707338
 31
0.0
  0
LINE
  5
439
330
1F
100
AcDbEntity
  8
0
  6
Continuous
 62
     8
370
     0
100
AcDbLine
 10
180.3138637968
 20
237.5443827524
 30
0.0
 11
181.813863577
 21
237.5443827524
 31
0.0
  0
LINE
  5
43A
330
1F
100
AcDbEntity
  8
0
  6
Continuous
 62
     8
370
     0
100
AcDbLine
 10
173.3138635807
 20
237.5443827524
 30
0.0
 11
171.8138638005
 21
237.5443827524
 31
0.0
  0
SPLINE
  5
43B
330
1F
100
AcDbEntity
  8
0
  6
Continuous
 62
     8
370
     0
100
AcDbSpline
210
0.0
220
0.0
230
1.0
 70
     8
 71
     3
 72
    12
 73
     8
 74
     0
 42
0.000000001
 43
0.00000001
 40
0.0
 40
0.0
 40
0.0
 40
0.0
 40
0.2378614143733123
 40
0.4757232025881849
 40
0.7135846677931458
 40
0.9514462857629419
 40
1.0
 40
1.0
 40
1.0
 40
1.0
 10
169.4193175115131
 20
168.4584979130993
 30
0.0
 10
169.4470600891815
 20
168.9422061193591
 30
0.0
 10
169.5025452881205
 20
169.9096232921122
 30
0.0
 10
169.938913768072
 20
171.3096235927255
 30
0.0
 10
170.6349620698172
 20
172.5814955216877
 30
0.0
 10
171.2810778649002
 20
173.4506783631361
 30
0.0
 10
171.736636557152
 20
173.8134493851831
 30
0.0
 10
171.81386380051
 20
173.874947072483
 30
0.0
  0
SPLINE
  5
43C
330
1F
100
AcDbEntity
  8
0
  6
Continuous
 62
     8
370
     0
100
AcDbSpline
210
0.0
220
0.0
230
1.0
 70
     8
 71
     3
 72
    12
 73
     8
 74
     0
 42
0.000000001
 43
0.00000001
 40
0.0
 40
0.0
 40
0.0
 40
0.0
 40
0.0485537142370581
 40
0.2864153322068542
 40
0.5242767974118151
 40
0.7621385856266877
 40
0.9999999999999999
 40
0.9999999999999999
 40
0.9999999999999999
 40
0.9999999999999999
 10
181.8138635769926
 20
173.874947072483
 30
0.0
 10
181.8910908203506
 20
173.8134493851831
 30
0.0
 10
182.3466495126025
 20
173.4506783631361
 30
0.0
 10
182.9927653076854
 20
172.5814955216877
 30
0.0
 10
183.6888136094306
 20
171.3096235927256
 30
0.0
 10
184.1251820893821
 20
169.9096232921122
 30
0.0
 10
184.1806672883212
 20
168.9422061193591
 30
0.0
 10
184.2084098659896
 20
168.4584979130993
 30
0.0
  0
SPLINE
  5
43D
330
1F
100
AcDbEntity
  8
0
  6
Continuous
 62
     8
370
     0
100
AcDbSpline
210
0.0
220
0.0
230
1.0
 70
     8
 71
     3
 72
    12
 73
     8
 74
     0
 42
0.000000001
 43
0.00000001
 40
0.0
 40
0.0
 40
0.0
 40
0.0
 40
0.2228813392827209
 40
0.4457625533077534
 40
0.6686437488027895
 40
0.8915247621439378
 40
0.9999999999999999
 40
0.9999999999999999
 40
0.9999999999999999
 40
0.9999999999999999
 10
168.9193942636691
 20
168.4584979130993
 30
0.0
 10
168.9489180437059
 20
168.9750114306294
 30
0.0
 10
169.0079655871874
 20
170.0080381754128
 30
0.0
 10
169.4752463722079
 20
171.5011483808607
 30
0.0
 10
170.2129959206088
 20
172.8648574845264
 30
0.0
 10
171.0078133291651
 20
173.8936440446383
 30
0.0
 10
171.6150683100113
 20
174.3644360629288
 30
0.0
 10
171.81386380051
 20
174.5185580267677
 30
0.0
  0
SPLINE
  5
43E
330
1F
100
AcDbEntity
  8
0
  6
Continuous
 62
     8
370
     0
100
AcDbSpline
210
0.0
220
0.0
230
1.0
 70
     8
 71
     3
 72
    12
 73
     8
 74
     0
 42
0.000000001
 43
0.00000001
 40
0.0
 40
0.0
 40
0.0
 40
0.0
 40
0.1084752378560621
 40
0.3313562511972103
 40
0.5542374466922465
 40
0.7771186607172791
 40
0.9999999999999999
 40
0.9999999999999999
 40
0.9999999999999999
 40
0.9999999999999999
 10
181.8138635769926
 20
174.5185580267677
 30
0.0
 10
182.0126590674913
 20
174.3644360629288
 30
0.0
 10
182.6199140483376
 20
173.8936440446383
 30
0.0
 10
183.4147314568939
 20
172.8648574845263
 30
0.0
 10
184.1524810052947
 20
171.5011483808607
 30
0.0
 10
184.6197617903152
 20
170.0080381754128
 30
0.0
 10
184.6788093337967
 20
168.9750114306294
 30
0.0
 10
184.7083331138335
 20
168.4584979130993
 30
0.0
  0
LINE
  5
43F
330
1F
100
AcDbEntity
  8
0
  6
Continuous
 62
     8
370
     0
100
AcDbLine
 10
171.2173651956
 20
226.0286536231
 30
0.0
 11
171.2173651956
 21
231.6281300201
 31
0.0
  0
LINE
  5
440
330
1F
100
AcDbEntity
  8
0
  6
Continuous
 62
     8
370
     0
100
AcDbLine
 10
170.9892354027
 20
226.1542108073
 30
0.0
 11
170.9892354027
 21
231.5025504842
 31
0.0
  0
LINE
  5
441
330
1F
100
AcDbEntity
  8
0
  6
Continuous
 62
     8
370
     0
100
AcDbLine
 10
182.4103621819
 20
226.0295327916
 30
0.0
 11
182.4103621819
 21
226.0281320824
 31
0.0
  0
LINE
  5
442
330
1F
100
AcDbEntity
  8
0
  6
Continuous
 62
     8
370
     0
100
AcDbLine
 10
182.4103621819
 20
231.6281300201
 30
0.0
 11
182.4103621819
 21
226.0295327916
 31
0.0
  0
LINE
  5
443
330
1F
100
AcDbEntity
  8
0
  6
Continuous
 62
     8
370
     0
100
AcDbLine
 10
182.6384919748
 20
226.1550527229
 30
0.0
 11
182.6384919748
 21
226.1537116184
 31
0.0
  0
LINE
  5
444
330
1F
100
AcDbEntity
  8
0
  6
Continuous
 62
     8
370
     0
100
AcDbLine
 10
182.6384919748
 20
231.5025504842
 30
0.0
 11
182.6384919748
 21
226.1550527229
 31
0.0
  0
DIMENSION
  5
445
330
1F
100
AcDbEntity
  8
0
  6
Continuous
 62
     7
370
     0
100
AcDbDimension
  2
_D_12
 10
187.0638636888
 20
86.5633708042
 30
0.0
 11
176.8138636888
 21
86.5633708042
 31
0.0
 70
   160
  1
<>
 71
     2
 42
-1.0
  3
SLDDIMSTYLE0
100
AcDbAlignedDimension
 13
166.5638636888
 23
137.5633708042
 33
0.0
 14
187.0638636888
 24
137.5633708042
 34
0.0
100
AcDbRotatedDimension
  0
DIMENSION
  5
44F
330
1F
100
AcDbEntity
  8
0
  6
Continuous
 62
     7
370
     0
100
AcDbDimension
  2
_D_13
 10
181.8138636888
 20
263.9819393842
 30
0.0
 11
176.8138636888
 21
263.9819393842
 31
0.0
 70
   160
  1
<>
 71
     2
 42
-1.0
  3
SLDDIMSTYLE1
100
AcDbAlignedDimension
 13
171.8138636888
 23
244.4228231047
 33
0.0
 14
181.8138636888
 24
244.8228231047
 34
0.0
100
AcDbRotatedDimension
  0
INSERT
  5
461
330
1F
100
AcDbEntity
  8
0
  6
Continuous
 62
     7
370
     0
100
AcDbBlockReference
  2
SW_NOTE_1
 10
166.8728971242
 20
211.3389834383
 30
0.0
  0
LEADER
  5
462
330
1F
100
AcDbEntity
  8
0
  6
Continuous
 62
     7
370
     0
100
AcDbLeader
  3
SLDDIMSTYLE3
 76
     2
 10
176.8138636888
 20
198.5756744307
 30
0.0
 10
166.8728971242
 20
211.3389834383
 30
0.0
  0
ENDSEC
  0
SECTION
  2
OBJECTS
  0
DICTIONARY
  5
C
330
0
100
AcDbDictionary
281
     1
  3
ACAD_GROUP
350
D
  3
ACAD_LAYOUT
350
1A
  3
ACAD_MLINESTYLE
350
17
  3
ACAD_PLOTSETTINGS
350
19
  3
ACAD_PLOTSTYLENAME
350
E
  3
ACAD_SCALELIST
350
47
  0
DICTIONARY
  5
D
102
{ACAD_REACTORS
330
C
102
}
330
C
100
AcDbDictionary
281
     1
  0
DICTIONARY
  5
1A
102
{ACAD_REACTORS
330
C
102
}
330
C
100
AcDbDictionary
281
     1
  3
Layout1
350
1E
  3
Layout2
350
26
  3
Model
350
22
  0
DICTIONARY
  5
17
102
{ACAD_REACTORS
330
C
102
}
330
C
100
AcDbDictionary
281
     1
  3
Standard
350
18
  0
DICTIONARY
  5
19
102
{ACAD_REACTORS
330
C
102
}
330
C
100
AcDbDictionary
281
     1
  0
ACDBDICTIONARYWDFLT
  5
E
102
{ACAD_REACTORS
330
C
102
}
330
C
100
AcDbDictionary
281
     1
  3
Normal
350
F
100
AcDbDictionaryWithDefault
340
F
  0
DICTIONARY
  5
47
102
{ACAD_REACTORS
330
C
102
}
330
C
100
AcDbDictionary
281
     1
  3
A0
350
48
  3
A1
350
49
  3
A2
350
4A
  3
A3
350
4B
  3
A4
350
4C
  3
A5
350
4D
  3
A6
350
4E
  3
A7
350
4F
  3
A8
350
50
  3
A9
350
51
  3
B0
350
52
  3
B1
350
53
  3
B2
350
54
  3
B3
350
55
  3
B4
350
56
  3
B5
350
57
  3
B6
350
58
  3
B7
350
59
  3
B8
350
5A
  3
B9
350
5B
  3
C0
350
5C
  3
C1
350
5D
  3
C2
350
5E
  3
C3
350
5F
  3
C4
350
60
  3
C5
350
61
  3
C6
350
62
  3
C7
350
63
  3
C8
350
64
  3
C9
350
65
  3
D0
350
66
  3
D1
350
67
  3
D2
350
68
  0
LAYOUT
  5
1E
102
{ACAD_REACTORS
330
1A
102
}
330
1A
100
AcDbPlotSettings
  1

  2
none_device
  4

  6

 40
0.0
 41
0.0
 42
0.0
 43
0.0
 44
0.0
 45
0.0
 46
0.0
 47
0.0
 48
0.0
 49
0.0
140
0.0
141
0.0
142
1.0
143
1.0
 70
   688
 72
     1
 73
     0
 74
     5
  7

 75
    16
147
1.0
148
0.0
149
0.0
100
AcDbLayout
  1
Layout1
 70
     1
 71
     1
 10
0.0
 20
0.0
 11
420.0
 21
297.0
 12
0.0
 22
0.0
 32
0.0
 14
1.0000000000E+20
 24
1.0000000000E+20
 34
1.0000000000E+20
 15
-1.0000000000E+20
 25
-1.0000000000E+20
 35
-1.0000000000E+20
146
0.0
 13
0.0
 23
0.0
 33
0.0
 16
1.0
 26
0.0
 36
0.0
 17
0.0
 27
1.0
 37
0.0
 76
     0
330
1B
  0
LAYOUT
  5
26
102
{ACAD_REACTORS
330
1A
102
}
330
1A
100
AcDbPlotSettings
  1

  2
none_device
  4

  6

 40
0.0
 41
0.0
 42
0.0
 43
0.0
 44
0.0
 45
0.0
 46
0.0
 47
0.0
 48
0.0
 49
0.0
140
0.0
141
0.0
142
1.0
143
1.0
 70
   688
 72
     1
 73
     0
 74
     5
  7

 75
    16
147
1.0
148
0.0
149
0.0
100
AcDbLayout
  1
Layout2
 70
     1
 71
     2
 10
0.0
 20
0.0
 11
0.0
 21
0.0
 12
0.0
 22
0.0
 32
0.0
 14
0.0
 24
0.0
 34
0.0
 15
0.0
 25
0.0
 35
0.0
146
0.0
 13
0.0
 23
0.0
 33
0.0
 16
1.0
 26
0.0
 36
0.0
 17
0.0
 27
1.0
 37
0.0
 76
     0
330
23
  0
LAYOUT
  5
22
102
{ACAD_REACTORS
330
1A
102
}
330
1A
100
AcDbPlotSettings
  1

  2
none_device
  4
Letter_(8.50_x_11.00_Inches)
  6

 40
6.35
 41
6.35
 42
6.35000508
 43
6.35000508
 44
215.9
 45
279.4
 46
0.0
 47
0.0
 48
0.0
 49
0.0
140
0.0
141
0.0
142
1.0
143
1.0
 70
  1712
 72
     1
 73
     0
 74
     0
  7

 75
     0
147
1.0
148
0.0
149
0.0
100
AcDbLayout
  1
Model
 70
     1
 71
     0
 10
0.0
 20
0.0
 11
210.0
 21
297.0
 12
0.0
 22
0.0
 32
0.0
 14
0.0
 24
0.0
 34
0.0
 15
210.0
 25
297.0
 35
0.0
146
0.0
 13
0.0
 23
0.0
 33
0.0
 16
1.0
 26
0.0
 36
0.0
 17
0.0
 27
1.0
 37
0.0
 76
     0
330
1F
331
29
  0
MLINESTYLE
  5
18
102
{ACAD_REACTORS
330
17
102
}
330
17
100
AcDbMlineStyle
  2
Standard
 70
     0
  3

 62
   256
 51
90.0
 52
90.0
 71
     2
 49
0.5
 62
   256
  6
BYLAYER
 49
-0.5
 62
   256
  6
BYLAYER
  0
ACDBPLACEHOLDER
  5
F
102
{ACAD_REACTORS
330
E
102
}
330
E
  0
SCALE
  5
48
102
{ACAD_REACTORS
330
47
102
}
330
47
100
AcDbScale
 70
     0
300
1:1
140
1.0
141
1.0
290
     1
  0
SCALE
  5
49
102
{ACAD_REACTORS
330
47
102
}
330
47
100
AcDbScale
 70
     0
300
1:2
140
1.0
141
2.0
290
     0
  0
SCALE
  5
4A
102
{ACAD_REACTORS
330
47
102
}
330
47
100
AcDbScale
 70
     0
300
1:4
140
1.0
141
4.0
290
     0
  0
SCALE
  5
4B
102
{ACAD_REACTORS
330
47
102
}
330
47
100
AcDbScale
 70
     0
300
1:5
140
1.0
141
5.0
290
     0
  0
SCALE
  5
4C
102
{ACAD_REACTORS
330
47
102
}
330
47
100
AcDbScale
 70
     0
300
1:8
140
1.0
141
8.0
290
     0
  0
SCALE
  5
4D
102
{ACAD_REACTORS
330
47
102
}
330
47
100
AcDbScale
 70
     0
300
1:10
140
1.0
141
10.0
290
     0
  0
SCALE
  5
4E
102
{ACAD_REACTORS
330
47
102
}
330
47
100
AcDbScale
 70
     0
300
1:16
140
1.0
141
16.0
290
     0
  0
SCALE
  5
4F
102
{ACAD_REACTORS
330
47
102
}
330
47
100
AcDbScale
 70
     0
300
1:20
140
1.0
141
20.0
290
     0
  0
SCALE
  5
50
102
{ACAD_REACTORS
330
47
102
}
330
47
100
AcDbScale
 70
     0
300
1:30
140
1.0
141
30.0
290
     0
  0
SCALE
  5
51
102
{ACAD_REACTORS
330
47
102
}
330
47
100
AcDbScale
 70
     0
300
1:40
140
1.0
141
40.0
290
     0
  0
SCALE
  5
52
102
{ACAD_REACTORS
330
47
102
}
330
47
100
AcDbScale
 70
     0
300
1:50
140
1.0
141
50.0
290
     0
  0
SCALE
  5
53
102
{ACAD_REACTORS
330
47
102
}
330
47
100
AcDbScale
 70
     0
300
1:100
140
1.0
141
100.0
290
     0
  0
SCALE
  5
54
102
{ACAD_REACTORS
330
47
102
}
330
47
100
AcDbScale
 70
     0
300
2:1
140
2.0
141
1.0
290
     0
  0
SCALE
  5
55
102
{ACAD_REACTORS
330
47
102
}
330
47
100
AcDbScale
 70
     0
300
4:1
140
4.0
141
1.0
290
     0
  0
SCALE
  5
56
102
{ACAD_REACTORS
330
47
102
}
330
47
100
AcDbScale
 70
     0
300
8:1
140
8.0
141
1.0
290
     0
  0
SCALE
  5
57
102
{ACAD_REACTORS
330
47
102
}
330
47
100
AcDbScale
 70
     0
300
10:1
140
10.0
141
1.0
290
     0
  0
SCALE
  5
58
102
{ACAD_REACTORS
330
47
102
}
330
47
100
AcDbScale
 70
     0
300
100:1
140
100.0
141
1.0
290
     0
  0
SCALE
  5
59
102
{ACAD_REACTORS
330
47
102
}
330
47
100
AcDbScale
 70
     0
300
1/128" = 1'-0"
140
0.0078125
141
12.0
290
     0
  0
SCALE
  5
5A
102
{ACAD_REACTORS
330
47
102
}
330
47
100
AcDbScale
 70
     0
300
1/64" = 1'-0"
140
0.015625
141
12.0
290
     0
  0
SCALE
  5
5B
102
{ACAD_REACTORS
330
47
102
}
330
47
100
AcDbScale
 70
     0
300
1/32" = 1'-0"
140
0.03125
141
12.0
290
     0
  0
SCALE
  5
5C
102
{ACAD_REACTORS
330
47
102
}
330
47
100
AcDbScale
 70
     0
300
1/16" = 1'-0"
140
0.0625
141
12.0
290
     0
  0
SCALE
  5
5D
102
{ACAD_REACTORS
330
47
102
}
330
47
100
AcDbScale
 70
     0
300
3/32" = 1'-0"
140
0.09375
141
12.0
290
     0
  0
SCALE
  5
5E
102
{ACAD_REACTORS
330
47
102
}
330
47
100
AcDbScale
 70
     0
300
1/8" = 1'-0"
140
0.125
141
12.0
290
     0
  0
SCALE
  5
5F
102
{ACAD_REACTORS
330
47
102
}
330
47
100
AcDbScale
 70
     0
300
3/16" = 1'-0"
140
0.1875
141
12.0
290
     0
  0
SCALE
  5
60
102
{ACAD_REACTORS
330
47
102
}
330
47
100
AcDbScale
 70
     0
300
1/4" = 1'-0"
140
0.25
141
12.0
290
     0
  0
SCALE
  5
61
102
{ACAD_REACTORS
330
47
102
}
330
47
100
AcDbScale
 70
     0
300
3/8" = 1'-0"
140
0.375
141
12.0
290
     0
  0
SCALE
  5
62
102
{ACAD_REACTORS
330
47
102
}
330
47
100
AcDbScale
 70
     0
300
1/2" = 1'-0"
140
0.5
141
12.0
290
     0
  0
SCALE
  5
63
102
{ACAD_REACTORS
330
47
102
}
330
47
100
AcDbScale
 70
     0
300
3/4" = 1'-0"
140
0.75
141
12.0
290
     0
  0
SCALE
  5
64
102
{ACAD_REACTORS
330
47
102
}
330
47
100
AcDbScale
 70
     0
300
1" = 1'-0"
140
1.0
141
12.0
290
     0
  0
SCALE
  5
65
102
{ACAD_REACTORS
330
47
102
}
330
47
100
AcDbScale
 70
     0
300
1-1/2" = 1'-0"
140
1.5
141
12.0
290
     0
  0
SCALE
  5
66
102
{ACAD_REACTORS
330
47
102
}
330
47
100
AcDbScale
 70
     0
300
3" = 1'-0"
140
3.0
141
12.0
290
     0
  0
SCALE
  5
67
102
{ACAD_REACTORS
330
47
102
}
330
47
100
AcDbScale
 70
     0
300
6" = 1'-0"
140
6.0
141
12.0
290
     0
  0
SCALE
  5
68
102
{ACAD_REACTORS
330
47
102
}
330
47
100
AcDbScale
 70
     0
300
1'-0" = 1'-0"
140
12.0
141
12.0
290
     0
  0
ENDSEC
  0
EOF
