  0
SECTION
  2
HEADER
  9
$ACADVER
  1
AC1015
  9
$ACADMAINTVER
 70
     6
  9
$DWGCODEPAGE
  3
DOS932
  9
$INSBASE
 10
0.0
 20
0.0
 30
0.0
  9
$EXTMIN
 10
0.0
 20
0.0
 30
0.0
  9
$EXTMAX
 10
210.0
 20
297.0
 30
0.0
  9
$LIMMIN
 10
0.0
 20
0.0
  9
$LIMMAX
 10
210.0
 20
297.0
  9
$ORTHOMODE
 70
     0
  9
$REGENMODE
 70
     1
  9
$FILLMODE
 70
     1
  9
$QTEXTMODE
 70
     0
  9
$MIRRTEXT
 70
     1
  9
$LTSCALE
 40
1.0
  9
$ATTMODE
 70
     1
  9
$TEXTSIZE
 40
3.5
  9
$TRACEWID
 40
1.0
  9
$TEXTSTYLE
  7
Standard
  9
$CLAYER
  8
0
  9
$CELTYPE
  6
ByLayer
  9
$CECOLOR
 62
   256
  9
$CELTSCALE
 40
1.0
  9
$DISPSILH
 70
     0
  9
$DIMSCALE
 40
1.0
  9
$DIMASZ
 40
3.0
  9
$DIMEXO
 40
1.0
  9
$DIMDLI
 40
3.75
  9
$DIMRND
 40
0.0
  9
$DIMDLE
 40
0.0
  9
$DIMEXE
 40
1.0
  9
$DIMTP
 40
0.0
  9
$DIMTM
 40
0.0
  9
$DIMTXT
 40
3.5
  9
$DIMCEN
 40
2.5
  9
$DIMTSZ
 40
0.0
  9
$DIMTOL
 70
     0
  9
$DIMLIM
 70
     0
  9
$DIMTIH
 70
     1
  9
$DIMTOH
 70
     1
  9
$DIMSE1
 70
     0
  9
$DIMSE2
 70
     0
  9
$DIMTAD
 70
     1
  9
$DIMZIN
 70
     0
  9
$DIMBLK
  1

  9
$DIMASO
 70
     1
  9
$DIMSHO
 70
     1
  9
$DIMPOST
  1

  9
$DIMAPOST
  1

  9
$DIMALT
 70
     0
  9
$DIMALTD
 70
     3
  9
$DIMALTF
 40
0.0393700787
  9
$DIMLFAC
 40
1.0
  9
$DIMTOFL
 70
     1
  9
$DIMTVP
 40
0.0
  9
$DIMTIX
 70
     0
  9
$DIMSOXD
 70
     0
  9
$DIMSAH
 70
     0
  9
$DIMBLK1
  1

  9
$DIMBLK2
  1

  9
$DIMSTYLE
  2
ISO-25
  9
$DIMCLRD
 70
     0
  9
$DIMCLRE
 70
     0
  9
$DIMCLRT
 70
     0
  9
$DIMTFAC
 40
1.0
  9
$DIMGAP
 40
1.524
  9
$DIMJUST
 70
     0
  9
$DIMSD1
 70
     0
  9
$DIMSD2
 70
     0
  9
$DIMTOLJ
 70
     0
  9
$DIMTZIN
 70
     0
  9
$DIMALTZ
 70
     0
  9
$DIMALTTZ
 70
     0
  9
$DIMUPT
 70
     0
  9
$DIMDEC
 70
     1
  9
$DIMTDEC
 70
     3
  9
$DIMALTU
 70
     2
  9
$DIMALTTD
 70
     3
  9
$DIMTXSTY
  7
Standard
  9
$DIMAUNIT
 70
     0
  9
$DIMADEC
 70
     2
  9
$DIMALTRND
 40
0.0
  9
$DIMAZIN
 70
     0
  9
$DIMDSEP
 70
    44
  9
$DIMATFIT
 70
     3
  9
$DIMFRAC
 70
     0
  9
$DIMLDRBLK
  1

  9
$DIMLUNIT
 70
     2
  9
$DIMLWD
 70
    -2
  9
$DIMLWE
 70
    -2
  9
$DIMTMOVE
 70
     0
  9
$LUNITS
 70
     2
  9
$LUPREC
 70
     1
  9
$SKETCHINC
 40
1.0
  9
$FILLETRAD
 40
10.0
  9
$AUNITS
 70
     0
  9
$AUPREC
 70
     2
  9
$MENU
  1
.
  9
$ELEVATION
 40
0.0
  9
$PELEVATION
 40
0.0
  9
$THICKNESS
 40
0.0
  9
$LIMCHECK
 70
     0
  9
$CHAMFERA
 40
0.0
  9
$CHAMFERB
 40
0.0
  9
$CHAMFERC
 40
0.0
  9
$CHAMFERD
 40
0.0
  9
$SKPOLY
 70
     0
  9
$TDCREATE
 40
2457785.650274861
  9
$TDUCREATE
 40
2457785.275274861
  9
$TDUPDATE
 40
2457785.650276296
  9
$TDUUPDATE
 40
2457785.275276296
  9
$TDINDWG
 40
0.0000000116
  9
$TDUSRTIMER
 40
0.0000000116
  9
$USRTIMER
 70
     1
  9
$ANGBASE
 50
0.0
  9
$ANGDIR
 70
     0
  9
$PDMODE
 70
     0
  9
$PDSIZE
 40
-1.0
  9
$PLINEWID
 40
0.0
  9
$SPLFRAME
 70
     0
  9
$SPLINETYPE
 70
     6
  9
$SPLINESEGS
 70
     8
  9
$HANDSEED
  5
360
  9
$SURFTAB1
 70
     6
  9
$SURFTAB2
 70
     6
  9
$SURFTYPE
 70
     6
  9
$SURFU
 70
     6
  9
$SURFV
 70
     6
  9
$UCSBASE
  2

  9
$UCSNAME
  2

  9
$UCSORG
 10
0.0
 20
0.0
 30
0.0
  9
$UCSXDIR
 10
1.0
 20
0.0
 30
0.0
  9
$UCSYDIR
 10
0.0
 20
1.0
 30
0.0
  9
$UCSORTHOREF
  2

  9
$UCSORTHOVIEW
 70
     0
  9
$UCSORGTOP
 10
0.0
 20
0.0
 30
0.0
  9
$UCSORGBOTTOM
 10
0.0
 20
0.0
 30
0.0
  9
$UCSORGLEFT
 10
0.0
 20
0.0
 30
0.0
  9
$UCSORGRIGHT
 10
0.0
 20
0.0
 30
0.0
  9
$UCSORGFRONT
 10
0.0
 20
0.0
 30
0.0
  9
$UCSORGBACK
 10
0.0
 20
0.0
 30
0.0
  9
$PUCSBASE
  2

  9
$PUCSNAME
  2

  9
$PUCSORG
 10
0.0
 20
0.0
 30
0.0
  9
$PUCSXDIR
 10
1.0
 20
0.0
 30
0.0
  9
$PUCSYDIR
 10
0.0
 20
1.0
 30
0.0
  9
$PUCSORTHOREF
  2

  9
$PUCSORTHOVIEW
 70
     0
  9
$PUCSORGTOP
 10
0.0
 20
0.0
 30
0.0
  9
$PUCSORGBOTTOM
 10
0.0
 20
0.0
 30
0.0
  9
$PUCSORGLEFT
 10
0.0
 20
0.0
 30
0.0
  9
$PUCSORGRIGHT
 10
0.0
 20
0.0
 30
0.0
  9
$PUCSORGFRONT
 10
0.0
 20
0.0
 30
0.0
  9
$PUCSORGBACK
 10
0.0
 20
0.0
 30
0.0
  9
$USERI1
 70
     0
  9
$USERI2
 70
     0
  9
$USERI3
 70
     0
  9
$USERI4
 70
     0
  9
$USERI5
 70
     0
  9
$USERR1
 40
0.0
  9
$USERR2
 40
0.0
  9
$USERR3
 40
0.0
  9
$USERR4
 40
0.0
  9
$USERR5
 40
0.0
  9
$WORLDVIEW
 70
     1
  9
$SHADEDGE
 70
     3
  9
$SHADEDIF
 70
    70
  9
$TILEMODE
 70
     1
  9
$MAXACTVP
 70
    64
  9
$PINSBASE
 10
0.0
 20
0.0
 30
0.0
  9
$PLIMCHECK
 70
     0
  9
$PEXTMIN
 10
1.0000000000E+20
 20
1.0000000000E+20
 30
1.0000000000E+20
  9
$PEXTMAX
 10
-1.0000000000E+20
 20
-1.0000000000E+20
 30
-1.0000000000E+20
  9
$PLIMMIN
 10
0.0
 20
0.0
  9
$PLIMMAX
 10
420.0
 20
297.0
  9
$UNITMODE
 70
     0
  9
$VISRETAIN
 70
     1
  9
$PLINEGEN
 70
     0
  9
$PSLTSCALE
 70
     1
  9
$TREEDEPTH
 70
  3020
  9
$CMLSTYLE
  2
Standard
  9
$CMLJUST
 70
     0
  9
$CMLSCALE
 40
20.0
  9
$PROXYGRAPHICS
 70
     1
  9
$MEASUREMENT
 70
     1
  9
$CELWEIGHT
370
    -1
  9
$ENDCAPS
280
     0
  9
$JOINSTYLE
280
     0
  9
$LWDISPLAY
290
     1
  9
$INSUNITS
 70
     4
  9
$HYPERLINKBASE
  1

  9
$STYLESHEET
  1

  9
$XEDIT
290
     1
  9
$CEPSNTYPE
380
     0
  9
$PSTYLEMODE
290
     1
  9
$FINGERPRINTGUID
  2
{A8194814-C7AD-4DA0-95C3-2551C46039EF}
  9
$VERSIONGUID
  2
{FAEB1C32-E019-11D5-929B-00C0DF256EC4}
  9
$EXTNAMES
290
     1
  9
$PSVPSCALE
 40
0.0
  9
$OLESTARTUP
290
     0
  0
ENDSEC
  0
SECTION
  2
CLASSES
  0
CLASS
  1
ACDBDICTIONARYWDFLT
  2
AcDbDictionaryWithDefault
  3
ObjectDBX Classes
 90
        0
280
     0
281
     0
  0
CLASS
  1
VISUALSTYLE
  2
AcDbVisualStyle
  3
ObjectDBX Classes
 90
     4095
280
     0
281
     0
  0
CLASS
  1
MATERIAL
  2
AcDbMaterial
  3
ObjectDBX Classes
 90
     1153
280
     0
281
     0
  0
CLASS
  1
SCALE
  2
AcDbScale
  3
ObjectDBX Classes
 90
     1153
280
     0
281
     0
  0
CLASS
  1
TABLESTYLE
  2
AcDbTableStyle
  3
ObjectDBX Classes
 90
     4095
280
     0
281
     0
  0
CLASS
  1
MLEADERSTYLE
  2
AcDbMLeaderStyle
  3
ACDB_MLEADERSTYLE_CLASS
 90
     4095
280
     0
281
     0
  0
CLASS
  1
SUN
  2
AcDbSun
  3
SCENEOE
 90
     1153
280
     0
281
     0
  0
CLASS
  1
ACDBPLACEHOLDER
  2
AcDbPlaceHolder
  3
ObjectDBX Classes
 90
        0
280
     0
281
     0
  0
CLASS
  1
LAYOUT
  2
AcDbLayout
  3
ObjectDBX Classes
 90
        0
280
     0
281
     0
  0
ENDSEC
  0
SECTION
  2
TABLES
  0
TABLE
  2
VPORT
  5
8
330
0
100
AcDbSymbolTable
 70
     1
  0
VPORT
  5
29
330
8
100
AcDbSymbolTableRecord
100
AcDbViewportTableRecord
  2
*Active
 70
     0
 10
0.0
 20
0.0
 11
1.0
 21
1.0
 12
105.0
 22
148.5
 13
0.0
 23
0.0
 14
10.0
 24
10.0
 15
10.0
 25
10.0
 16
0.0
 26
0.0
 36
1.0
 17
0.0
 27
0.0
 37
0.0
 40
297.0
 41
0.7070707071
 42
50.0
 43
0.0
 44
0.0
 50
0.0
 51
0.0
 71
     0
 72
  2000
 73
     1
 74
     3
 75
     0
 76
     0
 77
     0
 78
     0
281
     0
 65
     1
110
0.0
120
0.0
130
0.0
111
1.0
121
0.0
131
0.0
112
0.0
122
1.0
132
0.0
 79
     0
146
0.0
  0
ENDTAB
  0
TABLE
  2
LTYPE
  5
5
330
0
100
AcDbSymbolTable
 70
     6
  0
LTYPE
  5
14
330
5
100
AcDbSymbolTableRecord
100
AcDbLinetypeTableRecord
  2
ByBlock
 70
     0
  3

 72
    65
 73
     0
 40
0.0
  0
LTYPE
  5
15
330
5
100
AcDbSymbolTableRecord
100
AcDbLinetypeTableRecord
  2
ByLayer
 70
     0
  3

 72
    65
 73
     0
 40
0.0
  0
LTYPE
  5
16
330
5
100
AcDbSymbolTableRecord
100
AcDbLinetypeTableRecord
  2
Continuous
 70
     0
  3
Solid line
 72
    65
 73
     0
 40
0.0
  0
LTYPE
  5
6E
330
5
100
AcDbSymbolTableRecord
100
AcDbLinetypeTableRecord
  2
HIDDEN
 70
     0
  3
Hidden __ __ __ __ __ __ __ __ __ __ __ __ __ __
 72
    65
 73
     2
 40
1.905
 49
1.27
 74
     0
 49
-0.635
 74
     0
  0
LTYPE
  5
6F
330
5
100
AcDbSymbolTableRecord
100
AcDbLinetypeTableRecord
  2
PHANTOM
 70
     0
  3
Phantom ______  __  __  ______  __  __  ______
 72
    65
 73
     6
 40
12.7
 49
6.35
 74
     0
 49
-1.27
 74
     0
 49
1.27
 74
     0
 49
-1.27
 74
     0
 49
1.27
 74
     0
 49
-1.27
 74
     0
  0
LTYPE
  5
70
330
5
100
AcDbSymbolTableRecord
100
AcDbLinetypeTableRecord
  2
CENTER
 70
     0
  3
Center ____ _ ____ _ ____ _ ____ _ ____ _ ____
 72
    65
 73
     4
 40
10.16
 49
6.35
 74
     0
 49
-1.27
 74
     0
 49
1.27
 74
     0
 49
-1.27
 74
     0
  0
LTYPE
  5
71
330
5
100
AcDbSymbolTableRecord
100
AcDbLinetypeTableRecord
  2
CENTERX2
 70
     0
  3
Center (2x) ________  __  ________  __  _____
 72
    65
 73
     4
 40
20.32
 49
12.7
 74
     0
 49
-2.54
 74
     0
 49
2.54
 74
     0
 49
-2.54
 74
     0
  0
LTYPE
  5
72
330
5
100
AcDbSymbolTableRecord
100
AcDbLinetypeTableRecord
  2
DOT2
 70
     0
  3
Dot (.5x) ........................................
 72
    65
 73
     2
 40
0.635
 49
0.0
 74
     0
 49
-0.635
 74
     0
  0
ENDTAB
  0
TABLE
  2
LAYER
  5
2
330
0
100
AcDbSymbolTable
 70
     1
  0
LAYER
  5
10
330
2
100
AcDbSymbolTableRecord
100
AcDbLayerTableRecord
  2
0
 70
     0
 62
     7
  6
Continuous
370
    -3
390
F
  0
ENDTAB
  0
TABLE
  2
STYLE
  5
3
330
0
100
AcDbSymbolTable
 70
     2
  0
STYLE
  5
11
330
3
100
AcDbSymbolTableRecord
100
AcDbTextStyleTableRecord
  2
Standard
 70
     0
 40
0.0
 41
1.0
 50
0.0
 71
     0
 42
3.5
  3
txt
  4
bigfont
  0
STYLE
  5
7B
330
3
100
AcDbSymbolTableRecord
100
AcDbTextStyleTableRecord
  2
SLDTEXTSTYLE0
 70
     0
 40
0.0
 41
0.7
 50
0.0
 71
     0
 42
3.5
  3
TXT
  4
bigfont
  0
ENDTAB
  0
TABLE
  2
VIEW
  5
6
330
0
100
AcDbSymbolTable
 70
     0
  0
ENDTAB
  0
TABLE
  2
UCS
  5
7
330
0
100
AcDbSymbolTable
 70
     0
  0
ENDTAB
  0
TABLE
  2
APPID
  5
9
330
0
100
AcDbSymbolTable
 70
     1
  0
APPID
  5
12
330
9
100
AcDbSymbolTableRecord
100
AcDbRegAppTableRecord
  2
ACAD
 70
     0
  0
ENDTAB
  0
TABLE
  2
DIMSTYLE
  5
A
330
0
100
AcDbSymbolTable
 70
     4
100
AcDbDimStyleTable
  0
DIMSTYLE
105
27
330
A
100
AcDbSymbolTableRecord
100
AcDbDimStyleTableRecord
  2
ISO-25
 70
     0
 41
2.5
 42
0.625
 43
3.75
 44
1.25
 73
     0
 74
     0
 77
     1
 78
     8
140
2.5
141
2.5
143
0.0393700787
147
0.625
171
     3
172
     1
178
     0
271
     2
272
     2
274
     3
278
    44
283
     0
284
     8
340
11
  0
DIMSTYLE
105
111
102
{ACAD_REACTORS
330
110
330
1D7
330
27A
102
}
330
A
100
AcDbSymbolTableRecord
100
AcDbDimStyleTableRecord
  2
SLDDIMSTYLE0
 70
     0
 41
3.0
 44
0.0
 45
0.000000001
 73
     0
 74
     0
 77
     3
 78
    12
 79
     3
140
3.5
147
0.875
173
     1
178
     0
271
     1
272
     3
276
     2
284
    12
340
7B
  0
DIMSTYLE
105
121
330
A
100
AcDbSymbolTableRecord
100
AcDbDimStyleTableRecord
  2
SLDDIMSTYLE1
 70
     0
 41
3.0
 44
0.0
 45
0.000000001
146
3.0
147
0.0
173
     1
178
     0
271
     0
272
     0
276
     2
340
11
  0
DIMSTYLE
105
1E4
102
{ACAD_REACTORS
330
1E3
102
}
330
A
100
AcDbSymbolTableRecord
100
AcDbDimStyleTableRecord
  2
SLDDIMSTYLE2
 70
     0
 41
3.0
 44
0.0
 45
0.000000001
 73
     0
 74
     0
 77
     3
 78
    12
 79
     3
140
3.5
147
0.875
172
     1
173
     1
178
     0
271
     1
272
     3
276
     2
284
    12
289
     0
340
7B
  0
ENDTAB
  0
TABLE
  2
BLOCK_RECORD
  5
1
330
0
100
AcDbSymbolTable
 70
     7
  0
BLOCK_RECORD
  5
1F
330
1
100
AcDbSymbolTableRecord
100
AcDbBlockTableRecord
  2
*Model_Space
340
22
  0
BLOCK_RECORD
  5
1B
330
1
100
AcDbSymbolTableRecord
100
AcDbBlockTableRecord
  2
*Paper_Space
340
1E
  0
BLOCK_RECORD
  5
23
330
1
100
AcDbSymbolTableRecord
100
AcDbBlockTableRecord
  2
*Paper_Space0
340
26
  0
BLOCK_RECORD
  5
112
330
1
100
AcDbSymbolTableRecord
100
AcDbBlockTableRecord
  2
_D
340
0
  0
BLOCK_RECORD
  5
11B
330
1
100
AcDbSymbolTableRecord
100
AcDbBlockTableRecord
  2
SW_NOTE_0
340
0
102
{BLKREFS
331
120
102
}
  0
BLOCK_RECORD
  5
1D8
330
1
100
AcDbSymbolTableRecord
100
AcDbBlockTableRecord
  2
_D_1
340
0
  0
BLOCK_RECORD
  5
1E5
330
1
100
AcDbSymbolTableRecord
100
AcDbBlockTableRecord
  2
_D_2
340
0
  0
BLOCK_RECORD
  5
27B
330
1
100
AcDbSymbolTableRecord
100
AcDbBlockTableRecord
  2
_D_3
340
0
  0
BLOCK_RECORD
  5
359
330
1
100
AcDbSymbolTableRecord
100
AcDbBlockTableRecord
  2
SW_NOTE_1
340
0
102
{BLKREFS
331
35E
102
}
  0
ENDTAB
  0
ENDSEC
  0
SECTION
  2
BLOCKS
  0
BLOCK
  5
20
330
1F
100
AcDbEntity
  8
0
100
AcDbBlockBegin
  2
*Model_Space
 70
     0
 10
0.0
 20
0.0
 30
0.0
  3
*Model_Space
  1

  0
ENDBLK
  5
21
330
1F
100
AcDbEntity
  8
0
100
AcDbBlockEnd
  0
BLOCK
  5
1C
330
1B
100
AcDbEntity
 67
     1
  8
0
100
AcDbBlockBegin
  2
*Paper_Space
 70
     0
 10
0.0
 20
0.0
 30
0.0
  3
*Paper_Space
  1

  0
ENDBLK
  5
1D
330
1B
100
AcDbEntity
 67
     1
  8
0
100
AcDbBlockEnd
  0
BLOCK
  5
24
330
23
100
AcDbEntity
  8
0
100
AcDbBlockBegin
  2
*Paper_Space0
 70
     0
 10
0.0
 20
0.0
 30
0.0
  3
*Paper_Space0
  1

  0
ENDBLK
  5
25
330
23
100
AcDbEntity
  8
0
100
AcDbBlockEnd
  0
BLOCK
  5
113
330
112
100
AcDbEntity
  8
0
100
AcDbBlockBegin
  2
_D
 70
     0
 10
0.0
 20
0.0
 30
0.0
  3
_D
  1

  0
SOLID
  5
115
330
112
100
AcDbEntity
  8
0
  6
Continuous
 62
     7
370
     0
100
AcDbTrace
 10
89.969752025
 20
140.3965508671
 30
0.0
 11
89.7258040136
 21
137.3138589643
 31
0.0
 12
91.2051823222
 22
137.5617295357
 32
0.0
 13
91.2051823222
 23
137.5617295357
 33
0.0
  0
SOLID
  5
116
330
112
100
AcDbEntity
  8
0
  6
Continuous
 62
     7
370
     0
100
AcDbTrace
 10
96.5796339296
 20
100.946462639
 30
0.0
 11
96.8235819411
 21
104.0291545418
 31
0.0
 12
95.3442036325
 22
103.7812839704
 32
0.0
 13
95.3442036325
 23
103.7812839704
 33
0.0
  0
LINE
  5
117
330
112
100
AcDbEntity
  8
0
  6
Continuous
 62
     7
370
     0
100
AcDbLine
 10
97.8855440802
 20
141.7228457632
 30
0.0
 11
88.9834998193
 21
140.2313038195
 31
0.0
  0
LINE
  5
118
330
112
100
AcDbEntity
  8
0
  6
Continuous
 62
     7
370
     0
100
AcDbLine
 10
103.5091737791
 20
102.1075104874
 30
0.0
 11
95.5933817239
 21
100.7812155914
 31
0.0
  0
LINE
  5
119
330
112
100
AcDbEntity
  8
0
  6
Continuous
 62
     7
370
     0
100
AcDbLine
 10
89.969752025
 20
140.3965508671
 30
0.0
 11
96.5796339296
 21
100.946462639
 31
0.0
  0
MTEXT
  5
11A
330
112
100
AcDbEntity
  8
0
  6
Continuous
 62
     7
370
     0
100
AcDbMText
 10
97.3878273085
 20
123.4258618627
 30
0.0
 40
3.5
 41
0.0
 71
     1
 72
     1
  1
40
  7
SLDTEXTSTYLE0
 11
0.1652470476148916
 21
-0.9862522057032682
 31
0.0
 73
     1
 44
1.0
  0
ENDBLK
  5
114
330
112
100
AcDbEntity
  8
0
100
AcDbBlockEnd
  0
BLOCK
  5
11C
330
11B
100
AcDbEntity
  8
0
100
AcDbBlockBegin
  2
SW_NOTE_0
 70
     0
 10
0.0
 20
0.0
 30
0.0
  3
SW_NOTE_0
  1

  0
LINE
  5
11E
330
11B
100
AcDbEntity
  8
0
  6
Continuous
 62
     0
370
     0
100
AcDbLine
 10
24.3163517553
 20
0.0
 30
0.0
 11
0.0
 21
0.0
 31
0.0
  0
MTEXT
  5
11F
330
11B
100
AcDbEntity
  8
0
  6
Continuous
 62
     0
370
     0
100
AcDbMText
 10
0.3855717511
 20
4.5678140346
 30
0.0
 40
3.5
 41
0.0
 71
     1
 72
     1
  1
近接センサー
  7
SLDTEXTSTYLE0
 73
     1
 44
1.0
  0
ENDBLK
  5
11D
330
11B
100
AcDbEntity
  8
0
100
AcDbBlockEnd
  0
BLOCK
  5
1D9
330
1D8
100
AcDbEntity
  8
0
100
AcDbBlockBegin
  2
_D_1
 70
     0
 10
0.0
 20
0.0
 30
0.0
  3
_D_1
  1

  0
ARC
  5
1DB
330
1D8
100
AcDbEntity
  8
0
  6
Continuous
 62
     7
370
     0
100
AcDbCircle
 10
47.2755892248
 20
139.3912381437
 30
0.0
 40
4.554435549315953
100
AcDbArc
 50
243.4349488229
 51
296.5650511771
  0
ARC
  5
1DC
330
1D8
100
AcDbEntity
  8
0
  6
Continuous
 62
     7
370
     0
100
AcDbCircle
 10
47.2755892248
 20
139.3912381437
 30
0.0
 40
4.554435549315978
100
AcDbArc
 50
63.4349488229
 51
116.5650511771
  0
SOLID
  5
1DD
330
1D8
100
AcDbEntity
  8
0
  6
Continuous
 62
     7
370
     0
100
AcDbTrace
 10
49.3123947223
 20
176.5097188687
 30
0.0
 11
48.5623947223
 21
173.5097188687
 31
0.0
 12
50.0623947223
 22
173.5097188687
 32
0.0
 13
50.0623947223
 23
173.5097188687
 33
0.0
  0
SOLID
  5
1DE
330
1D8
100
AcDbEntity
  8
0
  6
Continuous
 62
     7
370
     0
100
AcDbTrace
 10
49.3123947223
 20
102.272757535
 30
0.0
 11
50.0623947223
 21
105.272757535
 31
0.0
 12
48.5623947223
 22
105.272757535
 32
0.0
 13
48.5623947223
 23
105.272757535
 33
0.0
  0
LINE
  5
1DF
330
1D8
100
AcDbEntity
  8
0
  6
Continuous
 62
     7
370
     0
100
AcDbLine
 10
54.8665996022
 20
176.5097188687
 30
0.0
 11
48.3123947223
 21
176.5097188687
 31
0.0
  0
LINE
  5
1E0
330
1D8
100
AcDbEntity
  8
0
  6
Continuous
 62
     7
370
     0
100
AcDbLine
 10
54.8665996022
 20
102.272757535
 30
0.0
 11
48.3123947223
 21
102.272757535
 31
0.0
  0
LINE
  5
1E1
330
1D8
100
AcDbEntity
  8
0
  6
Continuous
 62
     7
370
     0
100
AcDbLine
 10
49.3123947223
 20
176.5097188687
 30
0.0
 11
49.3123947223
 21
102.272757535
 31
0.0
  0
MTEXT
  5
1E2
330
1D8
100
AcDbEntity
  8
0
  6
Continuous
 62
     7
370
     0
100
AcDbMText
 10
44.8006578659
 20
135.3176271487
 30
0.0
 40
3.5
 41
0.0
 71
     1
 72
     1
  1
74.2
  7
SLDTEXTSTYLE0
 11
-7.044195017643634E-15
 21
1.0
 31
0.0
 73
     1
 44
1.0
  0
ENDBLK
  5
1DA
330
1D8
100
AcDbEntity
  8
0
100
AcDbBlockEnd
  0
BLOCK
  5
1E6
330
1E5
100
AcDbEntity
  8
0
100
AcDbBlockBegin
  2
_D_2
 70
     0
 10
0.0
 20
0.0
 30
0.0
  3
_D_2
  1

  0
SOLID
  5
1E8
330
1E5
100
AcDbEntity
  8
0
  6
Continuous
 62
     7
370
     0
100
AcDbTrace
 10
54.3123947223
 20
96.2899680211
 30
0.0
 11
51.3123947223
 21
97.0399680211
 31
0.0
 12
51.3123947223
 22
95.5399680211
 32
0.0
 13
51.3123947223
 23
95.5399680211
 33
0.0
  0
SOLID
  5
1E9
330
1E5
100
AcDbEntity
  8
0
  6
Continuous
 62
     7
370
     0
100
AcDbTrace
 10
67.4208044821
 20
96.2899680211
 30
0.0
 11
70.4208044821
 21
95.5399680211
 31
0.0
 12
70.4208044821
 22
97.0399680211
 32
0.0
 13
70.4208044821
 23
97.0399680211
 33
0.0
  0
LINE
  5
1EA
330
1E5
100
AcDbEntity
  8
0
  6
Continuous
 62
     7
370
     0
100
AcDbLine
 10
54.3123947223
 20
121.5337399695
 30
0.0
 11
54.3123947223
 21
95.2899680211
 31
0.0
  0
LINE
  5
1EB
330
1E5
100
AcDbEntity
  8
0
  6
Continuous
 62
     7
370
     0
100
AcDbLine
 10
67.4208044821
 20
121.5408085118
 30
0.0
 11
67.4208044821
 21
95.2899680211
 31
0.0
  0
LINE
  5
1EC
330
1E5
100
AcDbEntity
  8
0
  6
Continuous
 62
     7
370
     0
100
AcDbLine
 10
54.3123947223
 20
96.2899680211
 30
0.0
 11
49.3123947223
 21
96.2899680211
 31
0.0
  0
LINE
  5
1ED
330
1E5
100
AcDbEntity
  8
0
  6
Continuous
 62
     7
370
     0
100
AcDbLine
 10
54.3123947223
 20
96.2899680211
 30
0.0
 11
67.4208044821
 21
96.2899680211
 31
0.0
  0
LINE
  5
1EE
330
1E5
100
AcDbEntity
  8
0
  6
Continuous
 62
     7
370
     0
100
AcDbLine
 10
67.4208044821
 20
96.2899680211
 30
0.0
 11
72.4208044821
 21
96.2899680211
 31
0.0
  0
MTEXT
  5
1EF
330
1E5
100
AcDbEntity
  8
0
  6
Continuous
 62
     7
370
     0
100
AcDbMText
 10
56.7929886072
 20
100.8017048775
 30
0.0
 40
3.5
 41
0.0
 71
     1
 72
     1
  1
13.1
  7
SLDTEXTSTYLE0
 73
     1
 44
1.0
  0
ENDBLK
  5
1E7
330
1E5
100
AcDbEntity
  8
0
100
AcDbBlockEnd
  0
BLOCK
  5
27C
330
27B
100
AcDbEntity
  8
0
100
AcDbBlockBegin
  2
_D_3
 70
     0
 10
0.0
 20
0.0
 30
0.0
  3
_D_3
  1

  0
ARC
  5
27E
330
27B
100
AcDbEntity
  8
0
  6
Continuous
 62
     7
370
     0
100
AcDbCircle
 10
110.5808182878
 20
247.6064974604
 30
0.0
 40
4.554435549315966
100
AcDbArc
 50
153.4349488229
 51
206.5650511771
  0
ARC
  5
27F
330
27B
100
AcDbEntity
  8
0
  6
Continuous
 62
     7
370
     0
100
AcDbCircle
 10
110.5808182878
 20
247.6064974604
 30
0.0
 40
4.554435549315966
100
AcDbArc
 50
333.4349488229
 51
26.5650511771
  0
SOLID
  5
280
330
27B
100
AcDbEntity
  8
0
  6
Continuous
 62
     7
370
     0
100
AcDbTrace
 10
98.0507911278
 20
245.5696919629
 30
0.0
 11
101.0507911278
 21
244.8196919629
 31
0.0
 12
101.0507911278
 22
246.3196919629
 32
0.0
 13
101.0507911278
 23
246.3196919629
 33
0.0
  0
SOLID
  5
281
330
27B
100
AcDbEntity
  8
0
  6
Continuous
 62
     7
370
     0
100
AcDbTrace
 10
123.1108455642
 20
245.5696919629
 30
0.0
 11
120.1108455642
 21
246.3196919629
 31
0.0
 12
120.1108455642
 22
244.8196919629
 32
0.0
 13
120.1108455642
 23
244.8196919629
 33
0.0
  0
LINE
  5
282
330
27B
100
AcDbEntity
  8
0
  6
Continuous
 62
     7
370
     0
100
AcDbLine
 10
98.0507911278
 20
240.833154248
 30
0.0
 11
98.0507911278
 21
246.5696919629
 31
0.0
  0
LINE
  5
283
330
27B
100
AcDbEntity
  8
0
  6
Continuous
 62
     7
370
     0
100
AcDbLine
 10
123.1108455642
 20
240.833154248
 30
0.0
 11
123.1108455642
 21
246.5696919629
 31
0.0
  0
LINE
  5
284
330
27B
100
AcDbEntity
  8
0
  6
Continuous
 62
     7
370
     0
100
AcDbLine
 10
98.0507911278
 20
245.5696919629
 30
0.0
 11
123.1108455642
 21
245.5696919629
 31
0.0
  0
MTEXT
  5
285
330
27B
100
AcDbEntity
  8
0
  6
Continuous
 62
     7
370
     0
100
AcDbMText
 10
106.5072072928
 20
250.0814288193
 30
0.0
 40
3.5
 41
0.0
 71
     1
 72
     1
  1
25.1
  7
SLDTEXTSTYLE0
 73
     1
 44
1.0
  0
ENDBLK
  5
27D
330
27B
100
AcDbEntity
  8
0
100
AcDbBlockEnd
  0
BLOCK
  5
35A
330
359
100
AcDbEntity
  8
0
100
AcDbBlockBegin
  2
SW_NOTE_1
 70
     0
 10
0.0
 20
0.0
 30
0.0
  3
SW_NOTE_1
  1

  0
LINE
  5
35C
330
359
100
AcDbEntity
  8
0
  6
Continuous
 62
     0
370
     0
100
AcDbLine
 10
-28.640588851
 20
0.0
 30
0.0
 11
0.0
 21
0.0
 31
0.0
  0
MTEXT
  5
35D
330
359
100
AcDbEntity
  8
0
  6
Continuous
 62
     0
370
     0
100
AcDbMText
 10
-29.0264238384
 20
4.5595461326
 30
0.0
 40
3.5
 41
0.0
 71
     1
 72
     1
  1
2-M4取付ボルト
  7
SLDTEXTSTYLE0
 73
     1
 44
1.0
  0
ENDBLK
  5
35B
330
359
100
AcDbEntity
  8
0
100
AcDbBlockEnd
  0
ENDSEC
  0
SECTION
  2
ENTITIES
  0
LINE
  5
73
330
1F
100
AcDbEntity
  8
0
  6
Continuous
 62
     7
370
     0
100
AcDbLine
 10
20.2604743903
 20
285.0
 30
0.0
 11
196.7604743903
 21
285.0
 31
0.0
  0
LINE
  5
74
330
1F
100
AcDbEntity
  8
0
  6
Continuous
 62
     7
370
     0
100
AcDbLine
 10
20.2604743903
 20
285.0
 30
0.0
 11
20.2604743903
 21
10.0
 31
0.0
  0
LINE
  5
75
330
1F
100
AcDbEntity
  8
0
  6
Continuous
 62
     7
370
     0
100
AcDbLine
 10
20.2604743903
 20
10.0
 30
0.0
 11
196.7604743903
 21
10.0
 31
0.0
  0
LINE
  5
76
330
1F
100
AcDbEntity
  8
0
  6
Continuous
 62
     7
370
     0
100
AcDbLine
 10
196.7604743903
 20
285.0
 30
0.0
 11
196.7604743903
 21
10.0
 31
0.0
  0
LINE
  5
77
330
1F
100
AcDbEntity
  8
0
  6
Continuous
 62
     7
370
     0
100
AcDbLine
 10
127.0104743903
 20
50.75
 30
0.0
 11
196.7604743903
 21
50.75
 31
0.0
  0
LINE
  5
78
330
1F
100
AcDbEntity
  8
0
  6
Continuous
 62
     7
370
     0
100
AcDbLine
 10
127.0104743903
 20
50.75
 30
0.0
 11
127.0104743903
 21
10.0
 31
0.0
  0
LINE
  5
79
330
1F
100
AcDbEntity
  8
0
  6
Continuous
 62
     7
370
     0
100
AcDbLine
 10
127.0104743903
 20
22.75
 30
0.0
 11
196.7604743903
 21
22.75
 31
0.0
  0
LINE
  5
7A
330
1F
100
AcDbEntity
  8
0
  6
Continuous
 62
     7
370
     0
100
AcDbLine
 10
127.0104743903
 20
36.75
 30
0.0
 11
196.7604743903
 21
36.75
 31
0.0
  0
MTEXT
  5
7C
330
1F
100
AcDbEntity
  8
0
  6
Continuous
 62
     7
370
     0
100
AcDbMText
 10
161.352383681
 20
30.4171582345
 30
0.0
 40
4.2333333333
 41
0.0
 71
     2
 72
     1
  1
CHK-EXF-20-C
  7
SLDTEXTSTYLE0
 73
     1
 44
1.0
  0
MTEXT
  5
7D
330
1F
100
AcDbEntity
  8
0
  6
Continuous
 62
     7
370
     0
100
AcDbMText
 10
158.5980026933
 20
45.7507617812
 30
0.0
 40
3.4395833333
 41
0.0
 71
     2
 72
     1
  1
ランナーチャックEX(近接・着脱爪)
  7
SLDTEXTSTYLE0
 73
     1
 44
1.0
  0
MTEXT
  5
7E
330
1F
100
AcDbEntity
  8
0
  6
Continuous
 62
     7
370
     0
100
AcDbMText
 10
162.5177791142
 20
16.8228189052
 30
0.0
 40
4.2333333333
 41
0.0
 71
     2
 72
     1
  1
023293
  7
SLDTEXTSTYLE0
 73
     1
 44
1.0
  0
LINE
  5
7F
330
1F
100
AcDbEntity
  8
0
  6
Continuous
 62
     7
370
     0
100
AcDbLine
 10
112.1019555466
 20
127.3748126131
 30
0.0
 11
112.2672019737
 21
126.3885569077
 31
0.0
  0
LINE
  5
80
330
1F
100
AcDbEntity
  8
0
  6
Continuous
 62
     7
370
     0
100
AcDbLine
 10
115.5045313971
 20
127.9449161392
 30
0.0
 11
114.6782918112
 21
132.8761723142
 31
0.0
  0
LINE
  5
81
330
1F
100
AcDbEntity
  8
0
  6
Continuous
 62
     7
370
     0
100
AcDbLine
 10
111.8181629317
 20
132.3969584208
 30
0.0
 11
112.644395067
 21
127.4656947952
 31
0.0
  0
LINE
  5
82
330
1F
100
AcDbEntity
  8
0
  6
Continuous
 62
     7
370
     0
100
AcDbLine
 10
107.3390675919
 20
157.0984419685
 30
0.0
 11
107.1060059802
 21
156.9381874304
 31
0.0
  0
LINE
  5
83
330
1F
100
AcDbEntity
  8
0
  6
Continuous
 62
     7
370
     0
100
AcDbLine
 10
106.4506678121
 20
153.398342083
 30
0.0
 11
106.6109223502
 21
153.1652730208
 31
0.0
  0
LINE
  5
84
330
1F
100
AcDbEntity
  8
0
  6
Continuous
 62
     7
370
     0
100
AcDbLine
 10
114.0254495876
 20
155.8605950575
 30
0.0
 11
107.3390675919
 21
157.0984419685
 31
0.0
  0
LINE
  5
85
330
1F
100
AcDbEntity
  8
0
  6
Continuous
 62
     7
370
     0
100
AcDbLine
 10
106.6109223502
 20
153.1652730208
 30
0.0
 11
113.2973043458
 21
151.9274261098
 31
0.0
  0
LINE
  5
86
330
1F
100
AcDbEntity
  8
0
  6
Continuous
 62
     7
370
     0
100
AcDbLine
 10
116.75600542
 20
170.6099692982
 30
0.0
 11
110.0696159737
 21
171.8478162091
 31
0.0
  0
LINE
  5
87
330
1F
100
AcDbEntity
  8
0
  6
Continuous
 62
     7
370
     0
100
AcDbLine
 10
109.341470732
 20
167.9146509867
 30
0.0
 11
116.0278601782
 21
166.6768003505
 31
0.0
  0
LINE
  5
88
330
1F
100
AcDbEntity
  8
0
  6
Continuous
 62
     7
370
     0
100
AcDbLine
 10
110.0696159737
 20
171.8478162091
 30
0.0
 11
109.836554362
 21
171.6875653964
 31
0.0
  0
LINE
  5
89
330
1F
100
AcDbEntity
  8
0
  6
Continuous
 62
     7
370
     0
100
AcDbLine
 10
109.1812236445
 20
168.1477163237
 30
0.0
 11
109.341470732
 21
167.9146509867
 31
0.0
  0
LINE
  5
8A
330
1F
100
AcDbEntity
  8
0
  6
Continuous
 62
     7
370
     0
100
AcDbLine
 10
109.8655371206
 20
125.6757673126
 30
0.0
 11
109.882032706
 21
125.8248608809
 31
0.0
  0
ARC
  5
8B
330
1F
100
AcDbEntity
  8
0
  6
Continuous
 62
     7
370
     0
100
AcDbCircle
 10
109.5576270842
 20
122.8927507462
 30
0.0
 40
2.949999999999976
100
AcDbArc
 50
92.6865101909
 51
83.6865101909
  0
LINE
  5
8C
330
1F
100
AcDbEntity
  8
0
  6
Continuous
 62
     7
370
     0
100
AcDbLine
 10
109.426384999
 20
125.689670096
 30
0.0
 11
109.4193591015
 21
125.8395087224
 31
0.0
  0
CIRCLE
  5
8D
330
1F
100
AcDbEntity
  8
0
  6
Continuous
 62
     7
370
     0
100
AcDbCircle
 10
107.8114500107
 20
107.8980561635
 30
0.0
 40
0.9999999999999968
  0
CIRCLE
  5
8E
330
1F
100
AcDbEntity
  8
0
  6
Continuous
 62
     7
370
     0
100
AcDbCircle
 10
101.489287191
 20
137.7639272756
 30
0.0
 40
1.499999999999979
  0
ARC
  5
8F
330
1F
100
AcDbEntity
  8
0
  6
Continuous
 62
     7
370
     0
100
AcDbCircle
 10
120.7174098238
 20
131.931578849
 30
0.0
 40
10.0
100
AcDbArc
 50
132.5115862628
 51
189.5115862628
  0
LINE
  5
90
330
1F
100
AcDbEntity
  8
0
  6
Continuous
 62
     7
370
     0
100
AcDbLine
 10
110.8548848169
 20
130.2791085344
 30
0.0
 11
111.5275157826
 21
126.26462395
 31
0.0
  0
LINE
  5
91
330
1F
100
AcDbEntity
  8
0
  6
Continuous
 62
     7
370
     0
100
AcDbLine
 10
111.5275157826
 20
126.26462395
 30
0.0
 11
106.1031280296
 21
125.3557648759
 31
0.0
  0
ARC
  5
92
330
1F
100
AcDbEntity
  8
0
  6
Continuous
 62
     7
370
     0
100
AcDbCircle
 10
106.4336234195
 20
123.3832618091
 30
0.0
 40
2.000000000000005
100
AcDbArc
 50
99.5115862628
 51
189.5115862628
  0
LINE
  5
93
330
1F
100
AcDbEntity
  8
0
  6
Continuous
 62
     7
370
     0
100
AcDbLine
 10
104.4611169236
 20
123.0527680617
 30
0.0
 11
105.9483422177
 21
114.1764965158
 31
0.0
  0
ARC
  5
94
330
1F
100
AcDbEntity
  8
0
  6
Continuous
 62
     7
370
     0
100
AcDbCircle
 10
107.920846848
 20
114.5069919577
 30
0.0
 40
2.000000000000008
100
AcDbArc
 50
189.5115862628
 51
279.5115862628
  0
LINE
  5
95
330
1F
100
AcDbEntity
  8
0
  6
Continuous
 62
     7
370
     0
100
AcDbLine
 10
108.2513390319
 20
112.5344854098
 30
0.0
 11
110.71697457
 21
112.9476052027
 31
0.0
  0
LINE
  5
96
330
1F
100
AcDbEntity
  8
0
  6
Continuous
 62
     7
370
     0
100
AcDbLine
 10
110.71697457
 20
112.9476052027
 30
0.0
 11
112.1215729253
 21
104.5644577842
 31
0.0
  0
LINE
  5
97
330
1F
100
AcDbEntity
  8
0
  6
Continuous
 62
     7
370
     0
100
AcDbLine
 10
111.300563647
 20
103.4129631024
 30
0.0
 11
112.1215729253
 21
104.5644577842
 31
0.0
  0
LINE
  5
98
330
1F
100
AcDbEntity
  8
0
  6
Continuous
 62
     7
370
     0
100
AcDbLine
 10
111.300563647
 20
103.4129631024
 30
0.0
 11
104.4954268472
 21
102.2727560502
 31
0.0
  0
LINE
  5
99
330
1F
100
AcDbEntity
  8
0
  6
Continuous
 62
     7
370
     0
100
AcDbLine
 10
104.4954268472
 20
102.2727560502
 30
0.0
 11
98.0507901149
 21
140.7365944486
 31
0.0
  0
LINE
  5
9A
330
1F
100
AcDbEntity
  8
0
  6
Continuous
 62
     7
370
     0
100
AcDbLine
 10
98.8717956679
 20
141.8880891304
 30
0.0
 11
98.0507901149
 21
140.7365944486
 31
0.0
  0
LINE
  5
9B
330
1F
100
AcDbEntity
  8
0
  6
Continuous
 62
     7
370
     0
100
AcDbLine
 10
98.8717956679
 20
141.8880891304
 30
0.0
 11
108.3881093399
 21
143.4825580817
 31
0.0
  0
ARC
  5
9C
330
1F
100
AcDbEntity
  8
0
  6
Continuous
 62
     7
370
     0
100
AcDbCircle
 10
107.5618714078
 20
148.4138163734
 30
0.0
 40
5.00000000000001
100
AcDbArc
 50
279.5115862628
 51
349.5115862628
  0
LINE
  5
9D
330
1F
100
AcDbEntity
  8
0
  6
Continuous
 62
     7
370
     0
100
AcDbLine
 10
112.478329076
 20
147.5036364298
 30
0.0
 11
117.8482232826
 21
176.5097189944
 31
0.0
  0
ARC
  5
9E
330
1F
100
AcDbEntity
  8
0
  6
Continuous
 62
     7
370
     0
100
AcDbCircle
 10
108.4723240336
 20
147.8383309878
 30
0.0
 40
9.999999999999975
100
AcDbArc
 50
312.5115862628
 51
349.5115862628
  0
LINE
  5
9F
330
1F
100
AcDbEntity
  8
0
  6
Continuous
 62
     7
370
     0
100
AcDbLine
 10
115.2297167318
 20
140.4669206839
 30
0.0
 11
113.9600185888
 21
139.3029835325
 31
0.0
  0
LINE
  5
A0
330
1F
100
AcDbEntity
  8
0
  6
Continuous
 62
     7
370
     0
100
AcDbLine
 10
123.1108440297
 20
171.9759773713
 30
0.0
 11
120.3064529436
 21
176.0546263557
 31
0.0
  0
LINE
  5
A1
330
1F
100
AcDbEntity
  8
0
  6
Continuous
 62
     7
370
     0
100
AcDbLine
 10
123.1108440297
 20
171.9759773713
 30
0.0
 11
118.3052418964
 21
146.0179608565
 31
0.0
  0
LINE
  5
A2
330
1F
100
AcDbEntity
  8
0
  6
Continuous
 62
     7
370
     0
100
AcDbLine
 10
117.8482232826
 20
176.5097189944
 30
0.0
 11
120.3064529436
 21
176.0546263557
 31
0.0
  0
LINE
  5
A3
330
1F
100
AcDbEntity
  8
0
  6
Continuous
 62
     7
370
     0
100
AcDbLine
 10
112.9984466569
 20
117.4856122833
 30
0.0
 11
112.7005426423
 21
119.2636039358
 31
0.0
  0
SPLINE
  5
A4
330
1F
100
AcDbEntity
  8
0
  6
Continuous
 62
     7
370
     0
100
AcDbSpline
210
0.0
220
0.0
230
1.0
 70
     8
 71
     3
 72
    14
 73
    10
 74
     0
 42
0.000000001
 43
0.00000001
 40
0.0
 40
0.0
 40
0.0
 40
0.0
 40
0.4999999999999913
 40
0.4999999999999913
 40
0.7499999999999957
 40
0.7499999999999957
 40
0.8749999999999978
 40
0.8749999999999978
 40
1.0
 40
1.0
 40
1.0
 40
1.0
 10
101.8690543605088
 20
136.4517526299068
 30
0.0
 10
101.8863614852386
 20
136.4307046602127
 30
0.0
 10
101.9084683071736
 20
136.4113776880676
 30
0.0
 10
101.9570136040163
 20
136.3893298584335
 30
0.0
 10
101.975767820449
 20
136.3829538677047
 30
0.0
 10
102.013139232978
 20
136.3786553361074
 30
0.0
 10
102.0271165801977
 20
136.3780900817816
 30
0.0
 10
102.0609101967774
 20
136.381568421189
 30
0.0
 10
102.0828248000152
 20
136.3861231344237
 30
0.0
 10
102.1057278917908
 20
136.3964475271323
 30
0.0
  0
ARC
  5
A5
330
1F
100
AcDbEntity
  8
0
  6
Continuous
 62
     7
370
     0
100
AcDbCircle
 10
101.489287191
 20
137.7639272756
 30
0.0
 40
1.366025403784463
100
AcDbArc
 50
286.1414033176
 51
253.8585966824
  0
SPLINE
  5
A6
330
1F
100
AcDbEntity
  8
0
  6
Continuous
 62
     7
370
     0
100
AcDbSpline
210
0.0
220
0.0
230
1.0
 70
     8
 71
     3
 72
    14
 73
    10
 74
     0
 42
0.000000001
 43
0.00000001
 40
0.0
 40
0.0
 40
0.0
 40
0.0
 40
0.1250000000000071
 40
0.1250000000000071
 40
0.2500000000000142
 40
0.2500000000000142
 40
0.5000000000000144
 40
0.5000000000000144
 40
1.0
 40
1.0
 40
1.0
 40
1.0
 10
100.8728464902369
 20
136.3964475271323
 30
0.0
 10
100.8956028526601
 20
136.3861892779588
 30
0.0
 10
100.9173036598678
 20
136.3816268504594
 30
0.0
 10
100.9513285096914
 20
136.3780823736032
 30
0.0
 10
100.9653585954686
 20
136.3786596260332
 30
0.0
 10
101.002339804783
 20
136.3828743164523
 30
0.0
 10
101.0211664410158
 20
136.3891800090804
 30
0.0
 10
101.0700883494679
 20
136.4113118616227
 30
0.0
 10
101.0922055053127
 20
136.4306956711069
 30
0.0
 10
101.109520021519
 20
136.4517526299067
 30
0.0
  0
ARC
  5
A7
330
1F
100
AcDbEntity
  8
0
  6
Continuous
 62
     7
370
     0
100
AcDbCircle
 10
101.489287191
 20
137.7639272756
 30
0.0
 40
0.9000000000000107
100
AcDbArc
 50
295.8909827371
 51
244.1090172629
  0
ARC
  5
A8
330
1F
100
AcDbEntity
  8
0
  6
Continuous
 62
     7
370
     0
100
AcDbCircle
 10
101.0089609603
 20
136.7743381123
 30
0.0
 40
0.2000000000000004
100
AcDbArc
 50
344.5846989593
 51
64.1090172629
  0
ARC
  5
A9
330
1F
100
AcDbEntity
  8
0
  6
Continuous
 62
     7
370
     0
100
AcDbCircle
 10
101.9696134217
 20
136.7743381123
 30
0.0
 40
0.2000000000000066
100
AcDbArc
 50
115.8909827371
 51
195.4153010407
  0
LINE
  5
AA
330
1F
100
AcDbEntity
  8
0
  6
Continuous
 62
     7
370
     0
100
AcDbLine
 10
101.1478437321
 20
136.5256157022
 30
0.0
 11
101.2017635839
 21
136.7211785417
 31
0.0
  0
LINE
  5
AB
330
1F
100
AcDbEntity
  8
0
  6
Continuous
 62
     7
370
     0
100
AcDbLine
 10
101.7768068449
 20
136.7211785417
 30
0.0
 11
101.8307341473
 21
136.5256157022
 31
0.0
  0
ARC
  5
AC
330
1F
100
AcDbEntity
  8
0
  6
Continuous
 62
     7
370
     0
100
AcDbCircle
 10
100.9550385837
 20
136.5787781603
 30
0.0
 40
0.2000000000000239
100
AcDbArc
 50
320.5705471975
 51
344.5846989593
  0
ARC
  5
AD
330
1F
100
AcDbEntity
  8
0
  6
Continuous
 62
     7
370
     0
100
AcDbCircle
 10
102.0235357984
 20
136.5787781603
 30
0.0
 40
0.200000000000013
100
AcDbArc
 50
195.4153010407
 51
219.4294528025
  0
SPLINE
  5
AE
330
1F
100
AcDbEntity
  8
0
  6
Continuous
 62
     7
370
     0
100
AcDbSpline
210
0.0
220
0.0
230
1.0
 70
     8
 71
     3
 72
    12
 73
     8
 74
     0
 42
0.000000001
 43
0.00000001
 40
0.0
 40
0.0
 40
0.0
 40
0.0
 40
0.2499999999999924
 40
0.2499999999999924
 40
0.4999999999999848
 40
0.4999999999999848
 40
1.0
 40
1.0
 40
1.0
 40
1.0
 10
108.3484185579831
 20
108.7416584271682
 30
0.0
 10
108.3162741597653
 20
108.7621189351101
 30
0.0
 10
108.2803726277629
 20
108.7714063299122
 30
0.0
 10
108.2191798170378
 20
108.7740865027825
 30
0.0
 10
108.1927376817063
 20
108.7684984280561
 30
0.0
 10
108.1254169364849
 20
108.7430466945676
 30
0.0
 10
108.0945462815194
 20
108.7144473124031
 30
0.0
 10
108.0735197817555
 20
108.6822176734127
 30
0.0
  0
ARC
  5
AF
330
1F
100
AcDbEntity
  8
0
  6
Continuous
 62
     7
370
     0
100
AcDbCircle
 10
107.8114500107
 20
107.8980561635
 30
0.0
 40
0.8267949192431139
100
AcDbArc
 50
108.4798247181
 51
71.5201752819
  0
SPLINE
  5
B0
330
1F
100
AcDbEntity
  8
0
  6
Continuous
 62
     7
370
     0
100
AcDbSpline
210
0.0
220
0.0
230
1.0
 70
     8
 71
     3
 72
    12
 73
     8
 74
     0
 42
0.000000001
 43
0.00000001
 40
0.0
 40
0.0
 40
0.0
 40
0.0
 40
0.4999999999999978
 40
0.4999999999999978
 40
0.7499999999999989
 40
0.7499999999999989
 40
1.0
 40
1.0
 40
1.0
 40
1.0
 10
107.5493802396085
 20
108.6822176734127
 30
0.0
 10
107.5283602006495
 20
108.7144374092136
 30
0.0
 10
107.4981669803485
 20
108.7426970737461
 30
0.0
 10
107.4303123611154
 20
108.7684867480622
 30
0.0
 10
107.4039491779751
 20
108.774066164879
 30
0.0
 10
107.3426926220658
 20
108.7714437386048
 30
0.0
 10
107.3066072559333
 20
108.7621070922576
 30
0.0
 10
107.2744814633809
 20
108.7416584271682
 30
0.0
  0
ARC
  5
B1
330
1F
100
AcDbEntity
  8
0
  6
Continuous
 62
     7
370
     0
100
AcDbCircle
 10
108.2410248485
 20
108.5729379744
 30
0.0
 40
0.2000000000000071
100
AcDbArc
 50
162.0
 51
237.5224878141
  0
ARC
  5
B2
330
1F
100
AcDbEntity
  8
0
  6
Continuous
 62
     7
370
     0
100
AcDbCircle
 10
107.8114500107
 20
107.8980561635
 30
0.0
 40
0.6000000000000139
100
AcDbArc
 50
122.4775121859
 51
57.5224878141
  0
ARC
  5
B3
330
1F
100
AcDbEntity
  8
0
  6
Continuous
 62
     7
370
     0
100
AcDbCircle
 10
107.3818751728
 20
108.5729379744
 30
0.0
 40
0.1999999999999995
100
AcDbArc
 50
302.4775121859
 51
18.0
  0
ARC
  5
B4
330
1F
100
AcDbEntity
  8
0
  6
Continuous
 62
     7
370
     0
100
AcDbCircle
 10
108.2410248485
 20
108.5729379744
 30
0.0
 40
0.200000000000006
100
AcDbArc
 50
146.8797162241
 51
162.0
  0
ARC
  5
B5
330
1F
100
AcDbEntity
  8
0
  6
Continuous
 62
     7
370
     0
100
AcDbCircle
 10
107.3818751728
 20
108.5729379744
 30
0.0
 40
0.199999999999988
100
AcDbArc
 50
18.0
 51
33.1202837759
  0
LINE
  5
B6
330
1F
100
AcDbEntity
  8
0
  6
Continuous
 62
     7
370
     0
100
AcDbLine
 10
114.6672127979
 20
107.5258326035
 30
0.0
 11
113.6757267849
 21
113.4433444839
 31
0.0
  0
LINE
  5
B7
330
1F
100
AcDbEntity
  8
0
  6
Continuous
 62
     7
370
     0
100
AcDbLine
 10
114.6672127979
 20
107.5258326035
 30
0.0
 11
116.8369634287
 21
107.8893762331
 31
0.0
  0
LINE
  5
B8
330
1F
100
AcDbEntity
  8
0
  6
Continuous
 62
     7
370
     0
100
AcDbLine
 10
114.0744595067
 20
127.7053054672
 30
0.0
 11
114.2397133844
 21
126.7190572124
 31
0.0
  0
LINE
  5
B9
330
1F
100
AcDbEntity
  8
0
  6
Continuous
 62
     7
370
     0
100
AcDbLine
 10
114.0744595067
 20
127.7053054672
 30
0.0
 11
116.7866571085
 21
128.1597387295
 31
0.0
  0
LINE
  5
BA
330
1F
100
AcDbEntity
  8
0
  6
Continuous
 62
     7
370
     0
100
AcDbLine
 10
116.7866571085
 20
128.1597387295
 30
0.0
 11
116.9519035356
 21
127.1734830242
 31
0.0
  0
LWPOLYLINE
  5
BB
330
1F
100
AcDbEntity
  8
0
  6
Continuous
 62
     7
370
     0
100
AcDbPolyline
 90
        9
 70
   128
 43
0.0
 10
112.1019555466
 20
127.3748126131
 10
112.1127663391
 20
127.3766231041
 10
112.19850017
 20
127.3909878235
 10
112.3662276404
 20
127.4190914135
 10
112.6086099284
 20
127.4597045284
 10
112.9150523083
 20
127.5110464793
 10
113.2721735375
 20
127.570882092
 10
113.6643571989
 20
127.6365962129
 10
114.0744595067
 20
127.7053054672
  0
LWPOLYLINE
  5
BC
330
1F
100
AcDbEntity
  8
0
  6
Continuous
 62
     7
370
     0
100
AcDbPolyline
 90
       14
 70
   128
 43
0.0
 10
111.8181629317
 20
132.3969584208
 10
111.8597148197
 20
132.4039247137
 10
111.9819639461
 20
132.4244063597
 10
112.1778099077
 20
132.4572187167
 10
112.4358607666
 20
132.5004544359
 10
112.7411185043
 20
132.5516026717
 10
113.0758507388
 20
132.6076831918
 10
113.4206040041
 20
132.6654475432
 10
113.7553362386
 20
132.7215355139
 10
114.0605939762
 20
132.7726837497
 10
114.3186448352
 20
132.8159194689
 10
114.5144907968
 20
132.8487318259
 10
114.6367399232
 20
132.8692134719
 10
114.6782918112
 20
132.8761723142
  0
LWPOLYLINE
  5
BD
330
1F
100
AcDbEntity
  8
0
  6
Continuous
 62
     7
370
     0
100
AcDbPolyline
 90
       15
 70
   128
 43
0.0
 10
106.4650325315
 20
153.4759175282
 10
106.4929871099
 20
153.6268960934
 10
106.5342782276
 20
153.8499441247
 10
106.5869836347
 20
154.1346382599
 10
106.6486371891
 20
154.4676568609
 10
106.7163555162
 20
154.8334431153
 10
106.7869646685
 20
155.2148830395
 10
106.85717894
 20
155.5941399436
 10
106.9237051742
 20
155.9534888964
 10
106.9834364788
 20
156.276121388
 10
107.0335714357
 20
156.5469499927
 10
107.071778013
 20
156.7533087235
 10
107.0962606208
 20
156.8855565291
 10
107.1058793204
 20
156.9375094276
 10
107.1060059802
 20
156.9381874304
  0
LWPOLYLINE
  5
BE
330
1F
100
AcDbEntity
  8
0
  6
Continuous
 62
     7
370
     0
100
AcDbPolyline
 90
        3
 70
   128
 43
0.0
 10
106.4506678121
 20
153.398342083
 10
106.4517332451
 20
153.4040715795
 10
106.4650325315
 20
153.4759175282
  0
LWPOLYLINE
  5
BF
330
1F
100
AcDbEntity
  8
0
  6
Continuous
 62
     7
370
     0
100
AcDbPolyline
 90
        3
 70
   128
 43
0.0
 10
106.6268814938
 20
153.2514687877
 10
106.6125465767
 20
153.1740498047
 10
106.6109223502
 20
153.1652730208
  0
LWPOLYLINE
  5
C0
330
1F
100
AcDbEntity
  8
0
  6
Continuous
 62
     7
370
     0
100
AcDbPolyline
 90
       16
 70
   128
 43
0.0
 10
107.3390675919
 20
157.0984419685
 10
107.3390601413
 20
157.098397265
 10
107.3311029212
 20
157.0554297667
 10
107.3085723655
 20
156.9337021809
 10
107.272377445
 20
156.7382138472
 10
107.2240157263
 20
156.4769666892
 10
107.1654541628
 20
156.1606448393
 10
107.099099292
 20
155.8022048574
 10
107.0276556747
 20
155.4163169365
 10
106.9540662901
 20
155.0187912088
 10
106.8813262718
 20
154.625884841
 10
106.8124233024
 20
154.2536985379
 10
106.7501737015
 20
153.9174687367
 10
106.6971330182
 20
153.6309492093
 10
106.655461921
 20
153.4058820706
 10
106.6268814938
 20
153.2514687877
  0
LWPOLYLINE
  5
C1
330
1F
100
AcDbEntity
  8
0
  6
Continuous
 62
     7
370
     0
100
AcDbPolyline
 90
        3
 70
   128
 43
0.0
 10
109.3574298756
 20
168.0008467536
 10
109.3430949585
 20
167.9234240454
 10
109.341470732
 20
167.9146509867
  0
LWPOLYLINE
  5
C2
330
1F
100
AcDbEntity
  8
0
  6
Continuous
 62
     7
370
     0
100
AcDbPolyline
 90
       16
 70
   128
 43
0.0
 10
110.0696159737
 20
171.8478162091
 10
110.0696085231
 20
171.8477715056
 10
110.0616587536
 20
171.8048040073
 10
110.0391207473
 20
171.6830801468
 10
110.0029332774
 20
171.4875918131
 10
109.9545641081
 20
171.2263409298
 10
109.8960025446
 20
170.91001908
 10
109.8296476738
 20
170.551579098
 10
109.7582115071
 20
170.1656949025
 10
109.6846146719
 20
169.7681654494
 10
109.6118746536
 20
169.3752628069
 10
109.5429716842
 20
169.0030765038
 10
109.4807295339
 20
168.6668429773
 10
109.4276814
 20
168.3803234499
 10
109.3860177534
 20
168.1552563112
 10
109.3574298756
 20
168.0008467536
  0
LWPOLYLINE
  5
C3
330
1F
100
AcDbEntity
  8
0
  6
Continuous
 62
     7
370
     0
100
AcDbPolyline
 90
       15
 70
   128
 43
0.0
 10
109.1955809133
 20
168.2252917688
 10
109.2235354917
 20
168.3762703341
 10
109.2648266094
 20
168.5993183654
 10
109.3175320165
 20
168.8840125006
 10
109.3791855709
 20
169.2170348268
 10
109.446903898
 20
169.5828210812
 10
109.5175205009
 20
169.9642572802
 10
109.5877273219
 20
170.3435179096
 10
109.654253556
 20
170.7028631371
 10
109.7139848606
 20
171.0254956286
 10
109.7641198175
 20
171.2963242333
 10
109.8023263948
 20
171.5026866894
 10
109.8268090026
 20
171.634934495
 10
109.8364277022
 20
171.6868836682
 10
109.836554362
 20
171.6875653964
  0
LWPOLYLINE
  5
C4
330
1F
100
AcDbEntity
  8
0
  6
Continuous
 62
     7
370
     0
100
AcDbPolyline
 90
        3
 70
   128
 43
0.0
 10
109.1812236445
 20
168.1477163237
 10
109.1822816269
 20
168.1534495454
 10
109.1955809133
 20
168.2252917688
  0
ARC
  5
C5
330
1F
100
AcDbEntity
  8
0
  6
Continuous
 62
     7
370
     0
100
AcDbCircle
 10
104.4264551748
 20
104.3772518823
 30
0.0
 40
1.50000000000001
100
AcDbArc
 50
187.672334019
 51
268.7634209785
  0
LINE
  5
C6
330
1F
100
AcDbEntity
  8
0
  6
Continuous
 62
     7
370
     0
100
AcDbLine
 10
98.8642743068
 20
134.4308626156
 30
0.0
 11
98.2713347511
 21
139.4203003746
 31
0.0
  0
LINE
  5
C7
330
1F
100
AcDbEntity
  8
0
  6
Continuous
 62
     7
370
     0
100
AcDbLine
 10
111.8354110258
 20
106.2723841768
 30
0.0
 11
112.2662855523
 21
106.81948031
 31
0.0
  0
ARC
  5
C8
330
1F
100
AcDbEntity
  8
0
  6
Continuous
 62
     7
370
     0
100
AcDbCircle
 10
111.1797395581
 20
111.7255395966
 30
0.0
 40
0.500000000000007
100
AcDbArc
 50
6.7771603088
 51
96.7771603088
  0
LINE
  5
C9
330
1F
100
AcDbEntity
  8
0
  6
Continuous
 62
     7
370
     0
100
AcDbLine
 10
110.8440516727
 20
112.1891659003
 30
0.0
 11
111.1207364337
 21
112.2220453124
 31
0.0
  0
LINE
  5
CA
330
1F
100
AcDbEntity
  8
0
  6
Continuous
 62
     7
370
     0
100
AcDbLine
 10
102.9398871796
 20
104.1769903403
 30
0.0
 11
98.8642743068
 21
134.4308626156
 31
0.0
  0
LINE
  5
CB
330
1F
100
AcDbEntity
  8
0
  6
Continuous
 62
     7
370
     0
100
AcDbLine
 10
111.6762442725
 20
111.7845472198
 30
0.0
 11
112.2662855523
 21
106.81948031
 31
0.0
  0
SPLINE
  5
CC
330
1F
100
AcDbEntity
  8
0
  6
Continuous
 62
     7
370
     0
100
AcDbSpline
210
0.0
220
0.0
230
1.0
 70
    24
 71
     3
 72
     8
 73
     4
 74
     0
 42
0.000000001
 43
0.00000001
 40
0.0
 40
0.0
 40
0.0
 40
0.0
 40
1.0
 40
1.0
 40
1.0
 40
1.0
 10
109.0048588694209
 20
123.2804378733925
 30
0.0
 10
109.0523416416986
 20
123.2789344766155
 30
0.0
 10
109.101367929864
 20
123.277382209128
 30
0.0
 10
109.1545307470293
 20
123.2756989710997
 30
0.0
  0
ARC
  5
CD
330
1F
100
AcDbEntity
  8
0
  6
Continuous
 62
     7
370
     0
100
AcDbCircle
 10
109.5576270842
 20
122.8927507462
 30
0.0
 40
0.6751696141506884
100
AcDbArc
 50
121.4171380854
 51
144.9558822965
  0
SPLINE
  5
CE
330
1F
100
AcDbEntity
  8
0
  6
Continuous
 62
     7
370
     0
100
AcDbSpline
210
0.0
220
0.0
230
1.0
 70
    24
 71
     3
 72
     8
 73
     4
 74
     0
 42
0.000000001
 43
0.00000001
 40
0.0
 40
0.0
 40
0.0
 40
0.0
 40
1.0
 40
1.0
 40
1.0
 40
1.0
 10
109.2056848498234
 20
123.4689370628858
 30
0.0
 10
109.2041814530463
 20
123.4214542906081
 30
0.0
 10
109.2026291855589
 20
123.3724280024427
 30
0.0
 10
109.2009459475306
 20
123.3192651852774
 30
0.0
  0
ARC
  5
CF
330
1F
100
AcDbEntity
  8
0
  6
Continuous
 62
     7
370
     0
100
AcDbCircle
 10
109.5576270842
 20
122.8927507462
 30
0.0
 40
0.5559999999999927
100
AcDbArc
 50
129.9047205726
 51
136.4682998093
  0
LWPOLYLINE
  5
D0
330
1F
100
AcDbEntity
  8
0
  6
Continuous
 62
     7
370
     0
100
AcDbPolyline
 90
        9
 70
   128
 43
0.0
 10
110.1103930013
 20
122.5050609808
 10
110.2041064041
 20
122.5020956498
 10
110.2975813882
 20
122.4991377693
 10
110.3907881515
 20
122.4961873394
 10
110.483689441
 20
122.49324436
 10
110.5762554543
 20
122.4903162818
 10
110.6684489386
 20
122.4873956542
 10
110.7602400916
 20
122.4844899278
 10
110.8515916603
 20
122.4815991025
  0
ARC
  5
D1
330
1F
100
AcDbEntity
  8
0
  6
Continuous
 62
     7
370
     0
100
AcDbCircle
 10
99.9012490922
 20
123.1985903283
 30
0.0
 40
10.97379053814766
100
AcDbArc
 50
356.2538144532
 51
0.1181826414
  0
LWPOLYLINE
  5
D2
330
1F
100
AcDbEntity
  8
0
  6
Continuous
 62
     7
370
     0
100
AcDbPolyline
 90
        9
 70
   128
 43
0.0
 10
110.8750162856
 20
123.221225689
 10
110.7836572664
 20
123.2241165143
 10
110.6918661134
 20
123.2270222407
 10
110.5996726291
 20
123.2299428683
 10
110.5071066158
 20
123.2328709465
 10
110.4142053263
 20
123.2358139258
 10
110.320998563
 20
123.2387643557
 10
110.2275235789
 20
123.2417222362
 10
110.1338101761
 20
123.2446950179
  0
ARC
  5
D3
330
1F
100
AcDbEntity
  8
0
  6
Continuous
 62
     7
370
     0
100
AcDbCircle
 10
109.5576270842
 20
122.8927507462
 30
0.0
 40
0.6751696141506736
100
AcDbArc
 50
31.4171380854
 51
54.9558822965
  0
LWPOLYLINE
  5
D4
330
1F
100
AcDbEntity
  8
0
  6
Continuous
 62
     7
370
     0
100
AcDbPolyline
 90
        9
 70
   128
 43
0.0
 10
109.945310487
 20
123.4455179673
 10
109.9482832687
 20
123.53923137
 10
109.9512411492
 20
123.6327063542
 10
109.9541915791
 20
123.7259056669
 10
109.9571345584
 20
123.8188144069
 10
109.9600626366
 20
123.9113729697
 10
109.9629832642
 20
124.0035739046
 10
109.9658889906
 20
124.0953650575
 10
109.9687798159
 20
124.1867166262
  0
ARC
  5
D5
330
1F
100
AcDbEntity
  8
0
  6
Continuous
 62
     7
370
     0
100
AcDbCircle
 10
109.2521523063
 20
113.2443704652
 30
0.0
 40
10.96578745438184
100
AcDbArc
 50
86.252980969
 51
90.1201692999
  0
LWPOLYLINE
  5
D6
330
1F
100
AcDbEntity
  8
0
  6
Continuous
 62
     7
370
     0
100
AcDbPolyline
 90
        9
 70
   128
 43
0.0
 10
109.2291532295
 20
124.210133801
 10
109.2262624042
 20
124.1187822323
 10
109.2233566778
 20
124.0269910794
 10
109.2204360502
 20
123.9347901445
 10
109.2175005214
 20
123.8422315817
 10
109.2145649927
 20
123.7493302923
 10
109.2116145627
 20
123.656123529
 10
109.2086492317
 20
123.5626485448
 10
109.2056839006
 20
123.4689351421
  0
LWPOLYLINE
  5
D7
330
1F
100
AcDbEntity
  8
0
  6
Continuous
 62
     7
370
     0
100
AcDbPolyline
 90
        9
 70
   128
 43
0.0
 10
109.0048609512
 20
123.280435453
 10
108.9111475484
 20
123.2834082346
 10
108.8176725643
 20
123.2863661151
 10
108.724465801
 20
123.2893165451
 10
108.6315645115
 20
123.2922595244
 10
108.5389984982
 20
123.2951876026
 10
108.4468050139
 20
123.2981082302
 10
108.3550138609
 20
123.3010139566
 10
108.2636622922
 20
123.3039047819
  0
ARC
  5
D8
330
1F
100
AcDbEntity
  8
0
  6
Continuous
 62
     7
370
     0
100
AcDbCircle
 10
119.2140048603
 20
122.5869135561
 30
0.0
 40
10.97379053817817
100
AcDbArc
 50
176.2538144532
 51
180.1181826414
  0
LWPOLYLINE
  5
D9
330
1F
100
AcDbEntity
  8
0
  6
Continuous
 62
     7
370
     0
100
AcDbPolyline
 90
        9
 70
   128
 43
0.0
 10
108.2402376668
 20
122.5642781954
 10
108.3315966861
 20
122.5613873702
 10
108.4233878391
 20
122.5584741931
 10
108.5155813234
 20
122.5555610161
 10
108.6081473367
 20
122.5526254874
 10
108.7010486262
 20
122.549682508
 10
108.7942553894
 20
122.5467320781
 10
108.8877303736
 20
122.5437741976
 10
108.9814437764
 20
122.5408088665
  0
ARC
  5
DA
330
1F
100
AcDbEntity
  8
0
  6
Continuous
 62
     7
370
     0
100
AcDbCircle
 10
109.5576270842
 20
122.8927507462
 30
0.0
 40
0.6751696141507226
100
AcDbArc
 50
211.4171380854
 51
234.9558822965
  0
LWPOLYLINE
  5
DB
330
1F
100
AcDbEntity
  8
0
  6
Continuous
 62
     7
370
     0
100
AcDbPolyline
 90
        9
 70
   128
 43
0.0
 10
109.1699434655
 20
122.3399859171
 10
109.1669706838
 20
122.2462725144
 10
109.1640128033
 20
122.1527975302
 10
109.1610623734
 20
122.059590767
 10
109.1581193941
 20
121.9666894775
 10
109.1551913159
 20
121.8741234642
 10
109.1522706883
 20
121.7819299798
 10
109.1493649619
 20
121.6901388269
 10
109.1464741366
 20
121.5987798076
  0
ARC
  5
DC
330
1F
100
AcDbEntity
  8
0
  6
Continuous
 62
     7
370
     0
100
AcDbCircle
 10
109.8636083206
 20
132.5571291749
 30
0.0
 40
10.98178957604953
100
AcDbArc
 50
266.2557995747
 51
270.1173506942
  0
LWPOLYLINE
  5
DD
330
1F
100
AcDbEntity
  8
0
  6
Continuous
 62
     7
370
     0
100
AcDbPolyline
 90
        9
 70
   128
 43
0.0
 10
109.886100723
 20
121.5753626328
 10
109.8889915483
 20
121.6667216521
 10
109.8918972747
 20
121.758512805
 10
109.8948179023
 20
121.8507062893
 10
109.8977534311
 20
121.9432723027
 10
109.9006889598
 20
122.0361735921
 10
109.9036393897
 20
122.1293803554
 10
109.9066047208
 20
122.2228553396
 10
109.9095700519
 20
122.3165612917
  0
ARC
  5
DE
330
1F
100
AcDbEntity
  8
0
  6
Continuous
 62
     7
370
     0
100
AcDbCircle
 10
109.5576270842
 20
122.8927507462
 30
0.0
 40
0.6751696141506993
100
AcDbArc
 50
301.4171380854
 51
324.9558822965
  0
CIRCLE
  5
DF
330
1F
100
AcDbEntity
  8
0
  6
Continuous
 62
     7
370
     0
100
AcDbCircle
 10
109.5576270842
 20
122.8927507462
 30
0.0
 40
2.674418604651153
  0
SPLINE
  5
E0
330
1F
100
AcDbEntity
  8
0
  6
Continuous
 62
     7
370
     0
100
AcDbSpline
210
0.0
220
0.0
230
1.0
 70
    24
 71
     3
 72
     8
 73
     4
 74
     0
 42
0.000000001
 43
0.00000001
 40
0.0
 40
0.0
 40
0.0
 40
0.0
 40
1.0
 40
1.0
 40
1.0
 40
1.0
 10
110.1338134008922
 20
123.24469298061
 30
0.0
 10
110.0863306286145
 20
123.2461963773871
 30
0.0
 10
110.0373043404491
 20
123.2477486448745
 30
0.0
 10
109.9841415232838
 20
123.2494318829028
 30
0.0
  0
ARC
  5
E1
330
1F
100
AcDbEntity
  8
0
  6
Continuous
 62
     7
370
     0
100
AcDbCircle
 10
109.5576270842
 20
122.8927507462
 30
0.0
 40
0.5559999999999854
100
AcDbArc
 50
39.9047205726
 51
46.4682998093
  0
SPLINE
  5
E2
330
1F
100
AcDbEntity
  8
0
  6
Continuous
 62
     7
370
     0
100
AcDbSpline
210
0.0
220
0.0
230
1.0
 70
    24
 71
     3
 72
     8
 73
     4
 74
     0
 42
0.000000001
 43
0.00000001
 40
0.0
 40
0.0
 40
0.0
 40
0.0
 40
1.0
 40
1.0
 40
1.0
 40
1.0
 10
109.945314211399
 20
123.4455189610125
 30
0.0
 10
109.9438108146219
 20
123.3980361887348
 30
0.0
 10
109.9422585471344
 20
123.3490099005694
 30
0.0
 10
109.9405753091061
 20
123.2958470834041
 30
0.0
  0
SPLINE
  5
E3
330
1F
100
AcDbEntity
  8
0
  6
Continuous
 62
     7
370
     0
100
AcDbSpline
210
0.0
220
0.0
230
1.0
 70
    24
 71
     3
 72
     8
 73
     4
 74
     0
 42
0.000000001
 43
0.00000001
 40
0.0
 40
0.0
 40
0.0
 40
0.0
 40
1.0
 40
1.0
 40
1.0
 40
1.0
 10
108.9814407675476
 20
122.540808511817
 30
0.0
 10
109.0289235398254
 20
122.5393051150399
 30
0.0
 10
109.0779498279907
 20
122.5377528475525
 30
0.0
 10
109.131112645156
 20
122.5360696095242
 30
0.0
  0
ARC
  5
E4
330
1F
100
AcDbEntity
  8
0
  6
Continuous
 62
     7
370
     0
100
AcDbCircle
 10
109.5576270842
 20
122.8927507462
 30
0.0
 40
0.5560000000000255
100
AcDbArc
 50
219.9047205726
 51
226.4682998093
  0
SPLINE
  5
E5
330
1F
100
AcDbEntity
  8
0
  6
Continuous
 62
     7
370
     0
100
AcDbSpline
210
0.0
220
0.0
230
1.0
 70
    24
 71
     3
 72
     8
 73
     4
 74
     0
 42
0.000000001
 43
0.00000001
 40
0.0
 40
0.0
 40
0.0
 40
0.0
 40
1.0
 40
1.0
 40
1.0
 40
1.0
 10
109.1699399570409
 20
122.3399825314145
 30
0.0
 10
109.171443353818
 20
122.3874653036923
 30
0.0
 10
109.1729956213054
 20
122.4364915918576
 30
0.0
 10
109.1746788593337
 20
122.4896544090229
 30
0.0
  0
SPLINE
  5
E6
330
1F
100
AcDbEntity
  8
0
  6
Continuous
 62
     7
370
     0
100
AcDbSpline
210
0.0
220
0.0
230
1.0
 70
    24
 71
     3
 72
     8
 73
     4
 74
     0
 42
0.000000001
 43
0.00000001
 40
0.0
 40
0.0
 40
0.0
 40
0.0
 40
1.0
 40
1.0
 40
1.0
 40
1.0
 10
110.1103952990189
 20
122.5050636190345
 30
0.0
 10
110.0629125267412
 20
122.5065670158116
 30
0.0
 10
110.0138862385758
 20
122.508119283299
 30
0.0
 10
109.9607234214105
 20
122.5098025213273
 30
0.0
  0
SPLINE
  5
E7
330
1F
100
AcDbEntity
  8
0
  6
Continuous
 62
     7
370
     0
100
AcDbSpline
210
0.0
220
0.0
230
1.0
 70
    24
 71
     3
 72
     8
 73
     4
 74
     0
 42
0.000000001
 43
0.00000001
 40
0.0
 40
0.0
 40
0.0
 40
0.0
 40
1.0
 40
1.0
 40
1.0
 40
1.0
 10
109.9095693186164
 20
122.3165644295412
 30
0.0
 10
109.9110727153935
 20
122.3640472018189
 30
0.0
 10
109.912624982881
 20
122.4130734899844
 30
0.0
 10
109.9143082209092
 20
122.4662363071496
 30
0.0
  0
ARC
  5
E8
330
1F
100
AcDbEntity
  8
0
  6
Continuous
 62
     7
370
     0
100
AcDbCircle
 10
109.5576270842
 20
122.8927507462
 30
0.0
 40
0.5560000000000072
100
AcDbArc
 50
309.9047205726
 51
316.4682998093
  0
LINE
  5
E9
330
1F
100
AcDbEntity
  8
0
  6
Continuous
 62
     7
370
     0
100
AcDbLine
 10
110.0904105441
 20
123.0517473321
 30
0.0
 11
110.0965572731
 21
123.2458722096
 31
0.0
  0
LINE
  5
EA
330
1F
100
AcDbEntity
  8
0
  6
Continuous
 62
     7
370
     0
100
AcDbLine
 10
110.0731326477
 20
122.5062456232
 30
0.0
 11
110.0792793767
 21
122.70036305
 31
0.0
  0
ELLIPSE
  5
EB
330
1F
100
AcDbEntity
  8
0
  6
Continuous
 62
     7
370
     0
100
AcDbEllipse
 10
109.626553031
 20
122.8905684169
 30
0.0
 11
0.4914453733565267
 21
-0.01556011485794784
 31
0.0
210
0.0
220
0.0
230
1.0
 40
0.9901159119
 41
5.913771593002845
 42
6.652599021356354
  0
LINE
  5
EC
330
1F
100
AcDbEntity
  8
0
  6
Continuous
 62
     7
370
     0
100
AcDbLine
 10
109.3986315863
 20
123.4255280595
 30
0.0
 11
109.2045067088
 21
123.4316747885
 31
0.0
  0
LINE
  5
ED
330
1F
100
AcDbEntity
  8
0
  6
Continuous
 62
     7
370
     0
100
AcDbLine
 10
109.9441332953
 20
123.4082576137
 30
0.0
 11
109.7500084178
 21
123.4144043427
 31
0.0
  0
ELLIPSE
  5
EE
330
1F
100
AcDbEntity
  8
0
  6
Continuous
 62
     7
370
     0
100
AcDbEllipse
 10
109.5598094135
 20
122.961676693
 30
0.0
 11
0.01556011485794784
 21
0.491445373356541
 31
0.0
210
0.0
220
0.0
230
1.0
 40
0.9901159119
 41
5.913771593002824
 42
6.652599021356392
  0
LINE
  5
EF
330
1F
100
AcDbEntity
  8
0
  6
Continuous
 62
     7
370
     0
100
AcDbLine
 10
109.7166223662
 20
122.3599683743
 30
0.0
 11
109.9107472436
 21
122.3538216453
 31
0.0
  0
LINE
  5
F0
330
1F
100
AcDbEntity
  8
0
  6
Continuous
 62
     7
370
     0
100
AcDbLine
 10
109.1711206572
 20
122.3772388201
 30
0.0
 11
109.3652455346
 21
122.3710920911
 31
0.0
  0
ELLIPSE
  5
F1
330
1F
100
AcDbEntity
  8
0
  6
Continuous
 62
     7
370
     0
100
AcDbEllipse
 10
109.5554447549
 20
122.8238247994
 30
0.0
 11
0.01556011485793363
 21
0.4914453733565267
 31
0.0
210
0.0
220
0.0
230
1.0
 40
0.9901159119
 41
2.772178939412978
 42
3.51100636776649
  0
LINE
  5
F2
330
1F
100
AcDbEntity
  8
0
  6
Continuous
 62
     7
370
     0
100
AcDbLine
 10
109.0248434083
 20
122.7337491017
 30
0.0
 11
109.0186966793
 21
122.5396316748
 31
0.0
  0
LINE
  5
F3
330
1F
100
AcDbEntity
  8
0
  6
Continuous
 62
     7
370
     0
100
AcDbLine
 10
109.0421213047
 20
123.2792582612
 30
0.0
 11
109.0359745757
 21
123.0851333838
 31
0.0
  0
ELLIPSE
  5
F4
330
1F
100
AcDbEntity
  8
0
  6
Continuous
 62
     7
370
     0
100
AcDbEllipse
 10
109.4887011374
 20
122.8949330755
 30
0.0
 11
0.4914453733565267
 21
-0.01556011485794784
 31
0.0
210
0.0
220
0.0
230
1.0
 40
0.9901159119
 41
2.772178939413055
 42
3.511006367766612
  0
CIRCLE
  5
F5
330
1F
100
AcDbEntity
  8
0
  6
Continuous
 62
     7
370
     0
100
AcDbCircle
 10
109.5576270842
 20
122.8927507462
 30
0.0
 40
2.800000000000007
  0
ARC
  5
F6
330
1F
100
AcDbEntity
  8
0
  6
Continuous
 62
     7
370
     0
100
AcDbCircle
 10
109.5576270842
 20
122.8927507462
 30
0.0
 40
0.5560000000000072
100
AcDbArc
 50
159.7562226634
 51
196.6167977185
  0
ARC
  5
F7
330
1F
100
AcDbEntity
  8
0
  6
Continuous
 62
     7
370
     0
100
AcDbCircle
 10
109.5576270842
 20
122.8927507462
 30
0.0
 40
0.5560000000000402
100
AcDbArc
 50
249.7562226634
 51
286.6167977185
  0
ARC
  5
F8
330
1F
100
AcDbEntity
  8
0
  6
Continuous
 62
     7
370
     0
100
AcDbCircle
 10
109.5576270842
 20
122.8927507462
 30
0.0
 40
0.5559999999999903
100
AcDbArc
 50
69.7562226634
 51
106.6167977185
  0
ARC
  5
F9
330
1F
100
AcDbEntity
  8
0
  6
Continuous
 62
     7
370
     0
100
AcDbCircle
 10
109.5576270842
 20
122.8927507462
 30
0.0
 40
0.5560000000000002
100
AcDbArc
 50
339.7562226634
 51
16.6167977185
  0
ARC
  5
FA
330
1F
100
AcDbEntity
  8
0
  6
Continuous
 62
     7
370
     0
100
AcDbCircle
 10
109.5576270842
 20
122.8927507462
 30
0.0
 40
0.5559999999999903
100
AcDbArc
 50
46.4682998093
 51
69.7562226634
  0
ARC
  5
FB
330
1F
100
AcDbEntity
  8
0
  6
Continuous
 62
     7
370
     0
100
AcDbCircle
 10
109.5576270842
 20
122.8927507462
 30
0.0
 40
0.5559999999999949
100
AcDbArc
 50
16.6167977185
 51
39.9047205726
  0
ARC
  5
FC
330
1F
100
AcDbEntity
  8
0
  6
Continuous
 62
     7
370
     0
100
AcDbCircle
 10
109.5576270842
 20
122.8927507462
 30
0.0
 40
0.5560000000000002
100
AcDbArc
 50
316.4682998093
 51
339.7562226634
  0
ARC
  5
FD
330
1F
100
AcDbEntity
  8
0
  6
Continuous
 62
     7
370
     0
100
AcDbCircle
 10
109.5576270842
 20
122.8927507462
 30
0.0
 40
0.5560000000000086
100
AcDbArc
 50
286.6167977185
 51
309.9047205726
  0
ARC
  5
FE
330
1F
100
AcDbEntity
  8
0
  6
Continuous
 62
     7
370
     0
100
AcDbCircle
 10
109.5576270842
 20
122.8927507462
 30
0.0
 40
0.5560000000000402
100
AcDbArc
 50
226.4682998093
 51
249.7562226634
  0
ARC
  5
FF
330
1F
100
AcDbEntity
  8
0
  6
Continuous
 62
     7
370
     0
100
AcDbCircle
 10
109.5576270842
 20
122.8927507462
 30
0.0
 40
0.5560000000000255
100
AcDbArc
 50
196.6167977185
 51
219.9047205726
  0
ARC
  5
100
330
1F
100
AcDbEntity
  8
0
  6
Continuous
 62
     7
370
     0
100
AcDbCircle
 10
109.5576270842
 20
122.8927507462
 30
0.0
 40
0.5559999999999907
100
AcDbArc
 50
136.4682998093
 51
159.7562226634
  0
ARC
  5
101
330
1F
100
AcDbEntity
  8
0
  6
Continuous
 62
     7
370
     0
100
AcDbCircle
 10
109.5576270842
 20
122.8927507462
 30
0.0
 40
0.5559999999999927
100
AcDbArc
 50
106.6167977185
 51
129.9047205726
  0
CIRCLE
  5
102
330
1F
100
AcDbEntity
  8
0
  6
Continuous
 62
     7
370
     0
100
AcDbCircle
 10
114.3288711451
 20
118.6224779082
 30
0.0
 40
1.750000000000002
  0
LINE
  5
103
330
1F
100
AcDbEntity
  8
0
  6
Continuous
 62
     7
370
     0
100
AcDbLine
 10
116.0107312934
 20
112.8206398588
 30
0.0
 11
117.0022098558
 21
106.9031279784
 31
0.0
  0
ARC
  5
104
330
1F
100
AcDbEntity
  8
0
  6
Continuous
 62
     7
370
     0
100
AcDbCircle
 10
115.0244777691
 20
112.6553905597
 30
0.0
 40
1.000000000000008
100
AcDbArc
 50
9.5115862628
 51
99.5115862628
  0
LINE
  5
105
330
1F
100
AcDbEntity
  8
0
  6
Continuous
 62
     7
370
     0
100
AcDbLine
 10
108.7114198344
 20
112.8143590193
 30
0.0
 11
108.9417172806
 21
112.6501631241
 31
0.0
  0
LINE
  5
106
330
1F
100
AcDbEntity
  8
0
  6
Continuous
 62
     7
370
     0
100
AcDbLine
 10
108.7114198344
 20
112.8143590193
 30
0.0
 11
107.3507799046
 21
120.9351193409
 31
0.0
  0
LINE
  5
107
330
1F
100
AcDbEntity
  8
0
  6
Continuous
 62
     7
370
     0
100
AcDbLine
 10
106.8332104223
 20
124.0241524082
 30
0.0
 11
106.7945493595
 21
124.2548894387
 31
0.0
  0
LINE
  5
108
330
1F
100
AcDbEntity
  8
0
  6
Continuous
 62
     7
370
     0
100
AcDbLine
 10
107.779754533
 20
125.6366890173
 30
0.0
 11
106.7945493595
 21
124.2548894387
 31
0.0
  0
LINE
  5
109
330
1F
100
AcDbEntity
  8
0
  6
Continuous
 62
     7
370
     0
100
AcDbLine
 10
111.5275157826
 20
126.26462395
 30
0.0
 11
117.445027663
 21
127.256109963
 31
0.0
  0
LINE
  5
10A
330
1F
100
AcDbEntity
  8
0
  6
Continuous
 62
     7
370
     0
100
AcDbLine
 10
110.71697457
 20
112.9476052027
 30
0.0
 11
114.859229161
 21
113.6416416865
 31
0.0
  0
LINE
  5
10B
330
1F
100
AcDbEntity
  8
0
  6
Continuous
 62
     7
370
     0
100
AcDbLine
 10
117.0022098558
 20
106.9031279784
 30
0.0
 11
120.7499711053
 21
107.5310629111
 31
0.0
  0
LINE
  5
10C
330
1F
100
AcDbEntity
  8
0
  6
Continuous
 62
     7
370
     0
100
AcDbLine
 10
117.445027663
 20
127.256109963
 30
0.0
 11
120.7499711053
 21
107.5310629111
 31
0.0
  0
LINE
  5
10D
330
1F
100
AcDbEntity
  8
0
  6
Continuous
 62
     7
370
     0
100
AcDbLine
 10
117.0022098558
 20
106.9031279784
 30
0.0
 11
117.0848367946
 21
106.4099964004
 31
0.0
  0
ARC
  5
10E
330
1F
100
AcDbEntity
  8
0
  6
Continuous
 62
     7
370
     0
100
AcDbCircle
 10
120.2568445393
 20
107.4484396302
 30
0.0
 40
0.5000000000000007
100
AcDbArc
 50
279.5115862628
 51
9.5115862628
  0
LINE
  5
10F
330
1F
100
AcDbEntity
  8
0
  6
Continuous
 62
     7
370
     0
100
AcDbLine
 10
117.0848367946
 20
106.4099964004
 30
0.0
 11
120.3394664662
 21
106.9553118449
 31
0.0
  0
DIMENSION
  5
110
330
1F
100
AcDbEntity
  8
0
  6
Continuous
 62
     7
370
     0
100
AcDbDimension
  2
_D
 10
96.5796339296
 20
100.946462639
 30
0.0
 11
93.2746929773
 21
120.671506753
 31
0.0
 70
   160
  1
<>
 71
     2
 42
-1.0
  3
SLDDIMSTYLE0
100
AcDbAlignedDimension
 13
98.8717962859
 23
141.8880928108
 33
0.0
 14
104.4954259848
 24
102.272757535
 34
0.0
 50
-80.4884137372
100
AcDbRotatedDimension
  0
INSERT
  5
120
330
1F
100
AcDbEntity
  8
0
  6
Continuous
 62
     7
370
     0
100
AcDbBlockReference
  2
SW_NOTE_0
 10
129.7005012531
 20
128.206767111
 30
0.0
  0
LEADER
  5
122
330
1F
100
AcDbEntity
  8
0
  6
Continuous
 62
     7
370
     0
100
AcDbLeader
  3
SLDDIMSTYLE1
 76
     2
 10
118.6559086983
 20
120.0291576182
 30
0.0
 10
129.7005012531
 20
128.206767111
 30
0.0
  0
LINE
  5
123
330
1F
100
AcDbEntity
  8
0
  6
Continuous
 62
     7
370
     0
100
AcDbLine
 10
62.8665996972
 20
139.263927589
 30
0.0
 11
62.7665996342
 21
139.263927589
 31
0.0
  0
LINE
  5
124
330
1F
100
AcDbEntity
  8
0
  6
Continuous
 62
     7
370
     0
100
AcDbLine
 10
58.9665995701
 20
139.263927589
 30
0.0
 11
58.8665995072
 21
139.263927589
 31
0.0
  0
LINE
  5
125
330
1F
100
AcDbEntity
  8
0
  6
Continuous
 62
     7
370
     0
100
AcDbLine
 10
58.8665995072
 20
136.3787796598
 30
0.0
 11
58.9665995701
 21
136.3787796598
 31
0.0
  0
LINE
  5
126
330
1F
100
AcDbEntity
  8
0
  6
Continuous
 62
     7
370
     0
100
AcDbLine
 10
62.7665996342
 20
136.3787796598
 30
0.0
 11
62.8665996972
 21
136.3787796598
 31
0.0
  0
LINE
  5
127
330
1F
100
AcDbEntity
  8
0
  6
Continuous
 62
     7
370
     0
100
AcDbLine
 10
58.8665995072
 20
106.898054133
 30
0.0
 11
58.9665995701
 21
106.898054133
 31
0.0
  0
LINE
  5
128
330
1F
100
AcDbEntity
  8
0
  6
Continuous
 62
     7
370
     0
100
AcDbLine
 10
62.7665996342
 20
106.898054133
 30
0.0
 11
62.8665996972
 21
106.898054133
 31
0.0
  0
LINE
  5
129
330
1F
100
AcDbEntity
  8
0
  6
Continuous
 62
     7
370
     0
100
AcDbLine
 10
62.8665996972
 20
108.7729405861
 30
0.0
 11
62.7665996342
 21
108.7729405861
 31
0.0
  0
LINE
  5
12A
330
1F
100
AcDbEntity
  8
0
  6
Continuous
 62
     7
370
     0
100
AcDbLine
 10
58.9665995701
 20
108.7729405861
 30
0.0
 11
58.8665995072
 21
108.7729405861
 31
0.0
  0
LINE
  5
12B
330
1F
100
AcDbEntity
  8
0
  6
Continuous
 62
     7
370
     0
100
AcDbLine
 10
62.8665996972
 20
153.3843051892
 30
0.0
 11
62.8665996972
 21
155.1318612199
 31
0.0
  0
LINE
  5
12C
330
1F
100
AcDbEntity
  8
0
  6
Continuous
 62
     7
370
     0
100
AcDbLine
 10
58.8665995072
 20
155.1318612199
 30
0.0
 11
58.8665995072
 21
153.3843051892
 31
0.0
  0
LINE
  5
12D
330
1F
100
AcDbEntity
  8
0
  6
Continuous
 62
     7
370
     0
100
AcDbLine
 10
62.8665996972
 20
168.1336831551
 30
0.0
 11
62.8665996972
 21
169.8812354606
 31
0.0
  0
LINE
  5
12E
330
1F
100
AcDbEntity
  8
0
  6
Continuous
 62
     7
370
     0
100
AcDbLine
 10
58.8665995072
 20
169.8812354606
 30
0.0
 11
58.8665995072
 21
168.1336831551
 31
0.0
  0
LINE
  5
12F
330
1F
100
AcDbEntity
  8
0
  6
Continuous
 62
     7
370
     0
100
AcDbLine
 10
58.9665995701
 20
102.8772514563
 30
0.0
 11
62.7665996342
 21
102.8772514563
 31
0.0
  0
ARC
  5
130
330
1F
100
AcDbEntity
  8
0
  6
Continuous
 62
     7
370
     0
100
AcDbCircle
 10
55.2701011348
 20
120.3627507462
 30
0.0
 40
0.269999999999996
100
AcDbArc
 50
212.3360259976
 51
270.0
  0
ARC
  5
131
330
1F
100
AcDbEntity
  8
0
  6
Continuous
 62
     7
370
     0
100
AcDbCircle
 10
55.2701011348
 20
125.4227507462
 30
0.0
 40
0.2700000000000244
100
AcDbArc
 50
90.0
 51
147.6639740024
  0
LINE
  5
132
330
1F
100
AcDbEntity
  8
0
  6
Continuous
 62
     7
370
     0
100
AcDbLine
 10
55.2701011091
 20
120.0927492481
 30
0.0
 11
55.8665997139
 21
120.0927492481
 31
0.0
  0
LINE
  5
133
330
1F
100
AcDbEntity
  8
0
  6
Continuous
 62
     7
370
     0
100
AcDbLine
 10
55.8665997139
 20
125.6927471858
 30
0.0
 11
55.2701011091
 21
125.6927471858
 31
0.0
  0
ARC
  5
134
330
1F
100
AcDbEntity
  8
0
  6
Continuous
 62
     7
370
     0
100
AcDbCircle
 10
59.2665996022
 20
122.8927507462
 30
0.0
 40
5.000000000000004
100
AcDbArc
 50
195.221844477
 51
212.3360259976
  0
ARC
  5
135
330
1F
100
AcDbEntity
  8
0
  6
Continuous
 62
     7
370
     0
100
AcDbCircle
 10
59.2665996022
 20
122.8927507462
 30
0.0
 40
4.999999999999996
100
AcDbArc
 50
147.6639740024
 51
164.778155523
  0
ARC
  5
136
330
1F
100
AcDbEntity
  8
0
  6
Continuous
 62
     7
370
     0
100
AcDbCircle
 10
66.4630980696
 20
125.4227507462
 30
0.0
 40
0.2700000000000244
100
AcDbArc
 50
32.3360259976
 51
90.0
  0
ARC
  5
137
330
1F
100
AcDbEntity
  8
0
  6
Continuous
 62
     7
370
     0
100
AcDbCircle
 10
66.4630980696
 20
120.3627507462
 30
0.0
 40
0.2700000000000102
100
AcDbArc
 50
270.0
 51
327.6639740024
  0
LINE
  5
138
330
1F
100
AcDbEntity
  8
0
  6
Continuous
 62
     7
370
     0
100
AcDbLine
 10
66.4630980953
 20
125.6927471858
 30
0.0
 11
65.8665994904
 21
125.6927471858
 31
0.0
  0
LINE
  5
139
330
1F
100
AcDbEntity
  8
0
  6
Continuous
 62
     7
370
     0
100
AcDbLine
 10
65.8665994904
 20
120.0927492481
 30
0.0
 11
66.4630980953
 21
120.0927492481
 31
0.0
  0
ARC
  5
13A
330
1F
100
AcDbEntity
  8
0
  6
Continuous
 62
     7
370
     0
100
AcDbCircle
 10
62.4665996022
 20
122.8927507462
 30
0.0
 40
5.000000000000003
100
AcDbArc
 50
15.2261556909
 51
32.3360259976
  0
ARC
  5
13B
330
1F
100
AcDbEntity
  8
0
  6
Continuous
 62
     7
370
     0
100
AcDbCircle
 10
62.4665996022
 20
122.8927507462
 30
0.0
 40
5.000000000000003
100
AcDbArc
 50
327.6639740024
 51
344.7738443091
  0
LINE
  5
13C
330
1F
100
AcDbEntity
  8
0
  6
Continuous
 62
     7
370
     0
100
AcDbLine
 10
55.8665997139
 20
141.8880891304
 30
0.0
 11
58.8665995072
 21
141.8880891304
 31
0.0
  0
LINE
  5
13D
330
1F
100
AcDbEntity
  8
0
  6
Continuous
 62
     7
370
     0
100
AcDbLine
 10
58.8665995072
 20
141.8880891304
 30
0.0
 11
58.8665995072
 21
140.7365944486
 31
0.0
  0
LINE
  5
13E
330
1F
100
AcDbEntity
  8
0
  6
Continuous
 62
     7
370
     0
100
AcDbLine
 10
58.8665995072
 20
140.7365944486
 30
0.0
 11
55.8665997139
 21
140.7365944486
 31
0.0
  0
LINE
  5
13F
330
1F
100
AcDbEntity
  8
0
  6
Continuous
 62
     7
370
     0
100
AcDbLine
 10
55.8665997139
 20
140.7365944486
 30
0.0
 11
55.8665997139
 21
141.8880891304
 31
0.0
  0
ARC
  5
140
330
1F
100
AcDbEntity
  8
0
  6
Continuous
 62
     7
370
     0
100
AcDbCircle
 10
60.8051926229
 20
116.8692890804
 30
0.0
 40
2.538261343659685
100
AcDbArc
 50
139.795774948
 51
220.204225052
  0
LINE
  5
141
330
1F
100
AcDbEntity
  8
0
  6
Continuous
 62
     7
370
     0
100
AcDbLine
 10
58.8665995072
 20
115.2308058243
 30
0.0
 11
58.8665995072
 21
102.2727560502
 31
0.0
  0
LINE
  5
142
330
1F
100
AcDbEntity
  8
0
  6
Continuous
 62
     7
370
     0
100
AcDbLine
 10
55.8665997139
 20
102.2727560502
 30
0.0
 11
58.8665995072
 21
102.2727560502
 31
0.0
  0
LINE
  5
143
330
1F
100
AcDbEntity
  8
0
  6
Continuous
 62
     7
370
     0
100
AcDbLine
 10
58.8665995072
 20
140.7365944486
 30
0.0
 11
58.8665995072
 21
118.5077723365
 31
0.0
  0
LINE
  5
144
330
1F
100
AcDbEntity
  8
0
  6
Continuous
 62
     7
370
     0
100
AcDbLine
 10
55.8665997139
 20
102.2727560502
 30
0.0
 11
55.8665997139
 21
140.7365944486
 31
0.0
  0
LINE
  5
145
330
1F
100
AcDbEntity
  8
0
  6
Continuous
 62
     7
370
     0
100
AcDbLine
 10
62.8665996972
 20
141.8880891304
 30
0.0
 11
65.8665994904
 21
141.8880891304
 31
0.0
  0
LINE
  5
146
330
1F
100
AcDbEntity
  8
0
  6
Continuous
 62
     7
370
     0
100
AcDbLine
 10
65.8665994904
 20
140.7365944486
 30
0.0
 11
62.8665996972
 21
140.7365944486
 31
0.0
  0
LINE
  5
147
330
1F
100
AcDbEntity
  8
0
  6
Continuous
 62
     7
370
     0
100
AcDbLine
 10
62.8665996972
 20
140.7365944486
 30
0.0
 11
62.8665996972
 21
141.8880891304
 31
0.0
  0
LINE
  5
148
330
1F
100
AcDbEntity
  8
0
  6
Continuous
 62
     7
370
     0
100
AcDbLine
 10
65.8665994904
 20
141.8880891304
 30
0.0
 11
65.8665994904
 21
140.7365944486
 31
0.0
  0
LINE
  5
149
330
1F
100
AcDbEntity
  8
0
  6
Continuous
 62
     7
370
     0
100
AcDbLine
 10
62.8665996972
 20
102.2727560502
 30
0.0
 11
65.8665994904
 21
102.2727560502
 31
0.0
  0
LINE
  5
14A
330
1F
100
AcDbEntity
  8
0
  6
Continuous
 62
     7
370
     0
100
AcDbLine
 10
62.8665996972
 20
115.2308058243
 30
0.0
 11
62.8665996972
 21
102.2727560502
 31
0.0
  0
ARC
  5
14B
330
1F
100
AcDbEntity
  8
0
  6
Continuous
 62
     7
370
     0
100
AcDbCircle
 10
60.9280065815
 20
116.8692890804
 30
0.0
 40
2.53826134365968
100
AcDbArc
 50
319.795774948
 51
40.204225052
  0
LINE
  5
14C
330
1F
100
AcDbEntity
  8
0
  6
Continuous
 62
     7
370
     0
100
AcDbLine
 10
62.8665996972
 20
140.7365944486
 30
0.0
 11
62.8665996972
 21
118.5077723365
 31
0.0
  0
LINE
  5
14D
330
1F
100
AcDbEntity
  8
0
  6
Continuous
 62
     7
370
     0
100
AcDbLine
 10
65.8665994904
 20
102.2727560502
 30
0.0
 11
65.8665994904
 21
140.7365944486
 31
0.0
  0
LINE
  5
14E
330
1F
100
AcDbEntity
  8
0
  6
Continuous
 62
     7
370
     0
100
AcDbLine
 10
58.8665995072
 20
142.7143287163
 30
0.0
 11
62.8665996972
 21
142.7143287163
 31
0.0
  0
LINE
  5
14F
330
1F
100
AcDbEntity
  8
0
  6
Continuous
 62
     7
370
     0
100
AcDbLine
 10
65.8665994904
 20
143.4825580817
 30
0.0
 11
55.8665997139
 21
143.4825580817
 31
0.0
  0
LINE
  5
150
330
1F
100
AcDbEntity
  8
0
  6
Continuous
 62
     7
370
     0
100
AcDbLine
 10
62.8665996972
 20
142.7143287163
 30
0.0
 11
62.8665996972
 21
141.8880891304
 31
0.0
  0
LINE
  5
151
330
1F
100
AcDbEntity
  8
0
  6
Continuous
 62
     7
370
     0
100
AcDbLine
 10
58.8665995072
 20
142.7143287163
 30
0.0
 11
58.8665995072
 21
141.8880891304
 31
0.0
  0
LINE
  5
152
330
1F
100
AcDbEntity
  8
0
  6
Continuous
 62
     7
370
     0
100
AcDbLine
 10
65.8665994904
 20
141.8880891304
 30
0.0
 11
65.8665994904
 21
143.4825580817
 31
0.0
  0
LINE
  5
153
330
1F
100
AcDbEntity
  8
0
  6
Continuous
 62
     7
370
     0
100
AcDbLine
 10
55.8665997139
 20
141.8880891304
 30
0.0
 11
55.8665997139
 21
143.4825580817
 31
0.0
  0
ARC
  5
154
330
1F
100
AcDbEntity
  8
0
  6
Continuous
 62
     7
370
     0
100
AcDbCircle
 10
60.8212638526
 20
118.4477175296
 30
0.0
 40
2.556144800470141
100
AcDbArc
 50
198.0851939994
 51
223.4836393103
  0
ARC
  5
155
330
1F
100
AcDbEntity
  8
0
  6
Continuous
 62
     7
370
     0
100
AcDbCircle
 10
60.9119353517
 20
118.4477175296
 30
0.0
 40
2.556144800470141
100
AcDbArc
 50
316.5163606897
 51
341.9148060006
  0
LINE
  5
156
330
1F
100
AcDbEntity
  8
0
  6
Continuous
 62
     7
370
     0
100
AcDbLine
 10
62.8665996972
 20
119.4992583495
 30
0.0
 11
62.7665996342
 21
119.6111958724
 31
0.0
  0
LINE
  5
157
330
1F
100
AcDbEntity
  8
0
  6
Continuous
 62
     7
370
     0
100
AcDbLine
 10
58.9665995701
 20
119.6111958724
 30
0.0
 11
58.8665995072
 21
119.4992583495
 31
0.0
  0
LINE
  5
158
330
1F
100
AcDbEntity
  8
0
  6
Continuous
 62
     7
370
     0
100
AcDbLine
 10
62.8665996972
 20
116.2222843867
 30
0.0
 11
62.8665996972
 21
115.2308058243
 31
0.0
  0
LINE
  5
159
330
1F
100
AcDbEntity
  8
0
  6
Continuous
 62
     7
370
     0
100
AcDbLine
 10
58.8665995072
 20
116.2222843867
 30
0.0
 11
58.9665995701
 21
116.1103468638
 31
0.0
  0
LINE
  5
15A
330
1F
100
AcDbEntity
  8
0
  6
Continuous
 62
     7
370
     0
100
AcDbLine
 10
62.7665996342
 20
116.1103468638
 30
0.0
 11
62.8665996972
 21
116.2222843867
 31
0.0
  0
LINE
  5
15B
330
1F
100
AcDbEntity
  8
0
  6
Continuous
 62
     7
370
     0
100
AcDbLine
 10
58.8665995072
 20
116.2222843867
 30
0.0
 11
58.8665995072
 21
115.2308058243
 31
0.0
  0
LWPOLYLINE
  5
15C
330
1F
100
AcDbEntity
  8
0
  6
Continuous
 62
     7
370
     0
100
AcDbPolyline
 90
        3
 70
   128
 43
0.0
 10
62.7665996342
 20
113.249547432
 10
62.8281700681
 20
113.0184527736
 10
62.8665996972
 20
112.6336377364
  0
LWPOLYLINE
  5
15D
330
1F
100
AcDbEntity
  8
0
  6
Continuous
 62
     7
370
     0
100
AcDbPolyline
 90
        3
 70
   128
 43
0.0
 10
58.8665995072
 20
112.6336377364
 10
58.9050291362
 20
113.0184527736
 10
58.9665995701
 20
113.249547432
  0
LINE
  5
15E
330
1F
100
AcDbEntity
  8
0
  6
Continuous
 62
     7
370
     0
100
AcDbLine
 10
55.8665997139
 20
147.5036364298
 30
0.0
 11
65.8665994904
 21
147.5036364298
 31
0.0
  0
LINE
  5
15F
330
1F
100
AcDbEntity
  8
0
  6
Continuous
 62
     7
370
     0
100
AcDbLine
 10
65.8665994904
 20
147.5036364298
 30
0.0
 11
65.8665994904
 21
143.4825580817
 31
0.0
  0
LINE
  5
160
330
1F
100
AcDbEntity
  8
0
  6
Continuous
 62
     7
370
     0
100
AcDbLine
 10
55.8665997139
 20
143.4825580817
 30
0.0
 11
55.8665997139
 21
147.5036364298
 31
0.0
  0
LINE
  5
161
330
1F
100
AcDbEntity
  8
0
  6
Continuous
 62
     7
370
     0
100
AcDbLine
 10
55.8665997139
 20
176.5097189944
 30
0.0
 11
58.066599702
 21
176.5097189944
 31
0.0
  0
LINE
  5
162
330
1F
100
AcDbEntity
  8
0
  6
Continuous
 62
     7
370
     0
100
AcDbLine
 10
58.066599702
 20
174.2481474083
 30
0.0
 11
58.066599702
 21
176.5097189944
 31
0.0
  0
ARC
  5
163
330
1F
100
AcDbEntity
  8
0
  6
Continuous
 62
     7
370
     0
100
AcDbCircle
 10
60.9061641809
 20
174.2639661998
 30
0.0
 40
2.760480646185012
100
AcDbArc
 50
288.0669133618
 51
359.6716677041
  0
ARC
  5
164
330
1F
100
AcDbEntity
  8
0
  6
Continuous
 62
     7
370
     0
100
AcDbCircle
 10
60.8270350234
 20
174.2639661998
 30
0.0
 40
2.760480646185012
100
AcDbArc
 50
180.3283322959
 51
251.9330866382
  0
LINE
  5
165
330
1F
100
AcDbEntity
  8
0
  6
Continuous
 62
     7
370
     0
100
AcDbLine
 10
63.6665995023
 20
176.5097189944
 30
0.0
 11
63.6665995023
 21
174.2481474083
 31
0.0
  0
LINE
  5
166
330
1F
100
AcDbEntity
  8
0
  6
Continuous
 62
     7
370
     0
100
AcDbLine
 10
63.6665995023
 20
176.5097189944
 30
0.0
 11
65.8665994904
 21
176.5097189944
 31
0.0
  0
ARC
  5
167
330
1F
100
AcDbEntity
  8
0
  6
Continuous
 62
     7
370
     0
100
AcDbCircle
 10
60.8665996022
 20
153.8996721154
 30
0.0
 40
2.239607415043101
100
AcDbArc
 50
153.254424191
 51
26.745575809
  0
ARC
  5
168
330
1F
100
AcDbEntity
  8
0
  6
Continuous
 62
     7
370
     0
100
AcDbCircle
 10
60.8665996022
 20
168.6490492231
 30
0.0
 40
2.239607801289668
100
AcDbArc
 50
153.2544045831
 51
26.7455954169
  0
LINE
  5
169
330
1F
100
AcDbEntity
  8
0
  6
Continuous
 62
     7
370
     0
100
AcDbLine
 10
58.066599702
 20
159.4987731677
 30
0.0
 11
58.066599702
 21
163.0386185151
 31
0.0
  0
ARC
  5
16A
330
1F
100
AcDbEntity
  8
0
  6
Continuous
 62
     7
370
     0
100
AcDbCircle
 10
60.9061619378
 20
159.5145898488
 30
0.0
 40
2.760482877202517
100
AcDbArc
 50
288.0669472288
 51
359.6717117712
  0
ARC
  5
16B
330
1F
100
AcDbEntity
  8
0
  6
Continuous
 62
     7
370
     0
100
AcDbCircle
 10
60.8270372666
 20
159.5145898488
 30
0.0
 40
2.760482877202517
100
AcDbArc
 50
180.3282882288
 51
251.9330527712
  0
LINE
  5
16C
330
1F
100
AcDbEntity
  8
0
  6
Continuous
 62
     7
370
     0
100
AcDbLine
 10
63.6665995023
 20
163.0386185151
 30
0.0
 11
63.6665995023
 21
159.4987731677
 31
0.0
  0
ARC
  5
16D
330
1F
100
AcDbEntity
  8
0
  6
Continuous
 62
     7
370
     0
100
AcDbCircle
 10
60.8665996022
 20
163.0026767272
 30
0.0
 40
2.800230571403696
100
AcDbArc
 50
0.7354284758
 51
179.2645715242
  0
LINE
  5
16E
330
1F
100
AcDbEntity
  8
0
  6
Continuous
 62
     7
370
     0
100
AcDbLine
 10
65.8665994904
 20
147.5036364298
 30
0.0
 11
65.8665994904
 21
176.5097189944
 31
0.0
  0
LINE
  5
16F
330
1F
100
AcDbEntity
  8
0
  6
Continuous
 62
     7
370
     0
100
AcDbLine
 10
55.8665997139
 20
147.5036364298
 30
0.0
 11
55.8665997139
 21
176.5097189944
 31
0.0
  0
ARC
  5
170
330
1F
100
AcDbEntity
  8
0
  6
Continuous
 62
     7
370
     0
100
AcDbCircle
 10
60.932137087
 20
153.3464608497
 30
0.0
 40
2.184573487899482
100
AcDbArc
 50
7.2182416984
 51
27.6855993372
  0
ARC
  5
171
330
1F
100
AcDbEntity
  8
0
  6
Continuous
 62
     7
370
     0
100
AcDbCircle
 10
60.8010621174
 20
153.3464608497
 30
0.0
 40
2.184573487899489
100
AcDbArc
 50
152.3144006628
 51
172.7817583016
  0
ARC
  5
172
330
1F
100
AcDbEntity
  8
0
  6
Continuous
 62
     7
370
     0
100
AcDbCircle
 10
60.8372458405
 20
159.4610686851
 30
0.0
 40
2.470704039012208
100
AcDbArc
 50
180.392106963
 51
258.9979709169
  0
ARC
  5
173
330
1F
100
AcDbEntity
  8
0
  6
Continuous
 62
     7
370
     0
100
AcDbCircle
 10
60.8959533639
 20
159.4610686851
 30
0.0
 40
2.470704039012207
100
AcDbArc
 50
281.0020290831
 51
359.607893037
  0
LINE
  5
174
330
1F
100
AcDbEntity
  8
0
  6
Continuous
 62
     7
370
     0
100
AcDbLine
 10
63.3665995463
 20
159.4441604119
 30
0.0
 11
63.6665995023
 21
159.4987731677
 31
0.0
  0
LINE
  5
175
330
1F
100
AcDbEntity
  8
0
  6
Continuous
 62
     7
370
     0
100
AcDbLine
 10
58.3665996581
 20
159.4441604119
 30
0.0
 11
58.066599702
 21
159.4987731677
 31
0.0
  0
LINE
  5
176
330
1F
100
AcDbEntity
  8
0
  6
Continuous
 62
     7
370
     0
100
AcDbLine
 10
58.3665996581
 20
162.9840132099
 30
0.0
 11
58.3665996581
 21
159.4441604119
 31
0.0
  0
LINE
  5
177
330
1F
100
AcDbEntity
  8
0
  6
Continuous
 62
     7
370
     0
100
AcDbLine
 10
58.066599702
 20
163.0386185151
 30
0.0
 11
58.3665996581
 21
162.9840132099
 31
0.0
  0
LINE
  5
178
330
1F
100
AcDbEntity
  8
0
  6
Continuous
 62
     7
370
     0
100
AcDbLine
 10
63.3665995463
 20
159.4441604119
 30
0.0
 11
63.3665995463
 21
162.9840132099
 31
0.0
  0
LINE
  5
179
330
1F
100
AcDbEntity
  8
0
  6
Continuous
 62
     7
370
     0
100
AcDbLine
 10
63.6665995023
 20
163.0386185151
 30
0.0
 11
63.3665995463
 21
162.9840132099
 31
0.0
  0
ARC
  5
17A
330
1F
100
AcDbEntity
  8
0
  6
Continuous
 62
     7
370
     0
100
AcDbCircle
 10
60.8665996022
 20
162.9511063772
 30
0.0
 40
2.500216506672921
100
AcDbArc
 50
0.7541255179
 51
179.2458744821
  0
ARC
  5
17B
330
1F
100
AcDbEntity
  8
0
  6
Continuous
 62
     7
370
     0
100
AcDbCircle
 10
60.8665996022
 20
162.6780563641
 30
0.0
 40
2.500216423562518
100
AcDbArc
 50
0.7539808088
 51
179.2460191912
  0
ARC
  5
17C
330
1F
100
AcDbEntity
  8
0
  6
Continuous
 62
     7
370
     0
100
AcDbCircle
 10
60.9321457038
 20
168.0958364184
 30
0.0
 40
2.184565240574103
100
AcDbArc
 50
7.2183324705
 51
27.685673497
  0
ARC
  5
17D
330
1F
100
AcDbEntity
  8
0
  6
Continuous
 62
     7
370
     0
100
AcDbCircle
 10
60.8010535005
 20
168.0958364184
 30
0.0
 40
2.184565240574103
100
AcDbArc
 50
152.314326503
 51
172.7816675295
  0
ARC
  5
17E
330
1F
100
AcDbEntity
  8
0
  6
Continuous
 62
     7
370
     0
100
AcDbCircle
 10
60.837248691
 20
174.2104452657
 30
0.0
 40
2.470706880011219
100
AcDbArc
 50
180.3920743864
 51
258.9979163837
  0
ARC
  5
17F
330
1F
100
AcDbEntity
  8
0
  6
Continuous
 62
     7
370
     0
100
AcDbCircle
 10
60.8959505133
 20
174.2104452657
 30
0.0
 40
2.470706880011219
100
AcDbArc
 50
281.0020836163
 51
359.6079256136
  0
LINE
  5
180
330
1F
100
AcDbEntity
  8
0
  6
Continuous
 62
     7
370
     0
100
AcDbLine
 10
63.3665995463
 20
174.1935383778
 30
0.0
 11
63.6665995023
 21
174.2481474083
 31
0.0
  0
LINE
  5
181
330
1F
100
AcDbEntity
  8
0
  6
Continuous
 62
     7
370
     0
100
AcDbLine
 10
58.3665996581
 20
174.1935383778
 30
0.0
 11
58.066599702
 21
174.2481474083
 31
0.0
  0
LINE
  5
182
330
1F
100
AcDbEntity
  8
0
  6
Continuous
 62
     7
370
     0
100
AcDbLine
 10
58.3665996581
 20
176.4551062386
 30
0.0
 11
58.3665996581
 21
174.1935383778
 31
0.0
  0
LINE
  5
183
330
1F
100
AcDbEntity
  8
0
  6
Continuous
 62
     7
370
     0
100
AcDbLine
 10
58.066599702
 20
176.5097189944
 30
0.0
 11
58.3665996581
 21
176.4551062386
 31
0.0
  0
LINE
  5
184
330
1F
100
AcDbEntity
  8
0
  6
Continuous
 62
     7
370
     0
100
AcDbLine
 10
63.3665995463
 20
174.1935383778
 30
0.0
 11
63.3665995463
 21
176.4551062386
 31
0.0
  0
LINE
  5
185
330
1F
100
AcDbEntity
  8
0
  6
Continuous
 62
     7
370
     0
100
AcDbLine
 10
63.3665995463
 20
176.4551062386
 30
0.0
 11
63.6665995023
 21
176.5097189944
 31
0.0
  0
LINE
  5
186
330
1F
100
AcDbEntity
  8
0
  6
Continuous
 62
     7
370
     0
100
AcDbLine
 10
63.3665995463
 20
176.1820536356
 30
0.0
 11
58.3665996581
 21
176.1820536356
 31
0.0
  0
LINE
  5
187
330
1F
100
AcDbEntity
  8
0
  6
Continuous
 62
     7
370
     0
100
AcDbLine
 10
62.7665996342
 20
108.9962791901
 30
0.0
 11
62.8665996972
 21
109.1861721378
 31
0.0
  0
LWPOLYLINE
  5
188
330
1F
100
AcDbEntity
  8
0
  6
Continuous
 62
     7
370
     0
100
AcDbPolyline
 90
        3
 70
   128
 43
0.0
 10
62.8665996972
 20
110.9940033656
 10
62.7718554367
 20
111.1749630671
 10
62.7665996342
 20
111.1838963132
  0
LWPOLYLINE
  5
189
330
1F
100
AcDbEntity
  8
0
  6
Continuous
 62
     7
370
     0
100
AcDbPolyline
 90
        3
 70
   128
 43
0.0
 10
58.9665995701
 20
111.1838963132
 10
58.9613437676
 20
111.1749630671
 10
58.8665995072
 20
110.9940033656
  0
LINE
  5
18A
330
1F
100
AcDbEntity
  8
0
  6
Continuous
 62
     7
370
     0
100
AcDbLine
 10
58.8665995072
 20
109.1861721378
 30
0.0
 11
58.9665995701
 21
108.9962791901
 31
0.0
  0
LINE
  5
18B
330
1F
100
AcDbEntity
  8
0
  6
Continuous
 62
     7
370
     0
100
AcDbLine
 10
62.7665996342
 20
109.1615256172
 30
0.0
 11
62.8665996972
 21
109.3514185648
 31
0.0
  0
LINE
  5
18C
330
1F
100
AcDbEntity
  8
0
  6
Continuous
 62
     7
370
     0
100
AcDbLine
 10
58.8665995072
 20
109.3514185648
 30
0.0
 11
58.9665995701
 21
109.1615256172
 31
0.0
  0
LWPOLYLINE
  5
18D
330
1F
100
AcDbEntity
  8
0
  6
Continuous
 62
     7
370
     0
100
AcDbPolyline
 90
        3
 70
   128
 43
0.0
 10
62.7665996342
 20
109.2079576354
 10
62.8067466221
 20
109.2974987131
 10
62.8665996972
 20
109.4585802656
  0
LWPOLYLINE
  5
18E
330
1F
100
AcDbEntity
  8
0
  6
Continuous
 62
     7
370
     0
100
AcDbPolyline
 90
        3
 70
   128
 43
0.0
 10
62.8665996972
 20
110.7215952378
 10
62.8067466221
 20
110.8826767903
 10
62.7665996342
 20
110.9722178679
  0
LWPOLYLINE
  5
18F
330
1F
100
AcDbEntity
  8
0
  6
Continuous
 62
     7
370
     0
100
AcDbPolyline
 90
        3
 70
   128
 43
0.0
 10
58.9665995701
 20
110.9722178679
 10
58.9264525823
 20
110.8826767903
 10
58.8665995072
 20
110.7215952378
  0
LWPOLYLINE
  5
190
330
1F
100
AcDbEntity
  8
0
  6
Continuous
 62
     7
370
     0
100
AcDbPolyline
 90
        3
 70
   128
 43
0.0
 10
58.8665995072
 20
109.4585802656
 10
58.9264525823
 20
109.2974987131
 10
58.9665995701
 20
109.2079576354
  0
LWPOLYLINE
  5
191
330
1F
100
AcDbEntity
  8
0
  6
Continuous
 62
     7
370
     0
100
AcDbPolyline
 90
        3
 70
   128
 43
0.0
 10
62.8665996972
 20
110.8868491154
 10
62.8067466221
 20
111.0479232173
 10
62.7665996342
 20
111.137464295
  0
LWPOLYLINE
  5
192
330
1F
100
AcDbEntity
  8
0
  6
Continuous
 62
     7
370
     0
100
AcDbPolyline
 90
        3
 70
   128
 43
0.0
 10
58.9665995701
 20
111.137464295
 10
58.9264525823
 20
111.0479232173
 10
58.8665995072
 20
110.8868491154
  0
CIRCLE
  5
193
330
1F
100
AcDbEntity
  8
0
  6
Continuous
 62
     7
370
     0
100
AcDbCircle
 10
60.8735247796
 20
155.1906024132
 30
0.0
 40
1.791839754279341
  0
CIRCLE
  5
194
330
1F
100
AcDbEntity
  8
0
  6
Continuous
 62
     7
370
     0
100
AcDbCircle
 10
60.8825602929
 20
155.1550441395
 30
0.0
 40
1.986987603262218
  0
ARC
  5
195
330
1F
100
AcDbEntity
  8
0
  6
Continuous
 62
     7
370
     0
100
AcDbCircle
 10
60.9288036208
 20
153.3846218061
 30
0.0
 40
1.93779610224348
100
AcDbArc
 50
337.1271222582
 51
359.9906384301
  0
ARC
  5
196
330
1F
100
AcDbEntity
  8
0
  6
Continuous
 62
     7
370
     0
100
AcDbCircle
 10
60.8042457736
 20
153.3845914872
 30
0.0
 40
1.937646287608736
100
AcDbArc
 50
180.008465771
 51
202.8737735407
  0
CIRCLE
  5
197
330
1F
100
AcDbEntity
  8
0
  6
Continuous
 62
     7
370
     0
100
AcDbCircle
 10
60.8735408264
 20
169.9399838989
 30
0.0
 40
1.791842029369603
  0
CIRCLE
  5
198
330
1F
100
AcDbEntity
  8
0
  6
Continuous
 62
     7
370
     0
100
AcDbCircle
 10
60.8825767908
 20
169.9044244564
 30
0.0
 40
1.986985125714732
  0
ARC
  5
199
330
1F
100
AcDbEntity
  8
0
  6
Continuous
 62
     7
370
     0
100
AcDbCircle
 10
60.9287928699
 20
168.133998221
 30
0.0
 40
1.937806852890375
100
AcDbArc
 50
337.1271865813
 51
359.9906843429
  0
ARC
  5
19A
330
1F
100
AcDbEntity
  8
0
  6
Continuous
 62
     7
370
     0
100
AcDbCircle
 10
60.8042561076
 20
168.1339678179
 30
0.0
 40
1.93765662133866
100
AcDbArc
 50
180.0084173708
 51
202.873711705
  0
LINE
  5
19B
330
1F
100
AcDbEntity
  8
0
  6
Continuous
 62
     7
370
     0
100
AcDbLine
 10
58.9665995701
 20
140.3889429074
 30
0.0
 11
62.7665996342
 21
140.3889429074
 31
0.0
  0
LINE
  5
19C
330
1F
100
AcDbEntity
  8
0
  6
Continuous
 62
     7
370
     0
100
AcDbLine
 10
62.7665996342
 20
140.9199755888
 30
0.0
 11
58.9665995701
 21
140.9199755888
 31
0.0
  0
LINE
  5
19D
330
1F
100
AcDbEntity
  8
0
  6
Continuous
 62
     7
370
     0
100
AcDbLine
 10
62.7665996342
 20
140.3889429074
 30
0.0
 11
62.7665996342
 21
140.9199755888
 31
0.0
  0
LINE
  5
19E
330
1F
100
AcDbEntity
  8
0
  6
Continuous
 62
     7
370
     0
100
AcDbLine
 10
58.9665995701
 20
140.3889429074
 30
0.0
 11
58.9665995701
 21
140.9199755888
 31
0.0
  0
LINE
  5
19F
330
1F
100
AcDbEntity
  8
0
  6
Continuous
 62
     7
370
     0
100
AcDbLine
 10
58.9665995701
 20
134.4308626156
 30
0.0
 11
62.7665996342
 21
134.4308626156
 31
0.0
  0
LINE
  5
1A0
330
1F
100
AcDbEntity
  8
0
  6
Continuous
 62
     7
370
     0
100
AcDbLine
 10
62.7665996342
 20
134.4308626156
 30
0.0
 11
62.7665996342
 21
140.3889429074
 31
0.0
  0
LINE
  5
1A1
330
1F
100
AcDbEntity
  8
0
  6
Continuous
 62
     7
370
     0
100
AcDbLine
 10
58.9665995701
 20
134.4308626156
 30
0.0
 11
58.9665995701
 21
140.3889429074
 31
0.0
  0
LINE
  5
1A2
330
1F
100
AcDbEntity
  8
0
  6
Continuous
 62
     7
370
     0
100
AcDbLine
 10
58.9665995701
 20
104.1769903403
 30
0.0
 11
62.7665996342
 21
104.1769903403
 31
0.0
  0
LINE
  5
1A3
330
1F
100
AcDbEntity
  8
0
  6
Continuous
 62
     7
370
     0
100
AcDbLine
 10
62.7665996342
 20
104.1769903403
 30
0.0
 11
62.7665996342
 21
134.4308626156
 31
0.0
  0
LINE
  5
1A4
330
1F
100
AcDbEntity
  8
0
  6
Continuous
 62
     7
370
     0
100
AcDbLine
 10
58.9665995701
 20
104.1769903403
 30
0.0
 11
58.9665995701
 21
134.4308626156
 31
0.0
  0
LINE
  5
1A5
330
1F
100
AcDbEntity
  8
0
  6
Continuous
 62
     7
370
     0
100
AcDbLine
 10
62.7665996342
 20
104.1769903403
 30
0.0
 11
62.7665996342
 21
102.8772514563
 31
0.0
  0
LINE
  5
1A6
330
1F
100
AcDbEntity
  8
0
  6
Continuous
 62
     7
370
     0
100
AcDbLine
 10
58.9665995701
 20
102.8772514563
 30
0.0
 11
58.9665995701
 21
104.1769903403
 31
0.0
  0
ARC
  5
1A7
330
1F
100
AcDbEntity
  8
0
  6
Continuous
 62
     7
370
     0
100
AcDbCircle
 10
54.5529894479
 20
124.1843560016
 30
0.0
 40
1.689672420787301
100
AcDbArc
 50
261.8137501988
 51
266.6573445252
  0
ARC
  5
1A8
330
1F
100
AcDbEntity
  8
0
  6
Continuous
 62
     7
370
     0
100
AcDbCircle
 10
59.9171482254
 20
122.8674907487
 30
0.0
 40
5.475190520650143
100
AcDbArc
 50
176.1258460785
 51
183.8741539215
  0
ARC
  5
1A9
330
1F
100
AcDbEntity
  8
0
  6
Continuous
 62
     7
370
     0
100
AcDbCircle
 10
54.5524210802
 20
124.9194571241
 30
0.0
 40
1.684883528121824
100
AcDbArc
 50
261.8098497814
 51
266.6671936828
  0
LINE
  5
1AA
330
1F
100
AcDbEntity
  8
0
  6
Continuous
 62
     7
370
     0
100
AcDbLine
 10
54.3123946316
 20
123.2517581683
 30
0.0
 11
54.3123946316
 21
123.4502490859
 31
0.0
  0
ARC
  5
1AB
330
1F
100
AcDbEntity
  8
0
  6
Continuous
 62
     7
370
     0
100
AcDbCircle
 10
59.2650895625
 20
122.8855412151
 30
0.0
 40
4.984785056385773
100
AcDbArc
 50
164.8096683967
 51
173.4952085078
  0
ARC
  5
1AC
330
1F
100
AcDbEntity
  8
0
  6
Continuous
 62
     7
370
     0
100
AcDbCircle
 10
54.4659880877
 20
124.214564042
 30
0.0
 40
0.0256140603747044
100
AcDbArc
 50
200.6362223101
 51
243.2751677474
  0
ARC
  5
1AD
330
1F
100
AcDbEntity
  8
0
  6
Continuous
 62
     7
370
     0
100
AcDbCircle
 10
59.2648498934
 20
122.8998865811
 30
0.0
 40
4.98454321432865
100
AcDbArc
 50
164.8093930448
 51
173.4952710192
  0
LINE
  5
1AE
330
1F
100
AcDbEntity
  8
0
  6
Continuous
 62
     7
370
     0
100
AcDbLine
 10
54.3123946316
 20
123.4645616513
 30
0.0
 11
54.3123946316
 21
123.4502490859
 31
0.0
  0
ARC
  5
1AF
330
1F
100
AcDbEntity
  8
0
  6
Continuous
 62
     7
370
     0
100
AcDbCircle
 10
59.9108869893
 20
122.9182310583
 30
0.0
 40
5.468928837310311
100
AcDbArc
 50
176.6517039251
 51
180.2669354721
  0
ARC
  5
1B0
330
1F
100
AcDbEntity
  8
0
  6
Continuous
 62
     7
370
     0
100
AcDbCircle
 10
54.5529894479
 20
120.8612828778
 30
0.0
 40
1.689672420796431
100
AcDbArc
 50
93.3426554748
 51
98.1862498012
  0
LINE
  5
1B1
330
1F
100
AcDbEntity
  8
0
  6
Continuous
 62
     7
370
     0
100
AcDbLine
 10
54.3123946316
 20
122.5337382656
 30
0.0
 11
54.3123946316
 21
122.5119006138
 31
0.0
  0
LWPOLYLINE
  5
1B2
330
1F
100
AcDbEntity
  8
0
  6
Continuous
 62
     7
370
     0
100
AcDbPolyline
 90
        9
 70
   128
 43
0.0
 10
54.4544692873
 20
121.5795126062
 10
54.4489973015
 20
121.5785663825
 10
54.4450871437
 20
121.5784099203
 10
54.4427406765
 20
121.5790283185
 10
54.4419583655
 20
121.5804290276
 10
54.4427406765
 20
121.5826045971
 10
54.4450871437
 20
121.5855624776
 10
54.4489973015
 20
121.5893026691
 10
54.451293943
 20
121.5912621718
  0
ARC
  5
1B3
330
1F
100
AcDbEntity
  8
0
  6
Continuous
 62
     7
370
     0
100
AcDbCircle
 10
59.264679014
 20
122.885584559
 30
0.0
 40
4.984369725536847
100
AcDbArc
 50
186.5045775278
 51
195.1907584082
  0
LINE
  5
1B4
330
1F
100
AcDbEntity
  8
0
  6
Continuous
 62
     7
370
     0
100
AcDbLine
 10
54.3123946316
 20
122.3209422331
 30
0.0
 11
54.3123946316
 21
122.5119006138
 31
0.0
  0
LINE
  5
1B5
330
1F
100
AcDbEntity
  8
0
  6
Continuous
 62
     7
370
     0
100
AcDbLine
 10
54.4544692873
 20
122.5121315818
 30
0.0
 11
54.3123946316
 21
122.5119006138
 31
0.0
  0
LINE
  5
1B6
330
1F
100
AcDbEntity
  8
0
  6
Continuous
 62
     7
370
     0
100
AcDbLine
 10
54.3123946316
 20
122.5337382656
 30
0.0
 11
54.4544692873
 21
122.5335072976
 31
0.0
  0
ARC
  5
1B7
330
1F
100
AcDbEntity
  8
0
  6
Continuous
 62
     7
370
     0
100
AcDbCircle
 10
61.8269241619
 20
122.8511280214
 30
0.0
 40
5.464317353188989
100
AcDbArc
 50
356.9847678166
 51
0.4364494044
  0
ARC
  5
1B8
330
1F
100
AcDbEntity
  8
0
  6
Continuous
 62
     7
370
     0
100
AcDbCircle
 10
67.1778830349
 20
124.273483927
 30
0.0
 40
1.057079700495484
100
AcDbArc
 50
275.4744232039
 51
283.2855546481
  0
LINE
  5
1B9
330
1F
100
AcDbEntity
  8
0
  6
Continuous
 62
     7
370
     0
100
AcDbLine
 10
67.4208045728
 20
123.2446950179
 30
0.0
 11
67.4208045728
 21
123.280435453
 31
0.0
  0
LWPOLYLINE
  5
1BA
330
1F
100
AcDbEntity
  8
0
  6
Continuous
 62
     7
370
     0
100
AcDbPolyline
 90
        9
 70
   128
 43
0.0
 10
67.278729917
 20
124.210133801
 10
67.2842019028
 20
124.2099400859
 10
67.2881120607
 20
124.2089640599
 10
67.2904585279
 20
124.2072057229
 10
67.2912408388
 20
124.2046650749
 10
67.2904585279
 20
124.2013421159
 10
67.2881120607
 20
124.1972442966
 10
67.2842019028
 20
124.1923716169
 10
67.2836766369
 20
124.191783021
  0
ARC
  5
1BB
330
1F
100
AcDbEntity
  8
0
  6
Continuous
 62
     7
370
     0
100
AcDbCircle
 10
62.471612051
 20
122.9044785166
 30
0.0
 40
4.981276733842727
100
AcDbArc
 50
6.5064840103
 51
15.1954520262
  0
LINE
  5
1BC
330
1F
100
AcDbEntity
  8
0
  6
Continuous
 62
     7
370
     0
100
AcDbLine
 10
67.4208045728
 20
123.4689351421
 30
0.0
 11
67.4208045728
 21
123.280435453
 31
0.0
  0
ARC
  5
1BD
330
1F
100
AcDbEntity
  8
0
  6
Continuous
 62
     7
370
     0
100
AcDbCircle
 10
67.1778830349
 20
122.2516465438
 30
0.0
 40
1.057079700498988
100
AcDbArc
 50
76.7144453519
 51
84.5255767961
  0
ARC
  5
1BE
330
1F
100
AcDbEntity
  8
0
  6
Continuous
 62
     7
370
     0
100
AcDbCircle
 10
61.8195758075
 20
122.9340914886
 30
0.0
 40
5.471665693642113
100
AcDbArc
 50
356.1245976937
 51
3.8754023063
  0
ARC
  5
1BF
330
1F
100
AcDbEntity
  8
0
  6
Continuous
 62
     7
370
     0
100
AcDbCircle
 10
67.1772309432
 20
121.5080724346
 30
0.0
 40
1.061071463626427
100
AcDbArc
 50
76.7291608053
 51
84.5108613426
  0
LINE
  5
1C0
330
1F
100
AcDbEntity
  8
0
  6
Continuous
 62
     7
370
     0
100
AcDbLine
 10
67.4208045728
 20
122.5408088665
 30
0.0
 11
67.4208045728
 21
122.3399859171
 31
0.0
  0
ARC
  5
1C1
330
1F
100
AcDbEntity
  8
0
  6
Continuous
 62
     7
370
     0
100
AcDbCircle
 10
62.4712016492
 20
122.9045080841
 30
0.0
 40
4.981691919214492
100
AcDbArc
 50
344.8049750317
 51
353.4933019002
  0
ARC
  5
1C2
330
1F
100
AcDbEntity
  8
0
  6
Continuous
 62
     7
370
     0
100
AcDbCircle
 10
67.2634037514
 20
121.5753402998
 30
0.0
 40
0.0280053901826281
100
AcDbArc
 50
8.752977769
 51
56.8209170273
  0
ARC
  5
1C3
330
1F
100
AcDbEntity
  8
0
  6
Continuous
 62
     7
370
     0
100
AcDbCircle
 10
62.471026289
 20
122.8811301974
 30
0.0
 40
4.981871446326385
100
AcDbArc
 50
344.805067594
 51
353.4929963695
  0
LINE
  5
1C4
330
1F
100
AcDbEntity
  8
0
  6
Continuous
 62
     7
370
     0
100
AcDbLine
 10
67.4208045728
 20
122.3165612917
 30
0.0
 11
67.4208045728
 21
122.3399859171
 31
0.0
  0
LINE
  5
1C5
330
1F
100
AcDbEntity
  8
0
  6
Continuous
 62
     7
370
     0
100
AcDbLine
 10
67.2691456764
 20
123.2800331216
 30
0.0
 11
67.4208045728
 21
123.280435453
 31
0.0
  0
LINE
  5
1C6
330
1F
100
AcDbEntity
  8
0
  6
Continuous
 62
     7
370
     0
100
AcDbLine
 10
67.4208045728
 20
123.2446950179
 30
0.0
 11
67.278729917
 21
123.2450675469
 31
0.0
  0
LINE
  5
1C7
330
1F
100
AcDbEntity
  8
0
  6
Continuous
 62
     7
370
     0
100
AcDbLine
 10
62.8665996972
 20
106.4099964004
 30
0.0
 11
62.7665996342
 21
106.4099964004
 31
0.0
  0
LINE
  5
1C8
330
1F
100
AcDbEntity
  8
0
  6
Continuous
 62
     7
370
     0
100
AcDbLine
 10
58.9665995701
 20
106.4099964004
 30
0.0
 11
58.8665995072
 21
106.4099964004
 31
0.0
  0
LINE
  5
1C9
330
1F
100
AcDbEntity
  8
0
  6
Continuous
 62
     1
370
     0
100
AcDbLine
 10
58.8665995072
 20
136.3964449864
 30
0.0
 11
58.9665995701
 21
136.3964449864
 31
0.0
  0
LINE
  5
1CA
330
1F
100
AcDbEntity
  8
0
  6
Continuous
 62
     1
370
     0
100
AcDbLine
 10
62.7665996342
 20
136.3964449864
 30
0.0
 11
62.8665996972
 21
136.3964449864
 31
0.0
  0
LINE
  5
1CB
330
1F
100
AcDbEntity
  8
0
  6
Continuous
 62
     1
370
     0
100
AcDbLine
 10
62.8665996972
 20
108.7416555982
 30
0.0
 11
62.7665996342
 21
108.7416555982
 31
0.0
  0
LINE
  5
1CC
330
1F
100
AcDbEntity
  8
0
  6
Continuous
 62
     1
370
     0
100
AcDbLine
 10
58.9665995701
 20
108.7416555982
 30
0.0
 11
58.8665995072
 21
108.7416555982
 31
0.0
  0
ARC
  5
1CD
330
1F
100
AcDbEntity
  8
0
  6
Continuous
 62
     1
370
     0
100
AcDbCircle
 10
60.8008305506
 20
153.3469855349
 30
0.0
 40
2.134259355653725
100
AcDbArc
 50
154.9958821453
 51
177.9321900343
  0
ARC
  5
1CE
330
1F
100
AcDbEntity
  8
0
  6
Continuous
 62
     1
370
     0
100
AcDbCircle
 10
60.9340696587
 20
153.3473950395
 30
0.0
 40
2.132544710957956
100
AcDbArc
 50
2.0584638485
 51
25.0134639719
  0
ARC
  5
1CF
330
1F
100
AcDbEntity
  8
0
  6
Continuous
 62
     1
370
     0
100
AcDbCircle
 10
60.800816762
 20
168.096363095
 30
0.0
 40
2.134245456271678
100
AcDbArc
 50
154.9958064447
 51
177.9322657349
  0
ARC
  5
1D0
330
1F
100
AcDbEntity
  8
0
  6
Continuous
 62
     1
370
     0
100
AcDbCircle
 10
60.9340935497
 20
168.0967750317
 30
0.0
 40
2.132520628754989
100
AcDbArc
 50
2.058332473
 51
25.0135953475
  0
LINE
  5
1D1
330
1F
100
AcDbEntity
  8
0
  6
Continuous
 62
     1
370
     0
100
AcDbLine
 10
55.0419713161
 20
125.5666684609
 30
0.0
 11
55.0419713161
 21
125.5671676498
 31
0.0
  0
LINE
  5
1D2
330
1F
100
AcDbEntity
  8
0
  6
Continuous
 62
     1
370
     0
100
AcDbLine
 10
55.0419713161
 20
120.218328784
 30
0.0
 11
55.0419713161
 21
125.5666684609
 31
0.0
  0
LINE
  5
1D3
330
1F
100
AcDbEntity
  8
0
  6
Continuous
 62
     1
370
     0
100
AcDbLine
 10
55.2701011091
 20
125.6922256451
 30
0.0
 11
55.2701011091
 21
125.6927471858
 31
0.0
  0
LINE
  5
1D4
330
1F
100
AcDbEntity
  8
0
  6
Continuous
 62
     1
370
     0
100
AcDbLine
 10
55.2701011091
 20
120.0927492481
 30
0.0
 11
55.2701011091
 21
125.6922256451
 31
0.0
  0
LINE
  5
1D5
330
1F
100
AcDbEntity
  8
0
  6
Continuous
 62
     1
370
     0
100
AcDbLine
 10
66.6912278882
 20
125.5671676498
 30
0.0
 11
66.6912278882
 21
120.218328784
 31
0.0
  0
LINE
  5
1D6
330
1F
100
AcDbEntity
  8
0
  6
Continuous
 62
     1
370
     0
100
AcDbLine
 10
66.4630980953
 20
125.6927471858
 30
0.0
 11
66.4630980953
 21
120.0927492481
 31
0.0
  0
DIMENSION
  5
1D7
330
1F
100
AcDbEntity
  8
0
  6
Continuous
 62
     7
370
     0
100
AcDbDimension
  2
_D_1
 10
49.3123947223
 20
102.272757535
 30
0.0
 11
49.3123947223
 21
139.3912382019
 31
0.0
 70
   160
  1
(<>)
 71
     2
 42
-1.0
  3
SLDDIMSTYLE0
100
AcDbAlignedDimension
 13
55.8665996022
 23
176.5097188687
 33
0.0
 14
55.8665996022
 24
102.272757535
 34
0.0
 50
90.0
100
AcDbRotatedDimension
  0
DIMENSION
  5
1E3
330
1F
100
AcDbEntity
  8
0
  6
Continuous
 62
     7
370
     0
100
AcDbDimension
  2
_D_2
 10
67.4208044821
 20
96.2899680211
 30
0.0
 11
60.8665996022
 21
96.2899680211
 31
0.0
 70
   160
  1
<>
 71
     2
 42
-1.0
  3
SLDDIMSTYLE2
100
AcDbAlignedDimension
 13
54.3123947223
 23
122.5337399695
 33
0.0
 14
67.4208044821
 24
122.5408085118
 34
0.0
100
AcDbRotatedDimension
  0
LINE
  5
1F0
330
1F
100
AcDbEntity
  8
0
  6
Continuous
 62
     7
370
     0
100
AcDbLine
 10
102.989284529
 20
232.8331541531
 30
0.0
 11
102.989284529
 21
232.933154216
 31
0.0
  0
LINE
  5
1F1
330
1F
100
AcDbEntity
  8
0
  6
Continuous
 62
     7
370
     0
100
AcDbLine
 10
102.989284529
 20
236.7331542801
 30
0.0
 11
102.989284529
 21
236.833154343
 31
0.0
  0
LINE
  5
1F2
330
1F
100
AcDbEntity
  8
0
  6
Continuous
 62
     7
370
     0
100
AcDbLine
 10
99.9892858999
 20
236.833154343
 30
0.0
 11
99.9892858999
 21
236.7331542801
 31
0.0
  0
LINE
  5
1F3
330
1F
100
AcDbEntity
  8
0
  6
Continuous
 62
     7
370
     0
100
AcDbLine
 10
99.9892858999
 20
232.933154216
 30
0.0
 11
99.9892858999
 21
232.8331541531
 31
0.0
  0
LINE
  5
1F4
330
1F
100
AcDbEntity
  8
0
  6
Continuous
 62
     7
370
     0
100
AcDbLine
 10
109.7055433528
 20
236.833154343
 30
0.0
 11
106.974994971
 21
236.833154343
 31
0.0
  0
LINE
  5
1F5
330
1F
100
AcDbEntity
  8
0
  6
Continuous
 62
     7
370
     0
100
AcDbLine
 10
106.974994971
 20
232.8331541531
 30
0.0
 11
109.7055433528
 21
232.8331541531
 31
0.0
  0
LINE
  5
1F6
330
1F
100
AcDbEntity
  8
0
  6
Continuous
 62
     7
370
     0
100
AcDbLine
 10
106.9075970189
 20
236.7985824849
 30
0.0
 11
106.717674269
 21
236.6020395448
 31
0.0
  0
LINE
  5
1F7
330
1F
100
AcDbEntity
  8
0
  6
Continuous
 62
     7
370
     0
100
AcDbLine
 10
106.717674269
 20
233.0642689513
 30
0.0
 11
106.9075970189
 21
232.8677260112
 31
0.0
  0
LINE
  5
1F8
330
1F
100
AcDbEntity
  8
0
  6
Continuous
 62
     7
370
     0
100
AcDbLine
 10
116.5795682208
 20
236.833154343
 30
0.0
 11
109.7055433528
 21
236.833154343
 31
0.0
  0
LINE
  5
1F9
330
1F
100
AcDbEntity
  8
0
  6
Continuous
 62
     7
370
     0
100
AcDbLine
 10
109.7055433528
 20
232.8331541531
 30
0.0
 11
116.5795682208
 21
232.8331541531
 31
0.0
  0
LINE
  5
1FA
330
1F
100
AcDbEntity
  8
0
  6
Continuous
 62
     7
370
     0
100
AcDbLine
 10
109.6381454008
 20
236.7985824849
 30
0.0
 11
109.4482301013
 21
236.6020395448
 31
0.0
  0
LINE
  5
1FB
330
1F
100
AcDbEntity
  8
0
  6
Continuous
 62
     7
370
     0
100
AcDbLine
 10
109.4482301013
 20
233.0642689513
 30
0.0
 11
109.6381454008
 21
232.8677260112
 31
0.0
  0
ARC
  5
1FC
330
1F
100
AcDbEntity
  8
0
  6
Continuous
 62
     7
370
     0
100
AcDbCircle
 10
107.0276270842
 20
240.4296527155
 30
0.0
 40
0.2700000000000102
100
AcDbArc
 50
122.3360259976
 51
180.0
  0
ARC
  5
1FD
330
1F
100
AcDbEntity
  8
0
  6
Continuous
 62
     7
370
     0
100
AcDbCircle
 10
112.0876270842
 20
240.4296527155
 30
0.0
 40
0.2700000000000102
100
AcDbArc
 50
0.0
 51
57.6639740024
  0
LINE
  5
1FE
330
1F
100
AcDbEntity
  8
0
  6
Continuous
 62
     7
370
     0
100
AcDbLine
 10
106.7576242821
 20
240.4296527412
 30
0.0
 11
106.7576242821
 21
239.8331541363
 31
0.0
  0
LINE
  5
1FF
330
1F
100
AcDbEntity
  8
0
  6
Continuous
 62
     7
370
     0
100
AcDbLine
 10
112.3576296704
 20
239.8331541363
 30
0.0
 11
112.3576296704
 21
240.4296527412
 31
0.0
  0
ARC
  5
200
330
1F
100
AcDbEntity
  8
0
  6
Continuous
 62
     7
370
     0
100
AcDbCircle
 10
109.5576270842
 20
236.433154248
 30
0.0
 40
5.000000000000014
100
AcDbArc
 50
105.221844477
 51
122.3360259976
  0
ARC
  5
201
330
1F
100
AcDbEntity
  8
0
  6
Continuous
 62
     7
370
     0
100
AcDbCircle
 10
109.5576270842
 20
236.433154248
 30
0.0
 40
5.000000000000014
100
AcDbArc
 50
57.6639740024
 51
74.778155523
  0
LINE
  5
202
330
1F
100
AcDbEntity
  8
0
  6
Continuous
 62
     7
370
     0
100
AcDbLine
 10
112.3576296704
 20
229.2366557549
 30
0.0
 11
112.3576296704
 21
229.8331543598
 31
0.0
  0
LINE
  5
203
330
1F
100
AcDbEntity
  8
0
  6
Continuous
 62
     7
370
     0
100
AcDbLine
 10
106.7576242821
 20
229.8331543598
 30
0.0
 11
106.7576242821
 21
229.2366557549
 31
0.0
  0
ARC
  5
204
330
1F
100
AcDbEntity
  8
0
  6
Continuous
 62
     7
370
     0
100
AcDbCircle
 10
112.0876270842
 20
229.2366557806
 30
0.0
 40
0.2700000000000102
100
AcDbArc
 50
302.3360259976
 51
0.0
  0
ARC
  5
205
330
1F
100
AcDbEntity
  8
0
  6
Continuous
 62
     7
370
     0
100
AcDbCircle
 10
107.0276270842
 20
229.2366557806
 30
0.0
 40
0.2700000000000102
100
AcDbArc
 50
180.0
 51
237.6639740024
  0
ARC
  5
206
330
1F
100
AcDbEntity
  8
0
  6
Continuous
 62
     7
370
     0
100
AcDbCircle
 10
109.5576270842
 20
233.233154248
 30
0.0
 40
5.000000000000001
100
AcDbArc
 50
285.2261556909
 51
302.3360259976
  0
ARC
  5
207
330
1F
100
AcDbEntity
  8
0
  6
Continuous
 62
     7
370
     0
100
AcDbCircle
 10
109.5576270842
 20
233.233154248
 30
0.0
 40
5.000000000000003
100
AcDbArc
 50
237.6639740024
 51
254.7738443091
  0
LINE
  5
208
330
1F
100
AcDbEntity
  8
0
  6
Continuous
 62
     7
370
     0
100
AcDbLine
 10
117.8482232826
 20
232.0331543479
 30
0.0
 11
117.8482232826
 21
229.8331543598
 31
0.0
  0
LINE
  5
209
330
1F
100
AcDbEntity
  8
0
  6
Continuous
 62
     7
370
     0
100
AcDbLine
 10
118.1432141201
 20
232.3331543039
 30
0.0
 11
117.8482232826
 21
232.0331543479
 31
0.0
  0
LINE
  5
20A
330
1F
100
AcDbEntity
  8
0
  6
Continuous
 62
     7
370
     0
100
AcDbLine
 10
119.6181459563
 20
232.3331543039
 30
0.0
 11
118.1432141201
 21
232.3331543039
 31
0.0
  0
LINE
  5
20B
330
1F
100
AcDbEntity
  8
0
  6
Continuous
 62
     7
370
     0
100
AcDbLine
 10
119.6181459563
 20
232.3331543039
 30
0.0
 11
119.6181459563
 21
237.3331541922
 31
0.0
  0
LINE
  5
20C
330
1F
100
AcDbEntity
  8
0
  6
Continuous
 62
     7
370
     0
100
AcDbLine
 10
118.1432141201
 20
237.3331541922
 30
0.0
 11
119.6181459563
 21
237.3331541922
 31
0.0
  0
LINE
  5
20D
330
1F
100
AcDbEntity
  8
0
  6
Continuous
 62
     7
370
     0
100
AcDbLine
 10
117.8482232826
 20
237.6331541482
 30
0.0
 11
118.1432141201
 21
237.3331541922
 31
0.0
  0
LINE
  5
20E
330
1F
100
AcDbEntity
  8
0
  6
Continuous
 62
     7
370
     0
100
AcDbLine
 10
117.8482232826
 20
239.8331541363
 30
0.0
 11
117.8482232826
 21
237.6331541482
 31
0.0
  0
LINE
  5
20F
330
1F
100
AcDbEntity
  8
0
  6
Continuous
 62
     7
370
     0
100
AcDbLine
 10
120.3064529436
 20
229.8331543598
 30
0.0
 11
120.3064529436
 21
239.8331541363
 31
0.0
  0
LINE
  5
210
330
1F
100
AcDbEntity
  8
0
  6
Continuous
 62
     7
370
     0
100
AcDbLine
 10
117.8482232826
 20
229.8331543598
 30
0.0
 11
120.3064529436
 21
229.8331543598
 31
0.0
  0
LINE
  5
211
330
1F
100
AcDbEntity
  8
0
  6
Continuous
 62
     7
370
     0
100
AcDbLine
 10
117.8482232826
 20
239.8331541363
 30
0.0
 11
120.3064529436
 21
239.8331541363
 31
0.0
  0
LINE
  5
212
330
1F
100
AcDbEntity
  8
0
  6
Continuous
 62
     7
370
     0
100
AcDbLine
 10
117.4295379059
 20
237.6331541482
 30
0.0
 11
117.8482232826
 21
237.6331541482
 31
0.0
  0
LWPOLYLINE
  5
213
330
1F
100
AcDbEntity
  8
0
  6
Continuous
 62
     7
370
     0
100
AcDbPolyline
 90
       19
 70
   128
 43
0.0
 10
117.4295379059
 20
232.0331543479
 10
117.341032459
 20
232.0756925065
 10
117.2552092211
 20
232.202015005
 10
117.1746907966
 20
232.4082831647
 10
117.1019060748
 20
232.6882298831
 10
117.0390827792
 20
233.0333489254
 10
116.9881208079
 20
233.433154298
 10
116.9505773322
 20
233.8754978291
 10
116.9275773899
 20
234.3469393409
 10
116.9198362367
 20
234.833154248
 10
116.9275773899
 20
235.3193691552
 10
116.9505773322
 20
235.790810667
 10
116.9881208079
 20
236.2331541981
 10
117.0390827792
 20
236.6329595707
 10
117.1019060748
 20
236.978078613
 10
117.1746907966
 20
237.2580253314
 10
117.2552092211
 20
237.4642934911
 10
117.341032459
 20
237.5906159896
 10
117.4295379059
 20
237.6331541482
  0
LINE
  5
214
330
1F
100
AcDbEntity
  8
0
  6
Continuous
 62
     7
370
     0
100
AcDbLine
 10
117.8482232826
 20
232.0331543479
 30
0.0
 11
117.4295379059
 21
232.0331543479
 31
0.0
  0
LWPOLYLINE
  5
215
330
1F
100
AcDbEntity
  8
0
  6
Continuous
 62
     7
370
     0
100
AcDbPolyline
 90
        7
 70
   128
 43
0.0
 10
113.849019839
 20
236.833154343
 10
113.8315258758
 20
236.8798261769
 10
113.7579439418
 20
237.0197303854
 10
113.6808676855
 20
237.0806058198
 10
113.6030910747
 20
237.0602524634
 10
113.5274155276
 20
236.9594060611
 10
113.473741545
 20
236.833154343
  0
LWPOLYLINE
  5
216
330
1F
100
AcDbEntity
  8
0
  6
Continuous
 62
     7
370
     0
100
AcDbPolyline
 90
        7
 70
   128
 43
0.0
 10
113.473741545
 20
232.8331541531
 10
113.5274155276
 20
232.706902435
 10
113.6030910747
 20
232.6060560327
 10
113.6808676855
 20
232.5857026763
 10
113.7579439418
 20
232.6465781107
 10
113.8315258758
 20
232.7864823192
 10
113.849019839
 20
232.8331541531
  0
LWPOLYLINE
  5
217
330
1F
100
AcDbEntity
  8
0
  6
Continuous
 62
     7
370
     0
100
AcDbPolyline
 90
       12
 70
   128
 43
0.0
 10
116.8015135662
 20
234.833154248
 10
116.7941076891
 20
235.2589695393
 10
116.7721731799
 20
235.6693947832
 10
116.7364923494
 20
236.0495961066
 10
116.6883615987
 20
236.3858320778
 10
116.6295094626
 20
236.6659501595
 10
116.5620742576
 20
236.8798261769
 10
116.4884923236
 20
237.0197303854
 10
116.4114160674
 20
237.0806058198
 10
116.3336394565
 20
237.0602524634
 10
116.25797136
 20
236.9594060611
 10
116.2042899268
 20
236.833154343
  0
LWPOLYLINE
  5
218
330
1F
100
AcDbEntity
  8
0
  6
Continuous
 62
     7
370
     0
100
AcDbPolyline
 90
       12
 70
   128
 43
0.0
 10
116.2042899268
 20
232.8331541531
 10
116.25797136
 20
232.706902435
 10
116.3336394565
 20
232.6060560327
 10
116.4114160674
 20
232.5857026763
 10
116.4884923236
 20
232.6465781107
 10
116.5620742576
 20
232.7864823192
 10
116.6295094626
 20
233.0003583366
 10
116.6883615987
 20
233.2804764183
 10
116.7364923494
 20
233.6167123895
 10
116.7721731799
 20
233.9969137129
 10
116.7941076891
 20
234.4073389568
 10
116.8015135662
 20
234.833154248
  0
LINE
  5
219
330
1F
100
AcDbEntity
  8
0
  6
Continuous
 62
     7
370
     0
100
AcDbLine
 10
114.6989895241
 20
237.6331541482
 30
0.0
 11
115.3543202417
 21
237.6331541482
 31
0.0
  0
ARC
  5
21A
330
1F
100
AcDbEntity
  8
0
  6
Continuous
 62
     7
370
     0
100
AcDbCircle
 10
115.497406196
 20
232.8686974831
 30
0.0
 40
1.155682271511797
100
AcDbArc
 50
181.762425568
 51
226.3016377059
  0
ARC
  5
21B
330
1F
100
AcDbEntity
  8
0
  6
Continuous
 62
     7
370
     0
100
AcDbCircle
 10
115.3775839424
 20
236.8510396038
 30
0.0
 40
1.035467790483521
100
AcDbArc
 50
130.9462382259
 51
180.9896985002
  0
LINE
  5
21C
330
1F
100
AcDbEntity
  8
0
  6
Continuous
 62
     7
370
     0
100
AcDbLine
 10
115.3543202417
 20
232.0331543479
 30
0.0
 11
114.6989895241
 21
232.0331543479
 31
0.0
  0
ARC
  5
21D
330
1F
100
AcDbEntity
  8
0
  6
Continuous
 62
     7
370
     0
100
AcDbCircle
 10
114.5559035698
 20
236.797611013
 30
0.0
 40
1.155682271512035
100
AcDbArc
 50
1.762425568
 51
46.3016377059
  0
ARC
  5
21E
330
1F
100
AcDbEntity
  8
0
  6
Continuous
 62
     7
370
     0
100
AcDbCircle
 10
114.6757258234
 20
232.8152688923
 30
0.0
 40
1.035467790483682
100
AcDbArc
 50
310.9462382259
 51
0.9896985002
  0
LINE
  5
21F
330
1F
100
AcDbEntity
  8
0
  6
Continuous
 62
     7
370
     0
100
AcDbLine
 10
112.478329076
 20
229.8331543598
 30
0.0
 11
117.8482232826
 21
229.8331543598
 31
0.0
  0
LINE
  5
220
330
1F
100
AcDbEntity
  8
0
  6
Continuous
 62
     7
370
     0
100
AcDbLine
 10
112.478329076
 20
239.8331541363
 30
0.0
 11
117.8482232826
 21
239.8331541363
 31
0.0
  0
LINE
  5
221
330
1F
100
AcDbEntity
  8
0
  6
Continuous
 62
     7
370
     0
100
AcDbLine
 10
118.1432141201
 20
237.3331541922
 30
0.0
 11
117.7245287435
 21
237.3331541922
 31
0.0
  0
LINE
  5
222
330
1F
100
AcDbEntity
  8
0
  6
Continuous
 62
     7
370
     0
100
AcDbLine
 10
117.7245287435
 20
237.3331541922
 30
0.0
 11
117.4295379059
 21
237.6331541482
 31
0.0
  0
LINE
  5
223
330
1F
100
AcDbEntity
  8
0
  6
Continuous
 62
     7
370
     0
100
AcDbLine
 10
117.7245287435
 20
232.3331543039
 30
0.0
 11
118.1432141201
 21
232.3331543039
 31
0.0
  0
LINE
  5
224
330
1F
100
AcDbEntity
  8
0
  6
Continuous
 62
     7
370
     0
100
AcDbLine
 10
117.7245287435
 20
232.3331543039
 30
0.0
 11
117.4295379059
 21
232.0331543479
 31
0.0
  0
LWPOLYLINE
  5
225
330
1F
100
AcDbEntity
  8
0
  6
Continuous
 62
     7
370
     0
100
AcDbPolyline
 90
       18
 70
   128
 43
0.0
 10
119.1994605796
 20
237.3331541922
 10
119.1158427136
 20
237.2905869297
 10
119.0350635188
 20
237.164334746
 10
118.9598871605
 20
236.9586970918
 10
118.8928691881
 20
236.6806765813
 10
118.8362969296
 20
236.3397408072
 10
118.7920851843
 20
235.9475001022
 10
118.7617464201
 20
235.5173117276
 10
118.7463162677
 20
235.0638251401
 10
118.7463162677
 20
234.602483356
 10
118.7617464201
 20
234.1489967685
 10
118.7920851843
 20
233.7188083939
 10
118.8362969296
 20
233.3265676889
 10
118.8928691881
 20
232.9856319148
 10
118.9598871605
 20
232.7076114043
 10
119.0350635188
 20
232.50197375
 10
119.1158427136
 20
232.3757215664
 10
119.1994605796
 20
232.3331543039
  0
LINE
  5
226
330
1F
100
AcDbEntity
  8
0
  6
Continuous
 62
     7
370
     0
100
AcDbLine
 10
123.1108440297
 20
239.8331541363
 30
0.0
 11
123.1108440297
 21
229.8331543598
 31
0.0
  0
LINE
  5
227
330
1F
100
AcDbEntity
  8
0
  6
Continuous
 62
     7
370
     0
100
AcDbLine
 10
123.1108440297
 20
229.8331543598
 30
0.0
 11
120.3064529436
 21
229.8331543598
 31
0.0
  0
LINE
  5
228
330
1F
100
AcDbEntity
  8
0
  6
Continuous
 62
     7
370
     0
100
AcDbLine
 10
120.3064529436
 20
239.8331541363
 30
0.0
 11
123.1108440297
 21
239.8331541363
 31
0.0
  0
LWPOLYLINE
  5
229
330
1F
100
AcDbEntity
  8
0
  6
Continuous
 62
     7
370
     0
100
AcDbPolyline
 90
       18
 70
   128
 43
0.0
 10
117.7245287435
 20
237.3331541922
 10
117.6409034269
 20
237.2905869297
 10
117.5601316826
 20
237.164334746
 10
117.4849553244
 20
236.9586970918
 10
117.4179299014
 20
236.6806765813
 10
117.3613576429
 20
236.3397408072
 10
117.3171458976
 20
235.9475001022
 10
117.2868071334
 20
235.5173117276
 10
117.271376981
 20
235.0638251401
 10
117.271376981
 20
234.602483356
 10
117.2868071334
 20
234.1489967685
 10
117.3171458976
 20
233.7188083939
 10
117.3613576429
 20
233.3265676889
 10
117.4179299014
 20
232.9856319148
 10
117.4849553244
 20
232.7076114043
 10
117.5601316826
 20
232.50197375
 10
117.6409034269
 20
232.3757215664
 10
117.7245287435
 20
232.3331543039
  0
LINE
  5
22A
330
1F
100
AcDbEntity
  8
0
  6
Continuous
 62
     7
370
     0
100
AcDbLine
 10
115.5838577287
 20
237.3331541922
 30
0.0
 11
114.9939729111
 21
237.3331541922
 31
0.0
  0
LINE
  5
22B
330
1F
100
AcDbEntity
  8
0
  6
Continuous
 62
     7
370
     0
100
AcDbLine
 10
114.9939729111
 20
237.3331541922
 30
0.0
 11
114.6989895241
 21
237.6331541482
 31
0.0
  0
LINE
  5
22C
330
1F
100
AcDbEntity
  8
0
  6
Continuous
 62
     7
370
     0
100
AcDbLine
 10
114.9939729111
 20
232.3331543039
 30
0.0
 11
115.5838577287
 21
232.3331543039
 31
0.0
  0
LINE
  5
22D
330
1F
100
AcDbEntity
  8
0
  6
Continuous
 62
     7
370
     0
100
AcDbLine
 10
114.9939729111
 20
232.3331543039
 30
0.0
 11
114.6989895241
 21
232.0331543479
 31
0.0
  0
LWPOLYLINE
  5
22E
330
1F
100
AcDbEntity
  8
0
  6
Continuous
 62
     7
370
     0
100
AcDbPolyline
 90
        5
 70
   128
 43
0.0
 10
114.9939729111
 20
237.3331541922
 10
114.9103550451
 20
237.2905869297
 10
114.8295758502
 20
237.164334746
 10
114.754399492
 20
236.9586970918
 10
114.7209240334
 20
236.833154343
  0
LWPOLYLINE
  5
22F
330
1F
100
AcDbEntity
  8
0
  6
Continuous
 62
     7
370
     0
100
AcDbPolyline
 90
        5
 70
   128
 43
0.0
 10
114.7209240334
 20
232.8331541531
 10
114.754399492
 20
232.7076114043
 10
114.8295758502
 20
232.50197375
 10
114.9103550451
 20
232.3757215664
 10
114.9939729111
 20
232.3331543039
  0
LINE
  5
230
330
1F
100
AcDbEntity
  8
0
  6
Continuous
 62
     7
370
     0
100
AcDbLine
 10
112.478329076
 20
229.8331543598
 30
0.0
 11
108.3881093399
 21
229.8331543598
 31
0.0
  0
LINE
  5
231
330
1F
100
AcDbEntity
  8
0
  6
Continuous
 62
     7
370
     0
100
AcDbLine
 10
108.3881093399
 20
239.8331541363
 30
0.0
 11
112.478329076
 21
239.8331541363
 31
0.0
  0
LINE
  5
232
330
1F
100
AcDbEntity
  8
0
  6
Continuous
 62
     7
370
     0
100
AcDbLine
 10
98.8717956679
 20
232.8331541531
 30
0.0
 11
98.8717956679
 21
229.8331543598
 31
0.0
  0
LINE
  5
233
330
1F
100
AcDbEntity
  8
0
  6
Continuous
 62
     7
370
     0
100
AcDbLine
 10
103.8030592935
 20
232.8331541531
 30
0.0
 11
98.8717956679
 21
232.8331541531
 31
0.0
  0
LINE
  5
234
330
1F
100
AcDbEntity
  8
0
  6
Continuous
 62
     7
370
     0
100
AcDbLine
 10
103.8030592935
 20
236.833154343
 30
0.0
 11
103.8030592935
 21
232.8331541531
 31
0.0
  0
LINE
  5
235
330
1F
100
AcDbEntity
  8
0
  6
Continuous
 62
     7
370
     0
100
AcDbLine
 10
103.8030592935
 20
236.833154343
 30
0.0
 11
98.8717956679
 21
236.833154343
 31
0.0
  0
LINE
  5
236
330
1F
100
AcDbEntity
  8
0
  6
Continuous
 62
     7
370
     0
100
AcDbLine
 10
98.8717956679
 20
239.8331541363
 30
0.0
 11
98.8717956679
 21
236.833154343
 31
0.0
  0
LINE
  5
237
330
1F
100
AcDbEntity
  8
0
  6
Continuous
 62
     7
370
     0
100
AcDbLine
 10
98.8717956679
 20
229.8331543598
 30
0.0
 11
108.3881093399
 21
229.8331543598
 31
0.0
  0
LINE
  5
238
330
1F
100
AcDbEntity
  8
0
  6
Continuous
 62
     7
370
     0
100
AcDbLine
 10
98.8717956679
 20
239.8331541363
 30
0.0
 11
108.3881093399
 21
239.8331541363
 31
0.0
  0
LINE
  5
239
330
1F
100
AcDbEntity
  8
0
  6
Continuous
 62
     7
370
     0
100
AcDbLine
 10
98.0507901149
 20
236.833154343
 30
0.0
 11
98.0507901149
 21
239.8331541363
 31
0.0
  0
LINE
  5
23A
330
1F
100
AcDbEntity
  8
0
  6
Continuous
 62
     7
370
     0
100
AcDbLine
 10
98.8717956679
 20
236.833154343
 30
0.0
 11
98.0507901149
 21
236.833154343
 31
0.0
  0
LINE
  5
23B
330
1F
100
AcDbEntity
  8
0
  6
Continuous
 62
     7
370
     0
100
AcDbLine
 10
98.0507901149
 20
239.8331541363
 30
0.0
 11
98.8717956679
 21
239.8331541363
 31
0.0
  0
LINE
  5
23C
330
1F
100
AcDbEntity
  8
0
  6
Continuous
 62
     7
370
     0
100
AcDbLine
 10
98.0507901149
 20
229.8331543598
 30
0.0
 11
98.0507901149
 21
232.8331541531
 31
0.0
  0
LINE
  5
23D
330
1F
100
AcDbEntity
  8
0
  6
Continuous
 62
     7
370
     0
100
AcDbLine
 10
98.0507901149
 20
232.8331541531
 30
0.0
 11
98.8717956679
 21
232.8331541531
 31
0.0
  0
LINE
  5
23E
330
1F
100
AcDbEntity
  8
0
  6
Continuous
 62
     7
370
     0
100
AcDbLine
 10
98.8717956679
 20
229.8331543598
 30
0.0
 11
98.0507901149
 21
229.8331543598
 31
0.0
  0
LWPOLYLINE
  5
23F
330
1F
100
AcDbEntity
  8
0
  6
Continuous
 62
     7
370
     0
100
AcDbPolyline
 90
       19
 70
   128
 43
0.0
 10
106.9075970189
 20
236.7985824849
 10
106.9590507285
 20
236.8312348872
 10
107.0325954096
 20
236.8079678882
 10
107.1037782566
 20
236.7038517287
 10
107.1696935432
 20
236.5231490722
 10
107.2276367085
 20
236.2732577631
 10
107.2752310173
 20
235.9644084964
 10
107.3105393188
 20
235.6092454893
 10
107.3321087496
 20
235.2223092485
 10
107.3390601413
 20
234.8194409579
 10
107.3311029212
 20
234.4171340838
 10
107.3085723655
 20
234.0318591478
 10
107.272377445
 20
233.679389351
 10
107.2240157263
 20
233.37415478
 10
107.1654541628
 20
233.1286517465
 10
107.099099292
 20
232.9529313165
 10
107.0276556747
 20
232.8541876077
 10
106.9540662901
 20
232.8364626765
 10
106.9075970189
 20
232.8677260112
  0
LWPOLYLINE
  5
240
330
1F
100
AcDbEntity
  8
0
  6
Continuous
 62
     7
370
     0
100
AcDbPolyline
 90
       30
 70
   128
 43
0.0
 10
106.4650325315
 20
234.3060892336
 10
106.4929871099
 20
233.9484250433
 10
106.5342782276
 20
233.6321297362
 10
106.5869836347
 20
233.3719930639
 10
106.6486371891
 20
233.1801786814
 10
106.7163555162
 20
233.0656555742
 10
106.7869646685
 20
233.0337787308
 10
106.85717894
 20
233.0860386165
 10
106.9237051742
 20
233.2199917901
 10
106.9834364788
 20
233.4293746417
 10
107.0335714357
 20
233.7043966427
 10
107.071778013
 20
234.032198091
 10
107.0962606208
 20
234.3974513379
 10
107.1058793204
 20
234.7830776044
 10
107.1001796262
 20
235.1710453832
 10
107.0794297593
 20
235.5432137875
 10
107.0446057455
 20
235.8821805129
 10
106.9973318117
 20
236.1720959916
 10
106.9398133294
 20
236.3994040088
 10
106.8747474091
 20
236.553475962
 10
106.8051738875
 20
236.6271076053
 10
106.7343412177
 20
236.6168559557
 10
106.6655723588
 20
236.5232004113
 10
106.6020710604
 20
236.3505201675
 10
106.5468175547
 20
236.106889558
 10
106.502382292
 20
235.8037005206
 10
106.4708514349
 20
235.4551298222
 10
106.453707649
 20
235.0774762481
 10
106.4517332451
 20
234.688398431
 10
106.4650325315
 20
234.3060892336
  0
LWPOLYLINE
  5
241
330
1F
100
AcDbEntity
  8
0
  6
Continuous
 62
     7
370
     0
100
AcDbPolyline
 90
       19
 70
   128
 43
0.0
 10
109.6381454008
 20
236.7985824849
 10
109.6895991104
 20
236.8312348872
 10
109.7631437914
 20
236.8079678882
 10
109.8343266384
 20
236.7038517287
 10
109.900241925
 20
236.5231490722
 10
109.9581850903
 20
236.2732577631
 10
110.0057868497
 20
235.9644084964
 10
110.0410877006
 20
235.6092454893
 10
110.062664582
 20
235.2223092485
 10
110.0696085231
 20
234.8194409579
 10
110.0616587536
 20
234.4171340838
 10
110.0391207473
 20
234.0318591478
 10
110.0029332774
 20
233.679389351
 10
109.9545641081
 20
233.37415478
 10
109.8960025446
 20
233.1286517465
 10
109.8296476738
 20
232.9529313165
 10
109.7582115071
 20
232.8541876077
 10
109.6846146719
 20
232.8364626765
 10
109.6381454008
 20
232.8677260112
  0
LWPOLYLINE
  5
242
330
1F
100
AcDbEntity
  8
0
  6
Continuous
 62
     7
370
     0
100
AcDbPolyline
 90
       30
 70
   128
 43
0.0
 10
109.1955809133
 20
234.3060892336
 10
109.2235354917
 20
233.9484250433
 10
109.2648266094
 20
233.6321297362
 10
109.3175320165
 20
233.3719930639
 10
109.3791855709
 20
233.1801786814
 10
109.446903898
 20
233.0656555742
 10
109.5175205009
 20
233.0337787308
 10
109.5877273219
 20
233.0860386165
 10
109.654253556
 20
233.2199917901
 10
109.7139848606
 20
233.4293746417
 10
109.7641198175
 20
233.7043966427
 10
109.8023263948
 20
234.032198091
 10
109.8268090026
 20
234.3974513379
 10
109.8364277022
 20
234.7830776044
 10
109.830728008
 20
235.1710453832
 10
109.8099855916
 20
235.5432137875
 10
109.7751541273
 20
235.8821805129
 10
109.7278801935
 20
236.1720959916
 10
109.6703617113
 20
236.3994040088
 10
109.6052957909
 20
236.553475962
 10
109.5357222693
 20
236.6271076053
 10
109.4648970501
 20
236.6168559557
 10
109.3961207406
 20
236.5232004113
 10
109.3326194422
 20
236.3505201675
 10
109.2773659365
 20
236.106889558
 10
109.2329306738
 20
235.8037005206
 10
109.2014072673
 20
235.4551298222
 10
109.1842560308
 20
235.0774762481
 10
109.1822816269
 20
234.688398431
 10
109.1955809133
 20
234.3060892336
  0
LINE
  5
243
330
1F
100
AcDbEntity
  8
0
  6
Continuous
 62
     7
370
     0
100
AcDbLine
 10
103.7358029024
 20
236.7331542801
 30
0.0
 11
103.7358029024
 21
232.933154216
 31
0.0
  0
LINE
  5
244
330
1F
100
AcDbEntity
  8
0
  6
Continuous
 62
     7
370
     0
100
AcDbLine
 10
102.6247797744
 20
232.933154216
 30
0.0
 11
102.6247797744
 21
236.7331542801
 31
0.0
  0
LINE
  5
245
330
1F
100
AcDbEntity
  8
0
  6
Continuous
 62
     7
370
     0
100
AcDbLine
 10
103.7358029024
 20
232.933154216
 30
0.0
 11
102.6247797744
 21
232.933154216
 31
0.0
  0
LINE
  5
246
330
1F
100
AcDbEntity
  8
0
  6
Continuous
 62
     7
370
     0
100
AcDbLine
 10
102.6247797744
 20
236.7331542801
 30
0.0
 11
103.7358029024
 21
236.7331542801
 31
0.0
  0
LINE
  5
247
330
1F
100
AcDbEntity
  8
0
  6
Continuous
 62
     7
370
     0
100
AcDbLine
 10
98.1562232809
 20
236.7331542801
 30
0.0
 11
98.1562232809
 21
232.933154216
 31
0.0
  0
LINE
  5
248
330
1F
100
AcDbEntity
  8
0
  6
Continuous
 62
     7
370
     0
100
AcDbLine
 10
98.1562232809
 20
232.933154216
 30
0.0
 11
102.6247797744
 21
232.933154216
 31
0.0
  0
LINE
  5
249
330
1F
100
AcDbEntity
  8
0
  6
Continuous
 62
     7
370
     0
100
AcDbLine
 10
98.1562232809
 20
236.7331542801
 30
0.0
 11
102.6247797744
 21
236.7331542801
 31
0.0
  0
LINE
  5
24A
330
1F
100
AcDbEntity
  8
0
  6
Continuous
 62
     7
370
     0
100
AcDbLine
 10
103.7358029024
 20
232.933154216
 30
0.0
 11
103.8030592935
 21
232.933154216
 31
0.0
  0
LINE
  5
24B
330
1F
100
AcDbEntity
  8
0
  6
Continuous
 62
     7
370
     0
100
AcDbLine
 10
103.7358029024
 20
236.7331542801
 30
0.0
 11
103.8030592935
 21
236.7331542801
 31
0.0
  0
LWPOLYLINE
  5
24C
330
1F
100
AcDbEntity
  8
0
  6
Continuous
 62
     7
370
     0
100
AcDbPolyline
 90
        9
 70
   128
 43
0.0
 10
108.2443876402
 20
241.2452845629
 10
108.2434414165
 20
241.2507565487
 10
108.2432849543
 20
241.2546667065
 10
108.2439033525
 20
241.2570131737
 10
108.2453040616
 20
241.2577954847
 10
108.2474796312
 20
241.2570131737
 10
108.2504449623
 20
241.2546667065
 10
108.2541777031
 20
241.2507565487
 10
108.2561372058
 20
241.2484599072
  0
ARC
  5
24D
330
1F
100
AcDbEntity
  8
0
  6
Continuous
 62
     7
370
     0
100
AcDbCircle
 10
109.5504923374
 20
236.4349039568
 30
0.0
 40
4.984543214328685
100
AcDbArc
 50
96.5047289808
 51
105.1906069552
  0
LINE
  5
24E
330
1F
100
AcDbEntity
  8
0
  6
Continuous
 62
     7
370
     0
100
AcDbLine
 10
108.9858172672
 20
241.3873592186
 30
0.0
 11
109.1767756479
 21
241.3873592186
 31
0.0
  0
ARC
  5
24F
330
1F
100
AcDbEntity
  8
0
  6
Continuous
 62
     7
370
     0
100
AcDbCircle
 10
110.8444746037
 20
241.14733277
 30
0.0
 40
1.684883528121826
100
AcDbArc
 50
171.8098497814
 51
176.6671936828
  0
ARC
  5
250
330
1F
100
AcDbEntity
  8
0
  6
Continuous
 62
     7
370
     0
100
AcDbCircle
 10
109.532369508
 20
235.7827402777
 30
0.0
 40
5.475055923748456
100
AcDbArc
 50
86.1257897662
 51
93.8742102338
  0
ARC
  5
251
330
1F
100
AcDbEntity
  8
0
  6
Continuous
 62
     7
370
     0
100
AcDbCircle
 10
111.5862845424
 20
241.1470482217
 30
0.0
 40
1.686849161272873
100
AcDbArc
 50
171.8096944438
 51
176.6614002803
  0
LINE
  5
252
330
1F
100
AcDbEntity
  8
0
  6
Continuous
 62
     7
370
     0
100
AcDbLine
 10
109.9166406529
 20
241.3873592186
 30
0.0
 11
110.11512412
 21
241.3873592186
 31
0.0
  0
ARC
  5
253
330
1F
100
AcDbEntity
  8
0
  6
Continuous
 62
     7
370
     0
100
AcDbCircle
 10
109.5504468836
 20
236.4348241584
 30
0.0
 40
4.984622744394565
100
AcDbArc
 50
74.8095267136
 51
83.4953501908
  0
ARC
  5
254
330
1F
100
AcDbEntity
  8
0
  6
Continuous
 62
     7
370
     0
100
AcDbCircle
 10
110.879439076
 20
241.2337657625
 30
0.0
 40
0.0256140603749026
100
AcDbArc
 50
110.6362223102
 51
153.2751677471
  0
ARC
  5
255
330
1F
100
AcDbEntity
  8
0
  6
Continuous
 62
     7
370
     0
100
AcDbCircle
 10
109.5647616151
 20
236.4349039568
 30
0.0
 40
4.984543214328685
100
AcDbArc
 50
74.8093930448
 51
83.4952710192
  0
LINE
  5
256
330
1F
100
AcDbEntity
  8
0
  6
Continuous
 62
     7
370
     0
100
AcDbLine
 10
110.1294366853
 20
241.3873592186
 30
0.0
 11
110.11512412
 21
241.3873592186
 31
0.0
  0
ARC
  5
257
330
1F
100
AcDbEntity
  8
0
  6
Continuous
 62
     7
370
     0
100
AcDbCircle
 10
109.583089787
 20
235.7880040711
 30
0.0
 40
5.469791541838291
100
AcDbArc
 50
86.651983358
 51
90.2667225706
  0
ARC
  5
258
330
1F
100
AcDbEntity
  8
0
  6
Continuous
 62
     7
370
     0
100
AcDbCircle
 10
107.5289694101
 20
241.1470482217
 30
0.0
 40
1.68684916127326
100
AcDbArc
 50
3.3385997198
 51
8.1903055562
  0
LINE
  5
259
330
1F
100
AcDbEntity
  8
0
  6
Continuous
 62
     7
370
     0
100
AcDbLine
 10
109.1986132996
 20
241.3873592186
 30
0.0
 11
109.1767756479
 21
241.3873592186
 31
0.0
  0
LINE
  5
25A
330
1F
100
AcDbEntity
  8
0
  6
Continuous
 62
     7
370
     0
100
AcDbLine
 10
109.1770066159
 20
241.2452845629
 30
0.0
 11
109.1767756479
 21
241.3873592186
 31
0.0
  0
LINE
  5
25B
330
1F
100
AcDbEntity
  8
0
  6
Continuous
 62
     7
370
     0
100
AcDbLine
 10
109.1986132996
 20
241.3873592186
 30
0.0
 11
109.1983823316
 21
241.2452845629
 31
0.0
  0
LWPOLYLINE
  5
25C
330
1F
100
AcDbEntity
  8
0
  6
Continuous
 62
     7
370
     0
100
AcDbPolyline
 90
        9
 70
   128
 43
0.0
 10
110.8750162856
 20
228.4210239332
 10
110.87481512
 20
228.4155519474
 10
110.8738390939
 20
228.4116417896
 10
110.8720807569
 20
228.4092953223
 10
110.8695401089
 20
228.4085130114
 10
110.86621715
 20
228.4092953223
 10
110.8621193306
 20
228.4116417896
 10
110.8572466509
 20
228.4155519474
 10
110.8566655056
 20
228.4160772133
  0
ARC
  5
25D
330
1F
100
AcDbEntity
  8
0
  6
Continuous
 62
     7
370
     0
100
AcDbCircle
 10
109.5692880091
 20
233.228552201
 30
0.0
 40
4.981691919214475
100
AcDbArc
 50
276.5066980998
 51
285.1950249683
  0
LINE
  5
25E
330
1F
100
AcDbEntity
  8
0
  6
Continuous
 62
     7
370
     0
100
AcDbLine
 10
110.1338101761
 20
228.2789492774
 30
0.0
 11
109.945310487
 21
228.2789492774
 31
0.0
  0
ARC
  5
25F
330
1F
100
AcDbEntity
  8
0
  6
Continuous
 62
     7
370
     0
100
AcDbCircle
 10
108.9165215778
 20
228.5218708153
 30
0.0
 40
1.057079700498998
100
AcDbArc
 50
346.7144453519
 51
354.5255767961
  0
ARC
  5
260
330
1F
100
AcDbEntity
  8
0
  6
Continuous
 62
     7
370
     0
100
AcDbCircle
 10
109.5989665227
 20
233.8801780427
 30
0.0
 40
5.471665693642078
100
AcDbArc
 50
266.1245976937
 51
273.8754023063
  0
ARC
  5
261
330
1F
100
AcDbEntity
  8
0
  6
Continuous
 62
     7
370
     0
100
AcDbCircle
 10
108.1758267824
 20
228.5220472729
 30
0.0
 40
1.058159874186568
100
AcDbArc
 50
346.7184383453
 51
354.5215838026
  0
LINE
  5
262
330
1F
100
AcDbEntity
  8
0
  6
Continuous
 62
     7
370
     0
100
AcDbLine
 10
109.2056839006
 20
228.2789492774
 30
0.0
 11
109.0048609512
 21
228.2789492774
 31
0.0
  0
ARC
  5
263
330
1F
100
AcDbEntity
  8
0
  6
Continuous
 62
     7
370
     0
100
AcDbCircle
 10
109.5693175766
 20
233.2281417992
 30
0.0
 40
4.981276733842727
100
AcDbArc
 50
254.8045479738
 51
263.4935159897
  0
ARC
  5
264
330
1F
100
AcDbEntity
  8
0
  6
Continuous
 62
     7
370
     0
100
AcDbCircle
 10
108.2401976849
 20
228.4363916484
 30
0.0
 40
0.0280491437872732
100
AcDbArc
 50
278.7756936935
 51
326.7779395567
  0
ARC
  5
265
330
1F
100
AcDbEntity
  8
0
  6
Continuous
 62
     7
370
     0
100
AcDbCircle
 10
109.5459659433
 20
233.228552201
 30
0.0
 40
4.981691919214475
100
AcDbArc
 50
254.8049750317
 51
263.4933019002
  0
LINE
  5
266
330
1F
100
AcDbEntity
  8
0
  6
Continuous
 62
     7
370
     0
100
AcDbLine
 10
108.9814437764
 20
228.2789492774
 30
0.0
 11
109.0048609512
 21
228.2789492774
 31
0.0
  0
ARC
  5
267
330
1F
100
AcDbEntity
  8
0
  6
Continuous
 62
     7
370
     0
100
AcDbCircle
 10
109.5160552806
 20
233.8751499919
 30
0.0
 40
5.466637192131959
100
AcDbArc
 50
266.9855004211
 51
270.4357167998
  0
ARC
  5
268
330
1F
100
AcDbEntity
  8
0
  6
Continuous
 62
     7
370
     0
100
AcDbCircle
 10
110.9394271701
 20
228.5220472729
 30
0.0
 40
1.058159874186367
100
AcDbArc
 50
185.4784161974
 51
193.2815616547
  0
LINE
  5
269
330
1F
100
AcDbEntity
  8
0
  6
Continuous
 62
     7
370
     0
100
AcDbLine
 10
109.9095700519
 20
228.2789492774
 30
0.0
 11
109.945310487
 21
228.2789492774
 31
0.0
  0
LINE
  5
26A
330
1F
100
AcDbEntity
  8
0
  6
Continuous
 62
     7
370
     0
100
AcDbLine
 10
109.944937958
 20
228.4210239332
 30
0.0
 11
109.945310487
 21
228.2789492774
 31
0.0
  0
LINE
  5
26B
330
1F
100
AcDbEntity
  8
0
  6
Continuous
 62
     7
370
     0
100
AcDbLine
 10
109.9095700519
 20
228.2789492774
 30
0.0
 11
109.9099500315
 21
228.4210239332
 31
0.0
  0
LINE
  5
26C
330
1F
100
AcDbEntity
  8
0
  6
Continuous
 62
     1
370
     0
100
AcDbLine
 10
112.478329076
 20
239.8331541363
 30
0.0
 11
112.478329076
 21
236.833154343
 31
0.0
  0
LINE
  5
26D
330
1F
100
AcDbEntity
  8
0
  6
Continuous
 62
     1
370
     0
100
AcDbLine
 10
112.478329076
 20
232.8331541531
 30
0.0
 11
112.478329076
 21
229.8331543598
 31
0.0
  0
LINE
  5
26E
330
1F
100
AcDbEntity
  8
0
  6
Continuous
 62
     1
370
     0
100
AcDbLine
 10
115.3543202417
 20
232.0331543479
 30
0.0
 11
115.5367924111
 21
232.2187233977
 31
0.0
  0
LINE
  5
26F
330
1F
100
AcDbEntity
  8
0
  6
Continuous
 62
     1
370
     0
100
AcDbLine
 10
115.3543202417
 20
237.6331541482
 30
0.0
 11
115.5367924111
 21
237.4475850984
 31
0.0
  0
LINE
  5
270
330
1F
100
AcDbEntity
  8
0
  6
Continuous
 62
     1
370
     0
100
AcDbLine
 10
108.3881093399
 20
229.8331543598
 30
0.0
 11
108.3881093399
 21
232.8331541531
 31
0.0
  0
LINE
  5
271
330
1F
100
AcDbEntity
  8
0
  6
Continuous
 62
     1
370
     0
100
AcDbLine
 10
108.3881093399
 20
236.833154343
 30
0.0
 11
108.3881093399
 21
239.8331541363
 31
0.0
  0
LINE
  5
272
330
1F
100
AcDbEntity
  8
0
  6
Continuous
 62
     1
370
     0
100
AcDbLine
 10
109.5059124963
 20
240.6577825341
 30
0.0
 11
112.2320426838
 21
240.6577825341
 31
0.0
  0
LINE
  5
273
330
1F
100
AcDbEntity
  8
0
  6
Continuous
 62
     1
370
     0
100
AcDbLine
 10
106.8832112687
 20
240.6577825341
 30
0.0
 11
109.5059124963
 21
240.6577825341
 31
0.0
  0
LINE
  5
274
330
1F
100
AcDbEntity
  8
0
  6
Continuous
 62
     1
370
     0
100
AcDbLine
 10
109.503483607
 20
240.4296527412
 30
0.0
 11
112.3576296704
 21
240.4296527412
 31
0.0
  0
LINE
  5
275
330
1F
100
AcDbEntity
  8
0
  6
Continuous
 62
     1
370
     0
100
AcDbLine
 10
106.7576242821
 20
240.4296527412
 30
0.0
 11
109.503483607
 21
240.4296527412
 31
0.0
  0
LINE
  5
276
330
1F
100
AcDbEntity
  8
0
  6
Continuous
 62
     1
370
     0
100
AcDbLine
 10
109.6462367313
 20
229.2366557549
 30
0.0
 11
106.7576242821
 21
229.2366557549
 31
0.0
  0
LINE
  5
277
330
1F
100
AcDbEntity
  8
0
  6
Continuous
 62
     1
370
     0
100
AcDbLine
 10
112.3576296704
 20
229.2366557549
 30
0.0
 11
109.6462367313
 21
229.2366557549
 31
0.0
  0
LINE
  5
278
330
1F
100
AcDbEntity
  8
0
  6
Continuous
 62
     1
370
     0
100
AcDbLine
 10
109.6422655718
 20
229.008525962
 30
0.0
 11
106.8832112687
 21
229.008525962
 31
0.0
  0
LINE
  5
279
330
1F
100
AcDbEntity
  8
0
  6
Continuous
 62
     1
370
     0
100
AcDbLine
 10
112.2320426838
 20
229.008525962
 30
0.0
 11
109.6422655718
 21
229.008525962
 31
0.0
  0
DIMENSION
  5
27A
330
1F
100
AcDbEntity
  8
0
  6
Continuous
 62
     7
370
     0
100
AcDbDimension
  2
_D_3
 10
123.1108455642
 20
245.5696919629
 30
0.0
 11
110.580818346
 21
245.5696919629
 31
0.0
 70
   160
  1
(<>)
 71
     2
 42
-1.0
  3
SLDDIMSTYLE0
100
AcDbAlignedDimension
 13
98.0507911278
 23
239.833154248
 33
0.0
 14
123.1108455642
 24
239.833154248
 34
0.0
 50
0.0
100
AcDbRotatedDimension
  0
LINE
  5
286
330
1F
100
AcDbEntity
  8
0
  6
Continuous
 62
     7
370
     0
100
AcDbLine
 10
177.2176527827
 20
119.9427507462
 30
0.0
 11
177.9176527827
 21
119.9427507462
 31
0.0
  0
LINE
  5
287
330
1F
100
AcDbEntity
  8
0
  6
Continuous
 62
     7
370
     0
100
AcDbLine
 10
169.5176527827
 20
119.9427507462
 30
0.0
 11
170.2176527827
 21
119.9427507462
 31
0.0
  0
LINE
  5
288
330
1F
100
AcDbEntity
  8
0
  6
Continuous
 62
     7
370
     0
100
AcDbLine
 10
175.1676527827
 20
128.1597359499
 30
0.0
 11
175.1676527827
 21
132.6365675975
 31
0.0
  0
LINE
  5
289
330
1F
100
AcDbEntity
  8
0
  6
Continuous
 62
     7
370
     0
100
AcDbLine
 10
172.2676527827
 20
132.6365675975
 30
0.0
 11
172.2676527827
 21
128.1597359499
 31
0.0
  0
LINE
  5
28A
330
1F
100
AcDbEntity
  8
0
  6
Continuous
 62
     7
370
     0
100
AcDbLine
 10
177.2176527827
 20
152.8746034141
 30
0.0
 11
177.2176527827
 21
153.3478988068
 31
0.0
  0
LINE
  5
28B
330
1F
100
AcDbEntity
  8
0
  6
Continuous
 62
     7
370
     0
100
AcDbLine
 10
170.2176527827
 20
153.3478988068
 30
0.0
 11
170.2176527827
 21
152.8746034141
 31
0.0
  0
LINE
  5
28C
330
1F
100
AcDbEntity
  8
0
  6
Continuous
 62
     7
370
     0
100
AcDbLine
 10
177.2176527827
 20
167.6239794968
 30
0.0
 11
177.2176527827
 21
168.0972748895
 31
0.0
  0
LINE
  5
28D
330
1F
100
AcDbEntity
  8
0
  6
Continuous
 62
     7
370
     0
100
AcDbLine
 10
170.2176527827
 20
168.0972748895
 30
0.0
 11
170.2176527827
 21
167.6239794968
 31
0.0
  0
LINE
  5
28E
330
1F
100
AcDbEntity
  8
0
  6
Continuous
 62
     7
370
     0
100
AcDbLine
 10
171.8176527827
 20
102.8772518823
 30
0.0
 11
175.6176527827
 21
102.8772518823
 31
0.0
  0
LINE
  5
28F
330
1F
100
AcDbEntity
  8
0
  6
Continuous
 62
     7
370
     0
100
AcDbLine
 10
179.3141512501
 20
125.6927507462
 30
0.0
 11
177.9176527827
 21
125.6927507462
 31
0.0
  0
LINE
  5
290
330
1F
100
AcDbEntity
  8
0
  6
Continuous
 62
     7
370
     0
100
AcDbLine
 10
177.9176527827
 20
120.0927507462
 30
0.0
 11
179.3141512501
 21
120.0927507462
 31
0.0
  0
ARC
  5
291
330
1F
100
AcDbEntity
  8
0
  6
Continuous
 62
     7
370
     0
100
AcDbCircle
 10
179.3141512501
 20
125.4227507462
 30
0.0
 40
0.2700000000000244
100
AcDbArc
 50
32.3360259976
 51
90.0
  0
ARC
  5
292
330
1F
100
AcDbEntity
  8
0
  6
Continuous
 62
     7
370
     0
100
AcDbCircle
 10
179.3141512501
 20
120.3627507462
 30
0.0
 40
0.269999999999996
100
AcDbArc
 50
270.0
 51
327.6639740024
  0
ARC
  5
293
330
1F
100
AcDbEntity
  8
0
  6
Continuous
 62
     7
370
     0
100
AcDbCircle
 10
175.3176527827
 20
122.8927507462
 30
0.0
 40
5.000000000000014
100
AcDbArc
 50
15.221844477
 51
32.3360259976
  0
ARC
  5
294
330
1F
100
AcDbEntity
  8
0
  6
Continuous
 62
     7
370
     0
100
AcDbCircle
 10
175.3176527827
 20
122.8927507462
 30
0.0
 40
5.000000000000019
100
AcDbArc
 50
327.6639740024
 51
344.778155523
  0
ARC
  5
295
330
1F
100
AcDbEntity
  8
0
  6
Continuous
 62
     7
370
     0
100
AcDbCircle
 10
168.1211543153
 20
120.3627507462
 30
0.0
 40
0.2700000000000222
100
AcDbArc
 50
212.3360259976
 51
270.0
  0
ARC
  5
296
330
1F
100
AcDbEntity
  8
0
  6
Continuous
 62
     7
370
     0
100
AcDbCircle
 10
168.1211543153
 20
125.4227507462
 30
0.0
 40
0.2700000000000298
100
AcDbArc
 50
90.0
 51
147.6639740024
  0
LINE
  5
297
330
1F
100
AcDbEntity
  8
0
  6
Continuous
 62
     7
370
     0
100
AcDbLine
 10
168.1211543153
 20
120.0927507462
 30
0.0
 11
169.5176527827
 21
120.0927507462
 31
0.0
  0
LINE
  5
298
330
1F
100
AcDbEntity
  8
0
  6
Continuous
 62
     7
370
     0
100
AcDbLine
 10
169.5176527827
 20
125.6927507462
 30
0.0
 11
168.1211543153
 21
125.6927507462
 31
0.0
  0
ARC
  5
299
330
1F
100
AcDbEntity
  8
0
  6
Continuous
 62
     7
370
     0
100
AcDbCircle
 10
172.1176527827
 20
122.8927507462
 30
0.0
 40
5.000000000000003
100
AcDbArc
 50
195.2261556909
 51
212.3360259976
  0
ARC
  5
29A
330
1F
100
AcDbEntity
  8
0
  6
Continuous
 62
     7
370
     0
100
AcDbCircle
 10
172.1176527827
 20
122.8927507462
 30
0.0
 40
5.000000000000003
100
AcDbArc
 50
147.6639740024
 51
164.7738443091
  0
LINE
  5
29B
330
1F
100
AcDbEntity
  8
0
  6
Continuous
 62
     7
370
     0
100
AcDbLine
 10
177.9176527827
 20
125.8375824093
 30
0.0
 11
177.2176527827
 21
125.8375824093
 31
0.0
  0
LINE
  5
29C
330
1F
100
AcDbEntity
  8
0
  6
Continuous
 62
     7
370
     0
100
AcDbLine
 10
177.9176527827
 20
125.8375824093
 30
0.0
 11
177.9176527827
 21
119.9427507462
 31
0.0
  0
LINE
  5
29D
330
1F
100
AcDbEntity
  8
0
  6
Continuous
 62
     7
370
     0
100
AcDbLine
 10
169.5176527827
 20
125.8248592673
 30
0.0
 11
170.2176527827
 21
125.8248592673
 31
0.0
  0
LINE
  5
29E
330
1F
100
AcDbEntity
  8
0
  6
Continuous
 62
     7
370
     0
100
AcDbLine
 10
169.5176527827
 20
125.8395085136
 30
0.0
 11
170.2176527827
 21
125.8395085136
 31
0.0
  0
LINE
  5
29F
330
1F
100
AcDbEntity
  8
0
  6
Continuous
 62
     7
370
     0
100
AcDbLine
 10
169.5176527827
 20
119.9427507462
 30
0.0
 11
169.5176527827
 21
125.8248592673
 31
0.0
  0
LINE
  5
2A0
330
1F
100
AcDbEntity
  8
0
  6
Continuous
 62
     7
370
     0
100
AcDbLine
 10
169.5176527827
 20
125.8248592673
 30
0.0
 11
169.5176527827
 21
125.8395085136
 31
0.0
  0
CIRCLE
  5
2A1
330
1F
100
AcDbEntity
  8
0
  6
Continuous
 62
     7
370
     0
100
AcDbCircle
 10
173.711364866
 20
167.595870049
 30
0.0
 40
3.977877153149071
  0
CIRCLE
  5
2A2
330
1F
100
AcDbEntity
  8
0
  6
Continuous
 62
     7
370
     0
100
AcDbCircle
 10
173.711364866
 20
152.8464939664
 30
0.0
 40
3.977877153149071
  0
LINE
  5
2A3
330
1F
100
AcDbEntity
  8
0
  6
Continuous
 62
     7
370
     0
100
AcDbLine
 10
178.7176527827
 20
171.9759776458
 30
0.0
 11
168.7176527827
 21
171.9759776458
 31
0.0
  0
LINE
  5
2A4
330
1F
100
AcDbEntity
  8
0
  6
Continuous
 62
     7
370
     0
100
AcDbLine
 10
168.7176527827
 20
146.0179640928
 30
0.0
 11
178.7176527827
 21
146.0179640928
 31
0.0
  0
LINE
  5
2A5
330
1F
100
AcDbEntity
  8
0
  6
Continuous
 62
     7
370
     0
100
AcDbLine
 10
168.7176527827
 20
171.9759776458
 30
0.0
 11
168.7176527827
 21
146.0179640928
 31
0.0
  0
LINE
  5
2A6
330
1F
100
AcDbEntity
  8
0
  6
Continuous
 62
     7
370
     0
100
AcDbLine
 10
178.7176527827
 20
171.9759776458
 30
0.0
 11
178.7176527827
 21
146.0179640928
 31
0.0
  0
LINE
  5
2A7
330
1F
100
AcDbEntity
  8
0
  6
Continuous
 62
     7
370
     0
100
AcDbLine
 10
168.7176527827
 20
176.054627145
 30
0.0
 11
178.7176527827
 21
176.054627145
 31
0.0
  0
LINE
  5
2A8
330
1F
100
AcDbEntity
  8
0
  6
Continuous
 62
     7
370
     0
100
AcDbLine
 10
168.7176527827
 20
171.9759776458
 30
0.0
 11
168.7176527827
 21
176.054627145
 31
0.0
  0
LINE
  5
2A9
330
1F
100
AcDbEntity
  8
0
  6
Continuous
 62
     7
370
     0
100
AcDbLine
 10
178.7176527827
 20
176.054627145
 30
0.0
 11
178.7176527827
 21
171.9759776458
 31
0.0
  0
ARC
  5
2AA
330
1F
100
AcDbEntity
  8
0
  6
Continuous
 62
     7
370
     0
100
AcDbCircle
 10
173.752267296
 20
168.13161733
 30
0.0
 40
3.967660390110687
100
AcDbArc
 50
269.5001359776
 51
355.5565134453
  0
ARC
  5
2AB
330
1F
100
AcDbEntity
  8
0
  6
Continuous
 62
     7
370
     0
100
AcDbCircle
 10
173.689096131
 20
168.1382217681
 30
0.0
 40
3.974216431891421
100
AcDbArc
 50
184.5316493706
 51
270.4117012066
  0
LINE
  5
2AC
330
1F
100
AcDbEntity
  8
0
  6
Continuous
 62
     7
370
     0
100
AcDbLine
 10
170.9176527827
 20
176.5097188687
 30
0.0
 11
168.7176527827
 21
176.5097188687
 31
0.0
  0
LINE
  5
2AD
330
1F
100
AcDbEntity
  8
0
  6
Continuous
 62
     7
370
     0
100
AcDbLine
 10
171.2176527827
 20
176.4551078619
 30
0.0
 11
170.9176527827
 21
176.5097188687
 31
0.0
  0
LINE
  5
2AE
330
1F
100
AcDbEntity
  8
0
  6
Continuous
 62
     7
370
     0
100
AcDbLine
 10
171.2176527827
 20
176.1820528276
 30
0.0
 11
171.2176527827
 21
176.4551078619
 31
0.0
  0
LINE
  5
2AF
330
1F
100
AcDbEntity
  8
0
  6
Continuous
 62
     7
370
     0
100
AcDbLine
 10
171.2176527827
 20
176.1820528276
 30
0.0
 11
176.2176527827
 21
176.1820528276
 31
0.0
  0
LINE
  5
2B0
330
1F
100
AcDbEntity
  8
0
  6
Continuous
 62
     7
370
     0
100
AcDbLine
 10
176.2176527827
 20
176.4551078619
 30
0.0
 11
176.2176527827
 21
176.1820528276
 31
0.0
  0
LINE
  5
2B1
330
1F
100
AcDbEntity
  8
0
  6
Continuous
 62
     7
370
     0
100
AcDbLine
 10
176.5176527827
 20
176.5097188687
 30
0.0
 11
176.2176527827
 21
176.4551078619
 31
0.0
  0
LINE
  5
2B2
330
1F
100
AcDbEntity
  8
0
  6
Continuous
 62
     7
370
     0
100
AcDbLine
 10
178.7176527827
 20
176.5097188687
 30
0.0
 11
176.5176527827
 21
176.5097188687
 31
0.0
  0
LINE
  5
2B3
330
1F
100
AcDbEntity
  8
0
  6
Continuous
 62
     7
370
     0
100
AcDbLine
 10
168.7176527827
 20
176.5097188687
 30
0.0
 11
168.7176527827
 21
176.054627145
 31
0.0
  0
LINE
  5
2B4
330
1F
100
AcDbEntity
  8
0
  6
Continuous
 62
     7
370
     0
100
AcDbLine
 10
178.7176527827
 20
176.5097188687
 30
0.0
 11
178.7176527827
 21
176.054627145
 31
0.0
  0
ARC
  5
2B5
330
1F
100
AcDbEntity
  8
0
  6
Continuous
 62
     7
370
     0
100
AcDbCircle
 10
173.752267296
 20
153.3822412474
 30
0.0
 40
3.96766039011014
100
AcDbArc
 50
269.5001359776
 51
355.5565134459
  0
ARC
  5
2B6
330
1F
100
AcDbEntity
  8
0
  6
Continuous
 62
     7
370
     0
100
AcDbCircle
 10
173.689096131
 20
153.3888456854
 30
0.0
 40
3.974216431890812
100
AcDbArc
 50
184.53164937
 51
270.4117012066
  0
LINE
  5
2B7
330
1F
100
AcDbEntity
  8
0
  6
Continuous
 62
     7
370
     0
100
AcDbLine
 10
178.7176527827
 20
140.4669239384
 30
0.0
 11
168.7176527827
 21
140.4669239384
 31
0.0
  0
LINE
  5
2B8
330
1F
100
AcDbEntity
  8
0
  6
Continuous
 62
     7
370
     0
100
AcDbLine
 10
168.7176527827
 20
140.4669239384
 30
0.0
 11
168.7176527827
 21
146.0179640928
 31
0.0
  0
LINE
  5
2B9
330
1F
100
AcDbEntity
  8
0
  6
Continuous
 62
     7
370
     0
100
AcDbLine
 10
178.7176527827
 20
146.0179640928
 30
0.0
 11
178.7176527827
 21
140.4669239384
 31
0.0
  0
LINE
  5
2BA
330
1F
100
AcDbEntity
  8
0
  6
Continuous
 62
     7
370
     0
100
AcDbLine
 10
168.7176527827
 20
139.3029858984
 30
0.0
 11
178.7176527827
 21
139.3029858984
 31
0.0
  0
LINE
  5
2BB
330
1F
100
AcDbEntity
  8
0
  6
Continuous
 62
     7
370
     0
100
AcDbLine
 10
168.7176527827
 20
140.4669239384
 30
0.0
 11
168.7176527827
 21
139.3029858984
 31
0.0
  0
LINE
  5
2BC
330
1F
100
AcDbEntity
  8
0
  6
Continuous
 62
     7
370
     0
100
AcDbLine
 10
178.7176527827
 20
140.4669239384
 30
0.0
 11
178.7176527827
 21
139.3029858984
 31
0.0
  0
LINE
  5
2BD
330
1F
100
AcDbEntity
  8
0
  6
Continuous
 62
     7
370
     0
100
AcDbLine
 10
168.7176527827
 20
130.2791083729
 30
0.0
 11
168.7176527827
 21
139.3029858984
 31
0.0
  0
LINE
  5
2BE
330
1F
100
AcDbEntity
  8
0
  6
Continuous
 62
     7
370
     0
100
AcDbLine
 10
178.7176527827
 20
139.3029858984
 30
0.0
 11
178.7176527827
 21
130.2791083729
 31
0.0
  0
LINE
  5
2BF
330
1F
100
AcDbEntity
  8
0
  6
Continuous
 62
     7
370
     0
100
AcDbLine
 10
175.7176527827
 20
104.5644614169
 30
0.0
 11
178.7176527827
 21
104.5644614169
 31
0.0
  0
LINE
  5
2C0
330
1F
100
AcDbEntity
  8
0
  6
Continuous
 62
     7
370
     0
100
AcDbLine
 10
178.7176527827
 20
112.9476051654
 30
0.0
 11
177.2176527827
 21
112.9476051654
 31
0.0
  0
LINE
  5
2C1
330
1F
100
AcDbEntity
  8
0
  6
Continuous
 62
     7
370
     0
100
AcDbLine
 10
175.7176527827
 20
104.5644614169
 30
0.0
 11
175.7176527827
 21
106.4099982702
 31
0.0
  0
LINE
  5
2C2
330
1F
100
AcDbEntity
  8
0
  6
Continuous
 62
     7
370
     0
100
AcDbLine
 10
178.7176527827
 20
112.9476051654
 30
0.0
 11
178.7176527827
 21
104.5644614169
 31
0.0
  0
LINE
  5
2C3
330
1F
100
AcDbEntity
  8
0
  6
Continuous
 62
     7
370
     0
100
AcDbLine
 10
178.7176527827
 20
103.4129621636
 30
0.0
 11
175.7176527827
 21
103.4129621636
 31
0.0
  0
LINE
  5
2C4
330
1F
100
AcDbEntity
  8
0
  6
Continuous
 62
     7
370
     0
100
AcDbLine
 10
175.7176527827
 20
103.4129621636
 30
0.0
 11
175.7176527827
 21
104.5644614169
 31
0.0
  0
LINE
  5
2C5
330
1F
100
AcDbEntity
  8
0
  6
Continuous
 62
     7
370
     0
100
AcDbLine
 10
178.7176527827
 20
104.5644614169
 30
0.0
 11
178.7176527827
 21
103.4129621636
 31
0.0
  0
LINE
  5
2C6
330
1F
100
AcDbEntity
  8
0
  6
Continuous
 62
     7
370
     0
100
AcDbLine
 10
168.7176527827
 20
104.5644614169
 30
0.0
 11
171.7176527827
 21
104.5644614169
 31
0.0
  0
LINE
  5
2C7
330
1F
100
AcDbEntity
  8
0
  6
Continuous
 62
     7
370
     0
100
AcDbLine
 10
170.2176527827
 20
112.9476051654
 30
0.0
 11
168.7176527827
 21
112.9476051654
 31
0.0
  0
LINE
  5
2C8
330
1F
100
AcDbEntity
  8
0
  6
Continuous
 62
     7
370
     0
100
AcDbLine
 10
171.7176527827
 20
106.4099982702
 30
0.0
 11
171.7176527827
 21
104.5644614169
 31
0.0
  0
LINE
  5
2C9
330
1F
100
AcDbEntity
  8
0
  6
Continuous
 62
     7
370
     0
100
AcDbLine
 10
168.7176527827
 20
112.9476051654
 30
0.0
 11
168.7176527827
 21
104.5644614169
 31
0.0
  0
LINE
  5
2CA
330
1F
100
AcDbEntity
  8
0
  6
Continuous
 62
     7
370
     0
100
AcDbLine
 10
171.7176527827
 20
103.4129621636
 30
0.0
 11
168.7176527827
 21
103.4129621636
 31
0.0
  0
LINE
  5
2CB
330
1F
100
AcDbEntity
  8
0
  6
Continuous
 62
     7
370
     0
100
AcDbLine
 10
171.7176527827
 20
104.5644614169
 30
0.0
 11
171.7176527827
 21
103.4129621636
 31
0.0
  0
LINE
  5
2CC
330
1F
100
AcDbEntity
  8
0
  6
Continuous
 62
     7
370
     0
100
AcDbLine
 10
168.7176527827
 20
103.4129621636
 30
0.0
 11
168.7176527827
 21
104.5644614169
 31
0.0
  0
LINE
  5
2CD
330
1F
100
AcDbEntity
  8
0
  6
Continuous
 62
     7
370
     0
100
AcDbLine
 10
177.2176527827
 20
126.2646249824
 30
0.0
 11
178.7176527827
 21
126.2646249824
 31
0.0
  0
LINE
  5
2CE
330
1F
100
AcDbEntity
  8
0
  6
Continuous
 62
     7
370
     0
100
AcDbLine
 10
168.7176527827
 20
126.2646249824
 30
0.0
 11
170.2176527827
 21
126.2646249824
 31
0.0
  0
LINE
  5
2CF
330
1F
100
AcDbEntity
  8
0
  6
Continuous
 62
     7
370
     0
100
AcDbLine
 10
168.7176527827
 20
130.2791083729
 30
0.0
 11
168.7176527827
 21
126.2646249824
 31
0.0
  0
LINE
  5
2D0
330
1F
100
AcDbEntity
  8
0
  6
Continuous
 62
     7
370
     0
100
AcDbLine
 10
178.7176527827
 20
130.2791083729
 30
0.0
 11
178.7176527827
 21
126.2646249824
 31
0.0
  0
LINE
  5
2D1
330
1F
100
AcDbEntity
  8
0
  6
Continuous
 62
     7
370
     0
100
AcDbLine
 10
178.7176527827
 20
125.6927507462
 30
0.0
 11
178.7176527827
 21
126.2646249824
 31
0.0
  0
LINE
  5
2D2
330
1F
100
AcDbEntity
  8
0
  6
Continuous
 62
     7
370
     0
100
AcDbLine
 10
168.7176527827
 20
126.2646249824
 30
0.0
 11
168.7176527827
 21
125.6927507462
 31
0.0
  0
LINE
  5
2D3
330
1F
100
AcDbEntity
  8
0
  6
Continuous
 62
     7
370
     0
100
AcDbLine
 10
178.7176527827
 20
102.272757535
 30
0.0
 11
175.7176527827
 21
102.272757535
 31
0.0
  0
LINE
  5
2D4
330
1F
100
AcDbEntity
  8
0
  6
Continuous
 62
     7
370
     0
100
AcDbLine
 10
175.7176527827
 20
102.272757535
 30
0.0
 11
175.7176527827
 21
103.4129621636
 31
0.0
  0
LINE
  5
2D5
330
1F
100
AcDbEntity
  8
0
  6
Continuous
 62
     7
370
     0
100
AcDbLine
 10
178.7176527827
 20
103.4129621636
 30
0.0
 11
178.7176527827
 21
102.272757535
 31
0.0
  0
LINE
  5
2D6
330
1F
100
AcDbEntity
  8
0
  6
Continuous
 62
     7
370
     0
100
AcDbLine
 10
171.7176527827
 20
102.272757535
 30
0.0
 11
168.7176527827
 21
102.272757535
 31
0.0
  0
LINE
  5
2D7
330
1F
100
AcDbEntity
  8
0
  6
Continuous
 62
     7
370
     0
100
AcDbLine
 10
171.7176527827
 20
102.272757535
 30
0.0
 11
171.7176527827
 21
103.4129621636
 31
0.0
  0
LINE
  5
2D8
330
1F
100
AcDbEntity
  8
0
  6
Continuous
 62
     7
370
     0
100
AcDbLine
 10
168.7176527827
 20
103.4129621636
 30
0.0
 11
168.7176527827
 21
102.272757535
 31
0.0
  0
LINE
  5
2D9
330
1F
100
AcDbEntity
  8
0
  6
Continuous
 62
     7
370
     0
100
AcDbLine
 10
178.7176527827
 20
112.9476051654
 30
0.0
 11
178.7176527827
 21
114.1764978625
 31
0.0
  0
LINE
  5
2DA
330
1F
100
AcDbEntity
  8
0
  6
Continuous
 62
     7
370
     0
100
AcDbLine
 10
168.7176527827
 20
114.1764978625
 30
0.0
 11
168.7176527827
 21
112.9476051654
 31
0.0
  0
LINE
  5
2DB
330
1F
100
AcDbEntity
  8
0
  6
Continuous
 62
     7
370
     0
100
AcDbLine
 10
178.7176527827
 20
114.1764978625
 30
0.0
 11
178.7176527827
 21
120.0927507462
 31
0.0
  0
LINE
  5
2DC
330
1F
100
AcDbEntity
  8
0
  6
Continuous
 62
     7
370
     0
100
AcDbLine
 10
168.7176527827
 20
120.0927507462
 30
0.0
 11
168.7176527827
 21
114.1764978625
 31
0.0
  0
LINE
  5
2DD
330
1F
100
AcDbEntity
  8
0
  6
Continuous
 62
     7
370
     0
100
AcDbLine
 10
171.7176527827
 20
128.1597359499
 30
0.0
 11
171.7176527827
 21
127.256107268
 31
0.0
  0
LINE
  5
2DE
330
1F
100
AcDbEntity
  8
0
  6
Continuous
 62
     7
370
     0
100
AcDbLine
 10
171.7176527827
 20
128.1597359499
 30
0.0
 11
175.7176527827
 21
128.1597359499
 31
0.0
  0
LINE
  5
2DF
330
1F
100
AcDbEntity
  8
0
  6
Continuous
 62
     7
370
     0
100
AcDbLine
 10
175.7176527827
 20
128.1597359499
 30
0.0
 11
175.7176527827
 21
127.256107268
 31
0.0
  0
ARC
  5
2E0
330
1F
100
AcDbEntity
  8
0
  6
Continuous
 62
     7
370
     0
100
AcDbCircle
 10
173.7176527827
 20
129.5978762146
 30
0.0
 40
3.366919262542566
100
AcDbArc
 50
64.4904992199
 51
115.5095007801
  0
CIRCLE
  5
2E1
330
1F
100
AcDbEntity
  8
0
  6
Continuous
 62
     7
370
     0
100
AcDbCircle
 10
173.7428833734
 20
152.8001125159
 30
0.0
 40
3.278676696721858
  0
ARC
  5
2E2
330
1F
100
AcDbEntity
  8
0
  6
Continuous
 62
     7
370
     0
100
AcDbCircle
 10
173.7714534885
 20
152.8586799173
 30
0.0
 40
3.446236082002784
100
AcDbArc
 50
0.2647388011
 51
73.6340935153
  0
ARC
  5
2E3
330
1F
100
AcDbEntity
  8
0
  6
Continuous
 62
     7
370
     0
100
AcDbCircle
 10
173.7052742079
 20
152.8352337674
 30
0.0
 40
3.487843628192666
100
AcDbArc
 50
72.6994814965
 51
179.3532501045
  0
LINE
  5
2E4
330
1F
100
AcDbEntity
  8
0
  6
Continuous
 62
     7
370
     0
100
AcDbLine
 10
173.3196038891
 20
154.5371117704
 30
0.0
 11
172.0223235345
 21
153.3486931489
 31
0.0
  0
LINE
  5
2E5
330
1F
100
AcDbEntity
  8
0
  6
Continuous
 62
     7
370
     0
100
AcDbLine
 10
172.420372428
 20
151.6497774548
 30
0.0
 11
172.0223235345
 21
153.3486931489
 31
0.0
  0
LINE
  5
2E6
330
1F
100
AcDbEntity
  8
0
  6
Continuous
 62
     7
370
     0
100
AcDbLine
 10
174.1157016762
 20
151.1392803821
 30
0.0
 11
172.420372428
 21
151.6497774548
 31
0.0
  0
LINE
  5
2E7
330
1F
100
AcDbEntity
  8
0
  6
Continuous
 62
     7
370
     0
100
AcDbLine
 10
174.1157016762
 20
151.1392803821
 30
0.0
 11
175.4129820309
 21
152.3276990036
 31
0.0
  0
LINE
  5
2E8
330
1F
100
AcDbEntity
  8
0
  6
Continuous
 62
     7
370
     0
100
AcDbLine
 10
175.4129820309
 20
152.3276990036
 30
0.0
 11
175.0149331373
 21
154.0266146977
 31
0.0
  0
LINE
  5
2E9
330
1F
100
AcDbEntity
  8
0
  6
Continuous
 62
     7
370
     0
100
AcDbLine
 10
173.3196038891
 20
154.5371117704
 30
0.0
 11
175.0149331373
 21
154.0266146977
 31
0.0
  0
ARC
  5
2EA
330
1F
100
AcDbEntity
  8
0
  6
Continuous
 62
     7
370
     0
100
AcDbCircle
 10
173.6505035616
 20
153.3369520181
 30
0.0
 40
3.432868232599378
100
AcDbArc
 50
117.0446473254
 51
179.8172939314
  0
ARC
  5
2EB
330
1F
100
AcDbEntity
  8
0
  6
Continuous
 62
     7
370
     0
100
AcDbCircle
 10
173.7840275169
 20
153.3364761275
 30
0.0
 40
3.433644265661171
100
AcDbArc
 50
0.1906058038
 51
62.9474529394
  0
LINE
  5
2EC
330
1F
100
AcDbEntity
  8
0
  6
Continuous
 62
     7
370
     0
100
AcDbLine
 10
172.0504145719
 20
153.3744269171
 30
0.0
 11
172.2213479812
 21
152.6448646534
 31
0.0
  0
LINE
  5
2ED
330
1F
100
AcDbEntity
  8
0
  6
Continuous
 62
     7
370
     0
100
AcDbLine
 10
172.2213479812
 20
152.6448646534
 30
0.0
 11
172.420372428
 21
151.7954068064
 31
0.0
  0
LINE
  5
2EE
330
1F
100
AcDbEntity
  8
0
  6
Continuous
 62
     7
370
     0
100
AcDbLine
 10
172.420372428
 20
151.7954068064
 30
0.0
 11
172.420372428
 21
151.6497774548
 31
0.0
  0
LINE
  5
2EF
330
1F
100
AcDbEntity
  8
0
  6
Continuous
 62
     7
370
     0
100
AcDbLine
 10
174.7643418535
 20
151.8791190444
 30
0.0
 11
174.1157016762
 21
151.2849097337
 31
0.0
  0
LINE
  5
2F0
330
1F
100
AcDbEntity
  8
0
  6
Continuous
 62
     7
370
     0
100
AcDbLine
 10
175.3848909935
 20
152.447594587
 30
0.0
 11
174.7643418535
 21
151.8791190444
 31
0.0
  0
LINE
  5
2F1
330
1F
100
AcDbEntity
  8
0
  6
Continuous
 62
     7
370
     0
100
AcDbLine
 10
174.1157016762
 20
151.2849097337
 30
0.0
 11
174.1157016762
 21
151.1392803821
 31
0.0
  0
LINE
  5
2F2
330
1F
100
AcDbEntity
  8
0
  6
Continuous
 62
     7
370
     0
100
AcDbLine
 10
172.420372428
 20
151.7954068064
 30
0.0
 11
173.2680370521
 21
151.54015827
 31
0.0
  0
LINE
  5
2F3
330
1F
100
AcDbEntity
  8
0
  6
Continuous
 62
     7
370
     0
100
AcDbLine
 10
173.2680370521
 20
151.54015827
 30
0.0
 11
174.1157016762
 21
151.2849097337
 31
0.0
  0
ARC
  5
2F4
330
1F
100
AcDbEntity
  8
0
  6
Continuous
 62
     7
370
     0
100
AcDbCircle
 10
173.7167573978
 20
152.9375960085
 30
0.0
 40
1.556001710108141
100
AcDbArc
 50
97.6376122139
 51
110.9897075795
  0
ARC
  5
2F5
330
1F
100
AcDbEntity
  8
0
  6
Continuous
 62
     7
370
     0
100
AcDbCircle
 10
173.7439457647
 20
152.9734636673
 30
0.0
 40
1.511503753039057
100
AcDbArc
 50
25.3231913515
 51
48.694434886
  0
ARC
  5
2F6
330
1F
100
AcDbEntity
  8
0
  6
Continuous
 62
     7
370
     0
100
AcDbCircle
 10
173.7565683025
 20
152.9854933249
 30
0.0
 40
1.496553232806863
100
AcDbArc
 50
312.3297444933
 51
0.9736291912
  0
ARC
  5
2F7
330
1F
100
AcDbEntity
  8
0
  6
Continuous
 62
     7
370
     0
100
AcDbCircle
 10
173.7175799752
 20
153.0278171274
 30
0.0
 40
1.554097074121359
100
AcDbArc
 50
253.1861565054
 51
312.3416400825
  0
ARC
  5
2F8
330
1F
100
AcDbEntity
  8
0
  6
Continuous
 62
     7
370
     0
100
AcDbCircle
 10
173.7002463459
 20
152.9978812185
 30
0.0
 40
1.520447653904688
100
AcDbArc
 50
193.4254138863
 51
253.4851106947
  0
ARC
  5
2F9
330
1F
100
AcDbEntity
  8
0
  6
Continuous
 62
     7
370
     0
100
AcDbCircle
 10
173.6699706129
 20
152.9838147315
 30
0.0
 40
1.487748192547691
100
AcDbArc
 50
154.2229503054
 51
193.169206265
  0
CIRCLE
  5
2FA
330
1F
100
AcDbEntity
  8
0
  6
Continuous
 62
     7
370
     0
100
AcDbCircle
 10
173.7428833734
 20
167.5494885985
 30
0.0
 40
3.278676696721869
  0
ARC
  5
2FB
330
1F
100
AcDbEntity
  8
0
  6
Continuous
 62
     7
370
     0
100
AcDbCircle
 10
173.7714534885
 20
167.608056
 30
0.0
 40
3.446236082002784
100
AcDbArc
 50
0.2647388011
 51
73.6340935153
  0
ARC
  5
2FC
330
1F
100
AcDbEntity
  8
0
  6
Continuous
 62
     7
370
     0
100
AcDbCircle
 10
173.7052742079
 20
167.5846098501
 30
0.0
 40
3.487843628192666
100
AcDbArc
 50
72.6994814965
 51
179.3532501045
  0
LINE
  5
2FD
330
1F
100
AcDbEntity
  8
0
  6
Continuous
 62
     7
370
     0
100
AcDbLine
 10
173.3196038891
 20
169.286487853
 30
0.0
 11
172.0223235345
 21
168.0980692316
 31
0.0
  0
LINE
  5
2FE
330
1F
100
AcDbEntity
  8
0
  6
Continuous
 62
     7
370
     0
100
AcDbLine
 10
172.420372428
 20
166.3991535374
 30
0.0
 11
172.0223235345
 21
168.0980692316
 31
0.0
  0
LINE
  5
2FF
330
1F
100
AcDbEntity
  8
0
  6
Continuous
 62
     7
370
     0
100
AcDbLine
 10
174.1157016762
 20
165.8886564647
 30
0.0
 11
172.420372428
 21
166.3991535374
 31
0.0
  0
LINE
  5
300
330
1F
100
AcDbEntity
  8
0
  6
Continuous
 62
     7
370
     0
100
AcDbLine
 10
174.1157016762
 20
165.8886564647
 30
0.0
 11
175.4129820309
 21
167.0770750862
 31
0.0
  0
LINE
  5
301
330
1F
100
AcDbEntity
  8
0
  6
Continuous
 62
     7
370
     0
100
AcDbLine
 10
175.4129820309
 20
167.0770750862
 30
0.0
 11
175.0149331373
 21
168.7759907804
 31
0.0
  0
LINE
  5
302
330
1F
100
AcDbEntity
  8
0
  6
Continuous
 62
     7
370
     0
100
AcDbLine
 10
173.3196038891
 20
169.286487853
 30
0.0
 11
175.0149331373
 21
168.7759907804
 31
0.0
  0
ARC
  5
303
330
1F
100
AcDbEntity
  8
0
  6
Continuous
 62
     7
370
     0
100
AcDbCircle
 10
173.6505035616
 20
168.0863281007
 30
0.0
 40
3.432868232598961
100
AcDbArc
 50
117.044647326
 51
179.8172939314
  0
ARC
  5
304
330
1F
100
AcDbEntity
  8
0
  6
Continuous
 62
     7
370
     0
100
AcDbCircle
 10
173.7840275169
 20
168.0858522101
 30
0.0
 40
3.433644265660575
100
AcDbArc
 50
0.1906058038
 51
62.9474529389
  0
LINE
  5
305
330
1F
100
AcDbEntity
  8
0
  6
Continuous
 62
     7
370
     0
100
AcDbLine
 10
172.0504145719
 20
168.1238029998
 30
0.0
 11
172.2213479812
 21
167.3942407361
 31
0.0
  0
LINE
  5
306
330
1F
100
AcDbEntity
  8
0
  6
Continuous
 62
     7
370
     0
100
AcDbLine
 10
172.2213479812
 20
167.3942407361
 30
0.0
 11
172.420372428
 21
166.544782889
 31
0.0
  0
LINE
  5
307
330
1F
100
AcDbEntity
  8
0
  6
Continuous
 62
     7
370
     0
100
AcDbLine
 10
172.420372428
 20
166.544782889
 30
0.0
 11
172.420372428
 21
166.3991535374
 31
0.0
  0
LINE
  5
308
330
1F
100
AcDbEntity
  8
0
  6
Continuous
 62
     7
370
     0
100
AcDbLine
 10
174.7643418535
 20
166.6284951271
 30
0.0
 11
174.1157016762
 21
166.0342858163
 31
0.0
  0
LINE
  5
309
330
1F
100
AcDbEntity
  8
0
  6
Continuous
 62
     7
370
     0
100
AcDbLine
 10
175.3848909935
 20
167.1969706696
 30
0.0
 11
174.7643418535
 21
166.6284951271
 31
0.0
  0
LINE
  5
30A
330
1F
100
AcDbEntity
  8
0
  6
Continuous
 62
     7
370
     0
100
AcDbLine
 10
174.1157016762
 20
166.0342858163
 30
0.0
 11
174.1157016762
 21
165.8886564647
 31
0.0
  0
LINE
  5
30B
330
1F
100
AcDbEntity
  8
0
  6
Continuous
 62
     7
370
     0
100
AcDbLine
 10
172.420372428
 20
166.544782889
 30
0.0
 11
173.2680370521
 21
166.2895343527
 31
0.0
  0
LINE
  5
30C
330
1F
100
AcDbEntity
  8
0
  6
Continuous
 62
     7
370
     0
100
AcDbLine
 10
173.2680370521
 20
166.2895343527
 30
0.0
 11
174.1157016762
 21
166.0342858163
 31
0.0
  0
ARC
  5
30D
330
1F
100
AcDbEntity
  8
0
  6
Continuous
 62
     7
370
     0
100
AcDbCircle
 10
173.7167573978
 20
167.6869720911
 30
0.0
 40
1.556001710130297
100
AcDbArc
 50
97.637612214
 51
110.9897075794
  0
ARC
  5
30E
330
1F
100
AcDbEntity
  8
0
  6
Continuous
 62
     7
370
     0
100
AcDbCircle
 10
173.7439457647
 20
167.7228397499
 30
0.0
 40
1.511503753037402
100
AcDbArc
 50
25.3231913514
 51
48.694434886
  0
ARC
  5
30F
330
1F
100
AcDbEntity
  8
0
  6
Continuous
 62
     7
370
     0
100
AcDbCircle
 10
173.7565683025
 20
167.7348694076
 30
0.0
 40
1.49655323280661
100
AcDbArc
 50
312.3297444933
 51
0.9736291912
  0
ARC
  5
310
330
1F
100
AcDbEntity
  8
0
  6
Continuous
 62
     7
370
     0
100
AcDbCircle
 10
173.7175799752
 20
167.7771932101
 30
0.0
 40
1.554097074121441
100
AcDbArc
 50
253.1861565054
 51
312.3416400825
  0
ARC
  5
311
330
1F
100
AcDbEntity
  8
0
  6
Continuous
 62
     7
370
     0
100
AcDbCircle
 10
173.7002463459
 20
167.7472573012
 30
0.0
 40
1.520447653904722
100
AcDbArc
 50
193.4254138863
 51
253.4851106947
  0
ARC
  5
312
330
1F
100
AcDbEntity
  8
0
  6
Continuous
 62
     7
370
     0
100
AcDbCircle
 10
173.6699706129
 20
167.7331908141
 30
0.0
 40
1.487748192548425
100
AcDbArc
 50
154.2229503054
 51
193.169206265
  0
LINE
  5
313
330
1F
100
AcDbEntity
  8
0
  6
Continuous
 62
     7
370
     0
100
AcDbLine
 10
175.6176527827
 20
103.4864182319
 30
0.0
 11
171.8176527827
 21
103.4864182319
 31
0.0
  0
LINE
  5
314
330
1F
100
AcDbEntity
  8
0
  6
Continuous
 62
     7
370
     0
100
AcDbLine
 10
175.6176527827
 20
106.4099982702
 30
0.0
 11
175.6176527827
 21
103.4864182319
 31
0.0
  0
LINE
  5
315
330
1F
100
AcDbEntity
  8
0
  6
Continuous
 62
     7
370
     0
100
AcDbLine
 10
171.8176527827
 20
103.4864182319
 30
0.0
 11
171.8176527827
 21
106.4099982702
 31
0.0
  0
LINE
  5
316
330
1F
100
AcDbEntity
  8
0
  6
Continuous
 62
     7
370
     0
100
AcDbLine
 10
171.8176527827
 20
102.8877329398
 30
0.0
 11
175.6176527827
 21
102.8877329398
 31
0.0
  0
LINE
  5
317
330
1F
100
AcDbEntity
  8
0
  6
Continuous
 62
     7
370
     0
100
AcDbLine
 10
175.6176527827
 20
103.4864182319
 30
0.0
 11
175.6176527827
 21
102.8877329398
 31
0.0
  0
LINE
  5
318
330
1F
100
AcDbEntity
  8
0
  6
Continuous
 62
     7
370
     0
100
AcDbLine
 10
171.8176527827
 20
103.4864182319
 30
0.0
 11
171.8176527827
 21
102.8877329398
 31
0.0
  0
LINE
  5
319
330
1F
100
AcDbEntity
  8
0
  6
Continuous
 62
     7
370
     0
100
AcDbLine
 10
175.6176527827
 20
102.8877329398
 30
0.0
 11
175.6176527827
 21
102.8772518823
 31
0.0
  0
LINE
  5
31A
330
1F
100
AcDbEntity
  8
0
  6
Continuous
 62
     7
370
     0
100
AcDbLine
 10
171.8176527827
 20
102.8772518823
 30
0.0
 11
171.8176527827
 21
102.8877329398
 31
0.0
  0
ARC
  5
31B
330
1F
100
AcDbEntity
  8
0
  6
Continuous
 62
     7
370
     0
100
AcDbCircle
 10
174.6716057693
 20
122.8673158468
 30
0.0
 40
5.470688454027655
100
AcDbArc
 50
356.6522720079
 51
0.2663804763
  0
ARC
  5
31C
330
1F
100
AcDbEntity
  8
0
  6
Continuous
 62
     7
370
     0
100
AcDbCircle
 10
180.0316078379
 20
124.9212147385
 30
0.0
 40
1.68665171780946
100
AcDbArc
 50
273.3369109412
 51
278.1891714739
  0
LINE
  5
31D
330
1F
100
AcDbEntity
  8
0
  6
Continuous
 62
     7
370
     0
100
AcDbLine
 10
180.2718576626
 20
123.2517615229
 30
0.0
 11
180.2718576626
 21
123.2736016245
 31
0.0
  0
LWPOLYLINE
  5
31E
330
1F
100
AcDbEntity
  8
0
  6
Continuous
 62
     7
370
     0
100
AcDbPolyline
 90
        9
 70
   128
 43
0.0
 10
180.1297830514
 20
124.2059923554
 10
180.1352550817
 20
124.2069337768
 10
180.139165069
 20
124.207094624
 10
180.1415116191
 20
124.2064748397
 10
180.1422938954
 20
124.2050746448
 10
180.1415116191
 20
124.2028945386
 10
180.139165069
 20
124.1999352984
 10
180.1352550817
 20
124.1961979792
 10
180.1329585964
 20
124.1942400628
  0
ARC
  5
31F
330
1F
100
AcDbEntity
  8
0
  6
Continuous
 62
     7
370
     0
100
AcDbCircle
 10
175.3194158508
 20
122.8998929708
 30
0.0
 40
4.984528885197101
100
AcDbArc
 50
6.5046491419
 51
15.1905883995
  0
LINE
  5
320
330
1F
100
AcDbEntity
  8
0
  6
Continuous
 62
     7
370
     0
100
AcDbLine
 10
180.2718576626
 20
123.4645595168
 30
0.0
 11
180.2718576626
 21
123.2736016245
 31
0.0
  0
ARC
  5
321
330
1F
100
AcDbEntity
  8
0
  6
Continuous
 62
     7
370
     0
100
AcDbCircle
 10
180.0316078379
 20
121.6041484089
 30
0.0
 40
1.686651717823968
100
AcDbArc
 50
81.8108285261
 51
86.6630890588
  0
ARC
  5
322
330
1F
100
AcDbEntity
  8
0
  6
Continuous
 62
     7
370
     0
100
AcDbCircle
 10
174.6670896912
 20
122.9180096246
 30
0.0
 40
5.475204796561496
100
AcDbArc
 50
356.1258737639
 51
3.8741262361
  0
ARC
  5
323
330
1F
100
AcDbEntity
  8
0
  6
Continuous
 62
     7
370
     0
100
AcDbCircle
 10
180.0316078379
 20
120.8642867539
 30
0.0
 40
1.686651717818571
100
AcDbArc
 50
81.8108285261
 51
86.6630890588
  0
LINE
  5
324
330
1F
100
AcDbEntity
  8
0
  6
Continuous
 62
     7
370
     0
100
AcDbLine
 10
180.2718576626
 20
122.5337399695
 30
0.0
 11
180.2718576626
 21
122.3352504176
 31
0.0
  0
ARC
  5
325
330
1F
100
AcDbEntity
  8
0
  6
Continuous
 62
     7
370
     0
100
AcDbCircle
 10
175.3194158508
 20
122.8999169635
 30
0.0
 40
4.984528885195858
100
AcDbArc
 50
344.8094116005
 51
353.4953508581
  0
ARC
  5
326
330
1F
100
AcDbEntity
  8
0
  6
Continuous
 62
     7
370
     0
100
AcDbCircle
 10
180.1182606725
 20
121.5709370756
 30
0.0
 40
0.0256180141465153
100
AcDbArc
 50
20.635334595
 51
63.2706592032
  0
ARC
  5
327
330
1F
100
AcDbEntity
  8
0
  6
Continuous
 62
     7
370
     0
100
AcDbCircle
 10
175.3194158508
 20
122.8856085216
 30
0.0
 40
4.984528885196721
100
AcDbArc
 50
344.8094116005
 51
353.4953508581
  0
LINE
  5
328
330
1F
100
AcDbEntity
  8
0
  6
Continuous
 62
     7
370
     0
100
AcDbLine
 10
180.2718576626
 20
122.3209419757
 30
0.0
 11
180.2718576626
 21
122.3352504176
 31
0.0
  0
LINE
  5
329
330
1F
100
AcDbEntity
  8
0
  6
Continuous
 62
     7
370
     0
100
AcDbLine
 10
180.1316422886
 20
123.273373945
 30
0.0
 11
180.2718576626
 21
123.2736016245
 31
0.0
  0
LINE
  5
32A
330
1F
100
AcDbEntity
  8
0
  6
Continuous
 62
     7
370
     0
100
AcDbLine
 10
180.2718576626
 20
123.2517615229
 30
0.0
 11
180.1297830514
 21
123.2519922214
 31
0.0
  0
ARC
  5
32B
330
1F
100
AcDbEntity
  8
0
  6
Continuous
 62
     7
370
     0
100
AcDbCircle
 10
167.4066573313
 20
123.5356623046
 30
0.0
 40
1.058907208787365
100
AcDbArc
 50
256.7217883347
 51
264.5194025161
  0
ARC
  5
32C
330
1F
100
AcDbEntity
  8
0
  6
Continuous
 62
     7
370
     0
100
AcDbCircle
 10
172.7647820972
 20
122.8514104668
 30
0.0
 40
5.471771020008221
100
AcDbArc
 50
176.1246578427
 51
183.8753421573
  0
ARC
  5
32D
330
1F
100
AcDbEntity
  8
0
  6
Continuous
 62
     7
370
     0
100
AcDbCircle
 10
167.4066573312
 20
124.2752916662
 30
0.0
 40
1.058907208783265
100
AcDbArc
 50
256.7217883347
 51
264.5194025161
  0
LINE
  5
32E
330
1F
100
AcDbEntity
  8
0
  6
Continuous
 62
     7
370
     0
100
AcDbLine
 10
167.1634479028
 20
123.2446929806
 30
0.0
 11
167.1634479028
 21
123.445518961
 31
0.0
  0
ARC
  5
32F
330
1F
100
AcDbEntity
  8
0
  6
Continuous
 62
     7
370
     0
100
AcDbCircle
 10
172.1129301107
 20
122.8810095509
 30
0.0
 40
4.98157053556907
100
AcDbArc
 50
164.8048200846
 51
173.4932903445
  0
ARC
  5
330
330
1F
100
AcDbEntity
  8
0
  6
Continuous
 62
     7
370
     0
100
AcDbCircle
 10
167.3208722285
 20
124.2101734344
 30
0.0
 40
0.0280307620974697
100
AcDbArc
 50
188.7709565856
 51
236.7973125027
  0
ARC
  5
331
330
1F
100
AcDbEntity
  8
0
  6
Continuous
 62
     7
370
     0
100
AcDbCircle
 10
172.1129301107
 20
122.9044276528
 30
0.0
 40
4.98157053556976
100
AcDbArc
 50
164.8048200846
 51
173.4932903445
  0
LINE
  5
332
330
1F
100
AcDbEntity
  8
0
  6
Continuous
 62
     7
370
     0
100
AcDbLine
 10
167.1634479028
 20
123.4689370629
 30
0.0
 11
167.1634479028
 21
123.445518961
 31
0.0
  0
ARC
  5
333
330
1F
100
AcDbEntity
  8
0
  6
Continuous
 62
     7
370
     0
100
AcDbCircle
 10
172.7586104738
 20
122.934341886
 30
0.0
 40
5.46559945882702
100
AcDbArc
 50
176.9851259496
 51
180.4360047189
  0
ARC
  5
334
330
1F
100
AcDbEntity
  8
0
  6
Continuous
 62
     7
370
     0
100
AcDbCircle
 10
167.4066573313
 20
121.5102098262
 30
0.0
 40
1.058907208790349
100
AcDbArc
 50
95.4805974839
 51
103.2782116653
  0
LINE
  5
335
330
1F
100
AcDbEntity
  8
0
  6
Continuous
 62
     7
370
     0
100
AcDbLine
 10
167.1634479028
 20
122.5408085118
 30
0.0
 11
167.1634479028
 21
122.505063619
 31
0.0
  0
LWPOLYLINE
  5
336
330
1F
100
AcDbEntity
  8
0
  6
Continuous
 62
     7
370
     0
100
AcDbPolyline
 90
        9
 70
   128
 43
0.0
 10
167.3055225139
 20
121.5753643776
 10
167.3000504836
 20
121.5755610984
 10
167.2961404964
 20
121.5765393674
 10
167.2937939463
 20
121.5782988358
 10
167.2930116699
 20
121.5808388762
 10
167.2937939463
 20
121.5841585831
 10
167.2961404964
 20
121.5882567729
 10
167.3000504836
 20
121.5931319844
 10
167.3005758711
 20
121.5937155081
  0
ARC
  5
337
330
1F
100
AcDbEntity
  8
0
  6
Continuous
 62
     7
370
     0
100
AcDbCircle
 10
172.1129301107
 20
122.8810738396
 30
0.0
 40
4.981570535569353
100
AcDbArc
 50
186.5067096555
 51
195.1951799154
  0
LINE
  5
338
330
1F
100
AcDbEntity
  8
0
  6
Continuous
 62
     7
370
     0
100
AcDbLine
 10
167.1634479028
 20
122.3165644295
 30
0.0
 11
167.1634479028
 21
122.505063619
 31
0.0
  0
LINE
  5
339
330
1F
100
AcDbEntity
  8
0
  6
Continuous
 62
     7
370
     0
100
AcDbLine
 10
167.3055225139
 20
122.5054411948
 30
0.0
 11
167.1634479028
 21
122.505063619
 31
0.0
  0
LINE
  5
33A
330
1F
100
AcDbEntity
  8
0
  6
Continuous
 62
     7
370
     0
100
AcDbLine
 10
167.1634479028
 20
122.5408085118
 30
0.0
 11
167.3055225139
 21
122.540430936
 31
0.0
  0
LINE
  5
33B
330
1F
100
AcDbEntity
  8
0
  6
Continuous
 62
     7
370
     0
100
AcDbLine
 10
171.0176527827
 20
107.531063154
 30
0.0
 11
176.4176527827
 21
107.531063154
 31
0.0
  0
LINE
  5
33C
330
1F
100
AcDbEntity
  8
0
  6
Continuous
 62
     7
370
     0
100
AcDbLine
 10
176.4176527827
 20
106.9553135273
 30
0.0
 11
171.0176527827
 21
106.9553135273
 31
0.0
  0
LINE
  5
33D
330
1F
100
AcDbEntity
  8
0
  6
Continuous
 62
     7
370
     0
100
AcDbLine
 10
171.0176527827
 20
106.9553135273
 30
0.0
 11
171.0176527827
 21
107.531063154
 31
0.0
  0
LINE
  5
33E
330
1F
100
AcDbEntity
  8
0
  6
Continuous
 62
     7
370
     0
100
AcDbLine
 10
176.4176527827
 20
107.531063154
 30
0.0
 11
176.4176527827
 21
106.9553135273
 31
0.0
  0
LINE
  5
33F
330
1F
100
AcDbEntity
  8
0
  6
Continuous
 62
     7
370
     0
100
AcDbLine
 10
176.7176527827
 20
106.903124373
 30
0.0
 11
176.7176527827
 21
107.4484396302
 31
0.0
  0
LINE
  5
340
330
1F
100
AcDbEntity
  8
0
  6
Continuous
 62
     7
370
     0
100
AcDbLine
 10
176.7176527827
 20
107.4484396302
 30
0.0
 11
176.4176527827
 21
107.4484396302
 31
0.0
  0
LINE
  5
341
330
1F
100
AcDbEntity
  8
0
  6
Continuous
 62
     7
370
     0
100
AcDbLine
 10
176.4176527827
 20
107.531063154
 30
0.0
 11
177.2176527827
 21
107.531063154
 31
0.0
  0
LINE
  5
342
330
1F
100
AcDbEntity
  8
0
  6
Continuous
 62
     7
370
     0
100
AcDbLine
 10
177.2176527827
 20
107.531063154
 30
0.0
 11
177.2176527827
 21
106.903124373
 31
0.0
  0
LINE
  5
343
330
1F
100
AcDbEntity
  8
0
  6
Continuous
 62
     7
370
     0
100
AcDbLine
 10
176.7176527827
 20
106.903124373
 30
0.0
 11
177.2176527827
 21
106.903124373
 31
0.0
  0
LINE
  5
344
330
1F
100
AcDbEntity
  8
0
  6
Continuous
 62
     7
370
     0
100
AcDbLine
 10
170.2176527827
 20
127.256107268
 30
0.0
 11
170.2176527827
 21
107.531063154
 31
0.0
  0
LINE
  5
345
330
1F
100
AcDbEntity
  8
0
  6
Continuous
 62
     7
370
     0
100
AcDbLine
 10
170.2176527827
 20
127.256107268
 30
0.0
 11
177.2176527827
 21
127.256107268
 31
0.0
  0
LINE
  5
346
330
1F
100
AcDbEntity
  8
0
  6
Continuous
 62
     7
370
     0
100
AcDbLine
 10
177.2176527827
 20
127.256107268
 30
0.0
 11
177.2176527827
 21
107.531063154
 31
0.0
  0
LINE
  5
347
330
1F
100
AcDbEntity
  8
0
  6
Continuous
 62
     7
370
     0
100
AcDbLine
 10
170.2176527827
 20
107.531063154
 30
0.0
 11
171.0176527827
 21
107.531063154
 31
0.0
  0
LINE
  5
348
330
1F
100
AcDbEntity
  8
0
  6
Continuous
 62
     7
370
     0
100
AcDbLine
 10
170.2176527827
 20
106.903124373
 30
0.0
 11
170.2176527827
 21
107.531063154
 31
0.0
  0
LINE
  5
349
330
1F
100
AcDbEntity
  8
0
  6
Continuous
 62
     7
370
     0
100
AcDbLine
 10
171.0176527827
 20
107.4484396302
 30
0.0
 11
170.7176527827
 21
107.4484396302
 31
0.0
  0
LINE
  5
34A
330
1F
100
AcDbEntity
  8
0
  6
Continuous
 62
     7
370
     0
100
AcDbLine
 10
170.7176527827
 20
107.4484396302
 30
0.0
 11
170.7176527827
 21
106.903124373
 31
0.0
  0
LINE
  5
34B
330
1F
100
AcDbEntity
  8
0
  6
Continuous
 62
     7
370
     0
100
AcDbLine
 10
170.2176527827
 20
106.903124373
 30
0.0
 11
170.7176527827
 21
106.903124373
 31
0.0
  0
LINE
  5
34C
330
1F
100
AcDbEntity
  8
0
  6
Continuous
 62
     7
370
     0
100
AcDbLine
 10
171.0176527827
 20
106.4099982702
 30
0.0
 11
176.4176527827
 21
106.4099982702
 31
0.0
  0
LINE
  5
34D
330
1F
100
AcDbEntity
  8
0
  6
Continuous
 62
     7
370
     0
100
AcDbLine
 10
171.0176527827
 20
106.4099982702
 30
0.0
 11
171.0176527827
 21
106.9553135273
 31
0.0
  0
LINE
  5
34E
330
1F
100
AcDbEntity
  8
0
  6
Continuous
 62
     7
370
     0
100
AcDbLine
 10
176.4176527827
 20
106.4099982702
 30
0.0
 11
176.4176527827
 21
106.9553135273
 31
0.0
  0
LINE
  5
34F
330
1F
100
AcDbEntity
  8
0
  6
Continuous
 62
     1
370
     0
100
AcDbLine
 10
178.7176527827
 20
130.2791083729
 30
0.0
 11
175.1676527827
 21
130.2791083729
 31
0.0
  0
LINE
  5
350
330
1F
100
AcDbEntity
  8
0
  6
Continuous
 62
     1
370
     0
100
AcDbLine
 10
172.2676527827
 20
130.2791083729
 30
0.0
 11
168.7176527827
 21
130.2791083729
 31
0.0
  0
LINE
  5
351
330
1F
100
AcDbEntity
  8
0
  6
Continuous
 62
     1
370
     0
100
AcDbLine
 10
177.2176527827
 20
114.1764978625
 30
0.0
 11
178.7176527827
 21
114.1764978625
 31
0.0
  0
LINE
  5
352
330
1F
100
AcDbEntity
  8
0
  6
Continuous
 62
     1
370
     0
100
AcDbLine
 10
170.2176527827
 20
114.1764978625
 30
0.0
 11
168.7176527827
 21
114.1764978625
 31
0.0
  0
LINE
  5
353
330
1F
100
AcDbEntity
  8
0
  6
Continuous
 62
     1
370
     0
100
AcDbLine
 10
179.3141512501
 20
125.6927507462
 30
0.0
 11
179.3141512501
 21
120.0927507462
 31
0.0
  0
LINE
  5
354
330
1F
100
AcDbEntity
  8
0
  6
Continuous
 62
     1
370
     0
100
AcDbLine
 10
179.5422811837
 20
125.5671693509
 30
0.0
 11
179.5422811837
 21
120.2183321416
 31
0.0
  0
LINE
  5
355
330
1F
100
AcDbEntity
  8
0
  6
Continuous
 62
     1
370
     0
100
AcDbLine
 10
167.8930243816
 20
125.5658298342
 30
0.0
 11
167.8930243816
 21
125.5671693509
 31
0.0
  0
LINE
  5
356
330
1F
100
AcDbEntity
  8
0
  6
Continuous
 62
     1
370
     0
100
AcDbLine
 10
167.8930243816
 20
120.2183321416
 30
0.0
 11
167.8930243816
 21
125.5658298342
 31
0.0
  0
LINE
  5
357
330
1F
100
AcDbEntity
  8
0
  6
Continuous
 62
     1
370
     0
100
AcDbLine
 10
168.1211543153
 20
125.6913483306
 30
0.0
 11
168.1211543153
 21
125.6927507462
 31
0.0
  0
LINE
  5
358
330
1F
100
AcDbEntity
  8
0
  6
Continuous
 62
     1
370
     0
100
AcDbLine
 10
168.1211543153
 20
120.0927507462
 30
0.0
 11
168.1211543153
 21
125.6913483306
 31
0.0
  0
INSERT
  5
35E
330
1F
100
AcDbEntity
  8
0
  6
Continuous
 62
     7
370
     0
100
AcDbBlockReference
  2
SW_NOTE_1
 10
164.102994866
 20
180.7130327752
 30
0.0
  0
LEADER
  5
35F
330
1F
100
AcDbEntity
  8
0
  6
Continuous
 62
     7
370
     0
100
AcDbLeader
  3
SLDDIMSTYLE1
 76
     2
 10
172.5189438346
 20
170.6107900172
 30
0.0
 10
164.102994866
 20
180.7130327752
 30
0.0
  0
ENDSEC
  0
SECTION
  2
OBJECTS
  0
DICTIONARY
  5
C
330
0
100
AcDbDictionary
281
     1
  3
ACAD_GROUP
350
D
  3
ACAD_LAYOUT
350
1A
  3
ACAD_MLINESTYLE
350
17
  3
ACAD_PLOTSETTINGS
350
19
  3
ACAD_PLOTSTYLENAME
350
E
  3
ACAD_SCALELIST
350
47
  0
DICTIONARY
  5
D
102
{ACAD_REACTORS
330
C
102
}
330
C
100
AcDbDictionary
281
     1
  0
DICTIONARY
  5
1A
102
{ACAD_REACTORS
330
C
102
}
330
C
100
AcDbDictionary
281
     1
  3
Layout1
350
1E
  3
Layout2
350
26
  3
Model
350
22
  0
DICTIONARY
  5
17
102
{ACAD_REACTORS
330
C
102
}
330
C
100
AcDbDictionary
281
     1
  3
Standard
350
18
  0
DICTIONARY
  5
19
102
{ACAD_REACTORS
330
C
102
}
330
C
100
AcDbDictionary
281
     1
  0
ACDBDICTIONARYWDFLT
  5
E
102
{ACAD_REACTORS
330
C
102
}
330
C
100
AcDbDictionary
281
     1
  3
Normal
350
F
100
AcDbDictionaryWithDefault
340
F
  0
DICTIONARY
  5
47
102
{ACAD_REACTORS
330
C
102
}
330
C
100
AcDbDictionary
281
     1
  3
A0
350
48
  3
A1
350
49
  3
A2
350
4A
  3
A3
350
4B
  3
A4
350
4C
  3
A5
350
4D
  3
A6
350
4E
  3
A7
350
4F
  3
A8
350
50
  3
A9
350
51
  3
B0
350
52
  3
B1
350
53
  3
B2
350
54
  3
B3
350
55
  3
B4
350
56
  3
B5
350
57
  3
B6
350
58
  3
B7
350
59
  3
B8
350
5A
  3
B9
350
5B
  3
C0
350
5C
  3
C1
350
5D
  3
C2
350
5E
  3
C3
350
5F
  3
C4
350
60
  3
C5
350
61
  3
C6
350
62
  3
C7
350
63
  3
C8
350
64
  3
C9
350
65
  3
D0
350
66
  3
D1
350
67
  3
D2
350
68
  0
LAYOUT
  5
1E
102
{ACAD_REACTORS
330
1A
102
}
330
1A
100
AcDbPlotSettings
  1

  2
none_device
  4

  6

 40
0.0
 41
0.0
 42
0.0
 43
0.0
 44
0.0
 45
0.0
 46
0.0
 47
0.0
 48
0.0
 49
0.0
140
0.0
141
0.0
142
1.0
143
1.0
 70
   688
 72
     1
 73
     0
 74
     5
  7

 75
    16
147
1.0
148
0.0
149
0.0
100
AcDbLayout
  1
Layout1
 70
     1
 71
     1
 10
0.0
 20
0.0
 11
420.0
 21
297.0
 12
0.0
 22
0.0
 32
0.0
 14
1.0000000000E+20
 24
1.0000000000E+20
 34
1.0000000000E+20
 15
-1.0000000000E+20
 25
-1.0000000000E+20
 35
-1.0000000000E+20
146
0.0
 13
0.0
 23
0.0
 33
0.0
 16
1.0
 26
0.0
 36
0.0
 17
0.0
 27
1.0
 37
0.0
 76
     0
330
1B
  0
LAYOUT
  5
26
102
{ACAD_REACTORS
330
1A
102
}
330
1A
100
AcDbPlotSettings
  1

  2
none_device
  4

  6

 40
0.0
 41
0.0
 42
0.0
 43
0.0
 44
0.0
 45
0.0
 46
0.0
 47
0.0
 48
0.0
 49
0.0
140
0.0
141
0.0
142
1.0
143
1.0
 70
   688
 72
     1
 73
     0
 74
     5
  7

 75
    16
147
1.0
148
0.0
149
0.0
100
AcDbLayout
  1
Layout2
 70
     1
 71
     2
 10
0.0
 20
0.0
 11
0.0
 21
0.0
 12
0.0
 22
0.0
 32
0.0
 14
0.0
 24
0.0
 34
0.0
 15
0.0
 25
0.0
 35
0.0
146
0.0
 13
0.0
 23
0.0
 33
0.0
 16
1.0
 26
0.0
 36
0.0
 17
0.0
 27
1.0
 37
0.0
 76
     0
330
23
  0
LAYOUT
  5
22
102
{ACAD_REACTORS
330
1A
102
}
330
1A
100
AcDbPlotSettings
  1

  2
none_device
  4
Letter_(8.50_x_11.00_Inches)
  6

 40
6.35
 41
6.35
 42
6.35000508
 43
6.35000508
 44
215.9
 45
279.4
 46
0.0
 47
0.0
 48
0.0
 49
0.0
140
0.0
141
0.0
142
1.0
143
1.0
 70
  1712
 72
     1
 73
     0
 74
     0
  7

 75
     0
147
1.0
148
0.0
149
0.0
100
AcDbLayout
  1
Model
 70
     1
 71
     0
 10
0.0
 20
0.0
 11
210.0
 21
297.0
 12
0.0
 22
0.0
 32
0.0
 14
0.0
 24
0.0
 34
0.0
 15
210.0
 25
297.0
 35
0.0
146
0.0
 13
0.0
 23
0.0
 33
0.0
 16
1.0
 26
0.0
 36
0.0
 17
0.0
 27
1.0
 37
0.0
 76
     0
330
1F
331
29
  0
MLINESTYLE
  5
18
102
{ACAD_REACTORS
330
17
102
}
330
17
100
AcDbMlineStyle
  2
Standard
 70
     0
  3

 62
   256
 51
90.0
 52
90.0
 71
     2
 49
0.5
 62
   256
  6
BYLAYER
 49
-0.5
 62
   256
  6
BYLAYER
  0
ACDBPLACEHOLDER
  5
F
102
{ACAD_REACTORS
330
E
102
}
330
E
  0
SCALE
  5
48
102
{ACAD_REACTORS
330
47
102
}
330
47
100
AcDbScale
 70
     0
300
1:1
140
1.0
141
1.0
290
     1
  0
SCALE
  5
49
102
{ACAD_REACTORS
330
47
102
}
330
47
100
AcDbScale
 70
     0
300
1:2
140
1.0
141
2.0
290
     0
  0
SCALE
  5
4A
102
{ACAD_REACTORS
330
47
102
}
330
47
100
AcDbScale
 70
     0
300
1:4
140
1.0
141
4.0
290
     0
  0
SCALE
  5
4B
102
{ACAD_REACTORS
330
47
102
}
330
47
100
AcDbScale
 70
     0
300
1:5
140
1.0
141
5.0
290
     0
  0
SCALE
  5
4C
102
{ACAD_REACTORS
330
47
102
}
330
47
100
AcDbScale
 70
     0
300
1:8
140
1.0
141
8.0
290
     0
  0
SCALE
  5
4D
102
{ACAD_REACTORS
330
47
102
}
330
47
100
AcDbScale
 70
     0
300
1:10
140
1.0
141
10.0
290
     0
  0
SCALE
  5
4E
102
{ACAD_REACTORS
330
47
102
}
330
47
100
AcDbScale
 70
     0
300
1:16
140
1.0
141
16.0
290
     0
  0
SCALE
  5
4F
102
{ACAD_REACTORS
330
47
102
}
330
47
100
AcDbScale
 70
     0
300
1:20
140
1.0
141
20.0
290
     0
  0
SCALE
  5
50
102
{ACAD_REACTORS
330
47
102
}
330
47
100
AcDbScale
 70
     0
300
1:30
140
1.0
141
30.0
290
     0
  0
SCALE
  5
51
102
{ACAD_REACTORS
330
47
102
}
330
47
100
AcDbScale
 70
     0
300
1:40
140
1.0
141
40.0
290
     0
  0
SCALE
  5
52
102
{ACAD_REACTORS
330
47
102
}
330
47
100
AcDbScale
 70
     0
300
1:50
140
1.0
141
50.0
290
     0
  0
SCALE
  5
53
102
{ACAD_REACTORS
330
47
102
}
330
47
100
AcDbScale
 70
     0
300
1:100
140
1.0
141
100.0
290
     0
  0
SCALE
  5
54
102
{ACAD_REACTORS
330
47
102
}
330
47
100
AcDbScale
 70
     0
300
2:1
140
2.0
141
1.0
290
     0
  0
SCALE
  5
55
102
{ACAD_REACTORS
330
47
102
}
330
47
100
AcDbScale
 70
     0
300
4:1
140
4.0
141
1.0
290
     0
  0
SCALE
  5
56
102
{ACAD_REACTORS
330
47
102
}
330
47
100
AcDbScale
 70
     0
300
8:1
140
8.0
141
1.0
290
     0
  0
SCALE
  5
57
102
{ACAD_REACTORS
330
47
102
}
330
47
100
AcDbScale
 70
     0
300
10:1
140
10.0
141
1.0
290
     0
  0
SCALE
  5
58
102
{ACAD_REACTORS
330
47
102
}
330
47
100
AcDbScale
 70
     0
300
100:1
140
100.0
141
1.0
290
     0
  0
SCALE
  5
59
102
{ACAD_REACTORS
330
47
102
}
330
47
100
AcDbScale
 70
     0
300
1/128" = 1'-0"
140
0.0078125
141
12.0
290
     0
  0
SCALE
  5
5A
102
{ACAD_REACTORS
330
47
102
}
330
47
100
AcDbScale
 70
     0
300
1/64" = 1'-0"
140
0.015625
141
12.0
290
     0
  0
SCALE
  5
5B
102
{ACAD_REACTORS
330
47
102
}
330
47
100
AcDbScale
 70
     0
300
1/32" = 1'-0"
140
0.03125
141
12.0
290
     0
  0
SCALE
  5
5C
102
{ACAD_REACTORS
330
47
102
}
330
47
100
AcDbScale
 70
     0
300
1/16" = 1'-0"
140
0.0625
141
12.0
290
     0
  0
SCALE
  5
5D
102
{ACAD_REACTORS
330
47
102
}
330
47
100
AcDbScale
 70
     0
300
3/32" = 1'-0"
140
0.09375
141
12.0
290
     0
  0
SCALE
  5
5E
102
{ACAD_REACTORS
330
47
102
}
330
47
100
AcDbScale
 70
     0
300
1/8" = 1'-0"
140
0.125
141
12.0
290
     0
  0
SCALE
  5
5F
102
{ACAD_REACTORS
330
47
102
}
330
47
100
AcDbScale
 70
     0
300
3/16" = 1'-0"
140
0.1875
141
12.0
290
     0
  0
SCALE
  5
60
102
{ACAD_REACTORS
330
47
102
}
330
47
100
AcDbScale
 70
     0
300
1/4" = 1'-0"
140
0.25
141
12.0
290
     0
  0
SCALE
  5
61
102
{ACAD_REACTORS
330
47
102
}
330
47
100
AcDbScale
 70
     0
300
3/8" = 1'-0"
140
0.375
141
12.0
290
     0
  0
SCALE
  5
62
102
{ACAD_REACTORS
330
47
102
}
330
47
100
AcDbScale
 70
     0
300
1/2" = 1'-0"
140
0.5
141
12.0
290
     0
  0
SCALE
  5
63
102
{ACAD_REACTORS
330
47
102
}
330
47
100
AcDbScale
 70
     0
300
3/4" = 1'-0"
140
0.75
141
12.0
290
     0
  0
SCALE
  5
64
102
{ACAD_REACTORS
330
47
102
}
330
47
100
AcDbScale
 70
     0
300
1" = 1'-0"
140
1.0
141
12.0
290
     0
  0
SCALE
  5
65
102
{ACAD_REACTORS
330
47
102
}
330
47
100
AcDbScale
 70
     0
300
1-1/2" = 1'-0"
140
1.5
141
12.0
290
     0
  0
SCALE
  5
66
102
{ACAD_REACTORS
330
47
102
}
330
47
100
AcDbScale
 70
     0
300
3" = 1'-0"
140
3.0
141
12.0
290
     0
  0
SCALE
  5
67
102
{ACAD_REACTORS
330
47
102
}
330
47
100
AcDbScale
 70
     0
300
6" = 1'-0"
140
6.0
141
12.0
290
     0
  0
SCALE
  5
68
102
{ACAD_REACTORS
330
47
102
}
330
47
100
AcDbScale
 70
     0
300
1'-0" = 1'-0"
140
12.0
141
12.0
290
     0
  0
ENDSEC
  0
EOF
