  0
SECTION
  2
HEADER
  9
$ACADVER
  1
AC1015
  9
$ACADMAINTVER
 70
     6
  9
$DWGCODEPAGE
  3
DOS932
  9
$INSBASE
 10
0.0
 20
0.0
 30
0.0
  9
$EXTMIN
 10
0.0
 20
0.0
 30
0.0
  9
$EXTMAX
 10
210.0
 20
297.0
 30
0.0
  9
$LIMMIN
 10
0.0
 20
0.0
  9
$LIMMAX
 10
210.0
 20
297.0
  9
$ORTHOMODE
 70
     0
  9
$REGENMODE
 70
     1
  9
$FILLMODE
 70
     1
  9
$QTEXTMODE
 70
     0
  9
$MIRRTEXT
 70
     1
  9
$LTSCALE
 40
1.0
  9
$ATTMODE
 70
     1
  9
$TEXTSIZE
 40
3.5
  9
$TRACEWID
 40
1.0
  9
$TEXTSTYLE
  7
Standard
  9
$CLAYER
  8
0
  9
$CELTYPE
  6
ByLayer
  9
$CECOLOR
 62
   256
  9
$CELTSCALE
 40
1.0
  9
$DISPSILH
 70
     0
  9
$DIMSCALE
 40
1.0
  9
$DIMASZ
 40
3.0
  9
$DIMEXO
 40
1.0
  9
$DIMDLI
 40
3.75
  9
$DIMRND
 40
0.0
  9
$DIMDLE
 40
0.0
  9
$DIMEXE
 40
1.0
  9
$DIMTP
 40
0.0
  9
$DIMTM
 40
0.0
  9
$DIMTXT
 40
3.5
  9
$DIMCEN
 40
2.5
  9
$DIMTSZ
 40
0.0
  9
$DIMTOL
 70
     0
  9
$DIMLIM
 70
     0
  9
$DIMTIH
 70
     1
  9
$DIMTOH
 70
     1
  9
$DIMSE1
 70
     0
  9
$DIMSE2
 70
     0
  9
$DIMTAD
 70
     1
  9
$DIMZIN
 70
     0
  9
$DIMBLK
  1

  9
$DIMASO
 70
     1
  9
$DIMSHO
 70
     1
  9
$DIMPOST
  1

  9
$DIMAPOST
  1

  9
$DIMALT
 70
     0
  9
$DIMALTD
 70
     3
  9
$DIMALTF
 40
0.0393700787
  9
$DIMLFAC
 40
2.0
  9
$DIMTOFL
 70
     1
  9
$DIMTVP
 40
0.0
  9
$DIMTIX
 70
     0
  9
$DIMSOXD
 70
     0
  9
$DIMSAH
 70
     0
  9
$DIMBLK1
  1

  9
$DIMBLK2
  1

  9
$DIMSTYLE
  2
ISO-25
  9
$DIMCLRD
 70
     0
  9
$DIMCLRE
 70
     0
  9
$DIMCLRT
 70
     0
  9
$DIMTFAC
 40
1.0
  9
$DIMGAP
 40
1.524
  9
$DIMJUST
 70
     0
  9
$DIMSD1
 70
     0
  9
$DIMSD2
 70
     0
  9
$DIMTOLJ
 70
     0
  9
$DIMTZIN
 70
     0
  9
$DIMALTZ
 70
     0
  9
$DIMALTTZ
 70
     0
  9
$DIMUPT
 70
     0
  9
$DIMDEC
 70
     1
  9
$DIMTDEC
 70
     3
  9
$DIMALTU
 70
     2
  9
$DIMALTTD
 70
     3
  9
$DIMTXSTY
  7
Standard
  9
$DIMAUNIT
 70
     0
  9
$DIMADEC
 70
     2
  9
$DIMALTRND
 40
0.0
  9
$DIMAZIN
 70
     0
  9
$DIMDSEP
 70
    44
  9
$DIMATFIT
 70
     3
  9
$DIMFRAC
 70
     0
  9
$DIMLDRBLK
  1

  9
$DIMLUNIT
 70
     2
  9
$DIMLWD
 70
    -2
  9
$DIMLWE
 70
    -2
  9
$DIMTMOVE
 70
     0
  9
$LUNITS
 70
     2
  9
$LUPREC
 70
     1
  9
$SKETCHINC
 40
1.0
  9
$FILLETRAD
 40
10.0
  9
$AUNITS
 70
     0
  9
$AUPREC
 70
     2
  9
$MENU
  1
.
  9
$ELEVATION
 40
0.0
  9
$PELEVATION
 40
0.0
  9
$THICKNESS
 40
0.0
  9
$LIMCHECK
 70
     0
  9
$CHAMFERA
 40
0.0
  9
$CHAMFERB
 40
0.0
  9
$CHAMFERC
 40
0.0
  9
$CHAMFERD
 40
0.0
  9
$SKPOLY
 70
     0
  9
$TDCREATE
 40
2457984.688678658
  9
$TDUCREATE
 40
2457984.313678658
  9
$TDUPDATE
 40
2457984.688682014
  9
$TDUUPDATE
 40
2457984.313682014
  9
$TDINDWG
 40
0.0000000116
  9
$TDUSRTIMER
 40
0.0000000116
  9
$USRTIMER
 70
     1
  9
$ANGBASE
 50
0.0
  9
$ANGDIR
 70
     0
  9
$PDMODE
 70
     0
  9
$PDSIZE
 40
-1.0
  9
$PLINEWID
 40
0.0
  9
$SPLFRAME
 70
     0
  9
$SPLINETYPE
 70
     6
  9
$SPLINESEGS
 70
     8
  9
$HANDSEED
  5
4B1
  9
$SURFTAB1
 70
     6
  9
$SURFTAB2
 70
     6
  9
$SURFTYPE
 70
     6
  9
$SURFU
 70
     6
  9
$SURFV
 70
     6
  9
$UCSBASE
  2

  9
$UCSNAME
  2

  9
$UCSORG
 10
0.0
 20
0.0
 30
0.0
  9
$UCSXDIR
 10
1.0
 20
0.0
 30
0.0
  9
$UCSYDIR
 10
0.0
 20
1.0
 30
0.0
  9
$UCSORTHOREF
  2

  9
$UCSORTHOVIEW
 70
     0
  9
$UCSORGTOP
 10
0.0
 20
0.0
 30
0.0
  9
$UCSORGBOTTOM
 10
0.0
 20
0.0
 30
0.0
  9
$UCSORGLEFT
 10
0.0
 20
0.0
 30
0.0
  9
$UCSORGRIGHT
 10
0.0
 20
0.0
 30
0.0
  9
$UCSORGFRONT
 10
0.0
 20
0.0
 30
0.0
  9
$UCSORGBACK
 10
0.0
 20
0.0
 30
0.0
  9
$PUCSBASE
  2

  9
$PUCSNAME
  2

  9
$PUCSORG
 10
0.0
 20
0.0
 30
0.0
  9
$PUCSXDIR
 10
1.0
 20
0.0
 30
0.0
  9
$PUCSYDIR
 10
0.0
 20
1.0
 30
0.0
  9
$PUCSORTHOREF
  2

  9
$PUCSORTHOVIEW
 70
     0
  9
$PUCSORGTOP
 10
0.0
 20
0.0
 30
0.0
  9
$PUCSORGBOTTOM
 10
0.0
 20
0.0
 30
0.0
  9
$PUCSORGLEFT
 10
0.0
 20
0.0
 30
0.0
  9
$PUCSORGRIGHT
 10
0.0
 20
0.0
 30
0.0
  9
$PUCSORGFRONT
 10
0.0
 20
0.0
 30
0.0
  9
$PUCSORGBACK
 10
0.0
 20
0.0
 30
0.0
  9
$USERI1
 70
     0
  9
$USERI2
 70
     0
  9
$USERI3
 70
     0
  9
$USERI4
 70
     0
  9
$USERI5
 70
     0
  9
$USERR1
 40
0.0
  9
$USERR2
 40
0.0
  9
$USERR3
 40
0.0
  9
$USERR4
 40
0.0
  9
$USERR5
 40
0.0
  9
$WORLDVIEW
 70
     1
  9
$SHADEDGE
 70
     3
  9
$SHADEDIF
 70
    70
  9
$TILEMODE
 70
     1
  9
$MAXACTVP
 70
    64
  9
$PINSBASE
 10
0.0
 20
0.0
 30
0.0
  9
$PLIMCHECK
 70
     0
  9
$PEXTMIN
 10
1.0000000000E+20
 20
1.0000000000E+20
 30
1.0000000000E+20
  9
$PEXTMAX
 10
-1.0000000000E+20
 20
-1.0000000000E+20
 30
-1.0000000000E+20
  9
$PLIMMIN
 10
0.0
 20
0.0
  9
$PLIMMAX
 10
420.0
 20
297.0
  9
$UNITMODE
 70
     0
  9
$VISRETAIN
 70
     1
  9
$PLINEGEN
 70
     0
  9
$PSLTSCALE
 70
     1
  9
$TREEDEPTH
 70
  3020
  9
$CMLSTYLE
  2
Standard
  9
$CMLJUST
 70
     0
  9
$CMLSCALE
 40
20.0
  9
$PROXYGRAPHICS
 70
     1
  9
$MEASUREMENT
 70
     1
  9
$CELWEIGHT
370
    -1
  9
$ENDCAPS
280
     0
  9
$JOINSTYLE
280
     0
  9
$LWDISPLAY
290
     1
  9
$INSUNITS
 70
     4
  9
$HYPERLINKBASE
  1

  9
$STYLESHEET
  1

  9
$XEDIT
290
     1
  9
$CEPSNTYPE
380
     0
  9
$PSTYLEMODE
290
     1
  9
$FINGERPRINTGUID
  2
{1F4D4968-8829-4726-ABF8-5E5083CE2E25}
  9
$VERSIONGUID
  2
{FAEB1C32-E019-11D5-929B-00C0DF256EC4}
  9
$EXTNAMES
290
     1
  9
$PSVPSCALE
 40
0.0
  9
$OLESTARTUP
290
     0
  0
ENDSEC
  0
SECTION
  2
CLASSES
  0
CLASS
  1
ACDBDICTIONARYWDFLT
  2
AcDbDictionaryWithDefault
  3
ObjectDBX Classes
 90
        0
280
     0
281
     0
  0
CLASS
  1
VISUALSTYLE
  2
AcDbVisualStyle
  3
ObjectDBX Classes
 90
     4095
280
     0
281
     0
  0
CLASS
  1
MATERIAL
  2
AcDbMaterial
  3
ObjectDBX Classes
 90
     1153
280
     0
281
     0
  0
CLASS
  1
SCALE
  2
AcDbScale
  3
ObjectDBX Classes
 90
     1153
280
     0
281
     0
  0
CLASS
  1
TABLESTYLE
  2
AcDbTableStyle
  3
ObjectDBX Classes
 90
     4095
280
     0
281
     0
  0
CLASS
  1
MLEADERSTYLE
  2
AcDbMLeaderStyle
  3
ACDB_MLEADERSTYLE_CLASS
 90
     4095
280
     0
281
     0
  0
CLASS
  1
SUN
  2
AcDbSun
  3
SCENEOE
 90
     1153
280
     0
281
     0
  0
CLASS
  1
ACDBPLACEHOLDER
  2
AcDbPlaceHolder
  3
ObjectDBX Classes
 90
        0
280
     0
281
     0
  0
CLASS
  1
LAYOUT
  2
AcDbLayout
  3
ObjectDBX Classes
 90
        0
280
     0
281
     0
  0
ENDSEC
  0
SECTION
  2
TABLES
  0
TABLE
  2
VPORT
  5
8
330
0
100
AcDbSymbolTable
 70
     1
  0
VPORT
  5
29
330
8
100
AcDbSymbolTableRecord
100
AcDbViewportTableRecord
  2
*Active
 70
     0
 10
0.0
 20
0.0
 11
1.0
 21
1.0
 12
105.0
 22
148.5
 13
0.0
 23
0.0
 14
10.0
 24
10.0
 15
10.0
 25
10.0
 16
0.0
 26
0.0
 36
1.0
 17
0.0
 27
0.0
 37
0.0
 40
297.0
 41
0.7070707071
 42
50.0
 43
0.0
 44
0.0
 50
0.0
 51
0.0
 71
     0
 72
  2000
 73
     1
 74
     3
 75
     0
 76
     0
 77
     0
 78
     0
281
     0
 65
     1
110
0.0
120
0.0
130
0.0
111
1.0
121
0.0
131
0.0
112
0.0
122
1.0
132
0.0
 79
     0
146
0.0
  0
ENDTAB
  0
TABLE
  2
LTYPE
  5
5
330
0
100
AcDbSymbolTable
 70
     6
  0
LTYPE
  5
14
330
5
100
AcDbSymbolTableRecord
100
AcDbLinetypeTableRecord
  2
ByBlock
 70
     0
  3

 72
    65
 73
     0
 40
0.0
  0
LTYPE
  5
15
330
5
100
AcDbSymbolTableRecord
100
AcDbLinetypeTableRecord
  2
ByLayer
 70
     0
  3

 72
    65
 73
     0
 40
0.0
  0
LTYPE
  5
16
330
5
100
AcDbSymbolTableRecord
100
AcDbLinetypeTableRecord
  2
Continuous
 70
     0
  3
Solid line
 72
    65
 73
     0
 40
0.0
  0
LTYPE
  5
6E
330
5
100
AcDbSymbolTableRecord
100
AcDbLinetypeTableRecord
  2
HIDDEN
 70
     0
  3
Hidden __ __ __ __ __ __ __ __ __ __ __ __ __ __
 72
    65
 73
     2
 40
1.905
 49
1.27
 74
     0
 49
-0.635
 74
     0
  0
LTYPE
  5
6F
330
5
100
AcDbSymbolTableRecord
100
AcDbLinetypeTableRecord
  2
PHANTOM
 70
     0
  3
Phantom ______  __  __  ______  __  __  ______
 72
    65
 73
     6
 40
12.7
 49
6.35
 74
     0
 49
-1.27
 74
     0
 49
1.27
 74
     0
 49
-1.27
 74
     0
 49
1.27
 74
     0
 49
-1.27
 74
     0
  0
LTYPE
  5
70
330
5
100
AcDbSymbolTableRecord
100
AcDbLinetypeTableRecord
  2
CENTER
 70
     0
  3
Center ____ _ ____ _ ____ _ ____ _ ____ _ ____
 72
    65
 73
     4
 40
10.16
 49
6.35
 74
     0
 49
-1.27
 74
     0
 49
1.27
 74
     0
 49
-1.27
 74
     0
  0
LTYPE
  5
71
330
5
100
AcDbSymbolTableRecord
100
AcDbLinetypeTableRecord
  2
CENTERX2
 70
     0
  3
Center (2x) ________  __  ________  __  _____
 72
    65
 73
     4
 40
20.32
 49
12.7
 74
     0
 49
-2.54
 74
     0
 49
2.54
 74
     0
 49
-2.54
 74
     0
  0
LTYPE
  5
72
330
5
100
AcDbSymbolTableRecord
100
AcDbLinetypeTableRecord
  2
DOT2
 70
     0
  3
Dot (.5x) ........................................
 72
    65
 73
     2
 40
0.635
 49
0.0
 74
     0
 49
-0.635
 74
     0
  0
ENDTAB
  0
TABLE
  2
LAYER
  5
2
330
0
100
AcDbSymbolTable
 70
     1
  0
LAYER
  5
10
330
2
100
AcDbSymbolTableRecord
100
AcDbLayerTableRecord
  2
0
 70
     0
 62
     7
  6
Continuous
370
    -3
390
F
  0
ENDTAB
  0
TABLE
  2
STYLE
  5
3
330
0
100
AcDbSymbolTable
 70
     2
  0
STYLE
  5
11
330
3
100
AcDbSymbolTableRecord
100
AcDbTextStyleTableRecord
  2
Standard
 70
     0
 40
0.0
 41
1.0
 50
0.0
 71
     0
 42
3.5
  3
txt
  4
bigfont
  0
STYLE
  5
7B
330
3
100
AcDbSymbolTableRecord
100
AcDbTextStyleTableRecord
  2
SLDTEXTSTYLE0
 70
     0
 40
0.0
 41
0.7
 50
0.0
 71
     0
 42
3.5
  3
TXT
  4
bigfont
  0
ENDTAB
  0
TABLE
  2
VIEW
  5
6
330
0
100
AcDbSymbolTable
 70
     0
  0
ENDTAB
  0
TABLE
  2
UCS
  5
7
330
0
100
AcDbSymbolTable
 70
     0
  0
ENDTAB
  0
TABLE
  2
APPID
  5
9
330
0
100
AcDbSymbolTable
 70
     1
  0
APPID
  5
12
330
9
100
AcDbSymbolTableRecord
100
AcDbRegAppTableRecord
  2
ACAD
 70
     0
  0
ENDTAB
  0
TABLE
  2
DIMSTYLE
  5
A
330
0
100
AcDbSymbolTable
 70
     6
100
AcDbDimStyleTable
  0
DIMSTYLE
105
27
330
A
100
AcDbSymbolTableRecord
100
AcDbDimStyleTableRecord
  2
ISO-25
 70
     0
 41
2.5
 42
0.625
 43
3.75
 44
1.25
 73
     0
 74
     0
 77
     1
 78
     8
140
2.5
141
2.5
143
0.0393700787
147
0.625
171
     3
172
     1
178
     0
271
     2
272
     2
274
     3
278
    44
283
     0
284
     8
340
11
  0
DIMSTYLE
105
15C
102
{ACAD_REACTORS
330
15B
330
167
330
171
330
188
330
192
330
19C
330
1A6
330
2E6
330
493
102
}
330
A
100
AcDbSymbolTableRecord
100
AcDbDimStyleTableRecord
  2
SLDDIMSTYLE0
 70
     0
 41
3.0
 44
0.0
 45
0.000000001
 73
     0
 74
     0
 77
     3
 78
    12
 79
     3
140
3.5
147
0.875
173
     1
178
     0
271
     1
272
     3
276
     2
284
    12
340
7B
  0
DIMSTYLE
105
17C
102
{ACAD_REACTORS
330
17B
330
49D
102
}
330
A
100
AcDbSymbolTableRecord
100
AcDbDimStyleTableRecord
  2
SLDDIMSTYLE1
 70
     0
 41
3.0
 44
0.0
 45
0.000000001
 73
     0
 74
     0
 77
     3
 78
    12
 79
     3
140
3.5
147
0.875
172
     1
173
     1
178
     0
271
     1
272
     3
276
     2
284
    12
289
     0
340
7B
  0
DIMSTYLE
105
1B3
102
{ACAD_REACTORS
330
1B2
330
2DA
102
}
330
A
100
AcDbSymbolTableRecord
100
AcDbDimStyleTableRecord
  2
SLDDIMSTYLE2
 70
     0
 41
3.0
 44
0.0
 45
0.000000001
 73
     0
 74
     0
 77
     3
 78
    12
 79
     3
140
3.5
147
0.875
173
     1
178
     0
271
     0
272
     3
276
     2
284
    12
340
7B
  0
DIMSTYLE
105
1C0
102
{ACAD_REACTORS
330
1BF
102
}
330
A
100
AcDbSymbolTableRecord
100
AcDbDimStyleTableRecord
  2
SLDDIMSTYLE3
 70
     0
 41
3.0
 44
0.0
 45
0.000000001
 78
    12
 79
     3
140
3.5
141
0.0
147
0.875
173
     1
178
     0
271
     1
272
     3
276
     2
284
    12
340
7B
  0
DIMSTYLE
105
1D1
330
A
100
AcDbSymbolTableRecord
100
AcDbDimStyleTableRecord
  2
SLDDIMSTYLE4
 70
     0
 41
3.0
 44
0.0
 45
0.000000001
146
3.0
147
0.0
173
     1
178
     0
271
     0
272
     0
276
     2
340
11
  0
ENDTAB
  0
TABLE
  2
BLOCK_RECORD
  5
1
330
0
100
AcDbSymbolTable
 70
    23
  0
BLOCK_RECORD
  5
1F
330
1
100
AcDbSymbolTableRecord
100
AcDbBlockTableRecord
  2
*Model_Space
340
22
  0
BLOCK_RECORD
  5
1B
330
1
100
AcDbSymbolTableRecord
100
AcDbBlockTableRecord
  2
*Paper_Space
340
1E
  0
BLOCK_RECORD
  5
23
330
1
100
AcDbSymbolTableRecord
100
AcDbBlockTableRecord
  2
*Paper_Space0
340
26
  0
BLOCK_RECORD
  5
15D
330
1
100
AcDbSymbolTableRecord
100
AcDbBlockTableRecord
  2
_D
340
0
  0
BLOCK_RECORD
  5
168
330
1
100
AcDbSymbolTableRecord
100
AcDbBlockTableRecord
  2
_D_1
340
0
  0
BLOCK_RECORD
  5
172
330
1
100
AcDbSymbolTableRecord
100
AcDbBlockTableRecord
  2
_D_2
340
0
  0
BLOCK_RECORD
  5
17D
330
1
100
AcDbSymbolTableRecord
100
AcDbBlockTableRecord
  2
_D_3
340
0
  0
BLOCK_RECORD
  5
189
330
1
100
AcDbSymbolTableRecord
100
AcDbBlockTableRecord
  2
_D_4
340
0
  0
BLOCK_RECORD
  5
193
330
1
100
AcDbSymbolTableRecord
100
AcDbBlockTableRecord
  2
_D_5
340
0
  0
BLOCK_RECORD
  5
19D
330
1
100
AcDbSymbolTableRecord
100
AcDbBlockTableRecord
  2
_D_6
340
0
  0
BLOCK_RECORD
  5
1A7
330
1
100
AcDbSymbolTableRecord
100
AcDbBlockTableRecord
  2
_D_7
340
0
  0
BLOCK_RECORD
  5
1B4
330
1
100
AcDbSymbolTableRecord
100
AcDbBlockTableRecord
  2
_D_8
340
0
  0
BLOCK_RECORD
  5
1C1
330
1
100
AcDbSymbolTableRecord
100
AcDbBlockTableRecord
  2
_D_9
340
0
  0
BLOCK_RECORD
  5
1CB
330
1
100
AcDbSymbolTableRecord
100
AcDbBlockTableRecord
  2
SW_NOTE_0
340
0
102
{BLKREFS
331
1D0
102
}
  0
BLOCK_RECORD
  5
1D3
330
1
100
AcDbSymbolTableRecord
100
AcDbBlockTableRecord
  2
SW_CENTERMARKSYMBOL_0
340
0
102
{BLKREFS
331
1DE
102
}
  0
BLOCK_RECORD
  5
1DF
330
1
100
AcDbSymbolTableRecord
100
AcDbBlockTableRecord
  2
SW_CENTERMARKSYMBOL_1
340
0
102
{BLKREFS
331
1EA
102
}
  0
BLOCK_RECORD
  5
1EB
330
1
100
AcDbSymbolTableRecord
100
AcDbBlockTableRecord
  2
SW_CENTERMARKSYMBOL_2
340
0
102
{BLKREFS
331
1F6
102
}
  0
BLOCK_RECORD
  5
1F7
330
1
100
AcDbSymbolTableRecord
100
AcDbBlockTableRecord
  2
SW_CENTERMARKSYMBOL_3
340
0
102
{BLKREFS
331
202
102
}
  0
BLOCK_RECORD
  5
203
330
1
100
AcDbSymbolTableRecord
100
AcDbBlockTableRecord
  2
SW_CENTERMARKSYMBOL_4
340
0
102
{BLKREFS
331
20E
102
}
  0
BLOCK_RECORD
  5
2DB
330
1
100
AcDbSymbolTableRecord
100
AcDbBlockTableRecord
  2
_D_10
340
0
  0
BLOCK_RECORD
  5
2E7
330
1
100
AcDbSymbolTableRecord
100
AcDbBlockTableRecord
  2
_D_11
340
0
  0
BLOCK_RECORD
  5
2F2
330
1
100
AcDbSymbolTableRecord
100
AcDbBlockTableRecord
  2
SW_CENTERMARKSYMBOL_5
340
0
102
{BLKREFS
331
2FD
102
}
  0
BLOCK_RECORD
  5
494
330
1
100
AcDbSymbolTableRecord
100
AcDbBlockTableRecord
  2
_D_12
340
0
  0
BLOCK_RECORD
  5
49E
330
1
100
AcDbSymbolTableRecord
100
AcDbBlockTableRecord
  2
_D_13
340
0
  0
BLOCK_RECORD
  5
4A9
330
1
100
AcDbSymbolTableRecord
100
AcDbBlockTableRecord
  2
SW_NOTE_1
340
0
102
{BLKREFS
331
4AF
102
}
  0
ENDTAB
  0
ENDSEC
  0
SECTION
  2
BLOCKS
  0
BLOCK
  5
20
330
1F
100
AcDbEntity
  8
0
100
AcDbBlockBegin
  2
*Model_Space
 70
     0
 10
0.0
 20
0.0
 30
0.0
  3
*Model_Space
  1

  0
ENDBLK
  5
21
330
1F
100
AcDbEntity
  8
0
100
AcDbBlockEnd
  0
BLOCK
  5
1C
330
1B
100
AcDbEntity
 67
     1
  8
0
100
AcDbBlockBegin
  2
*Paper_Space
 70
     0
 10
0.0
 20
0.0
 30
0.0
  3
*Paper_Space
  1

  0
ENDBLK
  5
1D
330
1B
100
AcDbEntity
 67
     1
  8
0
100
AcDbBlockEnd
  0
BLOCK
  5
24
330
23
100
AcDbEntity
  8
0
100
AcDbBlockBegin
  2
*Paper_Space0
 70
     0
 10
0.0
 20
0.0
 30
0.0
  3
*Paper_Space0
  1

  0
ENDBLK
  5
25
330
23
100
AcDbEntity
  8
0
100
AcDbBlockEnd
  0
BLOCK
  5
15E
330
15D
100
AcDbEntity
  8
0
100
AcDbBlockBegin
  2
_D
 70
     0
 10
0.0
 20
0.0
 30
0.0
  3
_D
  1

  0
SOLID
  5
160
330
15D
100
AcDbEntity
  8
0
  6
Continuous
 62
     7
370
     0
100
AcDbTrace
 10
65.5033164514
 20
104.5908173277
 30
0.0
 11
68.5033164514
 21
103.8408173277
 31
0.0
 12
68.5033164514
 22
105.3408173277
 32
0.0
 13
68.5033164514
 23
105.3408173277
 33
0.0
  0
SOLID
  5
161
330
15D
100
AcDbEntity
  8
0
  6
Continuous
 62
     7
370
     0
100
AcDbTrace
 10
85.5033164514
 20
104.5908173277
 30
0.0
 11
82.5033164514
 21
105.3408173277
 31
0.0
 12
82.5033164514
 22
103.8408173277
 32
0.0
 13
82.5033164514
 23
103.8408173277
 33
0.0
  0
LINE
  5
162
330
15D
100
AcDbEntity
  8
0
  6
Continuous
 62
     7
370
     0
100
AcDbLine
 10
65.5033164514
 20
121.6063558788
 30
0.0
 11
65.5033164514
 21
103.5908173277
 31
0.0
  0
LINE
  5
163
330
15D
100
AcDbEntity
  8
0
  6
Continuous
 62
     7
370
     0
100
AcDbLine
 10
85.5033164514
 20
121.6063558788
 30
0.0
 11
85.5033164514
 21
103.5908173277
 31
0.0
  0
LINE
  5
164
330
15D
100
AcDbEntity
  8
0
  6
Continuous
 62
     7
370
     0
100
AcDbLine
 10
65.5033164514
 20
104.5908173277
 30
0.0
 11
85.5033164514
 21
104.5908173277
 31
0.0
  0
MTEXT
  5
165
330
15D
100
AcDbEntity
  8
0
  6
Continuous
 62
     7
370
     0
100
AcDbMText
 10
71.5315455799
 20
109.1025546497
 30
0.0
 40
3.5
 41
0.0
 71
     1
 72
     1
  1
%%c
  7
SLDTEXTSTYLE0
 73
     1
 44
1.0
  0
MTEXT
  5
166
330
15D
100
AcDbEntity
  8
0
  6
Continuous
 62
     7
370
     0
100
AcDbMText
 10
75.401476095
 20
109.1025546497
 30
0.0
 40
3.5
 41
0.0
 71
     1
 72
     1
  1
20
  7
SLDTEXTSTYLE0
 73
     1
 44
1.0
  0
ENDBLK
  5
15F
330
15D
100
AcDbEntity
  8
0
100
AcDbBlockEnd
  0
BLOCK
  5
169
330
168
100
AcDbEntity
  8
0
100
AcDbBlockBegin
  2
_D_1
 70
     0
 10
0.0
 20
0.0
 30
0.0
  3
_D_1
  1

  0
SOLID
  5
16B
330
168
100
AcDbEntity
  8
0
  6
Continuous
 62
     7
370
     0
100
AcDbTrace
 10
59.5033164514
 20
97.742736073
 30
0.0
 11
62.5033164514
 21
96.992736073
 31
0.0
 12
62.5033164514
 22
98.492736073
 32
0.0
 13
62.5033164514
 23
98.492736073
 33
0.0
  0
SOLID
  5
16C
330
168
100
AcDbEntity
  8
0
  6
Continuous
 62
     7
370
     0
100
AcDbTrace
 10
91.5033164514
 20
97.742736073
 30
0.0
 11
88.5033164514
 21
98.492736073
 31
0.0
 12
88.5033164514
 22
96.992736073
 32
0.0
 13
88.5033164514
 23
96.992736073
 33
0.0
  0
LINE
  5
16D
330
168
100
AcDbEntity
  8
0
  6
Continuous
 62
     7
370
     0
100
AcDbLine
 10
59.5033164514
 20
145.6063558788
 30
0.0
 11
59.5033164514
 21
96.742736073
 31
0.0
  0
LINE
  5
16E
330
168
100
AcDbEntity
  8
0
  6
Continuous
 62
     7
370
     0
100
AcDbLine
 10
91.5033164514
 20
150.6063558788
 30
0.0
 11
91.5033164514
 21
96.742736073
 31
0.0
  0
LINE
  5
16F
330
168
100
AcDbEntity
  8
0
  6
Continuous
 62
     7
370
     0
100
AcDbLine
 10
59.5033164514
 20
97.742736073
 30
0.0
 11
91.5033164514
 21
97.742736073
 31
0.0
  0
MTEXT
  5
170
330
168
100
AcDbEntity
  8
0
  6
Continuous
 62
     7
370
     0
100
AcDbMText
 10
73.4665109539
 20
102.2544729293
 30
0.0
 40
3.5
 41
0.0
 71
     1
 72
     1
  1
32
  7
SLDTEXTSTYLE0
 73
     1
 44
1.0
  0
ENDBLK
  5
16A
330
168
100
AcDbEntity
  8
0
100
AcDbBlockEnd
  0
BLOCK
  5
173
330
172
100
AcDbEntity
  8
0
100
AcDbBlockBegin
  2
_D_2
 70
     0
 10
0.0
 20
0.0
 30
0.0
  3
_D_2
  1

  0
SOLID
  5
175
330
172
100
AcDbEntity
  8
0
  6
Continuous
 62
     7
370
     0
100
AcDbTrace
 10
96.5033164514
 20
89.6063558788
 30
0.0
 11
93.5033164514
 21
90.3563558788
 31
0.0
 12
93.5033164514
 22
88.8563558788
 32
0.0
 13
93.5033164514
 23
88.8563558788
 33
0.0
  0
SOLID
  5
176
330
172
100
AcDbEntity
  8
0
  6
Continuous
 62
     7
370
     0
100
AcDbTrace
 10
54.5033164514
 20
89.6063558788
 30
0.0
 11
57.5033164514
 21
88.8563558788
 31
0.0
 12
57.5033164514
 22
90.3563558788
 32
0.0
 13
57.5033164514
 23
90.3563558788
 33
0.0
  0
LINE
  5
177
330
172
100
AcDbEntity
  8
0
  6
Continuous
 62
     7
370
     0
100
AcDbLine
 10
96.5033164514
 20
145.6063558788
 30
0.0
 11
96.5033164514
 21
88.6063558788
 31
0.0
  0
LINE
  5
178
330
172
100
AcDbEntity
  8
0
  6
Continuous
 62
     7
370
     0
100
AcDbLine
 10
54.5033164514
 20
145.6063558788
 30
0.0
 11
54.5033164514
 21
88.6063558788
 31
0.0
  0
LINE
  5
179
330
172
100
AcDbEntity
  8
0
  6
Continuous
 62
     7
370
     0
100
AcDbLine
 10
96.5033164514
 20
89.6063558788
 30
0.0
 11
54.5033164514
 21
89.6063558788
 31
0.0
  0
MTEXT
  5
17A
330
172
100
AcDbEntity
  8
0
  6
Continuous
 62
     7
370
     0
100
AcDbMText
 10
73.4665109539
 20
94.1180927352
 30
0.0
 40
3.5
 41
0.0
 71
     1
 72
     1
  1
42
  7
SLDTEXTSTYLE0
 73
     1
 44
1.0
  0
ENDBLK
  5
174
330
172
100
AcDbEntity
  8
0
100
AcDbBlockEnd
  0
BLOCK
  5
17E
330
17D
100
AcDbEntity
  8
0
100
AcDbBlockBegin
  2
_D_3
 70
     0
 10
0.0
 20
0.0
 30
0.0
  3
_D_3
  1

  0
SOLID
  5
180
330
17D
100
AcDbEntity
  8
0
  6
Continuous
 62
     7
370
     0
100
AcDbTrace
 10
109.2109838428
 20
146.6063558788
 30
0.0
 11
108.4609838428
 21
143.6063558788
 31
0.0
 12
109.9609838428
 22
143.6063558788
 32
0.0
 13
109.9609838428
 23
143.6063558788
 33
0.0
  0
SOLID
  5
181
330
17D
100
AcDbEntity
  8
0
  6
Continuous
 62
     7
370
     0
100
AcDbTrace
 10
109.2109838428
 20
151.6063558788
 30
0.0
 11
109.9609838428
 21
154.6063558788
 31
0.0
 12
108.4609838428
 22
154.6063558788
 32
0.0
 13
108.4609838428
 23
154.6063558788
 33
0.0
  0
LINE
  5
182
330
17D
100
AcDbEntity
  8
0
  6
Continuous
 62
     7
370
     0
100
AcDbLine
 10
97.5033164514
 20
146.6063558788
 30
0.0
 11
110.2109838428
 21
146.6063558788
 31
0.0
  0
LINE
  5
183
330
17D
100
AcDbEntity
  8
0
  6
Continuous
 62
     7
370
     0
100
AcDbLine
 10
92.5033164514
 20
151.6063558788
 30
0.0
 11
110.2109838428
 21
151.6063558788
 31
0.0
  0
LINE
  5
184
330
17D
100
AcDbEntity
  8
0
  6
Continuous
 62
     7
370
     0
100
AcDbLine
 10
109.2109838428
 20
146.6063558788
 30
0.0
 11
109.2109838428
 21
141.6063558788
 31
0.0
  0
LINE
  5
185
330
17D
100
AcDbEntity
  8
0
  6
Continuous
 62
     7
370
     0
100
AcDbLine
 10
109.2109838428
 20
146.6063558788
 30
0.0
 11
109.2109838428
 21
151.6063558788
 31
0.0
  0
LINE
  5
186
330
17D
100
AcDbEntity
  8
0
  6
Continuous
 62
     7
370
     0
100
AcDbLine
 10
109.2109838428
 20
151.6063558788
 30
0.0
 11
109.2109838428
 21
156.6063558788
 31
0.0
  0
MTEXT
  5
187
330
17D
100
AcDbEntity
  8
0
  6
Continuous
 62
     7
370
     0
100
AcDbMText
 10
104.6992469864
 20
148.08795313
 30
0.0
 40
3.5
 41
0.0
 71
     1
 72
     1
  1
5
  7
SLDTEXTSTYLE0
 11
-1.037486409151910E-14
 21
1.0
 31
0.0
 73
     1
 44
1.0
  0
ENDBLK
  5
17F
330
17D
100
AcDbEntity
  8
0
100
AcDbBlockEnd
  0
BLOCK
  5
18A
330
189
100
AcDbEntity
  8
0
100
AcDbBlockBegin
  2
_D_4
 70
     0
 10
0.0
 20
0.0
 30
0.0
  3
_D_4
  1

  0
SOLID
  5
18C
330
189
100
AcDbEntity
  8
0
  6
Continuous
 62
     7
370
     0
100
AcDbTrace
 10
109.2109838428
 20
151.6063558788
 30
0.0
 11
109.9609838428
 21
154.6063558788
 31
0.0
 12
108.4609838428
 22
154.6063558788
 32
0.0
 13
108.4609838428
 23
154.6063558788
 33
0.0
  0
SOLID
  5
18D
330
189
100
AcDbEntity
  8
0
  6
Continuous
 62
     7
370
     0
100
AcDbTrace
 10
109.2109838428
 20
194.6063558788
 30
0.0
 11
108.4609838428
 21
191.6063558788
 31
0.0
 12
109.9609838428
 22
191.6063558788
 32
0.0
 13
109.9609838428
 23
191.6063558788
 33
0.0
  0
LINE
  5
18E
330
189
100
AcDbEntity
  8
0
  6
Continuous
 62
     7
370
     0
100
AcDbLine
 10
92.5033164514
 20
151.6063558788
 30
0.0
 11
110.2109838428
 21
151.6063558788
 31
0.0
  0
LINE
  5
18F
330
189
100
AcDbEntity
  8
0
  6
Continuous
 62
     7
370
     0
100
AcDbLine
 10
76.5033164514
 20
194.6063558788
 30
0.0
 11
110.2109838428
 21
194.6063558788
 31
0.0
  0
LINE
  5
190
330
189
100
AcDbEntity
  8
0
  6
Continuous
 62
     7
370
     0
100
AcDbLine
 10
109.2109838428
 20
151.6063558788
 30
0.0
 11
109.2109838428
 21
194.6063558788
 31
0.0
  0
MTEXT
  5
191
330
189
100
AcDbEntity
  8
0
  6
Continuous
 62
     7
370
     0
100
AcDbMText
 10
104.6992469864
 20
171.0695503813
 30
0.0
 40
3.5
 41
0.0
 71
     1
 72
     1
  1
43
  7
SLDTEXTSTYLE0
 11
6.123233995736766E-17
 21
1.0
 31
0.0
 73
     1
 44
1.0
  0
ENDBLK
  5
18B
330
189
100
AcDbEntity
  8
0
100
AcDbBlockEnd
  0
BLOCK
  5
194
330
193
100
AcDbEntity
  8
0
100
AcDbBlockBegin
  2
_D_5
 70
     0
 10
0.0
 20
0.0
 30
0.0
  3
_D_5
  1

  0
SOLID
  5
196
330
193
100
AcDbEntity
  8
0
  6
Continuous
 62
     7
370
     0
100
AcDbTrace
 10
117.4535578735
 20
216.7980225388
 30
0.0
 11
116.7035578735
 21
213.7980225388
 31
0.0
 12
118.2035578735
 22
213.7980225388
 32
0.0
 13
118.2035578735
 23
213.7980225388
 33
0.0
  0
SOLID
  5
197
330
193
100
AcDbEntity
  8
0
  6
Continuous
 62
     7
370
     0
100
AcDbTrace
 10
117.4535578735
 20
146.6063558788
 30
0.0
 11
118.2035578735
 21
149.6063558788
 31
0.0
 12
116.7035578735
 22
149.6063558788
 32
0.0
 13
116.7035578735
 23
149.6063558788
 33
0.0
  0
LINE
  5
198
330
193
100
AcDbEntity
  8
0
  6
Continuous
 62
     7
370
     0
100
AcDbLine
 10
82.5033164514
 20
216.7980225388
 30
0.0
 11
118.4535578735
 21
216.7980225388
 31
0.0
  0
LINE
  5
199
330
193
100
AcDbEntity
  8
0
  6
Continuous
 62
     7
370
     0
100
AcDbLine
 10
97.5033164514
 20
146.6063558788
 30
0.0
 11
118.4535578735
 21
146.6063558788
 31
0.0
  0
LINE
  5
19A
330
193
100
AcDbEntity
  8
0
  6
Continuous
 62
     7
370
     0
100
AcDbLine
 10
117.4535578735
 20
216.7980225388
 30
0.0
 11
117.4535578735
 21
146.6063558788
 31
0.0
  0
MTEXT
  5
19B
330
193
100
AcDbEntity
  8
0
  6
Continuous
 62
     7
370
     0
100
AcDbMText
 10
112.9418210171
 20
177.6285782138
 30
0.0
 40
3.5
 41
0.0
 71
     1
 72
     1
  1
70.2
  7
SLDTEXTSTYLE0
 11
-1.770233605404514E-14
 21
1.0
 31
0.0
 73
     1
 44
1.0
  0
ENDBLK
  5
195
330
193
100
AcDbEntity
  8
0
100
AcDbBlockEnd
  0
BLOCK
  5
19E
330
19D
100
AcDbEntity
  8
0
100
AcDbBlockBegin
  2
_D_6
 70
     0
 10
0.0
 20
0.0
 30
0.0
  3
_D_6
  1

  0
SOLID
  5
1A0
330
19D
100
AcDbEntity
  8
0
  6
Continuous
 62
     7
370
     0
100
AcDbTrace
 10
117.4535578735
 20
146.6063558788
 30
0.0
 11
116.7035578735
 21
143.6063558788
 31
0.0
 12
118.2035578735
 22
143.6063558788
 32
0.0
 13
118.2035578735
 23
143.6063558788
 33
0.0
  0
SOLID
  5
1A1
330
19D
100
AcDbEntity
  8
0
  6
Continuous
 62
     7
370
     0
100
AcDbTrace
 10
117.4535578735
 20
121.6063558788
 30
0.0
 11
118.2035578735
 21
124.6063558788
 31
0.0
 12
116.7035578735
 22
124.6063558788
 32
0.0
 13
116.7035578735
 23
124.6063558788
 33
0.0
  0
LINE
  5
1A2
330
19D
100
AcDbEntity
  8
0
  6
Continuous
 62
     7
370
     0
100
AcDbLine
 10
97.5033164514
 20
146.6063558788
 30
0.0
 11
118.4535578735
 21
146.6063558788
 31
0.0
  0
LINE
  5
1A3
330
19D
100
AcDbEntity
  8
0
  6
Continuous
 62
     7
370
     0
100
AcDbLine
 10
85.5033164514
 20
121.6063558788
 30
0.0
 11
118.4535578735
 21
121.6063558788
 31
0.0
  0
LINE
  5
1A4
330
19D
100
AcDbEntity
  8
0
  6
Continuous
 62
     7
370
     0
100
AcDbLine
 10
117.4535578735
 20
146.6063558788
 30
0.0
 11
117.4535578735
 21
121.6063558788
 31
0.0
  0
MTEXT
  5
1A5
330
19D
100
AcDbEntity
  8
0
  6
Continuous
 62
     7
370
     0
100
AcDbMText
 10
112.9418210171
 20
132.0695503813
 30
0.0
 40
3.5
 41
0.0
 71
     1
 72
     1
  1
25
  7
SLDTEXTSTYLE0
 11
-1.770233605404514E-14
 21
1.0
 31
0.0
 73
     1
 44
1.0
  0
ENDBLK
  5
19F
330
19D
100
AcDbEntity
  8
0
100
AcDbBlockEnd
  0
BLOCK
  5
1A8
330
1A7
100
AcDbEntity
  8
0
100
AcDbBlockBegin
  2
_D_7
 70
     0
 10
0.0
 20
0.0
 30
0.0
  3
_D_7
  1

  0
ARC
  5
1AA
330
1A7
100
AcDbEntity
  8
0
  6
Continuous
 62
     7
370
     0
100
AcDbCircle
 10
123.8325066994
 20
186.0671339174
 30
0.0
 40
4.554435549315966
100
AcDbArc
 50
243.4349488229
 51
296.5650511771
  0
ARC
  5
1AB
330
1A7
100
AcDbEntity
  8
0
  6
Continuous
 62
     7
370
     0
100
AcDbCircle
 10
123.8325066994
 20
184.0303286527
 30
0.0
 40
4.554435549315966
100
AcDbArc
 50
63.4349488229
 51
116.5650511771
  0
SOLID
  5
1AC
330
1A7
100
AcDbEntity
  8
0
  6
Continuous
 62
     7
370
     0
100
AcDbTrace
 10
125.8693121969
 20
111.6063558788
 30
0.0
 11
126.6193121969
 21
114.6063558788
 31
0.0
 12
125.1193121969
 22
114.6063558788
 32
0.0
 13
125.1193121969
 23
114.6063558788
 33
0.0
  0
SOLID
  5
1AD
330
1A7
100
AcDbEntity
  8
0
  6
Continuous
 62
     7
370
     0
100
AcDbTrace
 10
125.8693121969
 20
258.4911068078
 30
0.0
 11
125.1193121969
 21
255.4911068078
 31
0.0
 12
126.6193121969
 22
255.4911068078
 32
0.0
 13
126.6193121969
 23
255.4911068078
 33
0.0
  0
LINE
  5
1AE
330
1A7
100
AcDbEntity
  8
0
  6
Continuous
 62
     7
370
     0
100
AcDbLine
 10
78.5033164514
 20
111.6063558788
 30
0.0
 11
126.8693121969
 21
111.6063558788
 31
0.0
  0
LINE
  5
1AF
330
1A7
100
AcDbEntity
  8
0
  6
Continuous
 62
     7
370
     0
100
AcDbLine
 10
87.3442207537
 20
258.4911068078
 30
0.0
 11
126.8693121969
 21
258.4911068078
 31
0.0
  0
LINE
  5
1B0
330
1A7
100
AcDbEntity
  8
0
  6
Continuous
 62
     7
370
     0
100
AcDbLine
 10
125.8693121969
 20
111.6063558788
 30
0.0
 11
125.8693121969
 21
258.4911068078
 31
0.0
  0
MTEXT
  5
1B1
330
1A7
100
AcDbEntity
  8
0
  6
Continuous
 62
     7
370
     0
100
AcDbMText
 10
121.3575753406
 20
181.9935229224
 30
0.0
 40
3.5
 41
0.0
 71
     1
 72
     1
  1
147
  7
SLDTEXTSTYLE0
 11
6.123233995736766E-17
 21
1.0
 31
0.0
 73
     1
 44
1.0
  0
ENDBLK
  5
1A9
330
1A7
100
AcDbEntity
  8
0
100
AcDbBlockEnd
  0
BLOCK
  5
1B5
330
1B4
100
AcDbEntity
  8
0
100
AcDbBlockBegin
  2
_D_8
 70
     0
 10
0.0
 20
0.0
 30
0.0
  3
_D_8
  1

  0
ARC
  5
1B7
330
1B4
100
AcDbEntity
  8
0
  6
Continuous
 62
     7
370
     0
100
AcDbCircle
 10
77.5401218906
 20
268.3872983822
 30
0.0
 40
4.554435549315978
100
AcDbArc
 50
153.4349488229
 51
206.5650511771
  0
ARC
  5
1B8
330
1B4
100
AcDbEntity
  8
0
  6
Continuous
 62
     7
370
     0
100
AcDbCircle
 10
73.4665108957
 20
268.3872983822
 30
0.0
 40
4.554435549315966
100
AcDbArc
 50
333.4349488229
 51
26.5650511771
  0
SOLID
  5
1B9
330
1B4
100
AcDbEntity
  8
0
  6
Continuous
 62
     7
370
     0
100
AcDbTrace
 10
64.662412149
 20
266.3504928847
 30
0.0
 11
67.662412149
 21
265.6004928847
 31
0.0
 12
67.662412149
 22
267.1004928847
 32
0.0
 13
67.662412149
 23
267.1004928847
 33
0.0
  0
SOLID
  5
1BA
330
1B4
100
AcDbEntity
  8
0
  6
Continuous
 62
     7
370
     0
100
AcDbTrace
 10
86.3442207537
 20
266.3504928847
 30
0.0
 11
83.3442207537
 21
267.1004928847
 31
0.0
 12
83.3442207537
 22
265.6004928847
 32
0.0
 13
83.3442207537
 23
265.6004928847
 33
0.0
  0
LINE
  5
1BB
330
1B4
100
AcDbEntity
  8
0
  6
Continuous
 62
     7
370
     0
100
AcDbLine
 10
64.662412149
 20
259.4911068078
 30
0.0
 11
64.662412149
 21
267.3504928847
 31
0.0
  0
LINE
  5
1BC
330
1B4
100
AcDbEntity
  8
0
  6
Continuous
 62
     7
370
     0
100
AcDbLine
 10
86.3442207537
 20
259.4911068078
 30
0.0
 11
86.3442207537
 21
267.3504928847
 31
0.0
  0
LINE
  5
1BD
330
1B4
100
AcDbEntity
  8
0
  6
Continuous
 62
     7
370
     0
100
AcDbLine
 10
64.662412149
 20
266.3504928847
 30
0.0
 11
86.3442207537
 21
266.3504928847
 31
0.0
  0
MTEXT
  5
1BE
330
1B4
100
AcDbEntity
  8
0
  6
Continuous
 62
     7
370
     0
100
AcDbMText
 10
73.4665108957
 20
270.8622297411
 30
0.0
 40
3.5
 41
0.0
 71
     1
 72
     1
  1
21
  7
SLDTEXTSTYLE0
 73
     1
 44
1.0
  0
ENDBLK
  5
1B6
330
1B4
100
AcDbEntity
  8
0
100
AcDbBlockEnd
  0
BLOCK
  5
1C2
330
1C1
100
AcDbEntity
  8
0
100
AcDbBlockBegin
  2
_D_9
 70
     0
 10
0.0
 20
0.0
 30
0.0
  3
_D_9
  1

  0
SOLID
  5
1C4
330
1C1
100
AcDbEntity
  8
0
  6
Continuous
 62
     7
370
     0
100
AcDbTrace
 10
58.0033164514
 20
154.2044320901
 30
0.0
 11
57.1528355042
 21
157.1775083015
 31
0.0
 12
55.8537973985
 22
156.4275083015
 32
0.0
 13
55.8537973985
 23
156.4275083015
 33
0.0
  0
LINE
  5
1C5
330
1C1
100
AcDbEntity
  8
0
  6
Continuous
 62
     7
370
     0
100
AcDbLine
 10
58.0033164514
 20
154.2044320901
 30
0.0
 11
56.0556886147
 21
157.5778224574
 31
0.0
  0
LINE
  5
1C6
330
1C1
100
AcDbEntity
  8
0
  6
Continuous
 62
     7
370
     0
100
AcDbLine
 10
56.0556886147
 20
157.5778224574
 30
0.0
 11
21.8793043803
 21
157.5778224574
 31
0.0
  0
MTEXT
  5
1C7
330
1C1
100
AcDbEntity
  8
0
  6
Continuous
 62
     7
370
     0
100
AcDbMText
 10
27.9897192429
 20
166.1631703088
 30
0.0
 40
3.5
 41
0.0
 71
     1
 72
     1
  1
3-
  7
SLDTEXTSTYLE0
 73
     1
 44
1.0
  0
MTEXT
  5
1C8
330
1C1
100
AcDbEntity
  8
0
  6
Continuous
 62
     7
370
     0
100
AcDbMText
 10
32.0633302379
 20
166.1631703088
 30
0.0
 40
3.5
 41
0.0
 71
     1
 72
     1
  1
M6
  7
SLDTEXTSTYLE0
 73
     1
 44
1.0
  0
MTEXT
  5
1C9
330
1C1
100
AcDbEntity
  8
0
  6
Continuous
 62
     7
370
     0
100
AcDbMText
 10
36.1369412329
 20
166.1631703088
 30
0.0
 40
3.5
 41
0.0
 71
     1
 72
     1
  1
取付穴
  7
SLDTEXTSTYLE0
 73
     1
 44
1.0
  0
MTEXT
  5
1CA
330
1C1
100
AcDbEntity
  8
0
  6
Continuous
 62
     7
370
     0
100
AcDbMText
 10
21.8793043803
 20
162.0895593138
 30
0.0
 40
3.5
 41
0.0
 71
     1
 72
     1
  1
(両側口元面取有)
  7
SLDTEXTSTYLE0
 73
     1
 44
1.0
  0
ENDBLK
  5
1C3
330
1C1
100
AcDbEntity
  8
0
100
AcDbBlockEnd
  0
BLOCK
  5
1CC
330
1CB
100
AcDbEntity
  8
0
100
AcDbBlockBegin
  2
SW_NOTE_0
 70
     0
 10
0.0
 20
0.0
 30
0.0
  3
SW_NOTE_0
  1

  0
LINE
  5
1CE
330
1CB
100
AcDbEntity
  8
0
  6
Continuous
 62
     0
370
     0
100
AcDbLine
 10
-8.2682873652
 20
0.0
 30
0.0
 11
0.0
 21
0.0
 31
0.0
  0
MTEXT
  5
1CF
330
1CB
100
AcDbEntity
  8
0
  6
Continuous
 62
     0
370
     0
100
AcDbMText
 10
-8.6903834592
 20
4.622201003
 30
0.0
 40
3.5
 41
0.0
 71
     1
 72
     1
  1
BF-6
  7
SLDTEXTSTYLE0
 73
     1
 44
1.0
  0
ENDBLK
  5
1CD
330
1CB
100
AcDbEntity
  8
0
100
AcDbBlockEnd
  0
BLOCK
  5
1D4
330
1D3
100
AcDbEntity
  8
0
100
AcDbBlockBegin
  2
SW_CENTERMARKSYMBOL_0
 70
     0
 10
0.0
 20
0.0
 30
0.0
  3
SW_CENTERMARKSYMBOL_0
  1

  0
LINE
  5
1D6
330
1D3
100
AcDbEntity
  8
0
  6
Continuous
 62
     0
370
     0
100
AcDbLine
 10
0.0
 20
0.0
 30
0.0
 11
0.0
 21
2.5
 31
0.0
  0
LINE
  5
1D7
330
1D3
100
AcDbEntity
  8
0
  6
Continuous
 62
     0
370
     0
100
AcDbLine
 10
0.0
 20
0.0
 30
0.0
 11
-2.5
 21
0.0
 31
0.0
  0
LINE
  5
1D8
330
1D3
100
AcDbEntity
  8
0
  6
Continuous
 62
     0
370
     0
100
AcDbLine
 10
0.0
 20
0.0
 30
0.0
 11
0.0
 21
-2.5
 31
0.0
  0
LINE
  5
1D9
330
1D3
100
AcDbEntity
  8
0
  6
Continuous
 62
     0
370
     0
100
AcDbLine
 10
0.0
 20
0.0
 30
0.0
 11
2.5
 21
0.0
 31
0.0
  0
LINE
  5
1DA
330
1D3
100
AcDbEntity
  8
0
  6
Continuous
 62
     0
370
     0
100
AcDbLine
 10
0.0
 20
5.0
 30
0.0
 11
0.0
 21
5.5
 31
0.0
  0
LINE
  5
1DB
330
1D3
100
AcDbEntity
  8
0
  6
Continuous
 62
     0
370
     0
100
AcDbLine
 10
-5.0
 20
0.0
 30
0.0
 11
-5.5
 21
0.0
 31
0.0
  0
LINE
  5
1DC
330
1D3
100
AcDbEntity
  8
0
  6
Continuous
 62
     0
370
     0
100
AcDbLine
 10
0.0
 20
-5.0
 30
0.0
 11
0.0
 21
-5.5
 31
0.0
  0
LINE
  5
1DD
330
1D3
100
AcDbEntity
  8
0
  6
Continuous
 62
     0
370
     0
100
AcDbLine
 10
5.0
 20
0.0
 30
0.0
 11
5.5
 21
0.0
 31
0.0
  0
ENDBLK
  5
1D5
330
1D3
100
AcDbEntity
  8
0
100
AcDbBlockEnd
  0
BLOCK
  5
1E0
330
1DF
100
AcDbEntity
  8
0
100
AcDbBlockBegin
  2
SW_CENTERMARKSYMBOL_1
 70
     0
 10
0.0
 20
0.0
 30
0.0
  3
SW_CENTERMARKSYMBOL_1
  1

  0
LINE
  5
1E2
330
1DF
100
AcDbEntity
  8
0
  6
Continuous
 62
     0
370
     0
100
AcDbLine
 10
0.0
 20
0.0
 30
0.0
 11
0.0
 21
2.5
 31
0.0
  0
LINE
  5
1E3
330
1DF
100
AcDbEntity
  8
0
  6
Continuous
 62
     0
370
     0
100
AcDbLine
 10
0.0
 20
0.0
 30
0.0
 11
-2.5
 21
0.0
 31
0.0
  0
LINE
  5
1E4
330
1DF
100
AcDbEntity
  8
0
  6
Continuous
 62
     0
370
     0
100
AcDbLine
 10
0.0
 20
0.0
 30
0.0
 11
0.0
 21
-2.5
 31
0.0
  0
LINE
  5
1E5
330
1DF
100
AcDbEntity
  8
0
  6
Continuous
 62
     0
370
     0
100
AcDbLine
 10
0.0
 20
0.0
 30
0.0
 11
2.5
 21
0.0
 31
0.0
  0
LINE
  5
1E6
330
1DF
100
AcDbEntity
  8
0
  6
Continuous
 62
     0
370
     0
100
AcDbLine
 10
0.0
 20
2.5
 30
0.0
 11
0.0
 21
5.0
 31
0.0
  0
LINE
  5
1E7
330
1DF
100
AcDbEntity
  8
0
  6
Continuous
 62
     0
370
     0
100
AcDbLine
 10
-2.5
 20
0.0
 30
0.0
 11
-5.0
 21
0.0
 31
0.0
  0
LINE
  5
1E8
330
1DF
100
AcDbEntity
  8
0
  6
Continuous
 62
     0
370
     0
100
AcDbLine
 10
0.0
 20
-2.5
 30
0.0
 11
0.0
 21
-5.0
 31
0.0
  0
LINE
  5
1E9
330
1DF
100
AcDbEntity
  8
0
  6
Continuous
 62
     0
370
     0
100
AcDbLine
 10
2.5
 20
0.0
 30
0.0
 11
5.0
 21
0.0
 31
0.0
  0
ENDBLK
  5
1E1
330
1DF
100
AcDbEntity
  8
0
100
AcDbBlockEnd
  0
BLOCK
  5
1EC
330
1EB
100
AcDbEntity
  8
0
100
AcDbBlockBegin
  2
SW_CENTERMARKSYMBOL_2
 70
     0
 10
0.0
 20
0.0
 30
0.0
  3
SW_CENTERMARKSYMBOL_2
  1

  0
LINE
  5
1EE
330
1EB
100
AcDbEntity
  8
0
  6
Continuous
 62
     0
370
     0
100
AcDbLine
 10
0.0
 20
0.0
 30
0.0
 11
0.0
 21
2.5
 31
0.0
  0
LINE
  5
1EF
330
1EB
100
AcDbEntity
  8
0
  6
Continuous
 62
     0
370
     0
100
AcDbLine
 10
0.0
 20
0.0
 30
0.0
 11
-2.5
 21
0.0
 31
0.0
  0
LINE
  5
1F0
330
1EB
100
AcDbEntity
  8
0
  6
Continuous
 62
     0
370
     0
100
AcDbLine
 10
0.0
 20
0.0
 30
0.0
 11
0.0
 21
-2.5
 31
0.0
  0
LINE
  5
1F1
330
1EB
100
AcDbEntity
  8
0
  6
Continuous
 62
     0
370
     0
100
AcDbLine
 10
0.0
 20
0.0
 30
0.0
 11
2.5
 21
0.0
 31
0.0
  0
LINE
  5
1F2
330
1EB
100
AcDbEntity
  8
0
  6
Continuous
 62
     0
370
     0
100
AcDbLine
 10
0.0
 20
5.0
 30
0.0
 11
0.0
 21
5.5
 31
0.0
  0
LINE
  5
1F3
330
1EB
100
AcDbEntity
  8
0
  6
Continuous
 62
     0
370
     0
100
AcDbLine
 10
-5.0
 20
0.0
 30
0.0
 11
-5.5
 21
0.0
 31
0.0
  0
LINE
  5
1F4
330
1EB
100
AcDbEntity
  8
0
  6
Continuous
 62
     0
370
     0
100
AcDbLine
 10
0.0
 20
-5.0
 30
0.0
 11
0.0
 21
-5.5
 31
0.0
  0
LINE
  5
1F5
330
1EB
100
AcDbEntity
  8
0
  6
Continuous
 62
     0
370
     0
100
AcDbLine
 10
5.0
 20
0.0
 30
0.0
 11
5.5
 21
0.0
 31
0.0
  0
ENDBLK
  5
1ED
330
1EB
100
AcDbEntity
  8
0
100
AcDbBlockEnd
  0
BLOCK
  5
1F8
330
1F7
100
AcDbEntity
  8
0
100
AcDbBlockBegin
  2
SW_CENTERMARKSYMBOL_3
 70
     0
 10
0.0
 20
0.0
 30
0.0
  3
SW_CENTERMARKSYMBOL_3
  1

  0
LINE
  5
1FA
330
1F7
100
AcDbEntity
  8
0
  6
Continuous
 62
     0
370
     0
100
AcDbLine
 10
0.0
 20
0.0
 30
0.0
 11
0.0
 21
2.5
 31
0.0
  0
LINE
  5
1FB
330
1F7
100
AcDbEntity
  8
0
  6
Continuous
 62
     0
370
     0
100
AcDbLine
 10
0.0
 20
0.0
 30
0.0
 11
-2.5
 21
0.0
 31
0.0
  0
LINE
  5
1FC
330
1F7
100
AcDbEntity
  8
0
  6
Continuous
 62
     0
370
     0
100
AcDbLine
 10
0.0
 20
0.0
 30
0.0
 11
0.0
 21
-2.5
 31
0.0
  0
LINE
  5
1FD
330
1F7
100
AcDbEntity
  8
0
  6
Continuous
 62
     0
370
     0
100
AcDbLine
 10
0.0
 20
0.0
 30
0.0
 11
2.5
 21
0.0
 31
0.0
  0
LINE
  5
1FE
330
1F7
100
AcDbEntity
  8
0
  6
Continuous
 62
     0
370
     0
100
AcDbLine
 10
0.0
 20
5.0
 30
0.0
 11
0.0
 21
5.75
 31
0.0
  0
LINE
  5
1FF
330
1F7
100
AcDbEntity
  8
0
  6
Continuous
 62
     0
370
     0
100
AcDbLine
 10
-5.0
 20
0.0
 30
0.0
 11
-5.75
 21
0.0
 31
0.0
  0
LINE
  5
200
330
1F7
100
AcDbEntity
  8
0
  6
Continuous
 62
     0
370
     0
100
AcDbLine
 10
0.0
 20
-5.0
 30
0.0
 11
0.0
 21
-5.75
 31
0.0
  0
LINE
  5
201
330
1F7
100
AcDbEntity
  8
0
  6
Continuous
 62
     0
370
     0
100
AcDbLine
 10
5.0
 20
0.0
 30
0.0
 11
5.75
 21
0.0
 31
0.0
  0
ENDBLK
  5
1F9
330
1F7
100
AcDbEntity
  8
0
100
AcDbBlockEnd
  0
BLOCK
  5
204
330
203
100
AcDbEntity
  8
0
100
AcDbBlockBegin
  2
SW_CENTERMARKSYMBOL_4
 70
     0
 10
0.0
 20
0.0
 30
0.0
  3
SW_CENTERMARKSYMBOL_4
  1

  0
LINE
  5
206
330
203
100
AcDbEntity
  8
0
  6
Continuous
 62
     0
370
     0
100
AcDbLine
 10
0.0
 20
0.0
 30
0.0
 11
0.0
 21
2.5
 31
0.0
  0
LINE
  5
207
330
203
100
AcDbEntity
  8
0
  6
Continuous
 62
     0
370
     0
100
AcDbLine
 10
0.0
 20
0.0
 30
0.0
 11
-2.5
 21
0.0
 31
0.0
  0
LINE
  5
208
330
203
100
AcDbEntity
  8
0
  6
Continuous
 62
     0
370
     0
100
AcDbLine
 10
0.0
 20
0.0
 30
0.0
 11
0.0
 21
-2.5
 31
0.0
  0
LINE
  5
209
330
203
100
AcDbEntity
  8
0
  6
Continuous
 62
     0
370
     0
100
AcDbLine
 10
0.0
 20
0.0
 30
0.0
 11
2.5
 21
0.0
 31
0.0
  0
LINE
  5
20A
330
203
100
AcDbEntity
  8
0
  6
Continuous
 62
     0
370
     0
100
AcDbLine
 10
0.0
 20
2.5
 30
0.0
 11
0.0
 21
5.0
 31
0.0
  0
LINE
  5
20B
330
203
100
AcDbEntity
  8
0
  6
Continuous
 62
     0
370
     0
100
AcDbLine
 10
-2.5
 20
0.0
 30
0.0
 11
-5.0
 21
0.0
 31
0.0
  0
LINE
  5
20C
330
203
100
AcDbEntity
  8
0
  6
Continuous
 62
     0
370
     0
100
AcDbLine
 10
0.0
 20
-2.5
 30
0.0
 11
0.0
 21
-5.0
 31
0.0
  0
LINE
  5
20D
330
203
100
AcDbEntity
  8
0
  6
Continuous
 62
     0
370
     0
100
AcDbLine
 10
2.5
 20
0.0
 30
0.0
 11
5.0
 21
0.0
 31
0.0
  0
ENDBLK
  5
205
330
203
100
AcDbEntity
  8
0
100
AcDbBlockEnd
  0
BLOCK
  5
2DC
330
2DB
100
AcDbEntity
  8
0
100
AcDbBlockBegin
  2
_D_10
 70
     0
 10
0.0
 20
0.0
 30
0.0
  3
_D_10
  1

  0
ARC
  5
2DE
330
2DB
100
AcDbEntity
  8
0
  6
Continuous
 62
     7
370
     0
100
AcDbCircle
 10
79.9915083739
 20
22.6799835335
 30
0.0
 40
4.554435549315968
100
AcDbArc
 50
153.4349488229
 51
206.5650511771
  0
ARC
  5
2DF
330
2DB
100
AcDbEntity
  8
0
  6
Continuous
 62
     7
370
     0
100
AcDbCircle
 10
75.917897379
 20
22.6799835335
 30
0.0
 40
4.554435549315968
100
AcDbArc
 50
333.4349488229
 51
26.5650511771
  0
SOLID
  5
2E0
330
2DB
100
AcDbEntity
  8
0
  6
Continuous
 62
     7
370
     0
100
AcDbTrace
 10
109.8624132998
 20
20.643178036
 30
0.0
 11
106.8624132998
 21
21.393178036
 31
0.0
 12
106.8624132998
 22
19.893178036
 32
0.0
 13
106.8624132998
 23
19.893178036
 33
0.0
  0
SOLID
  5
2E1
330
2DB
100
AcDbEntity
  8
0
  6
Continuous
 62
     7
370
     0
100
AcDbTrace
 10
46.0469925696
 20
20.643178036
 30
0.0
 11
49.0469925696
 21
19.893178036
 31
0.0
 12
49.0469925696
 22
21.393178036
 32
0.0
 13
49.0469925696
 23
21.393178036
 33
0.0
  0
LINE
  5
2E2
330
2DB
100
AcDbEntity
  8
0
  6
Continuous
 62
     7
370
     0
100
AcDbLine
 10
109.8624132998
 20
46.0943283582
 30
0.0
 11
109.8624132998
 21
19.643178036
 31
0.0
  0
LINE
  5
2E3
330
2DB
100
AcDbEntity
  8
0
  6
Continuous
 62
     7
370
     0
100
AcDbLine
 10
46.0469925696
 20
44.5943283582
 30
0.0
 11
46.0469925696
 21
19.643178036
 31
0.0
  0
LINE
  5
2E4
330
2DB
100
AcDbEntity
  8
0
  6
Continuous
 62
     7
370
     0
100
AcDbLine
 10
109.8624132998
 20
20.643178036
 30
0.0
 11
46.0469925696
 21
20.643178036
 31
0.0
  0
MTEXT
  5
2E5
330
2DB
100
AcDbEntity
  8
0
  6
Continuous
 62
     7
370
     0
100
AcDbMText
 10
75.917897379
 20
25.1549148924
 30
0.0
 40
3.5
 41
0.0
 71
     1
 72
     1
  1
64
  7
SLDTEXTSTYLE0
 73
     1
 44
1.0
  0
ENDBLK
  5
2DD
330
2DB
100
AcDbEntity
  8
0
100
AcDbBlockEnd
  0
BLOCK
  5
2E8
330
2E7
100
AcDbEntity
  8
0
100
AcDbBlockBegin
  2
_D_11
 70
     0
 10
0.0
 20
0.0
 30
0.0
  3
_D_11
  1

  0
ARC
  5
2EA
330
2E7
100
AcDbEntity
  8
0
  6
Continuous
 62
     7
370
     0
100
AcDbCircle
 10
60.7751544522
 20
32.2611338557
 30
0.0
 40
4.554435549315968
100
AcDbArc
 50
153.4349488229
 51
206.5650511771
  0
ARC
  5
2EB
330
2E7
100
AcDbEntity
  8
0
  6
Continuous
 62
     7
370
     0
100
AcDbCircle
 10
60.7751544522
 20
32.2611338557
 30
0.0
 40
4.554435549315968
100
AcDbArc
 50
333.4349488229
 51
26.5650511771
  0
SOLID
  5
2EC
330
2E7
100
AcDbEntity
  8
0
  6
Continuous
 62
     7
370
     0
100
AcDbTrace
 10
46.0469925696
 20
30.2243283582
 30
0.0
 11
49.0469925696
 21
29.4743283582
 31
0.0
 12
49.0469925696
 22
30.9743283582
 32
0.0
 13
49.0469925696
 23
30.9743283582
 33
0.0
  0
SOLID
  5
2ED
330
2E7
100
AcDbEntity
  8
0
  6
Continuous
 62
     7
370
     0
100
AcDbTrace
 10
75.5033164514
 20
30.2243283582
 30
0.0
 11
72.5033164514
 21
30.9743283582
 31
0.0
 12
72.5033164514
 22
29.4743283582
 32
0.0
 13
72.5033164514
 23
29.4743283582
 33
0.0
  0
LINE
  5
2EE
330
2E7
100
AcDbEntity
  8
0
  6
Continuous
 62
     7
370
     0
100
AcDbLine
 10
46.0469925696
 20
44.5943283582
 30
0.0
 11
46.0469925696
 21
29.2243283582
 31
0.0
  0
LINE
  5
2EF
330
2E7
100
AcDbEntity
  8
0
  6
Continuous
 62
     7
370
     0
100
AcDbLine
 10
75.5033164514
 20
38.0943283582
 30
0.0
 11
75.5033164514
 21
29.2243283582
 31
0.0
  0
LINE
  5
2F0
330
2E7
100
AcDbEntity
  8
0
  6
Continuous
 62
     7
370
     0
100
AcDbLine
 10
46.0469925696
 20
30.2243283582
 30
0.0
 11
75.5033164514
 21
30.2243283582
 31
0.0
  0
MTEXT
  5
2F1
330
2E7
100
AcDbEntity
  8
0
  6
Continuous
 62
     7
370
     0
100
AcDbMText
 10
56.7015434573
 20
34.7360652146
 30
0.0
 40
3.5
 41
0.0
 71
     1
 72
     1
  1
29.5
  7
SLDTEXTSTYLE0
 73
     1
 44
1.0
  0
ENDBLK
  5
2E9
330
2E7
100
AcDbEntity
  8
0
100
AcDbBlockEnd
  0
BLOCK
  5
2F3
330
2F2
100
AcDbEntity
  8
0
100
AcDbBlockBegin
  2
SW_CENTERMARKSYMBOL_5
 70
     0
 10
0.0
 20
0.0
 30
0.0
  3
SW_CENTERMARKSYMBOL_5
  1

  0
LINE
  5
2F5
330
2F2
100
AcDbEntity
  8
0
  6
Continuous
 62
     0
370
     0
100
AcDbLine
 10
0.0
 20
0.0
 30
0.0
 11
0.0
 21
2.5
 31
0.0
  0
LINE
  5
2F6
330
2F2
100
AcDbEntity
  8
0
  6
Continuous
 62
     0
370
     0
100
AcDbLine
 10
0.0
 20
0.0
 30
0.0
 11
-2.5
 21
0.0
 31
0.0
  0
LINE
  5
2F7
330
2F2
100
AcDbEntity
  8
0
  6
Continuous
 62
     0
370
     0
100
AcDbLine
 10
0.0
 20
0.0
 30
0.0
 11
0.0
 21
-2.5
 31
0.0
  0
LINE
  5
2F8
330
2F2
100
AcDbEntity
  8
0
  6
Continuous
 62
     0
370
     0
100
AcDbLine
 10
0.0
 20
0.0
 30
0.0
 11
2.5
 21
0.0
 31
0.0
  0
LINE
  5
2F9
330
2F2
100
AcDbEntity
  8
0
  6
Continuous
 62
     0
370
     0
100
AcDbLine
 10
0.0
 20
5.0
 30
0.0
 11
0.0
 21
11.5
 31
0.0
  0
LINE
  5
2FA
330
2F2
100
AcDbEntity
  8
0
  6
Continuous
 62
     0
370
     0
100
AcDbLine
 10
-5.0
 20
0.0
 30
0.0
 11
-11.5
 21
0.0
 31
0.0
  0
LINE
  5
2FB
330
2F2
100
AcDbEntity
  8
0
  6
Continuous
 62
     0
370
     0
100
AcDbLine
 10
0.0
 20
-5.0
 30
0.0
 11
0.0
 21
-11.5
 31
0.0
  0
LINE
  5
2FC
330
2F2
100
AcDbEntity
  8
0
  6
Continuous
 62
     0
370
     0
100
AcDbLine
 10
5.0
 20
0.0
 30
0.0
 11
11.5
 21
0.0
 31
0.0
  0
ENDBLK
  5
2F4
330
2F2
100
AcDbEntity
  8
0
100
AcDbBlockEnd
  0
BLOCK
  5
495
330
494
100
AcDbEntity
  8
0
100
AcDbBlockBegin
  2
_D_12
 70
     0
 10
0.0
 20
0.0
 30
0.0
  3
_D_12
  1

  0
SOLID
  5
497
330
494
100
AcDbEntity
  8
0
  6
Continuous
 62
     7
370
     0
100
AcDbTrace
 10
160.7989208983
 20
92.4753721251
 30
0.0
 11
163.7989208983
 21
91.7253721251
 31
0.0
 12
163.7989208983
 22
93.2253721251
 32
0.0
 13
163.7989208983
 23
93.2253721251
 33
0.0
  0
SOLID
  5
498
330
494
100
AcDbEntity
  8
0
  6
Continuous
 62
     7
370
     0
100
AcDbTrace
 10
181.2989208983
 20
92.4753721251
 30
0.0
 11
178.2989208983
 21
93.2253721251
 31
0.0
 12
178.2989208983
 22
91.7253721251
 32
0.0
 13
178.2989208983
 23
91.7253721251
 33
0.0
  0
LINE
  5
499
330
494
100
AcDbEntity
  8
0
  6
Continuous
 62
     7
370
     0
100
AcDbLine
 10
160.7989208983
 20
145.6063558788
 30
0.0
 11
160.7989208983
 21
91.4753721251
 31
0.0
  0
LINE
  5
49A
330
494
100
AcDbEntity
  8
0
  6
Continuous
 62
     7
370
     0
100
AcDbLine
 10
181.2989208983
 20
145.6063558788
 30
0.0
 11
181.2989208983
 21
91.4753721251
 31
0.0
  0
LINE
  5
49B
330
494
100
AcDbEntity
  8
0
  6
Continuous
 62
     7
370
     0
100
AcDbLine
 10
160.7989208983
 20
92.4753721251
 30
0.0
 11
181.2989208983
 21
92.4753721251
 31
0.0
  0
MTEXT
  5
49C
330
494
100
AcDbEntity
  8
0
  6
Continuous
 62
     7
370
     0
100
AcDbMText
 10
166.9753099033
 20
96.9871089814
 30
0.0
 40
3.5
 41
0.0
 71
     1
 72
     1
  1
20.5
  7
SLDTEXTSTYLE0
 73
     1
 44
1.0
  0
ENDBLK
  5
496
330
494
100
AcDbEntity
  8
0
100
AcDbBlockEnd
  0
BLOCK
  5
49F
330
49E
100
AcDbEntity
  8
0
100
AcDbBlockBegin
  2
_D_13
 70
     0
 10
0.0
 20
0.0
 30
0.0
  3
_D_13
  1

  0
SOLID
  5
4A1
330
49E
100
AcDbEntity
  8
0
  6
Continuous
 62
     7
370
     0
100
AcDbTrace
 10
166.0489208983
 20
267.9930816501
 30
0.0
 11
163.0489208983
 21
268.7430816501
 31
0.0
 12
163.0489208983
 22
267.2430816501
 32
0.0
 13
163.0489208983
 23
267.2430816501
 33
0.0
  0
SOLID
  5
4A2
330
49E
100
AcDbEntity
  8
0
  6
Continuous
 62
     7
370
     0
100
AcDbTrace
 10
176.0489208983
 20
267.9930816501
 30
0.0
 11
179.0489208983
 21
267.2430816501
 31
0.0
 12
179.0489208983
 22
268.7430816501
 32
0.0
 13
179.0489208983
 23
268.7430816501
 33
0.0
  0
LINE
  5
4A3
330
49E
100
AcDbEntity
  8
0
  6
Continuous
 62
     7
370
     0
100
AcDbLine
 10
166.0489208983
 20
259.4911068078
 30
0.0
 11
166.0489208983
 21
268.9930816501
 31
0.0
  0
LINE
  5
4A4
330
49E
100
AcDbEntity
  8
0
  6
Continuous
 62
     7
370
     0
100
AcDbLine
 10
176.0489208983
 20
259.4911068078
 30
0.0
 11
176.0489208983
 21
268.9930816501
 31
0.0
  0
LINE
  5
4A5
330
49E
100
AcDbEntity
  8
0
  6
Continuous
 62
     7
370
     0
100
AcDbLine
 10
166.0489208983
 20
267.9930816501
 30
0.0
 11
161.0489208983
 21
267.9930816501
 31
0.0
  0
LINE
  5
4A6
330
49E
100
AcDbEntity
  8
0
  6
Continuous
 62
     7
370
     0
100
AcDbLine
 10
166.0489208983
 20
267.9930816501
 30
0.0
 11
176.0489208983
 21
267.9930816501
 31
0.0
  0
LINE
  5
4A7
330
49E
100
AcDbEntity
  8
0
  6
Continuous
 62
     7
370
     0
100
AcDbLine
 10
176.0489208983
 20
267.9930816501
 30
0.0
 11
181.0489208983
 21
267.9930816501
 31
0.0
  0
MTEXT
  5
4A8
330
49E
100
AcDbEntity
  8
0
  6
Continuous
 62
     7
370
     0
100
AcDbMText
 10
169.0121154008
 20
272.5048185065
 30
0.0
 40
3.5
 41
0.0
 71
     1
 72
     1
  1
10
  7
SLDTEXTSTYLE0
 73
     1
 44
1.0
  0
ENDBLK
  5
4A0
330
49E
100
AcDbEntity
  8
0
100
AcDbBlockEnd
  0
BLOCK
  5
4AA
330
4A9
100
AcDbEntity
  8
0
100
AcDbBlockBegin
  2
SW_NOTE_1
 70
     0
 10
0.0
 20
0.0
 30
0.0
  3
SW_NOTE_1
  1

  0
LINE
  5
4AC
330
4A9
100
AcDbEntity
  8
0
  6
Continuous
 62
     0
370
     0
100
AcDbLine
 10
-20.4891198845
 20
0.0
 30
0.0
 11
0.0
 21
0.0
 31
0.0
  0
MTEXT
  5
4AD
330
4A9
100
AcDbEntity
  8
0
  6
Continuous
 62
     0
370
     0
100
AcDbMText
 10
-20.8745309371
 20
9.0263372886
 30
0.0
 40
3.5
 41
0.0
 71
     1
 72
     1
  1
4-M4
  7
SLDTEXTSTYLE0
 73
     1
 44
1.0
  0
MTEXT
  5
4AE
330
4A9
100
AcDbEntity
  8
0
  6
Continuous
 62
     0
370
     0
100
AcDbMText
 10
-20.8745309371
 20
4.5263374823
 30
0.0
 40
3.5
 41
0.0
 71
     1
 72
     1
  1
取付ボルト
  7
SLDTEXTSTYLE0
 73
     1
 44
1.0
  0
ENDBLK
  5
4AB
330
4A9
100
AcDbEntity
  8
0
100
AcDbBlockEnd
  0
ENDSEC
  0
SECTION
  2
ENTITIES
  0
LINE
  5
73
330
1F
100
AcDbEntity
  8
0
  6
Continuous
 62
     7
370
     0
100
AcDbLine
 10
20.2604743903
 20
285.0
 30
0.0
 11
196.7604743903
 21
285.0
 31
0.0
  0
LINE
  5
74
330
1F
100
AcDbEntity
  8
0
  6
Continuous
 62
     7
370
     0
100
AcDbLine
 10
20.2604743903
 20
285.0
 30
0.0
 11
20.2604743903
 21
10.0
 31
0.0
  0
LINE
  5
75
330
1F
100
AcDbEntity
  8
0
  6
Continuous
 62
     7
370
     0
100
AcDbLine
 10
20.2604743903
 20
10.0
 30
0.0
 11
196.7604743903
 21
10.0
 31
0.0
  0
LINE
  5
76
330
1F
100
AcDbEntity
  8
0
  6
Continuous
 62
     7
370
     0
100
AcDbLine
 10
196.7604743903
 20
285.0
 30
0.0
 11
196.7604743903
 21
10.0
 31
0.0
  0
LINE
  5
77
330
1F
100
AcDbEntity
  8
0
  6
Continuous
 62
     7
370
     0
100
AcDbLine
 10
127.0104743903
 20
50.75
 30
0.0
 11
196.7604743903
 21
50.75
 31
0.0
  0
LINE
  5
78
330
1F
100
AcDbEntity
  8
0
  6
Continuous
 62
     7
370
     0
100
AcDbLine
 10
127.0104743903
 20
50.75
 30
0.0
 11
127.0104743903
 21
10.0
 31
0.0
  0
LINE
  5
79
330
1F
100
AcDbEntity
  8
0
  6
Continuous
 62
     7
370
     0
100
AcDbLine
 10
127.0104743903
 20
22.75
 30
0.0
 11
196.7604743903
 21
22.75
 31
0.0
  0
LINE
  5
7A
330
1F
100
AcDbEntity
  8
0
  6
Continuous
 62
     7
370
     0
100
AcDbLine
 10
127.0104743903
 20
36.75
 30
0.0
 11
196.7604743903
 21
36.75
 31
0.0
  0
MTEXT
  5
7C
330
1F
100
AcDbEntity
  8
0
  6
Continuous
 62
     7
370
     0
100
AcDbMText
 10
161.043704002
 20
30.4171582345
 30
0.0
 40
4.2333333333
 41
0.0
 71
     2
 72
     1
  1
CHK-EXBF-20-C1
  7
SLDTEXTSTYLE0
 73
     1
 44
1.0
  0
MTEXT
  5
7D
330
1F
100
AcDbEntity
  8
0
  6
Continuous
 62
     7
370
     0
100
AcDbMText
 10
158.0450808425
 20
45.4820087866
 30
0.0
 40
2.9104166667
 41
0.0
 71
     2
 72
     1
  1
ランナーチャックEX(リミットSW・爪着脱式)
  7
SLDTEXTSTYLE0
 73
     1
 44
1.0
  0
MTEXT
  5
7E
330
1F
100
AcDbEntity
  8
0
  6
Continuous
 62
     7
370
     0
100
AcDbMText
 10
162.505040484
 20
16.8228189052
 30
0.0
 40
4.2333333333
 41
0.0
 71
     2
 72
     1
  1
023294
  7
SLDTEXTSTYLE0
 73
     1
 44
1.0
  0
LINE
  5
7F
330
1F
100
AcDbEntity
  8
0
  6
Continuous
 62
     7
370
     0
100
AcDbLine
 10
65.5033160094
 20
122.6063557956
 30
0.0
 11
66.503318036
 21
121.6063556317
 31
0.0
  0
LINE
  5
80
330
1F
100
AcDbEntity
  8
0
  6
Continuous
 62
     7
370
     0
100
AcDbLine
 10
84.5033172611
 20
121.6063556317
 30
0.0
 11
85.5033192877
 21
122.6063557956
 31
0.0
  0
LINE
  5
81
330
1F
100
AcDbEntity
  8
0
  6
Continuous
 62
     7
370
     0
100
AcDbLine
 10
65.5033160094
 20
146.6063560042
 30
0.0
 11
65.5033160094
 21
122.6063557956
 31
0.0
  0
LINE
  5
82
330
1F
100
AcDbEntity
  8
0
  6
Continuous
 62
     7
370
     0
100
AcDbLine
 10
85.5033192877
 20
122.6063557956
 30
0.0
 11
85.5033192877
 21
146.6063560042
 31
0.0
  0
LINE
  5
83
330
1F
100
AcDbEntity
  8
0
  6
Continuous
 62
     7
370
     0
100
AcDbLine
 10
73.1533151213
 20
114.1063553337
 30
0.0
 11
73.5033173207
 21
111.6063558552
 31
0.0
  0
LINE
  5
84
330
1F
100
AcDbEntity
  8
0
  6
Continuous
 62
     7
370
     0
100
AcDbLine
 10
77.5033179764
 20
111.6063558552
 30
0.0
 11
77.8533164505
 21
114.1063553337
 31
0.0
  0
LINE
  5
85
330
1F
100
AcDbEntity
  8
0
  6
Continuous
 62
     7
370
     0
100
AcDbLine
 10
73.1533151213
 20
116.6063566748
 30
0.0
 11
73.5033173207
 21
114.1063553337
 31
0.0
  0
LINE
  5
86
330
1F
100
AcDbEntity
  8
0
  6
Continuous
 62
     7
370
     0
100
AcDbLine
 10
77.5033179764
 20
114.1063553337
 30
0.0
 11
77.8533164505
 21
116.6063566748
 31
0.0
  0
LINE
  5
87
330
1F
100
AcDbEntity
  8
0
  6
Continuous
 62
     7
370
     0
100
AcDbLine
 10
77.6033159438
 20
116.6063566748
 30
0.0
 11
77.6033159438
 21
119.1063561532
 31
0.0
  0
LINE
  5
88
330
1F
100
AcDbEntity
  8
0
  6
Continuous
 62
     7
370
     0
100
AcDbLine
 10
73.4033156279
 20
119.1063561532
 30
0.0
 11
73.4033156279
 21
116.6063566748
 31
0.0
  0
LWPOLYLINE
  5
89
330
1F
100
AcDbEntity
  8
0
  6
Continuous
 62
     7
370
     0
100
AcDbPolyline
 90
        3
 70
   128
 43
0.0
 10
94.5635829214
 20
248.2419778648
 10
94.5609230641
 20
248.2028623167
 10
94.5615787152
 20
248.1916193906
  0
ARC
  5
8A
330
1F
100
AcDbEntity
  8
0
  6
Continuous
 62
     7
370
     0
100
AcDbCircle
 10
95.2730969918
 20
251.2663113694
 30
0.0
 40
0.200000000000055
100
AcDbArc
 50
80.4884137372
 51
170.4884137372
  0
LINE
  5
8B
330
1F
100
AcDbEntity
  8
0
  6
Continuous
 62
     7
370
     0
100
AcDbLine
 10
95.5033991579
 20
251.4305134359
 30
0.0
 11
95.3061450366
 21
251.4635642115
 31
0.0
  0
LINE
  5
8C
330
1F
100
AcDbEntity
  8
0
  6
Continuous
 62
     7
370
     0
100
AcDbLine
 10
95.0593222026
 20
251.2007375303
 30
0.0
 11
94.7634447459
 21
251.250306243
 31
0.0
  0
LINE
  5
8D
330
1F
100
AcDbEntity
  8
0
  6
Continuous
 62
     7
370
     0
100
AcDbLine
 10
94.2842308525
 20
248.3901773635
 30
0.0
 11
94.5801083092
 21
248.3406012002
 31
0.0
  0
LINE
  5
8E
330
1F
100
AcDbEntity
  8
0
  6
Continuous
 62
     7
370
     0
100
AcDbLine
 10
104.5049596671
 20
233.1415955964
 30
0.0
 11
104.3066624645
 21
231.9580932203
 31
0.0
  0
LINE
  5
8F
330
1F
100
AcDbEntity
  8
0
  6
Continuous
 62
     7
370
     0
100
AcDbLine
 10
105.6874189619
 20
231.7267526928
 30
0.0
 11
105.8857161645
 21
232.9102550689
 31
0.0
  0
LINE
  5
90
330
1F
100
AcDbEntity
  8
0
  6
Continuous
 62
     7
370
     0
100
AcDbLine
 10
102.532455707
 20
233.4720959011
 30
0.0
 11
102.3341585044
 21
232.288593525
 31
0.0
  0
LINE
  5
91
330
1F
100
AcDbEntity
  8
0
  6
Continuous
 62
     7
370
     0
100
AcDbLine
 10
103.7149150018
 20
232.0572455469
 30
0.0
 11
103.9132047538
 21
233.240747923
 31
0.0
  0
LINE
  5
92
330
1F
100
AcDbEntity
  8
0
  6
Continuous
 62
     7
370
     0
100
AcDbLine
 10
102.6793439034
 20
232.2307546678
 30
0.0
 11
101.8531117681
 21
227.2994910422
 31
0.0
  0
LINE
  5
93
330
1F
100
AcDbEntity
  8
0
  6
Continuous
 62
     7
370
     0
100
AcDbLine
 10
102.5434900168
 20
227.1838207785
 30
0.0
 11
103.3697221521
 21
232.1150769535
 31
0.0
  0
LINE
  5
94
330
1F
100
AcDbEntity
  8
0
  6
Continuous
 62
     7
370
     0
100
AcDbLine
 10
104.6518478636
 20
231.9002618137
 30
0.0
 11
103.8256157283
 21
226.9689981881
 31
0.0
  0
LINE
  5
95
330
1F
100
AcDbEntity
  8
0
  6
Continuous
 62
     7
370
     0
100
AcDbLine
 10
104.515993977
 20
226.8533279243
 30
0.0
 11
105.3422261123
 21
231.7845840994
 31
0.0
  0
LINE
  5
96
330
1F
100
AcDbEntity
  8
0
  6
Continuous
 62
     7
370
     0
100
AcDbLine
 10
55.5033180956
 20
210.598023707
 30
0.0
 11
55.5033180956
 21
146.6063560042
 31
0.0
  0
LINE
  5
97
330
1F
100
AcDbEntity
  8
0
  6
Continuous
 62
     7
370
     0
100
AcDbLine
 10
55.5033180956
 20
146.6063560042
 30
0.0
 11
54.503316069
 21
146.6063560042
 31
0.0
  0
LINE
  5
98
330
1F
100
AcDbEntity
  8
0
  6
Continuous
 62
     7
370
     0
100
AcDbLine
 10
54.503316069
 20
146.6063560042
 30
0.0
 11
54.503316069
 21
209.5980216804
 31
0.0
  0
LINE
  5
99
330
1F
100
AcDbEntity
  8
0
  6
Continuous
 62
     7
370
     0
100
AcDbLine
 10
54.503316069
 20
209.5980216804
 30
0.0
 11
55.5033180956
 21
210.598023707
 31
0.0
  0
LINE
  5
9A
330
1F
100
AcDbEntity
  8
0
  6
Continuous
 62
     7
370
     0
100
AcDbLine
 10
92.3033151869
 20
213.7980257216
 30
0.0
 11
58.7033163849
 21
213.7980257216
 31
0.0
  0
LINE
  5
9B
330
1F
100
AcDbEntity
  8
0
  6
Continuous
 62
     7
370
     0
100
AcDbLine
 10
92.3033151869
 20
213.7980257216
 30
0.0
 11
95.5033172015
 21
210.598023707
 31
0.0
  0
LINE
  5
9C
330
1F
100
AcDbEntity
  8
0
  6
Continuous
 62
     7
370
     0
100
AcDbLine
 10
95.5033172015
 20
146.6063560042
 30
0.0
 11
95.5033172015
 21
210.598023707
 31
0.0
  0
CIRCLE
  5
9D
330
1F
100
AcDbEntity
  8
0
  6
Continuous
 62
     7
370
     0
100
AcDbCircle
 10
91.5033164514
 20
197.6014834588
 30
0.0
 40
2.999999999999972
  0
CIRCLE
  5
9E
330
1F
100
AcDbEntity
  8
0
  6
Continuous
 62
     7
370
     0
100
AcDbCircle
 10
59.5033164514
 20
197.6014834588
 30
0.0
 40
3.0
  0
CIRCLE
  5
9F
330
1F
100
AcDbEntity
  8
0
  6
Continuous
 62
     7
370
     0
100
AcDbCircle
 10
75.5033164514
 20
194.6063558788
 30
0.0
 40
3.250000000000028
  0
CIRCLE
  5
A0
330
1F
100
AcDbEntity
  8
0
  6
Continuous
 62
     7
370
     0
100
AcDbCircle
 10
91.5033164514
 20
151.6063558788
 30
0.0
 40
3.249999999999972
  0
CIRCLE
  5
A1
330
1F
100
AcDbEntity
  8
0
  6
Continuous
 62
     7
370
     0
100
AcDbCircle
 10
59.5033164514
 20
151.6063558788
 30
0.0
 40
3.25
  0
LINE
  5
A2
330
1F
100
AcDbEntity
  8
0
  6
Continuous
 62
     7
370
     0
100
AcDbLine
 10
95.5033172015
 20
146.6063560042
 30
0.0
 11
55.5033180956
 21
146.6063560042
 31
0.0
  0
LINE
  5
A3
330
1F
100
AcDbEntity
  8
0
  6
Continuous
 62
     7
370
     0
100
AcDbLine
 10
55.5033180956
 20
210.598023707
 30
0.0
 11
58.7033163849
 21
213.7980257216
 31
0.0
  0
CIRCLE
  5
A4
330
1F
100
AcDbEntity
  8
0
  6
Continuous
 62
     7
370
     0
100
AcDbCircle
 10
91.5033164514
 20
197.6014834588
 30
0.0
 40
2.5
  0
CIRCLE
  5
A5
330
1F
100
AcDbEntity
  8
0
  6
Continuous
 62
     7
370
     0
100
AcDbCircle
 10
59.5033164514
 20
197.6014834588
 30
0.0
 40
2.5
  0
CIRCLE
  5
A6
330
1F
100
AcDbEntity
  8
0
  6
Continuous
 62
     7
370
     0
100
AcDbCircle
 10
91.5033164514
 20
151.6063558788
 30
0.0
 40
2.5
  0
LINE
  5
A7
330
1F
100
AcDbEntity
  8
0
  6
Continuous
 62
     7
370
     0
100
AcDbLine
 10
60.5033170525
 20
215.5980189386
 30
0.0
 11
69.5033166651
 21
215.5980189386
 31
0.0
  0
LINE
  5
A8
330
1F
100
AcDbEntity
  8
0
  6
Continuous
 62
     7
370
     0
100
AcDbLine
 10
69.5033166651
 20
215.5980189386
 30
0.0
 11
69.5033166651
 21
216.7980243507
 31
0.0
  0
LINE
  5
A9
330
1F
100
AcDbEntity
  8
0
  6
Continuous
 62
     7
370
     0
100
AcDbLine
 10
69.5033166651
 20
216.7980243507
 30
0.0
 11
81.5033149067
 21
216.7980243507
 31
0.0
  0
LINE
  5
AA
330
1F
100
AcDbEntity
  8
0
  6
Continuous
 62
     7
370
     0
100
AcDbLine
 10
81.5033149067
 20
216.7980243507
 30
0.0
 11
81.5033149067
 21
215.5980189386
 31
0.0
  0
LINE
  5
AB
330
1F
100
AcDbEntity
  8
0
  6
Continuous
 62
     7
370
     0
100
AcDbLine
 10
81.5033149067
 20
215.5980189386
 30
0.0
 11
90.5033145193
 21
215.5980189386
 31
0.0
  0
LINE
  5
AC
330
1F
100
AcDbEntity
  8
0
  6
Continuous
 62
     7
370
     0
100
AcDbLine
 10
90.5033145193
 20
215.5980189386
 30
0.0
 11
92.3033151869
 21
213.7980257216
 31
0.0
  0
LINE
  5
AD
330
1F
100
AcDbEntity
  8
0
  6
Continuous
 62
     7
370
     0
100
AcDbLine
 10
58.7033163849
 20
213.7980257216
 30
0.0
 11
60.5033170525
 21
215.5980189386
 31
0.0
  0
LINE
  5
AE
330
1F
100
AcDbEntity
  8
0
  6
Continuous
 62
     7
370
     0
100
AcDbLine
 10
96.5033192281
 20
209.5980216804
 30
0.0
 11
96.5033192281
 21
146.6063560042
 31
0.0
  0
LINE
  5
AF
330
1F
100
AcDbEntity
  8
0
  6
Continuous
 62
     7
370
     0
100
AcDbLine
 10
95.5033172015
 20
210.598023707
 30
0.0
 11
96.5033192281
 21
209.5980216804
 31
0.0
  0
LINE
  5
B0
330
1F
100
AcDbEntity
  8
0
  6
Continuous
 62
     7
370
     0
100
AcDbLine
 10
96.5033192281
 20
146.6063560042
 30
0.0
 11
95.5033172015
 21
146.6063560042
 31
0.0
  0
CIRCLE
  5
B1
330
1F
100
AcDbEntity
  8
0
  6
Continuous
 62
     7
370
     0
100
AcDbCircle
 10
59.5033164514
 20
151.6063558788
 30
0.0
 40
2.5
  0
CIRCLE
  5
B2
330
1F
100
AcDbEntity
  8
0
  6
Continuous
 62
     7
370
     0
100
AcDbCircle
 10
75.5033164514
 20
194.6063558788
 30
0.0
 40
2.5
  0
LINE
  5
B3
330
1F
100
AcDbEntity
  8
0
  6
Continuous
 62
     7
370
     0
100
AcDbLine
 10
84.5033172611
 20
121.6063556317
 30
0.0
 11
66.503318036
 21
121.6063556317
 31
0.0
  0
LINE
  5
B4
330
1F
100
AcDbEntity
  8
0
  6
Continuous
 62
     7
370
     0
100
AcDbLine
 10
65.5033160094
 20
122.6063557956
 30
0.0
 11
85.5033192877
 21
122.6063557956
 31
0.0
  0
CIRCLE
  5
B5
330
1F
100
AcDbEntity
  8
0
  6
Continuous
 62
     7
370
     0
100
AcDbCircle
 10
89.1671186768
 20
252.9484317031
 30
0.0
 40
0.9999999999999664
  0
CIRCLE
  5
B6
330
1F
100
AcDbEntity
  8
0
  6
Continuous
 62
     7
370
     0
100
AcDbCircle
 10
83.4367071805
 20
222.9834123625
 30
0.0
 40
1.500000000000002
  0
LINE
  5
B7
330
1F
100
AcDbEntity
  8
0
  6
Continuous
 62
     7
370
     0
100
AcDbLine
 10
102.1552477125
 20
184.7092379871
 30
0.0
 11
104.9596387986
 21
188.7878869716
 31
0.0
  0
LINE
  5
B8
330
1F
100
AcDbEntity
  8
0
  6
Continuous
 62
     7
370
     0
100
AcDbLine
 10
102.1552477125
 20
184.7092379871
 30
0.0
 11
99.6970180515
 21
184.2541453484
 31
0.0
  0
LINE
  5
B9
330
1F
100
AcDbEntity
  8
0
  6
Continuous
 62
     7
370
     0
100
AcDbLine
 10
80.7205904368
 20
218.8757752124
 30
0.0
 11
90.2369041089
 21
217.2813062611
 31
0.0
  0
LINE
  5
BA
330
1F
100
AcDbEntity
  8
0
  6
Continuous
 62
     7
370
     0
100
AcDbLine
 10
88.1331730727
 20
235.8846982065
 30
0.0
 11
93.5575608257
 21
234.9758391324
 31
0.0
  0
LINE
  5
BB
330
1F
100
AcDbEntity
  8
0
  6
Continuous
 62
     7
370
     0
100
AcDbLine
 10
95.9074366931
 20
221.4443554226
 30
0.0
 11
97.062038267
 21
220.385925943
 31
0.0
  0
LINE
  5
BC
330
1F
100
AcDbEntity
  8
0
  6
Continuous
 62
     7
370
     0
100
AcDbLine
 10
100.1375634316
 20
214.8348857704
 30
0.0
 11
104.9596387986
 21
188.7878869716
 31
0.0
  0
LINE
  5
BD
330
1F
100
AcDbEntity
  8
0
  6
Continuous
 62
     7
370
     0
100
AcDbLine
 10
92.8023103718
 20
230.4682304207
 30
0.0
 11
93.5575608257
 21
234.9758391324
 31
0.0
  0
ARC
  5
BE
330
1F
100
AcDbEntity
  8
0
  6
Continuous
 62
     7
370
     0
100
AcDbCircle
 10
88.4636669328
 20
237.8572039318
 30
0.0
 40
2.000000000000015
100
AcDbArc
 50
170.4884137372
 51
260.4884137372
  0
ARC
  5
BF
330
1F
100
AcDbEntity
  8
0
  6
Continuous
 62
     7
370
     0
100
AcDbCircle
 10
89.9839397709
 20
246.9307242243
 30
0.0
 40
2.000000000000012
100
AcDbArc
 50
80.4884137372
 51
170.4884137372
  0
LINE
  5
C0
330
1F
100
AcDbEntity
  8
0
  6
Continuous
 62
     7
370
     0
100
AcDbLine
 10
88.0114380363
 20
247.261220688
 30
0.0
 11
86.4911619667
 21
238.1876950208
 31
0.0
  0
LINE
  5
C1
330
1F
100
AcDbEntity
  8
0
  6
Continuous
 62
     7
370
     0
100
AcDbLine
 10
86.3442216162
 20
258.4911082927
 30
0.0
 11
79.8995848838
 21
220.0272698942
 31
0.0
  0
LINE
  5
C2
330
1F
100
AcDbEntity
  8
0
  6
Continuous
 62
     7
370
     0
100
AcDbLine
 10
93.7411133293
 20
257.2517563644
 30
0.0
 11
86.3442216162
 21
258.4911082927
 31
0.0
  0
LINE
  5
C3
330
1F
100
AcDbEntity
  8
0
  6
Continuous
 62
     7
370
     0
100
AcDbLine
 10
99.6970180515
 20
184.2541453484
 30
0.0
 11
96.5033192281
 21
201.505290443
 31
0.0
  0
LINE
  5
C4
330
1F
100
AcDbEntity
  8
0
  6
Continuous
 62
     7
370
     0
100
AcDbLine
 10
94.6647320036
 20
211.4366089049
 30
0.0
 11
94.327123845
 21
213.260227913
 31
0.0
  0
ARC
  5
C5
330
1F
100
AcDbEntity
  8
0
  6
Continuous
 62
     7
370
     0
100
AcDbCircle
 10
90.3046445898
 20
213.0145206756
 30
0.0
 40
10.00000000000002
100
AcDbArc
 50
10.4884137372
 51
47.4884137372
  0
ARC
  5
C6
330
1F
100
AcDbEntity
  8
0
  6
Continuous
 62
     7
370
     0
100
AcDbCircle
 10
102.6648298134
 20
228.815760789
 30
0.0
 40
9.999999999999991
100
AcDbArc
 50
170.4884137372
 51
227.4884137372
  0
LINE
  5
C7
330
1F
100
AcDbEntity
  8
0
  6
Continuous
 62
     7
370
     0
100
AcDbLine
 10
94.2594427708
 20
248.2422386351
 30
0.0
 11
95.3831244353
 21
254.9487520996
 31
0.0
  0
ARC
  5
C8
330
1F
100
AcDbEntity
  8
0
  6
Continuous
 62
     7
370
     0
100
AcDbCircle
 10
89.4106661767
 20
212.3500479694
 30
0.0
 40
4.999999999999991
100
AcDbArc
 50
10.4884137372
 51
80.4884137372
  0
LINE
  5
C9
330
1F
100
AcDbEntity
  8
0
  6
Continuous
 62
     7
370
     0
100
AcDbLine
 10
79.8995848838
 20
220.0272698942
 30
0.0
 11
80.7205904368
 21
218.8757752124
 31
0.0
  0
LINE
  5
CA
330
1F
100
AcDbEntity
  8
0
  6
Continuous
 62
     7
370
     0
100
AcDbLine
 10
94.2594427708
 20
248.2422386351
 30
0.0
 11
90.3144348506
 21
248.903231794
 31
0.0
  0
LINE
  5
CB
330
1F
100
AcDbEntity
  8
0
  6
Continuous
 62
     7
370
     0
100
AcDbLine
 10
95.3831244353
 20
254.9487520996
 30
0.0
 11
93.7411133293
 21
257.2517563644
 31
0.0
  0
LINE
  5
CC
330
1F
100
AcDbEntity
  8
0
  6
Continuous
 62
     7
370
     0
100
AcDbLine
 10
73.4783168975
 20
119.1063561532
 30
0.0
 11
73.4783168975
 21
121.6063556317
 31
0.0
  0
LINE
  5
CD
330
1F
100
AcDbEntity
  8
0
  6
Continuous
 62
     7
370
     0
100
AcDbLine
 10
71.4533161465
 20
119.1063561532
 30
0.0
 11
73.4783168975
 21
119.1063561532
 31
0.0
  0
LINE
  5
CE
330
1F
100
AcDbEntity
  8
0
  6
Continuous
 62
     7
370
     0
100
AcDbLine
 10
71.4533161465
 20
119.1063561532
 30
0.0
 11
71.4533161465
 21
121.6063556317
 31
0.0
  0
LINE
  5
CF
330
1F
100
AcDbEntity
  8
0
  6
Continuous
 62
     7
370
     0
100
AcDbLine
 10
77.5283146743
 20
119.1063561532
 30
0.0
 11
77.5283146743
 21
121.6063556317
 31
0.0
  0
LINE
  5
D0
330
1F
100
AcDbEntity
  8
0
  6
Continuous
 62
     7
370
     0
100
AcDbLine
 10
73.4783168975
 20
119.1063561532
 30
0.0
 11
77.5283146743
 21
119.1063561532
 31
0.0
  0
LINE
  5
D1
330
1F
100
AcDbEntity
  8
0
  6
Continuous
 62
     7
370
     0
100
AcDbLine
 10
79.5533154253
 20
119.1063561532
 30
0.0
 11
79.5533154253
 21
121.6063556317
 31
0.0
  0
LINE
  5
D2
330
1F
100
AcDbEntity
  8
0
  6
Continuous
 62
     7
370
     0
100
AcDbLine
 10
77.5283146743
 20
119.1063561532
 30
0.0
 11
79.5533154253
 21
119.1063561532
 31
0.0
  0
LINE
  5
D3
330
1F
100
AcDbEntity
  8
0
  6
Continuous
 62
     7
370
     0
100
AcDbLine
 10
76.6783151869
 20
114.1063553337
 30
0.0
 11
73.1533151213
 21
114.1063553337
 31
0.0
  0
LINE
  5
D4
330
1F
100
AcDbEntity
  8
0
  6
Continuous
 62
     7
370
     0
100
AcDbLine
 10
77.8533164505
 20
114.1063553337
 30
0.0
 11
76.6783151869
 21
114.1063553337
 31
0.0
  0
LINE
  5
D5
330
1F
100
AcDbEntity
  8
0
  6
Continuous
 62
     7
370
     0
100
AcDbLine
 10
76.5033159498
 20
111.6063558552
 30
0.0
 11
73.5033173207
 21
111.6063558552
 31
0.0
  0
LINE
  5
D6
330
1F
100
AcDbEntity
  8
0
  6
Continuous
 62
     7
370
     0
100
AcDbLine
 10
77.5033179764
 20
111.6063558552
 30
0.0
 11
76.5033159498
 21
111.6063558552
 31
0.0
  0
LINE
  5
D7
330
1F
100
AcDbEntity
  8
0
  6
Continuous
 62
     7
370
     0
100
AcDbLine
 10
77.8533164505
 20
116.6063566748
 30
0.0
 11
73.1533151213
 21
116.6063566748
 31
0.0
  0
CIRCLE
  5
D8
330
1F
100
AcDbEntity
  8
0
  6
Continuous
 62
     7
370
     0
100
AcDbCircle
 10
91.5033164514
 20
197.6014834588
 30
0.0
 40
1.999999999999984
  0
SPLINE
  5
D9
330
1F
100
AcDbEntity
  8
0
  6
Continuous
 62
     7
370
     0
100
AcDbSpline
210
0.0
220
0.0
230
1.0
 70
     8
 71
     3
 72
    14
 73
    10
 74
     0
 42
0.000000001
 43
0.00000001
 40
0.0
 40
0.0
 40
0.0
 40
0.0
 40
0.1250000000000012
 40
0.1250000000000012
 40
0.2500000000000025
 40
0.2500000000000025
 40
0.5000000000000052
 40
0.5000000000000052
 40
1.0
 40
1.0
 40
1.0
 40
1.0
 10
84.05314788130738
 20
224.3508921109241
 30
0.0
 10
84.03039151888427
 20
224.3611503600975
 30
0.0
 10
84.00869071167658
 20
224.365712787597
 30
0.0
 10
83.9746658618529
 20
224.3692572644532
 30
0.0
 10
83.9606357760757
 20
224.3686800120231
 30
0.0
 10
83.92365456676129
 20
224.3644653216041
 30
0.0
 10
83.90482793052853
 20
224.358159628976
 30
0.0
 10
83.85590602207643
 20
224.3360277764336
 30
0.0
 10
83.83378886623166
 20
224.3166439669494
 30
0.0
 10
83.8164743500254
 20
224.2955870081497
 30
0.0
  0
ARC
  5
DA
330
1F
100
AcDbEntity
  8
0
  6
Continuous
 62
     7
370
     0
100
AcDbCircle
 10
83.4367071805
 20
222.9834123625
 30
0.0
 40
1.366025403784463
100
AcDbArc
 50
106.1414033176
 51
73.8585966824
  0
SPLINE
  5
DB
330
1F
100
AcDbEntity
  8
0
  6
Continuous
 62
     7
370
     0
100
AcDbSpline
210
0.0
220
0.0
230
1.0
 70
     8
 71
     3
 72
    14
 73
    10
 74
     0
 42
0.000000001
 43
0.00000001
 40
0.0
 40
0.0
 40
0.0
 40
0.0
 40
0.4999999999999758
 40
0.4999999999999758
 40
0.7499999999999736
 40
0.7499999999999736
 40
0.8749999999999744
 40
0.8749999999999744
 40
1.0
 40
1.0
 40
1.0
 40
1.0
 10
83.05694001103555
 20
224.2955870081496
 30
0.0
 10
83.0396328863057
 20
224.3166349778436
 30
0.0
 10
83.01752606437074
 20
224.3359619499888
 30
0.0
 10
82.96898076752804
 20
224.3580097796229
 30
0.0
 10
82.95022655109538
 20
224.3643857703516
 30
0.0
 10
82.91285513856633
 20
224.368684301949
 30
0.0
 10
82.8988777913466
 20
224.3692495562748
 30
0.0
 10
82.86508417476692
 20
224.3657712168674
 30
0.0
 10
82.84316957152915
 20
224.3612165036327
 30
0.0
 10
82.82026647975353
 20
224.3508921109241
 30
0.0
  0
ARC
  5
DC
330
1F
100
AcDbEntity
  8
0
  6
Continuous
 62
     7
370
     0
100
AcDbCircle
 10
82.9563809498
 20
223.9730015258
 30
0.0
 40
0.1999999999999911
100
AcDbArc
 50
295.8909827371
 51
15.4153010407
  0
ARC
  5
DD
330
1F
100
AcDbEntity
  8
0
  6
Continuous
 62
     7
370
     0
100
AcDbCircle
 10
83.4367071805
 20
222.9834123625
 30
0.0
 40
0.9000000000000107
100
AcDbArc
 50
115.8909827371
 51
64.1090172629
  0
ARC
  5
DE
330
1F
100
AcDbEntity
  8
0
  6
Continuous
 62
     7
370
     0
100
AcDbCircle
 10
83.9170334112
 20
223.9730015258
 30
0.0
 40
0.2000000000000066
100
AcDbArc
 50
164.5846989593
 51
244.1090172629
  0
LINE
  5
DF
330
1F
100
AcDbEntity
  8
0
  6
Continuous
 62
     7
370
     0
100
AcDbLine
 10
83.7242249492
 20
224.0261678639
 30
0.0
 11
83.7781522516
 21
224.2217232529
 31
0.0
  0
LINE
  5
E0
330
1F
100
AcDbEntity
  8
0
  6
Continuous
 62
     7
370
     0
100
AcDbLine
 10
83.0952618364
 20
224.2217232529
 30
0.0
 11
83.1491891388
 21
224.0261678639
 31
0.0
  0
ARC
  5
E1
330
1F
100
AcDbEntity
  8
0
  6
Continuous
 62
     7
370
     0
100
AcDbCircle
 10
83.9709557879
 20
224.1685614778
 30
0.0
 40
0.200000000000013
100
AcDbArc
 50
140.5705471975
 51
164.5846989593
  0
ARC
  5
E2
330
1F
100
AcDbEntity
  8
0
  6
Continuous
 62
     7
370
     0
100
AcDbCircle
 10
82.9024585732
 20
224.1685614778
 30
0.0
 40
0.2000000000000239
100
AcDbArc
 50
15.4153010407
 51
39.4294528025
  0
ARC
  5
E3
330
1F
100
AcDbEntity
  8
0
  6
Continuous
 62
     7
370
     0
100
AcDbCircle
 10
89.1671186768
 20
252.9484317031
 30
0.0
 40
0.8267949192431452
100
AcDbArc
 50
288.4798247181
 51
251.5201752819
  0
SPLINE
  5
E4
330
1F
100
AcDbEntity
  8
0
  6
Continuous
 62
     7
370
     0
100
AcDbSpline
210
0.0
220
0.0
230
1.0
 70
     8
 71
     3
 72
    12
 73
     8
 74
     0
 42
0.000000001
 43
0.00000001
 40
0.0
 40
0.0
 40
0.0
 40
0.0
 40
0.2500000000000204
 40
0.2500000000000204
 40
0.5000000000000409
 40
0.5000000000000409
 40
1.0
 40
1.0
 40
1.0
 40
1.0
 10
88.63015012947498
 20
252.1048294394572
 30
0.0
 10
88.66229452769275
 20
252.0843689315154
 30
0.0
 10
88.69819605969515
 20
252.0750815367133
 30
0.0
 10
88.75938887042031
 20
252.0724013638429
 30
0.0
 10
88.78583100575177
 20
252.0779894385693
 30
0.0
 10
88.85315175097323
 20
252.1034411720578
 30
0.0
 10
88.88402240593865
 20
252.1320405542223
 30
0.0
 10
88.90504890570253
 20
252.1642701932128
 30
0.0
  0
SPLINE
  5
E5
330
1F
100
AcDbEntity
  8
0
  6
Continuous
 62
     7
370
     0
100
AcDbSpline
210
0.0
220
0.0
230
1.0
 70
     8
 71
     3
 72
    12
 73
     8
 74
     0
 42
0.000000001
 43
0.00000001
 40
0.0
 40
0.0
 40
0.0
 40
0.0
 40
0.5
 40
0.5
 40
0.75
 40
0.75
 40
1.0
 40
1.0
 40
1.0
 40
1.0
 10
89.42918844784958
 20
252.1642701932128
 30
0.0
 10
89.45020848680849
 20
252.1320504574118
 30
0.0
 10
89.48040170710958
 20
252.1037907928794
 30
0.0
 10
89.54825632634275
 20
252.0780011185632
 30
0.0
 10
89.57461950948294
 20
252.0724217017465
 30
0.0
 10
89.63587606539234
 20
252.0750441280206
 30
0.0
 10
89.67196143152478
 20
252.0843807743678
 30
0.0
 10
89.70408722407716
 20
252.1048294394572
 30
0.0
  0
ARC
  5
E6
330
1F
100
AcDbEntity
  8
0
  6
Continuous
 62
     7
370
     0
100
AcDbCircle
 10
89.5966935146
 20
252.2735498922
 30
0.0
 40
0.2000000000000475
100
AcDbArc
 50
122.4775121859
 51
198.0
  0
ARC
  5
E7
330
1F
100
AcDbEntity
  8
0
  6
Continuous
 62
     7
370
     0
100
AcDbCircle
 10
89.1671186768
 20
252.9484317031
 30
0.0
 40
0.5999999999999974
100
AcDbArc
 50
302.4775121859
 51
237.5224878141
  0
ARC
  5
E8
330
1F
100
AcDbEntity
  8
0
  6
Continuous
 62
     7
370
     0
100
AcDbCircle
 10
88.7375438389
 20
252.2735498922
 30
0.0
 40
0.2000000000000551
100
AcDbArc
 50
342.0
 51
57.5224878141
  0
ARC
  5
E9
330
1F
100
AcDbEntity
  8
0
  6
Continuous
 62
     7
370
     0
100
AcDbCircle
 10
88.7375438389
 20
252.2735498922
 30
0.0
 40
0.2000000000000097
100
AcDbArc
 50
326.8797162241
 51
342.0
  0
ARC
  5
EA
330
1F
100
AcDbEntity
  8
0
  6
Continuous
 62
     7
370
     0
100
AcDbCircle
 10
89.5966935146
 20
252.2735498922
 30
0.0
 40
0.2000000000000063
100
AcDbArc
 50
198.0
 51
213.1202837759
  0
ARC
  5
EB
330
1F
100
AcDbEntity
  8
0
  6
Continuous
 62
     7
370
     0
100
AcDbCircle
 10
101.0331025227
 20
248.7296134601
 30
0.0
 40
1.599999999999989
100
AcDbArc
 50
260.4884137372
 51
80.4884137372
  0
LINE
  5
EC
330
1F
100
AcDbEntity
  8
0
  6
Continuous
 62
     7
370
     0
100
AcDbLine
 10
101.2974996213
 20
250.3076140824
 30
0.0
 11
96.2676126603
 21
251.1503790561
 31
0.0
  0
LINE
  5
ED
330
1F
100
AcDbEntity
  8
0
  6
Continuous
 62
     7
370
     0
100
AcDbLine
 10
96.2676126603
 20
251.1503790561
 30
0.0
 11
96.4493844751
 21
252.2352506462
 31
0.0
  0
LINE
  5
EE
330
1F
100
AcDbEntity
  8
0
  6
Continuous
 62
     7
370
     0
100
AcDbLine
 10
106.9705877546
 20
232.728483254
 30
0.0
 11
93.5575608257
 21
234.9758391324
 31
0.0
  0
LINE
  5
EF
330
1F
100
AcDbEntity
  8
0
  6
Continuous
 62
     7
370
     0
100
AcDbLine
 10
88.7915436271
 20
236.788326973
 30
0.0
 11
89.6125529054
 21
235.6368322912
 31
0.0
  0
LINE
  5
F0
330
1F
100
AcDbEntity
  8
0
  6
Continuous
 62
     7
370
     0
100
AcDbLine
 10
88.7915436271
 20
236.788326973
 30
0.0
 11
90.7249394897
 21
248.3274807278
 31
0.0
  0
LINE
  5
F1
330
1F
100
AcDbEntity
  8
0
  6
Continuous
 62
     7
370
     0
100
AcDbLine
 10
91.3006831054
 20
248.7379779163
 30
0.0
 11
90.7249394897
 21
248.3274807278
 31
0.0
  0
LINE
  5
F2
330
1F
100
AcDbEntity
  8
0
  6
Continuous
 62
     7
370
     0
100
AcDbLine
 10
94.2594427708
 20
248.2422386351
 30
0.0
 11
100.7687095646
 21
247.1516077462
 31
0.0
  0
LINE
  5
F3
330
1F
100
AcDbEntity
  8
0
  6
Continuous
 62
     7
370
     0
100
AcDbLine
 10
106.9705877546
 20
232.728483254
 30
0.0
 11
109.862411404
 21
249.9878947678
 31
0.0
  0
LINE
  5
F4
330
1F
100
AcDbEntity
  8
0
  6
Continuous
 62
     7
370
     0
100
AcDbLine
 10
109.862411404
 20
249.9878947678
 30
0.0
 11
96.4493844751
 21
252.2352506462
 31
0.0
  0
LINE
  5
F5
330
1F
100
AcDbEntity
  8
0
  6
Continuous
 62
     7
370
     0
100
AcDbLine
 10
96.5320039634
 20
252.7283822242
 30
0.0
 11
96.4493844751
 21
252.2352506462
 31
0.0
  0
LINE
  5
F6
330
1F
100
AcDbEntity
  8
0
  6
Continuous
 62
     7
370
     0
100
AcDbLine
 10
96.5320039634
 20
252.7283822242
 30
0.0
 11
109.4519142154
 21
250.5636458341
 31
0.0
  0
ARC
  5
F7
330
1F
100
AcDbEntity
  8
0
  6
Continuous
 62
     7
370
     0
100
AcDbCircle
 10
109.3692871969
 20
250.0705180346
 30
0.0
 40
0.5000000000000404
100
AcDbArc
 50
350.4884137372
 51
80.4884137372
  0
LINE
  5
F8
330
1F
100
AcDbEntity
  8
0
  6
Continuous
 62
     7
370
     0
100
AcDbLine
 10
59.0740759019
 20
234.0951283518
 30
0.0
 11
58.773024017
 21
255.4998193923
 31
0.0
  0
LINE
  5
F9
330
1F
100
AcDbEntity
  8
0
  6
Continuous
 62
     7
370
     0
100
AcDbLine
 10
61.1012037936
 20
257.894421095
 30
0.0
 11
58.773024017
 21
255.4998193923
 31
0.0
  0
LINE
  5
FA
330
1F
100
AcDbEntity
  8
0
  6
Continuous
 62
     7
370
     0
100
AcDbLine
 10
61.1012037936
 20
257.894421095
 30
0.0
 11
64.6624136809
 21
258.4911082927
 31
0.0
  0
LINE
  5
FB
330
1F
100
AcDbEntity
  8
0
  6
Continuous
 62
     7
370
     0
100
AcDbLine
 10
64.6624136809
 20
258.4911082927
 30
0.0
 11
71.107046688
 21
220.0272698942
 31
0.0
  0
LINE
  5
FC
330
1F
100
AcDbEntity
  8
0
  6
Continuous
 62
     7
370
     0
100
AcDbLine
 10
70.286041135
 20
218.8757752124
 30
0.0
 11
71.107046688
 21
220.0272698942
 31
0.0
  0
LINE
  5
FD
330
1F
100
AcDbEntity
  8
0
  6
Continuous
 62
     7
370
     0
100
AcDbLine
 10
70.286041135
 20
218.8757752124
 30
0.0
 11
60.7697311882
 21
217.2813062611
 31
0.0
  0
ARC
  5
FE
330
1F
100
AcDbEntity
  8
0
  6
Continuous
 62
     7
370
     0
100
AcDbCircle
 10
61.595966726
 20
212.3500479694
 30
0.0
 40
5.000000000000011
100
AcDbArc
 50
99.5115862628
 51
169.5115862628
  0
LINE
  5
FF
330
1F
100
AcDbEntity
  8
0
  6
Continuous
 62
     7
370
     0
100
AcDbLine
 10
56.6795077268
 20
213.260227913
 30
0.0
 11
56.3418995682
 21
211.4366089049
 31
0.0
  0
LINE
  5
100
330
1F
100
AcDbEntity
  8
0
  6
Continuous
 62
     7
370
     0
100
AcDbLine
 10
54.503316069
 20
201.505290443
 30
0.0
 11
51.3096153829
 21
184.2541453484
 31
0.0
  0
LINE
  5
101
330
1F
100
AcDbEntity
  8
0
  6
Continuous
 62
     7
370
     0
100
AcDbLine
 10
51.3096153829
 20
184.2541453484
 30
0.0
 11
48.8513857219
 21
184.7092379871
 31
0.0
  0
LINE
  5
102
330
1F
100
AcDbEntity
  8
0
  6
Continuous
 62
     7
370
     0
100
AcDbLine
 10
46.0469927732
 20
188.7878869716
 30
0.0
 11
50.8706905041
 21
214.843632752
 31
0.0
  0
ARC
  5
103
330
1F
100
AcDbEntity
  8
0
  6
Continuous
 62
     7
370
     0
100
AcDbCircle
 10
60.7036075564
 20
213.0232672023
 30
0.0
 40
10.0
100
AcDbArc
 50
136.1303647985
 51
169.5115862628
  0
ARC
  5
104
330
1F
100
AcDbEntity
  8
0
  6
Continuous
 62
     7
370
     0
100
AcDbCircle
 10
39.0760528664
 20
233.8138631083
 30
0.0
 40
20.00000000000001
100
AcDbArc
 50
316.1303647985
 51
0.8057920863
  0
LINE
  5
105
330
1F
100
AcDbEntity
  8
0
  6
Continuous
 62
     7
370
     0
100
AcDbLine
 10
46.0469927732
 20
188.7878869716
 30
0.0
 11
48.8513857219
 21
184.7092379871
 31
0.0
  0
LINE
  5
106
330
1F
100
AcDbEntity
  8
0
  6
Continuous
 62
     7
370
     0
100
AcDbLine
 10
96.5033192281
 20
163.902007142
 30
0.0
 11
99.8105648998
 21
183.6408172789
 31
0.0
  0
LINE
  5
107
330
1F
100
AcDbEntity
  8
0
  6
Continuous
 62
     7
370
     0
100
AcDbLine
 10
89.744800711
 20
217.3637618366
 30
0.0
 11
89.4489456061
 21
215.5980189386
 31
0.0
  0
LINE
  5
108
330
1F
100
AcDbEntity
  8
0
  6
Continuous
 62
     7
370
     0
100
AcDbLine
 10
90.0987852458
 20
217.3044477645
 30
0.0
 11
89.744800711
 21
217.3637618366
 31
0.0
  0
ARC
  5
109
330
1F
100
AcDbEntity
  8
0
  6
Continuous
 62
     7
370
     0
100
AcDbCircle
 10
89.2395005214
 20
212.175938974
 30
0.0
 40
5.2
100
AcDbArc
 50
10.4884137372
 51
80.4884137372
  0
LINE
  5
10A
330
1F
100
AcDbEntity
  8
0
  6
Continuous
 62
     7
370
     0
100
AcDbLine
 10
99.8105648998
 20
183.6408172789
 30
0.0
 11
96.5033192281
 21
201.505290443
 31
0.0
  0
LINE
  5
10B
330
1F
100
AcDbEntity
  8
0
  6
Continuous
 62
     7
370
     0
100
AcDbLine
 10
94.6647320036
 20
211.4366089049
 30
0.0
 11
94.3526197318
 21
213.1225262824
 31
0.0
  0
LINE
  5
10C
330
1F
100
AcDbEntity
  8
0
  6
Continuous
 62
     7
370
     0
100
AcDbLine
 10
61.261834586
 20
217.3637618366
 30
0.0
 11
61.5576859657
 21
215.5980189386
 31
0.0
  0
LINE
  5
10D
330
1F
100
AcDbEntity
  8
0
  6
Continuous
 62
     7
370
     0
100
AcDbLine
 10
51.1960685346
 20
183.6408172789
 30
0.0
 11
54.503316069
 21
201.505290443
 31
0.0
  0
LINE
  5
10E
330
1F
100
AcDbEntity
  8
0
  6
Continuous
 62
     7
370
     0
100
AcDbLine
 10
56.3418995682
 20
211.4366089049
 30
0.0
 11
56.6540155653
 21
213.1225262824
 31
0.0
  0
ARC
  5
10F
330
1F
100
AcDbEntity
  8
0
  6
Continuous
 62
     7
370
     0
100
AcDbCircle
 10
61.7671323813
 20
212.175938974
 30
0.0
 40
5.200000000000012
100
AcDbArc
 50
99.5115862628
 51
169.5115862628
  0
LINE
  5
110
330
1F
100
AcDbEntity
  8
0
  6
Continuous
 62
     7
370
     0
100
AcDbLine
 10
60.907846326
 20
217.3044477645
 30
0.0
 11
61.261834586
 21
217.3637618366
 31
0.0
  0
LINE
  5
111
330
1F
100
AcDbEntity
  8
0
  6
Continuous
 62
     7
370
     0
100
AcDbLine
 10
54.503316069
 20
163.902007142
 30
0.0
 11
51.1960685346
 21
183.6408172789
 31
0.0
  0
CIRCLE
  5
112
330
1F
100
AcDbEntity
  8
0
  6
Continuous
 62
     7
370
     0
100
AcDbCircle
 10
101.0413648751
 20
248.7789260704
 30
0.0
 40
1.200000000000021
  0
CIRCLE
  5
113
330
1F
100
AcDbEntity
  8
0
  6
Continuous
 62
     7
370
     0
100
AcDbCircle
 10
101.0413648751
 20
248.7789260704
 30
0.0
 40
1.499999999999979
  0
LINE
  5
114
330
1F
100
AcDbEntity
  8
0
  6
Continuous
 62
     7
370
     0
100
AcDbLine
 10
95.7388226036
 20
247.9943727198
 30
0.0
 11
96.2676126603
 21
251.1503790561
 31
0.0
  0
LINE
  5
115
330
1F
100
AcDbEntity
  8
0
  6
Continuous
 62
     7
370
     0
100
AcDbLine
 10
95.6521201972
 20
252.3181383553
 30
0.0
 11
94.9498210195
 21
248.1265683714
 31
0.0
  0
LINE
  5
116
330
1F
100
AcDbEntity
  8
0
  6
Continuous
 62
     7
370
     0
100
AcDbLine
 10
95.6521201972
 20
252.3181383553
 30
0.0
 11
96.4411217812
 21
252.1859427038
 31
0.0
  0
LWPOLYLINE
  5
117
330
1F
100
AcDbEntity
  8
0
  6
Continuous
 62
     7
370
     0
100
AcDbPolyline
 90
       12
 70
   128
 43
0.0
 10
94.5635829214
 20
248.2419778648
 10
94.5644546393
 20
248.2472007218
 10
94.5851523522
 20
248.3707387987
 10
94.6312714461
 20
248.6459781471
 10
94.6978051308
 20
249.0430940929
 10
94.7775561456
 20
249.5190520826
 10
94.8618743662
 20
250.0222866479
 10
94.9416179303
 20
250.4982446376
 10
95.0081590656
 20
250.895368034
 10
95.0542707089
 20
251.1706073824
 10
95.0749684218
 20
251.2941380087
 10
95.0758475903
 20
251.2993608657
  0
LWPOLYLINE
  5
118
330
1F
100
AcDbEntity
  8
0
  6
Continuous
 62
     7
370
     0
100
AcDbPolyline
 90
        5
 70
   128
 43
0.0
 10
104.9970407132
 20
231.8424229566
 10
104.7328431252
 20
231.8866868559
 10
104.5088712219
 20
231.9242154303
 10
104.3592114095
 20
231.9492940846
 10
104.3066624645
 20
231.9580932203
  0
LWPOLYLINE
  5
119
330
1F
100
AcDbEntity
  8
0
  6
Continuous
 62
     7
370
     0
100
AcDbPolyline
 90
        5
 70
   128
 43
0.0
 10
105.6874189619
 20
231.7267526928
 10
105.6348625664
 20
231.7355518285
 10
105.4852102045
 20
231.7606304828
 10
105.2612383012
 20
231.7981590572
 10
104.9970407132
 20
231.8424229566
  0
LWPOLYLINE
  5
11A
330
1F
100
AcDbEntity
  8
0
  6
Continuous
 62
     7
370
     0
100
AcDbPolyline
 90
        5
 70
   128
 43
0.0
 10
103.0245367531
 20
232.1729158107
 10
102.7603391651
 20
232.21717971
 10
102.5363672618
 20
232.2547082845
 10
102.3867074493
 20
232.2797869388
 10
102.3341585044
 20
232.288593525
  0
LWPOLYLINE
  5
11B
330
1F
100
AcDbEntity
  8
0
  6
Continuous
 62
     7
370
     0
100
AcDbPolyline
 90
        5
 70
   128
 43
0.0
 10
103.7149150018
 20
232.0572455469
 10
103.6623586062
 20
232.0660521332
 10
103.5127062444
 20
232.0911233369
 10
103.288734341
 20
232.1286519113
 10
103.0245367531
 20
232.1729158107
  0
LWPOLYLINE
  5
11C
330
1F
100
AcDbEntity
  8
0
  6
Continuous
 62
     7
370
     0
100
AcDbPolyline
 90
        5
 70
   128
 43
0.0
 10
102.1982971672
 20
227.2416596356
 10
102.0661983732
 20
227.26378786
 10
101.9542161468
 20
227.2825558725
 10
101.8793899659
 20
227.2950877491
 10
101.8531117681
 20
227.2994910422
  0
LWPOLYLINE
  5
11D
330
1F
100
AcDbEntity
  8
0
  6
Continuous
 62
     7
370
     0
100
AcDbPolyline
 90
        5
 70
   128
 43
0.0
 10
102.5434900168
 20
227.1838207785
 10
102.5172118191
 20
227.1882240716
 10
102.4423856381
 20
227.2007559482
 10
102.3303959612
 20
227.2195239607
 10
102.1982971672
 20
227.2416596356
  0
LWPOLYLINE
  5
11E
330
1F
100
AcDbEntity
  8
0
  6
Continuous
 62
     7
370
     0
100
AcDbPolyline
 90
        5
 70
   128
 43
0.0
 10
104.1708011273
 20
226.9111593309
 10
104.0387097839
 20
226.9332950059
 10
103.926720107
 20
226.9520555678
 10
103.851893926
 20
226.964594895
 10
103.8256157283
 20
226.9689981881
  0
LWPOLYLINE
  5
11F
330
1F
100
AcDbEntity
  8
0
  6
Continuous
 62
     7
370
     0
100
AcDbPolyline
 90
        5
 70
   128
 43
0.0
 10
104.515993977
 20
226.8533279243
 10
104.4897157792
 20
226.8577312175
 10
104.4148895983
 20
226.870263094
 10
104.3028999213
 20
226.8890311066
 10
104.1708011273
 20
226.9111593309
  0
LWPOLYLINE
  5
120
330
1F
100
AcDbEntity
  8
0
  6
Continuous
 62
     7
370
     0
100
AcDbPolyline
 90
        9
 70
   128
 43
0.0
 10
92.3857558612
 20
238.302575523
 10
92.3884827737
 20
238.3858059588
 10
92.391194785
 20
238.4687532726
 10
92.3939067963
 20
238.5513802114
 10
92.3965964559
 20
238.633656973
 10
92.399278665
 20
238.7155463043
 10
92.4019459728
 20
238.797003502
 10
92.4046058301
 20
238.8779987636
 10
92.407235885
 20
238.9584948364
  0
ARC
  5
121
330
1F
100
AcDbEntity
  8
0
  6
Continuous
 62
     7
370
     0
100
AcDbCircle
 10
91.7482628114
 20
230.143579002
 30
0.0
 40
8.83951280785829
100
AcDbArc
 50
85.7247151191
 51
90.5225924199
  0
LWPOLYLINE
  5
122
330
1F
100
AcDbEntity
  8
0
  6
Continuous
 62
     7
370
     0
100
AcDbPolyline
 90
        9
 70
   128
 43
0.0
 10
91.6676391009
 20
238.9827241245
 10
91.6650015954
 20
238.9022280517
 10
91.6623491887
 20
238.8212327901
 10
91.6596744303
 20
238.7397681418
 10
91.6569922212
 20
238.6578862611
 10
91.6543025616
 20
238.5756094995
 10
91.6515905503
 20
238.4929751101
 10
91.648878539
 20
238.4100352469
 10
91.6461516265
 20
238.3268048111
  0
ARC
  5
123
330
1F
100
AcDbEntity
  8
0
  6
Continuous
 62
     7
370
     0
100
AcDbCircle
 10
91.9981731766
 20
237.771965368
 30
0.0
 40
0.6570903894995073
100
AcDbArc
 50
122.393452735
 51
143.8541448437
  0
LWPOLYLINE
  5
124
330
1F
100
AcDbEntity
  8
0
  6
Continuous
 62
     7
370
     0
100
AcDbPolyline
 90
        9
 70
   128
 43
0.0
 10
91.4675612096
 20
238.1595467273
 10
91.3843307737
 20
238.1622736398
 10
91.3013909105
 20
238.1649856511
 10
91.2187565211
 20
238.1676976624
 10
91.1364797596
 20
238.170387322
 10
91.0545978788
 20
238.173069531
 10
90.9731332306
 20
238.1757442895
 10
90.8921379689
 20
238.1783966962
 10
90.8116418961
 20
238.1810342017
  0
ARC
  5
125
330
1F
100
AcDbEntity
  8
0
  6
Continuous
 62
     7
370
     0
100
AcDbCircle
 10
99.6267423992
 20
237.5220542661
 30
0.0
 40
8.83969747420828
100
AcDbArc
 50
175.7247599977
 51
180.522585318
  0
LWPOLYLINE
  5
126
330
1F
100
AcDbEntity
  8
0
  6
Continuous
 62
     7
370
     0
100
AcDbPolyline
 90
        9
 70
   128
 43
0.0
 10
90.787412608
 20
237.441429967
 10
90.8679086808
 20
237.4387924615
 10
90.9489039425
 20
237.4361400548
 10
91.0303685907
 20
237.4334727469
 10
91.1122504715
 20
237.4307905379
 10
91.194527233
 20
237.4280934277
 10
91.2771616224
 20
237.425388867
 10
91.3601089362
 20
237.4226694051
 10
91.4433319215
 20
237.4199424926
  0
ARC
  5
127
330
1F
100
AcDbEntity
  8
0
  6
Continuous
 62
     7
370
     0
100
AcDbCircle
 10
91.9981731766
 20
237.771965368
 30
0.0
 40
0.6570903894994997
100
AcDbArc
 50
212.393452735
 51
233.8541448437
  0
LWPOLYLINE
  5
128
330
1F
100
AcDbEntity
  8
0
  6
Continuous
 62
     7
370
     0
100
AcDbPolyline
 90
        9
 70
   128
 43
0.0
 10
91.6105900053
 20
237.2413520757
 10
91.6078705434
 20
237.1581290904
 10
91.6051510814
 20
237.0751817766
 10
91.6024465207
 20
236.9925473872
 10
91.5997494105
 20
236.9102706257
 10
91.5970672015
 20
236.8283887449
 10
91.5943998936
 20
236.7469240967
 10
91.5917400364
 20
236.665928835
 10
91.5891099814
 20
236.5854327622
  0
ARC
  5
129
330
1F
100
AcDbEntity
  8
0
  6
Continuous
 62
     7
370
     0
100
AcDbCircle
 10
92.2478241259
 20
245.3951612763
 30
0.0
 40
8.834320619892488
100
AcDbArc
 50
265.7238817293
 51
270.5245789497
  0
LWPOLYLINE
  5
12A
330
1F
100
AcDbEntity
  8
0
  6
Continuous
 62
     7
370
     0
100
AcDbPolyline
 90
        9
 70
   128
 43
0.0
 10
92.3287067655
 20
236.5612109247
 10
92.3313442711
 20
236.6417069975
 10
92.3339966778
 20
236.7227022591
 10
92.3366714362
 20
236.8041594568
 10
92.3393536452
 20
236.8860487882
 10
92.3420433048
 20
236.9683180991
 10
92.3447553161
 20
237.0509524885
 10
92.3474673275
 20
237.1338998023
 10
92.35019424
 20
237.2171227876
  0
ARC
  5
12B
330
1F
100
AcDbEntity
  8
0
  6
Continuous
 62
     7
370
     0
100
AcDbCircle
 10
91.9981731766
 20
237.771965368
 30
0.0
 40
0.6570903894995279
100
AcDbArc
 50
302.393452735
 51
323.8541448437
  0
LWPOLYLINE
  5
12C
330
1F
100
AcDbEntity
  8
0
  6
Continuous
 62
     7
370
     0
100
AcDbPolyline
 90
        9
 70
   128
 43
0.0
 10
92.5287846569
 20
237.384388322
 10
92.6120150927
 20
237.3816614095
 10
92.6949624065
 20
237.3789419475
 10
92.7775893453
 20
237.3762373868
 10
92.8598661069
 20
237.3735402766
 10
92.9417554382
 20
237.3708580676
 10
93.0232126359
 20
237.3681907597
 10
93.1042078975
 20
237.3655383531
 10
93.1847039703
 20
237.3629008475
  0
ARC
  5
12D
330
1F
100
AcDbEntity
  8
0
  6
Continuous
 62
     7
370
     0
100
AcDbCircle
 10
84.3696479985
 20
238.0218793242
 30
0.0
 40
8.83965295808046
100
AcDbArc
 50
355.7247479098
 51
0.5225974059
  0
LWPOLYLINE
  5
12E
330
1F
100
AcDbEntity
  8
0
  6
Continuous
 62
     7
370
     0
100
AcDbPolyline
 90
        9
 70
   128
 43
0.0
 10
93.2089332584
 20
238.1025050822
 10
93.1284371856
 20
238.1051425877
 10
93.047441924
 20
238.1077949944
 10
92.9659772757
 20
238.1104623023
 10
92.884095395
 20
238.1131445113
 10
92.8018186334
 20
238.1158416215
 10
92.719184244
 20
238.1185461822
 10
92.6362369303
 20
238.1212656442
 10
92.553013945
 20
238.1239851061
  0
ARC
  5
12F
330
1F
100
AcDbEntity
  8
0
  6
Continuous
 62
     7
370
     0
100
AcDbCircle
 10
91.9981731766
 20
237.771965368
 30
0.0
 40
0.6570903894995248
100
AcDbArc
 50
32.393452735
 51
53.8541448437
  0
CIRCLE
  5
130
330
1F
100
AcDbEntity
  8
0
  6
Continuous
 62
     7
370
     0
100
AcDbCircle
 10
91.9981731766
 20
237.771965368
 30
0.0
 40
2.404255319148934
  0
SPLINE
  5
131
330
1F
100
AcDbEntity
  8
0
  6
Continuous
 62
     7
370
     0
100
AcDbSpline
210
0.0
220
0.0
230
1.0
 70
    24
 71
     3
 72
     8
 73
     4
 74
     0
 42
0.000000001
 43
0.00000001
 40
0.0
 40
0.0
 40
0.0
 40
0.0
 40
1.0
 40
1.0
 40
1.0
 40
1.0
 10
91.64614993917688
 20
238.3268053632551
 30
0.0
 10
91.64481448845369
 20
238.2860377000034
 30
0.0
 10
91.64343642183331
 20
238.2439690898027
 30
0.0
 10
91.64195908222267
 20
238.198869946338
 30
0.0
  0
ARC
  5
132
330
1F
100
AcDbEntity
  8
0
  6
Continuous
 62
     7
370
     0
100
AcDbCircle
 10
91.9981731766
 20
237.771965368
 30
0.0
 40
0.5560000000000003
100
AcDbArc
 50
129.8420091711
 51
136.4055884077
  0
SPLINE
  5
133
330
1F
100
AcDbEntity
  8
0
  6
Continuous
 62
     7
370
     0
100
AcDbSpline
210
0.0
220
0.0
230
1.0
 70
    24
 71
     3
 72
     8
 73
     4
 74
     0
 42
0.000000001
 43
0.00000001
 40
0.0
 40
0.0
 40
0.0
 40
0.0
 40
1.0
 40
1.0
 40
1.0
 40
1.0
 10
91.46756080850407
 20
238.1595454175854
 30
0.0
 10
91.50832847175589
 20
238.1582099668622
 30
0.0
 10
91.55039708195659
 20
238.1568319002419
 30
0.0
 10
91.59549622542129
 20
238.1553545606312
 30
0.0
  0
SPLINE
  5
134
330
1F
100
AcDbEntity
  8
0
  6
Continuous
 62
     7
370
     0
100
AcDbSpline
210
0.0
220
0.0
230
1.0
 70
    24
 71
     3
 72
     8
 73
     4
 74
     0
 42
0.000000001
 43
0.00000001
 40
0.0
 40
0.0
 40
0.0
 40
0.0
 40
1.0
 40
1.0
 40
1.0
 40
1.0
 10
91.61059312703804
 20
237.2413529999517
 30
0.0
 10
91.61192857776123
 20
237.2821206632035
 30
0.0
 10
91.61330664438158
 20
237.3241892734042
 30
0.0
 10
91.61478398399225
 20
237.3692884168689
 30
0.0
  0
SPLINE
  5
135
330
1F
100
AcDbEntity
  8
0
  6
Continuous
 62
     7
370
     0
100
AcDbSpline
210
0.0
220
0.0
230
1.0
 70
    24
 71
     3
 72
     8
 73
     4
 74
     0
 42
0.000000001
 43
0.00000001
 40
0.0
 40
0.0
 40
0.0
 40
0.0
 40
1.0
 40
1.0
 40
1.0
 40
1.0
 10
91.4433331813683
 20
237.4199421306245
 30
0.0
 10
91.48410084462012
 20
237.4186066799013
 30
0.0
 10
91.52616945482082
 20
237.417228613281
 30
0.0
 10
91.57126859828551
 20
237.4157512736703
 30
0.0
  0
ARC
  5
136
330
1F
100
AcDbEntity
  8
0
  6
Continuous
 62
     7
370
     0
100
AcDbCircle
 10
91.9981731766
 20
237.771965368
 30
0.0
 40
0.5559999999999898
100
AcDbArc
 50
219.8420091711
 51
226.4055884077
  0
ARC
  5
137
330
1F
100
AcDbEntity
  8
0
  6
Continuous
 62
     7
370
     0
100
AcDbCircle
 10
91.9981731766
 20
237.771965368
 30
0.0
 40
0.5560000000000002
100
AcDbArc
 50
309.8420091711
 51
316.4055884077
  0
SPLINE
  5
138
330
1F
100
AcDbEntity
  8
0
  6
Continuous
 62
     7
370
     0
100
AcDbSpline
210
0.0
220
0.0
230
1.0
 70
    24
 71
     3
 72
     8
 73
     4
 74
     0
 42
0.000000001
 43
0.00000001
 40
0.0
 40
0.0
 40
0.0
 40
0.0
 40
1.0
 40
1.0
 40
1.0
 40
1.0
 10
92.52878554467175
 20
237.3843853184857
 30
0.0
 10
92.48801788141995
 20
237.3857207692089
 30
0.0
 10
92.44594927121923
 20
237.3870988358292
 30
0.0
 10
92.40085012775454
 20
237.3885761754399
 30
0.0
  0
SPLINE
  5
139
330
1F
100
AcDbEntity
  8
0
  6
Continuous
 62
     7
370
     0
100
AcDbSpline
210
0.0
220
0.0
230
1.0
 70
    24
 71
     3
 72
     8
 73
     4
 74
     0
 42
0.000000001
 43
0.00000001
 40
0.0
 40
0.0
 40
0.0
 40
0.0
 40
1.0
 40
1.0
 40
1.0
 40
1.0
 10
92.35019641399894
 20
237.217125372816
 30
0.0
 10
92.35153186472215
 20
237.2578930360678
 30
0.0
 10
92.35290993134251
 20
237.2999616462685
 30
0.0
 10
92.35438727095315
 20
237.3450607897332
 30
0.0
  0
ARC
  5
13A
330
1F
100
AcDbEntity
  8
0
  6
Continuous
 62
     7
370
     0
100
AcDbCircle
 10
91.9981731766
 20
237.771965368
 30
0.0
 40
0.5560000000000095
100
AcDbArc
 50
39.8420091711
 51
46.4055884077
  0
SPLINE
  5
13B
330
1F
100
AcDbEntity
  8
0
  6
Continuous
 62
     7
370
     0
100
AcDbSpline
210
0.0
220
0.0
230
1.0
 70
    24
 71
     3
 72
     8
 73
     4
 74
     0
 42
0.000000001
 43
0.00000001
 40
0.0
 40
0.0
 40
0.0
 40
0.0
 40
1.0
 40
1.0
 40
1.0
 40
1.0
 10
92.3857532261378
 20
238.3025777361194
 30
0.0
 10
92.38441777541459
 20
238.2618100728676
 30
0.0
 10
92.38303970879424
 20
238.2197414626669
 30
0.0
 10
92.38156236918357
 20
238.1746423192022
 30
0.0
  0
SPLINE
  5
13C
330
1F
100
AcDbEntity
  8
0
  6
Continuous
 62
     7
370
     0
100
AcDbSpline
210
0.0
220
0.0
230
1.0
 70
    24
 71
     3
 72
     8
 73
     4
 74
     0
 42
0.000000001
 43
0.00000001
 40
0.0
 40
0.0
 40
0.0
 40
0.0
 40
1.0
 40
1.0
 40
1.0
 40
1.0
 10
92.55301317180754
 20
238.1239886054466
 30
0.0
 10
92.51224550855572
 20
238.1253240561698
 30
0.0
 10
92.47017689835502
 20
238.1267021227901
 30
0.0
 10
92.42507775489031
 20
238.1281794624008
 30
0.0
  0
LINE
  5
13D
330
1F
100
AcDbEntity
  8
0
  6
Continuous
 62
     7
370
     0
100
AcDbLine
 10
91.9507760648
 20
238.3259405437
 30
0.0
 11
91.6464496497
 21
238.3359094206
 31
0.0
  0
LINE
  5
13E
330
1F
100
AcDbEntity
  8
0
  6
Continuous
 62
     7
370
     0
100
AcDbLine
 10
92.3860538844
 20
238.3116801325
 30
0.0
 11
92.0817200187
 21
238.3216490093
 31
0.0
  0
ELLIPSE
  5
13F
330
1F
100
AcDbEntity
  8
0
  6
Continuous
 62
     7
370
     0
100
AcDbEllipse
 10
92.000414755
 20
237.8403946359
 30
0.0
 11
0.01598256400704656
 21
0.4879040282167466
 31
0.0
210
0.0
220
0.0
230
1.0
 40
0.9901159119
 41
6.147238359929578
 42
6.419132254429633
  0
LINE
  5
140
330
1F
100
AcDbEntity
  8
0
  6
Continuous
 62
     7
370
     0
100
AcDbLine
 10
91.4441961888
 20
237.7245743814
 30
0.0
 11
91.434227312
 21
237.4202405158
 31
0.0
  0
LINE
  5
141
330
1F
100
AcDbEntity
  8
0
  6
Continuous
 62
     7
370
     0
100
AcDbLine
 10
91.4584566001
 20
238.1598447505
 30
0.0
 11
91.4484877232
 21
237.8555108848
 31
0.0
  0
ELLIPSE
  5
142
330
1F
100
AcDbEntity
  8
0
  6
Continuous
 62
     7
370
     0
100
AcDbEllipse
 10
91.9297439087
 20
237.7742069465
 30
0.0
 11
0.4879040282167466
 21
-0.01598256400706077
 31
0.0
210
0.0
220
0.0
230
1.0
 40
0.9901159119
 41
3.005645706339774
 42
3.277539600839887
  0
LINE
  5
143
330
1F
100
AcDbEntity
  8
0
  6
Continuous
 62
     7
370
     0
100
AcDbLine
 10
92.5521496776
 20
237.8193606678
 30
0.0
 11
92.5621185545
 21
238.1236870829
 31
0.0
  0
LINE
  5
144
330
1F
100
AcDbEntity
  8
0
  6
Continuous
 62
     7
370
     0
100
AcDbLine
 10
92.5378892664
 20
237.3840902987
 30
0.0
 11
92.5478581432
 21
237.6884167138
 31
0.0
  0
ELLIPSE
  5
145
330
1F
100
AcDbEntity
  8
0
  6
Continuous
 62
     7
370
     0
100
AcDbEllipse
 10
92.0666024444
 20
237.7697237896
 30
0.0
 11
0.4879040282167466
 21
-0.01598256400706077
 31
0.0
210
0.0
220
0.0
230
1.0
 40
0.9901159119
 41
6.147238359929518
 42
6.419132254429613
  0
LINE
  5
146
330
1F
100
AcDbEntity
  8
0
  6
Continuous
 62
     7
370
     0
100
AcDbLine
 10
92.0455698017
 20
237.2179870549
 30
0.0
 11
92.3498962168
 21
237.2080181781
 31
0.0
  0
LINE
  5
147
330
1F
100
AcDbEntity
  8
0
  6
Continuous
 62
     7
370
     0
100
AcDbLine
 10
91.6102919821
 20
237.2322474662
 30
0.0
 11
91.9146258477
 21
237.2222785893
 31
0.0
  0
ELLIPSE
  5
148
330
1F
100
AcDbEntity
  8
0
  6
Continuous
 62
     7
370
     0
100
AcDbEllipse
 10
91.9959315981
 20
237.7035361002
 30
0.0
 11
0.01598256400703235
 21
0.4879040282167466
 31
0.0
210
0.0
220
0.0
230
1.0
 40
0.9901159119
 41
3.005645706339723
 42
3.277539600839791
  0
CIRCLE
  5
149
330
1F
100
AcDbEntity
  8
0
  6
Continuous
 62
     7
370
     0
100
AcDbCircle
 10
91.9981731766
 20
237.771965368
 30
0.0
 40
2.499999999999997
  0
ARC
  5
14A
330
1F
100
AcDbEntity
  8
0
  6
Continuous
 62
     7
370
     0
100
AcDbCircle
 10
91.9981731766
 20
237.771965368
 30
0.0
 40
0.5560000000000146
100
AcDbArc
 50
351.3576435978
 51
4.889953981
  0
ARC
  5
14B
330
1F
100
AcDbEntity
  8
0
  6
Continuous
 62
     7
370
     0
100
AcDbCircle
 10
91.9981731766
 20
237.771965368
 30
0.0
 40
0.5560000000000006
100
AcDbArc
 50
81.3576435978
 51
94.889953981
  0
ARC
  5
14C
330
1F
100
AcDbEntity
  8
0
  6
Continuous
 62
     7
370
     0
100
AcDbCircle
 10
91.9981731766
 20
237.771965368
 30
0.0
 40
0.5559999999999963
100
AcDbArc
 50
261.3576435978
 51
274.889953981
  0
ARC
  5
14D
330
1F
100
AcDbEntity
  8
0
  6
Continuous
 62
     7
370
     0
100
AcDbCircle
 10
91.9981731766
 20
237.771965368
 30
0.0
 40
0.5560000000000006
100
AcDbArc
 50
171.3576435978
 51
184.889953981
  0
ARC
  5
14E
330
1F
100
AcDbEntity
  8
0
  6
Continuous
 62
     7
370
     0
100
AcDbCircle
 10
91.9981731766
 20
237.771965368
 30
0.0
 40
0.5560000000000146
100
AcDbArc
 50
316.4055884077
 51
351.3576435978
  0
ARC
  5
14F
330
1F
100
AcDbEntity
  8
0
  6
Continuous
 62
     7
370
     0
100
AcDbCircle
 10
91.9981731766
 20
237.771965368
 30
0.0
 40
0.5560000000000095
100
AcDbArc
 50
46.4055884077
 51
81.3576435978
  0
ARC
  5
150
330
1F
100
AcDbEntity
  8
0
  6
Continuous
 62
     7
370
     0
100
AcDbCircle
 10
91.9981731766
 20
237.771965368
 30
0.0
 40
0.5560000000000006
100
AcDbArc
 50
136.4055884077
 51
171.3576435978
  0
ARC
  5
151
330
1F
100
AcDbEntity
  8
0
  6
Continuous
 62
     7
370
     0
100
AcDbCircle
 10
91.9981731766
 20
237.771965368
 30
0.0
 40
0.5560000000000003
100
AcDbArc
 50
94.889953981
 51
129.8420091711
  0
ARC
  5
152
330
1F
100
AcDbEntity
  8
0
  6
Continuous
 62
     7
370
     0
100
AcDbCircle
 10
91.9981731766
 20
237.771965368
 30
0.0
 40
0.5560000000000094
100
AcDbArc
 50
4.889953981
 51
39.8420091711
  0
ARC
  5
153
330
1F
100
AcDbEntity
  8
0
  6
Continuous
 62
     7
370
     0
100
AcDbCircle
 10
91.9981731766
 20
237.771965368
 30
0.0
 40
0.5559999999999967
100
AcDbArc
 50
274.889953981
 51
309.8420091711
  0
ARC
  5
154
330
1F
100
AcDbEntity
  8
0
  6
Continuous
 62
     7
370
     0
100
AcDbCircle
 10
91.9981731766
 20
237.771965368
 30
0.0
 40
0.5559999999999963
100
AcDbArc
 50
226.4055884077
 51
261.3576435978
  0
ARC
  5
155
330
1F
100
AcDbEntity
  8
0
  6
Continuous
 62
     7
370
     0
100
AcDbCircle
 10
91.9981731766
 20
237.771965368
 30
0.0
 40
0.5559999999999934
100
AcDbArc
 50
184.889953981
 51
219.8420091711
  0
ARC
  5
156
330
1F
100
AcDbEntity
  8
0
  6
Continuous
 62
     7
370
     0
100
AcDbCircle
 10
86.5613468475
 20
256.3404166687
 30
0.0
 40
1.499999999999986
100
AcDbArc
 50
102.80294865
 51
171.9090444553
  0
LINE
  5
157
330
1F
100
AcDbEntity
  8
0
  6
Continuous
 62
     7
370
     0
100
AcDbLine
 10
85.0762743596
 20
256.5515358988
 30
0.0
 11
80.7737652305
 21
226.2862493339
 31
0.0
  0
LINE
  5
158
330
1F
100
AcDbEntity
  8
0
  6
Continuous
 62
     7
370
     0
100
AcDbLine
 10
80.7737652305
 20
226.2862493339
 30
0.0
 11
80.4632846359
 21
223.3916168157
 31
0.0
  0
CIRCLE
  5
159
330
1F
100
AcDbEntity
  8
0
  6
Continuous
 62
     7
370
     0
100
AcDbCircle
 10
59.5033164514
 20
197.6014834588
 30
0.0
 40
1.999999999999984
  0
LWPOLYLINE
  5
15A
330
1F
100
AcDbEntity
  8
0
  6
Continuous
 62
     8
370
     0
100
AcDbPolyline
 90
       10
 70
   128
 43
0.0
 10
95.3061450366
 20
251.4635642115
 10
95.291996384
 20
251.3790895286
 10
95.2509138826
 20
251.1339356247
 10
95.1869431976
 20
250.7521008197
 10
95.1063279156
 20
250.2709646765
 10
95.0169656519
 20
249.737622315
 10
94.9276033882
 20
249.204272503
 10
94.8469881061
 20
248.7231363598
 10
94.7830099706
 20
248.3413015548
 10
94.7525668982
 20
248.1596191469
  0
DIMENSION
  5
15B
330
1F
100
AcDbEntity
  8
0
  6
Continuous
 62
     7
370
     0
100
AcDbDimension
  2
_D
 10
85.5033164514
 20
104.5908173277
 30
0.0
 11
75.5033164514
 21
104.5908173277
 31
0.0
 70
   160
  1
%%c<>
 71
     2
 42
-1.0
  3
SLDDIMSTYLE0
100
AcDbAlignedDimension
 13
65.5033164514
 23
122.6063558788
 33
0.0
 14
85.5033164514
 24
122.6063558788
 34
0.0
 50
0.0
100
AcDbRotatedDimension
  0
DIMENSION
  5
167
330
1F
100
AcDbEntity
  8
0
  6
Continuous
 62
     7
370
     0
100
AcDbDimension
  2
_D_1
 10
91.5033164514
 20
97.742736073
 30
0.0
 11
75.5033164514
 21
97.742736073
 31
0.0
 70
   160
  1
<>
 71
     2
 42
-1.0
  3
SLDDIMSTYLE0
100
AcDbAlignedDimension
 13
59.5033164514
 23
146.6063558788
 33
0.0
 14
91.5033164514
 24
151.6063558788
 34
0.0
 50
0.0
100
AcDbRotatedDimension
  0
DIMENSION
  5
171
330
1F
100
AcDbEntity
  8
0
  6
Continuous
 62
     7
370
     0
100
AcDbDimension
  2
_D_2
 10
54.5033164514
 20
89.6063558788
 30
0.0
 11
75.5033164514
 21
89.6063558788
 31
0.0
 70
   160
  1
<>
 71
     2
 42
-1.0
  3
SLDDIMSTYLE0
100
AcDbAlignedDimension
 13
96.5033164514
 23
146.6063558788
 33
0.0
 14
54.5033164514
 24
146.6063558788
 34
0.0
 50
0.0
100
AcDbRotatedDimension
  0
DIMENSION
  5
17B
330
1F
100
AcDbEntity
  8
0
  6
Continuous
 62
     7
370
     0
100
AcDbDimension
  2
_D_3
 10
109.2109838428
 20
151.6063558788
 30
0.0
 11
109.2109838428
 21
149.1063558788
 31
0.0
 70
   160
  1
<>
 71
     2
 42
-1.0
  3
SLDDIMSTYLE1
100
AcDbAlignedDimension
 13
96.5033164514
 23
146.6063558788
 33
0.0
 14
91.5033164514
 24
151.6063558788
 34
0.0
 50
90.0
100
AcDbRotatedDimension
  0
DIMENSION
  5
188
330
1F
100
AcDbEntity
  8
0
  6
Continuous
 62
     7
370
     0
100
AcDbDimension
  2
_D_4
 10
109.2109838428
 20
194.6063558788
 30
0.0
 11
109.2109838428
 21
173.1063558788
 31
0.0
 70
   160
  1
<>
 71
     2
 42
-1.0
  3
SLDDIMSTYLE0
100
AcDbAlignedDimension
 13
91.5033164514
 23
151.6063558788
 33
0.0
 14
75.5033164514
 24
194.6063558788
 34
0.0
 50
90.0
100
AcDbRotatedDimension
  0
DIMENSION
  5
192
330
1F
100
AcDbEntity
  8
0
  6
Continuous
 62
     7
370
     0
100
AcDbDimension
  2
_D_5
 10
117.4535578735
 20
146.6063558788
 30
0.0
 11
117.4535578735
 21
181.7021892088
 31
0.0
 70
   160
  1
<>
 71
     2
 42
-1.0
  3
SLDDIMSTYLE0
100
AcDbAlignedDimension
 13
81.5033164514
 23
216.7980225388
 33
0.0
 14
96.5033164514
 24
146.6063558788
 34
0.0
 50
90.0
100
AcDbRotatedDimension
  0
DIMENSION
  5
19C
330
1F
100
AcDbEntity
  8
0
  6
Continuous
 62
     7
370
     0
100
AcDbDimension
  2
_D_6
 10
117.4535578735
 20
121.6063558788
 30
0.0
 11
117.4535578735
 21
134.1063558788
 31
0.0
 70
   160
  1
<>
 71
     2
 42
-1.0
  3
SLDDIMSTYLE0
100
AcDbAlignedDimension
 13
96.5033164514
 23
146.6063558788
 33
0.0
 14
84.5033164514
 24
121.6063558788
 34
0.0
 50
90.0
100
AcDbRotatedDimension
  0
DIMENSION
  5
1A6
330
1F
100
AcDbEntity
  8
0
  6
Continuous
 62
     7
370
     0
100
AcDbDimension
  2
_D_7
 10
125.8693121969
 20
258.4911068078
 30
0.0
 11
125.8693121969
 21
185.0487313433
 31
0.0
 70
   160
  1
(<>)
 71
     2
 42
-1.0
  3
SLDDIMSTYLE0
100
AcDbAlignedDimension
 13
77.5033164514
 23
111.6063558788
 33
0.0
 14
86.3442207537
 24
258.4911068078
 34
0.0
 50
90.0
100
AcDbRotatedDimension
  0
DIMENSION
  5
1B2
330
1F
100
AcDbEntity
  8
0
  6
Continuous
 62
     7
370
     0
100
AcDbDimension
  2
_D_8
 10
86.3442207537
 20
266.3504928847
 30
0.0
 11
75.5033164514
 21
266.3504928847
 31
0.0
 70
   160
  1
(<>)
 71
     2
 42
-1.0
  3
SLDDIMSTYLE2
100
AcDbAlignedDimension
 13
64.662412149
 23
258.4911068078
 33
0.0
 14
86.3442207537
 24
258.4911068078
 34
0.0
 50
0.0
100
AcDbRotatedDimension
  0
DIMENSION
  5
1BF
330
1F
100
AcDbEntity
  8
0
  6
Continuous
 62
     7
370
     0
100
AcDbDimension
  2
_D_9
 10
61.0033164514
 20
149.0082796674
 30
0.0
 11
38.1737464975
 21
161.6514334524
 31
0.0
 70
   163
  1
3-<>取付穴\P(両側口元面取有)
 71
     1
 42
-1.0
  3
SLDDIMSTYLE3
100
AcDbDiametricDimension
 15
58.0033164514
 25
154.2044320901
 35
0.0
 40
0.0
  0
INSERT
  5
1D0
102
{ACAD_REACTORS
330
1D2
102
}
330
1F
100
AcDbEntity
  8
0
  6
Continuous
 62
     7
370
     0
100
AcDbBlockReference
  2
SW_NOTE_0
 10
38.4293043144
 20
121.4079905085
 30
0.0
  0
LEADER
  5
1D2
330
1F
100
AcDbEntity
  8
0
  6
Continuous
 62
     7
370
     0
100
AcDbLeader
  3
SLDDIMSTYLE4
 73
     2
 76
     2
 10
74.5306503685
 20
112.7556551197
 30
0.0
 10
38.4293043144
 20
121.4079905085
 30
0.0
340
1D0
  0
INSERT
  5
1DE
330
1F
100
AcDbEntity
  8
0
  6
Continuous
 62
     7
370
     0
100
AcDbBlockReference
  2
SW_CENTERMARKSYMBOL_0
 10
59.5033164514
 20
197.6014834588
 30
0.0
  0
INSERT
  5
1EA
330
1F
100
AcDbEntity
  8
0
  6
Continuous
 62
     7
370
     0
100
AcDbBlockReference
  2
SW_CENTERMARKSYMBOL_1
 10
75.5033164514
 20
194.6063558788
 30
0.0
  0
INSERT
  5
1F6
330
1F
100
AcDbEntity
  8
0
  6
Continuous
 62
     7
370
     0
100
AcDbBlockReference
  2
SW_CENTERMARKSYMBOL_2
 10
91.5033164514
 20
197.6014834588
 30
0.0
  0
INSERT
  5
202
330
1F
100
AcDbEntity
  8
0
  6
Continuous
 62
     7
370
     0
100
AcDbBlockReference
  2
SW_CENTERMARKSYMBOL_3
 10
91.5033164514
 20
151.6063558788
 30
0.0
  0
INSERT
  5
20E
330
1F
100
AcDbEntity
  8
0
  6
Continuous
 62
     7
370
     0
100
AcDbBlockReference
  2
SW_CENTERMARKSYMBOL_4
 10
59.5033164514
 20
151.6063558788
 30
0.0
  0
CIRCLE
  5
20F
330
1F
100
AcDbEntity
  8
0
  6
Continuous
 62
     7
370
     0
100
AcDbCircle
 10
59.5033164514
 20
151.6063558788
 30
0.0
 40
2.999999546756122
  0
CIRCLE
  5
210
330
1F
100
AcDbEntity
  8
0
  6
Continuous
 62
     7
370
     0
100
AcDbCircle
 10
91.5033164514
 20
151.6063558788
 30
0.0
 40
2.999999546755788
  0
CIRCLE
  5
211
330
1F
100
AcDbEntity
  8
0
  6
Continuous
 62
     7
370
     0
100
AcDbCircle
 10
75.5033164514
 20
194.6063558788
 30
0.0
 40
2.999999949087382
  0
LINE
  5
212
330
1F
100
AcDbEntity
  8
0
  6
CENTERX2
 62
     7
370
     0
100
AcDbLine
 10
75.5033164514
 20
108.5601492537
 30
0.0
 11
75.5033164514
 21
256.6928571429
 31
0.0
  0
LINE
  5
213
330
1F
100
AcDbEntity
  8
0
  6
Continuous
 62
     7
370
     0
100
AcDbLine
 10
109.8692882899
 20
47.8943282882
 30
0.0
 11
109.8692882899
 21
53.2943284282
 31
0.0
  0
LINE
  5
214
330
1F
100
AcDbEntity
  8
0
  6
Continuous
 62
     7
370
     0
100
AcDbLine
 10
104.9970407132
 20
50.9443283457
 30
0.0
 11
104.9596387986
 21
50.9443283457
 31
0.0
  0
LINE
  5
215
330
1F
100
AcDbEntity
  8
0
  6
Continuous
 62
     7
370
     0
100
AcDbLine
 10
104.9596387986
 20
50.2443283707
 30
0.0
 11
104.9970407132
 21
50.2443283707
 31
0.0
  0
LINE
  5
216
330
1F
100
AcDbEntity
  8
0
  6
Continuous
 62
     7
370
     0
100
AcDbLine
 10
105.4927799944
 20
51.2943283332
 30
0.0
 11
104.9970407132
 21
51.2943283332
 31
0.0
  0
LINE
  5
217
330
1F
100
AcDbEntity
  8
0
  6
Continuous
 62
     7
370
     0
100
AcDbLine
 10
104.9970407132
 20
49.8943283832
 30
0.0
 11
105.4927799944
 21
49.8943283832
 31
0.0
  0
CIRCLE
  5
218
330
1F
100
AcDbEntity
  8
0
  6
Continuous
 62
     7
370
     0
100
AcDbCircle
 10
75.5033164514
 20
50.5943283582
 30
0.0
 40
9.0
  0
CIRCLE
  5
219
330
1F
100
AcDbEntity
  8
0
  6
Continuous
 62
     7
370
     0
100
AcDbCircle
 10
75.5033164514
 20
50.5943283582
 30
0.0
 40
10.00000000000001
  0
LINE
  5
21A
330
1F
100
AcDbEntity
  8
0
  6
Continuous
 62
     7
370
     0
100
AcDbLine
 10
55.5033180956
 20
60.8443286413
 30
0.0
 11
54.503316069
 21
59.8443284774
 31
0.0
  0
LINE
  5
21B
330
1F
100
AcDbEntity
  8
0
  6
Continuous
 62
     7
370
     0
100
AcDbLine
 10
95.5033172015
 20
60.8443286413
 30
0.0
 11
55.5033180956
 21
60.8443286413
 31
0.0
  0
LINE
  5
21C
330
1F
100
AcDbEntity
  8
0
  6
Continuous
 62
     7
370
     0
100
AcDbLine
 10
96.5033192281
 20
59.8443284774
 30
0.0
 11
95.5033172015
 21
60.8443286413
 31
0.0
  0
LINE
  5
21D
330
1F
100
AcDbEntity
  8
0
  6
Continuous
 62
     7
370
     0
100
AcDbLine
 10
96.5033192281
 20
59.8443284774
 30
0.0
 11
96.5033192281
 21
41.344328239
 31
0.0
  0
LINE
  5
21E
330
1F
100
AcDbEntity
  8
0
  6
Continuous
 62
     7
370
     0
100
AcDbLine
 10
95.5033172015
 20
40.3443280751
 30
0.0
 11
96.5033192281
 21
41.344328239
 31
0.0
  0
LINE
  5
21F
330
1F
100
AcDbEntity
  8
0
  6
Continuous
 62
     7
370
     0
100
AcDbLine
 10
95.5033172015
 20
40.3443280751
 30
0.0
 11
55.5033180956
 21
40.3443280751
 31
0.0
  0
LINE
  5
220
330
1F
100
AcDbEntity
  8
0
  6
Continuous
 62
     7
370
     0
100
AcDbLine
 10
54.503316069
 20
59.8443284774
 30
0.0
 11
54.503316069
 21
41.344328239
 31
0.0
  0
LINE
  5
221
330
1F
100
AcDbEntity
  8
0
  6
Continuous
 62
     7
370
     0
100
AcDbLine
 10
54.503316069
 20
41.344328239
 30
0.0
 11
55.5033180956
 21
40.3443280751
 31
0.0
  0
LINE
  5
222
330
1F
100
AcDbEntity
  8
0
  6
Continuous
 62
     7
370
     0
100
AcDbLine
 10
99.9920088891
 20
48.0943284141
 30
0.0
 11
99.8105648998
 21
47.9098031441
 31
0.0
  0
LINE
  5
223
330
1F
100
AcDbEntity
  8
0
  6
Continuous
 62
     7
370
     0
100
AcDbLine
 10
99.9920088891
 20
48.0943284141
 30
0.0
 11
101.4669407252
 21
48.0943284141
 31
0.0
  0
LINE
  5
224
330
1F
100
AcDbEntity
  8
0
  6
Continuous
 62
     7
370
     0
100
AcDbLine
 10
101.4669407252
 20
53.0943283023
 30
0.0
 11
101.4669407252
 21
48.0943284141
 31
0.0
  0
LINE
  5
225
330
1F
100
AcDbEntity
  8
0
  6
Continuous
 62
     7
370
     0
100
AcDbLine
 10
101.4669407252
 20
53.0943283023
 30
0.0
 11
99.9920088891
 21
53.0943283023
 31
0.0
  0
LINE
  5
226
330
1F
100
AcDbEntity
  8
0
  6
Continuous
 62
     7
370
     0
100
AcDbLine
 10
99.8105648998
 20
53.2788535723
 30
0.0
 11
99.9920088891
 21
53.0943283023
 31
0.0
  0
LINE
  5
227
330
1F
100
AcDbEntity
  8
0
  6
Continuous
 62
     7
370
     0
100
AcDbLine
 10
102.1552477125
 20
45.59432847
 30
0.0
 11
102.1552477125
 21
55.5943282464
 31
0.0
  0
LINE
  5
228
330
1F
100
AcDbEntity
  8
0
  6
Continuous
 62
     7
370
     0
100
AcDbLine
 10
102.1552477125
 20
55.5943282464
 30
0.0
 11
99.8105648998
 21
55.5943282464
 31
0.0
  0
LINE
  5
229
330
1F
100
AcDbEntity
  8
0
  6
Continuous
 62
     7
370
     0
100
AcDbLine
 10
102.1552477125
 20
45.59432847
 30
0.0
 11
99.8105648998
 21
45.59432847
 31
0.0
  0
LINE
  5
22A
330
1F
100
AcDbEntity
  8
0
  6
Continuous
 62
     7
370
     0
100
AcDbLine
 10
104.9596387986
 20
55.5943282464
 30
0.0
 11
104.9596387986
 21
45.59432847
 31
0.0
  0
LINE
  5
22B
330
1F
100
AcDbEntity
  8
0
  6
Continuous
 62
     7
370
     0
100
AcDbLine
 10
102.1552477125
 20
55.5943282464
 30
0.0
 11
104.9596387986
 21
55.5943282464
 31
0.0
  0
LINE
  5
22C
330
1F
100
AcDbEntity
  8
0
  6
Continuous
 62
     7
370
     0
100
AcDbLine
 10
104.9596387986
 20
45.59432847
 30
0.0
 11
102.1552477125
 21
45.59432847
 31
0.0
  0
CIRCLE
  5
22D
330
1F
100
AcDbEntity
  8
0
  6
Continuous
 62
     7
370
     0
100
AcDbCircle
 10
75.5033164514
 20
50.5943283582
 30
0.0
 40
2.349999999999984
  0
CIRCLE
  5
22E
330
1F
100
AcDbEntity
  8
0
  6
Continuous
 62
     7
370
     0
100
AcDbCircle
 10
75.5033164514
 20
50.5943283582
 30
0.0
 40
2.000000000000048
  0
ARC
  5
22F
330
1F
100
AcDbEntity
  8
0
  6
Continuous
 62
     7
370
     0
100
AcDbCircle
 10
75.5033164514
 20
50.5943283582
 30
0.0
 40
1.499999999999725
100
AcDbArc
 50
330.0
 51
150.0
  0
ARC
  5
230
330
1F
100
AcDbEntity
  8
0
  6
Continuous
 62
     7
370
     0
100
AcDbCircle
 10
75.5033164514
 20
50.5943283582
 30
0.0
 40
1.499999999999725
100
AcDbArc
 50
150.0
 51
330.0
  0
LINE
  5
231
330
1F
100
AcDbEntity
  8
0
  6
Continuous
 62
     7
370
     0
100
AcDbLine
 10
79.5533154253
 20
50.5943283582
 30
0.0
 11
77.5283146743
 21
47.0869253999
 31
0.0
  0
LINE
  5
232
330
1F
100
AcDbEntity
  8
0
  6
Continuous
 62
     7
370
     0
100
AcDbLine
 10
77.5283146743
 20
47.0869253999
 30
0.0
 11
73.4783168975
 21
47.0869253999
 31
0.0
  0
LINE
  5
233
330
1F
100
AcDbEntity
  8
0
  6
Continuous
 62
     7
370
     0
100
AcDbLine
 10
71.4533161465
 20
50.5943283582
 30
0.0
 11
73.4783168975
 21
54.1017313166
 31
0.0
  0
LINE
  5
234
330
1F
100
AcDbEntity
  8
0
  6
Continuous
 62
     7
370
     0
100
AcDbLine
 10
73.4783168975
 20
54.1017313166
 30
0.0
 11
77.5283146743
 21
54.1017313166
 31
0.0
  0
LINE
  5
235
330
1F
100
AcDbEntity
  8
0
  6
Continuous
 62
     7
370
     0
100
AcDbLine
 10
77.5283146743
 20
54.1017313166
 30
0.0
 11
79.5533154253
 21
50.5943283582
 31
0.0
  0
LINE
  5
236
330
1F
100
AcDbEntity
  8
0
  6
Continuous
 62
     7
370
     0
100
AcDbLine
 10
73.4783168975
 20
47.0869253999
 30
0.0
 11
71.4533161465
 21
50.5943283582
 31
0.0
  0
LINE
  5
237
330
1F
100
AcDbEntity
  8
0
  6
Continuous
 62
     7
370
     0
100
AcDbLine
 10
106.4774636272
 20
53.5943283843
 30
0.0
 11
106.4774636272
 21
47.5943283321
 31
0.0
  0
LINE
  5
238
330
1F
100
AcDbEntity
  8
0
  6
Continuous
 62
     7
370
     0
100
AcDbLine
 10
104.9596387986
 20
53.5943283843
 30
0.0
 11
106.4774636272
 21
53.5943283843
 31
0.0
  0
LINE
  5
239
330
1F
100
AcDbEntity
  8
0
  6
Continuous
 62
     7
370
     0
100
AcDbLine
 10
106.9705877546
 20
54.0943284662
 30
0.0
 11
104.9596387986
 21
54.0943284662
 31
0.0
  0
LINE
  5
23A
330
1F
100
AcDbEntity
  8
0
  6
Continuous
 62
     7
370
     0
100
AcDbLine
 10
106.9705877546
 20
47.0943282502
 30
0.0
 11
106.9705877546
 21
54.0943284662
 31
0.0
  0
LINE
  5
23B
330
1F
100
AcDbEntity
  8
0
  6
Continuous
 62
     7
370
     0
100
AcDbLine
 10
106.4774636272
 20
47.5943283321
 30
0.0
 11
104.9596387986
 21
47.5943283321
 31
0.0
  0
LINE
  5
23C
330
1F
100
AcDbEntity
  8
0
  6
Continuous
 62
     7
370
     0
100
AcDbLine
 10
104.9596387986
 20
47.0943282502
 30
0.0
 11
106.9705877546
 21
47.0943282502
 31
0.0
  0
LINE
  5
23D
330
1F
100
AcDbEntity
  8
0
  6
Continuous
 62
     7
370
     0
100
AcDbLine
 10
109.862411404
 20
53.2943284282
 30
0.0
 11
109.862411404
 21
54.0943284662
 31
0.0
  0
LINE
  5
23E
330
1F
100
AcDbEntity
  8
0
  6
Continuous
 62
     7
370
     0
100
AcDbLine
 10
109.862411404
 20
47.8943282882
 30
0.0
 11
109.862411404
 21
53.2943284282
 31
0.0
  0
LINE
  5
23F
330
1F
100
AcDbEntity
  8
0
  6
Continuous
 62
     7
370
     0
100
AcDbLine
 10
109.862411404
 20
47.0943282502
 30
0.0
 11
109.862411404
 21
47.8943282882
 31
0.0
  0
LINE
  5
240
330
1F
100
AcDbEntity
  8
0
  6
Continuous
 62
     7
370
     0
100
AcDbLine
 10
106.9705877546
 20
54.0943284662
 30
0.0
 11
109.862411404
 21
54.0943284662
 31
0.0
  0
LINE
  5
241
330
1F
100
AcDbEntity
  8
0
  6
Continuous
 62
     7
370
     0
100
AcDbLine
 10
106.9705877546
 20
47.0943282502
 30
0.0
 11
109.862411404
 21
47.0943282502
 31
0.0
  0
LINE
  5
242
330
1F
100
AcDbEntity
  8
0
  6
Continuous
 62
     7
370
     0
100
AcDbLine
 10
109.862411404
 20
53.2943284282
 30
0.0
 11
109.8692882899
 21
53.2943284282
 31
0.0
  0
LINE
  5
243
330
1F
100
AcDbEntity
  8
0
  6
Continuous
 62
     7
370
     0
100
AcDbLine
 10
109.8692882899
 20
47.8943282882
 30
0.0
 11
109.862411404
 21
47.8943282882
 31
0.0
  0
LINE
  5
244
330
1F
100
AcDbEntity
  8
0
  6
Continuous
 62
     7
370
     0
100
AcDbLine
 10
105.1284018997
 20
53.2943284282
 30
0.0
 11
106.4774636272
 21
53.2943284282
 31
0.0
  0
LINE
  5
245
330
1F
100
AcDbEntity
  8
0
  6
Continuous
 62
     7
370
     0
100
AcDbLine
 10
105.1284018997
 20
47.8943282882
 30
0.0
 11
106.4774636272
 21
47.8943282882
 31
0.0
  0
LINE
  5
246
330
1F
100
AcDbEntity
  8
0
  6
Continuous
 62
     7
370
     0
100
AcDbLine
 10
76.5033159498
 20
49.4762943502
 30
0.0
 11
76.5033159498
 21
51.7123623662
 31
0.0
  0
LINE
  5
247
330
1F
100
AcDbEntity
  8
0
  6
Continuous
 62
     7
370
     0
100
AcDbLine
 10
74.503315622
 20
51.7123623662
 30
0.0
 11
74.503315622
 21
49.4762943502
 31
0.0
  0
LINE
  5
248
330
1F
100
AcDbEntity
  8
0
  6
Continuous
 62
     7
370
     0
100
AcDbLine
 10
51.014626408
 20
53.0943283023
 30
0.0
 11
51.1960685346
 21
53.2788535723
 31
0.0
  0
LINE
  5
249
330
1F
100
AcDbEntity
  8
0
  6
Continuous
 62
     7
370
     0
100
AcDbLine
 10
49.5396889839
 20
53.0943283023
 30
0.0
 11
51.014626408
 21
53.0943283023
 31
0.0
  0
LINE
  5
24A
330
1F
100
AcDbEntity
  8
0
  6
Continuous
 62
     7
370
     0
100
AcDbLine
 10
49.5396889839
 20
53.0943283023
 30
0.0
 11
49.5396889839
 21
48.0943284141
 31
0.0
  0
LINE
  5
24B
330
1F
100
AcDbEntity
  8
0
  6
Continuous
 62
     7
370
     0
100
AcDbLine
 10
51.014626408
 20
48.0943284141
 30
0.0
 11
49.5396889839
 21
48.0943284141
 31
0.0
  0
LINE
  5
24C
330
1F
100
AcDbEntity
  8
0
  6
Continuous
 62
     7
370
     0
100
AcDbLine
 10
51.1960685346
 20
47.9098031441
 30
0.0
 11
51.014626408
 21
48.0943284141
 31
0.0
  0
LINE
  5
24D
330
1F
100
AcDbEntity
  8
0
  6
Continuous
 62
     7
370
     0
100
AcDbLine
 10
48.8513857219
 20
55.5943282464
 30
0.0
 11
48.8513857219
 21
45.59432847
 31
0.0
  0
LINE
  5
24E
330
1F
100
AcDbEntity
  8
0
  6
Continuous
 62
     7
370
     0
100
AcDbLine
 10
51.1960685346
 20
55.5943282464
 30
0.0
 11
48.8513857219
 21
55.5943282464
 31
0.0
  0
LINE
  5
24F
330
1F
100
AcDbEntity
  8
0
  6
Continuous
 62
     7
370
     0
100
AcDbLine
 10
51.1960685346
 20
45.59432847
 30
0.0
 11
48.8513857219
 21
45.59432847
 31
0.0
  0
LINE
  5
250
330
1F
100
AcDbEntity
  8
0
  6
Continuous
 62
     7
370
     0
100
AcDbLine
 10
46.0469927732
 20
45.59432847
 30
0.0
 11
46.0469927732
 21
55.5943282464
 31
0.0
  0
LINE
  5
251
330
1F
100
AcDbEntity
  8
0
  6
Continuous
 62
     7
370
     0
100
AcDbLine
 10
46.0469927732
 20
55.5943282464
 30
0.0
 11
48.8513857219
 21
55.5943282464
 31
0.0
  0
LINE
  5
252
330
1F
100
AcDbEntity
  8
0
  6
Continuous
 62
     7
370
     0
100
AcDbLine
 10
48.8513857219
 20
45.59432847
 30
0.0
 11
46.0469927732
 21
45.59432847
 31
0.0
  0
LINE
  5
253
330
1F
100
AcDbEntity
  8
0
  6
Continuous
 62
     7
370
     0
100
AcDbLine
 10
99.8105648998
 20
55.5943282464
 30
0.0
 11
99.8105648998
 21
45.59432847
 31
0.0
  0
LINE
  5
254
330
1F
100
AcDbEntity
  8
0
  6
Continuous
 62
     7
370
     0
100
AcDbLine
 10
96.5033192281
 20
55.5943282464
 30
0.0
 11
99.8105648998
 21
55.5943282464
 31
0.0
  0
LINE
  5
255
330
1F
100
AcDbEntity
  8
0
  6
Continuous
 62
     7
370
     0
100
AcDbLine
 10
96.5033192281
 20
45.59432847
 30
0.0
 11
99.8105648998
 21
45.59432847
 31
0.0
  0
LINE
  5
256
330
1F
100
AcDbEntity
  8
0
  6
Continuous
 62
     7
370
     0
100
AcDbLine
 10
101.1719573382
 20
48.0943284141
 30
0.0
 11
101.1719573382
 21
53.0943283023
 31
0.0
  0
LINE
  5
257
330
1F
100
AcDbEntity
  8
0
  6
Continuous
 62
     7
370
     0
100
AcDbLine
 10
99.8105648998
 20
53.0943283023
 30
0.0
 11
101.1719573382
 21
53.0943283023
 31
0.0
  0
LINE
  5
258
330
1F
100
AcDbEntity
  8
0
  6
Continuous
 62
     7
370
     0
100
AcDbLine
 10
99.8105648998
 20
48.0943284141
 30
0.0
 11
101.1719573382
 21
48.0943284141
 31
0.0
  0
LINE
  5
259
330
1F
100
AcDbEntity
  8
0
  6
Continuous
 62
     7
370
     0
100
AcDbLine
 10
51.1960685346
 20
45.59432847
 30
0.0
 11
51.1960685346
 21
55.5943282464
 31
0.0
  0
LINE
  5
25A
330
1F
100
AcDbEntity
  8
0
  6
Continuous
 62
     7
370
     0
100
AcDbLine
 10
54.503316069
 20
55.5943282464
 30
0.0
 11
51.1960685346
 21
55.5943282464
 31
0.0
  0
LINE
  5
25B
330
1F
100
AcDbEntity
  8
0
  6
Continuous
 62
     7
370
     0
100
AcDbLine
 10
54.503316069
 20
45.59432847
 30
0.0
 11
51.1960685346
 21
45.59432847
 31
0.0
  0
LINE
  5
25C
330
1F
100
AcDbEntity
  8
0
  6
Continuous
 62
     7
370
     0
100
AcDbLine
 10
49.8346760962
 20
53.0943283023
 30
0.0
 11
49.8346760962
 21
48.0943284141
 31
0.0
  0
LINE
  5
25D
330
1F
100
AcDbEntity
  8
0
  6
Continuous
 62
     7
370
     0
100
AcDbLine
 10
51.1960685346
 20
53.0943283023
 30
0.0
 11
49.8346760962
 21
53.0943283023
 31
0.0
  0
LINE
  5
25E
330
1F
100
AcDbEntity
  8
0
  6
Continuous
 62
     7
370
     0
100
AcDbLine
 10
51.1960685346
 20
48.0943284141
 30
0.0
 11
49.8346760962
 21
48.0943284141
 31
0.0
  0
ARC
  5
25F
330
1F
100
AcDbEntity
  8
0
  6
Continuous
 62
     7
370
     0
100
AcDbCircle
 10
104.9937882439
 20
50.5943283582
 30
0.0
 40
0.3500150994180466
100
AcDbArc
 50
270.5324211587
 51
89.4675788413
  0
ARC
  5
260
330
1F
100
AcDbEntity
  8
0
  6
Continuous
 62
     7
370
     0
100
AcDbCircle
 10
105.4849819513
 20
50.5943283582
 30
0.0
 40
0.7000434090343743
100
AcDbArc
 50
270.63825213
 51
89.3617478701
  0
LINE
  5
261
330
1F
100
AcDbEntity
  8
0
  6
Continuous
 62
     7
370
     0
100
AcDbLine
 10
104.9970407132
 20
51.2943283332
 30
0.0
 11
104.9596387986
 21
51.2933005024
 31
0.0
  0
ARC
  5
262
330
1F
100
AcDbEntity
  8
0
  6
Continuous
 62
     7
370
     0
100
AcDbCircle
 10
104.9916066286
 20
50.5944875801
 30
0.0
 40
0.6998618500112033
100
AcDbArc
 50
267.3819700836
 51
89.5551218564
  0
ARC
  5
263
330
1F
100
AcDbEntity
  8
0
  6
Continuous
 62
     7
370
     0
100
AcDbCircle
 10
107.10013001
 20
48.3727364116
 30
0.0
 40
0.827332324481195
100
AcDbArc
 50
171.5486965155
 51
207.2183906907
  0
LINE
  5
264
330
1F
100
AcDbEntity
  8
0
  6
Continuous
 62
     7
370
     0
100
AcDbLine
 10
106.2817815784
 20
48.4943284331
 30
0.0
 11
106.2817815784
 21
52.6943282833
 31
0.0
  0
ARC
  5
265
330
1F
100
AcDbEntity
  8
0
  6
Continuous
 62
     7
370
     0
100
AcDbCircle
 10
107.10013001
 20
52.8159203048
 30
0.0
 40
0.827332324481195
100
AcDbArc
 50
152.7816093093
 51
188.4513034845
  0
LINE
  5
266
330
1F
100
AcDbEntity
  8
0
  6
Continuous
 62
     7
370
     0
100
AcDbLine
 10
106.3644085172
 20
47.9943283511
 30
0.0
 11
104.9596387986
 21
47.9943283511
 31
0.0
  0
LINE
  5
267
330
1F
100
AcDbEntity
  8
0
  6
Continuous
 62
     7
370
     0
100
AcDbLine
 10
104.9596387986
 20
53.1943283653
 30
0.0
 11
106.3644085172
 21
53.1943283653
 31
0.0
  0
LINE
  5
268
330
1F
100
AcDbEntity
  8
0
  6
Continuous
 62
     7
370
     0
100
AcDbLine
 10
106.4774636272
 20
47.9943283511
 30
0.0
 11
106.3644085172
 21
47.9943283511
 31
0.0
  0
LINE
  5
269
330
1F
100
AcDbEntity
  8
0
  6
Continuous
 62
     7
370
     0
100
AcDbLine
 10
106.3644085172
 20
53.1943283653
 30
0.0
 11
106.4774636272
 21
53.1943283653
 31
0.0
  0
LINE
  5
26A
330
1F
100
AcDbEntity
  8
0
  6
Continuous
 62
     7
370
     0
100
AcDbLine
 10
105.1284018997
 20
47.8943282882
 30
0.0
 11
105.1284018997
 21
47.9943283511
 31
0.0
  0
LINE
  5
26B
330
1F
100
AcDbEntity
  8
0
  6
Continuous
 62
     7
370
     0
100
AcDbLine
 10
105.1284018997
 20
47.8943282882
 30
0.0
 11
104.9596387986
 21
47.8943282882
 31
0.0
  0
LINE
  5
26C
330
1F
100
AcDbEntity
  8
0
  6
Continuous
 62
     7
370
     0
100
AcDbLine
 10
105.1284018997
 20
53.1943283653
 30
0.0
 11
105.1284018997
 21
53.2943284282
 31
0.0
  0
LINE
  5
26D
330
1F
100
AcDbEntity
  8
0
  6
Continuous
 62
     7
370
     0
100
AcDbLine
 10
105.1284018997
 20
53.2943284282
 30
0.0
 11
104.9596387986
 21
53.2943284282
 31
0.0
  0
LINE
  5
26E
330
1F
100
AcDbEntity
  8
0
  6
Continuous
 62
     7
370
     0
100
AcDbLine
 10
63.0033146683
 20
40.244328245
 30
0.0
 11
63.0033146683
 21
40.3443280751
 31
0.0
  0
LINE
  5
26F
330
1F
100
AcDbEntity
  8
0
  6
Continuous
 62
     7
370
     0
100
AcDbLine
 10
64.0033166949
 20
40.3443280751
 30
0.0
 11
64.0033166949
 21
40.244328245
 31
0.0
  0
LINE
  5
270
330
1F
100
AcDbEntity
  8
0
  6
Continuous
 62
     7
370
     0
100
AcDbLine
 10
64.0033166949
 20
40.244328245
 30
0.0
 11
63.0033146683
 21
40.244328245
 31
0.0
  0
LINE
  5
271
330
1F
100
AcDbEntity
  8
0
  6
Continuous
 62
     7
370
     0
100
AcDbLine
 10
87.0033148769
 20
40.244328245
 30
0.0
 11
87.0033148769
 21
40.3443280751
 31
0.0
  0
LINE
  5
272
330
1F
100
AcDbEntity
  8
0
  6
Continuous
 62
     7
370
     0
100
AcDbLine
 10
87.0033148769
 20
40.244328245
 30
0.0
 11
64.0033166949
 21
40.244328245
 31
0.0
  0
LINE
  5
273
330
1F
100
AcDbEntity
  8
0
  6
Continuous
 62
     7
370
     0
100
AcDbLine
 10
88.0033169035
 20
40.3443280751
 30
0.0
 11
88.0033169035
 21
40.244328245
 31
0.0
  0
LINE
  5
274
330
1F
100
AcDbEntity
  8
0
  6
Continuous
 62
     7
370
     0
100
AcDbLine
 10
88.0033169035
 20
40.244328245
 30
0.0
 11
87.0033148769
 21
40.244328245
 31
0.0
  0
LINE
  5
275
330
1F
100
AcDbEntity
  8
0
  6
Continuous
 62
     7
370
     0
100
AcDbLine
 10
70.9418822173
 20
40.2243280927
 30
0.0
 11
70.9418822173
 21
40.244328245
 31
0.0
  0
LINE
  5
276
330
1F
100
AcDbEntity
  8
0
  6
Continuous
 62
     7
370
     0
100
AcDbLine
 10
70.5916453246
 20
40.2243280927
 30
0.0
 11
70.5916453246
 21
40.244328245
 31
0.0
  0
LINE
  5
277
330
1F
100
AcDbEntity
  8
0
  6
Continuous
 62
     7
370
     0
100
AcDbLine
 10
70.5916453246
 20
40.2243280927
 30
0.0
 11
70.9418822173
 21
40.2243280927
 31
0.0
  0
LINE
  5
278
330
1F
100
AcDbEntity
  8
0
  6
Continuous
 62
     7
370
     0
100
AcDbLine
 10
73.1074307207
 20
40.2243280927
 30
0.0
 11
73.1074307207
 21
40.244328245
 31
0.0
  0
LINE
  5
279
330
1F
100
AcDbEntity
  8
0
  6
Continuous
 62
     7
370
     0
100
AcDbLine
 10
72.6634692494
 20
40.2243280927
 30
0.0
 11
72.6634692494
 21
40.244328245
 31
0.0
  0
LINE
  5
27A
330
1F
100
AcDbEntity
  8
0
  6
Continuous
 62
     7
370
     0
100
AcDbLine
 10
73.4625998977
 20
40.2243280927
 30
0.0
 11
73.4625998977
 21
40.244328245
 31
0.0
  0
LINE
  5
27B
330
1F
100
AcDbEntity
  8
0
  6
Continuous
 62
     7
370
     0
100
AcDbLine
 10
75.6528098229
 20
40.2243280927
 30
0.0
 11
75.6528098229
 21
40.244328245
 31
0.0
  0
LINE
  5
27C
330
1F
100
AcDbEntity
  8
0
  6
Continuous
 62
     7
370
     0
100
AcDbLine
 10
74.1433408204
 20
40.2243280927
 30
0.0
 11
74.1433408204
 21
40.244328245
 31
0.0
  0
LINE
  5
27D
330
1F
100
AcDbEntity
  8
0
  6
Continuous
 62
     7
370
     0
100
AcDbLine
 10
74.1433408204
 20
40.2243280927
 30
0.0
 11
75.6528098229
 21
40.2243280927
 31
0.0
  0
LINE
  5
27E
330
1F
100
AcDbEntity
  8
0
  6
Continuous
 62
     7
370
     0
100
AcDbLine
 10
76.8071133736
 20
40.2243280927
 30
0.0
 11
76.8071133736
 21
40.244328245
 31
0.0
  0
LINE
  5
27F
330
1F
100
AcDbEntity
  8
0
  6
Continuous
 62
     7
370
     0
100
AcDbLine
 10
76.2891564611
 20
40.2243280927
 30
0.0
 11
76.2891564611
 21
40.244328245
 31
0.0
  0
LINE
  5
280
330
1F
100
AcDbEntity
  8
0
  6
Continuous
 62
     7
370
     0
100
AcDbLine
 10
77.3398671392
 20
40.2243280927
 30
0.0
 11
77.3398671392
 21
40.244328245
 31
0.0
  0
LINE
  5
281
330
1F
100
AcDbEntity
  8
0
  6
Continuous
 62
     7
370
     0
100
AcDbLine
 10
79.4412847701
 20
40.2243280927
 30
0.0
 11
79.4412847701
 21
40.244328245
 31
0.0
  0
LINE
  5
282
330
1F
100
AcDbEntity
  8
0
  6
Continuous
 62
     7
370
     0
100
AcDbLine
 10
77.9318157677
 20
40.2243280927
 30
0.0
 11
79.4412847701
 21
40.2243280927
 31
0.0
  0
LINE
  5
283
330
1F
100
AcDbEntity
  8
0
  6
Continuous
 62
     7
370
     0
100
AcDbLine
 10
77.9318157677
 20
40.2243280927
 30
0.0
 11
77.9318157677
 21
40.244328245
 31
0.0
  0
LINE
  5
284
330
1F
100
AcDbEntity
  8
0
  6
Continuous
 62
     7
370
     0
100
AcDbLine
 10
80.5807877425
 20
40.2243280927
 30
0.0
 11
80.5807877425
 21
40.244328245
 31
0.0
  0
LINE
  5
285
330
1F
100
AcDbEntity
  8
0
  6
Continuous
 62
     7
370
     0
100
AcDbLine
 10
80.1220256928
 20
40.2243280927
 30
0.0
 11
80.1220256928
 21
40.244328245
 31
0.0
  0
LINE
  5
286
330
1F
100
AcDbEntity
  8
0
  6
Continuous
 62
     7
370
     0
100
AcDbLine
 10
81.0395497922
 20
40.2243280927
 30
0.0
 11
81.0395497922
 21
40.244328245
 31
0.0
  0
LINE
  5
287
330
1F
100
AcDbEntity
  8
0
  6
Continuous
 62
     7
370
     0
100
AcDbLine
 10
73.7141762022
 20
40.2243280927
 30
0.0
 11
73.7141762022
 21
40.244328245
 31
0.0
  0
LINE
  5
288
330
1F
100
AcDbEntity
  8
0
  6
Continuous
 62
     7
370
     0
100
AcDbLine
 10
72.2639020625
 20
40.2243280927
 30
0.0
 11
72.2639020625
 21
40.244328245
 31
0.0
  0
LINE
  5
289
330
1F
100
AcDbEntity
  8
0
  6
Continuous
 62
     7
370
     0
100
AcDbLine
 10
77.5618460122
 20
40.2243280927
 30
0.0
 11
77.5618460122
 21
40.244328245
 31
0.0
  0
LINE
  5
28A
330
1F
100
AcDbEntity
  8
0
  6
Continuous
 62
     7
370
     0
100
AcDbLine
 10
76.0523770098
 20
40.2243280927
 30
0.0
 11
76.0523770098
 21
40.244328245
 31
0.0
  0
LINE
  5
28B
330
1F
100
AcDbEntity
  8
0
  6
Continuous
 62
     7
370
     0
100
AcDbLine
 10
79.7668565158
 20
40.2243280927
 30
0.0
 11
79.7668565158
 21
40.244328245
 31
0.0
  0
LINE
  5
28C
330
1F
100
AcDbEntity
  8
0
  6
Continuous
 62
     7
370
     0
100
AcDbLine
 10
81.3947189692
 20
40.2243280927
 30
0.0
 11
81.3947189692
 21
40.244328245
 31
0.0
  0
LINE
  5
28D
330
1F
100
AcDbEntity
  8
0
  6
Continuous
 62
     7
370
     0
100
AcDbLine
 10
70.2808741573
 20
40.2243280927
 30
0.0
 11
70.2808741573
 21
40.244328245
 31
0.0
  0
LINE
  5
28E
330
1F
100
AcDbEntity
  8
0
  6
Continuous
 62
     7
370
     0
100
AcDbLine
 10
70.2808741573
 20
40.2243280927
 30
0.0
 11
70.5916453246
 21
40.2243280927
 31
0.0
  0
LINE
  5
28F
330
1F
100
AcDbEntity
  8
0
  6
Continuous
 62
     7
370
     0
100
AcDbLine
 10
71.9235334638
 20
40.2243280927
 30
0.0
 11
71.9235334638
 21
40.244328245
 31
0.0
  0
LINE
  5
290
330
1F
100
AcDbEntity
  8
0
  6
Continuous
 62
     7
370
     0
100
AcDbLine
 10
70.9418822173
 20
40.2243280927
 30
0.0
 11
71.9235334638
 21
40.2243280927
 31
0.0
  0
LINE
  5
291
330
1F
100
AcDbEntity
  8
0
  6
Continuous
 62
     7
370
     0
100
AcDbLine
 10
73.7437736336
 20
40.2243280927
 30
0.0
 11
73.7437736336
 21
40.244328245
 31
0.0
  0
LINE
  5
292
330
1F
100
AcDbEntity
  8
0
  6
Continuous
 62
     7
370
     0
100
AcDbLine
 10
65.9799855295
 20
40.2243280927
 30
0.0
 11
65.9799855295
 21
40.244328245
 31
0.0
  0
LINE
  5
293
330
1F
100
AcDbEntity
  8
0
  6
Continuous
 62
     7
370
     0
100
AcDbLine
 10
65.7399166468
 20
40.2243280927
 30
0.0
 11
65.7399166468
 21
40.244328245
 31
0.0
  0
LINE
  5
294
330
1F
100
AcDbEntity
  8
0
  6
Continuous
 62
     7
370
     0
100
AcDbLine
 10
65.7399166468
 20
40.2243280927
 30
0.0
 11
65.9799855295
 21
40.2243280927
 31
0.0
  0
LINE
  5
295
330
1F
100
AcDbEntity
  8
0
  6
Continuous
 62
     7
370
     0
100
AcDbLine
 10
67.2690104786
 20
40.2243280927
 30
0.0
 11
67.2690104786
 21
40.244328245
 31
0.0
  0
LINE
  5
296
330
1F
100
AcDbEntity
  8
0
  6
Continuous
 62
     7
370
     0
100
AcDbLine
 10
66.934121782
 20
40.2243280927
 30
0.0
 11
66.934121782
 21
40.244328245
 31
0.0
  0
LINE
  5
297
330
1F
100
AcDbEntity
  8
0
  6
Continuous
 62
     7
370
     0
100
AcDbLine
 10
67.6033515576
 20
40.2243280927
 30
0.0
 11
67.6033515576
 21
40.244328245
 31
0.0
  0
LINE
  5
298
330
1F
100
AcDbEntity
  8
0
  6
Continuous
 62
     7
370
     0
100
AcDbLine
 10
77.6684600953
 20
40.2243280927
 30
0.0
 11
77.6684600953
 21
40.244328245
 31
0.0
  0
LINE
  5
299
330
1F
100
AcDbEntity
  8
0
  6
Continuous
 62
     7
370
     0
100
AcDbLine
 10
77.6425954047
 20
40.2243280927
 30
0.0
 11
77.6684600953
 21
40.2243280927
 31
0.0
  0
LINE
  5
29A
330
1F
100
AcDbEntity
  8
0
  6
Continuous
 62
     7
370
     0
100
AcDbLine
 10
77.9014024977
 20
40.2243280927
 30
0.0
 11
77.9014024977
 21
40.244328245
 31
0.0
  0
LINE
  5
29B
330
1F
100
AcDbEntity
  8
0
  6
Continuous
 62
     7
370
     0
100
AcDbLine
 10
77.6684600953
 20
40.2243280927
 30
0.0
 11
77.9014024977
 21
40.2243280927
 31
0.0
  0
LINE
  5
29C
330
1F
100
AcDbEntity
  8
0
  6
Continuous
 62
     7
370
     0
100
AcDbLine
 10
81.7180518154
 20
40.2243280927
 30
0.0
 11
81.7180518154
 21
40.244328245
 31
0.0
  0
LINE
  5
29D
330
1F
100
AcDbEntity
  8
0
  6
Continuous
 62
     7
370
     0
100
AcDbLine
 10
81.2516156677
 20
40.2243280927
 30
0.0
 11
81.7180518154
 21
40.2243280927
 31
0.0
  0
LINE
  5
29E
330
1F
100
AcDbEntity
  8
0
  6
Continuous
 62
     7
370
     0
100
AcDbLine
 10
82.1203570906
 20
40.2243280927
 30
0.0
 11
82.1203570906
 21
40.244328245
 31
0.0
  0
LINE
  5
29F
330
1F
100
AcDbEntity
  8
0
  6
Continuous
 62
     7
370
     0
100
AcDbLine
 10
81.8802882079
 20
40.2243280927
 30
0.0
 11
81.8802882079
 21
40.244328245
 31
0.0
  0
LINE
  5
2A0
330
1F
100
AcDbEntity
  8
0
  6
Continuous
 62
     7
370
     0
100
AcDbLine
 10
81.8802882079
 20
40.2243280927
 30
0.0
 11
82.1203570906
 21
40.2243280927
 31
0.0
  0
LINE
  5
2A1
330
1F
100
AcDbEntity
  8
0
  6
Continuous
 62
     7
370
     0
100
AcDbLine
 10
82.7368591074
 20
40.2243280927
 30
0.0
 11
82.7368591074
 21
40.244328245
 31
0.0
  0
LINE
  5
2A2
330
1F
100
AcDbEntity
  8
0
  6
Continuous
 62
     7
370
     0
100
AcDbLine
 10
82.49679395
 20
40.2243280927
 30
0.0
 11
82.49679395
 21
40.244328245
 31
0.0
  0
LINE
  5
2A3
330
1F
100
AcDbEntity
  8
0
  6
Continuous
 62
     7
370
     0
100
AcDbLine
 10
82.49679395
 20
40.2243280927
 30
0.0
 11
82.7368591074
 21
40.2243280927
 31
0.0
  0
LINE
  5
2A4
330
1F
100
AcDbEntity
  8
0
  6
Continuous
 62
     7
370
     0
100
AcDbLine
 10
83.5480485205
 20
40.2243280927
 30
0.0
 11
83.5480485205
 21
40.244328245
 31
0.0
  0
LINE
  5
2A5
330
1F
100
AcDbEntity
  8
0
  6
Continuous
 62
     7
370
     0
100
AcDbLine
 10
83.307983363
 20
40.2243280927
 30
0.0
 11
83.307983363
 21
40.244328245
 31
0.0
  0
LINE
  5
2A6
330
1F
100
AcDbEntity
  8
0
  6
Continuous
 62
     7
370
     0
100
AcDbLine
 10
83.307983363
 20
40.2243280927
 30
0.0
 11
83.5480485205
 21
40.2243280927
 31
0.0
  0
LINE
  5
2A7
330
1F
100
AcDbEntity
  8
0
  6
Continuous
 62
     7
370
     0
100
AcDbLine
 10
84.4013337139
 20
40.2243280927
 30
0.0
 11
84.4013337139
 21
40.244328245
 31
0.0
  0
LINE
  5
2A8
330
1F
100
AcDbEntity
  8
0
  6
Continuous
 62
     7
370
     0
100
AcDbLine
 10
84.0664450172
 20
40.2243280927
 30
0.0
 11
84.0664450172
 21
40.244328245
 31
0.0
  0
LINE
  5
2A9
330
1F
100
AcDbEntity
  8
0
  6
Continuous
 62
     7
370
     0
100
AcDbLine
 10
84.7356785182
 20
40.2243280927
 30
0.0
 11
84.7356785182
 21
40.244328245
 31
0.0
  0
LINE
  5
2AA
330
1F
100
AcDbEntity
  8
0
  6
Continuous
 62
     7
370
     0
100
AcDbLine
 10
70.1748225931
 20
40.2243280927
 30
0.0
 11
70.1748225931
 21
40.244328245
 31
0.0
  0
LINE
  5
2AB
330
1F
100
AcDbEntity
  8
0
  6
Continuous
 62
     7
370
     0
100
AcDbLine
 10
69.8607619945
 20
40.2243280927
 30
0.0
 11
69.8607619945
 21
40.244328245
 31
0.0
  0
LINE
  5
2AC
330
1F
100
AcDbEntity
  8
0
  6
Continuous
 62
     7
370
     0
100
AcDbLine
 10
72.1199233178
 20
40.2243280927
 30
0.0
 11
72.1199233178
 21
40.244328245
 31
0.0
  0
LINE
  5
2AD
330
1F
100
AcDbEntity
  8
0
  6
Continuous
 62
     7
370
     0
100
AcDbLine
 10
71.9235334638
 20
40.2243280927
 30
0.0
 11
72.1199233178
 21
40.2243280927
 31
0.0
  0
LINE
  5
2AE
330
1F
100
AcDbEntity
  8
0
  6
Continuous
 62
     7
370
     0
100
AcDbLine
 10
75.8960116748
 20
40.2243280927
 30
0.0
 11
75.8960116748
 21
40.244328245
 31
0.0
  0
LINE
  5
2AF
330
1F
100
AcDbEntity
  8
0
  6
Continuous
 62
     7
370
     0
100
AcDbLine
 10
75.8960116748
 20
40.2243280927
 30
0.0
 11
75.9716313425
 21
40.2243280927
 31
0.0
  0
LINE
  5
2B0
330
1F
100
AcDbEntity
  8
0
  6
Continuous
 62
     7
370
     0
100
AcDbLine
 10
66.7417366151
 20
40.2243280927
 30
0.0
 11
66.7417366151
 21
40.244328245
 31
0.0
  0
LINE
  5
2B1
330
1F
100
AcDbEntity
  8
0
  6
Continuous
 62
     7
370
     0
100
AcDbLine
 10
67.857122058
 20
40.2243280927
 30
0.0
 11
67.857122058
 21
40.244328245
 31
0.0
  0
LINE
  5
2B2
330
1F
100
AcDbEntity
  8
0
  6
Continuous
 62
     7
370
     0
100
AcDbLine
 10
69.6174036804
 20
40.2243280927
 30
0.0
 11
69.6174036804
 21
40.244328245
 31
0.0
  0
LINE
  5
2B3
330
1F
100
AcDbEntity
  8
0
  6
Continuous
 62
     7
370
     0
100
AcDbLine
 10
83.8740635756
 20
40.2243280927
 30
0.0
 11
83.8740635756
 21
40.244328245
 31
0.0
  0
LINE
  5
2B4
330
1F
100
AcDbEntity
  8
0
  6
Continuous
 62
     7
370
     0
100
AcDbLine
 10
84.9894452933
 20
40.2243280927
 30
0.0
 11
84.9894452933
 21
40.244328245
 31
0.0
  0
LINE
  5
2B5
330
1F
100
AcDbEntity
  8
0
  6
Continuous
 62
     7
370
     0
100
AcDbLine
 10
81.7180518154
 20
40.2243280927
 30
0.0
 11
81.8802882079
 21
40.2243280927
 31
0.0
  0
LINE
  5
2B6
330
1F
100
AcDbEntity
  8
0
  6
Continuous
 62
     7
370
     0
100
AcDbLine
 10
69.3253744487
 20
40.2243280927
 30
0.0
 11
69.3253744487
 21
40.244328245
 31
0.0
  0
LINE
  5
2B7
330
1F
100
AcDbEntity
  8
0
  6
Continuous
 62
     7
370
     0
100
AcDbLine
 10
68.1694317702
 20
40.2243280927
 30
0.0
 11
69.3253744487
 21
40.2243280927
 31
0.0
  0
LINE
  5
2B8
330
1F
100
AcDbEntity
  8
0
  6
Continuous
 62
     7
370
     0
100
AcDbLine
 10
68.1694317702
 20
40.2243280927
 30
0.0
 11
68.1694317702
 21
40.244328245
 31
0.0
  0
LINE
  5
2B9
330
1F
100
AcDbEntity
  8
0
  6
Continuous
 62
     7
370
     0
100
AcDbLine
 10
72.4525097851
 20
40.2243280927
 30
0.0
 11
72.523524994
 21
40.2243280927
 31
0.0
  0
LINE
  5
2BA
330
1F
100
AcDbEntity
  8
0
  6
Continuous
 62
     7
370
     0
100
AcDbLine
 10
73.539765561
 20
40.2243280927
 30
0.0
 11
73.6084561888
 21
40.2243280927
 31
0.0
  0
LINE
  5
2BB
330
1F
100
AcDbEntity
  8
0
  6
Continuous
 62
     7
370
     0
100
AcDbLine
 10
79.5909781102
 20
40.2243280927
 30
0.0
 11
79.6861108486
 21
40.2243280927
 31
0.0
  0
LINE
  5
2BC
330
1F
100
AcDbEntity
  8
0
  6
Continuous
 62
     7
370
     0
100
AcDbLine
 10
79.5909781102
 20
40.2243280927
 30
0.0
 11
79.5909781102
 21
40.244328245
 31
0.0
  0
LINE
  5
2BD
330
1F
100
AcDbEntity
  8
0
  6
Continuous
 62
     7
370
     0
100
AcDbLine
 10
74.1032827739
 20
40.2243280927
 30
0.0
 11
74.1032827739
 21
40.244328245
 31
0.0
  0
LINE
  5
2BE
330
1F
100
AcDbEntity
  8
0
  6
Continuous
 62
     7
370
     0
100
AcDbLine
 10
74.1032827739
 20
40.2243280927
 30
0.0
 11
74.1069894377
 21
40.2243280927
 31
0.0
  0
LINE
  5
2BF
330
1F
100
AcDbEntity
  8
0
  6
Continuous
 62
     7
370
     0
100
AcDbLine
 10
82.7368591074
 20
40.2243280927
 30
0.0
 11
83.307983363
 21
40.2243280927
 31
0.0
  0
LINE
  5
2C0
330
1F
100
AcDbEntity
  8
0
  6
Continuous
 62
     7
370
     0
100
AcDbLine
 10
66.2770550791
 20
40.2243280927
 30
0.0
 11
66.2770550791
 21
40.244328245
 31
0.0
  0
LINE
  5
2C1
330
1F
100
AcDbEntity
  8
0
  6
Continuous
 62
     7
370
     0
100
AcDbLine
 10
65.9799855295
 20
40.2243280927
 30
0.0
 11
66.2770550791
 21
40.2243280927
 31
0.0
  0
LINE
  5
2C2
330
1F
100
AcDbEntity
  8
0
  6
Continuous
 62
     7
370
     0
100
AcDbLine
 10
73.9004854206
 20
40.2243280927
 30
0.0
 11
73.9004854206
 21
40.244328245
 31
0.0
  0
LINE
  5
2C3
330
1F
100
AcDbEntity
  8
0
  6
Continuous
 62
     7
370
     0
100
AcDbLine
 10
73.9004854206
 20
40.2243280927
 30
0.0
 11
74.1032827739
 21
40.2243280927
 31
0.0
  0
LINE
  5
2C4
330
1F
100
AcDbEntity
  8
0
  6
Continuous
 62
     7
370
     0
100
AcDbLine
 10
79.4547516946
 20
40.2243280927
 30
0.0
 11
79.4547516946
 21
40.244328245
 31
0.0
  0
LINE
  5
2C5
330
1F
100
AcDbEntity
  8
0
  6
Continuous
 62
     7
370
     0
100
AcDbLine
 10
79.5909781102
 20
40.2243280927
 30
0.0
 11
79.4547516946
 21
40.2243280927
 31
0.0
  0
LINE
  5
2C6
330
1F
100
AcDbEntity
  8
0
  6
Continuous
 62
     7
370
     0
100
AcDbLine
 10
79.4547516946
 20
40.2243280927
 30
0.0
 11
79.4412847701
 21
40.2243280927
 31
0.0
  0
LINE
  5
2C7
330
1F
100
AcDbEntity
  8
0
  6
Continuous
 62
     7
370
     0
100
AcDbLine
 10
77.9318157677
 20
40.2243280927
 30
0.0
 11
77.9014024977
 21
40.2243280927
 31
0.0
  0
LINE
  5
2C8
330
1F
100
AcDbEntity
  8
0
  6
Continuous
 62
     7
370
     0
100
AcDbLine
 10
73.8649685029
 20
40.2243280927
 30
0.0
 11
73.8649685029
 21
40.244328245
 31
0.0
  0
LINE
  5
2C9
330
1F
100
AcDbEntity
  8
0
  6
Continuous
 62
     7
370
     0
100
AcDbLine
 10
73.9004854206
 20
40.2243280927
 30
0.0
 11
73.8649685029
 21
40.2243280927
 31
0.0
  0
LINE
  5
2CA
330
1F
100
AcDbEntity
  8
0
  6
Continuous
 62
     7
370
     0
100
AcDbLine
 10
72.2118672077
 20
40.2243280927
 30
0.0
 11
72.2118672077
 21
40.244328245
 31
0.0
  0
LINE
  5
2CB
330
1F
100
AcDbEntity
  8
0
  6
Continuous
 62
     7
370
     0
100
AcDbLine
 10
72.2118672077
 20
40.2243280927
 30
0.0
 11
72.1199233178
 21
40.2243280927
 31
0.0
  0
LINE
  5
2CC
330
1F
100
AcDbEntity
  8
0
  6
Continuous
 62
     7
370
     0
100
AcDbLine
 10
73.7865362409
 20
40.2243280927
 30
0.0
 11
73.7865362409
 21
40.244328245
 31
0.0
  0
LINE
  5
2CD
330
1F
100
AcDbEntity
  8
0
  6
Continuous
 62
     7
370
     0
100
AcDbLine
 10
73.8649685029
 20
40.2243280927
 30
0.0
 11
73.7865362409
 21
40.2243280927
 31
0.0
  0
LINE
  5
2CE
330
1F
100
AcDbEntity
  8
0
  6
Continuous
 62
     7
370
     0
100
AcDbLine
 10
82.1395274345
 20
40.2243280927
 30
0.0
 11
82.1395274345
 21
40.244328245
 31
0.0
  0
LINE
  5
2CF
330
1F
100
AcDbEntity
  8
0
  6
Continuous
 62
     7
370
     0
100
AcDbLine
 10
82.1395274345
 20
40.2243280927
 30
0.0
 11
82.1203570906
 21
40.2243280927
 31
0.0
  0
LINE
  5
2D0
330
1F
100
AcDbEntity
  8
0
  6
Continuous
 62
     7
370
     0
100
AcDbLine
 10
82.1554157976
 20
40.2243280927
 30
0.0
 11
82.1554157976
 21
40.244328245
 31
0.0
  0
LINE
  5
2D1
330
1F
100
AcDbEntity
  8
0
  6
Continuous
 62
     7
370
     0
100
AcDbLine
 10
82.1554157976
 20
40.2243280927
 30
0.0
 11
82.1395274345
 21
40.2243280927
 31
0.0
  0
LINE
  5
2D2
330
1F
100
AcDbEntity
  8
0
  6
Continuous
 62
     7
370
     0
100
AcDbLine
 10
69.6110036317
 20
40.2243280927
 30
0.0
 11
69.6110036317
 21
40.244328245
 31
0.0
  0
LINE
  5
2D3
330
1F
100
AcDbEntity
  8
0
  6
Continuous
 62
     7
370
     0
100
AcDbLine
 10
69.5969518367
 20
40.2243280927
 30
0.0
 11
69.5969518367
 21
40.244328245
 31
0.0
  0
LINE
  5
2D4
330
1F
100
AcDbEntity
  8
0
  6
Continuous
 62
     8
370
     0
100
AcDbLine
 10
106.2817815784
 20
48.4943284331
 30
0.0
 11
106.4774636272
 21
48.4943284331
 31
0.0
  0
LWPOLYLINE
  5
2D5
330
1F
100
AcDbEntity
  8
0
  6
Continuous
 62
     8
370
     0
100
AcDbPolyline
 90
        3
 70
   128
 43
0.0
 10
106.3644085172
 20
47.9943283511
 10
106.4606104139
 20
48.003935642
 10
106.4774636272
 20
48.0076467296
  0
LINE
  5
2D6
330
1F
100
AcDbEntity
  8
0
  6
Continuous
 62
     8
370
     0
100
AcDbLine
 10
106.4774636272
 20
52.6943282833
 30
0.0
 11
106.2817815784
 21
52.6943282833
 31
0.0
  0
LWPOLYLINE
  5
2D7
330
1F
100
AcDbEntity
  8
0
  6
Continuous
 62
     8
370
     0
100
AcDbPolyline
 90
        3
 70
   128
 43
0.0
 10
106.4774636272
 20
53.1810099868
 10
106.4606104139
 20
53.1847210744
 10
106.3644085172
 20
53.1943283653
  0
LINE
  5
2D8
330
1F
100
AcDbEntity
  8
0
  6
Continuous
 62
     8
370
     0
100
AcDbLine
 10
104.9596387986
 20
48.4943284331
 30
0.0
 11
106.2817815784
 21
48.4943284331
 31
0.0
  0
LINE
  5
2D9
330
1F
100
AcDbEntity
  8
0
  6
Continuous
 62
     8
370
     0
100
AcDbLine
 10
106.2817815784
 20
52.6943282833
 30
0.0
 11
104.9596387986
 21
52.6943282833
 31
0.0
  0
DIMENSION
  5
2DA
330
1F
100
AcDbEntity
  8
0
  6
Continuous
 62
     7
370
     0
100
AcDbDimension
  2
_D_10
 10
46.0469925696
 20
20.643178036
 30
0.0
 11
77.9547029347
 21
20.643178036
 31
0.0
 70
   160
  1
(<>)
 71
     2
 42
-1.0
  3
SLDDIMSTYLE2
100
AcDbAlignedDimension
 13
109.8624132998
 23
47.0943283582
 33
0.0
 14
46.0469925696
 24
45.5943283582
 34
0.0
 50
0.0
100
AcDbRotatedDimension
  0
DIMENSION
  5
2E6
330
1F
100
AcDbEntity
  8
0
  6
Continuous
 62
     7
370
     0
100
AcDbDimension
  2
_D_11
 10
75.5033164514
 20
30.2243283582
 30
0.0
 11
60.7751545105
 21
30.2243283582
 31
0.0
 70
   160
  1
(<>)
 71
     2
 42
-1.0
  3
SLDDIMSTYLE0
100
AcDbAlignedDimension
 13
46.0469925696
 23
45.5943283582
 33
0.0
 14
75.5033164514
 24
39.0943283582
 34
0.0
 50
0.0
100
AcDbRotatedDimension
  0
INSERT
  5
2FD
330
1F
100
AcDbEntity
  8
0
  6
Continuous
 62
     7
370
     0
100
AcDbBlockReference
  2
SW_CENTERMARKSYMBOL_5
 10
75.5033164514
 20
50.5943283582
 30
0.0
  0
LINE
  5
2FE
330
1F
100
AcDbEntity
  8
0
  6
Continuous
 62
     7
370
     0
100
AcDbLine
 10
161.0489211218
 20
122.6063557956
 30
0.0
 11
162.0489212857
 21
121.6063556317
 31
0.0
  0
LINE
  5
2FF
330
1F
100
AcDbEntity
  8
0
  6
Continuous
 62
     7
370
     0
100
AcDbLine
 10
180.0489205109
 20
121.6063556317
 30
0.0
 11
181.0489206748
 21
122.6063557956
 31
0.0
  0
LINE
  5
300
330
1F
100
AcDbEntity
  8
0
  6
Continuous
 62
     7
370
     0
100
AcDbLine
 10
161.0489211218
 20
146.6063560042
 30
0.0
 11
161.0489211218
 21
122.6063557956
 31
0.0
  0
LINE
  5
301
330
1F
100
AcDbEntity
  8
0
  6
Continuous
 62
     7
370
     0
100
AcDbLine
 10
181.0489206748
 20
122.6063557956
 30
0.0
 11
181.0489206748
 21
146.6063560042
 31
0.0
  0
LINE
  5
302
330
1F
100
AcDbEntity
  8
0
  6
Continuous
 62
     7
370
     0
100
AcDbLine
 10
168.6989209322
 20
114.1063553337
 30
0.0
 11
169.0489208033
 21
111.6063558552
 31
0.0
  0
LINE
  5
303
330
1F
100
AcDbEntity
  8
0
  6
Continuous
 62
     7
370
     0
100
AcDbLine
 10
173.0489209933
 20
111.6063558552
 30
0.0
 11
173.3989208644
 21
114.1063553337
 31
0.0
  0
LINE
  5
304
330
1F
100
AcDbEntity
  8
0
  6
Continuous
 62
     7
370
     0
100
AcDbLine
 10
168.6989209322
 20
116.6063566748
 30
0.0
 11
169.0489208033
 21
114.1063553337
 31
0.0
  0
LINE
  5
305
330
1F
100
AcDbEntity
  8
0
  6
Continuous
 62
     7
370
     0
100
AcDbLine
 10
173.0489209933
 20
114.1063553337
 30
0.0
 11
173.3989208644
 21
116.6063566748
 31
0.0
  0
LINE
  5
306
330
1F
100
AcDbEntity
  8
0
  6
Continuous
 62
     7
370
     0
100
AcDbLine
 10
173.1489208234
 20
116.6063566748
 30
0.0
 11
173.1489208234
 21
119.1063561532
 31
0.0
  0
LINE
  5
307
330
1F
100
AcDbEntity
  8
0
  6
Continuous
 62
     7
370
     0
100
AcDbLine
 10
168.9489209732
 20
119.1063561532
 30
0.0
 11
168.9489209732
 21
116.6063566748
 31
0.0
  0
LINE
  5
308
330
1F
100
AcDbEntity
  8
0
  6
Continuous
 62
     7
370
     0
100
AcDbLine
 10
173.0489209933
 20
253.9484296981
 30
0.0
 11
172.9489209303
 21
253.9484296981
 31
0.0
  0
LINE
  5
309
330
1F
100
AcDbEntity
  8
0
  6
Continuous
 62
     7
370
     0
100
AcDbLine
 10
169.1489208663
 20
253.9484296981
 30
0.0
 11
169.0489208033
 21
253.9484296981
 31
0.0
  0
LINE
  5
30A
330
1F
100
AcDbEntity
  8
0
  6
Continuous
 62
     7
370
     0
100
AcDbLine
 10
167.5489207903
 20
207.8892608229
 30
0.0
 11
167.5489207903
 21
207.4159626904
 31
0.0
  0
LINE
  5
30B
330
1F
100
AcDbEntity
  8
0
  6
Continuous
 62
     7
370
     0
100
AcDbLine
 10
174.5489210063
 20
207.4159626904
 30
0.0
 11
174.5489210063
 21
207.8892608229
 31
0.0
  0
LINE
  5
30C
330
1F
100
AcDbEntity
  8
0
  6
Continuous
 62
     7
370
     0
100
AcDbLine
 10
167.5489207903
 20
193.1398865822
 30
0.0
 11
167.5489207903
 21
192.6665884498
 31
0.0
  0
LINE
  5
30D
330
1F
100
AcDbEntity
  8
0
  6
Continuous
 62
     7
370
     0
100
AcDbLine
 10
174.5489210063
 20
192.6665884498
 30
0.0
 11
174.5489210063
 21
193.1398865822
 31
0.0
  0
LINE
  5
30E
330
1F
100
AcDbEntity
  8
0
  6
Continuous
 62
     7
370
     0
100
AcDbLine
 10
170.3489209233
 20
232.728483254
 30
0.0
 11
170.3489209233
 21
231.8424229566
 31
0.0
  0
LINE
  5
30F
330
1F
100
AcDbEntity
  8
0
  6
Continuous
 62
     7
370
     0
100
AcDbLine
 10
171.7489208733
 20
231.8424229566
 30
0.0
 11
171.7489208733
 21
232.728483254
 31
0.0
  0
LINE
  5
310
330
1F
100
AcDbEntity
  8
0
  6
Continuous
 62
     7
370
     0
100
AcDbLine
 10
170.6989209108
 20
231.7422499004
 30
0.0
 11
170.6989209108
 21
226.9111593309
 31
0.0
  0
LINE
  5
311
330
1F
100
AcDbEntity
  8
0
  6
Continuous
 62
     7
370
     0
100
AcDbLine
 10
171.3989208858
 20
226.9111593309
 30
0.0
 11
171.3989208858
 21
231.7422499004
 31
0.0
  0
LINE
  5
312
330
1F
100
AcDbEntity
  8
0
  6
Continuous
 62
     7
370
     0
100
AcDbLine
 10
174.5489210063
 20
247.2789232674
 30
0.0
 11
174.9489207925
 21
247.2789232674
 31
0.0
  0
LINE
  5
313
330
1F
100
AcDbEntity
  8
0
  6
Continuous
 62
     7
370
     0
100
AcDbLine
 10
174.9489207925
 20
250.2789293471
 30
0.0
 11
174.5489210063
 21
250.2789293471
 31
0.0
  0
LINE
  5
314
330
1F
100
AcDbEntity
  8
0
  6
Continuous
 62
     7
370
     0
100
AcDbLine
 10
174.0489209244
 20
250.2789293471
 30
0.0
 11
173.7489209683
 21
250.2789293471
 31
0.0
  0
LINE
  5
315
330
1F
100
AcDbEntity
  8
0
  6
Continuous
 62
     7
370
     0
100
AcDbLine
 10
174.9489207925
 20
247.2789232674
 30
0.0
 11
175.2489207485
 21
247.5789283458
 31
0.0
  0
LINE
  5
316
330
1F
100
AcDbEntity
  8
0
  6
Continuous
 62
     7
370
     0
100
AcDbLine
 10
175.2489207485
 20
249.9789242688
 30
0.0
 11
174.9489207925
 21
250.2789293471
 31
0.0
  0
LINE
  5
317
330
1F
100
AcDbEntity
  8
0
  6
Continuous
 62
     7
370
     0
100
AcDbLine
 10
168.3489208283
 20
250.2789293471
 30
0.0
 11
168.0489208722
 21
250.2789293471
 31
0.0
  0
LINE
  5
318
330
1F
100
AcDbEntity
  8
0
  6
Continuous
 62
     7
370
     0
100
AcDbLine
 10
167.5489207903
 20
250.2789293471
 30
0.0
 11
167.1489210041
 21
250.2789293471
 31
0.0
  0
LINE
  5
319
330
1F
100
AcDbEntity
  8
0
  6
Continuous
 62
     7
370
     0
100
AcDbLine
 10
167.1489210041
 20
247.2789232674
 30
0.0
 11
167.5489207903
 21
247.2789232674
 31
0.0
  0
LINE
  5
31A
330
1F
100
AcDbEntity
  8
0
  6
Continuous
 62
     7
370
     0
100
AcDbLine
 10
167.1489210041
 20
250.2789293471
 30
0.0
 11
166.848921048
 21
249.9789242688
 31
0.0
  0
LINE
  5
31B
330
1F
100
AcDbEntity
  8
0
  6
Continuous
 62
     7
370
     0
100
AcDbLine
 10
166.848921048
 20
247.5789283458
 30
0.0
 11
167.1489210041
 21
247.2789232674
 31
0.0
  0
ARC
  5
31C
330
1F
100
AcDbEntity
  8
0
  6
Continuous
 62
     7
370
     0
100
AcDbCircle
 10
166.443925058
 20
235.511965368
 30
0.0
 40
0.2400000000000091
100
AcDbArc
 50
216.9461268967
 51
270.0
  0
ARC
  5
31D
330
1F
100
AcDbEntity
  8
0
  6
Continuous
 62
     7
370
     0
100
AcDbCircle
 10
166.443925058
 20
240.031965368
 30
0.0
 40
0.2399999999999869
100
AcDbArc
 50
90.0
 51
143.0538731033
  0
LINE
  5
31E
330
1F
100
AcDbEntity
  8
0
  6
Continuous
 62
     7
370
     0
100
AcDbLine
 10
166.4439251819
 20
235.2719624582
 30
0.0
 11
167.5489207903
 21
235.2719624582
 31
0.0
  0
LINE
  5
31F
330
1F
100
AcDbEntity
  8
0
  6
Continuous
 62
     7
370
     0
100
AcDbLine
 10
167.5489207903
 20
240.2719651404
 30
0.0
 11
166.4439251819
 21
240.2719651404
 31
0.0
  0
ARC
  5
320
330
1F
100
AcDbEntity
  8
0
  6
Continuous
 62
     7
370
     0
100
AcDbCircle
 10
169.4489208983
 20
237.771965368
 30
0.0
 40
3.999999999999984
100
AcDbArc
 50
197.5716446908
 51
216.9461268967
  0
ARC
  5
321
330
1F
100
AcDbEntity
  8
0
  6
Continuous
 62
     7
370
     0
100
AcDbCircle
 10
169.4489208983
 20
237.771965368
 30
0.0
 40
4.000000000000002
100
AcDbArc
 50
143.0538731033
 51
162.4283553092
  0
ARC
  5
322
330
1F
100
AcDbEntity
  8
0
  6
Continuous
 62
     7
370
     0
100
AcDbCircle
 10
175.6539167386
 20
240.031965368
 30
0.0
 40
0.2400000000000096
100
AcDbArc
 50
36.9461268967
 51
90.0
  0
ARC
  5
323
330
1F
100
AcDbEntity
  8
0
  6
Continuous
 62
     7
370
     0
100
AcDbCircle
 10
175.6539167386
 20
235.511965368
 30
0.0
 40
0.2400000000000096
100
AcDbArc
 50
270.0
 51
323.0538731033
  0
LINE
  5
324
330
1F
100
AcDbEntity
  8
0
  6
Continuous
 62
     7
370
     0
100
AcDbLine
 10
175.6539166147
 20
240.2719651404
 30
0.0
 11
174.5489210063
 21
240.2719651404
 31
0.0
  0
LINE
  5
325
330
1F
100
AcDbEntity
  8
0
  6
Continuous
 62
     7
370
     0
100
AcDbLine
 10
174.5489210063
 20
235.2719624582
 30
0.0
 11
175.6539166147
 21
235.2719624582
 31
0.0
  0
ARC
  5
326
330
1F
100
AcDbEntity
  8
0
  6
Continuous
 62
     7
370
     0
100
AcDbCircle
 10
172.6489208983
 20
237.771965368
 30
0.0
 40
4.000000000000019
100
AcDbArc
 50
15.9613587262
 51
36.9461268967
  0
ARC
  5
327
330
1F
100
AcDbEntity
  8
0
  6
Continuous
 62
     7
370
     0
100
AcDbCircle
 10
172.6489208983
 20
237.771965368
 30
0.0
 40
4.000000000000015
100
AcDbArc
 50
323.0538731033
 51
344.0386412738
  0
LINE
  5
328
330
1F
100
AcDbEntity
  8
0
  6
Continuous
 62
     7
370
     0
100
AcDbLine
 10
172.9489209303
 20
257.8404192868
 30
0.0
 11
169.1489208663
 21
257.8404192868
 31
0.0
  0
LINE
  5
329
330
1F
100
AcDbEntity
  8
0
  6
Continuous
 62
     7
370
     0
100
AcDbLine
 10
180.2989210175
 20
146.6063560042
 30
0.0
 11
180.2989210175
 21
209.5980216804
 31
0.0
  0
LINE
  5
32A
330
1F
100
AcDbEntity
  8
0
  6
Continuous
 62
     7
370
     0
100
AcDbLine
 10
180.2989210175
 20
209.5980216804
 30
0.0
 11
181.2989211814
 21
210.598023707
 31
0.0
  0
LINE
  5
32B
330
1F
100
AcDbEntity
  8
0
  6
Continuous
 62
     7
370
     0
100
AcDbLine
 10
181.2989211814
 20
210.598023707
 30
0.0
 11
181.2989211814
 21
146.6063560042
 31
0.0
  0
LINE
  5
32C
330
1F
100
AcDbEntity
  8
0
  6
Continuous
 62
     7
370
     0
100
AcDbLine
 10
181.2989211814
 20
146.6063560042
 30
0.0
 11
180.2989210175
 21
146.6063560042
 31
0.0
  0
ARC
  5
32D
330
1F
100
AcDbEntity
  8
0
  6
Continuous
 62
     7
370
     0
100
AcDbCircle
 10
171.0489208983
 20
177.5014834588
 30
0.0
 40
8.000000000000028
100
AcDbArc
 50
128.6821874535
 51
180.0
  0
LINE
  5
32E
330
1F
100
AcDbEntity
  8
0
  6
Continuous
 62
     7
370
     0
100
AcDbLine
 10
163.0489205183
 20
177.5014829877
 30
0.0
 11
163.0489205183
 21
164.90148204
 31
0.0
  0
ARC
  5
32F
330
1F
100
AcDbEntity
  8
0
  6
Continuous
 62
     7
370
     0
100
AcDbCircle
 10
171.0489208983
 20
164.9014834588
 30
0.0
 40
8.000000000000028
100
AcDbArc
 50
180.0
 51
0.0
  0
LINE
  5
330
330
1F
100
AcDbEntity
  8
0
  6
Continuous
 62
     7
370
     0
100
AcDbLine
 10
179.0489212783
 20
164.90148204
 30
0.0
 11
179.0489212783
 21
177.5014829877
 31
0.0
  0
ARC
  5
331
330
1F
100
AcDbEntity
  8
0
  6
Continuous
 62
     7
370
     0
100
AcDbCircle
 10
171.0489208983
 20
177.5014834588
 30
0.0
 40
8.000000000000016
100
AcDbArc
 50
0.0
 51
51.3178125465
  0
ARC
  5
332
330
1F
100
AcDbEntity
  8
0
  6
Continuous
 62
     7
370
     0
100
AcDbCircle
 10
171.0489208983
 20
209.0980225388
 30
0.0
 40
5.500000000000015
100
AcDbArc
 50
335.3800226713
 51
5.2159085705
  0
LINE
  5
333
330
1F
100
AcDbEntity
  8
0
  6
Continuous
 62
     7
370
     0
100
AcDbLine
 10
180.2989210175
 20
209.5980216804
 30
0.0
 11
176.5261463063
 21
209.5980216804
 31
0.0
  0
LINE
  5
334
330
1F
100
AcDbEntity
  8
0
  6
Continuous
 62
     7
370
     0
100
AcDbLine
 10
161.7989207791
 20
209.5980216804
 30
0.0
 11
161.7989207791
 21
146.6063560042
 31
0.0
  0
LINE
  5
335
330
1F
100
AcDbEntity
  8
0
  6
Continuous
 62
     7
370
     0
100
AcDbLine
 10
165.5716954903
 20
209.5980216804
 30
0.0
 11
161.7989207791
 21
209.5980216804
 31
0.0
  0
ARC
  5
336
330
1F
100
AcDbEntity
  8
0
  6
Continuous
 62
     7
370
     0
100
AcDbCircle
 10
171.0489208983
 20
209.0980225388
 30
0.0
 40
5.500000000000015
100
AcDbArc
 50
174.7840914295
 51
204.6199773287
  0
LINE
  5
337
330
1F
100
AcDbEntity
  8
0
  6
Continuous
 62
     7
370
     0
100
AcDbLine
 10
161.7989207791
 20
146.6063560042
 30
0.0
 11
180.2989210175
 21
146.6063560042
 31
0.0
  0
LINE
  5
338
330
1F
100
AcDbEntity
  8
0
  6
Continuous
 62
     7
370
     0
100
AcDbLine
 10
160.7989206152
 20
146.6063560042
 30
0.0
 11
160.7989206152
 21
210.598023707
 31
0.0
  0
LINE
  5
339
330
1F
100
AcDbEntity
  8
0
  6
Continuous
 62
     7
370
     0
100
AcDbLine
 10
160.7989206152
 20
210.598023707
 30
0.0
 11
161.7989207791
 21
209.5980216804
 31
0.0
  0
LINE
  5
33A
330
1F
100
AcDbEntity
  8
0
  6
Continuous
 62
     7
370
     0
100
AcDbLine
 10
161.7989207791
 20
146.6063560042
 30
0.0
 11
160.7989206152
 21
146.6063560042
 31
0.0
  0
LINE
  5
33B
330
1F
100
AcDbEntity
  8
0
  6
Continuous
 62
     7
370
     0
100
AcDbLine
 10
179.4989205138
 20
215.5980189386
 30
0.0
 11
176.0489207865
 21
215.5980189386
 31
0.0
  0
LINE
  5
33C
330
1F
100
AcDbEntity
  8
0
  6
Continuous
 62
     7
370
     0
100
AcDbLine
 10
181.2989211814
 20
213.7980257216
 30
0.0
 11
179.4989205138
 21
215.5980189386
 31
0.0
  0
LINE
  5
33D
330
1F
100
AcDbEntity
  8
0
  6
Continuous
 62
     7
370
     0
100
AcDbLine
 10
181.2989211814
 20
213.7980257216
 30
0.0
 11
181.2989211814
 21
210.598023707
 31
0.0
  0
ARC
  5
33E
330
1F
100
AcDbEntity
  8
0
  6
Continuous
 62
     7
370
     0
100
AcDbCircle
 10
171.0489208983
 20
209.0980225388
 30
0.0
 40
5.500000000000015
100
AcDbArc
 50
5.2159085705
 51
24.6199773287
  0
LINE
  5
33F
330
1F
100
AcDbEntity
  8
0
  6
Continuous
 62
     7
370
     0
100
AcDbLine
 10
160.7989206152
 20
213.7980257216
 30
0.0
 11
160.7989206152
 21
210.598023707
 31
0.0
  0
LINE
  5
340
330
1F
100
AcDbEntity
  8
0
  6
Continuous
 62
     7
370
     0
100
AcDbLine
 10
162.5989212827
 20
215.5980189386
 30
0.0
 11
160.7989206152
 21
213.7980257216
 31
0.0
  0
LINE
  5
341
330
1F
100
AcDbEntity
  8
0
  6
Continuous
 62
     7
370
     0
100
AcDbLine
 10
166.0489210101
 20
215.5980189386
 30
0.0
 11
162.5989212827
 21
215.5980189386
 31
0.0
  0
ARC
  5
342
330
1F
100
AcDbEntity
  8
0
  6
Continuous
 62
     7
370
     0
100
AcDbCircle
 10
171.0489208983
 20
209.0980225388
 30
0.0
 40
5.500000000000015
100
AcDbArc
 50
155.3800226713
 51
174.7840914295
  0
LINE
  5
343
330
1F
100
AcDbEntity
  8
0
  6
Continuous
 62
     7
370
     0
100
AcDbLine
 10
180.0489205109
 20
121.6063556317
 30
0.0
 11
162.0489212857
 21
121.6063556317
 31
0.0
  0
LINE
  5
344
330
1F
100
AcDbEntity
  8
0
  6
Continuous
 62
     7
370
     0
100
AcDbLine
 10
161.0489211218
 20
122.6063557956
 30
0.0
 11
181.0489206748
 21
122.6063557956
 31
0.0
  0
LINE
  5
345
330
1F
100
AcDbEntity
  8
0
  6
Continuous
 62
     7
370
     0
100
AcDbLine
 10
163.7989211069
 20
216.7980243507
 30
0.0
 11
166.0489210101
 21
216.7980243507
 31
0.0
  0
LINE
  5
346
330
1F
100
AcDbEntity
  8
0
  6
Continuous
 62
     7
370
     0
100
AcDbLine
 10
176.0489207865
 20
216.7980243507
 30
0.0
 11
178.2989206897
 21
216.7980243507
 31
0.0
  0
LINE
  5
347
330
1F
100
AcDbEntity
  8
0
  6
Continuous
 62
     7
370
     0
100
AcDbLine
 10
163.7989211069
 20
216.7980243507
 30
0.0
 11
162.5989212827
 21
215.5980189386
 31
0.0
  0
LINE
  5
348
330
1F
100
AcDbEntity
  8
0
  6
Continuous
 62
     7
370
     0
100
AcDbLine
 10
179.4989205138
 20
215.5980189386
 30
0.0
 11
178.2989206897
 21
216.7980243507
 31
0.0
  0
LINE
  5
349
330
1F
100
AcDbEntity
  8
0
  6
Continuous
 62
     7
370
     0
100
AcDbLine
 10
166.0489210101
 20
188.7878869716
 30
0.0
 11
176.0489207865
 21
188.7878869716
 31
0.0
  0
LINE
  5
34A
330
1F
100
AcDbEntity
  8
0
  6
Continuous
 62
     7
370
     0
100
AcDbLine
 10
176.0489207865
 20
184.7092379871
 30
0.0
 11
166.0489210101
 21
184.7092379871
 31
0.0
  0
LINE
  5
34B
330
1F
100
AcDbEntity
  8
0
  6
Continuous
 62
     7
370
     0
100
AcDbLine
 10
166.0489210101
 20
184.7092379871
 30
0.0
 11
166.0489210101
 21
188.7878869716
 31
0.0
  0
LINE
  5
34C
330
1F
100
AcDbEntity
  8
0
  6
Continuous
 62
     7
370
     0
100
AcDbLine
 10
176.0489207865
 20
188.7878869716
 30
0.0
 11
176.0489207865
 21
184.7092379871
 31
0.0
  0
CIRCLE
  5
34D
330
1F
100
AcDbEntity
  8
0
  6
Continuous
 62
     7
370
     0
100
AcDbCircle
 10
171.0576058199
 20
193.1660769867
 30
0.0
 40
3.979798818478473
  0
CIRCLE
  5
34E
330
1F
100
AcDbEntity
  8
0
  6
Continuous
 62
     7
370
     0
100
AcDbCircle
 10
171.0576058164
 20
207.9154549172
 30
0.0
 40
3.979798853845693
  0
LINE
  5
34F
330
1F
100
AcDbEntity
  8
0
  6
Continuous
 62
     7
370
     0
100
AcDbLine
 10
176.0489207865
 20
214.8348857704
 30
0.0
 11
166.0489210101
 21
214.8348857704
 31
0.0
  0
LINE
  5
350
330
1F
100
AcDbEntity
  8
0
  6
Continuous
 62
     7
370
     0
100
AcDbLine
 10
166.0489210101
 20
214.8348857704
 30
0.0
 11
166.0489210101
 21
188.7878869716
 31
0.0
  0
LINE
  5
351
330
1F
100
AcDbEntity
  8
0
  6
Continuous
 62
     7
370
     0
100
AcDbLine
 10
176.0489207865
 20
214.8348857704
 30
0.0
 11
176.0489207865
 21
188.7878869716
 31
0.0
  0
ARC
  5
352
330
1F
100
AcDbEntity
  8
0
  6
Continuous
 62
     7
370
     0
100
AcDbCircle
 10
171.0162595643
 20
192.6301147874
 30
0.0
 40
3.969773247775692
100
AcDbArc
 50
89.5285933001
 51
175.528011214
  0
ARC
  5
353
330
1F
100
AcDbEntity
  8
0
  6
Continuous
 62
     7
370
     0
100
AcDbCircle
 10
171.0815822323
 20
192.6301147874
 30
0.0
 40
3.969773247775658
100
AcDbArc
 50
4.471988786
 51
90.4714066999
  0
LINE
  5
354
330
1F
100
AcDbEntity
  8
0
  6
Continuous
 62
     7
370
     0
100
AcDbLine
 10
173.8489207985
 20
184.2541453484
 30
0.0
 11
176.0489207865
 21
184.2541453484
 31
0.0
  0
LINE
  5
355
330
1F
100
AcDbEntity
  8
0
  6
Continuous
 62
     7
370
     0
100
AcDbLine
 10
173.5489208424
 20
184.3087581042
 30
0.0
 11
173.8489207985
 21
184.2541453484
 31
0.0
  0
LINE
  5
356
330
1F
100
AcDbEntity
  8
0
  6
Continuous
 62
     7
370
     0
100
AcDbLine
 10
173.5489208424
 20
184.3087581042
 30
0.0
 11
173.5489208424
 21
184.5818107072
 31
0.0
  0
LINE
  5
357
330
1F
100
AcDbEntity
  8
0
  6
Continuous
 62
     7
370
     0
100
AcDbLine
 10
168.5489209542
 20
184.5818107072
 30
0.0
 11
173.5489208424
 21
184.5818107072
 31
0.0
  0
LINE
  5
358
330
1F
100
AcDbEntity
  8
0
  6
Continuous
 62
     7
370
     0
100
AcDbLine
 10
168.5489209542
 20
184.5818107072
 30
0.0
 11
168.5489209542
 21
184.3087581042
 31
0.0
  0
LINE
  5
359
330
1F
100
AcDbEntity
  8
0
  6
Continuous
 62
     7
370
     0
100
AcDbLine
 10
168.2489209981
 20
184.2541453484
 30
0.0
 11
168.5489209542
 21
184.3087581042
 31
0.0
  0
LINE
  5
35A
330
1F
100
AcDbEntity
  8
0
  6
Continuous
 62
     7
370
     0
100
AcDbLine
 10
166.0489210101
 20
184.2541453484
 30
0.0
 11
168.2489209981
 21
184.2541453484
 31
0.0
  0
LINE
  5
35B
330
1F
100
AcDbEntity
  8
0
  6
Continuous
 62
     7
370
     0
100
AcDbLine
 10
166.0489210101
 20
184.7092379871
 30
0.0
 11
166.0489210101
 21
184.2541453484
 31
0.0
  0
LINE
  5
35C
330
1F
100
AcDbEntity
  8
0
  6
Continuous
 62
     7
370
     0
100
AcDbLine
 10
176.0489207865
 20
184.7092379871
 30
0.0
 11
176.0489207865
 21
184.2541453484
 31
0.0
  0
ARC
  5
35D
330
1F
100
AcDbEntity
  8
0
  6
Continuous
 62
     7
370
     0
100
AcDbCircle
 10
171.0162609915
 20
207.3794915123
 30
0.0
 40
3.969774476972824
100
AcDbArc
 50
89.5286140463
 51
175.528048567
  0
ARC
  5
35E
330
1F
100
AcDbEntity
  8
0
  6
Continuous
 62
     7
370
     0
100
AcDbCircle
 10
171.0815808051
 20
207.3794915123
 30
0.0
 40
3.969774476972796
100
AcDbArc
 50
4.471951433
 51
90.4713859537
  0
LINE
  5
35F
330
1F
100
AcDbEntity
  8
0
  6
Continuous
 62
     7
370
     0
100
AcDbLine
 10
166.0489210101
 20
220.385925943
 30
0.0
 11
176.0489207865
 21
220.385925943
 31
0.0
  0
LINE
  5
360
330
1F
100
AcDbEntity
  8
0
  6
Continuous
 62
     7
370
     0
100
AcDbLine
 10
166.0489210101
 20
214.8348857704
 30
0.0
 11
166.0489210101
 21
220.385925943
 31
0.0
  0
LINE
  5
361
330
1F
100
AcDbEntity
  8
0
  6
Continuous
 62
     7
370
     0
100
AcDbLine
 10
176.0489207865
 20
220.385925943
 30
0.0
 11
176.0489207865
 21
214.8348857704
 31
0.0
  0
LINE
  5
362
330
1F
100
AcDbEntity
  8
0
  6
Continuous
 62
     7
370
     0
100
AcDbLine
 10
176.0489207865
 20
221.4443554226
 30
0.0
 11
166.0489210101
 21
221.4443554226
 31
0.0
  0
LINE
  5
363
330
1F
100
AcDbEntity
  8
0
  6
Continuous
 62
     7
370
     0
100
AcDbLine
 10
166.0489210101
 20
221.4443554226
 30
0.0
 11
166.0489210101
 21
220.385925943
 31
0.0
  0
LINE
  5
364
330
1F
100
AcDbEntity
  8
0
  6
Continuous
 62
     7
370
     0
100
AcDbLine
 10
176.0489207865
 20
221.4443554226
 30
0.0
 11
176.0489207865
 21
220.385925943
 31
0.0
  0
LINE
  5
365
330
1F
100
AcDbEntity
  8
0
  6
Continuous
 62
     7
370
     0
100
AcDbLine
 10
166.0489210101
 20
221.4443554226
 30
0.0
 11
166.0489210101
 21
230.4682304207
 31
0.0
  0
LINE
  5
366
330
1F
100
AcDbEntity
  8
0
  6
Continuous
 62
     7
370
     0
100
AcDbLine
 10
176.0489207865
 20
230.4682304207
 30
0.0
 11
176.0489207865
 21
221.4443554226
 31
0.0
  0
LINE
  5
367
330
1F
100
AcDbEntity
  8
0
  6
Continuous
 62
     7
370
     0
100
AcDbLine
 10
176.0489207865
 20
254.9487520996
 30
0.0
 11
173.0489209933
 21
254.9487520996
 31
0.0
  0
LINE
  5
368
330
1F
100
AcDbEntity
  8
0
  6
Continuous
 62
     7
370
     0
100
AcDbLine
 10
175.2489207485
 20
248.2422386351
 30
0.0
 11
176.0489207865
 21
248.2422386351
 31
0.0
  0
LINE
  5
369
330
1F
100
AcDbEntity
  8
0
  6
Continuous
 62
     7
370
     0
100
AcDbLine
 10
173.0489209933
 20
254.9487520996
 30
0.0
 11
173.0489209933
 21
252.7283822242
 31
0.0
  0
LINE
  5
36A
330
1F
100
AcDbEntity
  8
0
  6
Continuous
 62
     7
370
     0
100
AcDbLine
 10
176.0489207865
 20
248.2422386351
 30
0.0
 11
176.0489207865
 21
254.9487520996
 31
0.0
  0
LINE
  5
36B
330
1F
100
AcDbEntity
  8
0
  6
Continuous
 62
     7
370
     0
100
AcDbLine
 10
169.0489208033
 20
254.9487520996
 30
0.0
 11
166.0489210101
 21
254.9487520996
 31
0.0
  0
LINE
  5
36C
330
1F
100
AcDbEntity
  8
0
  6
Continuous
 62
     7
370
     0
100
AcDbLine
 10
166.0489210101
 20
248.2422386351
 30
0.0
 11
166.848921048
 21
248.2422386351
 31
0.0
  0
LINE
  5
36D
330
1F
100
AcDbEntity
  8
0
  6
Continuous
 62
     7
370
     0
100
AcDbLine
 10
169.0489208033
 20
252.7283822242
 30
0.0
 11
169.0489208033
 21
254.9487520996
 31
0.0
  0
LINE
  5
36E
330
1F
100
AcDbEntity
  8
0
  6
Continuous
 62
     7
370
     0
100
AcDbLine
 10
166.0489210101
 20
248.2422386351
 30
0.0
 11
166.0489210101
 21
254.9487520996
 31
0.0
  0
LINE
  5
36F
330
1F
100
AcDbEntity
  8
0
  6
Continuous
 62
     7
370
     0
100
AcDbLine
 10
173.0489209933
 20
257.2517563644
 30
0.0
 11
176.0489207865
 21
257.2517563644
 31
0.0
  0
LINE
  5
370
330
1F
100
AcDbEntity
  8
0
  6
Continuous
 62
     7
370
     0
100
AcDbLine
 10
173.0489209933
 20
254.9487520996
 30
0.0
 11
173.0489209933
 21
257.2517563644
 31
0.0
  0
LINE
  5
371
330
1F
100
AcDbEntity
  8
0
  6
Continuous
 62
     7
370
     0
100
AcDbLine
 10
176.0489207865
 20
257.2517563644
 30
0.0
 11
176.0489207865
 21
254.9487520996
 31
0.0
  0
LINE
  5
372
330
1F
100
AcDbEntity
  8
0
  6
Continuous
 62
     7
370
     0
100
AcDbLine
 10
166.0489210101
 20
257.2517563644
 30
0.0
 11
169.0489208033
 21
257.2517563644
 31
0.0
  0
LINE
  5
373
330
1F
100
AcDbEntity
  8
0
  6
Continuous
 62
     7
370
     0
100
AcDbLine
 10
169.0489208033
 20
257.2517563644
 30
0.0
 11
169.0489208033
 21
254.9487520996
 31
0.0
  0
LINE
  5
374
330
1F
100
AcDbEntity
  8
0
  6
Continuous
 62
     7
370
     0
100
AcDbLine
 10
166.0489210101
 20
254.9487520996
 30
0.0
 11
166.0489210101
 21
257.2517563644
 31
0.0
  0
LINE
  5
375
330
1F
100
AcDbEntity
  8
0
  6
Continuous
 62
     7
370
     0
100
AcDbLine
 10
173.0489209933
 20
258.4911082927
 30
0.0
 11
176.0489207865
 21
258.4911082927
 31
0.0
  0
LINE
  5
376
330
1F
100
AcDbEntity
  8
0
  6
Continuous
 62
     7
370
     0
100
AcDbLine
 10
173.0489209933
 20
258.4911082927
 30
0.0
 11
173.0489209933
 21
257.2517563644
 31
0.0
  0
LINE
  5
377
330
1F
100
AcDbEntity
  8
0
  6
Continuous
 62
     7
370
     0
100
AcDbLine
 10
176.0489207865
 20
257.2517563644
 30
0.0
 11
176.0489207865
 21
258.4911082927
 31
0.0
  0
LINE
  5
378
330
1F
100
AcDbEntity
  8
0
  6
Continuous
 62
     7
370
     0
100
AcDbLine
 10
166.0489210101
 20
258.4911082927
 30
0.0
 11
169.0489208033
 21
258.4911082927
 31
0.0
  0
LINE
  5
379
330
1F
100
AcDbEntity
  8
0
  6
Continuous
 62
     7
370
     0
100
AcDbLine
 10
169.0489208033
 20
258.4911082927
 30
0.0
 11
169.0489208033
 21
257.2517563644
 31
0.0
  0
LINE
  5
37A
330
1F
100
AcDbEntity
  8
0
  6
Continuous
 62
     7
370
     0
100
AcDbLine
 10
166.0489210101
 20
257.2517563644
 30
0.0
 11
166.0489210101
 21
258.4911082927
 31
0.0
  0
LINE
  5
37B
330
1F
100
AcDbEntity
  8
0
  6
Continuous
 62
     7
370
     0
100
AcDbLine
 10
167.5489207903
 20
234.9758391324
 30
0.0
 11
166.0489210101
 21
234.9758391324
 31
0.0
  0
LINE
  5
37C
330
1F
100
AcDbEntity
  8
0
  6
Continuous
 62
     7
370
     0
100
AcDbLine
 10
176.0489207865
 20
234.9758391324
 30
0.0
 11
174.5489210063
 21
234.9758391324
 31
0.0
  0
LINE
  5
37D
330
1F
100
AcDbEntity
  8
0
  6
Continuous
 62
     7
370
     0
100
AcDbLine
 10
166.0489210101
 20
230.4682304207
 30
0.0
 11
166.0489210101
 21
234.9758391324
 31
0.0
  0
LINE
  5
37E
330
1F
100
AcDbEntity
  8
0
  6
Continuous
 62
     7
370
     0
100
AcDbLine
 10
176.0489207865
 20
230.4682304207
 30
0.0
 11
176.0489207865
 21
234.9758391324
 31
0.0
  0
LINE
  5
37F
330
1F
100
AcDbEntity
  8
0
  6
Continuous
 62
     7
370
     0
100
AcDbLine
 10
176.0489207865
 20
234.9758391324
 30
0.0
 11
176.0489207865
 21
235.6648315731
 31
0.0
  0
LINE
  5
380
330
1F
100
AcDbEntity
  8
0
  6
Continuous
 62
     7
370
     0
100
AcDbLine
 10
166.0489210101
 20
235.6648315731
 30
0.0
 11
166.0489210101
 21
234.9758391324
 31
0.0
  0
LINE
  5
381
330
1F
100
AcDbEntity
  8
0
  6
Continuous
 62
     7
370
     0
100
AcDbLine
 10
176.0489207865
 20
247.261220688
 30
0.0
 11
176.0489207865
 21
248.2422386351
 31
0.0
  0
LINE
  5
382
330
1F
100
AcDbEntity
  8
0
  6
Continuous
 62
     7
370
     0
100
AcDbLine
 10
166.0489210101
 20
248.2422386351
 30
0.0
 11
166.0489210101
 21
247.261220688
 31
0.0
  0
LINE
  5
383
330
1F
100
AcDbEntity
  8
0
  6
Continuous
 62
     7
370
     0
100
AcDbLine
 10
176.0489207865
 20
239.8790960256
 30
0.0
 11
176.0489207865
 21
247.261220688
 31
0.0
  0
LINE
  5
384
330
1F
100
AcDbEntity
  8
0
  6
Continuous
 62
     7
370
     0
100
AcDbLine
 10
166.0489210101
 20
247.261220688
 30
0.0
 11
166.0489210101
 21
239.8790960256
 31
0.0
  0
LINE
  5
385
330
1F
100
AcDbEntity
  8
0
  6
Continuous
 62
     7
370
     0
100
AcDbLine
 10
174.5563238566
 20
121.6063556317
 30
0.0
 11
174.5563238566
 21
119.1063561532
 31
0.0
  0
LINE
  5
386
330
1F
100
AcDbEntity
  8
0
  6
Continuous
 62
     7
370
     0
100
AcDbLine
 10
171.0489208983
 20
119.1063561532
 30
0.0
 11
174.5563238566
 21
119.1063561532
 31
0.0
  0
LINE
  5
387
330
1F
100
AcDbEntity
  8
0
  6
Continuous
 62
     7
370
     0
100
AcDbLine
 10
171.0489208983
 20
119.1063561532
 30
0.0
 11
171.0489208983
 21
121.6063556317
 31
0.0
  0
LINE
  5
388
330
1F
100
AcDbEntity
  8
0
  6
Continuous
 62
     7
370
     0
100
AcDbLine
 10
167.5415179399
 20
119.1063561532
 30
0.0
 11
171.0489208983
 21
119.1063561532
 31
0.0
  0
LINE
  5
389
330
1F
100
AcDbEntity
  8
0
  6
Continuous
 62
     7
370
     0
100
AcDbLine
 10
167.5415179399
 20
119.1063561532
 30
0.0
 11
167.5415179399
 21
121.6063556317
 31
0.0
  0
LINE
  5
38A
330
1F
100
AcDbEntity
  8
0
  6
Continuous
 62
     7
370
     0
100
AcDbLine
 10
169.0137612806
 20
114.1063553337
 30
0.0
 11
168.6989209322
 21
114.1063553337
 31
0.0
  0
LINE
  5
38B
330
1F
100
AcDbEntity
  8
0
  6
Continuous
 62
     7
370
     0
100
AcDbLine
 10
173.3989208644
 20
114.1063553337
 30
0.0
 11
169.0137612806
 21
114.1063553337
 31
0.0
  0
LINE
  5
38C
330
1F
100
AcDbEntity
  8
0
  6
Continuous
 62
     7
370
     0
100
AcDbLine
 10
169.3168701078
 20
111.6063558552
 30
0.0
 11
169.0489208033
 21
111.6063558552
 31
0.0
  0
LINE
  5
38D
330
1F
100
AcDbEntity
  8
0
  6
Continuous
 62
     7
370
     0
100
AcDbLine
 10
173.0489209933
 20
111.6063558552
 30
0.0
 11
169.3168701078
 21
111.6063558552
 31
0.0
  0
LINE
  5
38E
330
1F
100
AcDbEntity
  8
0
  6
Continuous
 62
     7
370
     0
100
AcDbLine
 10
172.2239208813
 20
116.6063566748
 30
0.0
 11
168.6989209322
 21
116.6063566748
 31
0.0
  0
LINE
  5
38F
330
1F
100
AcDbEntity
  8
0
  6
Continuous
 62
     7
370
     0
100
AcDbLine
 10
173.3989208644
 20
116.6063566748
 30
0.0
 11
172.2239208813
 21
116.6063566748
 31
0.0
  0
LINE
  5
390
330
1F
100
AcDbEntity
  8
0
  6
Continuous
 62
     7
370
     0
100
AcDbLine
 10
173.7489209683
 20
249.9878947678
 30
0.0
 11
168.3489208283
 21
249.9878947678
 31
0.0
  0
LINE
  5
391
330
1F
100
AcDbEntity
  8
0
  6
Continuous
 62
     7
370
     0
100
AcDbLine
 10
168.3489208283
 20
249.9878947678
 30
0.0
 11
168.3489208283
 21
250.5636458341
 31
0.0
  0
LINE
  5
392
330
1F
100
AcDbEntity
  8
0
  6
Continuous
 62
     7
370
     0
100
AcDbLine
 10
168.3489208283
 20
250.5636458341
 30
0.0
 11
173.7489209683
 21
250.5636458341
 31
0.0
  0
LINE
  5
393
330
1F
100
AcDbEntity
  8
0
  6
Continuous
 62
     7
370
     0
100
AcDbLine
 10
173.7489209683
 20
250.5636458341
 30
0.0
 11
173.7489209683
 21
249.9878947678
 31
0.0
  0
LINE
  5
394
330
1F
100
AcDbEntity
  8
0
  6
Continuous
 62
     7
370
     0
100
AcDbLine
 10
174.5489210063
 20
232.728483254
 30
0.0
 11
174.5489210063
 21
249.9878947678
 31
0.0
  0
LINE
  5
395
330
1F
100
AcDbEntity
  8
0
  6
Continuous
 62
     7
370
     0
100
AcDbLine
 10
174.5489210063
 20
232.728483254
 30
0.0
 11
167.5489207903
 21
232.728483254
 31
0.0
  0
LINE
  5
396
330
1F
100
AcDbEntity
  8
0
  6
Continuous
 62
     7
370
     0
100
AcDbLine
 10
167.5489207903
 20
232.728483254
 30
0.0
 11
167.5489207903
 21
249.9878947678
 31
0.0
  0
LINE
  5
397
330
1F
100
AcDbEntity
  8
0
  6
Continuous
 62
     7
370
     0
100
AcDbLine
 10
168.3489208283
 20
249.9878947678
 30
0.0
 11
167.5489207903
 21
249.9878947678
 31
0.0
  0
LINE
  5
398
330
1F
100
AcDbEntity
  8
0
  6
Continuous
 62
     7
370
     0
100
AcDbLine
 10
174.5489210063
 20
249.9878947678
 30
0.0
 11
173.7489209683
 21
249.9878947678
 31
0.0
  0
LINE
  5
399
330
1F
100
AcDbEntity
  8
0
  6
Continuous
 62
     7
370
     0
100
AcDbLine
 10
174.5489210063
 20
252.2352506462
 30
0.0
 11
174.5489210063
 21
249.9878947678
 31
0.0
  0
LINE
  5
39A
330
1F
100
AcDbEntity
  8
0
  6
Continuous
 62
     7
370
     0
100
AcDbLine
 10
173.7489209683
 20
250.0705217067
 30
0.0
 11
174.0489209244
 21
250.0705217067
 31
0.0
  0
LINE
  5
39B
330
1F
100
AcDbEntity
  8
0
  6
Continuous
 62
     7
370
     0
100
AcDbLine
 10
174.0489209244
 20
250.0705217067
 30
0.0
 11
174.0489209244
 21
252.2352506462
 31
0.0
  0
LINE
  5
39C
330
1F
100
AcDbEntity
  8
0
  6
Continuous
 62
     7
370
     0
100
AcDbLine
 10
174.5489210063
 20
252.2352506462
 30
0.0
 11
174.0489209244
 21
252.2352506462
 31
0.0
  0
LINE
  5
39D
330
1F
100
AcDbEntity
  8
0
  6
Continuous
 62
     7
370
     0
100
AcDbLine
 10
168.0489208722
 20
252.2352506462
 30
0.0
 11
168.0489208722
 21
250.0705217067
 31
0.0
  0
LINE
  5
39E
330
1F
100
AcDbEntity
  8
0
  6
Continuous
 62
     7
370
     0
100
AcDbLine
 10
168.0489208722
 20
250.0705217067
 30
0.0
 11
168.3489208283
 21
250.0705217067
 31
0.0
  0
LINE
  5
39F
330
1F
100
AcDbEntity
  8
0
  6
Continuous
 62
     7
370
     0
100
AcDbLine
 10
167.5489207903
 20
249.9878947678
 30
0.0
 11
167.5489207903
 21
252.2352506462
 31
0.0
  0
LINE
  5
3A0
330
1F
100
AcDbEntity
  8
0
  6
Continuous
 62
     7
370
     0
100
AcDbLine
 10
168.0489208722
 20
252.2352506462
 30
0.0
 11
167.5489207903
 21
252.2352506462
 31
0.0
  0
LINE
  5
3A1
330
1F
100
AcDbEntity
  8
0
  6
Continuous
 62
     7
370
     0
100
AcDbLine
 10
173.7489209683
 20
252.7283822242
 30
0.0
 11
168.3489208283
 21
252.7283822242
 31
0.0
  0
LINE
  5
3A2
330
1F
100
AcDbEntity
  8
0
  6
Continuous
 62
     7
370
     0
100
AcDbLine
 10
168.3489208283
 20
252.7283822242
 30
0.0
 11
168.3489208283
 21
250.5636458341
 31
0.0
  0
LINE
  5
3A3
330
1F
100
AcDbEntity
  8
0
  6
Continuous
 62
     7
370
     0
100
AcDbLine
 10
173.7489209683
 20
252.7283822242
 30
0.0
 11
173.7489209683
 21
250.5636458341
 31
0.0
  0
ARC
  5
3A4
330
1F
100
AcDbEntity
  8
0
  6
Continuous
 62
     7
370
     0
100
AcDbCircle
 10
171.0489208983
 20
171.2014834588
 30
0.0
 40
7.141428428542856
100
AcDbArc
 50
314.4382406712
 51
45.5617593289
  0
ARC
  5
3A5
330
1F
100
AcDbEntity
  8
0
  6
Continuous
 62
     7
370
     0
100
AcDbCircle
 10
171.0489208983
 20
171.2014834588
 30
0.0
 40
7.141428428542856
100
AcDbArc
 50
134.4382406711
 51
225.5617593289
  0
SPLINE
  5
3A6
330
1F
100
AcDbEntity
  8
0
  6
Continuous
 62
     7
370
     0
100
AcDbSpline
210
0.0
220
0.0
230
1.0
 70
     8
 71
     3
 72
    14
 73
    10
 74
     0
 42
0.000000001
 43
0.00000001
 40
0.0
 40
0.0
 40
0.0
 40
0.0
 40
0.25
 40
0.25
 40
0.5
 40
0.5
 40
0.75
 40
0.75
 40
1.0
 40
1.0
 40
1.0
 40
1.0
 10
178.943390764331
 20
164.9014834587842
 30
0.0
 10
178.943390764331
 20
163.8680997698204
 30
0.0
 10
178.7379188445954
 20
162.8351226732106
 30
0.0
 10
177.9470012105099
 20
160.9256785942812
 30
0.0
 10
177.3618666884751
 20
160.0499628966695
 30
0.0
 10
175.9004414604073
 20
158.5885376686017
 30
0.0
 10
175.0247257627957
 20
158.003403146567
 30
0.0
 10
173.1152816838662
 20
157.2124855124814
 30
0.0
 10
172.0823045872565
 20
157.0070135927458
 30
0.0
 10
171.0489208982926
 20
157.0070135927458
 30
0.0
  0
SPLINE
  5
3A7
330
1F
100
AcDbEntity
  8
0
  6
Continuous
 62
     7
370
     0
100
AcDbSpline
210
0.0
220
0.0
230
1.0
 70
     8
 71
     3
 72
    14
 73
    10
 74
     0
 42
0.000000001
 43
0.00000001
 40
0.0
 40
0.0
 40
0.0
 40
0.0
 40
0.25
 40
0.25
 40
0.5
 40
0.5
 40
0.75
 40
0.75
 40
1.0
 40
1.0
 40
1.0
 40
1.0
 10
171.0489208982926
 20
157.0070135927458
 30
0.0
 10
170.0155372093288
 20
157.0070135927458
 30
0.0
 10
168.9825601127189
 20
157.2124855124814
 30
0.0
 10
167.0731160337895
 20
158.003403146567
 30
0.0
 10
166.1974003361779
 20
158.5885376686017
 30
0.0
 10
164.7359751081101
 20
160.0499628966695
 30
0.0
 10
164.1508405860754
 20
160.9256785942812
 30
0.0
 10
163.3599229519898
 20
162.8351226732106
 30
0.0
 10
163.1544510322542
 20
163.8680997698204
 30
0.0
 10
163.1544510322542
 20
164.9014834587842
 30
0.0
  0
SPLINE
  5
3A8
330
1F
100
AcDbEntity
  8
0
  6
Continuous
 62
     7
370
     0
100
AcDbSpline
210
0.0
220
0.0
230
1.0
 70
    24
 71
     3
 72
    10
 73
     6
 74
     0
 42
0.000000001
 43
0.00000001
 40
0.0
 40
0.0
 40
0.0
 40
0.0
 40
0.5
 40
0.5
 40
1.0
 40
1.0
 40
1.0
 40
1.0
 10
163.6543748798324
 20
164.9014834587842
 30
0.0
 10
163.5249296269762
 20
164.9014834587842
 30
0.0
 10
163.3962471324231
 20
164.9014834587842
 30
0.0
 10
163.2115933629419
 20
164.9014834587842
 30
0.0
 10
163.1567101634184
 20
164.9014834587842
 30
0.0
 10
163.1544510322542
 20
164.9014834587842
 30
0.0
  0
SPLINE
  5
3A9
330
1F
100
AcDbEntity
  8
0
  6
Continuous
 62
     7
370
     0
100
AcDbSpline
210
0.0
220
0.0
230
1.0
 70
     8
 71
     3
 72
    14
 73
    10
 74
     0
 42
0.000000001
 43
0.00000001
 40
0.0
 40
0.0
 40
0.0
 40
0.0
 40
0.2500000000000001
 40
0.2500000000000001
 40
0.5000000000000001
 40
0.5000000000000001
 40
0.75
 40
0.75
 40
1.0
 40
1.0
 40
1.0
 40
1.0
 10
171.0489208982926
 20
157.506937440324
 30
0.0
 10
170.0809770879499
 20
157.506937440324
 30
0.0
 10
169.1134141221633
 20
157.6993976804375
 30
0.0
 10
167.32488717217
 20
158.4402297997945
 30
0.0
 10
166.5046268969443
 20
158.9883101932341
 30
0.0
 10
165.1357476327425
 20
160.3571894574359
 30
0.0
 10
164.5876672393029
 20
161.1774497326616
 30
0.0
 10
163.8468351199459
 20
162.9659766826549
 30
0.0
 10
163.6543748798324
 20
163.9335396484415
 30
0.0
 10
163.6543748798324
 20
164.9014834587842
 30
0.0
  0
SPLINE
  5
3AA
330
1F
100
AcDbEntity
  8
0
  6
Continuous
 62
     7
370
     0
100
AcDbSpline
210
0.0
220
0.0
230
1.0
 70
     8
 71
     3
 72
    14
 73
    10
 74
     0
 42
0.000000001
 43
0.00000001
 40
0.0
 40
0.0
 40
0.0
 40
0.0
 40
0.25
 40
0.25
 40
0.5
 40
0.5
 40
0.75
 40
0.75
 40
1.0
 40
1.0
 40
1.0
 40
1.0
 10
178.4434669167528
 20
164.9014834587842
 30
0.0
 10
178.4434669167528
 20
163.9335396484415
 30
0.0
 10
178.2510066766393
 20
162.9659766826549
 30
0.0
 10
177.5101745572823
 20
161.1774497326616
 30
0.0
 10
176.9620941638427
 20
160.3571894574359
 30
0.0
 10
175.5932148996409
 20
158.9883101932341
 30
0.0
 10
174.7729546244153
 20
158.4402297997945
 30
0.0
 10
172.9844276744219
 20
157.6993976804375
 30
0.0
 10
172.0168647086354
 20
157.506937440324
 30
0.0
 10
171.0489208982926
 20
157.506937440324
 30
0.0
  0
SPLINE
  5
3AB
330
1F
100
AcDbEntity
  8
0
  6
Continuous
 62
     7
370
     0
100
AcDbSpline
210
0.0
220
0.0
230
1.0
 70
    24
 71
     3
 72
    10
 73
     6
 74
     0
 42
0.000000001
 43
0.00000001
 40
0.0
 40
0.0
 40
0.0
 40
0.0
 40
0.4999999999999989
 40
0.4999999999999989
 40
1.0
 40
1.0
 40
1.0
 40
1.0
 10
178.4434669167528
 20
164.9014834587842
 30
0.0
 10
178.572912171053
 20
164.9014834588287
 30
0.0
 10
178.701594667464
 20
164.9014834588546
 30
0.0
 10
178.886248439005
 20
164.9014834588545
 30
0.0
 10
178.9411316386703
 20
164.9014834588287
 30
0.0
 10
178.9433907687385
 20
164.9014834587842
 30
0.0
  0
LINE
  5
3AC
330
1F
100
AcDbEntity
  8
0
  6
Continuous
 62
     7
370
     0
100
AcDbLine
 10
178.9433903234
 20
177.5014829877
 30
0.0
 11
178.9433903234
 21
164.90148204
 31
0.0
  0
LINE
  5
3AD
330
1F
100
AcDbEntity
  8
0
  6
Continuous
 62
     7
370
     0
100
AcDbLine
 10
178.4434670755
 20
177.5014829877
 30
0.0
 11
178.4434670755
 21
164.90148204
 31
0.0
  0
SPLINE
  5
3AE
330
1F
100
AcDbEntity
  8
0
  6
Continuous
 62
     7
370
     0
100
AcDbSpline
210
0.0
220
0.0
230
1.0
 70
    24
 71
     3
 72
    10
 73
     6
 74
     0
 42
0.000000001
 43
0.00000001
 40
0.0
 40
0.0
 40
0.0
 40
0.0
 40
0.5
 40
0.5
 40
1.0
 40
1.0
 40
1.0
 40
1.0
 10
178.4434669167528
 20
177.5014834587842
 30
0.0
 10
178.5729121696091
 20
177.5014834587842
 30
0.0
 10
178.7015946641622
 20
177.5014834587842
 30
0.0
 10
178.8862484336433
 20
177.5014834587842
 30
0.0
 10
178.9411316331668
 20
177.5014834587842
 30
0.0
 10
178.943390764331
 20
177.5014834587842
 30
0.0
  0
LINE
  5
3AF
330
1F
100
AcDbEntity
  8
0
  6
Continuous
 62
     7
370
     0
100
AcDbLine
 10
163.6543747211
 20
164.90148204
 30
0.0
 11
163.6543747211
 21
177.5014829877
 31
0.0
  0
LINE
  5
3B0
330
1F
100
AcDbEntity
  8
0
  6
Continuous
 62
     7
370
     0
100
AcDbLine
 10
163.1544514732
 20
164.90148204
 30
0.0
 11
163.1544514732
 21
177.5014829877
 31
0.0
  0
SPLINE
  5
3B1
330
1F
100
AcDbEntity
  8
0
  6
Continuous
 62
     7
370
     0
100
AcDbSpline
210
0.0
220
0.0
230
1.0
 70
    24
 71
     3
 72
    10
 73
     6
 74
     0
 42
0.000000001
 43
0.00000001
 40
0.0
 40
0.0
 40
0.0
 40
0.0
 40
0.5000000000000012
 40
0.5000000000000012
 40
1.0
 40
1.0
 40
1.0
 40
1.0
 10
163.1544510322542
 20
177.5014834587842
 30
0.0
 10
163.1567101634184
 20
177.5014834587842
 30
0.0
 10
163.2115933629419
 20
177.5014834587842
 30
0.0
 10
163.396247132423
 20
177.5014834587842
 30
0.0
 10
163.5249296269761
 20
177.5014834587842
 30
0.0
 10
163.6543748798324
 20
177.5014834587842
 30
0.0
  0
LINE
  5
3B2
330
1F
100
AcDbEntity
  8
0
  6
Continuous
 62
     7
370
     0
100
AcDbLine
 10
178.9433903234
 20
164.90148204
 30
0.0
 11
178.9939210923
 21
164.90148204
 31
0.0
  0
ARC
  5
3B3
330
1F
100
AcDbEntity
  8
0
  6
Continuous
 62
     7
370
     0
100
AcDbCircle
 10
171.0489208983
 20
164.9014834588
 30
0.0
 40
7.945000000000022
100
AcDbArc
 50
180.0
 51
0.0
  0
LINE
  5
3B4
330
1F
100
AcDbEntity
  8
0
  6
Continuous
 62
     7
370
     0
100
AcDbLine
 10
163.1544514732
 20
164.90148204
 30
0.0
 11
163.1039207043
 21
164.90148204
 31
0.0
  0
LINE
  5
3B5
330
1F
100
AcDbEntity
  8
0
  6
Continuous
 62
     7
370
     0
100
AcDbLine
 10
178.9433903234
 20
177.5014829877
 30
0.0
 11
178.9939210923
 21
177.5014829877
 31
0.0
  0
LINE
  5
3B6
330
1F
100
AcDbEntity
  8
0
  6
Continuous
 62
     7
370
     0
100
AcDbLine
 10
178.9939210923
 20
177.5014829877
 30
0.0
 11
178.9939210923
 21
164.90148204
 31
0.0
  0
LINE
  5
3B7
330
1F
100
AcDbEntity
  8
0
  6
Continuous
 62
     7
370
     0
100
AcDbLine
 10
163.1039207043
 20
177.5014829877
 30
0.0
 11
163.1544514732
 21
177.5014829877
 31
0.0
  0
LINE
  5
3B8
330
1F
100
AcDbEntity
  8
0
  6
Continuous
 62
     7
370
     0
100
AcDbLine
 10
163.1039207043
 20
164.90148204
 30
0.0
 11
163.1039207043
 21
177.5014829877
 31
0.0
  0
ARC
  5
3B9
330
1F
100
AcDbEntity
  8
0
  6
Continuous
 62
     7
370
     0
100
AcDbCircle
 10
171.0489208983
 20
177.5014834588
 30
0.0
 40
7.945000000000022
100
AcDbArc
 50
129.0004592744
 51
180.0
  0
ARC
  5
3BA
330
1F
100
AcDbEntity
  8
0
  6
Continuous
 62
     7
370
     0
100
AcDbCircle
 10
171.0489208983
 20
177.5014834588
 30
0.0
 40
7.945000000000192
100
AcDbArc
 50
0.0
 51
50.9995407256
  0
LINE
  5
3BB
330
1F
100
AcDbEntity
  8
0
  6
Continuous
 62
     7
370
     0
100
AcDbLine
 10
173.0489209933
 20
258.4911082927
 30
0.0
 11
169.0489208033
 21
258.4911082927
 31
0.0
  0
CIRCLE
  5
3BC
330
1F
100
AcDbEntity
  8
0
  6
Continuous
 62
     7
370
     0
100
AcDbCircle
 10
171.0275078193
 20
207.8860352716
 30
0.0
 40
3.281604497106626
  0
ARC
  5
3BD
330
1F
100
AcDbEntity
  8
0
  6
Continuous
 62
     7
370
     0
100
AcDbCircle
 10
171.0563729805
 20
207.847633577
 30
0.0
 40
3.492796092026561
100
AcDbArc
 50
0.6828689411
 51
115.082462872
  0
ARC
  5
3BE
330
1F
100
AcDbEntity
  8
0
  6
Continuous
 62
     7
370
     0
100
AcDbCircle
 10
170.9850695665
 20
207.8772164567
 30
0.0
 40
3.436169885142139
100
AcDbArc
 50
114.2147223245
 51
179.799168032
  0
LINE
  5
3BF
330
1F
100
AcDbEntity
  8
0
  6
Continuous
 62
     7
370
     0
100
AcDbLine
 10
169.5984361633
 20
208.9283262435
 30
0.0
 11
169.4405982909
 21
207.1918268743
 31
0.0
  0
LINE
  5
3C0
330
1F
100
AcDbEntity
  8
0
  6
Continuous
 62
     7
370
     0
100
AcDbLine
 10
170.8910830259
 20
206.1891724411
 30
0.0
 11
169.4405982909
 21
207.1918268743
 31
0.0
  0
LINE
  5
3C1
330
1F
100
AcDbEntity
  8
0
  6
Continuous
 62
     7
370
     0
100
AcDbLine
 10
172.4994056333
 20
206.9230099264
 30
0.0
 11
170.8910830259
 21
206.1891724411
 31
0.0
  0
LINE
  5
3C2
330
1F
100
AcDbEntity
  8
0
  6
Continuous
 62
     7
370
     0
100
AcDbLine
 10
172.4994056333
 20
206.9230099264
 30
0.0
 11
172.6572435056
 21
208.6595092955
 31
0.0
  0
LINE
  5
3C3
330
1F
100
AcDbEntity
  8
0
  6
Continuous
 62
     7
370
     0
100
AcDbLine
 10
172.6572435056
 20
208.6595092955
 30
0.0
 11
171.2067587707
 21
209.6621637288
 31
0.0
  0
LINE
  5
3C4
330
1F
100
AcDbEntity
  8
0
  6
Continuous
 62
     7
370
     0
100
AcDbLine
 10
169.5984361633
 20
208.9283262435
 30
0.0
 11
171.2067587707
 21
209.6621637288
 31
0.0
  0
ARC
  5
3C5
330
1F
100
AcDbEntity
  8
0
  6
Continuous
 62
     7
370
     0
100
AcDbCircle
 10
170.9869772986
 20
207.4301116666
 30
0.0
 40
3.438085622581636
100
AcDbArc
 50
180.2357936927
 51
242.902324465
  0
ARC
  5
3C6
330
1F
100
AcDbEntity
  8
0
  6
Continuous
 62
     7
370
     0
100
AcDbCircle
 10
171.1109261417
 20
207.4300737889
 30
0.0
 40
3.438023823676943
100
AcDbArc
 50
297.0970485254
 51
359.764833317
  0
LINE
  5
3C7
330
1F
100
AcDbEntity
  8
0
  6
Continuous
 62
     7
370
     0
100
AcDbLine
 10
169.5195171689
 20
207.9144437853
 30
0.0
 11
169.5984361633
 21
208.7826971951
 31
0.0
  0
LINE
  5
3C8
330
1F
100
AcDbEntity
  8
0
  6
Continuous
 62
     7
370
     0
100
AcDbLine
 10
169.4530526349
 20
207.1832214538
 30
0.0
 11
169.5195171689
 21
207.9144437853
 31
0.0
  0
LINE
  5
3C9
330
1F
100
AcDbEntity
  8
0
  6
Continuous
 62
     7
370
     0
100
AcDbLine
 10
169.5984361633
 20
208.7826971951
 30
0.0
 11
169.5984361633
 21
208.9283262435
 31
0.0
  0
LINE
  5
3CA
330
1F
100
AcDbEntity
  8
0
  6
Continuous
 62
     7
370
     0
100
AcDbLine
 10
171.9320011382
 20
209.0152074638
 30
0.0
 11
172.6447891617
 21
208.5224856678
 31
0.0
  0
LINE
  5
3CB
330
1F
100
AcDbEntity
  8
0
  6
Continuous
 62
     7
370
     0
100
AcDbLine
 10
171.2067587707
 20
209.5165346805
 30
0.0
 11
171.9320011382
 21
209.0152074638
 31
0.0
  0
LINE
  5
3CC
330
1F
100
AcDbEntity
  8
0
  6
Continuous
 62
     7
370
     0
100
AcDbLine
 10
171.2067587707
 20
209.5165346805
 30
0.0
 11
171.2067587707
 21
209.6621637288
 31
0.0
  0
LINE
  5
3CD
330
1F
100
AcDbEntity
  8
0
  6
Continuous
 62
     7
370
     0
100
AcDbLine
 10
171.2067587707
 20
209.5165346805
 30
0.0
 11
170.402597467
 21
209.1496159378
 31
0.0
  0
LINE
  5
3CE
330
1F
100
AcDbEntity
  8
0
  6
Continuous
 62
     7
370
     0
100
AcDbLine
 10
170.402597467
 20
209.1496159378
 30
0.0
 11
169.5984361633
 21
208.7826971951
 31
0.0
  0
LWPOLYLINE
  5
3CF
330
1F
100
AcDbEntity
  8
0
  6
Continuous
 62
     7
370
     0
100
AcDbPolyline
 90
        3
 70
   128
 43
0.0
 10
170.7245938071
 20
206.3042615596
 10
170.912229287
 20
206.2761877719
 10
171.0689375215
 20
206.270324165
  0
ARC
  5
3D0
330
1F
100
AcDbEntity
  8
0
  6
Continuous
 62
     7
370
     0
100
AcDbCircle
 10
171.0487025205
 20
207.7329257012
 30
0.0
 40
1.55706870971936
100
AcDbArc
 50
55.4390220383
 51
114.5161432129
  0
ARC
  5
3D1
330
1F
100
AcDbEntity
  8
0
  6
Continuous
 62
     7
370
     0
100
AcDbCircle
 10
171.079525239
 20
207.7747906975
 30
0.0
 40
1.505107608397437
100
AcDbArc
 50
2.6139252722
 51
55.5012211761
  0
ARC
  5
3D2
330
1F
100
AcDbEntity
  8
0
  6
Continuous
 62
     7
370
     0
100
AcDbCircle
 10
171.0840458463
 20
207.7846117486
 30
0.0
 40
1.501012570402853
100
AcDbArc
 50
318.5124730047
 51
347.1245905582
  0
ARC
  5
3D3
330
1F
100
AcDbEntity
  8
0
  6
Continuous
 62
     7
370
     0
100
AcDbCircle
 10
171.0039577666
 20
207.7805158467
 30
0.0
 40
1.490469919387023
100
AcDbArc
 50
174.844666511
 51
212.4670858783
  0
ARC
  5
3D4
330
1F
100
AcDbEntity
  8
0
  6
Continuous
 62
     7
370
     0
100
AcDbCircle
 10
171.0240187237
 20
207.7720707958
 30
0.0
 40
1.511223013488359
100
AcDbArc
 50
114.2805035036
 51
174.5941222905
  0
CIRCLE
  5
3D5
330
1F
100
AcDbEntity
  8
0
  6
Continuous
 62
     7
370
     0
100
AcDbCircle
 10
171.0849726084
 20
193.188692047
 30
0.0
 40
3.26456006111899
  0
CIRCLE
  5
3D6
330
1F
100
AcDbEntity
  8
0
  6
Continuous
 62
     7
370
     0
100
AcDbCircle
 10
171.0894118833
 20
193.1360410543
 30
0.0
 40
3.459163141232807
  0
LINE
  5
3D7
330
1F
100
AcDbEntity
  8
0
  6
Continuous
 62
     7
370
     0
100
AcDbLine
 10
172.6330490257
 20
193.9593647662
 30
0.0
 11
171.1513011453
 21
194.9168016258
 31
0.0
  0
LINE
  5
3D8
330
1F
100
AcDbEntity
  8
0
  6
Continuous
 62
     7
370
     0
100
AcDbLine
 10
169.5671730615
 20
194.1337307039
 30
0.0
 11
171.1513011453
 21
194.9168016258
 31
0.0
  0
LINE
  5
3D9
330
1F
100
AcDbEntity
  8
0
  6
Continuous
 62
     7
370
     0
100
AcDbLine
 10
169.4647927709
 20
192.3932191971
 30
0.0
 11
169.5671730615
 21
194.1337307039
 31
0.0
  0
LINE
  5
3DA
330
1F
100
AcDbEntity
  8
0
  6
Continuous
 62
     7
370
     0
100
AcDbLine
 10
169.4647927709
 20
192.3932191971
 30
0.0
 11
170.9465406513
 21
191.4357823375
 31
0.0
  0
LINE
  5
3DB
330
1F
100
AcDbEntity
  8
0
  6
Continuous
 62
     7
370
     0
100
AcDbLine
 10
170.9465406513
 20
191.4357823375
 30
0.0
 11
172.5306687351
 21
192.2188532594
 31
0.0
  0
LINE
  5
3DC
330
1F
100
AcDbEntity
  8
0
  6
Continuous
 62
     7
370
     0
100
AcDbLine
 10
172.6330490257
 20
193.9593647662
 30
0.0
 11
172.5306687351
 21
192.2188532594
 31
0.0
  0
LINE
  5
3DD
330
1F
100
AcDbEntity
  8
0
  6
Continuous
 62
     7
370
     0
100
AcDbLine
 10
174.5430811481
 20
192.4678665641
 30
0.0
 11
174.5489210063
 21
192.6665884498
 31
0.0
  0
ARC
  5
3DE
330
1F
100
AcDbEntity
  8
0
  6
Continuous
 62
     7
370
     0
100
AcDbCircle
 10
170.9823588273
 20
192.6778958212
 30
0.0
 40
3.433456656350365
100
AcDbArc
 50
180.1886920074
 51
242.9493636491
  0
ARC
  5
3DF
330
1F
100
AcDbEntity
  8
0
  6
Continuous
 62
     7
370
     0
100
AcDbCircle
 10
171.111212352
 20
192.6813820053
 30
0.0
 40
3.438504366321247
100
AcDbArc
 50
297.0875947723
 51
356.439903
  0
LINE
  5
3E0
330
1F
100
AcDbEntity
  8
0
  6
Continuous
 62
     7
370
     0
100
AcDbLine
 10
169.5671730615
 20
193.9881016556
 30
0.0
 11
169.5671730615
 21
194.1337307039
 31
0.0
  0
LINE
  5
3E1
330
1F
100
AcDbEntity
  8
0
  6
Continuous
 62
     7
370
     0
100
AcDbLine
 10
169.5671730615
 20
193.9881016556
 30
0.0
 11
169.5159829162
 21
193.1178440395
 31
0.0
  0
LINE
  5
3E2
330
1F
100
AcDbEntity
  8
0
  6
Continuous
 62
     7
370
     0
100
AcDbLine
 10
169.5159829162
 20
193.1178440395
 30
0.0
 11
169.4730453366
 21
192.3878883067
 31
0.0
  0
LINE
  5
3E3
330
1F
100
AcDbEntity
  8
0
  6
Continuous
 62
     7
370
     0
100
AcDbLine
 10
171.8921751073
 20
194.2924541477
 30
0.0
 11
172.62479646
 21
193.8190666083
 31
0.0
  0
LINE
  5
3E4
330
1F
100
AcDbEntity
  8
0
  6
Continuous
 62
     7
370
     0
100
AcDbLine
 10
171.1513011453
 20
194.7711725775
 30
0.0
 11
171.8921751073
 21
194.2924541477
 31
0.0
  0
LINE
  5
3E5
330
1F
100
AcDbEntity
  8
0
  6
Continuous
 62
     7
370
     0
100
AcDbLine
 10
171.1513011453
 20
194.7711725775
 30
0.0
 11
171.1513011453
 21
194.9168016258
 31
0.0
  0
LINE
  5
3E6
330
1F
100
AcDbEntity
  8
0
  6
Continuous
 62
     7
370
     0
100
AcDbLine
 10
171.1513011453
 20
194.7711725775
 30
0.0
 11
170.359237067
 21
194.3796371165
 31
0.0
  0
LINE
  5
3E7
330
1F
100
AcDbEntity
  8
0
  6
Continuous
 62
     7
370
     0
100
AcDbLine
 10
170.359237067
 20
194.3796371165
 30
0.0
 11
169.5671730615
 21
193.9881016556
 31
0.0
  0
LWPOLYLINE
  5
3E8
330
1F
100
AcDbEntity
  8
0
  6
Continuous
 62
     7
370
     0
100
AcDbPolyline
 90
        3
 70
   128
 43
0.0
 10
170.7783846998
 20
191.5444378796
 10
170.9602570029
 20
191.5233378354
 10
171.1220284326
 20
191.5225294474
  0
ARC
  5
3E9
330
1F
100
AcDbEntity
  8
0
  6
Continuous
 62
     7
370
     0
100
AcDbCircle
 10
171.0874327028
 20
193.0335466428
 30
0.0
 40
1.497299995335009
100
AcDbArc
 50
320.1121213816
 51
350.4487921674
  0
ARC
  5
3EA
330
1F
100
AcDbEntity
  8
0
  6
Continuous
 62
     7
370
     0
100
AcDbCircle
 10
171.0050180942
 20
193.0314055312
 30
0.0
 40
1.49154194617044
100
AcDbArc
 50
176.6777078502
 51
214.0287710325
  0
ARC
  5
3EB
330
1F
100
AcDbEntity
  8
0
  6
Continuous
 62
     7
370
     0
100
AcDbCircle
 10
171.0222660846
 20
193.02386677
 30
0.0
 40
1.509211950191089
100
AcDbArc
 50
116.0605880321
 51
176.4299337291
  0
ARC
  5
3EC
330
1F
100
AcDbEntity
  8
0
  6
Continuous
 62
     7
370
     0
100
AcDbCircle
 10
171.0487662292
 20
192.9832121988
 30
0.0
 40
1.557386598221884
100
AcDbArc
 50
57.2105136453
 51
116.2793199996
  0
ARC
  5
3ED
330
1F
100
AcDbEntity
  8
0
  6
Continuous
 62
     7
370
     0
100
AcDbCircle
 10
171.0805566149
 20
193.0261664465
 30
0.0
 40
1.504064200572202
100
AcDbArc
 50
2.9215859106
 51
57.3424352151
  0
LINE
  5
3EE
330
1F
100
AcDbEntity
  8
0
  6
Continuous
 62
     7
370
     0
100
AcDbLine
 10
173.5489208424
 20
184.5272016767
 30
0.0
 11
168.5489209542
 21
184.5272016767
 31
0.0
  0
LINE
  5
3EF
330
1F
100
AcDbEntity
  8
0
  6
Continuous
 62
     7
370
     0
100
AcDbLine
 10
173.5489208424
 20
184.2541453484
 30
0.0
 11
168.5489209542
 21
184.2541453484
 31
0.0
  0
LINE
  5
3F0
330
1F
100
AcDbEntity
  8
0
  6
Continuous
 62
     7
370
     0
100
AcDbLine
 10
168.5489209542
 20
184.2541453484
 30
0.0
 11
168.5489209542
 21
184.5272016767
 31
0.0
  0
LINE
  5
3F1
330
1F
100
AcDbEntity
  8
0
  6
Continuous
 62
     7
370
     0
100
AcDbLine
 10
173.5489208424
 20
184.2541453484
 30
0.0
 11
173.5489208424
 21
184.5272016767
 31
0.0
  0
LINE
  5
3F2
330
1F
100
AcDbEntity
  8
0
  6
Continuous
 62
     7
370
     0
100
AcDbLine
 10
166.0489210101
 20
183.6408172789
 30
0.0
 11
176.0489207865
 21
183.6408172789
 31
0.0
  0
LINE
  5
3F3
330
1F
100
AcDbEntity
  8
0
  6
Continuous
 62
     7
370
     0
100
AcDbLine
 10
166.0489210101
 20
161.5448129419
 30
0.0
 11
176.0489207865
 21
161.5448129419
 31
0.0
  0
LINE
  5
3F4
330
1F
100
AcDbEntity
  8
0
  6
Continuous
 62
     7
370
     0
100
AcDbLine
 10
166.0489210101
 20
161.5448129419
 30
0.0
 11
166.0489210101
 21
183.6408172789
 31
0.0
  0
LINE
  5
3F5
330
1F
100
AcDbEntity
  8
0
  6
Continuous
 62
     7
370
     0
100
AcDbLine
 10
176.0489207865
 20
161.5448129419
 30
0.0
 11
176.0489207865
 21
183.6408172789
 31
0.0
  0
LINE
  5
3F6
330
1F
100
AcDbEntity
  8
0
  6
Continuous
 62
     7
370
     0
100
AcDbLine
 10
166.0489210101
 20
183.6408172789
 30
0.0
 11
166.0489210101
 21
184.2541453484
 31
0.0
  0
LINE
  5
3F7
330
1F
100
AcDbEntity
  8
0
  6
Continuous
 62
     7
370
     0
100
AcDbLine
 10
176.0489207865
 20
183.6408172789
 30
0.0
 11
176.0489207865
 21
184.2541453484
 31
0.0
  0
LINE
  5
3F8
330
1F
100
AcDbEntity
  8
0
  6
Continuous
 62
     7
370
     0
100
AcDbLine
 10
174.0489209244
 20
159.9028018359
 30
0.0
 11
168.0489208722
 21
159.9028018359
 31
0.0
  0
LINE
  5
3F9
330
1F
100
AcDbEntity
  8
0
  6
Continuous
 62
     7
370
     0
100
AcDbLine
 10
166.0489210101
 20
161.5448129419
 30
0.0
 11
168.0489208722
 21
159.9028018359
 31
0.0
  0
LINE
  5
3FA
330
1F
100
AcDbEntity
  8
0
  6
Continuous
 62
     7
370
     0
100
AcDbLine
 10
176.0489207865
 20
161.5448129419
 30
0.0
 11
174.0489209244
 21
159.9028018359
 31
0.0
  0
ARC
  5
3FB
330
1F
100
AcDbEntity
  8
0
  6
Continuous
 62
     7
370
     0
100
AcDbCircle
 10
171.0489208983
 20
233.500372113
 30
0.0
 40
1.799665349581901
100
AcDbArc
 50
247.1101229903
 51
292.8898770097
  0
LWPOLYLINE
  5
3FC
330
1F
100
AcDbEntity
  8
0
  6
Continuous
 62
     7
370
     0
100
AcDbPolyline
 90
       10
 70
   128
 43
0.0
 10
171.3989208858
 20
226.9111593309
 10
171.3722787446
 20
226.8890311066
 10
171.2964082601
 20
226.870263094
 10
171.1828601021
 20
226.8577312175
 10
171.0489208983
 20
226.8533279243
 10
170.9149816945
 20
226.8577312175
 10
170.8014335365
 20
226.870263094
 10
170.7255630519
 20
226.8890311066
 10
170.6989209108
 20
226.9111593309
 10
170.6989209108
 20
226.9111593309
  0
LINE
  5
3FD
330
1F
100
AcDbEntity
  8
0
  6
Continuous
 62
     7
370
     0
100
AcDbLine
 10
174.9489207925
 20
247.2789232674
 30
0.0
 11
174.9489207925
 21
250.2789293471
 31
0.0
  0
LINE
  5
3FE
330
1F
100
AcDbEntity
  8
0
  6
Continuous
 62
     7
370
     0
100
AcDbLine
 10
175.2489207485
 20
249.9789242688
 30
0.0
 11
175.2489207485
 21
247.5789283458
 31
0.0
  0
LINE
  5
3FF
330
1F
100
AcDbEntity
  8
0
  6
Continuous
 62
     7
370
     0
100
AcDbLine
 10
167.1489210041
 20
250.2789293471
 30
0.0
 11
167.1489210041
 21
247.2789232674
 31
0.0
  0
LINE
  5
400
330
1F
100
AcDbEntity
  8
0
  6
Continuous
 62
     7
370
     0
100
AcDbLine
 10
166.848921048
 20
249.9624286834
 30
0.0
 11
166.848921048
 21
249.9789242688
 31
0.0
  0
LINE
  5
401
330
1F
100
AcDbEntity
  8
0
  6
Continuous
 62
     7
370
     0
100
AcDbLine
 10
166.848921048
 20
247.5789283458
 30
0.0
 11
166.848921048
 21
249.9624286834
 31
0.0
  0
ARC
  5
402
330
1F
100
AcDbEntity
  8
0
  6
Continuous
 62
     7
370
     0
100
AcDbCircle
 10
169.4448438748
 20
237.7598364846
 30
0.0
 40
3.978773857629105
100
AcDbArc
 50
162.466507224
 51
172.1599187397
  0
ARC
  5
403
330
1F
100
AcDbEntity
  8
0
  6
Continuous
 62
     7
370
     0
100
AcDbCircle
 10
165.6669804266
 20
238.9863387652
 30
0.0
 40
0.0321438445834065
100
AcDbArc
 50
192.1787479384
 51
240.0233331629
  0
ARC
  5
404
330
1F
100
AcDbEntity
  8
0
  6
Continuous
 62
     7
370
     0
100
AcDbCircle
 10
169.4450048773
 20
237.7840295282
 30
0.0
 40
3.978938299231968
100
AcDbArc
 50
162.4667080078
 51
172.1597179559
  0
LINE
  5
405
330
1F
100
AcDbEntity
  8
0
  6
Continuous
 62
     7
370
     0
100
AcDbLine
 10
165.5032609762
 20
238.3268048111
 30
0.0
 11
165.5032609762
 21
238.302575523
 31
0.0
  0
ARC
  5
406
330
1F
100
AcDbEntity
  8
0
  6
Continuous
 62
     7
370
     0
100
AcDbCircle
 10
170.0353278548
 20
237.811584577
 30
0.0
 40
4.399946209518465
100
AcDbArc
 50
175.183382639
 51
180.5158973454
  0
ARC
  5
407
330
1F
100
AcDbEntity
  8
0
  6
Continuous
 62
     7
370
     0
100
AcDbCircle
 10
165.7622191891
 20
236.1585076047
 30
0.0
 40
1.287741174472511
100
AcDbArc
 50
94.9582550132
 51
101.6009944736
  0
LINE
  5
408
330
1F
100
AcDbEntity
  8
0
  6
Continuous
 62
     7
370
     0
100
AcDbLine
 10
165.5032609762
 20
237.4199424926
 30
0.0
 11
165.5032609762
 21
237.3795826975
 31
0.0
  0
LWPOLYLINE
  5
409
330
1F
100
AcDbEntity
  8
0
  6
Continuous
 62
     7
370
     0
100
AcDbPolyline
 90
        9
 70
   128
 43
0.0
 10
165.6509198421
 20
236.5612109247
 10
165.6441253783
 20
236.5608458463
 10
165.6392694624
 20
236.5614493433
 10
165.6363548884
 20
236.5630288664
 10
165.6353830533
 20
236.5655769649
 10
165.6363548884
 20
236.569093639
 10
165.6392694624
 20
236.5735788885
 10
165.6441253783
 20
236.5790252629
 10
165.6509198421
 20
236.5854327622
  0
ARC
  5
40A
330
1F
100
AcDbEntity
  8
0
  6
Continuous
 62
     7
370
     0
100
AcDbCircle
 10
169.4450120379
 20
237.7599132985
 30
0.0
 40
3.978947470201196
100
AcDbArc
 50
187.8404852088
 51
197.5333677198
  0
LINE
  5
40B
330
1F
100
AcDbEntity
  8
0
  6
Continuous
 62
     7
370
     0
100
AcDbLine
 10
165.5032609762
 20
237.2171227876
 30
0.0
 11
165.5032609762
 21
237.384388322
 31
0.0
  0
ARC
  5
40C
330
1F
100
AcDbEntity
  8
0
  6
Continuous
 62
     7
370
     0
100
AcDbCircle
 10
165.7622191891
 20
238.6458232099
 30
0.0
 40
1.28774117448379
100
AcDbArc
 50
258.3990055265
 51
265.0417449868
  0
ARC
  5
40D
330
1F
100
AcDbEntity
  8
0
  6
Continuous
 62
     7
370
     0
100
AcDbCircle
 10
170.0438336638
 20
237.7327029649
 30
0.0
 40
4.408451593362474
100
AcDbArc
 50
175.1880999351
 51
184.8119000649
  0
ARC
  5
40E
330
1F
100
AcDbEntity
  8
0
  6
Continuous
 62
     7
370
     0
100
AcDbCircle
 10
165.7625832683
 20
239.3883677566
 30
0.0
 40
1.290701955549169
100
AcDbArc
 50
258.4094879876
 51
265.0369247306
  0
LINE
  5
40F
330
1F
100
AcDbEntity
  8
0
  6
Continuous
 62
     7
370
     0
100
AcDbLine
 10
165.5032609762
 20
238.1239851061
 30
0.0
 11
165.5032609762
 21
238.302575523
 31
0.0
  0
SPLINE
  5
410
330
1F
100
AcDbEntity
  8
0
  6
Continuous
 62
     7
370
     0
100
AcDbSpline
210
0.0
220
0.0
230
1.0
 70
     8
 71
     3
 72
     8
 73
     4
 74
     0
 42
0.000000001
 43
0.00000001
 40
0.0
 40
0.0
 40
0.0
 40
0.0
 40
1.0
 40
1.0
 40
1.0
 40
1.0
 10
165.5032609762989
 20
237.3843853184857
 30
0.0
 10
165.5502873252427
 20
237.384515597843
 30
0.0
 10
165.5973125310954
 20
237.3846463278348
 30
0.0
 10
165.6443365148938
 20
237.3847775395902
 30
0.0
  0
SPLINE
  5
411
330
1F
100
AcDbEntity
  8
0
  6
Continuous
 62
     7
370
     0
100
AcDbSpline
210
0.0
220
0.0
230
1.0
 70
     8
 71
     3
 72
     8
 73
     4
 74
     0
 42
0.000000001
 43
0.00000001
 40
0.0
 40
0.0
 40
0.0
 40
0.0
 40
1.0
 40
1.0
 40
1.0
 40
1.0
 10
165.5032609762989
 20
237.4199421306245
 30
0.0
 10
165.5524819829072
 20
237.4198057713015
 30
0.0
 10
165.6017017373088
 20
237.419668918328
 30
0.0
 10
165.6509201487553
 20
237.4195315359287
 30
0.0
  0
ARC
  5
412
330
1F
100
AcDbEntity
  8
0
  6
Continuous
 62
     7
370
     0
100
AcDbCircle
 10
173.066550672
 20
237.9013172069
 30
0.0
 40
3.565603327158573
100
AcDbArc
 50
341.4507024703
 51
351.6748475144
  0
ARC
  5
413
330
1F
100
AcDbEntity
  8
0
  6
Continuous
 62
     7
370
     0
100
AcDbCircle
 10
175.956479022
 20
236.6425638142
 30
0.0
 40
0.5059891765145546
100
AcDbArc
 50
345.7603921535
 51
14.2396078465
  0
ARC
  5
414
330
1F
100
AcDbEntity
  8
0
  6
Continuous
 62
     7
370
     0
100
AcDbCircle
 10
173.066416875
 20
237.6524190519
 30
0.0
 40
3.565738362825147
100
AcDbArc
 50
341.4509942433
 51
351.6748679718
  0
LINE
  5
415
330
1F
100
AcDbEntity
  8
0
  6
Continuous
 62
     7
370
     0
100
AcDbLine
 10
176.5945808204
 20
237.1361349765
 30
0.0
 11
176.5945808204
 21
237.2408677879
 31
0.0
  0
ARC
  5
416
330
1F
100
AcDbEntity
  8
0
  6
Continuous
 62
     7
370
     0
100
AcDbCircle
 10
175.9696661179
 20
238.2012480889
 30
0.0
 40
0.6781986046236387
100
AcDbArc
 50
320.730284505
 51
337.1365117939
  0
LINE
  5
417
330
1F
100
AcDbEntity
  8
0
  6
Continuous
 62
     7
370
     0
100
AcDbLine
 10
176.5945808204
 20
237.9377429429
 30
0.0
 11
176.5945808204
 21
238.1588836256
 31
0.0
  0
LWPOLYLINE
  5
418
330
1F
100
AcDbEntity
  8
0
  6
Continuous
 62
     7
370
     0
100
AcDbPolyline
 90
        3
 70
   128
 43
0.0
 10
176.5945808204
 20
238.1588836256
 10
176.5822226355
 20
238.2373009864
 10
176.5702816831
 20
238.3040358368
  0
ARC
  5
419
330
1F
100
AcDbEntity
  8
0
  6
Continuous
 62
     7
370
     0
100
AcDbCircle
 10
173.0726529571
 20
237.892746875
 30
0.0
 40
3.559389789102795
100
AcDbArc
 50
8.3200617159
 51
15.967707112
  0
LINE
  5
41A
330
1F
100
AcDbEntity
  8
0
  6
Continuous
 62
     7
370
     0
100
AcDbLine
 10
176.5945808204
 20
238.4078000728
 30
0.0
 11
176.5945808204
 21
238.3030598107
 31
0.0
  0
ARC
  5
41B
330
1F
100
AcDbEntity
  8
0
  6
Continuous
 62
     7
370
     0
100
AcDbCircle
 10
175.92185689
 20
238.0128612502
 30
0.0
 40
0.732647726401629
100
AcDbArc
 50
23.3343230454
 51
44.2199479345
  0
ARC
  5
41C
330
1F
100
AcDbEntity
  8
0
  6
Continuous
 62
     7
370
     0
100
AcDbCircle
 10
172.547756227
 20
238.175379211
 30
0.0
 40
3.914703655667381
100
AcDbArc
 50
354.8934393819
 51
5.1065606181
  0
ARC
  5
41D
330
1F
100
AcDbEntity
  8
0
  6
Continuous
 62
     7
370
     0
100
AcDbCircle
 10
175.9218376167
 20
237.3159559584
 30
0.0
 40
0.7326773606625363
100
AcDbArc
 50
23.3358900119
 51
44.2201682234
  0
LINE
  5
41E
330
1F
100
AcDbEntity
  8
0
  6
Continuous
 62
     7
370
     0
100
AcDbLine
 10
176.5945808204
 20
237.6061846558
 30
0.0
 11
176.5945808204
 21
237.3850514236
 31
0.0
  0
SPLINE
  5
41F
330
1F
100
AcDbEntity
  8
0
  6
Continuous
 62
     7
370
     0
100
AcDbSpline
210
0.0
220
0.0
230
1.0
 70
     8
 71
     3
 72
     8
 73
     4
 74
     0
 42
0.000000001
 43
0.00000001
 40
0.0
 40
0.0
 40
0.0
 40
0.0
 40
1.0
 40
1.0
 40
1.0
 40
1.0
 10
176.5945808202863
 20
238.3030630741795
 30
0.0
 10
176.5453598597898
 20
238.3016620950138
 30
0.0
 10
176.4961401514976
 20
238.3002560440031
 30
0.0
 10
176.4469217861579
 20
238.2988445535865
 30
0.0
  0
SPLINE
  5
420
330
1F
100
AcDbEntity
  8
0
  6
Continuous
 62
     7
370
     0
100
AcDbSpline
210
0.0
220
0.0
230
1.0
 70
     8
 71
     3
 72
     8
 73
     4
 74
     0
 42
0.000000001
 43
0.00000001
 40
0.0
 40
0.0
 40
0.0
 40
0.0
 40
1.0
 40
1.0
 40
1.0
 40
1.0
 10
176.5945808202863
 20
238.1588800957228
 30
0.0
 10
176.5453598422353
 20
238.1549578877395
 30
0.0
 10
176.4961401163895
 20
238.151021480517
 30
0.0
 10
176.4469217334974
 20
238.1470698450245
 30
0.0
  0
SPLINE
  5
421
330
1F
100
AcDbEntity
  8
0
  6
Continuous
 62
     7
370
     0
100
AcDbSpline
210
0.0
220
0.0
230
1.0
 70
     8
 71
     3
 72
     8
 73
     4
 74
     0
 42
0.000000001
 43
0.00000001
 40
0.0
 40
0.0
 40
0.0
 40
0.0
 40
1.0
 40
1.0
 40
1.0
 40
1.0
 10
176.5945808202863
 20
237.9377459212662
 30
0.0
 10
176.5453597939264
 20
237.9391469023066
 30
0.0
 10
176.4961400197741
 20
237.9405529552056
 30
0.0
 10
176.4469215885781
 20
237.9419644475254
 30
0.0
  0
LINE
  5
422
330
1F
100
AcDbEntity
  8
0
  6
Continuous
 62
     7
370
     0
100
AcDbLine
 10
181.3989210115
 20
156.6063557807
 30
0.0
 11
181.2989211814
 21
156.6063557807
 31
0.0
  0
LINE
  5
423
330
1F
100
AcDbEntity
  8
0
  6
Continuous
 62
     7
370
     0
100
AcDbLine
 10
181.2989211814
 20
157.6063559446
 30
0.0
 11
181.3989210115
 21
157.6063559446
 31
0.0
  0
LINE
  5
424
330
1F
100
AcDbEntity
  8
0
  6
Continuous
 62
     7
370
     0
100
AcDbLine
 10
181.3989210115
 20
157.6063559446
 30
0.0
 11
181.3989210115
 21
156.6063557807
 31
0.0
  0
LINE
  5
425
330
1F
100
AcDbEntity
  8
0
  6
Continuous
 62
     7
370
     0
100
AcDbLine
 10
181.3989210115
 20
180.6063559893
 30
0.0
 11
181.2989211814
 21
180.6063559893
 31
0.0
  0
LINE
  5
426
330
1F
100
AcDbEntity
  8
0
  6
Continuous
 62
     7
370
     0
100
AcDbLine
 10
181.3989210115
 20
180.6063559893
 30
0.0
 11
181.3989210115
 21
157.6063559446
 31
0.0
  0
LINE
  5
427
330
1F
100
AcDbEntity
  8
0
  6
Continuous
 62
     7
370
     0
100
AcDbLine
 10
181.2989211814
 20
181.6063542906
 30
0.0
 11
181.3989210115
 21
181.6063542906
 31
0.0
  0
LINE
  5
428
330
1F
100
AcDbEntity
  8
0
  6
Continuous
 62
     7
370
     0
100
AcDbLine
 10
181.3989210115
 20
181.6063542906
 30
0.0
 11
181.3989210115
 21
180.6063559893
 31
0.0
  0
LINE
  5
429
330
1F
100
AcDbEntity
  8
0
  6
Continuous
 62
     7
370
     0
100
AcDbLine
 10
181.4189211638
 20
166.7486635092
 30
0.0
 11
181.3989210115
 21
166.7486635092
 31
0.0
  0
LINE
  5
42A
330
1F
100
AcDbEntity
  8
0
  6
Continuous
 62
     7
370
     0
100
AcDbLine
 10
181.4189211638
 20
165.5943599585
 30
0.0
 11
181.3989210115
 21
165.5943599585
 31
0.0
  0
LINE
  5
42B
330
1F
100
AcDbEntity
  8
0
  6
Continuous
 62
     7
370
     0
100
AcDbLine
 10
181.4189211638
 20
168.0657473448
 30
0.0
 11
181.3989210115
 21
168.0657473448
 31
0.0
  0
LINE
  5
42C
330
1F
100
AcDbEntity
  8
0
  6
Continuous
 62
     7
370
     0
100
AcDbLine
 10
181.4189211638
 20
165.3877255562
 30
0.0
 11
181.3989210115
 21
165.3877255562
 31
0.0
  0
LINE
  5
42D
330
1F
100
AcDbEntity
  8
0
  6
Continuous
 62
     7
370
     0
100
AcDbLine
 10
181.4189211638
 20
168.2729293648
 30
0.0
 11
181.3989210115
 21
168.2729293648
 31
0.0
  0
LINE
  5
42E
330
1F
100
AcDbEntity
  8
0
  6
Continuous
 62
     7
370
     0
100
AcDbLine
 10
181.4189211638
 20
174.3978244308
 30
0.0
 11
181.3989210115
 21
174.3978244308
 31
0.0
  0
LINE
  5
42F
330
1F
100
AcDbEntity
  8
0
  6
Continuous
 62
     7
370
     0
100
AcDbLine
 10
181.4189211638
 20
174.1597113255
 30
0.0
 11
181.3989210115
 21
174.1597113255
 31
0.0
  0
LINE
  5
430
330
1F
100
AcDbEntity
  8
0
  6
Continuous
 62
     7
370
     0
100
AcDbLine
 10
181.4189211638
 20
174.3978244308
 30
0.0
 11
181.4189211638
 21
174.1597113255
 31
0.0
  0
LINE
  5
431
330
1F
100
AcDbEntity
  8
0
  6
Continuous
 62
     7
370
     0
100
AcDbLine
 10
181.4189211638
 20
173.9850957933
 30
0.0
 11
181.3989210115
 21
173.9850957933
 31
0.0
  0
LINE
  5
432
330
1F
100
AcDbEntity
  8
0
  6
Continuous
 62
     7
370
     0
100
AcDbLine
 10
181.4189211638
 20
174.1597113255
 30
0.0
 11
181.4189211638
 21
173.9850957933
 31
0.0
  0
LINE
  5
433
330
1F
100
AcDbEntity
  8
0
  6
Continuous
 62
     7
370
     0
100
AcDbLine
 10
181.4189211638
 20
173.7866682056
 30
0.0
 11
181.3989210115
 21
173.7866682056
 31
0.0
  0
LINE
  5
434
330
1F
100
AcDbEntity
  8
0
  6
Continuous
 62
     7
370
     0
100
AcDbLine
 10
181.4189211638
 20
173.9850957933
 30
0.0
 11
181.4189211638
 21
173.7866682056
 31
0.0
  0
LINE
  5
435
330
1F
100
AcDbEntity
  8
0
  6
Continuous
 62
     7
370
     0
100
AcDbLine
 10
181.4189211638
 20
174.6279989425
 30
0.0
 11
181.3989210115
 21
174.6279989425
 31
0.0
  0
LINE
  5
436
330
1F
100
AcDbEntity
  8
0
  6
Continuous
 62
     7
370
     0
100
AcDbLine
 10
181.4189211638
 20
174.6279989425
 30
0.0
 11
181.4189211638
 21
174.3978244308
 31
0.0
  0
LINE
  5
437
330
1F
100
AcDbEntity
  8
0
  6
Continuous
 62
     7
370
     0
100
AcDbLine
 10
181.4189211638
 20
173.5644285622
 30
0.0
 11
181.3989210115
 21
173.5644285622
 31
0.0
  0
LINE
  5
438
330
1F
100
AcDbEntity
  8
0
  6
Continuous
 62
     7
370
     0
100
AcDbLine
 10
181.4189211638
 20
173.7866682056
 30
0.0
 11
181.4189211638
 21
173.5644285622
 31
0.0
  0
LINE
  5
439
330
1F
100
AcDbEntity
  8
0
  6
Continuous
 62
     7
370
     0
100
AcDbLine
 10
181.4189211638
 20
174.8343651238
 30
0.0
 11
181.3989210115
 21
174.8343651238
 31
0.0
  0
LINE
  5
43A
330
1F
100
AcDbEntity
  8
0
  6
Continuous
 62
     7
370
     0
100
AcDbLine
 10
181.4189211638
 20
174.8343651238
 30
0.0
 11
181.4189211638
 21
174.6279989425
 31
0.0
  0
LINE
  5
43B
330
1F
100
AcDbEntity
  8
0
  6
Continuous
 62
     7
370
     0
100
AcDbLine
 10
181.4189211638
 20
175.0407275799
 30
0.0
 11
181.3989210115
 21
175.0407275799
 31
0.0
  0
LINE
  5
43C
330
1F
100
AcDbEntity
  8
0
  6
Continuous
 62
     7
370
     0
100
AcDbLine
 10
181.4189211638
 20
175.0407275799
 30
0.0
 11
181.4189211638
 21
174.8343651238
 31
0.0
  0
LINE
  5
43D
330
1F
100
AcDbEntity
  8
0
  6
Continuous
 62
     7
370
     0
100
AcDbLine
 10
181.4189211638
 20
173.3421926442
 30
0.0
 11
181.3989210115
 21
173.3421926442
 31
0.0
  0
LINE
  5
43E
330
1F
100
AcDbEntity
  8
0
  6
Continuous
 62
     7
370
     0
100
AcDbLine
 10
181.4189211638
 20
173.5644285622
 30
0.0
 11
181.4189211638
 21
173.3421926442
 31
0.0
  0
LINE
  5
43F
330
1F
100
AcDbEntity
  8
0
  6
Continuous
 62
     7
370
     0
100
AcDbLine
 10
181.4189211638
 20
175.2232817057
 30
0.0
 11
181.3989210115
 21
175.2232817057
 31
0.0
  0
LINE
  5
440
330
1F
100
AcDbEntity
  8
0
  6
Continuous
 62
     7
370
     0
100
AcDbLine
 10
181.4189211638
 20
175.2232817057
 30
0.0
 11
181.4189211638
 21
175.0407275799
 31
0.0
  0
LINE
  5
441
330
1F
100
AcDbEntity
  8
0
  6
Continuous
 62
     7
370
     0
100
AcDbLine
 10
181.4189211638
 20
175.4296478871
 30
0.0
 11
181.3989210115
 21
175.4296478871
 31
0.0
  0
LINE
  5
442
330
1F
100
AcDbEntity
  8
0
  6
Continuous
 62
     7
370
     0
100
AcDbLine
 10
181.4189211638
 20
175.4296478871
 30
0.0
 11
181.4189211638
 21
175.2232817057
 31
0.0
  0
LINE
  5
443
330
1F
100
AcDbEntity
  8
0
  6
Continuous
 62
     7
370
     0
100
AcDbLine
 10
181.4189211638
 20
173.1675733868
 30
0.0
 11
181.3989210115
 21
173.1675733868
 31
0.0
  0
LINE
  5
444
330
1F
100
AcDbEntity
  8
0
  6
Continuous
 62
     7
370
     0
100
AcDbLine
 10
181.4189211638
 20
173.3421926442
 30
0.0
 11
181.4189211638
 21
173.1675733868
 31
0.0
  0
LINE
  5
445
330
1F
100
AcDbEntity
  8
0
  6
Continuous
 62
     7
370
     0
100
AcDbLine
 10
181.4189211638
 20
175.6836344543
 30
0.0
 11
181.3989210115
 21
175.6836344543
 31
0.0
  0
LINE
  5
446
330
1F
100
AcDbEntity
  8
0
  6
Continuous
 62
     7
370
     0
100
AcDbLine
 10
181.4189211638
 20
175.6836344543
 30
0.0
 11
181.4189211638
 21
175.4296478871
 31
0.0
  0
LINE
  5
447
330
1F
100
AcDbEntity
  8
0
  6
Continuous
 62
     7
370
     0
100
AcDbLine
 10
181.4189211638
 20
173.0326433721
 30
0.0
 11
181.3989210115
 21
173.0326433721
 31
0.0
  0
LINE
  5
448
330
1F
100
AcDbEntity
  8
0
  6
Continuous
 62
     7
370
     0
100
AcDbLine
 10
181.4189211638
 20
173.1675733868
 30
0.0
 11
181.4189211638
 21
173.0326433721
 31
0.0
  0
LINE
  5
449
330
1F
100
AcDbEntity
  8
0
  6
Continuous
 62
     7
370
     0
100
AcDbLine
 10
181.4189211638
 20
175.8661885801
 30
0.0
 11
181.3989210115
 21
175.8661885801
 31
0.0
  0
LINE
  5
44A
330
1F
100
AcDbEntity
  8
0
  6
Continuous
 62
     7
370
     0
100
AcDbLine
 10
181.4189211638
 20
175.8661885801
 30
0.0
 11
181.4189211638
 21
175.6836344543
 31
0.0
  0
LINE
  5
44B
330
1F
100
AcDbEntity
  8
0
  6
Continuous
 62
     7
370
     0
100
AcDbLine
 10
181.4189211638
 20
172.8897747639
 30
0.0
 11
181.3989210115
 21
172.8897747639
 31
0.0
  0
LINE
  5
44C
330
1F
100
AcDbEntity
  8
0
  6
Continuous
 62
     7
370
     0
100
AcDbLine
 10
181.4189211638
 20
173.0326433721
 30
0.0
 11
181.4189211638
 21
172.8897747639
 31
0.0
  0
LINE
  5
44D
330
1F
100
AcDbEntity
  8
0
  6
Continuous
 62
     7
370
     0
100
AcDbLine
 10
181.4189211638
 20
176.0487389806
 30
0.0
 11
181.3989210115
 21
176.0487389806
 31
0.0
  0
LINE
  5
44E
330
1F
100
AcDbEntity
  8
0
  6
Continuous
 62
     7
370
     0
100
AcDbLine
 10
181.4189211638
 20
176.0487389806
 30
0.0
 11
181.4189211638
 21
175.8661885801
 31
0.0
  0
LINE
  5
44F
330
1F
100
AcDbEntity
  8
0
  6
Continuous
 62
     7
370
     0
100
AcDbLine
 10
181.4189211638
 20
160.892166296
 30
0.0
 11
181.3989210115
 21
160.892166296
 31
0.0
  0
LINE
  5
450
330
1F
100
AcDbEntity
  8
0
  6
Continuous
 62
     7
370
     0
100
AcDbLine
 10
181.4189211638
 20
159.6490723136
 30
0.0
 11
181.3989210115
 21
159.6490723136
 31
0.0
  0
LINE
  5
451
330
1F
100
AcDbEntity
  8
0
  6
Continuous
 62
     7
370
     0
100
AcDbLine
 10
181.4189211638
 20
162.1204615626
 30
0.0
 11
181.3989210115
 21
162.1204615626
 31
0.0
  0
LINE
  5
452
330
1F
100
AcDbEntity
  8
0
  6
Continuous
 62
     7
370
     0
100
AcDbLine
 10
181.4189211638
 20
172.7865953985
 30
0.0
 11
181.3989210115
 21
172.7865953985
 31
0.0
  0
LINE
  5
453
330
1F
100
AcDbEntity
  8
0
  6
Continuous
 62
     7
370
     0
100
AcDbLine
 10
181.4189211638
 20
172.8897747639
 30
0.0
 11
181.4189211638
 21
172.7865953985
 31
0.0
  0
LINE
  5
454
330
1F
100
AcDbEntity
  8
0
  6
Continuous
 62
     7
370
     0
100
AcDbLine
 10
181.4189211638
 20
176.1836689952
 30
0.0
 11
181.3989210115
 21
176.1836689952
 31
0.0
  0
LINE
  5
455
330
1F
100
AcDbEntity
  8
0
  6
Continuous
 62
     7
370
     0
100
AcDbLine
 10
181.4189211638
 20
176.1836689952
 30
0.0
 11
181.4189211638
 21
176.0487389806
 31
0.0
  0
LINE
  5
456
330
1F
100
AcDbEntity
  8
0
  6
Continuous
 62
     7
370
     0
100
AcDbLine
 10
181.4189211638
 20
176.4095705989
 30
0.0
 11
181.3989210115
 21
176.4095705989
 31
0.0
  0
LINE
  5
457
330
1F
100
AcDbEntity
  8
0
  6
Continuous
 62
     7
370
     0
100
AcDbLine
 10
181.4189211638
 20
176.4095705989
 30
0.0
 11
181.4189211638
 21
176.1836689952
 31
0.0
  0
LINE
  5
458
330
1F
100
AcDbEntity
  8
0
  6
Continuous
 62
     7
370
     0
100
AcDbLine
 10
181.4189211638
 20
159.4429873917
 30
0.0
 11
181.3989210115
 21
159.4429873917
 31
0.0
  0
LINE
  5
459
330
1F
100
AcDbEntity
  8
0
  6
Continuous
 62
     7
370
     0
100
AcDbLine
 10
181.4189211638
 20
162.3276435825
 30
0.0
 11
181.3989210115
 21
162.3276435825
 31
0.0
  0
LINE
  5
45A
330
1F
100
AcDbEntity
  8
0
  6
Continuous
 62
     7
370
     0
100
AcDbLine
 10
181.4189211638
 20
172.6913509014
 30
0.0
 11
181.3989210115
 21
172.6913509014
 31
0.0
  0
LINE
  5
45B
330
1F
100
AcDbEntity
  8
0
  6
Continuous
 62
     7
370
     0
100
AcDbLine
 10
181.4189211638
 20
172.7865953985
 30
0.0
 11
181.4189211638
 21
172.6913509014
 31
0.0
  0
LINE
  5
45C
330
1F
100
AcDbEntity
  8
0
  6
Continuous
 62
     7
370
     0
100
AcDbLine
 10
181.4189211638
 20
176.5206885579
 30
0.0
 11
181.3989210115
 21
176.5206885579
 31
0.0
  0
LINE
  5
45D
330
1F
100
AcDbEntity
  8
0
  6
Continuous
 62
     7
370
     0
100
AcDbLine
 10
181.4189211638
 20
176.5206885579
 30
0.0
 11
181.4189211638
 21
176.4095705989
 31
0.0
  0
LINE
  5
45E
330
1F
100
AcDbEntity
  8
0
  6
Continuous
 62
     7
370
     0
100
AcDbLine
 10
181.4189211638
 20
176.6164434198
 30
0.0
 11
181.3989210115
 21
176.6164434198
 31
0.0
  0
LINE
  5
45F
330
1F
100
AcDbEntity
  8
0
  6
Continuous
 62
     7
370
     0
100
AcDbLine
 10
181.4189211638
 20
176.6164434198
 30
0.0
 11
181.4189211638
 21
176.5206885579
 31
0.0
  0
LINE
  5
460
330
1F
100
AcDbEntity
  8
0
  6
Continuous
 62
     7
370
     0
100
AcDbLine
 10
181.4189211638
 20
172.6278533283
 30
0.0
 11
181.3989210115
 21
172.6278533283
 31
0.0
  0
LINE
  5
461
330
1F
100
AcDbEntity
  8
0
  6
Continuous
 62
     7
370
     0
100
AcDbLine
 10
181.4189211638
 20
172.6913509014
 30
0.0
 11
181.4189211638
 21
172.6278533283
 31
0.0
  0
LINE
  5
462
330
1F
100
AcDbEntity
  8
0
  6
Continuous
 62
     7
370
     0
100
AcDbLine
 10
181.4189211638
 20
176.7816749457
 30
0.0
 11
181.3989210115
 21
176.7816749457
 31
0.0
  0
LINE
  5
463
330
1F
100
AcDbEntity
  8
0
  6
Continuous
 62
     7
370
     0
100
AcDbLine
 10
181.4189211638
 20
176.7816749457
 30
0.0
 11
181.4189211638
 21
176.6164434198
 31
0.0
  0
LINE
  5
464
330
1F
100
AcDbEntity
  8
0
  6
Continuous
 62
     7
370
     0
100
AcDbLine
 10
181.4189211638
 20
172.6040412727
 30
0.0
 11
181.3989210115
 21
172.6040412727
 31
0.0
  0
LINE
  5
465
330
1F
100
AcDbEntity
  8
0
  6
Continuous
 62
     7
370
     0
100
AcDbLine
 10
181.4189211638
 20
172.6278533283
 30
0.0
 11
181.4189211638
 21
172.6040412727
 31
0.0
  0
LINE
  5
466
330
1F
100
AcDbEntity
  8
0
  6
Continuous
 62
     7
370
     0
100
AcDbLine
 10
181.4189211638
 20
176.9880411271
 30
0.0
 11
181.3989210115
 21
176.9880411271
 31
0.0
  0
LINE
  5
467
330
1F
100
AcDbEntity
  8
0
  6
Continuous
 62
     7
370
     0
100
AcDbLine
 10
181.4189211638
 20
176.9880411271
 30
0.0
 11
181.4189211638
 21
176.7816749457
 31
0.0
  0
LINE
  5
468
330
1F
100
AcDbEntity
  8
0
  6
Continuous
 62
     7
370
     0
100
AcDbLine
 10
181.4189211638
 20
172.5881678108
 30
0.0
 11
181.3989210115
 21
172.5881678108
 31
0.0
  0
LINE
  5
469
330
1F
100
AcDbEntity
  8
0
  6
Continuous
 62
     7
370
     0
100
AcDbLine
 10
181.4189211638
 20
172.6040412727
 30
0.0
 11
181.4189211638
 21
172.5881678108
 31
0.0
  0
LINE
  5
46A
330
1F
100
AcDbEntity
  8
0
  6
Continuous
 62
     7
370
     0
100
AcDbLine
 10
181.4189211638
 20
177.1309097353
 30
0.0
 11
181.3989210115
 21
177.1309097353
 31
0.0
  0
LINE
  5
46B
330
1F
100
AcDbEntity
  8
0
  6
Continuous
 62
     7
370
     0
100
AcDbLine
 10
181.4189211638
 20
177.1309097353
 30
0.0
 11
181.4189211638
 21
176.9880411271
 31
0.0
  0
LINE
  5
46C
330
1F
100
AcDbEntity
  8
0
  6
Continuous
 62
     7
370
     0
100
AcDbLine
 10
181.4189211638
 20
177.2499662879
 30
0.0
 11
181.3989210115
 21
177.2499662879
 31
0.0
  0
LINE
  5
46D
330
1F
100
AcDbEntity
  8
0
  6
Continuous
 62
     7
370
     0
100
AcDbLine
 10
181.4189211638
 20
177.2499662879
 30
0.0
 11
181.4189211638
 21
177.1309097353
 31
0.0
  0
LINE
  5
46E
330
1F
100
AcDbEntity
  8
0
  6
Continuous
 62
     7
370
     0
100
AcDbLine
 10
181.4189211638
 20
177.361084247
 30
0.0
 11
181.3989210115
 21
177.361084247
 31
0.0
  0
LINE
  5
46F
330
1F
100
AcDbEntity
  8
0
  6
Continuous
 62
     7
370
     0
100
AcDbLine
 10
181.4189211638
 20
177.361084247
 30
0.0
 11
181.4189211638
 21
177.2499662879
 31
0.0
  0
LINE
  5
470
330
1F
100
AcDbEntity
  8
0
  6
Continuous
 62
     7
370
     0
100
AcDbLine
 10
181.4189211638
 20
177.4483938757
 30
0.0
 11
181.3989210115
 21
177.4483938757
 31
0.0
  0
LINE
  5
471
330
1F
100
AcDbEntity
  8
0
  6
Continuous
 62
     7
370
     0
100
AcDbLine
 10
181.4189211638
 20
177.4483938757
 30
0.0
 11
181.4189211638
 21
177.361084247
 31
0.0
  0
LINE
  5
472
330
1F
100
AcDbEntity
  8
0
  6
Continuous
 62
     7
370
     0
100
AcDbLine
 10
181.4189211638
 20
177.5436383727
 30
0.0
 11
181.3989210115
 21
177.5436383727
 31
0.0
  0
LINE
  5
473
330
1F
100
AcDbEntity
  8
0
  6
Continuous
 62
     7
370
     0
100
AcDbLine
 10
181.4189211638
 20
177.5436383727
 30
0.0
 11
181.4189211638
 21
177.4483938757
 31
0.0
  0
LINE
  5
474
330
1F
100
AcDbEntity
  8
0
  6
Continuous
 62
     7
370
     0
100
AcDbLine
 10
181.4189211638
 20
177.5991973523
 30
0.0
 11
181.3989210115
 21
177.5991973523
 31
0.0
  0
LINE
  5
475
330
1F
100
AcDbEntity
  8
0
  6
Continuous
 62
     7
370
     0
100
AcDbLine
 10
181.4189211638
 20
177.5991973523
 30
0.0
 11
181.4189211638
 21
177.5436383727
 31
0.0
  0
LINE
  5
476
330
1F
100
AcDbEntity
  8
0
  6
Continuous
 62
     7
370
     0
100
AcDbLine
 10
181.4189211638
 20
177.6388828698
 30
0.0
 11
181.3989210115
 21
177.6388828698
 31
0.0
  0
LINE
  5
477
330
1F
100
AcDbEntity
  8
0
  6
Continuous
 62
     7
370
     0
100
AcDbLine
 10
181.4189211638
 20
177.6388828698
 30
0.0
 11
181.4189211638
 21
177.5991973523
 31
0.0
  0
LINE
  5
478
330
1F
100
AcDbEntity
  8
0
  6
Continuous
 62
     7
370
     0
100
AcDbLine
 10
181.4189211638
 20
177.6468214634
 30
0.0
 11
181.3989210115
 21
177.6468214634
 31
0.0
  0
LINE
  5
479
330
1F
100
AcDbEntity
  8
0
  6
Continuous
 62
     7
370
     0
100
AcDbLine
 10
181.4189211638
 20
177.6468214634
 30
0.0
 11
181.4189211638
 21
177.6388828698
 31
0.0
  0
LINE
  5
47A
330
1F
100
AcDbEntity
  8
0
  6
Continuous
 62
     7
370
     0
100
AcDbLine
 10
181.4189211638
 20
160.8033740017
 30
0.0
 11
181.4189211638
 21
161.0549521688
 31
0.0
  0
LINE
  5
47B
330
1F
100
AcDbEntity
  8
0
  6
Continuous
 62
     7
370
     0
100
AcDbLine
 10
172.9489209303
 20
255.9827436748
 30
0.0
 11
169.1489208663
 21
255.9827436748
 31
0.0
  0
LINE
  5
47C
330
1F
100
AcDbEntity
  8
0
  6
Continuous
 62
     7
370
     0
100
AcDbLine
 10
172.9489209303
 20
252.7283822242
 30
0.0
 11
172.9489209303
 21
255.9827436748
 31
0.0
  0
LINE
  5
47D
330
1F
100
AcDbEntity
  8
0
  6
Continuous
 62
     7
370
     0
100
AcDbLine
 10
169.1489208663
 20
252.7283822242
 30
0.0
 11
169.1489208663
 21
255.9827436748
 31
0.0
  0
LINE
  5
47E
330
1F
100
AcDbEntity
  8
0
  6
Continuous
 62
     7
370
     0
100
AcDbLine
 10
169.1489208663
 20
257.3038731757
 30
0.0
 11
172.9489209303
 21
257.3038731757
 31
0.0
  0
LINE
  5
47F
330
1F
100
AcDbEntity
  8
0
  6
Continuous
 62
     7
370
     0
100
AcDbLine
 10
172.9489209303
 20
257.3038731757
 30
0.0
 11
172.9489209303
 21
255.9827436748
 31
0.0
  0
LINE
  5
480
330
1F
100
AcDbEntity
  8
0
  6
Continuous
 62
     7
370
     0
100
AcDbLine
 10
169.1489208663
 20
255.9827436748
 30
0.0
 11
169.1489208663
 21
257.3038731757
 31
0.0
  0
LINE
  5
481
330
1F
100
AcDbEntity
  8
0
  6
Continuous
 62
     7
370
     0
100
AcDbLine
 10
172.9489209303
 20
257.8318585697
 30
0.0
 11
169.1489208663
 21
257.8318585697
 31
0.0
  0
LINE
  5
482
330
1F
100
AcDbEntity
  8
0
  6
Continuous
 62
     7
370
     0
100
AcDbLine
 10
172.9489209303
 20
257.3038731757
 30
0.0
 11
172.9489209303
 21
257.8318585697
 31
0.0
  0
LINE
  5
483
330
1F
100
AcDbEntity
  8
0
  6
Continuous
 62
     7
370
     0
100
AcDbLine
 10
169.1489208663
 20
257.3038731757
 30
0.0
 11
169.1489208663
 21
257.8318585697
 31
0.0
  0
LINE
  5
484
330
1F
100
AcDbEntity
  8
0
  6
Continuous
 62
     7
370
     0
100
AcDbLine
 10
172.9489209303
 20
257.8404192868
 30
0.0
 11
172.9489209303
 21
257.8318585697
 31
0.0
  0
LINE
  5
485
330
1F
100
AcDbEntity
  8
0
  6
Continuous
 62
     7
370
     0
100
AcDbLine
 10
169.1489208663
 20
257.8318585697
 30
0.0
 11
169.1489208663
 21
257.8404192868
 31
0.0
  0
LINE
  5
486
330
1F
100
AcDbEntity
  8
0
  6
Continuous
 62
     8
370
     0
100
AcDbLine
 10
166.0489210101
 20
230.4682304207
 30
0.0
 11
170.6989209108
 21
230.4682304207
 31
0.0
  0
LINE
  5
487
330
1F
100
AcDbEntity
  8
0
  6
Continuous
 62
     8
370
     0
100
AcDbLine
 10
171.3989208858
 20
230.4682304207
 30
0.0
 11
176.0489207865
 21
230.4682304207
 31
0.0
  0
LINE
  5
488
330
1F
100
AcDbEntity
  8
0
  6
Continuous
 62
     8
370
     0
100
AcDbLine
 10
174.5489210063
 20
247.261220688
 30
0.0
 11
176.0489207865
 21
247.261220688
 31
0.0
  0
LINE
  5
489
330
1F
100
AcDbEntity
  8
0
  6
Continuous
 62
     8
370
     0
100
AcDbLine
 10
167.5489207903
 20
247.261220688
 30
0.0
 11
166.0489210101
 21
247.261220688
 31
0.0
  0
SPLINE
  5
48A
330
1F
100
AcDbEntity
  8
0
  6
Continuous
 62
     8
370
     0
100
AcDbSpline
210
0.0
220
0.0
230
1.0
 70
     8
 71
     3
 72
    12
 73
     8
 74
     0
 42
0.000000001
 43
0.00000001
 40
0.0
 40
0.0
 40
0.0
 40
0.0
 40
0.2378614143733123
 40
0.4757232025881849
 40
0.7135846677931458
 40
0.9514462857629419
 40
1.0
 40
1.0
 40
1.0
 40
1.0
 10
163.6543747210544
 20
177.5014829877263
 30
0.0
 10
163.6821172987227
 20
177.9851911939861
 30
0.0
 10
163.7376024976618
 20
178.9526083667392
 30
0.0
 10
164.1739709776133
 20
180.3526086673525
 30
0.0
 10
164.8700192793585
 20
181.6244805963148
 30
0.0
 10
165.5161350744415
 20
182.4936634377631
 30
0.0
 10
165.9716937666933
 20
182.8564344598101
 30
0.0
 10
166.0489210100513
 20
182.91793214711
 30
0.0
  0
SPLINE
  5
48B
330
1F
100
AcDbEntity
  8
0
  6
Continuous
 62
     8
370
     0
100
AcDbSpline
210
0.0
220
0.0
230
1.0
 70
     8
 71
     3
 72
    12
 73
     8
 74
     0
 42
0.000000001
 43
0.00000001
 40
0.0
 40
0.0
 40
0.0
 40
0.0
 40
0.0485537142370581
 40
0.2864153322068542
 40
0.5242767974118151
 40
0.7621385856266877
 40
0.9999999999999999
 40
0.9999999999999999
 40
0.9999999999999999
 40
0.9999999999999999
 10
176.0489207865339
 20
182.91793214711
 30
0.0
 10
176.1261480298919
 20
182.8564344598101
 30
0.0
 10
176.5817067221438
 20
182.4936634377631
 30
0.0
 10
177.2278225172267
 20
181.6244805963148
 30
0.0
 10
177.9238708189719
 20
180.3526086673526
 30
0.0
 10
178.3602392989234
 20
178.9526083667392
 30
0.0
 10
178.4157244978625
 20
177.9851911939861
 30
0.0
 10
178.4434670755308
 20
177.5014829877263
 30
0.0
  0
SPLINE
  5
48C
330
1F
100
AcDbEntity
  8
0
  6
Continuous
 62
     8
370
     0
100
AcDbSpline
210
0.0
220
0.0
230
1.0
 70
     8
 71
     3
 72
    12
 73
     8
 74
     0
 42
0.000000001
 43
0.00000001
 40
0.0
 40
0.0
 40
0.0
 40
0.0
 40
0.2228813392827209
 40
0.4457625533077534
 40
0.6686437488027895
 40
0.8915247621439378
 40
0.9999999999999999
 40
0.9999999999999999
 40
0.9999999999999999
 40
0.9999999999999999
 10
163.1544514732104
 20
177.5014829877263
 30
0.0
 10
163.1839752532472
 20
178.0179965052564
 30
0.0
 10
163.2430227967287
 20
179.0510232500399
 30
0.0
 10
163.7103035817492
 20
180.5441334554876
 30
0.0
 10
164.44805313015
 20
181.9078425591534
 30
0.0
 10
165.2428705387063
 20
182.9366291192653
 30
0.0
 10
165.8501255195526
 20
183.4074211375558
 30
0.0
 10
166.0489210100513
 20
183.5615431013947
 30
0.0
  0
SPLINE
  5
48D
330
1F
100
AcDbEntity
  8
0
  6
Continuous
 62
     8
370
     0
100
AcDbSpline
210
0.0
220
0.0
230
1.0
 70
     8
 71
     3
 72
    12
 73
     8
 74
     0
 42
0.000000001
 43
0.00000001
 40
0.0
 40
0.0
 40
0.0
 40
0.0
 40
0.1084752378560621
 40
0.3313562511972103
 40
0.5542374466922465
 40
0.7771186607172791
 40
0.9999999999999999
 40
0.9999999999999999
 40
0.9999999999999999
 40
0.9999999999999999
 10
176.0489207865339
 20
183.5615431013947
 30
0.0
 10
176.2477162770327
 20
183.4074211375558
 30
0.0
 10
176.8549712578788
 20
182.9366291192653
 30
0.0
 10
177.6497886664352
 20
181.9078425591534
 30
0.0
 10
178.387538214836
 20
180.5441334554877
 30
0.0
 10
178.8548189998565
 20
179.0510232500399
 30
0.0
 10
178.913866543338
 20
178.0179965052564
 30
0.0
 10
178.9433903233748
 20
177.5014829877263
 30
0.0
  0
ARC
  5
48E
330
1F
100
AcDbEntity
  8
0
  6
Continuous
 62
     8
370
     0
100
AcDbCircle
 10
171.0489208983
 20
207.9341127952
 30
0.0
 40
3.500287481859186
100
AcDbArc
 50
180.7341965663
 51
359.2658034337
  0
LINE
  5
48F
330
1F
100
AcDbEntity
  8
0
  6
Continuous
 62
     8
370
     0
100
AcDbLine
 10
166.2521169694
 20
235.3677098695
 30
0.0
 11
166.2521169694
 21
240.1762177292
 31
0.0
  0
LINE
  5
490
330
1F
100
AcDbEntity
  8
0
  6
Continuous
 62
     8
370
     0
100
AcDbLine
 10
166.4439251819
 20
235.2719624582
 30
0.0
 11
166.4439251819
 21
240.2719651404
 31
0.0
  0
LINE
  5
491
330
1F
100
AcDbEntity
  8
0
  6
Continuous
 62
     8
370
     0
100
AcDbLine
 10
175.8457248272
 20
240.1762177292
 30
0.0
 11
175.8457248272
 21
235.3677098695
 31
0.0
  0
LINE
  5
492
330
1F
100
AcDbEntity
  8
0
  6
Continuous
 62
     8
370
     0
100
AcDbLine
 10
175.6539166147
 20
240.2719651404
 30
0.0
 11
175.6539166147
 21
235.2719624582
 31
0.0
  0
DIMENSION
  5
493
330
1F
100
AcDbEntity
  8
0
  6
Continuous
 62
     7
370
     0
100
AcDbDimension
  2
_D_12
 10
181.2989208983
 20
92.4753721251
 30
0.0
 11
171.0489208983
 21
92.4753721251
 31
0.0
 70
   160
  1
<>
 71
     2
 42
-1.0
  3
SLDDIMSTYLE0
100
AcDbAlignedDimension
 13
160.7989208983
 23
146.6063558788
 33
0.0
 14
181.2989208983
 24
146.6063558788
 34
0.0
100
AcDbRotatedDimension
  0
DIMENSION
  5
49D
330
1F
100
AcDbEntity
  8
0
  6
Continuous
 62
     7
370
     0
100
AcDbDimension
  2
_D_13
 10
176.0489208983
 20
267.9930816501
 30
0.0
 11
171.0489208983
 21
267.9930816501
 31
0.0
 70
   160
  1
<>
 71
     2
 42
-1.0
  3
SLDDIMSTYLE1
100
AcDbAlignedDimension
 13
166.0489208983
 23
258.4911068078
 33
0.0
 14
176.0489208983
 24
258.4911068078
 34
0.0
 50
0.0
100
AcDbRotatedDimension
  0
INSERT
  5
4AF
330
1F
100
AcDbEntity
  8
0
  6
Continuous
 62
     7
370
     0
100
AcDbBlockReference
  2
SW_NOTE_1
 10
159.1247131048
 20
223.9297824698
 30
0.0
  0
LEADER
  5
4B0
330
1F
100
AcDbEntity
  8
0
  6
Continuous
 62
     7
370
     0
100
AcDbLeader
  3
SLDDIMSTYLE4
 76
     2
 10
171.0489208983
 20
207.6186595054
 30
0.0
 10
159.1247131048
 20
223.9297824698
 30
0.0
  0
ENDSEC
  0
SECTION
  2
OBJECTS
  0
DICTIONARY
  5
C
330
0
100
AcDbDictionary
281
     1
  3
ACAD_GROUP
350
D
  3
ACAD_LAYOUT
350
1A
  3
ACAD_MLINESTYLE
350
17
  3
ACAD_PLOTSETTINGS
350
19
  3
ACAD_PLOTSTYLENAME
350
E
  3
ACAD_SCALELIST
350
47
  0
DICTIONARY
  5
D
102
{ACAD_REACTORS
330
C
102
}
330
C
100
AcDbDictionary
281
     1
  0
DICTIONARY
  5
1A
102
{ACAD_REACTORS
330
C
102
}
330
C
100
AcDbDictionary
281
     1
  3
Layout1
350
1E
  3
Layout2
350
26
  3
Model
350
22
  0
DICTIONARY
  5
17
102
{ACAD_REACTORS
330
C
102
}
330
C
100
AcDbDictionary
281
     1
  3
Standard
350
18
  0
DICTIONARY
  5
19
102
{ACAD_REACTORS
330
C
102
}
330
C
100
AcDbDictionary
281
     1
  0
ACDBDICTIONARYWDFLT
  5
E
102
{ACAD_REACTORS
330
C
102
}
330
C
100
AcDbDictionary
281
     1
  3
Normal
350
F
100
AcDbDictionaryWithDefault
340
F
  0
DICTIONARY
  5
47
102
{ACAD_REACTORS
330
C
102
}
330
C
100
AcDbDictionary
281
     1
  3
A0
350
48
  3
A1
350
49
  3
A2
350
4A
  3
A3
350
4B
  3
A4
350
4C
  3
A5
350
4D
  3
A6
350
4E
  3
A7
350
4F
  3
A8
350
50
  3
A9
350
51
  3
B0
350
52
  3
B1
350
53
  3
B2
350
54
  3
B3
350
55
  3
B4
350
56
  3
B5
350
57
  3
B6
350
58
  3
B7
350
59
  3
B8
350
5A
  3
B9
350
5B
  3
C0
350
5C
  3
C1
350
5D
  3
C2
350
5E
  3
C3
350
5F
  3
C4
350
60
  3
C5
350
61
  3
C6
350
62
  3
C7
350
63
  3
C8
350
64
  3
C9
350
65
  3
D0
350
66
  3
D1
350
67
  3
D2
350
68
  0
LAYOUT
  5
1E
102
{ACAD_REACTORS
330
1A
102
}
330
1A
100
AcDbPlotSettings
  1

  2
none_device
  4

  6

 40
0.0
 41
0.0
 42
0.0
 43
0.0
 44
0.0
 45
0.0
 46
0.0
 47
0.0
 48
0.0
 49
0.0
140
0.0
141
0.0
142
1.0
143
1.0
 70
   688
 72
     1
 73
     0
 74
     5
  7

 75
    16
147
1.0
148
0.0
149
0.0
100
AcDbLayout
  1
Layout1
 70
     1
 71
     1
 10
0.0
 20
0.0
 11
420.0
 21
297.0
 12
0.0
 22
0.0
 32
0.0
 14
1.0000000000E+20
 24
1.0000000000E+20
 34
1.0000000000E+20
 15
-1.0000000000E+20
 25
-1.0000000000E+20
 35
-1.0000000000E+20
146
0.0
 13
0.0
 23
0.0
 33
0.0
 16
1.0
 26
0.0
 36
0.0
 17
0.0
 27
1.0
 37
0.0
 76
     0
330
1B
  0
LAYOUT
  5
26
102
{ACAD_REACTORS
330
1A
102
}
330
1A
100
AcDbPlotSettings
  1

  2
none_device
  4

  6

 40
0.0
 41
0.0
 42
0.0
 43
0.0
 44
0.0
 45
0.0
 46
0.0
 47
0.0
 48
0.0
 49
0.0
140
0.0
141
0.0
142
1.0
143
1.0
 70
   688
 72
     1
 73
     0
 74
     5
  7

 75
    16
147
1.0
148
0.0
149
0.0
100
AcDbLayout
  1
Layout2
 70
     1
 71
     2
 10
0.0
 20
0.0
 11
0.0
 21
0.0
 12
0.0
 22
0.0
 32
0.0
 14
0.0
 24
0.0
 34
0.0
 15
0.0
 25
0.0
 35
0.0
146
0.0
 13
0.0
 23
0.0
 33
0.0
 16
1.0
 26
0.0
 36
0.0
 17
0.0
 27
1.0
 37
0.0
 76
     0
330
23
  0
LAYOUT
  5
22
102
{ACAD_REACTORS
330
1A
102
}
330
1A
100
AcDbPlotSettings
  1

  2
none_device
  4
Letter_(8.50_x_11.00_Inches)
  6

 40
6.35
 41
6.35
 42
6.35000508
 43
6.35000508
 44
215.9
 45
279.4
 46
0.0
 47
0.0
 48
0.0
 49
0.0
140
0.0
141
0.0
142
1.0
143
1.0
 70
  1712
 72
     1
 73
     0
 74
     0
  7

 75
     0
147
1.0
148
0.0
149
0.0
100
AcDbLayout
  1
Model
 70
     1
 71
     0
 10
0.0
 20
0.0
 11
210.0
 21
297.0
 12
0.0
 22
0.0
 32
0.0
 14
0.0
 24
0.0
 34
0.0
 15
210.0
 25
297.0
 35
0.0
146
0.0
 13
0.0
 23
0.0
 33
0.0
 16
1.0
 26
0.0
 36
0.0
 17
0.0
 27
1.0
 37
0.0
 76
     0
330
1F
331
29
  0
MLINESTYLE
  5
18
102
{ACAD_REACTORS
330
17
102
}
330
17
100
AcDbMlineStyle
  2
Standard
 70
     0
  3

 62
   256
 51
90.0
 52
90.0
 71
     2
 49
0.5
 62
   256
  6
BYLAYER
 49
-0.5
 62
   256
  6
BYLAYER
  0
ACDBPLACEHOLDER
  5
F
102
{ACAD_REACTORS
330
E
102
}
330
E
  0
SCALE
  5
48
102
{ACAD_REACTORS
330
47
102
}
330
47
100
AcDbScale
 70
     0
300
1:1
140
1.0
141
1.0
290
     1
  0
SCALE
  5
49
102
{ACAD_REACTORS
330
47
102
}
330
47
100
AcDbScale
 70
     0
300
1:2
140
1.0
141
2.0
290
     0
  0
SCALE
  5
4A
102
{ACAD_REACTORS
330
47
102
}
330
47
100
AcDbScale
 70
     0
300
1:4
140
1.0
141
4.0
290
     0
  0
SCALE
  5
4B
102
{ACAD_REACTORS
330
47
102
}
330
47
100
AcDbScale
 70
     0
300
1:5
140
1.0
141
5.0
290
     0
  0
SCALE
  5
4C
102
{ACAD_REACTORS
330
47
102
}
330
47
100
AcDbScale
 70
     0
300
1:8
140
1.0
141
8.0
290
     0
  0
SCALE
  5
4D
102
{ACAD_REACTORS
330
47
102
}
330
47
100
AcDbScale
 70
     0
300
1:10
140
1.0
141
10.0
290
     0
  0
SCALE
  5
4E
102
{ACAD_REACTORS
330
47
102
}
330
47
100
AcDbScale
 70
     0
300
1:16
140
1.0
141
16.0
290
     0
  0
SCALE
  5
4F
102
{ACAD_REACTORS
330
47
102
}
330
47
100
AcDbScale
 70
     0
300
1:20
140
1.0
141
20.0
290
     0
  0
SCALE
  5
50
102
{ACAD_REACTORS
330
47
102
}
330
47
100
AcDbScale
 70
     0
300
1:30
140
1.0
141
30.0
290
     0
  0
SCALE
  5
51
102
{ACAD_REACTORS
330
47
102
}
330
47
100
AcDbScale
 70
     0
300
1:40
140
1.0
141
40.0
290
     0
  0
SCALE
  5
52
102
{ACAD_REACTORS
330
47
102
}
330
47
100
AcDbScale
 70
     0
300
1:50
140
1.0
141
50.0
290
     0
  0
SCALE
  5
53
102
{ACAD_REACTORS
330
47
102
}
330
47
100
AcDbScale
 70
     0
300
1:100
140
1.0
141
100.0
290
     0
  0
SCALE
  5
54
102
{ACAD_REACTORS
330
47
102
}
330
47
100
AcDbScale
 70
     0
300
2:1
140
2.0
141
1.0
290
     0
  0
SCALE
  5
55
102
{ACAD_REACTORS
330
47
102
}
330
47
100
AcDbScale
 70
     0
300
4:1
140
4.0
141
1.0
290
     0
  0
SCALE
  5
56
102
{ACAD_REACTORS
330
47
102
}
330
47
100
AcDbScale
 70
     0
300
8:1
140
8.0
141
1.0
290
     0
  0
SCALE
  5
57
102
{ACAD_REACTORS
330
47
102
}
330
47
100
AcDbScale
 70
     0
300
10:1
140
10.0
141
1.0
290
     0
  0
SCALE
  5
58
102
{ACAD_REACTORS
330
47
102
}
330
47
100
AcDbScale
 70
     0
300
100:1
140
100.0
141
1.0
290
     0
  0
SCALE
  5
59
102
{ACAD_REACTORS
330
47
102
}
330
47
100
AcDbScale
 70
     0
300
1/128" = 1'-0"
140
0.0078125
141
12.0
290
     0
  0
SCALE
  5
5A
102
{ACAD_REACTORS
330
47
102
}
330
47
100
AcDbScale
 70
     0
300
1/64" = 1'-0"
140
0.015625
141
12.0
290
     0
  0
SCALE
  5
5B
102
{ACAD_REACTORS
330
47
102
}
330
47
100
AcDbScale
 70
     0
300
1/32" = 1'-0"
140
0.03125
141
12.0
290
     0
  0
SCALE
  5
5C
102
{ACAD_REACTORS
330
47
102
}
330
47
100
AcDbScale
 70
     0
300
1/16" = 1'-0"
140
0.0625
141
12.0
290
     0
  0
SCALE
  5
5D
102
{ACAD_REACTORS
330
47
102
}
330
47
100
AcDbScale
 70
     0
300
3/32" = 1'-0"
140
0.09375
141
12.0
290
     0
  0
SCALE
  5
5E
102
{ACAD_REACTORS
330
47
102
}
330
47
100
AcDbScale
 70
     0
300
1/8" = 1'-0"
140
0.125
141
12.0
290
     0
  0
SCALE
  5
5F
102
{ACAD_REACTORS
330
47
102
}
330
47
100
AcDbScale
 70
     0
300
3/16" = 1'-0"
140
0.1875
141
12.0
290
     0
  0
SCALE
  5
60
102
{ACAD_REACTORS
330
47
102
}
330
47
100
AcDbScale
 70
     0
300
1/4" = 1'-0"
140
0.25
141
12.0
290
     0
  0
SCALE
  5
61
102
{ACAD_REACTORS
330
47
102
}
330
47
100
AcDbScale
 70
     0
300
3/8" = 1'-0"
140
0.375
141
12.0
290
     0
  0
SCALE
  5
62
102
{ACAD_REACTORS
330
47
102
}
330
47
100
AcDbScale
 70
     0
300
1/2" = 1'-0"
140
0.5
141
12.0
290
     0
  0
SCALE
  5
63
102
{ACAD_REACTORS
330
47
102
}
330
47
100
AcDbScale
 70
     0
300
3/4" = 1'-0"
140
0.75
141
12.0
290
     0
  0
SCALE
  5
64
102
{ACAD_REACTORS
330
47
102
}
330
47
100
AcDbScale
 70
     0
300
1" = 1'-0"
140
1.0
141
12.0
290
     0
  0
SCALE
  5
65
102
{ACAD_REACTORS
330
47
102
}
330
47
100
AcDbScale
 70
     0
300
1-1/2" = 1'-0"
140
1.5
141
12.0
290
     0
  0
SCALE
  5
66
102
{ACAD_REACTORS
330
47
102
}
330
47
100
AcDbScale
 70
     0
300
3" = 1'-0"
140
3.0
141
12.0
290
     0
  0
SCALE
  5
67
102
{ACAD_REACTORS
330
47
102
}
330
47
100
AcDbScale
 70
     0
300
6" = 1'-0"
140
6.0
141
12.0
290
     0
  0
SCALE
  5
68
102
{ACAD_REACTORS
330
47
102
}
330
47
100
AcDbScale
 70
     0
300
1'-0" = 1'-0"
140
12.0
141
12.0
290
     0
  0
ENDSEC
  0
EOF
