  0
SECTION
  2
HEADER
  9
$ACADVER
  1
AC1015
  9
$ACADMAINTVER
 70
     6
  9
$DWGCODEPAGE
  3
DOS932
  9
$INSBASE
 10
0.0
 20
0.0
 30
0.0
  9
$EXTMIN
 10
0.0
 20
0.0
 30
0.0
  9
$EXTMAX
 10
210.0
 20
297.0
 30
0.0
  9
$LIMMIN
 10
0.0
 20
0.0
  9
$LIMMAX
 10
210.0
 20
297.0
  9
$ORTHOMODE
 70
     0
  9
$REGENMODE
 70
     1
  9
$FILLMODE
 70
     1
  9
$QTEXTMODE
 70
     0
  9
$MIRRTEXT
 70
     1
  9
$LTSCALE
 40
1.0
  9
$ATTMODE
 70
     1
  9
$TEXTSIZE
 40
3.5
  9
$TRACEWID
 40
1.0
  9
$TEXTSTYLE
  7
Standard
  9
$CLAYER
  8
0
  9
$CELTYPE
  6
ByLayer
  9
$CECOLOR
 62
   256
  9
$CELTSCALE
 40
1.0
  9
$DISPSILH
 70
     0
  9
$DIMSCALE
 40
1.0
  9
$DIMASZ
 40
3.0
  9
$DIMEXO
 40
1.0
  9
$DIMDLI
 40
3.75
  9
$DIMRND
 40
0.0
  9
$DIMDLE
 40
0.0
  9
$DIMEXE
 40
1.0
  9
$DIMTP
 40
0.0
  9
$DIMTM
 40
0.0
  9
$DIMTXT
 40
3.5
  9
$DIMCEN
 40
2.5
  9
$DIMTSZ
 40
0.0
  9
$DIMTOL
 70
     0
  9
$DIMLIM
 70
     0
  9
$DIMTIH
 70
     1
  9
$DIMTOH
 70
     1
  9
$DIMSE1
 70
     0
  9
$DIMSE2
 70
     0
  9
$DIMTAD
 70
     1
  9
$DIMZIN
 70
     0
  9
$DIMBLK
  1

  9
$DIMASO
 70
     1
  9
$DIMSHO
 70
     1
  9
$DIMPOST
  1

  9
$DIMAPOST
  1

  9
$DIMALT
 70
     0
  9
$DIMALTD
 70
     3
  9
$DIMALTF
 40
0.0393700787
  9
$DIMLFAC
 40
1.0
  9
$DIMTOFL
 70
     1
  9
$DIMTVP
 40
0.0
  9
$DIMTIX
 70
     0
  9
$DIMSOXD
 70
     0
  9
$DIMSAH
 70
     0
  9
$DIMBLK1
  1

  9
$DIMBLK2
  1

  9
$DIMSTYLE
  2
ISO-25
  9
$DIMCLRD
 70
     0
  9
$DIMCLRE
 70
     0
  9
$DIMCLRT
 70
     0
  9
$DIMTFAC
 40
1.0
  9
$DIMGAP
 40
1.524
  9
$DIMJUST
 70
     0
  9
$DIMSD1
 70
     0
  9
$DIMSD2
 70
     0
  9
$DIMTOLJ
 70
     0
  9
$DIMTZIN
 70
     0
  9
$DIMALTZ
 70
     0
  9
$DIMALTTZ
 70
     0
  9
$DIMUPT
 70
     0
  9
$DIMDEC
 70
     1
  9
$DIMTDEC
 70
     3
  9
$DIMALTU
 70
     2
  9
$DIMALTTD
 70
     3
  9
$DIMTXSTY
  7
Standard
  9
$DIMAUNIT
 70
     0
  9
$DIMADEC
 70
     2
  9
$DIMALTRND
 40
0.0
  9
$DIMAZIN
 70
     0
  9
$DIMDSEP
 70
    44
  9
$DIMATFIT
 70
     3
  9
$DIMFRAC
 70
     0
  9
$DIMLDRBLK
  1

  9
$DIMLUNIT
 70
     2
  9
$DIMLWD
 70
    -2
  9
$DIMLWE
 70
    -2
  9
$DIMTMOVE
 70
     0
  9
$LUNITS
 70
     2
  9
$LUPREC
 70
     1
  9
$SKETCHINC
 40
1.0
  9
$FILLETRAD
 40
10.0
  9
$AUNITS
 70
     0
  9
$AUPREC
 70
     2
  9
$MENU
  1
.
  9
$ELEVATION
 40
0.0
  9
$PELEVATION
 40
0.0
  9
$THICKNESS
 40
0.0
  9
$LIMCHECK
 70
     0
  9
$CHAMFERA
 40
0.0
  9
$CHAMFERB
 40
0.0
  9
$CHAMFERC
 40
0.0
  9
$CHAMFERD
 40
0.0
  9
$SKPOLY
 70
     0
  9
$TDCREATE
 40
2457785.640544826
  9
$TDUCREATE
 40
2457785.265544826
  9
$TDUPDATE
 40
2457785.640546458
  9
$TDUUPDATE
 40
2457785.265546458
  9
$TDINDWG
 40
0.0000000116
  9
$TDUSRTIMER
 40
0.0000000116
  9
$USRTIMER
 70
     1
  9
$ANGBASE
 50
0.0
  9
$ANGDIR
 70
     0
  9
$PDMODE
 70
     0
  9
$PDSIZE
 40
-1.0
  9
$PLINEWID
 40
0.0
  9
$SPLFRAME
 70
     0
  9
$SPLINETYPE
 70
     6
  9
$SPLINESEGS
 70
     8
  9
$HANDSEED
  5
36E
  9
$SURFTAB1
 70
     6
  9
$SURFTAB2
 70
     6
  9
$SURFTYPE
 70
     6
  9
$SURFU
 70
     6
  9
$SURFV
 70
     6
  9
$UCSBASE
  2

  9
$UCSNAME
  2

  9
$UCSORG
 10
0.0
 20
0.0
 30
0.0
  9
$UCSXDIR
 10
1.0
 20
0.0
 30
0.0
  9
$UCSYDIR
 10
0.0
 20
1.0
 30
0.0
  9
$UCSORTHOREF
  2

  9
$UCSORTHOVIEW
 70
     0
  9
$UCSORGTOP
 10
0.0
 20
0.0
 30
0.0
  9
$UCSORGBOTTOM
 10
0.0
 20
0.0
 30
0.0
  9
$UCSORGLEFT
 10
0.0
 20
0.0
 30
0.0
  9
$UCSORGRIGHT
 10
0.0
 20
0.0
 30
0.0
  9
$UCSORGFRONT
 10
0.0
 20
0.0
 30
0.0
  9
$UCSORGBACK
 10
0.0
 20
0.0
 30
0.0
  9
$PUCSBASE
  2

  9
$PUCSNAME
  2

  9
$PUCSORG
 10
0.0
 20
0.0
 30
0.0
  9
$PUCSXDIR
 10
1.0
 20
0.0
 30
0.0
  9
$PUCSYDIR
 10
0.0
 20
1.0
 30
0.0
  9
$PUCSORTHOREF
  2

  9
$PUCSORTHOVIEW
 70
     0
  9
$PUCSORGTOP
 10
0.0
 20
0.0
 30
0.0
  9
$PUCSORGBOTTOM
 10
0.0
 20
0.0
 30
0.0
  9
$PUCSORGLEFT
 10
0.0
 20
0.0
 30
0.0
  9
$PUCSORGRIGHT
 10
0.0
 20
0.0
 30
0.0
  9
$PUCSORGFRONT
 10
0.0
 20
0.0
 30
0.0
  9
$PUCSORGBACK
 10
0.0
 20
0.0
 30
0.0
  9
$USERI1
 70
     0
  9
$USERI2
 70
     0
  9
$USERI3
 70
     0
  9
$USERI4
 70
     0
  9
$USERI5
 70
     0
  9
$USERR1
 40
0.0
  9
$USERR2
 40
0.0
  9
$USERR3
 40
0.0
  9
$USERR4
 40
0.0
  9
$USERR5
 40
0.0
  9
$WORLDVIEW
 70
     1
  9
$SHADEDGE
 70
     3
  9
$SHADEDIF
 70
    70
  9
$TILEMODE
 70
     1
  9
$MAXACTVP
 70
    64
  9
$PINSBASE
 10
0.0
 20
0.0
 30
0.0
  9
$PLIMCHECK
 70
     0
  9
$PEXTMIN
 10
1.0000000000E+20
 20
1.0000000000E+20
 30
1.0000000000E+20
  9
$PEXTMAX
 10
-1.0000000000E+20
 20
-1.0000000000E+20
 30
-1.0000000000E+20
  9
$PLIMMIN
 10
0.0
 20
0.0
  9
$PLIMMAX
 10
420.0
 20
297.0
  9
$UNITMODE
 70
     0
  9
$VISRETAIN
 70
     1
  9
$PLINEGEN
 70
     0
  9
$PSLTSCALE
 70
     1
  9
$TREEDEPTH
 70
  3020
  9
$CMLSTYLE
  2
Standard
  9
$CMLJUST
 70
     0
  9
$CMLSCALE
 40
20.0
  9
$PROXYGRAPHICS
 70
     1
  9
$MEASUREMENT
 70
     1
  9
$CELWEIGHT
370
    -1
  9
$ENDCAPS
280
     0
  9
$JOINSTYLE
280
     0
  9
$LWDISPLAY
290
     1
  9
$INSUNITS
 70
     4
  9
$HYPERLINKBASE
  1

  9
$STYLESHEET
  1

  9
$XEDIT
290
     1
  9
$CEPSNTYPE
380
     0
  9
$PSTYLEMODE
290
     1
  9
$FINGERPRINTGUID
  2
{77CA8A83-CB7D-4BC7-A545-BCFAFECAB21F}
  9
$VERSIONGUID
  2
{FAEB1C32-E019-11D5-929B-00C0DF256EC4}
  9
$EXTNAMES
290
     1
  9
$PSVPSCALE
 40
0.0
  9
$OLESTARTUP
290
     0
  0
ENDSEC
  0
SECTION
  2
CLASSES
  0
CLASS
  1
ACDBDICTIONARYWDFLT
  2
AcDbDictionaryWithDefault
  3
ObjectDBX Classes
 90
        0
280
     0
281
     0
  0
CLASS
  1
VISUALSTYLE
  2
AcDbVisualStyle
  3
ObjectDBX Classes
 90
     4095
280
     0
281
     0
  0
CLASS
  1
MATERIAL
  2
AcDbMaterial
  3
ObjectDBX Classes
 90
     1153
280
     0
281
     0
  0
CLASS
  1
SCALE
  2
AcDbScale
  3
ObjectDBX Classes
 90
     1153
280
     0
281
     0
  0
CLASS
  1
TABLESTYLE
  2
AcDbTableStyle
  3
ObjectDBX Classes
 90
     4095
280
     0
281
     0
  0
CLASS
  1
MLEADERSTYLE
  2
AcDbMLeaderStyle
  3
ACDB_MLEADERSTYLE_CLASS
 90
     4095
280
     0
281
     0
  0
CLASS
  1
SUN
  2
AcDbSun
  3
SCENEOE
 90
     1153
280
     0
281
     0
  0
CLASS
  1
ACDBPLACEHOLDER
  2
AcDbPlaceHolder
  3
ObjectDBX Classes
 90
        0
280
     0
281
     0
  0
CLASS
  1
LAYOUT
  2
AcDbLayout
  3
ObjectDBX Classes
 90
        0
280
     0
281
     0
  0
ENDSEC
  0
SECTION
  2
TABLES
  0
TABLE
  2
VPORT
  5
8
330
0
100
AcDbSymbolTable
 70
     1
  0
VPORT
  5
29
330
8
100
AcDbSymbolTableRecord
100
AcDbViewportTableRecord
  2
*Active
 70
     0
 10
0.0
 20
0.0
 11
1.0
 21
1.0
 12
105.0
 22
148.5
 13
0.0
 23
0.0
 14
10.0
 24
10.0
 15
10.0
 25
10.0
 16
0.0
 26
0.0
 36
1.0
 17
0.0
 27
0.0
 37
0.0
 40
297.0
 41
0.7070707071
 42
50.0
 43
0.0
 44
0.0
 50
0.0
 51
0.0
 71
     0
 72
  2000
 73
     1
 74
     3
 75
     0
 76
     0
 77
     0
 78
     0
281
     0
 65
     1
110
0.0
120
0.0
130
0.0
111
1.0
121
0.0
131
0.0
112
0.0
122
1.0
132
0.0
 79
     0
146
0.0
  0
ENDTAB
  0
TABLE
  2
LTYPE
  5
5
330
0
100
AcDbSymbolTable
 70
     6
  0
LTYPE
  5
14
330
5
100
AcDbSymbolTableRecord
100
AcDbLinetypeTableRecord
  2
ByBlock
 70
     0
  3

 72
    65
 73
     0
 40
0.0
  0
LTYPE
  5
15
330
5
100
AcDbSymbolTableRecord
100
AcDbLinetypeTableRecord
  2
ByLayer
 70
     0
  3

 72
    65
 73
     0
 40
0.0
  0
LTYPE
  5
16
330
5
100
AcDbSymbolTableRecord
100
AcDbLinetypeTableRecord
  2
Continuous
 70
     0
  3
Solid line
 72
    65
 73
     0
 40
0.0
  0
LTYPE
  5
6E
330
5
100
AcDbSymbolTableRecord
100
AcDbLinetypeTableRecord
  2
HIDDEN
 70
     0
  3
Hidden __ __ __ __ __ __ __ __ __ __ __ __ __ __
 72
    65
 73
     2
 40
1.905
 49
1.27
 74
     0
 49
-0.635
 74
     0
  0
LTYPE
  5
6F
330
5
100
AcDbSymbolTableRecord
100
AcDbLinetypeTableRecord
  2
PHANTOM
 70
     0
  3
Phantom ______  __  __  ______  __  __  ______
 72
    65
 73
     6
 40
12.7
 49
6.35
 74
     0
 49
-1.27
 74
     0
 49
1.27
 74
     0
 49
-1.27
 74
     0
 49
1.27
 74
     0
 49
-1.27
 74
     0
  0
LTYPE
  5
70
330
5
100
AcDbSymbolTableRecord
100
AcDbLinetypeTableRecord
  2
CENTER
 70
     0
  3
Center ____ _ ____ _ ____ _ ____ _ ____ _ ____
 72
    65
 73
     4
 40
10.16
 49
6.35
 74
     0
 49
-1.27
 74
     0
 49
1.27
 74
     0
 49
-1.27
 74
     0
  0
LTYPE
  5
71
330
5
100
AcDbSymbolTableRecord
100
AcDbLinetypeTableRecord
  2
CENTERX2
 70
     0
  3
Center (2x) ________  __  ________  __  _____
 72
    65
 73
     4
 40
20.32
 49
12.7
 74
     0
 49
-2.54
 74
     0
 49
2.54
 74
     0
 49
-2.54
 74
     0
  0
LTYPE
  5
72
330
5
100
AcDbSymbolTableRecord
100
AcDbLinetypeTableRecord
  2
DOT2
 70
     0
  3
Dot (.5x) ........................................
 72
    65
 73
     2
 40
0.635
 49
0.0
 74
     0
 49
-0.635
 74
     0
  0
ENDTAB
  0
TABLE
  2
LAYER
  5
2
330
0
100
AcDbSymbolTable
 70
     1
  0
LAYER
  5
10
330
2
100
AcDbSymbolTableRecord
100
AcDbLayerTableRecord
  2
0
 70
     0
 62
     7
  6
Continuous
370
    -3
390
F
  0
ENDTAB
  0
TABLE
  2
STYLE
  5
3
330
0
100
AcDbSymbolTable
 70
     2
  0
STYLE
  5
11
330
3
100
AcDbSymbolTableRecord
100
AcDbTextStyleTableRecord
  2
Standard
 70
     0
 40
0.0
 41
1.0
 50
0.0
 71
     0
 42
3.5
  3
txt
  4
bigfont
  0
STYLE
  5
7B
330
3
100
AcDbSymbolTableRecord
100
AcDbTextStyleTableRecord
  2
SLDTEXTSTYLE0
 70
     0
 40
0.0
 41
0.7
 50
0.0
 71
     0
 42
3.5
  3
TXT
  4
bigfont
  0
ENDTAB
  0
TABLE
  2
VIEW
  5
6
330
0
100
AcDbSymbolTable
 70
     0
  0
ENDTAB
  0
TABLE
  2
UCS
  5
7
330
0
100
AcDbSymbolTable
 70
     0
  0
ENDTAB
  0
TABLE
  2
APPID
  5
9
330
0
100
AcDbSymbolTable
 70
     1
  0
APPID
  5
12
330
9
100
AcDbSymbolTableRecord
100
AcDbRegAppTableRecord
  2
ACAD
 70
     0
  0
ENDTAB
  0
TABLE
  2
DIMSTYLE
  5
A
330
0
100
AcDbSymbolTable
 70
     4
100
AcDbDimStyleTable
  0
DIMSTYLE
105
27
330
A
100
AcDbSymbolTableRecord
100
AcDbDimStyleTableRecord
  2
ISO-25
 70
     0
 41
2.5
 42
0.625
 43
3.75
 44
1.25
 73
     0
 74
     0
 77
     1
 78
     8
140
2.5
141
2.5
143
0.0393700787
147
0.625
171
     3
172
     1
178
     0
271
     2
272
     2
274
     3
278
    44
283
     0
284
     8
340
11
  0
DIMSTYLE
105
116
102
{ACAD_REACTORS
330
115
330
1C9
330
270
102
}
330
A
100
AcDbSymbolTableRecord
100
AcDbDimStyleTableRecord
  2
SLDDIMSTYLE0
 70
     0
 41
3.0
 44
0.0
 45
0.000000001
 73
     0
 74
     0
 77
     3
 78
    12
 79
     3
140
3.5
147
0.875
173
     1
178
     0
271
     1
272
     3
276
     2
284
    12
340
7B
  0
DIMSTYLE
105
126
330
A
100
AcDbSymbolTableRecord
100
AcDbDimStyleTableRecord
  2
SLDDIMSTYLE1
 70
     0
 41
3.0
 44
0.0
 45
0.000000001
146
3.0
147
0.0
173
     1
178
     0
271
     0
272
     0
276
     2
340
11
  0
DIMSTYLE
105
27D
102
{ACAD_REACTORS
330
27C
102
}
330
A
100
AcDbSymbolTableRecord
100
AcDbDimStyleTableRecord
  2
SLDDIMSTYLE2
 70
     0
 41
3.0
 44
0.0
 45
0.000000001
 73
     0
 74
     0
 77
     3
 78
    12
 79
     3
140
3.5
147
0.875
172
     1
173
     1
178
     0
271
     1
272
     3
276
     2
284
    12
289
     0
340
7B
  0
ENDTAB
  0
TABLE
  2
BLOCK_RECORD
  5
1
330
0
100
AcDbSymbolTable
 70
     7
  0
BLOCK_RECORD
  5
1F
330
1
100
AcDbSymbolTableRecord
100
AcDbBlockTableRecord
  2
*Model_Space
340
22
  0
BLOCK_RECORD
  5
1B
330
1
100
AcDbSymbolTableRecord
100
AcDbBlockTableRecord
  2
*Paper_Space
340
1E
  0
BLOCK_RECORD
  5
23
330
1
100
AcDbSymbolTableRecord
100
AcDbBlockTableRecord
  2
*Paper_Space0
340
26
  0
BLOCK_RECORD
  5
117
330
1
100
AcDbSymbolTableRecord
100
AcDbBlockTableRecord
  2
_D
340
0
  0
BLOCK_RECORD
  5
120
330
1
100
AcDbSymbolTableRecord
100
AcDbBlockTableRecord
  2
SW_NOTE_0
340
0
102
{BLKREFS
331
125
102
}
  0
BLOCK_RECORD
  5
1CA
330
1
100
AcDbSymbolTableRecord
100
AcDbBlockTableRecord
  2
_D_1
340
0
  0
BLOCK_RECORD
  5
271
330
1
100
AcDbSymbolTableRecord
100
AcDbBlockTableRecord
  2
_D_2
340
0
  0
BLOCK_RECORD
  5
27E
330
1
100
AcDbSymbolTableRecord
100
AcDbBlockTableRecord
  2
_D_3
340
0
  0
BLOCK_RECORD
  5
367
330
1
100
AcDbSymbolTableRecord
100
AcDbBlockTableRecord
  2
SW_NOTE_1
340
0
102
{BLKREFS
331
36C
102
}
  0
ENDTAB
  0
ENDSEC
  0
SECTION
  2
BLOCKS
  0
BLOCK
  5
20
330
1F
100
AcDbEntity
  8
0
100
AcDbBlockBegin
  2
*Model_Space
 70
     0
 10
0.0
 20
0.0
 30
0.0
  3
*Model_Space
  1

  0
ENDBLK
  5
21
330
1F
100
AcDbEntity
  8
0
100
AcDbBlockEnd
  0
BLOCK
  5
1C
330
1B
100
AcDbEntity
 67
     1
  8
0
100
AcDbBlockBegin
  2
*Paper_Space
 70
     0
 10
0.0
 20
0.0
 30
0.0
  3
*Paper_Space
  1

  0
ENDBLK
  5
1D
330
1B
100
AcDbEntity
 67
     1
  8
0
100
AcDbBlockEnd
  0
BLOCK
  5
24
330
23
100
AcDbEntity
  8
0
100
AcDbBlockBegin
  2
*Paper_Space0
 70
     0
 10
0.0
 20
0.0
 30
0.0
  3
*Paper_Space0
  1

  0
ENDBLK
  5
25
330
23
100
AcDbEntity
  8
0
100
AcDbBlockEnd
  0
BLOCK
  5
118
330
117
100
AcDbEntity
  8
0
100
AcDbBlockBegin
  2
_D
 70
     0
 10
0.0
 20
0.0
 30
0.0
  3
_D
  1

  0
SOLID
  5
11A
330
117
100
AcDbEntity
  8
0
  6
Continuous
 62
     7
370
     0
100
AcDbTrace
 10
88.8597246496
 20
140.1703166943
 30
0.0
 11
88.6157766382
 21
137.0876247915
 31
0.0
 12
90.0951549467
 22
137.3354953629
 32
0.0
 13
90.0951549467
 23
137.3354953629
 33
0.0
  0
SOLID
  5
11B
330
117
100
AcDbEntity
  8
0
  6
Continuous
 62
     7
370
     0
100
AcDbTrace
 10
95.4696065542
 20
100.7202284662
 30
0.0
 11
95.7135545656
 21
103.802920369
 31
0.0
 12
94.2341762571
 22
103.5550497976
 32
0.0
 13
94.2341762571
 23
103.5550497976
 33
0.0
  0
LINE
  5
11C
330
117
100
AcDbEntity
  8
0
  6
Continuous
 62
     7
370
     0
100
AcDbLine
 10
98.1125376675
 20
141.7206301177
 30
0.0
 11
87.8734724439
 21
140.0050696467
 31
0.0
  0
LINE
  5
11D
330
117
100
AcDbEntity
  8
0
  6
Continuous
 62
     7
370
     0
100
AcDbLine
 10
103.7361673663
 20
102.1052948419
 30
0.0
 11
94.4833543485
 21
100.5549814186
 31
0.0
  0
LINE
  5
11E
330
117
100
AcDbEntity
  8
0
  6
Continuous
 62
     7
370
     0
100
AcDbLine
 10
88.8597246496
 20
140.1703166943
 30
0.0
 11
95.4696065542
 21
100.7202284662
 31
0.0
  0
MTEXT
  5
11F
330
117
100
AcDbEntity
  8
0
  6
Continuous
 62
     7
370
     0
100
AcDbMText
 10
96.277799933
 20
123.1996276899
 30
0.0
 40
3.5
 41
0.0
 71
     1
 72
     1
  1
40
  7
SLDTEXTSTYLE0
 11
0.1652470476148951
 21
-0.9862522057032677
 31
0.0
 73
     1
 44
1.0
  0
ENDBLK
  5
119
330
117
100
AcDbEntity
  8
0
100
AcDbBlockEnd
  0
BLOCK
  5
121
330
120
100
AcDbEntity
  8
0
100
AcDbBlockBegin
  2
SW_NOTE_0
 70
     0
 10
0.0
 20
0.0
 30
0.0
  3
SW_NOTE_0
  1

  0
LINE
  5
123
330
120
100
AcDbEntity
  8
0
  6
Continuous
 62
     0
370
     0
100
AcDbLine
 10
32.4635746765
 20
0.0
 30
0.0
 11
0.0
 21
0.0
 31
0.0
  0
MTEXT
  5
124
330
120
100
AcDbEntity
  8
0
  6
Continuous
 62
     0
370
     0
100
AcDbMText
 10
0.3787542266
 20
4.4345567176
 30
0.0
 40
3.5
 41
0.0
 71
     1
 72
     1
  1
リミットスイッチ
  7
SLDTEXTSTYLE0
 73
     1
 44
1.0
  0
ENDBLK
  5
122
330
120
100
AcDbEntity
  8
0
100
AcDbBlockEnd
  0
BLOCK
  5
1CB
330
1CA
100
AcDbEntity
  8
0
100
AcDbBlockBegin
  2
_D_1
 70
     0
 10
0.0
 20
0.0
 30
0.0
  3
_D_1
  1

  0
ARC
  5
1CD
330
1CA
100
AcDbEntity
  8
0
  6
Continuous
 62
     7
370
     0
100
AcDbCircle
 10
115.2960038559
 20
244.936815215
 30
0.0
 40
4.554435549315966
100
AcDbArc
 50
153.4349488229
 51
206.5650511771
  0
ARC
  5
1CE
330
1CA
100
AcDbEntity
  8
0
  6
Continuous
 62
     7
370
     0
100
AcDbCircle
 10
111.2223928609
 20
244.936815215
 30
0.0
 40
4.554435549315966
100
AcDbArc
 50
333.4349488229
 51
26.5650511771
  0
SOLID
  5
1CF
330
1CA
100
AcDbEntity
  8
0
  6
Continuous
 62
     7
370
     0
100
AcDbTrace
 10
98.2777847151
 20
242.9000097176
 30
0.0
 11
101.2777847151
 21
242.1500097176
 31
0.0
 12
101.2777847151
 22
243.6500097176
 32
0.0
 13
101.2777847151
 23
243.6500097176
 33
0.0
  0
SOLID
  5
1D0
330
1CA
100
AcDbEntity
  8
0
  6
Continuous
 62
     7
370
     0
100
AcDbTrace
 10
128.2406121181
 20
242.9000097176
 30
0.0
 11
125.2406121181
 21
243.6500097176
 31
0.0
 12
125.2406121181
 22
242.1500097176
 32
0.0
 13
125.2406121181
 23
242.1500097176
 33
0.0
  0
LINE
  5
1D1
330
1CA
100
AcDbEntity
  8
0
  6
Continuous
 62
     7
370
     0
100
AcDbLine
 10
98.2777847151
 20
239.5211260851
 30
0.0
 11
98.2777847151
 21
243.9000097176
 31
0.0
  0
LINE
  5
1D2
330
1CA
100
AcDbEntity
  8
0
  6
Continuous
 62
     7
370
     0
100
AcDbLine
 10
128.2406121181
 20
238.0211260851
 30
0.0
 11
128.2406121181
 21
243.9000097176
 31
0.0
  0
LINE
  5
1D3
330
1CA
100
AcDbEntity
  8
0
  6
Continuous
 62
     7
370
     0
100
AcDbLine
 10
98.2777847151
 20
242.9000097176
 30
0.0
 11
128.2406121181
 21
242.9000097176
 31
0.0
  0
MTEXT
  5
1D4
330
1CA
100
AcDbEntity
  8
0
  6
Continuous
 62
     7
370
     0
100
AcDbMText
 10
111.2223928609
 20
247.4117465739
 30
0.0
 40
3.5
 41
0.0
 71
     1
 72
     1
  1
30
  7
SLDTEXTSTYLE0
 73
     1
 44
1.0
  0
ENDBLK
  5
1CC
330
1CA
100
AcDbEntity
  8
0
100
AcDbBlockEnd
  0
BLOCK
  5
272
330
271
100
AcDbEntity
  8
0
100
AcDbBlockBegin
  2
_D_2
 70
     0
 10
0.0
 20
0.0
 30
0.0
  3
_D_2
  1

  0
ARC
  5
274
330
271
100
AcDbEntity
  8
0
  6
Continuous
 62
     7
370
     0
100
AcDbCircle
 10
34.9377514647
 20
139.3890224982
 30
0.0
 40
4.554435549315953
100
AcDbArc
 50
243.4349488229
 51
296.5650511771
  0
ARC
  5
275
330
271
100
AcDbEntity
  8
0
  6
Continuous
 62
     7
370
     0
100
AcDbCircle
 10
34.9377514647
 20
139.3890224982
 30
0.0
 40
4.554435549315978
100
AcDbArc
 50
63.4349488229
 51
116.5650511771
  0
SOLID
  5
276
330
271
100
AcDbEntity
  8
0
  6
Continuous
 62
     7
370
     0
100
AcDbTrace
 10
36.9745569622
 20
176.5075032232
 30
0.0
 11
36.2245569622
 21
173.5075032232
 31
0.0
 12
37.7245569622
 22
173.5075032232
 32
0.0
 13
37.7245569622
 23
173.5075032232
 33
0.0
  0
SOLID
  5
277
330
271
100
AcDbEntity
  8
0
  6
Continuous
 62
     7
370
     0
100
AcDbTrace
 10
36.9745569622
 20
102.2705418895
 30
0.0
 11
37.7245569622
 21
105.2705418895
 31
0.0
 12
36.2245569622
 22
105.2705418895
 32
0.0
 13
36.2245569622
 23
105.2705418895
 33
0.0
  0
LINE
  5
278
330
271
100
AcDbEntity
  8
0
  6
Continuous
 62
     7
370
     0
100
AcDbLine
 10
44.2450538802
 20
176.5075032232
 30
0.0
 11
35.9745569622
 21
176.5075032232
 31
0.0
  0
LINE
  5
279
330
271
100
AcDbEntity
  8
0
  6
Continuous
 62
     7
370
     0
100
AcDbLine
 10
44.2450538802
 20
102.2705418895
 30
0.0
 11
35.9745569622
 21
102.2705418895
 31
0.0
  0
LINE
  5
27A
330
271
100
AcDbEntity
  8
0
  6
Continuous
 62
     7
370
     0
100
AcDbLine
 10
36.9745569622
 20
176.5075032232
 30
0.0
 11
36.9745569622
 21
102.2705418895
 31
0.0
  0
MTEXT
  5
27B
330
271
100
AcDbEntity
  8
0
  6
Continuous
 62
     7
370
     0
100
AcDbMText
 10
32.4628201058
 20
135.3154115032
 30
0.0
 40
3.5
 41
0.0
 71
     1
 72
     1
  1
74.2
  7
SLDTEXTSTYLE0
 11
-7.044195017643634E-15
 21
1.0
 31
0.0
 73
     1
 44
1.0
  0
ENDBLK
  5
273
330
271
100
AcDbEntity
  8
0
100
AcDbBlockEnd
  0
BLOCK
  5
27F
330
27E
100
AcDbEntity
  8
0
100
AcDbBlockBegin
  2
_D_3
 70
     0
 10
0.0
 20
0.0
 30
0.0
  3
_D_3
  1

  0
SOLID
  5
281
330
27E
100
AcDbEntity
  8
0
  6
Continuous
 62
     7
370
     0
100
AcDbTrace
 10
44.6993939582
 20
92.2705418895
 30
0.0
 11
41.6993939582
 21
93.0205418895
 31
0.0
 12
41.6993939582
 22
91.5205418895
 32
0.0
 13
41.6993939582
 23
91.5205418895
 33
0.0
  0
SOLID
  5
282
330
27E
100
AcDbEntity
  8
0
  6
Continuous
 62
     7
370
     0
100
AcDbTrace
 10
55.7907138022
 20
92.2705418895
 30
0.0
 11
58.7907138022
 21
91.5205418895
 31
0.0
 12
58.7907138022
 22
93.0205418895
 32
0.0
 13
58.7907138022
 23
93.0205418895
 33
0.0
  0
LINE
  5
283
330
27E
100
AcDbEntity
  8
0
  6
Continuous
 62
     7
370
     0
100
AcDbLine
 10
44.6993939582
 20
121.6376600919
 30
0.0
 11
44.6993939582
 21
91.2705418895
 31
0.0
  0
LINE
  5
284
330
27E
100
AcDbEntity
  8
0
  6
Continuous
 62
     7
370
     0
100
AcDbLine
 10
55.7907138022
 20
121.8239027761
 30
0.0
 11
55.7907138022
 21
91.2705418895
 31
0.0
  0
LINE
  5
285
330
27E
100
AcDbEntity
  8
0
  6
Continuous
 62
     7
370
     0
100
AcDbLine
 10
44.6993939582
 20
92.2705418895
 30
0.0
 11
39.6993939582
 21
92.2705418895
 31
0.0
  0
LINE
  5
286
330
27E
100
AcDbEntity
  8
0
  6
Continuous
 62
     7
370
     0
100
AcDbLine
 10
44.6993939582
 20
92.2705418895
 30
0.0
 11
55.7907138022
 21
92.2705418895
 31
0.0
  0
LINE
  5
287
330
27E
100
AcDbEntity
  8
0
  6
Continuous
 62
     7
370
     0
100
AcDbLine
 10
55.7907138022
 20
92.2705418895
 30
0.0
 11
60.7907138022
 21
92.2705418895
 31
0.0
  0
MTEXT
  5
288
330
27E
100
AcDbEntity
  8
0
  6
Continuous
 62
     7
370
     0
100
AcDbMText
 10
46.1714428852
 20
96.7822787459
 30
0.0
 40
3.5
 41
0.0
 71
     1
 72
     1
  1
11.1
  7
SLDTEXTSTYLE0
 73
     1
 44
1.0
  0
ENDBLK
  5
280
330
27E
100
AcDbEntity
  8
0
100
AcDbBlockEnd
  0
BLOCK
  5
368
330
367
100
AcDbEntity
  8
0
100
AcDbBlockBegin
  2
SW_NOTE_1
 70
     0
 10
0.0
 20
0.0
 30
0.0
  3
SW_NOTE_1
  1

  0
LINE
  5
36A
330
367
100
AcDbEntity
  8
0
  6
Continuous
 62
     0
370
     0
100
AcDbLine
 10
28.3899622846
 20
0.0
 30
0.0
 11
0.0
 21
0.0
 31
0.0
  0
MTEXT
  5
36B
330
367
100
AcDbEntity
  8
0
  6
Continuous
 62
     0
370
     0
100
AcDbMText
 10
0.378981804
 20
4.580580649
 30
0.0
 40
3.5
 41
0.0
 71
     1
 72
     1
  1
2-M4取付ボルト
  7
SLDTEXTSTYLE0
 73
     1
 44
1.0
  0
ENDBLK
  5
369
330
367
100
AcDbEntity
  8
0
100
AcDbBlockEnd
  0
ENDSEC
  0
SECTION
  2
ENTITIES
  0
LINE
  5
73
330
1F
100
AcDbEntity
  8
0
  6
Continuous
 62
     7
370
     0
100
AcDbLine
 10
20.2604743903
 20
285.0
 30
0.0
 11
196.7604743903
 21
285.0
 31
0.0
  0
LINE
  5
74
330
1F
100
AcDbEntity
  8
0
  6
Continuous
 62
     7
370
     0
100
AcDbLine
 10
20.2604743903
 20
285.0
 30
0.0
 11
20.2604743903
 21
10.0
 31
0.0
  0
LINE
  5
75
330
1F
100
AcDbEntity
  8
0
  6
Continuous
 62
     7
370
     0
100
AcDbLine
 10
20.2604743903
 20
10.0
 30
0.0
 11
196.7604743903
 21
10.0
 31
0.0
  0
LINE
  5
76
330
1F
100
AcDbEntity
  8
0
  6
Continuous
 62
     7
370
     0
100
AcDbLine
 10
196.7604743903
 20
285.0
 30
0.0
 11
196.7604743903
 21
10.0
 31
0.0
  0
LINE
  5
77
330
1F
100
AcDbEntity
  8
0
  6
Continuous
 62
     7
370
     0
100
AcDbLine
 10
127.0104743903
 20
50.75
 30
0.0
 11
196.7604743903
 21
50.75
 31
0.0
  0
LINE
  5
78
330
1F
100
AcDbEntity
  8
0
  6
Continuous
 62
     7
370
     0
100
AcDbLine
 10
127.0104743903
 20
50.75
 30
0.0
 11
127.0104743903
 21
10.0
 31
0.0
  0
LINE
  5
79
330
1F
100
AcDbEntity
  8
0
  6
Continuous
 62
     7
370
     0
100
AcDbLine
 10
127.0104743903
 20
22.75
 30
0.0
 11
196.7604743903
 21
22.75
 31
0.0
  0
LINE
  5
7A
330
1F
100
AcDbEntity
  8
0
  6
Continuous
 62
     7
370
     0
100
AcDbLine
 10
127.0104743903
 20
36.75
 30
0.0
 11
196.7604743903
 21
36.75
 31
0.0
  0
MTEXT
  5
7C
330
1F
100
AcDbEntity
  8
0
  6
Continuous
 62
     7
370
     0
100
AcDbMText
 10
161.235280912
 20
30.4171582345
 30
0.0
 40
4.2333333333
 41
0.0
 71
     2
 72
     1
  1
CHK-EXF-20-C1
  7
SLDTEXTSTYLE0
 73
     1
 44
1.0
  0
MTEXT
  5
7D
330
1F
100
AcDbEntity
  8
0
  6
Continuous
 62
     7
370
     0
100
AcDbMText
 10
158.3606085851
 20
46.465513628
 30
0.0
 40
3.7041666667
 41
0.0
 71
     2
 72
     1
  1
ランナーチャックEX(LS・着脱爪)
  7
SLDTEXTSTYLE0
 73
     1
 44
1.0
  0
MTEXT
  5
7E
330
1F
100
AcDbEntity
  8
0
  6
Continuous
 62
     7
370
     0
100
AcDbMText
 10
162.5177791142
 20
16.8228189052
 30
0.0
 40
4.2333333333
 41
0.0
 71
     2
 72
     1
  1
023295
  7
SLDTEXTSTYLE0
 73
     1
 44
1.0
  0
LINE
  5
7F
330
1F
100
AcDbEntity
  8
0
  6
Continuous
 62
     7
370
     0
100
AcDbLine
 10
107.5660611791
 20
157.096226323
 30
0.0
 11
107.3329995675
 21
156.9359717849
 31
0.0
  0
LINE
  5
80
330
1F
100
AcDbEntity
  8
0
  6
Continuous
 62
     7
370
     0
100
AcDbLine
 10
106.6776613993
 20
153.3961264375
 30
0.0
 11
106.8379159374
 21
153.1630573753
 31
0.0
  0
LINE
  5
81
330
1F
100
AcDbEntity
  8
0
  6
Continuous
 62
     7
370
     0
100
AcDbLine
 10
114.2524431748
 20
155.858379412
 30
0.0
 11
107.5660611791
 21
157.096226323
 31
0.0
  0
LINE
  5
82
330
1F
100
AcDbEntity
  8
0
  6
Continuous
 62
     7
370
     0
100
AcDbLine
 10
106.8379159374
 20
153.1630573753
 30
0.0
 11
113.5242979331
 21
151.9252104643
 31
0.0
  0
LINE
  5
83
330
1F
100
AcDbEntity
  8
0
  6
Continuous
 62
     7
370
     0
100
AcDbLine
 10
110.2966095609
 20
171.8456005636
 30
0.0
 11
110.0635479493
 21
171.6853497509
 31
0.0
  0
LINE
  5
84
330
1F
100
AcDbEntity
  8
0
  6
Continuous
 62
     7
370
     0
100
AcDbLine
 10
109.4082172317
 20
168.1455006782
 30
0.0
 11
109.5684643192
 21
167.9124353412
 31
0.0
  0
LINE
  5
85
330
1F
100
AcDbEntity
  8
0
  6
Continuous
 62
     7
370
     0
100
AcDbLine
 10
116.9829990072
 20
170.6077536527
 30
0.0
 11
110.2966095609
 21
171.8456005636
 31
0.0
  0
LINE
  5
86
330
1F
100
AcDbEntity
  8
0
  6
Continuous
 62
     7
370
     0
100
AcDbLine
 10
109.5684643192
 20
167.9124353412
 30
0.0
 11
116.2548537655
 21
166.674584705
 31
0.0
  0
ARC
  5
87
330
1F
100
AcDbEntity
  8
0
  6
Continuous
 62
     7
370
     0
100
AcDbCircle
 10
113.6512958101
 20
109.4953373279
 30
0.0
 40
0.2000000000000106
100
AcDbArc
 50
189.5115862628
 51
279.5115862628
  0
LWPOLYLINE
  5
88
330
1F
100
AcDbEntity
  8
0
  6
Continuous
 62
     7
370
     0
100
AcDbPolyline
 90
        3
 70
   128
 43
0.0
 10
112.9397775335
 20
112.5700293068
 10
112.9391218824
 20
112.5587863806
 10
112.9417817397
 20
112.5196708325
  0
LINE
  5
89
330
1F
100
AcDbEntity
  8
0
  6
Continuous
 62
     7
370
     0
100
AcDbLine
 10
113.6843438549
 20
109.2980844859
 30
0.0
 11
113.8815979762
 21
109.3311352614
 31
0.0
  0
LINE
  5
8A
330
1F
100
AcDbEntity
  8
0
  6
Continuous
 62
     7
370
     0
100
AcDbLine
 10
112.9583071275
 20
112.4210474971
 30
0.0
 11
112.6624296708
 21
112.3714713339
 31
0.0
  0
LINE
  5
8B
330
1F
100
AcDbEntity
  8
0
  6
Continuous
 62
     7
370
     0
100
AcDbLine
 10
113.1416435642
 20
109.5113424543
 30
0.0
 11
113.4375210209
 21
109.560911167
 31
0.0
  0
LINE
  5
8C
330
1F
100
AcDbEntity
  8
0
  6
Continuous
 62
     7
370
     0
100
AcDbLine
 10
122.2914035721
 20
127.5209007743
 30
0.0
 11
122.0931138201
 21
128.7044031504
 31
0.0
  0
LINE
  5
8D
330
1F
100
AcDbEntity
  8
0
  6
Continuous
 62
     7
370
     0
100
AcDbLine
 10
120.7123573227
 20
128.4730551723
 30
0.0
 11
120.9106545253
 21
127.2895527962
 31
0.0
  0
LINE
  5
8E
330
1F
100
AcDbEntity
  8
0
  6
Continuous
 62
     7
370
     0
100
AcDbLine
 10
124.2639149828
 20
127.8513936285
 30
0.0
 11
124.0656177802
 21
129.0348960045
 31
0.0
  0
LINE
  5
8F
330
1F
100
AcDbEntity
  8
0
  6
Continuous
 62
     7
370
     0
100
AcDbLine
 10
122.6848612828
 20
128.803555477
 30
0.0
 11
122.8831584854
 21
127.6200531009
 31
0.0
  0
LINE
  5
90
330
1F
100
AcDbEntity
  8
0
  6
Continuous
 62
     7
370
     0
100
AcDbLine
 10
121.7479209704
 20
128.6465717438
 30
0.0
 11
120.9216888351
 21
133.5778279189
 31
0.0
  0
LINE
  5
91
330
1F
100
AcDbEntity
  8
0
  6
Continuous
 62
     7
370
     0
100
AcDbLine
 10
120.2313105864
 20
133.4621576551
 30
0.0
 11
121.0575427217
 21
128.5308940295
 31
0.0
  0
LINE
  5
92
330
1F
100
AcDbEntity
  8
0
  6
Continuous
 62
     7
370
     0
100
AcDbLine
 10
123.7204249306
 20
128.977064598
 30
0.0
 11
122.8941927953
 21
133.908320773
 31
0.0
  0
LINE
  5
93
330
1F
100
AcDbEntity
  8
0
  6
Continuous
 62
     7
370
     0
100
AcDbLine
 10
122.2038145466
 20
133.7926505092
 30
0.0
 11
123.0300466819
 21
128.8613868836
 31
0.0
  0
LINE
  5
94
330
1F
100
AcDbEntity
  8
0
  6
Continuous
 62
     7
370
     0
100
AcDbLine
 10
99.0987892551
 20
141.885873485
 30
0.0
 11
98.2777837021
 21
140.7343788031
 31
0.0
  0
ARC
  5
95
330
1F
100
AcDbEntity
  8
0
  6
Continuous
 62
     7
370
     0
100
AcDbCircle
 10
108.6828434081
 20
147.7471280217
 30
0.0
 40
10.00000000000002
100
AcDbArc
 50
312.5115862628
 51
349.5115862628
  0
LINE
  5
96
330
1F
100
AcDbEntity
  8
0
  6
Continuous
 62
     7
370
     0
100
AcDbLine
 10
104.7224204345
 20
102.2705404047
 30
0.0
 11
98.2777837021
 21
140.7343788031
 31
0.0
  0
LINE
  5
97
330
1F
100
AcDbEntity
  8
0
  6
Continuous
 62
     7
370
     0
100
AcDbLine
 10
114.2856355114
 20
139.3172932748
 30
0.0
 11
115.4402370853
 21
140.3757227543
 31
0.0
  0
LINE
  5
98
330
1F
100
AcDbEntity
  8
0
  6
Continuous
 62
     7
370
     0
100
AcDbLine
 10
111.1805091901
 20
130.2934182767
 30
0.0
 11
111.935759644
 21
125.7858095649
 31
0.0
  0
CIRCLE
  5
99
330
1F
100
AcDbEntity
  8
0
  6
Continuous
 62
     7
370
     0
100
AcDbCircle
 10
101.8149059988
 20
137.7782363349
 30
0.0
 40
1.499999999999981
  0
CIRCLE
  5
9A
330
1F
100
AcDbEntity
  8
0
  6
Continuous
 62
     7
370
     0
100
AcDbCircle
 10
107.5453174951
 20
107.8132169942
 30
0.0
 40
0.9999999999999991
  0
LINE
  5
9B
330
1F
100
AcDbEntity
  8
0
  6
Continuous
 62
     7
370
     0
100
AcDbLine
 10
104.869360785
 20
122.5739536766
 30
0.0
 11
106.3896368546
 21
113.5004280094
 31
0.0
  0
ARC
  5
9C
330
1F
100
AcDbEntity
  8
0
  6
Continuous
 62
     7
370
     0
100
AcDbCircle
 10
107.788864995
 20
148.4116007279
 30
0.0
 40
5.00000000000004
100
AcDbArc
 50
279.5115862628
 51
349.5115862628
  0
ARC
  5
9D
330
1F
100
AcDbEntity
  8
0
  6
Continuous
 62
     7
370
     0
100
AcDbCircle
 10
108.3621385892
 20
113.830924473
 30
0.0
 40
2.000000000000008
100
AcDbArc
 50
189.5115862628
 51
279.5115862628
  0
LINE
  5
9E
330
1F
100
AcDbEntity
  8
0
  6
Continuous
 62
     7
370
     0
100
AcDbLine
 10
112.1193121476
 20
103.5098923329
 30
0.0
 11
113.7613232536
 21
105.8128965977
 31
0.0
  0
LINE
  5
9F
330
1F
100
AcDbEntity
  8
0
  6
Continuous
 62
     7
370
     0
100
AcDbLine
 10
111.935759644
 20
125.7858095649
 30
0.0
 11
106.511371891
 21
124.8769504908
 31
0.0
  0
LINE
  5
A0
330
1F
100
AcDbEntity
  8
0
  6
Continuous
 62
     7
370
     0
100
AcDbLine
 10
108.6926336689
 20
111.8584169034
 30
0.0
 11
112.6376415891
 21
112.5194100622
 31
0.0
  0
LINE
  5
A1
330
1F
100
AcDbEntity
  8
0
  6
Continuous
 62
     7
370
     0
100
AcDbLine
 10
99.0987892551
 20
141.885873485
 30
0.0
 11
108.6151029272
 21
143.4803424362
 31
0.0
  0
LINE
  5
A2
330
1F
100
AcDbEntity
  8
0
  6
Continuous
 62
     7
370
     0
100
AcDbLine
 10
118.5157622499
 20
145.9267629269
 30
0.0
 11
123.3378376169
 21
171.9737617258
 31
0.0
  0
LINE
  5
A3
330
1F
100
AcDbEntity
  8
0
  6
Continuous
 62
     7
370
     0
100
AcDbLine
 10
120.5334465308
 20
176.0524107102
 30
0.0
 11
118.0752168698
 21
176.5075033489
 31
0.0
  0
LINE
  5
A4
330
1F
100
AcDbEntity
  8
0
  6
Continuous
 62
     7
370
     0
100
AcDbLine
 10
118.0752168698
 20
176.5075033489
 30
0.0
 11
112.7053226633
 21
147.5014207843
 31
0.0
  0
ARC
  5
A5
330
1F
100
AcDbEntity
  8
0
  6
Continuous
 62
     7
370
     0
100
AcDbCircle
 10
106.8418657511
 20
122.9044447655
 30
0.0
 40
2.000000000000008
100
AcDbArc
 50
99.5115862628
 51
189.5115862628
  0
LINE
  5
A6
330
1F
100
AcDbEntity
  8
0
  6
Continuous
 62
     7
370
     0
100
AcDbLine
 10
112.6376415891
 20
112.5194100622
 30
0.0
 11
113.7613232536
 21
105.8128965977
 31
0.0
  0
ARC
  5
A7
330
1F
100
AcDbEntity
  8
0
  6
Continuous
 62
     7
370
     0
100
AcDbCircle
 10
121.0430286317
 20
131.9458879083
 30
0.0
 40
10.00000000000002
100
AcDbArc
 50
132.5115862628
 51
189.5115862628
  0
LINE
  5
A8
330
1F
100
AcDbEntity
  8
0
  6
Continuous
 62
     7
370
     0
100
AcDbLine
 10
123.3378376169
 20
171.9737617258
 30
0.0
 11
120.5334465308
 21
176.0524107102
 31
0.0
  0
LINE
  5
A9
330
1F
100
AcDbEntity
  8
0
  6
Continuous
 62
     7
370
     0
100
AcDbLine
 10
112.1193121476
 20
103.5098923329
 30
0.0
 11
104.7224204345
 21
102.2705404047
 31
0.0
  0
SPLINE
  5
AA
330
1F
100
AcDbEntity
  8
0
  6
Continuous
 62
     7
370
     0
100
AcDbSpline
210
0.0
220
0.0
230
1.0
 70
     8
 71
     3
 72
    14
 73
    10
 74
     0
 42
0.000000001
 43
0.00000001
 40
0.0
 40
0.0
 40
0.0
 40
0.0
 40
0.4999999999999956
 40
0.4999999999999956
 40
0.7499999999999978
 40
0.7499999999999978
 40
0.8749999999999989
 40
0.8749999999999989
 40
1.0
 40
1.0
 40
1.0
 40
1.0
 10
102.194673168326
 20
136.4660616891812
 30
0.0
 10
102.2119802930559
 20
136.4450137194872
 30
0.0
 10
102.2340871149909
 20
136.4256867473421
 30
0.0
 10
102.2826324118335
 20
136.403638917708
 30
0.0
 10
102.3013866282662
 20
136.3972629269792
 30
0.0
 10
102.3387580407952
 20
136.3929643953818
 30
0.0
 10
102.352735388015
 20
136.392399141056
 30
0.0
 10
102.3865290045947
 20
136.3958774804635
 30
0.0
 10
102.4084436078324
 20
136.4004321936982
 30
0.0
 10
102.4313466996081
 20
136.4107565864068
 30
0.0
  0
ARC
  5
AB
330
1F
100
AcDbEntity
  8
0
  6
Continuous
 62
     7
370
     0
100
AcDbCircle
 10
101.8149059988
 20
137.7782363349
 30
0.0
 40
1.366025403784463
100
AcDbArc
 50
286.1414033176
 51
253.8585966824
  0
SPLINE
  5
AC
330
1F
100
AcDbEntity
  8
0
  6
Continuous
 62
     7
370
     0
100
AcDbSpline
210
0.0
220
0.0
230
1.0
 70
     8
 71
     3
 72
    14
 73
    10
 74
     0
 42
0.000000001
 43
0.00000001
 40
0.0
 40
0.0
 40
0.0
 40
0.0
 40
0.1249999999999777
 40
0.1249999999999777
 40
0.24999999999998
 40
0.24999999999998
 40
0.4999999999999889
 40
0.4999999999999889
 40
1.0
 40
1.0
 40
1.0
 40
1.0
 10
101.1984652980542
 20
136.4107565864068
 30
0.0
 10
101.2212216604773
 20
136.4004983372333
 30
0.0
 10
101.242922467685
 20
136.3959359097339
 30
0.0
 10
101.2769473175087
 20
136.3923914328777
 30
0.0
 10
101.2909774032859
 20
136.3929686853077
 30
0.0
 10
101.3279586126003
 20
136.3971833757268
 30
0.0
 10
101.346785248833
 20
136.4034890683548
 30
0.0
 10
101.3957071572852
 20
136.4256209208972
 30
0.0
 10
101.4178243131299
 20
136.4450047303815
 30
0.0
 10
101.4351388293362
 20
136.4660616891811
 30
0.0
  0
LINE
  5
AD
330
1F
100
AcDbEntity
  8
0
  6
Continuous
 62
     7
370
     0
100
AcDbLine
 10
102.1024237675
 20
136.7354808334
 30
0.0
 11
102.1563510699
 21
136.5399254445
 31
0.0
  0
ARC
  5
AE
330
1F
100
AcDbEntity
  8
0
  6
Continuous
 62
     7
370
     0
100
AcDbCircle
 10
102.2952322295
 20
136.7886471716
 30
0.0
 40
0.2000000000000004
100
AcDbArc
 50
115.8909827371
 51
195.4153010407
  0
ARC
  5
AF
330
1F
100
AcDbEntity
  8
0
  6
Continuous
 62
     7
370
     0
100
AcDbCircle
 10
101.8149059988
 20
137.7782363349
 30
0.0
 40
0.9000000000000107
100
AcDbArc
 50
295.8909827371
 51
244.1090172629
  0
ARC
  5
B0
330
1F
100
AcDbEntity
  8
0
  6
Continuous
 62
     7
370
     0
100
AcDbCircle
 10
101.3345797681
 20
136.7886471716
 30
0.0
 40
0.2000000000000066
100
AcDbArc
 50
344.5846989593
 51
64.1090172629
  0
LINE
  5
B1
330
1F
100
AcDbEntity
  8
0
  6
Continuous
 62
     7
370
     0
100
AcDbLine
 10
101.4734606547
 20
136.5399254445
 30
0.0
 11
101.5273879571
 21
136.7354808334
 31
0.0
  0
ARC
  5
B2
330
1F
100
AcDbEntity
  8
0
  6
Continuous
 62
     7
370
     0
100
AcDbCircle
 10
101.2806573915
 20
136.5930872195
 30
0.0
 40
0.2000000000000059
100
AcDbArc
 50
320.5705471975
 51
344.5846989593
  0
ARC
  5
B3
330
1F
100
AcDbEntity
  8
0
  6
Continuous
 62
     7
370
     0
100
AcDbCircle
 10
102.3491546062
 20
136.5930872195
 30
0.0
 40
0.2000000000000059
100
AcDbArc
 50
195.4153010407
 51
219.4294528025
  0
SPLINE
  5
B4
330
1F
100
AcDbEntity
  8
0
  6
Continuous
 62
     7
370
     0
100
AcDbSpline
210
0.0
220
0.0
230
1.0
 70
     8
 71
     3
 72
    12
 73
     8
 74
     0
 42
0.000000001
 43
0.00000001
 40
0.0
 40
0.0
 40
0.0
 40
0.0
 40
0.2499999999999924
 40
0.2499999999999924
 40
0.4999999999999848
 40
0.4999999999999848
 40
1.0
 40
1.0
 40
1.0
 40
1.0
 10
108.0822860423784
 20
108.6568192578737
 30
0.0
 10
108.0501416441606
 20
108.6772797658156
 30
0.0
 10
108.0142401121582
 20
108.6865671606177
 30
0.0
 10
107.953047301433
 20
108.6892473334881
 30
0.0
 10
107.9266051661016
 20
108.6836592587616
 30
0.0
 10
107.8592844208802
 20
108.6582075252731
 30
0.0
 10
107.8284137659147
 20
108.6296081431086
 30
0.0
 10
107.8073872661508
 20
108.5973785041182
 30
0.0
  0
SPLINE
  5
B5
330
1F
100
AcDbEntity
  8
0
  6
Continuous
 62
     7
370
     0
100
AcDbSpline
210
0.0
220
0.0
230
1.0
 70
     8
 71
     3
 72
    12
 73
     8
 74
     0
 42
0.000000001
 43
0.00000001
 40
0.0
 40
0.0
 40
0.0
 40
0.0
 40
0.4999999999999978
 40
0.4999999999999978
 40
0.7499999999999989
 40
0.7499999999999989
 40
1.0
 40
1.0
 40
1.0
 40
1.0
 10
107.2832477240038
 20
108.5973785041182
 30
0.0
 10
107.2622276850449
 20
108.6295982399191
 30
0.0
 10
107.2320344647438
 20
108.6578579044516
 30
0.0
 10
107.1641798455107
 20
108.6836475787678
 30
0.0
 10
107.1378166623704
 20
108.6892269955845
 30
0.0
 10
107.0765601064611
 20
108.6866045693104
 30
0.0
 10
107.0404747403286
 20
108.6772679229632
 30
0.0
 10
107.0083489477762
 20
108.6568192578737
 30
0.0
  0
ARC
  5
B6
330
1F
100
AcDbEntity
  8
0
  6
Continuous
 62
     7
370
     0
100
AcDbCircle
 10
107.5453174951
 20
107.8132169942
 30
0.0
 40
0.8267949192431092
100
AcDbArc
 50
108.4798247181
 51
71.5201752819
  0
ARC
  5
B7
330
1F
100
AcDbEntity
  8
0
  6
Continuous
 62
     7
370
     0
100
AcDbCircle
 10
107.5453174951
 20
107.8132169942
 30
0.0
 40
0.6000000000000018
100
AcDbArc
 50
122.4775121859
 51
57.5224878141
  0
ARC
  5
B8
330
1F
100
AcDbEntity
  8
0
  6
Continuous
 62
     7
370
     0
100
AcDbCircle
 10
107.9748923329
 20
108.4880988051
 30
0.0
 40
0.2000000000000151
100
AcDbArc
 50
162.0
 51
237.5224878141
  0
ARC
  5
B9
330
1F
100
AcDbEntity
  8
0
  6
Continuous
 62
     7
370
     0
100
AcDbCircle
 10
107.1157426572
 20
108.4880988051
 30
0.0
 40
0.2000000000000016
100
AcDbArc
 50
302.4775121859
 51
18.0
  0
ARC
  5
BA
330
1F
100
AcDbEntity
  8
0
  6
Continuous
 62
     7
370
     0
100
AcDbCircle
 10
107.9748923329
 20
108.4880988051
 30
0.0
 40
0.2000000000000151
100
AcDbArc
 50
146.8797162241
 51
162.0
  0
ARC
  5
BB
330
1F
100
AcDbEntity
  8
0
  6
Continuous
 62
     7
370
     0
100
AcDbCircle
 10
107.1157426572
 20
108.4880988051
 30
0.0
 40
0.2000000000000016
100
AcDbArc
 50
18.0
 51
33.1202837759
  0
LINE
  5
BC
330
1F
100
AcDbEntity
  8
0
  6
Continuous
 62
     7
370
     0
100
AcDbLine
 10
107.9907517237
 20
125.1248164061
 30
0.0
 11
107.1697424454
 21
123.9733217243
 31
0.0
  0
LINE
  5
BD
330
1F
100
AcDbEntity
  8
0
  6
Continuous
 62
     7
370
     0
100
AcDbLine
 10
111.935759644
 20
125.7858095649
 30
0.0
 11
125.3487865729
 21
128.0331654433
 31
0.0
  0
LINE
  5
BE
330
1F
100
AcDbEntity
  8
0
  6
Continuous
 62
     7
370
     0
100
AcDbLine
 10
114.6458114786
 20
109.6112696413
 30
0.0
 11
114.8275832934
 21
108.5263980511
 31
0.0
  0
LINE
  5
BF
330
1F
100
AcDbEntity
  8
0
  6
Continuous
 62
     7
370
     0
100
AcDbLine
 10
119.6756984396
 20
110.4540346149
 30
0.0
 11
114.6458114786
 21
109.6112696413
 31
0.0
  0
ARC
  5
C0
330
1F
100
AcDbEntity
  8
0
  6
Continuous
 62
     7
370
     0
100
AcDbCircle
 10
119.411301341
 20
112.0320352372
 30
0.0
 40
1.60000000000001
100
AcDbArc
 50
279.5115862628
 51
99.5115862628
  0
LINE
  5
C1
330
1F
100
AcDbEntity
  8
0
  6
Continuous
 62
     7
370
     0
100
AcDbLine
 10
109.103138308
 20
112.4341679696
 30
0.0
 11
109.6788819237
 21
112.023670781
 31
0.0
  0
LINE
  5
C2
330
1F
100
AcDbEntity
  8
0
  6
Continuous
 62
     7
370
     0
100
AcDbLine
 10
112.6376415891
 20
112.5194100622
 30
0.0
 11
119.1469083829
 21
113.6100409511
 31
0.0
  0
LINE
  5
C3
330
1F
100
AcDbEntity
  8
0
  6
Continuous
 62
     7
370
     0
100
AcDbLine
 10
109.103138308
 20
112.4341679696
 30
0.0
 11
107.1697424454
 21
123.9733217243
 31
0.0
  0
LINE
  5
C4
330
1F
100
AcDbEntity
  8
0
  6
Continuous
 62
     7
370
     0
100
AcDbLine
 10
125.3487865729
 20
128.0331654433
 30
0.0
 11
128.2406102223
 21
110.7737539295
 31
0.0
  0
LINE
  5
C5
330
1F
100
AcDbEntity
  8
0
  6
Continuous
 62
     7
370
     0
100
AcDbLine
 10
114.8275832934
 20
108.5263980511
 30
0.0
 11
128.2406102223
 21
110.7737539295
 31
0.0
  0
LINE
  5
C6
330
1F
100
AcDbEntity
  8
0
  6
Continuous
 62
     7
370
     0
100
AcDbLine
 10
114.8275832934
 20
108.5263980511
 30
0.0
 11
114.9102027817
 21
108.0332664732
 31
0.0
  0
ARC
  5
C7
330
1F
100
AcDbEntity
  8
0
  6
Continuous
 62
     7
370
     0
100
AcDbCircle
 10
127.7474860152
 20
110.6911306627
 30
0.0
 40
0.5000000000000007
100
AcDbArc
 50
279.5115862628
 51
9.5115862628
  0
LINE
  5
C8
330
1F
100
AcDbEntity
  8
0
  6
Continuous
 62
     7
370
     0
100
AcDbLine
 10
114.9102027817
 20
108.0332664732
 30
0.0
 11
127.8301130338
 21
110.1980028633
 31
0.0
  0
LWPOLYLINE
  5
C9
330
1F
100
AcDbEntity
  8
0
  6
Continuous
 62
     7
370
     0
100
AcDbPolyline
 90
        4
 70
   128
 43
0.0
 10
107.3025564952
 20
156.7715449217
 10
107.3252584142
 20
156.8941591266
 10
107.3329995675
 20
156.9359717849
 10
107.3329995675
 20
156.9359717849
  0
LWPOLYLINE
  5
CA
330
1F
100
AcDbEntity
  8
0
  6
Continuous
 62
     7
370
     0
100
AcDbPolyline
 90
       14
 70
   128
 43
0.0
 10
106.6776613993
 20
153.3961264375
 10
106.6795463962
 20
153.4062815789
 10
106.6947008772
 20
153.4881336573
 10
106.7243765397
 20
153.6484403494
 10
106.7671875758
 20
153.8797063712
 10
106.8211446805
 20
154.1711283806
 10
106.8836997552
 20
154.5090643648
 10
106.951954524
 20
154.8777190927
 10
107.0226977868
 20
155.2598593715
 10
107.0926289363
 20
155.637618709
 10
107.1584846182
 20
155.9933168772
 10
107.2171728415
 20
156.3103390816
 10
107.2659592433
 20
156.5738586668
 10
107.3025564952
 20
156.7715449217
  0
LWPOLYLINE
  5
CB
330
1F
100
AcDbEntity
  8
0
  6
Continuous
 62
     7
370
     0
100
AcDbPolyline
 90
       15
 70
   128
 43
0.0
 10
107.5322429938
 20
156.9135231856
 10
107.494632463
 20
156.7103831056
 10
107.4450413985
 20
156.442519832
 10
107.385503809
 20
156.12090807
 10
107.3184485836
 20
155.7587129954
 10
107.2466249866
 20
155.3707687143
 10
107.172983448
 20
154.9729449633
 10
107.1005191011
 20
154.5815436128
 10
107.0322121782
 20
154.2125759605
 10
106.970856647
 20
153.8811592344
 10
106.9189633531
 20
153.6008534912
 10
106.8786557121
 20
153.383132625
 10
106.8515877528
 20
153.2369149808
 10
106.8388621611
 20
153.1681908253
 10
106.8379159374
 20
153.1630573753
  0
LWPOLYLINE
  5
CC
330
1F
100
AcDbEntity
  8
0
  6
Continuous
 62
     7
370
     0
100
AcDbPolyline
 90
        4
 70
   128
 43
0.0
 10
107.5660611791
 20
157.096226323
 10
107.5659121675
 20
157.095391858
 10
107.5563307209
 20
157.0436401251
 10
107.5322429938
 20
156.9135231856
  0
LWPOLYLINE
  5
CD
330
1F
100
AcDbEntity
  8
0
  6
Continuous
 62
     7
370
     0
100
AcDbPolyline
 90
       17
 70
   128
 43
0.0
 10
109.4082172317
 20
168.1455006782
 10
109.4082172317
 20
168.145511854
 10
109.4161297483
 20
168.1882670108
 10
109.4389955802
 20
168.3117790106
 10
109.4757492943
 20
168.5102773789
 10
109.5246549053
 20
168.7744786922
 10
109.5834474368
 20
169.0920261625
 10
109.6493627233
 20
169.4480782334
 10
109.7193236751
 20
169.8259828571
 10
109.7900594873
 20
170.2080709819
 10
109.8582621021
 20
170.57647239
 10
109.920742671
 20
170.9139650646
 10
109.9745805664
 20
171.2047686759
 10
110.0172500415
 20
171.435282189
 10
110.0467692418
 20
171.5947320644
 10
110.0617523594
 20
171.6756565455
 10
110.0635479493
 20
171.6853497509
  0
LWPOLYLINE
  5
CE
330
1F
100
AcDbEntity
  8
0
  6
Continuous
 62
     7
370
     0
100
AcDbPolyline
 90
       17
 70
   128
 43
0.0
 10
110.2966095609
 20
171.8456005636
 10
110.2896730704
 20
171.8081092421
 10
110.2681185407
 20
171.691690195
 10
110.2328251405
 20
171.5010596398
 10
110.1852457328
 20
171.2440220598
 10
110.127310018
 20
170.9311014
 10
110.0614096327
 20
170.5751089338
 10
109.9902267856
 20
170.1906142715
 10
109.9166821046
 20
169.7933679405
 10
109.8437930746
 20
169.3996271077
 10
109.7745324774
 20
169.0255111042
 10
109.7117389841
 20
168.6863383237
 10
109.6579904957
 20
168.3959966484
 10
109.6154774828
 20
168.1663660291
 10
109.5859433813
 20
168.0068528238
 10
109.5706026358
 20
167.9239874664
 10
109.5684643192
 20
167.9124353412
  0
CIRCLE
  5
CF
330
1F
100
AcDbEntity
  8
0
  6
Continuous
 62
     7
370
     0
100
AcDbCircle
 10
119.4195636934
 20
111.9827226269
 30
0.0
 40
1.20000000000001
  0
CIRCLE
  5
D0
330
1F
100
AcDbEntity
  8
0
  6
Continuous
 62
     7
370
     0
100
AcDbCircle
 10
119.4195636934
 20
111.9827226269
 30
0.0
 40
1.500000000000009
  0
LINE
  5
D1
330
1F
100
AcDbEntity
  8
0
  6
Continuous
 62
     7
370
     0
100
AcDbLine
 10
114.1170214219
 20
112.7672759775
 30
0.0
 11
114.6458114786
 21
109.6112696413
 31
0.0
  0
LINE
  5
D2
330
1F
100
AcDbEntity
  8
0
  6
Continuous
 62
     7
370
     0
100
AcDbLine
 10
114.8193205995
 20
108.5757059935
 30
0.0
 11
114.0303190155
 21
108.443510342
 31
0.0
  0
LINE
  5
D3
330
1F
100
AcDbEntity
  8
0
  6
Continuous
 62
     7
370
     0
100
AcDbLine
 10
114.0303190155
 20
108.443510342
 30
0.0
 11
113.3280198378
 21
112.635080326
 31
0.0
  0
LWPOLYLINE
  5
D4
330
1F
100
AcDbEntity
  8
0
  6
Continuous
 62
     7
370
     0
100
AcDbPolyline
 90
        8
 70
   128
 43
0.0
 10
113.1979103489
 20
110.9909756068
 10
113.1388421459
 20
111.3435221795
 10
113.0829627914
 20
111.6770548705
 10
113.0332748694
 20
111.9736028794
 10
112.9924605889
 20
112.2171772603
 10
112.9627253217
 20
112.3946500901
 10
112.9456709428
 20
112.4964473728
 10
112.9417817397
 20
112.5196708325
  0
LWPOLYLINE
  5
D5
330
1F
100
AcDbEntity
  8
0
  6
Continuous
 62
     7
370
     0
100
AcDbPolyline
 90
        8
 70
   128
 43
0.0
 10
113.4540464086
 20
109.4622878317
 10
113.4501572056
 20
109.4855112914
 10
113.433095376
 20
109.5873085741
 10
113.4033601088
 20
109.7647814039
 10
113.3625532789
 20
110.0083557848
 10
113.3128653569
 20
110.3049037937
 10
113.2569785518
 20
110.6384364847
 10
113.1979103489
 20
110.9909756068
  0
LWPOLYLINE
  5
D6
330
1F
100
AcDbEntity
  8
0
  6
Continuous
 62
     7
370
     0
100
AcDbPolyline
 90
       11
 70
   128
 43
0.0
 10
120.7123573227
 20
128.4730551723
 10
120.7228477402
 20
128.4748135093
 10
120.8048488302
 20
128.48855238
 10
120.9589715404
 20
128.5143760923
 10
121.1666117711
 20
128.5491703037
 10
121.4027355714
 20
128.5887328867
 10
121.6388593716
 20
128.6282954696
 10
121.8464996023
 20
128.6630822304
 10
122.0006148619
 20
128.6889059428
 10
122.0826234026
 20
128.7026448134
 10
122.0931138201
 20
128.7044031504
  0
LWPOLYLINE
  5
D7
330
1F
100
AcDbEntity
  8
0
  6
Continuous
 62
     7
370
     0
100
AcDbPolyline
 90
       11
 70
   128
 43
0.0
 10
122.6848612828
 20
128.803555477
 10
122.6953517003
 20
128.805313814
 10
122.7773527903
 20
128.8190526847
 10
122.9314755006
 20
128.8448689464
 10
123.1391157312
 20
128.8796631578
 10
123.3752395315
 20
128.9192257408
 10
123.6113633318
 20
128.9587883238
 10
123.8190035624
 20
128.9935825351
 10
123.9731188221
 20
129.0193987969
 10
124.0551273627
 20
129.0331376675
 10
124.0656177802
 20
129.0348960045
  0
LWPOLYLINE
  5
D8
330
1F
100
AcDbEntity
  8
0
  6
Continuous
 62
     7
370
     0
100
AcDbPolyline
 90
        9
 70
   128
 43
0.0
 10
120.2313105864
 20
133.4621576551
 10
120.2575887842
 20
133.4665609482
 10
120.3324149651
 20
133.4790928248
 10
120.4443971915
 20
133.4978608373
 10
120.5764959855
 20
133.5199890617
 10
120.7085947795
 20
133.5421247367
 10
120.8205844564
 20
133.5608927492
 10
120.8954106374
 20
133.5734246257
 10
120.9216888351
 20
133.5778279189
  0
LWPOLYLINE
  5
D9
330
1F
100
AcDbEntity
  8
0
  6
Continuous
 62
     7
370
     0
100
AcDbPolyline
 90
        9
 70
   128
 43
0.0
 10
122.2038145466
 20
133.7926505092
 10
122.2300927443
 20
133.7970538024
 10
122.3049189253
 20
133.8095931295
 10
122.4169086022
 20
133.8283536914
 10
122.5489999456
 20
133.8504893664
 10
122.6810987396
 20
133.8726175908
 10
122.7930884166
 20
133.8913856033
 10
122.8679145975
 20
133.9039174799
 10
122.8941927953
 20
133.908320773
  0
SPLINE
  5
DA
330
1F
100
AcDbEntity
  8
0
  6
Continuous
 62
     7
370
     0
100
AcDbSpline
210
0.0
220
0.0
230
1.0
 70
    24
 71
     3
 72
     8
 73
     4
 74
     0
 42
0.000000001
 43
0.00000001
 40
0.0
 40
0.0
 40
0.0
 40
0.0
 40
1.0
 40
1.0
 40
1.0
 40
1.0
 10
109.8452742887449
 20
122.6027686016082
 30
0.0
 10
109.8589949522891
 20
122.6411812191649
 30
0.0
 10
109.8731534593089
 20
122.6808196312269
 30
0.0
 10
109.8883319150812
 20
122.7233135102443
 30
0.0
  0
ARC
  5
DB
330
1F
100
AcDbEntity
  8
0
  6
Continuous
 62
     7
370
     0
100
AcDbCircle
 10
110.3763719949
 20
122.9896833293
 30
0.0
 40
0.6570903894995196
100
AcDbArc
 50
194.6133541222
 51
216.0740462309
  0
SPLINE
  5
DC
330
1F
100
AcDbEntity
  8
0
  6
Continuous
 62
     7
370
     0
100
AcDbSpline
210
0.0
220
0.0
230
1.0
 70
    24
 71
     3
 72
     8
 73
     4
 74
     0
 42
0.000000001
 43
0.00000001
 40
0.0
 40
0.0
 40
0.0
 40
0.0
 40
1.0
 40
1.0
 40
1.0
 40
1.0
 10
109.7405382209014
 20
122.8239027760648
 30
0.0
 10
109.7789508384581
 20
122.8101821125206
 30
0.0
 10
109.8185892505201
 20
122.7960236055008
 30
0.0
 10
109.8610831295374
 20
122.7808451497285
 30
0.0
  0
ARC
  5
DD
330
1F
100
AcDbEntity
  8
0
  6
Continuous
 62
     7
370
     0
100
AcDbCircle
 10
110.3763719949
 20
122.9896833293
 30
0.0
 40
0.5560000000000066
100
AcDbArc
 50
202.0619105582
 51
208.6254897949
  0
SPLINE
  5
DE
330
1F
100
AcDbEntity
  8
0
  6
Continuous
 62
     7
370
     0
100
AcDbSpline
210
0.0
220
0.0
230
1.0
 70
    24
 71
     3
 72
     8
 73
     4
 74
     0
 42
0.000000001
 43
0.00000001
 40
0.0
 40
0.0
 40
0.0
 40
0.0
 40
1.0
 40
1.0
 40
1.0
 40
1.0
 10
110.2105914416582
 20
123.6255171032829
 30
0.0
 10
110.196870778114
 20
123.5871044857263
 30
0.0
 10
110.1827122710942
 20
123.5474660736643
 30
0.0
 10
110.1675338153219
 20
123.5049721946469
 30
0.0
  0
ARC
  5
DF
330
1F
100
AcDbEntity
  8
0
  6
Continuous
 62
     7
370
     0
100
AcDbCircle
 10
110.3763719949
 20
122.9896833293
 30
0.0
 40
0.5559999999999988
100
AcDbArc
 50
112.0619105582
 51
118.6254897949
  0
ARC
  5
E0
330
1F
100
AcDbEntity
  8
0
  6
Continuous
 62
     7
370
     0
100
AcDbCircle
 10
110.3763719949
 20
122.9896833293
 30
0.0
 40
0.6570903894995185
100
AcDbArc
 50
104.6133541222
 51
126.0740462309
  0
SPLINE
  5
E1
330
1F
100
AcDbEntity
  8
0
  6
Continuous
 62
     7
370
     0
100
AcDbSpline
210
0.0
220
0.0
230
1.0
 70
    24
 71
     3
 72
     8
 73
     4
 74
     0
 42
0.000000001
 43
0.00000001
 40
0.0
 40
0.0
 40
0.0
 40
0.0
 40
1.0
 40
1.0
 40
1.0
 40
1.0
 10
109.9894572672016
 20
123.5207810354394
 30
0.0
 10
110.0278698847583
 20
123.5070603718952
 30
0.0
 10
110.0675082968203
 20
123.4929018648754
 30
0.0
 10
110.1100021758377
 20
123.4777234091031
 30
0.0
  0
LWPOLYLINE
  5
E2
330
1F
100
AcDbEntity
  8
0
  6
Continuous
 62
     7
370
     0
100
AcDbPolyline
 90
        9
 70
   128
 43
0.0
 10
110.9074677629
 20
123.3765972737
 10
110.935481946
 20
123.4550146345
 10
110.9633992715
 20
123.5331712249
 10
110.9912048383
 20
123.6110297922
 10
111.0188986463
 20
123.6885530833
 10
111.046458344
 20
123.765711296
 10
111.07386903
 20
123.8424597267
 10
111.1011307044
 20
123.9187760237
 10
111.1282210154
 20
123.9946229342
  0
ARC
  5
E3
330
1F
100
AcDbEntity
  8
0
  6
Continuous
 62
     7
370
     0
100
AcDbCircle
 10
107.8102955108
 20
115.8058518904
 30
0.0
 40
8.835417413025262
100
AcDbArc
 50
67.9431975988
 51
72.7433335624
  0
LWPOLYLINE
  5
E4
330
1F
100
AcDbEntity
  8
0
  6
Continuous
 62
     7
370
     0
100
AcDbPolyline
 90
        9
 70
   128
 43
0.0
 10
110.4313458605
 20
124.243546832
 10
110.4042555494
 20
124.1676999215
 10
110.376993875
 20
124.0913836244
 10
110.3495757384
 20
124.0146277431
 10
110.3220160408
 20
123.9374695305
 10
110.2943296833
 20
123.8599462393
 10
110.2665166659
 20
123.7820876721
 10
110.2385993404
 20
123.7039385322
 10
110.210592608
 20
123.6255137209
  0
ARC
  5
E5
330
1F
100
AcDbEntity
  8
0
  6
Continuous
 62
     7
370
     0
100
AcDbCircle
 10
117.5602047591
 20
120.4236086573
 30
0.0
 40
8.835417413006489
100
AcDbArc
 50
157.9431975988
 51
162.7433335624
  0
LWPOLYLINE
  5
E6
330
1F
100
AcDbEntity
  8
0
  6
Continuous
 62
     7
370
     0
100
AcDbPolyline
 90
        9
 70
   128
 43
0.0
 10
109.1225098176
 20
123.0446590069
 10
109.1983567281
 20
123.0175686959
 10
109.2746730251
 20
122.9903070215
 10
109.3514289064
 20
122.9628888849
 10
109.4285871191
 20
122.9353291873
 10
109.5061104102
 20
122.9076428298
 10
109.5839615269
 20
122.8798298124
 10
109.6621181173
 20
122.8519124869
 10
109.7405354781
 20
122.8239057544
  0
ARC
  5
E7
330
1F
100
AcDbEntity
  8
0
  6
Continuous
 62
     7
370
     0
100
AcDbCircle
 10
112.9430917006
 20
130.1755651608
 30
0.0
 40
8.8375634697507
100
AcDbArc
 50
247.9443321476
 51
252.7432855325
  0
LWPOLYLINE
  5
E8
330
1F
100
AcDbEntity
  8
0
  6
Continuous
 62
     7
370
     0
100
AcDbPolyline
 90
        9
 70
   128
 43
0.0
 10
110.3213976426
 20
121.7358229641
 10
110.3484879536
 20
121.8116698745
 10
110.375749628
 20
121.8879861716
 10
110.4031677646
 20
121.9647420529
 10
110.4307274623
 20
122.041892815
 10
110.4584138198
 20
122.1194161061
 10
110.4862268371
 20
122.1972746733
 10
110.5141441626
 20
122.2754312638
 10
110.5421508951
 20
122.3538486246
  0
ARC
  5
E9
330
1F
100
AcDbEntity
  8
0
  6
Continuous
 62
     7
370
     0
100
AcDbCircle
 10
110.3763719949
 20
122.9896833293
 30
0.0
 40
0.6570903894995287
100
AcDbArc
 50
284.6133541222
 51
306.0740462309
  0
LWPOLYLINE
  5
EA
330
1F
100
AcDbEntity
  8
0
  6
Continuous
 62
     7
370
     0
100
AcDbPolyline
 90
        9
 70
   128
 43
0.0
 10
110.7632841272
 20
122.4585888866
 10
110.8417089386
 20
122.4305747036
 10
110.9198580785
 20
122.4026573781
 10
110.9977166457
 20
122.3748518113
 10
111.0752399368
 20
122.3471580032
 10
111.1523981495
 20
122.3195983056
 10
111.2291540308
 20
122.292180169
 10
111.3054703278
 20
122.2649259452
 10
111.3813172383
 20
122.2378281835
  0
ARC
  5
EB
330
1F
100
AcDbEntity
  8
0
  6
Continuous
 62
     7
370
     0
100
AcDbCircle
 10
103.1870262049
 20
125.5576071167
 30
0.0
 40
8.841229422703337
100
AcDbArc
 50
337.9454989456
 51
342.7425068252
  0
LWPOLYLINE
  5
EC
330
1F
100
AcDbEntity
  8
0
  6
Continuous
 62
     7
370
     0
100
AcDbPolyline
 90
        9
 70
   128
 43
0.0
 10
111.6302336855
 20
122.9347107891
 10
111.554386775
 20
122.9618011001
 10
111.4780704779
 20
122.9890627745
 10
111.4013145966
 20
123.0164734605
 10
111.3241638346
 20
123.0440331582
 10
111.2466330929
 20
123.0717269663
 10
111.1687819762
 20
123.0995399836
 10
111.0906253857
 20
123.1274498585
 10
111.012208025
 20
123.1554640416
  0
ARC
  5
ED
330
1F
100
AcDbEntity
  8
0
  6
Continuous
 62
     7
370
     0
100
AcDbCircle
 10
110.3763719949
 20
122.9896833293
 30
0.0
 40
0.6570903894995149
100
AcDbArc
 50
14.6133541222
 51
36.0740462309
  0
CIRCLE
  5
EE
330
1F
100
AcDbEntity
  8
0
  6
Continuous
 62
     7
370
     0
100
AcDbCircle
 10
110.3763719949
 20
122.9896833293
 30
0.0
 40
2.404255319148939
  0
LWPOLYLINE
  5
EF
330
1F
100
AcDbEntity
  8
0
  6
Continuous
 62
     7
370
     0
100
AcDbPolyline
 90
        9
 70
   128
 43
0.0
 10
109.8452757401
 20
122.6027650717
 10
109.8172615571
 20
122.524347711
 10
109.7893442316
 20
122.4461911205
 10
109.7615386648
 20
122.3683400038
 10
109.7338448567
 20
122.2908167127
 10
109.7062851591
 20
122.2136585001
 10
109.6788744731
 20
122.1369026188
 10
109.6516127987
 20
122.0605863217
 10
109.6245224876
 20
121.9847394112
  0
LWPOLYLINE
  5
F0
330
1F
100
AcDbEntity
  8
0
  6
Continuous
 62
     7
370
     0
100
AcDbPolyline
 90
        9
 70
   128
 43
0.0
 10
109.9894593758
 20
123.5207809094
 10
109.9110420151
 20
123.5487950925
 10
109.8328854246
 20
123.5767049674
 10
109.7550268574
 20
123.6045179847
 10
109.6775035662
 20
123.6322117928
 10
109.6003453536
 20
123.6597714904
 10
109.5235969229
 20
123.6871821765
 10
109.4472731752
 20
123.7144438509
 10
109.3714337153
 20
123.7415341619
  0
SPLINE
  5
F1
330
1F
100
AcDbEntity
  8
0
  6
Continuous
 62
     7
370
     0
100
AcDbSpline
210
0.0
220
0.0
230
1.0
 70
    24
 71
     3
 72
     8
 73
     4
 74
     0
 42
0.000000001
 43
0.00000001
 40
0.0
 40
0.0
 40
0.0
 40
0.0
 40
1.0
 40
1.0
 40
1.0
 40
1.0
 10
111.0122057688763
 20
123.1554638825262
 30
0.0
 10
110.9737931513197
 20
123.1691845460703
 30
0.0
 10
110.9341547392577
 20
123.1833430530901
 30
0.0
 10
110.8916608602403
 20
123.1985215088624
 30
0.0
  0
ARC
  5
F2
330
1F
100
AcDbEntity
  8
0
  6
Continuous
 62
     7
370
     0
100
AcDbCircle
 10
110.3763719949
 20
122.9896833293
 30
0.0
 40
0.5559999999999881
100
AcDbArc
 50
22.0619105582
 51
28.6254897949
  0
SPLINE
  5
F3
330
1F
100
AcDbEntity
  8
0
  6
Continuous
 62
     7
370
     0
100
AcDbSpline
210
0.0
220
0.0
230
1.0
 70
    24
 71
     3
 72
     8
 73
     4
 74
     0
 42
0.000000001
 43
0.00000001
 40
0.0
 40
0.0
 40
0.0
 40
0.0
 40
1.0
 40
1.0
 40
1.0
 40
1.0
 10
110.9074697010328
 20
123.3765980569827
 30
0.0
 10
110.8937490374886
 20
123.338185439426
 30
0.0
 10
110.8795905304688
 20
123.298547027364
 30
0.0
 10
110.8644120746965
 20
123.2560531483467
 30
0.0
  0
ARC
  5
F4
330
1F
100
AcDbEntity
  8
0
  6
Continuous
 62
     7
370
     0
100
AcDbCircle
 10
110.3763719949
 20
122.9896833293
 30
0.0
 40
0.5560000000000046
100
AcDbArc
 50
292.0619105582
 51
298.6254897949
  0
SPLINE
  5
F5
330
1F
100
AcDbEntity
  8
0
  6
Continuous
 62
     7
370
     0
100
AcDbSpline
210
0.0
220
0.0
230
1.0
 70
    24
 71
     3
 72
     8
 73
     4
 74
     0
 42
0.000000001
 43
0.00000001
 40
0.0
 40
0.0
 40
0.0
 40
0.0
 40
1.0
 40
1.0
 40
1.0
 40
1.0
 10
110.7632867225761
 20
122.4585856231515
 30
0.0
 10
110.7248741050194
 20
122.4723062866957
 30
0.0
 10
110.6852356929574
 20
122.4864647937155
 30
0.0
 10
110.6427418139401
 20
122.5016432494878
 30
0.0
  0
SPLINE
  5
F6
330
1F
100
AcDbEntity
  8
0
  6
Continuous
 62
     7
370
     0
100
AcDbSpline
210
0.0
220
0.0
230
1.0
 70
    24
 71
     3
 72
     8
 73
     4
 74
     0
 42
0.000000001
 43
0.00000001
 40
0.0
 40
0.0
 40
0.0
 40
0.0
 40
1.0
 40
1.0
 40
1.0
 40
1.0
 10
110.5421525481196
 20
122.353849555308
 30
0.0
 10
110.5558732116637
 20
122.3922621728647
 30
0.0
 10
110.5700317186835
 20
122.4319005849267
 30
0.0
 10
110.5852101744558
 20
122.4743944639441
 30
0.0
  0
LINE
  5
F7
330
1F
100
AcDbEntity
  8
0
  6
Continuous
 62
     7
370
     0
100
AcDbLine
 10
110.500405292
 20
123.5316736582
 30
0.0
 11
110.2136547966
 21
123.6340967897
 31
0.0
  0
LINE
  5
F8
330
1F
100
AcDbEntity
  8
0
  6
Continuous
 62
     7
370
     0
100
AcDbLine
 10
110.9105374021
 20
123.3851803425
 30
0.0
 11
110.6237869067
 21
123.487603474
 31
0.0
  0
ELLIPSE
  5
F9
330
1F
100
AcDbEntity
  8
0
  6
Continuous
 62
     7
370
     0
100
AcDbEllipse
 10
110.3994023794
 20
123.0541596099
 30
0.0
 11
0.1642077685846886
 21
0.4597190357585959
 31
0.0
210
0.0
220
0.0
230
1.0
 40
0.9901159119
 41
6.147238359929603
 42
6.419132254429625
  0
LINE
  5
FA
330
1F
100
AcDbEntity
  8
0
  6
Continuous
 62
     7
370
     0
100
AcDbLine
 10
110.9183605118
 20
122.8656513575
 30
0.0
 11
111.0207836432
 21
123.152401853
 31
0.0
  0
LINE
  5
FB
330
1F
100
AcDbEntity
  8
0
  6
Continuous
 62
     7
370
     0
100
AcDbLine
 10
110.7718671961
 20
122.4555192474
 30
0.0
 11
110.8742903275
 21
122.7422697428
 31
0.0
  0
ELLIPSE
  5
FC
330
1F
100
AcDbEntity
  8
0
  6
Continuous
 62
     7
370
     0
100
AcDbEllipse
 10
110.4408482755
 20
122.9666529448
 30
0.0
 11
0.4597190357585959
 21
-0.1642077685847028
 31
0.0
210
0.0
220
0.0
230
1.0
 40
0.9901159119
 41
6.147238359929548
 42
6.419132254429664
  0
LINE
  5
FD
330
1F
100
AcDbEntity
  8
0
  6
Continuous
 62
     7
370
     0
100
AcDbLine
 10
109.8343829913
 20
123.1137184385
 30
0.0
 11
109.7319598598
 21
122.8269679431
 31
0.0
  0
LINE
  5
FE
330
1F
100
AcDbEntity
  8
0
  6
Continuous
 62
     7
370
     0
100
AcDbLine
 10
109.980876307
 20
123.523843098
 30
0.0
 11
109.8784531755
 21
123.2370926026
 31
0.0
  0
ELLIPSE
  5
FF
330
1F
100
AcDbEntity
  8
0
  6
Continuous
 62
     7
370
     0
100
AcDbEllipse
 10
110.3118957143
 20
123.0127137138
 30
0.0
 11
0.4597190357585959
 21
-0.1642077685847028
 31
0.0
210
0.0
220
0.0
230
1.0
 40
0.9901159119
 41
3.005645706339769
 42
3.277539600839883
  0
LINE
  5
100
330
1F
100
AcDbEntity
  8
0
  6
Continuous
 62
     7
370
     0
100
AcDbLine
 10
110.252338211
 20
122.4476961378
 30
0.0
 11
110.5390887065
 21
122.3452730063
 31
0.0
  0
LINE
  5
101
330
1F
100
AcDbEntity
  8
0
  6
Continuous
 62
     7
370
     0
100
AcDbLine
 10
109.8422061009
 20
122.5941894535
 30
0.0
 11
110.1289565964
 21
122.491766322
 31
0.0
  0
ELLIPSE
  5
102
330
1F
100
AcDbEntity
  8
0
  6
Continuous
 62
     7
370
     0
100
AcDbEllipse
 10
110.3533416104
 20
122.9252070487
 30
0.0
 11
0.1642077685846743
 21
0.4597190357585816
 31
0.0
210
0.0
220
0.0
230
1.0
 40
0.9901159119
 41
3.005645706339742
 42
3.277539600839797
  0
CIRCLE
  5
103
330
1F
100
AcDbEntity
  8
0
  6
Continuous
 62
     7
370
     0
100
AcDbCircle
 10
110.3763719949
 20
122.9896833293
 30
0.0
 40
2.500000000000006
  0
ARC
  5
104
330
1F
100
AcDbEntity
  8
0
  6
Continuous
 62
     7
370
     0
100
AcDbCircle
 10
110.3763719949
 20
122.9896833293
 30
0.0
 40
0.5560000000000156
100
AcDbArc
 50
153.577544985
 51
167.1098553681
  0
ARC
  5
105
330
1F
100
AcDbEntity
  8
0
  6
Continuous
 62
     7
370
     0
100
AcDbCircle
 10
110.3763719949
 20
122.9896833293
 30
0.0
 40
0.5560000000000092
100
AcDbArc
 50
333.577544985
 51
347.1098553681
  0
ARC
  5
106
330
1F
100
AcDbEntity
  8
0
  6
Continuous
 62
     7
370
     0
100
AcDbCircle
 10
110.3763719949
 20
122.9896833293
 30
0.0
 40
0.5559999999999903
100
AcDbArc
 50
63.577544985
 51
77.1098553681
  0
ARC
  5
107
330
1F
100
AcDbEntity
  8
0
  6
Continuous
 62
     7
370
     0
100
AcDbCircle
 10
110.3763719949
 20
122.9896833293
 30
0.0
 40
0.5560000000000049
100
AcDbArc
 50
243.577544985
 51
257.1098553681
  0
ARC
  5
108
330
1F
100
AcDbEntity
  8
0
  6
Continuous
 62
     7
370
     0
100
AcDbCircle
 10
110.3763719949
 20
122.9896833293
 30
0.0
 40
0.5560000000000156
100
AcDbArc
 50
118.6254897949
 51
153.577544985
  0
ARC
  5
109
330
1F
100
AcDbEntity
  8
0
  6
Continuous
 62
     7
370
     0
100
AcDbCircle
 10
110.3763719949
 20
122.9896833293
 30
0.0
 40
0.5559999999999987
100
AcDbArc
 50
77.1098553681
 51
112.0619105582
  0
ARC
  5
10A
330
1F
100
AcDbEntity
  8
0
  6
Continuous
 62
     7
370
     0
100
AcDbCircle
 10
110.3763719949
 20
122.9896833293
 30
0.0
 40
0.5559999999999903
100
AcDbArc
 50
28.6254897949
 51
63.577544985
  0
ARC
  5
10B
330
1F
100
AcDbEntity
  8
0
  6
Continuous
 62
     7
370
     0
100
AcDbCircle
 10
110.3763719949
 20
122.9896833293
 30
0.0
 40
0.5560000000000017
100
AcDbArc
 50
347.1098553681
 51
22.0619105582
  0
ARC
  5
10C
330
1F
100
AcDbEntity
  8
0
  6
Continuous
 62
     7
370
     0
100
AcDbCircle
 10
110.3763719949
 20
122.9896833293
 30
0.0
 40
0.5560000000000092
100
AcDbArc
 50
298.6254897949
 51
333.577544985
  0
ARC
  5
10D
330
1F
100
AcDbEntity
  8
0
  6
Continuous
 62
     7
370
     0
100
AcDbCircle
 10
110.3763719949
 20
122.9896833293
 30
0.0
 40
0.5560000000000049
100
AcDbArc
 50
257.1098553681
 51
292.0619105582
  0
ARC
  5
10E
330
1F
100
AcDbEntity
  8
0
  6
Continuous
 62
     7
370
     0
100
AcDbCircle
 10
110.3763719949
 20
122.9896833293
 30
0.0
 40
0.5560000000000046
100
AcDbArc
 50
208.6254897949
 51
243.577544985
  0
ARC
  5
10F
330
1F
100
AcDbEntity
  8
0
  6
Continuous
 62
     7
370
     0
100
AcDbCircle
 10
110.3763719949
 20
122.9896833293
 30
0.0
 40
0.5560000000000156
100
AcDbArc
 50
167.1098553681
 51
202.0619105582
  0
ARC
  5
110
330
1F
100
AcDbEntity
  8
0
  6
Continuous
 62
     7
370
     0
100
AcDbCircle
 10
104.9395456658
 20
104.4212320286
 30
0.0
 40
1.500000000000016
100
AcDbArc
 50
188.0909555447
 51
257.19705135
  0
LINE
  5
111
330
1F
100
AcDbEntity
  8
0
  6
Continuous
 62
     7
370
     0
100
AcDbLine
 10
103.4544731779
 20
104.2101127986
 30
0.0
 11
99.1519640488
 21
134.4753993634
 31
0.0
  0
LINE
  5
112
330
1F
100
AcDbEntity
  8
0
  6
Continuous
 62
     7
370
     0
100
AcDbLine
 10
99.1519640488
 20
134.4753993634
 30
0.0
 11
98.8414834542
 21
137.3700318817
 31
0.0
  0
LWPOLYLINE
  5
113
330
1F
100
AcDbEntity
  8
0
  6
Continuous
 62
     1
370
     0
100
AcDbPolyline
 90
        9
 70
   128
 43
0.0
 10
113.3951644702
 20
111.0240263823
 10
113.4573321147
 20
110.6530023698
 10
113.5165865822
 20
110.2993233088
 10
113.5701711578
 20
109.9795294884
 10
113.6155675454
 20
109.7085816744
 10
113.65065978
 20
109.4991384033
 10
113.6738012833
 20
109.3609971884
 10
113.6839191718
 20
109.3006176833
 10
113.6843438549
 20
109.2980844859
  0
LWPOLYLINE
  5
114
330
1F
100
AcDbEntity
  8
0
  6
Continuous
 62
     1
370
     0
100
AcDbPolyline
 90
        7
 70
   128
 43
0.0
 10
113.1307657165
 20
112.6020295504
 10
113.1396691603
 20
112.5489218119
 10
113.174761395
 20
112.3394785408
 10
113.2201577825
 20
112.0685232762
 10
113.2737349076
 20
111.7487294558
 10
113.3329968257
 20
111.3950578455
 10
113.3951644702
 20
111.0240263823
  0
DIMENSION
  5
115
330
1F
100
AcDbEntity
  8
0
  6
Continuous
 62
     7
370
     0
100
AcDbDimension
  2
_D
 10
95.4696065542
 20
100.7202284662
 30
0.0
 11
92.1646656019
 21
120.4452725802
 31
0.0
 70
   160
  1
<>
 71
     2
 42
-1.0
  3
SLDDIMSTYLE0
100
AcDbAlignedDimension
 13
99.0987898732
 23
141.8858771653
 33
0.0
 14
104.722419572
 24
102.2705418895
 34
0.0
 50
-80.4884137372
100
AcDbRotatedDimension
  0
INSERT
  5
125
330
1F
100
AcDbEntity
  8
0
  6
Continuous
 62
     7
370
     0
100
AcDbBlockReference
  2
SW_NOTE_0
 10
132.9586466165
 20
85.4749375371
 30
0.0
  0
LEADER
  5
127
330
1F
100
AcDbEntity
  8
0
  6
Continuous
 62
     7
370
     0
100
AcDbLeader
  3
SLDDIMSTYLE1
 76
     2
 10
120.6097897753
 20
108.9882363922
 30
0.0
 10
132.9586466165
 20
85.4749375371
 30
0.0
  0
LINE
  5
128
330
1F
100
AcDbEntity
  8
0
  6
Continuous
 62
     7
370
     0
100
AcDbLine
 10
103.3149089021
 20
231.5211259901
 30
0.0
 11
103.3149089021
 21
231.6211260531
 31
0.0
  0
LINE
  5
129
330
1F
100
AcDbEntity
  8
0
  6
Continuous
 62
     7
370
     0
100
AcDbLine
 10
103.3149089021
 20
235.4211261172
 30
0.0
 11
103.3149089021
 21
235.5211261801
 31
0.0
  0
LINE
  5
12A
330
1F
100
AcDbEntity
  8
0
  6
Continuous
 62
     7
370
     0
100
AcDbLine
 10
100.3149065478
 20
235.5211261801
 30
0.0
 11
100.3149065478
 21
235.4211261172
 31
0.0
  0
LINE
  5
12B
330
1F
100
AcDbEntity
  8
0
  6
Continuous
 62
     7
370
     0
100
AcDbLine
 10
100.3149065478
 20
231.6211260531
 30
0.0
 11
100.3149065478
 21
231.5211259901
 31
0.0
  0
LINE
  5
12C
330
1F
100
AcDbEntity
  8
0
  6
Continuous
 62
     7
370
     0
100
AcDbLine
 10
128.2474871082
 20
230.8211260151
 30
0.0
 11
128.2474871082
 21
236.2211261552
 31
0.0
  0
LINE
  5
12D
330
1F
100
AcDbEntity
  8
0
  6
Continuous
 62
     7
370
     0
100
AcDbLine
 10
109.9325369401
 20
235.5211261801
 30
0.0
 11
107.2019885583
 21
235.5211261801
 31
0.0
  0
LINE
  5
12E
330
1F
100
AcDbEntity
  8
0
  6
Continuous
 62
     7
370
     0
100
AcDbLine
 10
107.2019885583
 20
231.5211259901
 30
0.0
 11
109.9325369401
 21
231.5211259901
 31
0.0
  0
LINE
  5
12F
330
1F
100
AcDbEntity
  8
0
  6
Continuous
 62
     7
370
     0
100
AcDbLine
 10
107.1345906062
 20
235.486554322
 30
0.0
 11
106.9446678562
 21
235.2900113819
 31
0.0
  0
LINE
  5
130
330
1F
100
AcDbEntity
  8
0
  6
Continuous
 62
     7
370
     0
100
AcDbLine
 10
106.9446678562
 20
231.7522407884
 30
0.0
 11
107.1345906062
 21
231.5556978483
 31
0.0
  0
LINE
  5
131
330
1F
100
AcDbEntity
  8
0
  6
Continuous
 62
     7
370
     0
100
AcDbLine
 10
116.8065618081
 20
235.5211261801
 30
0.0
 11
109.9325369401
 21
235.5211261801
 31
0.0
  0
LINE
  5
132
330
1F
100
AcDbEntity
  8
0
  6
Continuous
 62
     7
370
     0
100
AcDbLine
 10
109.9325369401
 20
231.5211259901
 30
0.0
 11
116.8065618081
 21
231.5211259901
 31
0.0
  0
LINE
  5
133
330
1F
100
AcDbEntity
  8
0
  6
Continuous
 62
     7
370
     0
100
AcDbLine
 10
109.865138988
 20
235.486554322
 30
0.0
 11
109.6752236886
 21
235.2900113819
 31
0.0
  0
LINE
  5
134
330
1F
100
AcDbEntity
  8
0
  6
Continuous
 62
     7
370
     0
100
AcDbLine
 10
109.6752236886
 20
231.7522407884
 30
0.0
 11
109.865138988
 21
231.5556978483
 31
0.0
  0
LINE
  5
135
330
1F
100
AcDbEntity
  8
0
  6
Continuous
 62
     7
370
     0
100
AcDbLine
 10
123.3752395315
 20
233.8711260726
 30
0.0
 11
123.3378376169
 21
233.8711260726
 31
0.0
  0
LINE
  5
136
330
1F
100
AcDbEntity
  8
0
  6
Continuous
 62
     7
370
     0
100
AcDbLine
 10
123.3378376169
 20
233.1711260976
 30
0.0
 11
123.3752395315
 21
233.1711260976
 31
0.0
  0
LINE
  5
137
330
1F
100
AcDbEntity
  8
0
  6
Continuous
 62
     7
370
     0
100
AcDbLine
 10
123.8709788127
 20
234.2211260602
 30
0.0
 11
123.3752395315
 21
234.2211260602
 31
0.0
  0
LINE
  5
138
330
1F
100
AcDbEntity
  8
0
  6
Continuous
 62
     7
370
     0
100
AcDbLine
 10
123.3752395315
 20
232.8211261101
 30
0.0
 11
123.8709788127
 21
232.8211261101
 31
0.0
  0
ARC
  5
139
330
1F
100
AcDbEntity
  8
0
  6
Continuous
 62
     7
370
     0
100
AcDbCircle
 10
110.3763719949
 20
235.1211260851
 30
0.0
 40
4.000000000000019
100
AcDbArc
 50
107.5716446908
 51
121.7883306171
  0
ARC
  5
13A
330
1F
100
AcDbEntity
  8
0
  6
Continuous
 62
     7
370
     0
100
AcDbCircle
 10
110.3763719949
 20
235.1211260851
 30
0.0
 40
4.00000000000001
100
AcDbArc
 50
58.2116693829
 51
72.4283553092
  0
ARC
  5
13B
330
1F
100
AcDbEntity
  8
0
  6
Continuous
 62
     7
370
     0
100
AcDbCircle
 10
110.3763719949
 20
231.9211260851
 30
0.0
 40
4.000000000000012
100
AcDbArc
 50
285.9613587262
 51
301.7883306171
  0
ARC
  5
13C
330
1F
100
AcDbEntity
  8
0
  6
Continuous
 62
     7
370
     0
100
AcDbCircle
 10
110.3763719949
 20
231.9211260851
 30
0.0
 40
4.000000000000023
100
AcDbArc
 50
238.2116693829
 51
254.0386412738
  0
LINE
  5
13D
330
1F
100
AcDbEntity
  8
0
  6
Continuous
 62
     7
370
     0
100
AcDbLine
 10
118.0752168698
 20
230.721126185
 30
0.0
 11
118.0752168698
 21
228.5211261969
 31
0.0
  0
LINE
  5
13E
330
1F
100
AcDbEntity
  8
0
  6
Continuous
 62
     7
370
     0
100
AcDbLine
 10
118.3702077074
 20
231.021126141
 30
0.0
 11
118.0752168698
 21
230.721126185
 31
0.0
  0
LINE
  5
13F
330
1F
100
AcDbEntity
  8
0
  6
Continuous
 62
     7
370
     0
100
AcDbLine
 10
118.3702077074
 20
231.021126141
 30
0.0
 11
119.8451395435
 21
231.021126141
 31
0.0
  0
LINE
  5
140
330
1F
100
AcDbEntity
  8
0
  6
Continuous
 62
     7
370
     0
100
AcDbLine
 10
119.8451395435
 20
236.0211260292
 30
0.0
 11
119.8451395435
 21
231.021126141
 31
0.0
  0
LINE
  5
141
330
1F
100
AcDbEntity
  8
0
  6
Continuous
 62
     7
370
     0
100
AcDbLine
 10
119.8451395435
 20
236.0211260292
 30
0.0
 11
118.3702077074
 21
236.0211260292
 31
0.0
  0
LINE
  5
142
330
1F
100
AcDbEntity
  8
0
  6
Continuous
 62
     7
370
     0
100
AcDbLine
 10
118.0752168698
 20
236.3211259853
 30
0.0
 11
118.3702077074
 21
236.0211260292
 31
0.0
  0
LINE
  5
143
330
1F
100
AcDbEntity
  8
0
  6
Continuous
 62
     7
370
     0
100
AcDbLine
 10
118.0752168698
 20
238.5211259734
 30
0.0
 11
118.0752168698
 21
236.3211259853
 31
0.0
  0
LINE
  5
144
330
1F
100
AcDbEntity
  8
0
  6
Continuous
 62
     7
370
     0
100
AcDbLine
 10
120.5334465308
 20
228.5211261969
 30
0.0
 11
120.5334465308
 21
238.5211259734
 31
0.0
  0
LINE
  5
145
330
1F
100
AcDbEntity
  8
0
  6
Continuous
 62
     7
370
     0
100
AcDbLine
 10
120.5334465308
 20
228.5211261969
 30
0.0
 11
118.0752168698
 21
228.5211261969
 31
0.0
  0
LINE
  5
146
330
1F
100
AcDbEntity
  8
0
  6
Continuous
 62
     7
370
     0
100
AcDbLine
 10
120.5334465308
 20
238.5211259734
 30
0.0
 11
118.0752168698
 21
238.5211259734
 31
0.0
  0
LWPOLYLINE
  5
147
330
1F
100
AcDbEntity
  8
0
  6
Continuous
 62
     7
370
     0
100
AcDbPolyline
 90
        7
 70
   128
 43
0.0
 10
114.0760134263
 20
235.5211261801
 10
114.058519463
 20
235.567798014
 10
113.9849375291
 20
235.7077022224
 10
113.9078612728
 20
235.7685776569
 10
113.8300846619
 20
235.7482243005
 10
113.7544091148
 20
235.6473778982
 10
113.7007351322
 20
235.5211261801
  0
LWPOLYLINE
  5
148
330
1F
100
AcDbEntity
  8
0
  6
Continuous
 62
     7
370
     0
100
AcDbPolyline
 90
        7
 70
   128
 43
0.0
 10
113.7007351322
 20
231.5211259901
 10
113.7544091148
 20
231.3948742721
 10
113.8300846619
 20
231.2940278698
 10
113.9078612728
 20
231.2736745134
 10
113.9849375291
 20
231.3345499478
 10
114.058519463
 20
231.4744541563
 10
114.0760134263
 20
231.5211259901
  0
LWPOLYLINE
  5
149
330
1F
100
AcDbEntity
  8
0
  6
Continuous
 62
     7
370
     0
100
AcDbPolyline
 90
       12
 70
   128
 43
0.0
 10
117.0285071535
 20
233.5211260851
 10
117.0211012764
 20
233.9469413764
 10
116.9991667671
 20
234.3573666203
 10
116.9634859366
 20
234.7375679437
 10
116.915355186
 20
235.0738039149
 10
116.8565030498
 20
235.3539219966
 10
116.7890678448
 20
235.567798014
 10
116.7154859109
 20
235.7077022224
 10
116.6384096546
 20
235.7685776569
 10
116.5606330437
 20
235.7482243005
 10
116.4849649472
 20
235.6473778982
 10
116.431283514
 20
235.5211261801
  0
LWPOLYLINE
  5
14A
330
1F
100
AcDbEntity
  8
0
  6
Continuous
 62
     7
370
     0
100
AcDbPolyline
 90
       12
 70
   128
 43
0.0
 10
116.431283514
 20
231.5211259901
 10
116.4849649472
 20
231.3948742721
 10
116.5606330437
 20
231.2940278698
 10
116.6384096546
 20
231.2736745134
 10
116.7154859109
 20
231.3345499478
 10
116.7890678448
 20
231.4744541563
 10
116.8565030498
 20
231.6883301737
 10
116.915355186
 20
231.9684482554
 10
116.9634859366
 20
232.3046842266
 10
116.9991667671
 20
232.68488555
 10
117.0211012764
 20
233.0953107939
 10
117.0285071535
 20
233.5211260851
  0
LINE
  5
14B
330
1F
100
AcDbEntity
  8
0
  6
Continuous
 62
     7
370
     0
100
AcDbLine
 10
117.6565314932
 20
236.3211259853
 30
0.0
 11
118.0752168698
 21
236.3211259853
 31
0.0
  0
LWPOLYLINE
  5
14C
330
1F
100
AcDbEntity
  8
0
  6
Continuous
 62
     7
370
     0
100
AcDbPolyline
 90
       19
 70
   128
 43
0.0
 10
117.6565314932
 20
230.721126185
 10
117.5680260463
 20
230.7636643436
 10
117.4822028084
 20
230.8899868421
 10
117.4016843838
 20
231.0962550018
 10
117.328899662
 20
231.3762017201
 10
117.2660763664
 20
231.7213207625
 10
117.2151143951
 20
232.121126135
 10
117.1775709195
 20
232.5634696662
 10
117.1545709772
 20
233.034911178
 10
117.1468298239
 20
233.5211260851
 10
117.1545709772
 20
234.0073409923
 10
117.1775709195
 20
234.478782504
 10
117.2151143951
 20
234.9211260352
 10
117.2660763664
 20
235.3209314078
 10
117.328899662
 20
235.6660504501
 10
117.4016843838
 20
235.9459971685
 10
117.4822028084
 20
236.1522653281
 10
117.5680260463
 20
236.2785878267
 10
117.6565314932
 20
236.3211259853
  0
LINE
  5
14D
330
1F
100
AcDbEntity
  8
0
  6
Continuous
 62
     7
370
     0
100
AcDbLine
 10
118.0752168698
 20
230.721126185
 30
0.0
 11
117.6565314932
 21
230.721126185
 31
0.0
  0
LINE
  5
14E
330
1F
100
AcDbEntity
  8
0
  6
Continuous
 62
     7
370
     0
100
AcDbLine
 10
114.9259831114
 20
236.3211259853
 30
0.0
 11
115.5813138289
 21
236.3211259853
 31
0.0
  0
ARC
  5
14F
330
1F
100
AcDbEntity
  8
0
  6
Continuous
 62
     7
370
     0
100
AcDbCircle
 10
115.7243997832
 20
231.5566693201
 30
0.0
 40
1.155682271511785
100
AcDbArc
 50
181.762425568
 51
226.3016377059
  0
ARC
  5
150
330
1F
100
AcDbEntity
  8
0
  6
Continuous
 62
     7
370
     0
100
AcDbCircle
 10
115.6045775297
 20
235.5390114409
 30
0.0
 40
1.035467790483527
100
AcDbArc
 50
130.9462382259
 51
180.9896985002
  0
LINE
  5
151
330
1F
100
AcDbEntity
  8
0
  6
Continuous
 62
     7
370
     0
100
AcDbLine
 10
115.5813138289
 20
230.721126185
 30
0.0
 11
114.9259831114
 21
230.721126185
 31
0.0
  0
ARC
  5
152
330
1F
100
AcDbEntity
  8
0
  6
Continuous
 62
     7
370
     0
100
AcDbCircle
 10
114.782897157
 20
235.4855828501
 30
0.0
 40
1.155682271512014
100
AcDbArc
 50
1.762425568
 51
46.3016377059
  0
ARC
  5
153
330
1F
100
AcDbEntity
  8
0
  6
Continuous
 62
     7
370
     0
100
AcDbCircle
 10
114.9027194106
 20
231.5032407294
 30
0.0
 40
1.035467790483719
100
AcDbArc
 50
310.9462382259
 51
0.9896985002
  0
LINE
  5
154
330
1F
100
AcDbEntity
  8
0
  6
Continuous
 62
     7
370
     0
100
AcDbLine
 10
118.0752168698
 20
228.5211261969
 30
0.0
 11
112.7053226633
 21
228.5211261969
 31
0.0
  0
LINE
  5
155
330
1F
100
AcDbEntity
  8
0
  6
Continuous
 62
     7
370
     0
100
AcDbLine
 10
118.0752168698
 20
238.5211259734
 30
0.0
 11
112.7053226633
 21
238.5211259734
 31
0.0
  0
LINE
  5
156
330
1F
100
AcDbEntity
  8
0
  6
Continuous
 62
     7
370
     0
100
AcDbLine
 10
118.3702077074
 20
236.0211260292
 30
0.0
 11
117.9515223307
 21
236.0211260292
 31
0.0
  0
LINE
  5
157
330
1F
100
AcDbEntity
  8
0
  6
Continuous
 62
     7
370
     0
100
AcDbLine
 10
117.9515223307
 20
236.0211260292
 30
0.0
 11
117.6565314932
 21
236.3211259853
 31
0.0
  0
LINE
  5
158
330
1F
100
AcDbEntity
  8
0
  6
Continuous
 62
     7
370
     0
100
AcDbLine
 10
117.9515223307
 20
231.021126141
 30
0.0
 11
118.3702077074
 21
231.021126141
 31
0.0
  0
LINE
  5
159
330
1F
100
AcDbEntity
  8
0
  6
Continuous
 62
     7
370
     0
100
AcDbLine
 10
117.9515223307
 20
231.021126141
 30
0.0
 11
117.6565314932
 21
230.721126185
 31
0.0
  0
LWPOLYLINE
  5
15A
330
1F
100
AcDbEntity
  8
0
  6
Continuous
 62
     7
370
     0
100
AcDbPolyline
 90
       18
 70
   128
 43
0.0
 10
119.4264541669
 20
236.0211260292
 10
119.3428363008
 20
235.9785587668
 10
119.262057106
 20
235.8523065831
 10
119.1868807478
 20
235.6466689288
 10
119.1198627753
 20
235.3686484184
 10
119.0632905168
 20
235.0277126442
 10
119.0190787716
 20
234.6354719393
 10
118.9887400074
 20
234.2052835647
 10
118.973309855
 20
233.7517969772
 10
118.973309855
 20
233.2904551931
 10
118.9887400074
 20
232.8369686056
 10
119.0190787716
 20
232.406780231
 10
119.0632905168
 20
232.014539526
 10
119.1198627753
 20
231.6736037519
 10
119.1868807478
 20
231.3955832414
 10
119.262057106
 20
231.1899455871
 10
119.3428363008
 20
231.0636934034
 10
119.4264541669
 20
231.021126141
  0
LINE
  5
15B
330
1F
100
AcDbEntity
  8
0
  6
Continuous
 62
     7
370
     0
100
AcDbLine
 10
123.3378376169
 20
238.5211259734
 30
0.0
 11
123.3378376169
 21
228.5211261969
 31
0.0
  0
LINE
  5
15C
330
1F
100
AcDbEntity
  8
0
  6
Continuous
 62
     7
370
     0
100
AcDbLine
 10
123.3378376169
 20
228.5211261969
 30
0.0
 11
120.5334465308
 21
228.5211261969
 31
0.0
  0
LINE
  5
15D
330
1F
100
AcDbEntity
  8
0
  6
Continuous
 62
     7
370
     0
100
AcDbLine
 10
120.5334465308
 20
238.5211259734
 30
0.0
 11
123.3378376169
 21
238.5211259734
 31
0.0
  0
LWPOLYLINE
  5
15E
330
1F
100
AcDbEntity
  8
0
  6
Continuous
 62
     7
370
     0
100
AcDbPolyline
 90
       18
 70
   128
 43
0.0
 10
117.9515223307
 20
236.0211260292
 10
117.8678970141
 20
235.9785587668
 10
117.7871252699
 20
235.8523065831
 10
117.7119489116
 20
235.6466689288
 10
117.6449234886
 20
235.3686484184
 10
117.5883512301
 20
235.0277126442
 10
117.5441394849
 20
234.6354719393
 10
117.5138007207
 20
234.2052835647
 10
117.4983705683
 20
233.7517969772
 10
117.4983705683
 20
233.2904551931
 10
117.5138007207
 20
232.8369686056
 10
117.5441394849
 20
232.406780231
 10
117.5883512301
 20
232.014539526
 10
117.6449234886
 20
231.6736037519
 10
117.7119489116
 20
231.3955832414
 10
117.7871252699
 20
231.1899455871
 10
117.8678970141
 20
231.0636934034
 10
117.9515223307
 20
231.021126141
  0
LINE
  5
15F
330
1F
100
AcDbEntity
  8
0
  6
Continuous
 62
     7
370
     0
100
AcDbLine
 10
115.810851316
 20
236.0211260292
 30
0.0
 11
115.2209664984
 21
236.0211260292
 31
0.0
  0
LINE
  5
160
330
1F
100
AcDbEntity
  8
0
  6
Continuous
 62
     7
370
     0
100
AcDbLine
 10
115.2209664984
 20
236.0211260292
 30
0.0
 11
114.9259831114
 21
236.3211259853
 31
0.0
  0
LINE
  5
161
330
1F
100
AcDbEntity
  8
0
  6
Continuous
 62
     7
370
     0
100
AcDbLine
 10
115.2209664984
 20
231.021126141
 30
0.0
 11
115.810851316
 21
231.021126141
 31
0.0
  0
LINE
  5
162
330
1F
100
AcDbEntity
  8
0
  6
Continuous
 62
     7
370
     0
100
AcDbLine
 10
115.2209664984
 20
231.021126141
 30
0.0
 11
114.9259831114
 21
230.721126185
 31
0.0
  0
LWPOLYLINE
  5
163
330
1F
100
AcDbEntity
  8
0
  6
Continuous
 62
     7
370
     0
100
AcDbPolyline
 90
        5
 70
   128
 43
0.0
 10
115.2209664984
 20
236.0211260292
 10
115.1373486323
 20
235.9785587668
 10
115.0565694375
 20
235.8523065831
 10
114.9813930793
 20
235.6466689288
 10
114.9479176206
 20
235.5211261801
  0
LWPOLYLINE
  5
164
330
1F
100
AcDbEntity
  8
0
  6
Continuous
 62
     7
370
     0
100
AcDbPolyline
 90
        5
 70
   128
 43
0.0
 10
114.9479176206
 20
231.5211259901
 10
114.9813930793
 20
231.3955832414
 10
115.0565694375
 20
231.1899455871
 10
115.1373486323
 20
231.0636934034
 10
115.2209664984
 20
231.021126141
  0
LINE
  5
165
330
1F
100
AcDbEntity
  8
0
  6
Continuous
 62
     7
370
     0
100
AcDbLine
 10
112.7053226633
 20
228.5211261969
 30
0.0
 11
108.6151029272
 21
228.5211261969
 31
0.0
  0
LINE
  5
166
330
1F
100
AcDbEntity
  8
0
  6
Continuous
 62
     7
370
     0
100
AcDbLine
 10
108.6151029272
 20
238.5211259734
 30
0.0
 11
112.7053226633
 21
238.5211259734
 31
0.0
  0
LINE
  5
167
330
1F
100
AcDbEntity
  8
0
  6
Continuous
 62
     7
370
     0
100
AcDbLine
 10
99.0987892551
 20
231.5211259901
 30
0.0
 11
99.0987892551
 21
228.5211261969
 31
0.0
  0
LINE
  5
168
330
1F
100
AcDbEntity
  8
0
  6
Continuous
 62
     7
370
     0
100
AcDbLine
 10
104.0300528807
 20
231.5211259901
 30
0.0
 11
99.0987892551
 21
231.5211259901
 31
0.0
  0
LINE
  5
169
330
1F
100
AcDbEntity
  8
0
  6
Continuous
 62
     7
370
     0
100
AcDbLine
 10
104.0300528807
 20
235.5211261801
 30
0.0
 11
104.0300528807
 21
231.5211259901
 31
0.0
  0
LINE
  5
16A
330
1F
100
AcDbEntity
  8
0
  6
Continuous
 62
     7
370
     0
100
AcDbLine
 10
104.0300528807
 20
235.5211261801
 30
0.0
 11
99.0987892551
 21
235.5211261801
 31
0.0
  0
LINE
  5
16B
330
1F
100
AcDbEntity
  8
0
  6
Continuous
 62
     7
370
     0
100
AcDbLine
 10
99.0987892551
 20
238.5211259734
 30
0.0
 11
99.0987892551
 21
235.5211261801
 31
0.0
  0
LINE
  5
16C
330
1F
100
AcDbEntity
  8
0
  6
Continuous
 62
     7
370
     0
100
AcDbLine
 10
99.0987892551
 20
228.5211261969
 30
0.0
 11
108.6151029272
 21
228.5211261969
 31
0.0
  0
LINE
  5
16D
330
1F
100
AcDbEntity
  8
0
  6
Continuous
 62
     7
370
     0
100
AcDbLine
 10
99.0987892551
 20
238.5211259734
 30
0.0
 11
108.6151029272
 21
238.5211259734
 31
0.0
  0
LINE
  5
16E
330
1F
100
AcDbEntity
  8
0
  6
Continuous
 62
     7
370
     0
100
AcDbLine
 10
98.2777837021
 20
235.5211261801
 30
0.0
 11
98.2777837021
 21
238.5211259734
 31
0.0
  0
LINE
  5
16F
330
1F
100
AcDbEntity
  8
0
  6
Continuous
 62
     7
370
     0
100
AcDbLine
 10
99.0987892551
 20
235.5211261801
 30
0.0
 11
98.2777837021
 21
235.5211261801
 31
0.0
  0
LINE
  5
170
330
1F
100
AcDbEntity
  8
0
  6
Continuous
 62
     7
370
     0
100
AcDbLine
 10
98.2777837021
 20
238.5211259734
 30
0.0
 11
99.0987892551
 21
238.5211259734
 31
0.0
  0
LINE
  5
171
330
1F
100
AcDbEntity
  8
0
  6
Continuous
 62
     7
370
     0
100
AcDbLine
 10
98.2777837021
 20
228.5211261969
 30
0.0
 11
98.2777837021
 21
231.5211259901
 31
0.0
  0
LINE
  5
172
330
1F
100
AcDbEntity
  8
0
  6
Continuous
 62
     7
370
     0
100
AcDbLine
 10
98.2777837021
 20
231.5211259901
 30
0.0
 11
99.0987892551
 21
231.5211259901
 31
0.0
  0
LINE
  5
173
330
1F
100
AcDbEntity
  8
0
  6
Continuous
 62
     7
370
     0
100
AcDbLine
 10
99.0987892551
 20
228.5211261969
 30
0.0
 11
98.2777837021
 21
228.5211261969
 31
0.0
  0
LINE
  5
174
330
1F
100
AcDbEntity
  8
0
  6
Continuous
 62
     7
370
     0
100
AcDbLine
 10
125.3487865729
 20
230.0211259771
 30
0.0
 11
128.2406102223
 21
230.0211259771
 31
0.0
  0
LINE
  5
175
330
1F
100
AcDbEntity
  8
0
  6
Continuous
 62
     7
370
     0
100
AcDbLine
 10
125.3487865729
 20
230.0211259771
 30
0.0
 11
125.3487865729
 21
237.0211261932
 31
0.0
  0
LINE
  5
176
330
1F
100
AcDbEntity
  8
0
  6
Continuous
 62
     7
370
     0
100
AcDbLine
 10
128.2406102223
 20
236.2211261552
 30
0.0
 11
128.2406102223
 21
237.0211261932
 31
0.0
  0
LINE
  5
177
330
1F
100
AcDbEntity
  8
0
  6
Continuous
 62
     7
370
     0
100
AcDbLine
 10
128.2406102223
 20
230.8211260151
 30
0.0
 11
128.2406102223
 21
236.2211261552
 31
0.0
  0
LINE
  5
178
330
1F
100
AcDbEntity
  8
0
  6
Continuous
 62
     7
370
     0
100
AcDbLine
 10
128.2406102223
 20
230.0211259771
 30
0.0
 11
128.2406102223
 21
230.8211260151
 31
0.0
  0
LINE
  5
179
330
1F
100
AcDbEntity
  8
0
  6
Continuous
 62
     7
370
     0
100
AcDbLine
 10
125.3487865729
 20
237.0211261932
 30
0.0
 11
128.2406102223
 21
237.0211261932
 31
0.0
  0
LINE
  5
17A
330
1F
100
AcDbEntity
  8
0
  6
Continuous
 62
     7
370
     0
100
AcDbLine
 10
124.8556624455
 20
236.5211261112
 30
0.0
 11
124.8556624455
 21
230.521126059
 31
0.0
  0
LINE
  5
17B
330
1F
100
AcDbEntity
  8
0
  6
Continuous
 62
     7
370
     0
100
AcDbLine
 10
123.3378376169
 20
236.5211261112
 30
0.0
 11
124.8556624455
 21
236.5211261112
 31
0.0
  0
LINE
  5
17C
330
1F
100
AcDbEntity
  8
0
  6
Continuous
 62
     7
370
     0
100
AcDbLine
 10
124.8556624455
 20
230.521126059
 30
0.0
 11
123.3378376169
 21
230.521126059
 31
0.0
  0
LINE
  5
17D
330
1F
100
AcDbEntity
  8
0
  6
Continuous
 62
     7
370
     0
100
AcDbLine
 10
123.3378376169
 20
230.0211259771
 30
0.0
 11
125.3487865729
 21
230.0211259771
 31
0.0
  0
LINE
  5
17E
330
1F
100
AcDbEntity
  8
0
  6
Continuous
 62
     7
370
     0
100
AcDbLine
 10
125.3487865729
 20
237.0211261932
 30
0.0
 11
123.3378376169
 21
237.0211261932
 31
0.0
  0
LINE
  5
17F
330
1F
100
AcDbEntity
  8
0
  6
Continuous
 62
     7
370
     0
100
AcDbLine
 10
128.2474871082
 20
230.8211260151
 30
0.0
 11
128.2406102223
 21
230.8211260151
 31
0.0
  0
LINE
  5
180
330
1F
100
AcDbEntity
  8
0
  6
Continuous
 62
     7
370
     0
100
AcDbLine
 10
128.2406102223
 20
236.2211261552
 30
0.0
 11
128.2474871082
 21
236.2211261552
 31
0.0
  0
LINE
  5
181
330
1F
100
AcDbEntity
  8
0
  6
Continuous
 62
     7
370
     0
100
AcDbLine
 10
123.506600718
 20
230.8211260151
 30
0.0
 11
124.8556624455
 21
230.8211260151
 31
0.0
  0
LINE
  5
182
330
1F
100
AcDbEntity
  8
0
  6
Continuous
 62
     7
370
     0
100
AcDbLine
 10
123.506600718
 20
236.2211261552
 30
0.0
 11
124.8556624455
 21
236.2211261552
 31
0.0
  0
LWPOLYLINE
  5
183
330
1F
100
AcDbEntity
  8
0
  6
Continuous
 62
     7
370
     0
100
AcDbPolyline
 90
        8
 70
   128
 43
0.0
 10
107.5322429938
 20
232.6792850417
 10
107.494632463
 20
232.3313228462
 10
107.4450413985
 20
232.0320712078
 10
107.385503809
 20
231.7937817333
 10
107.3184485836
 20
231.6262100266
 10
107.2466249866
 20
231.5362162098
 10
107.172983448
 20
231.5274850607
 10
107.1345906062
 20
231.5556978483
  0
LWPOLYLINE
  5
184
330
1F
100
AcDbEntity
  8
0
  6
Continuous
 62
     7
370
     0
100
AcDbPolyline
 90
       12
 70
   128
 43
0.0
 10
107.1345906062
 20
235.486554322
 10
107.1941356463
 20
235.5206605188
 10
107.2675685687
 20
235.4884165015
 10
107.3383118315
 20
235.3756311258
 10
107.4034746094
 20
235.1869223548
 10
107.4603970451
 20
234.9300155092
 10
107.5067322058
 20
234.6154287133
 10
107.5405950947
 20
234.256040936
 10
107.560592453
 20
233.8665657352
 10
107.5659121675
 20
233.4629481465
 10
107.5563307209
 20
233.0617123716
 10
107.5322429938
 20
232.6792850417
  0
LWPOLYLINE
  5
185
330
1F
100
AcDbEntity
  8
0
  6
Continuous
 62
     7
370
     0
100
AcDbPolyline
 90
       30
 70
   128
 43
0.0
 10
107.3025564952
 20
232.7634691519
 10
107.3252584142
 20
233.1321812434
 10
107.3329995675
 20
233.5190799494
 10
107.3254148764
 20
233.9060743306
 10
107.3028694196
 20
234.2750689622
 10
107.2664062781
 20
234.6088100366
 10
107.2177390857
 20
234.8916922837
 10
107.1591402693
 20
235.1104883618
 10
107.0933516426
 20
235.2549675761
 10
107.0234428448
 20
235.3183743452
 10
106.9526846809
 20
235.2977436876
 10
106.8843926592
 20
235.1940404532
 10
106.8217556281
 20
235.0121135732
 10
106.7677016659
 20
234.7604697479
 10
106.7247639699
 20
234.4508756559
 10
106.6949392957
 20
234.0978074844
 10
106.6796283526
 20
233.7177743374
 10
106.6795463962
 20
233.3285461118
 10
106.6947008772
 20
232.9483227131
 10
106.7243765397
 20
232.594883002
 10
106.7671875758
 20
232.2847533414
 10
106.8211446805
 20
232.0324351221
 10
106.8836997552
 20
231.8497263968
 10
106.951954524
 20
231.7451705366
 10
107.0226977868
 20
231.7236562867
 10
107.0926289363
 20
231.7861898245
 10
107.1584846182
 20
231.9298470301
 10
107.2171728415
 20
232.147910623
 10
107.2659592433
 20
232.4301842509
 10
107.3025564952
 20
232.7634691519
  0
LWPOLYLINE
  5
186
330
1F
100
AcDbEntity
  8
0
  6
Continuous
 62
     7
370
     0
100
AcDbPolyline
 90
       19
 70
   128
 43
0.0
 10
109.865138988
 20
235.486554322
 10
109.9115188522
 20
235.5177890185
 10
109.9851156873
 20
235.5001642044
 10
110.0565593047
 20
235.4015174696
 10
110.1229216261
 20
235.2258871451
 10
110.1814906401
 20
234.9804638561
 10
110.2298747105
 20
234.6752949433
 10
110.2660770817
 20
234.3228742738
 10
110.2886299891
 20
233.9376299551
 10
110.2966021104
 20
233.5353339085
 10
110.2896730704
 20
233.1324561873
 10
110.2681185407
 20
232.745490668
 10
110.2328251405
 20
232.3902797561
 10
110.1852457328
 20
232.0813657624
 10
110.127310018
 20
231.831395873
 10
110.0614096327
 20
231.6506035767
 10
109.9902267856
 20
231.5463906761
 10
109.9166821046
 20
231.5230237927
 10
109.865138988
 20
231.5556978483
  0
LWPOLYLINE
  5
187
330
1F
100
AcDbEntity
  8
0
  6
Continuous
 62
     7
370
     0
100
AcDbPolyline
 90
       30
 70
   128
 43
0.0
 10
109.7169618411
 20
235.3181227717
 10
109.6470828457
 20
235.2537666356
 10
109.5813538236
 20
235.1083941666
 10
109.5228518648
 20
234.8888028554
 10
109.4743113322
 20
234.605260417
 10
109.438004653
 20
234.2710250431
 10
109.4156231088
 20
233.901725287
 10
109.4082172317
 20
233.5146291252
 10
109.4161297483
 20
233.12783674
 10
109.4389955802
 20
232.7594341386
 10
109.4757492943
 20
232.426647437
 10
109.5246549053
 20
232.1450372601
 10
109.5834474368
 20
231.9277715778
 10
109.6493627233
 20
231.7850092567
 10
109.7193236751
 20
231.7234259007
 10
109.7900594873
 20
231.7459010428
 10
109.8582621021
 20
231.8513836853
 10
109.920742671
 20
232.0349416604
 10
109.9745805664
 20
232.2879918992
 10
110.0172500415
 20
232.5987021813
 10
110.0467692418
 20
232.9525439326
 10
110.0617523594
 20
233.3329719895
 10
110.0614990396
 20
233.7221979305
 10
110.0460167331
 20
234.1020219519
 10
110.0160355968
 20
234.4546839503
 10
109.9729488892
 20
234.7636937538
 10
109.9187831683
 20
235.0146025328
 10
109.8560641808
 20
235.1956780676
 10
109.7877274556
 20
235.2984533554
 10
109.7169618411
 20
235.3181227717
  0
ARC
  5
188
330
1F
100
AcDbEntity
  8
0
  6
Continuous
 62
     7
370
     0
100
AcDbCircle
 10
123.3713367324
 20
233.5211260851
 30
0.0
 40
0.350021746617749
100
AcDbArc
 50
270.6388704557
 51
89.3611295443
  0
ARC
  5
189
330
1F
100
AcDbEntity
  8
0
  6
Continuous
 62
     7
370
     0
100
AcDbCircle
 10
123.8646163931
 20
233.5211260851
 30
0.0
 40
0.70002888900325
100
AcDbArc
 50
270.5207568023
 51
89.4792431977
  0
LINE
  5
18A
330
1F
100
AcDbEntity
  8
0
  6
Continuous
 62
     7
370
     0
100
AcDbLine
 10
123.3752395315
 20
234.2211260602
 30
0.0
 11
123.3378376169
 21
234.2200982293
 31
0.0
  0
ARC
  5
18B
330
1F
100
AcDbEntity
  8
0
  6
Continuous
 62
     7
370
     0
100
AcDbCircle
 10
123.3691138129
 20
233.521303798
 30
0.0
 40
0.6998490716161565
100
AcDbArc
 50
267.4386033646
 51
89.4984885754
  0
LINE
  5
18C
330
1F
100
AcDbEntity
  8
0
  6
Continuous
 62
     7
370
     0
100
AcDbLine
 10
124.6599803967
 20
231.42112616
 30
0.0
 11
124.6599803967
 21
235.6211260102
 31
0.0
  0
ARC
  5
18D
330
1F
100
AcDbEntity
  8
0
  6
Continuous
 62
     7
370
     0
100
AcDbCircle
 10
125.4783288283
 20
235.7427180317
 30
0.0
 40
0.8273323244810418
100
AcDbArc
 50
152.7816093093
 51
188.4513034845
  0
ARC
  5
18E
330
1F
100
AcDbEntity
  8
0
  6
Continuous
 62
     7
370
     0
100
AcDbCircle
 10
125.4783288283
 20
231.2995341385
 30
0.0
 40
0.8273323244810751
100
AcDbArc
 50
171.5486965155
 51
207.2183906907
  0
LINE
  5
18F
330
1F
100
AcDbEntity
  8
0
  6
Continuous
 62
     7
370
     0
100
AcDbLine
 10
123.3378376169
 20
236.1211260922
 30
0.0
 11
124.7426073355
 21
236.1211260922
 31
0.0
  0
LINE
  5
190
330
1F
100
AcDbEntity
  8
0
  6
Continuous
 62
     7
370
     0
100
AcDbLine
 10
124.7426073355
 20
230.921126078
 30
0.0
 11
123.3378376169
 21
230.921126078
 31
0.0
  0
LINE
  5
191
330
1F
100
AcDbEntity
  8
0
  6
Continuous
 62
     7
370
     0
100
AcDbLine
 10
124.7426073355
 20
236.1211260922
 30
0.0
 11
124.8556624455
 21
236.1211260922
 31
0.0
  0
LINE
  5
192
330
1F
100
AcDbEntity
  8
0
  6
Continuous
 62
     7
370
     0
100
AcDbLine
 10
124.8556624455
 20
230.921126078
 30
0.0
 11
124.7426073355
 21
230.921126078
 31
0.0
  0
LINE
  5
193
330
1F
100
AcDbEntity
  8
0
  6
Continuous
 62
     7
370
     0
100
AcDbLine
 10
123.506600718
 20
236.2211261552
 30
0.0
 11
123.3378376169
 21
236.2211261552
 31
0.0
  0
LINE
  5
194
330
1F
100
AcDbEntity
  8
0
  6
Continuous
 62
     7
370
     0
100
AcDbLine
 10
123.506600718
 20
236.1211260922
 30
0.0
 11
123.506600718
 21
236.2211261552
 31
0.0
  0
LINE
  5
195
330
1F
100
AcDbEntity
  8
0
  6
Continuous
 62
     7
370
     0
100
AcDbLine
 10
123.506600718
 20
230.8211260151
 30
0.0
 11
123.3378376169
 21
230.8211260151
 31
0.0
  0
LINE
  5
196
330
1F
100
AcDbEntity
  8
0
  6
Continuous
 62
     7
370
     0
100
AcDbLine
 10
123.506600718
 20
230.8211260151
 30
0.0
 11
123.506600718
 21
230.921126078
 31
0.0
  0
ARC
  5
197
330
1F
100
AcDbEntity
  8
0
  6
Continuous
 62
     7
370
     0
100
AcDbCircle
 10
110.4159754338
 20
234.5331558217
 30
0.0
 40
4.401509299273919
100
AcDbArc
 50
86.2020435292
 51
90.5154915868
  0
ARC
  5
198
330
1F
100
AcDbEntity
  8
0
  6
Continuous
 62
     7
370
     0
100
AcDbCircle
 10
108.7598213203
 20
238.8073775177
 30
0.0
 40
1.290862762328098
100
AcDbArc
 50
4.966295786
 51
11.5929537007
  0
LINE
  5
199
330
1F
100
AcDbEntity
  8
0
  6
Continuous
 62
     7
370
     0
100
AcDbLine
 10
110.0243504448
 20
239.0667860072
 30
0.0
 11
109.9839906497
 21
239.0667860072
 31
0.0
  0
LWPOLYLINE
  5
19A
330
1F
100
AcDbEntity
  8
0
  6
Continuous
 62
     7
370
     0
100
AcDbPolyline
 90
        9
 70
   128
 43
0.0
 10
109.1656114263
 20
238.9191271413
 10
109.1652537985
 20
238.9259216051
 10
109.1658572955
 20
238.930777521
 10
109.1674368186
 20
238.933692095
 10
109.1699849171
 20
238.9346639301
 10
109.1735015912
 20
238.933692095
 10
109.1779868407
 20
238.930777521
 10
109.1834332151
 20
238.9259216051
 10
109.1843570871
 20
238.9249986645
  0
ARC
  5
19B
330
1F
100
AcDbEntity
  8
0
  6
Continuous
 62
     7
370
     0
100
AcDbCircle
 10
110.3643060226
 20
235.1250421061
 30
0.0
 40
3.978938299231962
100
AcDbArc
 50
97.8402820441
 51
107.5332919922
  0
LINE
  5
19C
330
1F
100
AcDbEntity
  8
0
  6
Continuous
 62
     7
370
     0
100
AcDbLine
 10
109.8215307398
 20
239.0667860072
 30
0.0
 11
109.9887888236
 21
239.0667860072
 31
0.0
  0
ARC
  5
19D
330
1F
100
AcDbEntity
  8
0
  6
Continuous
 62
     7
370
     0
100
AcDbCircle
 10
111.2531714741
 20
238.8074637151
 30
0.0
 40
1.290701955537792
100
AcDbArc
 50
168.4094879876
 51
175.0369247306
  0
ARC
  5
19E
330
1F
100
AcDbEntity
  8
0
  6
Continuous
 62
     7
370
     0
100
AcDbCircle
 10
110.3371071918
 20
234.5263216858
 30
0.0
 40
4.408343296562256
100
AcDbArc
 50
85.188030035
 51
94.811969965
  0
ARC
  5
19F
330
1F
100
AcDbEntity
  8
0
  6
Continuous
 62
     7
370
     0
100
AcDbCircle
 10
111.9929221828
 20
238.8073775177
 30
0.0
 40
1.290862762323241
100
AcDbArc
 50
168.4070462993
 51
175.033704214
  0
LINE
  5
1A0
330
1F
100
AcDbEntity
  8
0
  6
Continuous
 62
     7
370
     0
100
AcDbLine
 10
110.7283930583
 20
239.0667860072
 30
0.0
 11
110.9069834752
 21
239.0667860072
 31
0.0
  0
ARC
  5
1A1
330
1F
100
AcDbEntity
  8
0
  6
Continuous
 62
     7
370
     0
100
AcDbCircle
 10
110.3642444368
 20
235.1252031086
 30
0.0
 40
3.978773857629069
100
AcDbArc
 50
72.466507224
 51
82.1599187397
  0
ARC
  5
1A2
330
1F
100
AcDbEntity
  8
0
  6
Continuous
 62
     7
370
     0
100
AcDbCircle
 10
111.5907467174
 20
238.9030665568
 30
0.0
 40
0.0321438445833833
100
AcDbArc
 50
102.1787479384
 51
150.023333163
  0
ARC
  5
1A3
330
1F
100
AcDbEntity
  8
0
  6
Continuous
 62
     7
370
     0
100
AcDbCircle
 10
110.3884374804
 20
235.1250421061
 30
0.0
 40
3.978938299231968
100
AcDbArc
 50
72.4667080078
 51
82.1597179559
  0
LINE
  5
1A4
330
1F
100
AcDbEntity
  8
0
  6
Continuous
 62
     7
370
     0
100
AcDbLine
 10
110.9312127633
 20
239.0667860072
 30
0.0
 11
110.9069834752
 21
239.0667860072
 31
0.0
  0
SPLINE
  5
1A5
330
1F
100
AcDbEntity
  8
0
  6
Continuous
 62
     7
370
     0
100
AcDbSpline
210
0.0
220
0.0
230
1.0
 70
     8
 71
     3
 72
     8
 73
     4
 74
     0
 42
0.000000001
 43
0.00000001
 40
0.0
 40
0.0
 40
0.0
 40
0.0
 40
1.0
 40
1.0
 40
1.0
 40
1.0
 10
109.988791945339
 20
239.0667860071198
 30
0.0
 10
109.9889349494572
 20
239.0151664589162
 30
0.0
 10
109.9890784964759
 20
238.963548287848
 30
0.0
 10
109.9892226277621
 20
238.9119315988481
 30
0.0
  0
SPLINE
  5
1A6
330
1F
100
AcDbEntity
  8
0
  6
Continuous
 62
     7
370
     0
100
AcDbSpline
210
0.0
220
0.0
230
1.0
 70
     8
 71
     3
 72
     8
 73
     4
 74
     0
 42
0.000000001
 43
0.00000001
 40
0.0
 40
0.0
 40
0.0
 40
0.0
 40
1.0
 40
1.0
 40
1.0
 40
1.0
 10
110.0243487574779
 20
239.0667860071198
 30
0.0
 10
110.0242123980202
 20
239.0175649519173
 30
0.0
 10
110.024075544911
 20
238.9683451489239
 30
0.0
 10
110.0239381623751
 20
238.9191266888884
 30
0.0
  0
ARC
  5
1A7
330
1F
100
AcDbEntity
  8
0
  6
Continuous
 62
     7
370
     0
100
AcDbCircle
 10
110.617288521
 20
228.6481354298
 30
0.0
 40
0.7325898817424321
100
AcDbArc
 50
293.3346291172
 51
314.2214291181
  0
ARC
  5
1A8
330
1F
100
AcDbEntity
  8
0
  6
Continuous
 62
     7
370
     0
100
AcDbCircle
 10
110.7797834379
 20
232.0221884222
 30
0.0
 40
3.914601396021413
100
AcDbArc
 50
264.893360373
 51
275.106639627
  0
ARC
  5
1A9
330
1F
100
AcDbEntity
  8
0
  6
Continuous
 62
     7
370
     0
100
AcDbCircle
 10
109.9203182259
 20
228.6482776664
 30
0.0
 40
0.7327581701296011
100
AcDbArc
 50
293.3370545031
 51
314.2190037322
  0
LINE
  5
1AA
330
1F
100
AcDbEntity
  8
0
  6
Continuous
 62
     7
370
     0
100
AcDbLine
 10
110.210592608
 20
227.9754661631
 30
0.0
 11
109.9894593758
 21
227.9754661631
 31
0.0
  0
ARC
  5
1AB
330
1F
100
AcDbEntity
  8
0
  6
Continuous
 62
     7
370
     0
100
AcDbCircle
 10
110.5057251591
 20
231.5034963114
 30
0.0
 40
3.565603327157795
100
AcDbArc
 50
251.4507024703
 51
261.6748475144
  0
ARC
  5
1AC
330
1F
100
AcDbEntity
  8
0
  6
Continuous
 62
     7
370
     0
100
AcDbCircle
 10
109.2469717665
 20
228.6135679615
 30
0.0
 40
0.5059891765142515
100
AcDbArc
 50
255.7603921535
 51
284.2396078465
  0
ARC
  5
1AD
330
1F
100
AcDbEntity
  8
0
  6
Continuous
 62
     7
370
     0
100
AcDbCircle
 10
110.256834963
 20
231.5036373695
 30
0.0
 40
3.565747778536811
100
AcDbArc
 50
251.4509101158
 51
261.6746398688
  0
LINE
  5
1AE
330
1F
100
AcDbEntity
  8
0
  6
Continuous
 62
     7
370
     0
100
AcDbLine
 10
109.7405354781
 20
227.9754661631
 30
0.0
 11
109.8452757401
 21
227.9754661631
 31
0.0
  0
ARC
  5
1AF
330
1F
100
AcDbEntity
  8
0
  6
Continuous
 62
     7
370
     0
100
AcDbCircle
 10
110.8056560411
 20
228.6003808655
 30
0.0
 40
0.678198604623618
100
AcDbArc
 50
230.730284505
 51
247.1365117939
  0
LINE
  5
1B0
330
1F
100
AcDbEntity
  8
0
  6
Continuous
 62
     7
370
     0
100
AcDbLine
 10
110.5421508951
 20
227.9754661631
 30
0.0
 11
110.7632841272
 21
227.9754661631
 31
0.0
  0
LWPOLYLINE
  5
1B1
330
1F
100
AcDbEntity
  8
0
  6
Continuous
 62
     7
370
     0
100
AcDbPolyline
 90
        3
 70
   128
 43
0.0
 10
110.7632841272
 20
227.9754661631
 10
110.8417089386
 20
227.987824348
 10
110.908443789
 20
227.9997653004
  0
ARC
  5
1B2
330
1F
100
AcDbEntity
  8
0
  6
Continuous
 62
     7
370
     0
100
AcDbCircle
 10
110.4971054114
 20
231.4976236723
 30
0.0
 40
3.55962416872523
100
AcDbArc
 50
278.3203138659
 51
285.967454962
  0
LINE
  5
1B3
330
1F
100
AcDbEntity
  8
0
  6
Continuous
 62
     7
370
     0
100
AcDbLine
 10
111.012208025
 20
227.9754661631
 30
0.0
 11
110.9074677629
 21
227.9754661631
 31
0.0
  0
SPLINE
  5
1B4
330
1F
100
AcDbEntity
  8
0
  6
Continuous
 62
     7
370
     0
100
AcDbSpline
210
0.0
220
0.0
230
1.0
 70
     8
 71
     3
 72
     8
 73
     4
 74
     0
 42
0.000000001
 43
0.00000001
 40
0.0
 40
0.0
 40
0.0
 40
0.0
 40
1.0
 40
1.0
 40
1.0
 40
1.0
 10
110.9074697010328
 20
227.9754661631324
 30
0.0
 10
110.9060687180612
 20
228.024687257343
 30
0.0
 10
110.904662663217
 20
228.0739070993425
 30
0.0
 10
110.9032511689364
 20
228.1231255983818
 30
0.0
  0
SPLINE
  5
1B5
330
1F
100
AcDbEntity
  8
0
  6
Continuous
 62
     7
370
     0
100
AcDbSpline
210
0.0
220
0.0
230
1.0
 70
     8
 71
     3
 72
     8
 73
     4
 74
     0
 42
0.000000001
 43
0.00000001
 40
0.0
 40
0.0
 40
0.0
 40
0.0
 40
1.0
 40
1.0
 40
1.0
 40
1.0
 10
110.7632867225761
 20
227.9754661631324
 30
0.0
 10
110.7593645159917
 20
228.024687123629
 30
0.0
 10
110.7554281101781
 20
228.0739068319212
 30
0.0
 10
110.7514764761058
 20
228.1231251972608
 30
0.0
  0
SPLINE
  5
1B6
330
1F
100
AcDbEntity
  8
0
  6
Continuous
 62
     7
370
     0
100
AcDbSpline
210
0.0
220
0.0
230
1.0
 70
     8
 71
     3
 72
     8
 73
     4
 74
     0
 42
0.000000001
 43
0.00000001
 40
0.0
 40
0.0
 40
0.0
 40
0.0
 40
1.0
 40
1.0
 40
1.0
 40
1.0
 10
110.5421525481196
 20
227.9754661631324
 30
0.0
 10
110.543553530844
 20
228.0246872486588
 30
0.0
 10
110.5449595854392
 20
228.0739070819746
 30
0.0
 10
110.5463710794688
 20
228.1231255723307
 30
0.0
  0
LINE
  5
1B7
330
1F
100
AcDbEntity
  8
0
  6
Continuous
 62
     7
370
     0
100
AcDbLine
 10
102.7875419063
 20
231.6211260531
 30
0.0
 11
102.7875419063
 21
235.4211261172
 31
0.0
  0
LINE
  5
1B8
330
1F
100
AcDbEntity
  8
0
  6
Continuous
 62
     7
370
     0
100
AcDbLine
 10
102.7875419063
 20
235.4211261172
 30
0.0
 11
104.0300528807
 21
235.4211261172
 31
0.0
  0
LINE
  5
1B9
330
1F
100
AcDbEntity
  8
0
  6
Continuous
 62
     7
370
     0
100
AcDbLine
 10
104.0300528807
 20
231.6211260531
 30
0.0
 11
102.7875419063
 21
231.6211260531
 31
0.0
  0
LINE
  5
1BA
330
1F
100
AcDbEntity
  8
0
  6
Continuous
 62
     7
370
     0
100
AcDbLine
 10
98.512067209
 20
235.4211261172
 30
0.0
 11
98.512067209
 21
231.6211260531
 31
0.0
  0
LINE
  5
1BB
330
1F
100
AcDbEntity
  8
0
  6
Continuous
 62
     7
370
     0
100
AcDbLine
 10
98.512067209
 20
235.4211261172
 30
0.0
 11
102.7875419063
 21
235.4211261172
 31
0.0
  0
LINE
  5
1BC
330
1F
100
AcDbEntity
  8
0
  6
Continuous
 62
     7
370
     0
100
AcDbLine
 10
98.512067209
 20
231.6211260531
 30
0.0
 11
102.7875419063
 21
231.6211260531
 31
0.0
  0
LINE
  5
1BD
330
1F
100
AcDbEntity
  8
0
  6
Continuous
 62
     1
370
     0
100
AcDbLine
 10
112.7053226633
 20
238.5211259734
 30
0.0
 11
112.7053226633
 21
235.5211261801
 31
0.0
  0
LINE
  5
1BE
330
1F
100
AcDbEntity
  8
0
  6
Continuous
 62
     1
370
     0
100
AcDbLine
 10
112.7053226633
 20
231.5211259901
 30
0.0
 11
112.7053226633
 21
228.5211261969
 31
0.0
  0
LINE
  5
1BF
330
1F
100
AcDbEntity
  8
0
  6
Continuous
 62
     1
370
     0
100
AcDbLine
 10
115.5813138289
 20
230.721126185
 30
0.0
 11
115.7637859983
 21
230.9066952348
 31
0.0
  0
LINE
  5
1C0
330
1F
100
AcDbEntity
  8
0
  6
Continuous
 62
     1
370
     0
100
AcDbLine
 10
115.5813138289
 20
236.3211259853
 30
0.0
 11
115.7637859983
 21
236.1355569355
 31
0.0
  0
LINE
  5
1C1
330
1F
100
AcDbEntity
  8
0
  6
Continuous
 62
     1
370
     0
100
AcDbLine
 10
108.6151029272
 20
228.5211261969
 30
0.0
 11
108.6151029272
 21
231.5211259901
 31
0.0
  0
LINE
  5
1C2
330
1F
100
AcDbEntity
  8
0
  6
Continuous
 62
     1
370
     0
100
AcDbLine
 10
108.6151029272
 20
235.5211261801
 30
0.0
 11
108.6151029272
 21
238.5211259734
 31
0.0
  0
LINE
  5
1C3
330
1F
100
AcDbEntity
  8
0
  6
Continuous
 62
     1
370
     0
100
AcDbLine
 10
124.6599803967
 20
231.42112616
 30
0.0
 11
124.8556624455
 21
231.42112616
 31
0.0
  0
LINE
  5
1C4
330
1F
100
AcDbEntity
  8
0
  6
Continuous
 62
     1
370
     0
100
AcDbLine
 10
124.8556624455
 20
235.6211260102
 30
0.0
 11
124.6599803967
 21
235.6211260102
 31
0.0
  0
LWPOLYLINE
  5
1C5
330
1F
100
AcDbEntity
  8
0
  6
Continuous
 62
     1
370
     0
100
AcDbPolyline
 90
        3
 70
   128
 43
0.0
 10
124.8556624455
 20
236.1078077137
 10
124.8388092322
 20
236.1115188014
 10
124.7426073355
 20
236.1211260922
  0
LWPOLYLINE
  5
1C6
330
1F
100
AcDbEntity
  8
0
  6
Continuous
 62
     1
370
     0
100
AcDbPolyline
 90
        3
 70
   128
 43
0.0
 10
124.7426073355
 20
230.921126078
 10
124.8388092322
 20
230.9307333689
 10
124.8556624455
 20
230.9344444565
  0
LINE
  5
1C7
330
1F
100
AcDbEntity
  8
0
  6
Continuous
 62
     1
370
     0
100
AcDbLine
 10
124.6599803967
 20
235.6211260102
 30
0.0
 11
123.3378376169
 21
235.6211260102
 31
0.0
  0
LINE
  5
1C8
330
1F
100
AcDbEntity
  8
0
  6
Continuous
 62
     1
370
     0
100
AcDbLine
 10
123.3378376169
 20
231.42112616
 30
0.0
 11
124.6599803967
 21
231.42112616
 31
0.0
  0
DIMENSION
  5
1C9
330
1F
100
AcDbEntity
  8
0
  6
Continuous
 62
     7
370
     0
100
AcDbDimension
  2
_D_1
 10
128.2406121181
 20
242.9000097176
 30
0.0
 11
113.2591984166
 21
242.9000097176
 31
0.0
 70
   160
  1
(<>)
 71
     2
 42
-1.0
  3
SLDDIMSTYLE0
100
AcDbAlignedDimension
 13
98.2777847151
 23
238.5211260851
 33
0.0
 14
128.2406121181
 24
237.0211260851
 34
0.0
100
AcDbRotatedDimension
  0
LINE
  5
1D5
330
1F
100
AcDbEntity
  8
0
  6
Continuous
 62
     7
370
     0
100
AcDbLine
 10
52.2450539752
 20
139.2782373313
 30
0.0
 11
52.1450539122
 21
139.2782373313
 31
0.0
  0
LINE
  5
1D6
330
1F
100
AcDbEntity
  8
0
  6
Continuous
 62
     7
370
     0
100
AcDbLine
 10
48.3450538482
 20
139.2782373313
 30
0.0
 11
48.2450537852
 21
139.2782373313
 31
0.0
  0
LINE
  5
1D7
330
1F
100
AcDbEntity
  8
0
  6
Continuous
 62
     7
370
     0
100
AcDbLine
 10
48.2450537852
 20
136.3930894021
 30
0.0
 11
48.3450538482
 21
136.3930894021
 31
0.0
  0
LINE
  5
1D8
330
1F
100
AcDbEntity
  8
0
  6
Continuous
 62
     7
370
     0
100
AcDbLine
 10
52.1450539122
 20
136.3930894021
 30
0.0
 11
52.2450539752
 21
136.3930894021
 31
0.0
  0
LINE
  5
1D9
330
1F
100
AcDbEntity
  8
0
  6
Continuous
 62
     7
370
     0
100
AcDbLine
 10
48.2450537852
 20
106.8132189993
 30
0.0
 11
48.3450538482
 21
106.8132189993
 31
0.0
  0
LINE
  5
1DA
330
1F
100
AcDbEntity
  8
0
  6
Continuous
 62
     7
370
     0
100
AcDbLine
 10
52.1450539122
 20
106.8132189993
 30
0.0
 11
52.2450539752
 21
106.8132189993
 31
0.0
  0
LINE
  5
1DB
330
1F
100
AcDbEntity
  8
0
  6
Continuous
 62
     7
370
     0
100
AcDbLine
 10
52.2450539752
 20
108.6880980018
 30
0.0
 11
52.1450539122
 21
108.6880980018
 31
0.0
  0
LINE
  5
1DC
330
1F
100
AcDbEntity
  8
0
  6
Continuous
 62
     7
370
     0
100
AcDbLine
 10
48.3450538482
 20
108.6880980018
 30
0.0
 11
48.2450537852
 21
108.6880980018
 31
0.0
  0
LINE
  5
1DD
330
1F
100
AcDbEntity
  8
0
  6
Continuous
 62
     7
370
     0
100
AcDbLine
 10
52.2450539752
 20
153.3820895437
 30
0.0
 11
52.2450539752
 21
155.1296455744
 31
0.0
  0
LINE
  5
1DE
330
1F
100
AcDbEntity
  8
0
  6
Continuous
 62
     7
370
     0
100
AcDbLine
 10
48.2450537852
 20
155.1296455744
 30
0.0
 11
48.2450537852
 21
153.3820895437
 31
0.0
  0
LINE
  5
1DF
330
1F
100
AcDbEntity
  8
0
  6
Continuous
 62
     7
370
     0
100
AcDbLine
 10
52.2450539752
 20
168.1314675096
 30
0.0
 11
52.2450539752
 21
169.8790198151
 31
0.0
  0
LINE
  5
1E0
330
1F
100
AcDbEntity
  8
0
  6
Continuous
 62
     7
370
     0
100
AcDbLine
 10
48.2450537852
 20
169.8790198151
 30
0.0
 11
48.2450537852
 21
168.1314675096
 31
0.0
  0
ARC
  5
1E1
330
1F
100
AcDbEntity
  8
0
  6
Continuous
 62
     7
370
     0
100
AcDbCircle
 10
48.6450538802
 20
122.9896833293
 30
0.0
 40
4.000000000000008
100
AcDbArc
 50
197.5716446908
 51
211.7883306171
  0
ARC
  5
1E2
330
1F
100
AcDbEntity
  8
0
  6
Continuous
 62
     7
370
     0
100
AcDbCircle
 10
48.6450538802
 20
122.9896833293
 30
0.0
 40
4.000000000000004
100
AcDbArc
 50
148.2116693829
 51
162.4283553092
  0
ARC
  5
1E3
330
1F
100
AcDbEntity
  8
0
  6
Continuous
 62
     7
370
     0
100
AcDbCircle
 10
51.8450538802
 20
122.9896833293
 30
0.0
 40
4.000000000000001
100
AcDbArc
 50
15.9613587262
 51
31.788330617
  0
ARC
  5
1E4
330
1F
100
AcDbEntity
  8
0
  6
Continuous
 62
     7
370
     0
100
AcDbCircle
 10
51.8450538802
 20
122.9896833293
 30
0.0
 40
4.000000000000004
100
AcDbArc
 50
328.211669383
 51
344.0386412738
  0
LINE
  5
1E5
330
1F
100
AcDbEntity
  8
0
  6
Continuous
 62
     7
370
     0
100
AcDbLine
 10
48.3450538482
 20
102.9212294105
 30
0.0
 11
52.1450539122
 21
102.9212294105
 31
0.0
  0
LINE
  5
1E6
330
1F
100
AcDbEntity
  8
0
  6
Continuous
 62
     7
370
     0
100
AcDbLine
 10
45.2450539919
 20
141.885873485
 30
0.0
 11
48.2450537852
 21
141.885873485
 31
0.0
  0
LINE
  5
1E7
330
1F
100
AcDbEntity
  8
0
  6
Continuous
 62
     7
370
     0
100
AcDbLine
 10
48.2450537852
 20
141.885873485
 30
0.0
 11
48.2450537852
 21
140.7343788031
 31
0.0
  0
LINE
  5
1E8
330
1F
100
AcDbEntity
  8
0
  6
Continuous
 62
     7
370
     0
100
AcDbLine
 10
48.2450537852
 20
140.7343788031
 30
0.0
 11
45.2450539919
 21
140.7343788031
 31
0.0
  0
LINE
  5
1E9
330
1F
100
AcDbEntity
  8
0
  6
Continuous
 62
     7
370
     0
100
AcDbLine
 10
45.2450539919
 20
140.7343788031
 30
0.0
 11
45.2450539919
 21
141.885873485
 31
0.0
  0
ARC
  5
1EA
330
1F
100
AcDbEntity
  8
0
  6
Continuous
 62
     7
370
     0
100
AcDbCircle
 10
50.1836469009
 20
117.1629508916
 30
0.0
 40
2.53826134365968
100
AcDbArc
 50
139.795774948
 51
220.204225052
  0
LINE
  5
1EB
330
1F
100
AcDbEntity
  8
0
  6
Continuous
 62
     7
370
     0
100
AcDbLine
 10
48.2450537852
 20
115.5244676355
 30
0.0
 11
48.2450537852
 21
102.2705404047
 31
0.0
  0
LINE
  5
1EC
330
1F
100
AcDbEntity
  8
0
  6
Continuous
 62
     7
370
     0
100
AcDbLine
 10
45.2450539919
 20
102.2705404047
 30
0.0
 11
48.2450537852
 21
102.2705404047
 31
0.0
  0
LINE
  5
1ED
330
1F
100
AcDbEntity
  8
0
  6
Continuous
 62
     7
370
     0
100
AcDbLine
 10
48.2450537852
 20
140.7343788031
 30
0.0
 11
48.2450537852
 21
118.8014341477
 31
0.0
  0
LINE
  5
1EE
330
1F
100
AcDbEntity
  8
0
  6
Continuous
 62
     7
370
     0
100
AcDbLine
 10
45.2450539919
 20
102.2705404047
 30
0.0
 11
45.2450539919
 21
140.7343788031
 31
0.0
  0
LINE
  5
1EF
330
1F
100
AcDbEntity
  8
0
  6
Continuous
 62
     7
370
     0
100
AcDbLine
 10
52.2450539752
 20
141.885873485
 30
0.0
 11
55.2450537684
 21
141.885873485
 31
0.0
  0
LINE
  5
1F0
330
1F
100
AcDbEntity
  8
0
  6
Continuous
 62
     7
370
     0
100
AcDbLine
 10
55.2450537684
 20
140.7343788031
 30
0.0
 11
52.2450539752
 21
140.7343788031
 31
0.0
  0
LINE
  5
1F1
330
1F
100
AcDbEntity
  8
0
  6
Continuous
 62
     7
370
     0
100
AcDbLine
 10
52.2450539752
 20
140.7343788031
 30
0.0
 11
52.2450539752
 21
141.885873485
 31
0.0
  0
LINE
  5
1F2
330
1F
100
AcDbEntity
  8
0
  6
Continuous
 62
     7
370
     0
100
AcDbLine
 10
55.2450537684
 20
141.885873485
 30
0.0
 11
55.2450537684
 21
140.7343788031
 31
0.0
  0
LINE
  5
1F3
330
1F
100
AcDbEntity
  8
0
  6
Continuous
 62
     7
370
     0
100
AcDbLine
 10
52.2450539752
 20
102.2705404047
 30
0.0
 11
55.2450537684
 21
102.2705404047
 31
0.0
  0
LINE
  5
1F4
330
1F
100
AcDbEntity
  8
0
  6
Continuous
 62
     7
370
     0
100
AcDbLine
 10
52.2450539752
 20
115.5244676355
 30
0.0
 11
52.2450539752
 21
102.2705404047
 31
0.0
  0
ARC
  5
1F5
330
1F
100
AcDbEntity
  8
0
  6
Continuous
 62
     7
370
     0
100
AcDbCircle
 10
50.3064608595
 20
117.1629508916
 30
0.0
 40
2.53826134365968
100
AcDbArc
 50
319.795774948
 51
40.204225052
  0
LINE
  5
1F6
330
1F
100
AcDbEntity
  8
0
  6
Continuous
 62
     7
370
     0
100
AcDbLine
 10
52.2450539752
 20
140.7343788031
 30
0.0
 11
52.2450539752
 21
118.8014341477
 31
0.0
  0
LINE
  5
1F7
330
1F
100
AcDbEntity
  8
0
  6
Continuous
 62
     7
370
     0
100
AcDbLine
 10
55.2450537684
 20
102.2705404047
 30
0.0
 11
55.2450537684
 21
140.7343788031
 31
0.0
  0
LINE
  5
1F8
330
1F
100
AcDbEntity
  8
0
  6
Continuous
 62
     7
370
     0
100
AcDbLine
 10
48.2450537852
 20
142.7121130708
 30
0.0
 11
52.2450539752
 21
142.7121130708
 31
0.0
  0
LINE
  5
1F9
330
1F
100
AcDbEntity
  8
0
  6
Continuous
 62
     7
370
     0
100
AcDbLine
 10
55.2450537684
 20
143.4803424362
 30
0.0
 11
45.2450539919
 21
143.4803424362
 31
0.0
  0
LINE
  5
1FA
330
1F
100
AcDbEntity
  8
0
  6
Continuous
 62
     7
370
     0
100
AcDbLine
 10
52.2450539752
 20
142.7121130708
 30
0.0
 11
52.2450539752
 21
141.885873485
 31
0.0
  0
LINE
  5
1FB
330
1F
100
AcDbEntity
  8
0
  6
Continuous
 62
     7
370
     0
100
AcDbLine
 10
48.2450537852
 20
142.7121130708
 30
0.0
 11
48.2450537852
 21
141.885873485
 31
0.0
  0
LINE
  5
1FC
330
1F
100
AcDbEntity
  8
0
  6
Continuous
 62
     7
370
     0
100
AcDbLine
 10
55.2450537684
 20
141.885873485
 30
0.0
 11
55.2450537684
 21
143.4803424362
 31
0.0
  0
LINE
  5
1FD
330
1F
100
AcDbEntity
  8
0
  6
Continuous
 62
     7
370
     0
100
AcDbLine
 10
45.2450539919
 20
141.885873485
 30
0.0
 11
45.2450539919
 21
143.4803424362
 31
0.0
  0
ARC
  5
1FE
330
1F
100
AcDbEntity
  8
0
  6
Continuous
 62
     7
370
     0
100
AcDbCircle
 10
50.1997181306
 20
118.7413793407
 30
0.0
 40
2.556144800470148
100
AcDbArc
 50
198.0851939994
 51
223.4836393103
  0
ARC
  5
1FF
330
1F
100
AcDbEntity
  8
0
  6
Continuous
 62
     7
370
     0
100
AcDbCircle
 10
50.2903896297
 20
118.7413793407
 30
0.0
 40
2.556144800470141
100
AcDbArc
 50
316.5163606897
 51
341.9148060006
  0
LINE
  5
200
330
1F
100
AcDbEntity
  8
0
  6
Continuous
 62
     7
370
     0
100
AcDbLine
 10
52.2450539752
 20
119.7929201606
 30
0.0
 11
52.1450539122
 21
119.9048576835
 31
0.0
  0
LINE
  5
201
330
1F
100
AcDbEntity
  8
0
  6
Continuous
 62
     7
370
     0
100
AcDbLine
 10
48.3450538482
 20
119.9048576835
 30
0.0
 11
48.2450537852
 21
119.7929201606
 31
0.0
  0
LINE
  5
202
330
1F
100
AcDbEntity
  8
0
  6
Continuous
 62
     7
370
     0
100
AcDbLine
 10
52.2450539752
 20
116.5159461979
 30
0.0
 11
52.2450539752
 21
115.5244676355
 31
0.0
  0
LINE
  5
203
330
1F
100
AcDbEntity
  8
0
  6
Continuous
 62
     7
370
     0
100
AcDbLine
 10
48.2450537852
 20
116.5159461979
 30
0.0
 11
48.3450538482
 21
116.404008675
 31
0.0
  0
LINE
  5
204
330
1F
100
AcDbEntity
  8
0
  6
Continuous
 62
     7
370
     0
100
AcDbLine
 10
52.1450539122
 20
116.404008675
 30
0.0
 11
52.2450539752
 21
116.5159461979
 31
0.0
  0
LINE
  5
205
330
1F
100
AcDbEntity
  8
0
  6
Continuous
 62
     7
370
     0
100
AcDbLine
 10
48.2450537852
 20
116.5159461979
 30
0.0
 11
48.2450537852
 21
115.5244676355
 31
0.0
  0
LWPOLYLINE
  5
206
330
1F
100
AcDbEntity
  8
0
  6
Continuous
 62
     7
370
     0
100
AcDbPolyline
 90
        3
 70
   128
 43
0.0
 10
52.1450539122
 20
113.7404633645
 10
52.2066243461
 20
113.5093612555
 10
52.2450539752
 20
113.1245462183
  0
LWPOLYLINE
  5
207
330
1F
100
AcDbEntity
  8
0
  6
Continuous
 62
     7
370
     0
100
AcDbPolyline
 90
        3
 70
   128
 43
0.0
 10
48.2450537852
 20
113.1245462183
 10
48.2834834143
 20
113.5093612555
 10
48.3450538482
 20
113.7404633645
  0
LINE
  5
208
330
1F
100
AcDbEntity
  8
0
  6
Continuous
 62
     7
370
     0
100
AcDbLine
 10
45.2450539919
 20
147.5014207843
 30
0.0
 11
55.2450537684
 21
147.5014207843
 31
0.0
  0
LINE
  5
209
330
1F
100
AcDbEntity
  8
0
  6
Continuous
 62
     7
370
     0
100
AcDbLine
 10
55.2450537684
 20
147.5014207843
 30
0.0
 11
55.2450537684
 21
143.4803424362
 31
0.0
  0
LINE
  5
20A
330
1F
100
AcDbEntity
  8
0
  6
Continuous
 62
     7
370
     0
100
AcDbLine
 10
45.2450539919
 20
143.4803424362
 30
0.0
 11
45.2450539919
 21
147.5014207843
 31
0.0
  0
ARC
  5
20B
330
1F
100
AcDbEntity
  8
0
  6
Continuous
 62
     7
370
     0
100
AcDbCircle
 10
50.2450538802
 20
153.8974564699
 30
0.0
 40
2.239607415043094
100
AcDbArc
 50
153.254424191
 51
26.745575809
  0
ARC
  5
20C
330
1F
100
AcDbEntity
  8
0
  6
Continuous
 62
     7
370
     0
100
AcDbCircle
 10
50.2450538802
 20
168.6468335776
 30
0.0
 40
2.239607801289662
100
AcDbArc
 50
153.2544045831
 51
26.7455954169
  0
LINE
  5
20D
330
1F
100
AcDbEntity
  8
0
  6
Continuous
 62
     7
370
     0
100
AcDbLine
 10
45.2450539919
 20
176.5075033489
 30
0.0
 11
47.44505398
 21
176.5075033489
 31
0.0
  0
LINE
  5
20E
330
1F
100
AcDbEntity
  8
0
  6
Continuous
 62
     7
370
     0
100
AcDbLine
 10
47.44505398
 20
174.2459317628
 30
0.0
 11
47.44505398
 21
176.5075033489
 31
0.0
  0
ARC
  5
20F
330
1F
100
AcDbEntity
  8
0
  6
Continuous
 62
     7
370
     0
100
AcDbCircle
 10
50.2846184589
 20
174.2617505543
 30
0.0
 40
2.760480646184998
100
AcDbArc
 50
288.0669133618
 51
359.6716677041
  0
ARC
  5
210
330
1F
100
AcDbEntity
  8
0
  6
Continuous
 62
     7
370
     0
100
AcDbCircle
 10
50.2054893015
 20
174.2617505543
 30
0.0
 40
2.760480646185016
100
AcDbArc
 50
180.3283322959
 51
251.9330866382
  0
LINE
  5
211
330
1F
100
AcDbEntity
  8
0
  6
Continuous
 62
     7
370
     0
100
AcDbLine
 10
53.0450537804
 20
176.5075033489
 30
0.0
 11
53.0450537804
 21
174.2459317628
 31
0.0
  0
LINE
  5
212
330
1F
100
AcDbEntity
  8
0
  6
Continuous
 62
     7
370
     0
100
AcDbLine
 10
53.0450537804
 20
176.5075033489
 30
0.0
 11
55.2450537684
 21
176.5075033489
 31
0.0
  0
LINE
  5
213
330
1F
100
AcDbEntity
  8
0
  6
Continuous
 62
     7
370
     0
100
AcDbLine
 10
47.44505398
 20
159.4965575222
 30
0.0
 11
47.44505398
 21
163.0364028696
 31
0.0
  0
ARC
  5
214
330
1F
100
AcDbEntity
  8
0
  6
Continuous
 62
     7
370
     0
100
AcDbCircle
 10
50.2846162158
 20
159.5123742033
 30
0.0
 40
2.760482877202492
100
AcDbArc
 50
288.0669472288
 51
359.6717117712
  0
ARC
  5
215
330
1F
100
AcDbEntity
  8
0
  6
Continuous
 62
     7
370
     0
100
AcDbCircle
 10
50.2054915446
 20
159.5123742033
 30
0.0
 40
2.76048287720249
100
AcDbArc
 50
180.3282882288
 51
251.9330527712
  0
LINE
  5
216
330
1F
100
AcDbEntity
  8
0
  6
Continuous
 62
     7
370
     0
100
AcDbLine
 10
53.0450537804
 20
163.0364028696
 30
0.0
 11
53.0450537804
 21
159.4965575222
 31
0.0
  0
ARC
  5
217
330
1F
100
AcDbEntity
  8
0
  6
Continuous
 62
     7
370
     0
100
AcDbCircle
 10
50.2450538802
 20
163.0004610817
 30
0.0
 40
2.800230571403696
100
AcDbArc
 50
0.7354284758
 51
179.2645715242
  0
LINE
  5
218
330
1F
100
AcDbEntity
  8
0
  6
Continuous
 62
     7
370
     0
100
AcDbLine
 10
55.2450537684
 20
176.5075033489
 30
0.0
 11
55.2450537684
 21
147.5014207843
 31
0.0
  0
LINE
  5
219
330
1F
100
AcDbEntity
  8
0
  6
Continuous
 62
     7
370
     0
100
AcDbLine
 10
45.2450539919
 20
176.5075033489
 30
0.0
 11
45.2450539919
 21
147.5014207843
 31
0.0
  0
ARC
  5
21A
330
1F
100
AcDbEntity
  8
0
  6
Continuous
 62
     7
370
     0
100
AcDbCircle
 10
50.310591365
 20
153.3442452042
 30
0.0
 40
2.18457348789949
100
AcDbArc
 50
7.2182416984
 51
27.6855993372
  0
ARC
  5
21B
330
1F
100
AcDbEntity
  8
0
  6
Continuous
 62
     7
370
     0
100
AcDbCircle
 10
50.1795163954
 20
153.3442452042
 30
0.0
 40
2.18457348789949
100
AcDbArc
 50
152.3144006628
 51
172.7817583016
  0
ARC
  5
21C
330
1F
100
AcDbEntity
  8
0
  6
Continuous
 62
     7
370
     0
100
AcDbCircle
 10
50.2157001185
 20
159.4588530396
 30
0.0
 40
2.470704039012234
100
AcDbArc
 50
180.392106963
 51
258.9979709169
  0
ARC
  5
21D
330
1F
100
AcDbEntity
  8
0
  6
Continuous
 62
     7
370
     0
100
AcDbCircle
 10
50.2744076419
 20
159.4588530396
 30
0.0
 40
2.470704039012236
100
AcDbArc
 50
281.0020290831
 51
359.607893037
  0
LINE
  5
21E
330
1F
100
AcDbEntity
  8
0
  6
Continuous
 62
     7
370
     0
100
AcDbLine
 10
52.7450538243
 20
159.4419447664
 30
0.0
 11
53.0450537804
 21
159.4965575222
 31
0.0
  0
LINE
  5
21F
330
1F
100
AcDbEntity
  8
0
  6
Continuous
 62
     7
370
     0
100
AcDbLine
 10
47.7450539361
 20
159.4419447664
 30
0.0
 11
47.44505398
 21
159.4965575222
 31
0.0
  0
LINE
  5
220
330
1F
100
AcDbEntity
  8
0
  6
Continuous
 62
     7
370
     0
100
AcDbLine
 10
47.7450539361
 20
162.9817975644
 30
0.0
 11
47.7450539361
 21
159.4419447664
 31
0.0
  0
LINE
  5
221
330
1F
100
AcDbEntity
  8
0
  6
Continuous
 62
     7
370
     0
100
AcDbLine
 10
47.44505398
 20
163.0364028696
 30
0.0
 11
47.7450539361
 21
162.9817975644
 31
0.0
  0
LINE
  5
222
330
1F
100
AcDbEntity
  8
0
  6
Continuous
 62
     7
370
     0
100
AcDbLine
 10
52.7450538243
 20
159.4419447664
 30
0.0
 11
52.7450538243
 21
162.9817975644
 31
0.0
  0
LINE
  5
223
330
1F
100
AcDbEntity
  8
0
  6
Continuous
 62
     7
370
     0
100
AcDbLine
 10
53.0450537804
 20
163.0364028696
 30
0.0
 11
52.7450538243
 21
162.9817975644
 31
0.0
  0
ARC
  5
224
330
1F
100
AcDbEntity
  8
0
  6
Continuous
 62
     7
370
     0
100
AcDbCircle
 10
50.2450538802
 20
162.9488907317
 30
0.0
 40
2.500216506672913
100
AcDbArc
 50
0.7541255179
 51
179.2458744821
  0
ARC
  5
225
330
1F
100
AcDbEntity
  8
0
  6
Continuous
 62
     7
370
     0
100
AcDbCircle
 10
50.2450538802
 20
162.6758407186
 30
0.0
 40
2.500216423562511
100
AcDbArc
 50
0.7539808088
 51
179.2460191912
  0
ARC
  5
226
330
1F
100
AcDbEntity
  8
0
  6
Continuous
 62
     7
370
     0
100
AcDbCircle
 10
50.3105999818
 20
168.0936207729
 30
0.0
 40
2.184565240574089
100
AcDbArc
 50
7.2183324705
 51
27.685673497
  0
ARC
  5
227
330
1F
100
AcDbEntity
  8
0
  6
Continuous
 62
     7
370
     0
100
AcDbCircle
 10
50.1795077786
 20
168.0936207729
 30
0.0
 40
2.184565240574095
100
AcDbArc
 50
152.314326503
 51
172.7816675295
  0
ARC
  5
228
330
1F
100
AcDbEntity
  8
0
  6
Continuous
 62
     7
370
     0
100
AcDbCircle
 10
50.215702969
 20
174.2082296203
 30
0.0
 40
2.470706880011241
100
AcDbArc
 50
180.3920743864
 51
258.9979163837
  0
ARC
  5
229
330
1F
100
AcDbEntity
  8
0
  6
Continuous
 62
     7
370
     0
100
AcDbCircle
 10
50.2744047913
 20
174.2082296203
 30
0.0
 40
2.470706880011267
100
AcDbArc
 50
281.0020836163
 51
359.6079256136
  0
LINE
  5
22A
330
1F
100
AcDbEntity
  8
0
  6
Continuous
 62
     7
370
     0
100
AcDbLine
 10
52.7450538243
 20
174.1913227323
 30
0.0
 11
53.0450537804
 21
174.2459317628
 31
0.0
  0
LINE
  5
22B
330
1F
100
AcDbEntity
  8
0
  6
Continuous
 62
     7
370
     0
100
AcDbLine
 10
47.7450539361
 20
174.1913227323
 30
0.0
 11
47.44505398
 21
174.2459317628
 31
0.0
  0
LINE
  5
22C
330
1F
100
AcDbEntity
  8
0
  6
Continuous
 62
     7
370
     0
100
AcDbLine
 10
47.7450539361
 20
176.4528905932
 30
0.0
 11
47.7450539361
 21
174.1913227323
 31
0.0
  0
LINE
  5
22D
330
1F
100
AcDbEntity
  8
0
  6
Continuous
 62
     7
370
     0
100
AcDbLine
 10
47.44505398
 20
176.5075033489
 30
0.0
 11
47.7450539361
 21
176.4528905932
 31
0.0
  0
LINE
  5
22E
330
1F
100
AcDbEntity
  8
0
  6
Continuous
 62
     7
370
     0
100
AcDbLine
 10
52.7450538243
 20
174.1913227323
 30
0.0
 11
52.7450538243
 21
176.4528905932
 31
0.0
  0
LINE
  5
22F
330
1F
100
AcDbEntity
  8
0
  6
Continuous
 62
     7
370
     0
100
AcDbLine
 10
52.7450538243
 20
176.4528905932
 30
0.0
 11
53.0450537804
 21
176.5075033489
 31
0.0
  0
LINE
  5
230
330
1F
100
AcDbEntity
  8
0
  6
Continuous
 62
     7
370
     0
100
AcDbLine
 10
47.7450539361
 20
176.1798379902
 30
0.0
 11
52.7450538243
 21
176.1798379902
 31
0.0
  0
CIRCLE
  5
231
330
1F
100
AcDbEntity
  8
0
  6
Continuous
 62
     7
370
     0
100
AcDbCircle
 10
50.2633786048
 20
155.1452932518
 30
0.0
 40
1.786422852690915
  0
CIRCLE
  5
232
330
1F
100
AcDbEntity
  8
0
  6
Continuous
 62
     7
370
     0
100
AcDbCircle
 10
50.257916361
 20
155.1041237426
 30
0.0
 40
1.990259229761662
  0
ARC
  5
233
330
1F
100
AcDbEntity
  8
0
  6
Continuous
 62
     7
370
     0
100
AcDbCircle
 10
50.1824557929
 20
153.3823264081
 30
0.0
 40
1.937402022151756
100
AcDbArc
 50
180.0070049114
 51
202.8752344003
  0
ARC
  5
234
330
1F
100
AcDbEntity
  8
0
  6
Continuous
 62
     7
370
     0
100
AcDbCircle
 10
50.3070254411
 20
153.382453206
 30
0.0
 40
1.938028568237564
100
AcDbArc
 50
337.1285119813
 51
359.9892487069
  0
CIRCLE
  5
235
330
1F
100
AcDbEntity
  8
0
  6
Continuous
 62
     7
370
     0
100
AcDbCircle
 10
50.22423091
 20
169.9134498188
 30
0.0
 40
1.778999042047875
  0
CIRCLE
  5
236
330
1F
100
AcDbEntity
  8
0
  6
Continuous
 62
     7
370
     0
100
AcDbCircle
 10
50.2222395215
 20
169.885920243
 30
0.0
 40
1.977520779811529
  0
LWPOLYLINE
  5
237
330
1F
100
AcDbEntity
  8
0
  6
Continuous
 62
     7
370
     0
100
AcDbPolyline
 90
        3
 70
   128
 43
0.0
 10
48.2483909468
 20
168.0179094854
 10
48.3125097121
 20
167.6250254694
 10
48.3974236299
 20
167.378582615
  0
ARC
  5
238
330
1F
100
AcDbEntity
  8
0
  6
Continuous
 62
     7
370
     0
100
AcDbCircle
 10
50.3073974877
 20
168.1317521495
 30
0.0
 40
1.937656508340521
100
AcDbArc
 50
337.1262876193
 51
359.9915833049
  0
LINE
  5
239
330
1F
100
AcDbEntity
  8
0
  6
Continuous
 62
     7
370
     0
100
AcDbLine
 10
48.2450537852
 20
168.1314675096
 30
0.0
 11
48.2483909468
 21
168.0179094854
 31
0.0
  0
LINE
  5
23A
330
1F
100
AcDbEntity
  8
0
  6
Continuous
 62
     7
370
     0
100
AcDbLine
 10
52.1668766628
 20
113.6706439737
 30
0.0
 11
52.1450539122
 21
113.6706439737
 31
0.0
  0
LINE
  5
23B
330
1F
100
AcDbEntity
  8
0
  6
Continuous
 62
     7
370
     0
100
AcDbLine
 10
48.3450538482
 20
113.6706439737
 30
0.0
 11
48.3232310976
 21
113.6706439737
 31
0.0
  0
LWPOLYLINE
  5
23C
330
1F
100
AcDbEntity
  8
0
  6
Continuous
 62
     7
370
     0
100
AcDbPolyline
 90
        9
 70
   128
 43
0.0
 10
44.847052824
 20
121.7789245728
 10
44.8402583602
 20
121.7785594944
 10
44.8354024443
 20
121.779170442
 10
44.8324878703
 20
121.7807499651
 10
44.8315160352
 20
121.7832980636
 10
44.8324878703
 20
121.7868147377
 10
44.8354024443
 20
121.7912999872
 10
44.8402583602
 20
121.7967463616
 10
44.8411813009
 20
121.7976702336
  0
ARC
  5
23D
330
1F
100
AcDbEntity
  8
0
  6
Continuous
 62
     7
370
     0
100
AcDbCircle
 10
48.6411378592
 20
122.9776191691
 30
0.0
 40
3.978938299231968
100
AcDbArc
 50
187.8402820441
 51
197.5332919922
  0
LINE
  5
23E
330
1F
100
AcDbEntity
  8
0
  6
Continuous
 62
     7
370
     0
100
AcDbLine
 10
44.6993939581
 20
122.4348438862
 30
0.0
 11
44.6993939581
 21
122.6021019701
 31
0.0
  0
ARC
  5
23F
330
1F
100
AcDbEntity
  8
0
  6
Continuous
 62
     7
370
     0
100
AcDbCircle
 10
44.9588024476
 20
123.8666310946
 30
0.0
 40
1.290862762320688
100
AcDbArc
 50
258.4070462993
 51
265.033704214
  0
ARC
  5
240
330
1F
100
AcDbEntity
  8
0
  6
Continuous
 62
     7
370
     0
100
AcDbCircle
 10
49.2399272278
 20
122.950416613
 30
0.0
 40
4.408412314308347
100
AcDbArc
 50
175.1880569599
 51
184.8119430401
  0
ARC
  5
241
330
1F
100
AcDbEntity
  8
0
  6
Continuous
 62
     7
370
     0
100
AcDbCircle
 10
44.958352171
 20
124.6031410927
 30
0.0
 40
1.287741174469944
100
AcDbArc
 50
258.3990055264
 51
265.0417449868
  0
LINE
  5
242
330
1F
100
AcDbEntity
  8
0
  6
Continuous
 62
     7
370
     0
100
AcDbLine
 10
44.6993939581
 20
123.3417062048
 30
0.0
 11
44.6993939581
 21
123.5202966217
 31
0.0
  0
ARC
  5
243
330
1F
100
AcDbEntity
  8
0
  6
Continuous
 62
     7
370
     0
100
AcDbCircle
 10
48.6411378592
 20
122.9775213388
 30
0.0
 40
3.978938299231964
100
AcDbArc
 50
162.4667080078
 51
172.1597179559
  0
ARC
  5
244
330
1F
100
AcDbEntity
  8
0
  6
Continuous
 62
     7
370
     0
100
AcDbCircle
 10
44.8631134085
 20
124.2040598639
 30
0.0
 40
0.032143844583415
100
AcDbArc
 50
192.1787479384
 51
240.023333163
  0
ARC
  5
245
330
1F
100
AcDbEntity
  8
0
  6
Continuous
 62
     7
370
     0
100
AcDbCircle
 10
48.6411450198
 20
123.0017353988
 30
0.0
 40
3.978947470201204
100
AcDbArc
 50
162.4666322802
 51
172.1595147912
  0
LINE
  5
246
330
1F
100
AcDbEntity
  8
0
  6
Continuous
 62
     7
370
     0
100
AcDbLine
 10
44.6993939581
 20
123.5445259098
 30
0.0
 11
44.6993939581
 21
123.5202966217
 31
0.0
  0
ARC
  5
247
330
1F
100
AcDbEntity
  8
0
  6
Continuous
 62
     7
370
     0
100
AcDbCircle
 10
49.2331100308
 20
123.0292852284
 30
0.0
 40
4.401595219806992
100
AcDbArc
 50
176.2020740477
 51
180.5155348791
  0
ARC
  5
248
330
1F
100
AcDbEntity
  8
0
  6
Continuous
 62
     7
370
     0
100
AcDbCircle
 10
44.9587162502
 20
121.3732809408
 30
0.0
 40
1.290701955532152
100
AcDbArc
 50
94.9630752694
 51
101.5905120125
  0
LINE
  5
249
330
1F
100
AcDbEntity
  8
0
  6
Continuous
 62
     7
370
     0
100
AcDbLine
 10
44.6993939581
 20
122.6376635913
 30
0.0
 11
44.6993939581
 21
122.5972963456
 31
0.0
  0
SPLINE
  5
24A
330
1F
100
AcDbEntity
  8
0
  6
Continuous
 62
     7
370
     0
100
AcDbSpline
210
0.0
220
0.0
230
1.0
 70
     8
 71
     3
 72
     8
 73
     4
 74
     0
 42
0.000000001
 43
0.00000001
 40
0.0
 40
0.0
 40
0.0
 40
0.0
 40
1.0
 40
1.0
 40
1.0
 40
1.0
 10
44.69939395819435
 20
122.6021032797456
 30
0.0
 10
44.74861500958497
 20
122.6022396391927
 30
0.0
 10
44.79783480876665
 20
122.6023764922912
 30
0.0
 10
44.84705326499061
 20
122.6025138748164
 30
0.0
  0
SPLINE
  5
24B
330
1F
100
AcDbEntity
  8
0
  6
Continuous
 62
     7
370
     0
100
AcDbSpline
210
0.0
220
0.0
230
1.0
 70
     8
 71
     3
 72
     8
 73
     4
 74
     0
 42
0.000000001
 43
0.00000001
 40
0.0
 40
0.0
 40
0.0
 40
0.0
 40
1.0
 40
1.0
 40
1.0
 40
1.0
 10
44.69939395819435
 20
122.6376600918845
 30
0.0
 10
44.74861498205745
 20
122.6375237325136
 30
0.0
 10
44.79783475371299
 20
122.637386879492
 30
0.0
 10
44.84705318241237
 20
122.6372494970442
 30
0.0
  0
LWPOLYLINE
  5
24C
330
1F
100
AcDbEntity
  8
0
  6
Continuous
 62
     7
370
     0
100
AcDbPolyline
 90
        3
 70
   128
 43
0.0
 10
55.7907138023
 20
123.3765972737
 10
55.7783556173
 20
123.4550146345
 10
55.766414665
 20
123.5217569355
  0
ARC
  5
24D
330
1F
100
AcDbEntity
  8
0
  6
Continuous
 62
     7
370
     0
100
AcDbCircle
 10
52.2689160937
 20
123.1105042483
 30
0.0
 40
3.559254677112281
100
AcDbArc
 50
8.3196684287
 51
15.9677220818
  0
LINE
  5
24E
330
1F
100
AcDbEntity
  8
0
  6
Continuous
 62
     7
370
     0
100
AcDbLine
 10
55.7907138023
 20
123.6255137209
 30
0.0
 11
55.7907138023
 21
123.5207809094
 31
0.0
  0
ARC
  5
24F
330
1F
100
AcDbEntity
  8
0
  6
Continuous
 62
     7
370
     0
100
AcDbCircle
 10
55.1179705986
 20
123.2305522121
 30
0.0
 40
0.7326773606624319
100
AcDbArc
 50
23.3358900119
 51
44.2201682234
  0
ARC
  5
250
330
1F
100
AcDbEntity
  8
0
  6
Continuous
 62
     7
370
     0
100
AcDbCircle
 10
51.7439915431
 20
123.3930965844
 30
0.0
 40
3.914601396021441
100
AcDbArc
 50
354.893360373
 51
5.106639627
  0
ARC
  5
251
330
1F
100
AcDbEntity
  8
0
  6
Continuous
 62
     7
370
     0
100
AcDbCircle
 10
55.1179022989
 20
122.5336313724
 30
0.0
 40
0.7327581701297672
100
AcDbArc
 50
23.3370545031
 51
44.2190037322
  0
LINE
  5
252
330
1F
100
AcDbEntity
  8
0
  6
Continuous
 62
     7
370
     0
100
AcDbLine
 10
55.7907138023
 20
122.8239057544
 30
0.0
 11
55.7907138023
 21
122.6027650717
 31
0.0
  0
ARC
  5
253
330
1F
100
AcDbEntity
  8
0
  6
Continuous
 62
     7
370
     0
100
AcDbCircle
 10
52.2625425958
 20
123.1190645566
 30
0.0
 40
3.565747778537438
100
AcDbArc
 50
341.4509101158
 51
351.6746398688
  0
ARC
  5
254
330
1F
100
AcDbEntity
  8
0
  6
Continuous
 62
     7
370
     0
100
AcDbCircle
 10
55.1526478995
 20
121.8602811876
 30
0.0
 40
0.5059534674474689
100
AcDbArc
 50
345.7598011731
 51
14.2401988269
  0
ARC
  5
255
330
1F
100
AcDbEntity
  8
0
  6
Continuous
 62
     7
370
     0
100
AcDbCircle
 10
52.2626836539
 20
122.8701144078
 30
0.0
 40
3.565603327157783
100
AcDbArc
 50
341.4507024703
 51
351.6748475144
  0
LINE
  5
256
330
1F
100
AcDbEntity
  8
0
  6
Continuous
 62
     7
370
     0
100
AcDbLine
 10
55.7907138023
 20
122.3538486246
 30
0.0
 11
55.7907138023
 21
122.4585888866
 31
0.0
  0
ARC
  5
257
330
1F
100
AcDbEntity
  8
0
  6
Continuous
 62
     7
370
     0
100
AcDbCircle
 10
55.1658708898
 20
123.4189066473
 30
0.0
 40
0.6781081563905842
100
AcDbArc
 50
320.7300486025
 51
337.1390240964
  0
LINE
  5
258
330
1F
100
AcDbEntity
  8
0
  6
Continuous
 62
     7
370
     0
100
AcDbLine
 10
55.7907138023
 20
123.1554640416
 30
0.0
 11
55.7907138023
 21
123.3765972737
 31
0.0
  0
SPLINE
  5
259
330
1F
100
AcDbEntity
  8
0
  6
Continuous
 62
     7
370
     0
100
AcDbSpline
210
0.0
220
0.0
230
1.0
 70
     8
 71
     3
 72
     8
 73
     4
 74
     0
 42
0.000000001
 43
0.00000001
 40
0.0
 40
0.0
 40
0.0
 40
0.0
 40
1.0
 40
1.0
 40
1.0
 40
1.0
 10
55.79071380218176
 20
123.5207810354394
 30
0.0
 10
55.74149269041671
 20
123.5193800519682
 30
0.0
 10
55.69227283086367
 20
123.5179739966207
 30
0.0
 10
55.64305431427177
 20
123.5165625018328
 30
0.0
  0
SPLINE
  5
25A
330
1F
100
AcDbEntity
  8
0
  6
Continuous
 62
     7
370
     0
100
AcDbSpline
210
0.0
220
0.0
230
1.0
 70
     8
 71
     3
 72
     8
 73
     4
 74
     0
 42
0.000000001
 43
0.00000001
 40
0.0
 40
0.0
 40
0.0
 40
0.0
 40
1.0
 40
1.0
 40
1.0
 40
1.0
 10
55.79071380218176
 20
123.3765980569827
 30
0.0
 10
55.74149270797115
 20
123.3726758397432
 30
0.0
 10
55.69227286597167
 20
123.3687394231974
 30
0.0
 10
55.64305436693233
 20
123.3647877783073
 30
0.0
  0
SPLINE
  5
25B
330
1F
100
AcDbEntity
  8
0
  6
Continuous
 62
     7
370
     0
100
AcDbSpline
210
0.0
220
0.0
230
1.0
 70
     8
 71
     3
 72
     8
 73
     4
 74
     0
 42
0.000000001
 43
0.00000001
 40
0.0
 40
0.0
 40
0.0
 40
0.0
 40
1.0
 40
1.0
 40
1.0
 40
1.0
 10
55.79071380218176
 20
123.1554638825262
 30
0.0
 10
55.7414928031051
 20
123.1568648627899
 30
0.0
 10
55.69227305623473
 20
123.1582709149068
 30
0.0
 10
55.64305465231912
 20
123.1596824064382
 30
0.0
  0
LINE
  5
25C
330
1F
100
AcDbEntity
  8
0
  6
Continuous
 62
     7
370
     0
100
AcDbLine
 10
48.3450538482
 20
140.4411761049
 30
0.0
 11
52.1450539122
 21
140.4411761049
 31
0.0
  0
LINE
  5
25D
330
1F
100
AcDbEntity
  8
0
  6
Continuous
 62
     7
370
     0
100
AcDbLine
 10
52.1450539122
 20
140.8997667912
 30
0.0
 11
48.3450538482
 21
140.8997667912
 31
0.0
  0
LINE
  5
25E
330
1F
100
AcDbEntity
  8
0
  6
Continuous
 62
     7
370
     0
100
AcDbLine
 10
52.1450539122
 20
140.4411761049
 30
0.0
 11
52.1450539122
 21
140.8997667912
 31
0.0
  0
LINE
  5
25F
330
1F
100
AcDbEntity
  8
0
  6
Continuous
 62
     7
370
     0
100
AcDbLine
 10
48.3450538482
 20
140.4411761049
 30
0.0
 11
48.3450538482
 21
140.8997667912
 31
0.0
  0
LINE
  5
260
330
1F
100
AcDbEntity
  8
0
  6
Continuous
 62
     7
370
     0
100
AcDbLine
 10
48.3450538482
 20
134.4753993634
 30
0.0
 11
52.1450539122
 21
134.4753993634
 31
0.0
  0
LINE
  5
261
330
1F
100
AcDbEntity
  8
0
  6
Continuous
 62
     7
370
     0
100
AcDbLine
 10
52.1450539122
 20
134.4753993634
 30
0.0
 11
52.1450539122
 21
140.4411761049
 31
0.0
  0
LINE
  5
262
330
1F
100
AcDbEntity
  8
0
  6
Continuous
 62
     7
370
     0
100
AcDbLine
 10
48.3450538482
 20
134.4753993634
 30
0.0
 11
48.3450538482
 21
140.4411761049
 31
0.0
  0
LINE
  5
263
330
1F
100
AcDbEntity
  8
0
  6
Continuous
 62
     7
370
     0
100
AcDbLine
 10
48.3450538482
 20
104.2101127986
 30
0.0
 11
52.1450539122
 21
104.2101127986
 31
0.0
  0
LINE
  5
264
330
1F
100
AcDbEntity
  8
0
  6
Continuous
 62
     7
370
     0
100
AcDbLine
 10
52.1450539122
 20
104.2101127986
 30
0.0
 11
52.1450539122
 21
134.4753993634
 31
0.0
  0
LINE
  5
265
330
1F
100
AcDbEntity
  8
0
  6
Continuous
 62
     7
370
     0
100
AcDbLine
 10
48.3450538482
 20
104.2101127986
 30
0.0
 11
48.3450538482
 21
134.4753993634
 31
0.0
  0
LINE
  5
266
330
1F
100
AcDbEntity
  8
0
  6
Continuous
 62
     7
370
     0
100
AcDbLine
 10
52.1450539122
 20
104.2101127986
 30
0.0
 11
52.1450539122
 21
102.9212294105
 31
0.0
  0
LINE
  5
267
330
1F
100
AcDbEntity
  8
0
  6
Continuous
 62
     7
370
     0
100
AcDbLine
 10
48.3450538482
 20
102.9212294105
 30
0.0
 11
48.3450538482
 21
104.2101127986
 31
0.0
  0
LINE
  5
268
330
1F
100
AcDbEntity
  8
0
  6
Continuous
 62
     1
370
     0
100
AcDbLine
 10
48.2450537852
 20
136.4107547287
 30
0.0
 11
48.3450538482
 21
136.4107547287
 31
0.0
  0
LINE
  5
269
330
1F
100
AcDbEntity
  8
0
  6
Continuous
 62
     1
370
     0
100
AcDbLine
 10
52.1450539122
 20
136.4107547287
 30
0.0
 11
52.2450539752
 21
136.4107547287
 31
0.0
  0
LINE
  5
26A
330
1F
100
AcDbEntity
  8
0
  6
Continuous
 62
     1
370
     0
100
AcDbLine
 10
52.2450539752
 20
108.6568204645
 30
0.0
 11
52.1450539122
 21
108.6568204645
 31
0.0
  0
LINE
  5
26B
330
1F
100
AcDbEntity
  8
0
  6
Continuous
 62
     1
370
     0
100
AcDbLine
 10
48.3450538482
 20
108.6568204645
 30
0.0
 11
48.2450537852
 21
108.6568204645
 31
0.0
  0
ARC
  5
26C
330
1F
100
AcDbEntity
  8
0
  6
Continuous
 62
     1
370
     0
100
AcDbCircle
 10
50.3110013412
 20
153.3448128402
 30
0.0
 40
2.134079512950736
100
AcDbArc
 50
2.0668304058
 51
25.0050974147
  0
ARC
  5
26D
330
1F
100
AcDbEntity
  8
0
  6
Continuous
 62
     1
370
     0
100
AcDbCircle
 10
50.1774991201
 20
153.3451997857
 30
0.0
 40
2.132459329609088
100
AcDbArc
 50
154.9860702339
 51
177.9420019457
  0
ARC
  5
26E
330
1F
100
AcDbEntity
  8
0
  6
Continuous
 62
     1
370
     0
100
AcDbCircle
 10
50.1787949282
 20
168.09426207
 30
0.0
 40
2.133765521103923
100
AcDbArc
 50
154.9931919433
 51
177.9348802363
  0
ARC
  5
26F
330
1F
100
AcDbEntity
  8
0
  6
Continuous
 62
     1
370
     0
100
AcDbCircle
 10
50.3125208978
 20
168.094554018
 30
0.0
 40
2.132547302709567
100
AcDbArc
 50
2.0028670256
 51
25.013420115
  0
DIMENSION
  5
270
330
1F
100
AcDbEntity
  8
0
  6
Continuous
 62
     7
370
     0
100
AcDbDimension
  2
_D_2
 10
36.9745569622
 20
102.2705418895
 30
0.0
 11
36.9745569622
 21
139.3890225564
 31
0.0
 70
   160
  1
(<>)
 71
     2
 42
-1.0
  3
SLDDIMSTYLE0
100
AcDbAlignedDimension
 13
45.2450538802
 23
176.5075032232
 33
0.0
 14
45.2450538802
 24
102.2705418895
 34
0.0
 50
90.0
100
AcDbRotatedDimension
  0
DIMENSION
  5
27C
330
1F
100
AcDbEntity
  8
0
  6
Continuous
 62
     7
370
     0
100
AcDbDimension
  2
_D_3
 10
55.7907138022
 20
92.2705418895
 30
0.0
 11
50.2450538802
 21
92.2705418895
 31
0.0
 70
   160
  1
<>
 71
     2
 42
-1.0
  3
SLDDIMSTYLE2
100
AcDbAlignedDimension
 13
44.6993939582
 23
122.6376600919
 33
0.0
 14
55.7907138022
 24
122.8239027761
 34
0.0
100
AcDbRotatedDimension
  0
LINE
  5
289
330
1F
100
AcDbEntity
  8
0
  6
Continuous
 62
     7
370
     0
100
AcDbLine
 10
150.1715348909
 20
106.8132189993
 30
0.0
 11
150.2715349538
 21
106.8132189993
 31
0.0
  0
LINE
  5
28A
330
1F
100
AcDbEntity
  8
0
  6
Continuous
 62
     7
370
     0
100
AcDbLine
 10
154.0715350179
 20
106.8132189993
 30
0.0
 11
154.1715350808
 21
106.8132189993
 31
0.0
  0
LINE
  5
28B
330
1F
100
AcDbEntity
  8
0
  6
Continuous
 62
     7
370
     0
100
AcDbLine
 10
155.6715350939
 20
152.8723878745
 30
0.0
 11
155.6715350939
 21
153.3456860069
 31
0.0
  0
LINE
  5
28C
330
1F
100
AcDbEntity
  8
0
  6
Continuous
 62
     7
370
     0
100
AcDbLine
 10
148.6715348778
 20
153.3456860069
 30
0.0
 11
148.6715348778
 21
152.8723878745
 31
0.0
  0
LINE
  5
28D
330
1F
100
AcDbEntity
  8
0
  6
Continuous
 62
     7
370
     0
100
AcDbLine
 10
155.6715350939
 20
167.6217621151
 30
0.0
 11
155.6715350939
 21
168.0950602475
 31
0.0
  0
LINE
  5
28E
330
1F
100
AcDbEntity
  8
0
  6
Continuous
 62
     7
370
     0
100
AcDbLine
 10
148.6715348778
 20
168.0950602475
 30
0.0
 11
148.6715348778
 21
167.6217621151
 31
0.0
  0
LINE
  5
28F
330
1F
100
AcDbEntity
  8
0
  6
Continuous
 62
     7
370
     0
100
AcDbLine
 10
152.8715349609
 20
128.0331654433
 30
0.0
 11
152.8715349609
 21
128.9192257408
 31
0.0
  0
LINE
  5
290
330
1F
100
AcDbEntity
  8
0
  6
Continuous
 62
     7
370
     0
100
AcDbLine
 10
151.4715350108
 20
128.9192257408
 30
0.0
 11
151.4715350108
 21
128.0331654433
 31
0.0
  0
LINE
  5
291
330
1F
100
AcDbEntity
  8
0
  6
Continuous
 62
     7
370
     0
100
AcDbLine
 10
152.5215349734
 20
129.0193987969
 30
0.0
 11
152.5215349734
 21
133.8504893664
 31
0.0
  0
LINE
  5
292
330
1F
100
AcDbEntity
  8
0
  6
Continuous
 62
     7
370
     0
100
AcDbLine
 10
151.8215349983
 20
133.8504893664
 30
0.0
 11
151.8215349983
 21
129.0193987969
 31
0.0
  0
LINE
  5
293
330
1F
100
AcDbEntity
  8
0
  6
Continuous
 62
     7
370
     0
100
AcDbLine
 10
156.07153488
 20
110.4827193502
 30
0.0
 11
156.3715348361
 21
110.7827244285
 31
0.0
  0
LINE
  5
294
330
1F
100
AcDbEntity
  8
0
  6
Continuous
 62
     7
370
     0
100
AcDbLine
 10
156.3715348361
 20
113.1827203516
 30
0.0
 11
156.07153488
 21
113.4827254299
 31
0.0
  0
LINE
  5
295
330
1F
100
AcDbEntity
  8
0
  6
Continuous
 62
     7
370
     0
100
AcDbLine
 10
154.8715350559
 20
110.4827193502
 30
0.0
 11
155.1715350119
 21
110.4827193502
 31
0.0
  0
LINE
  5
296
330
1F
100
AcDbEntity
  8
0
  6
Continuous
 62
     7
370
     0
100
AcDbLine
 10
155.6715350939
 20
110.4827193502
 30
0.0
 11
156.07153488
 21
110.4827193502
 31
0.0
  0
LINE
  5
297
330
1F
100
AcDbEntity
  8
0
  6
Continuous
 62
     7
370
     0
100
AcDbLine
 10
156.07153488
 20
113.4827254299
 30
0.0
 11
155.6715350939
 21
113.4827254299
 31
0.0
  0
LINE
  5
298
330
1F
100
AcDbEntity
  8
0
  6
Continuous
 62
     7
370
     0
100
AcDbLine
 10
148.6715348778
 20
113.4827254299
 30
0.0
 11
148.2715350916
 21
113.4827254299
 31
0.0
  0
LINE
  5
299
330
1F
100
AcDbEntity
  8
0
  6
Continuous
 62
     7
370
     0
100
AcDbLine
 10
148.2715350916
 20
110.4827193502
 30
0.0
 11
148.6715348778
 21
110.4827193502
 31
0.0
  0
LINE
  5
29A
330
1F
100
AcDbEntity
  8
0
  6
Continuous
 62
     7
370
     0
100
AcDbLine
 10
149.1715349598
 20
110.4827193502
 30
0.0
 11
149.4715349158
 21
110.4827193502
 31
0.0
  0
LINE
  5
29B
330
1F
100
AcDbEntity
  8
0
  6
Continuous
 62
     7
370
     0
100
AcDbLine
 10
148.2715350916
 20
113.4827254299
 30
0.0
 11
147.9715351356
 21
113.1827203516
 31
0.0
  0
LINE
  5
29C
330
1F
100
AcDbEntity
  8
0
  6
Continuous
 62
     7
370
     0
100
AcDbLine
 10
147.9715351356
 20
110.7827244285
 30
0.0
 11
148.2715350916
 21
110.4827193502
 31
0.0
  0
ARC
  5
29D
330
1F
100
AcDbEntity
  8
0
  6
Continuous
 62
     7
370
     0
100
AcDbCircle
 10
156.7765308261
 20
125.2496833293
 30
0.0
 40
0.2399999999999949
100
AcDbArc
 50
36.9461268967
 51
90.0
  0
ARC
  5
29E
330
1F
100
AcDbEntity
  8
0
  6
Continuous
 62
     7
370
     0
100
AcDbCircle
 10
156.7765308261
 20
120.7296833293
 30
0.0
 40
0.2400000000000091
100
AcDbArc
 50
270.0
 51
323.0538731033
  0
LINE
  5
29F
330
1F
100
AcDbEntity
  8
0
  6
Continuous
 62
     7
370
     0
100
AcDbLine
 10
156.7765307022
 20
125.4896862391
 30
0.0
 11
155.6715350939
 21
125.4896862391
 31
0.0
  0
LINE
  5
2A0
330
1F
100
AcDbEntity
  8
0
  6
Continuous
 62
     7
370
     0
100
AcDbLine
 10
155.6715350939
 20
120.4896835569
 30
0.0
 11
156.7765307022
 21
120.4896835569
 31
0.0
  0
ARC
  5
2A1
330
1F
100
AcDbEntity
  8
0
  6
Continuous
 62
     7
370
     0
100
AcDbCircle
 10
153.7715349858
 20
122.9896833293
 30
0.0
 40
3.999999999999984
100
AcDbArc
 50
17.5716446908
 51
36.9461268967
  0
ARC
  5
2A2
330
1F
100
AcDbEntity
  8
0
  6
Continuous
 62
     7
370
     0
100
AcDbCircle
 10
153.7715349858
 20
122.9896833293
 30
0.0
 40
3.999999999999993
100
AcDbArc
 50
323.0538731033
 51
342.4283553092
  0
LINE
  5
2A3
330
1F
100
AcDbEntity
  8
0
  6
Continuous
 62
     7
370
     0
100
AcDbLine
 10
147.5665392695
 20
120.4896835569
 30
0.0
 11
148.6715348778
 21
120.4896835569
 31
0.0
  0
LINE
  5
2A4
330
1F
100
AcDbEntity
  8
0
  6
Continuous
 62
     7
370
     0
100
AcDbLine
 10
148.6715348778
 20
125.4896862391
 30
0.0
 11
147.5665392695
 21
125.4896862391
 31
0.0
  0
ARC
  5
2A5
330
1F
100
AcDbEntity
  8
0
  6
Continuous
 62
     7
370
     0
100
AcDbCircle
 10
147.5665391456
 20
120.7296833293
 30
0.0
 40
0.2400000000000091
100
AcDbArc
 50
216.9461268967
 51
270.0
  0
ARC
  5
2A6
330
1F
100
AcDbEntity
  8
0
  6
Continuous
 62
     7
370
     0
100
AcDbCircle
 10
147.5665391456
 20
125.2496833293
 30
0.0
 40
0.2399999999999949
100
AcDbArc
 50
90.0
 51
143.0538731033
  0
ARC
  5
2A7
330
1F
100
AcDbEntity
  8
0
  6
Continuous
 62
     7
370
     0
100
AcDbCircle
 10
150.5715349858
 20
122.9896833293
 30
0.0
 40
4.000000000000012
100
AcDbArc
 50
195.9613587262
 51
216.9461268967
  0
ARC
  5
2A8
330
1F
100
AcDbEntity
  8
0
  6
Continuous
 62
     7
370
     0
100
AcDbCircle
 10
150.5715349858
 20
122.9896833293
 30
0.0
 40
3.999999999999996
100
AcDbArc
 50
143.0538731033
 51
164.0386412738
  0
LINE
  5
2A9
330
1F
100
AcDbEntity
  8
0
  6
Continuous
 62
     7
370
     0
100
AcDbLine
 10
150.2715349538
 20
102.9212294105
 30
0.0
 11
154.0715350179
 21
102.9212294105
 31
0.0
  0
CIRCLE
  5
2AA
330
1F
100
AcDbEntity
  8
0
  6
Continuous
 62
     7
370
     0
100
AcDbCircle
 10
152.1652332211
 20
167.5936540787
 30
0.0
 40
3.977876701782051
  0
CIRCLE
  5
2AB
330
1F
100
AcDbEntity
  8
0
  6
Continuous
 62
     7
370
     0
100
AcDbCircle
 10
152.1652849757
 20
152.844279175
 30
0.0
 40
3.977879682409676
  0
LINE
  5
2AC
330
1F
100
AcDbEntity
  8
0
  6
Continuous
 62
     7
370
     0
100
AcDbLine
 10
157.1715348741
 20
171.9737617258
 30
0.0
 11
147.1715350976
 21
171.9737617258
 31
0.0
  0
LINE
  5
2AD
330
1F
100
AcDbEntity
  8
0
  6
Continuous
 62
     7
370
     0
100
AcDbLine
 10
147.1715350976
 20
145.9267629269
 30
0.0
 11
157.1715348741
 21
145.9267629269
 31
0.0
  0
LINE
  5
2AE
330
1F
100
AcDbEntity
  8
0
  6
Continuous
 62
     7
370
     0
100
AcDbLine
 10
147.1715350976
 20
145.9267629269
 30
0.0
 11
147.1715350976
 21
171.9737617258
 31
0.0
  0
LINE
  5
2AF
330
1F
100
AcDbEntity
  8
0
  6
Continuous
 62
     7
370
     0
100
AcDbLine
 10
157.1715348741
 20
145.9267629269
 30
0.0
 11
157.1715348741
 21
171.9737617258
 31
0.0
  0
LINE
  5
2B0
330
1F
100
AcDbEntity
  8
0
  6
Continuous
 62
     7
370
     0
100
AcDbLine
 10
147.1715350976
 20
176.0524107102
 30
0.0
 11
157.1715348741
 21
176.0524107102
 31
0.0
  0
LINE
  5
2B1
330
1F
100
AcDbEntity
  8
0
  6
Continuous
 62
     7
370
     0
100
AcDbLine
 10
147.1715350976
 20
171.9737617258
 30
0.0
 11
147.1715350976
 21
176.0524107102
 31
0.0
  0
LINE
  5
2B2
330
1F
100
AcDbEntity
  8
0
  6
Continuous
 62
     7
370
     0
100
AcDbLine
 10
157.1715348741
 20
176.0524107102
 30
0.0
 11
157.1715348741
 21
171.9737617258
 31
0.0
  0
ARC
  5
2B3
330
1F
100
AcDbEntity
  8
0
  6
Continuous
 62
     7
370
     0
100
AcDbCircle
 10
152.2061545176
 20
168.1293990302
 30
0.0
 40
3.96765504327956
100
AcDbArc
 50
269.5000628309
 51
355.5565416833
  0
ARC
  5
2B4
330
1F
100
AcDbEntity
  8
0
  6
Continuous
 62
     7
370
     0
100
AcDbCircle
 10
152.1429678847
 20
168.1359975525
 30
0.0
 40
3.974205200713179
100
AcDbArc
 50
184.5315424638
 51
270.411853022
  0
LINE
  5
2B5
330
1F
100
AcDbEntity
  8
0
  6
Continuous
 62
     7
370
     0
100
AcDbLine
 10
149.3715350857
 20
176.5075033489
 30
0.0
 11
147.1715350976
 21
176.5075033489
 31
0.0
  0
LINE
  5
2B6
330
1F
100
AcDbEntity
  8
0
  6
Continuous
 62
     7
370
     0
100
AcDbLine
 10
149.6715350417
 20
176.4528905932
 30
0.0
 11
149.3715350857
 21
176.5075033489
 31
0.0
  0
LINE
  5
2B7
330
1F
100
AcDbEntity
  8
0
  6
Continuous
 62
     7
370
     0
100
AcDbLine
 10
149.6715350417
 20
176.4528905932
 30
0.0
 11
149.6715350417
 21
176.1798379902
 31
0.0
  0
LINE
  5
2B8
330
1F
100
AcDbEntity
  8
0
  6
Continuous
 62
     7
370
     0
100
AcDbLine
 10
154.67153493
 20
176.1798379902
 30
0.0
 11
149.6715350417
 21
176.1798379902
 31
0.0
  0
LINE
  5
2B9
330
1F
100
AcDbEntity
  8
0
  6
Continuous
 62
     7
370
     0
100
AcDbLine
 10
154.67153493
 20
176.1798379902
 30
0.0
 11
154.67153493
 21
176.4528905932
 31
0.0
  0
LINE
  5
2BA
330
1F
100
AcDbEntity
  8
0
  6
Continuous
 62
     7
370
     0
100
AcDbLine
 10
154.971534886
 20
176.5075033489
 30
0.0
 11
154.67153493
 21
176.4528905932
 31
0.0
  0
LINE
  5
2BB
330
1F
100
AcDbEntity
  8
0
  6
Continuous
 62
     7
370
     0
100
AcDbLine
 10
157.1715348741
 20
176.5075033489
 30
0.0
 11
154.971534886
 21
176.5075033489
 31
0.0
  0
LINE
  5
2BC
330
1F
100
AcDbEntity
  8
0
  6
Continuous
 62
     7
370
     0
100
AcDbLine
 10
147.1715350976
 20
176.0524107102
 30
0.0
 11
147.1715350976
 21
176.5075033489
 31
0.0
  0
LINE
  5
2BD
330
1F
100
AcDbEntity
  8
0
  6
Continuous
 62
     7
370
     0
100
AcDbLine
 10
157.1715348741
 20
176.0524107102
 30
0.0
 11
157.1715348741
 21
176.5075033489
 31
0.0
  0
ARC
  5
2BE
330
1F
100
AcDbEntity
  8
0
  6
Continuous
 62
     7
370
     0
100
AcDbCircle
 10
152.2061531652
 20
153.3800222259
 30
0.0
 40
3.967656193066229
100
AcDbArc
 50
269.5000825071
 51
355.5565801062
  0
ARC
  5
2BF
330
1F
100
AcDbEntity
  8
0
  6
Continuous
 62
     7
370
     0
100
AcDbCircle
 10
152.1429817854
 20
153.3866344219
 30
0.0
 40
3.974219935759736
100
AcDbArc
 50
184.5316863014
 51
270.4116510852
  0
LINE
  5
2C0
330
1F
100
AcDbEntity
  8
0
  6
Continuous
 62
     7
370
     0
100
AcDbLine
 10
157.1715348741
 20
140.3757227543
 30
0.0
 11
147.1715350976
 21
140.3757227543
 31
0.0
  0
LINE
  5
2C1
330
1F
100
AcDbEntity
  8
0
  6
Continuous
 62
     7
370
     0
100
AcDbLine
 10
147.1715350976
 20
140.3757227543
 30
0.0
 11
147.1715350976
 21
145.9267629269
 31
0.0
  0
LINE
  5
2C2
330
1F
100
AcDbEntity
  8
0
  6
Continuous
 62
     7
370
     0
100
AcDbLine
 10
157.1715348741
 20
145.9267629269
 30
0.0
 11
157.1715348741
 21
140.3757227543
 31
0.0
  0
LINE
  5
2C3
330
1F
100
AcDbEntity
  8
0
  6
Continuous
 62
     7
370
     0
100
AcDbLine
 10
147.1715350976
 20
139.3172932748
 30
0.0
 11
157.1715348741
 21
139.3172932748
 31
0.0
  0
LINE
  5
2C4
330
1F
100
AcDbEntity
  8
0
  6
Continuous
 62
     7
370
     0
100
AcDbLine
 10
147.1715350976
 20
139.3172932748
 30
0.0
 11
147.1715350976
 21
140.3757227543
 31
0.0
  0
LINE
  5
2C5
330
1F
100
AcDbEntity
  8
0
  6
Continuous
 62
     7
370
     0
100
AcDbLine
 10
157.1715348741
 20
139.3172932748
 30
0.0
 11
157.1715348741
 21
140.3757227543
 31
0.0
  0
LINE
  5
2C6
330
1F
100
AcDbEntity
  8
0
  6
Continuous
 62
     7
370
     0
100
AcDbLine
 10
147.1715350976
 20
130.2934182767
 30
0.0
 11
147.1715350976
 21
139.3172932748
 31
0.0
  0
LINE
  5
2C7
330
1F
100
AcDbEntity
  8
0
  6
Continuous
 62
     7
370
     0
100
AcDbLine
 10
157.1715348741
 20
139.3172932748
 30
0.0
 11
157.1715348741
 21
130.2934182767
 31
0.0
  0
LINE
  5
2C8
330
1F
100
AcDbEntity
  8
0
  6
Continuous
 62
     7
370
     0
100
AcDbLine
 10
157.1715348741
 20
103.5098923329
 30
0.0
 11
154.1715350808
 21
103.5098923329
 31
0.0
  0
LINE
  5
2C9
330
1F
100
AcDbEntity
  8
0
  6
Continuous
 62
     7
370
     0
100
AcDbLine
 10
154.1715350808
 20
105.8128965977
 30
0.0
 11
157.1715348741
 21
105.8128965977
 31
0.0
  0
LINE
  5
2CA
330
1F
100
AcDbEntity
  8
0
  6
Continuous
 62
     7
370
     0
100
AcDbLine
 10
154.1715350808
 20
103.5098923329
 30
0.0
 11
154.1715350808
 21
105.8128965977
 31
0.0
  0
LINE
  5
2CB
330
1F
100
AcDbEntity
  8
0
  6
Continuous
 62
     7
370
     0
100
AcDbLine
 10
157.1715348741
 20
105.8128965977
 30
0.0
 11
157.1715348741
 21
103.5098923329
 31
0.0
  0
LINE
  5
2CC
330
1F
100
AcDbEntity
  8
0
  6
Continuous
 62
     7
370
     0
100
AcDbLine
 10
157.1715348741
 20
112.5194100622
 30
0.0
 11
156.3715348361
 21
112.5194100622
 31
0.0
  0
LINE
  5
2CD
330
1F
100
AcDbEntity
  8
0
  6
Continuous
 62
     7
370
     0
100
AcDbLine
 10
154.1715350808
 20
108.0332664732
 30
0.0
 11
154.1715350808
 21
105.8128965977
 31
0.0
  0
LINE
  5
2CE
330
1F
100
AcDbEntity
  8
0
  6
Continuous
 62
     7
370
     0
100
AcDbLine
 10
157.1715348741
 20
112.5194100622
 30
0.0
 11
157.1715348741
 21
105.8128965977
 31
0.0
  0
LINE
  5
2CF
330
1F
100
AcDbEntity
  8
0
  6
Continuous
 62
     7
370
     0
100
AcDbLine
 10
150.1715348909
 20
103.5098923329
 30
0.0
 11
147.1715350976
 21
103.5098923329
 31
0.0
  0
LINE
  5
2D0
330
1F
100
AcDbEntity
  8
0
  6
Continuous
 62
     7
370
     0
100
AcDbLine
 10
147.1715350976
 20
105.8128965977
 30
0.0
 11
150.1715348909
 21
105.8128965977
 31
0.0
  0
LINE
  5
2D1
330
1F
100
AcDbEntity
  8
0
  6
Continuous
 62
     7
370
     0
100
AcDbLine
 10
150.1715348909
 20
105.8128965977
 30
0.0
 11
150.1715348909
 21
103.5098923329
 31
0.0
  0
LINE
  5
2D2
330
1F
100
AcDbEntity
  8
0
  6
Continuous
 62
     7
370
     0
100
AcDbLine
 10
147.1715350976
 20
103.5098923329
 30
0.0
 11
147.1715350976
 21
105.8128965977
 31
0.0
  0
LINE
  5
2D3
330
1F
100
AcDbEntity
  8
0
  6
Continuous
 62
     7
370
     0
100
AcDbLine
 10
147.9715351356
 20
112.5194100622
 30
0.0
 11
147.1715350976
 21
112.5194100622
 31
0.0
  0
LINE
  5
2D4
330
1F
100
AcDbEntity
  8
0
  6
Continuous
 62
     7
370
     0
100
AcDbLine
 10
150.1715348909
 20
105.8128965977
 30
0.0
 11
150.1715348909
 21
108.0332664732
 31
0.0
  0
LINE
  5
2D5
330
1F
100
AcDbEntity
  8
0
  6
Continuous
 62
     7
370
     0
100
AcDbLine
 10
147.1715350976
 20
112.5194100622
 30
0.0
 11
147.1715350976
 21
105.8128965977
 31
0.0
  0
LINE
  5
2D6
330
1F
100
AcDbEntity
  8
0
  6
Continuous
 62
     7
370
     0
100
AcDbLine
 10
157.1715348741
 20
102.2705404047
 30
0.0
 11
154.1715350808
 21
102.2705404047
 31
0.0
  0
LINE
  5
2D7
330
1F
100
AcDbEntity
  8
0
  6
Continuous
 62
     7
370
     0
100
AcDbLine
 10
154.1715350808
 20
102.2705404047
 30
0.0
 11
154.1715350808
 21
103.5098923329
 31
0.0
  0
LINE
  5
2D8
330
1F
100
AcDbEntity
  8
0
  6
Continuous
 62
     7
370
     0
100
AcDbLine
 10
157.1715348741
 20
103.5098923329
 30
0.0
 11
157.1715348741
 21
102.2705404047
 31
0.0
  0
LINE
  5
2D9
330
1F
100
AcDbEntity
  8
0
  6
Continuous
 62
     7
370
     0
100
AcDbLine
 10
150.1715348909
 20
102.2705404047
 30
0.0
 11
147.1715350976
 21
102.2705404047
 31
0.0
  0
LINE
  5
2DA
330
1F
100
AcDbEntity
  8
0
  6
Continuous
 62
     7
370
     0
100
AcDbLine
 10
150.1715348909
 20
102.2705404047
 30
0.0
 11
150.1715348909
 21
103.5098923329
 31
0.0
  0
LINE
  5
2DB
330
1F
100
AcDbEntity
  8
0
  6
Continuous
 62
     7
370
     0
100
AcDbLine
 10
147.1715350976
 20
103.5098923329
 30
0.0
 11
147.1715350976
 21
102.2705404047
 31
0.0
  0
LINE
  5
2DC
330
1F
100
AcDbEntity
  8
0
  6
Continuous
 62
     7
370
     0
100
AcDbLine
 10
155.6715350939
 20
125.7858095649
 30
0.0
 11
157.1715348741
 21
125.7858095649
 31
0.0
  0
LINE
  5
2DD
330
1F
100
AcDbEntity
  8
0
  6
Continuous
 62
     7
370
     0
100
AcDbLine
 10
157.1715348741
 20
125.0968171242
 30
0.0
 11
157.1715348741
 21
125.7858095649
 31
0.0
  0
LINE
  5
2DE
330
1F
100
AcDbEntity
  8
0
  6
Continuous
 62
     7
370
     0
100
AcDbLine
 10
147.1715350976
 20
125.7858095649
 30
0.0
 11
148.6715348778
 21
125.7858095649
 31
0.0
  0
LINE
  5
2DF
330
1F
100
AcDbEntity
  8
0
  6
Continuous
 62
     7
370
     0
100
AcDbLine
 10
147.1715350976
 20
130.2934182767
 30
0.0
 11
147.1715350976
 21
125.7858095649
 31
0.0
  0
LINE
  5
2E0
330
1F
100
AcDbEntity
  8
0
  6
Continuous
 62
     7
370
     0
100
AcDbLine
 10
157.1715348741
 20
130.2934182767
 30
0.0
 11
157.1715348741
 21
125.7858095649
 31
0.0
  0
LINE
  5
2E1
330
1F
100
AcDbEntity
  8
0
  6
Continuous
 62
     7
370
     0
100
AcDbLine
 10
147.1715350976
 20
125.7858095649
 30
0.0
 11
147.1715350976
 21
125.0968171242
 31
0.0
  0
LINE
  5
2E2
330
1F
100
AcDbEntity
  8
0
  6
Continuous
 62
     7
370
     0
100
AcDbLine
 10
157.1715348741
 20
112.5194100622
 30
0.0
 11
157.1715348741
 21
113.5004280094
 31
0.0
  0
LINE
  5
2E3
330
1F
100
AcDbEntity
  8
0
  6
Continuous
 62
     7
370
     0
100
AcDbLine
 10
147.1715350976
 20
113.5004280094
 30
0.0
 11
147.1715350976
 21
112.5194100622
 31
0.0
  0
LINE
  5
2E4
330
1F
100
AcDbEntity
  8
0
  6
Continuous
 62
     7
370
     0
100
AcDbLine
 10
157.1715348741
 20
113.5004280094
 30
0.0
 11
157.1715348741
 21
120.8825526718
 31
0.0
  0
LINE
  5
2E5
330
1F
100
AcDbEntity
  8
0
  6
Continuous
 62
     7
370
     0
100
AcDbLine
 10
147.1715350976
 20
120.8825526718
 30
0.0
 11
147.1715350976
 21
113.5004280094
 31
0.0
  0
LINE
  5
2E6
330
1F
100
AcDbEntity
  8
0
  6
Continuous
 62
     7
370
     0
100
AcDbLine
 10
149.4715349158
 20
110.7737539295
 30
0.0
 11
154.8715350559
 21
110.7737539295
 31
0.0
  0
LINE
  5
2E7
330
1F
100
AcDbEntity
  8
0
  6
Continuous
 62
     7
370
     0
100
AcDbLine
 10
154.8715350559
 20
110.1980028633
 30
0.0
 11
149.4715349158
 21
110.1980028633
 31
0.0
  0
LINE
  5
2E8
330
1F
100
AcDbEntity
  8
0
  6
Continuous
 62
     7
370
     0
100
AcDbLine
 10
149.4715349158
 20
110.1980028633
 30
0.0
 11
149.4715349158
 21
110.7737539295
 31
0.0
  0
LINE
  5
2E9
330
1F
100
AcDbEntity
  8
0
  6
Continuous
 62
     7
370
     0
100
AcDbLine
 10
154.8715350559
 20
110.7737539295
 30
0.0
 11
154.8715350559
 21
110.1980028633
 31
0.0
  0
LINE
  5
2EA
330
1F
100
AcDbEntity
  8
0
  6
Continuous
 62
     7
370
     0
100
AcDbLine
 10
155.1715350119
 20
108.5263980511
 30
0.0
 11
155.1715350119
 21
110.6911269907
 31
0.0
  0
LINE
  5
2EB
330
1F
100
AcDbEntity
  8
0
  6
Continuous
 62
     7
370
     0
100
AcDbLine
 10
155.1715350119
 20
110.6911269907
 30
0.0
 11
154.8715350559
 21
110.6911269907
 31
0.0
  0
LINE
  5
2EC
330
1F
100
AcDbEntity
  8
0
  6
Continuous
 62
     7
370
     0
100
AcDbLine
 10
154.8715350559
 20
110.7737539295
 30
0.0
 11
155.6715350939
 21
110.7737539295
 31
0.0
  0
LINE
  5
2ED
330
1F
100
AcDbEntity
  8
0
  6
Continuous
 62
     7
370
     0
100
AcDbLine
 10
155.6715350939
 20
110.7737539295
 30
0.0
 11
155.6715350939
 21
108.5263980511
 31
0.0
  0
LINE
  5
2EE
330
1F
100
AcDbEntity
  8
0
  6
Continuous
 62
     7
370
     0
100
AcDbLine
 10
155.1715350119
 20
108.5263980511
 30
0.0
 11
155.6715350939
 21
108.5263980511
 31
0.0
  0
LINE
  5
2EF
330
1F
100
AcDbEntity
  8
0
  6
Continuous
 62
     7
370
     0
100
AcDbLine
 10
148.6715348778
 20
128.0331654433
 30
0.0
 11
148.6715348778
 21
110.7737539295
 31
0.0
  0
LINE
  5
2F0
330
1F
100
AcDbEntity
  8
0
  6
Continuous
 62
     7
370
     0
100
AcDbLine
 10
148.6715348778
 20
128.0331654433
 30
0.0
 11
155.6715350939
 21
128.0331654433
 31
0.0
  0
LINE
  5
2F1
330
1F
100
AcDbEntity
  8
0
  6
Continuous
 62
     7
370
     0
100
AcDbLine
 10
155.6715350939
 20
128.0331654433
 30
0.0
 11
155.6715350939
 21
110.7737539295
 31
0.0
  0
LINE
  5
2F2
330
1F
100
AcDbEntity
  8
0
  6
Continuous
 62
     7
370
     0
100
AcDbLine
 10
148.6715348778
 20
110.7737539295
 30
0.0
 11
149.4715349158
 21
110.7737539295
 31
0.0
  0
LINE
  5
2F3
330
1F
100
AcDbEntity
  8
0
  6
Continuous
 62
     7
370
     0
100
AcDbLine
 10
148.6715348778
 20
108.5263980511
 30
0.0
 11
148.6715348778
 21
110.7737539295
 31
0.0
  0
LINE
  5
2F4
330
1F
100
AcDbEntity
  8
0
  6
Continuous
 62
     7
370
     0
100
AcDbLine
 10
149.4715349158
 20
110.6911269907
 30
0.0
 11
149.1715349598
 21
110.6911269907
 31
0.0
  0
LINE
  5
2F5
330
1F
100
AcDbEntity
  8
0
  6
Continuous
 62
     7
370
     0
100
AcDbLine
 10
149.1715349598
 20
110.6911269907
 30
0.0
 11
149.1715349598
 21
108.5263980511
 31
0.0
  0
LINE
  5
2F6
330
1F
100
AcDbEntity
  8
0
  6
Continuous
 62
     7
370
     0
100
AcDbLine
 10
148.6715348778
 20
108.5263980511
 30
0.0
 11
149.1715349598
 21
108.5263980511
 31
0.0
  0
LINE
  5
2F7
330
1F
100
AcDbEntity
  8
0
  6
Continuous
 62
     7
370
     0
100
AcDbLine
 10
149.4715349158
 20
108.0332664732
 30
0.0
 11
154.8715350559
 21
108.0332664732
 31
0.0
  0
LINE
  5
2F8
330
1F
100
AcDbEntity
  8
0
  6
Continuous
 62
     7
370
     0
100
AcDbLine
 10
149.4715349158
 20
108.0332664732
 30
0.0
 11
149.4715349158
 21
110.1980028633
 31
0.0
  0
LINE
  5
2F9
330
1F
100
AcDbEntity
  8
0
  6
Continuous
 62
     7
370
     0
100
AcDbLine
 10
154.8715350559
 20
108.0332664732
 30
0.0
 11
154.8715350559
 21
110.1980028633
 31
0.0
  0
CIRCLE
  5
2FA
330
1F
100
AcDbEntity
  8
0
  6
Continuous
 62
     7
370
     0
100
AcDbCircle
 10
152.1950176534
 20
152.8757279789
 30
0.0
 40
3.280846684083396
  0
ARC
  5
2FB
330
1F
100
AcDbEntity
  8
0
  6
Continuous
 62
     7
370
     0
100
AcDbCircle
 10
152.1645082956
 20
152.9146927976
 30
0.0
 40
3.49322959503586
100
AcDbArc
 50
180.6939002256
 51
295.0714315874
  0
ARC
  5
2FC
330
1F
100
AcDbEntity
  8
0
  6
Continuous
 62
     7
370
     0
100
AcDbCircle
 10
152.2345787666
 20
152.8849565312
 30
0.0
 40
3.436979308457426
100
AcDbArc
 50
294.2234152111
 51
359.7904751453
  0
LINE
  5
2FD
330
1F
100
AcDbEntity
  8
0
  6
Continuous
 62
     7
370
     0
100
AcDbLine
 10
153.6220197208
 20
151.8333224538
 30
0.0
 11
153.7798575932
 21
153.569821823
 31
0.0
  0
LINE
  5
2FE
330
1F
100
AcDbEntity
  8
0
  6
Continuous
 62
     7
370
     0
100
AcDbLine
 10
152.3293728582
 20
154.5724762562
 30
0.0
 11
153.7798575932
 21
153.569821823
 31
0.0
  0
LINE
  5
2FF
330
1F
100
AcDbEntity
  8
0
  6
Continuous
 62
     7
370
     0
100
AcDbLine
 10
150.7210502509
 20
153.8386387709
 30
0.0
 11
152.3293728582
 21
154.5724762562
 31
0.0
  0
LINE
  5
300
330
1F
100
AcDbEntity
  8
0
  6
Continuous
 62
     7
370
     0
100
AcDbLine
 10
150.7210502509
 20
153.8386387709
 30
0.0
 11
150.5632123785
 21
152.1021394018
 31
0.0
  0
LINE
  5
301
330
1F
100
AcDbEntity
  8
0
  6
Continuous
 62
     7
370
     0
100
AcDbLine
 10
150.5632123785
 20
152.1021394018
 30
0.0
 11
152.0136971135
 21
151.0994849685
 31
0.0
  0
LINE
  5
302
330
1F
100
AcDbEntity
  8
0
  6
Continuous
 62
     7
370
     0
100
AcDbLine
 10
153.6220197208
 20
151.8333224538
 30
0.0
 11
152.0136971135
 21
151.0994849685
 31
0.0
  0
ARC
  5
303
330
1F
100
AcDbEntity
  8
0
  6
Continuous
 62
     7
370
     0
100
AcDbCircle
 10
152.2361321131
 20
153.3331675172
 30
0.0
 40
3.435425789174828
100
AcDbArc
 50
0.2087829159
 51
62.9293352418
  0
ARC
  5
304
330
1F
100
AcDbEntity
  8
0
  6
Continuous
 62
     7
370
     0
100
AcDbCircle
 10
152.1091166391
 20
153.3318287438
 30
0.0
 40
3.437609691222561
100
AcDbArc
 50
117.0928460617
 51
179.7690357806
  0
LINE
  5
305
330
1F
100
AcDbEntity
  8
0
  6
Continuous
 62
     7
370
     0
100
AcDbLine
 10
153.7009387152
 20
152.8472049121
 30
0.0
 11
153.6220197208
 21
151.9789515022
 31
0.0
  0
LINE
  5
306
330
1F
100
AcDbEntity
  8
0
  6
Continuous
 62
     7
370
     0
100
AcDbLine
 10
153.7674032492
 20
153.5784272436
 30
0.0
 11
153.7009387152
 21
152.8472049121
 31
0.0
  0
LINE
  5
307
330
1F
100
AcDbEntity
  8
0
  6
Continuous
 62
     7
370
     0
100
AcDbLine
 10
153.6220197208
 20
151.9789515022
 30
0.0
 11
153.6220197208
 21
151.8333224538
 31
0.0
  0
LINE
  5
308
330
1F
100
AcDbEntity
  8
0
  6
Continuous
 62
     7
370
     0
100
AcDbLine
 10
151.288454746
 20
151.7464412335
 30
0.0
 11
150.5756667225
 21
152.2391630295
 31
0.0
  0
LINE
  5
309
330
1F
100
AcDbEntity
  8
0
  6
Continuous
 62
     7
370
     0
100
AcDbLine
 10
152.0136971135
 20
151.2451140169
 30
0.0
 11
151.288454746
 21
151.7464412335
 31
0.0
  0
LINE
  5
30A
330
1F
100
AcDbEntity
  8
0
  6
Continuous
 62
     7
370
     0
100
AcDbLine
 10
152.0136971135
 20
151.2451140169
 30
0.0
 11
152.0136971135
 21
151.0994849685
 31
0.0
  0
LINE
  5
30B
330
1F
100
AcDbEntity
  8
0
  6
Continuous
 62
     7
370
     0
100
AcDbLine
 10
152.0136971135
 20
151.2451140169
 30
0.0
 11
152.8178584171
 21
151.6120327595
 31
0.0
  0
LINE
  5
30C
330
1F
100
AcDbEntity
  8
0
  6
Continuous
 62
     7
370
     0
100
AcDbLine
 10
152.8178584171
 20
151.6120327595
 30
0.0
 11
153.6220197208
 21
151.9789515022
 31
0.0
  0
LWPOLYLINE
  5
30D
330
1F
100
AcDbEntity
  8
0
  6
Continuous
 62
     7
370
     0
100
AcDbPolyline
 90
        3
 70
   128
 43
0.0
 10
152.4958620771
 20
154.4573871378
 10
152.3082265971
 20
154.4854609254
 10
152.1515183626
 20
154.4913245324
  0
ARC
  5
30E
330
1F
100
AcDbEntity
  8
0
  6
Continuous
 62
     7
370
     0
100
AcDbCircle
 10
152.1717533636
 20
153.0287229962
 30
0.0
 40
1.557068709719336
100
AcDbArc
 50
235.4390220383
 51
294.5161432129
  0
ARC
  5
30F
330
1F
100
AcDbEntity
  8
0
  6
Continuous
 62
     7
370
     0
100
AcDbCircle
 10
152.1409306451
 20
152.9868579998
 30
0.0
 40
1.505107608397437
100
AcDbArc
 50
182.6139252722
 51
235.5012211761
  0
ARC
  5
310
330
1F
100
AcDbEntity
  8
0
  6
Continuous
 62
     7
370
     0
100
AcDbCircle
 10
152.1364100378
 20
152.9770369488
 30
0.0
 40
1.501012570402858
100
AcDbArc
 50
138.5124730047
 51
167.1245905582
  0
ARC
  5
311
330
1F
100
AcDbEntity
  8
0
  6
Continuous
 62
     7
370
     0
100
AcDbCircle
 10
152.2164981176
 20
152.9811328506
 30
0.0
 40
1.49046991938725
100
AcDbArc
 50
354.844666511
 51
32.4670858783
  0
ARC
  5
312
330
1F
100
AcDbEntity
  8
0
  6
Continuous
 62
     7
370
     0
100
AcDbCircle
 10
152.1964371604
 20
152.9895779015
 30
0.0
 40
1.511223013488331
100
AcDbArc
 50
294.2805035036
 51
354.5941222905
  0
CIRCLE
  5
313
330
1F
100
AcDbEntity
  8
0
  6
Continuous
 62
     7
370
     0
100
AcDbCircle
 10
152.1352491111
 20
167.5753519873
 30
0.0
 40
3.264180624705167
  0
CIRCLE
  5
314
330
1F
100
AcDbEntity
  8
0
  6
Continuous
 62
     7
370
     0
100
AcDbCircle
 10
152.1314443671
 20
167.6232113264
 30
0.0
 40
3.45969868544962
  0
LINE
  5
315
330
1F
100
AcDbEntity
  8
0
  6
Continuous
 62
     7
370
     0
100
AcDbLine
 10
150.5874068584
 20
166.8022839311
 30
0.0
 11
152.0691547389
 21
165.8448470715
 31
0.0
  0
LINE
  5
316
330
1F
100
AcDbEntity
  8
0
  6
Continuous
 62
     7
370
     0
100
AcDbLine
 10
153.6532828227
 20
166.6279179934
 30
0.0
 11
152.0691547389
 21
165.8448470715
 31
0.0
  0
LINE
  5
317
330
1F
100
AcDbEntity
  8
0
  6
Continuous
 62
     7
370
     0
100
AcDbLine
 10
153.7556631133
 20
168.3684295002
 30
0.0
 11
153.6532828227
 21
166.6279179934
 31
0.0
  0
LINE
  5
318
330
1F
100
AcDbEntity
  8
0
  6
Continuous
 62
     7
370
     0
100
AcDbLine
 10
153.7556631133
 20
168.3684295002
 30
0.0
 11
152.2739152328
 21
169.3258663598
 31
0.0
  0
LINE
  5
319
330
1F
100
AcDbEntity
  8
0
  6
Continuous
 62
     7
370
     0
100
AcDbLine
 10
152.2739152328
 20
169.3258663598
 30
0.0
 11
150.689787149
 21
168.5427954379
 31
0.0
  0
LINE
  5
31A
330
1F
100
AcDbEntity
  8
0
  6
Continuous
 62
     7
370
     0
100
AcDbLine
 10
150.5874068584
 20
166.8022839311
 30
0.0
 11
150.689787149
 21
168.5427954379
 31
0.0
  0
LINE
  5
31B
330
1F
100
AcDbEntity
  8
0
  6
Continuous
 62
     7
370
     0
100
AcDbLine
 10
148.677374736
 20
168.2937821332
 30
0.0
 11
148.6715348778
 21
168.0950602475
 31
0.0
  0
ARC
  5
31C
330
1F
100
AcDbEntity
  8
0
  6
Continuous
 62
     7
370
     0
100
AcDbCircle
 10
152.2390943607
 20
168.0843656787
 30
0.0
 40
3.432457393833306
100
AcDbArc
 50
0.1785177728
 51
62.9595378838
  0
ARC
  5
31D
330
1F
100
AcDbEntity
  8
0
  6
Continuous
 62
     7
370
     0
100
AcDbCircle
 10
152.1072545933
 20
168.0815700151
 30
0.0
 40
3.436438536981373
100
AcDbArc
 50
117.0679655697
 51
176.4595322026
  0
LINE
  5
31E
330
1F
100
AcDbEntity
  8
0
  6
Continuous
 62
     7
370
     0
100
AcDbLine
 10
153.6532828227
 20
166.7735470418
 30
0.0
 11
153.6532828227
 21
166.6279179934
 31
0.0
  0
LINE
  5
31F
330
1F
100
AcDbEntity
  8
0
  6
Continuous
 62
     7
370
     0
100
AcDbLine
 10
153.6532828227
 20
166.7735470418
 30
0.0
 11
153.704472968
 21
167.6438046578
 31
0.0
  0
LINE
  5
320
330
1F
100
AcDbEntity
  8
0
  6
Continuous
 62
     7
370
     0
100
AcDbLine
 10
153.704472968
 20
167.6438046578
 30
0.0
 11
153.7474105475
 21
168.3737603906
 31
0.0
  0
LINE
  5
321
330
1F
100
AcDbEntity
  8
0
  6
Continuous
 62
     7
370
     0
100
AcDbLine
 10
151.3282807768
 20
166.4691945497
 30
0.0
 11
150.5956594242
 21
166.9425820891
 31
0.0
  0
LINE
  5
322
330
1F
100
AcDbEntity
  8
0
  6
Continuous
 62
     7
370
     0
100
AcDbLine
 10
152.0691547389
 20
165.9904761199
 30
0.0
 11
151.3282807768
 21
166.4691945497
 31
0.0
  0
LINE
  5
323
330
1F
100
AcDbEntity
  8
0
  6
Continuous
 62
     7
370
     0
100
AcDbLine
 10
152.0691547389
 20
165.9904761199
 30
0.0
 11
152.0691547389
 21
165.8448470715
 31
0.0
  0
LINE
  5
324
330
1F
100
AcDbEntity
  8
0
  6
Continuous
 62
     7
370
     0
100
AcDbLine
 10
152.0691547389
 20
165.9904761199
 30
0.0
 11
152.8612188171
 21
166.3820115808
 31
0.0
  0
LINE
  5
325
330
1F
100
AcDbEntity
  8
0
  6
Continuous
 62
     7
370
     0
100
AcDbLine
 10
152.8612188171
 20
166.3820115808
 30
0.0
 11
153.6532828227
 21
166.7735470418
 31
0.0
  0
LWPOLYLINE
  5
326
330
1F
100
AcDbEntity
  8
0
  6
Continuous
 62
     7
370
     0
100
AcDbPolyline
 90
        3
 70
   128
 43
0.0
 10
152.4420711844
 20
169.2172108177
 10
152.2601988813
 20
169.2383108619
 10
152.0984274516
 20
169.2391192499
  0
ARC
  5
327
330
1F
100
AcDbEntity
  8
0
  6
Continuous
 62
     7
370
     0
100
AcDbCircle
 10
152.1330231814
 20
167.7281020545
 30
0.0
 40
1.497299995334989
100
AcDbArc
 50
140.1121213816
 51
170.4487921674
  0
ARC
  5
328
330
1F
100
AcDbEntity
  8
0
  6
Continuous
 62
     7
370
     0
100
AcDbCircle
 10
152.2154377899
 20
167.7302431662
 30
0.0
 40
1.491541946170384
100
AcDbArc
 50
356.6777078502
 51
34.0287710325
  0
ARC
  5
329
330
1F
100
AcDbEntity
  8
0
  6
Continuous
 62
     7
370
     0
100
AcDbCircle
 10
152.1981897996
 20
167.7377819273
 30
0.0
 40
1.509211950191089
100
AcDbArc
 50
296.0605880321
 51
356.4299337291
  0
ARC
  5
32A
330
1F
100
AcDbEntity
  8
0
  6
Continuous
 62
     7
370
     0
100
AcDbCircle
 10
152.1716896549
 20
167.7784364985
 30
0.0
 40
1.557386598221876
100
AcDbArc
 50
237.2105136453
 51
296.2793199996
  0
ARC
  5
32B
330
1F
100
AcDbEntity
  8
0
  6
Continuous
 62
     7
370
     0
100
AcDbCircle
 10
152.1398992692
 20
167.7354822509
 30
0.0
 40
1.50406420057222
100
AcDbArc
 50
182.9215859106
 51
237.3424352151
  0
ARC
  5
32C
330
1F
100
AcDbEntity
  8
0
  6
Continuous
 62
     7
370
     0
100
AcDbCircle
 10
152.1715349858
 20
127.3600977905
 30
0.0
 40
1.709058199846512
100
AcDbArc
 50
65.8214022452
 51
114.1785977548
  0
LWPOLYLINE
  5
32D
330
1F
100
AcDbEntity
  8
0
  6
Continuous
 62
     7
370
     0
100
AcDbPolyline
 90
       10
 70
   128
 43
0.0
 10
151.8215349983
 20
133.8504893664
 10
151.8481771395
 20
133.8726175908
 10
151.9240476241
 20
133.8913856033
 10
152.037595782
 20
133.9039174799
 10
152.1715349858
 20
133.908320773
 10
152.3054741897
 20
133.9039174799
 10
152.4190223476
 20
133.8913856033
 10
152.4948928322
 20
133.8726175908
 10
152.5215349734
 20
133.8504893664
 10
152.5215349734
 20
133.8504893664
  0
LINE
  5
32E
330
1F
100
AcDbEntity
  8
0
  6
Continuous
 62
     7
370
     0
100
AcDbLine
 10
156.3715348361
 20
110.799220014
 30
0.0
 11
156.3715348361
 21
110.7827244285
 31
0.0
  0
LINE
  5
32F
330
1F
100
AcDbEntity
  8
0
  6
Continuous
 62
     7
370
     0
100
AcDbLine
 10
156.3715348361
 20
113.1827203516
 30
0.0
 11
156.3715348361
 21
110.799220014
 31
0.0
  0
LINE
  5
330
330
1F
100
AcDbEntity
  8
0
  6
Continuous
 62
     7
370
     0
100
AcDbLine
 10
156.07153488
 20
110.4827193502
 30
0.0
 11
156.07153488
 21
113.4827254299
 31
0.0
  0
LINE
  5
331
330
1F
100
AcDbEntity
  8
0
  6
Continuous
 62
     7
370
     0
100
AcDbLine
 10
148.2715350916
 20
113.4827254299
 30
0.0
 11
148.2715350916
 21
110.4827193502
 31
0.0
  0
LINE
  5
332
330
1F
100
AcDbEntity
  8
0
  6
Continuous
 62
     7
370
     0
100
AcDbLine
 10
147.9715351356
 20
110.7827244285
 30
0.0
 11
147.9715351356
 21
113.1827203516
 31
0.0
  0
ARC
  5
333
330
1F
100
AcDbEntity
  8
0
  6
Continuous
 62
     7
370
     0
100
AcDbCircle
 10
153.7756120093
 20
123.0018122128
 30
0.0
 40
3.978773857629097
100
AcDbArc
 50
342.466507224
 51
352.1599187397
  0
ARC
  5
334
330
1F
100
AcDbEntity
  8
0
  6
Continuous
 62
     7
370
     0
100
AcDbCircle
 10
157.5534754576
 20
121.7753099321
 30
0.0
 40
0.0321438445833956
100
AcDbArc
 50
12.1787479384
 51
60.023333163
  0
ARC
  5
335
330
1F
100
AcDbEntity
  8
0
  6
Continuous
 62
     7
370
     0
100
AcDbCircle
 10
153.7754510069
 20
122.9776191691
 30
0.0
 40
3.978938299231968
100
AcDbArc
 50
342.4667080078
 51
352.1597179559
  0
LINE
  5
336
330
1F
100
AcDbEntity
  8
0
  6
Continuous
 62
     7
370
     0
100
AcDbLine
 10
157.7171949079
 20
122.4348438862
 30
0.0
 11
157.7171949079
 21
122.4590731743
 31
0.0
  0
ARC
  5
337
330
1F
100
AcDbEntity
  8
0
  6
Continuous
 62
     7
370
     0
100
AcDbCircle
 10
153.1837333001
 20
122.9500763856
 30
0.0
 40
4.401340771902055
100
AcDbArc
 50
356.2019609092
 51
0.5155742068
  0
ARC
  5
338
330
1F
100
AcDbEntity
  8
0
  6
Continuous
 62
     7
370
     0
100
AcDbCircle
 10
157.458236695
 20
124.6031410927
 30
0.0
 40
1.287741174469943
100
AcDbArc
 50
274.9582550132
 51
281.6009944736
  0
LINE
  5
339
330
1F
100
AcDbEntity
  8
0
  6
Continuous
 62
     7
370
     0
100
AcDbLine
 10
157.7171949079
 20
123.3417062048
 30
0.0
 11
157.7171949079
 21
123.3820659999
 31
0.0
  0
LWPOLYLINE
  5
33A
330
1F
100
AcDbEntity
  8
0
  6
Continuous
 62
     7
370
     0
100
AcDbPolyline
 90
        9
 70
   128
 43
0.0
 10
157.569536042
 20
124.2004377726
 10
157.5763305059
 20
124.2008028511
 10
157.5811864218
 20
124.200199354
 10
157.5841009958
 20
124.198619831
 10
157.5850728309
 20
124.1960717324
 10
157.5841009958
 20
124.1925550584
 10
157.5811864218
 20
124.1880698088
 10
157.5763305059
 20
124.1826234344
 10
157.5754075652
 20
124.1816921118
  0
ARC
  5
33B
330
1F
100
AcDbEntity
  8
0
  6
Continuous
 62
     7
370
     0
100
AcDbCircle
 10
153.7754438463
 20
123.0017353988
 30
0.0
 40
3.978947470201197
100
AcDbArc
 50
7.8404852088
 51
17.5333677198
  0
LINE
  5
33C
330
1F
100
AcDbEntity
  8
0
  6
Continuous
 62
     7
370
     0
100
AcDbLine
 10
157.7171949079
 20
123.5445259098
 30
0.0
 11
157.7171949079
 21
123.3772603754
 31
0.0
  0
ARC
  5
33D
330
1F
100
AcDbEntity
  8
0
  6
Continuous
 62
     7
370
     0
100
AcDbCircle
 10
157.458236695
 20
122.1158254875
 30
0.0
 40
1.287741174466874
100
AcDbArc
 50
78.3990055264
 51
85.0417449868
  0
ARC
  5
33E
330
1F
100
AcDbEntity
  8
0
  6
Continuous
 62
     7
370
     0
100
AcDbCircle
 10
153.1766222203
 20
123.0289457325
 30
0.0
 40
4.408451593362474
100
AcDbArc
 50
355.1880999351
 51
4.8119000649
  0
ARC
  5
33F
330
1F
100
AcDbEntity
  8
0
  6
Continuous
 62
     7
370
     0
100
AcDbCircle
 10
157.4578726158
 20
121.3732809408
 30
0.0
 40
1.290701955532151
100
AcDbArc
 50
78.4094879875
 51
85.0369247306
  0
LINE
  5
340
330
1F
100
AcDbEntity
  8
0
  6
Continuous
 62
     7
370
     0
100
AcDbLine
 10
157.7171949079
 20
122.6376635913
 30
0.0
 11
157.7171949079
 21
122.4590731743
 31
0.0
  0
SPLINE
  5
341
330
1F
100
AcDbEntity
  8
0
  6
Continuous
 62
     7
370
     0
100
AcDbSpline
210
0.0
220
0.0
230
1.0
 70
     8
 71
     3
 72
     8
 73
     4
 74
     0
 42
0.000000001
 43
0.00000001
 40
0.0
 40
0.0
 40
0.0
 40
0.0
 40
1.0
 40
1.0
 40
1.0
 40
1.0
 10
157.7171949078401
 20
123.3772633788454
 30
0.0
 10
157.6655753110423
 20
123.3771203745925
 30
0.0
 10
157.6139570913824
 20
123.3769768274381
 30
0.0
 10
157.5623403537938
 20
123.3768326960152
 30
0.0
  0
SPLINE
  5
342
330
1F
100
AcDbEntity
  8
0
  6
Continuous
 62
     7
370
     0
100
AcDbSpline
210
0.0
220
0.0
230
1.0
 70
     8
 71
     3
 72
     8
 73
     4
 74
     0
 42
0.000000001
 43
0.00000001
 40
0.0
 40
0.0
 40
0.0
 40
0.0
 40
1.0
 40
1.0
 40
1.0
 40
1.0
 10
157.7171949078401
 20
123.3417065667065
 30
0.0
 10
157.6679739012318
 20
123.3418429260295
 30
0.0
 10
157.6187541468302
 20
123.341979779003
 30
0.0
 10
157.5695357353837
 20
123.3421171614023
 30
0.0
  0
ARC
  5
343
330
1F
100
AcDbEntity
  8
0
  6
Continuous
 62
     7
370
     0
100
AcDbCircle
 10
150.1539052121
 20
122.8603314904
 30
0.0
 40
3.565603327157535
100
AcDbArc
 50
161.4507024703
 51
171.6748475144
  0
ARC
  5
344
330
1F
100
AcDbEntity
  8
0
  6
Continuous
 62
     7
370
     0
100
AcDbCircle
 10
147.2639768622
 20
124.1190848831
 30
0.0
 40
0.5059891765143342
100
AcDbArc
 50
165.7603921535
 51
194.2396078465
  0
ARC
  5
345
330
1F
100
AcDbEntity
  8
0
  6
Continuous
 62
     7
370
     0
100
AcDbCircle
 10
150.1540390092
 20
123.1092296454
 30
0.0
 40
3.565738362825145
100
AcDbArc
 50
161.4509942433
 51
171.6748679718
  0
LINE
  5
346
330
1F
100
AcDbEntity
  8
0
  6
Continuous
 62
     7
370
     0
100
AcDbLine
 10
146.6258750638
 20
123.6255137209
 30
0.0
 11
146.6258750638
 21
123.5207809094
 31
0.0
  0
ARC
  5
347
330
1F
100
AcDbEntity
  8
0
  6
Continuous
 62
     7
370
     0
100
AcDbCircle
 10
147.2507897662
 20
122.5604006084
 30
0.0
 40
0.6781986046236749
100
AcDbArc
 50
140.730284505
 51
157.1365117939
  0
LINE
  5
348
330
1F
100
AcDbEntity
  8
0
  6
Continuous
 62
     7
370
     0
100
AcDbLine
 10
146.6258750638
 20
122.8239057544
 30
0.0
 11
146.6258750638
 21
122.6027650717
 31
0.0
  0
LWPOLYLINE
  5
349
330
1F
100
AcDbEntity
  8
0
  6
Continuous
 62
     7
370
     0
100
AcDbPolyline
 90
        3
 70
   128
 43
0.0
 10
146.6258750638
 20
122.6027650717
 10
146.6382332487
 20
122.524347711
 10
146.6501742011
 20
122.4576128606
  0
ARC
  5
34A
330
1F
100
AcDbEntity
  8
0
  6
Continuous
 62
     7
370
     0
100
AcDbCircle
 10
150.1478029271
 20
122.8689018223
 30
0.0
 40
3.559389789102843
100
AcDbArc
 50
188.3200617159
 51
195.967707112
  0
LINE
  5
34B
330
1F
100
AcDbEntity
  8
0
  6
Continuous
 62
     7
370
     0
100
AcDbLine
 10
146.6258750638
 20
122.3538486246
 30
0.0
 11
146.6258750638
 21
122.4585888866
 31
0.0
  0
ARC
  5
34C
330
1F
100
AcDbEntity
  8
0
  6
Continuous
 62
     7
370
     0
100
AcDbCircle
 10
147.2985989941
 20
122.7487874472
 30
0.0
 40
0.732647726401758
100
AcDbArc
 50
203.3343230454
 51
224.2199479345
  0
ARC
  5
34D
330
1F
100
AcDbEntity
  8
0
  6
Continuous
 62
     7
370
     0
100
AcDbCircle
 10
150.6726996571
 20
122.5862694863
 30
0.0
 40
3.914703655667381
100
AcDbArc
 50
174.8934393819
 51
185.1065606181
  0
ARC
  5
34E
330
1F
100
AcDbEntity
  8
0
  6
Continuous
 62
     7
370
     0
100
AcDbCircle
 10
147.2986182674
 20
123.4456927389
 30
0.0
 40
0.7326773606625532
100
AcDbArc
 50
203.3358900119
 51
224.2201682234
  0
LINE
  5
34F
330
1F
100
AcDbEntity
  8
0
  6
Continuous
 62
     7
370
     0
100
AcDbLine
 10
146.6258750638
 20
123.1554640416
 30
0.0
 11
146.6258750638
 21
123.3765972737
 31
0.0
  0
SPLINE
  5
350
330
1F
100
AcDbEntity
  8
0
  6
Continuous
 62
     7
370
     0
100
AcDbSpline
210
0.0
220
0.0
230
1.0
 70
     8
 71
     3
 72
     8
 73
     4
 74
     0
 42
0.000000001
 43
0.00000001
 40
0.0
 40
0.0
 40
0.0
 40
0.0
 40
1.0
 40
1.0
 40
1.0
 40
1.0
 10
146.6258750638527
 20
122.4585856231515
 30
0.0
 10
146.6750960243493
 20
122.4599866023172
 30
0.0
 10
146.7243157326415
 20
122.461392653328
 30
0.0
 10
146.7735340979811
 20
122.4628041437445
 30
0.0
  0
SPLINE
  5
351
330
1F
100
AcDbEntity
  8
0
  6
Continuous
 62
     7
370
     0
100
AcDbSpline
210
0.0
220
0.0
230
1.0
 70
     8
 71
     3
 72
     8
 73
     4
 74
     0
 42
0.000000001
 43
0.00000001
 40
0.0
 40
0.0
 40
0.0
 40
0.0
 40
1.0
 40
1.0
 40
1.0
 40
1.0
 10
146.6258750638527
 20
122.6027686016082
 30
0.0
 10
146.6750960419037
 20
122.6066908095915
 30
0.0
 10
146.7243157677495
 20
122.610627216814
 30
0.0
 10
146.7735341506417
 20
122.6145788523065
 30
0.0
  0
SPLINE
  5
352
330
1F
100
AcDbEntity
  8
0
  6
Continuous
 62
     7
370
     0
100
AcDbSpline
210
0.0
220
0.0
230
1.0
 70
     8
 71
     3
 72
     8
 73
     4
 74
     0
 42
0.000000001
 43
0.00000001
 40
0.0
 40
0.0
 40
0.0
 40
0.0
 40
1.0
 40
1.0
 40
1.0
 40
1.0
 10
146.6258750638527
 20
122.8239027760648
 30
0.0
 10
146.6750960902127
 20
122.8225017950244
 30
0.0
 10
146.7243158643649
 20
122.8210957421255
 30
0.0
 10
146.7735342955609
 20
122.8196842498056
 30
0.0
  0
LINE
  5
353
330
1F
100
AcDbEntity
  8
0
  6
Continuous
 62
     7
370
     0
100
AcDbLine
 10
154.0715350179
 20
103.4577755216
 30
0.0
 11
150.2715349538
 21
103.4577755216
 31
0.0
  0
LINE
  5
354
330
1F
100
AcDbEntity
  8
0
  6
Continuous
 62
     7
370
     0
100
AcDbLine
 10
150.2715349538
 20
103.4577755216
 30
0.0
 11
150.2715349538
 21
104.7789050225
 31
0.0
  0
LINE
  5
355
330
1F
100
AcDbEntity
  8
0
  6
Continuous
 62
     7
370
     0
100
AcDbLine
 10
150.2715349538
 20
104.7789050225
 30
0.0
 11
154.0715350179
 21
104.7789050225
 31
0.0
  0
LINE
  5
356
330
1F
100
AcDbEntity
  8
0
  6
Continuous
 62
     7
370
     0
100
AcDbLine
 10
154.0715350179
 20
104.7789050225
 30
0.0
 11
154.0715350179
 21
103.4577755216
 31
0.0
  0
LINE
  5
357
330
1F
100
AcDbEntity
  8
0
  6
Continuous
 62
     7
370
     0
100
AcDbLine
 10
150.2715349538
 20
108.0332664732
 30
0.0
 11
150.2715349538
 21
104.7789050225
 31
0.0
  0
LINE
  5
358
330
1F
100
AcDbEntity
  8
0
  6
Continuous
 62
     7
370
     0
100
AcDbLine
 10
154.0715350179
 20
108.0332664732
 30
0.0
 11
154.0715350179
 21
104.7789050225
 31
0.0
  0
LINE
  5
359
330
1F
100
AcDbEntity
  8
0
  6
Continuous
 62
     7
370
     0
100
AcDbLine
 10
150.2715349538
 20
102.9297901276
 30
0.0
 11
154.0715350179
 21
102.9297901276
 31
0.0
  0
LINE
  5
35A
330
1F
100
AcDbEntity
  8
0
  6
Continuous
 62
     7
370
     0
100
AcDbLine
 10
150.2715349538
 20
103.4577755216
 30
0.0
 11
150.2715349538
 21
102.9297901276
 31
0.0
  0
LINE
  5
35B
330
1F
100
AcDbEntity
  8
0
  6
Continuous
 62
     7
370
     0
100
AcDbLine
 10
154.0715350179
 20
103.4577755216
 30
0.0
 11
154.0715350179
 21
102.9297901276
 31
0.0
  0
LINE
  5
35C
330
1F
100
AcDbEntity
  8
0
  6
Continuous
 62
     7
370
     0
100
AcDbLine
 10
150.2715349538
 20
102.9212294105
 30
0.0
 11
150.2715349538
 21
102.9297901276
 31
0.0
  0
LINE
  5
35D
330
1F
100
AcDbEntity
  8
0
  6
Continuous
 62
     7
370
     0
100
AcDbLine
 10
154.0715350179
 20
102.9297901276
 30
0.0
 11
154.0715350179
 21
102.9212294105
 31
0.0
  0
LINE
  5
35E
330
1F
100
AcDbEntity
  8
0
  6
Continuous
 62
     1
370
     0
100
AcDbLine
 10
157.1715348741
 20
130.2934182767
 30
0.0
 11
152.5215349734
 21
130.2934182767
 31
0.0
  0
LINE
  5
35F
330
1F
100
AcDbEntity
  8
0
  6
Continuous
 62
     1
370
     0
100
AcDbLine
 10
151.8215349983
 20
130.2934182767
 30
0.0
 11
147.1715350976
 21
130.2934182767
 31
0.0
  0
LINE
  5
360
330
1F
100
AcDbEntity
  8
0
  6
Continuous
 62
     1
370
     0
100
AcDbLine
 10
155.6715350939
 20
113.5004280094
 30
0.0
 11
157.1715348741
 21
113.5004280094
 31
0.0
  0
LINE
  5
361
330
1F
100
AcDbEntity
  8
0
  6
Continuous
 62
     1
370
     0
100
AcDbLine
 10
148.6715348778
 20
113.5004280094
 30
0.0
 11
147.1715350976
 21
113.5004280094
 31
0.0
  0
ARC
  5
362
330
1F
100
AcDbEntity
  8
0
  6
Continuous
 62
     1
370
     0
100
AcDbCircle
 10
152.1715349858
 20
152.8266820616
 30
0.0
 40
3.500298526920608
100
AcDbArc
 50
0.7481717856
 51
179.2518282144
  0
LINE
  5
363
330
1F
100
AcDbEntity
  8
0
  6
Continuous
 62
     1
370
     0
100
AcDbLine
 10
156.9683389148
 20
125.3939388279
 30
0.0
 11
156.9683389148
 21
120.5854309682
 31
0.0
  0
LINE
  5
364
330
1F
100
AcDbEntity
  8
0
  6
Continuous
 62
     1
370
     0
100
AcDbLine
 10
156.7765307022
 20
125.4896862391
 30
0.0
 11
156.7765307022
 21
120.4896835569
 31
0.0
  0
LINE
  5
365
330
1F
100
AcDbEntity
  8
0
  6
Continuous
 62
     1
370
     0
100
AcDbLine
 10
147.5665392695
 20
120.4896835569
 30
0.0
 11
147.5665392695
 21
125.4896862391
 31
0.0
  0
LINE
  5
366
330
1F
100
AcDbEntity
  8
0
  6
Continuous
 62
     1
370
     0
100
AcDbLine
 10
147.3747310569
 20
120.5854309682
 30
0.0
 11
147.3747310569
 21
125.3939388279
 31
0.0
  0
INSERT
  5
36C
330
1F
100
AcDbEntity
  8
0
  6
Continuous
 62
     7
370
     0
100
AcDbBlockReference
  2
SW_NOTE_1
 10
163.2844611529
 20
186.8533836524
 30
0.0
  0
LEADER
  5
36D
330
1F
100
AcDbEntity
  8
0
  6
Continuous
 62
     7
370
     0
100
AcDbLeader
  3
SLDDIMSTYLE1
 76
     2
 10
154.9936201911
 20
169.657399833
 30
0.0
 10
163.2844611529
 20
186.8533836524
 30
0.0
  0
ENDSEC
  0
SECTION
  2
OBJECTS
  0
DICTIONARY
  5
C
330
0
100
AcDbDictionary
281
     1
  3
ACAD_GROUP
350
D
  3
ACAD_LAYOUT
350
1A
  3
ACAD_MLINESTYLE
350
17
  3
ACAD_PLOTSETTINGS
350
19
  3
ACAD_PLOTSTYLENAME
350
E
  3
ACAD_SCALELIST
350
47
  0
DICTIONARY
  5
D
102
{ACAD_REACTORS
330
C
102
}
330
C
100
AcDbDictionary
281
     1
  0
DICTIONARY
  5
1A
102
{ACAD_REACTORS
330
C
102
}
330
C
100
AcDbDictionary
281
     1
  3
Layout1
350
1E
  3
Layout2
350
26
  3
Model
350
22
  0
DICTIONARY
  5
17
102
{ACAD_REACTORS
330
C
102
}
330
C
100
AcDbDictionary
281
     1
  3
Standard
350
18
  0
DICTIONARY
  5
19
102
{ACAD_REACTORS
330
C
102
}
330
C
100
AcDbDictionary
281
     1
  0
ACDBDICTIONARYWDFLT
  5
E
102
{ACAD_REACTORS
330
C
102
}
330
C
100
AcDbDictionary
281
     1
  3
Normal
350
F
100
AcDbDictionaryWithDefault
340
F
  0
DICTIONARY
  5
47
102
{ACAD_REACTORS
330
C
102
}
330
C
100
AcDbDictionary
281
     1
  3
A0
350
48
  3
A1
350
49
  3
A2
350
4A
  3
A3
350
4B
  3
A4
350
4C
  3
A5
350
4D
  3
A6
350
4E
  3
A7
350
4F
  3
A8
350
50
  3
A9
350
51
  3
B0
350
52
  3
B1
350
53
  3
B2
350
54
  3
B3
350
55
  3
B4
350
56
  3
B5
350
57
  3
B6
350
58
  3
B7
350
59
  3
B8
350
5A
  3
B9
350
5B
  3
C0
350
5C
  3
C1
350
5D
  3
C2
350
5E
  3
C3
350
5F
  3
C4
350
60
  3
C5
350
61
  3
C6
350
62
  3
C7
350
63
  3
C8
350
64
  3
C9
350
65
  3
D0
350
66
  3
D1
350
67
  3
D2
350
68
  0
LAYOUT
  5
1E
102
{ACAD_REACTORS
330
1A
102
}
330
1A
100
AcDbPlotSettings
  1

  2
none_device
  4

  6

 40
0.0
 41
0.0
 42
0.0
 43
0.0
 44
0.0
 45
0.0
 46
0.0
 47
0.0
 48
0.0
 49
0.0
140
0.0
141
0.0
142
1.0
143
1.0
 70
   688
 72
     1
 73
     0
 74
     5
  7

 75
    16
147
1.0
148
0.0
149
0.0
100
AcDbLayout
  1
Layout1
 70
     1
 71
     1
 10
0.0
 20
0.0
 11
420.0
 21
297.0
 12
0.0
 22
0.0
 32
0.0
 14
1.0000000000E+20
 24
1.0000000000E+20
 34
1.0000000000E+20
 15
-1.0000000000E+20
 25
-1.0000000000E+20
 35
-1.0000000000E+20
146
0.0
 13
0.0
 23
0.0
 33
0.0
 16
1.0
 26
0.0
 36
0.0
 17
0.0
 27
1.0
 37
0.0
 76
     0
330
1B
  0
LAYOUT
  5
26
102
{ACAD_REACTORS
330
1A
102
}
330
1A
100
AcDbPlotSettings
  1

  2
none_device
  4

  6

 40
0.0
 41
0.0
 42
0.0
 43
0.0
 44
0.0
 45
0.0
 46
0.0
 47
0.0
 48
0.0
 49
0.0
140
0.0
141
0.0
142
1.0
143
1.0
 70
   688
 72
     1
 73
     0
 74
     5
  7

 75
    16
147
1.0
148
0.0
149
0.0
100
AcDbLayout
  1
Layout2
 70
     1
 71
     2
 10
0.0
 20
0.0
 11
0.0
 21
0.0
 12
0.0
 22
0.0
 32
0.0
 14
0.0
 24
0.0
 34
0.0
 15
0.0
 25
0.0
 35
0.0
146
0.0
 13
0.0
 23
0.0
 33
0.0
 16
1.0
 26
0.0
 36
0.0
 17
0.0
 27
1.0
 37
0.0
 76
     0
330
23
  0
LAYOUT
  5
22
102
{ACAD_REACTORS
330
1A
102
}
330
1A
100
AcDbPlotSettings
  1

  2
none_device
  4
Letter_(8.50_x_11.00_Inches)
  6

 40
6.35
 41
6.35
 42
6.35000508
 43
6.35000508
 44
215.9
 45
279.4
 46
0.0
 47
0.0
 48
0.0
 49
0.0
140
0.0
141
0.0
142
1.0
143
1.0
 70
  1712
 72
     1
 73
     0
 74
     0
  7

 75
     0
147
1.0
148
0.0
149
0.0
100
AcDbLayout
  1
Model
 70
     1
 71
     0
 10
0.0
 20
0.0
 11
210.0
 21
297.0
 12
0.0
 22
0.0
 32
0.0
 14
0.0
 24
0.0
 34
0.0
 15
210.0
 25
297.0
 35
0.0
146
0.0
 13
0.0
 23
0.0
 33
0.0
 16
1.0
 26
0.0
 36
0.0
 17
0.0
 27
1.0
 37
0.0
 76
     0
330
1F
331
29
  0
MLINESTYLE
  5
18
102
{ACAD_REACTORS
330
17
102
}
330
17
100
AcDbMlineStyle
  2
Standard
 70
     0
  3

 62
   256
 51
90.0
 52
90.0
 71
     2
 49
0.5
 62
   256
  6
BYLAYER
 49
-0.5
 62
   256
  6
BYLAYER
  0
ACDBPLACEHOLDER
  5
F
102
{ACAD_REACTORS
330
E
102
}
330
E
  0
SCALE
  5
48
102
{ACAD_REACTORS
330
47
102
}
330
47
100
AcDbScale
 70
     0
300
1:1
140
1.0
141
1.0
290
     1
  0
SCALE
  5
49
102
{ACAD_REACTORS
330
47
102
}
330
47
100
AcDbScale
 70
     0
300
1:2
140
1.0
141
2.0
290
     0
  0
SCALE
  5
4A
102
{ACAD_REACTORS
330
47
102
}
330
47
100
AcDbScale
 70
     0
300
1:4
140
1.0
141
4.0
290
     0
  0
SCALE
  5
4B
102
{ACAD_REACTORS
330
47
102
}
330
47
100
AcDbScale
 70
     0
300
1:5
140
1.0
141
5.0
290
     0
  0
SCALE
  5
4C
102
{ACAD_REACTORS
330
47
102
}
330
47
100
AcDbScale
 70
     0
300
1:8
140
1.0
141
8.0
290
     0
  0
SCALE
  5
4D
102
{ACAD_REACTORS
330
47
102
}
330
47
100
AcDbScale
 70
     0
300
1:10
140
1.0
141
10.0
290
     0
  0
SCALE
  5
4E
102
{ACAD_REACTORS
330
47
102
}
330
47
100
AcDbScale
 70
     0
300
1:16
140
1.0
141
16.0
290
     0
  0
SCALE
  5
4F
102
{ACAD_REACTORS
330
47
102
}
330
47
100
AcDbScale
 70
     0
300
1:20
140
1.0
141
20.0
290
     0
  0
SCALE
  5
50
102
{ACAD_REACTORS
330
47
102
}
330
47
100
AcDbScale
 70
     0
300
1:30
140
1.0
141
30.0
290
     0
  0
SCALE
  5
51
102
{ACAD_REACTORS
330
47
102
}
330
47
100
AcDbScale
 70
     0
300
1:40
140
1.0
141
40.0
290
     0
  0
SCALE
  5
52
102
{ACAD_REACTORS
330
47
102
}
330
47
100
AcDbScale
 70
     0
300
1:50
140
1.0
141
50.0
290
     0
  0
SCALE
  5
53
102
{ACAD_REACTORS
330
47
102
}
330
47
100
AcDbScale
 70
     0
300
1:100
140
1.0
141
100.0
290
     0
  0
SCALE
  5
54
102
{ACAD_REACTORS
330
47
102
}
330
47
100
AcDbScale
 70
     0
300
2:1
140
2.0
141
1.0
290
     0
  0
SCALE
  5
55
102
{ACAD_REACTORS
330
47
102
}
330
47
100
AcDbScale
 70
     0
300
4:1
140
4.0
141
1.0
290
     0
  0
SCALE
  5
56
102
{ACAD_REACTORS
330
47
102
}
330
47
100
AcDbScale
 70
     0
300
8:1
140
8.0
141
1.0
290
     0
  0
SCALE
  5
57
102
{ACAD_REACTORS
330
47
102
}
330
47
100
AcDbScale
 70
     0
300
10:1
140
10.0
141
1.0
290
     0
  0
SCALE
  5
58
102
{ACAD_REACTORS
330
47
102
}
330
47
100
AcDbScale
 70
     0
300
100:1
140
100.0
141
1.0
290
     0
  0
SCALE
  5
59
102
{ACAD_REACTORS
330
47
102
}
330
47
100
AcDbScale
 70
     0
300
1/128" = 1'-0"
140
0.0078125
141
12.0
290
     0
  0
SCALE
  5
5A
102
{ACAD_REACTORS
330
47
102
}
330
47
100
AcDbScale
 70
     0
300
1/64" = 1'-0"
140
0.015625
141
12.0
290
     0
  0
SCALE
  5
5B
102
{ACAD_REACTORS
330
47
102
}
330
47
100
AcDbScale
 70
     0
300
1/32" = 1'-0"
140
0.03125
141
12.0
290
     0
  0
SCALE
  5
5C
102
{ACAD_REACTORS
330
47
102
}
330
47
100
AcDbScale
 70
     0
300
1/16" = 1'-0"
140
0.0625
141
12.0
290
     0
  0
SCALE
  5
5D
102
{ACAD_REACTORS
330
47
102
}
330
47
100
AcDbScale
 70
     0
300
3/32" = 1'-0"
140
0.09375
141
12.0
290
     0
  0
SCALE
  5
5E
102
{ACAD_REACTORS
330
47
102
}
330
47
100
AcDbScale
 70
     0
300
1/8" = 1'-0"
140
0.125
141
12.0
290
     0
  0
SCALE
  5
5F
102
{ACAD_REACTORS
330
47
102
}
330
47
100
AcDbScale
 70
     0
300
3/16" = 1'-0"
140
0.1875
141
12.0
290
     0
  0
SCALE
  5
60
102
{ACAD_REACTORS
330
47
102
}
330
47
100
AcDbScale
 70
     0
300
1/4" = 1'-0"
140
0.25
141
12.0
290
     0
  0
SCALE
  5
61
102
{ACAD_REACTORS
330
47
102
}
330
47
100
AcDbScale
 70
     0
300
3/8" = 1'-0"
140
0.375
141
12.0
290
     0
  0
SCALE
  5
62
102
{ACAD_REACTORS
330
47
102
}
330
47
100
AcDbScale
 70
     0
300
1/2" = 1'-0"
140
0.5
141
12.0
290
     0
  0
SCALE
  5
63
102
{ACAD_REACTORS
330
47
102
}
330
47
100
AcDbScale
 70
     0
300
3/4" = 1'-0"
140
0.75
141
12.0
290
     0
  0
SCALE
  5
64
102
{ACAD_REACTORS
330
47
102
}
330
47
100
AcDbScale
 70
     0
300
1" = 1'-0"
140
1.0
141
12.0
290
     0
  0
SCALE
  5
65
102
{ACAD_REACTORS
330
47
102
}
330
47
100
AcDbScale
 70
     0
300
1-1/2" = 1'-0"
140
1.5
141
12.0
290
     0
  0
SCALE
  5
66
102
{ACAD_REACTORS
330
47
102
}
330
47
100
AcDbScale
 70
     0
300
3" = 1'-0"
140
3.0
141
12.0
290
     0
  0
SCALE
  5
67
102
{ACAD_REACTORS
330
47
102
}
330
47
100
AcDbScale
 70
     0
300
6" = 1'-0"
140
6.0
141
12.0
290
     0
  0
SCALE
  5
68
102
{ACAD_REACTORS
330
47
102
}
330
47
100
AcDbScale
 70
     0
300
1'-0" = 1'-0"
140
12.0
141
12.0
290
     0
  0
ENDSEC
  0
EOF
