  0
SECTION
  2
HEADER
  9
$ACADVER
  1
AC1015
  9
$ACADMAINTVER
 70
     6
  9
$DWGCODEPAGE
  3
ANSI_936
  9
$INSBASE
 10
0.0
 20
0.0
 30
0.0
  9
$EXTMIN
 10
0.0
 20
0.0
 30
0.0
  9
$EXTMAX
 10
210.0
 20
297.0
 30
0.0
  9
$LIMMIN
 10
0.0
 20
0.0
  9
$LIMMAX
 10
210.0
 20
297.0
  9
$ORTHOMODE
 70
     0
  9
$REGENMODE
 70
     1
  9
$FILLMODE
 70
     1
  9
$QTEXTMODE
 70
     0
  9
$MIRRTEXT
 70
     1
  9
$LTSCALE
 40
1.0
  9
$ATTMODE
 70
     1
  9
$TEXTSIZE
 40
4.2333333333
  9
$TRACEWID
 40
1.0
  9
$TEXTSTYLE
  7
STANDARD
  9
$CLAYER
  8
0
  9
$CELTYPE
  6
ByLayer
  9
$CECOLOR
 62
   256
  9
$CELTSCALE
 40
1.0
  9
$DISPSILH
 70
     0
  9
$DIMSCALE
 40
1.0
  9
$DIMASZ
 40
3.0
  9
$DIMEXO
 40
1.0
  9
$DIMDLI
 40
3.75
  9
$DIMRND
 40
0.0
  9
$DIMDLE
 40
0.0
  9
$DIMEXE
 40
1.0
  9
$DIMTP
 40
0.0
  9
$DIMTM
 40
0.0
  9
$DIMTXT
 40
4.2333333333
  9
$DIMCEN
 40
2.5
  9
$DIMTSZ
 40
0.0
  9
$DIMTOL
 70
     0
  9
$DIMLIM
 70
     0
  9
$DIMTIH
 70
     1
  9
$DIMTOH
 70
     1
  9
$DIMSE1
 70
     0
  9
$DIMSE2
 70
     0
  9
$DIMTAD
 70
     1
  9
$DIMZIN
 70
     0
  9
$DIMBLK
  1

  9
$DIMASO
 70
     1
  9
$DIMSHO
 70
     1
  9
$DIMPOST
  1

  9
$DIMAPOST
  1

  9
$DIMALT
 70
     0
  9
$DIMALTD
 70
     3
  9
$DIMALTF
 40
0.0393700787
  9
$DIMLFAC
 40
1.0
  9
$DIMTOFL
 70
     1
  9
$DIMTVP
 40
0.0
  9
$DIMTIX
 70
     0
  9
$DIMSOXD
 70
     0
  9
$DIMSAH
 70
     0
  9
$DIMBLK1
  1

  9
$DIMBLK2
  1

  9
$DIMSTYLE
  2
ISO-25
  9
$DIMCLRD
 70
     0
  9
$DIMCLRE
 70
     0
  9
$DIMCLRT
 70
     0
  9
$DIMTFAC
 40
1.0
  9
$DIMGAP
 40
1.524
  9
$DIMJUST
 70
     0
  9
$DIMSD1
 70
     0
  9
$DIMSD2
 70
     0
  9
$DIMTOLJ
 70
     0
  9
$DIMTZIN
 70
     0
  9
$DIMALTZ
 70
     0
  9
$DIMALTTZ
 70
     0
  9
$DIMUPT
 70
     0
  9
$DIMDEC
 70
     1
  9
$DIMTDEC
 70
     2
  9
$DIMALTU
 70
     2
  9
$DIMALTTD
 70
     3
  9
$DIMTXSTY
  7
STANDARD
  9
$DIMAUNIT
 70
     0
  9
$DIMADEC
 70
     2
  9
$DIMALTRND
 40
0.0
  9
$DIMAZIN
 70
     0
  9
$DIMDSEP
 70
    44
  9
$DIMATFIT
 70
     3
  9
$DIMFRAC
 70
     0
  9
$DIMLDRBLK
  1

  9
$DIMLUNIT
 70
     2
  9
$DIMLWD
 70
    -2
  9
$DIMLWE
 70
    -2
  9
$DIMTMOVE
 70
     0
  9
$LUNITS
 70
     2
  9
$LUPREC
 70
     1
  9
$SKETCHINC
 40
1.0
  9
$FILLETRAD
 40
10.0
  9
$AUNITS
 70
     0
  9
$AUPREC
 70
     2
  9
$MENU
  1
.
  9
$ELEVATION
 40
0.0
  9
$PELEVATION
 40
0.0
  9
$THICKNESS
 40
0.0
  9
$LIMCHECK
 70
     0
  9
$CHAMFERA
 40
0.0
  9
$CHAMFERB
 40
0.0
  9
$CHAMFERC
 40
0.0
  9
$CHAMFERD
 40
0.0
  9
$SKPOLY
 70
     0
  9
$TDCREATE
 40
2458465.564616088
  9
$TDUCREATE
 40
2458465.231282755
  9
$TDUPDATE
 40
2458465.56462331
  9
$TDUUPDATE
 40
2458465.231289977
  9
$TDINDWG
 40
0.0000000116
  9
$TDUSRTIMER
 40
0.0000000116
  9
$USRTIMER
 70
     1
  9
$ANGBASE
 50
0.0
  9
$ANGDIR
 70
     0
  9
$PDMODE
 70
     0
  9
$PDSIZE
 40
-1.0
  9
$PLINEWID
 40
0.0
  9
$SPLFRAME
 70
     0
  9
$SPLINETYPE
 70
     6
  9
$SPLINESEGS
 70
     8
  9
$HANDSEED
  5
70B
  9
$SURFTAB1
 70
     6
  9
$SURFTAB2
 70
     6
  9
$SURFTYPE
 70
     6
  9
$SURFU
 70
     6
  9
$SURFV
 70
     6
  9
$UCSBASE
  2

  9
$UCSNAME
  2

  9
$UCSORG
 10
0.0
 20
0.0
 30
0.0
  9
$UCSXDIR
 10
1.0
 20
0.0
 30
0.0
  9
$UCSYDIR
 10
0.0
 20
1.0
 30
0.0
  9
$UCSORTHOREF
  2

  9
$UCSORTHOVIEW
 70
     0
  9
$UCSORGTOP
 10
0.0
 20
0.0
 30
0.0
  9
$UCSORGBOTTOM
 10
0.0
 20
0.0
 30
0.0
  9
$UCSORGLEFT
 10
0.0
 20
0.0
 30
0.0
  9
$UCSORGRIGHT
 10
0.0
 20
0.0
 30
0.0
  9
$UCSORGFRONT
 10
0.0
 20
0.0
 30
0.0
  9
$UCSORGBACK
 10
0.0
 20
0.0
 30
0.0
  9
$PUCSBASE
  2

  9
$PUCSNAME
  2

  9
$PUCSORG
 10
0.0
 20
0.0
 30
0.0
  9
$PUCSXDIR
 10
1.0
 20
0.0
 30
0.0
  9
$PUCSYDIR
 10
0.0
 20
1.0
 30
0.0
  9
$PUCSORTHOREF
  2

  9
$PUCSORTHOVIEW
 70
     0
  9
$PUCSORGTOP
 10
0.0
 20
0.0
 30
0.0
  9
$PUCSORGBOTTOM
 10
0.0
 20
0.0
 30
0.0
  9
$PUCSORGLEFT
 10
0.0
 20
0.0
 30
0.0
  9
$PUCSORGRIGHT
 10
0.0
 20
0.0
 30
0.0
  9
$PUCSORGFRONT
 10
0.0
 20
0.0
 30
0.0
  9
$PUCSORGBACK
 10
0.0
 20
0.0
 30
0.0
  9
$USERI1
 70
     0
  9
$USERI2
 70
     0
  9
$USERI3
 70
     0
  9
$USERI4
 70
     0
  9
$USERI5
 70
     0
  9
$USERR1
 40
0.0
  9
$USERR2
 40
0.0
  9
$USERR3
 40
0.0
  9
$USERR4
 40
0.0
  9
$USERR5
 40
0.0
  9
$WORLDVIEW
 70
     1
  9
$SHADEDGE
 70
     3
  9
$SHADEDIF
 70
    70
  9
$TILEMODE
 70
     1
  9
$MAXACTVP
 70
    64
  9
$PINSBASE
 10
0.0
 20
0.0
 30
0.0
  9
$PLIMCHECK
 70
     0
  9
$PEXTMIN
 10
1.0000000000E+20
 20
1.0000000000E+20
 30
1.0000000000E+20
  9
$PEXTMAX
 10
-1.0000000000E+20
 20
-1.0000000000E+20
 30
-1.0000000000E+20
  9
$PLIMMIN
 10
0.0
 20
0.0
  9
$PLIMMAX
 10
420.0
 20
297.0
  9
$UNITMODE
 70
     0
  9
$VISRETAIN
 70
     1
  9
$PLINEGEN
 70
     0
  9
$PSLTSCALE
 70
     1
  9
$TREEDEPTH
 70
  3020
  9
$CMLSTYLE
  2
Standard
  9
$CMLJUST
 70
     0
  9
$CMLSCALE
 40
20.0
  9
$PROXYGRAPHICS
 70
     1
  9
$MEASUREMENT
 70
     1
  9
$CELWEIGHT
370
    -1
  9
$ENDCAPS
280
     0
  9
$JOINSTYLE
280
     0
  9
$LWDISPLAY
290
     1
  9
$INSUNITS
 70
     4
  9
$HYPERLINKBASE
  1

  9
$STYLESHEET
  1

  9
$XEDIT
290
     1
  9
$CEPSNTYPE
380
     0
  9
$PSTYLEMODE
290
     1
  9
$FINGERPRINTGUID
  2
{13AAA808-F86D-450D-9757-05F7C9B2A40A}
  9
$VERSIONGUID
  2
{FAEB1C32-E019-11D5-929B-00C0DF256EC4}
  9
$EXTNAMES
290
     1
  9
$PSVPSCALE
 40
0.0
  9
$OLESTARTUP
290
     0
  0
ENDSEC
  0
SECTION
  2
CLASSES
  0
CLASS
  1
ACDBDICTIONARYWDFLT
  2
AcDbDictionaryWithDefault
  3
ObjectDBX Classes
 90
        0
280
     0
281
     0
  0
CLASS
  1
VISUALSTYLE
  2
AcDbVisualStyle
  3
ObjectDBX Classes
 90
     4095
280
     0
281
     0
  0
CLASS
  1
MATERIAL
  2
AcDbMaterial
  3
ObjectDBX Classes
 90
     1153
280
     0
281
     0
  0
CLASS
  1
SCALE
  2
AcDbScale
  3
ObjectDBX Classes
 90
     1153
280
     0
281
     0
  0
CLASS
  1
TABLESTYLE
  2
AcDbTableStyle
  3
ObjectDBX Classes
 90
     4095
280
     0
281
     0
  0
CLASS
  1
MLEADERSTYLE
  2
AcDbMLeaderStyle
  3
ACDB_MLEADERSTYLE_CLASS
 90
     4095
280
     0
281
     0
  0
CLASS
  1
SUN
  2
AcDbSun
  3
SCENEOE
 90
     1153
280
     0
281
     0
  0
CLASS
  1
ACDBPLACEHOLDER
  2
AcDbPlaceHolder
  3
ObjectDBX Classes
 90
        0
280
     0
281
     0
  0
CLASS
  1
LAYOUT
  2
AcDbLayout
  3
ObjectDBX Classes
 90
        0
280
     0
281
     0
  0
ENDSEC
  0
SECTION
  2
TABLES
  0
TABLE
  2
VPORT
  5
8
330
0
100
AcDbSymbolTable
 70
     1
  0
VPORT
  5
29
330
8
100
AcDbSymbolTableRecord
100
AcDbViewportTableRecord
  2
*Active
 70
     0
 10
0.0
 20
0.0
 11
1.0
 21
1.0
 12
105.0
 22
148.5
 13
0.0
 23
0.0
 14
10.0
 24
10.0
 15
10.0
 25
10.0
 16
0.0
 26
0.0
 36
1.0
 17
0.0
 27
0.0
 37
0.0
 40
297.0
 41
0.7070707071
 42
50.0
 43
0.0
 44
0.0
 50
0.0
 51
0.0
 71
     0
 72
  2000
 73
     1
 74
     3
 75
     0
 76
     0
 77
     0
 78
     0
281
     0
 65
     1
110
0.0
120
0.0
130
0.0
111
1.0
121
0.0
131
0.0
112
0.0
122
1.0
132
0.0
 79
     0
146
0.0
  0
ENDTAB
  0
TABLE
  2
LTYPE
  5
5
330
0
100
AcDbSymbolTable
 70
     6
  0
LTYPE
  5
14
330
5
100
AcDbSymbolTableRecord
100
AcDbLinetypeTableRecord
  2
ByBlock
 70
     0
  3

 72
    65
 73
     0
 40
0.0
  0
LTYPE
  5
15
330
5
100
AcDbSymbolTableRecord
100
AcDbLinetypeTableRecord
  2
ByLayer
 70
     0
  3

 72
    65
 73
     0
 40
0.0
  0
LTYPE
  5
16
330
5
100
AcDbSymbolTableRecord
100
AcDbLinetypeTableRecord
  2
Continuous
 70
     0
  3
Solid line
 72
    65
 73
     0
 40
0.0
  0
LTYPE
  5
6E
330
5
100
AcDbSymbolTableRecord
100
AcDbLinetypeTableRecord
  2
HIDDEN
 70
     0
  3
Hidden __ __ __ __ __ __ __ __ __ __ __ __ __ __
 72
    65
 73
     2
 40
1.905
 49
1.27
 74
     0
 49
-0.635
 74
     0
  0
LTYPE
  5
6F
330
5
100
AcDbSymbolTableRecord
100
AcDbLinetypeTableRecord
  2
PHANTOM
 70
     0
  3
Phantom ______  __  __  ______  __  __  ______
 72
    65
 73
     6
 40
12.7
 49
6.35
 74
     0
 49
-1.27
 74
     0
 49
1.27
 74
     0
 49
-1.27
 74
     0
 49
1.27
 74
     0
 49
-1.27
 74
     0
  0
LTYPE
  5
70
330
5
100
AcDbSymbolTableRecord
100
AcDbLinetypeTableRecord
  2
CENTER
 70
     0
  3
Center ____ _ ____ _ ____ _ ____ _ ____ _ ____
 72
    65
 73
     4
 40
10.16
 49
6.35
 74
     0
 49
-1.27
 74
     0
 49
1.27
 74
     0
 49
-1.27
 74
     0
  0
LTYPE
  5
71
330
5
100
AcDbSymbolTableRecord
100
AcDbLinetypeTableRecord
  2
CENTERX2
 70
     0
  3
Center (2x) ________  __  ________  __  _____
 72
    65
 73
     4
 40
20.32
 49
12.7
 74
     0
 49
-2.54
 74
     0
 49
2.54
 74
     0
 49
-2.54
 74
     0
  0
LTYPE
  5
72
330
5
100
AcDbSymbolTableRecord
100
AcDbLinetypeTableRecord
  2
DOT2
 70
     0
  3
Dot (.5x) ........................................
 72
    65
 73
     2
 40
0.635
 49
0.0
 74
     0
 49
-0.635
 74
     0
  0
ENDTAB
  0
TABLE
  2
LAYER
  5
2
330
0
100
AcDbSymbolTable
 70
     1
  0
LAYER
  5
10
330
2
100
AcDbSymbolTableRecord
100
AcDbLayerTableRecord
  2
0
 70
     0
 62
     7
  6
Continuous
370
    -3
390
F
  0
ENDTAB
  0
TABLE
  2
STYLE
  5
3
330
0
100
AcDbSymbolTable
 70
     5
  0
STYLE
  5
11
330
3
100
AcDbSymbolTableRecord
100
AcDbTextStyleTableRecord
  2
STANDARD
 70
     0
 40
0.0
 41
1.0
 50
0.0
 71
     0
 42
4.2333333333
  3
MSGOTHIC.TTC
  4

1001
ACAD
1000
MS GOTHIC
1071
       49
  0
STYLE
  5
524
330
3
100
AcDbSymbolTableRecord
100
AcDbTextStyleTableRecord
  2
SLDTEXTSTYLE0
 70
     0
 40
0.0
 41
1.0
 50
0.0
 71
     0
 42
4.2333333333
  3
TIMES.TTF
  4

1001
ACAD
1000
TIMES NEW ROMAN
1071
      274
  0
STYLE
  5
533
330
3
100
AcDbSymbolTableRecord
100
AcDbTextStyleTableRecord
  2
SLDTEXTSTYLE1
 70
     0
 40
0.0
 41
1.0
 50
0.0
 71
     0
 42
4.2333333333
  3
MSGOTHIC.TTC
  4
bigfont
1001
ACAD
1000
MS Gothic
1071
      305
  0
STYLE
  5
547
330
3
100
AcDbSymbolTableRecord
100
AcDbTextStyleTableRecord
  2
SLDTEXTSTYLE2
 70
     0
 40
0.0
 41
1.0
 50
0.0
 71
     0
 42
4.2333333333
  3
MSGOTHIC.TTC
  4

1001
ACAD
1000
MS GOTHIC
1071
      305
  0
STYLE
  5
5DF
330
3
100
AcDbSymbolTableRecord
100
AcDbTextStyleTableRecord
  2
SLDTEXTSTYLE3
 70
     0
 40
0.0
 41
1.0
 50
0.0
 71
     0
 42
4.2333333333
  3
MSGOTHIC.TTC
  4

1001
ACAD
1000
MS PGothic
1071
      290
  0
ENDTAB
  0
TABLE
  2
VIEW
  5
6
330
0
100
AcDbSymbolTable
 70
     0
  0
ENDTAB
  0
TABLE
  2
UCS
  5
7
330
0
100
AcDbSymbolTable
 70
     0
  0
ENDTAB
  0
TABLE
  2
APPID
  5
9
330
0
100
AcDbSymbolTable
 70
     1
  0
APPID
  5
12
330
9
100
AcDbSymbolTableRecord
100
AcDbRegAppTableRecord
  2
ACAD
 70
     0
  0
ENDTAB
  0
TABLE
  2
DIMSTYLE
  5
A
330
0
100
AcDbSymbolTable
 70
     4
100
AcDbDimStyleTable
  0
DIMSTYLE
105
27
330
A
100
AcDbSymbolTableRecord
100
AcDbDimStyleTableRecord
  2
ISO-25
 70
     0
 41
2.5
 42
0.625
 43
3.75
 44
1.25
 73
     0
 74
     0
 77
     1
 78
     8
140
2.5
141
2.5
143
0.0393700787
147
0.625
171
     3
172
     1
178
     0
271
     2
272
     2
274
     3
278
    44
283
     0
284
     8
340
11
  0
DIMSTYLE
105
633
102
{ACAD_REACTORS
330
632
330
645
330
6B1
330
6BB
330
6C5
330
6CF
330
6E8
102
}
330
A
100
AcDbSymbolTableRecord
100
AcDbDimStyleTableRecord
  2
SLDDIMSTYLE0
 70
     0
 41
3.0
 44
0.0
 45
0.000000001
 73
     0
 74
     0
 77
     3
 78
    12
 79
     3
140
3.6380208333
147
0.9095052083
173
     1
178
     0
271
     1
272
     2
276
     2
284
    12
340
547
341
634
343
634
344
634
  0
DIMSTYLE
105
658
330
A
100
AcDbSymbolTableRecord
100
AcDbDimStyleTableRecord
  2
SLDDIMSTYLE1
 70
     0
 41
3.0
 44
0.0
 45
0.000000001
146
3.0
147
0.0
173
     1
178
     0
271
     0
272
     0
276
     2
340
11
341
634
343
634
344
634
  0
DIMSTYLE
105
6DC
102
{ACAD_REACTORS
330
6DB
102
}
330
A
100
AcDbSymbolTableRecord
100
AcDbDimStyleTableRecord
  2
SLDDIMSTYLE2
 70
     0
 41
3.0
 44
0.0
 73
     0
 74
     0
 77
     3
 78
    12
 79
     3
140
3.6380208333
147
0.9095052083
173
     1
178
     0
179
     2
272
     2
276
     2
284
    12
340
547
341
634
343
634
344
634
  0
ENDTAB
  0
TABLE
  2
BLOCK_RECORD
  5
1
330
0
100
AcDbSymbolTable
 70
    36
  0
BLOCK_RECORD
  5
1F
330
1
100
AcDbSymbolTableRecord
100
AcDbBlockTableRecord
  2
*Model_Space
340
22
  0
BLOCK_RECORD
  5
1B
330
1
100
AcDbSymbolTableRecord
100
AcDbBlockTableRecord
  2
*Paper_Space
340
1E
  0
BLOCK_RECORD
  5
23
330
1
100
AcDbSymbolTableRecord
100
AcDbBlockTableRecord
  2
*Paper_Space0
340
26
  0
BLOCK_RECORD
  5
73
330
1
100
AcDbSymbolTableRecord
100
AcDbBlockTableRecord
  2
块1
340
0
102
{BLKREFS
331
5A6
102
}
  0
BLOCK_RECORD
  5
526
330
1
100
AcDbSymbolTableRecord
100
AcDbBlockTableRecord
  2
Block1
340
0
102
{BLKREFS
331
5A5
102
}
  0
BLOCK_RECORD
  5
536
330
1
100
AcDbSymbolTableRecord
100
AcDbBlockTableRecord
  2
SW_NOTE_0
340
0
102
{BLKREFS
331
543
102
}
  0
BLOCK_RECORD
  5
544
330
1
100
AcDbSymbolTableRecord
100
AcDbBlockTableRecord
  2
SW_NOTE_1
340
0
102
{BLKREFS
331
54B
102
}
  0
BLOCK_RECORD
  5
54C
330
1
100
AcDbSymbolTableRecord
100
AcDbBlockTableRecord
  2
SW_NOTE_2
340
0
102
{BLKREFS
331
552
102
}
  0
BLOCK_RECORD
  5
553
330
1
100
AcDbSymbolTableRecord
100
AcDbBlockTableRecord
  2
SW_NOTE_3
340
0
102
{BLKREFS
331
559
102
}
  0
BLOCK_RECORD
  5
55A
330
1
100
AcDbSymbolTableRecord
100
AcDbBlockTableRecord
  2
SW_NOTE_4
340
0
102
{BLKREFS
331
560
102
}
  0
BLOCK_RECORD
  5
561
330
1
100
AcDbSymbolTableRecord
100
AcDbBlockTableRecord
  2
SW_NOTE_5
340
0
102
{BLKREFS
331
567
102
}
  0
BLOCK_RECORD
  5
568
330
1
100
AcDbSymbolTableRecord
100
AcDbBlockTableRecord
  2
SW_NOTE_6
340
0
102
{BLKREFS
331
56E
102
}
  0
BLOCK_RECORD
  5
5A7
330
1
100
AcDbSymbolTableRecord
100
AcDbBlockTableRecord
  2
SW_NOTE_7
340
0
102
{BLKREFS
331
5AC
102
}
  0
BLOCK_RECORD
  5
5D0
330
1
100
AcDbSymbolTableRecord
100
AcDbBlockTableRecord
  2
SW_NOTE_8
340
0
102
{BLKREFS
331
5D5
102
}
  0
BLOCK_RECORD
  5
5D9
330
1
100
AcDbSymbolTableRecord
100
AcDbBlockTableRecord
  2
SW_NOTE_9
340
0
102
{BLKREFS
331
5E1
102
}
  0
BLOCK_RECORD
  5
5E2
330
1
100
AcDbSymbolTableRecord
100
AcDbBlockTableRecord
  2
SW_NOTE_10
340
0
102
{BLKREFS
331
5E9
102
}
  0
BLOCK_RECORD
  5
5EA
330
1
100
AcDbSymbolTableRecord
100
AcDbBlockTableRecord
  2
SW_NOTE_11
340
0
102
{BLKREFS
331
5F1
102
}
  0
BLOCK_RECORD
  5
5F4
330
1
100
AcDbSymbolTableRecord
100
AcDbBlockTableRecord
  2
SW_NOTE_12
340
0
102
{BLKREFS
331
5FA
102
}
  0
BLOCK_RECORD
  5
5FD
330
1
100
AcDbSymbolTableRecord
100
AcDbBlockTableRecord
  2
SW_NOTE_13
340
0
102
{BLKREFS
331
602
102
}
  0
BLOCK_RECORD
  5
603
330
1
100
AcDbSymbolTableRecord
100
AcDbBlockTableRecord
  2
SW_NOTE_14
340
0
102
{BLKREFS
331
608
102
}
  0
BLOCK_RECORD
  5
609
330
1
100
AcDbSymbolTableRecord
100
AcDbBlockTableRecord
  2
SW_SFSYMBOL_0
340
0
102
{BLKREFS
331
60F
102
}
  0
BLOCK_RECORD
  5
610
330
1
100
AcDbSymbolTableRecord
100
AcDbBlockTableRecord
  2
SW_SFSYMBOL_1
340
0
102
{BLKREFS
331
617
102
}
  0
BLOCK_RECORD
  5
634
330
1
100
AcDbSymbolTableRecord
100
AcDbBlockTableRecord
  2
_OPEN30
340
0
102
{BLKREFS
331
63F
331
640
331
649
331
64A
331
6AB
331
6B5
331
6B6
331
6BF
331
6C0
331
6C9
331
6CA
331
6D5
331
6D6
331
6E3
331
6E4
331
6EC
331
6ED
331
6FA
102
}
  0
BLOCK_RECORD
  5
63A
330
1
100
AcDbSymbolTableRecord
100
AcDbBlockTableRecord
  2
_D
340
0
  0
BLOCK_RECORD
  5
646
330
1
100
AcDbSymbolTableRecord
100
AcDbBlockTableRecord
  2
_D_1
340
0
  0
BLOCK_RECORD
  5
64F
330
1
100
AcDbSymbolTableRecord
100
AcDbBlockTableRecord
  2
SW_NOTE_15
340
0
102
{BLKREFS
331
657
102
}
  0
BLOCK_RECORD
  5
65A
330
1
100
AcDbSymbolTableRecord
100
AcDbBlockTableRecord
  2
SW_CENTERMARKSYMBOL_0
340
0
102
{BLKREFS
331
665
102
}
  0
BLOCK_RECORD
  5
666
330
1
100
AcDbSymbolTableRecord
100
AcDbBlockTableRecord
  2
SW_SFSYMBOL_2
340
0
102
{BLKREFS
331
66C
102
}
  0
BLOCK_RECORD
  5
66D
330
1
100
AcDbSymbolTableRecord
100
AcDbBlockTableRecord
  2
SW_SFSYMBOL_3
340
0
102
{BLKREFS
331
673
102
}
  0
BLOCK_RECORD
  5
6A8
330
1
100
AcDbSymbolTableRecord
100
AcDbBlockTableRecord
  2
SW_CHAMFER_DIMENSION_0
340
0
102
{BLKREFS
331
6B0
102
}
  0
BLOCK_RECORD
  5
6B2
330
1
100
AcDbSymbolTableRecord
100
AcDbBlockTableRecord
  2
_D_2
340
0
  0
BLOCK_RECORD
  5
6BC
330
1
100
AcDbSymbolTableRecord
100
AcDbBlockTableRecord
  2
_D_3
340
0
  0
BLOCK_RECORD
  5
6C6
330
1
100
AcDbSymbolTableRecord
100
AcDbBlockTableRecord
  2
_D_4
340
0
  0
BLOCK_RECORD
  5
6D0
330
1
100
AcDbSymbolTableRecord
100
AcDbBlockTableRecord
  2
_D_5
340
0
  0
BLOCK_RECORD
  5
6DD
330
1
100
AcDbSymbolTableRecord
100
AcDbBlockTableRecord
  2
_D_6
340
0
  0
BLOCK_RECORD
  5
6E9
330
1
100
AcDbSymbolTableRecord
100
AcDbBlockTableRecord
  2
_D_7
340
0
  0
BLOCK_RECORD
  5
6F3
330
1
100
AcDbSymbolTableRecord
100
AcDbBlockTableRecord
  2
SW_NOTE_16
340
0
102
{BLKREFS
331
6F8
102
}
  0
BLOCK_RECORD
  5
6FB
330
1
100
AcDbSymbolTableRecord
100
AcDbBlockTableRecord
  2
SW_NOTE_17
340
0
102
{BLKREFS
331
700
102
}
  0
ENDTAB
  0
ENDSEC
  0
SECTION
  2
BLOCKS
  0
BLOCK
  5
20
330
1F
100
AcDbEntity
  8
0
100
AcDbBlockBegin
  2
*Model_Space
 70
     0
 10
0.0
 20
0.0
 30
0.0
  3
*Model_Space
  1

  0
ENDBLK
  5
21
330
1F
100
AcDbEntity
  8
0
100
AcDbBlockEnd
  0
BLOCK
  5
1C
330
1B
100
AcDbEntity
 67
     1
  8
0
100
AcDbBlockBegin
  2
*Paper_Space
 70
     0
 10
0.0
 20
0.0
 30
0.0
  3
*Paper_Space
  1

  0
ENDBLK
  5
1D
330
1B
100
AcDbEntity
 67
     1
  8
0
100
AcDbBlockEnd
  0
BLOCK
  5
24
330
23
100
AcDbEntity
  8
0
100
AcDbBlockBegin
  2
*Paper_Space0
 70
     0
 10
0.0
 20
0.0
 30
0.0
  3
*Paper_Space0
  1

  0
ENDBLK
  5
25
330
23
100
AcDbEntity
  8
0
100
AcDbBlockEnd
  0
BLOCK
  5
74
330
73
100
AcDbEntity
  8
0
100
AcDbBlockBegin
  2
块1
 70
     0
 10
0.0
 20
0.0
 30
0.0
  3
块1
  1

  0
LINE
  5
76
330
73
100
AcDbEntity
  8
0
  6
Continuous
 62
   179
370
    18
100
AcDbLine
 10
17.2061750626
 20
6.8804856233
 30
0.0
 11
17.4324206888
 21
7.2120605526
 31
0.0
  0
LINE
  5
77
330
73
100
AcDbEntity
  8
0
  6
Continuous
 62
   179
370
    18
100
AcDbLine
 10
17.4324206888
 20
7.2120605526
 30
0.0
 11
17.5229183417
 21
7.4984209318
 31
0.0
  0
LINE
  5
78
330
73
100
AcDbEntity
  8
0
  6
Continuous
 62
   179
370
    18
100
AcDbLine
 10
17.5229183417
 20
7.4984209318
 30
0.0
 11
17.5078355655
 21
7.7395661753
 31
0.0
  0
LINE
  5
79
330
73
100
AcDbEntity
  8
0
  6
Continuous
 62
   179
370
    18
100
AcDbLine
 10
17.5078355655
 20
7.7395661753
 30
0.0
 11
17.4173379126
 21
7.9505681901
 31
0.0
  0
LINE
  5
7A
330
73
100
AcDbEntity
  8
0
  6
Continuous
 62
   179
370
    18
100
AcDbLine
 10
17.4173379126
 20
7.9505681901
 30
0.0
 11
17.2966737114
 21
8.1163556548
 31
0.0
  0
LINE
  5
7B
330
73
100
AcDbEntity
  8
0
  6
Continuous
 62
   179
370
    18
100
AcDbLine
 10
17.2966737114
 20
8.1163556548
 30
0.0
 11
17.0855108614
 21
8.2670717979
 31
0.0
  0
LINE
  5
7C
330
73
100
AcDbEntity
  8
0
  6
Continuous
 62
   179
370
    18
100
AcDbLine
 10
17.0855108614
 20
8.2670717979
 30
0.0
 11
16.8743480113
 21
8.3725728053
 31
0.0
  0
LINE
  5
7D
330
73
100
AcDbEntity
  8
0
  6
Continuous
 62
   179
370
    18
100
AcDbLine
 10
16.8743480113
 20
8.3725728053
 30
0.0
 11
16.648102385
 21
8.4177873555
 31
0.0
  0
LINE
  5
7E
330
73
100
AcDbEntity
  8
0
  6
Continuous
 62
   179
370
    18
100
AcDbLine
 10
16.648102385
 20
8.4177873555
 30
0.0
 11
16.3011925576
 21
8.4177873555
 31
0.0
  0
LINE
  5
7F
330
73
100
AcDbEntity
  8
0
  6
Continuous
 62
   179
370
    18
100
AcDbLine
 10
16.3011925576
 20
8.4177873555
 30
0.0
 11
15.8939506296
 21
8.3575008983
 31
0.0
  0
LINE
  5
80
330
73
100
AcDbEntity
  8
0
  6
Continuous
 62
   179
370
    18
100
AcDbLine
 10
15.8939506296
 20
8.3575008983
 30
0.0
 11
15.4716259254
 21
8.2067853407
 31
0.0
  0
LINE
  5
81
330
73
100
AcDbEntity
  8
0
  6
Continuous
 62
   179
370
    18
100
AcDbLine
 10
15.4716259254
 20
8.2067853407
 30
0.0
 11
14.8230555949
 21
7.8902817329
 31
0.0
  0
LINE
  5
82
330
73
100
AcDbEntity
  8
0
  6
Continuous
 62
   179
370
    18
100
AcDbLine
 10
14.8230555949
 20
7.8902817329
 30
0.0
 11
14.4869186807
 21
7.666360273
 31
0.0
  0
LINE
  5
83
330
73
100
AcDbEntity
  8
0
  6
Continuous
 62
   179
370
    18
100
AcDbLine
 10
14.4869186807
 20
7.666360273
 30
0.0
 11
14.2800666896
 21
7.4984209318
 31
0.0
  0
LINE
  5
84
330
73
100
AcDbEntity
  8
0
  6
Continuous
 62
   179
370
    18
100
AcDbLine
 10
14.2800666896
 20
7.4984209318
 30
0.0
 11
14.0085717389
 21
7.3175615601
 31
0.0
  0
LINE
  5
85
330
73
100
AcDbEntity
  8
0
  6
Continuous
 62
   179
370
    18
100
AcDbLine
 10
14.0085717389
 20
7.3175615601
 30
0.0
 11
13.918074086
 21
7.2422037812
 31
0.0
  0
LINE
  5
86
330
73
100
AcDbEntity
  8
0
  6
Continuous
 62
   179
370
    18
100
AcDbLine
 10
13.918074086
 20
7.2422037812
 30
0.0
 11
13.9029903138
 21
7.1668460024
 31
0.0
  0
LINE
  5
87
330
73
100
AcDbEntity
  8
0
  6
Continuous
 62
   179
370
    18
100
AcDbLine
 10
13.9029903138
 20
7.1668460024
 30
0.0
 11
13.8879075377
 21
7.1216308668
 31
0.0
  0
LINE
  5
88
330
73
100
AcDbEntity
  8
0
  6
Continuous
 62
   179
370
    18
100
AcDbLine
 10
13.8879075377
 20
7.1216308668
 30
0.0
 11
14.1141531639
 21
6.8804856233
 31
0.0
  0
LINE
  5
89
330
73
100
AcDbEntity
  8
0
  6
Continuous
 62
   179
370
    18
100
AcDbLine
 10
14.1141531639
 20
6.8804856233
 30
0.0
 11
14.1594024884
 21
6.8654143017
 31
0.0
  0
LINE
  5
8A
330
73
100
AcDbEntity
  8
0
  6
Continuous
 62
   179
370
    18
100
AcDbLine
 10
14.1594024884
 20
6.8654143017
 30
0.0
 11
14.219734589
 21
6.8804856233
 31
0.0
  0
LINE
  5
8B
330
73
100
AcDbEntity
  8
0
  6
Continuous
 62
   179
370
    18
100
AcDbLine
 10
14.219734589
 20
6.8804856233
 30
0.0
 11
14.2951494657
 21
6.8955575303
 31
0.0
  0
LINE
  5
8C
330
73
100
AcDbEntity
  8
0
  6
Continuous
 62
   179
370
    18
100
AcDbLine
 10
14.2951494657
 20
6.8955575303
 30
0.0
 11
14.4158136669
 21
6.9859866307
 31
0.0
  0
LINE
  5
8D
330
73
100
AcDbEntity
  8
0
  6
Continuous
 62
   179
370
    18
100
AcDbLine
 10
14.4158136669
 20
6.9859866307
 30
0.0
 11
14.7778062705
 21
7.2422037812
 31
0.0
  0
LINE
  5
8E
330
73
100
AcDbEntity
  8
0
  6
Continuous
 62
   179
370
    18
100
AcDbLine
 10
14.7778062705
 20
7.2422037812
 30
0.0
 11
15.034218445
 21
7.4682777032
 31
0.0
  0
LINE
  5
8F
330
73
100
AcDbEntity
  8
0
  6
Continuous
 62
   179
370
    18
100
AcDbLine
 10
15.034218445
 20
7.4682777032
 30
0.0
 11
15.2604640713
 21
7.6039219392
 31
0.0
  0
LINE
  5
90
330
73
100
AcDbEntity
  8
0
  6
Continuous
 62
   179
370
    18
100
AcDbLine
 10
15.2604640713
 20
7.6039219392
 30
0.0
 11
15.3811282725
 21
7.6491364894
 31
0.0
  0
LINE
  5
91
330
73
100
AcDbEntity
  8
0
  6
Continuous
 62
   179
370
    18
100
AcDbLine
 10
15.3811282725
 20
7.6491364894
 30
0.0
 11
15.4867087015
 21
7.6491364894
 31
0.0
  0
LINE
  5
92
330
73
100
AcDbEntity
  8
0
  6
Continuous
 62
   179
370
    18
100
AcDbLine
 10
15.4867087015
 20
7.6491364894
 30
0.0
 11
15.531958026
 21
7.5888500322
 31
0.0
  0
LINE
  5
93
330
73
100
AcDbEntity
  8
0
  6
Continuous
 62
   179
370
    18
100
AcDbLine
 10
15.531958026
 20
7.5888500322
 30
0.0
 11
15.5772073504
 21
7.5587068035
 31
0.0
  0
LINE
  5
94
330
73
100
AcDbEntity
  8
0
  6
Continuous
 62
   179
370
    18
100
AcDbLine
 10
15.5772073504
 20
7.5587068035
 30
0.0
 11
15.5772073504
 21
7.4833490247
 31
0.0
  0
LINE
  5
95
330
73
100
AcDbEntity
  8
0
  6
Continuous
 62
   179
370
    18
100
AcDbLine
 10
15.5772073504
 20
7.4833490247
 30
0.0
 11
15.5470417981
 21
7.3477047887
 31
0.0
  0
LINE
  5
96
330
73
100
AcDbEntity
  8
0
  6
Continuous
 62
   179
370
    18
100
AcDbLine
 10
15.5470417981
 20
7.3477047887
 30
0.0
 11
15.4112938248
 21
7.1216308668
 31
0.0
  0
LINE
  5
97
330
73
100
AcDbEntity
  8
0
  6
Continuous
 62
   179
370
    18
100
AcDbLine
 10
15.4112938248
 20
7.1216308668
 30
0.0
 11
15.1548826462
 21
6.699626837
 31
0.0
  0
LINE
  5
98
330
73
100
AcDbEntity
  8
0
  6
Continuous
 62
   179
370
    18
100
AcDbLine
 10
15.1548826462
 20
6.699626837
 30
0.0
 11
14.8230555949
 21
6.1570493073
 31
0.0
  0
LINE
  5
99
330
73
100
AcDbEntity
  8
0
  6
Continuous
 62
   179
370
    18
100
AcDbLine
 10
14.8230555949
 20
6.1570493073
 30
0.0
 11
14.4459802152
 21
5.6295442702
 31
0.0
  0
LINE
  5
9A
330
73
100
AcDbEntity
  8
0
  6
Continuous
 62
   179
370
    18
100
AcDbLine
 10
14.4459802152
 20
5.6295442702
 30
0.0
 11
14.2046508168
 21
5.2828974338
 31
0.0
  0
LINE
  5
9B
330
73
100
AcDbEntity
  8
0
  6
Continuous
 62
   179
370
    18
100
AcDbLine
 10
14.2046508168
 20
5.2828974338
 30
0.0
 11
14.0085717389
 21
4.9513225044
 31
0.0
  0
LINE
  5
9C
330
73
100
AcDbEntity
  8
0
  6
Continuous
 62
   179
370
    18
100
AcDbLine
 10
14.0085717389
 20
4.9513225044
 30
0.0
 11
13.9633224144
 21
4.8156782684
 31
0.0
  0
LINE
  5
9D
330
73
100
AcDbEntity
  8
0
  6
Continuous
 62
   179
370
    18
100
AcDbLine
 10
13.9633224144
 20
4.8156782684
 30
0.0
 11
13.9633224144
 21
4.6649627107
 31
0.0
  0
LINE
  5
9E
330
73
100
AcDbEntity
  8
0
  6
Continuous
 62
   179
370
    18
100
AcDbLine
 10
13.9633224144
 20
4.6649627107
 30
0.0
 11
14.0085717389
 21
4.5293184747
 31
0.0
  0
LINE
  5
9F
330
73
100
AcDbEntity
  8
0
  6
Continuous
 62
   179
370
    18
100
AcDbLine
 10
14.0085717389
 20
4.5293184747
 30
0.0
 11
14.1141531639
 21
4.3333877814
 31
0.0
  0
LINE
  5
A0
330
73
100
AcDbEntity
  8
0
  6
Continuous
 62
   179
370
    18
100
AcDbLine
 10
14.1141531639
 20
4.3333877814
 30
0.0
 11
14.2800666896
 21
4.1977435453
 31
0.0
  0
LINE
  5
A1
330
73
100
AcDbEntity
  8
0
  6
Continuous
 62
   179
370
    18
100
AcDbLine
 10
14.2800666896
 20
4.1977435453
 30
0.0
 11
14.4459802152
 21
4.1073138595
 31
0.0
  0
LINE
  5
A2
330
73
100
AcDbEntity
  8
0
  6
Continuous
 62
   179
370
    18
100
AcDbLine
 10
14.4459802152
 20
4.1073138595
 30
0.0
 11
14.6571420693
 21
4.0771706309
 31
0.0
  0
LINE
  5
A3
330
73
100
AcDbEntity
  8
0
  6
Continuous
 62
   179
370
    18
100
AcDbLine
 10
14.6571420693
 20
4.0771706309
 30
0.0
 11
14.9889691206
 21
4.0470274022
 31
0.0
  0
LINE
  5
A4
330
73
100
AcDbEntity
  8
0
  6
Continuous
 62
   179
370
    18
100
AcDbLine
 10
14.9889691206
 20
4.0470274022
 30
0.0
 11
15.3207961719
 21
4.0922425379
 31
0.0
  0
LINE
  5
A5
330
73
100
AcDbEntity
  8
0
  6
Continuous
 62
   179
370
    18
100
AcDbLine
 10
15.3207961719
 20
4.0922425379
 30
0.0
 11
15.6224566749
 21
4.1525284097
 31
0.0
  0
LINE
  5
A6
330
73
100
AcDbEntity
  8
0
  6
Continuous
 62
   179
370
    18
100
AcDbLine
 10
15.6224566749
 20
4.1525284097
 30
0.0
 11
15.939199954
 21
4.2429580955
 31
0.0
  0
LINE
  5
A7
330
73
100
AcDbEntity
  8
0
  6
Continuous
 62
   179
370
    18
100
AcDbLine
 10
15.939199954
 20
4.2429580955
 30
0.0
 11
16.3162763297
 21
4.4087455602
 31
0.0
  0
LINE
  5
A8
330
73
100
AcDbEntity
  8
0
  6
Continuous
 62
   179
370
    18
100
AcDbLine
 10
16.3162763297
 20
4.4087455602
 30
0.0
 11
16.6631861572
 21
4.6046762535
 31
0.0
  0
LINE
  5
A9
330
73
100
AcDbEntity
  8
0
  6
Continuous
 62
   179
370
    18
100
AcDbLine
 10
16.6631861572
 20
4.6046762535
 30
0.0
 11
17.0855108614
 21
4.8307501754
 31
0.0
  0
LINE
  5
AA
330
73
100
AcDbEntity
  8
0
  6
Continuous
 62
   179
370
    18
100
AcDbLine
 10
17.0855108614
 20
4.8307501754
 30
0.0
 11
17.4173379126
 21
5.0718954189
 31
0.0
  0
LINE
  5
AB
330
73
100
AcDbEntity
  8
0
  6
Continuous
 62
   179
370
    18
100
AcDbLine
 10
17.4173379126
 20
5.0718954189
 30
0.0
 11
17.5832504423
 21
5.1924683334
 31
0.0
  0
LINE
  5
AC
330
73
100
AcDbEntity
  8
0
  6
Continuous
 62
   179
370
    18
100
AcDbLine
 10
17.5832504423
 20
5.1924683334
 30
0.0
 11
17.5983342144
 21
5.2527542052
 31
0.0
  0
LINE
  5
AD
330
73
100
AcDbEntity
  8
0
  6
Continuous
 62
   179
370
    18
100
AcDbLine
 10
17.5983342144
 20
5.2527542052
 30
0.0
 11
17.6284997667
 21
5.2828974338
 31
0.0
  0
LINE
  5
AE
330
73
100
AcDbEntity
  8
0
  6
Continuous
 62
   179
370
    18
100
AcDbLine
 10
17.6284997667
 20
5.2828974338
 30
0.0
 11
17.5983342144
 21
5.3582557981
 31
0.0
  0
LINE
  5
AF
330
73
100
AcDbEntity
  8
0
  6
Continuous
 62
   179
370
    18
100
AcDbLine
 10
17.5983342144
 20
5.3582557981
 30
0.0
 11
17.4475034649
 21
5.4939000341
 31
0.0
  0
LINE
  5
B0
330
73
100
AcDbEntity
  8
0
  6
Continuous
 62
   179
370
    18
100
AcDbLine
 10
17.4475034649
 20
5.4939000341
 30
0.0
 11
17.3720885882
 21
5.5240432627
 31
0.0
  0
LINE
  5
B1
330
73
100
AcDbEntity
  8
0
  6
Continuous
 62
   179
370
    18
100
AcDbLine
 10
17.3720885882
 20
5.5240432627
 30
0.0
 11
17.3268392637
 21
5.5240432627
 31
0.0
  0
LINE
  5
B2
330
73
100
AcDbEntity
  8
0
  6
Continuous
 62
   179
370
    18
100
AcDbLine
 10
17.3268392637
 20
5.5240432627
 30
0.0
 11
17.251424387
 21
5.4939000341
 31
0.0
  0
LINE
  5
B3
330
73
100
AcDbEntity
  8
0
  6
Continuous
 62
   179
370
    18
100
AcDbLine
 10
17.251424387
 20
5.4939000341
 30
0.0
 11
17.145842962
 21
5.4185416698
 31
0.0
  0
LINE
  5
B4
330
73
100
AcDbEntity
  8
0
  6
Continuous
 62
   179
370
    18
100
AcDbLine
 10
17.145842962
 20
5.4185416698
 30
0.0
 11
16.949763884
 21
5.2527542052
 31
0.0
  0
LINE
  5
B5
330
73
100
AcDbEntity
  8
0
  6
Continuous
 62
   179
370
    18
100
AcDbLine
 10
16.949763884
 20
5.2527542052
 30
0.0
 11
16.7687665862
 21
5.1171099691
 31
0.0
  0
LINE
  5
B6
330
73
100
AcDbEntity
  8
0
  6
Continuous
 62
   179
370
    18
100
AcDbLine
 10
16.7687665862
 20
5.1171099691
 30
0.0
 11
16.648102385
 21
5.0266808687
 31
0.0
  0
LINE
  5
B7
330
73
100
AcDbEntity
  8
0
  6
Continuous
 62
   179
370
    18
100
AcDbLine
 10
16.648102385
 20
5.0266808687
 30
0.0
 11
16.5123554077
 21
4.9663944115
 31
0.0
  0
LINE
  5
B8
330
73
100
AcDbEntity
  8
0
  6
Continuous
 62
   179
370
    18
100
AcDbLine
 10
16.5123554077
 20
4.9663944115
 30
0.0
 11
16.346441882
 21
4.9362511829
 31
0.0
  0
LINE
  5
B9
330
73
100
AcDbEntity
  8
0
  6
Continuous
 62
   179
370
    18
100
AcDbLine
 10
16.346441882
 20
4.9362511829
 30
0.0
 11
16.2559442291
 21
4.9061079542
 31
0.0
  0
LINE
  5
BA
330
73
100
AcDbEntity
  8
0
  6
Continuous
 62
   179
370
    18
100
AcDbLine
 10
16.2559442291
 20
4.9061079542
 30
0.0
 11
16.1956121285
 21
4.9362511829
 31
0.0
  0
LINE
  5
BB
330
73
100
AcDbEntity
  8
0
  6
Continuous
 62
   179
370
    18
100
AcDbLine
 10
16.1956121285
 20
4.9362511829
 30
0.0
 11
16.1352800279
 21
4.9362511829
 31
0.0
  0
LINE
  5
BC
330
73
100
AcDbEntity
  8
0
  6
Continuous
 62
   179
370
    18
100
AcDbLine
 10
16.1352800279
 20
4.9362511829
 30
0.0
 11
16.0900307035
 21
4.9663944115
 31
0.0
  0
LINE
  5
BD
330
73
100
AcDbEntity
  8
0
  6
Continuous
 62
   179
370
    18
100
AcDbLine
 10
16.0900307035
 20
4.9663944115
 30
0.0
 11
16.0900307035
 21
5.0417521903
 31
0.0
  0
LINE
  5
BE
330
73
100
AcDbEntity
  8
0
  6
Continuous
 62
   179
370
    18
100
AcDbLine
 10
16.0900307035
 20
5.0417521903
 30
0.0
 11
16.0900307035
 21
5.1321818761
 31
0.0
  0
LINE
  5
BF
330
73
100
AcDbEntity
  8
0
  6
Continuous
 62
   179
370
    18
100
AcDbLine
 10
16.0900307035
 20
5.1321818761
 30
0.0
 11
16.2710270053
 21
5.4034703483
 31
0.0
  0
LINE
  5
C0
330
73
100
AcDbEntity
  8
0
  6
Continuous
 62
   179
370
    18
100
AcDbLine
 10
16.2710270053
 20
5.4034703483
 30
0.0
 11
16.6782689333
 21
6.0515482999
 31
0.0
  0
LINE
  5
C1
330
73
100
AcDbEntity
  8
0
  6
Continuous
 62
   179
370
    18
100
AcDbLine
 10
16.6782689333
 20
6.0515482999
 30
0.0
 11
17.2061750626
 21
6.8804856233
 31
0.0
  0
LINE
  5
C2
330
73
100
AcDbEntity
  8
0
  6
Continuous
 62
   179
370
    18
100
AcDbLine
 10
1.8666339798
 20
11.5243414129
 30
0.0
 11
1.4496197195
 21
11.0679582361
 31
0.0
  0
LINE
  5
C3
330
73
100
AcDbEntity
  8
0
  6
Continuous
 62
   179
370
    18
100
AcDbLine
 10
1.4496197195
 20
11.0679582361
 30
0.0
 11
1.0326064552
 21
10.4329908471
 31
0.0
  0
LINE
  5
C4
330
73
100
AcDbEntity
  8
0
  6
Continuous
 62
   179
370
    18
100
AcDbLine
 10
1.0326064552
 20
10.4329908471
 30
0.0
 11
0.7148811622
 21
9.9170794045
 31
0.0
  0
LINE
  5
C5
330
73
100
AcDbEntity
  8
0
  6
Continuous
 62
   179
370
    18
100
AcDbLine
 10
0.7148811622
 20
9.9170794045
 30
0.0
 11
0.4964448366
 21
9.4606968132
 31
0.0
  0
LINE
  5
C6
330
73
100
AcDbEntity
  8
0
  6
Continuous
 62
   179
370
    18
100
AcDbLine
 10
0.4964448366
 20
9.4606968132
 30
0.0
 11
0.2978669019
 21
8.9447853705
 31
0.0
  0
LINE
  5
C7
330
73
100
AcDbEntity
  8
0
  6
Continuous
 62
   179
370
    18
100
AcDbLine
 10
0.2978669019
 20
8.9447853705
 30
0.0
 11
0.1588621485
 21
8.4288745134
 31
0.0
  0
LINE
  5
C8
330
73
100
AcDbEntity
  8
0
  6
Continuous
 62
   179
370
    18
100
AcDbLine
 10
0.1588621485
 20
8.4288745134
 30
0.0
 11
0.0595731812
 21
7.8534348048
 31
0.0
  0
LINE
  5
C9
330
73
100
AcDbEntity
  8
0
  6
Continuous
 62
   179
370
    18
100
AcDbLine
 10
0.0595731812
 20
7.8534348048
 30
0.0
 11
0.0
 21
7.2581527312
 31
0.0
  0
LINE
  5
CA
330
73
100
AcDbEntity
  8
0
  6
Continuous
 62
   179
370
    18
100
AcDbLine
 10
0.0
 20
7.2581527312
 30
0.0
 11
0.0397157861
 21
6.8216125049
 31
0.0
  0
LINE
  5
CB
330
73
100
AcDbEntity
  8
0
  6
Continuous
 62
   179
370
    18
100
AcDbLine
 10
0.0397157861
 20
6.8216125049
 30
0.0
 11
0.1191473584
 21
6.3255445982
 31
0.0
  0
LINE
  5
CC
330
73
100
AcDbEntity
  8
0
  6
Continuous
 62
   179
370
    18
100
AcDbLine
 10
0.1191473584
 20
6.3255445982
 30
0.0
 11
0.3574410791
 21
5.7699478401
 31
0.0
  0
LINE
  5
CD
330
73
100
AcDbEntity
  8
0
  6
Continuous
 62
   179
370
    18
100
AcDbLine
 10
0.3574410791
 20
5.7699478401
 30
0.0
 11
0.7545969483
 21
5.214351082
 31
0.0
  0
LINE
  5
CE
330
73
100
AcDbEntity
  8
0
  6
Continuous
 62
   179
370
    18
100
AcDbLine
 10
0.7545969483
 20
5.214351082
 30
0.0
 11
1.1914686037
 21
4.7778108557
 31
0.0
  0
LINE
  5
CF
330
73
100
AcDbEntity
  8
0
  6
Continuous
 62
   179
370
    18
100
AcDbLine
 10
1.1914686037
 20
4.7778108557
 30
0.0
 11
1.6283402591
 21
4.4404842108
 31
0.0
  0
LINE
  5
D0
330
73
100
AcDbEntity
  8
0
  6
Continuous
 62
   179
370
    18
100
AcDbLine
 10
1.6283402591
 20
4.4404842108
 30
0.0
 11
2.2240750589
 21
4.0833152008
 31
0.0
  0
LINE
  5
D1
330
73
100
AcDbEntity
  8
0
  6
Continuous
 62
   179
370
    18
100
AcDbLine
 10
2.2240750589
 20
4.0833152008
 30
0.0
 11
2.879382044
 21
3.8253597722
 31
0.0
  0
LINE
  5
D2
330
73
100
AcDbEntity
  8
0
  6
Continuous
 62
   179
370
    18
100
AcDbLine
 10
2.879382044
 20
3.8253597722
 30
0.0
 11
3.6538363874
 21
3.5872467086
 31
0.0
  0
LINE
  5
D3
330
73
100
AcDbEntity
  8
0
  6
Continuous
 62
   179
370
    18
100
AcDbLine
 10
3.6538363874
 20
3.5872467086
 30
0.0
 11
4.468006517
 21
3.4285048614
 31
0.0
  0
LINE
  5
D4
330
73
100
AcDbEntity
  8
0
  6
Continuous
 62
   179
370
    18
100
AcDbLine
 10
4.468006517
 20
3.4285048614
 30
0.0
 11
5.2226034653
 21
3.3689765955
 31
0.0
  0
LINE
  5
D5
330
73
100
AcDbEntity
  8
0
  6
Continuous
 62
   179
370
    18
100
AcDbLine
 10
5.2226034653
 20
3.3689765955
 30
0.0
 11
5.8779114464
 21
3.32929128
 31
0.0
  0
LINE
  5
D6
330
73
100
AcDbEntity
  8
0
  6
Continuous
 62
   179
370
    18
100
AcDbLine
 10
5.8779114464
 20
3.32929128
 30
0.0
 11
6.7516547571
 21
3.3689765955
 31
0.0
  0
LINE
  5
D7
330
73
100
AcDbEntity
  8
0
  6
Continuous
 62
   179
370
    18
100
AcDbLine
 10
6.7516547571
 20
3.3689765955
 30
0.0
 11
7.684972245
 21
3.4880331273
 31
0.0
  0
LINE
  5
D8
330
73
100
AcDbEntity
  8
0
  6
Continuous
 62
   179
370
    18
100
AcDbLine
 10
7.684972245
 20
3.4880331273
 30
0.0
 11
8.4395681974
 21
3.666617925
 31
0.0
  0
LINE
  5
D9
330
73
100
AcDbEntity
  8
0
  6
Continuous
 62
   179
370
    18
100
AcDbLine
 10
8.4395681974
 20
3.666617925
 30
0.0
 11
9.293454113
 21
3.9047304031
 31
0.0
  0
LINE
  5
DA
330
73
100
AcDbEntity
  8
0
  6
Continuous
 62
   179
370
    18
100
AcDbLine
 10
9.293454113
 20
3.9047304031
 30
0.0
 11
10.0281936663
 21
4.1825287822
 31
0.0
  0
LINE
  5
DB
330
73
100
AcDbEntity
  8
0
  6
Continuous
 62
   179
370
    18
100
AcDbLine
 10
10.0281936663
 20
4.1825287822
 30
0.0
 11
10.7629322236
 21
4.4801701117
 31
0.0
  0
LINE
  5
DC
330
73
100
AcDbEntity
  8
0
  6
Continuous
 62
   179
370
    18
100
AcDbLine
 10
10.7629322236
 20
4.4801701117
 30
0.0
 11
11.3586660275
 21
4.7976538062
 31
0.0
  0
LINE
  5
DD
330
73
100
AcDbEntity
  8
0
  6
Continuous
 62
   179
370
    18
100
AcDbLine
 10
11.3586660275
 20
4.7976538062
 30
0.0
 11
11.8153960739
 21
5.0754521852
 31
0.0
  0
LINE
  5
DE
330
73
100
AcDbEntity
  8
0
  6
Continuous
 62
   179
370
    18
100
AcDbLine
 10
11.8153960739
 20
5.0754521852
 30
0.0
 11
12.3316993015
 21
5.4326211952
 31
0.0
  0
LINE
  5
DF
330
73
100
AcDbEntity
  8
0
  6
Continuous
 62
   179
370
    18
100
AcDbLine
 10
12.3316993015
 20
5.4326211952
 30
0.0
 11
12.8281441381
 21
5.849318471
 31
0.0
  0
LINE
  5
E0
330
73
100
AcDbEntity
  8
0
  6
Continuous
 62
   179
370
    18
100
AcDbLine
 10
12.8281441381
 20
5.849318471
 30
0.0
 11
13.3047315796
 21
6.3652299137
 31
0.0
  0
LINE
  5
E1
330
73
100
AcDbEntity
  8
0
  6
Continuous
 62
   179
370
    18
100
AcDbLine
 10
13.3047315796
 20
6.3652299137
 30
0.0
 11
13.4635937281
 21
6.5438147114
 31
0.0
  0
LINE
  5
E2
330
73
100
AcDbEntity
  8
0
  6
Continuous
 62
   179
370
    18
100
AcDbLine
 10
13.4635937281
 20
6.5438147114
 30
0.0
 11
13.4834521191
 21
6.6827136082
 31
0.0
  0
LINE
  5
E3
330
73
100
AcDbEntity
  8
0
  6
Continuous
 62
   179
370
    18
100
AcDbLine
 10
13.4834521191
 20
6.6827136082
 30
0.0
 11
13.4238789379
 21
6.7819271895
 31
0.0
  0
LINE
  5
E4
330
73
100
AcDbEntity
  8
0
  6
Continuous
 62
   179
370
    18
100
AcDbLine
 10
13.4238789379
 20
6.7819271895
 30
0.0
 11
13.1657268261
 21
7.0398826181
 31
0.0
  0
LINE
  5
E5
330
73
100
AcDbEntity
  8
0
  6
Continuous
 62
   179
370
    18
100
AcDbLine
 10
13.1657268261
 20
7.0398826181
 30
0.0
 11
12.7685709569
 21
7.3573668981
 31
0.0
  0
LINE
  5
E6
330
73
100
AcDbEntity
  8
0
  6
Continuous
 62
   179
370
    18
100
AcDbLine
 10
12.7685709569
 20
7.3573668981
 30
0.0
 11
12.6494235985
 21
7.3772092631
 31
0.0
  0
LINE
  5
E7
330
73
100
AcDbEntity
  8
0
  6
Continuous
 62
   179
370
    18
100
AcDbLine
 10
12.6494235985
 20
7.3772092631
 30
0.0
 11
12.5501346312
 21
7.3573668981
 31
0.0
  0
LINE
  5
E8
330
73
100
AcDbEntity
  8
0
  6
Continuous
 62
   179
370
    18
100
AcDbLine
 10
12.5501346312
 20
7.3573668981
 30
0.0
 11
12.3515566966
 21
7.1390967849
 31
0.0
  0
LINE
  5
E9
330
73
100
AcDbEntity
  8
0
  6
Continuous
 62
   179
370
    18
100
AcDbLine
 10
12.3515566966
 20
7.1390967849
 30
0.0
 11
12.0735471897
 21
6.8811407708
 31
0.0
  0
LINE
  5
EA
330
73
100
AcDbEntity
  8
0
  6
Continuous
 62
   179
370
    18
100
AcDbLine
 10
12.0735471897
 20
6.8811407708
 30
0.0
 11
11.6763913205
 21
6.5835000268
 31
0.0
  0
LINE
  5
EB
330
73
100
AcDbEntity
  8
0
  6
Continuous
 62
   179
370
    18
100
AcDbLine
 10
11.6763913205
 20
6.5835000268
 30
0.0
 11
11.2792354512
 21
6.2858586973
 31
0.0
  0
LINE
  5
EC
330
73
100
AcDbEntity
  8
0
  6
Continuous
 62
   179
370
    18
100
AcDbLine
 10
11.2792354512
 20
6.2858586973
 30
0.0
 11
10.901936977
 21
6.0675885842
 31
0.0
  0
LINE
  5
ED
330
73
100
AcDbEntity
  8
0
  6
Continuous
 62
   179
370
    18
100
AcDbLine
 10
10.901936977
 20
6.0675885842
 30
0.0
 11
10.4650653217
 21
5.829476106
 31
0.0
  0
LINE
  5
EE
330
73
100
AcDbEntity
  8
0
  6
Continuous
 62
   179
370
    18
100
AcDbLine
 10
10.4650653217
 20
5.829476106
 30
0.0
 11
10.0281936663
 21
5.6310483579
 31
0.0
  0
LINE
  5
EF
330
73
100
AcDbEntity
  8
0
  6
Continuous
 62
   179
370
    18
100
AcDbLine
 10
10.0281936663
 20
5.6310483579
 30
0.0
 11
9.4324588665
 21
5.3929358797
 31
0.0
  0
LINE
  5
F0
330
73
100
AcDbEntity
  8
0
  6
Continuous
 62
   179
370
    18
100
AcDbLine
 10
9.4324588665
 20
5.3929358797
 30
0.0
 11
8.7175777042
 21
5.2540363975
 31
0.0
  0
LINE
  5
F1
330
73
100
AcDbEntity
  8
0
  6
Continuous
 62
   179
370
    18
100
AcDbLine
 10
8.7175777042
 20
5.2540363975
 30
0.0
 11
8.1218439004
 21
5.1945081316
 31
0.0
  0
LINE
  5
F2
330
73
100
AcDbEntity
  8
0
  6
Continuous
 62
   179
370
    18
100
AcDbLine
 10
8.1218439004
 20
5.1945081316
 30
0.0
 11
7.684972245
 21
5.214351082
 31
0.0
  0
LINE
  5
F3
330
73
100
AcDbEntity
  8
0
  6
Continuous
 62
   179
370
    18
100
AcDbLine
 10
7.684972245
 20
5.214351082
 30
0.0
 11
7.2679579847
 21
5.2738793479
 31
0.0
  0
LINE
  5
F4
330
73
100
AcDbEntity
  8
0
  6
Continuous
 62
   179
370
    18
100
AcDbLine
 10
7.2679579847
 20
5.2738793479
 30
0.0
 11
6.9502326917
 21
5.3334076138
 31
0.0
  0
LINE
  5
F5
330
73
100
AcDbEntity
  8
0
  6
Continuous
 62
   179
370
    18
100
AcDbLine
 10
6.9502326917
 20
5.3334076138
 30
0.0
 11
6.6126500037
 21
5.4723065106
 31
0.0
  0
LINE
  5
F6
330
73
100
AcDbEntity
  8
0
  6
Continuous
 62
   179
370
    18
100
AcDbLine
 10
6.6126500037
 20
5.4723065106
 30
0.0
 11
6.3346404968
 21
5.6707342588
 31
0.0
  0
LINE
  5
F7
330
73
100
AcDbEntity
  8
0
  6
Continuous
 62
   179
370
    18
100
AcDbLine
 10
6.3346404968
 20
5.6707342588
 30
0.0
 11
6.1162051671
 21
5.9088467369
 31
0.0
  0
LINE
  5
F8
330
73
100
AcDbEntity
  8
0
  6
Continuous
 62
   179
370
    18
100
AcDbLine
 10
6.1162051671
 20
5.9088467369
 30
0.0
 11
5.9192855012
 21
6.1934542011
 31
0.0
  0
LINE
  5
F9
330
73
100
AcDbEntity
  8
0
  6
Continuous
 62
   179
370
    18
100
AcDbLine
 10
5.9192855012
 20
6.1934542011
 30
0.0
 11
5.7604223568
 21
6.5307808461
 31
0.0
  0
LINE
  5
FA
330
73
100
AcDbEntity
  8
0
  6
Continuous
 62
   179
370
    18
100
AcDbLine
 10
5.7604223568
 20
6.5307808461
 30
0.0
 11
5.7008491756
 21
6.8284221756
 31
0.0
  0
LINE
  5
FB
330
73
100
AcDbEntity
  8
0
  6
Continuous
 62
   179
370
    18
100
AcDbLine
 10
5.7008491756
 20
6.8284221756
 30
0.0
 11
5.6611333895
 21
7.225276501
 31
0.0
  0
LINE
  5
FC
330
73
100
AcDbEntity
  8
0
  6
Continuous
 62
   179
370
    18
100
AcDbLine
 10
5.6611333895
 20
7.225276501
 30
0.0
 11
5.6611333895
 21
7.5427601954
 31
0.0
  0
LINE
  5
FD
330
73
100
AcDbEntity
  8
0
  6
Continuous
 62
   179
370
    18
100
AcDbLine
 10
5.6611333895
 20
7.5427601954
 30
0.0
 11
5.7008491756
 21
7.9793004217
 31
0.0
  0
LINE
  5
FE
330
73
100
AcDbEntity
  8
0
  6
Continuous
 62
   179
370
    18
100
AcDbLine
 10
5.7008491756
 20
7.9793004217
 30
0.0
 11
5.7405649617
 21
8.3959982831
 31
0.0
  0
LINE
  5
FF
330
73
100
AcDbEntity
  8
0
  6
Continuous
 62
   179
370
    18
100
AcDbLine
 10
5.7405649617
 20
8.3959982831
 30
0.0
 11
5.8001381429
 21
8.7134819776
 31
0.0
  0
LINE
  5
100
330
73
100
AcDbEntity
  8
0
  6
Continuous
 62
   179
370
    18
100
AcDbLine
 10
5.8001381429
 20
8.7134819776
 30
0.0
 11
6.1377208309
 21
8.6737960766
 31
0.0
  0
LINE
  5
101
330
73
100
AcDbEntity
  8
0
  6
Continuous
 62
   179
370
    18
100
AcDbLine
 10
6.1377208309
 20
8.6737960766
 30
0.0
 11
6.5150193051
 21
8.6936390271
 31
0.0
  0
LINE
  5
102
330
73
100
AcDbEntity
  8
0
  6
Continuous
 62
   179
370
    18
100
AcDbLine
 10
6.5150193051
 20
8.6936390271
 30
0.0
 11
6.9320335654
 21
8.6936390271
 31
0.0
  0
LINE
  5
103
330
73
100
AcDbEntity
  8
0
  6
Continuous
 62
   179
370
    18
100
AcDbLine
 10
6.9320335654
 20
8.6936390271
 30
0.0
 11
7.4880525791
 21
8.7333243425
 31
0.0
  0
LINE
  5
104
330
73
100
AcDbEntity
  8
0
  6
Continuous
 62
   179
370
    18
100
AcDbLine
 10
7.4880525791
 20
8.7333243425
 30
0.0
 11
8.0639289879
 21
8.7928526084
 31
0.0
  0
LINE
  5
105
330
73
100
AcDbEntity
  8
0
  6
Continuous
 62
   179
370
    18
100
AcDbLine
 10
8.0639289879
 20
8.7928526084
 30
0.0
 11
8.5802312196
 21
8.8523808743
 31
0.0
  0
LINE
  5
106
330
73
100
AcDbEntity
  8
0
  6
Continuous
 62
   179
370
    18
100
AcDbLine
 10
8.5802312196
 20
8.8523808743
 30
0.0
 11
9.1163928382
 21
8.9119091402
 31
0.0
  0
LINE
  5
107
330
73
100
AcDbEntity
  8
0
  6
Continuous
 62
   179
370
    18
100
AcDbLine
 10
9.1163928382
 20
8.9119091402
 30
0.0
 11
9.672410856
 21
9.0111227216
 31
0.0
  0
LINE
  5
108
330
73
100
AcDbEntity
  8
0
  6
Continuous
 62
   179
370
    18
100
AcDbLine
 10
9.672410856
 20
9.0111227216
 30
0.0
 11
10.1489982975
 21
9.1301792534
 31
0.0
  0
LINE
  5
109
330
73
100
AcDbEntity
  8
0
  6
Continuous
 62
   179
370
    18
100
AcDbLine
 10
10.1489982975
 20
9.1301792534
 30
0.0
 11
10.8440220646
 21
9.3286064161
 31
0.0
  0
LINE
  5
10A
330
73
100
AcDbEntity
  8
0
  6
Continuous
 62
   179
370
    18
100
AcDbLine
 10
10.8440220646
 20
9.3286064161
 30
0.0
 11
11.3206095061
 21
9.4873482633
 31
0.0
  0
LINE
  5
10B
330
73
100
AcDbEntity
  8
0
  6
Continuous
 62
   179
370
    18
100
AcDbLine
 10
11.3206095061
 20
9.4873482633
 30
0.0
 11
11.7574811615
 21
9.6460906961
 31
0.0
  0
LINE
  5
10C
330
73
100
AcDbEntity
  8
0
  6
Continuous
 62
   179
370
    18
100
AcDbLine
 10
11.7574811615
 20
9.6460906961
 30
0.0
 11
12.2936417842
 21
9.9040461247
 31
0.0
  0
LINE
  5
10D
330
73
100
AcDbEntity
  8
0
  6
Continuous
 62
   179
370
    18
100
AcDbLine
 10
12.2936417842
 20
9.9040461247
 30
0.0
 11
12.7900866207
 21
10.2016868687
 31
0.0
  0
LINE
  5
10E
330
73
100
AcDbEntity
  8
0
  6
Continuous
 62
   179
370
    18
100
AcDbLine
 10
12.7900866207
 20
10.2016868687
 30
0.0
 11
13.2269582761
 21
10.4596422973
 31
0.0
  0
LINE
  5
10F
330
73
100
AcDbEntity
  8
0
  6
Continuous
 62
   179
370
    18
100
AcDbLine
 10
13.2269582761
 20
10.4596422973
 30
0.0
 11
13.6042567503
 21
10.7175983114
 31
0.0
  0
LINE
  5
110
330
73
100
AcDbEntity
  8
0
  6
Continuous
 62
   179
370
    18
100
AcDbLine
 10
13.6042567503
 20
10.7175983114
 30
0.0
 11
14.0212710106
 21
11.0549249563
 31
0.0
  0
LINE
  5
111
330
73
100
AcDbEntity
  8
0
  6
Continuous
 62
   179
370
    18
100
AcDbLine
 10
14.0212710106
 20
11.0549249563
 30
0.0
 11
14.3985694847
 21
11.4120939662
 31
0.0
  0
LINE
  5
112
330
73
100
AcDbEntity
  8
0
  6
Continuous
 62
   179
370
    18
100
AcDbLine
 10
14.3985694847
 20
11.4120939662
 30
0.0
 11
14.7162947777
 21
11.8089488771
 31
0.0
  0
LINE
  5
113
330
73
100
AcDbEntity
  8
0
  6
Continuous
 62
   179
370
    18
100
AcDbLine
 10
14.7162947777
 20
11.8089488771
 30
0.0
 11
14.9545884985
 21
12.1264325716
 31
0.0
  0
LINE
  5
114
330
73
100
AcDbEntity
  8
0
  6
Continuous
 62
   179
370
    18
100
AcDbLine
 10
14.9545884985
 20
12.1264325716
 30
0.0
 11
15.0935922559
 21
12.523286897
 31
0.0
  0
LINE
  5
115
330
73
100
AcDbEntity
  8
0
  6
Continuous
 62
   179
370
    18
100
AcDbLine
 10
15.0935922559
 20
12.523286897
 30
0.0
 11
15.1531664331
 21
12.9598271233
 31
0.0
  0
LINE
  5
116
330
73
100
AcDbEntity
  8
0
  6
Continuous
 62
   179
370
    18
100
AcDbLine
 10
15.1531664331
 20
12.9598271233
 30
0.0
 11
15.133308042
 21
13.2574684528
 31
0.0
  0
LINE
  5
117
330
73
100
AcDbEntity
  8
0
  6
Continuous
 62
   179
370
    18
100
AcDbLine
 10
15.133308042
 20
13.2574684528
 30
0.0
 11
15.0737348608
 21
13.7336939945
 31
0.0
  0
LINE
  5
118
330
73
100
AcDbEntity
  8
0
  6
Continuous
 62
   179
370
    18
100
AcDbLine
 10
15.0737348608
 20
13.7336939945
 30
0.0
 11
14.8950143213
 21
14.1503912704
 31
0.0
  0
LINE
  5
119
330
73
100
AcDbEntity
  8
0
  6
Continuous
 62
   179
370
    18
100
AcDbLine
 10
14.8950143213
 20
14.1503912704
 30
0.0
 11
14.6765789916
 21
14.5274032308
 31
0.0
  0
LINE
  5
11A
330
73
100
AcDbEntity
  8
0
  6
Continuous
 62
   179
370
    18
100
AcDbLine
 10
14.6765789916
 20
14.5274032308
 30
0.0
 11
14.4184268798
 21
14.8250445603
 31
0.0
  0
LINE
  5
11B
330
73
100
AcDbEntity
  8
0
  6
Continuous
 62
   179
370
    18
100
AcDbLine
 10
14.4184268798
 20
14.8250445603
 30
0.0
 11
14.0808441918
 21
15.1425282548
 31
0.0
  0
LINE
  5
11C
330
73
100
AcDbEntity
  8
0
  6
Continuous
 62
   179
370
    18
100
AcDbLine
 10
14.0808441918
 20
15.1425282548
 30
0.0
 11
13.6241151413
 21
15.4401695843
 31
0.0
  0
LINE
  5
11D
330
73
100
AcDbEntity
  8
0
  6
Continuous
 62
   179
370
    18
100
AcDbLine
 10
13.6241151413
 20
15.4401695843
 30
0.0
 11
13.0680961276
 21
15.6782820624
 31
0.0
  0
LINE
  5
11E
330
73
100
AcDbEntity
  8
0
  6
Continuous
 62
   179
370
    18
100
AcDbLine
 10
13.0680961276
 20
15.6782820624
 30
0.0
 11
12.5319355049
 21
15.8370239097
 31
0.0
  0
LINE
  5
11F
330
73
100
AcDbEntity
  8
0
  6
Continuous
 62
   179
370
    18
100
AcDbLine
 10
12.5319355049
 20
15.8370239097
 30
0.0
 11
11.91634331
 21
15.916395126
 31
0.0
  0
LINE
  5
120
330
73
100
AcDbEntity
  8
0
  6
Continuous
 62
   179
370
    18
100
AcDbLine
 10
11.91634331
 20
15.916395126
 30
0.0
 11
11.3007511151
 21
15.9560804415
 31
0.0
  0
LINE
  5
121
330
73
100
AcDbEntity
  8
0
  6
Continuous
 62
   179
370
    18
100
AcDbLine
 10
11.3007511151
 20
15.9560804415
 30
0.0
 11
10.6851589202
 21
15.9759233919
 31
0.0
  0
LINE
  5
122
330
73
100
AcDbEntity
  8
0
  6
Continuous
 62
   179
370
    18
100
AcDbLine
 10
10.6851589202
 20
15.9759233919
 30
0.0
 11
10.1489982975
 21
15.9560804415
 31
0.0
  0
LINE
  5
123
330
73
100
AcDbEntity
  8
0
  6
Continuous
 62
   179
370
    18
100
AcDbLine
 10
10.1489982975
 20
15.9560804415
 30
0.0
 11
9.4738329214
 21
15.8568668601
 31
0.0
  0
LINE
  5
124
330
73
100
AcDbEntity
  8
0
  6
Continuous
 62
   179
370
    18
100
AcDbLine
 10
9.4738329214
 20
15.8568668601
 30
0.0
 11
8.6993785779
 21
15.7179673779
 31
0.0
  0
LINE
  5
125
330
73
100
AcDbEntity
  8
0
  6
Continuous
 62
   179
370
    18
100
AcDbLine
 10
8.6993785779
 20
15.7179673779
 30
0.0
 11
7.9844974157
 21
15.4798548997
 31
0.0
  0
LINE
  5
126
330
73
100
AcDbEntity
  8
0
  6
Continuous
 62
   179
370
    18
100
AcDbLine
 10
7.9844974157
 20
15.4798548997
 30
0.0
 11
7.3093320396
 21
15.2615847866
 31
0.0
  0
LINE
  5
127
330
73
100
AcDbEntity
  8
0
  6
Continuous
 62
   179
370
    18
100
AcDbLine
 10
7.3093320396
 20
15.2615847866
 30
0.0
 11
6.6341666635
 21
14.9837864075
 31
0.0
  0
LINE
  5
128
330
73
100
AcDbEntity
  8
0
  6
Continuous
 62
   179
370
    18
100
AcDbLine
 10
6.6341666635
 20
14.9837864075
 30
0.0
 11
5.9788586824
 21
14.686145078
 31
0.0
  0
LINE
  5
129
330
73
100
AcDbEntity
  8
0
  6
Continuous
 62
   179
370
    18
100
AcDbLine
 10
5.9788586824
 20
14.686145078
 30
0.0
 11
5.3434090924
 21
14.3289760681
 31
0.0
  0
LINE
  5
12A
330
73
100
AcDbEntity
  8
0
  6
Continuous
 62
   179
370
    18
100
AcDbLine
 10
5.3434090924
 20
14.3289760681
 30
0.0
 11
4.549096358
 21
13.8130652109
 31
0.0
  0
LINE
  5
12B
330
73
100
AcDbEntity
  8
0
  6
Continuous
 62
   179
370
    18
100
AcDbLine
 10
4.549096358
 20
13.8130652109
 30
0.0
 11
3.9290076918
 21
13.3999866974
 31
0.0
  0
LINE
  5
12C
330
73
100
AcDbEntity
  8
0
  6
Continuous
 62
   179
370
    18
100
AcDbLine
 10
3.9290076918
 20
13.3999866974
 30
0.0
 11
3.6341512929
 21
13.1605973607
 31
0.0
  0
LINE
  5
12D
330
73
100
AcDbEntity
  8
0
  6
Continuous
 62
   179
370
    18
100
AcDbLine
 10
3.6341512929
 20
13.1605973607
 30
0.0
 11
3.2369944277
 21
12.8827989816
 31
0.0
  0
LINE
  5
12E
330
73
100
AcDbEntity
  8
0
  6
Continuous
 62
   179
370
    18
100
AcDbLine
 10
3.2369944277
 20
12.8827989816
 30
0.0
 11
2.5815151421
 21
12.3180506491
 31
0.0
  0
LINE
  5
12F
330
73
100
AcDbEntity
  8
0
  6
Continuous
 62
   179
370
    18
100
AcDbLine
 10
2.5815151421
 20
12.3180506491
 30
0.0
 11
2.243932454
 21
11.9807240042
 31
0.0
  0
LINE
  5
130
330
73
100
AcDbEntity
  8
0
  6
Continuous
 62
   179
370
    18
100
AcDbLine
 10
2.243932454
 20
11.9807240042
 30
0.0
 11
1.8666339798
 21
11.5243414129
 31
0.0
  0
LINE
  5
131
330
73
100
AcDbEntity
  8
0
  6
Continuous
 62
   179
370
    18
100
AcDbLine
 10
6.0996344308
 20
9.9736533588
 30
0.0
 11
6.2959395911
 21
10.660198836
 31
0.0
  0
LINE
  5
132
330
73
100
AcDbEntity
  8
0
  6
Continuous
 62
   179
370
    18
100
AcDbLine
 10
6.2959395911
 20
10.660198836
 30
0.0
 11
6.4922447513
 21
11.2977048486
 31
0.0
  0
LINE
  5
133
330
73
100
AcDbEntity
  8
0
  6
Continuous
 62
   179
370
    18
100
AcDbLine
 10
6.4922447513
 20
11.2977048486
 30
0.0
 11
6.8030600931
 21
11.9352114467
 31
0.0
  0
LINE
  5
134
330
73
100
AcDbEntity
  8
0
  6
Continuous
 62
   179
370
    18
100
AcDbLine
 10
6.8030600931
 20
11.9352114467
 30
0.0
 11
7.0811592361
 21
12.3602160406
 31
0.0
  0
LINE
  5
135
330
73
100
AcDbEntity
  8
0
  6
Continuous
 62
   179
370
    18
100
AcDbLine
 10
7.0811592361
 20
12.3602160406
 30
0.0
 11
7.490127158
 21
12.8996442953
 31
0.0
  0
LINE
  5
136
330
73
100
AcDbEntity
  8
0
  6
Continuous
 62
   179
370
    18
100
AcDbLine
 10
7.490127158
 20
12.8996442953
 30
0.0
 11
7.719149513
 21
13.1611851785
 31
0.0
  0
LINE
  5
137
330
73
100
AcDbEntity
  8
0
  6
Continuous
 62
   179
370
    18
100
AcDbLine
 10
7.719149513
 20
13.1611851785
 30
0.0
 11
7.9808890627
 21
13.4554190381
 31
0.0
  0
LINE
  5
138
330
73
100
AcDbEntity
  8
0
  6
Continuous
 62
   179
370
    18
100
AcDbLine
 10
7.9808890627
 20
13.4554190381
 30
0.0
 11
8.2753468031
 21
13.7006140186
 31
0.0
  0
LINE
  5
139
330
73
100
AcDbEntity
  8
0
  6
Continuous
 62
   179
370
    18
100
AcDbLine
 10
8.2753468031
 20
13.7006140186
 30
0.0
 11
8.6515975302
 21
13.9948472927
 31
0.0
  0
LINE
  5
13A
330
73
100
AcDbEntity
  8
0
  6
Continuous
 62
   179
370
    18
100
AcDbLine
 10
8.6515975302
 20
13.9948472927
 30
0.0
 11
8.9460542746
 21
14.125618027
 31
0.0
  0
LINE
  5
13B
330
73
100
AcDbEntity
  8
0
  6
Continuous
 62
   179
370
    18
100
AcDbLine
 10
8.9460542746
 20
14.125618027
 30
0.0
 11
9.2568706124
 21
14.2563887614
 31
0.0
  0
LINE
  5
13C
330
73
100
AcDbEntity
  8
0
  6
Continuous
 62
   179
370
    18
100
AcDbLine
 10
9.2568706124
 20
14.2563887614
 30
0.0
 11
9.6167627422
 21
14.3217741286
 31
0.0
  0
LINE
  5
13D
330
73
100
AcDbEntity
  8
0
  6
Continuous
 62
   179
370
    18
100
AcDbLine
 10
9.6167627422
 20
14.3217741286
 30
0.0
 11
9.9275790799
 21
14.3217741286
 31
0.0
  0
LINE
  5
13E
330
73
100
AcDbEntity
  8
0
  6
Continuous
 62
   179
370
    18
100
AcDbLine
 10
9.9275790799
 20
14.3217741286
 30
0.0
 11
10.1729600323
 21
14.2890811522
 31
0.0
  0
LINE
  5
13F
330
73
100
AcDbEntity
  8
0
  6
Continuous
 62
   179
370
    18
100
AcDbLine
 10
10.1729600323
 20
14.2890811522
 30
0.0
 11
10.3856227939
 21
14.2236957851
 31
0.0
  0
LINE
  5
140
330
73
100
AcDbEntity
  8
0
  6
Continuous
 62
   179
370
    18
100
AcDbLine
 10
10.3856227939
 20
14.2236957851
 30
0.0
 11
10.5655693568
 21
14.0602326599
 31
0.0
  0
LINE
  5
141
330
73
100
AcDbEntity
  8
0
  6
Continuous
 62
   179
370
    18
100
AcDbLine
 10
10.5655693568
 20
14.0602326599
 30
0.0
 11
10.6800805343
 21
13.8967695347
 31
0.0
  0
LINE
  5
142
330
73
100
AcDbEntity
  8
0
  6
Continuous
 62
   179
370
    18
100
AcDbLine
 10
10.6800805343
 20
13.8967695347
 30
0.0
 11
10.7291563264
 21
13.5534967961
 31
0.0
  0
LINE
  5
143
330
73
100
AcDbEntity
  8
0
  6
Continuous
 62
   179
370
    18
100
AcDbLine
 10
10.7291563264
 20
13.5534967961
 30
0.0
 11
10.712797729
 21
13.259263522
 31
0.0
  0
LINE
  5
144
330
73
100
AcDbEntity
  8
0
  6
Continuous
 62
   179
370
    18
100
AcDbLine
 10
10.712797729
 20
13.259263522
 30
0.0
 11
10.6637219369
 21
12.9159907834
 31
0.0
  0
LINE
  5
145
330
73
100
AcDbEntity
  8
0
  6
Continuous
 62
   179
370
    18
100
AcDbLine
 10
10.6637219369
 20
12.9159907834
 30
0.0
 11
10.5492107594
 21
12.5563715567
 31
0.0
  0
LINE
  5
146
330
73
100
AcDbEntity
  8
0
  6
Continuous
 62
   179
370
    18
100
AcDbLine
 10
10.5492107594
 20
12.5563715567
 30
0.0
 11
10.4019823872
 21
12.2457917945
 31
0.0
  0
LINE
  5
147
330
73
100
AcDbEntity
  8
0
  6
Continuous
 62
   179
370
    18
100
AcDbLine
 10
10.4019823872
 20
12.2457917945
 30
0.0
 11
10.1238832442
 21
11.8371336887
 31
0.0
  0
LINE
  5
148
330
73
100
AcDbEntity
  8
0
  6
Continuous
 62
   179
370
    18
100
AcDbLine
 10
10.1238832442
 20
11.8371336887
 30
0.0
 11
9.8130679024
 21
11.4938609501
 31
0.0
  0
LINE
  5
149
330
73
100
AcDbEntity
  8
0
  6
Continuous
 62
   179
370
    18
100
AcDbLine
 10
9.8130679024
 20
11.4938609501
 30
0.0
 11
9.5022515647
 21
11.1832811879
 31
0.0
  0
LINE
  5
14A
330
73
100
AcDbEntity
  8
0
  6
Continuous
 62
   179
370
    18
100
AcDbLine
 10
9.5022515647
 20
11.1832811879
 30
0.0
 11
9.191435227
 21
10.9217397192
 31
0.0
  0
LINE
  5
14B
330
73
100
AcDbEntity
  8
0
  6
Continuous
 62
   179
370
    18
100
AcDbLine
 10
9.191435227
 20
10.9217397192
 30
0.0
 11
8.7988259024
 21
10.6438523478
 31
0.0
  0
LINE
  5
14C
330
73
100
AcDbEntity
  8
0
  6
Continuous
 62
   179
370
    18
100
AcDbLine
 10
8.7988259024
 20
10.6438523478
 30
0.0
 11
8.3407811925
 21
10.3659649764
 31
0.0
  0
LINE
  5
14D
330
73
100
AcDbEntity
  8
0
  6
Continuous
 62
   179
370
    18
100
AcDbLine
 10
8.3407811925
 20
10.3659649764
 30
0.0
 11
7.8336606905
 21
10.186155363
 31
0.0
  0
LINE
  5
14E
330
73
100
AcDbEntity
  8
0
  6
Continuous
 62
   179
370
    18
100
AcDbLine
 10
7.8336606905
 20
10.186155363
 30
0.0
 11
7.3101815911
 21
10.039038726
 31
0.0
  0
LINE
  5
14F
330
73
100
AcDbEntity
  8
0
  6
Continuous
 62
   179
370
    18
100
AcDbLine
 10
7.3101815911
 20
10.039038726
 30
0.0
 11
6.8030600931
 21
9.989999847
 31
0.0
  0
LINE
  5
150
330
73
100
AcDbEntity
  8
0
  6
Continuous
 62
   179
370
    18
100
AcDbLine
 10
6.8030600931
 20
9.989999847
 30
0.0
 11
6.3940921712
 21
9.9573068706
 31
0.0
  0
LINE
  5
151
330
73
100
AcDbEntity
  8
0
  6
Continuous
 62
   179
370
    18
100
AcDbLine
 10
6.3940921712
 20
9.9573068706
 30
0.0
 11
6.0996344308
 21
9.9736533588
 31
0.0
  0
LINE
  5
152
330
73
100
AcDbEntity
  8
0
  6
Continuous
 62
   179
370
    18
100
AcDbLine
 10
28.8842186761
 20
7.3765494317
 30
0.0
 11
28.7524734548
 21
7.53452372
 31
0.0
  0
LINE
  5
153
330
73
100
AcDbEntity
  8
0
  6
Continuous
 62
   179
370
    18
100
AcDbLine
 10
28.7524734548
 20
7.53452372
 30
0.0
 11
28.708558713
 21
7.6749454397
 31
0.0
  0
LINE
  5
154
330
73
100
AcDbEntity
  8
0
  6
Continuous
 62
   179
370
    18
100
AcDbLine
 10
28.708558713
 20
7.6749454397
 30
0.0
 11
28.743691104
 21
7.8065902896
 31
0.0
  0
LINE
  5
155
330
73
100
AcDbEntity
  8
0
  6
Continuous
 62
   179
370
    18
100
AcDbLine
 10
28.743691104
 20
7.8065902896
 30
0.0
 11
28.81395489
 21
7.9031300023
 31
0.0
  0
LINE
  5
156
330
73
100
AcDbEntity
  8
0
  6
Continuous
 62
   179
370
    18
100
AcDbLine
 10
28.81395489
 20
7.9031300023
 30
0.0
 11
28.8842186761
 21
7.9557882936
 31
0.0
  0
LINE
  5
157
330
73
100
AcDbEntity
  8
0
  6
Continuous
 62
   179
370
    18
100
AcDbLine
 10
28.8842186761
 20
7.9557882936
 30
0.0
 11
29.024747244
 21
7.9908934308
 31
0.0
  0
LINE
  5
158
330
73
100
AcDbEntity
  8
0
  6
Continuous
 62
   179
370
    18
100
AcDbLine
 10
29.024747244
 20
7.9908934308
 30
0.0
 11
29.1740581628
 21
7.9996697151
 31
0.0
  0
LINE
  5
159
330
73
100
AcDbEntity
  8
0
  6
Continuous
 62
   179
370
    18
100
AcDbLine
 10
29.1740581628
 20
7.9996697151
 30
0.0
 11
29.3145867308
 21
7.9645645779
 31
0.0
  0
LINE
  5
15A
330
73
100
AcDbEntity
  8
0
  6
Continuous
 62
   179
370
    18
100
AcDbLine
 10
29.3145867308
 20
7.9645645779
 30
0.0
 11
29.4638976495
 21
7.9031300023
 31
0.0
  0
LINE
  5
15B
330
73
100
AcDbEntity
  8
0
  6
Continuous
 62
   179
370
    18
100
AcDbLine
 10
29.4638976495
 20
7.9031300023
 30
0.0
 11
29.6044252215
 21
7.7978140053
 31
0.0
  0
LINE
  5
15C
330
73
100
AcDbEntity
  8
0
  6
Continuous
 62
   179
370
    18
100
AcDbLine
 10
29.6044252215
 20
7.7978140053
 30
0.0
 11
29.7888685313
 21
7.6047345798
 31
0.0
  0
LINE
  5
15D
330
73
100
AcDbEntity
  8
0
  6
Continuous
 62
   179
370
    18
100
AcDbLine
 10
29.7888685313
 20
7.6047345798
 30
0.0
 11
30.0962737155
 21
7.2800097189
 31
0.0
  0
LINE
  5
15E
330
73
100
AcDbEntity
  8
0
  6
Continuous
 62
   179
370
    18
100
AcDbLine
 10
30.0962737155
 20
7.2800097189
 30
0.0
 11
30.3070660695
 21
7.0693777249
 31
0.0
  0
LINE
  5
15F
330
73
100
AcDbEntity
  8
0
  6
Continuous
 62
   179
370
    18
100
AcDbLine
 10
30.3070660695
 20
7.0693777249
 30
0.0
 11
30.4388112908
 21
6.999166865
 31
0.0
  0
LINE
  5
160
330
73
100
AcDbEntity
  8
0
  6
Continuous
 62
   179
370
    18
100
AcDbLine
 10
30.4388112908
 20
6.999166865
 30
0.0
 11
30.5969055563
 21
6.9816142964
 31
0.0
  0
LINE
  5
161
330
73
100
AcDbEntity
  8
0
  6
Continuous
 62
   179
370
    18
100
AcDbLine
 10
30.5969055563
 20
6.9816142964
 30
0.0
 11
30.746216475
 21
6.9816142964
 31
0.0
  0
LINE
  5
162
330
73
100
AcDbEntity
  8
0
  6
Continuous
 62
   179
370
    18
100
AcDbLine
 10
30.746216475
 20
6.9816142964
 30
0.0
 11
30.9306597848
 21
6.999166865
 31
0.0
  0
LINE
  5
163
330
73
100
AcDbEntity
  8
0
  6
Continuous
 62
   179
370
    18
100
AcDbLine
 10
30.9306597848
 20
6.999166865
 30
0.0
 11
31.097537397
 21
7.0693777249
 31
0.0
  0
LINE
  5
164
330
73
100
AcDbEntity
  8
0
  6
Continuous
 62
   179
370
    18
100
AcDbLine
 10
31.097537397
 20
7.0693777249
 30
0.0
 11
31.1941502272
 21
7.1395885847
 31
0.0
  0
LINE
  5
165
330
73
100
AcDbEntity
  8
0
  6
Continuous
 62
   179
370
    18
100
AcDbLine
 10
31.1941502272
 20
7.1395885847
 30
0.0
 11
31.2907630575
 21
7.2361282974
 31
0.0
  0
LINE
  5
166
330
73
100
AcDbEntity
  8
0
  6
Continuous
 62
   179
370
    18
100
AcDbLine
 10
31.2907630575
 20
7.2361282974
 30
0.0
 11
31.3610278395
 21
7.3677731474
 31
0.0
  0
LINE
  5
167
330
73
100
AcDbEntity
  8
0
  6
Continuous
 62
   179
370
    18
100
AcDbLine
 10
31.3610278395
 20
7.3677731474
 30
0.0
 11
31.3961592345
 21
7.5257474357
 31
0.0
  0
LINE
  5
168
330
73
100
AcDbEntity
  8
0
  6
Continuous
 62
   179
370
    18
100
AcDbLine
 10
31.3961592345
 20
7.5257474357
 30
0.0
 11
31.3961592345
 21
7.7188268611
 31
0.0
  0
LINE
  5
169
330
73
100
AcDbEntity
  8
0
  6
Continuous
 62
   179
370
    18
100
AcDbLine
 10
31.3961592345
 20
7.7188268611
 30
0.0
 11
31.3346787952
 21
7.8592485808
 31
0.0
  0
LINE
  5
16A
330
73
100
AcDbEntity
  8
0
  6
Continuous
 62
   179
370
    18
100
AcDbLine
 10
31.3346787952
 20
7.8592485808
 30
0.0
 11
31.1853668805
 21
7.9821171465
 31
0.0
  0
LINE
  5
16B
330
73
100
AcDbEntity
  8
0
  6
Continuous
 62
   179
370
    18
100
AcDbLine
 10
31.1853668805
 20
7.9821171465
 30
0.0
 11
31.0887540502
 21
8.0523280063
 31
0.0
  0
LINE
  5
16C
330
73
100
AcDbEntity
  8
0
  6
Continuous
 62
   179
370
    18
100
AcDbLine
 10
31.0887540502
 20
8.0523280063
 30
0.0
 11
30.9218779249
 21
8.1237920708
 31
0.0
  0
LINE
  5
16D
330
73
100
AcDbEntity
  8
0
  6
Continuous
 62
   179
370
    18
100
AcDbLine
 10
30.9218779249
 20
8.1237920708
 30
0.0
 11
30.7549998218
 21
8.2190785789
 31
0.0
  0
LINE
  5
16E
330
73
100
AcDbEntity
  8
0
  6
Continuous
 62
   179
370
    18
100
AcDbLine
 10
30.7549998218
 20
8.2190785789
 30
0.0
 11
30.535424121
 21
8.3068420074
 31
0.0
  0
LINE
  5
16F
330
73
100
AcDbEntity
  8
0
  6
Continuous
 62
   179
370
    18
100
AcDbLine
 10
30.535424121
 20
8.3068420074
 30
0.0
 11
30.254367981
 21
8.3682759974
 31
0.0
  0
LINE
  5
170
330
73
100
AcDbEntity
  8
0
  6
Continuous
 62
   179
370
    18
100
AcDbLine
 10
30.254367981
 20
8.3682759974
 30
0.0
 11
29.9820951878
 21
8.4033817201
 31
0.0
  0
LINE
  5
171
330
73
100
AcDbEntity
  8
0
  6
Continuous
 62
   179
370
    18
100
AcDbLine
 10
29.9820951878
 20
8.4033817201
 30
0.0
 11
29.7186047453
 21
8.429710573
 31
0.0
  0
LINE
  5
172
330
73
100
AcDbEntity
  8
0
  6
Continuous
 62
   179
370
    18
100
AcDbLine
 10
29.7186047453
 20
8.429710573
 30
0.0
 11
29.3672848193
 21
8.429710573
 31
0.0
  0
LINE
  5
173
330
73
100
AcDbEntity
  8
0
  6
Continuous
 62
   179
370
    18
100
AcDbLine
 10
29.3672848193
 20
8.429710573
 30
0.0
 11
29.1037943768
 21
8.4033817201
 31
0.0
  0
LINE
  5
174
330
73
100
AcDbEntity
  8
0
  6
Continuous
 62
   179
370
    18
100
AcDbLine
 10
29.1037943768
 20
8.4033817201
 30
0.0
 11
28.7524734548
 21
8.3507234288
 31
0.0
  0
LINE
  5
175
330
73
100
AcDbEntity
  8
0
  6
Continuous
 62
   179
370
    18
100
AcDbLine
 10
28.7524734548
 20
8.3507234288
 30
0.0
 11
28.3923701821
 21
8.2541837161
 31
0.0
  0
LINE
  5
176
330
73
100
AcDbEntity
  8
0
  6
Continuous
 62
   179
370
    18
100
AcDbLine
 10
28.3923701821
 20
8.2541837161
 30
0.0
 11
28.0849649978
 21
8.0962094278
 31
0.0
  0
LINE
  5
177
330
73
100
AcDbEntity
  8
0
  6
Continuous
 62
   179
370
    18
100
AcDbLine
 10
28.0849649978
 20
8.0962094278
 30
0.0
 11
27.8214745553
 21
7.938235725
 31
0.0
  0
LINE
  5
178
330
73
100
AcDbEntity
  8
0
  6
Continuous
 62
   179
370
    18
100
AcDbLine
 10
27.8214745553
 20
7.938235725
 30
0.0
 11
27.5492017621
 21
7.7188268611
 31
0.0
  0
LINE
  5
179
330
73
100
AcDbEntity
  8
0
  6
Continuous
 62
   179
370
    18
100
AcDbLine
 10
27.5492017621
 20
7.7188268611
 30
0.0
 11
27.3998908433
 21
7.5081948671
 31
0.0
  0
LINE
  5
17A
330
73
100
AcDbEntity
  8
0
  6
Continuous
 62
   179
370
    18
100
AcDbLine
 10
27.3998908433
 20
7.5081948671
 30
0.0
 11
27.3120603638
 21
7.3414442945
 31
0.0
  0
LINE
  5
17B
330
73
100
AcDbEntity
  8
0
  6
Continuous
 62
   179
370
    18
100
AcDbLine
 10
27.3120603638
 20
7.3414442945
 30
0.0
 11
27.2505789286
 21
7.1132591463
 31
0.0
  0
LINE
  5
17C
330
73
100
AcDbEntity
  8
0
  6
Continuous
 62
   179
370
    18
100
AcDbLine
 10
27.2505789286
 20
7.1132591463
 30
0.0
 11
27.2593622753
 21
6.893850868
 31
0.0
  0
LINE
  5
17D
330
73
100
AcDbEntity
  8
0
  6
Continuous
 62
   179
370
    18
100
AcDbLine
 10
27.2593622753
 20
6.893850868
 30
0.0
 11
27.2944946663
 21
6.6656657198
 31
0.0
  0
LINE
  5
17E
330
73
100
AcDbEntity
  8
0
  6
Continuous
 62
   179
370
    18
100
AcDbLine
 10
27.2944946663
 20
6.6656657198
 30
0.0
 11
27.3998908433
 21
6.5076914315
 31
0.0
  0
LINE
  5
17F
330
73
100
AcDbEntity
  8
0
  6
Continuous
 62
   179
370
    18
100
AcDbLine
 10
27.3998908433
 20
6.5076914315
 30
0.0
 11
27.5579841128
 21
6.2882831532
 31
0.0
  0
LINE
  5
180
330
73
100
AcDbEntity
  8
0
  6
Continuous
 62
   179
370
    18
100
AcDbLine
 10
27.5579841128
 20
6.2882831532
 30
0.0
 11
27.7863431603
 21
6.0425454364
 31
0.0
  0
LINE
  5
181
330
73
100
AcDbEntity
  8
0
  6
Continuous
 62
   179
370
    18
100
AcDbLine
 10
27.7863431603
 20
6.0425454364
 30
0.0
 11
28.1113140421
 21
5.7178205755
 31
0.0
  0
LINE
  5
182
330
73
100
AcDbEntity
  8
0
  6
Continuous
 62
   179
370
    18
100
AcDbLine
 10
28.1113140421
 20
5.7178205755
 30
0.0
 11
28.4538516173
 21
5.3404380089
 31
0.0
  0
LINE
  5
183
330
73
100
AcDbEntity
  8
0
  6
Continuous
 62
   179
370
    18
100
AcDbLine
 10
28.4538516173
 20
5.3404380089
 30
0.0
 11
28.6734263221
 21
5.1122534462
 31
0.0
  0
LINE
  5
184
330
73
100
AcDbEntity
  8
0
  6
Continuous
 62
   179
370
    18
100
AcDbLine
 10
28.6734263221
 20
5.1122534462
 30
0.0
 11
28.7876058458
 21
4.9542791579
 31
0.0
  0
LINE
  5
185
330
73
100
AcDbEntity
  8
0
  6
Continuous
 62
   179
370
    18
100
AcDbLine
 10
28.7876058458
 20
4.9542791579
 30
0.0
 11
28.8315205876
 21
4.7875285853
 31
0.0
  0
LINE
  5
186
330
73
100
AcDbEntity
  8
0
  6
Continuous
 62
   179
370
    18
100
AcDbLine
 10
28.8315205876
 20
4.7875285853
 30
0.0
 11
28.8227382368
 21
4.6822125883
 31
0.0
  0
LINE
  5
187
330
73
100
AcDbEntity
  8
0
  6
Continuous
 62
   179
370
    18
100
AcDbLine
 10
28.8227382368
 20
4.6822125883
 30
0.0
 11
28.8051715433
 21
4.6207780127
 31
0.0
  0
LINE
  5
188
330
73
100
AcDbEntity
  8
0
  6
Continuous
 62
   179
370
    18
100
AcDbLine
 10
28.8051715433
 20
4.6207780127
 30
0.0
 11
28.743691104
 21
4.5593434372
 31
0.0
  0
LINE
  5
189
330
73
100
AcDbEntity
  8
0
  6
Continuous
 62
   179
370
    18
100
AcDbLine
 10
28.743691104
 20
4.5593434372
 30
0.0
 11
28.6207282336
 21
4.5066857314
 31
0.0
  0
LINE
  5
18A
330
73
100
AcDbEntity
  8
0
  6
Continuous
 62
   179
370
    18
100
AcDbLine
 10
28.6207282336
 20
4.5066857314
 30
0.0
 11
28.4362859198
 21
4.4979094471
 31
0.0
  0
LINE
  5
18B
330
73
100
AcDbEntity
  8
0
  6
Continuous
 62
   179
370
    18
100
AcDbLine
 10
28.4362859198
 20
4.4979094471
 30
0.0
 11
28.2781916543
 21
4.5242383
 31
0.0
  0
LINE
  5
18C
330
73
100
AcDbEntity
  8
0
  6
Continuous
 62
   179
370
    18
100
AcDbLine
 10
28.2781916543
 20
4.5242383
 30
0.0
 11
28.1376630863
 21
4.5681197215
 31
0.0
  0
LINE
  5
18D
330
73
100
AcDbEntity
  8
0
  6
Continuous
 62
   179
370
    18
100
AcDbLine
 10
28.1376630863
 20
4.5681197215
 30
0.0
 11
27.9532197766
 21
4.6909888726
 31
0.0
  0
LINE
  5
18E
330
73
100
AcDbEntity
  8
0
  6
Continuous
 62
   179
370
    18
100
AcDbLine
 10
27.9532197766
 20
4.6909888726
 30
0.0
 11
27.7512107693
 21
4.8840682981
 31
0.0
  0
LINE
  5
18F
330
73
100
AcDbEntity
  8
0
  6
Continuous
 62
   179
370
    18
100
AcDbLine
 10
27.7512107693
 20
4.8840682981
 30
0.0
 11
27.5755508063
 21
5.0859240078
 31
0.0
  0
LINE
  5
190
330
73
100
AcDbEntity
  8
0
  6
Continuous
 62
   179
370
    18
100
AcDbLine
 10
27.5755508063
 20
5.0859240078
 30
0.0
 11
27.3647584523
 21
5.2877803031
 31
0.0
  0
LINE
  5
191
330
73
100
AcDbEntity
  8
0
  6
Continuous
 62
   179
370
    18
100
AcDbLine
 10
27.3647584523
 20
5.2877803031
 30
0.0
 11
27.1627494451
 21
5.4282014373
 31
0.0
  0
LINE
  5
192
330
73
100
AcDbEntity
  8
0
  6
Continuous
 62
   179
370
    18
100
AcDbLine
 10
27.1627494451
 20
5.4282014373
 30
0.0
 11
27.0397865746
 21
5.4896360129
 31
0.0
  0
LINE
  5
193
330
73
100
AcDbEntity
  8
0
  6
Continuous
 62
   179
370
    18
100
AcDbLine
 10
27.0397865746
 20
5.4896360129
 30
0.0
 11
26.8816933051
 21
5.5159648658
 31
0.0
  0
LINE
  5
194
330
73
100
AcDbEntity
  8
0
  6
Continuous
 62
   179
370
    18
100
AcDbLine
 10
26.8816933051
 20
5.5159648658
 30
0.0
 11
26.6884666486
 21
5.5159648658
 31
0.0
  0
LINE
  5
195
330
73
100
AcDbEntity
  8
0
  6
Continuous
 62
   179
370
    18
100
AcDbLine
 10
26.6884666486
 20
5.5159648658
 30
0.0
 11
26.4688909479
 21
5.4896360129
 31
0.0
  0
LINE
  5
196
330
73
100
AcDbEntity
  8
0
  6
Continuous
 62
   179
370
    18
100
AcDbLine
 10
26.4688909479
 20
5.4896360129
 30
0.0
 11
26.3195800291
 21
5.4106488687
 31
0.0
  0
LINE
  5
197
330
73
100
AcDbEntity
  8
0
  6
Continuous
 62
   179
370
    18
100
AcDbLine
 10
26.3195800291
 20
5.4106488687
 30
0.0
 11
26.1966181546
 21
5.2965565874
 31
0.0
  0
LINE
  5
198
330
73
100
AcDbEntity
  8
0
  6
Continuous
 62
   179
370
    18
100
AcDbLine
 10
26.1966181546
 20
5.2965565874
 30
0.0
 11
26.1351367194
 21
5.2000168746
 31
0.0
  0
LINE
  5
199
330
73
100
AcDbEntity
  8
0
  6
Continuous
 62
   179
370
    18
100
AcDbLine
 10
26.1351367194
 20
5.2000168746
 30
0.0
 11
26.1263543686
 21
5.0332663021
 31
0.0
  0
LINE
  5
19A
330
73
100
AcDbEntity
  8
0
  6
Continuous
 62
   179
370
    18
100
AcDbLine
 10
26.1263543686
 20
5.0332663021
 30
0.0
 11
26.1175710219
 21
4.8840682981
 31
0.0
  0
LINE
  5
19B
330
73
100
AcDbEntity
  8
0
  6
Continuous
 62
   179
370
    18
100
AcDbLine
 10
26.1175710219
 20
4.8840682981
 30
0.0
 11
26.1702691104
 21
4.7524228627
 31
0.0
  0
LINE
  5
19C
330
73
100
AcDbEntity
  8
0
  6
Continuous
 62
   179
370
    18
100
AcDbLine
 10
26.1702691104
 20
4.7524228627
 30
0.0
 11
26.2756652873
 21
4.6120017284
 31
0.0
  0
LINE
  5
19D
330
73
100
AcDbEntity
  8
0
  6
Continuous
 62
   179
370
    18
100
AcDbLine
 10
26.2756652873
 20
4.6120017284
 30
0.0
 11
26.3986271619
 21
4.5066857314
 31
0.0
  0
LINE
  5
19E
330
73
100
AcDbEntity
  8
0
  6
Continuous
 62
   179
370
    18
100
AcDbLine
 10
26.3986271619
 20
4.5066857314
 30
0.0
 11
26.5391557298
 21
4.4101460186
 31
0.0
  0
LINE
  5
19F
330
73
100
AcDbEntity
  8
0
  6
Continuous
 62
   179
370
    18
100
AcDbLine
 10
26.5391557298
 20
4.4101460186
 30
0.0
 11
26.7148156928
 21
4.3399351588
 31
0.0
  0
LINE
  5
1A0
330
73
100
AcDbEntity
  8
0
  6
Continuous
 62
   179
370
    18
100
AcDbLine
 10
26.7148156928
 20
4.3399351588
 30
0.0
 11
26.9695227886
 21
4.2346191618
 31
0.0
  0
LINE
  5
1A1
330
73
100
AcDbEntity
  8
0
  6
Continuous
 62
   179
370
    18
100
AcDbLine
 10
26.9695227886
 20
4.2346191618
 30
0.0
 11
27.3120603638
 21
4.1293025792
 31
0.0
  0
LINE
  5
1A2
330
73
100
AcDbEntity
  8
0
  6
Continuous
 62
   179
370
    18
100
AcDbLine
 10
27.3120603638
 20
4.1293025792
 30
0.0
 11
27.5755508063
 21
4.0766448735
 31
0.0
  0
LINE
  5
1A3
330
73
100
AcDbEntity
  8
0
  6
Continuous
 62
   179
370
    18
100
AcDbLine
 10
27.5755508063
 20
4.0766448735
 30
0.0
 11
27.8214745553
 21
4.0503160206
 31
0.0
  0
LINE
  5
1A4
330
73
100
AcDbEntity
  8
0
  6
Continuous
 62
   179
370
    18
100
AcDbLine
 10
27.8214745553
 20
4.0503160206
 30
0.0
 11
28.1200973888
 21
4.0415391508
 31
0.0
  0
LINE
  5
1A5
330
73
100
AcDbEntity
  8
0
  6
Continuous
 62
   179
370
    18
100
AcDbLine
 10
28.1200973888
 20
4.0415391508
 30
0.0
 11
28.427502573
 21
4.0503160206
 31
0.0
  0
LINE
  5
1A6
330
73
100
AcDbEntity
  8
0
  6
Continuous
 62
   179
370
    18
100
AcDbLine
 10
28.427502573
 20
4.0503160206
 30
0.0
 11
28.8578696318
 21
4.1117500107
 31
0.0
  0
LINE
  5
1A7
330
73
100
AcDbEntity
  8
0
  6
Continuous
 62
   179
370
    18
100
AcDbLine
 10
28.8578696318
 20
4.1117500107
 30
0.0
 11
29.1740581628
 21
4.2082897234
 31
0.0
  0
LINE
  5
1A8
330
73
100
AcDbEntity
  8
0
  6
Continuous
 62
   179
370
    18
100
AcDbLine
 10
29.1740581628
 20
4.2082897234
 30
0.0
 11
29.621991915
 21
4.375040296
 31
0.0
  0
LINE
  5
1A9
330
73
100
AcDbEntity
  8
0
  6
Continuous
 62
   179
370
    18
100
AcDbLine
 10
29.621991915
 20
4.375040296
 30
0.0
 11
29.9557461435
 21
4.5768965912
 31
0.0
  0
LINE
  5
1AA
330
73
100
AcDbEntity
  8
0
  6
Continuous
 62
   179
370
    18
100
AcDbLine
 10
29.9557461435
 20
4.5768965912
 30
0.0
 11
30.219236586
 21
4.8401862911
 31
0.0
  0
LINE
  5
1AB
330
73
100
AcDbEntity
  8
0
  6
Continuous
 62
   179
370
    18
100
AcDbLine
 10
30.219236586
 20
4.8401862911
 30
0.0
 11
30.3773308515
 21
5.0859240078
 31
0.0
  0
LINE
  5
1AC
330
73
100
AcDbEntity
  8
0
  6
Continuous
 62
   179
370
    18
100
AcDbLine
 10
30.3773308515
 20
5.0859240078
 30
0.0
 11
30.43002894
 21
5.314109156
 31
0.0
  0
LINE
  5
1AD
330
73
100
AcDbEntity
  8
0
  6
Continuous
 62
   179
370
    18
100
AcDbLine
 10
30.43002894
 20
5.314109156
 30
0.0
 11
30.43002894
 21
5.4808597286
 31
0.0
  0
LINE
  5
1AE
330
73
100
AcDbEntity
  8
0
  6
Continuous
 62
   179
370
    18
100
AcDbLine
 10
30.43002894
 20
5.4808597286
 30
0.0
 11
30.4036798957
 21
5.6739391541
 31
0.0
  0
LINE
  5
1AF
330
73
100
AcDbEntity
  8
0
  6
Continuous
 62
   179
370
    18
100
AcDbLine
 10
30.4036798957
 20
5.6739391541
 30
0.0
 11
30.324632763
 21
5.8933474324
 31
0.0
  0
LINE
  5
1B0
330
73
100
AcDbEntity
  8
0
  6
Continuous
 62
   179
370
    18
100
AcDbLine
 10
30.324632763
 20
5.8933474324
 30
0.0
 11
30.1577551508
 21
6.1478614335
 31
0.0
  0
LINE
  5
1B1
330
73
100
AcDbEntity
  8
0
  6
Continuous
 62
   179
370
    18
100
AcDbLine
 10
30.1577551508
 20
6.1478614335
 30
0.0
 11
29.832784269
 21
6.4550337257
 31
0.0
  0
LINE
  5
1B2
330
73
100
AcDbEntity
  8
0
  6
Continuous
 62
   179
370
    18
100
AcDbLine
 10
29.832784269
 20
6.4550337257
 30
0.0
 11
28.8842186761
 21
7.3765494317
 31
0.0
  0
LINE
  5
1B3
330
73
100
AcDbEntity
  8
0
  6
Continuous
 62
   179
370
    18
100
AcDbLine
 10
19.8860362289
 20
7.3426955725
 30
0.0
 11
19.7593960033
 21
7.0755468593
 31
0.0
  0
LINE
  5
1B4
330
73
100
AcDbEntity
  8
0
  6
Continuous
 62
   179
370
    18
100
AcDbLine
 10
19.7593960033
 20
7.0755468593
 30
0.0
 11
18.9151278325
 21
5.2758088646
 31
0.0
  0
LINE
  5
1B5
330
73
100
AcDbEntity
  8
0
  6
Continuous
 62
   179
370
    18
100
AcDbLine
 10
18.9151278325
 20
5.2758088646
 30
0.0
 11
18.5070655736
 21
4.3759398672
 31
0.0
  0
LINE
  5
1B6
330
73
100
AcDbEntity
  8
0
  6
Continuous
 62
   179
370
    18
100
AcDbLine
 10
18.5070655736
 20
4.3759398672
 30
0.0
 11
18.5211363646
 21
4.3196983212
 31
0.0
  0
LINE
  5
1B7
330
73
100
AcDbEntity
  8
0
  6
Continuous
 62
   179
370
    18
100
AcDbLine
 10
18.5211363646
 20
4.3196983212
 30
0.0
 11
18.599407668
 21
4.2577519015
 31
0.0
  0
LINE
  5
1B8
330
73
100
AcDbEntity
  8
0
  6
Continuous
 62
   179
370
    18
100
AcDbLine
 10
18.599407668
 20
4.2577519015
 30
0.0
 11
18.8105705181
 21
4.2276086729
 31
0.0
  0
LINE
  5
1B9
330
73
100
AcDbEntity
  8
0
  6
Continuous
 62
   179
370
    18
100
AcDbLine
 10
18.8105705181
 20
4.2276086729
 30
0.0
 11
19.4893073968
 21
4.1823941227
 31
0.0
  0
LINE
  5
1BA
330
73
100
AcDbEntity
  8
0
  6
Continuous
 62
   179
370
    18
100
AcDbLine
 10
19.4893073968
 20
4.1823941227
 30
0.0
 11
20.0172135261
 21
4.2125373513
 31
0.0
  0
LINE
  5
1BB
330
73
100
AcDbEntity
  8
0
  6
Continuous
 62
   179
370
    18
100
AcDbLine
 10
20.0172135261
 20
4.2125373513
 30
0.0
 11
20.2585419285
 21
4.2276086729
 31
0.0
  0
LINE
  5
1BC
330
73
100
AcDbEntity
  8
0
  6
Continuous
 62
   179
370
    18
100
AcDbLine
 10
20.2585419285
 20
4.2276086729
 30
0.0
 11
20.4395382303
 21
4.2426805799
 31
0.0
  0
LINE
  5
1BD
330
73
100
AcDbEntity
  8
0
  6
Continuous
 62
   179
370
    18
100
AcDbLine
 10
20.4395382303
 20
4.2426805799
 30
0.0
 11
20.514953107
 21
4.3029664517
 31
0.0
  0
LINE
  5
1BE
330
73
100
AcDbEntity
  8
0
  6
Continuous
 62
   179
370
    18
100
AcDbLine
 10
20.514953107
 20
4.3029664517
 30
0.0
 11
20.5602024315
 21
4.3481815874
 31
0.0
  0
LINE
  5
1BF
330
73
100
AcDbEntity
  8
0
  6
Continuous
 62
   179
370
    18
100
AcDbLine
 10
20.5602024315
 20
4.3481815874
 30
0.0
 11
20.7261159571
 21
4.7098997453
 31
0.0
  0
LINE
  5
1C0
330
73
100
AcDbEntity
  8
0
  6
Continuous
 62
   179
370
    18
100
AcDbLine
 10
20.7261159571
 20
4.7098997453
 30
0.0
 11
20.9221950351
 21
5.1319037751
 31
0.0
  0
LINE
  5
1C1
330
73
100
AcDbEntity
  8
0
  6
Continuous
 62
   179
370
    18
100
AcDbLine
 10
20.9221950351
 20
5.1319037751
 30
0.0
 11
21.1635234374
 21
5.5689797119
 31
0.0
  0
LINE
  5
1C2
330
73
100
AcDbEntity
  8
0
  6
Continuous
 62
   179
370
    18
100
AcDbLine
 10
21.1635234374
 20
5.5689797119
 30
0.0
 11
21.419935612
 21
5.9759130055
 31
0.0
  0
LINE
  5
1C3
330
73
100
AcDbEntity
  8
0
  6
Continuous
 62
   179
370
    18
100
AcDbLine
 10
21.419935612
 20
5.9759130055
 30
0.0
 11
21.7517616673
 21
6.3828457137
 31
0.0
  0
LINE
  5
1C4
330
73
100
AcDbEntity
  8
0
  6
Continuous
 62
   179
370
    18
100
AcDbLine
 10
21.7517616673
 20
6.3828457137
 30
0.0
 11
22.023256618
 21
6.7294919646
 31
0.0
  0
LINE
  5
1C5
330
73
100
AcDbEntity
  8
0
  6
Continuous
 62
   179
370
    18
100
AcDbLine
 10
22.023256618
 20
6.7294919646
 30
0.0
 11
22.2645850204
 21
6.9706372081
 31
0.0
  0
LINE
  5
1C6
330
73
100
AcDbEntity
  8
0
  6
Continuous
 62
   179
370
    18
100
AcDbLine
 10
22.2645850204
 20
6.9706372081
 30
0.0
 11
22.5209971949
 21
7.2268543586
 31
0.0
  0
LINE
  5
1C7
330
73
100
AcDbEntity
  8
0
  6
Continuous
 62
   179
370
    18
100
AcDbLine
 10
22.5209971949
 20
7.2268543586
 30
0.0
 11
22.7774083734
 21
7.4227850519
 31
0.0
  0
LINE
  5
1C8
330
73
100
AcDbEntity
  8
0
  6
Continuous
 62
   179
370
    18
100
AcDbLine
 10
22.7774083734
 20
7.4227850519
 30
0.0
 11
22.9584046752
 21
7.4981428307
 31
0.0
  0
LINE
  5
1C9
330
73
100
AcDbEntity
  8
0
  6
Continuous
 62
   179
370
    18
100
AcDbLine
 10
22.9584046752
 20
7.4981428307
 30
0.0
 11
23.2751489503
 21
7.4679996021
 31
0.0
  0
LINE
  5
1CA
330
73
100
AcDbEntity
  8
0
  6
Continuous
 62
   179
370
    18
100
AcDbLine
 10
23.2751489503
 20
7.4679996021
 30
0.0
 11
23.3203972788
 21
7.3775705017
 31
0.0
  0
LINE
  5
1CB
330
73
100
AcDbEntity
  8
0
  6
Continuous
 62
   179
370
    18
100
AcDbLine
 10
23.3203972788
 20
7.3775705017
 30
0.0
 11
23.3505638271
 21
7.211783037
 31
0.0
  0
LINE
  5
1CC
330
73
100
AcDbEntity
  8
0
  6
Continuous
 62
   179
370
    18
100
AcDbLine
 10
23.3505638271
 20
7.211783037
 30
0.0
 11
23.3354810509
 21
7.076138801
 31
0.0
  0
LINE
  5
1CD
330
73
100
AcDbEntity
  8
0
  6
Continuous
 62
   179
370
    18
100
AcDbLine
 10
23.3354810509
 20
7.076138801
 30
0.0
 11
23.2751489503
 21
6.8952794293
 31
0.0
  0
LINE
  5
1CE
330
73
100
AcDbEntity
  8
0
  6
Continuous
 62
   179
370
    18
100
AcDbLine
 10
23.2751489503
 20
6.8952794293
 30
0.0
 11
23.0639861003
 21
6.5486331783
 31
0.0
  0
LINE
  5
1CF
330
73
100
AcDbEntity
  8
0
  6
Continuous
 62
   179
370
    18
100
AcDbLine
 10
23.0639861003
 20
6.5486331783
 30
0.0
 11
22.5511627472
 21
5.6744813048
 31
0.0
  0
LINE
  5
1D0
330
73
100
AcDbEntity
  8
0
  6
Continuous
 62
   179
370
    18
100
AcDbLine
 10
22.5511627472
 20
5.6744813048
 30
0.0
 11
22.2645850204
 21
5.1921902323
 31
0.0
  0
LINE
  5
1D1
330
73
100
AcDbEntity
  8
0
  6
Continuous
 62
   179
370
    18
100
AcDbLine
 10
22.2645850204
 20
5.1921902323
 30
0.0
 11
22.0986714947
 21
4.8907585316
 31
0.0
  0
LINE
  5
1D2
330
73
100
AcDbEntity
  8
0
  6
Continuous
 62
   179
370
    18
100
AcDbLine
 10
22.0986714947
 20
4.8907585316
 30
0.0
 11
22.0835887186
 21
4.7249710669
 31
0.0
  0
LINE
  5
1D3
330
73
100
AcDbEntity
  8
0
  6
Continuous
 62
   179
370
    18
100
AcDbLine
 10
22.0835887186
 20
4.7249710669
 30
0.0
 11
22.0685059424
 21
4.5591836022
 31
0.0
  0
LINE
  5
1D4
330
73
100
AcDbEntity
  8
0
  6
Continuous
 62
   179
370
    18
100
AcDbLine
 10
22.0685059424
 20
4.5591836022
 30
0.0
 11
22.0986714947
 21
4.3933961376
 31
0.0
  0
LINE
  5
1D5
330
73
100
AcDbEntity
  8
0
  6
Continuous
 62
   179
370
    18
100
AcDbLine
 10
22.0986714947
 20
4.3933961376
 30
0.0
 11
22.2495022442
 21
4.2426805799
 31
0.0
  0
LINE
  5
1D6
330
73
100
AcDbEntity
  8
0
  6
Continuous
 62
   179
370
    18
100
AcDbLine
 10
22.2495022442
 20
4.2426805799
 30
0.0
 11
22.4908306466
 21
4.0919644368
 31
0.0
  0
LINE
  5
1D7
330
73
100
AcDbEntity
  8
0
  6
Continuous
 62
   179
370
    18
100
AcDbLine
 10
22.4908306466
 20
4.0919644368
 30
0.0
 11
22.8226576979
 21
4.0618212082
 31
0.0
  0
LINE
  5
1D8
330
73
100
AcDbEntity
  8
0
  6
Continuous
 62
   179
370
    18
100
AcDbLine
 10
22.8226576979
 20
4.0618212082
 30
0.0
 11
23.1243182009
 21
4.0467498866
 31
0.0
  0
LINE
  5
1D9
330
73
100
AcDbEntity
  8
0
  6
Continuous
 62
   179
370
    18
100
AcDbLine
 10
23.1243182009
 20
4.0467498866
 30
0.0
 11
23.5013935806
 21
4.0919644368
 31
0.0
  0
LINE
  5
1DA
330
73
100
AcDbEntity
  8
0
  6
Continuous
 62
   179
370
    18
100
AcDbLine
 10
23.5013935806
 20
4.0919644368
 30
0.0
 11
23.8030550796
 21
4.1522508941
 31
0.0
  0
LINE
  5
1DB
330
73
100
AcDbEntity
  8
0
  6
Continuous
 62
   179
370
    18
100
AcDbLine
 10
23.8030550796
 20
4.1522508941
 30
0.0
 11
24.1348811349
 21
4.2577519015
 31
0.0
  0
LINE
  5
1DC
330
73
100
AcDbEntity
  8
0
  6
Continuous
 62
   179
370
    18
100
AcDbLine
 10
24.1348811349
 20
4.2577519015
 30
0.0
 11
24.4968747344
 21
4.3933961376
 31
0.0
  0
LINE
  5
1DD
330
73
100
AcDbEntity
  8
0
  6
Continuous
 62
   179
370
    18
100
AcDbLine
 10
24.4968747344
 20
4.3933961376
 30
0.0
 11
24.858867338
 21
4.6043987379
 31
0.0
  0
LINE
  5
1DE
330
73
100
AcDbEntity
  8
0
  6
Continuous
 62
   179
370
    18
100
AcDbLine
 10
24.858867338
 20
4.6043987379
 30
0.0
 11
25.1454450649
 21
4.7551142955
 31
0.0
  0
LINE
  5
1DF
330
73
100
AcDbEntity
  8
0
  6
Continuous
 62
   179
370
    18
100
AcDbLine
 10
25.1454450649
 20
4.7551142955
 30
0.0
 11
25.4471055679
 21
4.9661163104
 31
0.0
  0
LINE
  5
1E0
330
73
100
AcDbEntity
  8
0
  6
Continuous
 62
   179
370
    18
100
AcDbLine
 10
25.4471055679
 20
4.9661163104
 30
0.0
 11
25.5225204446
 21
5.0565459963
 31
0.0
  0
LINE
  5
1E1
330
73
100
AcDbEntity
  8
0
  6
Continuous
 62
   179
370
    18
100
AcDbLine
 10
25.5225204446
 20
5.0565459963
 30
0.0
 11
25.5677697691
 21
5.1168324535
 31
0.0
  0
LINE
  5
1E2
330
73
100
AcDbEntity
  8
0
  6
Continuous
 62
   179
370
    18
100
AcDbLine
 10
25.5677697691
 20
5.1168324535
 30
0.0
 11
25.5225204446
 21
5.1921902323
 31
0.0
  0
LINE
  5
1E3
330
73
100
AcDbEntity
  8
0
  6
Continuous
 62
   179
370
    18
100
AcDbLine
 10
25.5225204446
 20
5.1921902323
 30
0.0
 11
25.3264413667
 21
5.357977697
 31
0.0
  0
LINE
  5
1E4
330
73
100
AcDbEntity
  8
0
  6
Continuous
 62
   179
370
    18
100
AcDbLine
 10
25.3264413667
 20
5.357977697
 30
0.0
 11
25.2962748184
 21
5.373049604
 31
0.0
  0
LINE
  5
1E5
330
73
100
AcDbEntity
  8
0
  6
Continuous
 62
   179
370
    18
100
AcDbLine
 10
25.2962748184
 20
5.373049604
 30
0.0
 11
25.251025494
 21
5.373049604
 31
0.0
  0
LINE
  5
1E6
330
73
100
AcDbEntity
  8
0
  6
Continuous
 62
   179
370
    18
100
AcDbLine
 10
25.251025494
 20
5.373049604
 30
0.0
 11
25.2057771655
 21
5.3278344684
 31
0.0
  0
LINE
  5
1E7
330
73
100
AcDbEntity
  8
0
  6
Continuous
 62
   179
370
    18
100
AcDbLine
 10
25.2057771655
 20
5.3278344684
 30
0.0
 11
25.1303612928
 21
5.2524766896
 31
0.0
  0
LINE
  5
1E8
330
73
100
AcDbEntity
  8
0
  6
Continuous
 62
   179
370
    18
100
AcDbLine
 10
25.1303612928
 20
5.2524766896
 30
0.0
 11
24.9191994386
 21
5.1017605465
 31
0.0
  0
LINE
  5
1E9
330
73
100
AcDbEntity
  8
0
  6
Continuous
 62
   179
370
    18
100
AcDbLine
 10
24.9191994386
 20
5.1017605465
 30
0.0
 11
24.7382031368
 21
4.996259539
 31
0.0
  0
LINE
  5
1EA
330
73
100
AcDbEntity
  8
0
  6
Continuous
 62
   179
370
    18
100
AcDbLine
 10
24.7382031368
 20
4.996259539
 30
0.0
 11
24.557206835
 21
4.9058304386
 31
0.0
  0
LINE
  5
1EB
330
73
100
AcDbEntity
  8
0
  6
Continuous
 62
   179
370
    18
100
AcDbLine
 10
24.557206835
 20
4.9058304386
 30
0.0
 11
24.4214588617
 21
4.8907585316
 31
0.0
  0
LINE
  5
1EC
330
73
100
AcDbEntity
  8
0
  6
Continuous
 62
   179
370
    18
100
AcDbLine
 10
24.4214588617
 20
4.8907585316
 30
0.0
 11
24.3158774367
 21
4.8907585316
 31
0.0
  0
LINE
  5
1ED
330
73
100
AcDbEntity
  8
0
  6
Continuous
 62
   179
370
    18
100
AcDbLine
 10
24.3158774367
 20
4.8907585316
 30
0.0
 11
24.2555453361
 21
4.9510449888
 31
0.0
  0
LINE
  5
1EE
330
73
100
AcDbEntity
  8
0
  6
Continuous
 62
   179
370
    18
100
AcDbLine
 10
24.2555453361
 20
4.9510449888
 30
0.0
 11
24.2555453361
 21
4.996259539
 31
0.0
  0
LINE
  5
1EF
330
73
100
AcDbEntity
  8
0
  6
Continuous
 62
   179
370
    18
100
AcDbLine
 10
24.2555453361
 20
4.996259539
 30
0.0
 11
24.2555453361
 21
5.1017605465
 31
0.0
  0
LINE
  5
1F0
330
73
100
AcDbEntity
  8
0
  6
Continuous
 62
   179
370
    18
100
AcDbLine
 10
24.2555453361
 20
5.1017605465
 30
0.0
 11
24.4214588617
 21
5.4182641542
 31
0.0
  0
LINE
  5
1F1
330
73
100
AcDbEntity
  8
0
  6
Continuous
 62
   179
370
    18
100
AcDbLine
 10
24.4214588617
 20
5.4182641542
 30
0.0
 11
24.6627872641
 21
5.8704114126
 31
0.0
  0
LINE
  5
1F2
330
73
100
AcDbEntity
  8
0
  6
Continuous
 62
   179
370
    18
100
AcDbLine
 10
24.6627872641
 20
5.8704114126
 30
0.0
 11
25.0700291922
 21
6.578776407
 31
0.0
  0
LINE
  5
1F3
330
73
100
AcDbEntity
  8
0
  6
Continuous
 62
   179
370
    18
100
AcDbLine
 10
25.0700291922
 20
6.578776407
 30
0.0
 11
25.3264413667
 21
7.0158523437
 31
0.0
  0
LINE
  5
1F4
330
73
100
AcDbEntity
  8
0
  6
Continuous
 62
   179
370
    18
100
AcDbLine
 10
25.3264413667
 20
7.0158523437
 30
0.0
 11
25.4923548923
 21
7.3474272731
 31
0.0
  0
LINE
  5
1F5
330
73
100
AcDbEntity
  8
0
  6
Continuous
 62
   179
370
    18
100
AcDbLine
 10
25.4923548923
 20
7.3474272731
 30
0.0
 11
25.5376032208
 21
7.694073524
 31
0.0
  0
LINE
  5
1F6
330
73
100
AcDbEntity
  8
0
  6
Continuous
 62
   179
370
    18
100
AcDbLine
 10
25.5376032208
 20
7.694073524
 30
0.0
 11
25.4772711202
 21
7.9502906745
 31
0.0
  0
LINE
  5
1F7
330
73
100
AcDbEntity
  8
0
  6
Continuous
 62
   179
370
    18
100
AcDbLine
 10
25.4772711202
 20
7.9502906745
 30
0.0
 11
25.2962748184
 21
8.1311494608
 31
0.0
  0
LINE
  5
1F8
330
73
100
AcDbEntity
  8
0
  6
Continuous
 62
   179
370
    18
100
AcDbLine
 10
25.2962748184
 20
8.1311494608
 30
0.0
 11
25.0851129643
 21
8.2667936968
 31
0.0
  0
LINE
  5
1F9
330
73
100
AcDbEntity
  8
0
  6
Continuous
 62
   179
370
    18
100
AcDbLine
 10
25.0851129643
 20
8.2667936968
 30
0.0
 11
24.8287007898
 21
8.3572233827
 31
0.0
  0
LINE
  5
1FA
330
73
100
AcDbEntity
  8
0
  6
Continuous
 62
   179
370
    18
100
AcDbLine
 10
24.8287007898
 20
8.3572233827
 30
0.0
 11
24.5873723874
 21
8.4024379329
 31
0.0
  0
LINE
  5
1FB
330
73
100
AcDbEntity
  8
0
  6
Continuous
 62
   179
370
    18
100
AcDbLine
 10
24.5873723874
 20
8.4024379329
 30
0.0
 11
24.3309612088
 21
8.4175098399
 31
0.0
  0
LINE
  5
1FC
330
73
100
AcDbEntity
  8
0
  6
Continuous
 62
   179
370
    18
100
AcDbLine
 10
24.3309612088
 20
8.4175098399
 30
0.0
 11
24.044383482
 21
8.4175098399
 31
0.0
  0
LINE
  5
1FD
330
73
100
AcDbEntity
  8
0
  6
Continuous
 62
   179
370
    18
100
AcDbLine
 10
24.044383482
 20
8.4175098399
 30
0.0
 11
23.6823908784
 21
8.3421514757
 31
0.0
  0
LINE
  5
1FE
330
73
100
AcDbEntity
  8
0
  6
Continuous
 62
   179
370
    18
100
AcDbLine
 10
23.6823908784
 20
8.3421514757
 30
0.0
 11
23.4259787039
 21
8.2366504682
 31
0.0
  0
LINE
  5
1FF
330
73
100
AcDbEntity
  8
0
  6
Continuous
 62
   179
370
    18
100
AcDbLine
 10
23.4259787039
 20
8.2366504682
 30
0.0
 11
23.0941516526
 21
8.0859349106
 31
0.0
  0
LINE
  5
200
330
73
100
AcDbEntity
  8
0
  6
Continuous
 62
   179
370
    18
100
AcDbLine
 10
23.0941516526
 20
8.0859349106
 30
0.0
 11
22.732159049
 21
7.8749323103
 31
0.0
  0
LINE
  5
201
330
73
100
AcDbEntity
  8
0
  6
Continuous
 62
   179
370
    18
100
AcDbLine
 10
22.732159049
 20
7.8749323103
 30
0.0
 11
22.3550836692
 21
7.6337870668
 31
0.0
  0
LINE
  5
202
330
73
100
AcDbEntity
  8
0
  6
Continuous
 62
   179
370
    18
100
AcDbLine
 10
22.3550836692
 20
7.6337870668
 30
0.0
 11
22.0383393941
 21
7.332355366
 31
0.0
  0
LINE
  5
203
330
73
100
AcDbEntity
  8
0
  6
Continuous
 62
   179
370
    18
100
AcDbLine
 10
22.0383393941
 20
7.332355366
 30
0.0
 11
21.8724258685
 21
7.1816398084
 31
0.0
  0
LINE
  5
204
330
73
100
AcDbEntity
  8
0
  6
Continuous
 62
   179
370
    18
100
AcDbLine
 10
21.8724258685
 20
7.1816398084
 30
0.0
 11
21.8422603162
 21
7.1364246727
 31
0.0
  0
LINE
  5
205
330
73
100
AcDbEntity
  8
0
  6
Continuous
 62
   179
370
    18
100
AcDbLine
 10
21.8422603162
 20
7.1364246727
 30
0.0
 11
21.7668454394
 21
7.1213533512
 31
0.0
  0
LINE
  5
206
330
73
100
AcDbEntity
  8
0
  6
Continuous
 62
   179
370
    18
100
AcDbLine
 10
21.7668454394
 20
7.1213533512
 30
0.0
 11
21.7668454394
 21
7.1514965798
 31
0.0
  0
LINE
  5
207
330
73
100
AcDbEntity
  8
0
  6
Continuous
 62
   179
370
    18
100
AcDbLine
 10
21.7668454394
 20
7.1514965798
 30
0.0
 11
21.7970109917
 21
7.19671113
 31
0.0
  0
LINE
  5
208
330
73
100
AcDbEntity
  8
0
  6
Continuous
 62
   179
370
    18
100
AcDbLine
 10
21.7970109917
 20
7.19671113
 30
0.0
 11
21.8573430923
 21
7.3022121374
 31
0.0
  0
LINE
  5
209
330
73
100
AcDbEntity
  8
0
  6
Continuous
 62
   179
370
    18
100
AcDbLine
 10
21.8573430923
 20
7.3022121374
 30
0.0
 11
21.9629245174
 21
7.4529282805
 31
0.0
  0
LINE
  5
20A
330
73
100
AcDbEntity
  8
0
  6
Continuous
 62
   179
370
    18
100
AcDbLine
 10
21.9629245174
 20
7.4529282805
 30
0.0
 11
21.9629245174
 21
7.6790022024
 31
0.0
  0
LINE
  5
20B
330
73
100
AcDbEntity
  8
0
  6
Continuous
 62
   179
370
    18
100
AcDbLine
 10
21.9629245174
 20
7.6790022024
 30
0.0
 11
21.9176751929
 21
7.9201474459
 31
0.0
  0
LINE
  5
20C
330
73
100
AcDbEntity
  8
0
  6
Continuous
 62
   179
370
    18
100
AcDbLine
 10
21.9176751929
 20
7.9201474459
 30
0.0
 11
21.8120937679
 21
8.0859349106
 31
0.0
  0
LINE
  5
20D
330
73
100
AcDbEntity
  8
0
  6
Continuous
 62
   179
370
    18
100
AcDbLine
 10
21.8120937679
 20
8.0859349106
 30
0.0
 11
21.6160146899
 21
8.2366504682
 31
0.0
  0
LINE
  5
20E
330
73
100
AcDbEntity
  8
0
  6
Continuous
 62
   179
370
    18
100
AcDbLine
 10
21.6160146899
 20
8.2366504682
 30
0.0
 11
21.4350183881
 21
8.3421514757
 31
0.0
  0
LINE
  5
20F
330
73
100
AcDbEntity
  8
0
  6
Continuous
 62
   179
370
    18
100
AcDbLine
 10
21.4350183881
 20
8.3421514757
 30
0.0
 11
21.1484406613
 21
8.4024379329
 31
0.0
  0
LINE
  5
210
330
73
100
AcDbEntity
  8
0
  6
Continuous
 62
   179
370
    18
100
AcDbLine
 10
21.1484406613
 20
8.4024379329
 30
0.0
 11
20.8316973821
 21
8.4024379329
 31
0.0
  0
LINE
  5
211
330
73
100
AcDbEntity
  8
0
  6
Continuous
 62
   179
370
    18
100
AcDbLine
 10
20.8316973821
 20
8.4024379329
 30
0.0
 11
20.514953107
 21
8.4024379329
 31
0.0
  0
LINE
  5
212
330
73
100
AcDbEntity
  8
0
  6
Continuous
 62
   179
370
    18
100
AcDbLine
 10
20.514953107
 20
8.4024379329
 30
0.0
 11
20.1680432796
 21
8.3421514757
 31
0.0
  0
LINE
  5
213
330
73
100
AcDbEntity
  8
0
  6
Continuous
 62
   179
370
    18
100
AcDbLine
 10
20.1680432796
 20
8.3421514757
 30
0.0
 11
19.806050676
 21
8.2215791466
 31
0.0
  0
LINE
  5
214
330
73
100
AcDbEntity
  8
0
  6
Continuous
 62
   179
370
    18
100
AcDbLine
 10
19.806050676
 20
8.2215791466
 30
0.0
 11
19.3837259718
 21
8.0105765463
 31
0.0
  0
LINE
  5
215
330
73
100
AcDbEntity
  8
0
  6
Continuous
 62
   179
370
    18
100
AcDbLine
 10
19.3837259718
 20
8.0105765463
 30
0.0
 11
19.0669816967
 21
7.7845032099
 31
0.0
  0
LINE
  5
216
330
73
100
AcDbEntity
  8
0
  6
Continuous
 62
   179
370
    18
100
AcDbLine
 10
19.0669816967
 20
7.7845032099
 30
0.0
 11
18.8105705181
 21
7.5735006095
 31
0.0
  0
LINE
  5
217
330
73
100
AcDbEntity
  8
0
  6
Continuous
 62
   179
370
    18
100
AcDbLine
 10
18.8105705181
 20
7.5735006095
 30
0.0
 11
18.6337057992
 21
7.4270581959
 31
0.0
  0
LINE
  5
218
330
73
100
AcDbEntity
  8
0
  6
Continuous
 62
   179
370
    18
100
AcDbLine
 10
18.6337057992
 20
7.4270581959
 30
0.0
 11
18.6337057992
 21
7.3848768842
 31
0.0
  0
LINE
  5
219
330
73
100
AcDbEntity
  8
0
  6
Continuous
 62
   179
370
    18
100
AcDbLine
 10
18.6337057992
 20
7.3848768842
 30
0.0
 11
18.6196339727
 21
7.3286347295
 31
0.0
  0
LINE
  5
21A
330
73
100
AcDbEntity
  8
0
  6
Continuous
 62
   179
370
    18
100
AcDbLine
 10
18.6196339727
 20
7.3286347295
 30
0.0
 11
18.6618473812
 21
7.2864534178
 31
0.0
  0
LINE
  5
21B
330
73
100
AcDbEntity
  8
0
  6
Continuous
 62
   179
370
    18
100
AcDbLine
 10
18.6618473812
 20
7.2864534178
 30
0.0
 11
18.7884876069
 21
7.1599094827
 31
0.0
  0
LINE
  5
21C
330
73
100
AcDbEntity
  8
0
  6
Continuous
 62
   179
370
    18
100
AcDbLine
 10
18.7884876069
 20
7.1599094827
 30
0.0
 11
18.8166302244
 21
7.1458492483
 31
0.0
  0
LINE
  5
21D
330
73
100
AcDbEntity
  8
0
  6
Continuous
 62
   179
370
    18
100
AcDbLine
 10
18.8166302244
 20
7.1458492483
 30
0.0
 11
18.9010570415
 21
7.1317884053
 31
0.0
  0
LINE
  5
21E
330
73
100
AcDbEntity
  8
0
  6
Continuous
 62
   179
370
    18
100
AcDbLine
 10
18.9010570415
 20
7.1317884053
 30
0.0
 11
18.9854838585
 21
7.1599094827
 31
0.0
  0
LINE
  5
21F
330
73
100
AcDbEntity
  8
0
  6
Continuous
 62
   179
370
    18
100
AcDbLine
 10
18.9854838585
 20
7.1599094827
 30
0.0
 11
19.0276972671
 21
7.2161510287
 31
0.0
  0
LINE
  5
220
330
73
100
AcDbEntity
  8
0
  6
Continuous
 62
   179
370
    18
100
AcDbLine
 10
19.0276972671
 20
7.2161510287
 30
0.0
 11
19.2669058918
 21
7.4129973529
 31
0.0
  0
LINE
  5
221
330
73
100
AcDbEntity
  8
0
  6
Continuous
 62
   179
370
    18
100
AcDbLine
 10
19.2669058918
 20
7.4129973529
 30
0.0
 11
19.4779729345
 21
7.5676623653
 31
0.0
  0
LINE
  5
222
330
73
100
AcDbEntity
  8
0
  6
Continuous
 62
   179
370
    18
100
AcDbLine
 10
19.4779729345
 20
7.5676623653
 30
0.0
 11
19.6749691862
 21
7.6660858317
 31
0.0
  0
LINE
  5
223
330
73
100
AcDbEntity
  8
0
  6
Continuous
 62
   179
370
    18
100
AcDbLine
 10
19.6749691862
 20
7.6660858317
 30
0.0
 11
19.7734667943
 21
7.6660858317
 31
0.0
  0
LINE
  5
224
330
73
100
AcDbEntity
  8
0
  6
Continuous
 62
   179
370
    18
100
AcDbLine
 10
19.7734667943
 20
7.6660858317
 30
0.0
 11
19.8578936114
 21
7.6520249887
 31
0.0
  0
LINE
  5
225
330
73
100
AcDbEntity
  8
0
  6
Continuous
 62
   179
370
    18
100
AcDbLine
 10
19.8578936114
 20
7.6520249887
 30
0.0
 11
19.9141788464
 21
7.5957834427
 31
0.0
  0
LINE
  5
226
330
73
100
AcDbEntity
  8
0
  6
Continuous
 62
   179
370
    18
100
AcDbLine
 10
19.9141788464
 20
7.5957834427
 30
0.0
 11
19.9141788464
 21
7.5114208193
 31
0.0
  0
LINE
  5
227
330
73
100
AcDbEntity
  8
0
  6
Continuous
 62
   179
370
    18
100
AcDbLine
 10
19.9141788464
 20
7.5114208193
 30
0.0
 11
19.8860362289
 21
7.3426955725
 31
0.0
  0
LINE
  5
228
330
73
100
AcDbEntity
  8
0
  6
Continuous
 62
   179
370
    18
100
AcDbLine
 10
17.5865879716
 20
10.3422671247
 30
0.0
 11
17.4699573972
 21
10.357805656
 31
0.0
  0
LINE
  5
229
330
73
100
AcDbEntity
  8
0
  6
Continuous
 62
   179
370
    18
100
AcDbLine
 10
17.4699573972
 20
10.357805656
 30
0.0
 11
17.3999794509
 21
10.381114624
 31
0.0
  0
LINE
  5
22A
330
73
100
AcDbEntity
  8
0
  6
Continuous
 62
   179
370
    18
100
AcDbLine
 10
17.3999794509
 20
10.381114624
 30
0.0
 11
17.3611022607
 21
10.4355006548
 31
0.0
  0
LINE
  5
22B
330
73
100
AcDbEntity
  8
0
  6
Continuous
 62
   179
370
    18
100
AcDbLine
 10
17.3611022607
 20
10.4355006548
 30
0.0
 11
17.3533268227
 21
10.5442733017
 31
0.0
  0
LINE
  5
22C
330
73
100
AcDbEntity
  8
0
  6
Continuous
 62
   179
370
    18
100
AcDbLine
 10
17.3533268227
 20
10.5442733017
 30
0.0
 11
17.3766531368
 21
10.645276683
 31
0.0
  0
LINE
  5
22D
330
73
100
AcDbEntity
  8
0
  6
Continuous
 62
   179
370
    18
100
AcDbLine
 10
17.3766531368
 20
10.645276683
 30
0.0
 11
17.4621819591
 21
10.7462800643
 31
0.0
  0
LINE
  5
22E
330
73
100
AcDbEntity
  8
0
  6
Continuous
 62
   179
370
    18
100
AcDbLine
 10
17.4621819591
 20
10.7462800643
 30
0.0
 11
17.5554862195
 21
10.8395135944
 31
0.0
  0
LINE
  5
22F
330
73
100
AcDbEntity
  8
0
  6
Continuous
 62
   179
370
    18
100
AcDbLine
 10
17.5554862195
 20
10.8395135944
 30
0.0
 11
17.6487914758
 21
10.9871337408
 31
0.0
  0
LINE
  5
230
330
73
100
AcDbEntity
  8
0
  6
Continuous
 62
   179
370
    18
100
AcDbLine
 10
17.6487914758
 20
10.9871337408
 30
0.0
 11
17.7187694221
 21
11.1425231528
 31
0.0
  0
LINE
  5
231
330
73
100
AcDbEntity
  8
0
  6
Continuous
 62
   179
370
    18
100
AcDbLine
 10
17.7187694221
 20
11.1425231528
 30
0.0
 11
17.7187694221
 21
11.2668349166
 31
0.0
  0
LINE
  5
232
330
73
100
AcDbEntity
  8
0
  6
Continuous
 62
   179
370
    18
100
AcDbLine
 10
17.7187694221
 20
11.2668349166
 30
0.0
 11
17.7032185461
 21
11.3911466805
 31
0.0
  0
LINE
  5
233
330
73
100
AcDbEntity
  8
0
  6
Continuous
 62
   179
370
    18
100
AcDbLine
 10
17.7032185461
 20
11.3911466805
 30
0.0
 11
17.5710370956
 21
11.4921500617
 31
0.0
  0
LINE
  5
234
330
73
100
AcDbEntity
  8
0
  6
Continuous
 62
   179
370
    18
100
AcDbLine
 10
17.5710370956
 20
11.4921500617
 30
0.0
 11
17.4621819591
 21
11.5387668268
 31
0.0
  0
LINE
  5
235
330
73
100
AcDbEntity
  8
0
  6
Continuous
 62
   179
370
    18
100
AcDbLine
 10
17.4621819591
 20
11.5387668268
 30
0.0
 11
17.2055944962
 21
11.5853835919
 31
0.0
  0
LINE
  5
236
330
73
100
AcDbEntity
  8
0
  6
Continuous
 62
   179
370
    18
100
AcDbLine
 10
17.2055944962
 20
11.5853835919
 30
0.0
 11
16.9567824712
 21
11.6086919744
 31
0.0
  0
LINE
  5
237
330
73
100
AcDbEntity
  8
0
  6
Continuous
 62
   179
370
    18
100
AcDbLine
 10
16.9567824712
 20
11.6086919744
 30
0.0
 11
16.7390712024
 21
11.5853835919
 31
0.0
  0
LINE
  5
238
330
73
100
AcDbEntity
  8
0
  6
Continuous
 62
   179
370
    18
100
AcDbLine
 10
16.7390712024
 20
11.5853835919
 30
0.0
 11
16.5757889957
 21
11.52322771
 31
0.0
  0
LINE
  5
239
330
73
100
AcDbEntity
  8
0
  6
Continuous
 62
   179
370
    18
100
AcDbLine
 10
16.5757889957
 20
11.52322771
 30
0.0
 11
16.4125057931
 21
11.3600690322
 31
0.0
  0
LINE
  5
23A
330
73
100
AcDbEntity
  8
0
  6
Continuous
 62
   179
370
    18
100
AcDbLine
 10
16.4125057931
 20
11.3600690322
 30
0.0
 11
16.3969549171
 21
11.3134516817
 31
0.0
  0
LINE
  5
23B
330
73
100
AcDbEntity
  8
0
  6
Continuous
 62
   179
370
    18
100
AcDbLine
 10
16.3969549171
 20
11.3134516817
 30
0.0
 11
16.381404041
 21
11.259065651
 31
0.0
  0
LINE
  5
23C
330
73
100
AcDbEntity
  8
0
  6
Continuous
 62
   179
370
    18
100
AcDbLine
 10
16.381404041
 20
11.259065651
 30
0.0
 11
16.373628603
 21
11.2124488859
 31
0.0
  0
LINE
  5
23D
330
73
100
AcDbEntity
  8
0
  6
Continuous
 62
   179
370
    18
100
AcDbLine
 10
16.373628603
 20
11.2124488859
 30
0.0
 11
16.381404041
 21
11.150293004
 31
0.0
  0
LINE
  5
23E
330
73
100
AcDbEntity
  8
0
  6
Continuous
 62
   179
370
    18
100
AcDbLine
 10
16.381404041
 20
11.150293004
 30
0.0
 11
16.381404041
 21
11.1114455046
 31
0.0
  0
LINE
  5
23F
330
73
100
AcDbEntity
  8
0
  6
Continuous
 62
   179
370
    18
100
AcDbLine
 10
16.381404041
 20
11.1114455046
 30
0.0
 11
16.389179479
 21
11.0337505059
 31
0.0
  0
LINE
  5
240
330
73
100
AcDbEntity
  8
0
  6
Continuous
 62
   179
370
    18
100
AcDbLine
 10
16.389179479
 20
11.0337505059
 30
0.0
 11
16.4047303551
 21
11.0026728576
 31
0.0
  0
LINE
  5
241
330
73
100
AcDbEntity
  8
0
  6
Continuous
 62
   179
370
    18
100
AcDbLine
 10
16.4047303551
 20
11.0026728576
 30
0.0
 11
16.4280566692
 21
10.9482862414
 31
0.0
  0
LINE
  5
242
330
73
100
AcDbEntity
  8
0
  6
Continuous
 62
   179
370
    18
100
AcDbLine
 10
16.4280566692
 20
10.9482862414
 30
0.0
 11
16.5135854915
 21
10.8861303595
 31
0.0
  0
LINE
  5
243
330
73
100
AcDbEntity
  8
0
  6
Continuous
 62
   179
370
    18
100
AcDbLine
 10
16.5135854915
 20
10.8861303595
 30
0.0
 11
16.5991143139
 21
10.8395135944
 31
0.0
  0
LINE
  5
244
330
73
100
AcDbEntity
  8
0
  6
Continuous
 62
   179
370
    18
100
AcDbLine
 10
16.5991143139
 20
10.8395135944
 30
0.0
 11
16.7001950082
 21
10.7851275637
 31
0.0
  0
LINE
  5
245
330
73
100
AcDbEntity
  8
0
  6
Continuous
 62
   179
370
    18
100
AcDbLine
 10
16.7001950082
 20
10.7851275637
 30
0.0
 11
16.8168255827
 21
10.7307409475
 31
0.0
  0
LINE
  5
246
330
73
100
AcDbEntity
  8
0
  6
Continuous
 62
   179
370
    18
100
AcDbLine
 10
16.8168255827
 20
10.7307409475
 30
0.0
 11
16.894578967
 21
10.6763543313
 31
0.0
  0
LINE
  5
247
330
73
100
AcDbEntity
  8
0
  6
Continuous
 62
   179
370
    18
100
AcDbLine
 10
16.894578967
 20
10.6763543313
 30
0.0
 11
16.9412315951
 21
10.6219683005
 31
0.0
  0
LINE
  5
248
330
73
100
AcDbEntity
  8
0
  6
Continuous
 62
   179
370
    18
100
AcDbLine
 10
16.9412315951
 20
10.6219683005
 30
0.0
 11
16.9723333472
 21
10.5442733017
 31
0.0
  0
LINE
  5
249
330
73
100
AcDbEntity
  8
0
  6
Continuous
 62
   179
370
    18
100
AcDbLine
 10
16.9723333472
 20
10.5442733017
 30
0.0
 11
16.9801087853
 21
10.4588090373
 31
0.0
  0
LINE
  5
24A
330
73
100
AcDbEntity
  8
0
  6
Continuous
 62
   179
370
    18
100
AcDbLine
 10
16.9801087853
 20
10.4588090373
 30
0.0
 11
16.9567824712
 21
10.3267280078
 31
0.0
  0
LINE
  5
24B
330
73
100
AcDbEntity
  8
0
  6
Continuous
 62
   179
370
    18
100
AcDbLine
 10
16.9567824712
 20
10.3267280078
 30
0.0
 11
16.9179052811
 21
10.2334944777
 31
0.0
  0
LINE
  5
24C
330
73
100
AcDbEntity
  8
0
  6
Continuous
 62
   179
370
    18
100
AcDbLine
 10
16.9179052811
 20
10.2334944777
 30
0.0
 11
16.8401518967
 21
10.1713385958
 31
0.0
  0
LINE
  5
24D
330
73
100
AcDbEntity
  8
0
  6
Continuous
 62
   179
370
    18
100
AcDbLine
 10
16.8401518967
 20
10.1713385958
 30
0.0
 11
16.7468466404
 21
10.1324910964
 31
0.0
  0
LINE
  5
24E
330
73
100
AcDbEntity
  8
0
  6
Continuous
 62
   179
370
    18
100
AcDbLine
 10
16.7468466404
 20
10.1324910964
 30
0.0
 11
16.6068897519
 21
10.1169519796
 31
0.0
  0
LINE
  5
24F
330
73
100
AcDbEntity
  8
0
  6
Continuous
 62
   179
370
    18
100
AcDbLine
 10
16.6068897519
 20
10.1169519796
 30
0.0
 11
16.4591574253
 21
10.1091827139
 31
0.0
  0
LINE
  5
250
330
73
100
AcDbEntity
  8
0
  6
Continuous
 62
   179
370
    18
100
AcDbLine
 10
16.4591574253
 20
10.1091827139
 30
0.0
 11
16.2803243426
 21
10.1324910964
 31
0.0
  0
LINE
  5
251
330
73
100
AcDbEntity
  8
0
  6
Continuous
 62
   179
370
    18
100
AcDbLine
 10
16.2803243426
 20
10.1324910964
 30
0.0
 11
16.1559183301
 21
10.1557994789
 31
0.0
  0
LINE
  5
252
330
73
100
AcDbEntity
  8
0
  6
Continuous
 62
   179
370
    18
100
AcDbLine
 10
16.1559183301
 20
10.1557994789
 30
0.0
 11
16.0548376358
 21
10.2412637434
 31
0.0
  0
LINE
  5
253
330
73
100
AcDbEntity
  8
0
  6
Continuous
 62
   179
370
    18
100
AcDbLine
 10
16.0548376358
 20
10.2412637434
 30
0.0
 11
16.0081860036
 21
10.3189587421
 31
0.0
  0
LINE
  5
254
330
73
100
AcDbEntity
  8
0
  6
Continuous
 62
   179
370
    18
100
AcDbLine
 10
16.0081860036
 20
10.3189587421
 30
0.0
 11
15.9615333754
 21
10.4510397716
 31
0.0
  0
LINE
  5
255
330
73
100
AcDbEntity
  8
0
  6
Continuous
 62
   179
370
    18
100
AcDbLine
 10
15.9615333754
 20
10.4510397716
 30
0.0
 11
15.9459824993
 21
10.5520431529
 31
0.0
  0
LINE
  5
256
330
73
100
AcDbEntity
  8
0
  6
Continuous
 62
   179
370
    18
100
AcDbLine
 10
15.9459824993
 20
10.5520431529
 30
0.0
 11
15.8837799911
 21
10.6219683005
 31
0.0
  0
LINE
  5
257
330
73
100
AcDbEntity
  8
0
  6
Continuous
 62
   179
370
    18
100
AcDbLine
 10
15.8837799911
 20
10.6219683005
 30
0.0
 11
15.8293519249
 21
10.6841241824
 31
0.0
  0
LINE
  5
258
330
73
100
AcDbEntity
  8
0
  6
Continuous
 62
   179
370
    18
100
AcDbLine
 10
15.8293519249
 20
10.6841241824
 30
0.0
 11
15.7204967885
 21
10.7152018306
 31
0.0
  0
LINE
  5
259
330
73
100
AcDbEntity
  8
0
  6
Continuous
 62
   179
370
    18
100
AcDbLine
 10
15.7204967885
 20
10.7152018306
 30
0.0
 11
15.6194170901
 21
10.7385102132
 31
0.0
  0
LINE
  5
25A
330
73
100
AcDbEntity
  8
0
  6
Continuous
 62
   179
370
    18
100
AcDbLine
 10
15.6194170901
 20
10.7385102132
 30
0.0
 11
15.5261118337
 21
10.7462800643
 31
0.0
  0
LINE
  5
25B
330
73
100
AcDbEntity
  8
0
  6
Continuous
 62
   179
370
    18
100
AcDbLine
 10
15.5261118337
 20
10.7462800643
 30
0.0
 11
15.4017058213
 21
10.7307409475
 31
0.0
  0
LINE
  5
25C
330
73
100
AcDbEntity
  8
0
  6
Continuous
 62
   179
370
    18
100
AcDbLine
 10
15.4017058213
 20
10.7307409475
 30
0.0
 11
15.2928506848
 21
10.6996632993
 31
0.0
  0
LINE
  5
25D
330
73
100
AcDbEntity
  8
0
  6
Continuous
 62
   179
370
    18
100
AcDbLine
 10
15.2928506848
 20
10.6996632993
 30
0.0
 11
15.2073218625
 21
10.6297375662
 31
0.0
  0
LINE
  5
25E
330
73
100
AcDbEntity
  8
0
  6
Continuous
 62
   179
370
    18
100
AcDbLine
 10
15.2073218625
 20
10.6297375662
 30
0.0
 11
15.1451183583
 21
10.5520431529
 31
0.0
  0
LINE
  5
25F
330
73
100
AcDbEntity
  8
0
  6
Continuous
 62
   179
370
    18
100
AcDbLine
 10
15.1451183583
 20
10.5520431529
 30
0.0
 11
15.1140166062
 21
10.5054258024
 31
0.0
  0
LINE
  5
260
330
73
100
AcDbEntity
  8
0
  6
Continuous
 62
   179
370
    18
100
AcDbLine
 10
15.1140166062
 20
10.5054258024
 30
0.0
 11
15.1140166062
 21
10.4588090373
 31
0.0
  0
LINE
  5
261
330
73
100
AcDbEntity
  8
0
  6
Continuous
 62
   179
370
    18
100
AcDbLine
 10
15.1140166062
 20
10.4588090373
 30
0.0
 11
15.1140166062
 21
10.4044230066
 31
0.0
  0
LINE
  5
262
330
73
100
AcDbEntity
  8
0
  6
Continuous
 62
   179
370
    18
100
AcDbLine
 10
15.1140166062
 20
10.4044230066
 30
0.0
 11
15.1295674822
 21
10.3267280078
 31
0.0
  0
LINE
  5
263
330
73
100
AcDbEntity
  8
0
  6
Continuous
 62
   179
370
    18
100
AcDbLine
 10
15.1295674822
 20
10.3267280078
 30
0.0
 11
15.1839955484
 21
10.2723413916
 31
0.0
  0
LINE
  5
264
330
73
100
AcDbEntity
  8
0
  6
Continuous
 62
   179
370
    18
100
AcDbLine
 10
15.1839955484
 20
10.2723413916
 30
0.0
 11
15.2384226187
 21
10.2257246265
 31
0.0
  0
LINE
  5
265
330
73
100
AcDbEntity
  8
0
  6
Continuous
 62
   179
370
    18
100
AcDbLine
 10
15.2384226187
 20
10.2257246265
 30
0.0
 11
15.4094812593
 21
10.1247218307
 31
0.0
  0
LINE
  5
266
330
73
100
AcDbEntity
  8
0
  6
Continuous
 62
   179
370
    18
100
AcDbLine
 10
15.4094812593
 20
10.1247218307
 30
0.0
 11
15.5805398999
 21
10.0858743313
 31
0.0
  0
LINE
  5
267
330
73
100
AcDbEntity
  8
0
  6
Continuous
 62
   179
370
    18
100
AcDbLine
 10
15.5805398999
 20
10.0858743313
 30
0.0
 11
15.7749248547
 21
10.0314877151
 31
0.0
  0
LINE
  5
268
330
73
100
AcDbEntity
  8
0
  6
Continuous
 62
   179
370
    18
100
AcDbLine
 10
15.7749248547
 20
10.0314877151
 30
0.0
 11
16.0081860036
 21
10.0081793326
 31
0.0
  0
LINE
  5
269
330
73
100
AcDbEntity
  8
0
  6
Continuous
 62
   179
370
    18
100
AcDbLine
 10
16.0081860036
 20
10.0081793326
 30
0.0
 11
16.1792446442
 21
9.9771016844
 31
0.0
  0
LINE
  5
26A
330
73
100
AcDbEntity
  8
0
  6
Continuous
 62
   179
370
    18
100
AcDbLine
 10
16.1792446442
 20
9.9771016844
 30
0.0
 11
16.2414471525
 21
9.9460234507
 31
0.0
  0
LINE
  5
26B
330
73
100
AcDbEntity
  8
0
  6
Continuous
 62
   179
370
    18
100
AcDbLine
 10
16.2414471525
 20
9.9460234507
 30
0.0
 11
16.3036506567
 21
9.8760983031
 31
0.0
  0
LINE
  5
26C
330
73
100
AcDbEntity
  8
0
  6
Continuous
 62
   179
370
    18
100
AcDbLine
 10
16.3036506567
 20
9.8760983031
 30
0.0
 11
16.3036506567
 21
9.7750949218
 31
0.0
  0
LINE
  5
26D
330
73
100
AcDbEntity
  8
0
  6
Continuous
 62
   179
370
    18
100
AcDbLine
 10
16.3036506567
 20
9.7750949218
 30
0.0
 11
16.2803243426
 21
9.6740915405
 31
0.0
  0
LINE
  5
26E
330
73
100
AcDbEntity
  8
0
  6
Continuous
 62
   179
370
    18
100
AcDbLine
 10
16.2803243426
 20
9.6740915405
 30
0.0
 11
16.2492225905
 21
9.5575496279
 31
0.0
  0
LINE
  5
26F
330
73
100
AcDbEntity
  8
0
  6
Continuous
 62
   179
370
    18
100
AcDbLine
 10
16.2492225905
 20
9.5575496279
 30
0.0
 11
16.2258962764
 21
9.4643160977
 31
0.0
  0
LINE
  5
270
330
73
100
AcDbEntity
  8
0
  6
Continuous
 62
   179
370
    18
100
AcDbLine
 10
16.2258962764
 20
9.4643160977
 30
0.0
 11
16.2336717144
 21
9.3710819821
 31
0.0
  0
LINE
  5
271
330
73
100
AcDbEntity
  8
0
  6
Continuous
 62
   179
370
    18
100
AcDbLine
 10
16.2336717144
 20
9.3710819821
 30
0.0
 11
16.2725489046
 21
9.231231687
 31
0.0
  0
LINE
  5
272
330
73
100
AcDbEntity
  8
0
  6
Continuous
 62
   179
370
    18
100
AcDbLine
 10
16.2725489046
 20
9.231231687
 30
0.0
 11
16.3425268509
 21
9.1379975714
 31
0.0
  0
LINE
  5
273
330
73
100
AcDbEntity
  8
0
  6
Continuous
 62
   179
370
    18
100
AcDbLine
 10
16.3425268509
 20
9.1379975714
 30
0.0
 11
16.4202812311
 21
9.0836115406
 31
0.0
  0
LINE
  5
274
330
73
100
AcDbEntity
  8
0
  6
Continuous
 62
   179
370
    18
100
AcDbLine
 10
16.4202812311
 20
9.0836115406
 30
0.0
 11
16.5369118056
 21
9.0214556587
 31
0.0
  0
LINE
  5
275
330
73
100
AcDbEntity
  8
0
  6
Continuous
 62
   179
370
    18
100
AcDbLine
 10
16.5369118056
 20
9.0214556587
 30
0.0
 11
16.7079704462
 21
8.990377425
 31
0.0
  0
LINE
  5
276
330
73
100
AcDbEntity
  8
0
  6
Continuous
 62
   179
370
    18
100
AcDbLine
 10
16.7079704462
 20
8.990377425
 30
0.0
 11
16.9256807191
 21
8.9748388936
 31
0.0
  0
LINE
  5
277
330
73
100
AcDbEntity
  8
0
  6
Continuous
 62
   179
370
    18
100
AcDbLine
 10
16.9256807191
 20
8.9748388936
 30
0.0
 11
17.1278411118
 21
8.9748388936
 31
0.0
  0
LINE
  5
278
330
73
100
AcDbEntity
  8
0
  6
Continuous
 62
   179
370
    18
100
AcDbLine
 10
17.1278411118
 20
8.9748388936
 30
0.0
 11
17.3222250706
 21
8.9981472762
 31
0.0
  0
LINE
  5
279
330
73
100
AcDbEntity
  8
0
  6
Continuous
 62
   179
370
    18
100
AcDbLine
 10
17.3222250706
 20
8.9981472762
 30
0.0
 11
17.4777328352
 21
9.0447640412
 31
0.0
  0
LINE
  5
27A
330
73
100
AcDbEntity
  8
0
  6
Continuous
 62
   179
370
    18
100
AcDbLine
 10
17.4777328352
 20
9.0447640412
 30
0.0
 11
17.5788125336
 21
9.1224584545
 31
0.0
  0
LINE
  5
27B
330
73
100
AcDbEntity
  8
0
  6
Continuous
 62
   179
370
    18
100
AcDbLine
 10
17.5788125336
 20
9.1224584545
 30
0.0
 11
17.68766767
 21
9.2312316869
 31
0.0
  0
LINE
  5
27C
330
73
100
AcDbEntity
  8
0
  6
Continuous
 62
   179
370
    18
100
AcDbLine
 10
17.68766767
 20
9.2312316869
 30
0.0
 11
17.7731974883
 21
9.3244652171
 31
0.0
  0
LINE
  5
27D
330
73
100
AcDbEntity
  8
0
  6
Continuous
 62
   179
370
    18
100
AcDbLine
 10
17.7731974883
 20
9.3244652171
 30
0.0
 11
17.8742771867
 21
9.3943903647
 31
0.0
  0
LINE
  5
27E
330
73
100
AcDbEntity
  8
0
  6
Continuous
 62
   179
370
    18
100
AcDbLine
 10
17.8742771867
 20
9.3943903647
 30
0.0
 11
17.9909077612
 21
9.4254685984
 31
0.0
  0
LINE
  5
27F
330
73
100
AcDbEntity
  8
0
  6
Continuous
 62
   179
370
    18
100
AcDbLine
 10
17.9909077612
 20
9.4254685984
 30
0.0
 11
18.1464155258
 21
9.4643160977
 31
0.0
  0
LINE
  5
280
330
73
100
AcDbEntity
  8
0
  6
Continuous
 62
   179
370
    18
100
AcDbLine
 10
18.1464155258
 20
9.4643160977
 30
0.0
 11
18.3252496044
 21
9.4876244803
 31
0.0
  0
LINE
  5
281
330
73
100
AcDbEntity
  8
0
  6
Continuous
 62
   179
370
    18
100
AcDbLine
 10
18.3252496044
 20
9.4876244803
 30
0.0
 11
18.4574310549
 21
9.4798546291
 31
0.0
  0
LINE
  5
282
330
73
100
AcDbEntity
  8
0
  6
Continuous
 62
   179
370
    18
100
AcDbLine
 10
18.4574310549
 20
9.4798546291
 30
0.0
 11
18.5896125054
 21
9.4643160977
 31
0.0
  0
LINE
  5
283
330
73
100
AcDbEntity
  8
0
  6
Continuous
 62
   179
370
    18
100
AcDbLine
 10
18.5896125054
 20
9.4643160977
 30
0.0
 11
18.7839964642
 21
9.433237864
 31
0.0
  0
LINE
  5
284
330
73
100
AcDbEntity
  8
0
  6
Continuous
 62
   179
370
    18
100
AcDbLine
 10
18.7839964642
 20
9.433237864
 30
0.0
 11
18.9317287908
 21
9.3710819821
 31
0.0
  0
LINE
  5
285
330
73
100
AcDbEntity
  8
0
  6
Continuous
 62
   179
370
    18
100
AcDbLine
 10
18.9317287908
 20
9.3710819821
 30
0.0
 11
19.0561348032
 21
9.3166959514
 31
0.0
  0
LINE
  5
286
330
73
100
AcDbEntity
  8
0
  6
Continuous
 62
   179
370
    18
100
AcDbLine
 10
19.0561348032
 20
9.3166959514
 30
0.0
 11
19.1649899397
 21
9.2467702183
 31
0.0
  0
LINE
  5
287
330
73
100
AcDbEntity
  8
0
  6
Continuous
 62
   179
370
    18
100
AcDbLine
 10
19.1649899397
 20
9.2467702183
 30
0.0
 11
19.258295196
 21
9.2001534533
 31
0.0
  0
LINE
  5
288
330
73
100
AcDbEntity
  8
0
  6
Continuous
 62
   179
370
    18
100
AcDbLine
 10
19.258295196
 20
9.2001534533
 30
0.0
 11
19.3904766465
 21
9.1923841876
 31
0.0
  0
LINE
  5
289
330
73
100
AcDbEntity
  8
0
  6
Continuous
 62
   179
370
    18
100
AcDbLine
 10
19.3904766465
 20
9.1923841876
 30
0.0
 11
19.4993317829
 21
9.2001534533
 31
0.0
  0
LINE
  5
28A
330
73
100
AcDbEntity
  8
0
  6
Continuous
 62
   179
370
    18
100
AcDbLine
 10
19.4993317829
 20
9.2001534533
 30
0.0
 11
19.6004114813
 21
9.2234618358
 31
0.0
  0
LINE
  5
28B
330
73
100
AcDbEntity
  8
0
  6
Continuous
 62
   179
370
    18
100
AcDbLine
 10
19.6004114813
 20
9.2234618358
 30
0.0
 11
19.7014921757
 21
9.277848452
 31
0.0
  0
LINE
  5
28C
330
73
100
AcDbEntity
  8
0
  6
Continuous
 62
   179
370
    18
100
AcDbLine
 10
19.7014921757
 20
9.277848452
 30
0.0
 11
19.7559192459
 21
9.3322344828
 31
0.0
  0
LINE
  5
28D
330
73
100
AcDbEntity
  8
0
  6
Continuous
 62
   179
370
    18
100
AcDbLine
 10
19.7559192459
 20
9.3322344828
 30
0.0
 11
19.794796436
 21
9.3788518333
 31
0.0
  0
LINE
  5
28E
330
73
100
AcDbEntity
  8
0
  6
Continuous
 62
   179
370
    18
100
AcDbLine
 10
19.794796436
 20
9.3788518333
 30
0.0
 11
19.8181227501
 21
9.4410071297
 31
0.0
  0
LINE
  5
28F
330
73
100
AcDbEntity
  8
0
  6
Continuous
 62
   179
370
    18
100
AcDbLine
 10
19.8181227501
 20
9.4410071297
 30
0.0
 11
19.8414480683
 21
9.5264713942
 31
0.0
  0
LINE
  5
290
330
73
100
AcDbEntity
  8
0
  6
Continuous
 62
   179
370
    18
100
AcDbLine
 10
19.8414480683
 20
9.5264713942
 30
0.0
 11
19.8414480683
 21
9.5886272761
 31
0.0
  0
LINE
  5
291
330
73
100
AcDbEntity
  8
0
  6
Continuous
 62
   179
370
    18
100
AcDbLine
 10
19.8414480683
 20
9.5886272761
 30
0.0
 11
19.8181227501
 21
9.6663222748
 31
0.0
  0
LINE
  5
292
330
73
100
AcDbEntity
  8
0
  6
Continuous
 62
   179
370
    18
100
AcDbLine
 10
19.8181227501
 20
9.6663222748
 30
0.0
 11
19.77924556
 21
9.7284781567
 31
0.0
  0
LINE
  5
293
330
73
100
AcDbEntity
  8
0
  6
Continuous
 62
   179
370
    18
100
AcDbLine
 10
19.77924556
 20
9.7284781567
 30
0.0
 11
19.7170420558
 21
9.7673256561
 31
0.0
  0
LINE
  5
294
330
73
100
AcDbEntity
  8
0
  6
Continuous
 62
   179
370
    18
100
AcDbLine
 10
19.7170420558
 20
9.7673256561
 30
0.0
 11
19.6470641095
 21
9.8217116869
 31
0.0
  0
LINE
  5
295
330
73
100
AcDbEntity
  8
0
  6
Continuous
 62
   179
370
    18
100
AcDbLine
 10
19.6470641095
 20
9.8217116869
 30
0.0
 11
19.5693097292
 21
9.8450200694
 31
0.0
  0
LINE
  5
296
330
73
100
AcDbEntity
  8
0
  6
Continuous
 62
   179
370
    18
100
AcDbLine
 10
19.5693097292
 20
9.8450200694
 30
0.0
 11
19.4915563449
 21
9.8683284519
 31
0.0
  0
LINE
  5
297
330
73
100
AcDbEntity
  8
0
  6
Continuous
 62
   179
370
    18
100
AcDbLine
 10
19.4915563449
 20
9.8683284519
 30
0.0
 11
19.3593748944
 21
9.8916374199
 31
0.0
  0
LINE
  5
298
330
73
100
AcDbEntity
  8
0
  6
Continuous
 62
   179
370
    18
100
AcDbLine
 10
19.3593748944
 20
9.8916374199
 30
0.0
 11
19.250519758
 21
9.8916374199
 31
0.0
  0
LINE
  5
299
330
73
100
AcDbEntity
  8
0
  6
Continuous
 62
   179
370
    18
100
AcDbLine
 10
19.250519758
 20
9.8916374199
 30
0.0
 11
19.1416646215
 21
9.8838675688
 31
0.0
  0
LINE
  5
29A
330
73
100
AcDbEntity
  8
0
  6
Continuous
 62
   179
370
    18
100
AcDbLine
 10
19.1416646215
 20
9.8838675688
 30
0.0
 11
19.0561348032
 21
9.8527899206
 31
0.0
  0
LINE
  5
29B
330
73
100
AcDbEntity
  8
0
  6
Continuous
 62
   179
370
    18
100
AcDbLine
 10
19.0561348032
 20
9.8527899206
 30
0.0
 11
19.001707733
 21
9.7906340386
 31
0.0
  0
LINE
  5
29C
330
73
100
AcDbEntity
  8
0
  6
Continuous
 62
   179
370
    18
100
AcDbLine
 10
19.001707733
 20
9.7906340386
 30
0.0
 11
18.9161779147
 21
9.7207088911
 31
0.0
  0
LINE
  5
29D
330
73
100
AcDbEntity
  8
0
  6
Continuous
 62
   179
370
    18
100
AcDbLine
 10
18.9161779147
 20
9.7207088911
 30
0.0
 11
18.8384245304
 21
9.6740915405
 31
0.0
  0
LINE
  5
29E
330
73
100
AcDbEntity
  8
0
  6
Continuous
 62
   179
370
    18
100
AcDbLine
 10
18.8384245304
 20
9.6740915405
 30
0.0
 11
18.729569394
 21
9.6274747755
 31
0.0
  0
LINE
  5
29F
330
73
100
AcDbEntity
  8
0
  6
Continuous
 62
   179
370
    18
100
AcDbLine
 10
18.729569394
 20
9.6274747755
 30
0.0
 11
18.6051633815
 21
9.6274747755
 31
0.0
  0
LINE
  5
2A0
330
73
100
AcDbEntity
  8
0
  6
Continuous
 62
   179
370
    18
100
AcDbLine
 10
18.6051633815
 20
9.6274747755
 30
0.0
 11
18.5274090012
 21
9.650783158
 31
0.0
  0
LINE
  5
2A1
330
73
100
AcDbEntity
  8
0
  6
Continuous
 62
   179
370
    18
100
AcDbLine
 10
18.5274090012
 20
9.650783158
 30
0.0
 11
18.4574310549
 21
9.6818613917
 31
0.0
  0
LINE
  5
2A2
330
73
100
AcDbEntity
  8
0
  6
Continuous
 62
   179
370
    18
100
AcDbLine
 10
18.4574310549
 20
9.6818613917
 30
0.0
 11
18.3952275507
 21
9.7051697742
 31
0.0
  0
LINE
  5
2A3
330
73
100
AcDbEntity
  8
0
  6
Continuous
 62
   179
370
    18
100
AcDbLine
 10
18.3952275507
 20
9.7051697742
 30
0.0
 11
18.3174741664
 21
9.7673256561
 31
0.0
  0
LINE
  5
2A4
330
73
100
AcDbEntity
  8
0
  6
Continuous
 62
   179
370
    18
100
AcDbLine
 10
18.3174741664
 20
9.7673256561
 30
0.0
 11
18.2708215382
 21
9.8139424212
 31
0.0
  0
LINE
  5
2A5
330
73
100
AcDbEntity
  8
0
  6
Continuous
 62
   179
370
    18
100
AcDbLine
 10
18.2708215382
 20
9.8139424212
 30
0.0
 11
18.2552706622
 21
9.9071759513
 31
0.0
  0
LINE
  5
2A6
330
73
100
AcDbEntity
  8
0
  6
Continuous
 62
   179
370
    18
100
AcDbLine
 10
18.2552706622
 20
9.9071759513
 30
0.0
 11
18.2397197861
 21
10.0237184494
 31
0.0
  0
LINE
  5
2A7
330
73
100
AcDbEntity
  8
0
  6
Continuous
 62
   179
370
    18
100
AcDbLine
 10
18.2397197861
 20
10.0237184494
 30
0.0
 11
18.2319443481
 21
10.1402603621
 31
0.0
  0
LINE
  5
2A8
330
73
100
AcDbEntity
  8
0
  6
Continuous
 62
   179
370
    18
100
AcDbLine
 10
18.2319443481
 20
10.1402603621
 30
0.0
 11
18.2474952241
 21
10.2334944777
 31
0.0
  0
LINE
  5
2A9
330
73
100
AcDbEntity
  8
0
  6
Continuous
 62
   179
370
    18
100
AcDbLine
 10
18.2474952241
 20
10.2334944777
 30
0.0
 11
18.3019232903
 21
10.2956503596
 31
0.0
  0
LINE
  5
2AA
330
73
100
AcDbEntity
  8
0
  6
Continuous
 62
   179
370
    18
100
AcDbLine
 10
18.3019232903
 20
10.2956503596
 30
0.0
 11
18.4185538648
 21
10.3500363903
 31
0.0
  0
LINE
  5
2AB
330
73
100
AcDbEntity
  8
0
  6
Continuous
 62
   179
370
    18
100
AcDbLine
 10
18.4185538648
 20
10.3500363903
 30
0.0
 11
18.5662861913
 21
10.3888838897
 31
0.0
  0
LINE
  5
2AC
330
73
100
AcDbEntity
  8
0
  6
Continuous
 62
   179
370
    18
100
AcDbLine
 10
18.5662861913
 20
10.3888838897
 30
0.0
 11
18.737344832
 21
10.4277313891
 31
0.0
  0
LINE
  5
2AD
330
73
100
AcDbEntity
  8
0
  6
Continuous
 62
   179
370
    18
100
AcDbLine
 10
18.737344832
 20
10.4277313891
 30
0.0
 11
18.8850771586
 21
10.4510397716
 31
0.0
  0
LINE
  5
2AE
330
73
100
AcDbEntity
  8
0
  6
Continuous
 62
   179
370
    18
100
AcDbLine
 10
18.8850771586
 20
10.4510397716
 30
0.0
 11
19.0950119934
 21
10.4743481542
 31
0.0
  0
LINE
  5
2AF
330
73
100
AcDbEntity
  8
0
  6
Continuous
 62
   179
370
    18
100
AcDbLine
 10
19.0950119934
 20
10.4743481542
 30
0.0
 11
19.266070634
 21
10.489887271
 31
0.0
  0
LINE
  5
2B0
330
73
100
AcDbEntity
  8
0
  6
Continuous
 62
   179
370
    18
100
AcDbLine
 10
19.266070634
 20
10.489887271
 30
0.0
 11
19.4371282787
 21
10.5365040361
 31
0.0
  0
LINE
  5
2B1
330
73
100
AcDbEntity
  8
0
  6
Continuous
 62
   179
370
    18
100
AcDbLine
 10
19.4371282787
 20
10.5365040361
 30
0.0
 11
19.514882659
 21
10.5598124186
 31
0.0
  0
LINE
  5
2B2
330
73
100
AcDbEntity
  8
0
  6
Continuous
 62
   179
370
    18
100
AcDbLine
 10
19.514882659
 20
10.5598124186
 30
0.0
 11
19.5770851672
 21
10.6141990348
 31
0.0
  0
LINE
  5
2B3
330
73
100
AcDbEntity
  8
0
  6
Continuous
 62
   179
370
    18
100
AcDbLine
 10
19.5770851672
 20
10.6141990348
 30
0.0
 11
19.6315132334
 21
10.6841241824
 31
0.0
  0
LINE
  5
2B4
330
73
100
AcDbEntity
  8
0
  6
Continuous
 62
   179
370
    18
100
AcDbLine
 10
19.6315132334
 20
10.6841241824
 30
0.0
 11
19.6626149855
 21
10.7928968294
 31
0.0
  0
LINE
  5
2B5
330
73
100
AcDbEntity
  8
0
  6
Continuous
 62
   179
370
    18
100
AcDbLine
 10
19.6626149855
 20
10.7928968294
 30
0.0
 11
19.6548395475
 21
10.909438742
 31
0.0
  0
LINE
  5
2B6
330
73
100
AcDbEntity
  8
0
  6
Continuous
 62
   179
370
    18
100
AcDbLine
 10
19.6548395475
 20
10.909438742
 30
0.0
 11
19.6237377954
 21
11.0026728576
 31
0.0
  0
LINE
  5
2B7
330
73
100
AcDbEntity
  8
0
  6
Continuous
 62
   179
370
    18
100
AcDbLine
 10
19.6237377954
 20
11.0026728576
 30
0.0
 11
19.5615352871
 21
11.0959063878
 31
0.0
  0
LINE
  5
2B8
330
73
100
AcDbEntity
  8
0
  6
Continuous
 62
   179
370
    18
100
AcDbLine
 10
19.5615352871
 20
11.0959063878
 30
0.0
 11
19.4760054688
 21
11.1813706522
 31
0.0
  0
LINE
  5
2B9
330
73
100
AcDbEntity
  8
0
  6
Continuous
 62
   179
370
    18
100
AcDbLine
 10
19.4760054688
 20
11.1813706522
 30
0.0
 11
19.3749257704
 21
11.259065651
 31
0.0
  0
LINE
  5
2BA
330
73
100
AcDbEntity
  8
0
  6
Continuous
 62
   179
370
    18
100
AcDbLine
 10
19.3749257704
 20
11.259065651
 30
0.0
 11
19.273846072
 21
11.305682416
 31
0.0
  0
LINE
  5
2BB
330
73
100
AcDbEntity
  8
0
  6
Continuous
 62
   179
370
    18
100
AcDbLine
 10
19.273846072
 20
11.305682416
 30
0.0
 11
19.1416646215
 21
11.3600690322
 31
0.0
  0
LINE
  5
2BC
330
73
100
AcDbEntity
  8
0
  6
Continuous
 62
   179
370
    18
100
AcDbLine
 10
19.1416646215
 20
11.3600690322
 30
0.0
 11
18.9783814189
 21
11.3989159461
 31
0.0
  0
LINE
  5
2BD
330
73
100
AcDbEntity
  8
0
  6
Continuous
 62
   179
370
    18
100
AcDbLine
 10
18.9783814189
 20
11.3989159461
 30
0.0
 11
18.8073227783
 21
11.3989159461
 31
0.0
  0
LINE
  5
2BE
330
73
100
AcDbEntity
  8
0
  6
Continuous
 62
   179
370
    18
100
AcDbLine
 10
18.8073227783
 20
11.3989159461
 30
0.0
 11
18.6362641376
 21
11.3678382979
 31
0.0
  0
LINE
  5
2BF
330
73
100
AcDbEntity
  8
0
  6
Continuous
 62
   179
370
    18
100
AcDbLine
 10
18.6362641376
 20
11.3678382979
 30
0.0
 11
18.4574310549
 21
11.2979131503
 31
0.0
  0
LINE
  5
2C0
330
73
100
AcDbEntity
  8
0
  6
Continuous
 62
   179
370
    18
100
AcDbLine
 10
18.4574310549
 20
11.2979131503
 30
0.0
 11
18.3874521127
 21
11.2202181516
 31
0.0
  0
LINE
  5
2C1
330
73
100
AcDbEntity
  8
0
  6
Continuous
 62
   179
370
    18
100
AcDbLine
 10
18.3874521127
 20
11.2202181516
 30
0.0
 11
18.3330250424
 21
11.1347538871
 31
0.0
  0
LINE
  5
2C2
330
73
100
AcDbEntity
  8
0
  6
Continuous
 62
   179
370
    18
100
AcDbLine
 10
18.3330250424
 20
11.1347538871
 30
0.0
 11
18.3252496044
 21
10.9871337408
 31
0.0
  0
LINE
  5
2C3
330
73
100
AcDbEntity
  8
0
  6
Continuous
 62
   179
370
    18
100
AcDbLine
 10
18.3252496044
 20
10.9871337408
 30
0.0
 11
18.3563503606
 21
10.8705918281
 31
0.0
  0
LINE
  5
2C4
330
73
100
AcDbEntity
  8
0
  6
Continuous
 62
   179
370
    18
100
AcDbLine
 10
18.3563503606
 20
10.8705918281
 30
0.0
 11
18.3563503606
 21
10.7229716818
 31
0.0
  0
LINE
  5
2C5
330
73
100
AcDbEntity
  8
0
  6
Continuous
 62
   179
370
    18
100
AcDbLine
 10
18.3563503606
 20
10.7229716818
 30
0.0
 11
18.3330250424
 21
10.6219683005
 31
0.0
  0
LINE
  5
2C6
330
73
100
AcDbEntity
  8
0
  6
Continuous
 62
   179
370
    18
100
AcDbLine
 10
18.3330250424
 20
10.6219683005
 30
0.0
 11
18.2785969763
 21
10.5287341849
 31
0.0
  0
LINE
  5
2C7
330
73
100
AcDbEntity
  8
0
  6
Continuous
 62
   179
370
    18
100
AcDbLine
 10
18.2785969763
 20
10.5287341849
 30
0.0
 11
18.1852927159
 21
10.4510397716
 31
0.0
  0
LINE
  5
2C8
330
73
100
AcDbEntity
  8
0
  6
Continuous
 62
   179
370
    18
100
AcDbLine
 10
18.1852927159
 20
10.4510397716
 30
0.0
 11
18.0997628976
 21
10.3888838897
 31
0.0
  0
LINE
  5
2C9
330
73
100
AcDbEntity
  8
0
  6
Continuous
 62
   179
370
    18
100
AcDbLine
 10
18.0997628976
 20
10.3888838897
 30
0.0
 11
17.9831323231
 21
10.3422671247
 31
0.0
  0
LINE
  5
2CA
330
73
100
AcDbEntity
  8
0
  6
Continuous
 62
   179
370
    18
100
AcDbLine
 10
17.9831323231
 20
10.3422671247
 30
0.0
 11
17.8665017487
 21
10.3344972735
 31
0.0
  0
LINE
  5
2CB
330
73
100
AcDbEntity
  8
0
  6
Continuous
 62
   179
370
    18
100
AcDbLine
 10
17.8665017487
 20
10.3344972735
 30
0.0
 11
17.7265448601
 21
10.3344972735
 31
0.0
  0
LINE
  5
2CC
330
73
100
AcDbEntity
  8
0
  6
Continuous
 62
   179
370
    18
100
AcDbLine
 10
17.7265448601
 20
10.3344972735
 30
0.0
 11
17.5865879716
 21
10.3422671247
 31
0.0
  0
LINE
  5
2CD
330
73
100
AcDbEntity
  8
0
  6
Continuous
 62
     3
370
    18
100
AcDbLine
 10
16.4125057931
 20
11.3600690322
 30
0.0
 11
16.5757889957
 21
11.52322771
 31
0.0
  0
LINE
  5
2CE
330
73
100
AcDbEntity
  8
0
  6
Continuous
 62
     3
370
    18
100
AcDbLine
 10
16.5757889957
 20
11.52322771
 30
0.0
 11
16.7390712024
 21
11.5853835919
 31
0.0
  0
LINE
  5
2CF
330
73
100
AcDbEntity
  8
0
  6
Continuous
 62
     3
370
    18
100
AcDbLine
 10
16.7390712024
 20
11.5853835919
 30
0.0
 11
16.9567824712
 21
11.6086919744
 31
0.0
  0
LINE
  5
2D0
330
73
100
AcDbEntity
  8
0
  6
Continuous
 62
     3
370
    18
100
AcDbLine
 10
16.9567824712
 20
11.6086919744
 30
0.0
 11
17.2055944962
 21
11.5853835919
 31
0.0
  0
LINE
  5
2D1
330
73
100
AcDbEntity
  8
0
  6
Continuous
 62
     3
370
    18
100
AcDbLine
 10
17.2055944962
 20
11.5853835919
 30
0.0
 11
17.4621819591
 21
11.5387668268
 31
0.0
  0
LINE
  5
2D2
330
73
100
AcDbEntity
  8
0
  6
Continuous
 62
     3
370
    18
100
AcDbLine
 10
17.4621819591
 20
11.5387668268
 30
0.0
 11
17.5710370956
 21
11.4921500617
 31
0.0
  0
LINE
  5
2D3
330
73
100
AcDbEntity
  8
0
  6
Continuous
 62
     3
370
    18
100
AcDbLine
 10
17.5710370956
 20
11.4921500617
 30
0.0
 11
17.7032185461
 21
11.3911466805
 31
0.0
  0
LINE
  5
2D4
330
73
100
AcDbEntity
  8
0
  6
Continuous
 62
     3
370
    18
100
AcDbLine
 10
17.7032185461
 20
11.3911466805
 30
0.0
 11
17.7187694221
 21
11.2668349166
 31
0.0
  0
LINE
  5
2D5
330
73
100
AcDbEntity
  8
0
  6
Continuous
 62
     3
370
    18
100
AcDbLine
 10
17.7187694221
 20
11.2668349166
 30
0.0
 11
17.7187694221
 21
11.1425231528
 31
0.0
  0
LINE
  5
2D6
330
73
100
AcDbEntity
  8
0
  6
Continuous
 62
     3
370
    18
100
AcDbLine
 10
17.7187694221
 20
11.1425231528
 30
0.0
 11
17.6487914758
 21
10.9871337408
 31
0.0
  0
LINE
  5
2D7
330
73
100
AcDbEntity
  8
0
  6
Continuous
 62
     3
370
    18
100
AcDbLine
 10
17.6487914758
 20
10.9871337408
 30
0.0
 11
17.5554862195
 21
10.8395135944
 31
0.0
  0
LINE
  5
2D8
330
73
100
AcDbEntity
  8
0
  6
Continuous
 62
     3
370
    18
100
AcDbLine
 10
17.5554862195
 20
10.8395135944
 30
0.0
 11
17.4621819591
 21
10.7462800643
 31
0.0
  0
LINE
  5
2D9
330
73
100
AcDbEntity
  8
0
  6
Continuous
 62
     3
370
    18
100
AcDbLine
 10
17.4621819591
 20
10.7462800643
 30
0.0
 11
17.3766531368
 21
10.645276683
 31
0.0
  0
LINE
  5
2DA
330
73
100
AcDbEntity
  8
0
  6
Continuous
 62
     3
370
    18
100
AcDbLine
 10
17.3766531368
 20
10.645276683
 30
0.0
 11
17.3533268227
 21
10.5442733017
 31
0.0
  0
LINE
  5
2DB
330
73
100
AcDbEntity
  8
0
  6
Continuous
 62
     3
370
    18
100
AcDbLine
 10
17.3533268227
 20
10.5442733017
 30
0.0
 11
17.3611022607
 21
10.4355006548
 31
0.0
  0
LINE
  5
2DC
330
73
100
AcDbEntity
  8
0
  6
Continuous
 62
     3
370
    18
100
AcDbLine
 10
17.3611022607
 20
10.4355006548
 30
0.0
 11
17.3999794509
 21
10.381114624
 31
0.0
  0
LINE
  5
2DD
330
73
100
AcDbEntity
  8
0
  6
Continuous
 62
     3
370
    18
100
AcDbLine
 10
17.3999794509
 20
10.381114624
 30
0.0
 11
17.4699573972
 21
10.357805656
 31
0.0
  0
LINE
  5
2DE
330
73
100
AcDbEntity
  8
0
  6
Continuous
 62
     3
370
    18
100
AcDbLine
 10
17.4699573972
 20
10.357805656
 30
0.0
 11
17.5865879716
 21
10.3422671247
 31
0.0
  0
LINE
  5
2DF
330
73
100
AcDbEntity
  8
0
  6
Continuous
 62
     3
370
    18
100
AcDbLine
 10
17.5865879716
 20
10.3422671247
 30
0.0
 11
17.7265448601
 21
10.3344972735
 31
0.0
  0
LINE
  5
2E0
330
73
100
AcDbEntity
  8
0
  6
Continuous
 62
     3
370
    18
100
AcDbLine
 10
17.7265448601
 20
10.3344972735
 30
0.0
 11
17.8665017487
 21
10.3344972735
 31
0.0
  0
LINE
  5
2E1
330
73
100
AcDbEntity
  8
0
  6
Continuous
 62
     3
370
    18
100
AcDbLine
 10
17.8665017487
 20
10.3344972735
 30
0.0
 11
17.9831323231
 21
10.3422671247
 31
0.0
  0
LINE
  5
2E2
330
73
100
AcDbEntity
  8
0
  6
Continuous
 62
     3
370
    18
100
AcDbLine
 10
17.9831323231
 20
10.3422671247
 30
0.0
 11
18.0997628976
 21
10.3888838897
 31
0.0
  0
LINE
  5
2E3
330
73
100
AcDbEntity
  8
0
  6
Continuous
 62
     3
370
    18
100
AcDbLine
 10
18.0997628976
 20
10.3888838897
 30
0.0
 11
18.1852927159
 21
10.4510397716
 31
0.0
  0
LINE
  5
2E4
330
73
100
AcDbEntity
  8
0
  6
Continuous
 62
     3
370
    18
100
AcDbLine
 10
18.1852927159
 20
10.4510397716
 30
0.0
 11
18.2785969763
 21
10.5287341849
 31
0.0
  0
LINE
  5
2E5
330
73
100
AcDbEntity
  8
0
  6
Continuous
 62
     3
370
    18
100
AcDbLine
 10
18.2785969763
 20
10.5287341849
 30
0.0
 11
18.3330250424
 21
10.6219683005
 31
0.0
  0
LINE
  5
2E6
330
73
100
AcDbEntity
  8
0
  6
Continuous
 62
     3
370
    18
100
AcDbLine
 10
18.3330250424
 20
10.6219683005
 30
0.0
 11
18.3563503606
 21
10.7229716818
 31
0.0
  0
LINE
  5
2E7
330
73
100
AcDbEntity
  8
0
  6
Continuous
 62
     3
370
    18
100
AcDbLine
 10
18.3563503606
 20
10.7229716818
 30
0.0
 11
18.3563503606
 21
10.8705918281
 31
0.0
  0
LINE
  5
2E8
330
73
100
AcDbEntity
  8
0
  6
Continuous
 62
     3
370
    18
100
AcDbLine
 10
18.3563503606
 20
10.8705918281
 30
0.0
 11
18.3252496044
 21
10.9871337408
 31
0.0
  0
LINE
  5
2E9
330
73
100
AcDbEntity
  8
0
  6
Continuous
 62
     3
370
    18
100
AcDbLine
 10
18.3252496044
 20
10.9871337408
 30
0.0
 11
18.3330250424
 21
11.1347538871
 31
0.0
  0
LINE
  5
2EA
330
73
100
AcDbEntity
  8
0
  6
Continuous
 62
     3
370
    18
100
AcDbLine
 10
18.3330250424
 20
11.1347538871
 30
0.0
 11
18.3874521127
 21
11.2202181516
 31
0.0
  0
LINE
  5
2EB
330
73
100
AcDbEntity
  8
0
  6
Continuous
 62
     3
370
    18
100
AcDbLine
 10
18.3874521127
 20
11.2202181516
 30
0.0
 11
18.4574310549
 21
11.2979131503
 31
0.0
  0
LINE
  5
2EC
330
73
100
AcDbEntity
  8
0
  6
Continuous
 62
     3
370
    18
100
AcDbLine
 10
18.4574310549
 20
11.2979131503
 30
0.0
 11
18.6362641376
 21
11.3678382979
 31
0.0
  0
LINE
  5
2ED
330
73
100
AcDbEntity
  8
0
  6
Continuous
 62
     3
370
    18
100
AcDbLine
 10
18.6362641376
 20
11.3678382979
 30
0.0
 11
18.8073227783
 21
11.3989159461
 31
0.0
  0
LINE
  5
2EE
330
73
100
AcDbEntity
  8
0
  6
Continuous
 62
     3
370
    18
100
AcDbLine
 10
18.8073227783
 20
11.3989159461
 30
0.0
 11
18.9783814189
 21
11.3989159461
 31
0.0
  0
LINE
  5
2EF
330
73
100
AcDbEntity
  8
0
  6
Continuous
 62
     3
370
    18
100
AcDbLine
 10
18.9783814189
 20
11.3989159461
 30
0.0
 11
19.1416646215
 21
11.3600690322
 31
0.0
  0
LINE
  5
2F0
330
73
100
AcDbEntity
  8
0
  6
Continuous
 62
     3
370
    18
100
AcDbLine
 10
19.1416646215
 20
11.3600690322
 30
0.0
 11
19.273846072
 21
11.305682416
 31
0.0
  0
LINE
  5
2F1
330
73
100
AcDbEntity
  8
0
  6
Continuous
 62
     3
370
    18
100
AcDbLine
 10
19.273846072
 20
11.305682416
 30
0.0
 11
19.3749257704
 21
11.259065651
 31
0.0
  0
LINE
  5
2F2
330
73
100
AcDbEntity
  8
0
  6
Continuous
 62
     3
370
    18
100
AcDbLine
 10
19.3749257704
 20
11.259065651
 30
0.0
 11
19.4760054688
 21
11.1813706522
 31
0.0
  0
LINE
  5
2F3
330
73
100
AcDbEntity
  8
0
  6
Continuous
 62
     3
370
    18
100
AcDbLine
 10
19.4760054688
 20
11.1813706522
 30
0.0
 11
19.5615352871
 21
11.0959063878
 31
0.0
  0
LINE
  5
2F4
330
73
100
AcDbEntity
  8
0
  6
Continuous
 62
     3
370
    18
100
AcDbLine
 10
19.5615352871
 20
11.0959063878
 30
0.0
 11
19.6237377954
 21
11.0026728576
 31
0.0
  0
LINE
  5
2F5
330
73
100
AcDbEntity
  8
0
  6
Continuous
 62
     3
370
    18
100
AcDbLine
 10
19.6237377954
 20
11.0026728576
 30
0.0
 11
19.6548395475
 21
10.909438742
 31
0.0
  0
LINE
  5
2F6
330
73
100
AcDbEntity
  8
0
  6
Continuous
 62
     3
370
    18
100
AcDbLine
 10
19.6548395475
 20
10.909438742
 30
0.0
 11
19.6626149855
 21
10.7928968294
 31
0.0
  0
LINE
  5
2F7
330
73
100
AcDbEntity
  8
0
  6
Continuous
 62
     3
370
    18
100
AcDbLine
 10
19.6626149855
 20
10.7928968294
 30
0.0
 11
19.6315132334
 21
10.6841241824
 31
0.0
  0
LINE
  5
2F8
330
73
100
AcDbEntity
  8
0
  6
Continuous
 62
     3
370
    18
100
AcDbLine
 10
19.6315132334
 20
10.6841241824
 30
0.0
 11
19.5770851672
 21
10.6141990348
 31
0.0
  0
LINE
  5
2F9
330
73
100
AcDbEntity
  8
0
  6
Continuous
 62
     3
370
    18
100
AcDbLine
 10
19.5770851672
 20
10.6141990348
 30
0.0
 11
19.514882659
 21
10.5598124186
 31
0.0
  0
LINE
  5
2FA
330
73
100
AcDbEntity
  8
0
  6
Continuous
 62
     3
370
    18
100
AcDbLine
 10
19.514882659
 20
10.5598124186
 30
0.0
 11
19.4371282787
 21
10.5365040361
 31
0.0
  0
LINE
  5
2FB
330
73
100
AcDbEntity
  8
0
  6
Continuous
 62
     3
370
    18
100
AcDbLine
 10
19.4371282787
 20
10.5365040361
 30
0.0
 11
19.266070634
 21
10.489887271
 31
0.0
  0
LINE
  5
2FC
330
73
100
AcDbEntity
  8
0
  6
Continuous
 62
     3
370
    18
100
AcDbLine
 10
19.266070634
 20
10.489887271
 30
0.0
 11
19.0950119934
 21
10.4743481542
 31
0.0
  0
LINE
  5
2FD
330
73
100
AcDbEntity
  8
0
  6
Continuous
 62
     3
370
    18
100
AcDbLine
 10
19.0950119934
 20
10.4743481542
 30
0.0
 11
18.8850771586
 21
10.4510397716
 31
0.0
  0
LINE
  5
2FE
330
73
100
AcDbEntity
  8
0
  6
Continuous
 62
     3
370
    18
100
AcDbLine
 10
18.8850771586
 20
10.4510397716
 30
0.0
 11
18.737344832
 21
10.4277313891
 31
0.0
  0
LINE
  5
2FF
330
73
100
AcDbEntity
  8
0
  6
Continuous
 62
     3
370
    18
100
AcDbLine
 10
18.737344832
 20
10.4277313891
 30
0.0
 11
18.5662861913
 21
10.3888838897
 31
0.0
  0
LINE
  5
300
330
73
100
AcDbEntity
  8
0
  6
Continuous
 62
     3
370
    18
100
AcDbLine
 10
18.5662861913
 20
10.3888838897
 30
0.0
 11
18.4185538648
 21
10.3500363903
 31
0.0
  0
LINE
  5
301
330
73
100
AcDbEntity
  8
0
  6
Continuous
 62
     3
370
    18
100
AcDbLine
 10
18.4185538648
 20
10.3500363903
 30
0.0
 11
18.3019232903
 21
10.2956503596
 31
0.0
  0
LINE
  5
302
330
73
100
AcDbEntity
  8
0
  6
Continuous
 62
     3
370
    18
100
AcDbLine
 10
18.3019232903
 20
10.2956503596
 30
0.0
 11
18.2474952241
 21
10.2334944777
 31
0.0
  0
LINE
  5
303
330
73
100
AcDbEntity
  8
0
  6
Continuous
 62
     3
370
    18
100
AcDbLine
 10
18.2474952241
 20
10.2334944777
 30
0.0
 11
18.2319443481
 21
10.1402603621
 31
0.0
  0
LINE
  5
304
330
73
100
AcDbEntity
  8
0
  6
Continuous
 62
     3
370
    18
100
AcDbLine
 10
18.2319443481
 20
10.1402603621
 30
0.0
 11
18.2397197861
 21
10.0237184494
 31
0.0
  0
LINE
  5
305
330
73
100
AcDbEntity
  8
0
  6
Continuous
 62
     3
370
    18
100
AcDbLine
 10
18.2397197861
 20
10.0237184494
 30
0.0
 11
18.2552706622
 21
9.9071759513
 31
0.0
  0
LINE
  5
306
330
73
100
AcDbEntity
  8
0
  6
Continuous
 62
     3
370
    18
100
AcDbLine
 10
18.2552706622
 20
9.9071759513
 30
0.0
 11
18.2708215382
 21
9.8139424212
 31
0.0
  0
LINE
  5
307
330
73
100
AcDbEntity
  8
0
  6
Continuous
 62
     3
370
    18
100
AcDbLine
 10
18.2708215382
 20
9.8139424212
 30
0.0
 11
18.3174741664
 21
9.7673256561
 31
0.0
  0
LINE
  5
308
330
73
100
AcDbEntity
  8
0
  6
Continuous
 62
     3
370
    18
100
AcDbLine
 10
18.3174741664
 20
9.7673256561
 30
0.0
 11
18.3952275507
 21
9.7051697742
 31
0.0
  0
LINE
  5
309
330
73
100
AcDbEntity
  8
0
  6
Continuous
 62
     3
370
    18
100
AcDbLine
 10
18.3952275507
 20
9.7051697742
 30
0.0
 11
18.4574310549
 21
9.6818613917
 31
0.0
  0
LINE
  5
30A
330
73
100
AcDbEntity
  8
0
  6
Continuous
 62
     3
370
    18
100
AcDbLine
 10
18.4574310549
 20
9.6818613917
 30
0.0
 11
18.5274090012
 21
9.650783158
 31
0.0
  0
LINE
  5
30B
330
73
100
AcDbEntity
  8
0
  6
Continuous
 62
     3
370
    18
100
AcDbLine
 10
18.5274090012
 20
9.650783158
 30
0.0
 11
18.6051633815
 21
9.6274747755
 31
0.0
  0
LINE
  5
30C
330
73
100
AcDbEntity
  8
0
  6
Continuous
 62
     3
370
    18
100
AcDbLine
 10
18.6051633815
 20
9.6274747755
 30
0.0
 11
18.729569394
 21
9.6274747755
 31
0.0
  0
LINE
  5
30D
330
73
100
AcDbEntity
  8
0
  6
Continuous
 62
     3
370
    18
100
AcDbLine
 10
18.729569394
 20
9.6274747755
 30
0.0
 11
18.8384245304
 21
9.6740915405
 31
0.0
  0
LINE
  5
30E
330
73
100
AcDbEntity
  8
0
  6
Continuous
 62
     3
370
    18
100
AcDbLine
 10
18.8384245304
 20
9.6740915405
 30
0.0
 11
18.9161779147
 21
9.7207088911
 31
0.0
  0
LINE
  5
30F
330
73
100
AcDbEntity
  8
0
  6
Continuous
 62
     3
370
    18
100
AcDbLine
 10
18.9161779147
 20
9.7207088911
 30
0.0
 11
19.001707733
 21
9.7906340386
 31
0.0
  0
LINE
  5
310
330
73
100
AcDbEntity
  8
0
  6
Continuous
 62
     3
370
    18
100
AcDbLine
 10
19.001707733
 20
9.7906340386
 30
0.0
 11
19.0561348032
 21
9.8527899206
 31
0.0
  0
LINE
  5
311
330
73
100
AcDbEntity
  8
0
  6
Continuous
 62
     3
370
    18
100
AcDbLine
 10
19.0561348032
 20
9.8527899206
 30
0.0
 11
19.1416646215
 21
9.8838675688
 31
0.0
  0
LINE
  5
312
330
73
100
AcDbEntity
  8
0
  6
Continuous
 62
     3
370
    18
100
AcDbLine
 10
19.1416646215
 20
9.8838675688
 30
0.0
 11
19.250519758
 21
9.8916374199
 31
0.0
  0
LINE
  5
313
330
73
100
AcDbEntity
  8
0
  6
Continuous
 62
     3
370
    18
100
AcDbLine
 10
19.250519758
 20
9.8916374199
 30
0.0
 11
19.3593748944
 21
9.8916374199
 31
0.0
  0
LINE
  5
314
330
73
100
AcDbEntity
  8
0
  6
Continuous
 62
     3
370
    18
100
AcDbLine
 10
19.3593748944
 20
9.8916374199
 30
0.0
 11
19.4915563449
 21
9.8683284519
 31
0.0
  0
LINE
  5
315
330
73
100
AcDbEntity
  8
0
  6
Continuous
 62
     3
370
    18
100
AcDbLine
 10
19.4915563449
 20
9.8683284519
 30
0.0
 11
19.5693097292
 21
9.8450200694
 31
0.0
  0
LINE
  5
316
330
73
100
AcDbEntity
  8
0
  6
Continuous
 62
     3
370
    18
100
AcDbLine
 10
19.5693097292
 20
9.8450200694
 30
0.0
 11
19.6470641095
 21
9.8217116869
 31
0.0
  0
LINE
  5
317
330
73
100
AcDbEntity
  8
0
  6
Continuous
 62
     3
370
    18
100
AcDbLine
 10
19.6470641095
 20
9.8217116869
 30
0.0
 11
19.7170420558
 21
9.7673256561
 31
0.0
  0
LINE
  5
318
330
73
100
AcDbEntity
  8
0
  6
Continuous
 62
     3
370
    18
100
AcDbLine
 10
19.7170420558
 20
9.7673256561
 30
0.0
 11
19.77924556
 21
9.7284781567
 31
0.0
  0
LINE
  5
319
330
73
100
AcDbEntity
  8
0
  6
Continuous
 62
     3
370
    18
100
AcDbLine
 10
19.77924556
 20
9.7284781567
 30
0.0
 11
19.8181227501
 21
9.6663222748
 31
0.0
  0
LINE
  5
31A
330
73
100
AcDbEntity
  8
0
  6
Continuous
 62
     3
370
    18
100
AcDbLine
 10
19.8181227501
 20
9.6663222748
 30
0.0
 11
19.8414480683
 21
9.5886272761
 31
0.0
  0
LINE
  5
31B
330
73
100
AcDbEntity
  8
0
  6
Continuous
 62
     3
370
    18
100
AcDbLine
 10
19.8414480683
 20
9.5886272761
 30
0.0
 11
19.8414480683
 21
9.5264713942
 31
0.0
  0
LINE
  5
31C
330
73
100
AcDbEntity
  8
0
  6
Continuous
 62
     3
370
    18
100
AcDbLine
 10
19.8414480683
 20
9.5264713942
 30
0.0
 11
19.8181227501
 21
9.4410071297
 31
0.0
  0
LINE
  5
31D
330
73
100
AcDbEntity
  8
0
  6
Continuous
 62
     3
370
    18
100
AcDbLine
 10
19.8181227501
 20
9.4410071297
 30
0.0
 11
19.794796436
 21
9.3788518333
 31
0.0
  0
LINE
  5
31E
330
73
100
AcDbEntity
  8
0
  6
Continuous
 62
     3
370
    18
100
AcDbLine
 10
19.794796436
 20
9.3788518333
 30
0.0
 11
19.7559192459
 21
9.3322344828
 31
0.0
  0
LINE
  5
31F
330
73
100
AcDbEntity
  8
0
  6
Continuous
 62
     3
370
    18
100
AcDbLine
 10
19.7559192459
 20
9.3322344828
 30
0.0
 11
19.7014921757
 21
9.277848452
 31
0.0
  0
LINE
  5
320
330
73
100
AcDbEntity
  8
0
  6
Continuous
 62
     3
370
    18
100
AcDbLine
 10
19.7014921757
 20
9.277848452
 30
0.0
 11
19.6004114813
 21
9.2234618358
 31
0.0
  0
LINE
  5
321
330
73
100
AcDbEntity
  8
0
  6
Continuous
 62
     3
370
    18
100
AcDbLine
 10
19.6004114813
 20
9.2234618358
 30
0.0
 11
19.4993317829
 21
9.2001534533
 31
0.0
  0
LINE
  5
322
330
73
100
AcDbEntity
  8
0
  6
Continuous
 62
     3
370
    18
100
AcDbLine
 10
19.4993317829
 20
9.2001534533
 30
0.0
 11
19.3904766465
 21
9.1923841876
 31
0.0
  0
LINE
  5
323
330
73
100
AcDbEntity
  8
0
  6
Continuous
 62
     3
370
    18
100
AcDbLine
 10
19.3904766465
 20
9.1923841876
 30
0.0
 11
19.258295196
 21
9.2001534533
 31
0.0
  0
LINE
  5
324
330
73
100
AcDbEntity
  8
0
  6
Continuous
 62
     3
370
    18
100
AcDbLine
 10
19.258295196
 20
9.2001534533
 30
0.0
 11
19.1649899397
 21
9.2467702183
 31
0.0
  0
LINE
  5
325
330
73
100
AcDbEntity
  8
0
  6
Continuous
 62
     3
370
    18
100
AcDbLine
 10
19.1649899397
 20
9.2467702183
 30
0.0
 11
19.0561348032
 21
9.3166959514
 31
0.0
  0
LINE
  5
326
330
73
100
AcDbEntity
  8
0
  6
Continuous
 62
     3
370
    18
100
AcDbLine
 10
19.0561348032
 20
9.3166959514
 30
0.0
 11
18.9317287908
 21
9.3710819821
 31
0.0
  0
LINE
  5
327
330
73
100
AcDbEntity
  8
0
  6
Continuous
 62
     3
370
    18
100
AcDbLine
 10
18.9317287908
 20
9.3710819821
 30
0.0
 11
18.7839964642
 21
9.433237864
 31
0.0
  0
LINE
  5
328
330
73
100
AcDbEntity
  8
0
  6
Continuous
 62
     3
370
    18
100
AcDbLine
 10
18.7839964642
 20
9.433237864
 30
0.0
 11
18.5896125054
 21
9.4643160977
 31
0.0
  0
LINE
  5
329
330
73
100
AcDbEntity
  8
0
  6
Continuous
 62
     3
370
    18
100
AcDbLine
 10
18.5896125054
 20
9.4643160977
 30
0.0
 11
18.4574310549
 21
9.4798546291
 31
0.0
  0
LINE
  5
32A
330
73
100
AcDbEntity
  8
0
  6
Continuous
 62
     3
370
    18
100
AcDbLine
 10
18.4574310549
 20
9.4798546291
 30
0.0
 11
18.3252496044
 21
9.4876244803
 31
0.0
  0
LINE
  5
32B
330
73
100
AcDbEntity
  8
0
  6
Continuous
 62
     3
370
    18
100
AcDbLine
 10
18.3252496044
 20
9.4876244803
 30
0.0
 11
18.1464155258
 21
9.4643160977
 31
0.0
  0
LINE
  5
32C
330
73
100
AcDbEntity
  8
0
  6
Continuous
 62
     3
370
    18
100
AcDbLine
 10
18.1464155258
 20
9.4643160977
 30
0.0
 11
17.9909077612
 21
9.4254685984
 31
0.0
  0
LINE
  5
32D
330
73
100
AcDbEntity
  8
0
  6
Continuous
 62
     3
370
    18
100
AcDbLine
 10
17.9909077612
 20
9.4254685984
 30
0.0
 11
17.8742771867
 21
9.3943903647
 31
0.0
  0
LINE
  5
32E
330
73
100
AcDbEntity
  8
0
  6
Continuous
 62
     3
370
    18
100
AcDbLine
 10
17.8742771867
 20
9.3943903647
 30
0.0
 11
17.7731974883
 21
9.3244652171
 31
0.0
  0
LINE
  5
32F
330
73
100
AcDbEntity
  8
0
  6
Continuous
 62
     3
370
    18
100
AcDbLine
 10
17.7731974883
 20
9.3244652171
 30
0.0
 11
17.68766767
 21
9.2312316869
 31
0.0
  0
LINE
  5
330
330
73
100
AcDbEntity
  8
0
  6
Continuous
 62
     3
370
    18
100
AcDbLine
 10
17.68766767
 20
9.2312316869
 30
0.0
 11
17.5788125336
 21
9.1224584545
 31
0.0
  0
LINE
  5
331
330
73
100
AcDbEntity
  8
0
  6
Continuous
 62
     3
370
    18
100
AcDbLine
 10
17.5788125336
 20
9.1224584545
 30
0.0
 11
17.4777328352
 21
9.0447640412
 31
0.0
  0
LINE
  5
332
330
73
100
AcDbEntity
  8
0
  6
Continuous
 62
     3
370
    18
100
AcDbLine
 10
17.4777328352
 20
9.0447640412
 30
0.0
 11
17.3222250706
 21
8.9981472762
 31
0.0
  0
LINE
  5
333
330
73
100
AcDbEntity
  8
0
  6
Continuous
 62
     3
370
    18
100
AcDbLine
 10
17.3222250706
 20
8.9981472762
 30
0.0
 11
17.1278411118
 21
8.9748388936
 31
0.0
  0
LINE
  5
334
330
73
100
AcDbEntity
  8
0
  6
Continuous
 62
     3
370
    18
100
AcDbLine
 10
17.1278411118
 20
8.9748388936
 30
0.0
 11
16.9256807191
 21
8.9748388936
 31
0.0
  0
LINE
  5
335
330
73
100
AcDbEntity
  8
0
  6
Continuous
 62
     3
370
    18
100
AcDbLine
 10
16.9256807191
 20
8.9748388936
 30
0.0
 11
16.7079704462
 21
8.990377425
 31
0.0
  0
LINE
  5
336
330
73
100
AcDbEntity
  8
0
  6
Continuous
 62
     3
370
    18
100
AcDbLine
 10
16.7079704462
 20
8.990377425
 30
0.0
 11
16.5369118056
 21
9.0214556587
 31
0.0
  0
LINE
  5
337
330
73
100
AcDbEntity
  8
0
  6
Continuous
 62
     3
370
    18
100
AcDbLine
 10
16.5369118056
 20
9.0214556587
 30
0.0
 11
16.4202812311
 21
9.0836115406
 31
0.0
  0
LINE
  5
338
330
73
100
AcDbEntity
  8
0
  6
Continuous
 62
     3
370
    18
100
AcDbLine
 10
16.4202812311
 20
9.0836115406
 30
0.0
 11
16.3425268509
 21
9.1379975714
 31
0.0
  0
LINE
  5
339
330
73
100
AcDbEntity
  8
0
  6
Continuous
 62
     3
370
    18
100
AcDbLine
 10
16.3425268509
 20
9.1379975714
 30
0.0
 11
16.2725489046
 21
9.231231687
 31
0.0
  0
LINE
  5
33A
330
73
100
AcDbEntity
  8
0
  6
Continuous
 62
     3
370
    18
100
AcDbLine
 10
16.2725489046
 20
9.231231687
 30
0.0
 11
16.2336717144
 21
9.3710819821
 31
0.0
  0
LINE
  5
33B
330
73
100
AcDbEntity
  8
0
  6
Continuous
 62
     3
370
    18
100
AcDbLine
 10
16.2336717144
 20
9.3710819821
 30
0.0
 11
16.2258962764
 21
9.4643160977
 31
0.0
  0
LINE
  5
33C
330
73
100
AcDbEntity
  8
0
  6
Continuous
 62
     3
370
    18
100
AcDbLine
 10
16.2258962764
 20
9.4643160977
 30
0.0
 11
16.2492225905
 21
9.5575496279
 31
0.0
  0
LINE
  5
33D
330
73
100
AcDbEntity
  8
0
  6
Continuous
 62
     3
370
    18
100
AcDbLine
 10
16.2492225905
 20
9.5575496279
 30
0.0
 11
16.2803243426
 21
9.6740915405
 31
0.0
  0
LINE
  5
33E
330
73
100
AcDbEntity
  8
0
  6
Continuous
 62
     3
370
    18
100
AcDbLine
 10
16.2803243426
 20
9.6740915405
 30
0.0
 11
16.3036506567
 21
9.7750949218
 31
0.0
  0
LINE
  5
33F
330
73
100
AcDbEntity
  8
0
  6
Continuous
 62
     3
370
    18
100
AcDbLine
 10
16.3036506567
 20
9.7750949218
 30
0.0
 11
16.3036506567
 21
9.8760983031
 31
0.0
  0
LINE
  5
340
330
73
100
AcDbEntity
  8
0
  6
Continuous
 62
     3
370
    18
100
AcDbLine
 10
16.3036506567
 20
9.8760983031
 30
0.0
 11
16.2414471525
 21
9.9460234507
 31
0.0
  0
LINE
  5
341
330
73
100
AcDbEntity
  8
0
  6
Continuous
 62
     3
370
    18
100
AcDbLine
 10
16.2414471525
 20
9.9460234507
 30
0.0
 11
16.1792446442
 21
9.9771016844
 31
0.0
  0
LINE
  5
342
330
73
100
AcDbEntity
  8
0
  6
Continuous
 62
     3
370
    18
100
AcDbLine
 10
16.1792446442
 20
9.9771016844
 30
0.0
 11
16.0081860036
 21
10.0081793326
 31
0.0
  0
LINE
  5
343
330
73
100
AcDbEntity
  8
0
  6
Continuous
 62
     3
370
    18
100
AcDbLine
 10
16.0081860036
 20
10.0081793326
 30
0.0
 11
15.7749248547
 21
10.0314877151
 31
0.0
  0
LINE
  5
344
330
73
100
AcDbEntity
  8
0
  6
Continuous
 62
     3
370
    18
100
AcDbLine
 10
15.7749248547
 20
10.0314877151
 30
0.0
 11
15.5805398999
 21
10.0858743313
 31
0.0
  0
LINE
  5
345
330
73
100
AcDbEntity
  8
0
  6
Continuous
 62
     3
370
    18
100
AcDbLine
 10
15.5805398999
 20
10.0858743313
 30
0.0
 11
15.4094812593
 21
10.1247218307
 31
0.0
  0
LINE
  5
346
330
73
100
AcDbEntity
  8
0
  6
Continuous
 62
     3
370
    18
100
AcDbLine
 10
15.4094812593
 20
10.1247218307
 30
0.0
 11
15.2384226187
 21
10.2257246265
 31
0.0
  0
LINE
  5
347
330
73
100
AcDbEntity
  8
0
  6
Continuous
 62
     3
370
    18
100
AcDbLine
 10
15.2384226187
 20
10.2257246265
 30
0.0
 11
15.1839955484
 21
10.2723413916
 31
0.0
  0
LINE
  5
348
330
73
100
AcDbEntity
  8
0
  6
Continuous
 62
     3
370
    18
100
AcDbLine
 10
15.1839955484
 20
10.2723413916
 30
0.0
 11
15.1295674822
 21
10.3267280078
 31
0.0
  0
LINE
  5
349
330
73
100
AcDbEntity
  8
0
  6
Continuous
 62
     3
370
    18
100
AcDbLine
 10
15.1295674822
 20
10.3267280078
 30
0.0
 11
15.1140166062
 21
10.4044230066
 31
0.0
  0
LINE
  5
34A
330
73
100
AcDbEntity
  8
0
  6
Continuous
 62
     3
370
    18
100
AcDbLine
 10
15.1140166062
 20
10.4044230066
 30
0.0
 11
15.1140166062
 21
10.4588090373
 31
0.0
  0
LINE
  5
34B
330
73
100
AcDbEntity
  8
0
  6
Continuous
 62
     3
370
    18
100
AcDbLine
 10
15.1140166062
 20
10.4588090373
 30
0.0
 11
15.1140166062
 21
10.5054258024
 31
0.0
  0
LINE
  5
34C
330
73
100
AcDbEntity
  8
0
  6
Continuous
 62
     3
370
    18
100
AcDbLine
 10
15.1140166062
 20
10.5054258024
 30
0.0
 11
15.1451183583
 21
10.5520431529
 31
0.0
  0
LINE
  5
34D
330
73
100
AcDbEntity
  8
0
  6
Continuous
 62
     3
370
    18
100
AcDbLine
 10
15.1451183583
 20
10.5520431529
 30
0.0
 11
15.2073218625
 21
10.6297375662
 31
0.0
  0
LINE
  5
34E
330
73
100
AcDbEntity
  8
0
  6
Continuous
 62
     3
370
    18
100
AcDbLine
 10
15.2073218625
 20
10.6297375662
 30
0.0
 11
15.2928506848
 21
10.6996632993
 31
0.0
  0
LINE
  5
34F
330
73
100
AcDbEntity
  8
0
  6
Continuous
 62
     3
370
    18
100
AcDbLine
 10
15.2928506848
 20
10.6996632993
 30
0.0
 11
15.4017058213
 21
10.7307409475
 31
0.0
  0
LINE
  5
350
330
73
100
AcDbEntity
  8
0
  6
Continuous
 62
     3
370
    18
100
AcDbLine
 10
15.4017058213
 20
10.7307409475
 30
0.0
 11
15.5261118337
 21
10.7462800643
 31
0.0
  0
LINE
  5
351
330
73
100
AcDbEntity
  8
0
  6
Continuous
 62
     3
370
    18
100
AcDbLine
 10
15.5261118337
 20
10.7462800643
 30
0.0
 11
15.6194170901
 21
10.7385102132
 31
0.0
  0
LINE
  5
352
330
73
100
AcDbEntity
  8
0
  6
Continuous
 62
     3
370
    18
100
AcDbLine
 10
15.6194170901
 20
10.7385102132
 30
0.0
 11
15.7204967885
 21
10.7152018306
 31
0.0
  0
LINE
  5
353
330
73
100
AcDbEntity
  8
0
  6
Continuous
 62
     3
370
    18
100
AcDbLine
 10
15.7204967885
 20
10.7152018306
 30
0.0
 11
15.8293519249
 21
10.6841241824
 31
0.0
  0
LINE
  5
354
330
73
100
AcDbEntity
  8
0
  6
Continuous
 62
     3
370
    18
100
AcDbLine
 10
15.8293519249
 20
10.6841241824
 30
0.0
 11
15.8837799911
 21
10.6219683005
 31
0.0
  0
LINE
  5
355
330
73
100
AcDbEntity
  8
0
  6
Continuous
 62
     3
370
    18
100
AcDbLine
 10
15.8837799911
 20
10.6219683005
 30
0.0
 11
15.9459824993
 21
10.5520431529
 31
0.0
  0
LINE
  5
356
330
73
100
AcDbEntity
  8
0
  6
Continuous
 62
     3
370
    18
100
AcDbLine
 10
15.9459824993
 20
10.5520431529
 30
0.0
 11
15.9615333754
 21
10.4510397716
 31
0.0
  0
LINE
  5
357
330
73
100
AcDbEntity
  8
0
  6
Continuous
 62
     3
370
    18
100
AcDbLine
 10
15.9615333754
 20
10.4510397716
 30
0.0
 11
16.0081860036
 21
10.3189587421
 31
0.0
  0
LINE
  5
358
330
73
100
AcDbEntity
  8
0
  6
Continuous
 62
     3
370
    18
100
AcDbLine
 10
16.0081860036
 20
10.3189587421
 30
0.0
 11
16.0548376358
 21
10.2412637434
 31
0.0
  0
LINE
  5
359
330
73
100
AcDbEntity
  8
0
  6
Continuous
 62
     3
370
    18
100
AcDbLine
 10
16.0548376358
 20
10.2412637434
 30
0.0
 11
16.1559183301
 21
10.1557994789
 31
0.0
  0
LINE
  5
35A
330
73
100
AcDbEntity
  8
0
  6
Continuous
 62
     3
370
    18
100
AcDbLine
 10
16.1559183301
 20
10.1557994789
 30
0.0
 11
16.2803243426
 21
10.1324910964
 31
0.0
  0
LINE
  5
35B
330
73
100
AcDbEntity
  8
0
  6
Continuous
 62
     3
370
    18
100
AcDbLine
 10
16.2803243426
 20
10.1324910964
 30
0.0
 11
16.4591574253
 21
10.1091827139
 31
0.0
  0
LINE
  5
35C
330
73
100
AcDbEntity
  8
0
  6
Continuous
 62
     3
370
    18
100
AcDbLine
 10
16.4591574253
 20
10.1091827139
 30
0.0
 11
16.6068897519
 21
10.1169519796
 31
0.0
  0
LINE
  5
35D
330
73
100
AcDbEntity
  8
0
  6
Continuous
 62
     3
370
    18
100
AcDbLine
 10
16.6068897519
 20
10.1169519796
 30
0.0
 11
16.7468466404
 21
10.1324910964
 31
0.0
  0
LINE
  5
35E
330
73
100
AcDbEntity
  8
0
  6
Continuous
 62
     3
370
    18
100
AcDbLine
 10
16.7468466404
 20
10.1324910964
 30
0.0
 11
16.8401518967
 21
10.1713385958
 31
0.0
  0
LINE
  5
35F
330
73
100
AcDbEntity
  8
0
  6
Continuous
 62
     3
370
    18
100
AcDbLine
 10
16.8401518967
 20
10.1713385958
 30
0.0
 11
16.9179052811
 21
10.2334944777
 31
0.0
  0
LINE
  5
360
330
73
100
AcDbEntity
  8
0
  6
Continuous
 62
     3
370
    18
100
AcDbLine
 10
16.9179052811
 20
10.2334944777
 30
0.0
 11
16.9567824712
 21
10.3267280078
 31
0.0
  0
LINE
  5
361
330
73
100
AcDbEntity
  8
0
  6
Continuous
 62
     3
370
    18
100
AcDbLine
 10
16.9567824712
 20
10.3267280078
 30
0.0
 11
16.9801087853
 21
10.4588090373
 31
0.0
  0
LINE
  5
362
330
73
100
AcDbEntity
  8
0
  6
Continuous
 62
     3
370
    18
100
AcDbLine
 10
16.9801087853
 20
10.4588090373
 30
0.0
 11
16.9723333472
 21
10.5442733017
 31
0.0
  0
LINE
  5
363
330
73
100
AcDbEntity
  8
0
  6
Continuous
 62
     3
370
    18
100
AcDbLine
 10
16.9723333472
 20
10.5442733017
 30
0.0
 11
16.9412315951
 21
10.6219683005
 31
0.0
  0
LINE
  5
364
330
73
100
AcDbEntity
  8
0
  6
Continuous
 62
     3
370
    18
100
AcDbLine
 10
16.9412315951
 20
10.6219683005
 30
0.0
 11
16.894578967
 21
10.6763543313
 31
0.0
  0
LINE
  5
365
330
73
100
AcDbEntity
  8
0
  6
Continuous
 62
     3
370
    18
100
AcDbLine
 10
16.894578967
 20
10.6763543313
 30
0.0
 11
16.8168255827
 21
10.7307409475
 31
0.0
  0
LINE
  5
366
330
73
100
AcDbEntity
  8
0
  6
Continuous
 62
     3
370
    18
100
AcDbLine
 10
16.8168255827
 20
10.7307409475
 30
0.0
 11
16.7001950082
 21
10.7851275637
 31
0.0
  0
LINE
  5
367
330
73
100
AcDbEntity
  8
0
  6
Continuous
 62
     3
370
    18
100
AcDbLine
 10
16.7001950082
 20
10.7851275637
 30
0.0
 11
16.5991143139
 21
10.8395135944
 31
0.0
  0
LINE
  5
368
330
73
100
AcDbEntity
  8
0
  6
Continuous
 62
     3
370
    18
100
AcDbLine
 10
16.5991143139
 20
10.8395135944
 30
0.0
 11
16.5135854915
 21
10.8861303595
 31
0.0
  0
LINE
  5
369
330
73
100
AcDbEntity
  8
0
  6
Continuous
 62
     3
370
    18
100
AcDbLine
 10
16.5135854915
 20
10.8861303595
 30
0.0
 11
16.4280566692
 21
10.9482862414
 31
0.0
  0
LINE
  5
36A
330
73
100
AcDbEntity
  8
0
  6
Continuous
 62
     3
370
    18
100
AcDbLine
 10
16.4280566692
 20
10.9482862414
 30
0.0
 11
16.4047303551
 21
11.0026728576
 31
0.0
  0
LINE
  5
36B
330
73
100
AcDbEntity
  8
0
  6
Continuous
 62
     3
370
    18
100
AcDbLine
 10
16.4047303551
 20
11.0026728576
 30
0.0
 11
16.389179479
 21
11.0337505059
 31
0.0
  0
LINE
  5
36C
330
73
100
AcDbEntity
  8
0
  6
Continuous
 62
     3
370
    18
100
AcDbLine
 10
16.389179479
 20
11.0337505059
 30
0.0
 11
16.381404041
 21
11.1114455046
 31
0.0
  0
LINE
  5
36D
330
73
100
AcDbEntity
  8
0
  6
Continuous
 62
     3
370
    18
100
AcDbLine
 10
16.381404041
 20
11.1114455046
 30
0.0
 11
16.381404041
 21
11.150293004
 31
0.0
  0
LINE
  5
36E
330
73
100
AcDbEntity
  8
0
  6
Continuous
 62
     3
370
    18
100
AcDbLine
 10
16.381404041
 20
11.150293004
 30
0.0
 11
16.373628603
 21
11.2124488859
 31
0.0
  0
LINE
  5
36F
330
73
100
AcDbEntity
  8
0
  6
Continuous
 62
     3
370
    18
100
AcDbLine
 10
16.373628603
 20
11.2124488859
 30
0.0
 11
16.381404041
 21
11.259065651
 31
0.0
  0
LINE
  5
370
330
73
100
AcDbEntity
  8
0
  6
Continuous
 62
     3
370
    18
100
AcDbLine
 10
16.381404041
 20
11.259065651
 30
0.0
 11
16.3969549171
 21
11.3134516817
 31
0.0
  0
LINE
  5
371
330
73
100
AcDbEntity
  8
0
  6
Continuous
 62
     3
370
    18
100
AcDbLine
 10
16.3969549171
 20
11.3134516817
 30
0.0
 11
16.4125057931
 21
11.3600690322
 31
0.0
  0
LINE
  5
372
330
73
100
AcDbEntity
  8
0
  6
Continuous
 62
     3
370
    18
100
AcDbLine
 10
14.325316014
 20
7.5587068035
 30
0.0
 11
14.8230555949
 21
7.8902817329
 31
0.0
  0
LINE
  5
373
330
73
100
AcDbEntity
  8
0
  6
Continuous
 62
     3
370
    18
100
AcDbLine
 10
14.8230555949
 20
7.8902817329
 30
0.0
 11
15.4716259254
 21
8.2067853407
 31
0.0
  0
LINE
  5
374
330
73
100
AcDbEntity
  8
0
  6
Continuous
 62
     3
370
    18
100
AcDbLine
 10
15.4716259254
 20
8.2067853407
 30
0.0
 11
15.8939506296
 21
8.3575008983
 31
0.0
  0
LINE
  5
375
330
73
100
AcDbEntity
  8
0
  6
Continuous
 62
     3
370
    18
100
AcDbLine
 10
15.8939506296
 20
8.3575008983
 30
0.0
 11
16.3011925576
 21
8.4177873555
 31
0.0
  0
LINE
  5
376
330
73
100
AcDbEntity
  8
0
  6
Continuous
 62
     3
370
    18
100
AcDbLine
 10
16.3011925576
 20
8.4177873555
 30
0.0
 11
16.648102385
 21
8.4177873555
 31
0.0
  0
LINE
  5
377
330
73
100
AcDbEntity
  8
0
  6
Continuous
 62
     3
370
    18
100
AcDbLine
 10
16.648102385
 20
8.4177873555
 30
0.0
 11
16.8743480113
 21
8.3725728053
 31
0.0
  0
LINE
  5
378
330
73
100
AcDbEntity
  8
0
  6
Continuous
 62
     3
370
    18
100
AcDbLine
 10
16.8743480113
 20
8.3725728053
 30
0.0
 11
17.0855108614
 21
8.2670717979
 31
0.0
  0
LINE
  5
379
330
73
100
AcDbEntity
  8
0
  6
Continuous
 62
     3
370
    18
100
AcDbLine
 10
17.0855108614
 20
8.2670717979
 30
0.0
 11
17.2966737114
 21
8.1163556548
 31
0.0
  0
LINE
  5
37A
330
73
100
AcDbEntity
  8
0
  6
Continuous
 62
     3
370
    18
100
AcDbLine
 10
17.2966737114
 20
8.1163556548
 30
0.0
 11
17.4173379126
 21
7.9505681901
 31
0.0
  0
LINE
  5
37B
330
73
100
AcDbEntity
  8
0
  6
Continuous
 62
     3
370
    18
100
AcDbLine
 10
17.4173379126
 20
7.9505681901
 30
0.0
 11
17.5078355655
 21
7.7395661753
 31
0.0
  0
LINE
  5
37C
330
73
100
AcDbEntity
  8
0
  6
Continuous
 62
     3
370
    18
100
AcDbLine
 10
17.5078355655
 20
7.7395661753
 30
0.0
 11
17.5229183417
 21
7.4984209318
 31
0.0
  0
LINE
  5
37D
330
73
100
AcDbEntity
  8
0
  6
Continuous
 62
     3
370
    18
100
AcDbLine
 10
17.5229183417
 20
7.4984209318
 30
0.0
 11
17.4324206888
 21
7.2120605526
 31
0.0
  0
LINE
  5
37E
330
73
100
AcDbEntity
  8
0
  6
Continuous
 62
     3
370
    18
100
AcDbLine
 10
17.4324206888
 20
7.2120605526
 30
0.0
 11
17.2061750626
 21
6.8804856233
 31
0.0
  0
LINE
  5
37F
330
73
100
AcDbEntity
  8
0
  6
Continuous
 62
     3
370
    18
100
AcDbLine
 10
17.2061750626
 20
6.8804856233
 30
0.0
 11
16.6782689333
 21
6.0515482999
 31
0.0
  0
LINE
  5
380
330
73
100
AcDbEntity
  8
0
  6
Continuous
 62
     3
370
    18
100
AcDbLine
 10
16.6782689333
 20
6.0515482999
 30
0.0
 11
16.2710270053
 21
5.4034703483
 31
0.0
  0
LINE
  5
381
330
73
100
AcDbEntity
  8
0
  6
Continuous
 62
     3
370
    18
100
AcDbLine
 10
16.2710270053
 20
5.4034703483
 30
0.0
 11
16.0900307035
 21
5.1321818761
 31
0.0
  0
LINE
  5
382
330
73
100
AcDbEntity
  8
0
  6
Continuous
 62
     3
370
    18
100
AcDbLine
 10
16.0900307035
 20
5.1321818761
 30
0.0
 11
16.0900307035
 21
5.0417521903
 31
0.0
  0
LINE
  5
383
330
73
100
AcDbEntity
  8
0
  6
Continuous
 62
     3
370
    18
100
AcDbLine
 10
16.0900307035
 20
5.0417521903
 30
0.0
 11
16.0900307035
 21
4.9663944115
 31
0.0
  0
LINE
  5
384
330
73
100
AcDbEntity
  8
0
  6
Continuous
 62
     3
370
    18
100
AcDbLine
 10
16.0900307035
 20
4.9663944115
 30
0.0
 11
16.1352800279
 21
4.9362511829
 31
0.0
  0
LINE
  5
385
330
73
100
AcDbEntity
  8
0
  6
Continuous
 62
     3
370
    18
100
AcDbLine
 10
16.1352800279
 20
4.9362511829
 30
0.0
 11
16.1956121285
 21
4.9362511829
 31
0.0
  0
LINE
  5
386
330
73
100
AcDbEntity
  8
0
  6
Continuous
 62
     3
370
    18
100
AcDbLine
 10
16.1956121285
 20
4.9362511829
 30
0.0
 11
16.2559442291
 21
4.9061079542
 31
0.0
  0
LINE
  5
387
330
73
100
AcDbEntity
  8
0
  6
Continuous
 62
     3
370
    18
100
AcDbLine
 10
16.2559442291
 20
4.9061079542
 30
0.0
 11
16.346441882
 21
4.9362511829
 31
0.0
  0
LINE
  5
388
330
73
100
AcDbEntity
  8
0
  6
Continuous
 62
     3
370
    18
100
AcDbLine
 10
16.346441882
 20
4.9362511829
 30
0.0
 11
16.5123554077
 21
4.9663944115
 31
0.0
  0
LINE
  5
389
330
73
100
AcDbEntity
  8
0
  6
Continuous
 62
     3
370
    18
100
AcDbLine
 10
16.5123554077
 20
4.9663944115
 30
0.0
 11
16.648102385
 21
5.0266808687
 31
0.0
  0
LINE
  5
38A
330
73
100
AcDbEntity
  8
0
  6
Continuous
 62
     3
370
    18
100
AcDbLine
 10
16.648102385
 20
5.0266808687
 30
0.0
 11
16.7687665862
 21
5.1171099691
 31
0.0
  0
LINE
  5
38B
330
73
100
AcDbEntity
  8
0
  6
Continuous
 62
     3
370
    18
100
AcDbLine
 10
16.7687665862
 20
5.1171099691
 30
0.0
 11
16.949763884
 21
5.2527542052
 31
0.0
  0
LINE
  5
38C
330
73
100
AcDbEntity
  8
0
  6
Continuous
 62
     3
370
    18
100
AcDbLine
 10
16.949763884
 20
5.2527542052
 30
0.0
 11
17.145842962
 21
5.4185416698
 31
0.0
  0
LINE
  5
38D
330
73
100
AcDbEntity
  8
0
  6
Continuous
 62
     3
370
    18
100
AcDbLine
 10
17.145842962
 20
5.4185416698
 30
0.0
 11
17.251424387
 21
5.4939000341
 31
0.0
  0
LINE
  5
38E
330
73
100
AcDbEntity
  8
0
  6
Continuous
 62
     3
370
    18
100
AcDbLine
 10
17.251424387
 20
5.4939000341
 30
0.0
 11
17.3268392637
 21
5.5240432627
 31
0.0
  0
LINE
  5
38F
330
73
100
AcDbEntity
  8
0
  6
Continuous
 62
     3
370
    18
100
AcDbLine
 10
17.3268392637
 20
5.5240432627
 30
0.0
 11
17.3720885882
 21
5.5240432627
 31
0.0
  0
LINE
  5
390
330
73
100
AcDbEntity
  8
0
  6
Continuous
 62
     3
370
    18
100
AcDbLine
 10
17.3720885882
 20
5.5240432627
 30
0.0
 11
17.4475034649
 21
5.4939000341
 31
0.0
  0
LINE
  5
391
330
73
100
AcDbEntity
  8
0
  6
Continuous
 62
     3
370
    18
100
AcDbLine
 10
17.4475034649
 20
5.4939000341
 30
0.0
 11
17.5983342144
 21
5.3582557981
 31
0.0
  0
LINE
  5
392
330
73
100
AcDbEntity
  8
0
  6
Continuous
 62
     3
370
    18
100
AcDbLine
 10
17.5983342144
 20
5.3582557981
 30
0.0
 11
17.6284997667
 21
5.2828974338
 31
0.0
  0
LINE
  5
393
330
73
100
AcDbEntity
  8
0
  6
Continuous
 62
     3
370
    18
100
AcDbLine
 10
17.6284997667
 20
5.2828974338
 30
0.0
 11
17.5983342144
 21
5.2527542052
 31
0.0
  0
LINE
  5
394
330
73
100
AcDbEntity
  8
0
  6
Continuous
 62
     3
370
    18
100
AcDbLine
 10
17.5983342144
 20
5.2527542052
 30
0.0
 11
17.5832504423
 21
5.1924683334
 31
0.0
  0
LINE
  5
395
330
73
100
AcDbEntity
  8
0
  6
Continuous
 62
     3
370
    18
100
AcDbLine
 10
17.5832504423
 20
5.1924683334
 30
0.0
 11
17.4173379126
 21
5.0718954189
 31
0.0
  0
LINE
  5
396
330
73
100
AcDbEntity
  8
0
  6
Continuous
 62
     3
370
    18
100
AcDbLine
 10
17.4173379126
 20
5.0718954189
 30
0.0
 11
17.0855108614
 21
4.8307501754
 31
0.0
  0
LINE
  5
397
330
73
100
AcDbEntity
  8
0
  6
Continuous
 62
     3
370
    18
100
AcDbLine
 10
17.0855108614
 20
4.8307501754
 30
0.0
 11
16.6631861572
 21
4.6046762535
 31
0.0
  0
LINE
  5
398
330
73
100
AcDbEntity
  8
0
  6
Continuous
 62
     3
370
    18
100
AcDbLine
 10
16.6631861572
 20
4.6046762535
 30
0.0
 11
16.3162763297
 21
4.4087455602
 31
0.0
  0
LINE
  5
399
330
73
100
AcDbEntity
  8
0
  6
Continuous
 62
     3
370
    18
100
AcDbLine
 10
16.3162763297
 20
4.4087455602
 30
0.0
 11
15.939199954
 21
4.2429580955
 31
0.0
  0
LINE
  5
39A
330
73
100
AcDbEntity
  8
0
  6
Continuous
 62
     3
370
    18
100
AcDbLine
 10
15.939199954
 20
4.2429580955
 30
0.0
 11
15.6224566749
 21
4.1525284097
 31
0.0
  0
LINE
  5
39B
330
73
100
AcDbEntity
  8
0
  6
Continuous
 62
     3
370
    18
100
AcDbLine
 10
15.6224566749
 20
4.1525284097
 30
0.0
 11
15.3207961719
 21
4.0922425379
 31
0.0
  0
LINE
  5
39C
330
73
100
AcDbEntity
  8
0
  6
Continuous
 62
     3
370
    18
100
AcDbLine
 10
15.3207961719
 20
4.0922425379
 30
0.0
 11
14.9889691206
 21
4.0470274022
 31
0.0
  0
LINE
  5
39D
330
73
100
AcDbEntity
  8
0
  6
Continuous
 62
     3
370
    18
100
AcDbLine
 10
14.9889691206
 20
4.0470274022
 30
0.0
 11
14.6571420693
 21
4.0771706309
 31
0.0
  0
LINE
  5
39E
330
73
100
AcDbEntity
  8
0
  6
Continuous
 62
     3
370
    18
100
AcDbLine
 10
14.6571420693
 20
4.0771706309
 30
0.0
 11
14.4459802152
 21
4.1073138595
 31
0.0
  0
LINE
  5
39F
330
73
100
AcDbEntity
  8
0
  6
Continuous
 62
     3
370
    18
100
AcDbLine
 10
14.4459802152
 20
4.1073138595
 30
0.0
 11
14.2800666896
 21
4.1977435453
 31
0.0
  0
LINE
  5
3A0
330
73
100
AcDbEntity
  8
0
  6
Continuous
 62
     3
370
    18
100
AcDbLine
 10
14.2800666896
 20
4.1977435453
 30
0.0
 11
14.1141531639
 21
4.3333877814
 31
0.0
  0
LINE
  5
3A1
330
73
100
AcDbEntity
  8
0
  6
Continuous
 62
     3
370
    18
100
AcDbLine
 10
14.1141531639
 20
4.3333877814
 30
0.0
 11
14.0085717389
 21
4.5293184747
 31
0.0
  0
LINE
  5
3A2
330
73
100
AcDbEntity
  8
0
  6
Continuous
 62
     3
370
    18
100
AcDbLine
 10
14.0085717389
 20
4.5293184747
 30
0.0
 11
13.9633224144
 21
4.6649627107
 31
0.0
  0
LINE
  5
3A3
330
73
100
AcDbEntity
  8
0
  6
Continuous
 62
     3
370
    18
100
AcDbLine
 10
13.9633224144
 20
4.6649627107
 30
0.0
 11
13.9633224144
 21
4.8156782684
 31
0.0
  0
LINE
  5
3A4
330
73
100
AcDbEntity
  8
0
  6
Continuous
 62
     3
370
    18
100
AcDbLine
 10
13.9633224144
 20
4.8156782684
 30
0.0
 11
14.0085717389
 21
4.9513225044
 31
0.0
  0
LINE
  5
3A5
330
73
100
AcDbEntity
  8
0
  6
Continuous
 62
     3
370
    18
100
AcDbLine
 10
14.0085717389
 20
4.9513225044
 30
0.0
 11
14.2046508168
 21
5.2828974338
 31
0.0
  0
LINE
  5
3A6
330
73
100
AcDbEntity
  8
0
  6
Continuous
 62
     3
370
    18
100
AcDbLine
 10
14.2046508168
 20
5.2828974338
 30
0.0
 11
14.4459802152
 21
5.6295442702
 31
0.0
  0
LINE
  5
3A7
330
73
100
AcDbEntity
  8
0
  6
Continuous
 62
     3
370
    18
100
AcDbLine
 10
14.4459802152
 20
5.6295442702
 30
0.0
 11
14.8230555949
 21
6.1570493073
 31
0.0
  0
LINE
  5
3A8
330
73
100
AcDbEntity
  8
0
  6
Continuous
 62
     3
370
    18
100
AcDbLine
 10
14.8230555949
 20
6.1570493073
 30
0.0
 11
15.1548826462
 21
6.699626837
 31
0.0
  0
LINE
  5
3A9
330
73
100
AcDbEntity
  8
0
  6
Continuous
 62
     3
370
    18
100
AcDbLine
 10
15.1548826462
 20
6.699626837
 30
0.0
 11
15.4112938248
 21
7.1216308668
 31
0.0
  0
LINE
  5
3AA
330
73
100
AcDbEntity
  8
0
  6
Continuous
 62
     3
370
    18
100
AcDbLine
 10
15.4112938248
 20
7.1216308668
 30
0.0
 11
15.5470417981
 21
7.3477047887
 31
0.0
  0
LINE
  5
3AB
330
73
100
AcDbEntity
  8
0
  6
Continuous
 62
     3
370
    18
100
AcDbLine
 10
15.5470417981
 20
7.3477047887
 30
0.0
 11
15.5772073504
 21
7.4833490247
 31
0.0
  0
LINE
  5
3AC
330
73
100
AcDbEntity
  8
0
  6
Continuous
 62
     3
370
    18
100
AcDbLine
 10
15.5772073504
 20
7.4833490247
 30
0.0
 11
15.5772073504
 21
7.5587068035
 31
0.0
  0
LINE
  5
3AD
330
73
100
AcDbEntity
  8
0
  6
Continuous
 62
     3
370
    18
100
AcDbLine
 10
15.5772073504
 20
7.5587068035
 30
0.0
 11
15.531958026
 21
7.5888500322
 31
0.0
  0
LINE
  5
3AE
330
73
100
AcDbEntity
  8
0
  6
Continuous
 62
     3
370
    18
100
AcDbLine
 10
15.531958026
 20
7.5888500322
 30
0.0
 11
15.4867087015
 21
7.6491364894
 31
0.0
  0
LINE
  5
3AF
330
73
100
AcDbEntity
  8
0
  6
Continuous
 62
     3
370
    18
100
AcDbLine
 10
15.4867087015
 20
7.6491364894
 30
0.0
 11
15.3811282725
 21
7.6491364894
 31
0.0
  0
LINE
  5
3B0
330
73
100
AcDbEntity
  8
0
  6
Continuous
 62
     3
370
    18
100
AcDbLine
 10
15.3811282725
 20
7.6491364894
 30
0.0
 11
15.2604640713
 21
7.6039219392
 31
0.0
  0
LINE
  5
3B1
330
73
100
AcDbEntity
  8
0
  6
Continuous
 62
     3
370
    18
100
AcDbLine
 10
15.2604640713
 20
7.6039219392
 30
0.0
 11
15.034218445
 21
7.4682777032
 31
0.0
  0
LINE
  5
3B2
330
73
100
AcDbEntity
  8
0
  6
Continuous
 62
     3
370
    18
100
AcDbLine
 10
15.034218445
 20
7.4682777032
 30
0.0
 11
14.7778062705
 21
7.2422037812
 31
0.0
  0
LINE
  5
3B3
330
73
100
AcDbEntity
  8
0
  6
Continuous
 62
     3
370
    18
100
AcDbLine
 10
14.7778062705
 20
7.2422037812
 30
0.0
 11
14.4158136669
 21
6.9859866307
 31
0.0
  0
LINE
  5
3B4
330
73
100
AcDbEntity
  8
0
  6
Continuous
 62
     3
370
    18
100
AcDbLine
 10
14.4158136669
 20
6.9859866307
 30
0.0
 11
14.2951494657
 21
6.8955575303
 31
0.0
  0
LINE
  5
3B5
330
73
100
AcDbEntity
  8
0
  6
Continuous
 62
     3
370
    18
100
AcDbLine
 10
14.2951494657
 20
6.8955575303
 30
0.0
 11
14.219734589
 21
6.8804856233
 31
0.0
  0
LINE
  5
3B6
330
73
100
AcDbEntity
  8
0
  6
Continuous
 62
     3
370
    18
100
AcDbLine
 10
14.219734589
 20
6.8804856233
 30
0.0
 11
14.1594024884
 21
6.8654143017
 31
0.0
  0
LINE
  5
3B7
330
73
100
AcDbEntity
  8
0
  6
Continuous
 62
     3
370
    18
100
AcDbLine
 10
14.1594024884
 20
6.8654143017
 30
0.0
 11
14.1141531639
 21
6.8804856233
 31
0.0
  0
LINE
  5
3B8
330
73
100
AcDbEntity
  8
0
  6
Continuous
 62
     3
370
    18
100
AcDbLine
 10
14.1141531639
 20
6.8804856233
 30
0.0
 11
13.8879075377
 21
7.1216308668
 31
0.0
  0
LINE
  5
3B9
330
73
100
AcDbEntity
  8
0
  6
Continuous
 62
     3
370
    18
100
AcDbLine
 10
13.8879075377
 20
7.1216308668
 30
0.0
 11
13.9029903138
 21
7.1668460024
 31
0.0
  0
LINE
  5
3BA
330
73
100
AcDbEntity
  8
0
  6
Continuous
 62
     3
370
    18
100
AcDbLine
 10
13.9029903138
 20
7.1668460024
 30
0.0
 11
13.918074086
 21
7.2422037812
 31
0.0
  0
LINE
  5
3BB
330
73
100
AcDbEntity
  8
0
  6
Continuous
 62
     3
370
    18
100
AcDbLine
 10
13.918074086
 20
7.2422037812
 30
0.0
 11
14.0085717389
 21
7.3175615601
 31
0.0
  0
LINE
  5
3BC
330
73
100
AcDbEntity
  8
0
  6
Continuous
 62
     3
370
    18
100
AcDbLine
 10
14.0085717389
 20
7.3175615601
 30
0.0
 11
14.2800666896
 21
7.4984209318
 31
0.0
  0
LINE
  5
3BD
330
73
100
AcDbEntity
  8
0
  6
Continuous
 62
     3
370
    18
100
AcDbLine
 10
14.2800666896
 20
7.4984209318
 30
0.0
 11
14.5213950919
 21
7.6943510396
 31
0.0
  0
LINE
  5
3BE
330
73
100
AcDbEntity
  8
0
  6
Continuous
 62
     3
370
    18
100
AcDbLine
 10
3.8937883769
 20
13.3765249846
 30
0.0
 11
4.549096358
 21
13.8130652109
 31
0.0
  0
LINE
  5
3BF
330
73
100
AcDbEntity
  8
0
  6
Continuous
 62
     3
370
    18
100
AcDbLine
 10
4.549096358
 20
13.8130652109
 30
0.0
 11
5.3434090924
 21
14.3289760681
 31
0.0
  0
LINE
  5
3C0
330
73
100
AcDbEntity
  8
0
  6
Continuous
 62
     3
370
    18
100
AcDbLine
 10
5.3434090924
 20
14.3289760681
 30
0.0
 11
5.9788586824
 21
14.686145078
 31
0.0
  0
LINE
  5
3C1
330
73
100
AcDbEntity
  8
0
  6
Continuous
 62
     3
370
    18
100
AcDbLine
 10
5.9788586824
 20
14.686145078
 30
0.0
 11
6.6341666635
 21
14.9837864075
 31
0.0
  0
LINE
  5
3C2
330
73
100
AcDbEntity
  8
0
  6
Continuous
 62
     3
370
    18
100
AcDbLine
 10
6.6341666635
 20
14.9837864075
 30
0.0
 11
7.3093320396
 21
15.2615847866
 31
0.0
  0
LINE
  5
3C3
330
73
100
AcDbEntity
  8
0
  6
Continuous
 62
     3
370
    18
100
AcDbLine
 10
7.3093320396
 20
15.2615847866
 30
0.0
 11
7.9844974157
 21
15.4798548997
 31
0.0
  0
LINE
  5
3C4
330
73
100
AcDbEntity
  8
0
  6
Continuous
 62
     3
370
    18
100
AcDbLine
 10
7.9844974157
 20
15.4798548997
 30
0.0
 11
8.6993785779
 21
15.7179673779
 31
0.0
  0
LINE
  5
3C5
330
73
100
AcDbEntity
  8
0
  6
Continuous
 62
     3
370
    18
100
AcDbLine
 10
8.6993785779
 20
15.7179673779
 30
0.0
 11
9.4738329214
 21
15.8568668601
 31
0.0
  0
LINE
  5
3C6
330
73
100
AcDbEntity
  8
0
  6
Continuous
 62
     3
370
    18
100
AcDbLine
 10
9.4738329214
 20
15.8568668601
 30
0.0
 11
10.1489982975
 21
15.9560804415
 31
0.0
  0
LINE
  5
3C7
330
73
100
AcDbEntity
  8
0
  6
Continuous
 62
     3
370
    18
100
AcDbLine
 10
10.1489982975
 20
15.9560804415
 30
0.0
 11
10.6851589202
 21
15.9759233919
 31
0.0
  0
LINE
  5
3C8
330
73
100
AcDbEntity
  8
0
  6
Continuous
 62
     3
370
    18
100
AcDbLine
 10
10.6851589202
 20
15.9759233919
 30
0.0
 11
11.3007511151
 21
15.9560804415
 31
0.0
  0
LINE
  5
3C9
330
73
100
AcDbEntity
  8
0
  6
Continuous
 62
     3
370
    18
100
AcDbLine
 10
11.3007511151
 20
15.9560804415
 30
0.0
 11
11.91634331
 21
15.916395126
 31
0.0
  0
LINE
  5
3CA
330
73
100
AcDbEntity
  8
0
  6
Continuous
 62
     3
370
    18
100
AcDbLine
 10
11.91634331
 20
15.916395126
 30
0.0
 11
12.5319355049
 21
15.8370239097
 31
0.0
  0
LINE
  5
3CB
330
73
100
AcDbEntity
  8
0
  6
Continuous
 62
     3
370
    18
100
AcDbLine
 10
12.5319355049
 20
15.8370239097
 30
0.0
 11
13.0680961276
 21
15.6782820624
 31
0.0
  0
LINE
  5
3CC
330
73
100
AcDbEntity
  8
0
  6
Continuous
 62
     3
370
    18
100
AcDbLine
 10
13.0680961276
 20
15.6782820624
 30
0.0
 11
13.6241151413
 21
15.4401695843
 31
0.0
  0
LINE
  5
3CD
330
73
100
AcDbEntity
  8
0
  6
Continuous
 62
     3
370
    18
100
AcDbLine
 10
13.6241151413
 20
15.4401695843
 30
0.0
 11
14.0808441918
 21
15.1425282548
 31
0.0
  0
LINE
  5
3CE
330
73
100
AcDbEntity
  8
0
  6
Continuous
 62
     3
370
    18
100
AcDbLine
 10
14.0808441918
 20
15.1425282548
 30
0.0
 11
14.4184268798
 21
14.8250445603
 31
0.0
  0
LINE
  5
3CF
330
73
100
AcDbEntity
  8
0
  6
Continuous
 62
     3
370
    18
100
AcDbLine
 10
14.4184268798
 20
14.8250445603
 30
0.0
 11
14.6765789916
 21
14.5274032308
 31
0.0
  0
LINE
  5
3D0
330
73
100
AcDbEntity
  8
0
  6
Continuous
 62
     3
370
    18
100
AcDbLine
 10
14.6765789916
 20
14.5274032308
 30
0.0
 11
14.8950143213
 21
14.1503912704
 31
0.0
  0
LINE
  5
3D1
330
73
100
AcDbEntity
  8
0
  6
Continuous
 62
     3
370
    18
100
AcDbLine
 10
14.8950143213
 20
14.1503912704
 30
0.0
 11
15.0737348608
 21
13.7336939945
 31
0.0
  0
LINE
  5
3D2
330
73
100
AcDbEntity
  8
0
  6
Continuous
 62
     3
370
    18
100
AcDbLine
 10
15.0737348608
 20
13.7336939945
 30
0.0
 11
15.133308042
 21
13.2574684528
 31
0.0
  0
LINE
  5
3D3
330
73
100
AcDbEntity
  8
0
  6
Continuous
 62
     3
370
    18
100
AcDbLine
 10
15.133308042
 20
13.2574684528
 30
0.0
 11
15.1531664331
 21
12.9598271233
 31
0.0
  0
LINE
  5
3D4
330
73
100
AcDbEntity
  8
0
  6
Continuous
 62
     3
370
    18
100
AcDbLine
 10
15.1531664331
 20
12.9598271233
 30
0.0
 11
15.0935922559
 21
12.523286897
 31
0.0
  0
LINE
  5
3D5
330
73
100
AcDbEntity
  8
0
  6
Continuous
 62
     3
370
    18
100
AcDbLine
 10
15.0935922559
 20
12.523286897
 30
0.0
 11
14.9545884985
 21
12.1264325716
 31
0.0
  0
LINE
  5
3D6
330
73
100
AcDbEntity
  8
0
  6
Continuous
 62
     3
370
    18
100
AcDbLine
 10
14.9545884985
 20
12.1264325716
 30
0.0
 11
14.7162947777
 21
11.8089488771
 31
0.0
  0
LINE
  5
3D7
330
73
100
AcDbEntity
  8
0
  6
Continuous
 62
     3
370
    18
100
AcDbLine
 10
14.7162947777
 20
11.8089488771
 30
0.0
 11
14.3985694847
 21
11.4120939662
 31
0.0
  0
LINE
  5
3D8
330
73
100
AcDbEntity
  8
0
  6
Continuous
 62
     3
370
    18
100
AcDbLine
 10
14.3985694847
 20
11.4120939662
 30
0.0
 11
14.0212710106
 21
11.0549249563
 31
0.0
  0
LINE
  5
3D9
330
73
100
AcDbEntity
  8
0
  6
Continuous
 62
     3
370
    18
100
AcDbLine
 10
14.0212710106
 20
11.0549249563
 30
0.0
 11
13.6042567503
 21
10.7175983114
 31
0.0
  0
LINE
  5
3DA
330
73
100
AcDbEntity
  8
0
  6
Continuous
 62
     3
370
    18
100
AcDbLine
 10
13.6042567503
 20
10.7175983114
 30
0.0
 11
13.2269582761
 21
10.4596422973
 31
0.0
  0
LINE
  5
3DB
330
73
100
AcDbEntity
  8
0
  6
Continuous
 62
     3
370
    18
100
AcDbLine
 10
13.2269582761
 20
10.4596422973
 30
0.0
 11
12.7900866207
 21
10.2016868687
 31
0.0
  0
LINE
  5
3DC
330
73
100
AcDbEntity
  8
0
  6
Continuous
 62
     3
370
    18
100
AcDbLine
 10
12.7900866207
 20
10.2016868687
 30
0.0
 11
12.2936417842
 21
9.9040461247
 31
0.0
  0
LINE
  5
3DD
330
73
100
AcDbEntity
  8
0
  6
Continuous
 62
     3
370
    18
100
AcDbLine
 10
12.2936417842
 20
9.9040461247
 30
0.0
 11
11.7574811615
 21
9.6460906961
 31
0.0
  0
LINE
  5
3DE
330
73
100
AcDbEntity
  8
0
  6
Continuous
 62
     3
370
    18
100
AcDbLine
 10
11.7574811615
 20
9.6460906961
 30
0.0
 11
11.3206095061
 21
9.4873482633
 31
0.0
  0
LINE
  5
3DF
330
73
100
AcDbEntity
  8
0
  6
Continuous
 62
     3
370
    18
100
AcDbLine
 10
11.3206095061
 20
9.4873482633
 30
0.0
 11
10.8440220646
 21
9.3286064161
 31
0.0
  0
LINE
  5
3E0
330
73
100
AcDbEntity
  8
0
  6
Continuous
 62
     3
370
    18
100
AcDbLine
 10
10.8440220646
 20
9.3286064161
 30
0.0
 11
10.1489982975
 21
9.1301792534
 31
0.0
  0
LINE
  5
3E1
330
73
100
AcDbEntity
  8
0
  6
Continuous
 62
     3
370
    18
100
AcDbLine
 10
10.1489982975
 20
9.1301792534
 30
0.0
 11
9.672410856
 21
9.0111227216
 31
0.0
  0
LINE
  5
3E2
330
73
100
AcDbEntity
  8
0
  6
Continuous
 62
     3
370
    18
100
AcDbLine
 10
9.672410856
 20
9.0111227216
 30
0.0
 11
9.1163928382
 21
8.9119091402
 31
0.0
  0
LINE
  5
3E3
330
73
100
AcDbEntity
  8
0
  6
Continuous
 62
     3
370
    18
100
AcDbLine
 10
9.1163928382
 20
8.9119091402
 30
0.0
 11
8.5802312196
 21
8.8523808743
 31
0.0
  0
LINE
  5
3E4
330
73
100
AcDbEntity
  8
0
  6
Continuous
 62
     3
370
    18
100
AcDbLine
 10
8.5802312196
 20
8.8523808743
 30
0.0
 11
8.0639289879
 21
8.7928526084
 31
0.0
  0
LINE
  5
3E5
330
73
100
AcDbEntity
  8
0
  6
Continuous
 62
     3
370
    18
100
AcDbLine
 10
8.0639289879
 20
8.7928526084
 30
0.0
 11
7.4880525791
 21
8.7333243425
 31
0.0
  0
LINE
  5
3E6
330
73
100
AcDbEntity
  8
0
  6
Continuous
 62
     3
370
    18
100
AcDbLine
 10
7.4880525791
 20
8.7333243425
 30
0.0
 11
6.9320335654
 21
8.6936390271
 31
0.0
  0
LINE
  5
3E7
330
73
100
AcDbEntity
  8
0
  6
Continuous
 62
     3
370
    18
100
AcDbLine
 10
6.9320335654
 20
8.6936390271
 30
0.0
 11
6.5150193051
 21
8.6936390271
 31
0.0
  0
LINE
  5
3E8
330
73
100
AcDbEntity
  8
0
  6
Continuous
 62
     3
370
    18
100
AcDbLine
 10
6.5150193051
 20
8.6936390271
 30
0.0
 11
6.1377208309
 21
8.6737960766
 31
0.0
  0
LINE
  5
3E9
330
73
100
AcDbEntity
  8
0
  6
Continuous
 62
     3
370
    18
100
AcDbLine
 10
6.1377208309
 20
8.6737960766
 30
0.0
 11
5.8001381429
 21
8.7134819776
 31
0.0
  0
LINE
  5
3EA
330
73
100
AcDbEntity
  8
0
  6
Continuous
 62
     3
370
    18
100
AcDbLine
 10
5.8001381429
 20
8.7134819776
 30
0.0
 11
5.7405649617
 21
8.3959982831
 31
0.0
  0
LINE
  5
3EB
330
73
100
AcDbEntity
  8
0
  6
Continuous
 62
     3
370
    18
100
AcDbLine
 10
5.7405649617
 20
8.3959982831
 30
0.0
 11
5.7008491756
 21
7.9793004217
 31
0.0
  0
LINE
  5
3EC
330
73
100
AcDbEntity
  8
0
  6
Continuous
 62
     3
370
    18
100
AcDbLine
 10
5.7008491756
 20
7.9793004217
 30
0.0
 11
5.6611333895
 21
7.5427601954
 31
0.0
  0
LINE
  5
3ED
330
73
100
AcDbEntity
  8
0
  6
Continuous
 62
     3
370
    18
100
AcDbLine
 10
5.6611333895
 20
7.5427601954
 30
0.0
 11
5.6611333895
 21
7.225276501
 31
0.0
  0
LINE
  5
3EE
330
73
100
AcDbEntity
  8
0
  6
Continuous
 62
     3
370
    18
100
AcDbLine
 10
5.6611333895
 20
7.225276501
 30
0.0
 11
5.7008491756
 21
6.8284221756
 31
0.0
  0
LINE
  5
3EF
330
73
100
AcDbEntity
  8
0
  6
Continuous
 62
     3
370
    18
100
AcDbLine
 10
5.7008491756
 20
6.8284221756
 30
0.0
 11
5.7604223568
 21
6.5307808461
 31
0.0
  0
LINE
  5
3F0
330
73
100
AcDbEntity
  8
0
  6
Continuous
 62
     3
370
    18
100
AcDbLine
 10
5.7604223568
 20
6.5307808461
 30
0.0
 11
5.9192855012
 21
6.1934542011
 31
0.0
  0
LINE
  5
3F1
330
73
100
AcDbEntity
  8
0
  6
Continuous
 62
     3
370
    18
100
AcDbLine
 10
5.9192855012
 20
6.1934542011
 30
0.0
 11
6.1162051671
 21
5.9088467369
 31
0.0
  0
LINE
  5
3F2
330
73
100
AcDbEntity
  8
0
  6
Continuous
 62
     3
370
    18
100
AcDbLine
 10
6.1162051671
 20
5.9088467369
 30
0.0
 11
6.3346404968
 21
5.6707342588
 31
0.0
  0
LINE
  5
3F3
330
73
100
AcDbEntity
  8
0
  6
Continuous
 62
     3
370
    18
100
AcDbLine
 10
6.3346404968
 20
5.6707342588
 30
0.0
 11
6.6126500037
 21
5.4723065106
 31
0.0
  0
LINE
  5
3F4
330
73
100
AcDbEntity
  8
0
  6
Continuous
 62
     3
370
    18
100
AcDbLine
 10
6.6126500037
 20
5.4723065106
 30
0.0
 11
6.9502326917
 21
5.3334076138
 31
0.0
  0
LINE
  5
3F5
330
73
100
AcDbEntity
  8
0
  6
Continuous
 62
     3
370
    18
100
AcDbLine
 10
6.9502326917
 20
5.3334076138
 30
0.0
 11
7.2679579847
 21
5.2738793479
 31
0.0
  0
LINE
  5
3F6
330
73
100
AcDbEntity
  8
0
  6
Continuous
 62
     3
370
    18
100
AcDbLine
 10
7.2679579847
 20
5.2738793479
 30
0.0
 11
7.684972245
 21
5.214351082
 31
0.0
  0
LINE
  5
3F7
330
73
100
AcDbEntity
  8
0
  6
Continuous
 62
     3
370
    18
100
AcDbLine
 10
7.684972245
 20
5.214351082
 30
0.0
 11
8.1218439004
 21
5.1945081316
 31
0.0
  0
LINE
  5
3F8
330
73
100
AcDbEntity
  8
0
  6
Continuous
 62
     3
370
    18
100
AcDbLine
 10
8.1218439004
 20
5.1945081316
 30
0.0
 11
8.7175777042
 21
5.2540363975
 31
0.0
  0
LINE
  5
3F9
330
73
100
AcDbEntity
  8
0
  6
Continuous
 62
     3
370
    18
100
AcDbLine
 10
8.7175777042
 20
5.2540363975
 30
0.0
 11
9.4324588665
 21
5.3929358797
 31
0.0
  0
LINE
  5
3FA
330
73
100
AcDbEntity
  8
0
  6
Continuous
 62
     3
370
    18
100
AcDbLine
 10
9.4324588665
 20
5.3929358797
 30
0.0
 11
10.0281936663
 21
5.6310483579
 31
0.0
  0
LINE
  5
3FB
330
73
100
AcDbEntity
  8
0
  6
Continuous
 62
     3
370
    18
100
AcDbLine
 10
10.0281936663
 20
5.6310483579
 30
0.0
 11
10.4650653217
 21
5.829476106
 31
0.0
  0
LINE
  5
3FC
330
73
100
AcDbEntity
  8
0
  6
Continuous
 62
     3
370
    18
100
AcDbLine
 10
10.4650653217
 20
5.829476106
 30
0.0
 11
10.901936977
 21
6.0675885842
 31
0.0
  0
LINE
  5
3FD
330
73
100
AcDbEntity
  8
0
  6
Continuous
 62
     3
370
    18
100
AcDbLine
 10
10.901936977
 20
6.0675885842
 30
0.0
 11
11.2792354512
 21
6.2858586973
 31
0.0
  0
LINE
  5
3FE
330
73
100
AcDbEntity
  8
0
  6
Continuous
 62
     3
370
    18
100
AcDbLine
 10
11.2792354512
 20
6.2858586973
 30
0.0
 11
11.6763913205
 21
6.5835000268
 31
0.0
  0
LINE
  5
3FF
330
73
100
AcDbEntity
  8
0
  6
Continuous
 62
     3
370
    18
100
AcDbLine
 10
11.6763913205
 20
6.5835000268
 30
0.0
 11
12.0735471897
 21
6.8811407708
 31
0.0
  0
LINE
  5
400
330
73
100
AcDbEntity
  8
0
  6
Continuous
 62
     3
370
    18
100
AcDbLine
 10
12.0735471897
 20
6.8811407708
 30
0.0
 11
12.3515566966
 21
7.1390967849
 31
0.0
  0
LINE
  5
401
330
73
100
AcDbEntity
  8
0
  6
Continuous
 62
     3
370
    18
100
AcDbLine
 10
12.3515566966
 20
7.1390967849
 30
0.0
 11
12.5501346312
 21
7.3573668981
 31
0.0
  0
LINE
  5
402
330
73
100
AcDbEntity
  8
0
  6
Continuous
 62
     3
370
    18
100
AcDbLine
 10
12.5501346312
 20
7.3573668981
 30
0.0
 11
12.6494235985
 21
7.3772092631
 31
0.0
  0
LINE
  5
403
330
73
100
AcDbEntity
  8
0
  6
Continuous
 62
     3
370
    18
100
AcDbLine
 10
12.6494235985
 20
7.3772092631
 30
0.0
 11
12.7685709569
 21
7.3573668981
 31
0.0
  0
LINE
  5
404
330
73
100
AcDbEntity
  8
0
  6
Continuous
 62
     3
370
    18
100
AcDbLine
 10
12.7685709569
 20
7.3573668981
 30
0.0
 11
13.1657268261
 21
7.0398826181
 31
0.0
  0
LINE
  5
405
330
73
100
AcDbEntity
  8
0
  6
Continuous
 62
     3
370
    18
100
AcDbLine
 10
13.1657268261
 20
7.0398826181
 30
0.0
 11
13.4238789379
 21
6.7819271895
 31
0.0
  0
LINE
  5
406
330
73
100
AcDbEntity
  8
0
  6
Continuous
 62
     3
370
    18
100
AcDbLine
 10
13.4238789379
 20
6.7819271895
 30
0.0
 11
13.4834521191
 21
6.6827136082
 31
0.0
  0
LINE
  5
407
330
73
100
AcDbEntity
  8
0
  6
Continuous
 62
     3
370
    18
100
AcDbLine
 10
13.4834521191
 20
6.6827136082
 30
0.0
 11
13.4635937281
 21
6.5438147114
 31
0.0
  0
LINE
  5
408
330
73
100
AcDbEntity
  8
0
  6
Continuous
 62
     3
370
    18
100
AcDbLine
 10
13.4635937281
 20
6.5438147114
 30
0.0
 11
13.3047315796
 21
6.3652299137
 31
0.0
  0
LINE
  5
409
330
73
100
AcDbEntity
  8
0
  6
Continuous
 62
     3
370
    18
100
AcDbLine
 10
13.3047315796
 20
6.3652299137
 30
0.0
 11
12.8281441381
 21
5.849318471
 31
0.0
  0
LINE
  5
40A
330
73
100
AcDbEntity
  8
0
  6
Continuous
 62
     3
370
    18
100
AcDbLine
 10
12.8281441381
 20
5.849318471
 30
0.0
 11
12.3316993015
 21
5.4326211952
 31
0.0
  0
LINE
  5
40B
330
73
100
AcDbEntity
  8
0
  6
Continuous
 62
     3
370
    18
100
AcDbLine
 10
12.3316993015
 20
5.4326211952
 30
0.0
 11
11.8153960739
 21
5.0754521852
 31
0.0
  0
LINE
  5
40C
330
73
100
AcDbEntity
  8
0
  6
Continuous
 62
     3
370
    18
100
AcDbLine
 10
11.8153960739
 20
5.0754521852
 30
0.0
 11
11.3586660275
 21
4.7976538062
 31
0.0
  0
LINE
  5
40D
330
73
100
AcDbEntity
  8
0
  6
Continuous
 62
     3
370
    18
100
AcDbLine
 10
11.3586660275
 20
4.7976538062
 30
0.0
 11
10.7629322236
 21
4.4801701117
 31
0.0
  0
LINE
  5
40E
330
73
100
AcDbEntity
  8
0
  6
Continuous
 62
     3
370
    18
100
AcDbLine
 10
10.7629322236
 20
4.4801701117
 30
0.0
 11
10.0281936663
 21
4.1825287822
 31
0.0
  0
LINE
  5
40F
330
73
100
AcDbEntity
  8
0
  6
Continuous
 62
     3
370
    18
100
AcDbLine
 10
10.0281936663
 20
4.1825287822
 30
0.0
 11
9.293454113
 21
3.9047304031
 31
0.0
  0
LINE
  5
410
330
73
100
AcDbEntity
  8
0
  6
Continuous
 62
     3
370
    18
100
AcDbLine
 10
9.293454113
 20
3.9047304031
 30
0.0
 11
8.4395681974
 21
3.666617925
 31
0.0
  0
LINE
  5
411
330
73
100
AcDbEntity
  8
0
  6
Continuous
 62
     3
370
    18
100
AcDbLine
 10
8.4395681974
 20
3.666617925
 30
0.0
 11
7.684972245
 21
3.4880331273
 31
0.0
  0
LINE
  5
412
330
73
100
AcDbEntity
  8
0
  6
Continuous
 62
     3
370
    18
100
AcDbLine
 10
7.684972245
 20
3.4880331273
 30
0.0
 11
6.7516547571
 21
3.3689765955
 31
0.0
  0
LINE
  5
413
330
73
100
AcDbEntity
  8
0
  6
Continuous
 62
     3
370
    18
100
AcDbLine
 10
6.7516547571
 20
3.3689765955
 30
0.0
 11
5.8779114464
 21
3.32929128
 31
0.0
  0
LINE
  5
414
330
73
100
AcDbEntity
  8
0
  6
Continuous
 62
     3
370
    18
100
AcDbLine
 10
5.8779114464
 20
3.32929128
 30
0.0
 11
5.2226034653
 21
3.3689765955
 31
0.0
  0
LINE
  5
415
330
73
100
AcDbEntity
  8
0
  6
Continuous
 62
     3
370
    18
100
AcDbLine
 10
5.2226034653
 20
3.3689765955
 30
0.0
 11
4.468006517
 21
3.4285048614
 31
0.0
  0
LINE
  5
416
330
73
100
AcDbEntity
  8
0
  6
Continuous
 62
     3
370
    18
100
AcDbLine
 10
4.468006517
 20
3.4285048614
 30
0.0
 11
3.6538363874
 21
3.5872467086
 31
0.0
  0
LINE
  5
417
330
73
100
AcDbEntity
  8
0
  6
Continuous
 62
     3
370
    18
100
AcDbLine
 10
3.6538363874
 20
3.5872467086
 30
0.0
 11
2.879382044
 21
3.8253597722
 31
0.0
  0
LINE
  5
418
330
73
100
AcDbEntity
  8
0
  6
Continuous
 62
     3
370
    18
100
AcDbLine
 10
2.879382044
 20
3.8253597722
 30
0.0
 11
2.2240750589
 21
4.0833152008
 31
0.0
  0
LINE
  5
419
330
73
100
AcDbEntity
  8
0
  6
Continuous
 62
     3
370
    18
100
AcDbLine
 10
2.2240750589
 20
4.0833152008
 30
0.0
 11
1.6283402591
 21
4.4404842108
 31
0.0
  0
LINE
  5
41A
330
73
100
AcDbEntity
  8
0
  6
Continuous
 62
     3
370
    18
100
AcDbLine
 10
1.6283402591
 20
4.4404842108
 30
0.0
 11
1.1914686037
 21
4.7778108557
 31
0.0
  0
LINE
  5
41B
330
73
100
AcDbEntity
  8
0
  6
Continuous
 62
     3
370
    18
100
AcDbLine
 10
1.1914686037
 20
4.7778108557
 30
0.0
 11
0.7545969483
 21
5.214351082
 31
0.0
  0
LINE
  5
41C
330
73
100
AcDbEntity
  8
0
  6
Continuous
 62
     3
370
    18
100
AcDbLine
 10
0.7545969483
 20
5.214351082
 30
0.0
 11
0.3574410791
 21
5.7699478401
 31
0.0
  0
LINE
  5
41D
330
73
100
AcDbEntity
  8
0
  6
Continuous
 62
     3
370
    18
100
AcDbLine
 10
0.3574410791
 20
5.7699478401
 30
0.0
 11
0.1191473584
 21
6.3255445982
 31
0.0
  0
LINE
  5
41E
330
73
100
AcDbEntity
  8
0
  6
Continuous
 62
     3
370
    18
100
AcDbLine
 10
0.1191473584
 20
6.3255445982
 30
0.0
 11
0.0397157861
 21
6.8216125049
 31
0.0
  0
LINE
  5
41F
330
73
100
AcDbEntity
  8
0
  6
Continuous
 62
     3
370
    18
100
AcDbLine
 10
0.0397157861
 20
6.8216125049
 30
0.0
 11
0.0
 21
7.2581527312
 31
0.0
  0
LINE
  5
420
330
73
100
AcDbEntity
  8
0
  6
Continuous
 62
     3
370
    18
100
AcDbLine
 10
0.0
 20
7.2581527312
 30
0.0
 11
0.0595731812
 21
7.8534348048
 31
0.0
  0
LINE
  5
421
330
73
100
AcDbEntity
  8
0
  6
Continuous
 62
     3
370
    18
100
AcDbLine
 10
0.0595731812
 20
7.8534348048
 30
0.0
 11
0.1588621485
 21
8.4288745134
 31
0.0
  0
LINE
  5
422
330
73
100
AcDbEntity
  8
0
  6
Continuous
 62
     3
370
    18
100
AcDbLine
 10
0.1588621485
 20
8.4288745134
 30
0.0
 11
0.2978669019
 21
8.9447853705
 31
0.0
  0
LINE
  5
423
330
73
100
AcDbEntity
  8
0
  6
Continuous
 62
     3
370
    18
100
AcDbLine
 10
0.2978669019
 20
8.9447853705
 30
0.0
 11
0.4964448366
 21
9.4606968132
 31
0.0
  0
LINE
  5
424
330
73
100
AcDbEntity
  8
0
  6
Continuous
 62
     3
370
    18
100
AcDbLine
 10
0.4964448366
 20
9.4606968132
 30
0.0
 11
0.7148811622
 21
9.9170794045
 31
0.0
  0
LINE
  5
425
330
73
100
AcDbEntity
  8
0
  6
Continuous
 62
     3
370
    18
100
AcDbLine
 10
0.7148811622
 20
9.9170794045
 30
0.0
 11
1.0326064552
 21
10.4329908471
 31
0.0
  0
LINE
  5
426
330
73
100
AcDbEntity
  8
0
  6
Continuous
 62
     3
370
    18
100
AcDbLine
 10
1.0326064552
 20
10.4329908471
 30
0.0
 11
1.4496197195
 21
11.0679582361
 31
0.0
  0
LINE
  5
427
330
73
100
AcDbEntity
  8
0
  6
Continuous
 62
     3
370
    18
100
AcDbLine
 10
1.4496197195
 20
11.0679582361
 30
0.0
 11
1.8666339798
 21
11.5243414129
 31
0.0
  0
LINE
  5
428
330
73
100
AcDbEntity
  8
0
  6
Continuous
 62
     3
370
    18
100
AcDbLine
 10
1.8666339798
 20
11.5243414129
 30
0.0
 11
2.243932454
 21
11.9807240042
 31
0.0
  0
LINE
  5
429
330
73
100
AcDbEntity
  8
0
  6
Continuous
 62
     3
370
    18
100
AcDbLine
 10
2.243932454
 20
11.9807240042
 30
0.0
 11
2.5815151421
 21
12.3180506491
 31
0.0
  0
LINE
  5
42A
330
73
100
AcDbEntity
  8
0
  6
Continuous
 62
     3
370
    18
100
AcDbLine
 10
2.5815151421
 20
12.3180506491
 30
0.0
 11
3.2369944277
 21
12.8827989816
 31
0.0
  0
LINE
  5
42B
330
73
100
AcDbEntity
  8
0
  6
Continuous
 62
     3
370
    18
100
AcDbLine
 10
3.2369944277
 20
12.8827989816
 30
0.0
 11
3.6341512929
 21
13.1605973607
 31
0.0
  0
LINE
  5
42C
330
73
100
AcDbEntity
  8
0
  6
Continuous
 62
     3
370
    18
100
AcDbLine
 10
3.6341512929
 20
13.1605973607
 30
0.0
 11
3.95187559
 21
13.4185527893
 31
0.0
  0
LINE
  5
42D
330
73
100
AcDbEntity
  8
0
  6
Continuous
 62
     3
370
    18
100
AcDbLine
 10
6.0996344308
 20
9.9736533588
 30
0.0
 11
6.2959395911
 21
10.660198836
 31
0.0
  0
LINE
  5
42E
330
73
100
AcDbEntity
  8
0
  6
Continuous
 62
     3
370
    18
100
AcDbLine
 10
6.2959395911
 20
10.660198836
 30
0.0
 11
6.4922447513
 21
11.2977048486
 31
0.0
  0
LINE
  5
42F
330
73
100
AcDbEntity
  8
0
  6
Continuous
 62
     3
370
    18
100
AcDbLine
 10
6.4922447513
 20
11.2977048486
 30
0.0
 11
6.8030600931
 21
11.9352114467
 31
0.0
  0
LINE
  5
430
330
73
100
AcDbEntity
  8
0
  6
Continuous
 62
     3
370
    18
100
AcDbLine
 10
6.8030600931
 20
11.9352114467
 30
0.0
 11
7.0811592361
 21
12.3602160406
 31
0.0
  0
LINE
  5
431
330
73
100
AcDbEntity
  8
0
  6
Continuous
 62
     3
370
    18
100
AcDbLine
 10
7.0811592361
 20
12.3602160406
 30
0.0
 11
7.490127158
 21
12.8996442953
 31
0.0
  0
LINE
  5
432
330
73
100
AcDbEntity
  8
0
  6
Continuous
 62
     3
370
    18
100
AcDbLine
 10
7.490127158
 20
12.8996442953
 30
0.0
 11
7.719149513
 21
13.1611851785
 31
0.0
  0
LINE
  5
433
330
73
100
AcDbEntity
  8
0
  6
Continuous
 62
     3
370
    18
100
AcDbLine
 10
7.719149513
 20
13.1611851785
 30
0.0
 11
7.9808890627
 21
13.4554190381
 31
0.0
  0
LINE
  5
434
330
73
100
AcDbEntity
  8
0
  6
Continuous
 62
     3
370
    18
100
AcDbLine
 10
7.9808890627
 20
13.4554190381
 30
0.0
 11
8.2753468031
 21
13.7006140186
 31
0.0
  0
LINE
  5
435
330
73
100
AcDbEntity
  8
0
  6
Continuous
 62
     3
370
    18
100
AcDbLine
 10
8.2753468031
 20
13.7006140186
 30
0.0
 11
8.6515975302
 21
13.9948472927
 31
0.0
  0
LINE
  5
436
330
73
100
AcDbEntity
  8
0
  6
Continuous
 62
     3
370
    18
100
AcDbLine
 10
8.6515975302
 20
13.9948472927
 30
0.0
 11
8.9460542746
 21
14.125618027
 31
0.0
  0
LINE
  5
437
330
73
100
AcDbEntity
  8
0
  6
Continuous
 62
     3
370
    18
100
AcDbLine
 10
8.9460542746
 20
14.125618027
 30
0.0
 11
9.2568706124
 21
14.2563887614
 31
0.0
  0
LINE
  5
438
330
73
100
AcDbEntity
  8
0
  6
Continuous
 62
     3
370
    18
100
AcDbLine
 10
9.2568706124
 20
14.2563887614
 30
0.0
 11
9.6167627422
 21
14.3217741286
 31
0.0
  0
LINE
  5
439
330
73
100
AcDbEntity
  8
0
  6
Continuous
 62
     3
370
    18
100
AcDbLine
 10
9.6167627422
 20
14.3217741286
 30
0.0
 11
9.9275790799
 21
14.3217741286
 31
0.0
  0
LINE
  5
43A
330
73
100
AcDbEntity
  8
0
  6
Continuous
 62
     3
370
    18
100
AcDbLine
 10
9.9275790799
 20
14.3217741286
 30
0.0
 11
10.1729600323
 21
14.2890811522
 31
0.0
  0
LINE
  5
43B
330
73
100
AcDbEntity
  8
0
  6
Continuous
 62
     3
370
    18
100
AcDbLine
 10
10.1729600323
 20
14.2890811522
 30
0.0
 11
10.3856227939
 21
14.2236957851
 31
0.0
  0
LINE
  5
43C
330
73
100
AcDbEntity
  8
0
  6
Continuous
 62
     3
370
    18
100
AcDbLine
 10
10.3856227939
 20
14.2236957851
 30
0.0
 11
10.5655693568
 21
14.0602326599
 31
0.0
  0
LINE
  5
43D
330
73
100
AcDbEntity
  8
0
  6
Continuous
 62
     3
370
    18
100
AcDbLine
 10
10.5655693568
 20
14.0602326599
 30
0.0
 11
10.6800805343
 21
13.8967695347
 31
0.0
  0
LINE
  5
43E
330
73
100
AcDbEntity
  8
0
  6
Continuous
 62
     3
370
    18
100
AcDbLine
 10
10.6800805343
 20
13.8967695347
 30
0.0
 11
10.7291563264
 21
13.5534967961
 31
0.0
  0
LINE
  5
43F
330
73
100
AcDbEntity
  8
0
  6
Continuous
 62
     3
370
    18
100
AcDbLine
 10
10.7291563264
 20
13.5534967961
 30
0.0
 11
10.712797729
 21
13.259263522
 31
0.0
  0
LINE
  5
440
330
73
100
AcDbEntity
  8
0
  6
Continuous
 62
     3
370
    18
100
AcDbLine
 10
10.712797729
 20
13.259263522
 30
0.0
 11
10.6637219369
 21
12.9159907834
 31
0.0
  0
LINE
  5
441
330
73
100
AcDbEntity
  8
0
  6
Continuous
 62
     3
370
    18
100
AcDbLine
 10
10.6637219369
 20
12.9159907834
 30
0.0
 11
10.5492107594
 21
12.5563715567
 31
0.0
  0
LINE
  5
442
330
73
100
AcDbEntity
  8
0
  6
Continuous
 62
     3
370
    18
100
AcDbLine
 10
10.5492107594
 20
12.5563715567
 30
0.0
 11
10.4019823872
 21
12.2457917945
 31
0.0
  0
LINE
  5
443
330
73
100
AcDbEntity
  8
0
  6
Continuous
 62
     3
370
    18
100
AcDbLine
 10
10.4019823872
 20
12.2457917945
 30
0.0
 11
10.1238832442
 21
11.8371336887
 31
0.0
  0
LINE
  5
444
330
73
100
AcDbEntity
  8
0
  6
Continuous
 62
     3
370
    18
100
AcDbLine
 10
10.1238832442
 20
11.8371336887
 30
0.0
 11
9.8130679024
 21
11.4938609501
 31
0.0
  0
LINE
  5
445
330
73
100
AcDbEntity
  8
0
  6
Continuous
 62
     3
370
    18
100
AcDbLine
 10
9.8130679024
 20
11.4938609501
 30
0.0
 11
9.5022515647
 21
11.1832811879
 31
0.0
  0
LINE
  5
446
330
73
100
AcDbEntity
  8
0
  6
Continuous
 62
     3
370
    18
100
AcDbLine
 10
9.5022515647
 20
11.1832811879
 30
0.0
 11
9.191435227
 21
10.9217397192
 31
0.0
  0
LINE
  5
447
330
73
100
AcDbEntity
  8
0
  6
Continuous
 62
     3
370
    18
100
AcDbLine
 10
9.191435227
 20
10.9217397192
 30
0.0
 11
8.7988259024
 21
10.6438523478
 31
0.0
  0
LINE
  5
448
330
73
100
AcDbEntity
  8
0
  6
Continuous
 62
     3
370
    18
100
AcDbLine
 10
8.7988259024
 20
10.6438523478
 30
0.0
 11
8.3407811925
 21
10.3659649764
 31
0.0
  0
LINE
  5
449
330
73
100
AcDbEntity
  8
0
  6
Continuous
 62
     3
370
    18
100
AcDbLine
 10
8.3407811925
 20
10.3659649764
 30
0.0
 11
7.8336606905
 21
10.186155363
 31
0.0
  0
LINE
  5
44A
330
73
100
AcDbEntity
  8
0
  6
Continuous
 62
     3
370
    18
100
AcDbLine
 10
7.8336606905
 20
10.186155363
 30
0.0
 11
7.3101815911
 21
10.039038726
 31
0.0
  0
LINE
  5
44B
330
73
100
AcDbEntity
  8
0
  6
Continuous
 62
     3
370
    18
100
AcDbLine
 10
7.3101815911
 20
10.039038726
 30
0.0
 11
6.8030600931
 21
9.989999847
 31
0.0
  0
LINE
  5
44C
330
73
100
AcDbEntity
  8
0
  6
Continuous
 62
     3
370
    18
100
AcDbLine
 10
6.8030600931
 20
9.989999847
 30
0.0
 11
6.3940921712
 21
9.9573068706
 31
0.0
  0
LINE
  5
44D
330
73
100
AcDbEntity
  8
0
  6
Continuous
 62
     3
370
    18
100
AcDbLine
 10
6.3940921712
 20
9.9573068706
 30
0.0
 11
6.0996344308
 21
9.9736533588
 31
0.0
  0
LINE
  5
44E
330
73
100
AcDbEntity
  8
0
  6
Continuous
 62
     3
370
    18
100
AcDbLine
 10
31.0009245667
 20
8.0786568592
 30
0.0
 11
30.7549998218
 21
8.2190785789
 31
0.0
  0
LINE
  5
44F
330
73
100
AcDbEntity
  8
0
  6
Continuous
 62
     3
370
    18
100
AcDbLine
 10
30.7549998218
 20
8.2190785789
 30
0.0
 11
30.535424121
 21
8.3068420074
 31
0.0
  0
LINE
  5
450
330
73
100
AcDbEntity
  8
0
  6
Continuous
 62
     3
370
    18
100
AcDbLine
 10
30.535424121
 20
8.3068420074
 30
0.0
 11
30.254367981
 21
8.3682759974
 31
0.0
  0
LINE
  5
451
330
73
100
AcDbEntity
  8
0
  6
Continuous
 62
     3
370
    18
100
AcDbLine
 10
30.254367981
 20
8.3682759974
 30
0.0
 11
29.9820951878
 21
8.4033817201
 31
0.0
  0
LINE
  5
452
330
73
100
AcDbEntity
  8
0
  6
Continuous
 62
     3
370
    18
100
AcDbLine
 10
29.9820951878
 20
8.4033817201
 30
0.0
 11
29.7186047453
 21
8.429710573
 31
0.0
  0
LINE
  5
453
330
73
100
AcDbEntity
  8
0
  6
Continuous
 62
     3
370
    18
100
AcDbLine
 10
29.7186047453
 20
8.429710573
 30
0.0
 11
29.3672848193
 21
8.429710573
 31
0.0
  0
LINE
  5
454
330
73
100
AcDbEntity
  8
0
  6
Continuous
 62
     3
370
    18
100
AcDbLine
 10
29.3672848193
 20
8.429710573
 30
0.0
 11
29.1037943768
 21
8.4033817201
 31
0.0
  0
LINE
  5
455
330
73
100
AcDbEntity
  8
0
  6
Continuous
 62
     3
370
    18
100
AcDbLine
 10
29.1037943768
 20
8.4033817201
 30
0.0
 11
28.7524734548
 21
8.3507234288
 31
0.0
  0
LINE
  5
456
330
73
100
AcDbEntity
  8
0
  6
Continuous
 62
     3
370
    18
100
AcDbLine
 10
28.7524734548
 20
8.3507234288
 30
0.0
 11
28.3923701821
 21
8.2541837161
 31
0.0
  0
LINE
  5
457
330
73
100
AcDbEntity
  8
0
  6
Continuous
 62
     3
370
    18
100
AcDbLine
 10
28.3923701821
 20
8.2541837161
 30
0.0
 11
28.0849649978
 21
8.0962094278
 31
0.0
  0
LINE
  5
458
330
73
100
AcDbEntity
  8
0
  6
Continuous
 62
     3
370
    18
100
AcDbLine
 10
28.0849649978
 20
8.0962094278
 30
0.0
 11
27.8214745553
 21
7.938235725
 31
0.0
  0
LINE
  5
459
330
73
100
AcDbEntity
  8
0
  6
Continuous
 62
     3
370
    18
100
AcDbLine
 10
27.8214745553
 20
7.938235725
 30
0.0
 11
27.5492017621
 21
7.7188268611
 31
0.0
  0
LINE
  5
45A
330
73
100
AcDbEntity
  8
0
  6
Continuous
 62
     3
370
    18
100
AcDbLine
 10
27.5492017621
 20
7.7188268611
 30
0.0
 11
27.3998908433
 21
7.5081948671
 31
0.0
  0
LINE
  5
45B
330
73
100
AcDbEntity
  8
0
  6
Continuous
 62
     3
370
    18
100
AcDbLine
 10
27.3998908433
 20
7.5081948671
 30
0.0
 11
27.3120603638
 21
7.3414442945
 31
0.0
  0
LINE
  5
45C
330
73
100
AcDbEntity
  8
0
  6
Continuous
 62
     3
370
    18
100
AcDbLine
 10
27.3120603638
 20
7.3414442945
 30
0.0
 11
27.2505789286
 21
7.1132591463
 31
0.0
  0
LINE
  5
45D
330
73
100
AcDbEntity
  8
0
  6
Continuous
 62
     3
370
    18
100
AcDbLine
 10
27.2505789286
 20
7.1132591463
 30
0.0
 11
27.2593622753
 21
6.893850868
 31
0.0
  0
LINE
  5
45E
330
73
100
AcDbEntity
  8
0
  6
Continuous
 62
     3
370
    18
100
AcDbLine
 10
27.2593622753
 20
6.893850868
 30
0.0
 11
27.2944946663
 21
6.6656657198
 31
0.0
  0
LINE
  5
45F
330
73
100
AcDbEntity
  8
0
  6
Continuous
 62
     3
370
    18
100
AcDbLine
 10
27.2944946663
 20
6.6656657198
 30
0.0
 11
27.3998908433
 21
6.5076914315
 31
0.0
  0
LINE
  5
460
330
73
100
AcDbEntity
  8
0
  6
Continuous
 62
     3
370
    18
100
AcDbLine
 10
27.3998908433
 20
6.5076914315
 30
0.0
 11
27.5579841128
 21
6.2882831532
 31
0.0
  0
LINE
  5
461
330
73
100
AcDbEntity
  8
0
  6
Continuous
 62
     3
370
    18
100
AcDbLine
 10
27.5579841128
 20
6.2882831532
 30
0.0
 11
27.7863431603
 21
6.0425454364
 31
0.0
  0
LINE
  5
462
330
73
100
AcDbEntity
  8
0
  6
Continuous
 62
     3
370
    18
100
AcDbLine
 10
27.7863431603
 20
6.0425454364
 30
0.0
 11
28.1113140421
 21
5.7178205755
 31
0.0
  0
LINE
  5
463
330
73
100
AcDbEntity
  8
0
  6
Continuous
 62
     3
370
    18
100
AcDbLine
 10
28.1113140421
 20
5.7178205755
 30
0.0
 11
28.4538516173
 21
5.3404380089
 31
0.0
  0
LINE
  5
464
330
73
100
AcDbEntity
  8
0
  6
Continuous
 62
     3
370
    18
100
AcDbLine
 10
28.4538516173
 20
5.3404380089
 30
0.0
 11
28.6734263221
 21
5.1122534462
 31
0.0
  0
LINE
  5
465
330
73
100
AcDbEntity
  8
0
  6
Continuous
 62
     3
370
    18
100
AcDbLine
 10
28.6734263221
 20
5.1122534462
 30
0.0
 11
28.7876058458
 21
4.9542791579
 31
0.0
  0
LINE
  5
466
330
73
100
AcDbEntity
  8
0
  6
Continuous
 62
     3
370
    18
100
AcDbLine
 10
28.7876058458
 20
4.9542791579
 30
0.0
 11
28.8315205876
 21
4.7875285853
 31
0.0
  0
LINE
  5
467
330
73
100
AcDbEntity
  8
0
  6
Continuous
 62
     3
370
    18
100
AcDbLine
 10
28.8315205876
 20
4.7875285853
 30
0.0
 11
28.8227382368
 21
4.6822125883
 31
0.0
  0
LINE
  5
468
330
73
100
AcDbEntity
  8
0
  6
Continuous
 62
     3
370
    18
100
AcDbLine
 10
28.8227382368
 20
4.6822125883
 30
0.0
 11
28.8051715433
 21
4.6207780127
 31
0.0
  0
LINE
  5
469
330
73
100
AcDbEntity
  8
0
  6
Continuous
 62
     3
370
    18
100
AcDbLine
 10
28.8051715433
 20
4.6207780127
 30
0.0
 11
28.743691104
 21
4.5593434372
 31
0.0
  0
LINE
  5
46A
330
73
100
AcDbEntity
  8
0
  6
Continuous
 62
     3
370
    18
100
AcDbLine
 10
28.743691104
 20
4.5593434372
 30
0.0
 11
28.6207282336
 21
4.5066857314
 31
0.0
  0
LINE
  5
46B
330
73
100
AcDbEntity
  8
0
  6
Continuous
 62
     3
370
    18
100
AcDbLine
 10
28.6207282336
 20
4.5066857314
 30
0.0
 11
28.4362859198
 21
4.4979094471
 31
0.0
  0
LINE
  5
46C
330
73
100
AcDbEntity
  8
0
  6
Continuous
 62
     3
370
    18
100
AcDbLine
 10
28.4362859198
 20
4.4979094471
 30
0.0
 11
28.2781916543
 21
4.5242383
 31
0.0
  0
LINE
  5
46D
330
73
100
AcDbEntity
  8
0
  6
Continuous
 62
     3
370
    18
100
AcDbLine
 10
28.2781916543
 20
4.5242383
 30
0.0
 11
28.1376630863
 21
4.5681197215
 31
0.0
  0
LINE
  5
46E
330
73
100
AcDbEntity
  8
0
  6
Continuous
 62
     3
370
    18
100
AcDbLine
 10
28.1376630863
 20
4.5681197215
 30
0.0
 11
27.9532197766
 21
4.6909888726
 31
0.0
  0
LINE
  5
46F
330
73
100
AcDbEntity
  8
0
  6
Continuous
 62
     3
370
    18
100
AcDbLine
 10
27.9532197766
 20
4.6909888726
 30
0.0
 11
27.7512107693
 21
4.8840682981
 31
0.0
  0
LINE
  5
470
330
73
100
AcDbEntity
  8
0
  6
Continuous
 62
     3
370
    18
100
AcDbLine
 10
27.7512107693
 20
4.8840682981
 30
0.0
 11
27.5755508063
 21
5.0859240078
 31
0.0
  0
LINE
  5
471
330
73
100
AcDbEntity
  8
0
  6
Continuous
 62
     3
370
    18
100
AcDbLine
 10
27.5755508063
 20
5.0859240078
 30
0.0
 11
27.3647584523
 21
5.2877803031
 31
0.0
  0
LINE
  5
472
330
73
100
AcDbEntity
  8
0
  6
Continuous
 62
     3
370
    18
100
AcDbLine
 10
27.3647584523
 20
5.2877803031
 30
0.0
 11
27.1627494451
 21
5.4282014373
 31
0.0
  0
LINE
  5
473
330
73
100
AcDbEntity
  8
0
  6
Continuous
 62
     3
370
    18
100
AcDbLine
 10
27.1627494451
 20
5.4282014373
 30
0.0
 11
27.0397865746
 21
5.4896360129
 31
0.0
  0
LINE
  5
474
330
73
100
AcDbEntity
  8
0
  6
Continuous
 62
     3
370
    18
100
AcDbLine
 10
27.0397865746
 20
5.4896360129
 30
0.0
 11
26.8816933051
 21
5.5159648658
 31
0.0
  0
LINE
  5
475
330
73
100
AcDbEntity
  8
0
  6
Continuous
 62
     3
370
    18
100
AcDbLine
 10
26.8816933051
 20
5.5159648658
 30
0.0
 11
26.6884666486
 21
5.5159648658
 31
0.0
  0
LINE
  5
476
330
73
100
AcDbEntity
  8
0
  6
Continuous
 62
     3
370
    18
100
AcDbLine
 10
26.6884666486
 20
5.5159648658
 30
0.0
 11
26.4688909479
 21
5.4896360129
 31
0.0
  0
LINE
  5
477
330
73
100
AcDbEntity
  8
0
  6
Continuous
 62
     3
370
    18
100
AcDbLine
 10
26.4688909479
 20
5.4896360129
 30
0.0
 11
26.3195800291
 21
5.4106488687
 31
0.0
  0
LINE
  5
478
330
73
100
AcDbEntity
  8
0
  6
Continuous
 62
     3
370
    18
100
AcDbLine
 10
26.3195800291
 20
5.4106488687
 30
0.0
 11
26.1966181546
 21
5.2965565874
 31
0.0
  0
LINE
  5
479
330
73
100
AcDbEntity
  8
0
  6
Continuous
 62
     3
370
    18
100
AcDbLine
 10
26.1966181546
 20
5.2965565874
 30
0.0
 11
26.1351367194
 21
5.2000168746
 31
0.0
  0
LINE
  5
47A
330
73
100
AcDbEntity
  8
0
  6
Continuous
 62
     3
370
    18
100
AcDbLine
 10
26.1351367194
 20
5.2000168746
 30
0.0
 11
26.1263543686
 21
5.0332663021
 31
0.0
  0
LINE
  5
47B
330
73
100
AcDbEntity
  8
0
  6
Continuous
 62
     3
370
    18
100
AcDbLine
 10
26.1263543686
 20
5.0332663021
 30
0.0
 11
26.1175710219
 21
4.8840682981
 31
0.0
  0
LINE
  5
47C
330
73
100
AcDbEntity
  8
0
  6
Continuous
 62
     3
370
    18
100
AcDbLine
 10
26.1175710219
 20
4.8840682981
 30
0.0
 11
26.1702691104
 21
4.7524228627
 31
0.0
  0
LINE
  5
47D
330
73
100
AcDbEntity
  8
0
  6
Continuous
 62
     3
370
    18
100
AcDbLine
 10
26.1702691104
 20
4.7524228627
 30
0.0
 11
26.2756652873
 21
4.6120017284
 31
0.0
  0
LINE
  5
47E
330
73
100
AcDbEntity
  8
0
  6
Continuous
 62
     3
370
    18
100
AcDbLine
 10
26.2756652873
 20
4.6120017284
 30
0.0
 11
26.3986271619
 21
4.5066857314
 31
0.0
  0
LINE
  5
47F
330
73
100
AcDbEntity
  8
0
  6
Continuous
 62
     3
370
    18
100
AcDbLine
 10
26.3986271619
 20
4.5066857314
 30
0.0
 11
26.5391557298
 21
4.4101460186
 31
0.0
  0
LINE
  5
480
330
73
100
AcDbEntity
  8
0
  6
Continuous
 62
     3
370
    18
100
AcDbLine
 10
26.5391557298
 20
4.4101460186
 30
0.0
 11
26.7148156928
 21
4.3399351588
 31
0.0
  0
LINE
  5
481
330
73
100
AcDbEntity
  8
0
  6
Continuous
 62
     3
370
    18
100
AcDbLine
 10
26.7148156928
 20
4.3399351588
 30
0.0
 11
26.9695227886
 21
4.2346191618
 31
0.0
  0
LINE
  5
482
330
73
100
AcDbEntity
  8
0
  6
Continuous
 62
     3
370
    18
100
AcDbLine
 10
26.9695227886
 20
4.2346191618
 30
0.0
 11
27.3120603638
 21
4.1293025792
 31
0.0
  0
LINE
  5
483
330
73
100
AcDbEntity
  8
0
  6
Continuous
 62
     3
370
    18
100
AcDbLine
 10
27.3120603638
 20
4.1293025792
 30
0.0
 11
27.5755508063
 21
4.0766448735
 31
0.0
  0
LINE
  5
484
330
73
100
AcDbEntity
  8
0
  6
Continuous
 62
     3
370
    18
100
AcDbLine
 10
27.5755508063
 20
4.0766448735
 30
0.0
 11
27.8214745553
 21
4.0503160206
 31
0.0
  0
LINE
  5
485
330
73
100
AcDbEntity
  8
0
  6
Continuous
 62
     3
370
    18
100
AcDbLine
 10
27.8214745553
 20
4.0503160206
 30
0.0
 11
28.1200973888
 21
4.0415391508
 31
0.0
  0
LINE
  5
486
330
73
100
AcDbEntity
  8
0
  6
Continuous
 62
     3
370
    18
100
AcDbLine
 10
28.1200973888
 20
4.0415391508
 30
0.0
 11
28.427502573
 21
4.0503160206
 31
0.0
  0
LINE
  5
487
330
73
100
AcDbEntity
  8
0
  6
Continuous
 62
     3
370
    18
100
AcDbLine
 10
28.427502573
 20
4.0503160206
 30
0.0
 11
28.8578696318
 21
4.1117500107
 31
0.0
  0
LINE
  5
488
330
73
100
AcDbEntity
  8
0
  6
Continuous
 62
     3
370
    18
100
AcDbLine
 10
28.8578696318
 20
4.1117500107
 30
0.0
 11
29.1740581628
 21
4.2082897234
 31
0.0
  0
LINE
  5
489
330
73
100
AcDbEntity
  8
0
  6
Continuous
 62
     3
370
    18
100
AcDbLine
 10
29.1740581628
 20
4.2082897234
 30
0.0
 11
29.621991915
 21
4.375040296
 31
0.0
  0
LINE
  5
48A
330
73
100
AcDbEntity
  8
0
  6
Continuous
 62
     3
370
    18
100
AcDbLine
 10
29.621991915
 20
4.375040296
 30
0.0
 11
29.9557461435
 21
4.5768965912
 31
0.0
  0
LINE
  5
48B
330
73
100
AcDbEntity
  8
0
  6
Continuous
 62
     3
370
    18
100
AcDbLine
 10
29.9557461435
 20
4.5768965912
 30
0.0
 11
30.219236586
 21
4.8401862911
 31
0.0
  0
LINE
  5
48C
330
73
100
AcDbEntity
  8
0
  6
Continuous
 62
     3
370
    18
100
AcDbLine
 10
30.219236586
 20
4.8401862911
 30
0.0
 11
30.3773308515
 21
5.0859240078
 31
0.0
  0
LINE
  5
48D
330
73
100
AcDbEntity
  8
0
  6
Continuous
 62
     3
370
    18
100
AcDbLine
 10
30.3773308515
 20
5.0859240078
 30
0.0
 11
30.43002894
 21
5.314109156
 31
0.0
  0
LINE
  5
48E
330
73
100
AcDbEntity
  8
0
  6
Continuous
 62
     3
370
    18
100
AcDbLine
 10
30.43002894
 20
5.314109156
 30
0.0
 11
30.43002894
 21
5.4808597286
 31
0.0
  0
LINE
  5
48F
330
73
100
AcDbEntity
  8
0
  6
Continuous
 62
     3
370
    18
100
AcDbLine
 10
30.43002894
 20
5.4808597286
 30
0.0
 11
30.4036798957
 21
5.6739391541
 31
0.0
  0
LINE
  5
490
330
73
100
AcDbEntity
  8
0
  6
Continuous
 62
     3
370
    18
100
AcDbLine
 10
30.4036798957
 20
5.6739391541
 30
0.0
 11
30.324632763
 21
5.8933474324
 31
0.0
  0
LINE
  5
491
330
73
100
AcDbEntity
  8
0
  6
Continuous
 62
     3
370
    18
100
AcDbLine
 10
30.324632763
 20
5.8933474324
 30
0.0
 11
30.1577551508
 21
6.1478614335
 31
0.0
  0
LINE
  5
492
330
73
100
AcDbEntity
  8
0
  6
Continuous
 62
     3
370
    18
100
AcDbLine
 10
30.1577551508
 20
6.1478614335
 30
0.0
 11
29.832784269
 21
6.4550337257
 31
0.0
  0
LINE
  5
493
330
73
100
AcDbEntity
  8
0
  6
Continuous
 62
     3
370
    18
100
AcDbLine
 10
29.832784269
 20
6.4550337257
 30
0.0
 11
28.8842186761
 21
7.3765494317
 31
0.0
  0
LINE
  5
494
330
73
100
AcDbEntity
  8
0
  6
Continuous
 62
     3
370
    18
100
AcDbLine
 10
28.8842186761
 20
7.3765494317
 30
0.0
 11
28.7524734548
 21
7.53452372
 31
0.0
  0
LINE
  5
495
330
73
100
AcDbEntity
  8
0
  6
Continuous
 62
     3
370
    18
100
AcDbLine
 10
28.7524734548
 20
7.53452372
 30
0.0
 11
28.708558713
 21
7.6749454397
 31
0.0
  0
LINE
  5
496
330
73
100
AcDbEntity
  8
0
  6
Continuous
 62
     3
370
    18
100
AcDbLine
 10
28.708558713
 20
7.6749454397
 30
0.0
 11
28.743691104
 21
7.8065902896
 31
0.0
  0
LINE
  5
497
330
73
100
AcDbEntity
  8
0
  6
Continuous
 62
     3
370
    18
100
AcDbLine
 10
28.743691104
 20
7.8065902896
 30
0.0
 11
28.81395489
 21
7.9031300023
 31
0.0
  0
LINE
  5
498
330
73
100
AcDbEntity
  8
0
  6
Continuous
 62
     3
370
    18
100
AcDbLine
 10
28.81395489
 20
7.9031300023
 30
0.0
 11
28.8842186761
 21
7.9557882936
 31
0.0
  0
LINE
  5
499
330
73
100
AcDbEntity
  8
0
  6
Continuous
 62
     3
370
    18
100
AcDbLine
 10
28.8842186761
 20
7.9557882936
 30
0.0
 11
29.024747244
 21
7.9908934308
 31
0.0
  0
LINE
  5
49A
330
73
100
AcDbEntity
  8
0
  6
Continuous
 62
     3
370
    18
100
AcDbLine
 10
29.024747244
 20
7.9908934308
 30
0.0
 11
29.1740581628
 21
7.9996697151
 31
0.0
  0
LINE
  5
49B
330
73
100
AcDbEntity
  8
0
  6
Continuous
 62
     3
370
    18
100
AcDbLine
 10
29.1740581628
 20
7.9996697151
 30
0.0
 11
29.3145867308
 21
7.9645645779
 31
0.0
  0
LINE
  5
49C
330
73
100
AcDbEntity
  8
0
  6
Continuous
 62
     3
370
    18
100
AcDbLine
 10
29.3145867308
 20
7.9645645779
 30
0.0
 11
29.4638976495
 21
7.9031300023
 31
0.0
  0
LINE
  5
49D
330
73
100
AcDbEntity
  8
0
  6
Continuous
 62
     3
370
    18
100
AcDbLine
 10
29.4638976495
 20
7.9031300023
 30
0.0
 11
29.6044252215
 21
7.7978140053
 31
0.0
  0
LINE
  5
49E
330
73
100
AcDbEntity
  8
0
  6
Continuous
 62
     3
370
    18
100
AcDbLine
 10
29.6044252215
 20
7.7978140053
 30
0.0
 11
29.7888685313
 21
7.6047345798
 31
0.0
  0
LINE
  5
49F
330
73
100
AcDbEntity
  8
0
  6
Continuous
 62
     3
370
    18
100
AcDbLine
 10
29.7888685313
 20
7.6047345798
 30
0.0
 11
30.0962737155
 21
7.2800097189
 31
0.0
  0
LINE
  5
4A0
330
73
100
AcDbEntity
  8
0
  6
Continuous
 62
     3
370
    18
100
AcDbLine
 10
30.0962737155
 20
7.2800097189
 30
0.0
 11
30.3070660695
 21
7.0693777249
 31
0.0
  0
LINE
  5
4A1
330
73
100
AcDbEntity
  8
0
  6
Continuous
 62
     3
370
    18
100
AcDbLine
 10
30.3070660695
 20
7.0693777249
 30
0.0
 11
30.4388112908
 21
6.999166865
 31
0.0
  0
LINE
  5
4A2
330
73
100
AcDbEntity
  8
0
  6
Continuous
 62
     3
370
    18
100
AcDbLine
 10
30.4388112908
 20
6.999166865
 30
0.0
 11
30.5969055563
 21
6.9816142964
 31
0.0
  0
LINE
  5
4A3
330
73
100
AcDbEntity
  8
0
  6
Continuous
 62
     3
370
    18
100
AcDbLine
 10
30.5969055563
 20
6.9816142964
 30
0.0
 11
30.746216475
 21
6.9816142964
 31
0.0
  0
LINE
  5
4A4
330
73
100
AcDbEntity
  8
0
  6
Continuous
 62
     3
370
    18
100
AcDbLine
 10
30.746216475
 20
6.9816142964
 30
0.0
 11
30.9306597848
 21
6.999166865
 31
0.0
  0
LINE
  5
4A5
330
73
100
AcDbEntity
  8
0
  6
Continuous
 62
     3
370
    18
100
AcDbLine
 10
30.9306597848
 20
6.999166865
 30
0.0
 11
31.097537397
 21
7.0693777249
 31
0.0
  0
LINE
  5
4A6
330
73
100
AcDbEntity
  8
0
  6
Continuous
 62
     3
370
    18
100
AcDbLine
 10
31.097537397
 20
7.0693777249
 30
0.0
 11
31.1941502272
 21
7.1395885847
 31
0.0
  0
LINE
  5
4A7
330
73
100
AcDbEntity
  8
0
  6
Continuous
 62
     3
370
    18
100
AcDbLine
 10
31.1941502272
 20
7.1395885847
 30
0.0
 11
31.2907630575
 21
7.2361282974
 31
0.0
  0
LINE
  5
4A8
330
73
100
AcDbEntity
  8
0
  6
Continuous
 62
     3
370
    18
100
AcDbLine
 10
31.2907630575
 20
7.2361282974
 30
0.0
 11
31.3610278395
 21
7.3677731474
 31
0.0
  0
LINE
  5
4A9
330
73
100
AcDbEntity
  8
0
  6
Continuous
 62
     3
370
    18
100
AcDbLine
 10
31.3610278395
 20
7.3677731474
 30
0.0
 11
31.3961592345
 21
7.5257474357
 31
0.0
  0
LINE
  5
4AA
330
73
100
AcDbEntity
  8
0
  6
Continuous
 62
     3
370
    18
100
AcDbLine
 10
31.3961592345
 20
7.5257474357
 30
0.0
 11
31.3961592345
 21
7.7188268611
 31
0.0
  0
LINE
  5
4AB
330
73
100
AcDbEntity
  8
0
  6
Continuous
 62
     3
370
    18
100
AcDbLine
 10
31.3961592345
 20
7.7188268611
 30
0.0
 11
31.3346787952
 21
7.8592485808
 31
0.0
  0
LINE
  5
4AC
330
73
100
AcDbEntity
  8
0
  6
Continuous
 62
     3
370
    18
100
AcDbLine
 10
31.3346787952
 20
7.8592485808
 30
0.0
 11
31.1853668805
 21
7.9821171465
 31
0.0
  0
LINE
  5
4AD
330
73
100
AcDbEntity
  8
0
  6
Continuous
 62
     3
370
    18
100
AcDbLine
 10
31.1853668805
 20
7.9821171465
 30
0.0
 11
31.0887540502
 21
8.0523280063
 31
0.0
  0
LINE
  5
4AE
330
73
100
AcDbEntity
  8
0
  6
Continuous
 62
     3
370
    18
100
AcDbLine
 10
31.0887540502
 20
8.0523280063
 30
0.0
 11
30.9043107405
 21
8.1313151505
 31
0.0
  0
LINE
  5
4AF
330
73
100
AcDbEntity
  8
0
  6
Continuous
 62
     3
370
    18
100
AcDbLine
 10
18.8105705181
 20
7.5735006095
 30
0.0
 11
18.6337057992
 21
7.4270581959
 31
0.0
  0
LINE
  5
4B0
330
73
100
AcDbEntity
  8
0
  6
Continuous
 62
     3
370
    18
100
AcDbLine
 10
18.6337057992
 20
7.4270581959
 30
0.0
 11
18.6337057992
 21
7.3848768842
 31
0.0
  0
LINE
  5
4B1
330
73
100
AcDbEntity
  8
0
  6
Continuous
 62
     3
370
    18
100
AcDbLine
 10
18.6337057992
 20
7.3848768842
 30
0.0
 11
18.6196339727
 21
7.3286347295
 31
0.0
  0
LINE
  5
4B2
330
73
100
AcDbEntity
  8
0
  6
Continuous
 62
     3
370
    18
100
AcDbLine
 10
18.6196339727
 20
7.3286347295
 30
0.0
 11
18.6618473812
 21
7.2864534178
 31
0.0
  0
LINE
  5
4B3
330
73
100
AcDbEntity
  8
0
  6
Continuous
 62
     3
370
    18
100
AcDbLine
 10
18.6618473812
 20
7.2864534178
 30
0.0
 11
18.7884876069
 21
7.1599094827
 31
0.0
  0
LINE
  5
4B4
330
73
100
AcDbEntity
  8
0
  6
Continuous
 62
     3
370
    18
100
AcDbLine
 10
18.7884876069
 20
7.1599094827
 30
0.0
 11
18.8166302244
 21
7.1458492483
 31
0.0
  0
LINE
  5
4B5
330
73
100
AcDbEntity
  8
0
  6
Continuous
 62
     3
370
    18
100
AcDbLine
 10
18.8166302244
 20
7.1458492483
 30
0.0
 11
18.9010570415
 21
7.1317884053
 31
0.0
  0
LINE
  5
4B6
330
73
100
AcDbEntity
  8
0
  6
Continuous
 62
     3
370
    18
100
AcDbLine
 10
18.9010570415
 20
7.1317884053
 30
0.0
 11
18.9854838585
 21
7.1599094827
 31
0.0
  0
LINE
  5
4B7
330
73
100
AcDbEntity
  8
0
  6
Continuous
 62
     3
370
    18
100
AcDbLine
 10
18.9854838585
 20
7.1599094827
 30
0.0
 11
19.0276972671
 21
7.2161510287
 31
0.0
  0
LINE
  5
4B8
330
73
100
AcDbEntity
  8
0
  6
Continuous
 62
     3
370
    18
100
AcDbLine
 10
19.0276972671
 20
7.2161510287
 30
0.0
 11
19.2669058918
 21
7.4129973529
 31
0.0
  0
LINE
  5
4B9
330
73
100
AcDbEntity
  8
0
  6
Continuous
 62
     3
370
    18
100
AcDbLine
 10
19.2669058918
 20
7.4129973529
 30
0.0
 11
19.4779729345
 21
7.5676623653
 31
0.0
  0
LINE
  5
4BA
330
73
100
AcDbEntity
  8
0
  6
Continuous
 62
     3
370
    18
100
AcDbLine
 10
19.4779729345
 20
7.5676623653
 30
0.0
 11
19.6749691862
 21
7.6660858317
 31
0.0
  0
LINE
  5
4BB
330
73
100
AcDbEntity
  8
0
  6
Continuous
 62
     3
370
    18
100
AcDbLine
 10
19.6749691862
 20
7.6660858317
 30
0.0
 11
19.7734667943
 21
7.6660858317
 31
0.0
  0
LINE
  5
4BC
330
73
100
AcDbEntity
  8
0
  6
Continuous
 62
     3
370
    18
100
AcDbLine
 10
19.7734667943
 20
7.6660858317
 30
0.0
 11
19.8578936114
 21
7.6520249887
 31
0.0
  0
LINE
  5
4BD
330
73
100
AcDbEntity
  8
0
  6
Continuous
 62
     3
370
    18
100
AcDbLine
 10
19.8578936114
 20
7.6520249887
 30
0.0
 11
19.9141788464
 21
7.5957834427
 31
0.0
  0
LINE
  5
4BE
330
73
100
AcDbEntity
  8
0
  6
Continuous
 62
     3
370
    18
100
AcDbLine
 10
19.9141788464
 20
7.5957834427
 30
0.0
 11
19.9141788464
 21
7.5114208193
 31
0.0
  0
LINE
  5
4BF
330
73
100
AcDbEntity
  8
0
  6
Continuous
 62
     3
370
    18
100
AcDbLine
 10
19.9141788464
 20
7.5114208193
 30
0.0
 11
19.8860362289
 21
7.3426955725
 31
0.0
  0
LINE
  5
4C0
330
73
100
AcDbEntity
  8
0
  6
Continuous
 62
     3
370
    18
100
AcDbLine
 10
19.8860362289
 20
7.3426955725
 30
0.0
 11
19.7593960033
 21
7.0755468593
 31
0.0
  0
LINE
  5
4C1
330
73
100
AcDbEntity
  8
0
  6
Continuous
 62
     3
370
    18
100
AcDbLine
 10
19.7593960033
 20
7.0755468593
 30
0.0
 11
18.9151278325
 21
5.2758088646
 31
0.0
  0
LINE
  5
4C2
330
73
100
AcDbEntity
  8
0
  6
Continuous
 62
     3
370
    18
100
AcDbLine
 10
18.9151278325
 20
5.2758088646
 30
0.0
 11
18.5070655736
 21
4.3759398672
 31
0.0
  0
LINE
  5
4C3
330
73
100
AcDbEntity
  8
0
  6
Continuous
 62
     3
370
    18
100
AcDbLine
 10
18.5070655736
 20
4.3759398672
 30
0.0
 11
18.5211363646
 21
4.3196983212
 31
0.0
  0
LINE
  5
4C4
330
73
100
AcDbEntity
  8
0
  6
Continuous
 62
     3
370
    18
100
AcDbLine
 10
18.5211363646
 20
4.3196983212
 30
0.0
 11
18.599407668
 21
4.2577519015
 31
0.0
  0
LINE
  5
4C5
330
73
100
AcDbEntity
  8
0
  6
Continuous
 62
     3
370
    18
100
AcDbLine
 10
18.8105705181
 20
7.5735006095
 30
0.0
 11
19.0669816967
 21
7.7845032099
 31
0.0
  0
LINE
  5
4C6
330
73
100
AcDbEntity
  8
0
  6
Continuous
 62
     3
370
    18
100
AcDbLine
 10
19.0669816967
 20
7.7845032099
 30
0.0
 11
19.3837259718
 21
8.0105765463
 31
0.0
  0
LINE
  5
4C7
330
73
100
AcDbEntity
  8
0
  6
Continuous
 62
     3
370
    18
100
AcDbLine
 10
19.3837259718
 20
8.0105765463
 30
0.0
 11
19.806050676
 21
8.2215791466
 31
0.0
  0
LINE
  5
4C8
330
73
100
AcDbEntity
  8
0
  6
Continuous
 62
     3
370
    18
100
AcDbLine
 10
19.806050676
 20
8.2215791466
 30
0.0
 11
20.1680432796
 21
8.3421514757
 31
0.0
  0
LINE
  5
4C9
330
73
100
AcDbEntity
  8
0
  6
Continuous
 62
     3
370
    18
100
AcDbLine
 10
20.1680432796
 20
8.3421514757
 30
0.0
 11
20.514953107
 21
8.4024379329
 31
0.0
  0
LINE
  5
4CA
330
73
100
AcDbEntity
  8
0
  6
Continuous
 62
     3
370
    18
100
AcDbLine
 10
20.514953107
 20
8.4024379329
 30
0.0
 11
20.8316973821
 21
8.4024379329
 31
0.0
  0
LINE
  5
4CB
330
73
100
AcDbEntity
  8
0
  6
Continuous
 62
     3
370
    18
100
AcDbLine
 10
20.8316973821
 20
8.4024379329
 30
0.0
 11
21.1484406613
 21
8.4024379329
 31
0.0
  0
LINE
  5
4CC
330
73
100
AcDbEntity
  8
0
  6
Continuous
 62
     3
370
    18
100
AcDbLine
 10
21.1484406613
 20
8.4024379329
 30
0.0
 11
21.4350183881
 21
8.3421514757
 31
0.0
  0
LINE
  5
4CD
330
73
100
AcDbEntity
  8
0
  6
Continuous
 62
     3
370
    18
100
AcDbLine
 10
21.4350183881
 20
8.3421514757
 30
0.0
 11
21.6160146899
 21
8.2366504682
 31
0.0
  0
LINE
  5
4CE
330
73
100
AcDbEntity
  8
0
  6
Continuous
 62
     3
370
    18
100
AcDbLine
 10
21.6160146899
 20
8.2366504682
 30
0.0
 11
21.8120937679
 21
8.0859349106
 31
0.0
  0
LINE
  5
4CF
330
73
100
AcDbEntity
  8
0
  6
Continuous
 62
     3
370
    18
100
AcDbLine
 10
21.8120937679
 20
8.0859349106
 30
0.0
 11
21.9176751929
 21
7.9201474459
 31
0.0
  0
LINE
  5
4D0
330
73
100
AcDbEntity
  8
0
  6
Continuous
 62
     3
370
    18
100
AcDbLine
 10
21.9176751929
 20
7.9201474459
 30
0.0
 11
21.9629245174
 21
7.6790022024
 31
0.0
  0
LINE
  5
4D1
330
73
100
AcDbEntity
  8
0
  6
Continuous
 62
     3
370
    18
100
AcDbLine
 10
21.9629245174
 20
7.6790022024
 30
0.0
 11
21.9629245174
 21
7.4529282805
 31
0.0
  0
LINE
  5
4D2
330
73
100
AcDbEntity
  8
0
  6
Continuous
 62
     3
370
    18
100
AcDbLine
 10
21.9629245174
 20
7.4529282805
 30
0.0
 11
21.8573430923
 21
7.3022121374
 31
0.0
  0
LINE
  5
4D3
330
73
100
AcDbEntity
  8
0
  6
Continuous
 62
     3
370
    18
100
AcDbLine
 10
21.8573430923
 20
7.3022121374
 30
0.0
 11
21.7970109917
 21
7.19671113
 31
0.0
  0
LINE
  5
4D4
330
73
100
AcDbEntity
  8
0
  6
Continuous
 62
     3
370
    18
100
AcDbLine
 10
21.7970109917
 20
7.19671113
 30
0.0
 11
21.7668454394
 21
7.1514965798
 31
0.0
  0
LINE
  5
4D5
330
73
100
AcDbEntity
  8
0
  6
Continuous
 62
     3
370
    18
100
AcDbLine
 10
21.7668454394
 20
7.1514965798
 30
0.0
 11
21.7668454394
 21
7.1213533512
 31
0.0
  0
LINE
  5
4D6
330
73
100
AcDbEntity
  8
0
  6
Continuous
 62
     3
370
    18
100
AcDbLine
 10
21.7668454394
 20
7.1213533512
 30
0.0
 11
21.8422603162
 21
7.1364246727
 31
0.0
  0
LINE
  5
4D7
330
73
100
AcDbEntity
  8
0
  6
Continuous
 62
     3
370
    18
100
AcDbLine
 10
21.8422603162
 20
7.1364246727
 30
0.0
 11
21.8724258685
 21
7.1816398084
 31
0.0
  0
LINE
  5
4D8
330
73
100
AcDbEntity
  8
0
  6
Continuous
 62
     3
370
    18
100
AcDbLine
 10
21.8724258685
 20
7.1816398084
 30
0.0
 11
22.0383393941
 21
7.332355366
 31
0.0
  0
LINE
  5
4D9
330
73
100
AcDbEntity
  8
0
  6
Continuous
 62
     3
370
    18
100
AcDbLine
 10
22.0383393941
 20
7.332355366
 30
0.0
 11
22.3550836692
 21
7.6337870668
 31
0.0
  0
LINE
  5
4DA
330
73
100
AcDbEntity
  8
0
  6
Continuous
 62
     3
370
    18
100
AcDbLine
 10
22.3550836692
 20
7.6337870668
 30
0.0
 11
22.732159049
 21
7.8749323103
 31
0.0
  0
LINE
  5
4DB
330
73
100
AcDbEntity
  8
0
  6
Continuous
 62
     3
370
    18
100
AcDbLine
 10
22.732159049
 20
7.8749323103
 30
0.0
 11
23.0941516526
 21
8.0859349106
 31
0.0
  0
LINE
  5
4DC
330
73
100
AcDbEntity
  8
0
  6
Continuous
 62
     3
370
    18
100
AcDbLine
 10
23.0941516526
 20
8.0859349106
 30
0.0
 11
23.4259787039
 21
8.2366504682
 31
0.0
  0
LINE
  5
4DD
330
73
100
AcDbEntity
  8
0
  6
Continuous
 62
     3
370
    18
100
AcDbLine
 10
23.4259787039
 20
8.2366504682
 30
0.0
 11
23.6823908784
 21
8.3421514757
 31
0.0
  0
LINE
  5
4DE
330
73
100
AcDbEntity
  8
0
  6
Continuous
 62
     3
370
    18
100
AcDbLine
 10
23.6823908784
 20
8.3421514757
 30
0.0
 11
24.044383482
 21
8.4175098399
 31
0.0
  0
LINE
  5
4DF
330
73
100
AcDbEntity
  8
0
  6
Continuous
 62
     3
370
    18
100
AcDbLine
 10
24.044383482
 20
8.4175098399
 30
0.0
 11
24.3309612088
 21
8.4175098399
 31
0.0
  0
LINE
  5
4E0
330
73
100
AcDbEntity
  8
0
  6
Continuous
 62
     3
370
    18
100
AcDbLine
 10
24.3309612088
 20
8.4175098399
 30
0.0
 11
24.5873723874
 21
8.4024379329
 31
0.0
  0
LINE
  5
4E1
330
73
100
AcDbEntity
  8
0
  6
Continuous
 62
     3
370
    18
100
AcDbLine
 10
24.5873723874
 20
8.4024379329
 30
0.0
 11
24.8287007898
 21
8.3572233827
 31
0.0
  0
LINE
  5
4E2
330
73
100
AcDbEntity
  8
0
  6
Continuous
 62
     3
370
    18
100
AcDbLine
 10
24.8287007898
 20
8.3572233827
 30
0.0
 11
25.0851129643
 21
8.2667936968
 31
0.0
  0
LINE
  5
4E3
330
73
100
AcDbEntity
  8
0
  6
Continuous
 62
     3
370
    18
100
AcDbLine
 10
25.0851129643
 20
8.2667936968
 30
0.0
 11
25.2962748184
 21
8.1311494608
 31
0.0
  0
LINE
  5
4E4
330
73
100
AcDbEntity
  8
0
  6
Continuous
 62
     3
370
    18
100
AcDbLine
 10
25.2962748184
 20
8.1311494608
 30
0.0
 11
25.4772711202
 21
7.9502906745
 31
0.0
  0
LINE
  5
4E5
330
73
100
AcDbEntity
  8
0
  6
Continuous
 62
     3
370
    18
100
AcDbLine
 10
25.4772711202
 20
7.9502906745
 30
0.0
 11
25.5376032208
 21
7.694073524
 31
0.0
  0
LINE
  5
4E6
330
73
100
AcDbEntity
  8
0
  6
Continuous
 62
     3
370
    18
100
AcDbLine
 10
25.5376032208
 20
7.694073524
 30
0.0
 11
25.4923548923
 21
7.3474272731
 31
0.0
  0
LINE
  5
4E7
330
73
100
AcDbEntity
  8
0
  6
Continuous
 62
     3
370
    18
100
AcDbLine
 10
25.4923548923
 20
7.3474272731
 30
0.0
 11
25.3264413667
 21
7.0158523437
 31
0.0
  0
LINE
  5
4E8
330
73
100
AcDbEntity
  8
0
  6
Continuous
 62
     3
370
    18
100
AcDbLine
 10
25.3264413667
 20
7.0158523437
 30
0.0
 11
25.0700291922
 21
6.578776407
 31
0.0
  0
LINE
  5
4E9
330
73
100
AcDbEntity
  8
0
  6
Continuous
 62
     3
370
    18
100
AcDbLine
 10
25.0700291922
 20
6.578776407
 30
0.0
 11
24.6627872641
 21
5.8704114126
 31
0.0
  0
LINE
  5
4EA
330
73
100
AcDbEntity
  8
0
  6
Continuous
 62
     3
370
    18
100
AcDbLine
 10
24.6627872641
 20
5.8704114126
 30
0.0
 11
24.4214588617
 21
5.4182641542
 31
0.0
  0
LINE
  5
4EB
330
73
100
AcDbEntity
  8
0
  6
Continuous
 62
     3
370
    18
100
AcDbLine
 10
24.4214588617
 20
5.4182641542
 30
0.0
 11
24.2555453361
 21
5.1017605465
 31
0.0
  0
LINE
  5
4EC
330
73
100
AcDbEntity
  8
0
  6
Continuous
 62
     3
370
    18
100
AcDbLine
 10
24.2555453361
 20
5.1017605465
 30
0.0
 11
24.2555453361
 21
4.996259539
 31
0.0
  0
LINE
  5
4ED
330
73
100
AcDbEntity
  8
0
  6
Continuous
 62
     3
370
    18
100
AcDbLine
 10
24.2555453361
 20
4.996259539
 30
0.0
 11
24.2555453361
 21
4.9510449888
 31
0.0
  0
LINE
  5
4EE
330
73
100
AcDbEntity
  8
0
  6
Continuous
 62
     3
370
    18
100
AcDbLine
 10
24.2555453361
 20
4.9510449888
 30
0.0
 11
24.3158774367
 21
4.8907585316
 31
0.0
  0
LINE
  5
4EF
330
73
100
AcDbEntity
  8
0
  6
Continuous
 62
     3
370
    18
100
AcDbLine
 10
24.3158774367
 20
4.8907585316
 30
0.0
 11
24.4214588617
 21
4.8907585316
 31
0.0
  0
LINE
  5
4F0
330
73
100
AcDbEntity
  8
0
  6
Continuous
 62
     3
370
    18
100
AcDbLine
 10
24.4214588617
 20
4.8907585316
 30
0.0
 11
24.557206835
 21
4.9058304386
 31
0.0
  0
LINE
  5
4F1
330
73
100
AcDbEntity
  8
0
  6
Continuous
 62
     3
370
    18
100
AcDbLine
 10
24.557206835
 20
4.9058304386
 30
0.0
 11
24.7382031368
 21
4.996259539
 31
0.0
  0
LINE
  5
4F2
330
73
100
AcDbEntity
  8
0
  6
Continuous
 62
     3
370
    18
100
AcDbLine
 10
24.7382031368
 20
4.996259539
 30
0.0
 11
24.9191994386
 21
5.1017605465
 31
0.0
  0
LINE
  5
4F3
330
73
100
AcDbEntity
  8
0
  6
Continuous
 62
     3
370
    18
100
AcDbLine
 10
24.9191994386
 20
5.1017605465
 30
0.0
 11
25.1303612928
 21
5.2524766896
 31
0.0
  0
LINE
  5
4F4
330
73
100
AcDbEntity
  8
0
  6
Continuous
 62
     3
370
    18
100
AcDbLine
 10
25.1303612928
 20
5.2524766896
 30
0.0
 11
25.2057771655
 21
5.3278344684
 31
0.0
  0
LINE
  5
4F5
330
73
100
AcDbEntity
  8
0
  6
Continuous
 62
     3
370
    18
100
AcDbLine
 10
25.2057771655
 20
5.3278344684
 30
0.0
 11
25.251025494
 21
5.373049604
 31
0.0
  0
LINE
  5
4F6
330
73
100
AcDbEntity
  8
0
  6
Continuous
 62
     3
370
    18
100
AcDbLine
 10
25.251025494
 20
5.373049604
 30
0.0
 11
25.2962748184
 21
5.373049604
 31
0.0
  0
LINE
  5
4F7
330
73
100
AcDbEntity
  8
0
  6
Continuous
 62
     3
370
    18
100
AcDbLine
 10
25.2962748184
 20
5.373049604
 30
0.0
 11
25.3264413667
 21
5.357977697
 31
0.0
  0
LINE
  5
4F8
330
73
100
AcDbEntity
  8
0
  6
Continuous
 62
     3
370
    18
100
AcDbLine
 10
25.3264413667
 20
5.357977697
 30
0.0
 11
25.5225204446
 21
5.1921902323
 31
0.0
  0
LINE
  5
4F9
330
73
100
AcDbEntity
  8
0
  6
Continuous
 62
     3
370
    18
100
AcDbLine
 10
25.5225204446
 20
5.1921902323
 30
0.0
 11
25.5677697691
 21
5.1168324535
 31
0.0
  0
LINE
  5
4FA
330
73
100
AcDbEntity
  8
0
  6
Continuous
 62
     3
370
    18
100
AcDbLine
 10
25.5677697691
 20
5.1168324535
 30
0.0
 11
25.5225204446
 21
5.0565459963
 31
0.0
  0
LINE
  5
4FB
330
73
100
AcDbEntity
  8
0
  6
Continuous
 62
     3
370
    18
100
AcDbLine
 10
25.5225204446
 20
5.0565459963
 30
0.0
 11
25.4471055679
 21
4.9661163104
 31
0.0
  0
LINE
  5
4FC
330
73
100
AcDbEntity
  8
0
  6
Continuous
 62
     3
370
    18
100
AcDbLine
 10
25.4471055679
 20
4.9661163104
 30
0.0
 11
25.1454450649
 21
4.7551142955
 31
0.0
  0
LINE
  5
4FD
330
73
100
AcDbEntity
  8
0
  6
Continuous
 62
     3
370
    18
100
AcDbLine
 10
25.1454450649
 20
4.7551142955
 30
0.0
 11
24.858867338
 21
4.6043987379
 31
0.0
  0
LINE
  5
4FE
330
73
100
AcDbEntity
  8
0
  6
Continuous
 62
     3
370
    18
100
AcDbLine
 10
24.858867338
 20
4.6043987379
 30
0.0
 11
24.4968747344
 21
4.3933961376
 31
0.0
  0
LINE
  5
4FF
330
73
100
AcDbEntity
  8
0
  6
Continuous
 62
     3
370
    18
100
AcDbLine
 10
24.4968747344
 20
4.3933961376
 30
0.0
 11
24.1348811349
 21
4.2577519015
 31
0.0
  0
LINE
  5
500
330
73
100
AcDbEntity
  8
0
  6
Continuous
 62
     3
370
    18
100
AcDbLine
 10
24.1348811349
 20
4.2577519015
 30
0.0
 11
23.8030550796
 21
4.1522508941
 31
0.0
  0
LINE
  5
501
330
73
100
AcDbEntity
  8
0
  6
Continuous
 62
     3
370
    18
100
AcDbLine
 10
23.8030550796
 20
4.1522508941
 30
0.0
 11
23.5013935806
 21
4.0919644368
 31
0.0
  0
LINE
  5
502
330
73
100
AcDbEntity
  8
0
  6
Continuous
 62
     3
370
    18
100
AcDbLine
 10
23.5013935806
 20
4.0919644368
 30
0.0
 11
23.1243182009
 21
4.0467498866
 31
0.0
  0
LINE
  5
503
330
73
100
AcDbEntity
  8
0
  6
Continuous
 62
     3
370
    18
100
AcDbLine
 10
23.1243182009
 20
4.0467498866
 30
0.0
 11
22.8226576979
 21
4.0618212082
 31
0.0
  0
LINE
  5
504
330
73
100
AcDbEntity
  8
0
  6
Continuous
 62
     3
370
    18
100
AcDbLine
 10
22.8226576979
 20
4.0618212082
 30
0.0
 11
22.4908306466
 21
4.0919644368
 31
0.0
  0
LINE
  5
505
330
73
100
AcDbEntity
  8
0
  6
Continuous
 62
     3
370
    18
100
AcDbLine
 10
22.4908306466
 20
4.0919644368
 30
0.0
 11
22.2495022442
 21
4.2426805799
 31
0.0
  0
LINE
  5
506
330
73
100
AcDbEntity
  8
0
  6
Continuous
 62
     3
370
    18
100
AcDbLine
 10
22.2495022442
 20
4.2426805799
 30
0.0
 11
22.0986714947
 21
4.3933961376
 31
0.0
  0
LINE
  5
507
330
73
100
AcDbEntity
  8
0
  6
Continuous
 62
     3
370
    18
100
AcDbLine
 10
22.0986714947
 20
4.3933961376
 30
0.0
 11
22.0685059424
 21
4.5591836022
 31
0.0
  0
LINE
  5
508
330
73
100
AcDbEntity
  8
0
  6
Continuous
 62
     3
370
    18
100
AcDbLine
 10
22.0685059424
 20
4.5591836022
 30
0.0
 11
22.0835887186
 21
4.7249710669
 31
0.0
  0
LINE
  5
509
330
73
100
AcDbEntity
  8
0
  6
Continuous
 62
     3
370
    18
100
AcDbLine
 10
22.0835887186
 20
4.7249710669
 30
0.0
 11
22.0986714947
 21
4.8907585316
 31
0.0
  0
LINE
  5
50A
330
73
100
AcDbEntity
  8
0
  6
Continuous
 62
     3
370
    18
100
AcDbLine
 10
22.0986714947
 20
4.8907585316
 30
0.0
 11
22.2645850204
 21
5.1921902323
 31
0.0
  0
LINE
  5
50B
330
73
100
AcDbEntity
  8
0
  6
Continuous
 62
     3
370
    18
100
AcDbLine
 10
22.2645850204
 20
5.1921902323
 30
0.0
 11
22.5511627472
 21
5.6744813048
 31
0.0
  0
LINE
  5
50C
330
73
100
AcDbEntity
  8
0
  6
Continuous
 62
     3
370
    18
100
AcDbLine
 10
22.5511627472
 20
5.6744813048
 30
0.0
 11
23.0639861003
 21
6.5486331783
 31
0.0
  0
LINE
  5
50D
330
73
100
AcDbEntity
  8
0
  6
Continuous
 62
     3
370
    18
100
AcDbLine
 10
23.0639861003
 20
6.5486331783
 30
0.0
 11
23.2751489503
 21
6.8952794293
 31
0.0
  0
LINE
  5
50E
330
73
100
AcDbEntity
  8
0
  6
Continuous
 62
     3
370
    18
100
AcDbLine
 10
23.2751489503
 20
6.8952794293
 30
0.0
 11
23.3354810509
 21
7.076138801
 31
0.0
  0
LINE
  5
50F
330
73
100
AcDbEntity
  8
0
  6
Continuous
 62
     3
370
    18
100
AcDbLine
 10
23.3354810509
 20
7.076138801
 30
0.0
 11
23.3505638271
 21
7.211783037
 31
0.0
  0
LINE
  5
510
330
73
100
AcDbEntity
  8
0
  6
Continuous
 62
     3
370
    18
100
AcDbLine
 10
23.3505638271
 20
7.211783037
 30
0.0
 11
23.3203972788
 21
7.3775705017
 31
0.0
  0
LINE
  5
511
330
73
100
AcDbEntity
  8
0
  6
Continuous
 62
     3
370
    18
100
AcDbLine
 10
23.3203972788
 20
7.3775705017
 30
0.0
 11
23.2751489503
 21
7.4679996021
 31
0.0
  0
LINE
  5
512
330
73
100
AcDbEntity
  8
0
  6
Continuous
 62
     3
370
    18
100
AcDbLine
 10
23.2751489503
 20
7.4679996021
 30
0.0
 11
22.9584046752
 21
7.4981428307
 31
0.0
  0
LINE
  5
513
330
73
100
AcDbEntity
  8
0
  6
Continuous
 62
     3
370
    18
100
AcDbLine
 10
22.9584046752
 20
7.4981428307
 30
0.0
 11
22.7774083734
 21
7.4227850519
 31
0.0
  0
LINE
  5
514
330
73
100
AcDbEntity
  8
0
  6
Continuous
 62
     3
370
    18
100
AcDbLine
 10
22.7774083734
 20
7.4227850519
 30
0.0
 11
22.5209971949
 21
7.2268543586
 31
0.0
  0
LINE
  5
515
330
73
100
AcDbEntity
  8
0
  6
Continuous
 62
     3
370
    18
100
AcDbLine
 10
22.5209971949
 20
7.2268543586
 30
0.0
 11
22.2645850204
 21
6.9706372081
 31
0.0
  0
LINE
  5
516
330
73
100
AcDbEntity
  8
0
  6
Continuous
 62
     3
370
    18
100
AcDbLine
 10
22.2645850204
 20
6.9706372081
 30
0.0
 11
22.023256618
 21
6.7294919646
 31
0.0
  0
LINE
  5
517
330
73
100
AcDbEntity
  8
0
  6
Continuous
 62
     3
370
    18
100
AcDbLine
 10
22.023256618
 20
6.7294919646
 30
0.0
 11
21.7517616673
 21
6.3828457137
 31
0.0
  0
LINE
  5
518
330
73
100
AcDbEntity
  8
0
  6
Continuous
 62
     3
370
    18
100
AcDbLine
 10
21.7517616673
 20
6.3828457137
 30
0.0
 11
21.419935612
 21
5.9759130055
 31
0.0
  0
LINE
  5
519
330
73
100
AcDbEntity
  8
0
  6
Continuous
 62
     3
370
    18
100
AcDbLine
 10
21.419935612
 20
5.9759130055
 30
0.0
 11
21.1635234374
 21
5.5689797119
 31
0.0
  0
LINE
  5
51A
330
73
100
AcDbEntity
  8
0
  6
Continuous
 62
     3
370
    18
100
AcDbLine
 10
21.1635234374
 20
5.5689797119
 30
0.0
 11
20.9221950351
 21
5.1319037751
 31
0.0
  0
LINE
  5
51B
330
73
100
AcDbEntity
  8
0
  6
Continuous
 62
     3
370
    18
100
AcDbLine
 10
20.9221950351
 20
5.1319037751
 30
0.0
 11
20.7261159571
 21
4.7098997453
 31
0.0
  0
LINE
  5
51C
330
73
100
AcDbEntity
  8
0
  6
Continuous
 62
     3
370
    18
100
AcDbLine
 10
20.7261159571
 20
4.7098997453
 30
0.0
 11
20.5602024315
 21
4.3481815874
 31
0.0
  0
LINE
  5
51D
330
73
100
AcDbEntity
  8
0
  6
Continuous
 62
     3
370
    18
100
AcDbLine
 10
20.5602024315
 20
4.3481815874
 30
0.0
 11
20.514953107
 21
4.3029664517
 31
0.0
  0
LINE
  5
51E
330
73
100
AcDbEntity
  8
0
  6
Continuous
 62
     3
370
    18
100
AcDbLine
 10
20.514953107
 20
4.3029664517
 30
0.0
 11
20.4395382303
 21
4.2426805799
 31
0.0
  0
LINE
  5
51F
330
73
100
AcDbEntity
  8
0
  6
Continuous
 62
     3
370
    18
100
AcDbLine
 10
20.4395382303
 20
4.2426805799
 30
0.0
 11
20.2585419285
 21
4.2276086729
 31
0.0
  0
LINE
  5
520
330
73
100
AcDbEntity
  8
0
  6
Continuous
 62
     3
370
    18
100
AcDbLine
 10
20.2585419285
 20
4.2276086729
 30
0.0
 11
20.0172135261
 21
4.2125373513
 31
0.0
  0
LINE
  5
521
330
73
100
AcDbEntity
  8
0
  6
Continuous
 62
     3
370
    18
100
AcDbLine
 10
20.0172135261
 20
4.2125373513
 30
0.0
 11
19.4893073968
 21
4.1823941227
 31
0.0
  0
LINE
  5
522
330
73
100
AcDbEntity
  8
0
  6
Continuous
 62
     3
370
    18
100
AcDbLine
 10
19.4893073968
 20
4.1823941227
 30
0.0
 11
18.8105705181
 21
4.2276086729
 31
0.0
  0
LINE
  5
523
330
73
100
AcDbEntity
  8
0
  6
Continuous
 62
     3
370
    18
100
AcDbLine
 10
18.8105705181
 20
4.2276086729
 30
0.0
 11
18.599407668
 21
4.2577519015
 31
0.0
  0
MTEXT
  5
525
330
73
100
AcDbEntity
  8
0
  6
Continuous
 62
     3
370
     0
100
AcDbMText
 10
9.6588283809
 20
1.8438274425
 30
0.0
 40
1.524
 41
0.0
 71
     1
 72
     1
  1
 Robot Chucking Parts.
  7
SLDTEXTSTYLE0
 73
     1
 44
1.0
  0
ENDBLK
  5
75
330
73
100
AcDbEntity
  8
0
100
AcDbBlockEnd
  0
BLOCK
  5
527
330
526
100
AcDbEntity
  8
0
100
AcDbBlockBegin
  2
Block1
 70
     0
 10
0.0
 20
0.0
 30
0.0
  3
Block1
  1

  0
LINE
  5
529
330
526
100
AcDbEntity
  8
0
  6
Continuous
 62
     7
370
    18
100
AcDbLine
 10
31.5223091816
 20
40.75
 30
0.0
 11
31.5223091816
 21
0.0
 31
0.0
  0
LINE
  5
52A
330
526
100
AcDbEntity
  8
0
  6
Continuous
 62
     7
370
    18
100
AcDbLine
 10
0.0
 20
40.75
 30
0.0
 11
0.0
 21
0.0
 31
0.0
  0
LINE
  5
52B
330
526
100
AcDbEntity
  8
0
  6
Continuous
 62
     7
370
    18
100
AcDbLine
 10
4.2170664101
 20
40.75
 30
0.0
 11
4.2170664101
 21
0.0
 31
0.0
  0
LINE
  5
52C
330
526
100
AcDbEntity
  8
0
  6
Continuous
 62
     7
370
    18
100
AcDbLine
 10
23.0717393838
 20
40.75
 30
0.0
 11
23.0717393838
 21
0.0
 31
0.0
  0
LINE
  5
52D
330
526
100
AcDbEntity
  8
0
  6
Continuous
 62
     7
370
    18
100
AcDbLine
 10
4.2170664101
 20
36.5004855488
 30
0.0
 11
31.5223091816
 21
36.5004855488
 31
0.0
  0
LINE
  5
52E
330
526
100
AcDbEntity
  8
0
  6
Continuous
 62
     7
370
    18
100
AcDbLine
 10
31.5223091816
 20
30.8227749648
 30
0.0
 11
4.2170664101
 21
30.8227749648
 31
0.0
  0
LINE
  5
52F
330
526
100
AcDbEntity
  8
0
  6
Continuous
 62
     7
370
    18
100
AcDbLine
 10
31.5223091816
 20
24.75
 30
0.0
 11
4.2170664101
 21
24.75
 31
0.0
  0
LINE
  5
530
330
526
100
AcDbEntity
  8
0
  6
Continuous
 62
     7
370
    18
100
AcDbLine
 10
31.5223091816
 20
18.7003189405
 30
0.0
 11
4.2170664101
 21
18.7003189405
 31
0.0
  0
LINE
  5
531
330
526
100
AcDbEntity
  8
0
  6
Continuous
 62
     7
370
    18
100
AcDbLine
 10
31.5223091816
 20
12.75
 30
0.0
 11
4.2170664101
 21
12.75
 31
0.0
  0
LINE
  5
532
330
526
100
AcDbEntity
  8
0
  6
Continuous
 62
     7
370
    18
100
AcDbLine
 10
31.5223091816
 20
6.2926286567
 30
0.0
 11
4.2170664101
 21
6.2926286567
 31
0.0
  0
MTEXT
  5
534
330
526
100
AcDbEntity
  8
0
  6
Continuous
 62
     7
370
     0
100
AcDbMText
 10
23.0783018426
 20
39.7988549559
 30
0.0
 40
2.1166666667
 41
0.0
 71
     1
 72
     1
  1
\M+19286\M+18140\M+18B89
  7
SLDTEXTSTYLE1
 73
     1
 44
1.0
  0
MTEXT
  5
535
330
526
100
AcDbEntity
  8
0
  6
Continuous
 62
     7
370
     0
100
AcDbMText
 10
5.155036682
 20
39.7711055334
 30
0.0
 40
2.1166666667
 41
0.0
 71
     1
 72
     1
  1
\M+190A1\M+19640\M+182CC\M+18BE6\M+195AA
  7
SLDTEXTSTYLE1
 73
     1
 44
1.0
  0
INSERT
  5
543
330
526
100
AcDbEntity
  8
0
  6
Continuous
 62
     7
370
     0
100
AcDbBlockReference
  2
SW_NOTE_0
 10
0.2556852558
 20
33.7749219588
 30
0.0
  0
INSERT
  5
54B
330
526
100
AcDbEntity
  8
0
  6
Continuous
 62
     7
370
     0
100
AcDbBlockReference
  2
SW_NOTE_1
 10
5.1867138544
 20
32.3862055485
 30
0.0
  0
INSERT
  5
552
330
526
100
AcDbEntity
  8
0
  6
Continuous
 62
     7
370
     0
100
AcDbBlockReference
  2
SW_NOTE_2
 10
6.4093696575
 20
26.5854203815
 30
0.0
  0
INSERT
  5
559
330
526
100
AcDbEntity
  8
0
  6
Continuous
 62
     7
370
     0
100
AcDbBlockReference
  2
SW_NOTE_3
 10
5.7400238045
 20
20.0862212183
 30
0.0
  0
INSERT
  5
560
330
526
100
AcDbEntity
  8
0
  6
Continuous
 62
     7
370
     0
100
AcDbBlockReference
  2
SW_NOTE_4
 10
4.9321311525
 20
14.5443700572
 30
0.0
  0
INSERT
  5
567
330
526
100
AcDbEntity
  8
0
  6
Continuous
 62
     7
370
     0
100
AcDbBlockReference
  2
SW_NOTE_5
 10
4.7474226074
 20
8.3765194665
 30
0.0
  0
INSERT
  5
56E
330
526
100
AcDbEntity
  8
0
  6
Continuous
 62
     7
370
     0
100
AcDbBlockReference
  2
SW_NOTE_6
 10
4.2125651722
 20
1.7428280035
 30
0.0
  0
MTEXT
  5
56F
330
526
100
AcDbEntity
  8
0
  6
Continuous
 62
     7
370
     0
100
AcDbMText
 10
23.3889890631
 20
35.4949476032
 30
0.0
 40
2.38125
 41
0.0
 71
     1
 72
     1
  1
±0.1
  7
SLDTEXTSTYLE2
 73
     1
 44
1.0
  0
MTEXT
  5
570
330
526
100
AcDbEntity
  8
0
  6
Continuous
 62
     7
370
     0
100
AcDbMText
 10
23.3343240148
 20
28.2891965924
 30
0.0
 40
2.38125
 41
0.0
 71
     1
 72
     1
  1
±0.2
  7
SLDTEXTSTYLE2
 73
     1
 44
1.0
  0
MTEXT
  5
571
330
526
100
AcDbEntity
  8
0
  6
Continuous
 62
     7
370
     0
100
AcDbMText
 10
23.5118141234
 20
22.6025891541
 30
0.0
 40
2.38125
 41
0.0
 71
     1
 72
     1
  1
±0.3
  7
SLDTEXTSTYLE2
 73
     1
 44
1.0
  0
MTEXT
  5
572
330
526
100
AcDbEntity
  8
0
  6
Continuous
 62
     7
370
     0
100
AcDbMText
 10
23.422299741
 20
16.3098498672
 30
0.0
 40
2.38125
 41
0.0
 71
     1
 72
     1
  1
±0.5
  7
SLDTEXTSTYLE2
 73
     1
 44
1.0
  0
MTEXT
  5
573
330
526
100
AcDbEntity
  8
0
  6
Continuous
 62
     7
370
     0
100
AcDbMText
 10
22.8885804327
 20
10.4229527341
 30
0.0
 40
2.38125
 41
0.0
 71
     1
 72
     1
  1
±0.8
  7
SLDTEXTSTYLE2
 73
     1
 44
1.0
  0
MTEXT
  5
574
330
526
100
AcDbEntity
  8
0
  6
Continuous
 62
     7
370
     0
100
AcDbMText
 10
23.3881010343
 20
4.7973593945
 30
0.0
 40
2.38125
 41
0.0
 71
     1
 72
     1
  1
±1.2
  7
SLDTEXTSTYLE2
 73
     1
 44
1.0
  0
ENDBLK
  5
528
330
526
100
AcDbEntity
  8
0
100
AcDbBlockEnd
  0
BLOCK
  5
537
330
536
100
AcDbEntity
  8
0
100
AcDbBlockBegin
  2
SW_NOTE_0
 70
     0
 10
0.0
 20
0.0
 30
0.0
  3
SW_NOTE_0
  1

  0
MTEXT
  5
539
330
536
100
AcDbEntity
  8
0
  6
Continuous
 62
     0
370
     0
100
AcDbMText
 10
0.0
 20
3.0787878788
 30
0.0
 40
2.6458333333
 41
0.0
 71
     1
 72
     1
  1
\M+18DED
  7
SLDTEXTSTYLE1
 73
     1
 44
1.0
  0
MTEXT
  5
53A
330
536
100
AcDbEntity
  8
0
  6
Continuous
 62
     0
370
     0
100
AcDbMText
 10
0.0
 20
-0.4489898564
 30
0.0
 40
2.6458333333
 41
0.0
 71
     1
 72
     1
  1
\M+1838A
  7
SLDTEXTSTYLE1
 73
     1
 44
1.0
  0
MTEXT
  5
53B
330
536
100
AcDbEntity
  8
0
  6
Continuous
 62
     0
370
     0
100
AcDbMText
 10
0.0
 20
-3.9767675915
 30
0.0
 40
2.6458333333
 41
0.0
 71
     1
 72
     1
  1
\M+189C1
  7
SLDTEXTSTYLE1
 73
     1
 44
1.0
  0
MTEXT
  5
53C
330
536
100
AcDbEntity
  8
0
  6
Continuous
 62
     0
370
     0
100
AcDbMText
 10
0.0
 20
-7.5045453266
 30
0.0
 40
2.6458333333
 41
0.0
 71
     1
 72
     1
  1
\M+18D48
  7
SLDTEXTSTYLE1
 73
     1
 44
1.0
  0
MTEXT
  5
53D
330
536
100
AcDbEntity
  8
0
  6
Continuous
 62
     0
370
     0
100
AcDbMText
 10
0.0
 20
-11.0323230618
 30
0.0
 40
2.6458333333
 41
0.0
 71
     1
 72
     1
  1
\M+1836D
  7
SLDTEXTSTYLE1
 73
     1
 44
1.0
  0
MTEXT
  5
53E
330
536
100
AcDbEntity
  8
0
  6
Continuous
 62
     0
370
     0
100
AcDbMText
 10
0.0
 20
-14.5601007969
 30
0.0
 40
2.6458333333
 41
0.0
 71
     1
 72
     1
  1
\M+19581
  7
SLDTEXTSTYLE1
 73
     1
 44
1.0
  0
MTEXT
  5
53F
330
536
100
AcDbEntity
  8
0
  6
Continuous
 62
     0
370
     0
100
AcDbMText
 10
0.0
 20
-18.0878785321
 30
0.0
 40
2.6458333333
 41
0.0
 71
     1
 72
     1
  1
\M+192CA
  7
SLDTEXTSTYLE1
 73
     1
 44
1.0
  0
MTEXT
  5
540
330
536
100
AcDbEntity
  8
0
  6
Continuous
 62
     0
370
     0
100
AcDbMText
 10
0.0
 20
-21.6156562672
 30
0.0
 40
2.6458333333
 41
0.0
 71
     1
 72
     1
  1
\M+18B96
  7
SLDTEXTSTYLE1
 73
     1
 44
1.0
  0
MTEXT
  5
541
330
536
100
AcDbEntity
  8
0
  6
Continuous
 62
     0
370
     0
100
AcDbMText
 10
0.0
 20
-25.1434340024
 30
0.0
 40
2.6458333333
 41
0.0
 71
     1
 72
     1
  1
\M+19765
  7
SLDTEXTSTYLE1
 73
     1
 44
1.0
  0
MTEXT
  5
542
330
536
100
AcDbEntity
  8
0
  6
Continuous
 62
     0
370
     0
100
AcDbMText
 10
0.0
 20
-28.6712117375
 30
0.0
 40
2.6458333333
 41
0.0
 71
     1
 72
     1
  1
\M+18DB7
  7
SLDTEXTSTYLE1
 73
     1
 44
1.0
  0
ENDBLK
  5
538
330
536
100
AcDbEntity
  8
0
100
AcDbBlockEnd
  0
BLOCK
  5
545
330
544
100
AcDbEntity
  8
0
100
AcDbBlockBegin
  2
SW_NOTE_1
 70
     0
 10
0.0
 20
0.0
 30
0.0
  3
SW_NOTE_1
  1

  0
MTEXT
  5
548
330
544
100
AcDbEntity
  8
0
  6
Continuous
 62
     0
370
     0
100
AcDbMText
 10
0.0
 20
2.1551515152
 30
0.0
 40
1.8520833333
 41
0.0
 71
     1
 72
     1
  1
0.5
  7
SLDTEXTSTYLE2
 73
     1
 44
1.0
  0
MTEXT
  5
549
330
544
100
AcDbEntity
  8
0
  6
Continuous
 62
     0
370
     0
100
AcDbMText
 10
3.6514336243
 20
2.1551515152
 30
0.0
 40
1.8520833333
 41
0.0
 71
     1
 72
     1
  1
\M+188C8\M+18FE3 6
  7
SLDTEXTSTYLE1
 73
     1
 44
1.0
  0
MTEXT
  5
54A
330
544
100
AcDbEntity
  8
0
  6
Continuous
 62
     0
370
     0
100
AcDbMText
 10
10.9358662739
 20
2.1551515152
 30
0.0
 40
1.8520833333
 41
0.0
 71
     1
 72
     1
  1
\M+188C8\M+189BA
  7
SLDTEXTSTYLE1
 73
     1
 44
1.0
  0
ENDBLK
  5
546
330
544
100
AcDbEntity
  8
0
100
AcDbBlockEnd
  0
BLOCK
  5
54D
330
54C
100
AcDbEntity
  8
0
100
AcDbBlockBegin
  2
SW_NOTE_2
 70
     0
 10
0.0
 20
0.0
 30
0.0
  3
SW_NOTE_2
  1

  0
MTEXT
  5
54F
330
54C
100
AcDbEntity
  8
0
  6
Continuous
 62
     0
370
     0
100
AcDbMText
 10
0.0
 20
2.1551515152
 30
0.0
 40
1.8520833333
 41
0.0
 71
     1
 72
     1
  1
6
  7
SLDTEXTSTYLE2
 73
     1
 44
1.0
  0
MTEXT
  5
550
330
54C
100
AcDbEntity
  8
0
  6
Continuous
 62
     0
370
     0
100
AcDbMText
 10
1.2012817897
 20
2.1551515152
 30
0.0
 40
1.8520833333
 41
0.0
 71
     1
 72
     1
  1
\M+192B4\M+18347 30
  7
SLDTEXTSTYLE1
 73
     1
 44
1.0
  0
MTEXT
  5
551
330
54C
100
AcDbEntity
  8
0
  6
Continuous
 62
     0
370
     0
100
AcDbMText
 10
9.6921408549
 20
2.1551515152
 30
0.0
 40
1.8520833333
 41
0.0
 71
     1
 72
     1
  1
\M+188C8\M+189BA
  7
SLDTEXTSTYLE1
 73
     1
 44
1.0
  0
ENDBLK
  5
54E
330
54C
100
AcDbEntity
  8
0
100
AcDbBlockEnd
  0
BLOCK
  5
554
330
553
100
AcDbEntity
  8
0
100
AcDbBlockBegin
  2
SW_NOTE_3
 70
     0
 10
0.0
 20
0.0
 30
0.0
  3
SW_NOTE_3
  1

  0
MTEXT
  5
556
330
553
100
AcDbEntity
  8
0
  6
Continuous
 62
     0
370
     0
100
AcDbMText
 10
0.0
 20
2.1551515152
 30
0.0
 40
1.8520833333
 41
0.0
 71
     1
 72
     1
  1
30
  7
SLDTEXTSTYLE2
 73
     1
 44
1.0
  0
MTEXT
  5
557
330
553
100
AcDbEntity
  8
0
  6
Continuous
 62
     0
370
     0
100
AcDbMText
 10
2.4167115334
 20
2.1551515152
 30
0.0
 40
1.8520833333
 41
0.0
 71
     1
 72
     1
  1
\M+192B4\M+18347 120
  7
SLDTEXTSTYLE1
 73
     1
 44
1.0
  0
MTEXT
  5
558
330
553
100
AcDbEntity
  8
0
  6
Continuous
 62
     0
370
     0
100
AcDbMText
 10
12.0518319309
 20
2.1551515152
 30
0.0
 40
1.8520833333
 41
0.0
 71
     1
 72
     1
  1
\M+188C8\M+189BA
  7
SLDTEXTSTYLE1
 73
     1
 44
1.0
  0
ENDBLK
  5
555
330
553
100
AcDbEntity
  8
0
100
AcDbBlockEnd
  0
BLOCK
  5
55B
330
55A
100
AcDbEntity
  8
0
100
AcDbBlockBegin
  2
SW_NOTE_4
 70
     0
 10
0.0
 20
0.0
 30
0.0
  3
SW_NOTE_4
  1

  0
MTEXT
  5
55D
330
55A
100
AcDbEntity
  8
0
  6
Continuous
 62
     0
370
     0
100
AcDbMText
 10
0.0
 20
2.1551515152
 30
0.0
 40
1.8520833333
 41
0.0
 71
     1
 72
     1
  1
120
  7
SLDTEXTSTYLE2
 73
     1
 44
1.0
  0
MTEXT
  5
55E
330
55A
100
AcDbEntity
  8
0
  6
Continuous
 62
     0
370
     0
100
AcDbMText
 10
3.5609733313
 20
2.1551515152
 30
0.0
 40
1.8520833333
 41
0.0
 71
     1
 72
     1
  1
\M+192B4\M+18347 315
  7
SLDTEXTSTYLE1
 73
     1
 44
1.0
  0
MTEXT
  5
55F
330
55A
100
AcDbEntity
  8
0
  6
Continuous
 62
     0
370
     0
100
AcDbMText
 10
13.1862331182
 20
2.1551515152
 30
0.0
 40
1.8520833333
 41
0.0
 71
     1
 72
     1
  1
\M+188C8\M+189BA
  7
SLDTEXTSTYLE1
 73
     1
 44
1.0
  0
ENDBLK
  5
55C
330
55A
100
AcDbEntity
  8
0
100
AcDbBlockEnd
  0
BLOCK
  5
562
330
561
100
AcDbEntity
  8
0
100
AcDbBlockBegin
  2
SW_NOTE_5
 70
     0
 10
0.0
 20
0.0
 30
0.0
  3
SW_NOTE_5
  1

  0
MTEXT
  5
564
330
561
100
AcDbEntity
  8
0
  6
Continuous
 62
     0
370
     0
100
AcDbMText
 10
0.0
 20
2.1551515152
 30
0.0
 40
1.8520833333
 41
0.0
 71
     1
 72
     1
  1
315
  7
SLDTEXTSTYLE2
 73
     1
 44
1.0
  0
MTEXT
  5
565
330
561
100
AcDbEntity
  8
0
  6
Continuous
 62
     0
370
     0
100
AcDbMText
 10
3.5511124879
 20
2.1551515152
 30
0.0
 40
1.8520833333
 41
0.0
 71
     1
 72
     1
  1
\M+192B4\M+183471000
  7
SLDTEXTSTYLE1
 73
     1
 44
1.0
  0
MTEXT
  5
566
330
561
100
AcDbEntity
  8
0
  6
Continuous
 62
     0
370
     0
100
AcDbMText
 10
13.1746577099
 20
2.1551515152
 30
0.0
 40
1.8520833333
 41
0.0
 71
     1
 72
     1
  1
\M+188C8\M+189BA
  7
SLDTEXTSTYLE1
 73
     1
 44
1.0
  0
ENDBLK
  5
563
330
561
100
AcDbEntity
  8
0
100
AcDbBlockEnd
  0
BLOCK
  5
569
330
568
100
AcDbEntity
  8
0
100
AcDbBlockBegin
  2
SW_NOTE_6
 70
     0
 10
0.0
 20
0.0
 30
0.0
  3
SW_NOTE_6
  1

  0
MTEXT
  5
56B
330
568
100
AcDbEntity
  8
0
  6
Continuous
 62
     0
370
     0
100
AcDbMText
 10
0.0
 20
2.1551515152
 30
0.0
 40
1.8520833333
 41
0.0
 71
     1
 72
     1
  1
1000
  7
SLDTEXTSTYLE2
 73
     1
 44
1.0
  0
MTEXT
  5
56C
330
568
100
AcDbEntity
  8
0
  6
Continuous
 62
     0
370
     0
100
AcDbMText
 10
4.7841197811
 20
2.1551515152
 30
0.0
 40
1.8520833333
 41
0.0
 71
     1
 72
     1
  1
\M+192B4\M+183472000
  7
SLDTEXTSTYLE1
 73
     1
 44
1.0
  0
MTEXT
  5
56D
330
568
100
AcDbEntity
  8
0
  6
Continuous
 62
     0
370
     0
100
AcDbMText
 10
14.4668286666
 20
2.1551515152
 30
0.0
 40
1.8520833333
 41
0.0
 71
     1
 72
     1
  1
\M+188C8\M+189BA
  7
SLDTEXTSTYLE1
 73
     1
 44
1.0
  0
ENDBLK
  5
56A
330
568
100
AcDbEntity
  8
0
100
AcDbBlockEnd
  0
BLOCK
  5
5A8
330
5A7
100
AcDbEntity
  8
0
100
AcDbBlockBegin
  2
SW_NOTE_7
 70
     0
 10
0.0
 20
0.0
 30
0.0
  3
SW_NOTE_7
  1

  0
MTEXT
  5
5AA
330
5A7
100
AcDbEntity
  8
0
  6
Continuous
 62
     0
370
     0
100
AcDbMText
 10
0.0
 20
3.6945454545
 30
0.0
 40
3.175
 41
0.0
 71
     1
 72
     1
  1
\M+18250\M+18144\M+193C1\M+18B4C\M+18369\M+1834C\M+18A70\M+19594\M+1836E\M+18141\M+1836F\M+1838A\M+18140\M+1834A\M+18347\M+1838A\M+1836D\M+196B3\M+1834C\M+18352\M+18367\M+18142
  7
SLDTEXTSTYLE1
 73
     1
 44
1.0
  0
MTEXT
  5
5AB
330
5A7
100
AcDbEntity
  8
0
  6
Continuous
 62
     0
370
     0
100
AcDbMText
 10
0.0
 20
-1.5387879915
 30
0.0
 40
3.175
 41
0.0
 71
     1
 72
     1
  1
\M+18251\M+18144\M+193C1\M+18B4C\M+18369\M+1834C\M+18BF7\M+19594\M+1836E\M+18141\M+18271\M+1824F\M+18144\M+18253\M+1826C\M+18260\M+18277\M+18367\M+18358\M+1838B\M+18142
  7
SLDTEXTSTYLE1
 73
     1
 44
1.0
  0
ENDBLK
  5
5A9
330
5A7
100
AcDbEntity
  8
0
100
AcDbBlockEnd
  0
BLOCK
  5
5D1
330
5D0
100
AcDbEntity
  8
0
100
AcDbBlockBegin
  2
SW_NOTE_8
 70
     0
 10
0.0
 20
0.0
 30
0.0
  3
SW_NOTE_8
  1

  0
MTEXT
  5
5D3
330
5D0
100
AcDbEntity
  8
0
  6
Continuous
 62
     0
370
     0
100
AcDbMText
 10
17.859375
 20
3.6945454545
 30
0.0
 40
3.175
 41
0.0
 71
     2
 72
     1
  1
\M+18B7A\M+19285\M+18BE0\M+18BEF\M+18341\M+18357\M+18383\M+18358\M+1835E\M+1815B
  7
SLDTEXTSTYLE1
 73
     1
 44
1.0
  0
MTEXT
  5
5D4
330
5D0
100
AcDbEntity
  8
0
  6
Continuous
 62
     0
370
     0
100
AcDbMText
 10
18.4686519146
 20
-0.5387878276
 30
0.0
 40
3.175
 41
0.0
 71
     2
 72
     1
  1
 \M+18169\M+18358\M+18382\M+1815B\M+1838B\M+1816A\M+1816920L)
  7
SLDTEXTSTYLE1
 73
     1
 44
1.0
  0
ENDBLK
  5
5D2
330
5D0
100
AcDbEntity
  8
0
100
AcDbBlockEnd
  0
BLOCK
  5
5DA
330
5D9
100
AcDbEntity
  8
0
100
AcDbBlockBegin
  2
SW_NOTE_9
 70
     0
 10
0.0
 20
0.0
 30
0.0
  3
SW_NOTE_9
  1

  0
LINE
  5
5DC
330
5D9
100
AcDbEntity
  8
0
  6
Continuous
 62
     0
370
    18
100
AcDbLine
 10
-1.6945454779
 20
-0.0853753307
 30
0.0
 11
0.599666707
 21
3.8883167369
 31
0.0
  0
LINE
  5
5DD
330
5D9
100
AcDbEntity
  8
0
  6
Continuous
 62
     0
370
    18
100
AcDbLine
 10
0.599666707
 20
3.8883167369
 30
0.0
 11
2.8938788919
 21
-0.0853753307
 31
0.0
  0
LINE
  5
5DE
330
5D9
100
AcDbEntity
  8
0
  6
Continuous
 62
     0
370
    18
100
AcDbLine
 10
2.8938788919
 20
-0.0853753307
 30
0.0
 11
-1.6945454779
 21
-0.0853753307
 31
0.0
  0
MTEXT
  5
5E0
330
5D9
100
AcDbEntity
  8
0
  6
Continuous
 62
     0
370
    18
100
AcDbMText
 10
0.0
 20
2.463030303
 30
0.0
 40
2.1166666667
 41
0.0
 71
     1
 72
     1
  1
1
  7
SLDTEXTSTYLE3
 73
     1
 44
1.0
  0
ENDBLK
  5
5DB
330
5D9
100
AcDbEntity
  8
0
100
AcDbBlockEnd
  0
BLOCK
  5
5E3
330
5E2
100
AcDbEntity
  8
0
100
AcDbBlockBegin
  2
SW_NOTE_10
 70
     0
 10
0.0
 20
0.0
 30
0.0
  3
SW_NOTE_10
  1

  0
LINE
  5
5E5
330
5E2
100
AcDbEntity
  8
0
  6
Continuous
 62
     0
370
     0
100
AcDbLine
 10
-1.6404239378
 20
-0.0344856213
 30
0.0
 11
0.6537882471
 21
3.9392064463
 31
0.0
  0
LINE
  5
5E6
330
5E2
100
AcDbEntity
  8
0
  6
Continuous
 62
     0
370
     0
100
AcDbLine
 10
0.6537882471
 20
3.9392064463
 30
0.0
 11
2.948000432
 21
-0.0344856213
 31
0.0
  0
LINE
  5
5E7
330
5E2
100
AcDbEntity
  8
0
  6
Continuous
 62
     0
370
     0
100
AcDbLine
 10
2.948000432
 20
-0.0344856213
 30
0.0
 11
-1.6404239378
 21
-0.0344856213
 31
0.0
  0
MTEXT
  5
5E8
330
5E2
100
AcDbEntity
  8
0
  6
Continuous
 62
     0
370
     0
100
AcDbMText
 10
0.0
 20
2.463030303
 30
0.0
 40
2.1166666667
 41
0.0
 71
     1
 72
     1
  1
2
  7
SLDTEXTSTYLE3
 73
     1
 44
1.0
  0
ENDBLK
  5
5E4
330
5E2
100
AcDbEntity
  8
0
100
AcDbBlockEnd
  0
BLOCK
  5
5EB
330
5EA
100
AcDbEntity
  8
0
100
AcDbBlockBegin
  2
SW_NOTE_11
 70
     0
 10
0.0
 20
0.0
 30
0.0
  3
SW_NOTE_11
  1

  0
LINE
  5
5ED
330
5EA
100
AcDbEntity
  8
0
  6
Continuous
 62
     0
370
     0
100
AcDbLine
 10
-1.6134945408
 20
-0.0054812721
 30
0.0
 11
0.6807176442
 21
3.9682107955
 31
0.0
  0
LINE
  5
5EE
330
5EA
100
AcDbEntity
  8
0
  6
Continuous
 62
     0
370
     0
100
AcDbLine
 10
0.6807176442
 20
3.9682107955
 30
0.0
 11
2.9749298291
 21
-0.0054812721
 31
0.0
  0
LINE
  5
5EF
330
5EA
100
AcDbEntity
  8
0
  6
Continuous
 62
     0
370
     0
100
AcDbLine
 10
2.9749298291
 20
-0.0054812721
 30
0.0
 11
-1.6134945408
 21
-0.0054812721
 31
0.0
  0
MTEXT
  5
5F0
330
5EA
100
AcDbEntity
  8
0
  6
Continuous
 62
     0
370
     0
100
AcDbMText
 10
0.0
 20
2.463030303
 30
0.0
 40
2.1166666667
 41
0.0
 71
     1
 72
     1
  1
3
  7
SLDTEXTSTYLE3
 73
     1
 44
1.0
  0
ENDBLK
  5
5EC
330
5EA
100
AcDbEntity
  8
0
100
AcDbBlockEnd
  0
BLOCK
  5
5F5
330
5F4
100
AcDbEntity
  8
0
100
AcDbBlockBegin
  2
SW_NOTE_12
 70
     0
 10
0.0
 20
0.0
 30
0.0
  3
SW_NOTE_12
  1

  0
MTEXT
  5
5F7
330
5F4
100
AcDbEntity
  8
0
  6
Continuous
 62
     0
370
     0
100
AcDbMText
 10
0.0
 20
1.8472727273
 30
0.0
 40
1.5875
 41
0.0
 71
     1
 72
     1
  1
  \M+1955C\M+196CA积
  7
SLDTEXTSTYLE1
 73
     1
 44
1.0
  0
MTEXT
  5
5F8
330
5F4
100
AcDbEntity
  8
0
  6
Continuous
 62
     0
370
     0
100
AcDbMText
 10
0.0
 20
-0.2693939138
 30
0.0
 40
1.5875
 41
0.0
 71
     1
 72
     1
  1
(\M+195BD\M+195FB\M+19F7C\M+195C4
  7
SLDTEXTSTYLE1
 73
     1
 44
1.0
  0
MTEXT
  5
5F9
330
5F4
100
AcDbEntity
  8
0
  6
Continuous
 62
     0
370
     0
100
AcDbMText
 10
9.3096587807
 20
-0.2693939138
 30
0.0
 40
1.5875
 41
0.0
 71
     1
 72
     1
  1
)
  7
SLDTEXTSTYLE2
 73
     1
 44
1.0
  0
ENDBLK
  5
5F6
330
5F4
100
AcDbEntity
  8
0
100
AcDbBlockEnd
  0
BLOCK
  5
5FE
330
5FD
100
AcDbEntity
  8
0
100
AcDbBlockBegin
  2
SW_NOTE_13
 70
     0
 10
0.0
 20
0.0
 30
0.0
  3
SW_NOTE_13
  1

  0
MTEXT
  5
600
330
5FD
100
AcDbEntity
  8
0
  6
Continuous
 62
     0
370
     0
100
AcDbMText
 10
0.0
 20
3.6945454545
 30
0.0
 40
3.175
 41
0.0
 71
     1
 72
     1
  1
18.10.15
  7
SLDTEXTSTYLE2
 73
     1
 44
1.0
  0
MTEXT
  5
601
330
5FD
100
AcDbEntity
  8
0
  6
Continuous
 62
     0
370
     0
100
AcDbMText
 10
0.0
 20
-1.5387879915
 30
0.0
 40
3.175
 41
0.0
 71
     1
 72
     1
  1
 \M+18CDE\M+18CF5\M+18B50
  7
SLDTEXTSTYLE1
 73
     1
 44
1.0
  0
ENDBLK
  5
5FF
330
5FD
100
AcDbEntity
  8
0
100
AcDbBlockEnd
  0
BLOCK
  5
604
330
603
100
AcDbEntity
  8
0
100
AcDbBlockBegin
  2
SW_NOTE_14
 70
     0
 10
0.0
 20
0.0
 30
0.0
  3
SW_NOTE_14
  1

  0
MTEXT
  5
606
330
603
100
AcDbEntity
  8
0
  6
Continuous
 62
     0
370
     0
100
AcDbMText
 10
0.0
 20
3.6945454545
 30
0.0
 40
3.175
 41
0.0
 71
     1
 72
     1
  1
18.10.15
  7
SLDTEXTSTYLE2
 73
     1
 44
1.0
  0
MTEXT
  5
607
330
603
100
AcDbEntity
  8
0
  6
Continuous
 62
     0
370
     0
100
AcDbMText
 10
0.0
 20
-1.5387879915
 30
0.0
 40
3.175
 41
0.0
 71
     1
 72
     1
  1
 \M+18CDE\M+18CF5\M+18B50
  7
SLDTEXTSTYLE1
 73
     1
 44
1.0
  0
ENDBLK
  5
605
330
603
100
AcDbEntity
  8
0
100
AcDbBlockEnd
  0
BLOCK
  5
60A
330
609
100
AcDbEntity
  8
0
100
AcDbBlockBegin
  2
SW_SFSYMBOL_0
 70
     0
 10
0.0
 20
0.0
 30
0.0
  3
SW_SFSYMBOL_0
  1

  0
CIRCLE
  5
60C
330
609
100
AcDbEntity
  8
0
  6
Continuous
 62
     0
370
     0
100
AcDbCircle
 10
0.0
 20
0.0
 30
0.0
 40
1.819010416666655
  0
LINE
  5
60D
330
609
100
AcDbEntity
  8
0
  6
Continuous
 62
     0
370
     0
100
AcDbLine
 10
0.0
 20
-3.6380208333
 30
0.0
 11
-3.0657601563
 21
1.5588919271
 31
0.0
  0
LINE
  5
60E
330
609
100
AcDbEntity
  8
0
  6
Continuous
 62
     0
370
     0
100
AcDbLine
 10
0.0
 20
-3.6380208333
 30
0.0
 11
6.1315203125
 21
6.7558046875
 31
0.0
  0
ENDBLK
  5
60B
330
609
100
AcDbEntity
  8
0
100
AcDbBlockEnd
  0
BLOCK
  5
611
330
610
100
AcDbEntity
  8
0
100
AcDbBlockBegin
  2
SW_SFSYMBOL_1
 70
     0
 10
0.0
 20
0.0
 30
0.0
  3
SW_SFSYMBOL_1
  1

  0
LINE
  5
613
330
610
100
AcDbEntity
  8
0
  6
Continuous
 62
     0
370
     0
100
AcDbLine
 10
1.1662509016
 20
-5.196912644
 30
0.0
 11
-1.8995092547
 21
0.0000001164
 31
0.0
  0
LINE
  5
614
330
610
100
AcDbEntity
  8
0
  6
Continuous
 62
     0
370
     0
100
AcDbLine
 10
4.2320110578
 20
0.0000001164
 30
0.0
 11
-1.8995092547
 21
0.0000001164
 31
0.0
  0
LINE
  5
615
330
610
100
AcDbEntity
  8
0
  6
Continuous
 62
     0
370
     0
100
AcDbLine
 10
1.1662509016
 20
-5.196912644
 30
0.0
 11
7.2977712141
 21
5.1969128768
 31
0.0
  0
MTEXT
  5
616
330
610
100
AcDbEntity
  8
0
  6
Continuous
 62
     0
370
     0
100
AcDbMText
 10
0.0
 20
3.6945454545
 30
0.0
 40
3.175
 41
0.0
 71
     1
 72
     1
  1
25
  7
SLDTEXTSTYLE2
 73
     1
 44
1.0
  0
ENDBLK
  5
612
330
610
100
AcDbEntity
  8
0
100
AcDbBlockEnd
  0
BLOCK
  5
635
330
634
100
AcDbEntity
  8
0
100
AcDbBlockBegin
  2
_OPEN30
 70
     0
 10
0.0
 20
0.0
 30
0.0
  3
_OPEN30
  1

  0
LINE
  5
637
330
634
100
AcDbEntity
  8
0
  6
ByBlock
 62
     0
370
    -2
100
AcDbLine
 10
-1.0
 20
0.267949
 30
0.0
 11
0.0
 21
0.0
 31
0.0
  0
LINE
  5
638
330
634
100
AcDbEntity
  8
0
  6
ByBlock
 62
     0
370
    -2
100
AcDbLine
 10
0.0
 20
0.0
 30
0.0
 11
-1.0
 21
-0.267949
 31
0.0
  0
LINE
  5
639
330
634
100
AcDbEntity
  8
0
  6
ByBlock
 62
     0
370
    -2
100
AcDbLine
 10
0.0
 20
0.0
 30
0.0
 11
-1.0
 21
0.0
 31
0.0
  0
ENDBLK
  5
636
330
634
100
AcDbEntity
  8
0
100
AcDbBlockEnd
  0
BLOCK
  5
63B
330
63A
100
AcDbEntity
  8
0
100
AcDbBlockBegin
  2
_D
 70
     0
 10
0.0
 20
0.0
 30
0.0
  3
_D
  1

  0
ARC
  5
63D
330
63A
100
AcDbEntity
  8
0
  6
Continuous
 62
     7
370
    18
100
AcDbCircle
 10
179.8734685497
 20
171.8254743142
 30
0.0
 40
4.733010495175206
100
AcDbArc
 50
243.4349488229
 51
296.5650511771
  0
ARC
  5
63E
330
63A
100
AcDbEntity
  8
0
  6
Continuous
 62
     7
370
    18
100
AcDbCircle
 10
179.8734685497
 20
171.8254743142
 30
0.0
 40
4.733010495175206
100
AcDbArc
 50
63.4349488229
 51
116.5650511771
  0
INSERT
  5
63F
330
63A
100
AcDbEntity
  8
0
  6
Continuous
 62
     7
370
    18
100
AcDbBlockReference
  2
_OPEN30
 10
181.9901351908
 20
182.1098076322
 30
-32.5
 41
3.0
 42
3.0
 50
90.0
  0
INSERT
  5
640
330
63A
100
AcDbEntity
  8
0
  6
Continuous
 62
     7
370
    18
100
AcDbBlockReference
  2
_OPEN30
 10
181.9901351908
 20
162.4798076322
 30
-32.5
 41
3.0
 42
3.0
 50
270.0
  0
LINE
  5
641
330
63A
100
AcDbEntity
  8
0
  6
Continuous
 62
     7
370
    18
100
AcDbLine
 10
155.0638949737
 20
182.1098076322
 30
0.0
 11
182.9901351908
 21
182.1098076322
 31
0.0
  0
LINE
  5
642
330
63A
100
AcDbEntity
  8
0
  6
Continuous
 62
     7
370
    18
100
AcDbLine
 10
155.0638949737
 20
162.4798076322
 30
0.0
 11
182.9901351908
 21
162.4798076322
 31
0.0
  0
LINE
  5
643
330
63A
100
AcDbEntity
  8
0
  6
Continuous
 62
     7
370
    18
100
AcDbLine
 10
181.9901351908
 20
182.1098076322
 30
0.0
 11
181.9901351908
 21
162.4798076322
 31
0.0
  0
MTEXT
  5
644
330
63A
100
AcDbEntity
  8
0
  6
Continuous
 62
     7
370
    18
100
AcDbMText
 10
178.2955898527
 20
167.592141032
 30
0.0
 40
3.175
 41
0.0
 71
     1
 72
     1
  1
19.6
  7
SLDTEXTSTYLE2
 11
-1.059690869644414E-14
 21
1.0
 31
0.0
 73
     1
 44
1.0
  0
ENDBLK
  5
63C
330
63A
100
AcDbEntity
  8
0
100
AcDbBlockEnd
  0
BLOCK
  5
647
330
646
100
AcDbEntity
  8
0
100
AcDbBlockBegin
  2
_D_1
 70
     0
 10
0.0
 20
0.0
 30
0.0
  3
_D_1
  1

  0
INSERT
  5
649
330
646
100
AcDbEntity
  8
0
  6
Continuous
 62
     7
370
    18
100
AcDbBlockReference
  2
_OPEN30
 10
145.5638556355
 20
196.889071466
 30
-32.5
 41
3.0
 42
3.0
 50
180.0
  0
INSERT
  5
64A
330
646
100
AcDbEntity
  8
0
  6
Continuous
 62
     7
370
    18
100
AcDbBlockReference
  2
_OPEN30
 10
162.5639343118
 20
196.889071466
 30
-32.5
 41
3.0
 42
3.0
 50
0.0
  0
LINE
  5
64B
330
646
100
AcDbEntity
  8
0
  6
Continuous
 62
     7
370
    18
100
AcDbLine
 10
145.5638556355
 20
178.2023076322
 30
0.0
 11
145.5638556355
 21
197.889071466
 31
0.0
  0
LINE
  5
64C
330
646
100
AcDbEntity
  8
0
  6
Continuous
 62
     7
370
    18
100
AcDbLine
 10
162.5639343118
 20
171.9706301127
 30
0.0
 11
162.5639343118
 21
197.889071466
 31
0.0
  0
LINE
  5
64D
330
646
100
AcDbEntity
  8
0
  6
Continuous
 62
     7
370
    18
100
AcDbLine
 10
145.5638556355
 20
196.889071466
 30
0.0
 11
162.5639343118
 21
196.889071466
 31
0.0
  0
MTEXT
  5
64E
330
646
100
AcDbEntity
  8
0
  6
Continuous
 62
     7
370
    18
100
AcDbMText
 10
151.4027169714
 20
200.5836168041
 30
0.0
 40
3.175
 41
0.0
 71
     1
 72
     1
  1
17
  7
SLDTEXTSTYLE2
 73
     1
 44
1.0
  0
ENDBLK
  5
648
330
646
100
AcDbEntity
  8
0
100
AcDbBlockEnd
  0
BLOCK
  5
650
330
64F
100
AcDbEntity
  8
0
100
AcDbBlockBegin
  2
SW_NOTE_15
 70
     0
 10
0.0
 20
0.0
 30
0.0
  3
SW_NOTE_15
  1

  0
LINE
  5
652
330
64F
100
AcDbEntity
  8
0
  6
Continuous
 62
     0
370
     0
100
AcDbLine
 10
33.3219706664
 20
0.0
 30
0.0
 11
0.0
 21
0.0
 31
0.0
  0
MTEXT
  5
653
330
64F
100
AcDbEntity
  8
0
  6
Continuous
 62
     0
370
     0
100
AcDbMText
 10
0.3329999981
 20
9.3658685124
 30
0.0
 40
3.5
 41
0.0
 71
     1
 72
     1
  1
\M+18140 M12\M+1817E1.0
  7
SLDTEXTSTYLE1
 73
     1
 44
1.0
  0
MTEXT
  5
654
330
64F
100
AcDbEntity
  8
0
  6
Continuous
 62
     0
370
     0
100
AcDbMText
 10
0.3329999981
 20
3.7543533646
 30
0.0
 40
3.175
 41
0.0
 71
     1
 72
     1
  1
\M+189BA\M+18C8A
  7
SLDTEXTSTYLE1
 73
     1
 44
1.0
  0
MTEXT
  5
655
330
64F
100
AcDbEntity
  8
0
  6
Continuous
 62
     0
370
     0
100
AcDbMText
 10
8.7996665624
 20
3.7543533646
 30
0.0
 40
3.175
 41
0.0
 71
     1
 72
     1
  1
%%c
  7
SLDTEXTSTYLE2
 73
     1
 44
1.0
  0
MTEXT
  5
656
330
64F
100
AcDbEntity
  8
0
  6
Continuous
 62
     0
370
     0
100
AcDbMText
 10
12.8213335065
 20
3.7543533646
 30
0.0
 40
3.175
 41
0.0
 71
     1
 72
     1
  1
11\M+1905B\M+1835440
  7
SLDTEXTSTYLE1
 73
     1
 44
1.0
  0
ENDBLK
  5
651
330
64F
100
AcDbEntity
  8
0
100
AcDbBlockEnd
  0
BLOCK
  5
65B
330
65A
100
AcDbEntity
  8
0
100
AcDbBlockBegin
  2
SW_CENTERMARKSYMBOL_0
 70
     0
 10
0.0
 20
0.0
 30
0.0
  3
SW_CENTERMARKSYMBOL_0
  1

  0
LINE
  5
65D
330
65A
100
AcDbEntity
  8
0
  6
Continuous
 62
     0
370
    18
100
AcDbLine
 10
0.0
 20
0.0
 30
0.0
 11
-4.5
 21
0.0
 31
0.0
  0
LINE
  5
65E
330
65A
100
AcDbEntity
  8
0
  6
Continuous
 62
     0
370
    18
100
AcDbLine
 10
0.0
 20
0.0
 30
0.0
 11
0.0
 21
-4.5
 31
0.0
  0
LINE
  5
65F
330
65A
100
AcDbEntity
  8
0
  6
Continuous
 62
     0
370
    18
100
AcDbLine
 10
0.0
 20
0.0
 30
0.0
 11
4.5
 21
0.0
 31
0.0
  0
LINE
  5
660
330
65A
100
AcDbEntity
  8
0
  6
Continuous
 62
     0
370
    18
100
AcDbLine
 10
0.0
 20
0.0
 30
0.0
 11
0.0
 21
4.5
 31
0.0
  0
LINE
  5
661
330
65A
100
AcDbEntity
  8
0
  6
Continuous
 62
     0
370
    18
100
AcDbLine
 10
-9.0
 20
0.0
 30
0.0
 11
-10.5
 21
0.0
 31
0.0
  0
LINE
  5
662
330
65A
100
AcDbEntity
  8
0
  6
Continuous
 62
     0
370
    18
100
AcDbLine
 10
0.0
 20
-9.0
 30
0.0
 11
0.0
 21
-10.5
 31
0.0
  0
LINE
  5
663
330
65A
100
AcDbEntity
  8
0
  6
Continuous
 62
     0
370
    18
100
AcDbLine
 10
9.0
 20
0.0
 30
0.0
 11
10.5
 21
0.0
 31
0.0
  0
LINE
  5
664
330
65A
100
AcDbEntity
  8
0
  6
Continuous
 62
     0
370
    18
100
AcDbLine
 10
0.0
 20
9.0
 30
0.0
 11
0.0
 21
10.5
 31
0.0
  0
ENDBLK
  5
65C
330
65A
100
AcDbEntity
  8
0
100
AcDbBlockEnd
  0
BLOCK
  5
667
330
666
100
AcDbEntity
  8
0
100
AcDbBlockBegin
  2
SW_SFSYMBOL_2
 70
     0
 10
0.0
 20
0.0
 30
0.0
  3
SW_SFSYMBOL_2
  1

  0
CIRCLE
  5
669
330
666
100
AcDbEntity
  8
0
  6
Continuous
 62
     0
370
     0
100
AcDbCircle
 10
0.0
 20
0.0
 30
0.0
 40
1.819010416666655
  0
LINE
  5
66A
330
666
100
AcDbEntity
  8
0
  6
Continuous
 62
     0
370
     0
100
AcDbLine
 10
3.6380208333
 20
0.0
 30
0.0
 11
-1.5588919271
 21
-3.0657601563
 31
0.0
  0
LINE
  5
66B
330
666
100
AcDbEntity
  8
0
  6
Continuous
 62
     0
370
     0
100
AcDbLine
 10
3.6380208333
 20
0.0
 30
0.0
 11
-6.7558046875
 21
6.1315203125
 31
0.0
  0
ENDBLK
  5
668
330
666
100
AcDbEntity
  8
0
100
AcDbBlockEnd
  0
BLOCK
  5
66E
330
66D
100
AcDbEntity
  8
0
100
AcDbBlockBegin
  2
SW_SFSYMBOL_3
 70
     0
 10
0.0
 20
0.0
 30
0.0
  3
SW_SFSYMBOL_3
  1

  0
CIRCLE
  5
670
330
66D
100
AcDbEntity
  8
0
  6
Continuous
 62
     0
370
     0
100
AcDbCircle
 10
0.0
 20
0.0
 30
0.0
 40
1.819010416666655
  0
LINE
  5
671
330
66D
100
AcDbEntity
  8
0
  6
Continuous
 62
     0
370
     0
100
AcDbLine
 10
-3.6380208333
 20
0.0
 30
0.0
 11
1.5588919271
 21
3.0657601563
 31
0.0
  0
LINE
  5
672
330
66D
100
AcDbEntity
  8
0
  6
Continuous
 62
     0
370
     0
100
AcDbLine
 10
-3.6380208333
 20
0.0
 30
0.0
 11
6.7558046875
 21
-6.1315203125
 31
0.0
  0
ENDBLK
  5
66F
330
66D
100
AcDbEntity
  8
0
100
AcDbBlockEnd
  0
BLOCK
  5
6A9
330
6A8
100
AcDbEntity
  8
0
100
AcDbBlockBegin
  2
SW_CHAMFER_DIMENSION_0
 70
     0
 10
0.0
 20
0.0
 30
0.0
  3
SW_CHAMFER_DIMENSION_0
  1

  0
INSERT
  5
6AB
330
6A8
100
AcDbEntity
  8
0
  6
Continuous
 62
     0
370
    18
100
AcDbBlockReference
  2
_OPEN30
 10
10.7723098024
 20
6.5389766366
 30
0.0
 41
3.0
 42
3.0
 50
45.0
  0
LINE
  5
6AC
330
6A8
100
AcDbEntity
  8
0
  6
Continuous
 62
     0
370
    18
100
AcDbLine
 10
10.7723098024
 20
6.5389766366
 30
0.0
 11
4.2333332822
 21
0.0000001164
 31
0.0
  0
LINE
  5
6AD
330
6A8
100
AcDbEntity
  8
0
  6
Continuous
 62
     0
370
    18
100
AcDbLine
 10
4.2333332822
 20
0.0000001164
 30
0.0
 11
0.0
 21
0.0000001164
 31
0.0
  0
MTEXT
  5
6AE
330
6A8
100
AcDbEntity
  8
0
  6
Continuous
 62
     0
370
    18
100
AcDbMText
 10
0.0
 20
3.6945454545
 30
0.0
 40
3.175
 41
0.0
 71
     1
 72
     1
  1
C
  7
SLDTEXTSTYLE2
 73
     1
 44
1.0
  0
MTEXT
  5
6AF
330
6A8
100
AcDbEntity
  8
0
  6
Continuous
 62
     0
370
    18
100
AcDbMText
 10
2.1166666411
 20
3.6945454545
 30
0.0
 40
3.175
 41
0.0
 71
     1
 72
     1
  1
1
  7
SLDTEXTSTYLE2
 73
     1
 44
1.0
  0
ENDBLK
  5
6AA
330
6A8
100
AcDbEntity
  8
0
100
AcDbBlockEnd
  0
BLOCK
  5
6B3
330
6B2
100
AcDbEntity
  8
0
100
AcDbBlockBegin
  2
_D_2
 70
     0
 10
0.0
 20
0.0
 30
0.0
  3
_D_2
  1

  0
INSERT
  5
6B5
330
6B2
100
AcDbEntity
  8
0
  6
Continuous
 62
     7
370
    18
100
AcDbBlockReference
  2
_OPEN30
 10
106.0421152858
 20
155.8445560803
 30
0.0
 41
3.0
 42
3.0
 50
0.0
  0
INSERT
  5
6B6
330
6B2
100
AcDbEntity
  8
0
  6
Continuous
 62
     7
370
    18
100
AcDbBlockReference
  2
_OPEN30
 10
89.0421152858
 20
155.8445560803
 30
0.0
 41
3.0
 42
3.0
 50
180.0
  0
LINE
  5
6B7
330
6B2
100
AcDbEntity
  8
0
  6
Continuous
 62
     7
370
    18
100
AcDbLine
 10
106.0421152858
 20
162.6922431975
 30
0.0
 11
106.0421152858
 21
154.8445560803
 31
0.0
  0
LINE
  5
6B8
330
6B2
100
AcDbEntity
  8
0
  6
Continuous
 62
     7
370
    18
100
AcDbLine
 10
89.0421152858
 20
165.2948076322
 30
0.0
 11
89.0421152858
 21
154.8445560803
 31
0.0
  0
LINE
  5
6B9
330
6B2
100
AcDbEntity
  8
0
  6
Continuous
 62
     7
370
    18
100
AcDbLine
 10
106.0421152858
 20
155.8445560803
 30
0.0
 11
89.0421152858
 21
155.8445560803
 31
0.0
  0
MTEXT
  5
6BA
330
6B2
100
AcDbEntity
  8
0
  6
Continuous
 62
     7
370
    18
100
AcDbMText
 10
97.2362978267
 20
159.5391014184
 30
0.0
 40
3.175
 41
0.0
 71
     1
 72
     1
  1
17
  7
SLDTEXTSTYLE2
 73
     1
 44
1.0
  0
ENDBLK
  5
6B4
330
6B2
100
AcDbEntity
  8
0
100
AcDbBlockEnd
  0
BLOCK
  5
6BD
330
6BC
100
AcDbEntity
  8
0
100
AcDbBlockBegin
  2
_D_3
 70
     0
 10
0.0
 20
0.0
 30
0.0
  3
_D_3
  1

  0
INSERT
  5
6BF
330
6BC
100
AcDbEntity
  8
0
  6
Continuous
 62
     7
370
    18
100
AcDbBlockReference
  2
_OPEN30
 10
61.0421152858
 20
148.2119240096
 30
0.0
 41
3.0
 42
3.0
 50
180.0
  0
INSERT
  5
6C0
330
6BC
100
AcDbEntity
  8
0
  6
Continuous
 62
     7
370
    18
100
AcDbBlockReference
  2
_OPEN30
 10
106.0421152858
 20
148.2119240096
 30
0.0
 41
3.0
 42
3.0
 50
0.0
  0
LINE
  5
6C1
330
6BC
100
AcDbEntity
  8
0
  6
Continuous
 62
     7
370
    18
100
AcDbLine
 10
61.0421152858
 20
163.2714688724
 30
0.0
 11
61.0421152858
 21
147.2119240096
 31
0.0
  0
LINE
  5
6C2
330
6BC
100
AcDbEntity
  8
0
  6
Continuous
 62
     7
370
    18
100
AcDbLine
 10
106.0421152858
 20
165.7948076322
 30
0.0
 11
106.0421152858
 21
147.2119240096
 31
0.0
  0
LINE
  5
6C3
330
6BC
100
AcDbEntity
  8
0
  6
Continuous
 62
     7
370
    18
100
AcDbLine
 10
61.0421152858
 20
148.2119240096
 30
0.0
 11
106.0421152858
 21
148.2119240096
 31
0.0
  0
MTEXT
  5
6C4
330
6BC
100
AcDbEntity
  8
0
  6
Continuous
 62
     7
370
    18
100
AcDbMText
 10
81.5698493615
 20
151.9064693477
 30
0.0
 40
3.175
 41
0.0
 71
     1
 72
     1
  1
45
  7
SLDTEXTSTYLE2
 73
     1
 44
1.0
  0
ENDBLK
  5
6BE
330
6BC
100
AcDbEntity
  8
0
100
AcDbBlockEnd
  0
BLOCK
  5
6C7
330
6C6
100
AcDbEntity
  8
0
100
AcDbBlockBegin
  2
_D_4
 70
     0
 10
0.0
 20
0.0
 30
0.0
  3
_D_4
  1

  0
INSERT
  5
6C9
330
6C6
100
AcDbEntity
  8
0
  6
Continuous
 62
     7
370
    18
100
AcDbBlockReference
  2
_OPEN30
 10
106.0421152858
 20
140.4798076322
 30
0.0
 41
3.0
 42
3.0
 50
0.0
  0
INSERT
  5
6CA
330
6C6
100
AcDbEntity
  8
0
  6
Continuous
 62
     7
370
    18
100
AcDbBlockReference
  2
_OPEN30
 10
41.0421152858
 20
140.4798076322
 30
0.0
 41
3.0
 42
3.0
 50
180.0
  0
LINE
  5
6CB
330
6C6
100
AcDbEntity
  8
0
  6
Continuous
 62
     7
370
    18
100
AcDbLine
 10
106.0421152858
 20
162.6922431975
 30
0.0
 11
106.0421152858
 21
139.4798076322
 31
0.0
  0
LINE
  5
6CC
330
6C6
100
AcDbEntity
  8
0
  6
Continuous
 62
     7
370
    18
100
AcDbLine
 10
41.0421152858
 20
166.2948076322
 30
0.0
 11
41.0421152858
 21
139.4798076322
 31
0.0
  0
LINE
  5
6CD
330
6C6
100
AcDbEntity
  8
0
  6
Continuous
 62
     7
370
    18
100
AcDbLine
 10
106.0421152858
 20
140.4798076322
 30
0.0
 11
41.0421152858
 21
140.4798076322
 31
0.0
  0
MTEXT
  5
6CE
330
6C6
100
AcDbEntity
  8
0
  6
Continuous
 62
     7
370
    18
100
AcDbMText
 10
73.1877682927
 20
144.1743529703
 30
0.0
 40
3.175
 41
0.0
 71
     1
 72
     1
  1
65
  7
SLDTEXTSTYLE2
 73
     1
 44
1.0
  0
ENDBLK
  5
6C8
330
6C6
100
AcDbEntity
  8
0
100
AcDbBlockEnd
  0
BLOCK
  5
6D1
330
6D0
100
AcDbEntity
  8
0
100
AcDbBlockBegin
  2
_D_5
 70
     0
 10
0.0
 20
0.0
 30
0.0
  3
_D_5
  1

  0
ARC
  5
6D3
330
6D0
100
AcDbEntity
  8
0
  6
Continuous
 62
     7
370
    18
100
AcDbCircle
 10
53.275068359
 20
150.3285906506
 30
0.0
 40
4.733010495175199
100
AcDbArc
 50
153.4349488229
 51
206.5650511771
  0
ARC
  5
6D4
330
6D0
100
AcDbEntity
  8
0
  6
Continuous
 62
     7
370
    18
100
AcDbCircle
 10
49.0417350768
 20
150.3285906506
 30
0.0
 40
4.733010495175212
100
AcDbArc
 50
333.4349488229
 51
26.5650511771
  0
INSERT
  5
6D5
330
6D0
100
AcDbEntity
  8
0
  6
Continuous
 62
     7
370
    18
100
AcDbBlockReference
  2
_OPEN30
 10
41.0421152858
 20
148.2119240096
 30
0.0
 41
3.0
 42
3.0
 50
180.0
  0
INSERT
  5
6D6
330
6D0
100
AcDbEntity
  8
0
  6
Continuous
 62
     7
370
    18
100
AcDbBlockReference
  2
_OPEN30
 10
61.0421152858
 20
148.2119240096
 30
0.0
 41
3.0
 42
3.0
 50
0.0
  0
LINE
  5
6D7
330
6D0
100
AcDbEntity
  8
0
  6
Continuous
 62
     7
370
    18
100
AcDbLine
 10
41.0421152858
 20
166.2948076322
 30
0.0
 11
41.0421152858
 21
147.2119240096
 31
0.0
  0
LINE
  5
6D8
330
6D0
100
AcDbEntity
  8
0
  6
Continuous
 62
     7
370
    18
100
AcDbLine
 10
61.0421152858
 20
165.7948076322
 30
0.0
 11
61.0421152858
 21
147.2119240096
 31
0.0
  0
LINE
  5
6D9
330
6D0
100
AcDbEntity
  8
0
  6
Continuous
 62
     7
370
    18
100
AcDbLine
 10
41.0421152858
 20
148.2119240096
 30
0.0
 11
61.0421152858
 21
148.2119240096
 31
0.0
  0
MTEXT
  5
6DA
330
6D0
100
AcDbEntity
  8
0
  6
Continuous
 62
     7
370
    18
100
AcDbMText
 10
49.0417350768
 20
151.9064693477
 30
0.0
 40
3.175
 41
0.0
 71
     1
 72
     1
  1
20
  7
SLDTEXTSTYLE2
 73
     1
 44
1.0
  0
ENDBLK
  5
6D2
330
6D0
100
AcDbEntity
  8
0
100
AcDbBlockEnd
  0
BLOCK
  5
6DE
330
6DD
100
AcDbEntity
  8
0
100
AcDbBlockBegin
  2
_D_6
 70
     0
 10
0.0
 20
0.0
 30
0.0
  3
_D_6
  1

  0
ARC
  5
6E0
330
6DD
100
AcDbEntity
  8
0
  6
Continuous
 62
     7
370
    18
100
AcDbCircle
 10
106.0421152858
 20
180.8973720669
 30
0.0
 40
7.10971574653118
100
AcDbArc
 50
90.0
 51
120.0
  0
ARC
  5
6E1
330
6DD
100
AcDbEntity
  8
0
  6
Continuous
 62
     7
370
    18
100
AcDbCircle
 10
106.0421152858
 20
180.8973720669
 30
0.0
 40
7.109715746531185
100
AcDbArc
 50
45.1891756042
 51
90.0
  0
ARC
  5
6E2
330
6DD
100
AcDbEntity
  8
0
  6
Continuous
 62
     7
370
    18
100
AcDbCircle
 10
106.0421152858
 20
180.8973720669
 30
0.0
 40
7.109715746531177
100
AcDbArc
 50
120.0
 51
164.8108243958
  0
INSERT
  5
6E3
330
6DD
100
AcDbEntity
  8
0
  6
Continuous
 62
     7
370
    18
100
AcDbBlockReference
  2
_OPEN30
 10
106.0421152858
 20
188.0070878134
 30
0.0
 41
3.0
 42
3.0
 50
168.5611538583
  0
INSERT
  5
6E4
330
6DD
100
AcDbEntity
  8
0
  6
Continuous
 62
     7
370
    18
100
AcDbBlockReference
  2
_OPEN30
 10
102.4872574125
 20
187.0545665171
 30
0.0
 41
3.0
 42
3.0
 50
41.4388461417
  0
LINE
  5
6E5
330
6DD
100
AcDbEntity
  8
0
  6
Continuous
 62
     7
370
    18
100
AcDbLine
 10
106.0421152858
 20
181.318146392
 30
0.0
 11
106.0421152858
 21
189.0070878134
 31
0.0
  0
LINE
  5
6E6
330
6DD
100
AcDbEntity
  8
0
  6
Continuous
 62
     7
370
    18
100
AcDbLine
 10
104.8421152858
 20
182.975833036
 30
0.0
 11
101.9872574125
 21
187.9205919209
 31
0.0
  0
MTEXT
  5
6E7
330
6DD
100
AcDbEntity
  8
0
  6
Continuous
 62
     7
370
    18
100
AcDbMText
 10
100.8387756294
 20
191.2693740281
 30
0.0
 40
3.175
 41
0.0
 71
     1
 72
     1
  1
30°
  7
SLDTEXTSTYLE2
 11
0.9958123513531453
 21
0.09142079026413988
 31
0.0
 73
     1
 44
1.0
  0
ENDBLK
  5
6DF
330
6DD
100
AcDbEntity
  8
0
100
AcDbBlockEnd
  0
BLOCK
  5
6EA
330
6E9
100
AcDbEntity
  8
0
100
AcDbBlockBegin
  2
_D_7
 70
     0
 10
0.0
 20
0.0
 30
0.0
  3
_D_7
  1

  0
INSERT
  5
6EC
330
6E9
100
AcDbEntity
  8
0
  6
Continuous
 62
     7
370
    18
100
AcDbBlockReference
  2
_OPEN30
 10
117.3272643738
 20
180.8973720669
 30
0.0
 41
3.0
 42
3.0
 50
90.0
  0
INSERT
  5
6ED
330
6E9
100
AcDbEntity
  8
0
  6
Continuous
 62
     7
370
    18
100
AcDbBlockReference
  2
_OPEN30
 10
117.3272643738
 20
163.6922431975
 30
0.0
 41
3.0
 42
3.0
 50
270.0
  0
LINE
  5
6EE
330
6E9
100
AcDbEntity
  8
0
  6
Continuous
 62
     7
370
    18
100
AcDbLine
 10
107.0421152858
 20
180.8973720669
 30
0.0
 11
118.3272643738
 21
180.8973720669
 31
0.0
  0
LINE
  5
6EF
330
6E9
100
AcDbEntity
  8
0
  6
Continuous
 62
     7
370
    18
100
AcDbLine
 10
107.0421152858
 20
163.6922431975
 30
0.0
 11
118.3272643738
 21
163.6922431975
 31
0.0
  0
LINE
  5
6F0
330
6E9
100
AcDbEntity
  8
0
  6
Continuous
 62
     7
370
    18
100
AcDbLine
 10
117.3272643738
 20
180.8973720669
 30
0.0
 11
117.3272643738
 21
163.6922431975
 31
0.0
  0
MTEXT
  5
6F1
330
6E9
100
AcDbEntity
  8
0
  6
Continuous
 62
     7
370
    18
100
AcDbMText
 10
113.6327190357
 20
165.4425891261
 30
0.0
 40
3.175
 41
0.0
 71
     1
 72
     1
  1
%%c
  7
SLDTEXTSTYLE2
 11
-7.044195017643634E-15
 21
1.0
 31
0.0
 73
     1
 44
1.0
  0
MTEXT
  5
6F2
330
6E9
100
AcDbEntity
  8
0
  6
Continuous
 62
     7
370
    18
100
AcDbMText
 10
113.6327190357
 20
169.4642556045
 30
0.0
 40
3.175
 41
0.0
 71
     1
 72
     1
  1
17.2
  7
SLDTEXTSTYLE2
 11
-7.044195017643634E-15
 21
1.0
 31
0.0
 73
     1
 44
1.0
  0
ENDBLK
  5
6EB
330
6E9
100
AcDbEntity
  8
0
100
AcDbBlockEnd
  0
BLOCK
  5
6F4
330
6F3
100
AcDbEntity
  8
0
100
AcDbBlockBegin
  2
SW_NOTE_16
 70
     0
 10
0.0
 20
0.0
 30
0.0
  3
SW_NOTE_16
  1

  0
LINE
  5
6F6
330
6F3
100
AcDbEntity
  8
0
  6
Continuous
 62
     0
370
     0
100
AcDbLine
 10
-17.1066452166
 20
0.0
 30
0.0
 11
0.0
 21
0.0
 31
0.0
  0
MTEXT
  5
6F7
330
6F3
100
AcDbEntity
  8
0
  6
Continuous
 62
     0
370
     0
100
AcDbMText
 10
-17.4854272937
 20
3.7573073599
 30
0.0
 40
3.175
 41
0.0
 71
     1
 72
     1
  1
M12×1.0
  7
SLDTEXTSTYLE2
 73
     1
 44
1.0
  0
ENDBLK
  5
6F5
330
6F3
100
AcDbEntity
  8
0
100
AcDbBlockEnd
  0
BLOCK
  5
6FC
330
6FB
100
AcDbEntity
  8
0
100
AcDbBlockBegin
  2
SW_NOTE_17
 70
     0
 10
0.0
 20
0.0
 30
0.0
  3
SW_NOTE_17
  1

  0
LINE
  5
6FE
330
6FB
100
AcDbEntity
  8
0
  6
Continuous
 62
     0
370
     0
100
AcDbLine
 10
-21.3399775675
 20
0.0
 30
0.0
 11
0.0
 21
0.0
 31
0.0
  0
MTEXT
  5
6FF
330
6FB
100
AcDbEntity
  8
0
  6
Continuous
 62
     0
370
     0
100
AcDbMText
 10
-21.6762459361
 20
3.7687867183
 30
0.0
 40
3.175
 41
0.0
 71
     1
 72
     1
  1
\M+18DC5\M+18FAC\M+1836B\M+18358\M+1837E
  7
SLDTEXTSTYLE1
 73
     1
 44
1.0
  0
ENDBLK
  5
6FD
330
6FB
100
AcDbEntity
  8
0
100
AcDbBlockEnd
  0
ENDSEC
  0
SECTION
  2
ENTITIES
  0
LINE
  5
575
330
1F
100
AcDbEntity
  8
0
  6
Continuous
 62
     7
370
    18
100
AcDbLine
 10
65.7604743903
 20
269.25
 30
0.0
 11
196.7604743903
 21
269.25
 31
0.0
  0
LINE
  5
576
330
1F
100
AcDbEntity
  8
0
  6
Continuous
 62
     7
370
    18
100
AcDbLine
 10
20.2604743903
 20
285.0
 30
0.0
 11
196.7604743903
 21
285.0
 31
0.0
  0
LINE
  5
577
330
1F
100
AcDbEntity
  8
0
  6
Continuous
 62
     7
370
    18
100
AcDbLine
 10
20.2604743903
 20
285.0
 30
0.0
 11
20.2604743903
 21
10.0
 31
0.0
  0
LINE
  5
578
330
1F
100
AcDbEntity
  8
0
  6
Continuous
 62
     7
370
    18
100
AcDbLine
 10
20.2604743903
 20
10.0
 30
0.0
 11
196.7604743903
 21
10.0
 31
0.0
  0
LINE
  5
579
330
1F
100
AcDbEntity
  8
0
  6
Continuous
 62
     7
370
    18
100
AcDbLine
 10
196.7604743903
 20
285.0
 30
0.0
 11
196.7604743903
 21
10.0
 31
0.0
  0
LINE
  5
57A
330
1F
100
AcDbEntity
  8
0
  6
Continuous
 62
     7
370
    18
100
AcDbLine
 10
65.7604743903
 20
285.0
 30
0.0
 11
196.7604743903
 21
285.0
 31
0.0
  0
LINE
  5
57B
330
1F
100
AcDbEntity
  8
0
  6
Continuous
 62
     7
370
    18
100
AcDbLine
 10
65.7604743903
 20
285.0
 30
0.0
 11
65.7604743903
 21
264.25
 31
0.0
  0
LINE
  5
57C
330
1F
100
AcDbEntity
  8
0
  6
Continuous
 62
     7
370
    18
100
AcDbLine
 10
65.7604743903
 20
264.25
 30
0.0
 11
196.7604743903
 21
264.25
 31
0.0
  0
LINE
  5
57D
330
1F
100
AcDbEntity
  8
0
  6
Continuous
 62
     7
370
    18
100
AcDbLine
 10
196.7604743903
 20
285.0
 30
0.0
 11
196.7604743903
 21
264.25
 31
0.0
  0
LINE
  5
57E
330
1F
100
AcDbEntity
  8
0
  6
Continuous
 62
     7
370
    18
100
AcDbLine
 10
65.7604743903
 20
274.25
 30
0.0
 11
196.7604743903
 21
274.25
 31
0.0
  0
LINE
  5
57F
330
1F
100
AcDbEntity
  8
0
  6
Continuous
 62
     7
370
    18
100
AcDbLine
 10
65.7604743903
 20
279.25
 30
0.0
 11
196.7604743903
 21
279.25
 31
0.0
  0
LINE
  5
580
330
1F
100
AcDbEntity
  8
0
  6
Continuous
 62
     7
370
    18
100
AcDbLine
 10
77.7604743903
 20
285.0
 30
0.0
 11
77.7604743903
 21
264.25
 31
0.0
  0
LINE
  5
581
330
1F
100
AcDbEntity
  8
0
  6
Continuous
 62
     7
370
    18
100
AcDbLine
 10
152.7604743903
 20
285.0
 30
0.0
 11
152.7604743903
 21
264.25
 31
0.0
  0
LINE
  5
582
330
1F
100
AcDbEntity
  8
0
  6
Continuous
 62
     7
370
    18
100
AcDbLine
 10
152.7604743903
 20
285.0
 30
0.0
 11
152.7604743903
 21
264.25
 31
0.0
  0
LINE
  5
583
330
1F
100
AcDbEntity
  8
0
  6
Continuous
 62
     7
370
    18
100
AcDbLine
 10
65.7604743903
 20
276.8133809626
 30
0.0
 11
65.7604743903
 21
279.25
 31
0.0
  0
LINE
  5
584
330
1F
100
AcDbEntity
  8
0
  6
Continuous
 62
     7
370
    18
100
AcDbLine
 10
174.7604743903
 20
285.0
 30
0.0
 11
174.7604743903
 21
264.25
 31
0.0
  0
LINE
  5
585
330
1F
100
AcDbEntity
  8
0
  6
Continuous
 62
     7
370
    18
100
AcDbLine
 10
20.2604743903
 20
50.75
 30
0.0
 11
196.7604743903
 21
50.75
 31
0.0
  0
LINE
  5
586
330
1F
100
AcDbEntity
  8
0
  6
Continuous
 62
     7
370
    18
100
AcDbLine
 10
20.2604743903
 20
55.75
 30
0.0
 11
196.7604743903
 21
55.75
 31
0.0
  0
LINE
  5
587
330
1F
100
AcDbEntity
  8
0
  6
Continuous
 62
     7
370
    18
100
AcDbLine
 10
20.2604743903
 20
60.75
 30
0.0
 11
196.7604743903
 21
60.75
 31
0.0
  0
LINE
  5
588
330
1F
100
AcDbEntity
  8
0
  6
Continuous
 62
     7
370
    18
100
AcDbLine
 10
20.2604743903
 20
26.75
 30
0.0
 11
97.7038002636
 21
26.75
 31
0.0
  0
LINE
  5
589
330
1F
100
AcDbEntity
  8
0
  6
Continuous
 62
     7
370
    18
100
AcDbLine
 10
36.8449891333
 20
26.75
 30
0.0
 11
36.8449891333
 21
10.0
 31
0.0
  0
LINE
  5
58A
330
1F
100
AcDbEntity
  8
0
  6
Continuous
 62
     7
370
    18
100
AcDbLine
 10
56.4420352198
 20
26.75
 30
0.0
 11
56.4420352198
 21
10.0
 31
0.0
  0
LINE
  5
58B
330
1F
100
AcDbEntity
  8
0
  6
Continuous
 62
     7
370
    18
100
AcDbLine
 10
78.5732601898
 20
26.75
 30
0.0
 11
78.5732601898
 21
10.0
 31
0.0
  0
LINE
  5
58C
330
1F
100
AcDbEntity
  8
0
  6
Continuous
 62
     7
370
    18
100
AcDbLine
 10
146.2939574258
 20
50.75
 30
0.0
 11
146.2939574258
 21
10.0
 31
0.0
  0
LINE
  5
58D
330
1F
100
AcDbEntity
  8
0
  6
Continuous
 62
     7
370
    18
100
AcDbLine
 10
146.2939574258
 20
22.75
 30
0.0
 11
196.7604743903
 21
22.75
 31
0.0
  0
LINE
  5
58E
330
1F
100
AcDbEntity
  8
0
  6
Continuous
 62
     7
370
    18
100
AcDbLine
 10
146.2939574258
 20
36.75
 30
0.0
 11
196.7604743903
 21
36.75
 31
0.0
  0
LINE
  5
58F
330
1F
100
AcDbEntity
  8
0
  6
Continuous
 62
     7
370
    18
100
AcDbLine
 10
20.2604743903
 20
34.75
 30
0.0
 11
97.7038002636
 21
34.75
 31
0.0
  0
LINE
  5
590
330
1F
100
AcDbEntity
  8
0
  6
Continuous
 62
     7
370
    18
100
AcDbLine
 10
20.2604743903
 20
42.75
 30
0.0
 11
81.3578784511
 21
42.75
 31
0.0
  0
LINE
  5
591
330
1F
100
AcDbEntity
  8
0
  6
Continuous
 62
     7
370
    18
100
AcDbLine
 10
56.4835268263
 20
50.75
 30
0.0
 11
56.4835268263
 21
26.75
 31
0.0
  0
LINE
  5
592
330
1F
100
AcDbEntity
  8
0
  6
Continuous
 62
     7
370
    18
100
AcDbLine
 10
30.2604743903
 20
60.75
 30
0.0
 11
30.2604743903
 21
50.75
 31
0.0
  0
LINE
  5
593
330
1F
100
AcDbEntity
  8
0
  6
Continuous
 62
     7
370
    18
100
AcDbLine
 10
74.0104743903
 20
60.75
 30
0.0
 11
74.0104743903
 21
50.75
 31
0.0
  0
LINE
  5
594
330
1F
100
AcDbEntity
  8
0
  6
Continuous
 62
     7
370
    18
100
AcDbLine
 10
118.0104743903
 20
60.75
 30
0.0
 11
118.0104743903
 21
50.75
 31
0.0
  0
LINE
  5
595
330
1F
100
AcDbEntity
  8
0
  6
Continuous
 62
     7
370
    18
100
AcDbLine
 10
163.0104743903
 20
60.75
 30
0.0
 11
163.0104743903
 21
50.75
 31
0.0
  0
LINE
  5
596
330
1F
100
AcDbEntity
  8
0
  6
Continuous
 62
     7
370
    18
100
AcDbLine
 10
140.0
 20
60.75
 30
0.0
 11
140.0
 21
50.75
 31
0.0
  0
LINE
  5
597
330
1F
100
AcDbEntity
  8
0
  6
Continuous
 62
     7
370
    18
100
AcDbLine
 10
129.2261094452
 20
42.75
 30
0.0
 11
146.2939574258
 21
42.75
 31
0.0
  0
LINE
  5
598
330
1F
100
AcDbEntity
  8
0
  6
Continuous
 62
     7
370
    18
100
AcDbLine
 10
20.2604743903
 20
10.0
 30
0.0
 11
20.2604743903
 21
5.8142538843
 31
0.0
  0
LINE
  5
599
330
1F
100
AcDbEntity
  8
0
  6
Continuous
 62
     7
370
    18
100
AcDbLine
 10
30.2604743903
 20
10.0
 30
0.0
 11
30.2604743903
 21
7.8199225297
 31
0.0
  0
LINE
  5
59A
330
1F
100
AcDbEntity
  8
0
  6
Continuous
 62
     7
370
    18
100
AcDbLine
 10
40.2604743903
 20
10.0
 30
0.0
 11
40.2604743903
 21
7.8199225297
 31
0.0
  0
LINE
  5
59B
330
1F
100
AcDbEntity
  8
0
  6
Continuous
 62
     7
370
    18
100
AcDbLine
 10
50.2604743903
 20
10.0
 30
0.0
 11
50.2604743903
 21
7.8199225297
 31
0.0
  0
LINE
  5
59C
330
1F
100
AcDbEntity
  8
0
  6
Continuous
 62
     7
370
    18
100
AcDbLine
 10
60.2604743903
 20
10.0
 30
0.0
 11
60.2604743903
 21
7.8199225297
 31
0.0
  0
LINE
  5
59D
330
1F
100
AcDbEntity
  8
0
  6
Continuous
 62
     7
370
    18
100
AcDbLine
 10
70.2604743903
 20
10.0
 30
0.0
 11
70.2604743903
 21
5.8142538843
 31
0.0
  0
LINE
  5
59E
330
1F
100
AcDbEntity
  8
0
  6
Continuous
 62
     7
370
    18
100
AcDbLine
 10
80.2604743903
 20
10.0
 30
0.0
 11
80.2604743903
 21
7.8199225297
 31
0.0
  0
LINE
  5
59F
330
1F
100
AcDbEntity
  8
0
  6
Continuous
 62
     7
370
    18
100
AcDbLine
 10
90.2604743903
 20
10.0
 30
0.0
 11
90.2604743903
 21
7.8199225297
 31
0.0
  0
LINE
  5
5A0
330
1F
100
AcDbEntity
  8
0
  6
Continuous
 62
     7
370
    18
100
AcDbLine
 10
100.2604743903
 20
10.0
 30
0.0
 11
100.2604743903
 21
7.8199225297
 31
0.0
  0
LINE
  5
5A1
330
1F
100
AcDbEntity
  8
0
  6
Continuous
 62
     7
370
    18
100
AcDbLine
 10
110.2604743903
 20
10.0
 30
0.0
 11
110.2604743903
 21
7.8199225297
 31
0.0
  0
LINE
  5
5A2
330
1F
100
AcDbEntity
  8
0
  6
Continuous
 62
     7
370
    18
100
AcDbLine
 10
120.2604743903
 20
10.0
 30
0.0
 11
120.2604743903
 21
5.8142538843
 31
0.0
  0
LINE
  5
5A3
330
1F
100
AcDbEntity
  8
0
  6
Continuous
 62
     7
370
    18
100
AcDbLine
 10
81.3578784511
 20
50.75
 30
0.0
 11
81.3578784511
 21
34.75
 31
0.0
  0
LINE
  5
5A4
330
1F
100
AcDbEntity
  8
0
  6
Continuous
 62
     7
370
    18
100
AcDbLine
 10
129.2261094452
 20
26.75
 30
0.0
 11
146.2939574258
 21
26.75
 31
0.0
  0
INSERT
  5
5A5
330
1F
100
AcDbEntity
  8
0
  6
Continuous
 62
     7
100
AcDbBlockReference
  2
Block1
 10
97.7038002636
 20
10.0
 30
0.0
  0
INSERT
  5
5A6
330
1F
100
AcDbEntity
  8
0
  6
Continuous
 62
     7
100
AcDbBlockReference
  2
块1
 10
29.7037205914
 20
265.4583693614
 30
0.0
  0
INSERT
  5
5AC
330
1F
100
AcDbEntity
  8
0
  6
Continuous
 62
     7
370
     0
100
AcDbBlockReference
  2
SW_NOTE_7
 10
21.3782286186
 20
69.7370490133
 30
0.0
  0
MTEXT
  5
5AD
330
1F
100
AcDbEntity
  8
0
  6
Continuous
 62
     7
370
     0
100
AcDbMText
 10
179.650759202
 20
255.0779054361
 30
0.0
 40
3.175
 41
0.0
 71
     1
 72
     1
  1
\M+18169   \M+1816A
  7
SLDTEXTSTYLE1
 73
     1
 44
1.0
  0
MTEXT
  5
5AE
330
1F
100
AcDbEntity
  8
0
  6
Continuous
 62
     7
370
     0
100
AcDbMText
 10
164.930634525
 20
149.3399853808
 30
0.0
 40
3.175
 41
0.0
 71
     1
 72
     1
  1
\M+18CFB\M+18CB3C0.5
  7
SLDTEXTSTYLE1
 73
     1
 44
1.0
  0
MTEXT
  5
5AF
330
1F
100
AcDbEntity
  8
0
  6
Continuous
 62
     7
370
     0
100
AcDbMText
 10
147.0234013284
 20
50.2917710345
 30
0.0
 40
2.6458333333
 41
0.0
 71
     1
 72
     1
  1
\M+19569\M+18140\M+196BCARTICLE
  7
SLDTEXTSTYLE1
 73
     1
 44
1.0
  0
MTEXT
  5
5B0
330
1F
100
AcDbEntity
  8
0
  6
Continuous
 62
     7
370
     0
100
AcDbMText
 10
147.0268433377
 20
35.9345888258
 30
0.0
 40
2.6458333333
 41
0.0
 71
     1
 72
     1
  1
\M+1907D\M+18140\M+194D4DWG\M+18140NO\M+18144
  7
SLDTEXTSTYLE1
 73
     1
 44
1.0
  0
MTEXT
  5
5B1
330
1F
100
AcDbEntity
  8
0
  6
Continuous
 62
     7
370
     0
100
AcDbMText
 10
146.3046734627
 20
21.7389804885
 30
0.0
 40
2.6458333333
 41
0.0
 71
     1
 72
     1
  1
\M+18352\M+1815B\M+18368\M+18140CODE\M+18140NO\M+18144
  7
SLDTEXTSTYLE1
 73
     1
 44
1.0
  0
MTEXT
  5
5B2
330
1F
100
AcDbEntity
  8
0
  6
Continuous
 62
     7
370
     0
100
AcDbMText
 10
130.5863042836
 20
25.9171070787
 30
0.0
 40
2.1166666667
 41
0.0
 71
     1
 72
     1
  1
\M+1907D\M+196CA\M+18354\M+18343\M+18359
  7
SLDTEXTSTYLE1
 73
     1
 44
1.0
  0
MTEXT
  5
5B3
330
1F
100
AcDbEntity
  8
0
  6
Continuous
 62
     7
370
     0
100
AcDbMText
 10
129.5752901835
 20
23.1484252446
 30
0.0
 40
2.6458333333
 41
0.0
 71
     1
 72
     1
  1
DWG\M+18140SIZE
  7
SLDTEXTSTYLE1
 73
     1
 44
1.0
  0
MTEXT
  5
5B4
330
1F
100
AcDbEntity
  8
0
  6
Continuous
 62
     7
370
     0
100
AcDbMText
 10
134.1354651166
 20
17.9653539117
 30
0.0
 40
4.2333333333
 41
0.0
 71
     1
 72
     1
  1
\M+182604
  7
SLDTEXTSTYLE1
 73
     1
 44
1.0
  0
MTEXT
  5
5B5
330
1F
100
AcDbEntity
  8
0
  6
Continuous
 62
     7
370
     0
100
AcDbMText
 10
135.0230688672
 20
41.9731157998
 30
0.0
 40
2.1166666667
 41
0.0
 71
     1
 72
     1
  1
\M+18EDA\M+19378
  7
SLDTEXTSTYLE1
 73
     1
 44
1.0
  0
MTEXT
  5
5B6
330
1F
100
AcDbEntity
  8
0
  6
Continuous
 62
     7
370
     0
100
AcDbMText
 10
133.5108088845
 20
38.5015843311
 30
0.0
 40
2.6458333333
 41
0.0
 71
     1
 72
     1
  1
SCALE
  7
SLDTEXTSTYLE2
 73
     1
 44
1.0
  0
MTEXT
  5
5B7
330
1F
100
AcDbEntity
  8
0
  6
Continuous
 62
     7
370
     0
100
AcDbMText
 10
172.068106415
 20
54.1836925124
 30
0.0
 40
2.6458333333
 41
0.0
 71
     1
 72
     1
  1
\M+194F5\M+18140\M+18140\M+18140\M+18D6C
  7
SLDTEXTSTYLE1
 73
     1
 44
1.0
  0
MTEXT
  5
5B8
330
1F
100
AcDbEntity
  8
0
  6
Continuous
 62
     7
370
     0
100
AcDbMText
 10
143.7483985364
 20
54.373757666
 30
0.0
 40
2.6458333333
 41
0.0
 71
     1
 72
     1
  1
\M+18CC2\M+18140\M+18140\M+18140\M+19094
  7
SLDTEXTSTYLE1
 73
     1
 44
1.0
  0
MTEXT
  5
5B9
330
1F
100
AcDbEntity
  8
0
  6
Continuous
 62
     7
370
     0
100
AcDbMText
 10
122.9578605738
 20
54.729103116
 30
0.0
 40
2.6458333333
 41
0.0
 71
     1
 72
     1
  1
\M+18381\M+1815B\M+1834A\M+1815B
  7
SLDTEXTSTYLE1
 73
     1
 44
1.0
  0
MTEXT
  5
5BA
330
1F
100
AcDbEntity
  8
0
  6
Continuous
 62
     7
370
     0
100
AcDbMText
 10
86.6717845937
 20
54.5399798792
 30
0.0
 40
2.6458333333
 41
0.0
 71
     1
 72
     1
  1
\M+18C5E\M+18140\M+18140\M+18140\M+18EAE
  7
SLDTEXTSTYLE1
 73
     1
 44
1.0
  0
MTEXT
  5
5BB
330
1F
100
AcDbEntity
  8
0
  6
Continuous
 62
     7
370
     0
100
AcDbMText
 10
43.013867156
 20
54.373757666
 30
0.0
 40
2.6458333333
 41
0.0
 71
     1
 72
     1
  1
\M+19569\M+18140\M+18140\M+18140\M+196BC
  7
SLDTEXTSTYLE1
 73
     1
 44
1.0
  0
MTEXT
  5
5BC
330
1F
100
AcDbEntity
  8
0
  6
Continuous
 62
     7
370
     0
100
AcDbMText
 10
21.9166351122
 20
53.9936273589
 30
0.0
 40
2.6458333333
 41
0.0
 71
     1
 72
     1
  1
\M+19584\M+18D86
  7
SLDTEXTSTYLE1
 73
     1
 44
1.0
  0
MTEXT
  5
5BD
330
1F
100
AcDbEntity
  8
0
  6
Continuous
 62
     7
370
     0
100
AcDbMText
 10
21.156374498
 20
49.5218616741
 30
0.0
 40
2.1166666667
 41
0.0
 71
     1
 72
     1
  1
\M+18B40\M+18EED\M+18140\M+18273\M+18278\M+1826F\M+18264
  7
SLDTEXTSTYLE1
 73
     1
 44
1.0
  0
MTEXT
  5
5BE
330
1F
100
AcDbEntity
  8
0
  6
Continuous
 62
     7
370
     0
100
AcDbMText
 10
20.7762441909
 20
41.9192555322
 30
0.0
 40
2.1166666667
 41
0.0
 71
     1
 72
     1
  1
\M+18DDE\M+18EBF\M+18140\M+1826C\M+18260\M+18273\M+1826B
  7
SLDTEXTSTYLE1
 73
     1
 44
1.0
  0
MTEXT
  5
5BF
330
1F
100
AcDbEntity
  8
0
  6
Continuous
 62
     7
370
     0
100
AcDbMText
 10
21.156374498
 20
33.7464539297
 30
0.0
 40
2.1166666667
 41
0.0
 71
     1
 72
     1
  1
\M+18F88\M+1979D\M+18140\M+18265\M+18268\M+1826D\M+18268\M+18272\M+18267
  7
SLDTEXTSTYLE1
 73
     1
 44
1.0
  0
MTEXT
  5
5C0
330
1F
100
AcDbEntity
  8
0
  6
Continuous
 62
     7
370
     0
100
AcDbMText
 10
57.2174803547
 20
49.8982005167
 30
0.0
 40
2.1166666667
 41
0.0
 71
     1
 72
     1
  1
\M+18CC2\M+19094\M+18270\M+18273\M+18278
  7
SLDTEXTSTYLE1
 73
     1
 44
1.0
  0
MTEXT
  5
5C1
330
1F
100
AcDbEntity
  8
0
  6
Continuous
 62
     7
370
     0
100
AcDbMText
 10
56.8591775302
 20
42.0856112451
 30
0.0
 40
2.1166666667
 41
0.0
 71
     1
 72
     1
  1
\M+18F64\M+197CA\M+18276\M+18273
  7
SLDTEXTSTYLE1
 73
     1
 44
1.0
  0
MTEXT
  5
5C2
330
1F
100
AcDbEntity
  8
0
  6
Continuous
 62
     7
370
     0
100
AcDbMText
 10
56.9350022802
 20
34.0656676407
 30
0.0
 40
2.1166666667
 41
0.0
 71
     1
 72
     1
  1
\M+18B4C\M+18E96\M+18271\M+18264\M+1826C\M+18260\M+18271\M+1826A\M+18272
  7
SLDTEXTSTYLE1
 73
     1
 44
1.0
  0
MTEXT
  5
5C3
330
1F
100
AcDbEntity
  8
0
  6
Continuous
 62
     7
370
     0
100
AcDbMText
 10
20.822603152
 20
26.1438477877
 30
0.0
 40
2.1166666667
 41
0.0
 71
     1
 72
     1
  1
\M+18FB3\M+19446\M+18260\M+1826F\M+1826F\M+18263
  7
SLDTEXTSTYLE1
 73
     1
 44
1.0
  0
MTEXT
  5
5C4
330
1F
100
AcDbEntity
  8
0
  6
Continuous
 62
     7
370
     0
100
AcDbMText
 10
56.8218816587
 20
25.9639191295
 30
0.0
 40
2.1166666667
 41
0.0
 71
     1
 72
     1
  1
\M+190DD\M+18C76\M+18263\M+18264\M+18272\M+18268\M+18266\M+1826D
  7
SLDTEXTSTYLE1
 73
     1
 44
1.0
  0
MTEXT
  5
5C5
330
1F
100
AcDbEntity
  8
0
  6
Continuous
 62
     7
370
     0
100
AcDbMText
 10
37.3283818349
 20
25.8898415109
 30
0.0
 40
2.1166666667
 41
0.0
 71
     1
 72
     1
  1
\M+19052\M+18DB8\M+18262\M+18267\M+1826A\M+18263
  7
SLDTEXTSTYLE1
 73
     1
 44
1.0
  0
MTEXT
  5
5C6
330
1F
100
AcDbEntity
  8
0
  6
Continuous
 62
     7
370
     0
100
AcDbMText
 10
78.8868516626
 20
25.906765147
 30
0.0
 40
2.1166666667
 41
0.0
 71
     1
 72
     1
  1
\M+190BB\M+1907D\M+18263\M+18271\M+18260\M+18276\M+1826D
  7
SLDTEXTSTYLE1
 73
     1
 44
1.0
  0
MTEXT
  5
5C7
330
1F
100
AcDbEntity
  8
0
  6
Continuous
 62
     7
370
     0
100
AcDbMText
 10
66.5819461959
 20
283.022137384
 30
0.0
 40
2.6458333333
 41
0.0
 71
     1
 72
     1
  1
\M+19584\M+18140\M+18D86
  7
SLDTEXTSTYLE1
 73
     1
 44
1.0
  0
MTEXT
  5
5C8
330
1F
100
AcDbEntity
  8
0
  6
Continuous
 62
     7
370
     0
100
AcDbMText
 10
97.7526313778
 20
282.8320722305
 30
0.0
 40
2.6458333333
 41
0.0
 71
     1
 72
     1
  1
\M+195CF\M+18140\M+18140\M+18D58\M+18140\M+18140\M+193E0\M+18140\M+18140\M+19765
  7
SLDTEXTSTYLE1
 73
     1
 44
1.0
  0
MTEXT
  5
5C9
330
1F
100
AcDbEntity
  8
0
  6
Continuous
 62
     7
370
     0
100
AcDbMText
 10
158.9536108202
 20
283.022137384
 30
0.0
 40
2.6458333333
 41
0.0
 71
     1
 72
     1
  1
\M+193FA\M+18140\M+19574
  7
SLDTEXTSTYLE1
 73
     1
 44
1.0
  0
MTEXT
  5
5CA
330
1F
100
AcDbEntity
  8
0
  6
Continuous
 62
     7
370
     0
100
AcDbMText
 10
181.7614292459
 20
283.022137384
 30
0.0
 40
2.6458333333
 41
0.0
 71
     1
 72
     1
  1
\M+18F90\M+18140\M+196BC
  7
SLDTEXTSTYLE1
 73
     1
 44
1.0
  0
MTEXT
  5
5CB
330
1F
100
AcDbEntity
  8
0
  6
Continuous
 62
     7
370
     0
100
AcDbMText
 10
40.377763356
 20
30.4946344339
 30
0.0
 40
3.175
 41
0.0
 71
     2
 72
     1
  1
\M+19492\M+19046\M+18341\M+1838B\M+1837D\M+18343\M+18367
  7
SLDTEXTSTYLE1
 73
     1
 44
1.0
  0
MTEXT
  5
5CC
330
1F
100
AcDbEntity
  8
0
  6
Continuous
 62
     7
370
     0
100
AcDbMText
 10
42.6055950184
 20
38.8809823521
 30
0.0
 40
3.175
 41
0.0
 71
     2
 72
     1
  1
A6063
  7
SLDTEXTSTYLE2
 73
     1
 44
1.0
  0
MTEXT
  5
5CD
330
1F
100
AcDbEntity
  8
0
  6
Continuous
 62
     7
370
     0
100
AcDbMText
 10
73.5814142587
 20
38.8809823521
 30
0.0
 40
3.175
 41
0.0
 71
     2
 72
     1
  1
(25.8g)
  7
SLDTEXTSTYLE2
 73
     1
 44
1.0
  0
MTEXT
  5
5CE
330
1F
100
AcDbEntity
  8
0
  6
Continuous
 62
     7
370
     0
100
AcDbMText
 10
74.63540751
 20
48.4710893575
 30
0.0
 40
3.175
 41
0.0
 71
     2
 72
     1
  1
1
  7
SLDTEXTSTYLE2
 73
     1
 44
1.0
  0
MTEXT
  5
5CF
330
1F
100
AcDbEntity
  8
0
  6
Continuous
 62
     7
370
     0
100
AcDbMText
 10
168.2877325889
 20
29.360828476
 30
0.0
 40
4.2333333333
 41
0.0
 71
     2
 72
     1
  1
LX0236-201-0
  7
SLDTEXTSTYLE2
 73
     1
 44
1.0
  0
INSERT
  5
5D5
330
1F
100
AcDbEntity
  8
0
  6
Continuous
 62
     7
370
     0
100
AcDbBlockReference
  2
SW_NOTE_8
 10
151.0003740397
 20
41.7187763264
 30
0.0
  0
MTEXT
  5
5D6
330
1F
100
AcDbEntity
  8
0
  6
Continuous
 62
     7
370
     0
100
AcDbMText
 10
135.5637202483
 20
50.3224341822
 30
0.0
 40
2.1166666667
 41
0.0
 71
     1
 72
     1
  1
\M+18E4F\M+18A70\M+19640
  7
SLDTEXTSTYLE1
 73
     1
 44
1.0
  0
MTEXT
  5
5D7
330
1F
100
AcDbEntity
  8
0
  6
Continuous
 62
     7
370
     0
100
AcDbMText
 10
131.9485609845
 20
46.8153956408
 30
0.0
 40
2.1166666667
 41
0.0
 71
     1
 72
     1
  1
THIRD\M+18140ANG
  7
SLDTEXTSTYLE1
 73
     1
 44
1.0
  0
MTEXT
  5
5D8
330
1F
100
AcDbEntity
  8
0
  6
Continuous
 62
     7
370
     0
100
AcDbMText
 10
135.6732832851
 20
32.911212654
 30
0.0
 40
3.175
 41
0.0
 71
     1
 72
     1
  1
1/1
  7
SLDTEXTSTYLE2
 73
     1
 44
1.0
  0
INSERT
  5
5E1
330
1F
100
AcDbEntity
  8
0
  6
Continuous
 62
     7
370
    18
100
AcDbBlockReference
  2
SW_NOTE_9
 10
70.9774563433
 20
274.7820824364
 30
0.0
  0
INSERT
  5
5E9
330
1F
100
AcDbEntity
  8
0
  6
Continuous
 62
     7
370
     0
100
AcDbBlockReference
  2
SW_NOTE_10
 10
70.9233348032
 20
269.5318859679
 30
0.0
  0
INSERT
  5
5F1
330
1F
100
AcDbEntity
  8
0
  6
Continuous
 62
     7
370
     0
100
AcDbBlockReference
  2
SW_NOTE_11
 10
71.0697156314
 20
264.4768850849
 30
0.0
  0
MTEXT
  5
5F2
330
1F
100
AcDbEntity
  8
0
  6
Continuous
 62
     7
370
    18
100
AcDbMText
 10
19.720587513
 20
5.0647169998
 30
0.0
 40
2.1166666667
 41
0.0
 71
     1
 72
     1
  1
0
  7
SLDTEXTSTYLE2
 73
     1
 44
1.0
  0
MTEXT
  5
5F3
330
1F
100
AcDbEntity
  8
0
  6
Continuous
 62
     7
370
     0
100
AcDbMText
 10
117.9637683392
 20
5.1698837949
 30
0.0
 40
2.1166666667
 41
0.0
 71
     1
 72
     1
  1
100
  7
SLDTEXTSTYLE2
 73
     1
 44
1.0
  0
INSERT
  5
5FA
330
1F
100
AcDbEntity
  8
0
  6
Continuous
 62
     7
370
     0
100
AcDbBlockReference
  2
SW_NOTE_12
 10
84.5536980585
 20
47.3408857665
 30
0.0
  0
MTEXT
  5
5FB
330
1F
100
AcDbEntity
  8
0
  6
Continuous
 62
     7
370
     0
100
AcDbMText
 10
35.1745857258
 20
46.4857302003
 30
0.0
 40
3.175
 41
0.0
 71
     1
 72
     1
  1
CP-AJS20
  7
SLDTEXTSTYLE2
 73
     1
 44
1.0
  0
MTEXT
  5
5FC
330
1F
100
AcDbEntity
  8
0
  6
Continuous
 62
     7
370
     0
100
AcDbMText
 10
89.7281846286
 20
42.4187795946
 30
0.0
 40
3.5
 41
0.0
 71
     2
 72
     1
  1
(9554)
  7
SLDTEXTSTYLE2
 73
     1
 44
1.0
  0
INSERT
  5
602
330
1F
100
AcDbEntity
  8
0
  6
Continuous
 62
     7
370
     0
100
AcDbBlockReference
  2
SW_NOTE_13
 10
79.8273192147
 20
15.6685543674
 30
0.0
  0
INSERT
  5
608
330
1F
100
AcDbEntity
  8
0
  6
Continuous
 62
     7
370
     0
100
AcDbBlockReference
  2
SW_NOTE_14
 10
59.5789224425
 20
15.6685543674
 30
0.0
  0
INSERT
  5
60F
330
1F
100
AcDbEntity
  8
0
  6
Continuous
 62
     7
370
     0
100
AcDbBlockReference
  2
SW_SFSYMBOL_0
 10
186.5553645956
 20
254.5017558494
 30
0.0
  0
INSERT
  5
617
330
1F
100
AcDbEntity
  8
0
  6
Continuous
 62
     7
370
     0
100
AcDbBlockReference
  2
SW_SFSYMBOL_1
 10
176.3306236248
 20
255.8318295351
 30
0.0
  0
ARC
  5
618
330
1F
100
AcDbEntity
  8
0
  6
Continuous
 62
     7
370
    50
100
AcDbCircle
 10
154.0638949737
 20
172.2948076322
 30
0.0
 40
8.602564434701815
100
AcDbArc
 50
128.8546424242
 51
171.1453575758
  0
SPLINE
  5
619
330
1F
100
AcDbEntity
  8
0
  6
Continuous
 62
     7
370
    50
100
AcDbSpline
210
0.0
220
0.0
230
1.0
 70
    24
 71
     3
 72
    10
 73
     6
 74
     0
 42
0.000000001
 43
0.00000001
 40
0.0
 40
0.0
 40
0.0
 40
0.0
 40
0.5
 40
0.5
 40
1.0
 40
1.0
 40
1.0
 40
1.0
 10
145.563855635509
 20
177.2023076321925
 30
0.0
 10
145.563855635509
 20
176.6177779211685
 30
0.0
 10
145.563855635509
 20
176.0254162464971
 30
0.0
 10
145.563855635509
 20
174.823179008384
 30
0.0
 10
145.563855635509
 20
174.2214442309833
 30
0.0
 10
145.563855635509
 20
173.6189851517102
 30
0.0
  0
SPLINE
  5
61A
330
1F
100
AcDbEntity
  8
0
  6
Continuous
 62
     7
370
    50
100
AcDbSpline
210
0.0
220
0.0
230
1.0
 70
    24
 71
     3
 72
    12
 73
     8
 74
     0
 42
0.000000001
 43
0.00000001
 40
0.0
 40
0.0
 40
0.0
 40
0.0
 40
0.2499999999999999
 40
0.2499999999999999
 40
0.4999999999999998
 40
0.4999999999999998
 40
1.0
 40
1.0
 40
1.0
 40
1.0
 10
148.6671039335585
 20
178.9939688724336
 30
0.0
 10
148.4028156673828
 20
178.8413819708134
 30
0.0
 10
148.1375394422267
 20
178.6882246708099
 30
0.0
 10
147.61294907447
 20
178.3853522807713
 30
0.0
 10
147.3527419632644
 20
178.2351216350717
 30
0.0
 10
146.5775852228765
 20
177.7875846823446
 30
0.0
 10
146.068073396734
 20
177.493417892366
 30
0.0
 10
145.563855635509
 20
177.2023076321925
 30
0.0
  0
ARC
  5
61B
330
1F
100
AcDbEntity
  8
0
  6
Continuous
 62
     7
370
    50
100
AcDbCircle
 10
154.0638949737
 20
172.2948076322
 30
0.0
 40
8.602564434701788
100
AcDbArc
 50
68.8546424242
 51
111.1453575758
  0
SPLINE
  5
61C
330
1F
100
AcDbEntity
  8
0
  6
Continuous
 62
     7
370
    50
100
AcDbSpline
210
0.0
220
0.0
230
1.0
 70
    24
 71
     3
 72
    12
 73
     8
 74
     0
 42
0.000000001
 43
0.00000001
 40
0.0
 40
0.0
 40
0.0
 40
0.0
 40
0.2499999999999998
 40
0.2499999999999998
 40
0.4999999999999996
 40
0.4999999999999996
 40
1.0
 40
1.0
 40
1.0
 40
1.0
 10
157.1671432717028
 20
180.3181463919514
 30
0.0
 10
156.9028550055271
 20
180.4707332935716
 30
0.0
 10
156.6375787803711
 20
180.623890593575
 30
0.0
 10
156.1129884126143
 20
180.9267629836137
 30
0.0
 10
155.8527813014087
 20
181.0769936293133
 30
0.0
 10
155.0776245610208
 20
181.5245305820404
 30
0.0
 10
154.5681127348783
 20
181.818697372019
 30
0.0
 10
154.0638949736533
 20
182.1098076321925
 30
0.0
  0
SPLINE
  5
61D
330
1F
100
AcDbEntity
  8
0
  6
Continuous
 62
     7
370
    50
100
AcDbSpline
210
0.0
220
0.0
230
1.0
 70
    24
 71
     3
 72
    10
 73
     6
 74
     0
 42
0.000000001
 43
0.00000001
 40
0.0
 40
0.0
 40
0.0
 40
0.0
 40
0.5
 40
0.5
 40
1.0
 40
1.0
 40
1.0
 40
1.0
 10
154.0638949736533
 20
182.1098076321925
 30
0.0
 10
153.5554073338326
 20
181.8162321564624
 30
0.0
 10
153.0381935918338
 20
181.5176186632908
 30
0.0
 10
152.0024197626347
 20
180.9196143641832
 30
0.0
 10
151.4826553317918
 20
180.6195282301208
 30
0.0
 10
150.9606466756038
 20
180.3181463919514
 30
0.0
  0
ARC
  5
61E
330
1F
100
AcDbEntity
  8
0
  6
Continuous
 62
     7
370
    50
100
AcDbCircle
 10
154.0638949737
 20
172.2948076322
 30
0.0
 40
8.602564434701788
100
AcDbArc
 50
308.8546424242
 51
351.1453575758
  0
SPLINE
  5
61F
330
1F
100
AcDbEntity
  8
0
  6
Continuous
 62
     7
370
    50
100
AcDbSpline
210
0.0
220
0.0
230
1.0
 70
    24
 71
     3
 72
    10
 73
     6
 74
     0
 42
0.000000001
 43
0.00000001
 40
0.0
 40
0.0
 40
0.0
 40
0.0
 40
0.5
 40
0.5
 40
1.0
 40
1.0
 40
1.0
 40
1.0
 10
162.5639343117976
 20
167.3873076321925
 30
0.0
 10
162.5639343117976
 20
167.9718373432165
 30
0.0
 10
162.5639343117976
 20
168.5641990178879
 30
0.0
 10
162.5639343117976
 20
169.766436256001
 30
0.0
 10
162.5639343117976
 20
170.3681710334016
 30
0.0
 10
162.5639343117976
 20
170.9706301126748
 30
0.0
  0
SPLINE
  5
620
330
1F
100
AcDbEntity
  8
0
  6
Continuous
 62
     7
370
    50
100
AcDbSpline
210
0.0
220
0.0
230
1.0
 70
    24
 71
     3
 72
    12
 73
     8
 74
     0
 42
0.000000001
 43
0.00000001
 40
0.0
 40
0.0
 40
0.0
 40
0.0
 40
0.2499999999999998
 40
0.2499999999999998
 40
0.4999999999999996
 40
0.4999999999999996
 40
1.0
 40
1.0
 40
1.0
 40
1.0
 10
159.460686013748
 20
165.5956463919513
 30
0.0
 10
159.7249742799237
 20
165.7482332935715
 30
0.0
 10
159.9902505050798
 20
165.901390593575
 30
0.0
 10
160.5148408728365
 20
166.2042629836136
 30
0.0
 10
160.7750479840421
 20
166.3544936293132
 30
0.0
 10
161.55020472443
 20
166.8020305820403
 30
0.0
 10
162.0597165505725
 20
167.096197372019
 30
0.0
 10
162.5639343117976
 20
167.3873076321925
 30
0.0
  0
ARC
  5
621
330
1F
100
AcDbEntity
  8
0
  6
Continuous
 62
     7
370
    50
100
AcDbCircle
 10
154.0638949737
 20
172.2948076322
 30
0.0
 40
8.602564434701813
100
AcDbArc
 50
248.8546424242
 51
291.1453575758
  0
SPLINE
  5
622
330
1F
100
AcDbEntity
  8
0
  6
Continuous
 62
     7
370
    50
100
AcDbSpline
210
0.0
220
0.0
230
1.0
 70
    24
 71
     3
 72
    10
 73
     6
 74
     0
 42
0.000000001
 43
0.00000001
 40
0.0
 40
0.0
 40
0.0
 40
0.0
 40
0.5
 40
0.5
 40
1.0
 40
1.0
 40
1.0
 40
1.0
 10
154.0638949736533
 20
162.4798076321925
 30
0.0
 10
154.572382613474
 20
162.7733831079225
 30
0.0
 10
155.0895963554728
 20
163.0719966010942
 30
0.0
 10
156.125370184672
 20
163.6700009002019
 30
0.0
 10
156.6451346155149
 20
163.9700870342642
 30
0.0
 10
157.1671432717029
 20
164.2714688724336
 30
0.0
  0
SPLINE
  5
623
330
1F
100
AcDbEntity
  8
0
  6
Continuous
 62
     7
370
    50
100
AcDbSpline
210
0.0
220
0.0
230
1.0
 70
    24
 71
     3
 72
    12
 73
     8
 74
     0
 42
0.000000001
 43
0.00000001
 40
0.0
 40
0.0
 40
0.0
 40
0.0
 40
0.2500000000000001
 40
0.2500000000000001
 40
0.5000000000000001
 40
0.5000000000000001
 40
1.0
 40
1.0
 40
1.0
 40
1.0
 10
150.9606466756037
 20
164.2714688724336
 30
0.0
 10
151.2249349417794
 20
164.1188819708134
 30
0.0
 10
151.4902111669355
 20
163.96572467081
 30
0.0
 10
152.0148015346923
 20
163.6628522807713
 30
0.0
 10
152.2750086458979
 20
163.5126216350717
 30
0.0
 10
153.0501653862858
 20
163.0650846823446
 30
0.0
 10
153.5596772124283
 20
162.7709178923659
 30
0.0
 10
154.0638949736533
 20
162.4798076321925
 30
0.0
  0
ARC
  5
624
330
1F
100
AcDbEntity
  8
0
  6
Continuous
 62
     7
370
    50
100
AcDbCircle
 10
154.0638949737
 20
172.2948076322
 30
0.0
 40
8.602564434701815
100
AcDbArc
 50
8.8546424242
 51
51.1453575758
  0
SPLINE
  5
625
330
1F
100
AcDbEntity
  8
0
  6
Continuous
 62
     7
370
    50
100
AcDbSpline
210
0.0
220
0.0
230
1.0
 70
    24
 71
     3
 72
    10
 73
     6
 74
     0
 42
0.000000001
 43
0.00000001
 40
0.0
 40
0.0
 40
0.0
 40
0.0
 40
0.5
 40
0.5
 40
1.0
 40
1.0
 40
1.0
 40
1.0
 10
162.5639343117976
 20
173.6189851517102
 30
0.0
 10
162.5639343117976
 20
174.2234852537958
 30
0.0
 10
162.5639343117976
 20
174.832245417688
 30
0.0
 10
162.5639343117976
 20
176.0303393084795
 30
0.0
 10
162.5639343117976
 20
176.6197863064745
 30
0.0
 10
162.5639343117976
 20
177.2023076321925
 30
0.0
  0
SPLINE
  5
626
330
1F
100
AcDbEntity
  8
0
  6
Continuous
 62
     7
370
    50
100
AcDbSpline
210
0.0
220
0.0
230
1.0
 70
    24
 71
     3
 72
    10
 73
     6
 74
     0
 42
0.000000001
 43
0.00000001
 40
0.0
 40
0.0
 40
0.0
 40
0.0
 40
0.5
 40
0.5
 40
1.0
 40
1.0
 40
1.0
 40
1.0
 10
162.5639343117976
 20
177.2023076321925
 30
0.0
 10
162.0554466719769
 20
177.4958831079226
 30
0.0
 10
161.5382329299781
 20
177.7944966010942
 30
0.0
 10
160.502459100779
 20
178.3925009002018
 30
0.0
 10
159.9826946699361
 20
178.6925870342642
 30
0.0
 10
159.460686013748
 20
178.9939688724336
 30
0.0
  0
ARC
  5
627
330
1F
100
AcDbEntity
  8
0
  6
Continuous
 62
     7
370
    50
100
AcDbCircle
 10
154.0638949737
 20
172.2948076322
 30
0.0
 40
8.602564434701812
100
AcDbArc
 50
188.8546424242
 51
231.1453575758
  0
SPLINE
  5
628
330
1F
100
AcDbEntity
  8
0
  6
Continuous
 62
     7
370
    50
100
AcDbSpline
210
0.0
220
0.0
230
1.0
 70
    24
 71
     3
 72
    10
 73
     6
 74
     0
 42
0.000000001
 43
0.00000001
 40
0.0
 40
0.0
 40
0.0
 40
0.0
 40
0.5
 40
0.5
 40
1.0
 40
1.0
 40
1.0
 40
1.0
 10
145.563855635509
 20
170.9706301126748
 30
0.0
 10
145.563855635509
 20
170.3661300105892
 30
0.0
 10
145.563855635509
 20
169.757369846697
 30
0.0
 10
145.563855635509
 20
168.5592759559055
 30
0.0
 10
145.563855635509
 20
167.9698289579105
 30
0.0
 10
145.563855635509
 20
167.3873076321925
 30
0.0
  0
SPLINE
  5
629
330
1F
100
AcDbEntity
  8
0
  6
Continuous
 62
     7
370
    50
100
AcDbSpline
210
0.0
220
0.0
230
1.0
 70
    24
 71
     3
 72
    10
 73
     6
 74
     0
 42
0.000000001
 43
0.00000001
 40
0.0
 40
0.0
 40
0.0
 40
0.0
 40
0.5
 40
0.5
 40
1.0
 40
1.0
 40
1.0
 40
1.0
 10
145.563855635509
 20
167.3873076321925
 30
0.0
 10
146.0723432753298
 20
167.0937321564624
 30
0.0
 10
146.5895570173286
 20
166.7951186632908
 30
0.0
 10
147.6253308465277
 20
166.1971143641831
 30
0.0
 10
148.1450952773707
 20
165.8970282301207
 30
0.0
 10
148.6671039335586
 20
165.5956463919512
 30
0.0
  0
CIRCLE
  5
62A
330
1F
100
AcDbEntity
  8
0
  6
Continuous
 62
     7
370
    50
100
AcDbCircle
 10
154.0638949737
 20
172.2948076322
 30
0.0
 40
6.0
  0
LINE
  5
62B
330
1F
100
AcDbEntity
  8
0
  6
Continuous
 62
     7
370
    50
100
AcDbLine
 10
145.5638553962
 20
173.618985119
 30
0.0
 11
145.5638553962
 21
170.9706301454
 31
0.0
  0
LINE
  5
62C
330
1F
100
AcDbEntity
  8
0
  6
Continuous
 62
     7
370
    50
100
AcDbLine
 10
162.5639345511
 20
170.9706301454
 30
0.0
 11
162.5639345511
 21
173.618985119
 31
0.0
  0
LINE
  5
62D
330
1F
100
AcDbEntity
  8
0
  6
Continuous
 62
     7
370
    50
100
AcDbLine
 10
157.167143283
 20
164.2714692398
 30
0.0
 11
159.4606862418
 21
165.5956464938
 31
0.0
  0
LINE
  5
62E
330
1F
100
AcDbEntity
  8
0
  6
Continuous
 62
     7
370
    50
100
AcDbLine
 10
148.6671037055
 20
165.5956464938
 30
0.0
 11
150.9606466643
 21
164.2714692398
 31
0.0
  0
LINE
  5
62F
330
1F
100
AcDbEntity
  8
0
  6
Continuous
 62
     7
370
    50
100
AcDbLine
 10
159.4606862418
 20
178.9939687706
 30
0.0
 11
157.167143283
 21
180.3181460246
 31
0.0
  0
LINE
  5
630
330
1F
100
AcDbEntity
  8
0
  6
Continuous
 62
     7
370
    50
100
AcDbLine
 10
150.9606466643
 20
180.3181460246
 30
0.0
 11
148.6671037055
 21
178.9939687706
 31
0.0
  0
CIRCLE
  5
631
330
1F
100
AcDbEntity
  8
0
  6
Continuous
 62
     7
370
    50
100
AcDbCircle
 10
154.0638949737
 20
172.2948076322
 30
0.0
 40
5.5
  0
DIMENSION
  5
632
330
1F
100
AcDbEntity
  8
0
  6
Continuous
 62
     7
370
    18
100
AcDbDimension
  2
_D
 10
181.9901351908
 20
162.4798076322
 30
0.0
 11
181.9901351908
 21
171.8254744888
 31
0.0
 70
   160
  1
(<>)
 71
     2
 42
-1.0
  3
SLDDIMSTYLE0
100
AcDbAlignedDimension
 13
154.0638949737
 23
182.1098076322
 33
0.0
 14
154.0638949737
 24
162.4798076322
 34
0.0
 50
90.0
100
AcDbRotatedDimension
  0
DIMENSION
  5
645
330
1F
100
AcDbEntity
  8
0
  6
Continuous
 62
     7
370
    18
100
AcDbDimension
  2
_D_1
 10
162.5639343118
 20
196.889071466
 30
0.0
 11
153.5193836125
 21
196.889071466
 31
0.0
 70
   160
  1
<>
 71
     2
 42
-1.0
  3
SLDDIMSTYLE0
100
AcDbAlignedDimension
 13
145.5638556355
 23
177.2023076322
 33
0.0
 14
162.5639343118
 24
170.9706301127
 34
0.0
 50
0.0
100
AcDbRotatedDimension
  0
INSERT
  5
657
330
1F
100
AcDbEntity
  8
0
  6
Continuous
 62
     7
370
     0
100
AcDbBlockReference
  2
SW_NOTE_15
 10
159.2920277296
 20
150.0586944773
 30
0.0
  0
LEADER
  5
659
330
1F
100
AcDbEntity
  8
0
  6
Continuous
 62
     7
370
     0
100
AcDbLeader
  3
SLDDIMSTYLE1
 76
     2
 10
154.8156216564
 20
166.8464219085
 30
0.0
 10
159.2920277296
 20
150.0586944773
 30
0.0
  0
INSERT
  5
665
330
1F
100
AcDbEntity
  8
0
  6
Continuous
 62
     7
370
    18
100
AcDbBlockReference
  2
SW_CENTERMARKSYMBOL_0
 10
154.0638949737
 20
172.2948076322
 30
0.0
  0
INSERT
  5
66C
330
1F
100
AcDbEntity
  8
0
  6
Continuous
 62
     7
370
     0
100
AcDbBlockReference
  2
SW_SFSYMBOL_2
 10
141.9258348022
 20
188.9451356881
 30
0.0
  0
INSERT
  5
673
330
1F
100
AcDbEntity
  8
0
  6
Continuous
 62
     7
370
     0
100
AcDbBlockReference
  2
SW_SFSYMBOL_3
 10
166.2019551451
 20
189.4509424361
 30
0.0
  0
CIRCLE
  5
674
330
1F
100
AcDbEntity
  8
0
  6
Continuous
 62
     7
370
    18
100
AcDbCircle
 10
154.0638949737
 20
172.2948076322
 30
0.0
 40
6.000000052154064
  0
LINE
  5
675
330
1F
100
AcDbEntity
  8
0
  6
Continuous
 62
     7
370
    50
100
AcDbLine
 10
42.0421153333
 20
178.2948076843
 30
0.0
 11
41.0421152858
 21
177.2948075204
 31
0.0
  0
LINE
  5
676
330
1F
100
AcDbEntity
  8
0
  6
Continuous
 62
     7
370
    50
100
AcDbLine
 10
41.0421152858
 20
167.294807744
 30
0.0
 11
42.0421153333
 21
166.29480758
 31
0.0
  0
LINE
  5
677
330
1F
100
AcDbEntity
  8
0
  6
Continuous
 62
     7
370
    50
100
AcDbLine
 10
42.0421153333
 20
166.29480758
 30
0.0
 11
60.0421146748
 21
166.29480758
 31
0.0
  0
LINE
  5
678
330
1F
100
AcDbEntity
  8
0
  6
Continuous
 62
     7
370
    50
100
AcDbLine
 10
60.0421146748
 20
178.2948076843
 30
0.0
 11
42.0421153333
 21
178.2948076843
 31
0.0
  0
LINE
  5
679
330
1F
100
AcDbEntity
  8
0
  6
Continuous
 62
     7
370
    50
100
AcDbLine
 10
61.0421148388
 20
177.7948076024
 30
0.0
 11
60.0421146748
 21
177.7948076024
 31
0.0
  0
LINE
  5
67A
330
1F
100
AcDbEntity
  8
0
  6
Continuous
 62
     7
370
    50
100
AcDbLine
 10
60.0421146748
 20
166.794807662
 30
0.0
 11
61.0421148388
 21
166.794807662
 31
0.0
  0
LINE
  5
67B
330
1F
100
AcDbEntity
  8
0
  6
Continuous
 62
     7
370
    50
100
AcDbLine
 10
61.0421148388
 20
163.6922434091
 30
0.0
 11
61.7421155123
 21
162.4798076346
 31
0.0
  0
LINE
  5
67C
330
1F
100
AcDbEntity
  8
0
  6
Continuous
 62
     7
370
    50
100
AcDbLine
 10
61.7421155123
 20
182.1098076298
 30
0.0
 11
61.0421148388
 21
180.8973718553
 31
0.0
  0
LINE
  5
67D
330
1F
100
AcDbEntity
  8
0
  6
Continuous
 62
     7
370
    50
100
AcDbLine
 10
105.3421159534
 20
162.4798076346
 30
0.0
 11
106.0421129016
 21
163.6922434091
 31
0.0
  0
LINE
  5
67E
330
1F
100
AcDbEntity
  8
0
  6
Continuous
 62
     7
370
    50
100
AcDbLine
 10
106.0421129016
 20
180.8973718553
 30
0.0
 11
105.3421159534
 21
182.1098076298
 31
0.0
  0
SPLINE
  5
67F
330
1F
100
AcDbEntity
  8
0
  6
Continuous
 62
     7
370
    50
100
AcDbSpline
210
0.0
220
0.0
230
1.0
 70
     8
 71
     3
 72
    10
 73
     6
 74
     0
 42
0.000000001
 43
0.00000001
 40
0.0
 40
0.0
 40
0.0
 40
0.0
 40
0.5
 40
0.5
 40
1.0
 40
1.0
 40
1.0
 40
1.0
 10
105.3421152857867
 20
182.1098076321925
 30
0.0
 10
105.5116111657269
 20
181.8162321564624
 30
0.0
 10
105.6609961453579
 20
181.5176186632908
 30
0.0
 10
105.8992763932188
 20
180.9196143641832
 30
0.0
 10
105.9885473733527
 20
180.6195282301208
 30
0.0
 10
106.0421152857866
 20
180.3181463919514
 30
0.0
  0
LINE
  5
680
330
1F
100
AcDbEntity
  8
0
  6
Continuous
 62
     7
370
    50
100
AcDbLine
 10
106.0421129016
 20
180.3181460246
 30
0.0
 11
106.0421129016
 21
178.9939687706
 31
0.0
  0
SPLINE
  5
681
330
1F
100
AcDbEntity
  8
0
  6
Continuous
 62
     7
370
    50
100
AcDbSpline
210
0.0
220
0.0
230
1.0
 70
     8
 71
     3
 72
    12
 73
     8
 74
     0
 42
0.000000001
 43
0.00000001
 40
0.0
 40
0.0
 40
0.0
 40
0.0
 40
0.2499999999999999
 40
0.2499999999999999
 40
0.4999999999999998
 40
0.4999999999999998
 40
1.0
 40
1.0
 40
1.0
 40
1.0
 10
106.0421152857866
 20
178.9939688724336
 30
0.0
 10
106.0149943357181
 20
178.8413819708134
 30
0.0
 10
105.9785103345168
 20
178.6882246708099
 30
0.0
 10
105.8894444487043
 20
178.3853522807713
 30
0.0
 10
105.8368137823371
 20
178.2351216350717
 30
0.0
 10
105.6577296258116
 20
177.7875846823446
 30
0.0
 10
105.5101878728617
 20
177.493417892366
 30
0.0
 10
105.3421152857867
 20
177.2023076321925
 30
0.0
  0
LINE
  5
682
330
1F
100
AcDbEntity
  8
0
  6
Continuous
 62
     7
370
    50
100
AcDbLine
 10
61.7421155123
 20
177.202307631
 30
0.0
 11
105.3421159534
 21
177.202307631
 31
0.0
  0
SPLINE
  5
683
330
1F
100
AcDbEntity
  8
0
  6
Continuous
 62
     7
370
    50
100
AcDbSpline
210
0.0
220
0.0
230
1.0
 70
     8
 71
     3
 72
    10
 73
     6
 74
     0
 42
0.000000001
 43
0.00000001
 40
0.0
 40
0.0
 40
0.0
 40
0.0
 40
0.5
 40
0.5
 40
1.0
 40
1.0
 40
1.0
 40
1.0
 10
61.74211528578662
 20
177.2023076321925
 30
0.0
 10
61.57261940584639
 20
177.4958831079226
 30
0.0
 10
61.42323442621537
 20
177.7944966010942
 30
0.0
 10
61.18495417835445
 20
178.3925009002019
 30
0.0
 10
61.09568319822053
 20
178.6925870342642
 30
0.0
 10
61.04211528578664
 20
178.9939688724337
 30
0.0
  0
LINE
  5
684
330
1F
100
AcDbEntity
  8
0
  6
Continuous
 62
     7
370
    50
100
AcDbLine
 10
61.0421148388
 20
178.9939687706
 30
0.0
 11
61.0421148388
 21
180.3181460246
 31
0.0
  0
SPLINE
  5
685
330
1F
100
AcDbEntity
  8
0
  6
Continuous
 62
     7
370
    50
100
AcDbSpline
210
0.0
220
0.0
230
1.0
 70
     8
 71
     3
 72
    12
 73
     8
 74
     0
 42
0.000000001
 43
0.00000001
 40
0.0
 40
0.0
 40
0.0
 40
0.0
 40
0.2500000000000003
 40
0.2500000000000003
 40
0.5000000000000006
 40
0.5000000000000006
 40
1.0
 40
1.0
 40
1.0
 40
1.0
 10
61.04211528578664
 20
180.3181463919514
 30
0.0
 10
61.06923623585516
 20
180.4707332935716
 30
0.0
 10
61.10572023705646
 20
180.623890593575
 30
0.0
 10
61.19478612286897
 20
180.9267629836137
 30
0.0
 10
61.24741678923618
 20
181.0769936293133
 30
0.0
 10
61.4265009457617
 20
181.5245305820404
 30
0.0
 10
61.57404269871159
 20
181.818697372019
 30
0.0
 10
61.74211528578659
 20
182.1098076321925
 30
0.0
  0
LINE
  5
686
330
1F
100
AcDbEntity
  8
0
  6
Continuous
 62
     7
370
    50
100
AcDbLine
 10
61.7421155123
 20
182.1098076298
 30
0.0
 11
105.3421159534
 21
182.1098076298
 31
0.0
  0
SPLINE
  5
687
330
1F
100
AcDbEntity
  8
0
  6
Continuous
 62
     7
370
    50
100
AcDbSpline
210
0.0
220
0.0
230
1.0
 70
     8
 71
     3
 72
    10
 73
     6
 74
     0
 42
0.000000001
 43
0.00000001
 40
0.0
 40
0.0
 40
0.0
 40
0.0
 40
0.5
 40
0.5
 40
1.0
 40
1.0
 40
1.0
 40
1.0
 10
61.04211528578664
 20
173.6189851517101
 30
0.0
 10
61.0958375152539
 20
174.2234852537957
 30
0.0
 10
61.18663255209727
 20
174.8322454176879
 30
0.0
 10
61.42609257724335
 20
176.0303393084795
 30
0.0
 10
61.57395586368056
 20
176.6197863064744
 30
0.0
 10
61.74211528578657
 20
177.2023076321925
 30
0.0
  0
LINE
  5
688
330
1F
100
AcDbEntity
  8
0
  6
Continuous
 62
     7
370
    50
100
AcDbLine
 10
61.0421148388
 20
173.618985119
 30
0.0
 11
61.0421148388
 21
178.9939687706
 31
0.0
  0
SPLINE
  5
689
330
1F
100
AcDbEntity
  8
0
  6
Continuous
 62
     7
370
    50
100
AcDbSpline
210
0.0
220
0.0
230
1.0
 70
     8
 71
     3
 72
    10
 73
     6
 74
     0
 42
0.000000001
 43
0.00000001
 40
0.0
 40
0.0
 40
0.0
 40
0.0
 40
0.5
 40
0.5
 40
1.0
 40
1.0
 40
1.0
 40
1.0
 10
105.3421152857867
 20
177.2023076321925
 30
0.0
 10
105.5108544787912
 20
176.6177779211685
 30
0.0
 10
105.6593565024324
 20
176.0254162464971
 30
0.0
 10
105.8991728071099
 20
174.823179008384
 30
0.0
 10
105.9885744430479
 20
174.2214442309833
 30
0.0
 10
106.0421152857866
 20
173.6189851517102
 30
0.0
  0
LINE
  5
68A
330
1F
100
AcDbEntity
  8
0
  6
Continuous
 62
     7
370
    50
100
AcDbLine
 10
106.0421129016
 20
173.618985119
 30
0.0
 11
106.0421129016
 21
170.9706301454
 31
0.0
  0
SPLINE
  5
68B
330
1F
100
AcDbEntity
  8
0
  6
Continuous
 62
     7
370
    50
100
AcDbSpline
210
0.0
220
0.0
230
1.0
 70
     8
 71
     3
 72
    10
 73
     6
 74
     0
 42
0.000000001
 43
0.00000001
 40
0.0
 40
0.0
 40
0.0
 40
0.0
 40
0.5
 40
0.5
 40
1.0
 40
1.0
 40
1.0
 40
1.0
 10
106.0421152857866
 20
170.9706301126748
 30
0.0
 10
105.9883930563194
 20
170.3661300105892
 30
0.0
 10
105.897598019476
 20
169.757369846697
 30
0.0
 10
105.6581379943299
 20
168.5592759559055
 30
0.0
 10
105.5102747078927
 20
167.9698289579105
 30
0.0
 10
105.3421152857867
 20
167.3873076321925
 30
0.0
  0
LINE
  5
68C
330
1F
100
AcDbEntity
  8
0
  6
Continuous
 62
     7
370
    50
100
AcDbLine
 10
61.7421155123
 20
167.3873076334
 30
0.0
 11
105.3421159534
 21
167.3873076334
 31
0.0
  0
SPLINE
  5
68D
330
1F
100
AcDbEntity
  8
0
  6
Continuous
 62
     7
370
    50
100
AcDbSpline
210
0.0
220
0.0
230
1.0
 70
     8
 71
     3
 72
    10
 73
     6
 74
     0
 42
0.000000001
 43
0.00000001
 40
0.0
 40
0.0
 40
0.0
 40
0.0
 40
0.5
 40
0.5
 40
1.0
 40
1.0
 40
1.0
 40
1.0
 10
61.74211528578662
 20
167.3873076321925
 30
0.0
 10
61.57337609278208
 20
167.9718373432165
 30
0.0
 10
61.42487406914091
 20
168.5641990178879
 30
0.0
 10
61.18505776446333
 20
169.7664362560011
 30
0.0
 10
61.09565612852543
 20
170.3681710334017
 30
0.0
 10
61.04211528578664
 20
170.9706301126749
 30
0.0
  0
LINE
  5
68E
330
1F
100
AcDbEntity
  8
0
  6
Continuous
 62
     7
370
    50
100
AcDbLine
 10
61.0421148388
 20
170.9706301454
 30
0.0
 11
61.0421148388
 21
173.618985119
 31
0.0
  0
SPLINE
  5
68F
330
1F
100
AcDbEntity
  8
0
  6
Continuous
 62
     7
370
    50
100
AcDbSpline
210
0.0
220
0.0
230
1.0
 70
     8
 71
     3
 72
    12
 73
     8
 74
     0
 42
0.000000001
 43
0.00000001
 40
0.0
 40
0.0
 40
0.0
 40
0.0
 40
0.2499999999999997
 40
0.2499999999999997
 40
0.4999999999999993
 40
0.4999999999999993
 40
1.0
 40
1.0
 40
1.0
 40
1.0
 10
61.04211528578664
 20
165.5956463919512
 30
0.0
 10
61.06923623585515
 20
165.7482332935715
 30
0.0
 10
61.10572023705645
 20
165.9013905935749
 30
0.0
 10
61.19478612286895
 20
166.2042629836136
 30
0.0
 10
61.24741678923618
 20
166.3544936293132
 30
0.0
 10
61.4265009457617
 20
166.8020305820403
 30
0.0
 10
61.57404269871159
 20
167.096197372019
 30
0.0
 10
61.74211528578659
 20
167.3873076321925
 30
0.0
  0
LINE
  5
690
330
1F
100
AcDbEntity
  8
0
  6
Continuous
 62
     7
370
    50
100
AcDbLine
 10
61.0421148388
 20
165.5956464938
 30
0.0
 11
61.0421148388
 21
170.9706301454
 31
0.0
  0
SPLINE
  5
691
330
1F
100
AcDbEntity
  8
0
  6
Continuous
 62
     7
370
    50
100
AcDbSpline
210
0.0
220
0.0
230
1.0
 70
     8
 71
     3
 72
    10
 73
     6
 74
     0
 42
0.000000001
 43
0.00000001
 40
0.0
 40
0.0
 40
0.0
 40
0.0
 40
0.5
 40
0.5
 40
1.0
 40
1.0
 40
1.0
 40
1.0
 10
105.3421152857866
 20
167.3873076321925
 30
0.0
 10
105.5116111657269
 20
167.0937321564624
 30
0.0
 10
105.6609961453579
 20
166.7951186632908
 30
0.0
 10
105.8992763932188
 20
166.1971143641831
 30
0.0
 10
105.9885473733527
 20
165.8970282301207
 30
0.0
 10
106.0421152857866
 20
165.5956463919512
 30
0.0
  0
LINE
  5
692
330
1F
100
AcDbEntity
  8
0
  6
Continuous
 62
     7
370
    50
100
AcDbLine
 10
106.0421129016
 20
165.5956464938
 30
0.0
 11
106.0421129016
 21
164.2714692398
 31
0.0
  0
SPLINE
  5
693
330
1F
100
AcDbEntity
  8
0
  6
Continuous
 62
     7
370
    50
100
AcDbSpline
210
0.0
220
0.0
230
1.0
 70
     8
 71
     3
 72
    12
 73
     8
 74
     0
 42
0.000000001
 43
0.00000001
 40
0.0
 40
0.0
 40
0.0
 40
0.0
 40
0.2500000000000001
 40
0.2500000000000001
 40
0.5000000000000001
 40
0.5000000000000001
 40
1.0
 40
1.0
 40
1.0
 40
1.0
 10
106.0421152857866
 20
164.2714688724336
 30
0.0
 10
106.0149943357181
 20
164.1188819708134
 30
0.0
 10
105.9785103345168
 20
163.96572467081
 30
0.0
 10
105.8894444487043
 20
163.6628522807713
 30
0.0
 10
105.8368137823371
 20
163.5126216350717
 30
0.0
 10
105.6577296258116
 20
163.0650846823446
 30
0.0
 10
105.5101878728617
 20
162.7709178923659
 30
0.0
 10
105.3421152857867
 20
162.4798076321925
 30
0.0
  0
LINE
  5
694
330
1F
100
AcDbEntity
  8
0
  6
Continuous
 62
     7
370
    50
100
AcDbLine
 10
61.7421155123
 20
162.4798076346
 30
0.0
 11
105.3421159534
 21
162.4798076346
 31
0.0
  0
SPLINE
  5
695
330
1F
100
AcDbEntity
  8
0
  6
Continuous
 62
     7
370
    50
100
AcDbSpline
210
0.0
220
0.0
230
1.0
 70
     8
 71
     3
 72
    10
 73
     6
 74
     0
 42
0.000000001
 43
0.00000001
 40
0.0
 40
0.0
 40
0.0
 40
0.0
 40
0.5
 40
0.5
 40
1.0
 40
1.0
 40
1.0
 40
1.0
 10
61.74211528578663
 20
162.4798076321925
 30
0.0
 10
61.57261940584639
 20
162.7733831079226
 30
0.0
 10
61.42323442621537
 20
163.0719966010942
 30
0.0
 10
61.18495417835443
 20
163.6700009002019
 30
0.0
 10
61.09568319822054
 20
163.9700870342643
 30
0.0
 10
61.04211528578664
 20
164.2714688724337
 30
0.0
  0
LINE
  5
696
330
1F
100
AcDbEntity
  8
0
  6
Continuous
 62
     7
370
    50
100
AcDbLine
 10
61.0421148388
 20
164.2714692398
 30
0.0
 11
61.0421148388
 21
165.5956464938
 31
0.0
  0
LINE
  5
697
330
1F
100
AcDbEntity
  8
0
  6
Continuous
 62
     7
370
    50
100
AcDbLine
 10
106.0421129016
 20
178.9939687706
 30
0.0
 11
106.0421129016
 21
173.618985119
 31
0.0
  0
LINE
  5
698
330
1F
100
AcDbEntity
  8
0
  6
Continuous
 62
     7
370
    50
100
AcDbLine
 10
106.0421129016
 20
170.9706301454
 30
0.0
 11
106.0421129016
 21
165.5956464938
 31
0.0
  0
LINE
  5
699
330
1F
100
AcDbEntity
  8
0
  6
Continuous
 62
     7
370
    50
100
AcDbLine
 10
42.0421153333
 20
178.2948076843
 30
0.0
 11
42.0421153333
 21
166.29480758
 31
0.0
  0
LINE
  5
69A
330
1F
100
AcDbEntity
  8
0
  6
Continuous
 62
     7
370
    50
100
AcDbLine
 10
41.0421152858
 20
167.294807744
 30
0.0
 11
41.0421152858
 21
177.2948075204
 31
0.0
  0
LINE
  5
69B
330
1F
100
AcDbEntity
  8
0
  6
Continuous
 62
     7
370
    50
100
AcDbLine
 10
60.0421146748
 20
166.29480758
 30
0.0
 11
60.0421146748
 21
178.2948076843
 31
0.0
  0
LINE
  5
69C
330
1F
100
AcDbEntity
  8
0
  6
Continuous
 62
     7
370
    50
100
AcDbLine
 10
61.0421148388
 20
163.6922434091
 30
0.0
 11
61.0421148388
 21
164.2714692398
 31
0.0
  0
LINE
  5
69D
330
1F
100
AcDbEntity
  8
0
  6
Continuous
 62
     7
370
    50
100
AcDbLine
 10
61.0421148388
 20
180.3181460246
 30
0.0
 11
61.0421148388
 21
180.8973718553
 31
0.0
  0
LINE
  5
69E
330
1F
100
AcDbEntity
  8
0
  6
Continuous
 62
     7
370
    50
100
AcDbLine
 10
106.0421129016
 20
164.2714692398
 30
0.0
 11
106.0421129016
 21
163.6922434091
 31
0.0
  0
LINE
  5
69F
330
1F
100
AcDbEntity
  8
0
  6
Continuous
 62
     7
370
    50
100
AcDbLine
 10
106.0421129016
 20
180.8973718553
 30
0.0
 11
106.0421129016
 21
180.3181460246
 31
0.0
  0
LINE
  5
6A0
330
1F
100
AcDbEntity
  8
0
  6
HIDDEN
 62
     7
370
    18
100
AcDbLine
 10
105.5421118883
 20
177.7948076024
 30
0.0
 11
105.5421118883
 21
166.794807662
 31
0.0
  0
LINE
  5
6A1
330
1F
100
AcDbEntity
  8
0
  6
HIDDEN
 62
     7
370
    18
100
AcDbLine
 10
66.0421156583
 20
177.7948076024
 30
0.0
 11
66.0421156583
 21
166.794807662
 31
0.0
  0
LINE
  5
6A2
330
1F
100
AcDbEntity
  8
0
  6
HIDDEN
 62
     7
370
    18
100
AcDbLine
 10
106.0421129016
 20
178.2948076843
 30
0.0
 11
105.5421118883
 21
177.7948076024
 31
0.0
  0
LINE
  5
6A3
330
1F
100
AcDbEntity
  8
0
  6
HIDDEN
 62
     7
370
    18
100
AcDbLine
 10
105.5421118883
 20
166.794807662
 30
0.0
 11
106.0421129016
 21
166.29480758
 31
0.0
  0
LINE
  5
6A4
330
1F
100
AcDbEntity
  8
0
  6
HIDDEN
 62
     7
370
    18
100
AcDbLine
 10
66.0421156583
 20
177.7948076024
 30
0.0
 11
62.7373826949
 21
172.2948076322
 31
0.0
  0
LINE
  5
6A5
330
1F
100
AcDbEntity
  8
0
  6
HIDDEN
 62
     7
370
    18
100
AcDbLine
 10
62.7373826949
 20
172.2948076322
 30
0.0
 11
66.0421156583
 21
166.794807662
 31
0.0
  0
LINE
  5
6A6
330
1F
100
AcDbEntity
  8
0
  6
HIDDEN
 62
     7
370
    18
100
AcDbLine
 10
105.5421118883
 20
177.7948076024
 30
0.0
 11
66.0421156583
 21
177.7948076024
 31
0.0
  0
LINE
  5
6A7
330
1F
100
AcDbEntity
  8
0
  6
HIDDEN
 62
     7
370
    18
100
AcDbLine
 10
66.0421156583
 20
166.794807662
 30
0.0
 11
105.5421118883
 21
166.794807662
 31
0.0
  0
INSERT
  5
6B0
330
1F
100
AcDbEntity
  8
0
  6
Continuous
 62
     7
370
    18
100
AcDbBlockReference
  2
SW_CHAMFER_DIMENSION_0
 10
30.7698054834
 20
160.2558309956
 30
0.0
  0
DIMENSION
  5
6B1
330
1F
100
AcDbEntity
  8
0
  6
Continuous
 62
     7
370
    18
100
AcDbDimension
  2
_D_2
 10
89.0421152858
 20
155.8445560803
 30
0.0
 11
99.3529644678
 21
155.8445560803
 31
0.0
 70
   160
  1
<>
 71
     2
 42
-1.0
  3
SLDDIMSTYLE0
100
AcDbAlignedDimension
 13
106.0421152858
 23
163.6922431975
 33
0.0
 14
89.0421152858
 24
166.2948076322
 34
0.0
100
AcDbRotatedDimension
  0
DIMENSION
  5
6BB
330
1F
100
AcDbEntity
  8
0
  6
Continuous
 62
     7
370
    18
100
AcDbDimension
  2
_D_3
 10
106.0421152858
 20
148.2119240096
 30
0.0
 11
83.6865160026
 21
148.2119240096
 31
0.0
 70
   160
  1
<>
 71
     2
 42
-1.0
  3
SLDDIMSTYLE0
100
AcDbAlignedDimension
 13
61.0421152858
 23
164.2714688724
 33
0.0
 14
106.0421152858
 24
166.7948076322
 34
0.0
100
AcDbRotatedDimension
  0
DIMENSION
  5
6C5
330
1F
100
AcDbEntity
  8
0
  6
Continuous
 62
     7
370
    18
100
AcDbDimension
  2
_D_4
 10
41.0421152858
 20
140.4798076322
 30
0.0
 11
75.3044349338
 21
140.4798076322
 31
0.0
 70
   160
  1
<>
 71
     2
 42
-1.0
  3
SLDDIMSTYLE0
100
AcDbAlignedDimension
 13
106.0421152858
 23
163.6922431975
 33
0.0
 14
41.0421152858
 24
167.2948076322
 34
0.0
100
AcDbRotatedDimension
  0
DIMENSION
  5
6CF
330
1F
100
AcDbEntity
  8
0
  6
Continuous
 62
     7
370
    18
100
AcDbDimension
  2
_D_5
 10
61.0421152858
 20
148.2119240096
 30
0.0
 11
51.1584016597
 21
148.2119240096
 31
0.0
 70
   160
  1
(<>)
 71
     2
 42
-1.0
  3
SLDDIMSTYLE0
100
AcDbAlignedDimension
 13
41.0421152858
 23
167.2948076322
 33
0.0
 14
61.0421152858
 24
166.7948076322
 34
0.0
100
AcDbRotatedDimension
  0
DIMENSION
  5
6DB
330
1F
100
AcDbEntity
  8
0
  6
Continuous
 62
     7
370
    18
100
AcDbDimension
  2
_D_6
 10
106.0421152858
 20
178.9939688724
 30
0.0
 11
105.3921394537
 21
187.9773148219
 31
0.0
 70
   162
  1
<>
 71
     1
 42
-1.0
  3
SLDDIMSTYLE2
100
AcDb2LineAngularDimension
 13
106.0421152858
 23
180.8973720669
 33
0.0
 14
105.3421152858
 24
182.1098076322
 34
0.0
 15
106.0421152858
 25
180.318146392
 35
0.0
 16
104.2019854453
 26
187.764830124
 36
0.0
  0
DIMENSION
  5
6E8
330
1F
100
AcDbEntity
  8
0
  6
Continuous
 62
     7
370
    18
100
AcDbDimension
  2
_D_7
 10
117.3272643738
 20
163.6922431975
 30
0.0
 11
117.3272643738
 21
171.6867558803
 31
0.0
 70
   160
  1
%%c<>
 71
     2
 42
-1.0
  3
SLDDIMSTYLE0
100
AcDbAlignedDimension
 13
106.0421152858
 23
180.8973720669
 33
0.0
 14
106.0421152858
 24
163.6922431975
 34
0.0
 50
90.0
100
AcDbRotatedDimension
  0
INSERT
  5
6F8
330
1F
100
AcDbEntity
  8
0
  6
Continuous
 62
     7
370
     0
100
AcDbBlockReference
  2
SW_NOTE_16
 10
51.4021391508
 20
183.1548814586
 30
0.0
  0
LINE
  5
6F9
330
1F
100
AcDbEntity
  8
0
  6
Continuous
 62
     7
370
     0
100
AcDbLine
 10
51.4021391508
 20
183.1548814586
 30
0.0
 11
52.7528054544
 21
178.2948076322
 31
0.0
  0
INSERT
  5
6FA
330
1F
100
AcDbEntity
  8
0
  6
Continuous
 62
     7
370
     0
100
AcDbBlockReference
  2
_OPEN30
 10
52.7528054544
 20
178.2948076322
 30
0.0
 41
3.0
 42
3.0
 50
285.5311787281
  0
INSERT
  5
700
330
1F
100
AcDbEntity
  8
0
  6
Continuous
 62
     7
370
     0
100
AcDbBlockReference
  2
SW_NOTE_17
 10
55.1155408257
 20
189.2207393442
 30
0.0
  0
LEADER
  5
701
330
1F
100
AcDbEntity
  8
0
  6
Continuous
 62
     7
370
     0
100
AcDbLeader
  3
SLDDIMSTYLE1
 76
     2
 10
60.6357113788
 20
177.7948076322
 30
0.0
 10
55.1155408257
 20
189.2207393442
 30
0.0
  0
LINE
  5
702
330
1F
100
AcDbEntity
  8
0
  6
Continuous
 62
     7
370
    18
100
AcDbLine
 10
60.0421146748
 20
177.7948076024
 30
0.0
 11
41.5421153095
 21
177.7948076024
 31
0.0
  0
LINE
  5
703
330
1F
100
AcDbEntity
  8
0
  6
Continuous
 62
     7
370
    18
100
AcDbLine
 10
41.5421153095
 20
166.794807662
 30
0.0
 11
60.0421146748
 21
166.794807662
 31
0.0
  0
LINE
  5
704
330
1F
100
AcDbEntity
  8
0
  6
Continuous
 62
     7
370
    18
100
AcDbLine
 10
60.0421146748
 20
178.2948076843
 30
0.0
 11
60.0421146748
 21
178.259635356
 31
0.0
  0
LWPOLYLINE
  5
705
330
1F
100
AcDbEntity
  8
0
  6
Continuous
 62
     7
370
    18
100
AcDbPolyline
 90
       29
 70
   128
 43
0.0
 10
60.0421130657
 20
178.259635356
 10
60.0421146748
 20
178.1545309468
 10
60.0421146748
 20
177.9807265966
 10
60.0421146748
 20
177.7402600392
 10
60.0421146748
 20
177.4359508536
 10
60.0421146748
 20
177.0713660053
 10
60.0421146748
 20
176.6507807306
 10
60.0421146748
 20
176.1791254512
 10
60.0421146748
 20
175.6619301277
 10
60.0421146748
 20
175.1052583686
 10
60.0421146748
 20
174.5156366497
 10
60.0421146748
 20
173.8999777126
 10
60.0421146748
 20
173.2654995986
 10
60.0421146748
 20
172.6196410719
 10
60.0421146748
 20
171.9699741925
 10
60.0421146748
 20
171.3241156658
 10
60.0421146748
 20
170.6896375518
 10
60.0421146748
 20
170.0739786147
 10
60.0421146748
 20
169.4843568958
 10
60.0421146748
 20
168.9276851366
 10
60.0421146748
 20
168.4104898132
 10
60.0421146748
 20
167.9388345338
 10
60.0421146748
 20
167.5182492591
 10
60.0421146748
 20
167.1536644108
 10
60.0421146748
 20
166.8493552252
 10
60.0421146748
 20
166.6088886677
 10
60.0421146748
 20
166.4350843175
 10
60.0421146748
 20
166.3299799084
 10
60.0421146748
 20
166.29480758
  0
LINE
  5
706
330
1F
100
AcDbEntity
  8
0
  6
HIDDEN
 62
     7
370
    18
100
AcDbLine
 10
89.042115703
 20
166.29480758
 30
0.0
 11
106.0421129016
 21
166.29480758
 31
0.0
  0
LINE
  5
707
330
1F
100
AcDbEntity
  8
0
  6
HIDDEN
 62
     7
370
    18
100
AcDbLine
 10
106.0421129016
 20
178.2948076843
 30
0.0
 11
89.042115703
 21
178.2948076843
 31
0.0
  0
LINE
  5
708
330
1F
100
AcDbEntity
  8
0
  6
HIDDEN
 62
     7
370
    18
100
AcDbLine
 10
89.042115703
 20
166.29480758
 30
0.0
 11
89.042115703
 21
166.3299799084
 31
0.0
  0
LWPOLYLINE
  5
709
330
1F
100
AcDbEntity
  8
0
  6
HIDDEN
 62
     7
370
    18
100
AcDbPolyline
 90
       30
 70
   128
 43
0.0
 10
89.0420675278
 20
166.3299799084
 10
89.042115703
 20
166.4350843175
 10
89.042115703
 20
166.6088886677
 10
89.042115703
 20
166.8493552252
 10
89.042115703
 20
167.1536644108
 10
89.042115703
 20
167.5182492591
 10
89.042115703
 20
167.9388345338
 10
89.042115703
 20
168.4104898132
 10
89.042115703
 20
168.9276851366
 10
89.042115703
 20
169.4843568958
 10
89.042115703
 20
170.0739786147
 10
89.042115703
 20
170.6896375518
 10
89.042115703
 20
171.3241156658
 10
89.042115703
 20
171.9699741925
 10
89.042115703
 20
172.6196410719
 10
89.042115703
 20
173.2654995986
 10
89.042115703
 20
173.8999777126
 10
89.042115703
 20
174.5156366497
 10
89.042115703
 20
175.1052583686
 10
89.042115703
 20
175.6619301277
 10
89.042115703
 20
176.1791254512
 10
89.042115703
 20
176.6507807306
 10
89.042115703
 20
177.0713660053
 10
89.042115703
 20
177.4359508536
 10
89.042115703
 20
177.7402600392
 10
89.042115703
 20
177.9807265966
 10
89.042115703
 20
178.1545309468
 10
89.042115703
 20
178.259635356
 10
89.042115703
 20
178.2948076843
 10
89.042115703
 20
178.2948076843
  0
LINE
  5
70A
330
1F
100
AcDbEntity
  8
0
  6
CENTERX2
 62
     7
370
    18
100
AcDbLine
 10
39.5158031761
 20
172.2948076322
 30
0.0
 11
109.3174286501
 21
172.2948076322
 31
0.0
  0
ENDSEC
  0
SECTION
  2
OBJECTS
  0
DICTIONARY
  5
C
330
0
100
AcDbDictionary
281
     1
  3
ACAD_GROUP
350
D
  3
ACAD_LAYOUT
350
1A
  3
ACAD_MLINESTYLE
350
17
  3
ACAD_PLOTSETTINGS
350
19
  3
ACAD_PLOTSTYLENAME
350
E
  3
ACAD_SCALELIST
350
47
  0
DICTIONARY
  5
D
102
{ACAD_REACTORS
330
C
102
}
330
C
100
AcDbDictionary
281
     1
  0
DICTIONARY
  5
1A
102
{ACAD_REACTORS
330
C
102
}
330
C
100
AcDbDictionary
281
     1
  3
Layout1
350
1E
  3
Layout2
350
26
  3
Model
350
22
  0
DICTIONARY
  5
17
102
{ACAD_REACTORS
330
C
102
}
330
C
100
AcDbDictionary
281
     1
  3
Standard
350
18
  0
DICTIONARY
  5
19
102
{ACAD_REACTORS
330
C
102
}
330
C
100
AcDbDictionary
281
     1
  0
ACDBDICTIONARYWDFLT
  5
E
102
{ACAD_REACTORS
330
C
102
}
330
C
100
AcDbDictionary
281
     1
  3
Normal
350
F
100
AcDbDictionaryWithDefault
340
F
  0
DICTIONARY
  5
47
102
{ACAD_REACTORS
330
C
102
}
330
C
100
AcDbDictionary
281
     1
  3
A0
350
48
  3
A1
350
49
  3
A2
350
4A
  3
A3
350
4B
  3
A4
350
4C
  3
A5
350
4D
  3
A6
350
4E
  3
A7
350
4F
  3
A8
350
50
  3
A9
350
51
  3
B0
350
52
  3
B1
350
53
  3
B2
350
54
  3
B3
350
55
  3
B4
350
56
  3
B5
350
57
  3
B6
350
58
  3
B7
350
59
  3
B8
350
5A
  3
B9
350
5B
  3
C0
350
5C
  3
C1
350
5D
  3
C2
350
5E
  3
C3
350
5F
  3
C4
350
60
  3
C5
350
61
  3
C6
350
62
  3
C7
350
63
  3
C8
350
64
  3
C9
350
65
  3
D0
350
66
  3
D1
350
67
  3
D2
350
68
  0
LAYOUT
  5
1E
102
{ACAD_REACTORS
330
1A
102
}
330
1A
100
AcDbPlotSettings
  1

  2
none_device
  4

  6

 40
0.0
 41
0.0
 42
0.0
 43
0.0
 44
0.0
 45
0.0
 46
0.0
 47
0.0
 48
0.0
 49
0.0
140
0.0
141
0.0
142
1.0
143
1.0
 70
   688
 72
     1
 73
     0
 74
     5
  7

 75
    16
147
1.0
148
0.0
149
0.0
100
AcDbLayout
  1
Layout1
 70
     1
 71
     1
 10
0.0
 20
0.0
 11
420.0
 21
297.0
 12
0.0
 22
0.0
 32
0.0
 14
1.0000000000E+20
 24
1.0000000000E+20
 34
1.0000000000E+20
 15
-1.0000000000E+20
 25
-1.0000000000E+20
 35
-1.0000000000E+20
146
0.0
 13
0.0
 23
0.0
 33
0.0
 16
1.0
 26
0.0
 36
0.0
 17
0.0
 27
1.0
 37
0.0
 76
     0
330
1B
  0
LAYOUT
  5
26
102
{ACAD_REACTORS
330
1A
102
}
330
1A
100
AcDbPlotSettings
  1

  2
none_device
  4

  6

 40
0.0
 41
0.0
 42
0.0
 43
0.0
 44
0.0
 45
0.0
 46
0.0
 47
0.0
 48
0.0
 49
0.0
140
0.0
141
0.0
142
1.0
143
1.0
 70
   688
 72
     1
 73
     0
 74
     5
  7

 75
    16
147
1.0
148
0.0
149
0.0
100
AcDbLayout
  1
Layout2
 70
     1
 71
     2
 10
0.0
 20
0.0
 11
0.0
 21
0.0
 12
0.0
 22
0.0
 32
0.0
 14
0.0
 24
0.0
 34
0.0
 15
0.0
 25
0.0
 35
0.0
146
0.0
 13
0.0
 23
0.0
 33
0.0
 16
1.0
 26
0.0
 36
0.0
 17
0.0
 27
1.0
 37
0.0
 76
     0
330
23
  0
LAYOUT
  5
22
102
{ACAD_REACTORS
330
1A
102
}
330
1A
100
AcDbPlotSettings
  1

  2
none_device
  4
Letter_(8.50_x_11.00_Inches)
  6

 40
6.35
 41
6.35
 42
6.35000508
 43
6.35000508
 44
215.9
 45
279.4
 46
0.0
 47
0.0
 48
0.0
 49
0.0
140
0.0
141
0.0
142
1.0
143
1.0
 70
  1712
 72
     1
 73
     0
 74
     0
  7

 75
     0
147
1.0
148
0.0
149
0.0
100
AcDbLayout
  1
Model
 70
     1
 71
     0
 10
0.0
 20
0.0
 11
210.0
 21
297.0
 12
0.0
 22
0.0
 32
0.0
 14
0.0
 24
0.0
 34
0.0
 15
210.0
 25
297.0
 35
0.0
146
0.0
 13
0.0
 23
0.0
 33
0.0
 16
1.0
 26
0.0
 36
0.0
 17
0.0
 27
1.0
 37
0.0
 76
     0
330
1F
331
29
  0
MLINESTYLE
  5
18
102
{ACAD_REACTORS
330
17
102
}
330
17
100
AcDbMlineStyle
  2
Standard
 70
     0
  3

 62
   256
 51
90.0
 52
90.0
 71
     2
 49
0.5
 62
   256
  6
BYLAYER
 49
-0.5
 62
   256
  6
BYLAYER
  0
ACDBPLACEHOLDER
  5
F
102
{ACAD_REACTORS
330
E
102
}
330
E
  0
SCALE
  5
48
102
{ACAD_REACTORS
330
47
102
}
330
47
100
AcDbScale
 70
     0
300
1:1
140
1.0
141
1.0
290
     1
  0
SCALE
  5
49
102
{ACAD_REACTORS
330
47
102
}
330
47
100
AcDbScale
 70
     0
300
1:2
140
1.0
141
2.0
290
     0
  0
SCALE
  5
4A
102
{ACAD_REACTORS
330
47
102
}
330
47
100
AcDbScale
 70
     0
300
1:4
140
1.0
141
4.0
290
     0
  0
SCALE
  5
4B
102
{ACAD_REACTORS
330
47
102
}
330
47
100
AcDbScale
 70
     0
300
1:5
140
1.0
141
5.0
290
     0
  0
SCALE
  5
4C
102
{ACAD_REACTORS
330
47
102
}
330
47
100
AcDbScale
 70
     0
300
1:8
140
1.0
141
8.0
290
     0
  0
SCALE
  5
4D
102
{ACAD_REACTORS
330
47
102
}
330
47
100
AcDbScale
 70
     0
300
1:10
140
1.0
141
10.0
290
     0
  0
SCALE
  5
4E
102
{ACAD_REACTORS
330
47
102
}
330
47
100
AcDbScale
 70
     0
300
1:16
140
1.0
141
16.0
290
     0
  0
SCALE
  5
4F
102
{ACAD_REACTORS
330
47
102
}
330
47
100
AcDbScale
 70
     0
300
1:20
140
1.0
141
20.0
290
     0
  0
SCALE
  5
50
102
{ACAD_REACTORS
330
47
102
}
330
47
100
AcDbScale
 70
     0
300
1:30
140
1.0
141
30.0
290
     0
  0
SCALE
  5
51
102
{ACAD_REACTORS
330
47
102
}
330
47
100
AcDbScale
 70
     0
300
1:40
140
1.0
141
40.0
290
     0
  0
SCALE
  5
52
102
{ACAD_REACTORS
330
47
102
}
330
47
100
AcDbScale
 70
     0
300
1:50
140
1.0
141
50.0
290
     0
  0
SCALE
  5
53
102
{ACAD_REACTORS
330
47
102
}
330
47
100
AcDbScale
 70
     0
300
1:100
140
1.0
141
100.0
290
     0
  0
SCALE
  5
54
102
{ACAD_REACTORS
330
47
102
}
330
47
100
AcDbScale
 70
     0
300
2:1
140
2.0
141
1.0
290
     0
  0
SCALE
  5
55
102
{ACAD_REACTORS
330
47
102
}
330
47
100
AcDbScale
 70
     0
300
4:1
140
4.0
141
1.0
290
     0
  0
SCALE
  5
56
102
{ACAD_REACTORS
330
47
102
}
330
47
100
AcDbScale
 70
     0
300
8:1
140
8.0
141
1.0
290
     0
  0
SCALE
  5
57
102
{ACAD_REACTORS
330
47
102
}
330
47
100
AcDbScale
 70
     0
300
10:1
140
10.0
141
1.0
290
     0
  0
SCALE
  5
58
102
{ACAD_REACTORS
330
47
102
}
330
47
100
AcDbScale
 70
     0
300
100:1
140
100.0
141
1.0
290
     0
  0
SCALE
  5
59
102
{ACAD_REACTORS
330
47
102
}
330
47
100
AcDbScale
 70
     0
300
1/128" = 1'-0"
140
0.0078125
141
12.0
290
     0
  0
SCALE
  5
5A
102
{ACAD_REACTORS
330
47
102
}
330
47
100
AcDbScale
 70
     0
300
1/64" = 1'-0"
140
0.015625
141
12.0
290
     0
  0
SCALE
  5
5B
102
{ACAD_REACTORS
330
47
102
}
330
47
100
AcDbScale
 70
     0
300
1/32" = 1'-0"
140
0.03125
141
12.0
290
     0
  0
SCALE
  5
5C
102
{ACAD_REACTORS
330
47
102
}
330
47
100
AcDbScale
 70
     0
300
1/16" = 1'-0"
140
0.0625
141
12.0
290
     0
  0
SCALE
  5
5D
102
{ACAD_REACTORS
330
47
102
}
330
47
100
AcDbScale
 70
     0
300
3/32" = 1'-0"
140
0.09375
141
12.0
290
     0
  0
SCALE
  5
5E
102
{ACAD_REACTORS
330
47
102
}
330
47
100
AcDbScale
 70
     0
300
1/8" = 1'-0"
140
0.125
141
12.0
290
     0
  0
SCALE
  5
5F
102
{ACAD_REACTORS
330
47
102
}
330
47
100
AcDbScale
 70
     0
300
3/16" = 1'-0"
140
0.1875
141
12.0
290
     0
  0
SCALE
  5
60
102
{ACAD_REACTORS
330
47
102
}
330
47
100
AcDbScale
 70
     0
300
1/4" = 1'-0"
140
0.25
141
12.0
290
     0
  0
SCALE
  5
61
102
{ACAD_REACTORS
330
47
102
}
330
47
100
AcDbScale
 70
     0
300
3/8" = 1'-0"
140
0.375
141
12.0
290
     0
  0
SCALE
  5
62
102
{ACAD_REACTORS
330
47
102
}
330
47
100
AcDbScale
 70
     0
300
1/2" = 1'-0"
140
0.5
141
12.0
290
     0
  0
SCALE
  5
63
102
{ACAD_REACTORS
330
47
102
}
330
47
100
AcDbScale
 70
     0
300
3/4" = 1'-0"
140
0.75
141
12.0
290
     0
  0
SCALE
  5
64
102
{ACAD_REACTORS
330
47
102
}
330
47
100
AcDbScale
 70
     0
300
1" = 1'-0"
140
1.0
141
12.0
290
     0
  0
SCALE
  5
65
102
{ACAD_REACTORS
330
47
102
}
330
47
100
AcDbScale
 70
     0
300
1-1/2" = 1'-0"
140
1.5
141
12.0
290
     0
  0
SCALE
  5
66
102
{ACAD_REACTORS
330
47
102
}
330
47
100
AcDbScale
 70
     0
300
3" = 1'-0"
140
3.0
141
12.0
290
     0
  0
SCALE
  5
67
102
{ACAD_REACTORS
330
47
102
}
330
47
100
AcDbScale
 70
     0
300
6" = 1'-0"
140
6.0
141
12.0
290
     0
  0
SCALE
  5
68
102
{ACAD_REACTORS
330
47
102
}
330
47
100
AcDbScale
 70
     0
300
1'-0" = 1'-0"
140
12.0
141
12.0
290
     0
  0
ENDSEC
  0
EOF
