  0
SECTION
  2
HEADER
  9
$ACADVER
  1
AC1015
  9
$ACADMAINTVER
 70
     6
  9
$DWGCODEPAGE
  3
ANSI_1252
  9
$INSBASE
 10
0.0
 20
0.0
 30
0.0
  9
$EXTMIN
 10
0.0
 20
0.0
 30
0.0
  9
$EXTMAX
 10
420.0
 20
594.0
 30
0.0
  9
$LIMMIN
 10
0.0
 20
0.0
  9
$LIMMAX
 10
420.0
 20
594.0
  9
$ORTHOMODE
 70
     0
  9
$REGENMODE
 70
     1
  9
$FILLMODE
 70
     1
  9
$QTEXTMODE
 70
     0
  9
$MIRRTEXT
 70
     1
  9
$LTSCALE
 40
2.0
  9
$ATTMODE
 70
     1
  9
$TEXTSIZE
 40
7.0
  9
$TRACEWID
 40
1.0
  9
$TEXTSTYLE
  7
STANDARD
  9
$CLAYER
  8
0
  9
$CELTYPE
  6
ByLayer
  9
$CECOLOR
 62
   256
  9
$CELTSCALE
 40
1.0
  9
$DISPSILH
 70
     0
  9
$DIMSCALE
 40
1.0
  9
$DIMASZ
 40
5.6
  9
$DIMEXO
 40
2.0
  9
$DIMDLI
 40
3.75
  9
$DIMRND
 40
0.0
  9
$DIMDLE
 40
0.0
  9
$DIMEXE
 40
2.0
  9
$DIMTP
 40
0.0
  9
$DIMTM
 40
0.0
  9
$DIMTXT
 40
6.0
  9
$DIMCEN
 40
2.5
  9
$DIMTSZ
 40
0.0
  9
$DIMTOL
 70
     0
  9
$DIMLIM
 70
     0
  9
$DIMTIH
 70
     1
  9
$DIMTOH
 70
     1
  9
$DIMSE1
 70
     0
  9
$DIMSE2
 70
     0
  9
$DIMTAD
 70
     1
  9
$DIMZIN
 70
     0
  9
$DIMBLK
  1

  9
$DIMASO
 70
     1
  9
$DIMSHO
 70
     1
  9
$DIMPOST
  1

  9
$DIMAPOST
  1

  9
$DIMALT
 70
     0
  9
$DIMALTD
 70
     3
  9
$DIMALTF
 40
0.0393700787
  9
$DIMLFAC
 40
1.0
  9
$DIMTOFL
 70
     1
  9
$DIMTVP
 40
0.0
  9
$DIMTIX
 70
     0
  9
$DIMSOXD
 70
     0
  9
$DIMSAH
 70
     0
  9
$DIMBLK1
  1

  9
$DIMBLK2
  1

  9
$DIMSTYLE
  2
ISO-25
  9
$DIMCLRD
 70
     0
  9
$DIMCLRE
 70
     0
  9
$DIMCLRT
 70
     0
  9
$DIMTFAC
 40
1.0
  9
$DIMGAP
 40
3.0
  9
$DIMJUST
 70
     0
  9
$DIMSD1
 70
     0
  9
$DIMSD2
 70
     0
  9
$DIMTOLJ
 70
     0
  9
$DIMTZIN
 70
     0
  9
$DIMALTZ
 70
     0
  9
$DIMALTTZ
 70
     0
  9
$DIMUPT
 70
     0
  9
$DIMDEC
 70
     1
  9
$DIMTDEC
 70
     1
  9
$DIMALTU
 70
     2
  9
$DIMALTTD
 70
     3
  9
$DIMTXSTY
  7
STANDARD
  9
$DIMAUNIT
 70
     0
  9
$DIMADEC
 70
     1
  9
$DIMALTRND
 40
0.0
  9
$DIMAZIN
 70
     0
  9
$DIMDSEP
 70
    44
  9
$DIMATFIT
 70
     3
  9
$DIMFRAC
 70
     0
  9
$DIMLDRBLK
  1

  9
$DIMLUNIT
 70
     2
  9
$DIMLWD
 70
    -2
  9
$DIMLWE
 70
    -2
  9
$DIMTMOVE
 70
     0
  9
$LUNITS
 70
     2
  9
$LUPREC
 70
     2
  9
$SKETCHINC
 40
1.0
  9
$FILLETRAD
 40
10.0
  9
$AUNITS
 70
     0
  9
$AUPREC
 70
     2
  9
$MENU
  1
.
  9
$ELEVATION
 40
0.0
  9
$PELEVATION
 40
0.0
  9
$THICKNESS
 40
0.0
  9
$LIMCHECK
 70
     0
  9
$CHAMFERA
 40
0.0
  9
$CHAMFERB
 40
0.0
  9
$CHAMFERC
 40
0.0
  9
$CHAMFERD
 40
0.0
  9
$SKPOLY
 70
     0
  9
$TDCREATE
 40
2460033.70435059
  9
$TDUCREATE
 40
2460033.621017257
  9
$TDUPDATE
 40
2460033.70435235
  9
$TDUUPDATE
 40
2460033.621019016
  9
$TDINDWG
 40
0.0000000116
  9
$TDUSRTIMER
 40
0.0000000116
  9
$USRTIMER
 70
     1
  9
$ANGBASE
 50
0.0
  9
$ANGDIR
 70
     0
  9
$PDMODE
 70
     0
  9
$PDSIZE
 40
-1.0
  9
$PLINEWID
 40
0.0
  9
$SPLFRAME
 70
     0
  9
$SPLINETYPE
 70
     6
  9
$SPLINESEGS
 70
     8
  9
$HANDSEED
  5
676
  9
$SURFTAB1
 70
     6
  9
$SURFTAB2
 70
     6
  9
$SURFTYPE
 70
     6
  9
$SURFU
 70
     6
  9
$SURFV
 70
     6
  9
$UCSBASE
  2

  9
$UCSNAME
  2

  9
$UCSORG
 10
0.0
 20
0.0
 30
0.0
  9
$UCSXDIR
 10
1.0
 20
0.0
 30
0.0
  9
$UCSYDIR
 10
0.0
 20
1.0
 30
0.0
  9
$UCSORTHOREF
  2

  9
$UCSORTHOVIEW
 70
     0
  9
$UCSORGTOP
 10
0.0
 20
0.0
 30
0.0
  9
$UCSORGBOTTOM
 10
0.0
 20
0.0
 30
0.0
  9
$UCSORGLEFT
 10
0.0
 20
0.0
 30
0.0
  9
$UCSORGRIGHT
 10
0.0
 20
0.0
 30
0.0
  9
$UCSORGFRONT
 10
0.0
 20
0.0
 30
0.0
  9
$UCSORGBACK
 10
0.0
 20
0.0
 30
0.0
  9
$PUCSBASE
  2

  9
$PUCSNAME
  2

  9
$PUCSORG
 10
0.0
 20
0.0
 30
0.0
  9
$PUCSXDIR
 10
1.0
 20
0.0
 30
0.0
  9
$PUCSYDIR
 10
0.0
 20
1.0
 30
0.0
  9
$PUCSORTHOREF
  2

  9
$PUCSORTHOVIEW
 70
     0
  9
$PUCSORGTOP
 10
0.0
 20
0.0
 30
0.0
  9
$PUCSORGBOTTOM
 10
0.0
 20
0.0
 30
0.0
  9
$PUCSORGLEFT
 10
0.0
 20
0.0
 30
0.0
  9
$PUCSORGRIGHT
 10
0.0
 20
0.0
 30
0.0
  9
$PUCSORGFRONT
 10
0.0
 20
0.0
 30
0.0
  9
$PUCSORGBACK
 10
0.0
 20
0.0
 30
0.0
  9
$USERI1
 70
     0
  9
$USERI2
 70
     0
  9
$USERI3
 70
     0
  9
$USERI4
 70
     0
  9
$USERI5
 70
     0
  9
$USERR1
 40
0.0
  9
$USERR2
 40
0.0
  9
$USERR3
 40
0.0
  9
$USERR4
 40
0.0
  9
$USERR5
 40
0.0
  9
$WORLDVIEW
 70
     1
  9
$SHADEDGE
 70
     3
  9
$SHADEDIF
 70
    70
  9
$TILEMODE
 70
     1
  9
$MAXACTVP
 70
    64
  9
$PINSBASE
 10
0.0
 20
0.0
 30
0.0
  9
$PLIMCHECK
 70
     0
  9
$PEXTMIN
 10
1.0000000000E+20
 20
1.0000000000E+20
 30
1.0000000000E+20
  9
$PEXTMAX
 10
-1.0000000000E+20
 20
-1.0000000000E+20
 30
-1.0000000000E+20
  9
$PLIMMIN
 10
0.0
 20
0.0
  9
$PLIMMAX
 10
420.0
 20
297.0
  9
$UNITMODE
 70
     0
  9
$VISRETAIN
 70
     1
  9
$PLINEGEN
 70
     0
  9
$PSLTSCALE
 70
     1
  9
$TREEDEPTH
 70
  3020
  9
$CMLSTYLE
  2
Standard
  9
$CMLJUST
 70
     0
  9
$CMLSCALE
 40
20.0
  9
$PROXYGRAPHICS
 70
     1
  9
$MEASUREMENT
 70
     1
  9
$CELWEIGHT
370
    -1
  9
$ENDCAPS
280
     0
  9
$JOINSTYLE
280
     0
  9
$LWDISPLAY
290
     1
  9
$INSUNITS
 70
     4
  9
$HYPERLINKBASE
  1

  9
$STYLESHEET
  1

  9
$XEDIT
290
     1
  9
$CEPSNTYPE
380
     0
  9
$PSTYLEMODE
290
     1
  9
$FINGERPRINTGUID
  2
{ebaeabae-9edc-44cc-82a0-74fe5a9da0b6}
  9
$VERSIONGUID
  2
{FAEB1C32-E019-11D5-929B-00C0DF256EC4}
  9
$EXTNAMES
290
     1
  9
$PSVPSCALE
 40
0.0
  9
$OLESTARTUP
290
     0
  0
ENDSEC
  0
SECTION
  2
CLASSES
  0
CLASS
  1
ACDBDICTIONARYWDFLT
  2
AcDbDictionaryWithDefault
  3
ObjectDBX Classes
 90
        0
280
     0
281
     0
  0
CLASS
  1
VISUALSTYLE
  2
AcDbVisualStyle
  3
ObjectDBX Classes
 90
     4095
280
     0
281
     0
  0
CLASS
  1
MATERIAL
  2
AcDbMaterial
  3
ObjectDBX Classes
 90
     1153
280
     0
281
     0
  0
CLASS
  1
SCALE
  2
AcDbScale
  3
ObjectDBX Classes
 90
     1153
280
     0
281
     0
  0
CLASS
  1
TABLESTYLE
  2
AcDbTableStyle
  3
ObjectDBX Classes
 90
     4095
280
     0
281
     0
  0
CLASS
  1
MLEADERSTYLE
  2
AcDbMLeaderStyle
  3
ACDB_MLEADERSTYLE_CLASS
 90
     4095
280
     0
281
     0
  0
CLASS
  1
SUN
  2
AcDbSun
  3
SCENEOE
 90
     1153
280
     0
281
     0
  0
CLASS
  1
ACDBPLACEHOLDER
  2
AcDbPlaceHolder
  3
ObjectDBX Classes
 90
        0
280
     0
281
     0
  0
CLASS
  1
LAYOUT
  2
AcDbLayout
  3
ObjectDBX Classes
 90
        0
280
     0
281
     0
  0
ENDSEC
  0
SECTION
  2
TABLES
  0
TABLE
  2
VPORT
  5
8
330
0
100
AcDbSymbolTable
 70
     1
  0
VPORT
  5
29
330
8
100
AcDbSymbolTableRecord
100
AcDbViewportTableRecord
  2
*Active
 70
     0
 10
0.0
 20
0.0
 11
1.0
 21
1.0
 12
210.0
 22
297.0
 13
0.0
 23
0.0
 14
10.0
 24
10.0
 15
10.0
 25
10.0
 16
0.0
 26
0.0
 36
1.0
 17
0.0
 27
0.0
 37
0.0
 40
594.0
 41
0.7070707071
 42
50.0
 43
0.0
 44
0.0
 50
0.0
 51
0.0
 71
     0
 72
  2000
 73
     1
 74
     3
 75
     0
 76
     0
 77
     0
 78
     0
281
     0
 65
     1
110
0.0
120
0.0
130
0.0
111
1.0
121
0.0
131
0.0
112
0.0
122
1.0
132
0.0
 79
     0
146
0.0
  0
ENDTAB
  0
TABLE
  2
LTYPE
  5
5
330
0
100
AcDbSymbolTable
 70
     6
  0
LTYPE
  5
14
330
5
100
AcDbSymbolTableRecord
100
AcDbLinetypeTableRecord
  2
ByBlock
 70
     0
  3

 72
    65
 73
     0
 40
0.0
  0
LTYPE
  5
15
330
5
100
AcDbSymbolTableRecord
100
AcDbLinetypeTableRecord
  2
ByLayer
 70
     0
  3

 72
    65
 73
     0
 40
0.0
  0
LTYPE
  5
16
330
5
100
AcDbSymbolTableRecord
100
AcDbLinetypeTableRecord
  2
Continuous
 70
     0
  3
Solid line
 72
    65
 73
     0
 40
0.0
  0
LTYPE
  5
6E
330
5
100
AcDbSymbolTableRecord
100
AcDbLinetypeTableRecord
  2
HIDDEN
 70
     0
  3
Hidden __ __ __ __ __ __ __ __ __ __ __ __ __ __
 72
    65
 73
     2
 40
1.905
 49
1.27
 74
     0
 49
-0.635
 74
     0
  0
LTYPE
  5
6F
330
5
100
AcDbSymbolTableRecord
100
AcDbLinetypeTableRecord
  2
PHANTOM
 70
     0
  3
Phantom ______  __  __  ______  __  __  ______
 72
    65
 73
     6
 40
12.7
 49
6.35
 74
     0
 49
-1.27
 74
     0
 49
1.27
 74
     0
 49
-1.27
 74
     0
 49
1.27
 74
     0
 49
-1.27
 74
     0
  0
LTYPE
  5
70
330
5
100
AcDbSymbolTableRecord
100
AcDbLinetypeTableRecord
  2
CENTER
 70
     0
  3
Center ____ _ ____ _ ____ _ ____ _ ____ _ ____
 72
    65
 73
     4
 40
10.16
 49
6.35
 74
     0
 49
-1.27
 74
     0
 49
1.27
 74
     0
 49
-1.27
 74
     0
  0
LTYPE
  5
71
330
5
100
AcDbSymbolTableRecord
100
AcDbLinetypeTableRecord
  2
CENTERX2
 70
     0
  3
Center (2x) ________  __  ________  __  _____
 72
    65
 73
     4
 40
20.32
 49
12.7
 74
     0
 49
-2.54
 74
     0
 49
2.54
 74
     0
 49
-2.54
 74
     0
  0
LTYPE
  5
72
330
5
100
AcDbSymbolTableRecord
100
AcDbLinetypeTableRecord
  2
DOT2
 70
     0
  3
Dot (.5x) ........................................
 72
    65
 73
     2
 40
0.635
 49
0.0
 74
     0
 49
-0.635
 74
     0
  0
ENDTAB
  0
TABLE
  2
LAYER
  5
2
330
0
100
AcDbSymbolTable
 70
    10
  0
LAYER
  5
10
330
2
100
AcDbSymbolTableRecord
100
AcDbLayerTableRecord
  2
0
 70
     0
 62
     7
  6
Continuous
370
    -3
390
F
  0
LAYER
  5
73
330
2
100
AcDbSymbolTableRecord
100
AcDbLayerTableRecord
  2
LIVELLO1
 70
     0
 62
     7
  6
Continuous
370
    -3
390
F
  0
LAYER
  5
74
330
2
100
AcDbSymbolTableRecord
100
AcDbLayerTableRecord
  2
QUOTA
 70
     0
 62
   150
  6
Continuous
370
    -3
390
F
  0
LAYER
  5
75
330
2
100
AcDbSymbolTableRecord
100
AcDbLayerTableRecord
  2
ASSI
 70
     0
 62
     1
  6
Continuous
370
    -3
390
F
  0
LAYER
  5
76
330
2
100
AcDbSymbolTableRecord
100
AcDbLayerTableRecord
  2
NEUTRO
 70
     0
 62
     7
  6
Continuous
370
    -3
390
F
  0
LAYER
  5
77
330
2
100
AcDbSymbolTableRecord
100
AcDbLayerTableRecord
  2
CARTIGLIO
 70
     0
 62
    18
  6
Continuous
370
    -3
390
F
  0
LAYER
  5
78
330
2
100
AcDbSymbolTableRecord
100
AcDbLayerTableRecord
  2
TESTI_PICCOLI
 70
     0
 62
     7
  6
Continuous
370
    -3
390
F
  0
LAYER
  5
79
330
2
100
AcDbSymbolTableRecord
100
AcDbLayerTableRecord
  2
TESTI_GRANDI
 70
     0
 62
     7
  6
Continuous
370
    -3
390
F
  0
LAYER
  5
7A
330
2
100
AcDbSymbolTableRecord
100
AcDbLayerTableRecord
  2
FORMAT
 70
     0
 62
     7
  6
Continuous
370
    -3
390
F
  0
LAYER
  5
7B
330
2
100
AcDbSymbolTableRecord
100
AcDbLayerTableRecord
  2
RAPPRESENTAZIONE_RETE
 70
     0
 62
     9
  6
Continuous
370
    -3
390
F
  0
ENDTAB
  0
TABLE
  2
STYLE
  5
3
330
0
100
AcDbSymbolTable
 70
     3
  0
STYLE
  5
11
330
3
100
AcDbSymbolTableRecord
100
AcDbTextStyleTableRecord
  2
STANDARD
 70
     0
 40
0.0
 41
1.0
 50
0.0
 71
     0
 42
7.0
  3
SWISSCL.TTF
  4

1001
ACAD
1000
SWIS721 LTCN BT
1071
 16777250
  0
STYLE
  5
86
330
3
100
AcDbSymbolTableRecord
100
AcDbTextStyleTableRecord
  2
SLDTEXTSTYLE0
 70
     0
 40
0.0
 41
1.0
 50
0.0
 71
     0
 42
7.0
  3
SWISSCL.TTF
  4

1001
ACAD
1000
Swis721 LtCn BT
1071
 16777506
  0
STYLE
  5
155
330
3
100
AcDbSymbolTableRecord
100
AcDbTextStyleTableRecord
  2
SLDTEXTSTYLE1
 70
     0
 40
0.0
 41
1.0
 50
0.0
 71
     0
 42
7.0
  3
SWISSCL.TTF
  4

1001
ACAD
1000
Swis721 LtCn BT
1071
      290
  0
ENDTAB
  0
TABLE
  2
VIEW
  5
6
330
0
100
AcDbSymbolTable
 70
     0
  0
ENDTAB
  0
TABLE
  2
UCS
  5
7
330
0
100
AcDbSymbolTable
 70
     0
  0
ENDTAB
  0
TABLE
  2
APPID
  5
9
330
0
100
AcDbSymbolTable
 70
     1
  0
APPID
  5
12
330
9
100
AcDbSymbolTableRecord
100
AcDbRegAppTableRecord
  2
ACAD
 70
     0
  0
ENDTAB
  0
TABLE
  2
DIMSTYLE
  5
A
330
0
100
AcDbSymbolTable
 70
     6
100
AcDbDimStyleTable
  0
DIMSTYLE
105
27
330
A
100
AcDbSymbolTableRecord
100
AcDbDimStyleTableRecord
  2
ISO-25
 70
     0
 41
2.5
 42
0.625
 43
3.75
 44
1.25
 73
     0
 74
     0
 77
     1
 78
     8
140
2.5
141
2.5
143
0.0393700787
147
0.625
171
     3
172
     1
178
     0
271
     2
272
     2
274
     3
278
    44
283
     0
284
     8
340
11
  0
DIMSTYLE
105
14C
102
{ACAD_REACTORS
330
14B
330
157
330
161
330
16C
330
176
330
180
330
18A
330
194
330
19E
330
1A8
330
1B2
330
62E
102
}
330
A
100
AcDbSymbolTableRecord
100
AcDbDimStyleTableRecord
  2
SLDDIMSTYLE0
 70
     0
 41
5.6
 44
0.0
 45
0.000000001
 73
     0
 74
     0
 77
     1
 78
    12
 79
     3
140
6.0
147
1.5
173
     1
178
     0
271
     1
272
     1
276
     2
284
    12
340
86
  0
DIMSTYLE
105
3FC
102
{ACAD_REACTORS
330
3FB
102
}
330
A
100
AcDbSymbolTableRecord
100
AcDbDimStyleTableRecord
  2
SLDDIMSTYLE1
 70
     0
 41
5.6
 44
0.0
 45
0.000000001
 73
     0
 74
     0
 77
     1
 78
    12
 79
     3
140
6.0
147
1.5
173
     1
178
     0
271
     0
272
     0
276
     2
284
    12
340
86
  0
DIMSTYLE
105
407
102
{ACAD_REACTORS
330
406
330
622
102
}
330
A
100
AcDbSymbolTableRecord
100
AcDbDimStyleTableRecord
  2
SLDDIMSTYLE2
 70
     0
 41
5.6
 44
0.0
 45
0.000000001
 73
     0
 74
     0
 77
     1
 78
    12
 79
     3
140
6.0
147
1.5
172
     1
173
     1
178
     0
271
     1
272
     1
276
     2
284
    12
289
     0
340
86
  0
DIMSTYLE
105
414
102
{ACAD_REACTORS
330
413
102
}
330
A
100
AcDbSymbolTableRecord
100
AcDbDimStyleTableRecord
  2
SLDDIMSTYLE3
 70
     0
 41
5.6
 44
0.0
 45
0.000000001
 73
     0
 74
     0
 77
     1
 78
    12
 79
     3
140
6.0
147
1.5
173
     1
178
     0
271
     0
272
     2
276
     2
284
    12
340
86
  0
DIMSTYLE
105
639
102
{ACAD_REACTORS
330
638
102
}
330
A
100
AcDbSymbolTableRecord
100
AcDbDimStyleTableRecord
  2
SLDDIMSTYLE4
 70
     0
 41
5.6
 44
0.0
 45
0.000000001
 78
    12
 79
     3
140
6.0
147
1.5
172
     1
173
     1
178
     0
271
     1
272
     1
276
     2
284
    12
289
     0
340
86
  0
ENDTAB
  0
TABLE
  2
BLOCK_RECORD
  5
1
330
0
100
AcDbSymbolTable
 70
    48
  0
BLOCK_RECORD
  5
1F
330
1
100
AcDbSymbolTableRecord
100
AcDbBlockTableRecord
  2
*Model_Space
340
22
  0
BLOCK_RECORD
  5
1B
330
1
100
AcDbSymbolTableRecord
100
AcDbBlockTableRecord
  2
*Paper_Space
340
1E
  0
BLOCK_RECORD
  5
23
330
1
100
AcDbSymbolTableRecord
100
AcDbBlockTableRecord
  2
*Paper_Space0
340
26
  0
BLOCK_RECORD
  5
7C
330
1
100
AcDbSymbolTableRecord
100
AcDbBlockTableRecord
  2
Blocco3
340
0
  0
BLOCK_RECORD
  5
83
330
1
100
AcDbSymbolTableRecord
100
AcDbBlockTableRecord
  2
SW_NOTE_0
340
0
102
{BLKREFS
331
88
102
}
  0
BLOCK_RECORD
  5
14D
330
1
100
AcDbSymbolTableRecord
100
AcDbBlockTableRecord
  2
_D
340
0
  0
BLOCK_RECORD
  5
158
330
1
100
AcDbSymbolTableRecord
100
AcDbBlockTableRecord
  2
_D_1
340
0
  0
BLOCK_RECORD
  5
162
330
1
100
AcDbSymbolTableRecord
100
AcDbBlockTableRecord
  2
_D_2
340
0
  0
BLOCK_RECORD
  5
16D
330
1
100
AcDbSymbolTableRecord
100
AcDbBlockTableRecord
  2
_D_3
340
0
  0
BLOCK_RECORD
  5
177
330
1
100
AcDbSymbolTableRecord
100
AcDbBlockTableRecord
  2
_D_4
340
0
  0
BLOCK_RECORD
  5
181
330
1
100
AcDbSymbolTableRecord
100
AcDbBlockTableRecord
  2
_D_5
340
0
  0
BLOCK_RECORD
  5
18B
330
1
100
AcDbSymbolTableRecord
100
AcDbBlockTableRecord
  2
_D_6
340
0
  0
BLOCK_RECORD
  5
195
330
1
100
AcDbSymbolTableRecord
100
AcDbBlockTableRecord
  2
_D_7
340
0
  0
BLOCK_RECORD
  5
19F
330
1
100
AcDbSymbolTableRecord
100
AcDbBlockTableRecord
  2
_D_8
340
0
  0
BLOCK_RECORD
  5
1A9
330
1
100
AcDbSymbolTableRecord
100
AcDbBlockTableRecord
  2
_D_9
340
0
  0
BLOCK_RECORD
  5
1B3
330
1
100
AcDbSymbolTableRecord
100
AcDbBlockTableRecord
  2
_D_10
340
0
  0
BLOCK_RECORD
  5
1BC
330
1
100
AcDbSymbolTableRecord
100
AcDbBlockTableRecord
  2
SW_RADIAL_DIMENSION_0
340
0
102
{BLKREFS
331
1C6
102
}
  0
BLOCK_RECORD
  5
1C7
330
1
100
AcDbSymbolTableRecord
100
AcDbBlockTableRecord
  2
SW_RADIAL_DIMENSION_1
340
0
102
{BLKREFS
331
1D1
102
}
  0
BLOCK_RECORD
  5
1D2
330
1
100
AcDbSymbolTableRecord
100
AcDbBlockTableRecord
  2
SW_CENTERMARKSYMBOL_0
340
0
102
{BLKREFS
331
1DD
102
}
  0
BLOCK_RECORD
  5
1DE
330
1
100
AcDbSymbolTableRecord
100
AcDbBlockTableRecord
  2
SW_CENTERMARKSYMBOL_1
340
0
102
{BLKREFS
331
1E9
102
}
  0
BLOCK_RECORD
  5
1EA
330
1
100
AcDbSymbolTableRecord
100
AcDbBlockTableRecord
  2
SW_CENTERMARKSYMBOL_2
340
0
102
{BLKREFS
331
1F5
102
}
  0
BLOCK_RECORD
  5
1F6
330
1
100
AcDbSymbolTableRecord
100
AcDbBlockTableRecord
  2
SW_CENTERMARKSYMBOL_3
340
0
102
{BLKREFS
331
201
102
}
  0
BLOCK_RECORD
  5
202
330
1
100
AcDbSymbolTableRecord
100
AcDbBlockTableRecord
  2
SW_CENTERMARKSYMBOL_4
340
0
102
{BLKREFS
331
20D
102
}
  0
BLOCK_RECORD
  5
20E
330
1
100
AcDbSymbolTableRecord
100
AcDbBlockTableRecord
  2
SW_CENTERMARKSYMBOL_5
340
0
102
{BLKREFS
331
219
102
}
  0
BLOCK_RECORD
  5
21A
330
1
100
AcDbSymbolTableRecord
100
AcDbBlockTableRecord
  2
SW_CENTERMARKSYMBOL_6
340
0
102
{BLKREFS
331
225
102
}
  0
BLOCK_RECORD
  5
226
330
1
100
AcDbSymbolTableRecord
100
AcDbBlockTableRecord
  2
SW_CENTERMARKSYMBOL_7
340
0
102
{BLKREFS
331
231
102
}
  0
BLOCK_RECORD
  5
232
330
1
100
AcDbSymbolTableRecord
100
AcDbBlockTableRecord
  2
SW_CENTERMARKSYMBOL_8
340
0
102
{BLKREFS
331
23D
102
}
  0
BLOCK_RECORD
  5
23E
330
1
100
AcDbSymbolTableRecord
100
AcDbBlockTableRecord
  2
SW_CENTERMARKSYMBOL_9
340
0
102
{BLKREFS
331
249
102
}
  0
BLOCK_RECORD
  5
24A
330
1
100
AcDbSymbolTableRecord
100
AcDbBlockTableRecord
  2
SW_CENTERMARKSYMBOL_10
340
0
102
{BLKREFS
331
255
102
}
  0
BLOCK_RECORD
  5
256
330
1
100
AcDbSymbolTableRecord
100
AcDbBlockTableRecord
  2
SW_CENTERMARKSYMBOL_11
340
0
102
{BLKREFS
331
261
102
}
  0
BLOCK_RECORD
  5
262
330
1
100
AcDbSymbolTableRecord
100
AcDbBlockTableRecord
  2
SW_CENTERMARKSYMBOL_12
340
0
102
{BLKREFS
331
26D
102
}
  0
BLOCK_RECORD
  5
26E
330
1
100
AcDbSymbolTableRecord
100
AcDbBlockTableRecord
  2
SW_CENTERMARKSYMBOL_13
340
0
102
{BLKREFS
331
279
102
}
  0
BLOCK_RECORD
  5
27A
330
1
100
AcDbSymbolTableRecord
100
AcDbBlockTableRecord
  2
SW_CENTERMARKSYMBOL_14
340
0
102
{BLKREFS
331
285
102
}
  0
BLOCK_RECORD
  5
286
330
1
100
AcDbSymbolTableRecord
100
AcDbBlockTableRecord
  2
SW_CENTERMARKSYMBOL_15
340
0
102
{BLKREFS
331
291
102
}
  0
BLOCK_RECORD
  5
292
330
1
100
AcDbSymbolTableRecord
100
AcDbBlockTableRecord
  2
SW_CENTERMARKSYMBOL_16
340
0
102
{BLKREFS
331
29D
102
}
  0
BLOCK_RECORD
  5
29E
330
1
100
AcDbSymbolTableRecord
100
AcDbBlockTableRecord
  2
SW_CENTERMARKSYMBOL_17
340
0
102
{BLKREFS
331
2A9
102
}
  0
BLOCK_RECORD
  5
2AA
330
1
100
AcDbSymbolTableRecord
100
AcDbBlockTableRecord
  2
SW_CENTERMARKSYMBOL_18
340
0
102
{BLKREFS
331
2B5
102
}
  0
BLOCK_RECORD
  5
2B6
330
1
100
AcDbSymbolTableRecord
100
AcDbBlockTableRecord
  2
SW_CENTERMARKSYMBOL_19
340
0
102
{BLKREFS
331
2C1
102
}
  0
BLOCK_RECORD
  5
2C2
330
1
100
AcDbSymbolTableRecord
100
AcDbBlockTableRecord
  2
SW_CENTERMARKSYMBOL_20
340
0
102
{BLKREFS
331
2CD
102
}
  0
BLOCK_RECORD
  5
2CE
330
1
100
AcDbSymbolTableRecord
100
AcDbBlockTableRecord
  2
SW_CENTERMARKSYMBOL_21
340
0
102
{BLKREFS
331
2D9
102
}
  0
BLOCK_RECORD
  5
3FD
330
1
100
AcDbSymbolTableRecord
100
AcDbBlockTableRecord
  2
_D_11
340
0
  0
BLOCK_RECORD
  5
408
330
1
100
AcDbSymbolTableRecord
100
AcDbBlockTableRecord
  2
_D_12
340
0
  0
BLOCK_RECORD
  5
415
330
1
100
AcDbSymbolTableRecord
100
AcDbBlockTableRecord
  2
_D_13
340
0
  0
BLOCK_RECORD
  5
623
330
1
100
AcDbSymbolTableRecord
100
AcDbBlockTableRecord
  2
_D_14
340
0
  0
BLOCK_RECORD
  5
62F
330
1
100
AcDbSymbolTableRecord
100
AcDbBlockTableRecord
  2
_D_15
340
0
  0
BLOCK_RECORD
  5
63A
330
1
100
AcDbSymbolTableRecord
100
AcDbBlockTableRecord
  2
_D_16
340
0
  0
BLOCK_RECORD
  5
645
330
1
100
AcDbSymbolTableRecord
100
AcDbBlockTableRecord
  2
SW_CENTERMARKSYMBOL_22
340
0
102
{BLKREFS
331
650
102
}
  0
BLOCK_RECORD
  5
651
330
1
100
AcDbSymbolTableRecord
100
AcDbBlockTableRecord
  2
SW_CENTERMARKSYMBOL_23
340
0
102
{BLKREFS
331
65C
102
}
  0
BLOCK_RECORD
  5
65D
330
1
100
AcDbSymbolTableRecord
100
AcDbBlockTableRecord
  2
SW_CENTERMARKSYMBOL_24
340
0
102
{BLKREFS
331
668
102
}
  0
BLOCK_RECORD
  5
669
330
1
100
AcDbSymbolTableRecord
100
AcDbBlockTableRecord
  2
SW_CENTERMARKSYMBOL_25
340
0
102
{BLKREFS
331
674
102
}
  0
ENDTAB
  0
ENDSEC
  0
SECTION
  2
BLOCKS
  0
BLOCK
  5
20
330
1F
100
AcDbEntity
  8
0
100
AcDbBlockBegin
  2
*Model_Space
 70
     0
 10
0.0
 20
0.0
 30
0.0
  3
*Model_Space
  1

  0
ENDBLK
  5
21
330
1F
100
AcDbEntity
  8
0
100
AcDbBlockEnd
  0
BLOCK
  5
1C
330
1B
100
AcDbEntity
 67
     1
  8
0
100
AcDbBlockBegin
  2
*Paper_Space
 70
     0
 10
0.0
 20
0.0
 30
0.0
  3
*Paper_Space
  1

  0
ENDBLK
  5
1D
330
1B
100
AcDbEntity
 67
     1
  8
0
100
AcDbBlockEnd
  0
BLOCK
  5
24
330
23
100
AcDbEntity
  8
0
100
AcDbBlockBegin
  2
*Paper_Space0
 70
     0
 10
0.0
 20
0.0
 30
0.0
  3
*Paper_Space0
  1

  0
ENDBLK
  5
25
330
23
100
AcDbEntity
  8
0
100
AcDbBlockEnd
  0
BLOCK
  5
7D
330
7C
100
AcDbEntity
  8
0
100
AcDbBlockBegin
  2
Blocco3
 70
     0
 10
0.0
 20
0.0
 30
0.0
  3
Blocco3
  1

  0
LINE
  5
7F
330
7C
100
AcDbEntity
  8
LIVELLO1
100
AcDbLine
 10
474.3526190427
 20
51.1780839512
 30
0.0
 11
719.9736820655
 21
51.1780839512
 31
0.0
  0
LINE
  5
80
330
7C
100
AcDbEntity
  8
LIVELLO1
100
AcDbLine
 10
474.3526190427
 20
51.1780839512
 30
0.0
 11
474.3526190427
 21
40.4054008223
 31
0.0
  0
LINE
  5
81
330
7C
100
AcDbEntity
  8
LIVELLO1
100
AcDbLine
 10
474.3526190427
 20
40.4054008223
 30
0.0
 11
719.9736820655
 21
40.4054008223
 31
0.0
  0
LINE
  5
82
330
7C
100
AcDbEntity
  8
LIVELLO1
100
AcDbLine
 10
719.9736820655
 20
51.1780839512
 30
0.0
 11
719.9736820655
 21
40.4054008223
 31
0.0
  0
INSERT
  5
88
330
7C
100
AcDbEntity
  8
CARTIGLIO
 62
    18
100
AcDbBlockReference
  2
SW_NOTE_0
 10
476.8137368049
 20
40.9141172393
 30
0.0
  0
ENDBLK
  5
7E
330
7C
100
AcDbEntity
  8
0
100
AcDbBlockEnd
  0
BLOCK
  5
84
330
83
100
AcDbEntity
  8
0
100
AcDbBlockBegin
  2
SW_NOTE_0
 70
     0
 10
0.0
 20
0.0
 30
0.0
  3
SW_NOTE_0
  1

  0
MTEXT
  5
87
330
83
100
AcDbEntity
  8
CARTIGLIO
 62
     0
100
AcDbMText
 10
0.0
 20
9.2133676093
 30
0.0
 40
7.0
 41
0.0
 71
     1
 72
     1
  1
I disegni non vanno interpretati : nel dubbio chiedere chiarimenti
  7
SLDTEXTSTYLE0
 73
     1
 44
1.0
  0
ENDBLK
  5
85
330
83
100
AcDbEntity
  8
0
100
AcDbBlockEnd
  0
BLOCK
  5
14E
330
14D
100
AcDbEntity
  8
0
100
AcDbBlockBegin
  2
_D
 70
     0
 10
0.0
 20
0.0
 30
0.0
  3
_D
  1

  0
SOLID
  5
150
330
14D
100
AcDbEntity
  8
LIVELLO1
100
AcDbTrace
 10
113.3850756029
 20
549.3332455804
 30
0.0
 11
118.9850756029
 21
548.6332455804
 31
0.0
 12
118.9850756029
 22
550.0332455804
 32
0.0
 13
118.9850756029
 23
550.0332455804
 33
0.0
  0
SOLID
  5
151
330
14D
100
AcDbEntity
  8
LIVELLO1
100
AcDbTrace
 10
175.3850756029
 20
549.3332455804
 30
0.0
 11
169.7850756029
 21
550.0332455804
 31
0.0
 12
169.7850756029
 22
548.6332455804
 32
0.0
 13
169.7850756029
 23
548.6332455804
 33
0.0
  0
LINE
  5
152
330
14D
100
AcDbEntity
  8
LIVELLO1
100
AcDbLine
 10
113.3850756029
 20
528.3332455804
 30
0.0
 11
113.3850756029
 21
551.3332455804
 31
0.0
  0
LINE
  5
153
330
14D
100
AcDbEntity
  8
LIVELLO1
100
AcDbLine
 10
175.3850756029
 20
528.3332455804
 30
0.0
 11
175.3850756029
 21
551.3332455804
 31
0.0
  0
LINE
  5
154
330
14D
100
AcDbEntity
  8
LIVELLO1
100
AcDbLine
 10
113.3850756029
 20
549.3332455804
 30
0.0
 11
175.3850756029
 21
549.3332455804
 31
0.0
  0
MTEXT
  5
156
330
14D
100
AcDbEntity
  8
LIVELLO1
100
AcDbMText
 10
140.6934088434
 20
557.2304178169
 30
0.0
 40
6.0
 41
0.0
 71
     1
 72
     1
  1
62
  7
SLDTEXTSTYLE1
 73
     1
 44
1.0
  0
ENDBLK
  5
14F
330
14D
100
AcDbEntity
  8
0
100
AcDbBlockEnd
  0
BLOCK
  5
159
330
158
100
AcDbEntity
  8
0
100
AcDbBlockBegin
  2
_D_1
 70
     0
 10
0.0
 20
0.0
 30
0.0
  3
_D_1
  1

  0
SOLID
  5
15B
330
158
100
AcDbEntity
  8
LIVELLO1
100
AcDbTrace
 10
69.3850756029
 20
529.3332455804
 30
0.0
 11
68.6850756029
 21
523.7332455804
 31
0.0
 12
70.0850756029
 22
523.7332455804
 32
0.0
 13
70.0850756029
 23
523.7332455804
 33
0.0
  0
SOLID
  5
15C
330
158
100
AcDbEntity
  8
LIVELLO1
100
AcDbTrace
 10
69.3850756029
 20
398.3332455804
 30
0.0
 11
70.0850756029
 21
403.9332455804
 31
0.0
 12
68.6850756029
 22
403.9332455804
 32
0.0
 13
68.6850756029
 23
403.9332455804
 33
0.0
  0
LINE
  5
15D
330
158
100
AcDbEntity
  8
LIVELLO1
100
AcDbLine
 10
114.3850756029
 20
529.3332455804
 30
0.0
 11
67.3850756029
 21
529.3332455804
 31
0.0
  0
LINE
  5
15E
330
158
100
AcDbEntity
  8
LIVELLO1
100
AcDbLine
 10
125.3850756029
 20
398.3332455804
 30
0.0
 11
67.3850756029
 21
398.3332455804
 31
0.0
  0
LINE
  5
15F
330
158
100
AcDbEntity
  8
LIVELLO1
100
AcDbLine
 10
69.3850756029
 20
529.3332455804
 30
0.0
 11
69.3850756029
 21
398.3332455804
 31
0.0
  0
MTEXT
  5
160
330
158
100
AcDbEntity
  8
LIVELLO1
100
AcDbMText
 10
61.4879033664
 20
458.2957454411
 30
0.0
 40
6.0
 41
0.0
 71
     1
 72
     1
  1
131
  7
SLDTEXTSTYLE1
 11
-7.044195017643634E-15
 21
1.0
 31
0.0
 73
     1
 44
1.0
  0
ENDBLK
  5
15A
330
158
100
AcDbEntity
  8
0
100
AcDbBlockEnd
  0
BLOCK
  5
163
330
162
100
AcDbEntity
  8
0
100
AcDbBlockBegin
  2
_D_2
 70
     0
 10
0.0
 20
0.0
 30
0.0
  3
_D_2
  1

  0
SOLID
  5
165
330
162
100
AcDbEntity
  8
LIVELLO1
100
AcDbTrace
 10
81.3850756029
 20
409.3332455804
 30
0.0
 11
82.0850756029
 21
414.9332455804
 31
0.0
 12
80.6850756029
 22
414.9332455804
 32
0.0
 13
80.6850756029
 23
414.9332455804
 33
0.0
  0
SOLID
  5
166
330
162
100
AcDbEntity
  8
LIVELLO1
100
AcDbTrace
 10
81.3850756029
 20
529.3332455804
 30
0.0
 11
80.6850756029
 21
523.7332455804
 31
0.0
 12
82.0850756029
 22
523.7332455804
 32
0.0
 13
82.0850756029
 23
523.7332455804
 33
0.0
  0
LINE
  5
167
330
162
100
AcDbEntity
  8
LIVELLO1
100
AcDbLine
 10
114.3850756029
 20
409.3332455804
 30
0.0
 11
94.8850756029
 21
409.3332455804
 31
0.0
  0
LINE
  5
168
330
162
100
AcDbEntity
  8
LIVELLO1
100
AcDbLine
 10
91.8850756029
 20
409.3332455804
 30
0.0
 11
79.3850756029
 21
409.3332455804
 31
0.0
  0
LINE
  5
169
330
162
100
AcDbEntity
  8
LIVELLO1
100
AcDbLine
 10
111.8850756029
 20
529.3332455804
 30
0.0
 11
79.3850756029
 21
529.3332455804
 31
0.0
  0
LINE
  5
16A
330
162
100
AcDbEntity
  8
LIVELLO1
100
AcDbLine
 10
81.3850756029
 20
409.3332455804
 30
0.0
 11
81.3850756029
 21
529.3332455804
 31
0.0
  0
MTEXT
  5
16B
330
162
100
AcDbEntity
  8
LIVELLO1
100
AcDbMText
 10
73.4879033664
 20
463.7957454411
 30
0.0
 40
6.0
 41
0.0
 71
     1
 72
     1
  1
120
  7
SLDTEXTSTYLE1
 11
6.123233995736766E-17
 21
1.0
 31
0.0
 73
     1
 44
1.0
  0
ENDBLK
  5
164
330
162
100
AcDbEntity
  8
0
100
AcDbBlockEnd
  0
BLOCK
  5
16E
330
16D
100
AcDbEntity
  8
0
100
AcDbBlockBegin
  2
_D_3
 70
     0
 10
0.0
 20
0.0
 30
0.0
  3
_D_3
  1

  0
SOLID
  5
170
330
16D
100
AcDbEntity
  8
LIVELLO1
100
AcDbTrace
 10
195.3850756029
 20
437.3332455804
 30
0.0
 11
196.0850756029
 21
442.9332455804
 31
0.0
 12
194.6850756029
 22
442.9332455804
 32
0.0
 13
194.6850756029
 23
442.9332455804
 33
0.0
  0
SOLID
  5
171
330
16D
100
AcDbEntity
  8
LIVELLO1
100
AcDbTrace
 10
195.3850756029
 20
529.3332455804
 30
0.0
 11
194.6850756029
 21
523.7332455804
 31
0.0
 12
196.0850756029
 22
523.7332455804
 32
0.0
 13
196.0850756029
 23
523.7332455804
 33
0.0
  0
LINE
  5
172
330
16D
100
AcDbEntity
  8
LIVELLO1
100
AcDbLine
 10
152.1350756029
 20
437.3332455804
 30
0.0
 11
197.3850756029
 21
437.3332455804
 31
0.0
  0
LINE
  5
173
330
16D
100
AcDbEntity
  8
LIVELLO1
100
AcDbLine
 10
174.3850756029
 20
529.3332455804
 30
0.0
 11
197.3850756029
 21
529.3332455804
 31
0.0
  0
LINE
  5
174
330
16D
100
AcDbEntity
  8
LIVELLO1
100
AcDbLine
 10
195.3850756029
 20
437.3332455804
 30
0.0
 11
195.3850756029
 21
529.3332455804
 31
0.0
  0
MTEXT
  5
175
330
16D
100
AcDbEntity
  8
LIVELLO1
100
AcDbMText
 10
187.4879033664
 20
479.6415788209
 30
0.0
 40
6.0
 41
0.0
 71
     1
 72
     1
  1
92
  7
SLDTEXTSTYLE1
 11
6.123233995736766E-17
 21
1.0
 31
0.0
 73
     1
 44
1.0
  0
ENDBLK
  5
16F
330
16D
100
AcDbEntity
  8
0
100
AcDbBlockEnd
  0
BLOCK
  5
178
330
177
100
AcDbEntity
  8
0
100
AcDbBlockBegin
  2
_D_4
 70
     0
 10
0.0
 20
0.0
 30
0.0
  3
_D_4
  1

  0
SOLID
  5
17A
330
177
100
AcDbEntity
  8
LIVELLO1
100
AcDbTrace
 10
207.3850756029
 20
529.3332455804
 30
0.0
 11
206.6850756029
 21
523.7332455804
 31
0.0
 12
208.0850756029
 22
523.7332455804
 32
0.0
 13
208.0850756029
 23
523.7332455804
 33
0.0
  0
SOLID
  5
17B
330
177
100
AcDbEntity
  8
LIVELLO1
100
AcDbTrace
 10
207.3850756029
 20
432.3332455804
 30
0.0
 11
208.0850756029
 21
437.9332455804
 31
0.0
 12
206.6850756029
 22
437.9332455804
 32
0.0
 13
206.6850756029
 23
437.9332455804
 33
0.0
  0
LINE
  5
17C
330
177
100
AcDbEntity
  8
LIVELLO1
100
AcDbLine
 10
174.3850756029
 20
529.3332455804
 30
0.0
 11
209.3850756029
 21
529.3332455804
 31
0.0
  0
LINE
  5
17D
330
177
100
AcDbEntity
  8
LIVELLO1
100
AcDbLine
 10
159.6350756029
 20
432.3332455804
 30
0.0
 11
209.3850756029
 21
432.3332455804
 31
0.0
  0
LINE
  5
17E
330
177
100
AcDbEntity
  8
LIVELLO1
100
AcDbLine
 10
207.3850756029
 20
529.3332455804
 30
0.0
 11
207.3850756029
 21
432.3332455804
 31
0.0
  0
MTEXT
  5
17F
330
177
100
AcDbEntity
  8
LIVELLO1
100
AcDbMText
 10
199.4879033664
 20
477.1415788209
 30
0.0
 40
6.0
 41
0.0
 71
     1
 72
     1
  1
97
  7
SLDTEXTSTYLE1
 11
-7.044195017643634E-15
 21
1.0
 31
0.0
 73
     1
 44
1.0
  0
ENDBLK
  5
179
330
177
100
AcDbEntity
  8
0
100
AcDbBlockEnd
  0
BLOCK
  5
182
330
181
100
AcDbEntity
  8
0
100
AcDbBlockBegin
  2
_D_5
 70
     0
 10
0.0
 20
0.0
 30
0.0
  3
_D_5
  1

  0
SOLID
  5
184
330
181
100
AcDbEntity
  8
LIVELLO1
100
AcDbTrace
 10
207.3850756029
 20
432.3332455804
 30
0.0
 11
206.6850756029
 21
426.7332455804
 31
0.0
 12
208.0850756029
 22
426.7332455804
 32
0.0
 13
208.0850756029
 23
426.7332455804
 33
0.0
  0
SOLID
  5
185
330
181
100
AcDbEntity
  8
LIVELLO1
100
AcDbTrace
 10
207.3850756029
 20
406.3332455804
 30
0.0
 11
208.0850756029
 21
411.9332455804
 31
0.0
 12
206.6850756029
 22
411.9332455804
 32
0.0
 13
206.6850756029
 23
411.9332455804
 33
0.0
  0
LINE
  5
186
330
181
100
AcDbEntity
  8
LIVELLO1
100
AcDbLine
 10
159.6350756029
 20
432.3332455804
 30
0.0
 11
209.3850756029
 21
432.3332455804
 31
0.0
  0
LINE
  5
187
330
181
100
AcDbEntity
  8
LIVELLO1
100
AcDbLine
 10
151.6350756029
 20
406.3332455804
 30
0.0
 11
209.3850756029
 21
406.3332455804
 31
0.0
  0
LINE
  5
188
330
181
100
AcDbEntity
  8
LIVELLO1
100
AcDbLine
 10
207.3850756029
 20
432.3332455804
 30
0.0
 11
207.3850756029
 21
406.3332455804
 31
0.0
  0
MTEXT
  5
189
330
181
100
AcDbEntity
  8
LIVELLO1
100
AcDbMText
 10
199.4879033664
 20
417.0064963197
 30
0.0
 40
6.0
 41
0.0
 71
     1
 72
     1
  1
26
  7
SLDTEXTSTYLE1
 11
-7.044195017643634E-15
 21
1.0
 31
0.0
 73
     1
 44
1.0
  0
ENDBLK
  5
183
330
181
100
AcDbEntity
  8
0
100
AcDbBlockEnd
  0
BLOCK
  5
18C
330
18B
100
AcDbEntity
  8
0
100
AcDbBlockBegin
  2
_D_6
 70
     0
 10
0.0
 20
0.0
 30
0.0
  3
_D_6
  1

  0
SOLID
  5
18E
330
18B
100
AcDbEntity
  8
LIVELLO1
100
AcDbTrace
 10
93.3850756029
 20
529.3332455804
 30
0.0
 11
92.6850756029
 21
523.7332455804
 31
0.0
 12
94.0850756029
 22
523.7332455804
 32
0.0
 13
94.0850756029
 23
523.7332455804
 33
0.0
  0
SOLID
  5
18F
330
18B
100
AcDbEntity
  8
LIVELLO1
100
AcDbTrace
 10
93.3850756029
 20
437.3332455804
 30
0.0
 11
94.0850756029
 21
442.9332455804
 31
0.0
 12
92.6850756029
 22
442.9332455804
 32
0.0
 13
92.6850756029
 23
442.9332455804
 33
0.0
  0
LINE
  5
190
330
18B
100
AcDbEntity
  8
LIVELLO1
100
AcDbLine
 10
114.3850756029
 20
529.3332455804
 30
0.0
 11
91.3850756029
 21
529.3332455804
 31
0.0
  0
LINE
  5
191
330
18B
100
AcDbEntity
  8
LIVELLO1
100
AcDbLine
 10
136.6350756029
 20
437.3332455804
 30
0.0
 11
91.3850756029
 21
437.3332455804
 31
0.0
  0
LINE
  5
192
330
18B
100
AcDbEntity
  8
LIVELLO1
100
AcDbLine
 10
93.3850756029
 20
529.3332455804
 30
0.0
 11
93.3850756029
 21
437.3332455804
 31
0.0
  0
MTEXT
  5
193
330
18B
100
AcDbEntity
  8
LIVELLO1
100
AcDbMText
 10
85.4879033664
 20
479.6415788209
 30
0.0
 40
6.0
 41
0.0
 71
     1
 72
     1
  1
92
  7
SLDTEXTSTYLE1
 11
-7.044195017643634E-15
 21
1.0
 31
0.0
 73
     1
 44
1.0
  0
ENDBLK
  5
18D
330
18B
100
AcDbEntity
  8
0
100
AcDbBlockEnd
  0
BLOCK
  5
196
330
195
100
AcDbEntity
  8
0
100
AcDbBlockBegin
  2
_D_7
 70
     0
 10
0.0
 20
0.0
 30
0.0
  3
_D_7
  1

  0
SOLID
  5
198
330
195
100
AcDbEntity
  8
LIVELLO1
100
AcDbTrace
 10
93.3850756029
 20
437.3332455804
 30
0.0
 11
92.6850756029
 21
431.7332455804
 31
0.0
 12
94.0850756029
 22
431.7332455804
 32
0.0
 13
94.0850756029
 23
431.7332455804
 33
0.0
  0
SOLID
  5
199
330
195
100
AcDbEntity
  8
LIVELLO1
100
AcDbTrace
 10
93.3850756029
 20
405.8332455804
 30
0.0
 11
94.0850756029
 21
411.4332455804
 31
0.0
 12
92.6850756029
 22
411.4332455804
 32
0.0
 13
92.6850756029
 23
411.4332455804
 33
0.0
  0
LINE
  5
19A
330
195
100
AcDbEntity
  8
LIVELLO1
100
AcDbLine
 10
136.6350756029
 20
437.3332455804
 30
0.0
 11
91.3850756029
 21
437.3332455804
 31
0.0
  0
LINE
  5
19B
330
195
100
AcDbEntity
  8
LIVELLO1
100
AcDbLine
 10
124.1350756029
 20
405.8332455804
 30
0.0
 11
91.3850756029
 21
405.8332455804
 31
0.0
  0
LINE
  5
19C
330
195
100
AcDbEntity
  8
LIVELLO1
100
AcDbLine
 10
93.3850756029
 20
437.3332455804
 30
0.0
 11
93.3850756029
 21
405.8332455804
 31
0.0
  0
MTEXT
  5
19D
330
195
100
AcDbEntity
  8
LIVELLO1
100
AcDbMText
 10
85.4879033664
 20
415.1207456155
 30
0.0
 40
6.0
 41
0.0
 71
     1
 72
     1
  1
31,5
  7
SLDTEXTSTYLE1
 11
-7.044195017643634E-15
 21
1.0
 31
0.0
 73
     1
 44
1.0
  0
ENDBLK
  5
197
330
195
100
AcDbEntity
  8
0
100
AcDbBlockEnd
  0
BLOCK
  5
1A0
330
19F
100
AcDbEntity
  8
0
100
AcDbBlockBegin
  2
_D_8
 70
     0
 10
0.0
 20
0.0
 30
0.0
  3
_D_8
  1

  0
SOLID
  5
1A2
330
19F
100
AcDbEntity
  8
LIVELLO1
100
AcDbTrace
 10
136.3850756029
 20
378.3332455804
 30
0.0
 11
141.9850756029
 21
377.6332455804
 31
0.0
 12
141.9850756029
 22
379.0332455804
 32
0.0
 13
141.9850756029
 23
379.0332455804
 33
0.0
  0
SOLID
  5
1A3
330
19F
100
AcDbEntity
  8
LIVELLO1
100
AcDbTrace
 10
152.3850756029
 20
378.3332455804
 30
0.0
 11
146.7850756029
 21
379.0332455804
 31
0.0
 12
146.7850756029
 22
377.6332455804
 32
0.0
 13
146.7850756029
 23
377.6332455804
 33
0.0
  0
LINE
  5
1A4
330
19F
100
AcDbEntity
  8
LIVELLO1
100
AcDbLine
 10
136.3850756029
 20
425.0832455804
 30
0.0
 11
136.3850756029
 21
376.3332455804
 31
0.0
  0
LINE
  5
1A5
330
19F
100
AcDbEntity
  8
LIVELLO1
100
AcDbLine
 10
152.3850756029
 20
425.0832455804
 30
0.0
 11
152.3850756029
 21
376.3332455804
 31
0.0
  0
LINE
  5
1A6
330
19F
100
AcDbEntity
  8
LIVELLO1
100
AcDbLine
 10
136.3850756029
 20
378.3332455804
 30
0.0
 11
152.3850756029
 21
378.3332455804
 31
0.0
  0
MTEXT
  5
1A7
330
19F
100
AcDbEntity
  8
LIVELLO1
100
AcDbMText
 10
140.6934088434
 20
386.2304178169
 30
0.0
 40
6.0
 41
0.0
 71
     1
 72
     1
  1
16
  7
SLDTEXTSTYLE1
 73
     1
 44
1.0
  0
ENDBLK
  5
1A1
330
19F
100
AcDbEntity
  8
0
100
AcDbBlockEnd
  0
BLOCK
  5
1AA
330
1A9
100
AcDbEntity
  8
0
100
AcDbBlockBegin
  2
_D_9
 70
     0
 10
0.0
 20
0.0
 30
0.0
  3
_D_9
  1

  0
SOLID
  5
1AC
330
1A9
100
AcDbEntity
  8
LIVELLO1
100
AcDbTrace
 10
131.8850756029
 20
366.3332455804
 30
0.0
 11
137.4850756029
 21
365.6332455804
 31
0.0
 12
137.4850756029
 22
367.0332455804
 32
0.0
 13
137.4850756029
 23
367.0332455804
 33
0.0
  0
SOLID
  5
1AD
330
1A9
100
AcDbEntity
  8
LIVELLO1
100
AcDbTrace
 10
156.8850756029
 20
366.3332455804
 30
0.0
 11
151.2850756029
 21
367.0332455804
 31
0.0
 12
151.2850756029
 22
365.6332455804
 32
0.0
 13
151.2850756029
 23
365.6332455804
 33
0.0
  0
LINE
  5
1AE
330
1A9
100
AcDbEntity
  8
LIVELLO1
100
AcDbLine
 10
131.8850756029
 20
398.0832455804
 30
0.0
 11
131.8850756029
 21
364.3332455804
 31
0.0
  0
LINE
  5
1AF
330
1A9
100
AcDbEntity
  8
LIVELLO1
100
AcDbLine
 10
156.8850756029
 20
398.0832455804
 30
0.0
 11
156.8850756029
 21
364.3332455804
 31
0.0
  0
LINE
  5
1B0
330
1A9
100
AcDbEntity
  8
LIVELLO1
100
AcDbLine
 10
131.8850756029
 20
366.3332455804
 30
0.0
 11
156.8850756029
 21
366.3332455804
 31
0.0
  0
MTEXT
  5
1B1
330
1A9
100
AcDbEntity
  8
LIVELLO1
100
AcDbMText
 10
140.6934088434
 20
374.2304178169
 30
0.0
 40
6.0
 41
0.0
 71
     1
 72
     1
  1
25
  7
SLDTEXTSTYLE1
 73
     1
 44
1.0
  0
ENDBLK
  5
1AB
330
1A9
100
AcDbEntity
  8
0
100
AcDbBlockEnd
  0
BLOCK
  5
1B4
330
1B3
100
AcDbEntity
  8
0
100
AcDbBlockBegin
  2
_D_10
 70
     0
 10
0.0
 20
0.0
 30
0.0
  3
_D_10
  1

  0
SOLID
  5
1B6
330
1B3
100
AcDbEntity
  8
LIVELLO1
100
AcDbTrace
 10
124.3850756029
 20
354.3332455804
 30
0.0
 11
129.9850756029
 21
353.6332455804
 31
0.0
 12
129.9850756029
 22
355.0332455804
 32
0.0
 13
129.9850756029
 23
355.0332455804
 33
0.0
  0
SOLID
  5
1B7
330
1B3
100
AcDbEntity
  8
LIVELLO1
100
AcDbTrace
 10
164.3850756029
 20
354.3332455804
 30
0.0
 11
158.7850756029
 21
355.0332455804
 31
0.0
 12
158.7850756029
 22
353.6332455804
 32
0.0
 13
158.7850756029
 23
353.6332455804
 33
0.0
  0
LINE
  5
1B8
330
1B3
100
AcDbEntity
  8
LIVELLO1
100
AcDbLine
 10
124.3850756029
 20
399.3332455804
 30
0.0
 11
124.3850756029
 21
352.3332455804
 31
0.0
  0
LINE
  5
1B9
330
1B3
100
AcDbEntity
  8
LIVELLO1
100
AcDbLine
 10
164.3850756029
 20
399.3332455804
 30
0.0
 11
164.3850756029
 21
352.3332455804
 31
0.0
  0
LINE
  5
1BA
330
1B3
100
AcDbEntity
  8
LIVELLO1
100
AcDbLine
 10
124.3850756029
 20
354.3332455804
 30
0.0
 11
164.3850756029
 21
354.3332455804
 31
0.0
  0
MTEXT
  5
1BB
330
1B3
100
AcDbEntity
  8
LIVELLO1
100
AcDbMText
 10
140.6934088434
 20
362.2304178169
 30
0.0
 40
6.0
 41
0.0
 71
     1
 72
     1
  1
40
  7
SLDTEXTSTYLE1
 73
     1
 44
1.0
  0
ENDBLK
  5
1B5
330
1B3
100
AcDbEntity
  8
0
100
AcDbBlockEnd
  0
BLOCK
  5
1BD
330
1BC
100
AcDbEntity
  8
0
100
AcDbBlockBegin
  2
SW_RADIAL_DIMENSION_0
 70
     0
 10
0.0
 20
0.0
 30
0.0
  3
SW_RADIAL_DIMENSION_0
  1

  0
SOLID
  5
1BF
330
1BC
100
AcDbEntity
  8
LIVELLO1
 62
     0
100
AcDbTrace
 10
-47.8106552996
 20
29.3158264528
 30
0.0
 11
-52.1412170897
 21
32.934698457
 31
0.0
 12
-52.8987682972
 22
31.7573641085
 32
0.0
 13
-52.8987682972
 23
31.7573641085
 33
0.0
  0
SOLID
  5
1C0
330
1BC
100
AcDbEntity
  8
LIVELLO1
 62
     0
100
AcDbTrace
 10
-43.1854132164
 20
26.3397324234
 30
0.0
 11
-38.8548514264
 21
22.7208604192
 31
0.0
 12
-38.0973002189
 22
23.8981947677
 32
0.0
 13
-38.0973002189
 23
23.8981947677
 33
0.0
  0
LINE
  5
1C1
330
1BC
100
AcDbEntity
  8
LIVELLO1
 62
     0
100
AcDbLine
 10
-47.8106552996
 20
29.3158264528
 30
0.0
 11
-54.5382801479
 21
33.6446904956
 31
0.0
  0
LINE
  5
1C2
330
1BC
100
AcDbEntity
  8
LIVELLO1
 62
     0
100
AcDbLine
 10
-43.1854132164
 20
26.3397324234
 30
0.0
 11
-2.25
 21
0.0
 31
0.0
  0
LINE
  5
1C3
330
1BC
100
AcDbEntity
  8
LIVELLO1
 62
     0
100
AcDbLine
 10
-47.8106552996
 20
29.3158264528
 30
0.0
 11
-43.1854132164
 21
26.3397324234
 31
0.0
  0
LINE
  5
1C4
330
1BC
100
AcDbEntity
  8
LIVELLO1
 62
     0
100
AcDbLine
 10
-2.25
 20
0.0
 30
0.0
 11
35.4333296418
 21
0.0
 31
0.0
  0
MTEXT
  5
1C5
330
1BC
100
AcDbEntity
  8
LIVELLO1
 62
     0
100
AcDbMText
 10
0.0
 20
7.8971722365
 30
0.0
 40
6.0
 41
0.0
 71
     1
 72
     1
  1
3 x Lam. M5
  7
SLDTEXTSTYLE1
 73
     1
 44
1.0
  0
ENDBLK
  5
1BE
330
1BC
100
AcDbEntity
  8
0
100
AcDbBlockEnd
  0
BLOCK
  5
1C8
330
1C7
100
AcDbEntity
  8
0
100
AcDbBlockBegin
  2
SW_RADIAL_DIMENSION_1
 70
     0
 10
0.0
 20
0.0
 30
0.0
  3
SW_RADIAL_DIMENSION_1
  1

  0
SOLID
  5
1CA
330
1C7
100
AcDbEntity
  8
LIVELLO1
 62
     0
100
AcDbTrace
 10
95.6434766906
 20
51.9079036555
 30
0.0
 11
100.2820816653
 21
55.122455551
 31
0.0
 12
99.3480810456
 22
56.1653567172
 32
0.0
 13
99.3480810456
 23
56.1653567172
 33
0.0
  0
SOLID
  5
1CB
330
1C7
100
AcDbEntity
  8
LIVELLO1
 62
     0
100
AcDbTrace
 10
92.2912943706
 20
48.9057588067
 30
0.0
 11
87.6526893959
 21
45.6912069112
 31
0.0
 12
88.5866900155
 22
44.648305745
 32
0.0
 13
88.5866900155
 23
44.648305745
 33
0.0
  0
LINE
  5
1CC
330
1C7
100
AcDbEntity
  8
LIVELLO1
 62
     0
100
AcDbLine
 10
95.6434766906
 20
51.9079036555
 30
0.0
 11
101.6029119261
 21
57.2450500535
 31
0.0
  0
LINE
  5
1CD
330
1C7
100
AcDbEntity
  8
LIVELLO1
 62
     0
100
AcDbLine
 10
92.2912943706
 20
48.9057588067
 30
0.0
 11
37.6833296418
 21
0.0
 31
0.0
  0
LINE
  5
1CE
330
1C7
100
AcDbEntity
  8
LIVELLO1
 62
     0
100
AcDbLine
 10
95.6434766906
 20
51.9079036555
 30
0.0
 11
92.2912943706
 21
48.9057588067
 31
0.0
  0
LINE
  5
1CF
330
1C7
100
AcDbEntity
  8
LIVELLO1
 62
     0
100
AcDbLine
 10
37.6833296418
 20
0.0
 30
0.0
 11
0.0
 21
0.0
 31
0.0
  0
MTEXT
  5
1D0
330
1C7
100
AcDbEntity
  8
LIVELLO1
 62
     0
100
AcDbMText
 10
0.0
 20
7.8971722365
 30
0.0
 40
6.0
 41
0.0
 71
     1
 72
     1
  1
3 x Lam. M4
  7
SLDTEXTSTYLE1
 73
     1
 44
1.0
  0
ENDBLK
  5
1C9
330
1C7
100
AcDbEntity
  8
0
100
AcDbBlockEnd
  0
BLOCK
  5
1D3
330
1D2
100
AcDbEntity
  8
0
100
AcDbBlockBegin
  2
SW_CENTERMARKSYMBOL_0
 70
     0
 10
0.0
 20
0.0
 30
0.0
  3
SW_CENTERMARKSYMBOL_0
  1

  0
LINE
  5
1D5
330
1D2
100
AcDbEntity
  8
LIVELLO1
 62
     0
100
AcDbLine
 10
0.0
 20
0.0
 30
0.0
 11
0.0
 21
3.0
 31
0.0
  0
LINE
  5
1D6
330
1D2
100
AcDbEntity
  8
LIVELLO1
 62
     0
100
AcDbLine
 10
0.0
 20
0.0
 30
0.0
 11
-3.0
 21
0.0
 31
0.0
  0
LINE
  5
1D7
330
1D2
100
AcDbEntity
  8
LIVELLO1
 62
     0
100
AcDbLine
 10
0.0
 20
0.0
 30
0.0
 11
0.0
 21
-3.0
 31
0.0
  0
LINE
  5
1D8
330
1D2
100
AcDbEntity
  8
LIVELLO1
 62
     0
100
AcDbLine
 10
0.0
 20
0.0
 30
0.0
 11
3.0
 21
0.0
 31
0.0
  0
LINE
  5
1D9
330
1D2
100
AcDbEntity
  8
LIVELLO1
 62
     0
100
AcDbLine
 10
0.0
 20
6.0
 30
0.0
 11
0.0
 21
6.5
 31
0.0
  0
LINE
  5
1DA
330
1D2
100
AcDbEntity
  8
LIVELLO1
 62
     0
100
AcDbLine
 10
-6.0
 20
0.0
 30
0.0
 11
-6.5
 21
0.0
 31
0.0
  0
LINE
  5
1DB
330
1D2
100
AcDbEntity
  8
LIVELLO1
 62
     0
100
AcDbLine
 10
0.0
 20
-6.0
 30
0.0
 11
0.0
 21
-6.5
 31
0.0
  0
LINE
  5
1DC
330
1D2
100
AcDbEntity
  8
LIVELLO1
 62
     0
100
AcDbLine
 10
6.0
 20
0.0
 30
0.0
 11
6.5
 21
0.0
 31
0.0
  0
ENDBLK
  5
1D4
330
1D2
100
AcDbEntity
  8
0
100
AcDbBlockEnd
  0
BLOCK
  5
1DF
330
1DE
100
AcDbEntity
  8
0
100
AcDbBlockBegin
  2
SW_CENTERMARKSYMBOL_1
 70
     0
 10
0.0
 20
0.0
 30
0.0
  3
SW_CENTERMARKSYMBOL_1
  1

  0
LINE
  5
1E1
330
1DE
100
AcDbEntity
  8
LIVELLO1
 62
     0
100
AcDbLine
 10
0.0
 20
0.0
 30
0.0
 11
0.0
 21
3.0
 31
0.0
  0
LINE
  5
1E2
330
1DE
100
AcDbEntity
  8
LIVELLO1
 62
     0
100
AcDbLine
 10
0.0
 20
0.0
 30
0.0
 11
-3.0
 21
0.0
 31
0.0
  0
LINE
  5
1E3
330
1DE
100
AcDbEntity
  8
LIVELLO1
 62
     0
100
AcDbLine
 10
0.0
 20
0.0
 30
0.0
 11
0.0
 21
-3.0
 31
0.0
  0
LINE
  5
1E4
330
1DE
100
AcDbEntity
  8
LIVELLO1
 62
     0
100
AcDbLine
 10
0.0
 20
0.0
 30
0.0
 11
3.0
 21
0.0
 31
0.0
  0
LINE
  5
1E5
330
1DE
100
AcDbEntity
  8
LIVELLO1
 62
     0
100
AcDbLine
 10
0.0
 20
6.0
 30
0.0
 11
0.0
 21
6.5
 31
0.0
  0
LINE
  5
1E6
330
1DE
100
AcDbEntity
  8
LIVELLO1
 62
     0
100
AcDbLine
 10
-6.0
 20
0.0
 30
0.0
 11
-6.5
 21
0.0
 31
0.0
  0
LINE
  5
1E7
330
1DE
100
AcDbEntity
  8
LIVELLO1
 62
     0
100
AcDbLine
 10
0.0
 20
-6.0
 30
0.0
 11
0.0
 21
-6.5
 31
0.0
  0
LINE
  5
1E8
330
1DE
100
AcDbEntity
  8
LIVELLO1
 62
     0
100
AcDbLine
 10
6.0
 20
0.0
 30
0.0
 11
6.5
 21
0.0
 31
0.0
  0
ENDBLK
  5
1E0
330
1DE
100
AcDbEntity
  8
0
100
AcDbBlockEnd
  0
BLOCK
  5
1EB
330
1EA
100
AcDbEntity
  8
0
100
AcDbBlockBegin
  2
SW_CENTERMARKSYMBOL_2
 70
     0
 10
0.0
 20
0.0
 30
0.0
  3
SW_CENTERMARKSYMBOL_2
  1

  0
LINE
  5
1ED
330
1EA
100
AcDbEntity
  8
LIVELLO1
 62
     0
100
AcDbLine
 10
0.0
 20
0.0
 30
0.0
 11
0.0
 21
3.0
 31
0.0
  0
LINE
  5
1EE
330
1EA
100
AcDbEntity
  8
LIVELLO1
 62
     0
100
AcDbLine
 10
0.0
 20
0.0
 30
0.0
 11
-3.0
 21
0.0
 31
0.0
  0
LINE
  5
1EF
330
1EA
100
AcDbEntity
  8
LIVELLO1
 62
     0
100
AcDbLine
 10
0.0
 20
0.0
 30
0.0
 11
0.0
 21
-3.0
 31
0.0
  0
LINE
  5
1F0
330
1EA
100
AcDbEntity
  8
LIVELLO1
 62
     0
100
AcDbLine
 10
0.0
 20
0.0
 30
0.0
 11
3.0
 21
0.0
 31
0.0
  0
LINE
  5
1F1
330
1EA
100
AcDbEntity
  8
LIVELLO1
 62
     0
100
AcDbLine
 10
0.0
 20
3.0
 30
0.0
 11
0.0
 21
5.75
 31
0.0
  0
LINE
  5
1F2
330
1EA
100
AcDbEntity
  8
LIVELLO1
 62
     0
100
AcDbLine
 10
-3.0
 20
0.0
 30
0.0
 11
-5.75
 21
0.0
 31
0.0
  0
LINE
  5
1F3
330
1EA
100
AcDbEntity
  8
LIVELLO1
 62
     0
100
AcDbLine
 10
0.0
 20
-3.0
 30
0.0
 11
0.0
 21
-5.75
 31
0.0
  0
LINE
  5
1F4
330
1EA
100
AcDbEntity
  8
LIVELLO1
 62
     0
100
AcDbLine
 10
3.0
 20
0.0
 30
0.0
 11
5.75
 21
0.0
 31
0.0
  0
ENDBLK
  5
1EC
330
1EA
100
AcDbEntity
  8
0
100
AcDbBlockEnd
  0
BLOCK
  5
1F7
330
1F6
100
AcDbEntity
  8
0
100
AcDbBlockBegin
  2
SW_CENTERMARKSYMBOL_3
 70
     0
 10
0.0
 20
0.0
 30
0.0
  3
SW_CENTERMARKSYMBOL_3
  1

  0
LINE
  5
1F9
330
1F6
100
AcDbEntity
  8
LIVELLO1
 62
     0
100
AcDbLine
 10
0.0
 20
0.0
 30
0.0
 11
0.0
 21
3.0
 31
0.0
  0
LINE
  5
1FA
330
1F6
100
AcDbEntity
  8
LIVELLO1
 62
     0
100
AcDbLine
 10
0.0
 20
0.0
 30
0.0
 11
-3.0
 21
0.0
 31
0.0
  0
LINE
  5
1FB
330
1F6
100
AcDbEntity
  8
LIVELLO1
 62
     0
100
AcDbLine
 10
0.0
 20
0.0
 30
0.0
 11
0.0
 21
-3.0
 31
0.0
  0
LINE
  5
1FC
330
1F6
100
AcDbEntity
  8
LIVELLO1
 62
     0
100
AcDbLine
 10
0.0
 20
0.0
 30
0.0
 11
3.0
 21
0.0
 31
0.0
  0
LINE
  5
1FD
330
1F6
100
AcDbEntity
  8
LIVELLO1
 62
     0
100
AcDbLine
 10
0.0
 20
3.0
 30
0.0
 11
0.0
 21
5.75
 31
0.0
  0
LINE
  5
1FE
330
1F6
100
AcDbEntity
  8
LIVELLO1
 62
     0
100
AcDbLine
 10
-3.0
 20
0.0
 30
0.0
 11
-5.75
 21
0.0
 31
0.0
  0
LINE
  5
1FF
330
1F6
100
AcDbEntity
  8
LIVELLO1
 62
     0
100
AcDbLine
 10
0.0
 20
-3.0
 30
0.0
 11
0.0
 21
-5.75
 31
0.0
  0
LINE
  5
200
330
1F6
100
AcDbEntity
  8
LIVELLO1
 62
     0
100
AcDbLine
 10
3.0
 20
0.0
 30
0.0
 11
5.75
 21
0.0
 31
0.0
  0
ENDBLK
  5
1F8
330
1F6
100
AcDbEntity
  8
0
100
AcDbBlockEnd
  0
BLOCK
  5
203
330
202
100
AcDbEntity
  8
0
100
AcDbBlockBegin
  2
SW_CENTERMARKSYMBOL_4
 70
     0
 10
0.0
 20
0.0
 30
0.0
  3
SW_CENTERMARKSYMBOL_4
  1

  0
LINE
  5
205
330
202
100
AcDbEntity
  8
LIVELLO1
 62
     0
100
AcDbLine
 10
0.0
 20
0.0
 30
0.0
 11
0.0
 21
3.0
 31
0.0
  0
LINE
  5
206
330
202
100
AcDbEntity
  8
LIVELLO1
 62
     0
100
AcDbLine
 10
0.0
 20
0.0
 30
0.0
 11
-3.0
 21
0.0
 31
0.0
  0
LINE
  5
207
330
202
100
AcDbEntity
  8
LIVELLO1
 62
     0
100
AcDbLine
 10
0.0
 20
0.0
 30
0.0
 11
0.0
 21
-3.0
 31
0.0
  0
LINE
  5
208
330
202
100
AcDbEntity
  8
LIVELLO1
 62
     0
100
AcDbLine
 10
0.0
 20
0.0
 30
0.0
 11
3.0
 21
0.0
 31
0.0
  0
LINE
  5
209
330
202
100
AcDbEntity
  8
LIVELLO1
 62
     0
100
AcDbLine
 10
0.0
 20
6.0
 30
0.0
 11
0.0
 21
6.55
 31
0.0
  0
LINE
  5
20A
330
202
100
AcDbEntity
  8
LIVELLO1
 62
     0
100
AcDbLine
 10
-6.0
 20
0.0
 30
0.0
 11
-6.55
 21
0.0
 31
0.0
  0
LINE
  5
20B
330
202
100
AcDbEntity
  8
LIVELLO1
 62
     0
100
AcDbLine
 10
0.0
 20
-6.0
 30
0.0
 11
0.0
 21
-6.55
 31
0.0
  0
LINE
  5
20C
330
202
100
AcDbEntity
  8
LIVELLO1
 62
     0
100
AcDbLine
 10
6.0
 20
0.0
 30
0.0
 11
6.55
 21
0.0
 31
0.0
  0
ENDBLK
  5
204
330
202
100
AcDbEntity
  8
0
100
AcDbBlockEnd
  0
BLOCK
  5
20F
330
20E
100
AcDbEntity
  8
0
100
AcDbBlockBegin
  2
SW_CENTERMARKSYMBOL_5
 70
     0
 10
0.0
 20
0.0
 30
0.0
  3
SW_CENTERMARKSYMBOL_5
  1

  0
LINE
  5
211
330
20E
100
AcDbEntity
  8
LIVELLO1
 62
     0
100
AcDbLine
 10
0.0
 20
0.0
 30
0.0
 11
0.0
 21
3.0
 31
0.0
  0
LINE
  5
212
330
20E
100
AcDbEntity
  8
LIVELLO1
 62
     0
100
AcDbLine
 10
0.0
 20
0.0
 30
0.0
 11
-3.0
 21
0.0
 31
0.0
  0
LINE
  5
213
330
20E
100
AcDbEntity
  8
LIVELLO1
 62
     0
100
AcDbLine
 10
0.0
 20
0.0
 30
0.0
 11
0.0
 21
-3.0
 31
0.0
  0
LINE
  5
214
330
20E
100
AcDbEntity
  8
LIVELLO1
 62
     0
100
AcDbLine
 10
0.0
 20
0.0
 30
0.0
 11
3.0
 21
0.0
 31
0.0
  0
LINE
  5
215
330
20E
100
AcDbEntity
  8
LIVELLO1
 62
     0
100
AcDbLine
 10
0.0
 20
3.0
 30
0.0
 11
0.0
 21
5.55
 31
0.0
  0
LINE
  5
216
330
20E
100
AcDbEntity
  8
LIVELLO1
 62
     0
100
AcDbLine
 10
-3.0
 20
0.0
 30
0.0
 11
-5.55
 21
0.0
 31
0.0
  0
LINE
  5
217
330
20E
100
AcDbEntity
  8
LIVELLO1
 62
     0
100
AcDbLine
 10
0.0
 20
-3.0
 30
0.0
 11
0.0
 21
-5.55
 31
0.0
  0
LINE
  5
218
330
20E
100
AcDbEntity
  8
LIVELLO1
 62
     0
100
AcDbLine
 10
3.0
 20
0.0
 30
0.0
 11
5.55
 21
0.0
 31
0.0
  0
ENDBLK
  5
210
330
20E
100
AcDbEntity
  8
0
100
AcDbBlockEnd
  0
BLOCK
  5
21B
330
21A
100
AcDbEntity
  8
0
100
AcDbBlockBegin
  2
SW_CENTERMARKSYMBOL_6
 70
     0
 10
0.0
 20
0.0
 30
0.0
  3
SW_CENTERMARKSYMBOL_6
  1

  0
LINE
  5
21D
330
21A
100
AcDbEntity
  8
LIVELLO1
 62
     0
100
AcDbLine
 10
0.0
 20
0.0
 30
0.0
 11
0.0
 21
3.0
 31
0.0
  0
LINE
  5
21E
330
21A
100
AcDbEntity
  8
LIVELLO1
 62
     0
100
AcDbLine
 10
0.0
 20
0.0
 30
0.0
 11
-3.0
 21
0.0
 31
0.0
  0
LINE
  5
21F
330
21A
100
AcDbEntity
  8
LIVELLO1
 62
     0
100
AcDbLine
 10
0.0
 20
0.0
 30
0.0
 11
0.0
 21
-3.0
 31
0.0
  0
LINE
  5
220
330
21A
100
AcDbEntity
  8
LIVELLO1
 62
     0
100
AcDbLine
 10
0.0
 20
0.0
 30
0.0
 11
3.0
 21
0.0
 31
0.0
  0
LINE
  5
221
330
21A
100
AcDbEntity
  8
LIVELLO1
 62
     0
100
AcDbLine
 10
0.0
 20
3.0
 30
0.0
 11
0.0
 21
5.55
 31
0.0
  0
LINE
  5
222
330
21A
100
AcDbEntity
  8
LIVELLO1
 62
     0
100
AcDbLine
 10
-3.0
 20
0.0
 30
0.0
 11
-5.55
 21
0.0
 31
0.0
  0
LINE
  5
223
330
21A
100
AcDbEntity
  8
LIVELLO1
 62
     0
100
AcDbLine
 10
0.0
 20
-3.0
 30
0.0
 11
0.0
 21
-5.55
 31
0.0
  0
LINE
  5
224
330
21A
100
AcDbEntity
  8
LIVELLO1
 62
     0
100
AcDbLine
 10
3.0
 20
0.0
 30
0.0
 11
5.55
 21
0.0
 31
0.0
  0
ENDBLK
  5
21C
330
21A
100
AcDbEntity
  8
0
100
AcDbBlockEnd
  0
BLOCK
  5
227
330
226
100
AcDbEntity
  8
0
100
AcDbBlockBegin
  2
SW_CENTERMARKSYMBOL_7
 70
     0
 10
0.0
 20
0.0
 30
0.0
  3
SW_CENTERMARKSYMBOL_7
  1

  0
LINE
  5
229
330
226
100
AcDbEntity
  8
LIVELLO1
 62
     0
100
AcDbLine
 10
0.0
 20
0.0
 30
0.0
 11
0.0
 21
3.0
 31
0.0
  0
LINE
  5
22A
330
226
100
AcDbEntity
  8
LIVELLO1
 62
     0
100
AcDbLine
 10
0.0
 20
0.0
 30
0.0
 11
-3.0
 21
0.0
 31
0.0
  0
LINE
  5
22B
330
226
100
AcDbEntity
  8
LIVELLO1
 62
     0
100
AcDbLine
 10
0.0
 20
0.0
 30
0.0
 11
0.0
 21
-3.0
 31
0.0
  0
LINE
  5
22C
330
226
100
AcDbEntity
  8
LIVELLO1
 62
     0
100
AcDbLine
 10
0.0
 20
0.0
 30
0.0
 11
3.0
 21
0.0
 31
0.0
  0
LINE
  5
22D
330
226
100
AcDbEntity
  8
LIVELLO1
 62
     0
100
AcDbLine
 10
0.0
 20
3.0
 30
0.0
 11
0.0
 21
5.55
 31
0.0
  0
LINE
  5
22E
330
226
100
AcDbEntity
  8
LIVELLO1
 62
     0
100
AcDbLine
 10
-3.0
 20
0.0
 30
0.0
 11
-5.55
 21
0.0
 31
0.0
  0
LINE
  5
22F
330
226
100
AcDbEntity
  8
LIVELLO1
 62
     0
100
AcDbLine
 10
0.0
 20
-3.0
 30
0.0
 11
0.0
 21
-5.55
 31
0.0
  0
LINE
  5
230
330
226
100
AcDbEntity
  8
LIVELLO1
 62
     0
100
AcDbLine
 10
3.0
 20
0.0
 30
0.0
 11
5.55
 21
0.0
 31
0.0
  0
ENDBLK
  5
228
330
226
100
AcDbEntity
  8
0
100
AcDbBlockEnd
  0
BLOCK
  5
233
330
232
100
AcDbEntity
  8
0
100
AcDbBlockBegin
  2
SW_CENTERMARKSYMBOL_8
 70
     0
 10
0.0
 20
0.0
 30
0.0
  3
SW_CENTERMARKSYMBOL_8
  1

  0
LINE
  5
235
330
232
100
AcDbEntity
  8
LIVELLO1
 62
     0
100
AcDbLine
 10
0.0
 20
0.0
 30
0.0
 11
0.0
 21
3.0
 31
0.0
  0
LINE
  5
236
330
232
100
AcDbEntity
  8
LIVELLO1
 62
     0
100
AcDbLine
 10
0.0
 20
0.0
 30
0.0
 11
-3.0
 21
0.0
 31
0.0
  0
LINE
  5
237
330
232
100
AcDbEntity
  8
LIVELLO1
 62
     0
100
AcDbLine
 10
0.0
 20
0.0
 30
0.0
 11
0.0
 21
-3.0
 31
0.0
  0
LINE
  5
238
330
232
100
AcDbEntity
  8
LIVELLO1
 62
     0
100
AcDbLine
 10
0.0
 20
0.0
 30
0.0
 11
3.0
 21
0.0
 31
0.0
  0
LINE
  5
239
330
232
100
AcDbEntity
  8
LIVELLO1
 62
     0
100
AcDbLine
 10
0.0
 20
3.0
 30
0.0
 11
0.0
 21
5.55
 31
0.0
  0
LINE
  5
23A
330
232
100
AcDbEntity
  8
LIVELLO1
 62
     0
100
AcDbLine
 10
-3.0
 20
0.0
 30
0.0
 11
-5.55
 21
0.0
 31
0.0
  0
LINE
  5
23B
330
232
100
AcDbEntity
  8
LIVELLO1
 62
     0
100
AcDbLine
 10
0.0
 20
-3.0
 30
0.0
 11
0.0
 21
-5.55
 31
0.0
  0
LINE
  5
23C
330
232
100
AcDbEntity
  8
LIVELLO1
 62
     0
100
AcDbLine
 10
3.0
 20
0.0
 30
0.0
 11
5.55
 21
0.0
 31
0.0
  0
ENDBLK
  5
234
330
232
100
AcDbEntity
  8
0
100
AcDbBlockEnd
  0
BLOCK
  5
23F
330
23E
100
AcDbEntity
  8
0
100
AcDbBlockBegin
  2
SW_CENTERMARKSYMBOL_9
 70
     0
 10
0.0
 20
0.0
 30
0.0
  3
SW_CENTERMARKSYMBOL_9
  1

  0
LINE
  5
241
330
23E
100
AcDbEntity
  8
LIVELLO1
 62
     0
100
AcDbLine
 10
0.0
 20
0.0
 30
0.0
 11
0.0
 21
3.0
 31
0.0
  0
LINE
  5
242
330
23E
100
AcDbEntity
  8
LIVELLO1
 62
     0
100
AcDbLine
 10
0.0
 20
0.0
 30
0.0
 11
-3.0
 21
0.0
 31
0.0
  0
LINE
  5
243
330
23E
100
AcDbEntity
  8
LIVELLO1
 62
     0
100
AcDbLine
 10
0.0
 20
0.0
 30
0.0
 11
0.0
 21
-3.0
 31
0.0
  0
LINE
  5
244
330
23E
100
AcDbEntity
  8
LIVELLO1
 62
     0
100
AcDbLine
 10
0.0
 20
0.0
 30
0.0
 11
3.0
 21
0.0
 31
0.0
  0
LINE
  5
245
330
23E
100
AcDbEntity
  8
LIVELLO1
 62
     0
100
AcDbLine
 10
0.0
 20
6.0
 30
0.0
 11
0.0
 21
6.55
 31
0.0
  0
LINE
  5
246
330
23E
100
AcDbEntity
  8
LIVELLO1
 62
     0
100
AcDbLine
 10
-6.0
 20
0.0
 30
0.0
 11
-6.55
 21
0.0
 31
0.0
  0
LINE
  5
247
330
23E
100
AcDbEntity
  8
LIVELLO1
 62
     0
100
AcDbLine
 10
0.0
 20
-6.0
 30
0.0
 11
0.0
 21
-6.55
 31
0.0
  0
LINE
  5
248
330
23E
100
AcDbEntity
  8
LIVELLO1
 62
     0
100
AcDbLine
 10
6.0
 20
0.0
 30
0.0
 11
6.55
 21
0.0
 31
0.0
  0
ENDBLK
  5
240
330
23E
100
AcDbEntity
  8
0
100
AcDbBlockEnd
  0
BLOCK
  5
24B
330
24A
100
AcDbEntity
  8
0
100
AcDbBlockBegin
  2
SW_CENTERMARKSYMBOL_10
 70
     0
 10
0.0
 20
0.0
 30
0.0
  3
SW_CENTERMARKSYMBOL_10
  1

  0
LINE
  5
24D
330
24A
100
AcDbEntity
  8
LIVELLO1
 62
     0
100
AcDbLine
 10
0.0
 20
0.0
 30
0.0
 11
0.0
 21
3.0
 31
0.0
  0
LINE
  5
24E
330
24A
100
AcDbEntity
  8
LIVELLO1
 62
     0
100
AcDbLine
 10
0.0
 20
0.0
 30
0.0
 11
-3.0
 21
0.0
 31
0.0
  0
LINE
  5
24F
330
24A
100
AcDbEntity
  8
LIVELLO1
 62
     0
100
AcDbLine
 10
0.0
 20
0.0
 30
0.0
 11
0.0
 21
-3.0
 31
0.0
  0
LINE
  5
250
330
24A
100
AcDbEntity
  8
LIVELLO1
 62
     0
100
AcDbLine
 10
0.0
 20
0.0
 30
0.0
 11
3.0
 21
0.0
 31
0.0
  0
LINE
  5
251
330
24A
100
AcDbEntity
  8
LIVELLO1
 62
     0
100
AcDbLine
 10
0.0
 20
6.0
 30
0.0
 11
0.0
 21
6.5
 31
0.0
  0
LINE
  5
252
330
24A
100
AcDbEntity
  8
LIVELLO1
 62
     0
100
AcDbLine
 10
-6.0
 20
0.0
 30
0.0
 11
-6.5
 21
0.0
 31
0.0
  0
LINE
  5
253
330
24A
100
AcDbEntity
  8
LIVELLO1
 62
     0
100
AcDbLine
 10
0.0
 20
-6.0
 30
0.0
 11
0.0
 21
-6.5
 31
0.0
  0
LINE
  5
254
330
24A
100
AcDbEntity
  8
LIVELLO1
 62
     0
100
AcDbLine
 10
6.0
 20
0.0
 30
0.0
 11
6.5
 21
0.0
 31
0.0
  0
ENDBLK
  5
24C
330
24A
100
AcDbEntity
  8
0
100
AcDbBlockEnd
  0
BLOCK
  5
257
330
256
100
AcDbEntity
  8
0
100
AcDbBlockBegin
  2
SW_CENTERMARKSYMBOL_11
 70
     0
 10
0.0
 20
0.0
 30
0.0
  3
SW_CENTERMARKSYMBOL_11
  1

  0
LINE
  5
259
330
256
100
AcDbEntity
  8
LIVELLO1
 62
     0
100
AcDbLine
 10
0.0
 20
0.0
 30
0.0
 11
0.0
 21
3.0
 31
0.0
  0
LINE
  5
25A
330
256
100
AcDbEntity
  8
LIVELLO1
 62
     0
100
AcDbLine
 10
0.0
 20
0.0
 30
0.0
 11
-3.0
 21
0.0
 31
0.0
  0
LINE
  5
25B
330
256
100
AcDbEntity
  8
LIVELLO1
 62
     0
100
AcDbLine
 10
0.0
 20
0.0
 30
0.0
 11
0.0
 21
-3.0
 31
0.0
  0
LINE
  5
25C
330
256
100
AcDbEntity
  8
LIVELLO1
 62
     0
100
AcDbLine
 10
0.0
 20
0.0
 30
0.0
 11
3.0
 21
0.0
 31
0.0
  0
LINE
  5
25D
330
256
100
AcDbEntity
  8
LIVELLO1
 62
     0
100
AcDbLine
 10
0.0
 20
6.0
 30
0.0
 11
0.0
 21
6.5
 31
0.0
  0
LINE
  5
25E
330
256
100
AcDbEntity
  8
LIVELLO1
 62
     0
100
AcDbLine
 10
-6.0
 20
0.0
 30
0.0
 11
-6.5
 21
0.0
 31
0.0
  0
LINE
  5
25F
330
256
100
AcDbEntity
  8
LIVELLO1
 62
     0
100
AcDbLine
 10
0.0
 20
-6.0
 30
0.0
 11
0.0
 21
-6.5
 31
0.0
  0
LINE
  5
260
330
256
100
AcDbEntity
  8
LIVELLO1
 62
     0
100
AcDbLine
 10
6.0
 20
0.0
 30
0.0
 11
6.5
 21
0.0
 31
0.0
  0
ENDBLK
  5
258
330
256
100
AcDbEntity
  8
0
100
AcDbBlockEnd
  0
BLOCK
  5
263
330
262
100
AcDbEntity
  8
0
100
AcDbBlockBegin
  2
SW_CENTERMARKSYMBOL_12
 70
     0
 10
0.0
 20
0.0
 30
0.0
  3
SW_CENTERMARKSYMBOL_12
  1

  0
LINE
  5
265
330
262
100
AcDbEntity
  8
LIVELLO1
 62
     0
100
AcDbLine
 10
0.0
 20
0.0
 30
0.0
 11
0.0
 21
3.0
 31
0.0
  0
LINE
  5
266
330
262
100
AcDbEntity
  8
LIVELLO1
 62
     0
100
AcDbLine
 10
0.0
 20
0.0
 30
0.0
 11
-3.0
 21
0.0
 31
0.0
  0
LINE
  5
267
330
262
100
AcDbEntity
  8
LIVELLO1
 62
     0
100
AcDbLine
 10
0.0
 20
0.0
 30
0.0
 11
0.0
 21
-3.0
 31
0.0
  0
LINE
  5
268
330
262
100
AcDbEntity
  8
LIVELLO1
 62
     0
100
AcDbLine
 10
0.0
 20
0.0
 30
0.0
 11
3.0
 21
0.0
 31
0.0
  0
LINE
  5
269
330
262
100
AcDbEntity
  8
LIVELLO1
 62
     0
100
AcDbLine
 10
0.0
 20
6.0
 30
0.0
 11
0.0
 21
6.5
 31
0.0
  0
LINE
  5
26A
330
262
100
AcDbEntity
  8
LIVELLO1
 62
     0
100
AcDbLine
 10
-6.0
 20
0.0
 30
0.0
 11
-6.5
 21
0.0
 31
0.0
  0
LINE
  5
26B
330
262
100
AcDbEntity
  8
LIVELLO1
 62
     0
100
AcDbLine
 10
0.0
 20
-6.0
 30
0.0
 11
0.0
 21
-6.5
 31
0.0
  0
LINE
  5
26C
330
262
100
AcDbEntity
  8
LIVELLO1
 62
     0
100
AcDbLine
 10
6.0
 20
0.0
 30
0.0
 11
6.5
 21
0.0
 31
0.0
  0
ENDBLK
  5
264
330
262
100
AcDbEntity
  8
0
100
AcDbBlockEnd
  0
BLOCK
  5
26F
330
26E
100
AcDbEntity
  8
0
100
AcDbBlockBegin
  2
SW_CENTERMARKSYMBOL_13
 70
     0
 10
0.0
 20
0.0
 30
0.0
  3
SW_CENTERMARKSYMBOL_13
  1

  0
LINE
  5
271
330
26E
100
AcDbEntity
  8
LIVELLO1
 62
     0
100
AcDbLine
 10
0.0
 20
0.0
 30
0.0
 11
0.0
 21
3.0
 31
0.0
  0
LINE
  5
272
330
26E
100
AcDbEntity
  8
LIVELLO1
 62
     0
100
AcDbLine
 10
0.0
 20
0.0
 30
0.0
 11
-3.0
 21
0.0
 31
0.0
  0
LINE
  5
273
330
26E
100
AcDbEntity
  8
LIVELLO1
 62
     0
100
AcDbLine
 10
0.0
 20
0.0
 30
0.0
 11
0.0
 21
-3.0
 31
0.0
  0
LINE
  5
274
330
26E
100
AcDbEntity
  8
LIVELLO1
 62
     0
100
AcDbLine
 10
0.0
 20
0.0
 30
0.0
 11
3.0
 21
0.0
 31
0.0
  0
LINE
  5
275
330
26E
100
AcDbEntity
  8
LIVELLO1
 62
     0
100
AcDbLine
 10
0.0
 20
6.0
 30
0.0
 11
0.0
 21
6.5
 31
0.0
  0
LINE
  5
276
330
26E
100
AcDbEntity
  8
LIVELLO1
 62
     0
100
AcDbLine
 10
-6.0
 20
0.0
 30
0.0
 11
-6.5
 21
0.0
 31
0.0
  0
LINE
  5
277
330
26E
100
AcDbEntity
  8
LIVELLO1
 62
     0
100
AcDbLine
 10
0.0
 20
-6.0
 30
0.0
 11
0.0
 21
-6.5
 31
0.0
  0
LINE
  5
278
330
26E
100
AcDbEntity
  8
LIVELLO1
 62
     0
100
AcDbLine
 10
6.0
 20
0.0
 30
0.0
 11
6.5
 21
0.0
 31
0.0
  0
ENDBLK
  5
270
330
26E
100
AcDbEntity
  8
0
100
AcDbBlockEnd
  0
BLOCK
  5
27B
330
27A
100
AcDbEntity
  8
0
100
AcDbBlockBegin
  2
SW_CENTERMARKSYMBOL_14
 70
     0
 10
0.0
 20
0.0
 30
0.0
  3
SW_CENTERMARKSYMBOL_14
  1

  0
LINE
  5
27D
330
27A
100
AcDbEntity
  8
LIVELLO1
 62
     0
100
AcDbLine
 10
0.0
 20
0.0
 30
0.0
 11
0.0
 21
3.0
 31
0.0
  0
LINE
  5
27E
330
27A
100
AcDbEntity
  8
LIVELLO1
 62
     0
100
AcDbLine
 10
0.0
 20
0.0
 30
0.0
 11
-3.0
 21
0.0
 31
0.0
  0
LINE
  5
27F
330
27A
100
AcDbEntity
  8
LIVELLO1
 62
     0
100
AcDbLine
 10
0.0
 20
0.0
 30
0.0
 11
0.0
 21
-3.0
 31
0.0
  0
LINE
  5
280
330
27A
100
AcDbEntity
  8
LIVELLO1
 62
     0
100
AcDbLine
 10
0.0
 20
0.0
 30
0.0
 11
3.0
 21
0.0
 31
0.0
  0
LINE
  5
281
330
27A
100
AcDbEntity
  8
LIVELLO1
 62
     0
100
AcDbLine
 10
0.0
 20
6.0
 30
0.0
 11
0.0
 21
6.5
 31
0.0
  0
LINE
  5
282
330
27A
100
AcDbEntity
  8
LIVELLO1
 62
     0
100
AcDbLine
 10
-6.0
 20
0.0
 30
0.0
 11
-6.5
 21
0.0
 31
0.0
  0
LINE
  5
283
330
27A
100
AcDbEntity
  8
LIVELLO1
 62
     0
100
AcDbLine
 10
0.0
 20
-6.0
 30
0.0
 11
0.0
 21
-6.5
 31
0.0
  0
LINE
  5
284
330
27A
100
AcDbEntity
  8
LIVELLO1
 62
     0
100
AcDbLine
 10
6.0
 20
0.0
 30
0.0
 11
6.5
 21
0.0
 31
0.0
  0
ENDBLK
  5
27C
330
27A
100
AcDbEntity
  8
0
100
AcDbBlockEnd
  0
BLOCK
  5
287
330
286
100
AcDbEntity
  8
0
100
AcDbBlockBegin
  2
SW_CENTERMARKSYMBOL_15
 70
     0
 10
0.0
 20
0.0
 30
0.0
  3
SW_CENTERMARKSYMBOL_15
  1

  0
LINE
  5
289
330
286
100
AcDbEntity
  8
LIVELLO1
 62
     0
100
AcDbLine
 10
0.0
 20
0.0
 30
0.0
 11
0.0
 21
3.0
 31
0.0
  0
LINE
  5
28A
330
286
100
AcDbEntity
  8
LIVELLO1
 62
     0
100
AcDbLine
 10
0.0
 20
0.0
 30
0.0
 11
-3.0
 21
0.0
 31
0.0
  0
LINE
  5
28B
330
286
100
AcDbEntity
  8
LIVELLO1
 62
     0
100
AcDbLine
 10
0.0
 20
0.0
 30
0.0
 11
0.0
 21
-3.0
 31
0.0
  0
LINE
  5
28C
330
286
100
AcDbEntity
  8
LIVELLO1
 62
     0
100
AcDbLine
 10
0.0
 20
0.0
 30
0.0
 11
3.0
 21
0.0
 31
0.0
  0
LINE
  5
28D
330
286
100
AcDbEntity
  8
LIVELLO1
 62
     0
100
AcDbLine
 10
0.0
 20
6.0
 30
0.0
 11
0.0
 21
6.5
 31
0.0
  0
LINE
  5
28E
330
286
100
AcDbEntity
  8
LIVELLO1
 62
     0
100
AcDbLine
 10
-6.0
 20
0.0
 30
0.0
 11
-6.5
 21
0.0
 31
0.0
  0
LINE
  5
28F
330
286
100
AcDbEntity
  8
LIVELLO1
 62
     0
100
AcDbLine
 10
0.0
 20
-6.0
 30
0.0
 11
0.0
 21
-6.5
 31
0.0
  0
LINE
  5
290
330
286
100
AcDbEntity
  8
LIVELLO1
 62
     0
100
AcDbLine
 10
6.0
 20
0.0
 30
0.0
 11
6.5
 21
0.0
 31
0.0
  0
ENDBLK
  5
288
330
286
100
AcDbEntity
  8
0
100
AcDbBlockEnd
  0
BLOCK
  5
293
330
292
100
AcDbEntity
  8
0
100
AcDbBlockBegin
  2
SW_CENTERMARKSYMBOL_16
 70
     0
 10
0.0
 20
0.0
 30
0.0
  3
SW_CENTERMARKSYMBOL_16
  1

  0
LINE
  5
295
330
292
100
AcDbEntity
  8
LIVELLO1
 62
     0
100
AcDbLine
 10
0.0
 20
0.0
 30
0.0
 11
0.0
 21
3.0
 31
0.0
  0
LINE
  5
296
330
292
100
AcDbEntity
  8
LIVELLO1
 62
     0
100
AcDbLine
 10
0.0
 20
0.0
 30
0.0
 11
-3.0
 21
0.0
 31
0.0
  0
LINE
  5
297
330
292
100
AcDbEntity
  8
LIVELLO1
 62
     0
100
AcDbLine
 10
0.0
 20
0.0
 30
0.0
 11
0.0
 21
-3.0
 31
0.0
  0
LINE
  5
298
330
292
100
AcDbEntity
  8
LIVELLO1
 62
     0
100
AcDbLine
 10
0.0
 20
0.0
 30
0.0
 11
3.0
 21
0.0
 31
0.0
  0
LINE
  5
299
330
292
100
AcDbEntity
  8
LIVELLO1
 62
     0
100
AcDbLine
 10
0.0
 20
3.0
 30
0.0
 11
0.0
 21
5.75
 31
0.0
  0
LINE
  5
29A
330
292
100
AcDbEntity
  8
LIVELLO1
 62
     0
100
AcDbLine
 10
-3.0
 20
0.0
 30
0.0
 11
-5.75
 21
0.0
 31
0.0
  0
LINE
  5
29B
330
292
100
AcDbEntity
  8
LIVELLO1
 62
     0
100
AcDbLine
 10
0.0
 20
-3.0
 30
0.0
 11
0.0
 21
-5.75
 31
0.0
  0
LINE
  5
29C
330
292
100
AcDbEntity
  8
LIVELLO1
 62
     0
100
AcDbLine
 10
3.0
 20
0.0
 30
0.0
 11
5.75
 21
0.0
 31
0.0
  0
ENDBLK
  5
294
330
292
100
AcDbEntity
  8
0
100
AcDbBlockEnd
  0
BLOCK
  5
29F
330
29E
100
AcDbEntity
  8
0
100
AcDbBlockBegin
  2
SW_CENTERMARKSYMBOL_17
 70
     0
 10
0.0
 20
0.0
 30
0.0
  3
SW_CENTERMARKSYMBOL_17
  1

  0
LINE
  5
2A1
330
29E
100
AcDbEntity
  8
LIVELLO1
 62
     0
100
AcDbLine
 10
0.0
 20
0.0
 30
0.0
 11
0.0
 21
3.0
 31
0.0
  0
LINE
  5
2A2
330
29E
100
AcDbEntity
  8
LIVELLO1
 62
     0
100
AcDbLine
 10
0.0
 20
0.0
 30
0.0
 11
-3.0
 21
0.0
 31
0.0
  0
LINE
  5
2A3
330
29E
100
AcDbEntity
  8
LIVELLO1
 62
     0
100
AcDbLine
 10
0.0
 20
0.0
 30
0.0
 11
0.0
 21
-3.0
 31
0.0
  0
LINE
  5
2A4
330
29E
100
AcDbEntity
  8
LIVELLO1
 62
     0
100
AcDbLine
 10
0.0
 20
0.0
 30
0.0
 11
3.0
 21
0.0
 31
0.0
  0
LINE
  5
2A5
330
29E
100
AcDbEntity
  8
LIVELLO1
 62
     0
100
AcDbLine
 10
0.0
 20
3.0
 30
0.0
 11
0.0
 21
5.75
 31
0.0
  0
LINE
  5
2A6
330
29E
100
AcDbEntity
  8
LIVELLO1
 62
     0
100
AcDbLine
 10
-3.0
 20
0.0
 30
0.0
 11
-5.75
 21
0.0
 31
0.0
  0
LINE
  5
2A7
330
29E
100
AcDbEntity
  8
LIVELLO1
 62
     0
100
AcDbLine
 10
0.0
 20
-3.0
 30
0.0
 11
0.0
 21
-5.75
 31
0.0
  0
LINE
  5
2A8
330
29E
100
AcDbEntity
  8
LIVELLO1
 62
     0
100
AcDbLine
 10
3.0
 20
0.0
 30
0.0
 11
5.75
 21
0.0
 31
0.0
  0
ENDBLK
  5
2A0
330
29E
100
AcDbEntity
  8
0
100
AcDbBlockEnd
  0
BLOCK
  5
2AB
330
2AA
100
AcDbEntity
  8
0
100
AcDbBlockBegin
  2
SW_CENTERMARKSYMBOL_18
 70
     0
 10
0.0
 20
0.0
 30
0.0
  3
SW_CENTERMARKSYMBOL_18
  1

  0
LINE
  5
2AD
330
2AA
100
AcDbEntity
  8
LIVELLO1
 62
     0
100
AcDbLine
 10
0.0
 20
0.0
 30
0.0
 11
0.0
 21
3.0
 31
0.0
  0
LINE
  5
2AE
330
2AA
100
AcDbEntity
  8
LIVELLO1
 62
     0
100
AcDbLine
 10
0.0
 20
0.0
 30
0.0
 11
-3.0
 21
0.0
 31
0.0
  0
LINE
  5
2AF
330
2AA
100
AcDbEntity
  8
LIVELLO1
 62
     0
100
AcDbLine
 10
0.0
 20
0.0
 30
0.0
 11
0.0
 21
-3.0
 31
0.0
  0
LINE
  5
2B0
330
2AA
100
AcDbEntity
  8
LIVELLO1
 62
     0
100
AcDbLine
 10
0.0
 20
0.0
 30
0.0
 11
3.0
 21
0.0
 31
0.0
  0
LINE
  5
2B1
330
2AA
100
AcDbEntity
  8
LIVELLO1
 62
     0
100
AcDbLine
 10
0.0
 20
3.0
 30
0.0
 11
0.0
 21
5.75
 31
0.0
  0
LINE
  5
2B2
330
2AA
100
AcDbEntity
  8
LIVELLO1
 62
     0
100
AcDbLine
 10
-3.0
 20
0.0
 30
0.0
 11
-5.75
 21
0.0
 31
0.0
  0
LINE
  5
2B3
330
2AA
100
AcDbEntity
  8
LIVELLO1
 62
     0
100
AcDbLine
 10
0.0
 20
-3.0
 30
0.0
 11
0.0
 21
-5.75
 31
0.0
  0
LINE
  5
2B4
330
2AA
100
AcDbEntity
  8
LIVELLO1
 62
     0
100
AcDbLine
 10
3.0
 20
0.0
 30
0.0
 11
5.75
 21
0.0
 31
0.0
  0
ENDBLK
  5
2AC
330
2AA
100
AcDbEntity
  8
0
100
AcDbBlockEnd
  0
BLOCK
  5
2B7
330
2B6
100
AcDbEntity
  8
0
100
AcDbBlockBegin
  2
SW_CENTERMARKSYMBOL_19
 70
     0
 10
0.0
 20
0.0
 30
0.0
  3
SW_CENTERMARKSYMBOL_19
  1

  0
LINE
  5
2B9
330
2B6
100
AcDbEntity
  8
LIVELLO1
 62
     0
100
AcDbLine
 10
0.0
 20
0.0
 30
0.0
 11
0.0
 21
3.0
 31
0.0
  0
LINE
  5
2BA
330
2B6
100
AcDbEntity
  8
LIVELLO1
 62
     0
100
AcDbLine
 10
0.0
 20
0.0
 30
0.0
 11
-3.0
 21
0.0
 31
0.0
  0
LINE
  5
2BB
330
2B6
100
AcDbEntity
  8
LIVELLO1
 62
     0
100
AcDbLine
 10
0.0
 20
0.0
 30
0.0
 11
0.0
 21
-3.0
 31
0.0
  0
LINE
  5
2BC
330
2B6
100
AcDbEntity
  8
LIVELLO1
 62
     0
100
AcDbLine
 10
0.0
 20
0.0
 30
0.0
 11
3.0
 21
0.0
 31
0.0
  0
LINE
  5
2BD
330
2B6
100
AcDbEntity
  8
LIVELLO1
 62
     0
100
AcDbLine
 10
0.0
 20
3.0
 30
0.0
 11
0.0
 21
5.25
 31
0.0
  0
LINE
  5
2BE
330
2B6
100
AcDbEntity
  8
LIVELLO1
 62
     0
100
AcDbLine
 10
-3.0
 20
0.0
 30
0.0
 11
-5.25
 21
0.0
 31
0.0
  0
LINE
  5
2BF
330
2B6
100
AcDbEntity
  8
LIVELLO1
 62
     0
100
AcDbLine
 10
0.0
 20
-3.0
 30
0.0
 11
0.0
 21
-5.25
 31
0.0
  0
LINE
  5
2C0
330
2B6
100
AcDbEntity
  8
LIVELLO1
 62
     0
100
AcDbLine
 10
3.0
 20
0.0
 30
0.0
 11
5.25
 21
0.0
 31
0.0
  0
ENDBLK
  5
2B8
330
2B6
100
AcDbEntity
  8
0
100
AcDbBlockEnd
  0
BLOCK
  5
2C3
330
2C2
100
AcDbEntity
  8
0
100
AcDbBlockBegin
  2
SW_CENTERMARKSYMBOL_20
 70
     0
 10
0.0
 20
0.0
 30
0.0
  3
SW_CENTERMARKSYMBOL_20
  1

  0
LINE
  5
2C5
330
2C2
100
AcDbEntity
  8
LIVELLO1
 62
     0
100
AcDbLine
 10
0.0
 20
0.0
 30
0.0
 11
0.0
 21
3.0
 31
0.0
  0
LINE
  5
2C6
330
2C2
100
AcDbEntity
  8
LIVELLO1
 62
     0
100
AcDbLine
 10
0.0
 20
0.0
 30
0.0
 11
-3.0
 21
0.0
 31
0.0
  0
LINE
  5
2C7
330
2C2
100
AcDbEntity
  8
LIVELLO1
 62
     0
100
AcDbLine
 10
0.0
 20
0.0
 30
0.0
 11
0.0
 21
-3.0
 31
0.0
  0
LINE
  5
2C8
330
2C2
100
AcDbEntity
  8
LIVELLO1
 62
     0
100
AcDbLine
 10
0.0
 20
0.0
 30
0.0
 11
3.0
 21
0.0
 31
0.0
  0
LINE
  5
2C9
330
2C2
100
AcDbEntity
  8
LIVELLO1
 62
     0
100
AcDbLine
 10
0.0
 20
3.0
 30
0.0
 11
0.0
 21
5.25
 31
0.0
  0
LINE
  5
2CA
330
2C2
100
AcDbEntity
  8
LIVELLO1
 62
     0
100
AcDbLine
 10
-3.0
 20
0.0
 30
0.0
 11
-5.25
 21
0.0
 31
0.0
  0
LINE
  5
2CB
330
2C2
100
AcDbEntity
  8
LIVELLO1
 62
     0
100
AcDbLine
 10
0.0
 20
-3.0
 30
0.0
 11
0.0
 21
-5.25
 31
0.0
  0
LINE
  5
2CC
330
2C2
100
AcDbEntity
  8
LIVELLO1
 62
     0
100
AcDbLine
 10
3.0
 20
0.0
 30
0.0
 11
5.25
 21
0.0
 31
0.0
  0
ENDBLK
  5
2C4
330
2C2
100
AcDbEntity
  8
0
100
AcDbBlockEnd
  0
BLOCK
  5
2CF
330
2CE
100
AcDbEntity
  8
0
100
AcDbBlockBegin
  2
SW_CENTERMARKSYMBOL_21
 70
     0
 10
0.0
 20
0.0
 30
0.0
  3
SW_CENTERMARKSYMBOL_21
  1

  0
LINE
  5
2D1
330
2CE
100
AcDbEntity
  8
LIVELLO1
 62
     0
100
AcDbLine
 10
0.0
 20
0.0
 30
0.0
 11
0.0
 21
3.0
 31
0.0
  0
LINE
  5
2D2
330
2CE
100
AcDbEntity
  8
LIVELLO1
 62
     0
100
AcDbLine
 10
0.0
 20
0.0
 30
0.0
 11
-3.0
 21
0.0
 31
0.0
  0
LINE
  5
2D3
330
2CE
100
AcDbEntity
  8
LIVELLO1
 62
     0
100
AcDbLine
 10
0.0
 20
0.0
 30
0.0
 11
0.0
 21
-3.0
 31
0.0
  0
LINE
  5
2D4
330
2CE
100
AcDbEntity
  8
LIVELLO1
 62
     0
100
AcDbLine
 10
0.0
 20
0.0
 30
0.0
 11
3.0
 21
0.0
 31
0.0
  0
LINE
  5
2D5
330
2CE
100
AcDbEntity
  8
LIVELLO1
 62
     0
100
AcDbLine
 10
0.0
 20
3.0
 30
0.0
 11
0.0
 21
5.25
 31
0.0
  0
LINE
  5
2D6
330
2CE
100
AcDbEntity
  8
LIVELLO1
 62
     0
100
AcDbLine
 10
-3.0
 20
0.0
 30
0.0
 11
-5.25
 21
0.0
 31
0.0
  0
LINE
  5
2D7
330
2CE
100
AcDbEntity
  8
LIVELLO1
 62
     0
100
AcDbLine
 10
0.0
 20
-3.0
 30
0.0
 11
0.0
 21
-5.25
 31
0.0
  0
LINE
  5
2D8
330
2CE
100
AcDbEntity
  8
LIVELLO1
 62
     0
100
AcDbLine
 10
3.0
 20
0.0
 30
0.0
 11
5.25
 21
0.0
 31
0.0
  0
ENDBLK
  5
2D0
330
2CE
100
AcDbEntity
  8
0
100
AcDbBlockEnd
  0
BLOCK
  5
3FE
330
3FD
100
AcDbEntity
  8
0
100
AcDbBlockBegin
  2
_D_11
 70
     0
 10
0.0
 20
0.0
 30
0.0
  3
_D_11
  1

  0
SOLID
  5
400
330
3FD
100
AcDbEntity
  8
LIVELLO1
100
AcDbTrace
 10
81.3850756029
 20
331.6462994737
 30
0.0
 11
80.6850756029
 21
326.0462994737
 31
0.0
 12
82.0850756029
 22
326.0462994737
 32
0.0
 13
82.0850756029
 23
326.0462994737
 33
0.0
  0
SOLID
  5
401
330
3FD
100
AcDbEntity
  8
LIVELLO1
100
AcDbTrace
 10
81.3850756029
 20
260.9462994737
 30
0.0
 11
82.0850756029
 21
266.5462994737
 31
0.0
 12
80.6850756029
 22
266.5462994737
 32
0.0
 13
80.6850756029
 23
266.5462994737
 33
0.0
  0
LINE
  5
402
330
3FD
100
AcDbEntity
  8
LIVELLO1
100
AcDbLine
 10
139.9350756029
 20
331.6462994737
 30
0.0
 11
79.3850756029
 21
331.6462994737
 31
0.0
  0
LINE
  5
403
330
3FD
100
AcDbEntity
  8
LIVELLO1
100
AcDbLine
 10
122.3850756029
 20
260.9462994737
 30
0.0
 11
79.3850756029
 21
260.9462994737
 31
0.0
  0
LINE
  5
404
330
3FD
100
AcDbEntity
  8
LIVELLO1
100
AcDbLine
 10
81.3850756029
 20
331.6462994737
 30
0.0
 11
81.3850756029
 21
260.9462994737
 31
0.0
  0
MTEXT
  5
405
330
3FD
100
AcDbEntity
  8
LIVELLO1
100
AcDbMText
 10
73.4879033664
 20
292.6046327142
 30
0.0
 40
6.0
 41
0.0
 71
     1
 72
     1
  1
71
  7
SLDTEXTSTYLE1
 11
-7.044195017643634E-15
 21
1.0
 31
0.0
 73
     1
 44
1.0
  0
ENDBLK
  5
3FF
330
3FD
100
AcDbEntity
  8
0
100
AcDbBlockEnd
  0
BLOCK
  5
409
330
408
100
AcDbEntity
  8
0
100
AcDbBlockBegin
  2
_D_12
 70
     0
 10
0.0
 20
0.0
 30
0.0
  3
_D_12
  1

  0
SOLID
  5
40B
330
408
100
AcDbEntity
  8
LIVELLO1
100
AcDbTrace
 10
93.3850756029
 20
260.9462994737
 30
0.0
 11
92.6850756029
 21
255.3462994737
 31
0.0
 12
94.0850756029
 22
255.3462994737
 32
0.0
 13
94.0850756029
 23
255.3462994737
 33
0.0
  0
SOLID
  5
40C
330
408
100
AcDbEntity
  8
LIVELLO1
100
AcDbTrace
 10
93.3850756029
 20
268.9462994737
 30
0.0
 11
94.0850756029
 21
274.5462994737
 31
0.0
 12
92.6850756029
 22
274.5462994737
 32
0.0
 13
92.6850756029
 23
274.5462994737
 33
0.0
  0
LINE
  5
40D
330
408
100
AcDbEntity
  8
LIVELLO1
100
AcDbLine
 10
122.3850756029
 20
260.9462994737
 30
0.0
 11
91.3850756029
 21
260.9462994737
 31
0.0
  0
LINE
  5
40E
330
408
100
AcDbEntity
  8
LIVELLO1
100
AcDbLine
 10
122.3850756029
 20
268.9462994737
 30
0.0
 11
91.3850756029
 21
268.9462994737
 31
0.0
  0
LINE
  5
40F
330
408
100
AcDbEntity
  8
LIVELLO1
100
AcDbLine
 10
93.3850756029
 20
260.9462994737
 30
0.0
 11
93.3850756029
 21
252.9462994737
 31
0.0
  0
LINE
  5
410
330
408
100
AcDbEntity
  8
LIVELLO1
100
AcDbLine
 10
93.3850756029
 20
260.9462994737
 30
0.0
 11
93.3850756029
 21
268.9462994737
 31
0.0
  0
LINE
  5
411
330
408
100
AcDbEntity
  8
LIVELLO1
100
AcDbLine
 10
93.3850756029
 20
268.9462994737
 30
0.0
 11
93.3850756029
 21
276.9462994737
 31
0.0
  0
MTEXT
  5
412
330
408
100
AcDbEntity
  8
LIVELLO1
100
AcDbMText
 10
85.4879033664
 20
263.1004660939
 30
0.0
 40
6.0
 41
0.0
 71
     1
 72
     1
  1
8
  7
SLDTEXTSTYLE1
 11
6.123233995736766E-17
 21
1.0
 31
0.0
 73
     1
 44
1.0
  0
ENDBLK
  5
40A
330
408
100
AcDbEntity
  8
0
100
AcDbBlockEnd
  0
BLOCK
  5
416
330
415
100
AcDbEntity
  8
0
100
AcDbBlockBegin
  2
_D_13
 70
     0
 10
0.0
 20
0.0
 30
0.0
  3
_D_13
  1

  0
SOLID
  5
418
330
415
100
AcDbEntity
  8
LIVELLO1
100
AcDbTrace
 10
191.6302732884
 20
293.4462994737
 30
0.0
 11
190.9302732884
 21
287.8462994737
 31
0.0
 12
192.3302732884
 22
287.8462994737
 32
0.0
 13
192.3302732884
 23
287.8462994737
 33
0.0
  0
SOLID
  5
419
330
415
100
AcDbEntity
  8
LIVELLO1
100
AcDbTrace
 10
191.6302732884
 20
273.9462994737
 30
0.0
 11
192.3302732884
 21
279.5462994737
 31
0.0
 12
190.9302732884
 22
279.5462994737
 32
0.0
 13
190.9302732884
 23
279.5462994737
 33
0.0
  0
LINE
  5
41A
330
415
100
AcDbEntity
  8
LIVELLO1
100
AcDbLine
 10
149.8350756032
 20
293.4462994737
 30
0.0
 11
193.6302732884
 21
293.4462994737
 31
0.0
  0
LINE
  5
41B
330
415
100
AcDbEntity
  8
LIVELLO1
100
AcDbLine
 10
150.5850756029
 20
273.9462994737
 30
0.0
 11
193.6302732884
 21
273.9462994737
 31
0.0
  0
LINE
  5
41C
330
415
100
AcDbEntity
  8
LIVELLO1
100
AcDbLine
 10
191.6302732884
 20
293.4462994737
 30
0.0
 11
191.6302732884
 21
273.9462994737
 31
0.0
  0
MTEXT
  5
41D
330
415
100
AcDbEntity
  8
LIVELLO1
100
AcDbMText
 10
183.7331010519
 20
276.6490109547
 30
0.0
 40
6.0
 41
0.0
 71
     1
 72
     1
  1
19 st
  7
SLDTEXTSTYLE1
 11
-7.044195017643634E-15
 21
1.0
 31
0.0
 73
     1
 44
1.0
  0
ENDBLK
  5
417
330
415
100
AcDbEntity
  8
0
100
AcDbBlockEnd
  0
BLOCK
  5
624
330
623
100
AcDbEntity
  8
0
100
AcDbBlockBegin
  2
_D_14
 70
     0
 10
0.0
 20
0.0
 30
0.0
  3
_D_14
  1

  0
SOLID
  5
626
330
623
100
AcDbEntity
  8
LIVELLO1
100
AcDbTrace
 10
348.2306717514
 20
529.3332455804
 30
0.0
 11
348.9306717514
 21
534.9332455804
 31
0.0
 12
347.5306717514
 22
534.9332455804
 32
0.0
 13
347.5306717514
 23
534.9332455804
 33
0.0
  0
SOLID
  5
627
330
623
100
AcDbEntity
  8
LIVELLO1
100
AcDbTrace
 10
348.2306717514
 20
511.3332455804
 30
0.0
 11
347.5306717514
 21
505.7332455804
 31
0.0
 12
348.9306717514
 22
505.7332455804
 32
0.0
 13
348.9306717514
 23
505.7332455804
 33
0.0
  0
LINE
  5
628
330
623
100
AcDbEntity
  8
LIVELLO1
100
AcDbLine
 10
287.7306717514
 20
529.3332455804
 30
0.0
 11
350.2306717514
 21
529.3332455804
 31
0.0
  0
LINE
  5
629
330
623
100
AcDbEntity
  8
LIVELLO1
100
AcDbLine
 10
282.7306717514
 20
511.3332455804
 30
0.0
 11
350.2306717514
 21
511.3332455804
 31
0.0
  0
LINE
  5
62A
330
623
100
AcDbEntity
  8
LIVELLO1
100
AcDbLine
 10
348.2306717514
 20
529.3332455804
 30
0.0
 11
348.2306717514
 21
537.3332455804
 31
0.0
  0
LINE
  5
62B
330
623
100
AcDbEntity
  8
LIVELLO1
100
AcDbLine
 10
348.2306717514
 20
529.3332455804
 30
0.0
 11
348.2306717514
 21
511.3332455804
 31
0.0
  0
LINE
  5
62C
330
623
100
AcDbEntity
  8
LIVELLO1
100
AcDbLine
 10
348.2306717514
 20
511.3332455804
 30
0.0
 11
348.2306717514
 21
503.3332455804
 31
0.0
  0
MTEXT
  5
62D
330
623
100
AcDbEntity
  8
LIVELLO1
100
AcDbMText
 10
340.3334995149
 20
516.6415788209
 30
0.0
 40
6.0
 41
0.0
 71
     1
 72
     1
  1
18
  7
SLDTEXTSTYLE1
 11
-7.044195017643634E-15
 21
1.0
 31
0.0
 73
     1
 44
1.0
  0
ENDBLK
  5
625
330
623
100
AcDbEntity
  8
0
100
AcDbBlockEnd
  0
BLOCK
  5
630
330
62F
100
AcDbEntity
  8
0
100
AcDbBlockBegin
  2
_D_15
 70
     0
 10
0.0
 20
0.0
 30
0.0
  3
_D_15
  1

  0
SOLID
  5
632
330
62F
100
AcDbEntity
  8
LIVELLO1
100
AcDbTrace
 10
348.2306717514
 20
511.3332455804
 30
0.0
 11
347.5306717514
 21
505.7332455804
 31
0.0
 12
348.9306717514
 22
505.7332455804
 32
0.0
 13
348.9306717514
 23
505.7332455804
 33
0.0
  0
SOLID
  5
633
330
62F
100
AcDbEntity
  8
LIVELLO1
100
AcDbTrace
 10
348.2306717514
 20
474.3332455804
 30
0.0
 11
348.9306717514
 21
479.9332455804
 31
0.0
 12
347.5306717514
 22
479.9332455804
 32
0.0
 13
347.5306717514
 23
479.9332455804
 33
0.0
  0
LINE
  5
634
330
62F
100
AcDbEntity
  8
LIVELLO1
100
AcDbLine
 10
282.7306717514
 20
511.3332455804
 30
0.0
 11
350.2306717514
 21
511.3332455804
 31
0.0
  0
LINE
  5
635
330
62F
100
AcDbEntity
  8
LIVELLO1
100
AcDbLine
 10
282.7306717514
 20
474.3332455804
 30
0.0
 11
350.2306717514
 21
474.3332455804
 31
0.0
  0
LINE
  5
636
330
62F
100
AcDbEntity
  8
LIVELLO1
100
AcDbLine
 10
348.2306717514
 20
511.3332455804
 30
0.0
 11
348.2306717514
 21
474.3332455804
 31
0.0
  0
MTEXT
  5
637
330
62F
100
AcDbEntity
  8
LIVELLO1
100
AcDbMText
 10
340.3334995149
 20
489.1415788209
 30
0.0
 40
6.0
 41
0.0
 71
     1
 72
     1
  1
37
  7
SLDTEXTSTYLE1
 11
-7.044195017643634E-15
 21
1.0
 31
0.0
 73
     1
 44
1.0
  0
ENDBLK
  5
631
330
62F
100
AcDbEntity
  8
0
100
AcDbBlockEnd
  0
BLOCK
  5
63B
330
63A
100
AcDbEntity
  8
0
100
AcDbBlockBegin
  2
_D_16
 70
     0
 10
0.0
 20
0.0
 30
0.0
  3
_D_16
  1

  0
SOLID
  5
63D
330
63A
100
AcDbEntity
  8
LIVELLO1
100
AcDbTrace
 10
276.3504871557
 20
507.4677796105
 30
0.0
 11
279.8153103835
 21
503.013006889
 31
0.0
 12
280.8052598772
 22
504.0029563827
 32
0.0
 13
280.8052598772
 23
504.0029563827
 33
0.0
  0
SOLID
  5
63E
330
63A
100
AcDbEntity
  8
LIVELLO1
100
AcDbTrace
 10
267.8652057814
 20
515.9530609847
 30
0.0
 11
264.4003825536
 21
520.4078337062
 31
0.0
 12
263.41043306
 22
519.4178842125
 32
0.0
 13
263.41043306
 23
519.4178842125
 33
0.0
  0
LINE
  5
63F
330
63A
100
AcDbEntity
  8
LIVELLO1
100
AcDbLine
 10
277.3875260009
 20
508.5048184557
 30
0.0
 11
277.7647007181
 21
508.8819931728
 31
0.0
  0
LINE
  5
640
330
63A
100
AcDbEntity
  8
LIVELLO1
100
AcDbLine
 10
268.9022446267
 20
516.9900998299
 30
0.0
 11
269.2794193438
 21
517.3672745471
 31
0.0
  0
LINE
  5
641
330
63A
100
AcDbEntity
  8
LIVELLO1
100
AcDbLine
 10
276.3504871557
 20
507.4677796105
 30
0.0
 11
282.0073414052
 21
501.810925361
 31
0.0
  0
LINE
  5
642
330
63A
100
AcDbEntity
  8
LIVELLO1
100
AcDbLine
 10
267.8652057814
 20
515.9530609847
 30
0.0
 11
249.8948878083
 21
533.9233789579
 31
0.0
  0
MTEXT
  5
643
330
63A
100
AcDbEntity
  8
LIVELLO1
100
AcDbMText
 10
236.8192632157
 20
541.8538840442
 30
0.0
 40
6.0
 41
0.0
 71
     1
 72
     1
  1
%%c
  7
SLDTEXTSTYLE1
 73
     1
 44
1.0
  0
MTEXT
  5
644
330
63A
100
AcDbEntity
  8
LIVELLO1
100
AcDbMText
 10
245.8205135944
 20
541.8205507287
 30
0.0
 40
6.0
 41
0.0
 71
     1
 72
     1
  1
12
  7
SLDTEXTSTYLE1
 73
     1
 44
1.0
  0
ENDBLK
  5
63C
330
63A
100
AcDbEntity
  8
0
100
AcDbBlockEnd
  0
BLOCK
  5
646
330
645
100
AcDbEntity
  8
0
100
AcDbBlockBegin
  2
SW_CENTERMARKSYMBOL_22
 70
     0
 10
0.0
 20
0.0
 30
0.0
  3
SW_CENTERMARKSYMBOL_22
  1

  0
LINE
  5
648
330
645
100
AcDbEntity
  8
LIVELLO1
 62
     0
100
AcDbLine
 10
0.0
 20
0.0
 30
0.0
 11
0.0
 21
3.0
 31
0.0
  0
LINE
  5
649
330
645
100
AcDbEntity
  8
LIVELLO1
 62
     0
100
AcDbLine
 10
0.0
 20
0.0
 30
0.0
 11
-3.0
 21
0.0
 31
0.0
  0
LINE
  5
64A
330
645
100
AcDbEntity
  8
LIVELLO1
 62
     0
100
AcDbLine
 10
0.0
 20
0.0
 30
0.0
 11
0.0
 21
-3.0
 31
0.0
  0
LINE
  5
64B
330
645
100
AcDbEntity
  8
LIVELLO1
 62
     0
100
AcDbLine
 10
0.0
 20
0.0
 30
0.0
 11
3.0
 21
0.0
 31
0.0
  0
LINE
  5
64C
330
645
100
AcDbEntity
  8
LIVELLO1
 62
     0
100
AcDbLine
 10
0.0
 20
3.0
 30
0.0
 11
0.0
 21
4.25
 31
0.0
  0
LINE
  5
64D
330
645
100
AcDbEntity
  8
LIVELLO1
 62
     0
100
AcDbLine
 10
-3.0
 20
0.0
 30
0.0
 11
-4.25
 21
0.0
 31
0.0
  0
LINE
  5
64E
330
645
100
AcDbEntity
  8
LIVELLO1
 62
     0
100
AcDbLine
 10
0.0
 20
-3.0
 30
0.0
 11
0.0
 21
-4.25
 31
0.0
  0
LINE
  5
64F
330
645
100
AcDbEntity
  8
LIVELLO1
 62
     0
100
AcDbLine
 10
3.0
 20
0.0
 30
0.0
 11
4.25
 21
0.0
 31
0.0
  0
ENDBLK
  5
647
330
645
100
AcDbEntity
  8
0
100
AcDbBlockEnd
  0
BLOCK
  5
652
330
651
100
AcDbEntity
  8
0
100
AcDbBlockBegin
  2
SW_CENTERMARKSYMBOL_23
 70
     0
 10
0.0
 20
0.0
 30
0.0
  3
SW_CENTERMARKSYMBOL_23
  1

  0
LINE
  5
654
330
651
100
AcDbEntity
  8
LIVELLO1
 62
     0
100
AcDbLine
 10
0.0
 20
0.0
 30
0.0
 11
0.0
 21
3.0
 31
0.0
  0
LINE
  5
655
330
651
100
AcDbEntity
  8
LIVELLO1
 62
     0
100
AcDbLine
 10
0.0
 20
0.0
 30
0.0
 11
-3.0
 21
0.0
 31
0.0
  0
LINE
  5
656
330
651
100
AcDbEntity
  8
LIVELLO1
 62
     0
100
AcDbLine
 10
0.0
 20
0.0
 30
0.0
 11
0.0
 21
-3.0
 31
0.0
  0
LINE
  5
657
330
651
100
AcDbEntity
  8
LIVELLO1
 62
     0
100
AcDbLine
 10
0.0
 20
0.0
 30
0.0
 11
3.0
 21
0.0
 31
0.0
  0
LINE
  5
658
330
651
100
AcDbEntity
  8
LIVELLO1
 62
     0
100
AcDbLine
 10
0.0
 20
3.0
 30
0.0
 11
0.0
 21
4.25
 31
0.0
  0
LINE
  5
659
330
651
100
AcDbEntity
  8
LIVELLO1
 62
     0
100
AcDbLine
 10
-3.0
 20
0.0
 30
0.0
 11
-4.25
 21
0.0
 31
0.0
  0
LINE
  5
65A
330
651
100
AcDbEntity
  8
LIVELLO1
 62
     0
100
AcDbLine
 10
0.0
 20
-3.0
 30
0.0
 11
0.0
 21
-4.25
 31
0.0
  0
LINE
  5
65B
330
651
100
AcDbEntity
  8
LIVELLO1
 62
     0
100
AcDbLine
 10
3.0
 20
0.0
 30
0.0
 11
4.25
 21
0.0
 31
0.0
  0
ENDBLK
  5
653
330
651
100
AcDbEntity
  8
0
100
AcDbBlockEnd
  0
BLOCK
  5
65E
330
65D
100
AcDbEntity
  8
0
100
AcDbBlockBegin
  2
SW_CENTERMARKSYMBOL_24
 70
     0
 10
0.0
 20
0.0
 30
0.0
  3
SW_CENTERMARKSYMBOL_24
  1

  0
LINE
  5
660
330
65D
100
AcDbEntity
  8
LIVELLO1
 62
     0
100
AcDbLine
 10
0.0
 20
0.0
 30
0.0
 11
0.0
 21
3.0
 31
0.0
  0
LINE
  5
661
330
65D
100
AcDbEntity
  8
LIVELLO1
 62
     0
100
AcDbLine
 10
0.0
 20
0.0
 30
0.0
 11
-3.0
 21
0.0
 31
0.0
  0
LINE
  5
662
330
65D
100
AcDbEntity
  8
LIVELLO1
 62
     0
100
AcDbLine
 10
0.0
 20
0.0
 30
0.0
 11
0.0
 21
-3.0
 31
0.0
  0
LINE
  5
663
330
65D
100
AcDbEntity
  8
LIVELLO1
 62
     0
100
AcDbLine
 10
0.0
 20
0.0
 30
0.0
 11
3.0
 21
0.0
 31
0.0
  0
LINE
  5
664
330
65D
100
AcDbEntity
  8
LIVELLO1
 62
     0
100
AcDbLine
 10
0.0
 20
6.0
 30
0.0
 11
0.0
 21
9.0
 31
0.0
  0
LINE
  5
665
330
65D
100
AcDbEntity
  8
LIVELLO1
 62
     0
100
AcDbLine
 10
-6.0
 20
0.0
 30
0.0
 11
-9.0
 21
0.0
 31
0.0
  0
LINE
  5
666
330
65D
100
AcDbEntity
  8
LIVELLO1
 62
     0
100
AcDbLine
 10
0.0
 20
-6.0
 30
0.0
 11
0.0
 21
-9.0
 31
0.0
  0
LINE
  5
667
330
65D
100
AcDbEntity
  8
LIVELLO1
 62
     0
100
AcDbLine
 10
6.0
 20
0.0
 30
0.0
 11
9.0
 21
0.0
 31
0.0
  0
ENDBLK
  5
65F
330
65D
100
AcDbEntity
  8
0
100
AcDbBlockEnd
  0
BLOCK
  5
66A
330
669
100
AcDbEntity
  8
0
100
AcDbBlockBegin
  2
SW_CENTERMARKSYMBOL_25
 70
     0
 10
0.0
 20
0.0
 30
0.0
  3
SW_CENTERMARKSYMBOL_25
  1

  0
LINE
  5
66C
330
669
100
AcDbEntity
  8
LIVELLO1
 62
     0
100
AcDbLine
 10
0.0
 20
0.0
 30
0.0
 11
0.0
 21
3.0
 31
0.0
  0
LINE
  5
66D
330
669
100
AcDbEntity
  8
LIVELLO1
 62
     0
100
AcDbLine
 10
0.0
 20
0.0
 30
0.0
 11
-3.0
 21
0.0
 31
0.0
  0
LINE
  5
66E
330
669
100
AcDbEntity
  8
LIVELLO1
 62
     0
100
AcDbLine
 10
0.0
 20
0.0
 30
0.0
 11
0.0
 21
-3.0
 31
0.0
  0
LINE
  5
66F
330
669
100
AcDbEntity
  8
LIVELLO1
 62
     0
100
AcDbLine
 10
0.0
 20
0.0
 30
0.0
 11
3.0
 21
0.0
 31
0.0
  0
LINE
  5
670
330
669
100
AcDbEntity
  8
LIVELLO1
 62
     0
100
AcDbLine
 10
0.0
 20
6.0
 30
0.0
 11
0.0
 21
9.0
 31
0.0
  0
LINE
  5
671
330
669
100
AcDbEntity
  8
LIVELLO1
 62
     0
100
AcDbLine
 10
-6.0
 20
0.0
 30
0.0
 11
-9.0
 21
0.0
 31
0.0
  0
LINE
  5
672
330
669
100
AcDbEntity
  8
LIVELLO1
 62
     0
100
AcDbLine
 10
0.0
 20
-6.0
 30
0.0
 11
0.0
 21
-9.0
 31
0.0
  0
LINE
  5
673
330
669
100
AcDbEntity
  8
LIVELLO1
 62
     0
100
AcDbLine
 10
6.0
 20
0.0
 30
0.0
 11
9.0
 21
0.0
 31
0.0
  0
ENDBLK
  5
66B
330
669
100
AcDbEntity
  8
0
100
AcDbBlockEnd
  0
ENDSEC
  0
SECTION
  2
ENTITIES
  0
CIRCLE
  5
89
330
1F
100
AcDbEntity
  8
0
  6
Continuous
 62
     7
370
    35
100
AcDbCircle
 10
131.8850756029
 20
464.8332455804
 30
0.0
 40
3.549999999999983
  0
CIRCLE
  5
8A
330
1F
100
AcDbEntity
  8
0
  6
Continuous
 62
     7
370
    35
100
AcDbCircle
 10
154.3850756029
 20
484.3332455804
 30
0.0
 40
2.55000000000004
  0
LINE
  5
8B
330
1F
100
AcDbEntity
  8
0
  6
Continuous
 62
     7
370
    35
100
AcDbLine
 10
175.3850756029
 20
526.3332455804
 30
0.0
 11
172.3850756029
 21
529.3332455804
 31
0.0
  0
LINE
  5
8C
330
1F
100
AcDbEntity
  8
0
  6
Continuous
 62
     7
370
    35
100
AcDbLine
 10
172.3850756029
 20
409.3332455804
 30
0.0
 11
175.3850756029
 21
412.3332455804
 31
0.0
  0
CIRCLE
  5
8D
330
1F
100
AcDbEntity
  8
0
  6
Continuous
 62
     7
370
    35
100
AcDbCircle
 10
156.8850756029
 20
464.8332455804
 30
0.0
 40
3.55000000000004
  0
CIRCLE
  5
8E
330
1F
100
AcDbEntity
  8
0
  6
Continuous
 62
     7
370
    35
100
AcDbCircle
 10
134.3850756029
 20
484.3332455804
 30
0.0
 40
2.549999999999983
  0
LINE
  5
8F
330
1F
100
AcDbEntity
  8
0
  6
Continuous
 62
     7
370
    35
100
AcDbLine
 10
116.3850756029
 20
409.3332455804
 30
0.0
 11
124.3850756029
 21
409.3332455804
 31
0.0
  0
LINE
  5
90
330
1F
100
AcDbEntity
  8
0
  6
Continuous
 62
     7
370
    35
100
AcDbLine
 10
164.3850756029
 20
409.3332455804
 30
0.0
 11
172.3850756029
 21
409.3332455804
 31
0.0
  0
CIRCLE
  5
91
330
1F
100
AcDbEntity
  8
0
  6
Continuous
 62
     7
370
    35
100
AcDbCircle
 10
154.3850756029
 20
521.3332455804
 30
0.0
 40
2.55000000000004
  0
LINE
  5
92
330
1F
100
AcDbEntity
  8
0
  6
Continuous
 62
     7
370
    35
100
AcDbLine
 10
175.3850756029
 20
412.3332455804
 30
0.0
 11
175.3850756029
 21
526.3332455804
 31
0.0
  0
LINE
  5
93
330
1F
100
AcDbEntity
  8
0
  6
Continuous
 62
     7
370
    35
100
AcDbLine
 10
172.3850756029
 20
529.3332455804
 30
0.0
 11
116.3850756029
 21
529.3332455804
 31
0.0
  0
CIRCLE
  5
94
330
1F
100
AcDbEntity
  8
0
  6
Continuous
 62
     7
370
    35
100
AcDbCircle
 10
134.3850756029
 20
521.3332455804
 30
0.0
 40
2.549999999999983
  0
LINE
  5
95
330
1F
100
AcDbEntity
  8
0
  6
Continuous
 62
     7
370
    35
100
AcDbLine
 10
113.3850756029
 20
412.3332455804
 30
0.0
 11
116.3850756029
 21
409.3332455804
 31
0.0
  0
LINE
  5
96
330
1F
100
AcDbEntity
  8
0
  6
Continuous
 62
     7
370
    35
100
AcDbLine
 10
113.3850756029
 20
526.3332455804
 30
0.0
 11
113.3850756029
 21
412.3332455804
 31
0.0
  0
LINE
  5
97
330
1F
100
AcDbEntity
  8
0
  6
Continuous
 62
     7
370
    35
100
AcDbLine
 10
116.3850756029
 20
529.3332455804
 30
0.0
 11
113.3850756029
 21
526.3332455804
 31
0.0
  0
LINE
  5
98
330
1F
100
AcDbEntity
  8
0
  6
Continuous
 62
     7
370
    35
100
AcDbLine
 10
143.1350756029
 20
453.0549334169
 30
0.0
 11
143.1350756029
 21
451.611557744
 31
0.0
  0
LINE
  5
99
330
1F
100
AcDbEntity
  8
0
  6
Continuous
 62
     7
370
    35
100
AcDbLine
 10
144.3850756029
 20
450.8898699075
 30
0.0
 11
145.6350756029
 21
451.611557744
 31
0.0
  0
LINE
  5
9A
330
1F
100
AcDbEntity
  8
0
  6
Continuous
 62
     7
370
    35
100
AcDbLine
 10
145.6350756029
 20
451.611557744
 30
0.0
 11
145.6350756029
 21
453.0549334169
 31
0.0
  0
LINE
  5
9B
330
1F
100
AcDbEntity
  8
0
  6
Continuous
 62
     7
370
    35
100
AcDbLine
 10
145.6350756029
 20
453.0549334169
 30
0.0
 11
144.3850756029
 21
453.7766212534
 31
0.0
  0
CIRCLE
  5
9C
330
1F
100
AcDbEntity
  8
0
  6
Continuous
 62
     7
370
    35
100
AcDbCircle
 10
144.3850756029
 20
452.3332455804
 30
0.0
 40
2.449999999999932
  0
LINE
  5
9D
330
1F
100
AcDbEntity
  8
0
  6
Continuous
 62
     7
370
    35
100
AcDbLine
 10
143.1350756029
 20
451.611557744
 30
0.0
 11
144.3850756029
 21
450.8898699075
 31
0.0
  0
LINE
  5
9E
330
1F
100
AcDbEntity
  8
0
  6
Continuous
 62
     7
370
    35
100
AcDbLine
 10
144.3850756029
 20
453.7766212534
 30
0.0
 11
143.1350756029
 21
453.0549334169
 31
0.0
  0
CIRCLE
  5
9F
330
1F
100
AcDbEntity
  8
0
  6
Continuous
 62
     7
370
    35
100
AcDbCircle
 10
144.3850756029
 20
452.3332455804
 30
0.0
 40
2.749999999999943
  0
LINE
  5
A0
330
1F
100
AcDbEntity
  8
0
  6
Continuous
 62
     7
370
    35
100
AcDbLine
 10
144.3850756029
 20
450.8898699075
 30
0.0
 11
144.3850756029
 21
452.3332455804
 31
0.0
  0
LINE
  5
A1
330
1F
100
AcDbEntity
  8
0
  6
Continuous
 62
     7
370
    35
100
AcDbLine
 10
145.6350756029
 20
451.611557744
 30
0.0
 11
144.3850756029
 21
452.3332455804
 31
0.0
  0
LINE
  5
A2
330
1F
100
AcDbEntity
  8
0
  6
Continuous
 62
     7
370
    35
100
AcDbLine
 10
144.3850756029
 20
453.7766212534
 30
0.0
 11
144.3850756029
 21
452.3332455804
 31
0.0
  0
LINE
  5
A3
330
1F
100
AcDbEntity
  8
0
  6
Continuous
 62
     7
370
    35
100
AcDbLine
 10
143.1350756029
 20
453.0549334169
 30
0.0
 11
144.3850756029
 21
452.3332455804
 31
0.0
  0
LINE
  5
A4
330
1F
100
AcDbEntity
  8
0
  6
Continuous
 62
     7
370
    35
100
AcDbLine
 10
143.1350756029
 20
451.611557744
 30
0.0
 11
144.3850756029
 21
452.3332455804
 31
0.0
  0
LINE
  5
A5
330
1F
100
AcDbEntity
  8
0
  6
Continuous
 62
     7
370
    35
100
AcDbLine
 10
144.3850756029
 20
452.3332455804
 30
0.0
 11
145.6350756029
 21
453.0549334169
 31
0.0
  0
CIRCLE
  5
A6
330
1F
100
AcDbEntity
  8
0
  6
Continuous
 62
     7
370
    35
100
AcDbCircle
 10
144.3850756029
 20
418.3332455804
 30
0.0
 40
2.449999999999989
  0
CIRCLE
  5
A7
330
1F
100
AcDbEntity
  8
0
  6
Continuous
 62
     7
370
    35
100
AcDbCircle
 10
144.3850756029
 20
418.3332455804
 30
0.0
 40
2.750000000000057
  0
LINE
  5
A8
330
1F
100
AcDbEntity
  8
0
  6
Continuous
 62
     7
370
    35
100
AcDbLine
 10
144.3850756029
 20
419.7766212534
 30
0.0
 11
143.1350756029
 21
419.0549334169
 31
0.0
  0
LINE
  5
A9
330
1F
100
AcDbEntity
  8
0
  6
Continuous
 62
     7
370
    35
100
AcDbLine
 10
143.1350756029
 20
417.611557744
 30
0.0
 11
144.3850756029
 21
416.8898699075
 31
0.0
  0
LINE
  5
AA
330
1F
100
AcDbEntity
  8
0
  6
Continuous
 62
     7
370
    35
100
AcDbLine
 10
144.3850756029
 20
416.8898699075
 30
0.0
 11
145.6350756029
 21
417.611557744
 31
0.0
  0
LINE
  5
AB
330
1F
100
AcDbEntity
  8
0
  6
Continuous
 62
     7
370
    35
100
AcDbLine
 10
145.6350756029
 20
417.611557744
 30
0.0
 11
145.6350756029
 21
419.0549334169
 31
0.0
  0
LINE
  5
AC
330
1F
100
AcDbEntity
  8
0
  6
Continuous
 62
     7
370
    35
100
AcDbLine
 10
145.6350756029
 20
419.0549334169
 30
0.0
 11
144.3850756029
 21
419.7766212534
 31
0.0
  0
LINE
  5
AD
330
1F
100
AcDbEntity
  8
0
  6
Continuous
 62
     7
370
    35
100
AcDbLine
 10
143.1350756029
 20
419.0549334169
 30
0.0
 11
143.1350756029
 21
417.611557744
 31
0.0
  0
LINE
  5
AE
330
1F
100
AcDbEntity
  8
0
  6
Continuous
 62
     7
370
    35
100
AcDbLine
 10
145.6350756029
 20
417.611557744
 30
0.0
 11
144.3850756029
 21
418.3332455804
 31
0.0
  0
LINE
  5
AF
330
1F
100
AcDbEntity
  8
0
  6
Continuous
 62
     7
370
    35
100
AcDbLine
 10
144.3850756029
 20
418.3332455804
 30
0.0
 11
145.6350756029
 21
419.0549334169
 31
0.0
  0
LINE
  5
B0
330
1F
100
AcDbEntity
  8
0
  6
Continuous
 62
     7
370
    35
100
AcDbLine
 10
144.3850756029
 20
419.7766212534
 30
0.0
 11
144.3850756029
 21
418.3332455804
 31
0.0
  0
LINE
  5
B1
330
1F
100
AcDbEntity
  8
0
  6
Continuous
 62
     7
370
    35
100
AcDbLine
 10
143.1350756029
 20
419.0549334169
 30
0.0
 11
144.3850756029
 21
418.3332455804
 31
0.0
  0
LINE
  5
B2
330
1F
100
AcDbEntity
  8
0
  6
Continuous
 62
     7
370
    35
100
AcDbLine
 10
143.1350756029
 20
417.611557744
 30
0.0
 11
144.3850756029
 21
418.3332455804
 31
0.0
  0
LINE
  5
B3
330
1F
100
AcDbEntity
  8
0
  6
Continuous
 62
     7
370
    35
100
AcDbLine
 10
144.3850756029
 20
416.8898699075
 30
0.0
 11
144.3850756029
 21
418.3332455804
 31
0.0
  0
LINE
  5
B4
330
1F
100
AcDbEntity
  8
0
  6
Continuous
 62
     7
370
    35
100
AcDbLine
 10
143.8850756029
 20
408.3457534027
 30
0.0
 11
143.4451517975
 21
408.3775164138
 31
0.0
  0
LINE
  5
B5
330
1F
100
AcDbEntity
  8
0
  6
Continuous
 62
     7
370
    35
100
AcDbLine
 10
145.3249994083
 20
408.3775164138
 30
0.0
 11
144.8850756029
 21
408.3457534027
 31
0.0
  0
LINE
  5
B6
330
1F
100
AcDbEntity
  8
0
  6
Continuous
 62
     7
370
    35
100
AcDbLine
 10
144.8850756029
 20
408.3457534027
 30
0.0
 11
144.8850756029
 21
408.4808217953
 31
0.0
  0
LINE
  5
B7
330
1F
100
AcDbEntity
  8
0
  6
Continuous
 62
     7
370
    35
100
AcDbLine
 10
143.8850756029
 20
408.484872539
 30
0.0
 11
143.8850756029
 21
408.3457534027
 31
0.0
  0
LINE
  5
B8
330
1F
100
AcDbEntity
  8
0
  6
Continuous
 62
     7
370
    35
100
AcDbLine
 10
167.1422840434
 20
462.6182959431
 30
0.0
 11
168.7488697753
 21
463.2655071034
 31
0.0
  0
LINE
  5
B9
330
1F
100
AcDbEntity
  8
0
  6
Continuous
 62
     7
370
    35
100
AcDbLine
 10
168.7488697753
 20
463.2655071034
 30
0.0
 11
168.9916613348
 21
464.9804567408
 31
0.0
  0
LINE
  5
BA
330
1F
100
AcDbEntity
  8
0
  6
Continuous
 62
     7
370
    35
100
AcDbLine
 10
168.9916613348
 20
464.9804567408
 30
0.0
 11
167.6278671624
 21
466.0481952178
 31
0.0
  0
LINE
  5
BB
330
1F
100
AcDbEntity
  8
0
  6
Continuous
 62
     7
370
    35
100
AcDbLine
 10
167.6278671624
 20
466.0481952178
 30
0.0
 11
166.0212814305
 21
465.4009840575
 31
0.0
  0
LINE
  5
BC
330
1F
100
AcDbEntity
  8
0
  6
Continuous
 62
     7
370
    35
100
AcDbLine
 10
166.0212814305
 20
465.4009840575
 30
0.0
 11
165.778489871
 21
463.6860344201
 31
0.0
  0
LINE
  5
BD
330
1F
100
AcDbEntity
  8
0
  6
Continuous
 62
     7
370
    35
100
AcDbLine
 10
165.778489871
 20
463.6860344201
 30
0.0
 11
167.1422840434
 21
462.6182959431
 31
0.0
  0
CIRCLE
  5
BE
330
1F
100
AcDbEntity
  8
0
  6
Continuous
 62
     7
370
    35
100
AcDbCircle
 10
167.3850756029
 20
464.3332455804
 30
0.0
 40
3.100000000000014
  0
CIRCLE
  5
BF
330
1F
100
AcDbEntity
  8
0
  6
Continuous
 62
     7
370
    35
100
AcDbCircle
 10
167.3850756029
 20
464.3332455804
 30
0.0
 40
3.500000000000039
  0
LINE
  5
C0
330
1F
100
AcDbEntity
  8
0
  6
Continuous
 62
     7
370
    35
100
AcDbLine
 10
166.0212814305
 20
465.4009840575
 30
0.0
 11
167.3850756029
 21
464.3332455804
 31
0.0
  0
LINE
  5
C1
330
1F
100
AcDbEntity
  8
0
  6
Continuous
 62
     7
370
    35
100
AcDbLine
 10
167.3850756029
 20
464.3332455804
 30
0.0
 11
165.778489871
 21
463.6860344201
 31
0.0
  0
LINE
  5
C2
330
1F
100
AcDbEntity
  8
0
  6
Continuous
 62
     7
370
    35
100
AcDbLine
 10
167.1422840434
 20
462.6182959431
 30
0.0
 11
167.3850756029
 21
464.3332455804
 31
0.0
  0
LINE
  5
C3
330
1F
100
AcDbEntity
  8
0
  6
Continuous
 62
     7
370
    35
100
AcDbLine
 10
168.9916613348
 20
464.9804567408
 30
0.0
 11
167.3850756029
 21
464.3332455804
 31
0.0
  0
LINE
  5
C4
330
1F
100
AcDbEntity
  8
0
  6
Continuous
 62
     7
370
    35
100
AcDbLine
 10
167.6278671624
 20
466.0481952178
 30
0.0
 11
167.3850756029
 21
464.3332455804
 31
0.0
  0
LINE
  5
C5
330
1F
100
AcDbEntity
  8
0
  6
Continuous
 62
     7
370
    35
100
AcDbLine
 10
168.7488697753
 20
463.2655071034
 30
0.0
 11
167.3850756029
 21
464.3332455804
 31
0.0
  0
CIRCLE
  5
C6
330
1F
100
AcDbEntity
  8
0
  6
Continuous
 62
     7
370
    35
100
AcDbCircle
 10
167.3850756029
 20
464.3332455804
 30
0.0
 40
3.800000000000007
  0
CIRCLE
  5
C7
330
1F
100
AcDbEntity
  8
0
  6
Continuous
 62
     7
370
    35
100
AcDbCircle
 10
167.3850756029
 20
464.3332455804
 30
0.0
 40
5.000000000000018
  0
LINE
  5
C8
330
1F
100
AcDbEntity
  8
0
  6
Continuous
 62
     7
370
    35
100
AcDbLine
 10
121.1422840434
 20
499.6182959431
 30
0.0
 11
122.7488697753
 21
500.2655071034
 31
0.0
  0
CIRCLE
  5
C9
330
1F
100
AcDbEntity
  8
0
  6
Continuous
 62
     7
370
    35
100
AcDbCircle
 10
121.3850756029
 20
501.3332455804
 30
0.0
 40
3.099999999999899
  0
LINE
  5
CA
330
1F
100
AcDbEntity
  8
0
  6
Continuous
 62
     7
370
    35
100
AcDbLine
 10
122.7488697753
 20
500.2655071034
 30
0.0
 11
122.9916613348
 21
501.9804567408
 31
0.0
  0
LINE
  5
CB
330
1F
100
AcDbEntity
  8
0
  6
Continuous
 62
     7
370
    35
100
AcDbLine
 10
121.6278671624
 20
503.0481952178
 30
0.0
 11
120.0212814305
 21
502.4009840575
 31
0.0
  0
LINE
  5
CC
330
1F
100
AcDbEntity
  8
0
  6
Continuous
 62
     7
370
    35
100
AcDbLine
 10
120.0212814305
 20
502.4009840575
 30
0.0
 11
119.778489871
 21
500.6860344201
 31
0.0
  0
LINE
  5
CD
330
1F
100
AcDbEntity
  8
0
  6
Continuous
 62
     7
370
    35
100
AcDbLine
 10
122.9916613348
 20
501.9804567408
 30
0.0
 11
121.6278671624
 21
503.0481952178
 31
0.0
  0
LINE
  5
CE
330
1F
100
AcDbEntity
  8
0
  6
Continuous
 62
     7
370
    35
100
AcDbLine
 10
119.778489871
 20
500.6860344201
 30
0.0
 11
121.1422840434
 21
499.6182959431
 31
0.0
  0
CIRCLE
  5
CF
330
1F
100
AcDbEntity
  8
0
  6
Continuous
 62
     7
370
    35
100
AcDbCircle
 10
121.3850756029
 20
501.3332455804
 30
0.0
 40
3.499999999999922
  0
LINE
  5
D0
330
1F
100
AcDbEntity
  8
0
  6
Continuous
 62
     7
370
    35
100
AcDbLine
 10
122.9916613348
 20
501.9804567408
 30
0.0
 11
121.3850756029
 21
501.3332455804
 31
0.0
  0
LINE
  5
D1
330
1F
100
AcDbEntity
  8
0
  6
Continuous
 62
     7
370
    35
100
AcDbLine
 10
121.6278671624
 20
503.0481952178
 30
0.0
 11
121.3850756029
 21
501.3332455804
 31
0.0
  0
LINE
  5
D2
330
1F
100
AcDbEntity
  8
0
  6
Continuous
 62
     7
370
    35
100
AcDbLine
 10
120.0212814305
 20
502.4009840575
 30
0.0
 11
121.3850756029
 21
501.3332455804
 31
0.0
  0
LINE
  5
D3
330
1F
100
AcDbEntity
  8
0
  6
Continuous
 62
     7
370
    35
100
AcDbLine
 10
121.3850756029
 20
501.3332455804
 30
0.0
 11
119.778489871
 21
500.6860344201
 31
0.0
  0
LINE
  5
D4
330
1F
100
AcDbEntity
  8
0
  6
Continuous
 62
     7
370
    35
100
AcDbLine
 10
122.7488697753
 20
500.2655071034
 30
0.0
 11
121.3850756029
 21
501.3332455804
 31
0.0
  0
LINE
  5
D5
330
1F
100
AcDbEntity
  8
0
  6
Continuous
 62
     7
370
    35
100
AcDbLine
 10
121.1422840434
 20
499.6182959431
 30
0.0
 11
121.3850756029
 21
501.3332455804
 31
0.0
  0
CIRCLE
  5
D6
330
1F
100
AcDbEntity
  8
0
  6
Continuous
 62
     7
370
    35
100
AcDbCircle
 10
121.3850756029
 20
501.3332455804
 30
0.0
 40
3.800000000000066
  0
CIRCLE
  5
D7
330
1F
100
AcDbEntity
  8
0
  6
Continuous
 62
     7
370
    35
100
AcDbCircle
 10
121.3850756029
 20
501.3332455804
 30
0.0
 40
5.00000000000002
  0
CIRCLE
  5
D8
330
1F
100
AcDbEntity
  8
0
  6
Continuous
 62
     7
370
    35
100
AcDbCircle
 10
167.3850756029
 20
484.3332455804
 30
0.0
 40
3.100000000000014
  0
CIRCLE
  5
D9
330
1F
100
AcDbEntity
  8
0
  6
Continuous
 62
     7
370
    35
100
AcDbCircle
 10
167.3850756029
 20
484.3332455804
 30
0.0
 40
3.499999999999983
  0
LINE
  5
DA
330
1F
100
AcDbEntity
  8
0
  6
Continuous
 62
     7
370
    35
100
AcDbLine
 10
167.1422840434
 20
482.6182959431
 30
0.0
 11
168.7488697753
 21
483.2655071034
 31
0.0
  0
LINE
  5
DB
330
1F
100
AcDbEntity
  8
0
  6
Continuous
 62
     7
370
    35
100
AcDbLine
 10
168.7488697753
 20
483.2655071034
 30
0.0
 11
168.9916613348
 21
484.9804567408
 31
0.0
  0
LINE
  5
DC
330
1F
100
AcDbEntity
  8
0
  6
Continuous
 62
     7
370
    35
100
AcDbLine
 10
168.9916613348
 20
484.9804567408
 30
0.0
 11
167.6278671624
 21
486.0481952178
 31
0.0
  0
LINE
  5
DD
330
1F
100
AcDbEntity
  8
0
  6
Continuous
 62
     7
370
    35
100
AcDbLine
 10
167.6278671624
 20
486.0481952178
 30
0.0
 11
166.0212814305
 21
485.4009840575
 31
0.0
  0
LINE
  5
DE
330
1F
100
AcDbEntity
  8
0
  6
Continuous
 62
     7
370
    35
100
AcDbLine
 10
166.0212814305
 20
485.4009840575
 30
0.0
 11
165.778489871
 21
483.6860344201
 31
0.0
  0
LINE
  5
DF
330
1F
100
AcDbEntity
  8
0
  6
Continuous
 62
     7
370
    35
100
AcDbLine
 10
165.778489871
 20
483.6860344201
 30
0.0
 11
167.1422840434
 21
482.6182959431
 31
0.0
  0
LINE
  5
E0
330
1F
100
AcDbEntity
  8
0
  6
Continuous
 62
     7
370
    35
100
AcDbLine
 10
168.7488697753
 20
483.2655071034
 30
0.0
 11
167.3850756029
 21
484.3332455804
 31
0.0
  0
LINE
  5
E1
330
1F
100
AcDbEntity
  8
0
  6
Continuous
 62
     7
370
    35
100
AcDbLine
 10
168.9916613348
 20
484.9804567408
 30
0.0
 11
167.3850756029
 21
484.3332455804
 31
0.0
  0
LINE
  5
E2
330
1F
100
AcDbEntity
  8
0
  6
Continuous
 62
     7
370
    35
100
AcDbLine
 10
167.3850756029
 20
484.3332455804
 30
0.0
 11
165.778489871
 21
483.6860344201
 31
0.0
  0
LINE
  5
E3
330
1F
100
AcDbEntity
  8
0
  6
Continuous
 62
     7
370
    35
100
AcDbLine
 10
167.1422840434
 20
482.6182959431
 30
0.0
 11
167.3850756029
 21
484.3332455804
 31
0.0
  0
LINE
  5
E4
330
1F
100
AcDbEntity
  8
0
  6
Continuous
 62
     7
370
    35
100
AcDbLine
 10
167.6278671624
 20
486.0481952178
 30
0.0
 11
167.3850756029
 21
484.3332455804
 31
0.0
  0
LINE
  5
E5
330
1F
100
AcDbEntity
  8
0
  6
Continuous
 62
     7
370
    35
100
AcDbLine
 10
166.0212814305
 20
485.4009840575
 30
0.0
 11
167.3850756029
 21
484.3332455804
 31
0.0
  0
CIRCLE
  5
E6
330
1F
100
AcDbEntity
  8
0
  6
Continuous
 62
     7
370
    35
100
AcDbCircle
 10
167.3850756029
 20
484.3332455804
 30
0.0
 40
3.800000000000007
  0
CIRCLE
  5
E7
330
1F
100
AcDbEntity
  8
0
  6
Continuous
 62
     7
370
    35
100
AcDbCircle
 10
167.3850756029
 20
484.3332455804
 30
0.0
 40
5.000000000000018
  0
CIRCLE
  5
E8
330
1F
100
AcDbEntity
  8
0
  6
Continuous
 62
     7
370
    35
100
AcDbCircle
 10
121.3850756029
 20
521.3332455804
 30
0.0
 40
3.099999999999956
  0
CIRCLE
  5
E9
330
1F
100
AcDbEntity
  8
0
  6
Continuous
 62
     7
370
    35
100
AcDbCircle
 10
121.3850756029
 20
521.3332455804
 30
0.0
 40
3.499999999999922
  0
LINE
  5
EA
330
1F
100
AcDbEntity
  8
0
  6
Continuous
 62
     7
370
    35
100
AcDbLine
 10
121.1422840434
 20
519.6182959431
 30
0.0
 11
122.7488697753
 21
520.2655071034
 31
0.0
  0
LINE
  5
EB
330
1F
100
AcDbEntity
  8
0
  6
Continuous
 62
     7
370
    35
100
AcDbLine
 10
122.7488697753
 20
520.2655071034
 30
0.0
 11
122.9916613348
 21
521.9804567408
 31
0.0
  0
LINE
  5
EC
330
1F
100
AcDbEntity
  8
0
  6
Continuous
 62
     7
370
    35
100
AcDbLine
 10
122.9916613348
 20
521.9804567408
 30
0.0
 11
121.6278671624
 21
523.0481952178
 31
0.0
  0
LINE
  5
ED
330
1F
100
AcDbEntity
  8
0
  6
Continuous
 62
     7
370
    35
100
AcDbLine
 10
120.0212814305
 20
522.4009840575
 30
0.0
 11
119.778489871
 21
520.6860344201
 31
0.0
  0
LINE
  5
EE
330
1F
100
AcDbEntity
  8
0
  6
Continuous
 62
     7
370
    35
100
AcDbLine
 10
119.778489871
 20
520.6860344201
 30
0.0
 11
121.1422840434
 21
519.6182959431
 31
0.0
  0
LINE
  5
EF
330
1F
100
AcDbEntity
  8
0
  6
Continuous
 62
     7
370
    35
100
AcDbLine
 10
121.6278671624
 20
523.0481952178
 30
0.0
 11
120.0212814305
 21
522.4009840575
 31
0.0
  0
LINE
  5
F0
330
1F
100
AcDbEntity
  8
0
  6
Continuous
 62
     7
370
    35
100
AcDbLine
 10
121.1422840434
 20
519.6182959431
 30
0.0
 11
121.3850756029
 21
521.3332455804
 31
0.0
  0
LINE
  5
F1
330
1F
100
AcDbEntity
  8
0
  6
Continuous
 62
     7
370
    35
100
AcDbLine
 10
122.7488697753
 20
520.2655071034
 30
0.0
 11
121.3850756029
 21
521.3332455804
 31
0.0
  0
LINE
  5
F2
330
1F
100
AcDbEntity
  8
0
  6
Continuous
 62
     7
370
    35
100
AcDbLine
 10
121.3850756029
 20
521.3332455804
 30
0.0
 11
119.778489871
 21
520.6860344201
 31
0.0
  0
LINE
  5
F3
330
1F
100
AcDbEntity
  8
0
  6
Continuous
 62
     7
370
    35
100
AcDbLine
 10
121.6278671624
 20
523.0481952178
 30
0.0
 11
121.3850756029
 21
521.3332455804
 31
0.0
  0
LINE
  5
F4
330
1F
100
AcDbEntity
  8
0
  6
Continuous
 62
     7
370
    35
100
AcDbLine
 10
120.0212814305
 20
522.4009840575
 30
0.0
 11
121.3850756029
 21
521.3332455804
 31
0.0
  0
LINE
  5
F5
330
1F
100
AcDbEntity
  8
0
  6
Continuous
 62
     7
370
    35
100
AcDbLine
 10
122.9916613348
 20
521.9804567408
 30
0.0
 11
121.3850756029
 21
521.3332455804
 31
0.0
  0
CIRCLE
  5
F6
330
1F
100
AcDbEntity
  8
0
  6
Continuous
 62
     7
370
    35
100
AcDbCircle
 10
121.3850756029
 20
521.3332455804
 30
0.0
 40
3.800000000000009
  0
CIRCLE
  5
F7
330
1F
100
AcDbEntity
  8
0
  6
Continuous
 62
     7
370
    35
100
AcDbCircle
 10
121.3850756029
 20
521.3332455804
 30
0.0
 40
5.00000000000002
  0
CIRCLE
  5
F8
330
1F
100
AcDbEntity
  8
0
  6
Continuous
 62
     7
370
    35
100
AcDbCircle
 10
121.3850756029
 20
464.3332455804
 30
0.0
 40
3.100000000000012
  0
LINE
  5
F9
330
1F
100
AcDbEntity
  8
0
  6
Continuous
 62
     7
370
    35
100
AcDbLine
 10
121.1422840434
 20
462.6182959431
 30
0.0
 11
122.7488697753
 21
463.2655071034
 31
0.0
  0
LINE
  5
FA
330
1F
100
AcDbEntity
  8
0
  6
Continuous
 62
     7
370
    35
100
AcDbLine
 10
122.7488697753
 20
463.2655071034
 30
0.0
 11
122.9916613348
 21
464.9804567408
 31
0.0
  0
LINE
  5
FB
330
1F
100
AcDbEntity
  8
0
  6
Continuous
 62
     7
370
    35
100
AcDbLine
 10
122.9916613348
 20
464.9804567408
 30
0.0
 11
121.6278671624
 21
466.0481952178
 31
0.0
  0
LINE
  5
FC
330
1F
100
AcDbEntity
  8
0
  6
Continuous
 62
     7
370
    35
100
AcDbLine
 10
119.778489871
 20
463.6860344201
 30
0.0
 11
121.1422840434
 21
462.6182959431
 31
0.0
  0
LINE
  5
FD
330
1F
100
AcDbEntity
  8
0
  6
Continuous
 62
     7
370
    35
100
AcDbLine
 10
121.6278671624
 20
466.0481952178
 30
0.0
 11
120.0212814305
 21
465.4009840575
 31
0.0
  0
LINE
  5
FE
330
1F
100
AcDbEntity
  8
0
  6
Continuous
 62
     7
370
    35
100
AcDbLine
 10
120.0212814305
 20
465.4009840575
 30
0.0
 11
119.778489871
 21
463.6860344201
 31
0.0
  0
CIRCLE
  5
FF
330
1F
100
AcDbEntity
  8
0
  6
Continuous
 62
     7
370
    35
100
AcDbCircle
 10
121.3850756029
 20
464.3332455804
 30
0.0
 40
3.500000000000035
  0
LINE
  5
100
330
1F
100
AcDbEntity
  8
0
  6
Continuous
 62
     7
370
    35
100
AcDbLine
 10
121.3850756029
 20
464.3332455804
 30
0.0
 11
119.778489871
 21
463.6860344201
 31
0.0
  0
LINE
  5
101
330
1F
100
AcDbEntity
  8
0
  6
Continuous
 62
     7
370
    35
100
AcDbLine
 10
121.1422840434
 20
462.6182959431
 30
0.0
 11
121.3850756029
 21
464.3332455804
 31
0.0
  0
LINE
  5
102
330
1F
100
AcDbEntity
  8
0
  6
Continuous
 62
     7
370
    35
100
AcDbLine
 10
121.6278671624
 20
466.0481952178
 30
0.0
 11
121.3850756029
 21
464.3332455804
 31
0.0
  0
LINE
  5
103
330
1F
100
AcDbEntity
  8
0
  6
Continuous
 62
     7
370
    35
100
AcDbLine
 10
120.0212814305
 20
465.4009840575
 30
0.0
 11
121.3850756029
 21
464.3332455804
 31
0.0
  0
LINE
  5
104
330
1F
100
AcDbEntity
  8
0
  6
Continuous
 62
     7
370
    35
100
AcDbLine
 10
122.7488697753
 20
463.2655071034
 30
0.0
 11
121.3850756029
 21
464.3332455804
 31
0.0
  0
LINE
  5
105
330
1F
100
AcDbEntity
  8
0
  6
Continuous
 62
     7
370
    35
100
AcDbLine
 10
122.9916613348
 20
464.9804567408
 30
0.0
 11
121.3850756029
 21
464.3332455804
 31
0.0
  0
CIRCLE
  5
106
330
1F
100
AcDbEntity
  8
0
  6
Continuous
 62
     7
370
    35
100
AcDbCircle
 10
121.3850756029
 20
464.3332455804
 30
0.0
 40
3.800000000000009
  0
CIRCLE
  5
107
330
1F
100
AcDbEntity
  8
0
  6
Continuous
 62
     7
370
    35
100
AcDbCircle
 10
121.3850756029
 20
464.3332455804
 30
0.0
 40
5.00000000000002
  0
CIRCLE
  5
108
330
1F
100
AcDbEntity
  8
0
  6
Continuous
 62
     7
370
    35
100
AcDbCircle
 10
167.3850756029
 20
521.3332455804
 30
0.0
 40
3.099999999999956
  0
CIRCLE
  5
109
330
1F
100
AcDbEntity
  8
0
  6
Continuous
 62
     7
370
    35
100
AcDbCircle
 10
167.3850756029
 20
521.3332455804
 30
0.0
 40
3.499999999999994
  0
LINE
  5
10A
330
1F
100
AcDbEntity
  8
0
  6
Continuous
 62
     7
370
    35
100
AcDbLine
 10
166.7570240638
 20
522.9474175862
 30
0.0
 11
165.6731358703
 21
521.5964229956
 31
0.0
  0
LINE
  5
10B
330
1F
100
AcDbEntity
  8
0
  6
Continuous
 62
     7
370
    35
100
AcDbLine
 10
165.6731358703
 20
521.5964229956
 30
0.0
 11
166.3011874094
 21
519.9822509898
 31
0.0
  0
LINE
  5
10C
330
1F
100
AcDbEntity
  8
0
  6
Continuous
 62
     7
370
    35
100
AcDbLine
 10
166.3011874094
 20
519.9822509898
 30
0.0
 11
168.013127142
 21
519.7190735747
 31
0.0
  0
LINE
  5
10D
330
1F
100
AcDbEntity
  8
0
  6
Continuous
 62
     7
370
    35
100
AcDbLine
 10
168.013127142
 20
519.7190735747
 30
0.0
 11
169.0970153355
 21
521.0700681653
 31
0.0
  0
LINE
  5
10E
330
1F
100
AcDbEntity
  8
0
  6
Continuous
 62
     7
370
    35
100
AcDbLine
 10
168.4689637964
 20
522.6842401711
 30
0.0
 11
166.7570240638
 21
522.9474175862
 31
0.0
  0
LINE
  5
10F
330
1F
100
AcDbEntity
  8
0
  6
Continuous
 62
     7
370
    35
100
AcDbLine
 10
169.0970153355
 20
521.0700681653
 30
0.0
 11
168.4689637964
 21
522.6842401711
 31
0.0
  0
LINE
  5
110
330
1F
100
AcDbEntity
  8
0
  6
Continuous
 62
     7
370
    35
100
AcDbLine
 10
165.6731358703
 20
521.5964229956
 30
0.0
 11
167.3850756029
 21
521.3332455804
 31
0.0
  0
LINE
  5
111
330
1F
100
AcDbEntity
  8
0
  6
Continuous
 62
     7
370
    35
100
AcDbLine
 10
166.3011874094
 20
519.9822509898
 30
0.0
 11
167.3850756029
 21
521.3332455804
 31
0.0
  0
LINE
  5
112
330
1F
100
AcDbEntity
  8
0
  6
Continuous
 62
     7
370
    35
100
AcDbLine
 10
168.013127142
 20
519.7190735747
 30
0.0
 11
167.3850756029
 21
521.3332455804
 31
0.0
  0
LINE
  5
113
330
1F
100
AcDbEntity
  8
0
  6
Continuous
 62
     7
370
    35
100
AcDbLine
 10
169.0970153355
 20
521.0700681653
 30
0.0
 11
167.3850756029
 21
521.3332455804
 31
0.0
  0
LINE
  5
114
330
1F
100
AcDbEntity
  8
0
  6
Continuous
 62
     7
370
    35
100
AcDbLine
 10
167.3850756029
 20
521.3332455804
 30
0.0
 11
168.4689637964
 21
522.6842401711
 31
0.0
  0
LINE
  5
115
330
1F
100
AcDbEntity
  8
0
  6
Continuous
 62
     7
370
    35
100
AcDbLine
 10
166.7570240638
 20
522.9474175862
 30
0.0
 11
167.3850756029
 21
521.3332455804
 31
0.0
  0
CIRCLE
  5
116
330
1F
100
AcDbEntity
  8
0
  6
Continuous
 62
     7
370
    35
100
AcDbCircle
 10
167.3850756029
 20
521.3332455804
 30
0.0
 40
3.800000000000042
  0
CIRCLE
  5
117
330
1F
100
AcDbEntity
  8
0
  6
Continuous
 62
     7
370
    35
100
AcDbCircle
 10
167.3850756029
 20
521.3332455804
 30
0.0
 40
5.00000000000003
  0
LINE
  5
118
330
1F
100
AcDbEntity
  8
0
  6
Continuous
 62
     7
370
    35
100
AcDbLine
 10
165.6731358703
 20
501.5964229956
 30
0.0
 11
166.3011874094
 21
499.9822509898
 31
0.0
  0
LINE
  5
119
330
1F
100
AcDbEntity
  8
0
  6
Continuous
 62
     7
370
    35
100
AcDbLine
 10
168.013127142
 20
499.7190735747
 30
0.0
 11
169.0970153355
 21
501.0700681653
 31
0.0
  0
LINE
  5
11A
330
1F
100
AcDbEntity
  8
0
  6
Continuous
 62
     7
370
    35
100
AcDbLine
 10
169.0970153355
 20
501.0700681653
 30
0.0
 11
168.4689637964
 21
502.6842401711
 31
0.0
  0
CIRCLE
  5
11B
330
1F
100
AcDbEntity
  8
0
  6
Continuous
 62
     7
370
    35
100
AcDbCircle
 10
167.3850756029
 20
501.3332455804
 30
0.0
 40
3.100000000000115
  0
LINE
  5
11C
330
1F
100
AcDbEntity
  8
0
  6
Continuous
 62
     7
370
    35
100
AcDbLine
 10
166.3011874094
 20
499.9822509898
 30
0.0
 11
168.013127142
 21
499.7190735747
 31
0.0
  0
LINE
  5
11D
330
1F
100
AcDbEntity
  8
0
  6
Continuous
 62
     7
370
    35
100
AcDbLine
 10
168.4689637964
 20
502.6842401711
 30
0.0
 11
166.7570240638
 21
502.9474175862
 31
0.0
  0
LINE
  5
11E
330
1F
100
AcDbEntity
  8
0
  6
Continuous
 62
     7
370
    35
100
AcDbLine
 10
166.7570240638
 20
502.9474175862
 30
0.0
 11
165.6731358703
 21
501.5964229956
 31
0.0
  0
CIRCLE
  5
11F
330
1F
100
AcDbEntity
  8
0
  6
Continuous
 62
     7
370
    35
100
AcDbCircle
 10
167.3850756029
 20
501.3332455804
 30
0.0
 40
3.5000000000001
  0
LINE
  5
120
330
1F
100
AcDbEntity
  8
0
  6
Continuous
 62
     7
370
    35
100
AcDbLine
 10
168.013127142
 20
499.7190735747
 30
0.0
 11
167.3850756029
 21
501.3332455804
 31
0.0
  0
LINE
  5
121
330
1F
100
AcDbEntity
  8
0
  6
Continuous
 62
     7
370
    35
100
AcDbLine
 10
169.0970153355
 20
501.0700681653
 30
0.0
 11
167.3850756029
 21
501.3332455804
 31
0.0
  0
LINE
  5
122
330
1F
100
AcDbEntity
  8
0
  6
Continuous
 62
     7
370
    35
100
AcDbLine
 10
166.3011874094
 20
499.9822509898
 30
0.0
 11
167.3850756029
 21
501.3332455804
 31
0.0
  0
LINE
  5
123
330
1F
100
AcDbEntity
  8
0
  6
Continuous
 62
     7
370
    35
100
AcDbLine
 10
165.6731358703
 20
501.5964229956
 30
0.0
 11
167.3850756029
 21
501.3332455804
 31
0.0
  0
LINE
  5
124
330
1F
100
AcDbEntity
  8
0
  6
Continuous
 62
     7
370
    35
100
AcDbLine
 10
167.3850756029
 20
501.3332455804
 30
0.0
 11
168.4689637964
 21
502.6842401711
 31
0.0
  0
LINE
  5
125
330
1F
100
AcDbEntity
  8
0
  6
Continuous
 62
     7
370
    35
100
AcDbLine
 10
166.7570240638
 20
502.9474175862
 30
0.0
 11
167.3850756029
 21
501.3332455804
 31
0.0
  0
CIRCLE
  5
126
330
1F
100
AcDbEntity
  8
0
  6
Continuous
 62
     7
370
    35
100
AcDbCircle
 10
167.3850756029
 20
501.3332455804
 30
0.0
 40
3.799999999999936
  0
CIRCLE
  5
127
330
1F
100
AcDbEntity
  8
0
  6
Continuous
 62
     7
370
    35
100
AcDbCircle
 10
167.3850756029
 20
501.3332455804
 30
0.0
 40
4.999999999999924
  0
CIRCLE
  5
128
330
1F
100
AcDbEntity
  8
0
  6
Continuous
 62
     7
370
    35
100
AcDbCircle
 10
121.3850756029
 20
484.3332455804
 30
0.0
 40
3.100000000000014
  0
CIRCLE
  5
129
330
1F
100
AcDbEntity
  8
0
  6
Continuous
 62
     7
370
    35
100
AcDbCircle
 10
121.3850756029
 20
484.3332455804
 30
0.0
 40
3.499999999999978
  0
LINE
  5
12A
330
1F
100
AcDbEntity
  8
0
  6
Continuous
 62
     7
370
    35
100
AcDbLine
 10
121.1422840434
 20
482.6182959431
 30
0.0
 11
122.7488697753
 21
483.2655071034
 31
0.0
  0
LINE
  5
12B
330
1F
100
AcDbEntity
  8
0
  6
Continuous
 62
     7
370
    35
100
AcDbLine
 10
122.7488697753
 20
483.2655071034
 30
0.0
 11
122.9916613348
 21
484.9804567408
 31
0.0
  0
LINE
  5
12C
330
1F
100
AcDbEntity
  8
0
  6
Continuous
 62
     7
370
    35
100
AcDbLine
 10
122.9916613348
 20
484.9804567408
 30
0.0
 11
121.6278671624
 21
486.0481952178
 31
0.0
  0
LINE
  5
12D
330
1F
100
AcDbEntity
  8
0
  6
Continuous
 62
     7
370
    35
100
AcDbLine
 10
121.6278671624
 20
486.0481952178
 30
0.0
 11
120.0212814305
 21
485.4009840575
 31
0.0
  0
LINE
  5
12E
330
1F
100
AcDbEntity
  8
0
  6
Continuous
 62
     7
370
    35
100
AcDbLine
 10
120.0212814305
 20
485.4009840575
 30
0.0
 11
119.778489871
 21
483.6860344201
 31
0.0
  0
LINE
  5
12F
330
1F
100
AcDbEntity
  8
0
  6
Continuous
 62
     7
370
    35
100
AcDbLine
 10
119.778489871
 20
483.6860344201
 30
0.0
 11
121.1422840434
 21
482.6182959431
 31
0.0
  0
LINE
  5
130
330
1F
100
AcDbEntity
  8
0
  6
Continuous
 62
     7
370
    35
100
AcDbLine
 10
121.6278671624
 20
486.0481952178
 30
0.0
 11
121.3850756029
 21
484.3332455804
 31
0.0
  0
LINE
  5
131
330
1F
100
AcDbEntity
  8
0
  6
Continuous
 62
     7
370
    35
100
AcDbLine
 10
120.0212814305
 20
485.4009840575
 30
0.0
 11
121.3850756029
 21
484.3332455804
 31
0.0
  0
LINE
  5
132
330
1F
100
AcDbEntity
  8
0
  6
Continuous
 62
     7
370
    35
100
AcDbLine
 10
121.3850756029
 20
484.3332455804
 30
0.0
 11
119.778489871
 21
483.6860344201
 31
0.0
  0
LINE
  5
133
330
1F
100
AcDbEntity
  8
0
  6
Continuous
 62
     7
370
    35
100
AcDbLine
 10
121.1422840434
 20
482.6182959431
 30
0.0
 11
121.3850756029
 21
484.3332455804
 31
0.0
  0
LINE
  5
134
330
1F
100
AcDbEntity
  8
0
  6
Continuous
 62
     7
370
    35
100
AcDbLine
 10
122.9916613348
 20
484.9804567408
 30
0.0
 11
121.3850756029
 21
484.3332455804
 31
0.0
  0
LINE
  5
135
330
1F
100
AcDbEntity
  8
0
  6
Continuous
 62
     7
370
    35
100
AcDbLine
 10
122.7488697753
 20
483.2655071034
 30
0.0
 11
121.3850756029
 21
484.3332455804
 31
0.0
  0
CIRCLE
  5
136
330
1F
100
AcDbEntity
  8
0
  6
Continuous
 62
     7
370
    35
100
AcDbCircle
 10
121.3850756029
 20
484.3332455804
 30
0.0
 40
3.800000000000009
  0
CIRCLE
  5
137
330
1F
100
AcDbEntity
  8
0
  6
Continuous
 62
     7
370
    35
100
AcDbCircle
 10
121.3850756029
 20
484.3332455804
 30
0.0
 40
5.00000000000002
  0
LINE
  5
138
330
1F
100
AcDbEntity
  8
0
  6
Continuous
 62
     7
370
    35
100
AcDbLine
 10
155.1088808977
 20
461.3332455804
 30
0.0
 11
133.6612703082
 21
461.3332455804
 31
0.0
  0
ARC
  5
139
330
1F
100
AcDbEntity
  8
0
  6
Continuous
 62
     7
370
    35
100
AcDbCircle
 10
144.3850756029
 20
452.3332455804
 30
0.0
 40
13.99999999999997
100
AcDbArc
 50
25.3769335252
 51
40.0052008849
  0
ARC
  5
13A
330
1F
100
AcDbEntity
  8
0
  6
Continuous
 62
     7
370
    35
100
AcDbCircle
 10
144.3850756029
 20
452.3332455804
 30
0.0
 40
14.00000000000002
100
AcDbArc
 50
139.9947991151
 51
154.6230664748
  0
CIRCLE
  5
13B
330
1F
100
AcDbEntity
  8
0
  6
Continuous
 62
     7
370
    35
100
AcDbCircle
 10
144.3850756029
 20
406.3332455804
 30
0.0
 40
2.25
  0
CIRCLE
  5
13C
330
1F
100
AcDbEntity
  8
0
  6
Continuous
 62
     7
370
    35
100
AcDbCircle
 10
136.3850756029
 20
432.3332455804
 30
0.0
 40
2.25
  0
CIRCLE
  5
13D
330
1F
100
AcDbEntity
  8
0
  6
Continuous
 62
     7
370
    35
100
AcDbCircle
 10
144.3850756029
 20
437.3332455804
 30
0.0
 40
2.75
  0
LINE
  5
13E
330
1F
100
AcDbEntity
  8
0
  6
Continuous
 62
     7
370
    35
100
AcDbLine
 10
127.3850756029
 20
398.3332455804
 30
0.0
 11
124.3850756029
 21
401.3332455804
 31
0.0
  0
LINE
  5
13F
330
1F
100
AcDbEntity
  8
0
  6
Continuous
 62
     7
370
    35
100
AcDbLine
 10
161.3850756029
 20
458.3332455804
 30
0.0
 11
164.3850756029
 21
455.3332455804
 31
0.0
  0
LINE
  5
140
330
1F
100
AcDbEntity
  8
0
  6
Continuous
 62
     7
370
    35
100
AcDbLine
 10
164.3850756029
 20
455.3332455804
 30
0.0
 11
164.3850756029
 21
401.3332455804
 31
0.0
  0
CIRCLE
  5
141
330
1F
100
AcDbEntity
  8
0
  6
Continuous
 62
     7
370
    35
100
AcDbCircle
 10
131.8850756029
 20
405.8332455804
 30
0.0
 40
2.75
  0
LINE
  5
142
330
1F
100
AcDbEntity
  8
0
  6
Continuous
 62
     7
370
    35
100
AcDbLine
 10
124.3850756029
 20
455.3332455804
 30
0.0
 11
127.3850756029
 21
458.3332455804
 31
0.0
  0
LINE
  5
143
330
1F
100
AcDbEntity
  8
0
  6
Continuous
 62
     7
370
    35
100
AcDbLine
 10
127.3850756029
 20
458.3332455804
 30
0.0
 11
161.3850756029
 21
458.3332455804
 31
0.0
  0
CIRCLE
  5
144
330
1F
100
AcDbEntity
  8
0
  6
Continuous
 62
     7
370
    35
100
AcDbCircle
 10
156.8850756029
 20
405.8332455804
 30
0.0
 40
2.75
  0
CIRCLE
  5
145
330
1F
100
AcDbEntity
  8
0
  6
Continuous
 62
     7
370
    35
100
AcDbCircle
 10
144.3850756029
 20
452.3332455804
 30
0.0
 40
3.25
  0
LINE
  5
146
330
1F
100
AcDbEntity
  8
0
  6
Continuous
 62
     7
370
    35
100
AcDbLine
 10
164.3850756029
 20
401.3332455804
 30
0.0
 11
161.3850756029
 21
398.3332455804
 31
0.0
  0
LINE
  5
147
330
1F
100
AcDbEntity
  8
0
  6
Continuous
 62
     7
370
    35
100
AcDbLine
 10
161.3850756029
 20
398.3332455804
 30
0.0
 11
127.3850756029
 21
398.3332455804
 31
0.0
  0
CIRCLE
  5
148
330
1F
100
AcDbEntity
  8
0
  6
Continuous
 62
     7
370
    35
100
AcDbCircle
 10
144.3850756029
 20
418.3332455804
 30
0.0
 40
3.25
  0
LINE
  5
149
330
1F
100
AcDbEntity
  8
0
  6
Continuous
 62
     7
370
    35
100
AcDbLine
 10
124.3850756029
 20
401.3332455804
 30
0.0
 11
124.3850756029
 21
455.3332455804
 31
0.0
  0
CIRCLE
  5
14A
330
1F
100
AcDbEntity
  8
0
  6
Continuous
 62
     7
370
    35
100
AcDbCircle
 10
152.3850756029
 20
432.3332455804
 30
0.0
 40
2.25
  0
DIMENSION
  5
14B
330
1F
100
AcDbEntity
  8
LIVELLO1
100
AcDbDimension
  2
_D
 10
175.3850756029
 20
549.3332455804
 30
0.0
 11
144.3850756029
 21
549.3332455804
 31
0.0
 70
   160
  1
<>
 71
     2
 42
-1.0
  3
SLDDIMSTYLE0
100
AcDbAlignedDimension
 13
113.3850756029
 23
526.3332455804
 33
0.0
 14
175.3850756029
 24
526.3332455804
 34
0.0
100
AcDbRotatedDimension
  0
DIMENSION
  5
157
330
1F
100
AcDbEntity
  8
LIVELLO1
100
AcDbDimension
  2
_D_1
 10
69.3850756029
 20
398.3332455804
 30
0.0
 11
69.3850756029
 21
463.8332455804
 31
0.0
 70
   160
  1
<>
 71
     2
 42
-1.0
  3
SLDDIMSTYLE0
100
AcDbAlignedDimension
 13
116.3850756029
 23
529.3332455804
 33
0.0
 14
127.3850756029
 24
398.3332455804
 34
0.0
 50
90.0
100
AcDbRotatedDimension
  0
DIMENSION
  5
161
330
1F
100
AcDbEntity
  8
LIVELLO1
100
AcDbDimension
  2
_D_2
 10
81.3850756029
 20
529.3332455804
 30
0.0
 11
81.3850756029
 21
469.3332455804
 31
0.0
 70
   160
  1
<>
 71
     2
 42
-1.0
  3
SLDDIMSTYLE0
100
AcDbAlignedDimension
 13
116.3850756029
 23
409.3332455804
 33
0.0
 14
116.3850756029
 24
529.3332455804
 34
0.0
 50
90.0
100
AcDbRotatedDimension
  0
DIMENSION
  5
16C
330
1F
100
AcDbEntity
  8
LIVELLO1
100
AcDbDimension
  2
_D_3
 10
195.3850756029
 20
529.3332455804
 30
0.0
 11
195.3850756029
 21
483.3332455804
 31
0.0
 70
   160
  1
<>
 71
     2
 42
-1.0
  3
SLDDIMSTYLE0
100
AcDbAlignedDimension
 13
150.1350756029
 23
437.3332455804
 33
0.0
 14
172.3850756029
 24
529.3332455804
 34
0.0
 50
90.0
100
AcDbRotatedDimension
  0
DIMENSION
  5
176
330
1F
100
AcDbEntity
  8
LIVELLO1
100
AcDbDimension
  2
_D_4
 10
207.3850756029
 20
432.3332455804
 30
0.0
 11
207.3850756029
 21
480.8332455804
 31
0.0
 70
   160
  1
<>
 71
     2
 42
-1.0
  3
SLDDIMSTYLE0
100
AcDbAlignedDimension
 13
172.3850756029
 23
529.3332455804
 33
0.0
 14
157.6350756029
 24
432.3332455804
 34
0.0
 50
90.0
100
AcDbRotatedDimension
  0
DIMENSION
  5
180
330
1F
100
AcDbEntity
  8
LIVELLO1
100
AcDbDimension
  2
_D_5
 10
207.3850756029
 20
406.3332455804
 30
0.0
 11
207.3850756029
 21
420.6981630792
 31
0.0
 70
   160
  1
<>
 71
     2
 42
-1.0
  3
SLDDIMSTYLE0
100
AcDbAlignedDimension
 13
157.6350756029
 23
432.3332455804
 33
0.0
 14
149.6350756029
 24
406.3332455804
 34
0.0
 50
90.0
100
AcDbRotatedDimension
  0
DIMENSION
  5
18A
330
1F
100
AcDbEntity
  8
LIVELLO1
100
AcDbDimension
  2
_D_6
 10
93.3850756029
 20
437.3332455804
 30
0.0
 11
93.3850756029
 21
483.3332455804
 31
0.0
 70
   160
  1
<>
 71
     2
 42
-1.0
  3
SLDDIMSTYLE0
100
AcDbAlignedDimension
 13
116.3850756029
 23
529.3332455804
 33
0.0
 14
138.6350756029
 24
437.3332455804
 34
0.0
 50
90.0
100
AcDbRotatedDimension
  0
DIMENSION
  5
194
330
1F
100
AcDbEntity
  8
LIVELLO1
100
AcDbDimension
  2
_D_7
 10
93.3850756029
 20
405.8332455804
 30
0.0
 11
93.3850756029
 21
421.5832455804
 31
0.0
 70
   160
  1
<>
 71
     2
 42
-1.0
  3
SLDDIMSTYLE0
100
AcDbAlignedDimension
 13
138.6350756029
 23
437.3332455804
 33
0.0
 14
126.1350756029
 24
405.8332455804
 34
0.0
 50
90.0
100
AcDbRotatedDimension
  0
DIMENSION
  5
19E
330
1F
100
AcDbEntity
  8
LIVELLO1
100
AcDbDimension
  2
_D_8
 10
152.3850756029
 20
378.3332455804
 30
0.0
 11
144.3850756029
 21
378.3332455804
 31
0.0
 70
   160
  1
<>
 71
     2
 42
-1.0
  3
SLDDIMSTYLE0
100
AcDbAlignedDimension
 13
136.3850756029
 23
427.0832455804
 33
0.0
 14
152.3850756029
 24
427.0832455804
 34
0.0
100
AcDbRotatedDimension
  0
DIMENSION
  5
1A8
330
1F
100
AcDbEntity
  8
LIVELLO1
100
AcDbDimension
  2
_D_9
 10
156.8850756029
 20
366.3332455804
 30
0.0
 11
144.3850756029
 21
366.3332455804
 31
0.0
 70
   160
  1
<>
 71
     2
 42
-1.0
  3
SLDDIMSTYLE0
100
AcDbAlignedDimension
 13
131.8850756029
 23
400.0832455804
 33
0.0
 14
156.8850756029
 24
400.0832455804
 34
0.0
100
AcDbRotatedDimension
  0
DIMENSION
  5
1B2
330
1F
100
AcDbEntity
  8
LIVELLO1
100
AcDbDimension
  2
_D_10
 10
164.3850756029
 20
354.3332455804
 30
0.0
 11
144.3850756029
 21
354.3332455804
 31
0.0
 70
   160
  1
<>
 71
     2
 42
-1.0
  3
SLDDIMSTYLE0
100
AcDbAlignedDimension
 13
124.3850756029
 23
401.3332455804
 33
0.0
 14
164.3850756029
 24
401.3332455804
 34
0.0
100
AcDbRotatedDimension
  0
INSERT
  5
1C6
330
1F
100
AcDbEntity
  8
LIVELLO1
100
AcDbBlockReference
  2
SW_RADIAL_DIMENSION_0
 10
202.383109861
 20
378.0054661423
 30
0.0
  0
INSERT
  5
1D1
330
1F
100
AcDbEntity
  8
LIVELLO1
100
AcDbBlockReference
  2
SW_RADIAL_DIMENSION_1
 10
42.4176900723
 20
381.9264143494
 30
0.0
  0
INSERT
  5
1DD
330
1F
100
AcDbEntity
  8
LIVELLO1
100
AcDbBlockReference
  2
SW_CENTERMARKSYMBOL_0
 10
167.3850756029
 20
464.3332455804
 30
0.0
  0
INSERT
  5
1E9
330
1F
100
AcDbEntity
  8
LIVELLO1
100
AcDbBlockReference
  2
SW_CENTERMARKSYMBOL_1
 10
167.3850756029
 20
484.3332455804
 30
0.0
  0
INSERT
  5
1F5
330
1F
100
AcDbEntity
  8
LIVELLO1
100
AcDbBlockReference
  2
SW_CENTERMARKSYMBOL_2
 10
144.3850756029
 20
452.3332455804
 30
0.0
  0
INSERT
  5
201
330
1F
100
AcDbEntity
  8
LIVELLO1
100
AcDbBlockReference
  2
SW_CENTERMARKSYMBOL_3
 10
144.3850756029
 20
418.3332455804
 30
0.0
  0
INSERT
  5
20D
330
1F
100
AcDbEntity
  8
LIVELLO1
100
AcDbBlockReference
  2
SW_CENTERMARKSYMBOL_4
 10
156.8850756029
 20
464.8332455804
 30
0.0
  0
INSERT
  5
219
330
1F
100
AcDbEntity
  8
LIVELLO1
100
AcDbBlockReference
  2
SW_CENTERMARKSYMBOL_5
 10
134.3850756029
 20
484.3332455804
 30
0.0
  0
INSERT
  5
225
330
1F
100
AcDbEntity
  8
LIVELLO1
100
AcDbBlockReference
  2
SW_CENTERMARKSYMBOL_6
 10
154.3850756029
 20
484.3332455804
 30
0.0
  0
INSERT
  5
231
330
1F
100
AcDbEntity
  8
LIVELLO1
100
AcDbBlockReference
  2
SW_CENTERMARKSYMBOL_7
 10
134.3850756029
 20
521.3332455804
 30
0.0
  0
INSERT
  5
23D
330
1F
100
AcDbEntity
  8
LIVELLO1
100
AcDbBlockReference
  2
SW_CENTERMARKSYMBOL_8
 10
154.3850756029
 20
521.3332455804
 30
0.0
  0
INSERT
  5
249
330
1F
100
AcDbEntity
  8
LIVELLO1
100
AcDbBlockReference
  2
SW_CENTERMARKSYMBOL_9
 10
131.8850756029
 20
464.8332455804
 30
0.0
  0
INSERT
  5
255
330
1F
100
AcDbEntity
  8
LIVELLO1
100
AcDbBlockReference
  2
SW_CENTERMARKSYMBOL_10
 10
167.3850756029
 20
521.3332455804
 30
0.0
  0
INSERT
  5
261
330
1F
100
AcDbEntity
  8
LIVELLO1
100
AcDbBlockReference
  2
SW_CENTERMARKSYMBOL_11
 10
167.3850756029
 20
501.3332455804
 30
0.0
  0
INSERT
  5
26D
330
1F
100
AcDbEntity
  8
LIVELLO1
100
AcDbBlockReference
  2
SW_CENTERMARKSYMBOL_12
 10
121.3850756029
 20
521.3332455804
 30
0.0
  0
INSERT
  5
279
330
1F
100
AcDbEntity
  8
LIVELLO1
100
AcDbBlockReference
  2
SW_CENTERMARKSYMBOL_13
 10
121.3850756029
 20
501.3332455804
 30
0.0
  0
INSERT
  5
285
330
1F
100
AcDbEntity
  8
LIVELLO1
100
AcDbBlockReference
  2
SW_CENTERMARKSYMBOL_14
 10
121.3850756029
 20
484.3332455804
 30
0.0
  0
INSERT
  5
291
330
1F
100
AcDbEntity
  8
LIVELLO1
100
AcDbBlockReference
  2
SW_CENTERMARKSYMBOL_15
 10
121.3850756029
 20
464.3332455804
 30
0.0
  0
INSERT
  5
29D
330
1F
100
AcDbEntity
  8
LIVELLO1
100
AcDbBlockReference
  2
SW_CENTERMARKSYMBOL_16
 10
156.8850756029
 20
405.8332455804
 30
0.0
  0
INSERT
  5
2A9
330
1F
100
AcDbEntity
  8
LIVELLO1
100
AcDbBlockReference
  2
SW_CENTERMARKSYMBOL_17
 10
131.8850756029
 20
405.8332455804
 30
0.0
  0
INSERT
  5
2B5
330
1F
100
AcDbEntity
  8
LIVELLO1
100
AcDbBlockReference
  2
SW_CENTERMARKSYMBOL_18
 10
144.3850756029
 20
437.3332455804
 30
0.0
  0
INSERT
  5
2C1
330
1F
100
AcDbEntity
  8
LIVELLO1
100
AcDbBlockReference
  2
SW_CENTERMARKSYMBOL_19
 10
144.3850756029
 20
406.3332455804
 30
0.0
  0
INSERT
  5
2CD
330
1F
100
AcDbEntity
  8
LIVELLO1
100
AcDbBlockReference
  2
SW_CENTERMARKSYMBOL_20
 10
136.3850756029
 20
432.3332455804
 30
0.0
  0
INSERT
  5
2D9
330
1F
100
AcDbEntity
  8
LIVELLO1
100
AcDbBlockReference
  2
SW_CENTERMARKSYMBOL_21
 10
152.3850756029
 20
432.3332455804
 30
0.0
  0
LINE
  5
2DA
330
1F
100
AcDbEntity
  8
0
  6
Continuous
 62
     7
370
    35
100
AcDbLine
 10
150.3850756029
 20
269.6462994737
 30
0.0
 11
150.0850756029
 21
269.9462994737
 31
0.0
  0
LINE
  5
2DB
330
1F
100
AcDbEntity
  8
0
  6
Continuous
 62
     7
370
    35
100
AcDbLine
 10
138.6494218586
 20
269.9106457294
 30
0.0
 11
138.3850756029
 21
269.6462994737
 31
0.0
  0
LINE
  5
2DC
330
1F
100
AcDbEntity
  8
0
  6
Continuous
 62
     7
370
    35
100
AcDbLine
 10
138.3850756029
 20
269.6462994737
 30
0.0
 11
138.3850756029
 21
269.2462994737
 31
0.0
  0
LINE
  5
2DD
330
1F
100
AcDbEntity
  8
0
  6
Continuous
 62
     7
370
    35
100
AcDbLine
 10
150.3850756029
 20
269.2462994737
 30
0.0
 11
150.3850756029
 21
269.6462994737
 31
0.0
  0
LINE
  5
2DE
330
1F
100
AcDbEntity
  8
0
  6
Continuous
 62
     7
370
    35
100
AcDbLine
 10
138.3850756029
 20
269.2462994737
 30
0.0
 11
138.6850756029
 21
268.9462994737
 31
0.0
  0
LINE
  5
2DF
330
1F
100
AcDbEntity
  8
0
  6
Continuous
 62
     7
370
    35
100
AcDbLine
 10
150.0850756029
 20
268.9462994737
 30
0.0
 11
150.3850756029
 21
269.2462994737
 31
0.0
  0
LINE
  5
2E0
330
1F
100
AcDbEntity
  8
0
  6
Continuous
 62
     7
370
    35
100
AcDbLine
 10
148.8850756029
 20
273.6462994737
 30
0.0
 11
148.5850756029
 21
273.9462994737
 31
0.0
  0
LINE
  5
2E1
330
1F
100
AcDbEntity
  8
0
  6
Continuous
 62
     7
370
    35
100
AcDbLine
 10
140.1850756029
 20
273.9462994737
 30
0.0
 11
139.8850756029
 21
273.6462994737
 31
0.0
  0
LINE
  5
2E2
330
1F
100
AcDbEntity
  8
0
  6
Continuous
 62
     7
370
    35
100
AcDbLine
 10
148.8850756029
 20
269.9462994737
 30
0.0
 11
148.8850756029
 21
270.1536931583
 31
0.0
  0
LINE
  5
2E3
330
1F
100
AcDbEntity
  8
0
  6
Continuous
 62
     7
370
    35
100
AcDbLine
 10
148.8850756029
 20
273.150607779
 30
0.0
 11
148.8850756029
 21
273.6462994737
 31
0.0
  0
LINE
  5
2E4
330
1F
100
AcDbEntity
  8
0
  6
Continuous
 62
     7
370
    35
100
AcDbLine
 10
139.8850756029
 20
273.6462994737
 30
0.0
 11
139.8850756029
 21
271.0433335956
 31
0.0
  0
LINE
  5
2E5
330
1F
100
AcDbEntity
  8
0
  6
Continuous
 62
     7
370
    35
100
AcDbLine
 10
147.1350756029
 20
290.788999717
 30
0.0
 11
147.1350756029
 21
293.4462994737
 31
0.0
  0
LINE
  5
2E6
330
1F
100
AcDbEntity
  8
0
  6
Continuous
 62
     7
370
    35
100
AcDbLine
 10
141.6350756029
 20
293.4462994737
 30
0.0
 11
141.6350756029
 21
291.4390084622
 31
0.0
  0
LINE
  5
2E7
330
1F
100
AcDbEntity
  8
0
  6
Continuous
 62
     7
370
    35
100
AcDbLine
 10
141.6350756029
 20
291.1767748659
 30
0.0
 11
141.6350756029
 21
288.5167862399
 31
0.0
  0
LINE
  5
2E8
330
1F
100
AcDbEntity
  8
0
  6
Continuous
 62
     7
370
    35
100
AcDbLine
 10
141.6350756029
 20
288.2545526436
 30
0.0
 11
141.6350756029
 21
285.5945640177
 31
0.0
  0
LINE
  5
2E9
330
1F
100
AcDbEntity
  8
0
  6
Continuous
 62
     7
370
    35
100
AcDbLine
 10
141.6350756029
 20
285.3323304214
 30
0.0
 11
141.6350756029
 21
282.6723417955
 31
0.0
  0
LINE
  5
2EA
330
1F
100
AcDbEntity
  8
0
  6
Continuous
 62
     7
370
    35
100
AcDbLine
 10
141.6350756029
 20
282.4101081992
 30
0.0
 11
141.6350756029
 21
279.7501195733
 31
0.0
  0
LINE
  5
2EB
330
1F
100
AcDbEntity
  8
0
  6
Continuous
 62
     7
370
    35
100
AcDbLine
 10
141.6350756029
 20
279.487885977
 30
0.0
 11
141.6350756029
 21
276.8278973511
 31
0.0
  0
LINE
  5
2EC
330
1F
100
AcDbEntity
  8
0
  6
Continuous
 62
     7
370
    35
100
AcDbLine
 10
141.6350756029
 20
276.5656637548
 30
0.0
 11
141.6350756029
 21
273.9462994737
 31
0.0
  0
LINE
  5
2ED
330
1F
100
AcDbEntity
  8
0
  6
Continuous
 62
     7
370
    35
100
AcDbLine
 10
140.8850756029
 20
327.9462994737
 30
0.0
 11
140.8850756029
 21
327.4462994737
 31
0.0
  0
LINE
  5
2EE
330
1F
100
AcDbEntity
  8
0
  6
Continuous
 62
     7
370
    35
100
AcDbLine
 10
147.8850756029
 20
327.4462994737
 30
0.0
 11
147.8850756029
 21
327.9462994737
 31
0.0
  0
LINE
  5
2EF
330
1F
100
AcDbEntity
  8
0
  6
Continuous
 62
     7
370
    35
100
AcDbLine
 10
141.4350756029
 20
328.6462994737
 30
0.0
 11
141.4350756029
 21
327.9462994737
 31
0.0
  0
LINE
  5
2F0
330
1F
100
AcDbEntity
  8
0
  6
Continuous
 62
     7
370
    35
100
AcDbLine
 10
147.3350756029
 20
327.9462994737
 30
0.0
 11
147.3350756029
 21
328.6462994737
 31
0.0
  0
LINE
  5
2F1
330
1F
100
AcDbEntity
  8
0
  6
Continuous
 62
     7
370
    35
100
AcDbLine
 10
147.1350756029
 20
331.3462994737
 30
0.0
 11
146.8350756029
 21
331.6462994737
 31
0.0
  0
LINE
  5
2F2
330
1F
100
AcDbEntity
  8
0
  6
Continuous
 62
     7
370
    35
100
AcDbLine
 10
141.9350756029
 20
331.6462994737
 30
0.0
 11
141.6350756029
 21
331.3462994737
 31
0.0
  0
LINE
  5
2F3
330
1F
100
AcDbEntity
  8
0
  6
Continuous
 62
     7
370
    35
100
AcDbLine
 10
147.1350756029
 20
328.6462994737
 30
0.0
 11
147.1350756029
 21
331.3462994737
 31
0.0
  0
LINE
  5
2F4
330
1F
100
AcDbEntity
  8
0
  6
Continuous
 62
     7
370
    35
100
AcDbLine
 10
141.6350756029
 20
331.3462994737
 30
0.0
 11
141.6350756029
 21
328.6462994737
 31
0.0
  0
LINE
  5
2F5
330
1F
100
AcDbEntity
  8
0
  6
Continuous
 62
     7
370
    35
100
AcDbLine
 10
155.8850756029
 20
309.5462994737
 30
0.0
 11
155.5850756029
 21
309.8462994737
 31
0.0
  0
LINE
  5
2F6
330
1F
100
AcDbEntity
  8
0
  6
Continuous
 62
     7
370
    35
100
AcDbLine
 10
153.1850756029
 20
309.8462994737
 30
0.0
 11
152.8850756029
 21
309.5462994737
 31
0.0
  0
LINE
  5
2F7
330
1F
100
AcDbEntity
  8
0
  6
Continuous
 62
     7
370
    35
100
AcDbLine
 10
155.8850756029
 20
309.4462994737
 30
0.0
 11
155.8850756029
 21
309.5462994737
 31
0.0
  0
LINE
  5
2F8
330
1F
100
AcDbEntity
  8
0
  6
Continuous
 62
     7
370
    35
100
AcDbLine
 10
152.8850756029
 20
309.5462994737
 30
0.0
 11
152.8850756029
 21
309.4462994737
 31
0.0
  0
LINE
  5
2F9
330
1F
100
AcDbEntity
  8
0
  6
Continuous
 62
     7
370
    35
100
AcDbLine
 10
135.8850756029
 20
309.5462994737
 30
0.0
 11
135.5850756029
 21
309.8462994737
 31
0.0
  0
LINE
  5
2FA
330
1F
100
AcDbEntity
  8
0
  6
Continuous
 62
     7
370
    35
100
AcDbLine
 10
133.1850756029
 20
309.8462994737
 30
0.0
 11
132.8850756029
 21
309.5462994737
 31
0.0
  0
LINE
  5
2FB
330
1F
100
AcDbEntity
  8
0
  6
Continuous
 62
     7
370
    35
100
AcDbLine
 10
135.8850756029
 20
309.4462994737
 30
0.0
 11
135.8850756029
 21
309.5462994737
 31
0.0
  0
LINE
  5
2FC
330
1F
100
AcDbEntity
  8
0
  6
Continuous
 62
     7
370
    35
100
AcDbLine
 10
132.8850756029
 20
309.5462994737
 30
0.0
 11
132.8850756029
 21
309.4462994737
 31
0.0
  0
LINE
  5
2FD
330
1F
100
AcDbEntity
  8
0
  6
Continuous
 62
     7
370
    35
100
AcDbLine
 10
154.3850756029
 20
326.9462994737
 30
0.0
 11
153.8850756029
 21
327.4462994737
 31
0.0
  0
LINE
  5
2FE
330
1F
100
AcDbEntity
  8
0
  6
Continuous
 62
     7
370
    35
100
AcDbLine
 10
134.8850756029
 20
327.4462994737
 30
0.0
 11
134.3850756029
 21
326.9462994737
 31
0.0
  0
LINE
  5
2FF
330
1F
100
AcDbEntity
  8
0
  6
Continuous
 62
     7
370
    35
100
AcDbLine
 10
154.3850756029
 20
319.9462994737
 30
0.0
 11
154.3850756029
 21
326.9462994737
 31
0.0
  0
LINE
  5
300
330
1F
100
AcDbEntity
  8
0
  6
Continuous
 62
     7
370
    35
100
AcDbLine
 10
134.3850756029
 20
326.9462994737
 30
0.0
 11
134.3850756029
 21
319.9462994737
 31
0.0
  0
LINE
  5
301
330
1F
100
AcDbEntity
  8
0
  6
Continuous
 62
     7
370
    35
100
AcDbLine
 10
134.3850756029
 20
319.9462994737
 30
0.0
 11
134.8850756029
 21
319.4462994737
 31
0.0
  0
LINE
  5
302
330
1F
100
AcDbEntity
  8
0
  6
Continuous
 62
     7
370
    35
100
AcDbLine
 10
153.8850756029
 20
319.4462994737
 30
0.0
 11
154.3850756029
 21
319.9462994737
 31
0.0
  0
LINE
  5
303
330
1F
100
AcDbEntity
  8
0
  6
Continuous
 62
     7
370
    35
100
AcDbLine
 10
136.8850756029
 20
319.4462994737
 30
0.0
 11
136.8850756029
 21
317.4462994737
 31
0.0
  0
LINE
  5
304
330
1F
100
AcDbEntity
  8
0
  6
Continuous
 62
     7
370
    35
100
AcDbLine
 10
151.8850756029
 20
317.4462994737
 30
0.0
 11
151.8850756029
 21
319.4462994737
 31
0.0
  0
ARC
  5
305
330
1F
100
AcDbEntity
  8
0
  6
Continuous
 62
     7
370
    35
100
AcDbCircle
 10
148.3095400448
 20
322.1666743006
 30
0.0
 40
31.70861512168963
100
AcDbArc
 50
256.2595329544
 51
262.8904714683
  0
ARC
  5
306
330
1F
100
AcDbEntity
  8
0
  6
Continuous
 62
     7
370
    35
100
AcDbCircle
 10
148.3095400448
 20
319.2444520784
 30
0.0
 40
31.70861512167325
100
AcDbArc
 50
256.2595329544
 51
262.8904714683
  0
ARC
  5
307
330
1F
100
AcDbEntity
  8
0
  6
Continuous
 62
     7
370
    35
100
AcDbCircle
 10
148.3095400448
 20
316.3222298562
 30
0.0
 40
31.70861512168963
100
AcDbArc
 50
256.2595329544
 51
262.8904714683
  0
ARC
  5
308
330
1F
100
AcDbEntity
  8
0
  6
Continuous
 62
     7
370
    35
100
AcDbCircle
 10
148.3095400448
 20
313.4000076339
 30
0.0
 40
31.7086151216684
100
AcDbArc
 50
256.2595329544
 51
262.8904714683
  0
ARC
  5
309
330
1F
100
AcDbEntity
  8
0
  6
Continuous
 62
     7
370
    35
100
AcDbCircle
 10
148.3095400448
 20
310.4777854117
 30
0.0
 40
31.7086151216729
100
AcDbArc
 50
256.2595329544
 51
262.8904714683
  0
ARC
  5
30A
330
1F
100
AcDbEntity
  8
0
  6
Continuous
 62
     7
370
    35
100
AcDbCircle
 10
148.3095400448
 20
307.5555631895
 30
0.0
 40
31.70861512168929
100
AcDbArc
 50
256.2595329544
 51
262.8904714683
  0
ARC
  5
30B
330
1F
100
AcDbEntity
  8
0
  6
Continuous
 62
     7
370
    35
100
AcDbCircle
 10
148.3095400448
 20
304.6333409673
 30
0.0
 40
31.70861512171653
100
AcDbArc
 50
256.2595329544
 51
262.8904714683
  0
ARC
  5
30C
330
1F
100
AcDbEntity
  8
0
  6
Continuous
 62
     7
370
    35
100
AcDbCircle
 10
148.3095400448
 20
301.7111187451
 30
0.0
 40
31.70861512170273
100
AcDbArc
 50
256.2595329544
 51
262.8904714683
  0
ARC
  5
30D
330
1F
100
AcDbEntity
  8
0
  6
Continuous
 62
     7
370
    35
100
AcDbCircle
 10
143.3903195219
 20
269.7854026614
 30
0.0
 40
22.20344331303091
100
AcDbArc
 50
94.5341215865
 51
100.649832628
  0
LWPOLYLINE
  5
30E
330
1F
100
AcDbEntity
  8
0
  6
Continuous
 62
     7
370
    35
100
AcDbPolyline
 90
        3
 70
   128
 43
0.0
 10
147.1350756029
 20
292.5128642502
 10
147.9186706098
 20
292.6618978241
 10
148.7330445855
 20
292.8585587332
  0
ARC
  5
30F
330
1F
100
AcDbEntity
  8
0
  6
Continuous
 62
     7
370
    35
100
AcDbCircle
 10
143.3903195219
 20
266.8631804392
 30
0.0
 40
22.2034433130455
100
AcDbArc
 50
94.5341215865
 51
100.649832628
  0
LWPOLYLINE
  5
310
330
1F
100
AcDbEntity
  8
0
  6
Continuous
 62
     7
370
    35
100
AcDbPolyline
 90
        3
 70
   128
 43
0.0
 10
147.1350756029
 20
289.590642028
 10
147.9186706098
 20
289.7396756019
 10
148.7330445855
 20
289.936336511
  0
ARC
  5
311
330
1F
100
AcDbEntity
  8
0
  6
Continuous
 62
     7
370
    35
100
AcDbCircle
 10
143.3903195219
 20
263.940958217
 30
0.0
 40
22.20344331306178
100
AcDbArc
 50
94.5341215865
 51
100.649832628
  0
LWPOLYLINE
  5
312
330
1F
100
AcDbEntity
  8
0
  6
Continuous
 62
     7
370
    35
100
AcDbPolyline
 90
        3
 70
   128
 43
0.0
 10
147.1350756029
 20
286.6684198058
 10
147.9186706098
 20
286.8174533796
 10
148.7330445855
 20
287.0141142887
  0
ARC
  5
313
330
1F
100
AcDbEntity
  8
0
  6
Continuous
 62
     7
370
    35
100
AcDbCircle
 10
143.5538099927
 20
259.4907094232
 30
0.0
 40
23.73964967705934
100
AcDbArc
 50
94.6359331279
 51
100.069325248
  0
LWPOLYLINE
  5
314
330
1F
100
AcDbEntity
  8
0
  6
Continuous
 62
     7
370
    35
100
AcDbPolyline
 90
        3
 70
   128
 43
0.0
 10
147.1350756029
 20
283.7461975836
 10
147.9186706098
 20
283.8952311574
 10
148.7330445855
 20
284.0918920665
  0
ARC
  5
315
330
1F
100
AcDbEntity
  8
0
  6
Continuous
 62
     7
370
    35
100
AcDbCircle
 10
143.3903195219
 20
258.0965137725
 30
0.0
 40
22.20344331306534
100
AcDbArc
 50
94.5341215865
 51
100.649832628
  0
LWPOLYLINE
  5
316
330
1F
100
AcDbEntity
  8
0
  6
Continuous
 62
     7
370
    35
100
AcDbPolyline
 90
        3
 70
   128
 43
0.0
 10
147.1350756029
 20
280.8239753614
 10
147.9186706098
 20
280.9730089352
 10
148.7330445855
 20
281.1696698443
  0
ARC
  5
317
330
1F
100
AcDbEntity
  8
0
  6
Continuous
 62
     7
370
    35
100
AcDbCircle
 10
143.3903195219
 20
255.1742915503
 30
0.0
 40
22.20344331303085
100
AcDbArc
 50
94.5341215865
 51
100.649832628
  0
LWPOLYLINE
  5
318
330
1F
100
AcDbEntity
  8
0
  6
Continuous
 62
     7
370
    35
100
AcDbPolyline
 90
        3
 70
   128
 43
0.0
 10
147.1350756029
 20
277.9017531391
 10
147.9186706098
 20
278.050786713
 10
148.7330445855
 20
278.2474476221
  0
ARC
  5
319
330
1F
100
AcDbEntity
  8
0
  6
Continuous
 62
     7
370
    35
100
AcDbCircle
 10
143.3903195219
 20
252.2520693281
 30
0.0
 40
22.20344331306083
100
AcDbArc
 50
94.5341215865
 51
100.649832628
  0
LWPOLYLINE
  5
31A
330
1F
100
AcDbEntity
  8
0
  6
Continuous
 62
     7
370
    35
100
AcDbPolyline
 90
        3
 70
   128
 43
0.0
 10
147.1350756029
 20
274.9795309169
 10
147.9186706098
 20
275.1285644908
 10
148.7330445855
 20
275.3252253998
  0
LINE
  5
31B
330
1F
100
AcDbEntity
  8
0
  6
Continuous
 62
     7
370
    35
100
AcDbLine
 10
139.0430403451
 20
271.0218116208
 30
0.0
 11
139.1952441214
 21
271.1311197122
 31
0.0
  0
LWPOLYLINE
  5
31C
330
1F
100
AcDbEntity
  8
0
  6
Continuous
 62
     7
370
    35
100
AcDbPolyline
 90
        9
 70
   128
 43
0.0
 10
138.9209403887
 20
291.9768814878
 10
138.7646204659
 20
291.9554101528
 10
138.6544559897
 20
291.8845779765
 10
138.5994417602
 20
291.8024857471
 10
138.5850756029
 20
291.7324105848
 10
138.5994417602
 20
291.6623354225
 10
138.6544559897
 20
291.5802431931
 10
138.7646204659
 20
291.5094110168
 10
138.9209403887
 20
291.4879396818
  0
LWPOLYLINE
  5
31D
330
1F
100
AcDbEntity
  8
0
  6
Continuous
 62
     7
370
    35
100
AcDbPolyline
 90
        9
 70
   128
 43
0.0
 10
138.9209403887
 20
289.0546592656
 10
138.7646204659
 20
289.0331879306
 10
138.6544559897
 20
288.9623557543
 10
138.5994417602
 20
288.8802635249
 10
138.5850756029
 20
288.8101883626
 10
138.5994417602
 20
288.7401132003
 10
138.6544559897
 20
288.6580209709
 10
138.7646204659
 20
288.5871887946
 10
138.9209403887
 20
288.5657174596
  0
LWPOLYLINE
  5
31E
330
1F
100
AcDbEntity
  8
0
  6
Continuous
 62
     7
370
    35
100
AcDbPolyline
 90
        9
 70
   128
 43
0.0
 10
138.9209403887
 20
286.1324370433
 10
138.7646204659
 20
286.1109657084
 10
138.6544559897
 20
286.0401335321
 10
138.5994417602
 20
285.9580413027
 10
138.5850756029
 20
285.8879661404
 10
138.5994417602
 20
285.8178909781
 10
138.6544559897
 20
285.7357987487
 10
138.7646204659
 20
285.6649665724
 10
138.9209403887
 20
285.6434952374
  0
LWPOLYLINE
  5
31F
330
1F
100
AcDbEntity
  8
0
  6
Continuous
 62
     7
370
    35
100
AcDbPolyline
 90
        9
 70
   128
 43
0.0
 10
138.9209403887
 20
283.2102148211
 10
138.7646204659
 20
283.1887434862
 10
138.6544559897
 20
283.1179113098
 10
138.5994417602
 20
283.0358190804
 10
138.5850756029
 20
282.9657439182
 10
138.5994417602
 20
282.8956687559
 10
138.6544559897
 20
282.8135765265
 10
138.7646204659
 20
282.7427443501
 10
138.9209403887
 20
282.7212730152
  0
LWPOLYLINE
  5
320
330
1F
100
AcDbEntity
  8
0
  6
Continuous
 62
     7
370
    35
100
AcDbPolyline
 90
        9
 70
   128
 43
0.0
 10
138.9209403887
 20
280.2879925989
 10
138.7646204659
 20
280.2665212639
 10
138.6544559897
 20
280.1956890876
 10
138.5994417602
 20
280.1135968582
 10
138.5850756029
 20
280.0435216959
 10
138.5994417602
 20
279.9734465337
 10
138.6544559897
 20
279.8913543043
 10
138.7646204659
 20
279.8205221279
 10
138.9209403887
 20
279.799050793
  0
LWPOLYLINE
  5
321
330
1F
100
AcDbEntity
  8
0
  6
Continuous
 62
     7
370
    35
100
AcDbPolyline
 90
        9
 70
   128
 43
0.0
 10
138.9209403887
 20
277.3657703767
 10
138.7646204659
 20
277.3442990417
 10
138.6544559897
 20
277.2734668654
 10
138.5994417602
 20
277.191374636
 10
138.5850756029
 20
277.1212994737
 10
138.5994417602
 20
277.0512243114
 10
138.6544559897
 20
276.969132082
 10
138.7646204659
 20
276.8982999057
 10
138.9209403887
 20
276.8768285707
  0
LWPOLYLINE
  5
322
330
1F
100
AcDbEntity
  8
0
  6
Continuous
 62
     7
370
    35
100
AcDbPolyline
 90
        9
 70
   128
 43
0.0
 10
138.9209403887
 20
274.4435481545
 10
138.7646204659
 20
274.4220768195
 10
138.6544559897
 20
274.3512446432
 10
138.5994417602
 20
274.2691524138
 10
138.5850756029
 20
274.1990772515
 10
138.5994417602
 20
274.1290020892
 10
138.6544559897
 20
274.0469098598
 10
138.7646204659
 20
273.9760776835
 10
138.9209403887
 20
273.9546063485
  0
LWPOLYLINE
  5
323
330
1F
100
AcDbEntity
  8
0
  6
Continuous
 62
     7
370
    35
100
AcDbPolyline
 90
        9
 70
   128
 43
0.0
 10
138.9209403887
 20
271.5213259322
 10
138.7646204659
 20
271.4998545973
 10
138.6544559897
 20
271.4290224209
 10
138.5994417602
 20
271.3469301915
 10
138.5850756029
 20
271.2768550293
 10
138.5994417602
 20
271.206779867
 10
138.6544559897
 20
271.1246876376
 10
138.7646204659
 20
271.0538554613
 10
138.9209403887
 20
271.0323841263
  0
ARC
  5
324
330
1F
100
AcDbEntity
  8
0
  6
Continuous
 62
     7
370
    35
100
AcDbCircle
 10
138.9429382322
 20
291.7324105848
 30
0.0
 40
0.3562089891511204
100
AcDbArc
 50
93.5405790833
 51
266.4594209167
  0
ARC
  5
325
330
1F
100
AcDbEntity
  8
0
  6
Continuous
 62
     7
370
    35
100
AcDbCircle
 10
138.9429382322
 20
288.8101883626
 30
0.0
 40
0.3562089891511204
100
AcDbArc
 50
93.5405790833
 51
266.4594209167
  0
ARC
  5
326
330
1F
100
AcDbEntity
  8
0
  6
Continuous
 62
     7
370
    35
100
AcDbCircle
 10
138.9429382322
 20
285.8879661404
 30
0.0
 40
0.3562089891511221
100
AcDbArc
 50
93.5405790833
 51
266.4594209167
  0
ARC
  5
327
330
1F
100
AcDbEntity
  8
0
  6
Continuous
 62
     7
370
    35
100
AcDbCircle
 10
138.9429382322
 20
282.9657439182
 30
0.0
 40
0.3562089891511204
100
AcDbArc
 50
93.5405790833
 51
266.4594209167
  0
ARC
  5
328
330
1F
100
AcDbEntity
  8
0
  6
Continuous
 62
     7
370
    35
100
AcDbCircle
 10
138.9429382322
 20
280.0435216959
 30
0.0
 40
0.3562089891511221
100
AcDbArc
 50
93.5405790833
 51
266.4594209167
  0
ARC
  5
329
330
1F
100
AcDbEntity
  8
0
  6
Continuous
 62
     7
370
    35
100
AcDbCircle
 10
138.9429382322
 20
277.1212994737
 30
0.0
 40
0.3562089891511221
100
AcDbArc
 50
93.5405790833
 51
266.4594209167
  0
ARC
  5
32A
330
1F
100
AcDbEntity
  8
0
  6
Continuous
 62
     7
370
    35
100
AcDbCircle
 10
138.9429382322
 20
274.1990772515
 30
0.0
 40
0.3562089891511221
100
AcDbArc
 50
93.5405790833
 51
266.4594209167
  0
ARC
  5
32B
330
1F
100
AcDbEntity
  8
0
  6
Continuous
 62
     7
370
    35
100
AcDbCircle
 10
138.9429382322
 20
271.2768550293
 30
0.0
 40
0.3562089891511789
100
AcDbArc
 50
93.5405790833
 51
266.4594209167
  0
LINE
  5
32C
330
1F
100
AcDbEntity
  8
0
  6
Continuous
 62
     7
370
    35
100
AcDbLine
 10
150.1580376163
 20
293.0690558804
 30
0.0
 11
150.1282384376
 21
293.0687331013
 31
0.0
  0
ARC
  5
32D
330
1F
100
AcDbEntity
  8
0
  6
Continuous
 62
     7
370
    35
100
AcDbCircle
 10
149.3555881949
 20
260.6595723872
 30
0.0
 40
32.41279202008673
100
AcDbArc
 50
88.9726893736
 51
93.9282554794
  0
ARC
  5
32E
330
1F
100
AcDbEntity
  8
0
  6
Continuous
 62
     7
370
    35
100
AcDbCircle
 10
141.7367097951
 20
283.7117753313
 30
0.0
 40
8.805937943387503
100
AcDbArc
 50
90.6612969105
 51
109.9847039362
  0
LINE
  5
32F
330
1F
100
AcDbEntity
  8
0
  6
Continuous
 62
     7
370
    35
100
AcDbLine
 10
150.1580376163
 20
290.1468336582
 30
0.0
 11
150.1282384376
 21
290.1465108791
 31
0.0
  0
ARC
  5
330
330
1F
100
AcDbEntity
  8
0
  6
Continuous
 62
     7
370
    35
100
AcDbCircle
 10
149.3555881949
 20
257.737350165
 30
0.0
 40
32.41279202009054
100
AcDbArc
 50
88.9726893736
 51
93.9282554794
  0
ARC
  5
331
330
1F
100
AcDbEntity
  8
0
  6
Continuous
 62
     7
370
    35
100
AcDbCircle
 10
141.7367097951
 20
280.7895531091
 30
0.0
 40
8.805937943387276
100
AcDbArc
 50
90.6612969105
 51
109.9847039362
  0
LINE
  5
332
330
1F
100
AcDbEntity
  8
0
  6
Continuous
 62
     7
370
    35
100
AcDbLine
 10
150.1580376163
 20
287.224611436
 30
0.0
 11
150.1282384376
 21
287.2242886569
 31
0.0
  0
ARC
  5
333
330
1F
100
AcDbEntity
  8
0
  6
Continuous
 62
     7
370
    35
100
AcDbCircle
 10
149.3555881949
 20
254.8151279427
 30
0.0
 40
32.41279202009008
100
AcDbArc
 50
88.9726893736
 51
93.9282554794
  0
ARC
  5
334
330
1F
100
AcDbEntity
  8
0
  6
Continuous
 62
     7
370
    35
100
AcDbCircle
 10
141.7367097951
 20
277.8673308869
 30
0.0
 40
8.805937943387276
100
AcDbArc
 50
90.6612969105
 51
109.9847039362
  0
LINE
  5
335
330
1F
100
AcDbEntity
  8
0
  6
Continuous
 62
     7
370
    35
100
AcDbLine
 10
150.1580376163
 20
284.3023892137
 30
0.0
 11
150.1282384376
 21
284.3020664346
 31
0.0
  0
LWPOLYLINE
  5
336
330
1F
100
AcDbEntity
  8
0
  6
Continuous
 62
     7
370
    35
100
AcDbPolyline
 90
        4
 70
   128
 43
0.0
 10
148.745063331
 20
284.3055505724
 10
147.9546320023
 20
284.2822656638
 10
147.1394876809
 20
284.2299223608
 10
147.1350756029
 20
284.2295476359
  0
ARC
  5
337
330
1F
100
AcDbEntity
  8
0
  6
Continuous
 62
     7
370
    35
100
AcDbCircle
 10
141.7367097951
 20
274.9451086646
 30
0.0
 40
8.805937943387393
100
AcDbArc
 50
90.6612969105
 51
109.9847039362
  0
LINE
  5
338
330
1F
100
AcDbEntity
  8
0
  6
Continuous
 62
     7
370
    35
100
AcDbLine
 10
150.1580376163
 20
281.3801669915
 30
0.0
 11
150.1282384376
 21
281.3798442124
 31
0.0
  0
ARC
  5
339
330
1F
100
AcDbEntity
  8
0
  6
Continuous
 62
     7
370
    35
100
AcDbCircle
 10
149.3555881949
 20
248.9706834981
 30
0.0
 40
32.4127920202334
100
AcDbArc
 50
88.9726893736
 51
93.9282554794
  0
ARC
  5
33A
330
1F
100
AcDbEntity
  8
0
  6
Continuous
 62
     7
370
    35
100
AcDbCircle
 10
141.7367097951
 20
272.0228864424
 30
0.0
 40
8.805937943387503
100
AcDbArc
 50
90.6612969105
 51
109.9847039362
  0
LINE
  5
33B
330
1F
100
AcDbEntity
  8
0
  6
Continuous
 62
     7
370
    35
100
AcDbLine
 10
150.1580376163
 20
278.4579447693
 30
0.0
 11
150.1282384376
 21
278.4576219902
 31
0.0
  0
ARC
  5
33C
330
1F
100
AcDbEntity
  8
0
  6
Continuous
 62
     7
370
    35
100
AcDbCircle
 10
149.3555881949
 20
246.0484612744
 30
0.0
 40
32.41279202178016
100
AcDbArc
 50
88.9726893737
 51
93.9282554793
  0
ARC
  5
33D
330
1F
100
AcDbEntity
  8
0
  6
Continuous
 62
     7
370
    35
100
AcDbCircle
 10
141.7367097951
 20
269.1006642202
 30
0.0
 40
8.805937943386935
100
AcDbArc
 50
90.6612969105
 51
109.9847039362
  0
LINE
  5
33E
330
1F
100
AcDbEntity
  8
0
  6
Continuous
 62
     7
370
    35
100
AcDbLine
 10
150.1580376163
 20
275.5357225471
 30
0.0
 11
150.1282384376
 21
275.535399768
 31
0.0
  0
ARC
  5
33F
330
1F
100
AcDbEntity
  8
0
  6
Continuous
 62
     7
370
    35
100
AcDbCircle
 10
149.3555881949
 20
243.1262390538
 30
0.0
 40
32.41279202008959
100
AcDbArc
 50
88.9726893736
 51
93.9282554794
  0
ARC
  5
340
330
1F
100
AcDbEntity
  8
0
  6
Continuous
 62
     7
370
    35
100
AcDbCircle
 10
141.7367097951
 20
266.178441998
 30
0.0
 40
8.805937943387503
100
AcDbArc
 50
90.6612969105
 51
109.9847039362
  0
LINE
  5
341
330
1F
100
AcDbEntity
  8
0
  6
Continuous
 62
     7
370
    35
100
AcDbLine
 10
150.1580376163
 20
272.6135003249
 30
0.0
 11
150.1282384376
 21
272.6131775458
 31
0.0
  0
LWPOLYLINE
  5
342
330
1F
100
AcDbEntity
  8
0
  6
Continuous
 62
     7
370
    35
100
AcDbPolyline
 90
        3
 70
   128
 43
0.0
 10
149.9367168899
 20
272.6115989071
 10
149.4786914061
 20
272.61114148
 10
148.8850756029
 20
272.6164446123
  0
ARC
  5
343
330
1F
100
AcDbEntity
  8
0
  6
Continuous
 62
     7
370
    35
100
AcDbCircle
 10
140.0263491546
 20
269.0837495202
 30
0.0
 40
2.771543481019796
100
AcDbArc
 50
92.9217970464
 51
117.9549956754
  0
ARC
  5
344
330
1F
100
AcDbEntity
  8
0
  6
Continuous
 62
     7
370
    35
100
AcDbCircle
 10
145.7074480158
 20
262.8704991061
 30
0.0
 40
30.88731905411353
100
AcDbArc
 50
81.9393270386
 51
88.55002753
  0
ARC
  5
345
330
1F
100
AcDbEntity
  8
0
  6
Continuous
 62
     7
370
    35
100
AcDbCircle
 10
145.7074480158
 20
259.9482768839
 30
0.0
 40
30.88731905412047
100
AcDbArc
 50
81.9393270386
 51
88.55002753
  0
ARC
  5
346
330
1F
100
AcDbEntity
  8
0
  6
Continuous
 62
     7
370
    35
100
AcDbCircle
 10
145.7074480158
 20
257.0260546617
 30
0.0
 40
30.88731905412754
100
AcDbArc
 50
81.9393270386
 51
88.55002753
  0
ARC
  5
347
330
1F
100
AcDbEntity
  8
0
  6
Continuous
 62
     7
370
    35
100
AcDbCircle
 10
145.7074480158
 20
254.1038324395
 30
0.0
 40
30.88731905412791
100
AcDbArc
 50
81.9393270386
 51
88.55002753
  0
ARC
  5
348
330
1F
100
AcDbEntity
  8
0
  6
Continuous
 62
     7
370
    35
100
AcDbCircle
 10
145.7074480158
 20
251.1816102172
 30
0.0
 40
30.88731905412218
100
AcDbArc
 50
81.9393270386
 51
88.55002753
  0
ARC
  5
349
330
1F
100
AcDbEntity
  8
0
  6
Continuous
 62
     7
370
    35
100
AcDbCircle
 10
145.7074480158
 20
248.259387995
 30
0.0
 40
30.88731905410578
100
AcDbArc
 50
81.9393270386
 51
88.55002753
  0
ARC
  5
34A
330
1F
100
AcDbEntity
  8
0
  6
Continuous
 62
     7
370
    35
100
AcDbCircle
 10
145.7074480158
 20
245.3371657728
 30
0.0
 40
30.88731905410795
100
AcDbArc
 50
81.9393270386
 51
88.55002753
  0
ARC
  5
34B
330
1F
100
AcDbEntity
  8
0
  6
Continuous
 62
     7
370
    35
100
AcDbCircle
 10
145.7074480158
 20
242.4149435509
 30
0.0
 40
30.88731905381123
100
AcDbArc
 50
81.9393270385
 51
88.5500275301
  0
ARC
  5
34C
330
1F
100
AcDbEntity
  8
0
  6
Continuous
 62
     7
370
    35
100
AcDbCircle
 10
140.2098908282
 20
254.898221442
 30
0.0
 40
36.6422803091814
100
AcDbArc
 50
83.4572532346
 51
91.511784899
  0
ARC
  5
34D
330
1F
100
AcDbEntity
  8
0
  6
Continuous
 62
     7
370
    35
100
AcDbCircle
 10
140.2098908282
 20
251.9759992211
 30
0.0
 40
36.64228030786733
100
AcDbArc
 50
83.4572532345
 51
91.5117848992
  0
ARC
  5
34E
330
1F
100
AcDbEntity
  8
0
  6
Continuous
 62
     7
370
    35
100
AcDbCircle
 10
140.2098908282
 20
249.0537769976
 30
0.0
 40
36.64228030913835
100
AcDbArc
 50
83.4572532346
 51
91.5117848991
  0
ARC
  5
34F
330
1F
100
AcDbEntity
  8
0
  6
Continuous
 62
     7
370
    35
100
AcDbCircle
 10
140.2098908282
 20
246.1315547767
 30
0.0
 40
36.64228030783514
100
AcDbArc
 50
83.4572532345
 51
91.5117848992
  0
ARC
  5
350
330
1F
100
AcDbEntity
  8
0
  6
Continuous
 62
     7
370
    35
100
AcDbCircle
 10
140.2098908282
 20
243.2093325545
 30
0.0
 40
36.64228030787343
100
AcDbArc
 50
83.4572532345
 51
91.5117848992
  0
ARC
  5
351
330
1F
100
AcDbEntity
  8
0
  6
Continuous
 62
     7
370
    35
100
AcDbCircle
 10
140.2098908282
 20
240.2871103322
 30
0.0
 40
36.6422803079078
100
AcDbArc
 50
83.4572532345
 51
91.5117848992
  0
ARC
  5
352
330
1F
100
AcDbEntity
  8
0
  6
Continuous
 62
     7
370
    35
100
AcDbCircle
 10
140.2098908283
 20
237.3648881104
 30
0.0
 40
36.64228030744091
100
AcDbArc
 50
83.4572532344
 51
91.5117848992
  0
ARC
  5
353
330
1F
100
AcDbEntity
  8
0
  6
Continuous
 62
     7
370
    35
100
AcDbCircle
 10
140.2098908282
 20
234.4426658878
 30
0.0
 40
36.64228030787812
100
AcDbArc
 50
83.4572532345
 51
91.5117848992
  0
LWPOLYLINE
  5
354
330
1F
100
AcDbEntity
  8
0
  6
Continuous
 62
     7
370
    35
100
AcDbPolyline
 90
        3
 70
   128
 43
0.0
 10
149.4482490641
 20
293.3014358689
 10
149.6722879266
 20
293.1917685537
 10
149.8073663478
 20
293.0242351633
  0
LWPOLYLINE
  5
355
330
1F
100
AcDbEntity
  8
0
  6
Continuous
 62
     7
370
    35
100
AcDbPolyline
 90
        3
 70
   128
 43
0.0
 10
149.4482490641
 20
290.3792136467
 10
149.6722879266
 20
290.2695463315
 10
149.8073663478
 20
290.1020129411
  0
LWPOLYLINE
  5
356
330
1F
100
AcDbEntity
  8
0
  6
Continuous
 62
     7
370
    35
100
AcDbPolyline
 90
        3
 70
   128
 43
0.0
 10
149.4482490641
 20
287.4569914245
 10
149.6722879266
 20
287.3473241093
 10
149.8073663478
 20
287.1797907189
  0
LWPOLYLINE
  5
357
330
1F
100
AcDbEntity
  8
0
  6
Continuous
 62
     7
370
    35
100
AcDbPolyline
 90
        3
 70
   128
 43
0.0
 10
149.4482490641
 20
284.5347692023
 10
149.6722879266
 20
284.425101887
 10
149.8073663478
 20
284.2575684967
  0
LWPOLYLINE
  5
358
330
1F
100
AcDbEntity
  8
0
  6
Continuous
 62
     7
370
    35
100
AcDbPolyline
 90
        3
 70
   128
 43
0.0
 10
149.4482490641
 20
281.6125469801
 10
149.6722879266
 20
281.5028796648
 10
149.8073663478
 20
281.3353462745
  0
LWPOLYLINE
  5
359
330
1F
100
AcDbEntity
  8
0
  6
Continuous
 62
     7
370
    35
100
AcDbPolyline
 90
        3
 70
   128
 43
0.0
 10
149.4482490641
 20
278.6903247578
 10
149.6722879266
 20
278.5806574426
 10
149.8073663478
 20
278.4131240522
  0
LWPOLYLINE
  5
35A
330
1F
100
AcDbEntity
  8
0
  6
Continuous
 62
     7
370
    35
100
AcDbPolyline
 90
        3
 70
   128
 43
0.0
 10
149.4482490641
 20
275.7681025356
 10
149.6722879266
 20
275.6584352204
 10
149.8073663478
 20
275.49090183
  0
LWPOLYLINE
  5
35B
330
1F
100
AcDbEntity
  8
0
  6
Continuous
 62
     7
370
    35
100
AcDbPolyline
 90
        3
 70
   128
 43
0.0
 10
149.4482490641
 20
272.8458803134
 10
149.6722879266
 20
272.7362129981
 10
149.8073663478
 20
272.5686796078
  0
LWPOLYLINE
  5
35C
330
1F
100
AcDbEntity
  8
0
  6
Continuous
 62
     7
370
    35
100
AcDbPolyline
 90
        3
 70
   128
 43
0.0
 10
149.4482490641
 20
296.2236580912
 10
149.6722879266
 20
296.1139907759
 10
149.8073663478
 20
295.9464573856
  0
ARC
  5
35D
330
1F
100
AcDbEntity
  8
0
  6
Continuous
 62
     7
370
    35
100
AcDbCircle
 10
140.2098908282
 20
257.8204436643
 30
0.0
 40
36.64228030913832
100
AcDbArc
 50
83.4572532346
 51
91.5117848991
  0
ARC
  5
35E
330
1F
100
AcDbEntity
  8
0
  6
Continuous
 62
     7
370
    35
100
AcDbCircle
 10
145.7074480158
 20
265.7927213283
 30
0.0
 40
30.88731905412047
100
AcDbArc
 50
81.9393270386
 51
88.55002753
  0
LINE
  5
35F
330
1F
100
AcDbEntity
  8
0
  6
Continuous
 62
     7
370
    35
100
AcDbLine
 10
150.1580376163
 20
295.9912781026
 30
0.0
 11
150.1282384376
 21
295.9909553235
 31
0.0
  0
ARC
  5
360
330
1F
100
AcDbEntity
  8
0
  6
Continuous
 62
     7
370
    35
100
AcDbCircle
 10
149.5197666904
 20
228.4387827421
 30
0.0
 40
67.55188072502699
100
AcDbArc
 50
89.646351247
 51
91.1745418686
  0
ARC
  5
361
330
1F
100
AcDbEntity
  8
0
  6
Continuous
 62
     7
370
    35
100
AcDbCircle
 10
140.9491901955
 20
289.3452277028
 30
0.0
 40
5.991721273613239
100
AcDbArc
 50
93.0050954838
 51
111.7685582258
  0
ARC
  5
362
330
1F
100
AcDbEntity
  8
0
  6
Continuous
 62
     7
370
    35
100
AcDbCircle
 10
138.9429382322
 20
294.654632807
 30
0.0
 40
0.3562089891511204
100
AcDbArc
 50
93.5405790833
 51
266.4594209167
  0
LWPOLYLINE
  5
363
330
1F
100
AcDbEntity
  8
0
  6
Continuous
 62
     7
370
    35
100
AcDbPolyline
 90
        9
 70
   128
 43
0.0
 10
138.9209403887
 20
294.89910371
 10
138.7646204659
 20
294.8776323751
 10
138.6544559897
 20
294.8068001987
 10
138.5994417602
 20
294.7247079693
 10
138.5850756029
 20
294.654632807
 10
138.5994417602
 20
294.5845576448
 10
138.6544559897
 20
294.5024654154
 10
138.7646204659
 20
294.431633239
 10
138.9209403887
 20
294.4101619041
  0
ARC
  5
364
330
1F
100
AcDbEntity
  8
0
  6
Continuous
 62
     7
370
    35
100
AcDbCircle
 10
141.6863557214
 20
283.1253595218
 30
0.0
 40
11.65406460094087
100
AcDbArc
 50
95.1755251998
 51
101.2980351177
  0
LINE
  5
365
330
1F
100
AcDbEntity
  8
0
  6
Continuous
 62
     7
370
    35
100
AcDbLine
 10
148.1350756028
 20
295.6363790869
 30
0.0
 11
148.7330445855
 21
295.7807809554
 31
0.0
  0
ARC
  5
366
330
1F
100
AcDbEntity
  8
0
  6
Continuous
 62
     7
370
    35
100
AcDbCircle
 10
148.3095400448
 20
325.0888965229
 30
0.0
 40
31.70861512170113
100
AcDbArc
 50
256.2595329544
 51
262.8904714683
  0
ARC
  5
367
330
1F
100
AcDbEntity
  8
0
  6
Continuous
 62
     7
370
    35
100
AcDbCircle
 10
145.0452364795
 20
425.0109457683
 30
0.0
 40
127.8663504774276
100
AcDbArc
 50
267.2673155661
 51
269.7041864421
  0
ARC
  5
368
330
1F
100
AcDbEntity
  8
0
  6
Continuous
 62
     7
370
    35
100
AcDbCircle
 10
138.8893534953
 20
296.9962994737
 30
0.0
 40
0.3035905631576097
100
AcDbArc
 50
90.0416680655
 51
269.958331935
  0
ARC
  5
369
330
1F
100
AcDbEntity
  8
0
  6
Continuous
 62
     7
370
    35
100
AcDbCircle
 10
144.4120229119
 20
396.9263672579
 30
0.0
 40
100.3800714012348
100
AcDbArc
 50
266.8112514678
 51
269.9846187886
  0
ARC
  5
36A
330
1F
100
AcDbEntity
  8
0
  6
Continuous
 62
     7
370
    35
100
AcDbCircle
 10
148.3038693472
 20
312.9305641207
 30
0.0
 40
16.01284293201318
100
AcDbArc
 50
269.3960255332
 51
275.8710195637
  0
ARC
  5
36B
330
1F
100
AcDbEntity
  8
0
  6
Continuous
 62
     7
370
    35
100
AcDbCircle
 10
143.7249147264
 20
169.2816531809
 30
0.0
 40
127.8663504756981
100
AcDbArc
 50
87.2673155661
 51
89.7041864421
  0
ARC
  5
36C
330
1F
100
AcDbEntity
  8
0
  6
Continuous
 62
     7
370
    35
100
AcDbCircle
 10
149.8845566019
 20
297.291785567
 30
0.0
 40
0.2990975035457171
100
AcDbArc
 50
269.3222166434
 51
39.2742886694
  0
ARC
  5
36D
330
1F
100
AcDbEntity
  8
0
  6
Continuous
 62
     7
370
    35
100
AcDbCircle
 10
143.7249147262
 20
142.381653174
 30
0.0
 40
127.8663504826048
100
AcDbArc
 50
87.2673155662
 51
89.7041864421
  0
ARC
  5
36E
330
1F
100
AcDbEntity
  8
0
  6
Continuous
 62
     7
370
    35
100
AcDbCircle
 10
144.358128294
 20
170.4662316931
 30
0.0
 40
100.3800713976445
100
AcDbArc
 50
86.8112514677
 51
89.9846187887
  0
ARC
  5
36F
330
1F
100
AcDbEntity
  8
0
  6
Continuous
 62
     7
370
    35
100
AcDbCircle
 10
149.8807977106
 20
270.3962994737
 30
0.0
 40
0.3035905631569854
100
AcDbArc
 50
270.0416680649
 51
89.9583319343
  0
ARC
  5
370
330
1F
100
AcDbEntity
  8
0
  6
Continuous
 62
     7
370
    35
100
AcDbCircle
 10
139.9209984192
 20
260.866746234
 30
0.0
 40
9.58661215220842
100
AcDbArc
 50
90.2146984298
 51
96.5446676985
  0
ARC
  5
371
330
1F
100
AcDbEntity
  8
0
  6
Continuous
 62
     7
370
    35
100
AcDbCircle
 10
145.0452364796
 20
398.1109457746
 30
0.0
 40
127.8663504837415
100
AcDbArc
 50
267.2673155662
 51
269.7041864421
  0
ARC
  5
372
330
1F
100
AcDbEntity
  8
0
  6
Continuous
 62
     7
370
    35
100
AcDbCircle
 10
138.8855946039
 20
270.1008133804
 30
0.0
 40
0.2990975035468068
100
AcDbArc
 50
89.3222166433
 51
219.2742886687
  0
LINE
  5
373
330
1F
100
AcDbEntity
  8
0
  6
Continuous
 62
     7
370
    35
100
AcDbLine
 10
150.3850756031
 20
298.1462994737
 30
0.0
 11
150.0850756027
 21
298.4462994737
 31
0.0
  0
LINE
  5
374
330
1F
100
AcDbEntity
  8
0
  6
Continuous
 62
     7
370
    35
100
AcDbLine
 10
138.6850756032
 20
298.4462994737
 30
0.0
 11
138.3850756027
 21
298.1462994737
 31
0.0
  0
LINE
  5
375
330
1F
100
AcDbEntity
  8
0
  6
Continuous
 62
     7
370
    35
100
AcDbLine
 10
138.3850756027
 20
298.1462994737
 30
0.0
 11
138.3850756027
 21
297.7462994737
 31
0.0
  0
LINE
  5
376
330
1F
100
AcDbEntity
  8
0
  6
Continuous
 62
     7
370
    35
100
AcDbLine
 10
150.3850756031
 20
297.7462994737
 30
0.0
 11
150.3850756031
 21
298.1462994737
 31
0.0
  0
LINE
  5
377
330
1F
100
AcDbEntity
  8
0
  6
Continuous
 62
     7
370
    35
100
AcDbLine
 10
138.3850756027
 20
297.7462994737
 30
0.0
 11
138.6850756032
 21
297.4462994737
 31
0.0
  0
LINE
  5
378
330
1F
100
AcDbEntity
  8
0
  6
Continuous
 62
     7
370
    35
100
AcDbLine
 10
150.1207293472
 20
297.4819532182
 30
0.0
 11
150.3850756031
 21
297.7462994737
 31
0.0
  0
LINE
  5
379
330
1F
100
AcDbEntity
  8
0
  6
Continuous
 62
     7
370
    35
100
AcDbLine
 10
140.635075603
 20
297.4462994737
 30
0.0
 11
140.635075603
 21
297.2186158481
 31
0.0
  0
LINE
  5
37A
330
1F
100
AcDbEntity
  8
0
  6
Continuous
 62
     7
370
    35
100
AcDbLine
 10
140.635075603
 20
296.618932975
 30
0.0
 11
140.635075603
 21
294.3949785546
 31
0.0
  0
LINE
  5
37B
330
1F
100
AcDbEntity
  8
0
  6
Continuous
 62
     7
370
    35
100
AcDbLine
 10
148.1350756028
 20
296.5741503478
 30
0.0
 11
148.1350756028
 21
297.0739830993
 31
0.0
  0
LINE
  5
37C
330
1F
100
AcDbEntity
  8
0
  6
Continuous
 62
     7
370
    35
100
AcDbLine
 10
140.635075603
 20
293.7462994737
 30
0.0
 11
140.9350756026
 21
293.4462994737
 31
0.0
  0
LINE
  5
37D
330
1F
100
AcDbEntity
  8
0
  6
Continuous
 62
     7
370
    35
100
AcDbLine
 10
147.8350756032
 20
293.4462994737
 30
0.0
 11
148.1350756028
 21
293.7462994737
 31
0.0
  0
LINE
  5
37E
330
1F
100
AcDbEntity
  8
0
  6
Continuous
 62
     7
370
    35
100
AcDbLine
 10
126.3850756029
 20
302.6462994737
 30
0.0
 11
126.3850756029
 21
303.4462994737
 31
0.0
  0
LINE
  5
37F
330
1F
100
AcDbEntity
  8
0
  6
Continuous
 62
     7
370
    35
100
AcDbLine
 10
116.3850756029
 20
303.4462994737
 30
0.0
 11
116.3850756029
 21
302.6462994737
 31
0.0
  0
LINE
  5
380
330
1F
100
AcDbEntity
  8
0
  6
Continuous
 62
     7
370
    35
100
AcDbLine
 10
125.1850756029
 20
301.6462994737
 30
0.0
 11
125.1850756029
 21
302.6462994737
 31
0.0
  0
LINE
  5
381
330
1F
100
AcDbEntity
  8
0
  6
Continuous
 62
     7
370
    35
100
AcDbLine
 10
117.5850756029
 20
302.6462994737
 30
0.0
 11
117.5850756029
 21
301.6462994737
 31
0.0
  0
LINE
  5
382
330
1F
100
AcDbEntity
  8
0
  6
Continuous
 62
     7
370
    35
100
AcDbLine
 10
117.8850756029
 20
301.6462994737
 30
0.0
 11
117.8850756029
 21
298.0462994737
 31
0.0
  0
LINE
  5
383
330
1F
100
AcDbEntity
  8
0
  6
Continuous
 62
     7
370
    35
100
AcDbLine
 10
124.8850756029
 20
298.0462994737
 30
0.0
 11
124.8850756029
 21
301.6462994737
 31
0.0
  0
LINE
  5
384
330
1F
100
AcDbEntity
  8
0
  6
Continuous
 62
     7
370
    35
100
AcDbLine
 10
117.8850756029
 20
298.0462994737
 30
0.0
 11
118.2850756029
 21
297.6462994737
 31
0.0
  0
LINE
  5
385
330
1F
100
AcDbEntity
  8
0
  6
Continuous
 62
     7
370
    35
100
AcDbLine
 10
124.4850756029
 20
297.6462994737
 30
0.0
 11
124.8850756029
 21
298.0462994737
 31
0.0
  0
LINE
  5
386
330
1F
100
AcDbEntity
  8
0
  6
Continuous
 62
     7
370
    35
100
AcDbLine
 10
123.3850756029
 20
316.9462994737
 30
0.0
 11
123.3850756029
 21
317.9462994737
 31
0.0
  0
LINE
  5
387
330
1F
100
AcDbEntity
  8
0
  6
Continuous
 62
     7
370
    35
100
AcDbLine
 10
119.3850756029
 20
317.9462994737
 30
0.0
 11
119.3850756029
 21
316.9462994737
 31
0.0
  0
LINE
  5
388
330
1F
100
AcDbEntity
  8
0
  6
Continuous
 62
     7
370
    35
100
AcDbLine
 10
172.3850756029
 20
302.6462994737
 30
0.0
 11
172.3850756029
 21
303.4462994737
 31
0.0
  0
LINE
  5
389
330
1F
100
AcDbEntity
  8
0
  6
Continuous
 62
     7
370
    35
100
AcDbLine
 10
162.3850756029
 20
303.4462994737
 30
0.0
 11
162.3850756029
 21
302.6462994737
 31
0.0
  0
LINE
  5
38A
330
1F
100
AcDbEntity
  8
0
  6
Continuous
 62
     7
370
    35
100
AcDbLine
 10
171.1850756029
 20
301.6462994737
 30
0.0
 11
171.1850756029
 21
302.6462994737
 31
0.0
  0
LINE
  5
38B
330
1F
100
AcDbEntity
  8
0
  6
Continuous
 62
     7
370
    35
100
AcDbLine
 10
163.5850756029
 20
302.6462994737
 30
0.0
 11
163.5850756029
 21
301.6462994737
 31
0.0
  0
LINE
  5
38C
330
1F
100
AcDbEntity
  8
0
  6
Continuous
 62
     7
370
    35
100
AcDbLine
 10
163.8850756029
 20
301.6462994737
 30
0.0
 11
163.8850756029
 21
298.0462994737
 31
0.0
  0
LINE
  5
38D
330
1F
100
AcDbEntity
  8
0
  6
Continuous
 62
     7
370
    35
100
AcDbLine
 10
170.8850756029
 20
298.0462994737
 30
0.0
 11
170.8850756029
 21
301.6462994737
 31
0.0
  0
LINE
  5
38E
330
1F
100
AcDbEntity
  8
0
  6
Continuous
 62
     7
370
    35
100
AcDbLine
 10
163.8850756029
 20
298.0462994737
 30
0.0
 11
164.2850756029
 21
297.6462994737
 31
0.0
  0
LINE
  5
38F
330
1F
100
AcDbEntity
  8
0
  6
Continuous
 62
     7
370
    35
100
AcDbLine
 10
170.4850756029
 20
297.6462994737
 30
0.0
 11
170.8850756029
 21
298.0462994737
 31
0.0
  0
LINE
  5
390
330
1F
100
AcDbEntity
  8
0
  6
Continuous
 62
     7
370
    35
100
AcDbLine
 10
169.3850756029
 20
316.9462994737
 30
0.0
 11
169.3850756029
 21
317.9462994737
 31
0.0
  0
LINE
  5
391
330
1F
100
AcDbEntity
  8
0
  6
Continuous
 62
     7
370
    35
100
AcDbLine
 10
165.3850756029
 20
317.9462994737
 30
0.0
 11
165.3850756029
 21
316.9462994737
 31
0.0
  0
LINE
  5
392
330
1F
100
AcDbEntity
  8
0
  6
Continuous
 62
     7
370
    35
100
AcDbLine
 10
130.3850756029
 20
303.4462994737
 30
0.0
 11
130.3850756029
 21
298.4462994737
 31
0.0
  0
LINE
  5
393
330
1F
100
AcDbEntity
  8
0
  6
Continuous
 62
     7
370
    35
100
AcDbLine
 10
158.3850756029
 20
298.4462994737
 30
0.0
 11
158.3850756029
 21
303.4462994737
 31
0.0
  0
ARC
  5
394
330
1F
100
AcDbEntity
  8
0
  6
Continuous
 62
     7
370
    35
100
AcDbCircle
 10
138.9850756029
 20
316.8462994737
 30
0.0
 40
0.5999999999999943
100
AcDbArc
 50
90.0
 51
180.0
  0
ARC
  5
395
330
1F
100
AcDbEntity
  8
0
  6
Continuous
 62
     7
370
    35
100
AcDbCircle
 10
149.7850756029
 20
316.8462994737
 30
0.0
 40
0.6000000000000227
100
AcDbArc
 50
0.0
 51
90.0
  0
LINE
  5
396
330
1F
100
AcDbEntity
  8
0
  6
Continuous
 62
     7
370
    35
100
AcDbLine
 10
150.3850756029
 20
309.4462994737
 30
0.0
 11
150.3850756029
 21
316.8462994737
 31
0.0
  0
LINE
  5
397
330
1F
100
AcDbEntity
  8
0
  6
Continuous
 62
     7
370
    35
100
AcDbLine
 10
138.3850756029
 20
316.8462994737
 30
0.0
 11
138.3850756029
 21
309.4462994737
 31
0.0
  0
LINE
  5
398
330
1F
100
AcDbEntity
  8
0
  6
Continuous
 62
     7
370
    35
100
AcDbLine
 10
172.3850756029
 20
303.4462994737
 30
0.0
 11
172.3850756029
 21
309.4462994737
 31
0.0
  0
LINE
  5
399
330
1F
100
AcDbEntity
  8
0
  6
Continuous
 62
     7
370
    35
100
AcDbLine
 10
172.3850756029
 20
303.4462994737
 30
0.0
 11
116.3850756029
 21
303.4462994737
 31
0.0
  0
LINE
  5
39A
330
1F
100
AcDbEntity
  8
0
  6
Continuous
 62
     7
370
    35
100
AcDbLine
 10
116.3850756029
 20
303.4462994737
 30
0.0
 11
116.3850756029
 21
309.4462994737
 31
0.0
  0
LINE
  5
39B
330
1F
100
AcDbEntity
  8
0
  6
Continuous
 62
     7
370
    35
100
AcDbLine
 10
172.3850756029
 20
309.4462994737
 30
0.0
 11
116.3850756029
 21
309.4462994737
 31
0.0
  0
LINE
  5
39C
330
1F
100
AcDbEntity
  8
0
  6
Continuous
 62
     7
370
    35
100
AcDbLine
 10
175.3850756029
 20
303.4462994737
 30
0.0
 11
175.3850756029
 21
309.4462994737
 31
0.0
  0
LINE
  5
39D
330
1F
100
AcDbEntity
  8
0
  6
Continuous
 62
     7
370
    35
100
AcDbLine
 10
175.3850756029
 20
303.4462994737
 30
0.0
 11
172.3850756029
 21
303.4462994737
 31
0.0
  0
LINE
  5
39E
330
1F
100
AcDbEntity
  8
0
  6
Continuous
 62
     7
370
    35
100
AcDbLine
 10
175.3850756029
 20
309.4462994737
 30
0.0
 11
172.3850756029
 21
309.4462994737
 31
0.0
  0
LINE
  5
39F
330
1F
100
AcDbEntity
  8
0
  6
Continuous
 62
     7
370
    35
100
AcDbLine
 10
116.3850756029
 20
303.4462994737
 30
0.0
 11
113.3850756029
 21
303.4462994737
 31
0.0
  0
LINE
  5
3A0
330
1F
100
AcDbEntity
  8
0
  6
Continuous
 62
     7
370
    35
100
AcDbLine
 10
113.3850756029
 20
303.4462994737
 30
0.0
 11
113.3850756029
 21
309.4462994737
 31
0.0
  0
LINE
  5
3A1
330
1F
100
AcDbEntity
  8
0
  6
Continuous
 62
     7
370
    35
100
AcDbLine
 10
116.3850756029
 20
309.4462994737
 30
0.0
 11
113.3850756029
 21
309.4462994737
 31
0.0
  0
LINE
  5
3A2
330
1F
100
AcDbEntity
  8
0
  6
Continuous
 62
     7
370
    35
100
AcDbLine
 10
138.6850756029
 20
269.9462994737
 30
0.0
 11
150.0850756029
 21
269.9462994737
 31
0.0
  0
LINE
  5
3A3
330
1F
100
AcDbEntity
  8
0
  6
Continuous
 62
     7
370
    35
100
AcDbLine
 10
150.3850756029
 20
269.6462994737
 30
0.0
 11
138.3850756029
 21
269.6462994737
 31
0.0
  0
LINE
  5
3A4
330
1F
100
AcDbEntity
  8
0
  6
Continuous
 62
     7
370
    35
100
AcDbLine
 10
138.3850756029
 20
269.2462994737
 30
0.0
 11
150.3850756029
 21
269.2462994737
 31
0.0
  0
LINE
  5
3A5
330
1F
100
AcDbEntity
  8
0
  6
Continuous
 62
     7
370
    35
100
AcDbLine
 10
140.1850756029
 20
273.9462994737
 30
0.0
 11
148.5850756029
 21
273.9462994737
 31
0.0
  0
LINE
  5
3A6
330
1F
100
AcDbEntity
  8
0
  6
Continuous
 62
     7
370
    35
100
AcDbLine
 10
148.8850756029
 20
273.6462994737
 30
0.0
 11
139.8850756029
 21
273.6462994737
 31
0.0
  0
LINE
  5
3A7
330
1F
100
AcDbEntity
  8
0
  6
Continuous
 62
     7
370
    35
100
AcDbLine
 10
147.8850756029
 20
327.9462994737
 30
0.0
 11
140.8850756029
 21
327.9462994737
 31
0.0
  0
LINE
  5
3A8
330
1F
100
AcDbEntity
  8
0
  6
Continuous
 62
     7
370
    35
100
AcDbLine
 10
147.3350756029
 20
328.6462994737
 30
0.0
 11
141.4350756029
 21
328.6462994737
 31
0.0
  0
LINE
  5
3A9
330
1F
100
AcDbEntity
  8
0
  6
Continuous
 62
     7
370
    35
100
AcDbLine
 10
144.3850756029
 20
331.6462994737
 30
0.0
 11
146.8350756029
 21
331.6462994737
 31
0.0
  0
LINE
  5
3AA
330
1F
100
AcDbEntity
  8
0
  6
Continuous
 62
     7
370
    35
100
AcDbLine
 10
141.9350756029
 20
331.6462994737
 30
0.0
 11
144.3850756029
 21
331.6462994737
 31
0.0
  0
LINE
  5
3AB
330
1F
100
AcDbEntity
  8
0
  6
Continuous
 62
     7
370
    35
100
AcDbLine
 10
144.3850756029
 20
331.3462994737
 30
0.0
 11
141.6350756029
 21
331.3462994737
 31
0.0
  0
LINE
  5
3AC
330
1F
100
AcDbEntity
  8
0
  6
Continuous
 62
     7
370
    35
100
AcDbLine
 10
147.1350756029
 20
331.3462994737
 30
0.0
 11
144.3850756029
 21
331.3462994737
 31
0.0
  0
LINE
  5
3AD
330
1F
100
AcDbEntity
  8
0
  6
Continuous
 62
     7
370
    35
100
AcDbLine
 10
154.3850756029
 20
309.8462994737
 30
0.0
 11
155.5850756029
 21
309.8462994737
 31
0.0
  0
LINE
  5
3AE
330
1F
100
AcDbEntity
  8
0
  6
Continuous
 62
     7
370
    35
100
AcDbLine
 10
153.1850756029
 20
309.8462994737
 30
0.0
 11
154.3850756029
 21
309.8462994737
 31
0.0
  0
LINE
  5
3AF
330
1F
100
AcDbEntity
  8
0
  6
Continuous
 62
     7
370
    35
100
AcDbLine
 10
154.3850756029
 20
309.5462994737
 30
0.0
 11
152.8850756029
 21
309.5462994737
 31
0.0
  0
LINE
  5
3B0
330
1F
100
AcDbEntity
  8
0
  6
Continuous
 62
     7
370
    35
100
AcDbLine
 10
155.8850756029
 20
309.5462994737
 30
0.0
 11
154.3850756029
 21
309.5462994737
 31
0.0
  0
LINE
  5
3B1
330
1F
100
AcDbEntity
  8
0
  6
Continuous
 62
     7
370
    35
100
AcDbLine
 10
133.1850756029
 20
309.8462994737
 30
0.0
 11
135.5850756029
 21
309.8462994737
 31
0.0
  0
LINE
  5
3B2
330
1F
100
AcDbEntity
  8
0
  6
Continuous
 62
     7
370
    35
100
AcDbLine
 10
135.8850756029
 20
309.5462994737
 30
0.0
 11
132.8850756029
 21
309.5462994737
 31
0.0
  0
LINE
  5
3B3
330
1F
100
AcDbEntity
  8
0
  6
Continuous
 62
     7
370
    35
100
AcDbLine
 10
154.3850756029
 20
326.9462994737
 30
0.0
 11
134.3850756029
 21
326.9462994737
 31
0.0
  0
LINE
  5
3B4
330
1F
100
AcDbEntity
  8
0
  6
Continuous
 62
     7
370
    35
100
AcDbLine
 10
134.8850756029
 20
327.4462994737
 30
0.0
 11
153.8850756029
 21
327.4462994737
 31
0.0
  0
LINE
  5
3B5
330
1F
100
AcDbEntity
  8
0
  6
Continuous
 62
     7
370
    35
100
AcDbLine
 10
134.3850756029
 20
319.9462994737
 30
0.0
 11
154.3850756029
 21
319.9462994737
 31
0.0
  0
LINE
  5
3B6
330
1F
100
AcDbEntity
  8
0
  6
Continuous
 62
     7
370
    35
100
AcDbLine
 10
153.8850756029
 20
319.4462994737
 30
0.0
 11
134.8850756029
 21
319.4462994737
 31
0.0
  0
LINE
  5
3B7
330
1F
100
AcDbEntity
  8
0
  6
Continuous
 62
     7
370
    35
100
AcDbLine
 10
151.8850756029
 20
317.4462994737
 30
0.0
 11
136.8850756029
 21
317.4462994737
 31
0.0
  0
LINE
  5
3B8
330
1F
100
AcDbEntity
  8
0
  6
Continuous
 62
     7
370
    35
100
AcDbLine
 10
144.3850756029
 20
296.8462994737
 30
0.0
 11
144.3850756029
 21
296.5462994737
 31
0.0
  0
LINE
  5
3B9
330
1F
100
AcDbEntity
  8
0
  6
Continuous
 62
     7
370
    35
100
AcDbLine
 10
144.3850756029
 20
296.8462994737
 30
0.0
 11
144.3850756029
 21
297.1462994737
 31
0.0
  0
LINE
  5
3BA
330
1F
100
AcDbEntity
  8
0
  6
Continuous
 62
     7
370
    35
100
AcDbLine
 10
144.3850756029
 20
270.5462994737
 30
0.0
 11
144.3850756029
 21
270.2462994737
 31
0.0
  0
LINE
  5
3BB
330
1F
100
AcDbEntity
  8
0
  6
Continuous
 62
     7
370
    35
100
AcDbLine
 10
144.3850756029
 20
270.8462992885
 30
0.0
 11
144.3850756029
 21
270.5462994737
 31
0.0
  0
LINE
  5
3BC
330
1F
100
AcDbEntity
  8
0
  6
Continuous
 62
     7
370
    35
100
AcDbLine
 10
144.3850756029
 20
297.4462994737
 30
0.0
 11
144.3850756029
 21
297.1462994737
 31
0.0
  0
LINE
  5
3BD
330
1F
100
AcDbEntity
  8
0
  6
Continuous
 62
     7
370
    35
100
AcDbLine
 10
144.3850756029
 20
297.4462994737
 30
0.0
 11
150.0761668634
 21
297.4462994737
 31
0.0
  0
LINE
  5
3BE
330
1F
100
AcDbEntity
  8
0
  6
Continuous
 62
     7
370
    35
100
AcDbLine
 10
144.3850756029
 20
270.2462994737
 30
0.0
 11
144.3850756029
 21
269.9462994737
 31
0.0
  0
LINE
  5
3BF
330
1F
100
AcDbEntity
  8
0
  6
Continuous
 62
     7
370
    35
100
AcDbLine
 10
144.3850756029
 20
269.9462994737
 30
0.0
 11
138.6939843424
 21
269.9462994737
 31
0.0
  0
LINE
  5
3C0
330
1F
100
AcDbEntity
  8
0
  6
Continuous
 62
     7
370
    35
100
AcDbLine
 10
150.3850756031
 20
298.1462994737
 30
0.0
 11
138.3850756027
 21
298.1462994737
 31
0.0
  0
LINE
  5
3C1
330
1F
100
AcDbEntity
  8
0
  6
Continuous
 62
     7
370
    35
100
AcDbLine
 10
150.3850756031
 20
297.7462994737
 30
0.0
 11
138.3850756027
 21
297.7462994737
 31
0.0
  0
LINE
  5
3C2
330
1F
100
AcDbEntity
  8
0
  6
Continuous
 62
     7
370
    35
100
AcDbLine
 10
150.0850756027
 20
297.4462994737
 30
0.0
 11
138.6850756032
 21
297.4462994737
 31
0.0
  0
LINE
  5
3C3
330
1F
100
AcDbEntity
  8
0
  6
Continuous
 62
     7
370
    35
100
AcDbLine
 10
146.527470976
 20
293.7462994737
 30
0.0
 11
140.635075603
 21
293.7462994737
 31
0.0
  0
LINE
  5
3C4
330
1F
100
AcDbEntity
  8
0
  6
Continuous
 62
     7
370
    35
100
AcDbLine
 10
140.9350756026
 20
293.4462994737
 30
0.0
 11
147.8350756032
 21
293.4462994737
 31
0.0
  0
LINE
  5
3C5
330
1F
100
AcDbEntity
  8
0
  6
Continuous
 62
     7
370
    35
100
AcDbLine
 10
122.0859544641
 20
302.6462994737
 30
0.0
 11
126.3850756029
 21
302.6462994737
 31
0.0
  0
LINE
  5
3C6
330
1F
100
AcDbEntity
  8
0
  6
Continuous
 62
     7
370
    35
100
AcDbLine
 10
116.3850756029
 20
302.6462994737
 30
0.0
 11
122.0859544641
 21
302.6462994737
 31
0.0
  0
LINE
  5
3C7
330
1F
100
AcDbEntity
  8
0
  6
Continuous
 62
     7
370
    35
100
AcDbLine
 10
121.9177435374
 20
301.6462994737
 30
0.0
 11
125.1850756029
 21
301.6462994737
 31
0.0
  0
LINE
  5
3C8
330
1F
100
AcDbEntity
  8
0
  6
Continuous
 62
     7
370
    35
100
AcDbLine
 10
117.5850756029
 20
301.6462994737
 30
0.0
 11
121.9177435374
 21
301.6462994737
 31
0.0
  0
LINE
  5
3C9
330
1F
100
AcDbEntity
  8
0
  6
Continuous
 62
     7
370
    35
100
AcDbLine
 10
117.8850756029
 20
298.0462994737
 30
0.0
 11
124.8850756029
 21
298.0462994737
 31
0.0
  0
LINE
  5
3CA
330
1F
100
AcDbEntity
  8
0
  6
Continuous
 62
     7
370
    35
100
AcDbLine
 10
124.4850756029
 20
297.6462994737
 30
0.0
 11
118.2850756029
 21
297.6462994737
 31
0.0
  0
LINE
  5
3CB
330
1F
100
AcDbEntity
  8
0
  6
Continuous
 62
     7
370
    35
100
AcDbLine
 10
162.3850756029
 20
302.6462994737
 30
0.0
 11
172.3850756029
 21
302.6462994737
 31
0.0
  0
LINE
  5
3CC
330
1F
100
AcDbEntity
  8
0
  6
Continuous
 62
     7
370
    35
100
AcDbLine
 10
163.5850756029
 20
301.6462994737
 30
0.0
 11
171.1850756029
 21
301.6462994737
 31
0.0
  0
LINE
  5
3CD
330
1F
100
AcDbEntity
  8
0
  6
Continuous
 62
     7
370
    35
100
AcDbLine
 10
166.1159555648
 20
298.0462994737
 30
0.0
 11
170.8850756029
 21
298.0462994737
 31
0.0
  0
LINE
  5
3CE
330
1F
100
AcDbEntity
  8
0
  6
Continuous
 62
     7
370
    35
100
AcDbLine
 10
163.8850756029
 20
298.0462994737
 30
0.0
 11
166.1159555648
 21
298.0462994737
 31
0.0
  0
LINE
  5
3CF
330
1F
100
AcDbEntity
  8
0
  6
Continuous
 62
     7
370
    35
100
AcDbLine
 10
166.2609978549
 20
297.6462994737
 30
0.0
 11
164.2850756029
 21
297.6462994737
 31
0.0
  0
LINE
  5
3D0
330
1F
100
AcDbEntity
  8
0
  6
Continuous
 62
     7
370
    35
100
AcDbLine
 10
170.4850756029
 20
297.6462994737
 30
0.0
 11
166.2609978549
 21
297.6462994737
 31
0.0
  0
LINE
  5
3D1
330
1F
100
AcDbEntity
  8
0
  6
Continuous
 62
     7
370
    35
100
AcDbLine
 10
116.3850756029
 20
325.4462994737
 30
0.0
 11
126.3850756029
 21
325.4462994737
 31
0.0
  0
LINE
  5
3D2
330
1F
100
AcDbEntity
  8
0
  6
Continuous
 62
     7
370
    35
100
AcDbLine
 10
126.3850756029
 20
323.9462994737
 30
0.0
 11
116.3850756029
 21
323.9462994737
 31
0.0
  0
LINE
  5
3D3
330
1F
100
AcDbEntity
  8
0
  6
Continuous
 62
     7
370
    35
100
AcDbLine
 10
126.3850756029
 20
325.4462994737
 30
0.0
 11
126.3850756029
 21
323.9462994737
 31
0.0
  0
LINE
  5
3D4
330
1F
100
AcDbEntity
  8
0
  6
Continuous
 62
     7
370
    35
100
AcDbLine
 10
116.3850756029
 20
323.9462994737
 30
0.0
 11
116.3850756029
 21
325.4462994737
 31
0.0
  0
LINE
  5
3D5
330
1F
100
AcDbEntity
  8
0
  6
Continuous
 62
     7
370
    35
100
AcDbLine
 10
116.3850756029
 20
317.9462994737
 30
0.0
 11
126.3850756029
 21
317.9462994737
 31
0.0
  0
LINE
  5
3D6
330
1F
100
AcDbEntity
  8
0
  6
Continuous
 62
     7
370
    35
100
AcDbLine
 10
126.3850756029
 20
317.9462994737
 30
0.0
 11
126.3850756029
 21
323.9462994737
 31
0.0
  0
LINE
  5
3D7
330
1F
100
AcDbEntity
  8
0
  6
Continuous
 62
     7
370
    35
100
AcDbLine
 10
116.3850756029
 20
317.9462994737
 30
0.0
 11
116.3850756029
 21
323.9462994737
 31
0.0
  0
LINE
  5
3D8
330
1F
100
AcDbEntity
  8
0
  6
Continuous
 62
     7
370
    35
100
AcDbLine
 10
162.3850756029
 20
325.4462994737
 30
0.0
 11
172.3850756029
 21
325.4462994737
 31
0.0
  0
LINE
  5
3D9
330
1F
100
AcDbEntity
  8
0
  6
Continuous
 62
     7
370
    35
100
AcDbLine
 10
172.3850756029
 20
323.9462994737
 30
0.0
 11
162.3850756029
 21
323.9462994737
 31
0.0
  0
LINE
  5
3DA
330
1F
100
AcDbEntity
  8
0
  6
Continuous
 62
     7
370
    35
100
AcDbLine
 10
162.3850756029
 20
323.9462994737
 30
0.0
 11
162.3850756029
 21
325.4462994737
 31
0.0
  0
LINE
  5
3DB
330
1F
100
AcDbEntity
  8
0
  6
Continuous
 62
     7
370
    35
100
AcDbLine
 10
172.3850756029
 20
325.4462994737
 30
0.0
 11
172.3850756029
 21
323.9462994737
 31
0.0
  0
LINE
  5
3DC
330
1F
100
AcDbEntity
  8
0
  6
Continuous
 62
     7
370
    35
100
AcDbLine
 10
162.3850756029
 20
317.9462994737
 30
0.0
 11
172.3850756029
 21
317.9462994737
 31
0.0
  0
LINE
  5
3DD
330
1F
100
AcDbEntity
  8
0
  6
Continuous
 62
     7
370
    35
100
AcDbLine
 10
162.3850756029
 20
317.9462994737
 30
0.0
 11
162.3850756029
 21
323.9462994737
 31
0.0
  0
LINE
  5
3DE
330
1F
100
AcDbEntity
  8
0
  6
Continuous
 62
     7
370
    35
100
AcDbLine
 10
172.3850756029
 20
317.9462994737
 30
0.0
 11
172.3850756029
 21
323.9462994737
 31
0.0
  0
LINE
  5
3DF
330
1F
100
AcDbEntity
  8
0
  6
Continuous
 62
     7
370
    35
100
AcDbLine
 10
162.3850756029
 20
310.9462994737
 30
0.0
 11
172.3850756029
 21
310.9462994737
 31
0.0
  0
LINE
  5
3E0
330
1F
100
AcDbEntity
  8
0
  6
Continuous
 62
     7
370
    35
100
AcDbLine
 10
162.3850756029
 20
310.9462994737
 30
0.0
 11
162.3850756029
 21
316.9462994737
 31
0.0
  0
LINE
  5
3E1
330
1F
100
AcDbEntity
  8
0
  6
Continuous
 62
     7
370
    35
100
AcDbLine
 10
172.3850756029
 20
310.9462994737
 30
0.0
 11
172.3850756029
 21
316.9462994737
 31
0.0
  0
LINE
  5
3E2
330
1F
100
AcDbEntity
  8
0
  6
Continuous
 62
     7
370
    35
100
AcDbLine
 10
162.3850756029
 20
316.9462994737
 30
0.0
 11
172.3850756029
 21
316.9462994737
 31
0.0
  0
LINE
  5
3E3
330
1F
100
AcDbEntity
  8
0
  6
Continuous
 62
     7
370
    35
100
AcDbLine
 10
162.3850756029
 20
309.4462994737
 30
0.0
 11
162.3850756029
 21
310.9462994737
 31
0.0
  0
LINE
  5
3E4
330
1F
100
AcDbEntity
  8
0
  6
Continuous
 62
     7
370
    35
100
AcDbLine
 10
172.3850756029
 20
310.9462994737
 30
0.0
 11
172.3850756029
 21
309.4462994737
 31
0.0
  0
LINE
  5
3E5
330
1F
100
AcDbEntity
  8
0
  6
Continuous
 62
     7
370
    35
100
AcDbLine
 10
116.3850756029
 20
310.9462994737
 30
0.0
 11
126.3850756029
 21
310.9462994737
 31
0.0
  0
LINE
  5
3E6
330
1F
100
AcDbEntity
  8
0
  6
Continuous
 62
     7
370
    35
100
AcDbLine
 10
116.3850756029
 20
310.9462994737
 30
0.0
 11
116.3850756029
 21
316.9462994737
 31
0.0
  0
LINE
  5
3E7
330
1F
100
AcDbEntity
  8
0
  6
Continuous
 62
     7
370
    35
100
AcDbLine
 10
116.3850756029
 20
316.9462994737
 30
0.0
 11
126.3850756029
 21
316.9462994737
 31
0.0
  0
LINE
  5
3E8
330
1F
100
AcDbEntity
  8
0
  6
Continuous
 62
     7
370
    35
100
AcDbLine
 10
126.3850756029
 20
310.9462994737
 30
0.0
 11
126.3850756029
 21
316.9462994737
 31
0.0
  0
LINE
  5
3E9
330
1F
100
AcDbEntity
  8
0
  6
Continuous
 62
     7
370
    35
100
AcDbLine
 10
116.3850756029
 20
309.4462994737
 30
0.0
 11
116.3850756029
 21
310.9462994737
 31
0.0
  0
LINE
  5
3EA
330
1F
100
AcDbEntity
  8
0
  6
Continuous
 62
     7
370
    35
100
AcDbLine
 10
126.3850756029
 20
310.9462994737
 30
0.0
 11
126.3850756029
 21
309.4462994737
 31
0.0
  0
LINE
  5
3EB
330
1F
100
AcDbEntity
  8
0
  6
Continuous
 62
     7
370
    35
100
AcDbLine
 10
133.6612703082
 20
303.4462994737
 30
0.0
 11
133.6612703082
 21
298.4462994737
 31
0.0
  0
LINE
  5
3EC
330
1F
100
AcDbEntity
  8
0
  6
Continuous
 62
     7
370
    35
100
AcDbLine
 10
133.6612703082
 20
298.4462994737
 30
0.0
 11
130.3850756029
 21
298.4462994737
 31
0.0
  0
LINE
  5
3ED
330
1F
100
AcDbEntity
  8
0
  6
Continuous
 62
     7
370
    35
100
AcDbLine
 10
155.1088808977
 20
303.4462994737
 30
0.0
 11
155.1088808977
 21
298.4462994737
 31
0.0
  0
LINE
  5
3EE
330
1F
100
AcDbEntity
  8
0
  6
Continuous
 62
     7
370
    35
100
AcDbLine
 10
158.3850756029
 20
298.4462994737
 30
0.0
 11
155.1088808977
 21
298.4462994737
 31
0.0
  0
LINE
  5
3EF
330
1F
100
AcDbEntity
  8
0
  6
Continuous
 62
     7
370
    35
100
AcDbLine
 10
155.1088808977
 20
298.4462994737
 30
0.0
 11
133.6612703082
 21
298.4462994737
 31
0.0
  0
LINE
  5
3F0
330
1F
100
AcDbEntity
  8
0
  6
Continuous
 62
     7
370
    35
100
AcDbLine
 10
161.3850756029
 20
260.9462994737
 30
0.0
 11
161.3850756029
 21
268.9462994737
 31
0.0
  0
LINE
  5
3F1
330
1F
100
AcDbEntity
  8
0
  6
Continuous
 62
     7
370
    35
100
AcDbLine
 10
127.3850756029
 20
260.9462994737
 30
0.0
 11
161.3850756029
 21
260.9462994737
 31
0.0
  0
LINE
  5
3F2
330
1F
100
AcDbEntity
  8
0
  6
Continuous
 62
     7
370
    35
100
AcDbLine
 10
127.3850756029
 20
260.9462994737
 30
0.0
 11
127.3850756029
 21
268.9462994737
 31
0.0
  0
LINE
  5
3F3
330
1F
100
AcDbEntity
  8
0
  6
Continuous
 62
     7
370
    35
100
AcDbLine
 10
127.3850756029
 20
268.9462994737
 30
0.0
 11
161.3850756029
 21
268.9462994737
 31
0.0
  0
LINE
  5
3F4
330
1F
100
AcDbEntity
  8
0
  6
Continuous
 62
     7
370
    35
100
AcDbLine
 10
124.3850756029
 20
260.9462994737
 30
0.0
 11
127.3850756029
 21
260.9462994737
 31
0.0
  0
LINE
  5
3F5
330
1F
100
AcDbEntity
  8
0
  6
Continuous
 62
     7
370
    35
100
AcDbLine
 10
124.3850756029
 20
260.9462994737
 30
0.0
 11
124.3850756029
 21
268.9462994737
 31
0.0
  0
LINE
  5
3F6
330
1F
100
AcDbEntity
  8
0
  6
Continuous
 62
     7
370
    35
100
AcDbLine
 10
124.3850756029
 20
268.9462994737
 30
0.0
 11
127.3850756029
 21
268.9462994737
 31
0.0
  0
LINE
  5
3F7
330
1F
100
AcDbEntity
  8
0
  6
Continuous
 62
     7
370
    35
100
AcDbLine
 10
164.3850756029
 20
260.9462994737
 30
0.0
 11
164.3850756029
 21
268.9462994737
 31
0.0
  0
LINE
  5
3F8
330
1F
100
AcDbEntity
  8
0
  6
Continuous
 62
     7
370
    35
100
AcDbLine
 10
161.3850756029
 20
260.9462994737
 30
0.0
 11
164.3850756029
 21
260.9462994737
 31
0.0
  0
LINE
  5
3F9
330
1F
100
AcDbEntity
  8
0
  6
Continuous
 62
     7
370
    35
100
AcDbLine
 10
161.3850756029
 20
268.9462994737
 30
0.0
 11
164.3850756029
 21
268.9462994737
 31
0.0
  0
LINE
  5
3FA
330
1F
100
AcDbEntity
  8
0
  6
Continuous
 62
    18
370
    35
100
AcDbLine
 10
150.3850756029
 20
316.8462994737
 30
0.0
 11
138.3850756029
 21
316.8462994737
 31
0.0
  0
DIMENSION
  5
3FB
330
1F
100
AcDbEntity
  8
LIVELLO1
100
AcDbDimension
  2
_D_11
 10
81.3850756029
 20
260.9462994737
 30
0.0
 11
81.3850756029
 21
296.2962994737
 31
0.0
 70
   160
  1
<>
 71
     2
 42
-1.0
  3
SLDDIMSTYLE1
100
AcDbAlignedDimension
 13
141.9350756029
 23
331.6462994737
 33
0.0
 14
124.3850756029
 24
260.9462994737
 34
0.0
 50
90.0
100
AcDbRotatedDimension
  0
DIMENSION
  5
406
330
1F
100
AcDbEntity
  8
LIVELLO1
100
AcDbDimension
  2
_D_12
 10
93.3850756029
 20
268.9462994737
 30
0.0
 11
93.3850756029
 21
264.9462994737
 31
0.0
 70
   160
  1
<>
 71
     2
 42
-1.0
  3
SLDDIMSTYLE2
100
AcDbAlignedDimension
 13
124.3850756029
 23
260.9462994737
 33
0.0
 14
124.3850756029
 24
268.9462994737
 34
0.0
 50
90.0
100
AcDbRotatedDimension
  0
DIMENSION
  5
413
330
1F
100
AcDbEntity
  8
LIVELLO1
100
AcDbDimension
  2
_D_13
 10
191.6302732884
 20
273.9462994737
 30
0.0
 11
191.6302732884
 21
283.6698439254
 31
0.0
 70
   160
  1
<>
 71
     2
 42
-1.0
  3
SLDDIMSTYLE3
100
AcDbAlignedDimension
 13
147.8350756032
 23
293.4462994737
 33
0.0
 14
148.5850756029
 24
273.9462994737
 34
0.0
 50
90.0
100
AcDbRotatedDimension
  0
LINE
  5
41E
330
1F
100
AcDbEntity
  8
0
  6
Continuous
 62
     7
370
    35
100
AcDbLine
 10
319.5306717514
 20
458.3332455804
 30
0.0
 11
319.2306717514
 21
458.0332455804
 31
0.0
  0
LINE
  5
41F
330
1F
100
AcDbEntity
  8
0
  6
Continuous
 62
     7
370
    35
100
AcDbLine
 10
319.2306717514
 20
446.6332455804
 30
0.0
 11
319.5306717514
 21
446.3332455804
 31
0.0
  0
LINE
  5
420
330
1F
100
AcDbEntity
  8
0
  6
Continuous
 62
     7
370
    35
100
AcDbLine
 10
319.5306717514
 20
446.3332455804
 30
0.0
 11
319.9306717514
 21
446.3332455804
 31
0.0
  0
LINE
  5
421
330
1F
100
AcDbEntity
  8
0
  6
Continuous
 62
     7
370
    35
100
AcDbLine
 10
319.9306717514
 20
458.3332455804
 30
0.0
 11
319.5306717514
 21
458.3332455804
 31
0.0
  0
LINE
  5
422
330
1F
100
AcDbEntity
  8
0
  6
Continuous
 62
     7
370
    35
100
AcDbLine
 10
319.9306717514
 20
446.3332455804
 30
0.0
 11
320.2306717514
 21
446.6332455804
 31
0.0
  0
LINE
  5
423
330
1F
100
AcDbEntity
  8
0
  6
Continuous
 62
     7
370
    35
100
AcDbLine
 10
320.2306717514
 20
458.0332455804
 30
0.0
 11
319.9306717514
 21
458.3332455804
 31
0.0
  0
LINE
  5
424
330
1F
100
AcDbEntity
  8
0
  6
Continuous
 62
     7
370
    35
100
AcDbLine
 10
315.2306717514
 20
448.1332455804
 30
0.0
 11
315.5306717514
 21
447.8332455804
 31
0.0
  0
LINE
  5
425
330
1F
100
AcDbEntity
  8
0
  6
Continuous
 62
     7
370
    35
100
AcDbLine
 10
318.8722040904
 20
456.8332455804
 30
0.0
 11
318.6196684274
 21
456.8332455804
 31
0.0
  0
LINE
  5
426
330
1F
100
AcDbEntity
  8
0
  6
Continuous
 62
     7
370
    35
100
AcDbLine
 10
318.0581572263
 20
456.8332455804
 30
0.0
 11
315.6974462051
 21
456.8332455804
 31
0.0
  0
LINE
  5
427
330
1F
100
AcDbEntity
  8
0
  6
Continuous
 62
     7
370
    35
100
AcDbLine
 10
315.5306717514
 20
447.8332455804
 30
0.0
 11
317.3057514187
 21
447.8332455804
 31
0.0
  0
LINE
  5
428
330
1F
100
AcDbEntity
  8
0
  6
Continuous
 62
     7
370
    35
100
AcDbLine
 10
317.5268063637
 20
447.8332455804
 30
0.0
 11
318.6872621727
 21
447.8332455804
 31
0.0
  0
LINE
  5
429
330
1F
100
AcDbEntity
  8
0
  6
Continuous
 62
     7
370
    35
100
AcDbLine
 10
314.9253687793
 20
455.0832455804
 30
0.0
 11
312.5994344416
 21
455.0832455804
 31
0.0
  0
LINE
  5
42A
330
1F
100
AcDbEntity
  8
0
  6
Continuous
 62
     7
370
    35
100
AcDbLine
 10
312.0031465571
 20
455.0832455804
 30
0.0
 11
309.6772122194
 21
455.0832455804
 31
0.0
  0
LINE
  5
42B
330
1F
100
AcDbEntity
  8
0
  6
Continuous
 62
     7
370
    35
100
AcDbLine
 10
309.0809243349
 20
455.0832455804
 30
0.0
 11
306.7549899972
 21
455.0832455804
 31
0.0
  0
LINE
  5
42C
330
1F
100
AcDbEntity
  8
0
  6
Continuous
 62
     7
370
    35
100
AcDbLine
 10
306.1587021127
 20
455.0832455804
 30
0.0
 11
303.8327677749
 21
455.0832455804
 31
0.0
  0
LINE
  5
42D
330
1F
100
AcDbEntity
  8
0
  6
Continuous
 62
     7
370
    35
100
AcDbLine
 10
303.2364798904
 20
455.0832455804
 30
0.0
 11
300.9105455527
 21
455.0832455804
 31
0.0
  0
LINE
  5
42E
330
1F
100
AcDbEntity
  8
0
  6
Continuous
 62
     7
370
    35
100
AcDbLine
 10
300.3142576682
 20
455.0832455804
 30
0.0
 11
297.9883233305
 21
455.0832455804
 31
0.0
  0
LINE
  5
42F
330
1F
100
AcDbEntity
  8
0
  6
Continuous
 62
     7
370
    35
100
AcDbLine
 10
297.392035446
 20
455.0832455804
 30
0.0
 11
295.7306717514
 21
455.0832455804
 31
0.0
  0
LINE
  5
430
330
1F
100
AcDbEntity
  8
0
  6
Continuous
 62
     7
370
    35
100
AcDbLine
 10
295.7306717514
 20
449.5832455804
 30
0.0
 11
296.9148271946
 21
449.5832455804
 31
0.0
  0
LINE
  5
431
330
1F
100
AcDbEntity
  8
0
  6
Continuous
 62
     7
370
    35
100
AcDbLine
 10
297.4822600073
 20
449.5832455804
 30
0.0
 11
299.8370494168
 21
449.5832455804
 31
0.0
  0
LINE
  5
432
330
1F
100
AcDbEntity
  8
0
  6
Continuous
 62
     7
370
    35
100
AcDbLine
 10
300.4044822295
 20
449.5832455804
 30
0.0
 11
302.759271639
 21
449.5832455804
 31
0.0
  0
LINE
  5
433
330
1F
100
AcDbEntity
  8
0
  6
Continuous
 62
     7
370
    35
100
AcDbLine
 10
303.3267044517
 20
449.5832455804
 30
0.0
 11
305.6814938612
 21
449.5832455804
 31
0.0
  0
LINE
  5
434
330
1F
100
AcDbEntity
  8
0
  6
Continuous
 62
     7
370
    35
100
AcDbLine
 10
306.2489266739
 20
449.5832455804
 30
0.0
 11
308.6037160835
 21
449.5832455804
 31
0.0
  0
LINE
  5
435
330
1F
100
AcDbEntity
  8
0
  6
Continuous
 62
     7
370
    35
100
AcDbLine
 10
309.1711488962
 20
449.5832455804
 30
0.0
 11
311.5259383057
 21
449.5832455804
 31
0.0
  0
LINE
  5
436
330
1F
100
AcDbEntity
  8
0
  6
Continuous
 62
     7
370
    35
100
AcDbLine
 10
312.0933711184
 20
449.5832455804
 30
0.0
 11
314.4481605279
 21
449.5832455804
 31
0.0
  0
LINE
  5
437
330
1F
100
AcDbEntity
  8
0
  6
Continuous
 62
     7
370
    35
100
AcDbLine
 10
315.0155933406
 20
449.5832455804
 30
0.0
 11
315.2306717514
 21
449.5832455804
 31
0.0
  0
LINE
  5
438
330
1F
100
AcDbEntity
  8
0
  6
Continuous
 62
     7
370
    35
100
AcDbLine
 10
319.5306717514
 20
424.3332455804
 30
0.0
 11
319.2306717514
 21
424.0332455804
 31
0.0
  0
LINE
  5
439
330
1F
100
AcDbEntity
  8
0
  6
Continuous
 62
     7
370
    35
100
AcDbLine
 10
319.2306717514
 20
412.6332455804
 30
0.0
 11
319.5306717514
 21
412.3332455804
 31
0.0
  0
LINE
  5
43A
330
1F
100
AcDbEntity
  8
0
  6
Continuous
 62
     7
370
    35
100
AcDbLine
 10
319.5306717514
 20
412.3332455804
 30
0.0
 11
319.9306717514
 21
412.3332455804
 31
0.0
  0
LINE
  5
43B
330
1F
100
AcDbEntity
  8
0
  6
Continuous
 62
     7
370
    35
100
AcDbLine
 10
319.9306717514
 20
424.3332455804
 30
0.0
 11
319.5306717514
 21
424.3332455804
 31
0.0
  0
LINE
  5
43C
330
1F
100
AcDbEntity
  8
0
  6
Continuous
 62
     7
370
    35
100
AcDbLine
 10
319.9306717514
 20
412.3332455804
 30
0.0
 11
320.2306717514
 21
412.6332455804
 31
0.0
  0
LINE
  5
43D
330
1F
100
AcDbEntity
  8
0
  6
Continuous
 62
     7
370
    35
100
AcDbLine
 10
320.2306717514
 20
424.0332455804
 30
0.0
 11
319.9306717514
 21
424.3332455804
 31
0.0
  0
LINE
  5
43E
330
1F
100
AcDbEntity
  8
0
  6
Continuous
 62
     7
370
    35
100
AcDbLine
 10
315.2306717514
 20
414.1332455804
 30
0.0
 11
315.5306717514
 21
413.8332455804
 31
0.0
  0
LINE
  5
43F
330
1F
100
AcDbEntity
  8
0
  6
Continuous
 62
     7
370
    35
100
AcDbLine
 10
318.8722040904
 20
422.8332455804
 30
0.0
 11
318.6196684274
 21
422.8332455804
 31
0.0
  0
LINE
  5
440
330
1F
100
AcDbEntity
  8
0
  6
Continuous
 62
     7
370
    35
100
AcDbLine
 10
318.0581572263
 20
422.8332455804
 30
0.0
 11
315.6974462051
 21
422.8332455804
 31
0.0
  0
LINE
  5
441
330
1F
100
AcDbEntity
  8
0
  6
Continuous
 62
     7
370
    35
100
AcDbLine
 10
315.5306717514
 20
413.8332455804
 30
0.0
 11
317.3057514187
 21
413.8332455804
 31
0.0
  0
LINE
  5
442
330
1F
100
AcDbEntity
  8
0
  6
Continuous
 62
     7
370
    35
100
AcDbLine
 10
317.5268063637
 20
413.8332455804
 30
0.0
 11
318.6872621727
 21
413.8332455804
 31
0.0
  0
LINE
  5
443
330
1F
100
AcDbEntity
  8
0
  6
Continuous
 62
     7
370
    35
100
AcDbLine
 10
314.9253687793
 20
421.0832455804
 30
0.0
 11
312.5994344416
 21
421.0832455804
 31
0.0
  0
LINE
  5
444
330
1F
100
AcDbEntity
  8
0
  6
Continuous
 62
     7
370
    35
100
AcDbLine
 10
312.0031465571
 20
421.0832455804
 30
0.0
 11
309.6772122194
 21
421.0832455804
 31
0.0
  0
LINE
  5
445
330
1F
100
AcDbEntity
  8
0
  6
Continuous
 62
     7
370
    35
100
AcDbLine
 10
309.0809243349
 20
421.0832455804
 30
0.0
 11
306.7549899972
 21
421.0832455804
 31
0.0
  0
LINE
  5
446
330
1F
100
AcDbEntity
  8
0
  6
Continuous
 62
     7
370
    35
100
AcDbLine
 10
306.1587021127
 20
421.0832455804
 30
0.0
 11
303.8327677749
 21
421.0832455804
 31
0.0
  0
LINE
  5
447
330
1F
100
AcDbEntity
  8
0
  6
Continuous
 62
     7
370
    35
100
AcDbLine
 10
303.2364798904
 20
421.0832455804
 30
0.0
 11
300.9105455527
 21
421.0832455804
 31
0.0
  0
LINE
  5
448
330
1F
100
AcDbEntity
  8
0
  6
Continuous
 62
     7
370
    35
100
AcDbLine
 10
300.3142576682
 20
421.0832455804
 30
0.0
 11
297.9883233305
 21
421.0832455804
 31
0.0
  0
LINE
  5
449
330
1F
100
AcDbEntity
  8
0
  6
Continuous
 62
     7
370
    35
100
AcDbLine
 10
297.392035446
 20
421.0832455804
 30
0.0
 11
295.7306717514
 21
421.0832455804
 31
0.0
  0
LINE
  5
44A
330
1F
100
AcDbEntity
  8
0
  6
Continuous
 62
     7
370
    35
100
AcDbLine
 10
295.7306717514
 20
415.5832455804
 30
0.0
 11
296.9148271946
 21
415.5832455804
 31
0.0
  0
LINE
  5
44B
330
1F
100
AcDbEntity
  8
0
  6
Continuous
 62
     7
370
    35
100
AcDbLine
 10
297.4822600073
 20
415.5832455804
 30
0.0
 11
299.8370494168
 21
415.5832455804
 31
0.0
  0
LINE
  5
44C
330
1F
100
AcDbEntity
  8
0
  6
Continuous
 62
     7
370
    35
100
AcDbLine
 10
300.4044822295
 20
415.5832455804
 30
0.0
 11
302.759271639
 21
415.5832455804
 31
0.0
  0
LINE
  5
44D
330
1F
100
AcDbEntity
  8
0
  6
Continuous
 62
     7
370
    35
100
AcDbLine
 10
303.3267044517
 20
415.5832455804
 30
0.0
 11
305.6814938612
 21
415.5832455804
 31
0.0
  0
LINE
  5
44E
330
1F
100
AcDbEntity
  8
0
  6
Continuous
 62
     7
370
    35
100
AcDbLine
 10
306.2489266739
 20
415.5832455804
 30
0.0
 11
308.6037160835
 21
415.5832455804
 31
0.0
  0
LINE
  5
44F
330
1F
100
AcDbEntity
  8
0
  6
Continuous
 62
     7
370
    35
100
AcDbLine
 10
309.1711488962
 20
415.5832455804
 30
0.0
 11
311.5259383057
 21
415.5832455804
 31
0.0
  0
LINE
  5
450
330
1F
100
AcDbEntity
  8
0
  6
Continuous
 62
     7
370
    35
100
AcDbLine
 10
312.0933711184
 20
415.5832455804
 30
0.0
 11
314.4481605279
 21
415.5832455804
 31
0.0
  0
LINE
  5
451
330
1F
100
AcDbEntity
  8
0
  6
Continuous
 62
     7
370
    35
100
AcDbLine
 10
315.0155933406
 20
415.5832455804
 30
0.0
 11
315.2306717514
 21
415.5832455804
 31
0.0
  0
LINE
  5
452
330
1F
100
AcDbEntity
  8
0
  6
Continuous
 62
     7
370
    35
100
AcDbLine
 10
261.2306717514
 20
414.8332455804
 30
0.0
 11
261.7306717514
 21
414.8332455804
 31
0.0
  0
LINE
  5
453
330
1F
100
AcDbEntity
  8
0
  6
Continuous
 62
     7
370
    35
100
AcDbLine
 10
261.7306717514
 20
421.8332455804
 30
0.0
 11
261.2306717514
 21
421.8332455804
 31
0.0
  0
LINE
  5
454
330
1F
100
AcDbEntity
  8
0
  6
Continuous
 62
     7
370
    35
100
AcDbLine
 10
260.5306717514
 20
415.3832455804
 30
0.0
 11
261.2306717514
 21
415.3832455804
 31
0.0
  0
LINE
  5
455
330
1F
100
AcDbEntity
  8
0
  6
Continuous
 62
     7
370
    35
100
AcDbLine
 10
261.2306717514
 20
421.2832455804
 30
0.0
 11
260.5306717514
 21
421.2832455804
 31
0.0
  0
LINE
  5
456
330
1F
100
AcDbEntity
  8
0
  6
Continuous
 62
     7
370
    35
100
AcDbLine
 10
257.8306717514
 20
421.0832455804
 30
0.0
 11
257.5306717514
 21
420.7832455804
 31
0.0
  0
LINE
  5
457
330
1F
100
AcDbEntity
  8
0
  6
Continuous
 62
     7
370
    35
100
AcDbLine
 10
257.5306717514
 20
415.8832455804
 30
0.0
 11
257.8306717514
 21
415.5832455804
 31
0.0
  0
LINE
  5
458
330
1F
100
AcDbEntity
  8
0
  6
Continuous
 62
     7
370
    35
100
AcDbLine
 10
260.5306717514
 20
421.0832455804
 30
0.0
 11
257.8306717514
 21
421.0832455804
 31
0.0
  0
LINE
  5
459
330
1F
100
AcDbEntity
  8
0
  6
Continuous
 62
     7
370
    35
100
AcDbLine
 10
257.8306717514
 20
415.5832455804
 30
0.0
 11
260.5306717514
 21
415.5832455804
 31
0.0
  0
LINE
  5
45A
330
1F
100
AcDbEntity
  8
0
  6
Continuous
 62
     7
370
    35
100
AcDbLine
 10
261.2306717514
 20
448.8332455804
 30
0.0
 11
261.7306717514
 21
448.8332455804
 31
0.0
  0
LINE
  5
45B
330
1F
100
AcDbEntity
  8
0
  6
Continuous
 62
     7
370
    35
100
AcDbLine
 10
261.7306717514
 20
455.8332455804
 30
0.0
 11
261.2306717514
 21
455.8332455804
 31
0.0
  0
LINE
  5
45C
330
1F
100
AcDbEntity
  8
0
  6
Continuous
 62
     7
370
    35
100
AcDbLine
 10
260.5306717514
 20
449.3832455804
 30
0.0
 11
261.2306717514
 21
449.3832455804
 31
0.0
  0
LINE
  5
45D
330
1F
100
AcDbEntity
  8
0
  6
Continuous
 62
     7
370
    35
100
AcDbLine
 10
261.2306717514
 20
455.2832455804
 30
0.0
 11
260.5306717514
 21
455.2832455804
 31
0.0
  0
LINE
  5
45E
330
1F
100
AcDbEntity
  8
0
  6
Continuous
 62
     7
370
    35
100
AcDbLine
 10
257.8306717514
 20
455.0832455804
 30
0.0
 11
257.5306717514
 21
454.7832455804
 31
0.0
  0
LINE
  5
45F
330
1F
100
AcDbEntity
  8
0
  6
Continuous
 62
     7
370
    35
100
AcDbLine
 10
257.5306717514
 20
449.8832455804
 30
0.0
 11
257.8306717514
 21
449.5832455804
 31
0.0
  0
LINE
  5
460
330
1F
100
AcDbEntity
  8
0
  6
Continuous
 62
     7
370
    35
100
AcDbLine
 10
260.5306717514
 20
455.0832455804
 30
0.0
 11
257.8306717514
 21
455.0832455804
 31
0.0
  0
LINE
  5
461
330
1F
100
AcDbEntity
  8
0
  6
Continuous
 62
     7
370
    35
100
AcDbLine
 10
257.8306717514
 20
449.5832455804
 30
0.0
 11
260.5306717514
 21
449.5832455804
 31
0.0
  0
LINE
  5
462
330
1F
100
AcDbEntity
  8
0
  6
Continuous
 62
     7
370
    35
100
AcDbLine
 10
279.6306717514
 20
453.8332455804
 30
0.0
 11
279.3306717514
 21
453.5332455804
 31
0.0
  0
LINE
  5
463
330
1F
100
AcDbEntity
  8
0
  6
Continuous
 62
     7
370
    35
100
AcDbLine
 10
279.3306717514
 20
451.1332455804
 30
0.0
 11
279.6306717514
 21
450.8332455804
 31
0.0
  0
LINE
  5
464
330
1F
100
AcDbEntity
  8
0
  6
Continuous
 62
     7
370
    35
100
AcDbLine
 10
279.7306717514
 20
453.8332455804
 30
0.0
 11
279.6306717514
 21
453.8332455804
 31
0.0
  0
LINE
  5
465
330
1F
100
AcDbEntity
  8
0
  6
Continuous
 62
     7
370
    35
100
AcDbLine
 10
279.6306717514
 20
450.8332455804
 30
0.0
 11
279.7306717514
 21
450.8332455804
 31
0.0
  0
LINE
  5
466
330
1F
100
AcDbEntity
  8
0
  6
Continuous
 62
     7
370
    35
100
AcDbLine
 10
279.6306717514
 20
419.8332455804
 30
0.0
 11
279.3306717514
 21
419.5332455804
 31
0.0
  0
LINE
  5
467
330
1F
100
AcDbEntity
  8
0
  6
Continuous
 62
     7
370
    35
100
AcDbLine
 10
279.3306717514
 20
417.1332455804
 30
0.0
 11
279.6306717514
 21
416.8332455804
 31
0.0
  0
LINE
  5
468
330
1F
100
AcDbEntity
  8
0
  6
Continuous
 62
     7
370
    35
100
AcDbLine
 10
279.7306717514
 20
419.8332455804
 30
0.0
 11
279.6306717514
 21
419.8332455804
 31
0.0
  0
LINE
  5
469
330
1F
100
AcDbEntity
  8
0
  6
Continuous
 62
     7
370
    35
100
AcDbLine
 10
279.6306717514
 20
416.8332455804
 30
0.0
 11
279.7306717514
 21
416.8332455804
 31
0.0
  0
LINE
  5
46A
330
1F
100
AcDbEntity
  8
0
  6
Continuous
 62
     7
370
    35
100
AcDbLine
 10
262.2306717514
 20
462.3332455804
 30
0.0
 11
261.7306717514
 21
461.8332455804
 31
0.0
  0
LINE
  5
46B
330
1F
100
AcDbEntity
  8
0
  6
Continuous
 62
     7
370
    35
100
AcDbLine
 10
263.7306717514
 20
462.3332455804
 30
0.0
 11
262.2306717514
 21
462.3332455804
 31
0.0
  0
LINE
  5
46C
330
1F
100
AcDbEntity
  8
0
  6
Continuous
 62
     7
370
    35
100
AcDbLine
 10
262.2306717514
 20
428.3332455804
 30
0.0
 11
261.7306717514
 21
427.8332455804
 31
0.0
  0
LINE
  5
46D
330
1F
100
AcDbEntity
  8
0
  6
Continuous
 62
     7
370
    35
100
AcDbLine
 10
269.2306717514
 20
428.3332455804
 30
0.0
 11
262.2306717514
 21
428.3332455804
 31
0.0
  0
LINE
  5
46E
330
1F
100
AcDbEntity
  8
0
  6
Continuous
 62
     7
370
    35
100
AcDbLine
 10
269.7306717514
 20
427.8332455804
 30
0.0
 11
269.2306717514
 21
428.3332455804
 31
0.0
  0
LINE
  5
46F
330
1F
100
AcDbEntity
  8
0
  6
Continuous
 62
     7
370
    35
100
AcDbLine
 10
269.7306717514
 20
410.8332455804
 30
0.0
 11
271.7306717514
 21
410.8332455804
 31
0.0
  0
LINE
  5
470
330
1F
100
AcDbEntity
  8
0
  6
Continuous
 62
     7
370
    35
100
AcDbLine
 10
271.7306717514
 20
425.8332455804
 30
0.0
 11
269.7306717514
 21
425.8332455804
 31
0.0
  0
LINE
  5
471
330
1F
100
AcDbEntity
  8
0
  6
Continuous
 62
     7
370
    35
100
AcDbLine
 10
269.7306717514
 20
444.8332455804
 30
0.0
 11
271.7306717514
 21
444.8332455804
 31
0.0
  0
LINE
  5
472
330
1F
100
AcDbEntity
  8
0
  6
Continuous
 62
     7
370
    35
100
AcDbLine
 10
271.7306717514
 20
459.8332455804
 30
0.0
 11
271.2306717514
 21
459.8332455804
 31
0.0
  0
LWPOLYLINE
  5
473
330
1F
100
AcDbEntity
  8
0
  6
Continuous
 62
     7
370
    35
100
AcDbPolyline
 90
       14
 70
   128
 43
0.0
 10
297.0378321084
 20
413.7557628009
 10
297.1379273358
 20
413.9878381506
 10
297.3559652608
 20
414.7938623334
 10
297.4950175465
 20
415.6629843501
 10
297.5850418885
 20
416.5378648771
 10
297.6582650475
 20
417.3584551227
 10
297.7989347139
 20
418.9471734015
 10
297.9385036232
 20
420.5229238191
 10
298.0022370196
 20
421.2397327057
 10
298.0704262615
 20
421.9212998466
 10
298.1398212745
 20
422.5584077136
 10
298.1854170295
 20
423.0742832196
 10
298.1908717438
 20
423.4115666073
 10
298.1815983477
 20
423.4831843841
  0
LWPOLYLINE
  5
474
330
1F
100
AcDbEntity
  8
0
  6
Continuous
 62
     7
370
    35
100
AcDbPolyline
 90
       14
 70
   128
 43
0.0
 10
299.9600543306
 20
413.7557628009
 10
300.060149558
 20
413.9878381506
 10
300.278187483
 20
414.7938623334
 10
300.4172397687
 20
415.6629843501
 10
300.5072641107
 20
416.5378648771
 10
300.5804872697
 20
417.3584551227
 10
300.7211569361
 20
418.9471734015
 10
300.8607258454
 20
420.5229238191
 10
300.9244592418
 20
421.2397327057
 10
300.9926484837
 20
421.9212998466
 10
301.0620434967
 20
422.5584077136
 10
301.1076392517
 20
423.0742832196
 10
301.113093966
 20
423.4115666073
 10
301.1038205699
 20
423.4831843841
  0
LWPOLYLINE
  5
475
330
1F
100
AcDbEntity
  8
0
  6
Continuous
 62
     7
370
    35
100
AcDbPolyline
 90
       14
 70
   128
 43
0.0
 10
302.8822765528
 20
413.7557628009
 10
302.9823717802
 20
413.9878381506
 10
303.2004097052
 20
414.7938623334
 10
303.3394619909
 20
415.6629843501
 10
303.4294863329
 20
416.5378648771
 10
303.5027094919
 20
417.3584551227
 10
303.6433791583
 20
418.9471734015
 10
303.7829480677
 20
420.5229238191
 10
303.846681464
 20
421.2397327057
 10
303.9148707059
 20
421.9212998466
 10
303.984265719
 20
422.5584077136
 10
304.029861474
 20
423.0742832196
 10
304.0353161883
 20
423.4115666073
 10
304.0260427921
 20
423.4831843841
  0
LWPOLYLINE
  5
476
330
1F
100
AcDbEntity
  8
0
  6
Continuous
 62
     7
370
    35
100
AcDbPolyline
 90
       14
 70
   128
 43
0.0
 10
305.8044987751
 20
413.7557628009
 10
305.9045940025
 20
413.9878381506
 10
306.1226319274
 20
414.7938623334
 10
306.2616842131
 20
415.6629843501
 10
306.3517085551
 20
416.5378648771
 10
306.4249317142
 20
417.3584551227
 10
306.5656013806
 20
418.9471734015
 10
306.7051702899
 20
420.5229238191
 10
306.7689036863
 20
421.2397327057
 10
306.8370929281
 20
421.9212998466
 10
306.9064879412
 20
422.5584077136
 10
306.9520836962
 20
423.0742832196
 10
306.9575384105
 20
423.4115666073
 10
306.9482650144
 20
423.4831843841
  0
LWPOLYLINE
  5
477
330
1F
100
AcDbEntity
  8
0
  6
Continuous
 62
     7
370
    35
100
AcDbPolyline
 90
       14
 70
   128
 43
0.0
 10
308.7267209973
 20
413.7557628009
 10
308.8268162247
 20
413.9878381506
 10
309.0448541497
 20
414.7938623334
 10
309.1839064353
 20
415.6629843501
 10
309.2739307773
 20
416.5378648771
 10
309.3471539364
 20
417.3584551227
 10
309.4878236028
 20
418.9471734015
 10
309.6273925121
 20
420.5229238191
 10
309.6911259085
 20
421.2397327057
 10
309.7593151504
 20
421.9212998466
 10
309.8287101634
 20
422.5584077136
 10
309.8743059184
 20
423.0742832196
 10
309.8797606327
 20
423.4115666073
 10
309.8704872366
 20
423.4831843841
  0
LWPOLYLINE
  5
478
330
1F
100
AcDbEntity
  8
0
  6
Continuous
 62
     7
370
    35
100
AcDbPolyline
 90
       14
 70
   128
 43
0.0
 10
311.6489432195
 20
413.7557628009
 10
311.7490384469
 20
413.9878381506
 10
311.9670763719
 20
414.7938623334
 10
312.1061286576
 20
415.6629843501
 10
312.1961529996
 20
416.5378648771
 10
312.2693761586
 20
417.3584551227
 10
312.410045825
 20
418.9471734015
 10
312.5496147343
 20
420.5229238191
 10
312.6133481307
 20
421.2397327057
 10
312.6815373726
 20
421.9212998466
 10
312.7509323856
 20
422.5584077136
 10
312.7965281406
 20
423.0742832196
 10
312.8019828549
 20
423.4115666073
 10
312.7927094588
 20
423.4831843841
  0
LWPOLYLINE
  5
479
330
1F
100
AcDbEntity
  8
0
  6
Continuous
 62
     7
370
    35
100
AcDbPolyline
 90
       14
 70
   128
 43
0.0
 10
314.5711654417
 20
413.7557628009
 10
314.6712606691
 20
413.9878381506
 10
314.8892985941
 20
414.7938623334
 10
315.0283508798
 20
415.6629843501
 10
315.1183752218
 20
416.5378648771
 10
315.1915983808
 20
417.3584551227
 10
315.3322680472
 20
418.9471734015
 10
315.4718369565
 20
420.5229238191
 10
315.5355703529
 20
421.2397327057
 10
315.6037595948
 20
421.9212998466
 10
315.6731546078
 20
422.5584077136
 10
315.7187503628
 20
423.0742832196
 10
315.7242050772
 20
423.4115666073
 10
315.714931681
 20
423.4831843841
  0
LWPOLYLINE
  5
47A
330
1F
100
AcDbEntity
  8
0
  6
Continuous
 62
     7
370
    35
100
AcDbPolyline
 90
       14
 70
   128
 43
0.0
 10
317.4933876639
 20
413.7557628009
 10
317.5934828913
 20
413.9878381506
 10
317.8115208163
 20
414.7938623334
 10
317.950573102
 20
415.6629843501
 10
318.040597444
 20
416.5378648771
 10
318.113820603
 20
417.3584551227
 10
318.2544902695
 20
418.9471734015
 10
318.3940591788
 20
420.5229238191
 10
318.4577925751
 20
421.2397327057
 10
318.525981817
 20
421.9212998466
 10
318.5953768301
 20
422.5584077136
 10
318.6409725851
 20
423.0742832196
 10
318.6464272994
 20
423.4115666073
 10
318.6371539033
 20
423.4831843841
  0
ARC
  5
47B
330
1F
100
AcDbEntity
  8
0
  6
Continuous
 62
     7
370
    35
100
AcDbCircle
 10
313.7255085565
 20
416.7195926256
 30
0.0
 40
17.23547207749684
100
AcDbArc
 50
183.7802939834
 51
191.5567229405
  0
ARC
  5
47C
330
1F
100
AcDbEntity
  8
0
  6
Continuous
 62
     7
370
    35
100
AcDbCircle
 10
290.8607443809
 20
421.4780589727
 30
0.0
 40
5.190769848886687
100
AcDbArc
 50
355.637832132
 51
24.8550972392
  0
ARC
  5
47D
330
1F
100
AcDbEntity
  8
0
  6
Continuous
 62
     7
370
    35
100
AcDbCircle
 10
316.6477307787
 20
416.7195926256
 30
0.0
 40
17.23547207749997
100
AcDbArc
 50
183.7802939834
 51
191.5567229405
  0
ARC
  5
47E
330
1F
100
AcDbEntity
  8
0
  6
Continuous
 62
     7
370
    35
100
AcDbCircle
 10
293.7829666032
 20
421.4780589727
 30
0.0
 40
5.190769848886687
100
AcDbArc
 50
355.637832132
 51
24.8550972392
  0
ARC
  5
47F
330
1F
100
AcDbEntity
  8
0
  6
Continuous
 62
     7
370
    35
100
AcDbCircle
 10
319.5699530009
 20
416.7195926256
 30
0.0
 40
17.23547207751145
100
AcDbArc
 50
183.7802939834
 51
191.5567229405
  0
ARC
  5
480
330
1F
100
AcDbEntity
  8
0
  6
Continuous
 62
     7
370
    35
100
AcDbCircle
 10
296.7051888254
 20
421.4780589727
 30
0.0
 40
5.190769848886687
100
AcDbArc
 50
355.637832132
 51
24.8550972392
  0
ARC
  5
481
330
1F
100
AcDbEntity
  8
0
  6
Continuous
 62
     7
370
    35
100
AcDbCircle
 10
322.4921752231
 20
416.7195926256
 30
0.0
 40
17.23547207749683
100
AcDbArc
 50
183.7802939834
 51
191.5567229405
  0
ARC
  5
482
330
1F
100
AcDbEntity
  8
0
  6
Continuous
 62
     7
370
    35
100
AcDbCircle
 10
299.6274110476
 20
421.4780589727
 30
0.0
 40
5.190769848886687
100
AcDbArc
 50
355.637832132
 51
24.8550972392
  0
ARC
  5
483
330
1F
100
AcDbEntity
  8
0
  6
Continuous
 62
     7
370
    35
100
AcDbCircle
 10
325.4143974453
 20
416.7195926255
 30
0.0
 40
17.23547207748065
100
AcDbArc
 50
183.7802939834
 51
191.5567229405
  0
ARC
  5
484
330
1F
100
AcDbEntity
  8
0
  6
Continuous
 62
     7
370
    35
100
AcDbCircle
 10
302.5496332698
 20
421.4780589727
 30
0.0
 40
5.190769848886744
100
AcDbArc
 50
355.637832132
 51
24.8550972392
  0
ARC
  5
485
330
1F
100
AcDbEntity
  8
0
  6
Continuous
 62
     7
370
    35
100
AcDbCircle
 10
328.3366196676
 20
416.7195926256
 30
0.0
 40
17.23547207751144
100
AcDbArc
 50
183.7802939834
 51
191.5567229405
  0
ARC
  5
486
330
1F
100
AcDbEntity
  8
0
  6
Continuous
 62
     7
370
    35
100
AcDbCircle
 10
305.4718554921
 20
421.4780589727
 30
0.0
 40
5.190769848885248
100
AcDbArc
 50
355.637832132
 51
24.8550972392
  0
ARC
  5
487
330
1F
100
AcDbEntity
  8
0
  6
Continuous
 62
     7
370
    35
100
AcDbCircle
 10
331.2588418898
 20
416.7195926256
 30
0.0
 40
17.23547207751287
100
AcDbArc
 50
183.7802939834
 51
191.5567229405
  0
ARC
  5
488
330
1F
100
AcDbEntity
  8
0
  6
Continuous
 62
     7
370
    35
100
AcDbCircle
 10
308.3940777143
 20
421.4780589727
 30
0.0
 40
5.190769848882671
100
AcDbArc
 50
355.637832132
 51
24.8550972392
  0
LWPOLYLINE
  5
489
330
1F
100
AcDbEntity
  8
0
  6
Continuous
 62
     7
370
    35
100
AcDbPolyline
 90
        3
 70
   128
 43
0.0
 10
317.4311834873
 20
412.9800566357
 10
317.307928583
 20
413.2012510588
 10
317.2950093492
 20
413.2666732401
  0
ARC
  5
48A
330
1F
100
AcDbEntity
  8
0
  6
Continuous
 62
     7
370
    35
100
AcDbCircle
 10
315.2049459405
 20
422.938743892
 30
0.0
 40
1.092973249955681
100
AcDbArc
 50
354.4609497513
 51
41.2832819747
  0
LWPOLYLINE
  5
48B
330
1F
100
AcDbEntity
  8
0
  6
Continuous
 62
     7
370
    35
100
AcDbPolyline
 90
        7
 70
   128
 43
0.0
 10
296.4569970539
 20
412.8603123307
 10
296.4812447582
 20
412.7075984294
 10
296.5550984903
 20
412.6002274329
 10
296.6404477692
 20
412.5469948629
 10
296.7140050847
 20
412.5332455804
 10
296.7875624003
 20
412.5469948629
 10
296.8382987404
 20
412.5786392518
  0
LWPOLYLINE
  5
48C
330
1F
100
AcDbEntity
  8
0
  6
Continuous
 62
     7
370
    35
100
AcDbPolyline
 90
        7
 70
   128
 43
0.0
 10
299.3792192761
 20
412.8603123307
 10
299.4034669805
 20
412.7075984294
 10
299.4773207125
 20
412.6002274329
 10
299.5626699914
 20
412.5469948629
 10
299.636227307
 20
412.5332455804
 10
299.7097846225
 20
412.5469948629
 10
299.7605209626
 20
412.5786392518
  0
LWPOLYLINE
  5
48D
330
1F
100
AcDbEntity
  8
0
  6
Continuous
 62
     7
370
    35
100
AcDbPolyline
 90
        7
 70
   128
 43
0.0
 10
302.3014414983
 20
412.8603123307
 10
302.3256892027
 20
412.7075984294
 10
302.3995429347
 20
412.6002274329
 10
302.4848922136
 20
412.5469948629
 10
302.5584495292
 20
412.5332455804
 10
302.6320068447
 20
412.5469948629
 10
302.6827431848
 20
412.5786392518
  0
LWPOLYLINE
  5
48E
330
1F
100
AcDbEntity
  8
0
  6
Continuous
 62
     7
370
    35
100
AcDbPolyline
 90
        7
 70
   128
 43
0.0
 10
305.2236637206
 20
412.8603123307
 10
305.2479114249
 20
412.7075984294
 10
305.321765157
 20
412.6002274329
 10
305.4071144359
 20
412.5469948629
 10
305.4806717514
 20
412.5332455804
 10
305.554229067
 20
412.5469948629
 10
305.604965407
 20
412.5786392518
  0
LWPOLYLINE
  5
48F
330
1F
100
AcDbEntity
  8
0
  6
Continuous
 62
     7
370
    35
100
AcDbPolyline
 90
        7
 70
   128
 43
0.0
 10
308.1458859428
 20
412.8603123307
 10
308.1701336471
 20
412.7075984294
 10
308.2439873792
 20
412.6002274329
 10
308.3293366581
 20
412.5469948629
 10
308.4028939736
 20
412.5332455804
 10
308.4764512892
 20
412.5469948629
 10
308.5271876293
 20
412.5786392518
  0
LWPOLYLINE
  5
490
330
1F
100
AcDbEntity
  8
0
  6
Continuous
 62
     7
370
    35
100
AcDbPolyline
 90
        7
 70
   128
 43
0.0
 10
311.068108165
 20
412.8603123307
 10
311.0923558693
 20
412.7075984294
 10
311.1662096014
 20
412.6002274329
 10
311.2515588803
 20
412.5469948629
 10
311.3251161959
 20
412.5332455804
 10
311.3986735114
 20
412.5469948629
 10
311.4494098515
 20
412.5786392518
  0
LWPOLYLINE
  5
491
330
1F
100
AcDbEntity
  8
0
  6
Continuous
 62
     7
370
    35
100
AcDbPolyline
 90
        7
 70
   128
 43
0.0
 10
313.9903303872
 20
412.8603123307
 10
314.0145780916
 20
412.7075984294
 10
314.0884318236
 20
412.6002274329
 10
314.1737811025
 20
412.5469948629
 10
314.2473384181
 20
412.5332455804
 10
314.3208957336
 20
412.5469948629
 10
314.3716320737
 20
412.5786392518
  0
LWPOLYLINE
  5
492
330
1F
100
AcDbEntity
  8
0
  6
Continuous
 62
     7
370
    35
100
AcDbPolyline
 90
        7
 70
   128
 43
0.0
 10
316.9125526094
 20
412.8603123307
 10
316.9368003138
 20
412.7075984294
 10
317.0106540458
 20
412.6002274329
 10
317.0960033248
 20
412.5469948629
 10
317.1695606403
 20
412.5332455804
 10
317.2431179559
 20
412.5469948629
 10
317.2938542959
 20
412.5786392518
  0
ARC
  5
493
330
1F
100
AcDbEntity
  8
0
  6
Continuous
 62
     7
370
    35
100
AcDbCircle
 10
296.7140050847
 20
412.8780033809
 30
0.0
 40
0.3434479060276339
100
AcDbArc
 50
182.9526203802
 51
357.0473796198
  0
ARC
  5
494
330
1F
100
AcDbEntity
  8
0
  6
Continuous
 62
     7
370
    35
100
AcDbCircle
 10
299.636227307
 20
412.8780033809
 30
0.0
 40
0.3434479060276339
100
AcDbArc
 50
182.9526203802
 51
357.0473796198
  0
ARC
  5
495
330
1F
100
AcDbEntity
  8
0
  6
Continuous
 62
     7
370
    35
100
AcDbCircle
 10
302.5584495292
 20
412.8780033809
 30
0.0
 40
0.3434479060276339
100
AcDbArc
 50
182.9526203802
 51
357.0473796198
  0
ARC
  5
496
330
1F
100
AcDbEntity
  8
0
  6
Continuous
 62
     7
370
    35
100
AcDbCircle
 10
305.4806717514
 20
412.8780033809
 30
0.0
 40
0.3434479060276339
100
AcDbArc
 50
182.9526203802
 51
357.0473796198
  0
ARC
  5
497
330
1F
100
AcDbEntity
  8
0
  6
Continuous
 62
     7
370
    35
100
AcDbCircle
 10
308.4028939736
 20
412.8780033809
 30
0.0
 40
0.3434479060276339
100
AcDbArc
 50
182.9526203802
 51
357.0473796198
  0
ARC
  5
498
330
1F
100
AcDbEntity
  8
0
  6
Continuous
 62
     7
370
    35
100
AcDbCircle
 10
311.3251161959
 20
412.8780033809
 30
0.0
 40
0.3434479060276339
100
AcDbArc
 50
182.9526203802
 51
357.0473796198
  0
ARC
  5
499
330
1F
100
AcDbEntity
  8
0
  6
Continuous
 62
     7
370
    35
100
AcDbCircle
 10
314.2473384181
 20
412.8780033809
 30
0.0
 40
0.3434479060276339
100
AcDbArc
 50
182.9526203802
 51
357.0473796198
  0
ARC
  5
49A
330
1F
100
AcDbEntity
  8
0
  6
Continuous
 62
     7
370
    35
100
AcDbCircle
 10
317.1695606403
 20
412.8780033809
 30
0.0
 40
0.3434479060276907
100
AcDbArc
 50
182.9526203802
 51
357.0473796198
  0
LWPOLYLINE
  5
49B
330
1F
100
AcDbEntity
  8
0
  6
Continuous
 62
     7
370
    35
100
AcDbPolyline
 90
       14
 70
   128
 43
0.0
 10
298.1751161959
 20
424.1332455804
 10
297.9516021327
 20
423.9521042823
 10
297.7439096377
 20
423.4557752208
 10
297.5887790568
 20
422.7723503099
 10
297.4839620984
 20
422.0336358152
 10
297.3447260523
 20
420.5941340486
 10
297.2041547833
 20
419.0063539056
 10
297.0624014865
 20
417.4056869693
 10
296.9891902822
 20
416.5741563568
 10
296.9169161517
 20
415.6263975639
 10
296.8669718607
 20
414.5946888861
 10
296.8444393158
 20
413.5719624944
 10
296.8320029493
 20
412.8104195869
 10
296.8325809456
 20
412.7891405809
  0
LINE
  5
49C
330
1F
100
AcDbEntity
  8
0
  6
Continuous
 62
     7
370
    35
100
AcDbLine
 10
296.8370955873
 20
412.6229334827
 30
0.0
 11
296.8387933314
 21
412.56043082
 31
0.0
  0
LWPOLYLINE
  5
49D
330
1F
100
AcDbEntity
  8
0
  6
Continuous
 62
     7
370
    35
100
AcDbPolyline
 90
       14
 70
   128
 43
0.0
 10
301.0973384181
 20
424.1332455804
 10
300.8738243549
 20
423.9521042823
 10
300.6661318599
 20
423.4557752208
 10
300.511001279
 20
422.7723503099
 10
300.4061843207
 20
422.0336358152
 10
300.2669482745
 20
420.5941340486
 10
300.1263770055
 20
419.0063539056
 10
299.9846237087
 20
417.4056869693
 10
299.9114125044
 20
416.5741563568
 10
299.8391383739
 20
415.6263975639
 10
299.789194083
 20
414.5946888861
 10
299.7666615381
 20
413.5719624944
 10
299.7542251715
 20
412.8104195869
 10
299.7548031678
 20
412.7891405809
  0
LINE
  5
49E
330
1F
100
AcDbEntity
  8
0
  6
Continuous
 62
     7
370
    35
100
AcDbLine
 10
299.7593178095
 20
412.6229334827
 30
0.0
 11
299.7610155537
 21
412.56043082
 31
0.0
  0
LWPOLYLINE
  5
49F
330
1F
100
AcDbEntity
  8
0
  6
Continuous
 62
     7
370
    35
100
AcDbPolyline
 90
       14
 70
   128
 43
0.0
 10
304.0195606403
 20
424.1332455804
 10
303.7960465771
 20
423.9521042823
 10
303.5883540821
 20
423.4557752208
 10
303.4332235012
 20
422.7723503099
 10
303.3284065429
 20
422.0336358152
 10
303.1891704967
 20
420.5941340486
 10
303.0485992277
 20
419.0063539056
 10
302.9068459309
 20
417.4056869693
 10
302.8336347266
 20
416.5741563568
 10
302.7613605962
 20
415.6263975639
 10
302.7114163052
 20
414.5946888861
 10
302.6888837603
 20
413.5719624944
 10
302.6764473938
 20
412.8104195869
 10
302.6770253901
 20
412.7891405809
  0
LINE
  5
4A0
330
1F
100
AcDbEntity
  8
0
  6
Continuous
 62
     7
370
    35
100
AcDbLine
 10
302.6815400317
 20
412.6229334827
 30
0.0
 11
302.6832377759
 21
412.56043082
 31
0.0
  0
LWPOLYLINE
  5
4A1
330
1F
100
AcDbEntity
  8
0
  6
Continuous
 62
     7
370
    35
100
AcDbPolyline
 90
       14
 70
   128
 43
0.0
 10
306.9417828625
 20
424.1332455804
 10
306.7182687993
 20
423.9521042823
 10
306.5105763043
 20
423.4557752208
 10
306.3554457234
 20
422.7723503099
 10
306.2506287651
 20
422.0336358152
 10
306.1113927189
 20
420.5941340486
 10
305.9708214499
 20
419.0063539056
 10
305.8290681532
 20
417.4056869693
 10
305.7558569489
 20
416.5741563568
 10
305.6835828184
 20
415.6263975639
 10
305.6336385274
 20
414.5946888861
 10
305.6111059825
 20
413.5719624944
 10
305.598669616
 20
412.8104195869
 10
305.5992476123
 20
412.7891405809
  0
LINE
  5
4A2
330
1F
100
AcDbEntity
  8
0
  6
Continuous
 62
     7
370
    35
100
AcDbLine
 10
305.603762254
 20
412.6229334827
 30
0.0
 11
305.6054599981
 21
412.56043082
 31
0.0
  0
LWPOLYLINE
  5
4A3
330
1F
100
AcDbEntity
  8
0
  6
Continuous
 62
     7
370
    35
100
AcDbPolyline
 90
       14
 70
   128
 43
0.0
 10
309.8640050847
 20
424.1332455804
 10
309.6404910216
 20
423.9521042823
 10
309.4327985266
 20
423.4557752208
 10
309.2776679457
 20
422.7723503099
 10
309.1728509873
 20
422.0336358152
 10
309.0336149412
 20
420.5941340486
 10
308.8930436722
 20
419.0063539056
 10
308.7512903754
 20
417.4056869693
 10
308.6780791711
 20
416.5741563568
 10
308.6058050406
 20
415.6263975639
 10
308.5558607496
 20
414.5946888861
 10
308.5333282047
 20
413.5719624944
 10
308.5208918382
 20
412.8104195869
 10
308.5214698345
 20
412.7891405809
  0
LINE
  5
4A4
330
1F
100
AcDbEntity
  8
0
  6
Continuous
 62
     7
370
    35
100
AcDbLine
 10
308.5259844762
 20
412.6229334827
 30
0.0
 11
308.5276822203
 21
412.56043082
 31
0.0
  0
LWPOLYLINE
  5
4A5
330
1F
100
AcDbEntity
  8
0
  6
Continuous
 62
     7
370
    35
100
AcDbPolyline
 90
       14
 70
   128
 43
0.0
 10
312.786227307
 20
424.1332455804
 10
312.5627132438
 20
423.9521042823
 10
312.3550207488
 20
423.4557752208
 10
312.1998901679
 20
422.7723503099
 10
312.0950732095
 20
422.0336358152
 10
311.9558371634
 20
420.5941340486
 10
311.8152658944
 20
419.0063539056
 10
311.6735125976
 20
417.4056869693
 10
311.6003013933
 20
416.5741563568
 10
311.5280272628
 20
415.6263975639
 10
311.4780829719
 20
414.5946888861
 10
311.455550427
 20
413.5719624944
 10
311.4431140604
 20
412.8104195869
 10
311.4436920567
 20
412.7891405809
  0
LINE
  5
4A6
330
1F
100
AcDbEntity
  8
0
  6
Continuous
 62
     7
370
    35
100
AcDbLine
 10
311.4482066984
 20
412.6229334827
 30
0.0
 11
311.4499044426
 21
412.56043082
 31
0.0
  0
LWPOLYLINE
  5
4A7
330
1F
100
AcDbEntity
  8
0
  6
Continuous
 62
     7
370
    35
100
AcDbPolyline
 90
       14
 70
   128
 43
0.0
 10
315.7084495292
 20
424.1332455804
 10
315.484935466
 20
423.9521042823
 10
315.277242971
 20
423.4557752208
 10
315.1221123901
 20
422.7723503099
 10
315.0172954318
 20
422.0336358152
 10
314.8780593856
 20
420.5941340486
 10
314.7374881166
 20
419.0063539056
 10
314.5957348198
 20
417.4056869693
 10
314.5225236155
 20
416.5741563568
 10
314.4502494851
 20
415.6263975639
 10
314.4003051941
 20
414.5946888861
 10
314.3777726492
 20
413.5719624944
 10
314.3653362827
 20
412.8104195869
 10
314.365914279
 20
412.7891405809
  0
LINE
  5
4A8
330
1F
100
AcDbEntity
  8
0
  6
Continuous
 62
     7
370
    35
100
AcDbLine
 10
314.3704289206
 20
412.6229334827
 30
0.0
 11
314.3721266648
 21
412.56043082
 31
0.0
  0
LWPOLYLINE
  5
4A9
330
1F
100
AcDbEntity
  8
0
  6
Continuous
 62
     7
370
    35
100
AcDbPolyline
 90
       14
 70
   128
 43
0.0
 10
318.6306717514
 20
424.1332455804
 10
318.4071576882
 20
423.9521042823
 10
318.1994651932
 20
423.4557752208
 10
318.0443346123
 20
422.7723503099
 10
317.939517654
 20
422.0336358152
 10
317.8002816078
 20
420.5941340486
 10
317.6597103388
 20
419.0063539056
 10
317.517957042
 20
417.4056869693
 10
317.4447458377
 20
416.5741563568
 10
317.3724717073
 20
415.6263975639
 10
317.3225274163
 20
414.5946888861
 10
317.2999948714
 20
413.5719624944
 10
317.2875585049
 20
412.8104195869
 10
317.2881365012
 20
412.7891405809
  0
LINE
  5
4AA
330
1F
100
AcDbEntity
  8
0
  6
Continuous
 62
     7
370
    35
100
AcDbLine
 10
317.2926511429
 20
412.6229334827
 30
0.0
 11
317.294348887
 21
412.56043082
 31
0.0
  0
LWPOLYLINE
  5
4AB
330
1F
100
AcDbEntity
  8
0
  6
Continuous
 62
     7
370
    35
100
AcDbPolyline
 90
        3
 70
   128
 43
0.0
 10
295.2397696677
 20
422.8092485531
 10
295.2680545916
 20
422.629443675
 10
295.3365896723
 20
422.0825109785
  0
ARC
  5
4AC
330
1F
100
AcDbEntity
  8
0
  6
Continuous
 62
     7
370
    35
100
AcDbCircle
 10
304.4163184753
 20
415.6252624643
 30
0.0
 40
8.488874486704333
100
AcDbArc
 50
180.2835947152
 51
200.2549186207
  0
ARC
  5
4AD
330
1F
100
AcDbEntity
  8
0
  6
Continuous
 62
     7
370
    35
100
AcDbCircle
 10
277.3307112533
 20
419.5641815197
 30
0.0
 40
21.08252150510403
100
AcDbArc
 50
4.1319273072
 51
8.8542898353
  0
ARC
  5
4AE
330
1F
100
AcDbEntity
  8
0
  6
Continuous
 62
     7
370
    35
100
AcDbCircle
 10
307.3385406975
 20
415.6252624643
 30
0.0
 40
8.488874486704333
100
AcDbArc
 50
180.2835947152
 51
200.2549186207
  0
ARC
  5
4AF
330
1F
100
AcDbEntity
  8
0
  6
Continuous
 62
     7
370
    35
100
AcDbCircle
 10
280.2529334755
 20
419.5641815197
 30
0.0
 40
21.08252150517988
100
AcDbArc
 50
4.1319273072
 51
8.8542898353
  0
ARC
  5
4B0
330
1F
100
AcDbEntity
  8
0
  6
Continuous
 62
     7
370
    35
100
AcDbCircle
 10
310.2607629198
 20
415.6252624643
 30
0.0
 40
8.488874486704333
100
AcDbArc
 50
180.2835947152
 51
200.2549186207
  0
ARC
  5
4B1
330
1F
100
AcDbEntity
  8
0
  6
Continuous
 62
     7
370
    35
100
AcDbCircle
 10
283.1751556978
 20
419.5641815197
 30
0.0
 40
21.08252150509007
100
AcDbArc
 50
4.1319273072
 51
8.8542898354
  0
ARC
  5
4B2
330
1F
100
AcDbEntity
  8
0
  6
Continuous
 62
     7
370
    35
100
AcDbCircle
 10
313.182985142
 20
415.6252624643
 30
0.0
 40
8.488874486704333
100
AcDbArc
 50
180.2835947152
 51
200.2549186207
  0
ARC
  5
4B3
330
1F
100
AcDbEntity
  8
0
  6
Continuous
 62
     7
370
    35
100
AcDbCircle
 10
286.0973779199
 20
419.5641815197
 30
0.0
 40
21.08252150516982
100
AcDbArc
 50
4.1319273072
 51
8.8542898353
  0
ARC
  5
4B4
330
1F
100
AcDbEntity
  8
0
  6
Continuous
 62
     7
370
    35
100
AcDbCircle
 10
316.1052073642
 20
415.6252624643
 30
0.0
 40
8.488874486704333
100
AcDbArc
 50
180.2835947152
 51
200.2549186207
  0
ARC
  5
4B5
330
1F
100
AcDbEntity
  8
0
  6
Continuous
 62
     7
370
    35
100
AcDbCircle
 10
289.0196001422
 20
419.5641815197
 30
0.0
 40
21.08252150516982
100
AcDbArc
 50
4.1319273072
 51
8.8542898353
  0
ARC
  5
4B6
330
1F
100
AcDbEntity
  8
0
  6
Continuous
 62
     7
370
    35
100
AcDbCircle
 10
319.0274295864
 20
415.6252624643
 30
0.0
 40
8.488874486701613
100
AcDbArc
 50
180.2835947152
 51
200.2549186207
  0
ARC
  5
4B7
330
1F
100
AcDbEntity
  8
0
  6
Continuous
 62
     7
370
    35
100
AcDbCircle
 10
291.9418223644
 20
419.5641815197
 30
0.0
 40
21.08252150517982
100
AcDbArc
 50
4.1319273072
 51
8.8542898353
  0
ARC
  5
4B8
330
1F
100
AcDbEntity
  8
0
  6
Continuous
 62
     7
370
    35
100
AcDbCircle
 10
321.9496518086
 20
415.6252624643
 30
0.0
 40
8.488874486701613
100
AcDbArc
 50
180.2835947152
 51
200.2549186207
  0
ARC
  5
4B9
330
1F
100
AcDbEntity
  8
0
  6
Continuous
 62
     7
370
    35
100
AcDbCircle
 10
319.5192081611
 20
414.0380341156
 30
0.0
 40
2.940332359865292
100
AcDbArc
 50
183.9937749734
 51
207.366188585
  0
ARC
  5
4BA
330
1F
100
AcDbEntity
  8
0
  6
Continuous
 62
     7
370
    35
100
AcDbCircle
 10
297.7546408154
 20
414.6229603352
 30
0.0
 40
4.647189499172296
100
AcDbArc
 50
180.4896541282
 51
204.6269881878
  0
LWPOLYLINE
  5
4BB
330
1F
100
AcDbEntity
  8
0
  6
Continuous
 62
     7
370
    35
100
AcDbPolyline
 90
       14
 70
   128
 43
0.0
 10
295.2528939736
 20
424.1332455804
 10
295.0293799105
 20
423.9521042823
 10
294.8216874154
 20
423.4557752208
 10
294.6665568346
 20
422.7723503099
 10
294.5617398762
 20
422.0336358152
 10
294.4225038301
 20
420.5941340486
 10
294.2819325611
 20
419.0063539056
 10
294.1401792643
 20
417.4056869693
 10
294.06696806
 20
416.5741563568
 10
293.9946939295
 20
415.6263975639
 10
293.9447496385
 20
414.5946888861
 10
293.9222170936
 20
413.5719624944
 10
293.9097807271
 20
412.8104195869
 10
293.9103587234
 20
412.7891405809
  0
LINE
  5
4BC
330
1F
100
AcDbEntity
  8
0
  6
Continuous
 62
     7
370
    35
100
AcDbLine
 10
293.9148733651
 20
412.6229334827
 30
0.0
 11
293.9165711092
 21
412.56043082
 31
0.0
  0
ARC
  5
4BD
330
1F
100
AcDbEntity
  8
0
  6
Continuous
 62
     7
370
    35
100
AcDbCircle
 10
293.7917828625
 20
412.8780033809
 30
0.0
 40
0.3434479060276339
100
AcDbArc
 50
182.9526203802
 51
357.0473796198
  0
LWPOLYLINE
  5
4BE
330
1F
100
AcDbEntity
  8
0
  6
Continuous
 62
     7
370
    35
100
AcDbPolyline
 90
        7
 70
   128
 43
0.0
 10
293.5347748317
 20
412.8603123307
 10
293.559022536
 20
412.7075984294
 10
293.6328762681
 20
412.6002274329
 10
293.718225547
 20
412.5469948629
 10
293.7917828625
 20
412.5332455804
 10
293.8653401781
 20
412.5469948629
 10
293.9160765182
 20
412.5786392518
  0
LWPOLYLINE
  5
4BF
330
1F
100
AcDbEntity
  8
0
  6
Continuous
 62
     7
370
    35
100
AcDbPolyline
 90
        3
 70
   128
 43
0.0
 10
293.8481960276
 20
413.616264859
 10
293.8015642856
 20
413.8524050455
 10
293.7075095125
 20
414.5832455805
  0
ARC
  5
4C0
330
1F
100
AcDbEntity
  8
0
  6
Continuous
 62
     7
370
    35
100
AcDbCircle
 10
290.1750434227
 20
422.2509733089
 30
0.0
 40
2.846563632881766
100
AcDbArc
 50
356.6220110327
 51
29.6661860803
  0
LWPOLYLINE
  5
4C1
330
1F
100
AcDbEntity
  8
0
  6
Continuous
 62
     7
370
    35
100
AcDbPolyline
 90
       14
 70
   128
 43
0.0
 10
294.1156098862
 20
413.7557628009
 10
294.2157051136
 20
413.9878381506
 10
294.4337430385
 20
414.7938623334
 10
294.5727953242
 20
415.6629843501
 10
294.6628196662
 20
416.5378648771
 10
294.7360428253
 20
417.3584551227
 10
294.8767124917
 20
418.9471734015
 10
295.016281401
 20
420.5229238191
 10
295.0800147974
 20
421.2397327057
 10
295.1482040392
 20
421.9212998466
 10
295.2175990523
 20
422.5584077136
 10
295.2631948073
 20
423.0742832196
 10
295.2686495216
 20
423.4115666073
 10
295.2593761255
 20
423.4831843841
  0
LWPOLYLINE
  5
4C2
330
1F
100
AcDbEntity
  8
0
  6
Continuous
 62
     7
370
    35
100
AcDbPolyline
 90
       14
 70
   128
 43
0.0
 10
292.3306717514
 20
424.1332455804
 10
292.1622967033
 20
424.0651540918
 10
292.0275217549
 20
423.7797679173
 10
291.9960613375
 20
423.4302799311
 10
291.9724063019
 20
422.8407844915
 10
291.9538276563
 20
422.1481296655
 10
291.9184674375
 20
420.4520667406
 10
291.8836939633
 20
418.5072453708
 10
291.848938551
 20
416.5411929576
 10
291.8142131025
 20
414.8088241731
 10
291.7785755556
 20
413.5188045683
 10
291.7713227593
 20
413.3033493319
 10
291.7913121659
 20
413.184963432
 10
291.821221282
 20
413.178501041
  0
LWPOLYLINE
  5
4C3
330
1F
100
AcDbEntity
  8
0
  6
Continuous
 62
     7
370
    35
100
AcDbPolyline
 90
       14
 70
   128
 43
0.0
 10
292.0306717514
 20
412.5332455804
 10
292.1990467998
 20
412.6013370693
 10
292.333821748
 20
412.8867232442
 10
292.3652821654
 20
413.2362112302
 10
292.3889372009
 20
413.8257066693
 10
292.4075158465
 20
414.5183614943
 10
292.4428760653
 20
416.2144244176
 10
292.4776495395
 20
418.159245787
 10
292.5124049518
 20
420.1252982005
 10
292.5471304003
 20
421.8576669865
 10
292.5827679472
 20
423.1476865925
 10
292.5900207436
 20
423.363141829
 10
292.5700313369
 20
423.4815277289
 10
292.5401222208
 20
423.4879901199
  0
LWPOLYLINE
  5
4C4
330
1F
100
AcDbEntity
  8
0
  6
Continuous
 62
     7
370
    35
100
AcDbPolyline
 90
        4
 70
   128
 43
0.0
 10
318.9306717514
 20
412.5332455804
 10
319.0990467998
 20
412.6013370693
 10
319.233821748
 20
412.8867232442
 10
319.235784172
 20
412.9085234514
  0
LWPOLYLINE
  5
4C5
330
1F
100
AcDbEntity
  8
0
  6
Continuous
 62
     7
370
    35
100
AcDbPolyline
 90
       14
 70
   128
 43
0.0
 10
319.2306717514
 20
424.1332455804
 10
319.0622967033
 20
424.0651540918
 10
318.9275217549
 20
423.7797679173
 10
318.8960613375
 20
423.4302799311
 10
318.8724063019
 20
422.8407844915
 10
318.8538276563
 20
422.1481296654
 10
318.8184674375
 20
420.4520667406
 10
318.7836939633
 20
418.5072453708
 10
318.748938551
 20
416.5411929576
 10
318.7142131025
 20
414.8088241731
 10
318.6785755556
 20
413.5188045683
 10
318.6713227593
 20
413.3033493319
 10
318.6913121659
 20
413.184963432
 10
318.721221282
 20
413.178501041
  0
LWPOLYLINE
  5
4C6
330
1F
100
AcDbEntity
  8
0
  6
Continuous
 62
     7
370
    35
100
AcDbPolyline
 90
        3
 70
   128
 43
0.0
 10
291.7692199733
 20
412.8426063884
 10
291.8627346798
 20
412.6372979909
 10
292.0306717514
 20
412.5332455804
  0
LWPOLYLINE
  5
4C7
330
1F
100
AcDbEntity
  8
0
  6
Continuous
 62
     7
370
    35
100
AcDbPolyline
 90
        3
 70
   128
 43
0.0
 10
318.5740849674
 20
413.8332455804
 10
318.5841445083
 20
413.4737998975
 10
318.6151932148
 20
413.1684320123
  0
LWPOLYLINE
  5
4C8
330
1F
100
AcDbEntity
  8
0
  6
Continuous
 62
     7
370
    35
100
AcDbPolyline
 90
       14
 70
   128
 43
0.0
 10
297.0378321084
 20
447.7557628009
 10
297.1379273358
 20
447.9878381506
 10
297.3559652608
 20
448.7938623334
 10
297.4950175465
 20
449.6629843501
 10
297.5850418885
 20
450.5378648771
 10
297.6582650475
 20
451.3584551227
 10
297.7989347139
 20
452.9471734015
 10
297.9385036232
 20
454.5229238191
 10
298.0022370196
 20
455.2397327057
 10
298.0704262615
 20
455.9212998466
 10
298.1398212745
 20
456.5584077136
 10
298.1854170295
 20
457.0742832196
 10
298.1908717438
 20
457.4115666073
 10
298.1815983477
 20
457.4831843841
  0
LWPOLYLINE
  5
4C9
330
1F
100
AcDbEntity
  8
0
  6
Continuous
 62
     7
370
    35
100
AcDbPolyline
 90
       14
 70
   128
 43
0.0
 10
299.9600543306
 20
447.7557628009
 10
300.060149558
 20
447.9878381506
 10
300.278187483
 20
448.7938623334
 10
300.4172397687
 20
449.6629843501
 10
300.5072641107
 20
450.5378648771
 10
300.5804872697
 20
451.3584551227
 10
300.7211569361
 20
452.9471734015
 10
300.8607258454
 20
454.5229238191
 10
300.9244592418
 20
455.2397327057
 10
300.9926484837
 20
455.9212998466
 10
301.0620434967
 20
456.5584077136
 10
301.1076392517
 20
457.0742832196
 10
301.113093966
 20
457.4115666073
 10
301.1038205699
 20
457.4831843841
  0
LWPOLYLINE
  5
4CA
330
1F
100
AcDbEntity
  8
0
  6
Continuous
 62
     7
370
    35
100
AcDbPolyline
 90
       14
 70
   128
 43
0.0
 10
302.8822765528
 20
447.7557628009
 10
302.9823717802
 20
447.9878381506
 10
303.2004097052
 20
448.7938623334
 10
303.3394619909
 20
449.6629843501
 10
303.4294863329
 20
450.5378648771
 10
303.5027094919
 20
451.3584551227
 10
303.6433791583
 20
452.9471734015
 10
303.7829480677
 20
454.5229238191
 10
303.846681464
 20
455.2397327057
 10
303.9148707059
 20
455.9212998466
 10
303.984265719
 20
456.5584077136
 10
304.029861474
 20
457.0742832196
 10
304.0353161883
 20
457.4115666073
 10
304.0260427921
 20
457.4831843841
  0
LWPOLYLINE
  5
4CB
330
1F
100
AcDbEntity
  8
0
  6
Continuous
 62
     7
370
    35
100
AcDbPolyline
 90
       14
 70
   128
 43
0.0
 10
305.8044987751
 20
447.7557628009
 10
305.9045940025
 20
447.9878381506
 10
306.1226319274
 20
448.7938623334
 10
306.2616842131
 20
449.6629843501
 10
306.3517085551
 20
450.5378648771
 10
306.4249317142
 20
451.3584551227
 10
306.5656013806
 20
452.9471734015
 10
306.7051702899
 20
454.5229238191
 10
306.7689036863
 20
455.2397327057
 10
306.8370929281
 20
455.9212998466
 10
306.9064879412
 20
456.5584077136
 10
306.9520836962
 20
457.0742832196
 10
306.9575384105
 20
457.4115666073
 10
306.9482650144
 20
457.4831843841
  0
LWPOLYLINE
  5
4CC
330
1F
100
AcDbEntity
  8
0
  6
Continuous
 62
     7
370
    35
100
AcDbPolyline
 90
       14
 70
   128
 43
0.0
 10
308.7267209973
 20
447.7557628009
 10
308.8268162247
 20
447.9878381506
 10
309.0448541497
 20
448.7938623334
 10
309.1839064353
 20
449.6629843501
 10
309.2739307773
 20
450.5378648771
 10
309.3471539364
 20
451.3584551227
 10
309.4878236028
 20
452.9471734015
 10
309.6273925121
 20
454.5229238191
 10
309.6911259085
 20
455.2397327057
 10
309.7593151504
 20
455.9212998466
 10
309.8287101634
 20
456.5584077136
 10
309.8743059184
 20
457.0742832196
 10
309.8797606327
 20
457.4115666073
 10
309.8704872366
 20
457.4831843841
  0
LWPOLYLINE
  5
4CD
330
1F
100
AcDbEntity
  8
0
  6
Continuous
 62
     7
370
    35
100
AcDbPolyline
 90
       14
 70
   128
 43
0.0
 10
311.6489432195
 20
447.7557628009
 10
311.7490384469
 20
447.9878381506
 10
311.9670763719
 20
448.7938623334
 10
312.1061286576
 20
449.6629843501
 10
312.1961529996
 20
450.5378648771
 10
312.2693761586
 20
451.3584551227
 10
312.410045825
 20
452.9471734015
 10
312.5496147343
 20
454.5229238191
 10
312.6133481307
 20
455.2397327057
 10
312.6815373726
 20
455.9212998466
 10
312.7509323856
 20
456.5584077136
 10
312.7965281406
 20
457.0742832196
 10
312.8019828549
 20
457.4115666073
 10
312.7927094588
 20
457.4831843841
  0
LWPOLYLINE
  5
4CE
330
1F
100
AcDbEntity
  8
0
  6
Continuous
 62
     7
370
    35
100
AcDbPolyline
 90
       14
 70
   128
 43
0.0
 10
314.5711654417
 20
447.7557628009
 10
314.6712606691
 20
447.9878381506
 10
314.8892985941
 20
448.7938623334
 10
315.0283508798
 20
449.6629843501
 10
315.1183752218
 20
450.5378648771
 10
315.1915983808
 20
451.3584551227
 10
315.3322680472
 20
452.9471734015
 10
315.4718369565
 20
454.5229238191
 10
315.5355703529
 20
455.2397327057
 10
315.6037595948
 20
455.9212998466
 10
315.6731546078
 20
456.5584077136
 10
315.7187503628
 20
457.0742832196
 10
315.7242050772
 20
457.4115666073
 10
315.714931681
 20
457.4831843841
  0
LWPOLYLINE
  5
4CF
330
1F
100
AcDbEntity
  8
0
  6
Continuous
 62
     7
370
    35
100
AcDbPolyline
 90
       14
 70
   128
 43
0.0
 10
317.4933876639
 20
447.7557628009
 10
317.5934828913
 20
447.9878381506
 10
317.8115208163
 20
448.7938623334
 10
317.950573102
 20
449.6629843501
 10
318.040597444
 20
450.5378648771
 10
318.113820603
 20
451.3584551227
 10
318.2544902695
 20
452.9471734015
 10
318.3940591788
 20
454.5229238191
 10
318.4577925751
 20
455.2397327057
 10
318.525981817
 20
455.9212998466
 10
318.5953768301
 20
456.5584077136
 10
318.6409725851
 20
457.0742832196
 10
318.6464272994
 20
457.4115666073
 10
318.6371539033
 20
457.4831843841
  0
ARC
  5
4D0
330
1F
100
AcDbEntity
  8
0
  6
Continuous
 62
     7
370
    35
100
AcDbCircle
 10
313.7255085564
 20
450.7195926255
 30
0.0
 40
17.2354720774686
100
AcDbArc
 50
183.7802939834
 51
191.5567229405
  0
ARC
  5
4D1
330
1F
100
AcDbEntity
  8
0
  6
Continuous
 62
     7
370
    35
100
AcDbCircle
 10
290.8607443809
 20
455.4780589727
 30
0.0
 40
5.190769848887254
100
AcDbArc
 50
355.637832132
 51
24.8550972392
  0
ARC
  5
4D2
330
1F
100
AcDbEntity
  8
0
  6
Continuous
 62
     7
370
    35
100
AcDbCircle
 10
316.6477307787
 20
450.7195926256
 30
0.0
 40
17.23547207750365
100
AcDbArc
 50
183.7802939834
 51
191.5567229405
  0
ARC
  5
4D3
330
1F
100
AcDbEntity
  8
0
  6
Continuous
 62
     7
370
    35
100
AcDbCircle
 10
293.7829666032
 20
455.4780589727
 30
0.0
 40
5.190769848887254
100
AcDbArc
 50
355.637832132
 51
24.8550972392
  0
ARC
  5
4D4
330
1F
100
AcDbEntity
  8
0
  6
Continuous
 62
     7
370
    35
100
AcDbCircle
 10
319.5699530009
 20
450.7195926255
 30
0.0
 40
17.23547207748316
100
AcDbArc
 50
183.7802939834
 51
191.5567229405
  0
ARC
  5
4D5
330
1F
100
AcDbEntity
  8
0
  6
Continuous
 62
     7
370
    35
100
AcDbCircle
 10
296.7051888254
 20
455.4780589727
 30
0.0
 40
5.190769848886304
100
AcDbArc
 50
355.637832132
 51
24.8550972392
  0
ARC
  5
4D6
330
1F
100
AcDbEntity
  8
0
  6
Continuous
 62
     7
370
    35
100
AcDbCircle
 10
322.4921752231
 20
450.7195926256
 30
0.0
 40
17.23547207750365
100
AcDbArc
 50
183.7802939834
 51
191.5567229405
  0
ARC
  5
4D7
330
1F
100
AcDbEntity
  8
0
  6
Continuous
 62
     7
370
    35
100
AcDbCircle
 10
299.6274110476
 20
455.4780589727
 30
0.0
 40
5.19076984888636
100
AcDbArc
 50
355.637832132
 51
24.8550972392
  0
ARC
  5
4D8
330
1F
100
AcDbEntity
  8
0
  6
Continuous
 62
     7
370
    35
100
AcDbCircle
 10
325.4143974453
 20
450.7195926256
 30
0.0
 40
17.23547207750142
100
AcDbArc
 50
183.7802939834
 51
191.5567229405
  0
ARC
  5
4D9
330
1F
100
AcDbEntity
  8
0
  6
Continuous
 62
     7
370
    35
100
AcDbCircle
 10
302.5496332698
 20
455.4780589727
 30
0.0
 40
5.190769848886077
100
AcDbArc
 50
355.637832132
 51
24.8550972392
  0
ARC
  5
4DA
330
1F
100
AcDbEntity
  8
0
  6
Continuous
 62
     7
370
    35
100
AcDbCircle
 10
328.3366196676
 20
450.7195926256
 30
0.0
 40
17.23547207751236
100
AcDbArc
 50
183.7802939834
 51
191.5567229405
  0
ARC
  5
4DB
330
1F
100
AcDbEntity
  8
0
  6
Continuous
 62
     7
370
    35
100
AcDbCircle
 10
305.4718554921
 20
455.4780589727
 30
0.0
 40
5.190769848886691
100
AcDbArc
 50
355.637832132
 51
24.8550972392
  0
ARC
  5
4DC
330
1F
100
AcDbEntity
  8
0
  6
Continuous
 62
     7
370
    35
100
AcDbCircle
 10
331.2588418898
 20
450.7195926256
 30
0.0
 40
17.23547207751724
100
AcDbArc
 50
183.7802939834
 51
191.5567229405
  0
ARC
  5
4DD
330
1F
100
AcDbEntity
  8
0
  6
Continuous
 62
     7
370
    35
100
AcDbCircle
 10
308.3940777143
 20
455.4780589727
 30
0.0
 40
5.190769848885078
100
AcDbArc
 50
355.637832132
 51
24.8550972392
  0
LWPOLYLINE
  5
4DE
330
1F
100
AcDbEntity
  8
0
  6
Continuous
 62
     7
370
    35
100
AcDbPolyline
 90
        3
 70
   128
 43
0.0
 10
317.4311834873
 20
446.9800566357
 10
317.307928583
 20
447.2012510588
 10
317.2950093492
 20
447.2666732401
  0
ARC
  5
4DF
330
1F
100
AcDbEntity
  8
0
  6
Continuous
 62
     7
370
    35
100
AcDbCircle
 10
315.2049459405
 20
456.938743892
 30
0.0
 40
1.092973249955056
100
AcDbArc
 50
354.4609497513
 51
41.2832819747
  0
LWPOLYLINE
  5
4E0
330
1F
100
AcDbEntity
  8
0
  6
Continuous
 62
     7
370
    35
100
AcDbPolyline
 90
        7
 70
   128
 43
0.0
 10
296.4569970539
 20
446.8603123307
 10
296.4812447582
 20
446.7075984294
 10
296.5550984903
 20
446.6002274329
 10
296.6404477692
 20
446.5469948629
 10
296.7140050847
 20
446.5332455804
 10
296.7875624003
 20
446.5469948629
 10
296.8382987404
 20
446.5786392518
  0
LWPOLYLINE
  5
4E1
330
1F
100
AcDbEntity
  8
0
  6
Continuous
 62
     7
370
    35
100
AcDbPolyline
 90
        7
 70
   128
 43
0.0
 10
299.3792192761
 20
446.8603123307
 10
299.4034669805
 20
446.7075984294
 10
299.4773207125
 20
446.6002274329
 10
299.5626699914
 20
446.5469948629
 10
299.636227307
 20
446.5332455804
 10
299.7097846225
 20
446.5469948629
 10
299.7605209626
 20
446.5786392518
  0
LWPOLYLINE
  5
4E2
330
1F
100
AcDbEntity
  8
0
  6
Continuous
 62
     7
370
    35
100
AcDbPolyline
 90
        7
 70
   128
 43
0.0
 10
302.3014414983
 20
446.8603123307
 10
302.3256892027
 20
446.7075984294
 10
302.3995429347
 20
446.6002274329
 10
302.4848922136
 20
446.5469948629
 10
302.5584495292
 20
446.5332455804
 10
302.6320068447
 20
446.5469948629
 10
302.6827431848
 20
446.5786392518
  0
LWPOLYLINE
  5
4E3
330
1F
100
AcDbEntity
  8
0
  6
Continuous
 62
     7
370
    35
100
AcDbPolyline
 90
        7
 70
   128
 43
0.0
 10
305.2236637206
 20
446.8603123307
 10
305.2479114249
 20
446.7075984294
 10
305.321765157
 20
446.6002274329
 10
305.4071144359
 20
446.5469948629
 10
305.4806717514
 20
446.5332455804
 10
305.554229067
 20
446.5469948629
 10
305.604965407
 20
446.5786392518
  0
LWPOLYLINE
  5
4E4
330
1F
100
AcDbEntity
  8
0
  6
Continuous
 62
     7
370
    35
100
AcDbPolyline
 90
        7
 70
   128
 43
0.0
 10
308.1458859428
 20
446.8603123307
 10
308.1701336471
 20
446.7075984294
 10
308.2439873792
 20
446.6002274329
 10
308.3293366581
 20
446.5469948629
 10
308.4028939736
 20
446.5332455804
 10
308.4764512892
 20
446.5469948629
 10
308.5271876293
 20
446.5786392518
  0
LWPOLYLINE
  5
4E5
330
1F
100
AcDbEntity
  8
0
  6
Continuous
 62
     7
370
    35
100
AcDbPolyline
 90
        7
 70
   128
 43
0.0
 10
311.068108165
 20
446.8603123307
 10
311.0923558693
 20
446.7075984294
 10
311.1662096014
 20
446.6002274329
 10
311.2515588803
 20
446.5469948629
 10
311.3251161959
 20
446.5332455804
 10
311.3986735114
 20
446.5469948629
 10
311.4494098515
 20
446.5786392518
  0
LWPOLYLINE
  5
4E6
330
1F
100
AcDbEntity
  8
0
  6
Continuous
 62
     7
370
    35
100
AcDbPolyline
 90
        7
 70
   128
 43
0.0
 10
313.9903303872
 20
446.8603123307
 10
314.0145780916
 20
446.7075984294
 10
314.0884318236
 20
446.6002274329
 10
314.1737811025
 20
446.5469948629
 10
314.2473384181
 20
446.5332455804
 10
314.3208957336
 20
446.5469948629
 10
314.3716320737
 20
446.5786392518
  0
LWPOLYLINE
  5
4E7
330
1F
100
AcDbEntity
  8
0
  6
Continuous
 62
     7
370
    35
100
AcDbPolyline
 90
        7
 70
   128
 43
0.0
 10
316.9125526094
 20
446.8603123307
 10
316.9368003138
 20
446.7075984294
 10
317.0106540458
 20
446.6002274329
 10
317.0960033248
 20
446.5469948629
 10
317.1695606403
 20
446.5332455804
 10
317.2431179559
 20
446.5469948629
 10
317.2938542959
 20
446.5786392518
  0
ARC
  5
4E8
330
1F
100
AcDbEntity
  8
0
  6
Continuous
 62
     7
370
    35
100
AcDbCircle
 10
296.7140050847
 20
446.8780033809
 30
0.0
 40
0.3434479060275713
100
AcDbArc
 50
182.9526203802
 51
357.0473796198
  0
ARC
  5
4E9
330
1F
100
AcDbEntity
  8
0
  6
Continuous
 62
     7
370
    35
100
AcDbCircle
 10
299.636227307
 20
446.8780033809
 30
0.0
 40
0.343447906027631
100
AcDbArc
 50
182.9526203802
 51
357.0473796198
  0
ARC
  5
4EA
330
1F
100
AcDbEntity
  8
0
  6
Continuous
 62
     7
370
    35
100
AcDbCircle
 10
302.5584495292
 20
446.8780033809
 30
0.0
 40
0.343447906027631
100
AcDbArc
 50
182.9526203802
 51
357.0473796198
  0
ARC
  5
4EB
330
1F
100
AcDbEntity
  8
0
  6
Continuous
 62
     7
370
    35
100
AcDbCircle
 10
305.4806717514
 20
446.8780033809
 30
0.0
 40
0.343447906027631
100
AcDbArc
 50
182.9526203802
 51
357.0473796198
  0
ARC
  5
4EC
330
1F
100
AcDbEntity
  8
0
  6
Continuous
 62
     7
370
    35
100
AcDbCircle
 10
308.4028939736
 20
446.8780033809
 30
0.0
 40
0.343447906027631
100
AcDbArc
 50
182.9526203802
 51
357.0473796198
  0
ARC
  5
4ED
330
1F
100
AcDbEntity
  8
0
  6
Continuous
 62
     7
370
    35
100
AcDbCircle
 10
311.3251161959
 20
446.8780033809
 30
0.0
 40
0.343447906027631
100
AcDbArc
 50
182.9526203802
 51
357.0473796198
  0
ARC
  5
4EE
330
1F
100
AcDbEntity
  8
0
  6
Continuous
 62
     7
370
    35
100
AcDbCircle
 10
314.2473384181
 20
446.8780033809
 30
0.0
 40
0.343447906027631
100
AcDbArc
 50
182.9526203802
 51
357.0473796198
  0
ARC
  5
4EF
330
1F
100
AcDbEntity
  8
0
  6
Continuous
 62
     7
370
    35
100
AcDbCircle
 10
317.1695606403
 20
446.8780033809
 30
0.0
 40
0.3434479060276878
100
AcDbArc
 50
182.9526203802
 51
357.0473796198
  0
LWPOLYLINE
  5
4F0
330
1F
100
AcDbEntity
  8
0
  6
Continuous
 62
     7
370
    35
100
AcDbPolyline
 90
       14
 70
   128
 43
0.0
 10
298.1751161959
 20
458.1332455804
 10
297.9516021327
 20
457.9521042823
 10
297.7439096377
 20
457.4557752208
 10
297.5887790568
 20
456.7723503099
 10
297.4839620984
 20
456.0336358152
 10
297.3447260523
 20
454.5941340486
 10
297.2041547833
 20
453.0063539056
 10
297.0624014865
 20
451.4056869693
 10
296.9891902822
 20
450.5741563568
 10
296.9169161517
 20
449.6263975639
 10
296.8669718607
 20
448.5946888861
 10
296.8444393158
 20
447.5719624944
 10
296.8320029493
 20
446.8104195869
 10
296.8325809456
 20
446.7891405809
  0
LINE
  5
4F1
330
1F
100
AcDbEntity
  8
0
  6
Continuous
 62
     7
370
    35
100
AcDbLine
 10
296.8370955873
 20
446.6229334827
 30
0.0
 11
296.8387933314
 21
446.56043082
 31
0.0
  0
LWPOLYLINE
  5
4F2
330
1F
100
AcDbEntity
  8
0
  6
Continuous
 62
     7
370
    35
100
AcDbPolyline
 90
       14
 70
   128
 43
0.0
 10
301.0973384181
 20
458.1332455804
 10
300.8738243549
 20
457.9521042823
 10
300.6661318599
 20
457.4557752208
 10
300.511001279
 20
456.7723503099
 10
300.4061843207
 20
456.0336358152
 10
300.2669482745
 20
454.5941340486
 10
300.1263770055
 20
453.0063539056
 10
299.9846237087
 20
451.4056869693
 10
299.9114125044
 20
450.5741563568
 10
299.8391383739
 20
449.6263975639
 10
299.789194083
 20
448.5946888861
 10
299.7666615381
 20
447.5719624944
 10
299.7542251715
 20
446.8104195869
 10
299.7548031678
 20
446.7891405809
  0
LINE
  5
4F3
330
1F
100
AcDbEntity
  8
0
  6
Continuous
 62
     7
370
    35
100
AcDbLine
 10
299.7593178095
 20
446.6229334827
 30
0.0
 11
299.7610155537
 21
446.56043082
 31
0.0
  0
LWPOLYLINE
  5
4F4
330
1F
100
AcDbEntity
  8
0
  6
Continuous
 62
     7
370
    35
100
AcDbPolyline
 90
       14
 70
   128
 43
0.0
 10
304.0195606403
 20
458.1332455804
 10
303.7960465771
 20
457.9521042823
 10
303.5883540821
 20
457.4557752208
 10
303.4332235012
 20
456.7723503099
 10
303.3284065429
 20
456.0336358152
 10
303.1891704967
 20
454.5941340486
 10
303.0485992277
 20
453.0063539056
 10
302.9068459309
 20
451.4056869693
 10
302.8336347266
 20
450.5741563568
 10
302.7613605962
 20
449.6263975639
 10
302.7114163052
 20
448.5946888861
 10
302.6888837603
 20
447.5719624944
 10
302.6764473938
 20
446.8104195869
 10
302.6770253901
 20
446.7891405809
  0
LINE
  5
4F5
330
1F
100
AcDbEntity
  8
0
  6
Continuous
 62
     7
370
    35
100
AcDbLine
 10
302.6815400317
 20
446.6229334827
 30
0.0
 11
302.6832377759
 21
446.56043082
 31
0.0
  0
LWPOLYLINE
  5
4F6
330
1F
100
AcDbEntity
  8
0
  6
Continuous
 62
     7
370
    35
100
AcDbPolyline
 90
       14
 70
   128
 43
0.0
 10
306.9417828625
 20
458.1332455804
 10
306.7182687993
 20
457.9521042823
 10
306.5105763043
 20
457.4557752208
 10
306.3554457234
 20
456.7723503099
 10
306.2506287651
 20
456.0336358152
 10
306.1113927189
 20
454.5941340486
 10
305.9708214499
 20
453.0063539056
 10
305.8290681532
 20
451.4056869693
 10
305.7558569489
 20
450.5741563568
 10
305.6835828184
 20
449.6263975639
 10
305.6336385274
 20
448.5946888861
 10
305.6111059825
 20
447.5719624944
 10
305.598669616
 20
446.8104195869
 10
305.5992476123
 20
446.7891405809
  0
LINE
  5
4F7
330
1F
100
AcDbEntity
  8
0
  6
Continuous
 62
     7
370
    35
100
AcDbLine
 10
305.603762254
 20
446.6229334827
 30
0.0
 11
305.6054599981
 21
446.56043082
 31
0.0
  0
LWPOLYLINE
  5
4F8
330
1F
100
AcDbEntity
  8
0
  6
Continuous
 62
     7
370
    35
100
AcDbPolyline
 90
       14
 70
   128
 43
0.0
 10
309.8640050847
 20
458.1332455804
 10
309.6404910216
 20
457.9521042823
 10
309.4327985265
 20
457.4557752208
 10
309.2776679457
 20
456.7723503099
 10
309.1728509873
 20
456.0336358152
 10
309.0336149412
 20
454.5941340486
 10
308.8930436722
 20
453.0063539056
 10
308.7512903754
 20
451.4056869693
 10
308.6780791711
 20
450.5741563568
 10
308.6058050406
 20
449.6263975639
 10
308.5558607496
 20
448.5946888861
 10
308.5333282047
 20
447.5719624944
 10
308.5208918382
 20
446.8104195869
 10
308.5214698345
 20
446.7891405809
  0
LINE
  5
4F9
330
1F
100
AcDbEntity
  8
0
  6
Continuous
 62
     7
370
    35
100
AcDbLine
 10
308.5259844762
 20
446.6229334827
 30
0.0
 11
308.5276822203
 21
446.56043082
 31
0.0
  0
LWPOLYLINE
  5
4FA
330
1F
100
AcDbEntity
  8
0
  6
Continuous
 62
     7
370
    35
100
AcDbPolyline
 90
       14
 70
   128
 43
0.0
 10
312.786227307
 20
458.1332455804
 10
312.5627132438
 20
457.9521042823
 10
312.3550207488
 20
457.4557752208
 10
312.1998901679
 20
456.7723503099
 10
312.0950732095
 20
456.0336358152
 10
311.9558371634
 20
454.5941340486
 10
311.8152658944
 20
453.0063539056
 10
311.6735125976
 20
451.4056869693
 10
311.6003013933
 20
450.5741563568
 10
311.5280272628
 20
449.6263975639
 10
311.4780829719
 20
448.5946888861
 10
311.455550427
 20
447.5719624944
 10
311.4431140604
 20
446.8104195869
 10
311.4436920567
 20
446.7891405809
  0
LINE
  5
4FB
330
1F
100
AcDbEntity
  8
0
  6
Continuous
 62
     7
370
    35
100
AcDbLine
 10
311.4482066984
 20
446.6229334827
 30
0.0
 11
311.4499044426
 21
446.56043082
 31
0.0
  0
LWPOLYLINE
  5
4FC
330
1F
100
AcDbEntity
  8
0
  6
Continuous
 62
     7
370
    35
100
AcDbPolyline
 90
       14
 70
   128
 43
0.0
 10
315.7084495292
 20
458.1332455804
 10
315.484935466
 20
457.9521042823
 10
315.277242971
 20
457.4557752208
 10
315.1221123901
 20
456.7723503099
 10
315.0172954318
 20
456.0336358152
 10
314.8780593856
 20
454.5941340486
 10
314.7374881166
 20
453.0063539056
 10
314.5957348198
 20
451.4056869693
 10
314.5225236155
 20
450.5741563568
 10
314.4502494851
 20
449.6263975639
 10
314.4003051941
 20
448.5946888861
 10
314.3777726492
 20
447.5719624944
 10
314.3653362827
 20
446.8104195869
 10
314.365914279
 20
446.7891405809
  0
LINE
  5
4FD
330
1F
100
AcDbEntity
  8
0
  6
Continuous
 62
     7
370
    35
100
AcDbLine
 10
314.3704289206
 20
446.6229334827
 30
0.0
 11
314.3721266648
 21
446.56043082
 31
0.0
  0
LWPOLYLINE
  5
4FE
330
1F
100
AcDbEntity
  8
0
  6
Continuous
 62
     7
370
    35
100
AcDbPolyline
 90
       14
 70
   128
 43
0.0
 10
318.6306717514
 20
458.1332455804
 10
318.4071576882
 20
457.9521042823
 10
318.1994651932
 20
457.4557752208
 10
318.0443346123
 20
456.7723503099
 10
317.939517654
 20
456.0336358152
 10
317.8002816078
 20
454.5941340486
 10
317.6597103388
 20
453.0063539056
 10
317.517957042
 20
451.4056869693
 10
317.4447458377
 20
450.5741563568
 10
317.3724717073
 20
449.6263975639
 10
317.3225274163
 20
448.5946888861
 10
317.2999948714
 20
447.5719624944
 10
317.2875585049
 20
446.8104195869
 10
317.2881365012
 20
446.7891405809
  0
LINE
  5
4FF
330
1F
100
AcDbEntity
  8
0
  6
Continuous
 62
     7
370
    35
100
AcDbLine
 10
317.2926511429
 20
446.6229334827
 30
0.0
 11
317.294348887
 21
446.56043082
 31
0.0
  0
LWPOLYLINE
  5
500
330
1F
100
AcDbEntity
  8
0
  6
Continuous
 62
     7
370
    35
100
AcDbPolyline
 90
        3
 70
   128
 43
0.0
 10
295.2397696677
 20
456.8092485531
 10
295.2680545916
 20
456.629443675
 10
295.3365896723
 20
456.0825109785
  0
ARC
  5
501
330
1F
100
AcDbEntity
  8
0
  6
Continuous
 62
     7
370
    35
100
AcDbCircle
 10
304.4163184753
 20
449.6252624643
 30
0.0
 40
8.488874486704463
100
AcDbArc
 50
180.2835947152
 51
200.2549186207
  0
ARC
  5
502
330
1F
100
AcDbEntity
  8
0
  6
Continuous
 62
     7
370
    35
100
AcDbCircle
 10
277.3307112533
 20
453.5641815197
 30
0.0
 40
21.08252150516651
100
AcDbArc
 50
4.1319273072
 51
8.8542898353
  0
ARC
  5
503
330
1F
100
AcDbEntity
  8
0
  6
Continuous
 62
     7
370
    35
100
AcDbCircle
 10
307.3385406975
 20
449.6252624643
 30
0.0
 40
8.488874486704463
100
AcDbArc
 50
180.2835947152
 51
200.2549186207
  0
ARC
  5
504
330
1F
100
AcDbEntity
  8
0
  6
Continuous
 62
     7
370
    35
100
AcDbCircle
 10
280.2529334755
 20
453.5641815197
 30
0.0
 40
21.08252150516645
100
AcDbArc
 50
4.1319273072
 51
8.8542898353
  0
ARC
  5
505
330
1F
100
AcDbEntity
  8
0
  6
Continuous
 62
     7
370
    35
100
AcDbCircle
 10
310.2607629198
 20
449.6252624643
 30
0.0
 40
8.48887448670422
100
AcDbArc
 50
180.2835947152
 51
200.2549186207
  0
ARC
  5
506
330
1F
100
AcDbEntity
  8
0
  6
Continuous
 62
     7
370
    35
100
AcDbCircle
 10
283.1751556977
 20
453.5641815197
 30
0.0
 40
21.0825215051525
100
AcDbArc
 50
4.1319273072
 51
8.8542898353
  0
ARC
  5
507
330
1F
100
AcDbEntity
  8
0
  6
Continuous
 62
     7
370
    35
100
AcDbCircle
 10
313.182985142
 20
449.6252624643
 30
0.0
 40
8.488874486701375
100
AcDbArc
 50
180.2835947152
 51
200.2549186207
  0
ARC
  5
508
330
1F
100
AcDbEntity
  8
0
  6
Continuous
 62
     7
370
    35
100
AcDbCircle
 10
286.09737792
 20
453.5641815197
 30
0.0
 40
21.0825215051525
100
AcDbArc
 50
4.1319273072
 51
8.8542898353
  0
ARC
  5
509
330
1F
100
AcDbEntity
  8
0
  6
Continuous
 62
     7
370
    35
100
AcDbCircle
 10
316.1052073642
 20
449.6252624643
 30
0.0
 40
8.48887448670422
100
AcDbArc
 50
180.2835947152
 51
200.2549186207
  0
ARC
  5
50A
330
1F
100
AcDbEntity
  8
0
  6
Continuous
 62
     7
370
    35
100
AcDbCircle
 10
289.0196001422
 20
453.5641815197
 30
0.0
 40
21.08252150516593
100
AcDbArc
 50
4.1319273072
 51
8.8542898353
  0
ARC
  5
50B
330
1F
100
AcDbEntity
  8
0
  6
Continuous
 62
     7
370
    35
100
AcDbCircle
 10
319.0274295864
 20
449.6252624643
 30
0.0
 40
8.48887448670422
100
AcDbArc
 50
180.2835947152
 51
200.2549186207
  0
ARC
  5
50C
330
1F
100
AcDbEntity
  8
0
  6
Continuous
 62
     7
370
    35
100
AcDbCircle
 10
291.9418223645
 20
453.5641815197
 30
0.0
 40
21.08252150509666
100
AcDbArc
 50
4.1319273072
 51
8.8542898354
  0
ARC
  5
50D
330
1F
100
AcDbEntity
  8
0
  6
Continuous
 62
     7
370
    35
100
AcDbCircle
 10
321.9496518086
 20
449.6252624643
 30
0.0
 40
8.48887448670422
100
AcDbArc
 50
180.2835947152
 51
200.2549186207
  0
ARC
  5
50E
330
1F
100
AcDbEntity
  8
0
  6
Continuous
 62
     7
370
    35
100
AcDbCircle
 10
319.5192081611
 20
448.0380341156
 30
0.0
 40
2.940332359859866
100
AcDbArc
 50
183.9937749733
 51
207.366188585
  0
ARC
  5
50F
330
1F
100
AcDbEntity
  8
0
  6
Continuous
 62
     7
370
    35
100
AcDbCircle
 10
297.7546408154
 20
448.6229603352
 30
0.0
 40
4.647189499172756
100
AcDbArc
 50
180.4896541282
 51
204.6269881878
  0
LWPOLYLINE
  5
510
330
1F
100
AcDbEntity
  8
0
  6
Continuous
 62
     7
370
    35
100
AcDbPolyline
 90
       14
 70
   128
 43
0.0
 10
295.2528939736
 20
458.1332455804
 10
295.0293799105
 20
457.9521042823
 10
294.8216874154
 20
457.4557752208
 10
294.6665568346
 20
456.7723503099
 10
294.5617398762
 20
456.0336358152
 10
294.4225038301
 20
454.5941340486
 10
294.2819325611
 20
453.0063539056
 10
294.1401792643
 20
451.4056869693
 10
294.06696806
 20
450.5741563568
 10
293.9946939295
 20
449.6263975639
 10
293.9447496385
 20
448.5946888861
 10
293.9222170936
 20
447.5719624944
 10
293.9097807271
 20
446.8104195869
 10
293.9103587234
 20
446.7891405809
  0
LINE
  5
511
330
1F
100
AcDbEntity
  8
0
  6
Continuous
 62
     7
370
    35
100
AcDbLine
 10
293.9148733651
 20
446.6229334827
 30
0.0
 11
293.9165711092
 21
446.56043082
 31
0.0
  0
ARC
  5
512
330
1F
100
AcDbEntity
  8
0
  6
Continuous
 62
     7
370
    35
100
AcDbCircle
 10
293.7917828625
 20
446.8780033809
 30
0.0
 40
0.343447906027631
100
AcDbArc
 50
182.9526203802
 51
357.0473796198
  0
LWPOLYLINE
  5
513
330
1F
100
AcDbEntity
  8
0
  6
Continuous
 62
     7
370
    35
100
AcDbPolyline
 90
        7
 70
   128
 43
0.0
 10
293.5347748317
 20
446.8603123307
 10
293.559022536
 20
446.7075984294
 10
293.6328762681
 20
446.6002274329
 10
293.718225547
 20
446.5469948629
 10
293.7917828625
 20
446.5332455804
 10
293.8653401781
 20
446.5469948629
 10
293.9160765182
 20
446.5786392518
  0
LWPOLYLINE
  5
514
330
1F
100
AcDbEntity
  8
0
  6
Continuous
 62
     7
370
    35
100
AcDbPolyline
 90
        3
 70
   128
 43
0.0
 10
293.8481960276
 20
447.616264859
 10
293.8015642856
 20
447.8524050455
 10
293.7075095125
 20
448.5832455805
  0
ARC
  5
515
330
1F
100
AcDbEntity
  8
0
  6
Continuous
 62
     7
370
    35
100
AcDbCircle
 10
290.1750434227
 20
456.2509733089
 30
0.0
 40
2.846563632881319
100
AcDbArc
 50
356.6220110327
 51
29.6661860803
  0
LWPOLYLINE
  5
516
330
1F
100
AcDbEntity
  8
0
  6
Continuous
 62
     7
370
    35
100
AcDbPolyline
 90
       14
 70
   128
 43
0.0
 10
294.1156098862
 20
447.7557628009
 10
294.2157051136
 20
447.9878381506
 10
294.4337430385
 20
448.7938623334
 10
294.5727953242
 20
449.6629843501
 10
294.6628196662
 20
450.5378648771
 10
294.7360428253
 20
451.3584551227
 10
294.8767124917
 20
452.9471734015
 10
295.016281401
 20
454.5229238191
 10
295.0800147974
 20
455.2397327057
 10
295.1482040392
 20
455.9212998466
 10
295.2175990523
 20
456.5584077136
 10
295.2631948073
 20
457.0742832196
 10
295.2686495216
 20
457.4115666073
 10
295.2593761255
 20
457.4831843841
  0
LWPOLYLINE
  5
517
330
1F
100
AcDbEntity
  8
0
  6
Continuous
 62
     7
370
    35
100
AcDbPolyline
 90
       14
 70
   128
 43
0.0
 10
292.3306717514
 20
458.1332455804
 10
292.1622967033
 20
458.0651540918
 10
292.0275217549
 20
457.7797679173
 10
291.9960613375
 20
457.4302799311
 10
291.9724063019
 20
456.8407844915
 10
291.9538276563
 20
456.1481296655
 10
291.9184674375
 20
454.4520667406
 10
291.8836939633
 20
452.5072453708
 10
291.848938551
 20
450.5411929576
 10
291.8142131025
 20
448.8088241731
 10
291.7785755556
 20
447.5188045683
 10
291.7713227593
 20
447.3033493319
 10
291.7913121659
 20
447.184963432
 10
291.821221282
 20
447.178501041
  0
LWPOLYLINE
  5
518
330
1F
100
AcDbEntity
  8
0
  6
Continuous
 62
     7
370
    35
100
AcDbPolyline
 90
       14
 70
   128
 43
0.0
 10
292.0306717514
 20
446.5332455804
 10
292.1990467998
 20
446.6013370693
 10
292.333821748
 20
446.8867232442
 10
292.3652821654
 20
447.2362112302
 10
292.3889372009
 20
447.8257066693
 10
292.4075158465
 20
448.5183614943
 10
292.4428760653
 20
450.2144244176
 10
292.4776495395
 20
452.159245787
 10
292.5124049518
 20
454.1252982005
 10
292.5471304003
 20
455.8576669865
 10
292.5827679472
 20
457.1476865925
 10
292.5900207436
 20
457.363141829
 10
292.5700313369
 20
457.4815277289
 10
292.5401222208
 20
457.4879901199
  0
LWPOLYLINE
  5
519
330
1F
100
AcDbEntity
  8
0
  6
Continuous
 62
     7
370
    35
100
AcDbPolyline
 90
        4
 70
   128
 43
0.0
 10
318.9306717514
 20
446.5332455804
 10
319.0990467998
 20
446.6013370693
 10
319.233821748
 20
446.8867232442
 10
319.235784172
 20
446.9085234514
  0
LWPOLYLINE
  5
51A
330
1F
100
AcDbEntity
  8
0
  6
Continuous
 62
     7
370
    35
100
AcDbPolyline
 90
       14
 70
   128
 43
0.0
 10
319.2306717514
 20
458.1332455804
 10
319.0622967033
 20
458.0651540918
 10
318.9275217549
 20
457.7797679173
 10
318.8960613375
 20
457.4302799311
 10
318.8724063019
 20
456.8407844915
 10
318.8538276563
 20
456.1481296654
 10
318.8184674375
 20
454.4520667406
 10
318.7836939633
 20
452.5072453708
 10
318.748938551
 20
450.5411929576
 10
318.7142131025
 20
448.8088241731
 10
318.6785755556
 20
447.5188045683
 10
318.6713227593
 20
447.3033493319
 10
318.6913121659
 20
447.184963432
 10
318.721221282
 20
447.178501041
  0
LWPOLYLINE
  5
51B
330
1F
100
AcDbEntity
  8
0
  6
Continuous
 62
     7
370
    35
100
AcDbPolyline
 90
        3
 70
   128
 43
0.0
 10
291.7692199733
 20
446.8426063884
 10
291.8627346798
 20
446.6372979909
 10
292.0306717514
 20
446.5332455804
  0
LWPOLYLINE
  5
51C
330
1F
100
AcDbEntity
  8
0
  6
Continuous
 62
     7
370
    35
100
AcDbPolyline
 90
        3
 70
   128
 43
0.0
 10
318.5740849674
 20
447.8332455804
 10
318.5841445083
 20
447.4737998975
 10
318.6151932148
 20
447.1684320123
  0
LINE
  5
51D
330
1F
100
AcDbEntity
  8
0
  6
Continuous
 62
     7
370
    35
100
AcDbLine
 10
291.0306717514
 20
412.3332455802
 30
0.0
 11
291.4306717514
 21
412.3332455802
 31
0.0
  0
LINE
  5
51E
330
1F
100
AcDbEntity
  8
0
  6
Continuous
 62
     7
370
    35
100
AcDbLine
 10
291.4306717514
 20
424.3332455806
 30
0.0
 11
291.0306717514
 21
424.3332455806
 31
0.0
  0
LINE
  5
51F
330
1F
100
AcDbEntity
  8
0
  6
Continuous
 62
     7
370
    35
100
AcDbLine
 10
291.0306717514
 20
424.3332455806
 30
0.0
 11
290.7306717514
 21
424.0332455802
 31
0.0
  0
LINE
  5
520
330
1F
100
AcDbEntity
  8
0
  6
Continuous
 62
     7
370
    35
100
AcDbLine
 10
290.7306717514
 20
412.6332455807
 30
0.0
 11
291.0306717514
 21
412.3332455802
 31
0.0
  0
LINE
  5
521
330
1F
100
AcDbEntity
  8
0
  6
Continuous
 62
     7
370
    35
100
AcDbLine
 10
291.4306717514
 20
412.3332455802
 30
0.0
 11
291.7306717514
 21
412.6332455807
 31
0.0
  0
LINE
  5
522
330
1F
100
AcDbEntity
  8
0
  6
Continuous
 62
     7
370
    35
100
AcDbLine
 10
291.7306717514
 20
424.0332455802
 30
0.0
 11
291.4306717514
 21
424.3332455806
 31
0.0
  0
LINE
  5
523
330
1F
100
AcDbEntity
  8
0
  6
Continuous
 62
     7
370
    35
100
AcDbLine
 10
292.4088685767
 20
414.5832455805
 30
0.0
 11
293.9444975214
 21
414.5832455805
 31
0.0
  0
LINE
  5
524
330
1F
100
AcDbEntity
  8
0
  6
Continuous
 62
     7
370
    35
100
AcDbLine
 10
294.3767690163
 20
414.5832455805
 30
0.0
 11
295.4306717514
 21
414.5832455805
 31
0.0
  0
LINE
  5
525
330
1F
100
AcDbEntity
  8
0
  6
Continuous
 62
     7
370
    35
100
AcDbLine
 10
295.4306717514
 20
422.0832455803
 30
0.0
 11
295.1658434797
 21
422.0832455803
 31
0.0
  0
LINE
  5
526
330
1F
100
AcDbEntity
  8
0
  6
Continuous
 62
     7
370
    35
100
AcDbLine
 10
294.5687790567
 20
422.0832455803
 30
0.0
 11
292.553362141
 21
422.0832455803
 31
0.0
  0
LINE
  5
527
330
1F
100
AcDbEntity
  8
0
  6
Continuous
 62
     7
370
    35
100
AcDbLine
 10
291.9524749262
 20
422.0832455803
 30
0.0
 11
291.7306717514
 21
422.0832455803
 31
0.0
  0
LINE
  5
528
330
1F
100
AcDbEntity
  8
0
  6
Continuous
 62
     7
370
    35
100
AcDbLine
 10
295.4306717514
 20
414.5832455805
 30
0.0
 11
295.7306717514
 21
414.8832455801
 31
0.0
  0
LINE
  5
529
330
1F
100
AcDbEntity
  8
0
  6
Continuous
 62
     7
370
    35
100
AcDbLine
 10
295.7306717514
 20
421.7832455808
 30
0.0
 11
295.4306717514
 21
422.0832455803
 31
0.0
  0
LINE
  5
52A
330
1F
100
AcDbEntity
  8
0
  6
Continuous
 62
     7
370
    35
100
AcDbLine
 10
291.0306717514
 20
458.3332455806
 30
0.0
 11
290.7306717514
 21
458.0332455802
 31
0.0
  0
LINE
  5
52B
330
1F
100
AcDbEntity
  8
0
  6
Continuous
 62
     7
370
    35
100
AcDbLine
 10
290.7306717514
 20
446.6332455807
 30
0.0
 11
291.0306717514
 21
446.3332455802
 31
0.0
  0
LINE
  5
52C
330
1F
100
AcDbEntity
  8
0
  6
Continuous
 62
     7
370
    35
100
AcDbLine
 10
291.0306717514
 20
446.3332455802
 30
0.0
 11
291.4306717514
 21
446.3332455802
 31
0.0
  0
LINE
  5
52D
330
1F
100
AcDbEntity
  8
0
  6
Continuous
 62
     7
370
    35
100
AcDbLine
 10
291.4306717514
 20
458.3332455806
 30
0.0
 11
291.0306717514
 21
458.3332455806
 31
0.0
  0
LINE
  5
52E
330
1F
100
AcDbEntity
  8
0
  6
Continuous
 62
     7
370
    35
100
AcDbLine
 10
291.4306717514
 20
446.3332455802
 30
0.0
 11
291.7306717514
 21
446.6332455807
 31
0.0
  0
LINE
  5
52F
330
1F
100
AcDbEntity
  8
0
  6
Continuous
 62
     7
370
    35
100
AcDbLine
 10
291.7306717514
 20
458.0332455802
 30
0.0
 11
291.4306717514
 21
458.3332455806
 31
0.0
  0
LINE
  5
530
330
1F
100
AcDbEntity
  8
0
  6
Continuous
 62
     7
370
    35
100
AcDbLine
 10
292.4088685767
 20
448.5832455805
 30
0.0
 11
293.9444975214
 21
448.5832455805
 31
0.0
  0
LINE
  5
531
330
1F
100
AcDbEntity
  8
0
  6
Continuous
 62
     7
370
    35
100
AcDbLine
 10
294.3767690163
 20
448.5832455805
 30
0.0
 11
295.4306717514
 21
448.5832455805
 31
0.0
  0
LINE
  5
532
330
1F
100
AcDbEntity
  8
0
  6
Continuous
 62
     7
370
    35
100
AcDbLine
 10
295.4306717514
 20
456.0832455803
 30
0.0
 11
295.1658434797
 21
456.0832455803
 31
0.0
  0
LINE
  5
533
330
1F
100
AcDbEntity
  8
0
  6
Continuous
 62
     7
370
    35
100
AcDbLine
 10
294.5687790567
 20
456.0832455803
 30
0.0
 11
292.553362141
 21
456.0832455803
 31
0.0
  0
LINE
  5
534
330
1F
100
AcDbEntity
  8
0
  6
Continuous
 62
     7
370
    35
100
AcDbLine
 10
291.9524749262
 20
456.0832455803
 30
0.0
 11
291.7306717514
 21
456.0832455803
 31
0.0
  0
LINE
  5
535
330
1F
100
AcDbEntity
  8
0
  6
Continuous
 62
     7
370
    35
100
AcDbLine
 10
295.4306717514
 20
448.5832455805
 30
0.0
 11
295.7306717514
 21
448.8832455801
 31
0.0
  0
LINE
  5
536
330
1F
100
AcDbEntity
  8
0
  6
Continuous
 62
     7
370
    35
100
AcDbLine
 10
295.7306717514
 20
455.7832455808
 30
0.0
 11
295.4306717514
 21
456.0832455803
 31
0.0
  0
LINE
  5
537
330
1F
100
AcDbEntity
  8
0
  6
Continuous
 62
     7
370
    35
100
AcDbLine
 10
286.5306717514
 20
506.3332455804
 30
0.0
 11
285.7306717514
 21
506.3332455804
 31
0.0
  0
LINE
  5
538
330
1F
100
AcDbEntity
  8
0
  6
Continuous
 62
     7
370
    35
100
AcDbLine
 10
285.7306717514
 20
496.3332455804
 30
0.0
 11
286.5306717514
 21
496.3332455804
 31
0.0
  0
LINE
  5
539
330
1F
100
AcDbEntity
  8
0
  6
Continuous
 62
     7
370
    35
100
AcDbLine
 10
287.5306717514
 20
505.1332455804
 30
0.0
 11
286.5306717514
 21
505.1332455804
 31
0.0
  0
LINE
  5
53A
330
1F
100
AcDbEntity
  8
0
  6
Continuous
 62
     7
370
    35
100
AcDbLine
 10
286.5306717514
 20
497.5332455804
 30
0.0
 11
287.5306717514
 21
497.5332455804
 31
0.0
  0
LINE
  5
53B
330
1F
100
AcDbEntity
  8
0
  6
Continuous
 62
     7
370
    35
100
AcDbLine
 10
287.5306717514
 20
497.8332455804
 30
0.0
 11
291.1306717514
 21
497.8332455804
 31
0.0
  0
LINE
  5
53C
330
1F
100
AcDbEntity
  8
0
  6
Continuous
 62
     7
370
    35
100
AcDbLine
 10
291.1306717514
 20
504.8332455804
 30
0.0
 11
287.5306717514
 21
504.8332455804
 31
0.0
  0
LINE
  5
53D
330
1F
100
AcDbEntity
  8
0
  6
Continuous
 62
     7
370
    35
100
AcDbLine
 10
291.1306717514
 20
497.8332455804
 30
0.0
 11
291.5306717514
 21
498.2332455804
 31
0.0
  0
LINE
  5
53E
330
1F
100
AcDbEntity
  8
0
  6
Continuous
 62
     7
370
    35
100
AcDbLine
 10
291.5306717514
 20
504.4332455804
 30
0.0
 11
291.1306717514
 21
504.8332455804
 31
0.0
  0
LINE
  5
53F
330
1F
100
AcDbEntity
  8
0
  6
Continuous
 62
     7
370
    35
100
AcDbLine
 10
272.2306717514
 20
503.3332455804
 30
0.0
 11
271.2306717514
 21
503.3332455804
 31
0.0
  0
LINE
  5
540
330
1F
100
AcDbEntity
  8
0
  6
Continuous
 62
     7
370
    35
100
AcDbLine
 10
271.2306717514
 20
499.3332455804
 30
0.0
 11
272.2306717514
 21
499.3332455804
 31
0.0
  0
LINE
  5
541
330
1F
100
AcDbEntity
  8
0
  6
Continuous
 62
     7
370
    35
100
AcDbLine
 10
286.5306717514
 20
526.3332455804
 30
0.0
 11
285.7306717514
 21
526.3332455804
 31
0.0
  0
LINE
  5
542
330
1F
100
AcDbEntity
  8
0
  6
Continuous
 62
     7
370
    35
100
AcDbLine
 10
285.7306717514
 20
516.3332455804
 30
0.0
 11
286.5306717514
 21
516.3332455804
 31
0.0
  0
LINE
  5
543
330
1F
100
AcDbEntity
  8
0
  6
Continuous
 62
     7
370
    35
100
AcDbLine
 10
287.5306717514
 20
525.1332455804
 30
0.0
 11
286.5306717514
 21
525.1332455804
 31
0.0
  0
LINE
  5
544
330
1F
100
AcDbEntity
  8
0
  6
Continuous
 62
     7
370
    35
100
AcDbLine
 10
286.5306717514
 20
517.5332455804
 30
0.0
 11
287.5306717514
 21
517.5332455804
 31
0.0
  0
LINE
  5
545
330
1F
100
AcDbEntity
  8
0
  6
Continuous
 62
     7
370
    35
100
AcDbLine
 10
287.5306717514
 20
517.8332455804
 30
0.0
 11
291.1306717514
 21
517.8332455804
 31
0.0
  0
LINE
  5
546
330
1F
100
AcDbEntity
  8
0
  6
Continuous
 62
     7
370
    35
100
AcDbLine
 10
291.1306717514
 20
524.8332455804
 30
0.0
 11
287.5306717514
 21
524.8332455804
 31
0.0
  0
LINE
  5
547
330
1F
100
AcDbEntity
  8
0
  6
Continuous
 62
     7
370
    35
100
AcDbLine
 10
291.1306717514
 20
517.8332455804
 30
0.0
 11
291.5306717514
 21
518.2332455804
 31
0.0
  0
LINE
  5
548
330
1F
100
AcDbEntity
  8
0
  6
Continuous
 62
     7
370
    35
100
AcDbLine
 10
291.5306717514
 20
524.4332455804
 30
0.0
 11
291.1306717514
 21
524.8332455804
 31
0.0
  0
LINE
  5
549
330
1F
100
AcDbEntity
  8
0
  6
Continuous
 62
     7
370
    35
100
AcDbLine
 10
272.2306717514
 20
523.3332455804
 30
0.0
 11
271.2306717514
 21
523.3332455804
 31
0.0
  0
LINE
  5
54A
330
1F
100
AcDbEntity
  8
0
  6
Continuous
 62
     7
370
    35
100
AcDbLine
 10
271.2306717514
 20
519.3332455804
 30
0.0
 11
272.2306717514
 21
519.3332455804
 31
0.0
  0
LINE
  5
54B
330
1F
100
AcDbEntity
  8
0
  6
Continuous
 62
     7
370
    35
100
AcDbLine
 10
286.5306717514
 20
469.3332455804
 30
0.0
 11
285.7306717514
 21
469.3332455804
 31
0.0
  0
LINE
  5
54C
330
1F
100
AcDbEntity
  8
0
  6
Continuous
 62
     7
370
    35
100
AcDbLine
 10
285.7306717514
 20
459.3332455804
 30
0.0
 11
286.5306717514
 21
459.3332455804
 31
0.0
  0
LINE
  5
54D
330
1F
100
AcDbEntity
  8
0
  6
Continuous
 62
     7
370
    35
100
AcDbLine
 10
287.5306717514
 20
468.1332455804
 30
0.0
 11
286.5306717514
 21
468.1332455804
 31
0.0
  0
LINE
  5
54E
330
1F
100
AcDbEntity
  8
0
  6
Continuous
 62
     7
370
    35
100
AcDbLine
 10
286.5306717514
 20
460.5332455804
 30
0.0
 11
287.5306717514
 21
460.5332455804
 31
0.0
  0
LINE
  5
54F
330
1F
100
AcDbEntity
  8
0
  6
Continuous
 62
     7
370
    35
100
AcDbLine
 10
287.5306717514
 20
460.8332455804
 30
0.0
 11
291.1306717514
 21
460.8332455804
 31
0.0
  0
LINE
  5
550
330
1F
100
AcDbEntity
  8
0
  6
Continuous
 62
     7
370
    35
100
AcDbLine
 10
291.1306717514
 20
467.8332455804
 30
0.0
 11
287.5306717514
 21
467.8332455804
 31
0.0
  0
LINE
  5
551
330
1F
100
AcDbEntity
  8
0
  6
Continuous
 62
     7
370
    35
100
AcDbLine
 10
291.1306717514
 20
460.8332455804
 30
0.0
 11
291.5306717514
 21
461.2332455804
 31
0.0
  0
LINE
  5
552
330
1F
100
AcDbEntity
  8
0
  6
Continuous
 62
     7
370
    35
100
AcDbLine
 10
291.5306717514
 20
467.4332455804
 30
0.0
 11
291.1306717514
 21
467.8332455804
 31
0.0
  0
LINE
  5
553
330
1F
100
AcDbEntity
  8
0
  6
Continuous
 62
     7
370
    35
100
AcDbLine
 10
272.2306717514
 20
466.3332455804
 30
0.0
 11
271.2306717514
 21
466.3332455804
 31
0.0
  0
LINE
  5
554
330
1F
100
AcDbEntity
  8
0
  6
Continuous
 62
     7
370
    35
100
AcDbLine
 10
271.2306717514
 20
462.3332455804
 30
0.0
 11
272.2306717514
 21
462.3332455804
 31
0.0
  0
LINE
  5
555
330
1F
100
AcDbEntity
  8
0
  6
Continuous
 62
     7
370
    35
100
AcDbLine
 10
286.5306717514
 20
489.3332455804
 30
0.0
 11
285.7306717514
 21
489.3332455804
 31
0.0
  0
LINE
  5
556
330
1F
100
AcDbEntity
  8
0
  6
Continuous
 62
     7
370
    35
100
AcDbLine
 10
285.7306717514
 20
479.3332455804
 30
0.0
 11
286.5306717514
 21
479.3332455804
 31
0.0
  0
LINE
  5
557
330
1F
100
AcDbEntity
  8
0
  6
Continuous
 62
     7
370
    35
100
AcDbLine
 10
287.5306717514
 20
488.1332455804
 30
0.0
 11
286.5306717514
 21
488.1332455804
 31
0.0
  0
LINE
  5
558
330
1F
100
AcDbEntity
  8
0
  6
Continuous
 62
     7
370
    35
100
AcDbLine
 10
286.5306717514
 20
480.5332455804
 30
0.0
 11
287.5306717514
 21
480.5332455804
 31
0.0
  0
LINE
  5
559
330
1F
100
AcDbEntity
  8
0
  6
Continuous
 62
     7
370
    35
100
AcDbLine
 10
287.5306717514
 20
480.8332455804
 30
0.0
 11
291.1306717514
 21
480.8332455804
 31
0.0
  0
LINE
  5
55A
330
1F
100
AcDbEntity
  8
0
  6
Continuous
 62
     7
370
    35
100
AcDbLine
 10
291.1306717514
 20
487.8332455804
 30
0.0
 11
287.5306717514
 21
487.8332455804
 31
0.0
  0
LINE
  5
55B
330
1F
100
AcDbEntity
  8
0
  6
Continuous
 62
     7
370
    35
100
AcDbLine
 10
291.1306717514
 20
480.8332455804
 30
0.0
 11
291.5306717514
 21
481.2332455804
 31
0.0
  0
LINE
  5
55C
330
1F
100
AcDbEntity
  8
0
  6
Continuous
 62
     7
370
    35
100
AcDbLine
 10
291.5306717514
 20
487.4332455804
 30
0.0
 11
291.1306717514
 21
487.8332455804
 31
0.0
  0
LINE
  5
55D
330
1F
100
AcDbEntity
  8
0
  6
Continuous
 62
     7
370
    35
100
AcDbLine
 10
272.2306717514
 20
486.3332455804
 30
0.0
 11
271.2306717514
 21
486.3332455804
 31
0.0
  0
LINE
  5
55E
330
1F
100
AcDbEntity
  8
0
  6
Continuous
 62
     7
370
    35
100
AcDbLine
 10
271.2306717514
 20
482.3332455804
 30
0.0
 11
272.2306717514
 21
482.3332455804
 31
0.0
  0
ARC
  5
55F
330
1F
100
AcDbEntity
  8
0
  6
Continuous
 62
     7
370
    35
100
AcDbCircle
 10
272.3306717514
 20
446.9332455804
 30
0.0
 40
0.6000000000000796
100
AcDbArc
 50
180.0
 51
270.0
  0
ARC
  5
560
330
1F
100
AcDbEntity
  8
0
  6
Continuous
 62
     7
370
    35
100
AcDbCircle
 10
272.3306717514
 20
457.7332455804
 30
0.0
 40
0.6000000000000227
100
AcDbArc
 50
90.0
 51
180.0
  0
LINE
  5
561
330
1F
100
AcDbEntity
  8
0
  6
Continuous
 62
     7
370
    35
100
AcDbLine
 10
279.7306717514
 20
458.3332455804
 30
0.0
 11
272.3306717514
 21
458.3332455804
 31
0.0
  0
LINE
  5
562
330
1F
100
AcDbEntity
  8
0
  6
Continuous
 62
     7
370
    35
100
AcDbLine
 10
272.3306717514
 20
446.3332455804
 30
0.0
 11
279.7306717514
 21
446.3332455804
 31
0.0
  0
ARC
  5
563
330
1F
100
AcDbEntity
  8
0
  6
Continuous
 62
     7
370
    35
100
AcDbCircle
 10
272.3306717514
 20
412.9332455804
 30
0.0
 40
0.6000000000000227
100
AcDbArc
 50
180.0
 51
270.0
  0
ARC
  5
564
330
1F
100
AcDbEntity
  8
0
  6
Continuous
 62
     7
370
    35
100
AcDbCircle
 10
272.3306717514
 20
423.7332455804
 30
0.0
 40
0.6000000000000227
100
AcDbArc
 50
90.0
 51
180.0
  0
LINE
  5
565
330
1F
100
AcDbEntity
  8
0
  6
Continuous
 62
     7
370
    35
100
AcDbLine
 10
279.7306717514
 20
424.3332455804
 30
0.0
 11
272.3306717514
 21
424.3332455804
 31
0.0
  0
LINE
  5
566
330
1F
100
AcDbEntity
  8
0
  6
Continuous
 62
     7
370
    35
100
AcDbLine
 10
272.3306717514
 20
412.3332455804
 30
0.0
 11
279.7306717514
 21
412.3332455804
 31
0.0
  0
LINE
  5
567
330
1F
100
AcDbEntity
  8
0
  6
Continuous
 62
     7
370
    35
100
AcDbLine
 10
285.7306717514
 20
412.3332455804
 30
0.0
 11
279.7306717514
 21
412.3332455804
 31
0.0
  0
LINE
  5
568
330
1F
100
AcDbEntity
  8
0
  6
Continuous
 62
     7
370
    35
100
AcDbLine
 10
285.7306717514
 20
412.3332455804
 30
0.0
 11
285.7306717514
 21
409.3332455804
 31
0.0
  0
LINE
  5
569
330
1F
100
AcDbEntity
  8
0
  6
Continuous
 62
     7
370
    35
100
AcDbLine
 10
285.7306717514
 20
409.3332455804
 30
0.0
 11
279.7306717514
 21
409.3332455804
 31
0.0
  0
LINE
  5
56A
330
1F
100
AcDbEntity
  8
0
  6
Continuous
 62
     7
370
    35
100
AcDbLine
 10
279.7306717514
 20
412.3332455804
 30
0.0
 11
279.7306717514
 21
409.3332455804
 31
0.0
  0
LINE
  5
56B
330
1F
100
AcDbEntity
  8
0
  6
Continuous
 62
     7
370
    35
100
AcDbLine
 10
285.7306717514
 20
529.3332455804
 30
0.0
 11
279.7306717514
 21
529.3332455804
 31
0.0
  0
LINE
  5
56C
330
1F
100
AcDbEntity
  8
0
  6
Continuous
 62
     7
370
    35
100
AcDbLine
 10
285.7306717514
 20
529.3332455804
 30
0.0
 11
285.7306717514
 21
526.3332455804
 31
0.0
  0
LINE
  5
56D
330
1F
100
AcDbEntity
  8
0
  6
Continuous
 62
     7
370
    35
100
AcDbLine
 10
285.7306717514
 20
526.3332455804
 30
0.0
 11
279.7306717514
 21
526.3332455804
 31
0.0
  0
LINE
  5
56E
330
1F
100
AcDbEntity
  8
0
  6
Continuous
 62
     7
370
    35
100
AcDbLine
 10
279.7306717514
 20
529.3332455804
 30
0.0
 11
279.7306717514
 21
526.3332455804
 31
0.0
  0
LINE
  5
56F
330
1F
100
AcDbEntity
  8
0
  6
Continuous
 62
     7
370
    35
100
AcDbLine
 10
285.7306717514
 20
526.3332455804
 30
0.0
 11
285.7306717514
 21
412.3332455804
 31
0.0
  0
LINE
  5
570
330
1F
100
AcDbEntity
  8
0
  6
Continuous
 62
     7
370
    35
100
AcDbLine
 10
279.7306717514
 20
526.3332455804
 30
0.0
 11
279.7306717514
 21
412.3332455804
 31
0.0
  0
LINE
  5
571
330
1F
100
AcDbEntity
  8
0
  6
Continuous
 62
     7
370
    35
100
AcDbLine
 10
319.2306717514
 20
452.3332455804
 30
0.0
 11
319.2306717514
 21
458.0332455804
 31
0.0
  0
LINE
  5
572
330
1F
100
AcDbEntity
  8
0
  6
Continuous
 62
     7
370
    35
100
AcDbLine
 10
319.2306717514
 20
446.6332455804
 30
0.0
 11
319.2306717514
 21
452.3332455804
 31
0.0
  0
LINE
  5
573
330
1F
100
AcDbEntity
  8
0
  6
Continuous
 62
     7
370
    35
100
AcDbLine
 10
319.5306717514
 20
452.3332455804
 30
0.0
 11
319.5306717514
 21
446.3332455804
 31
0.0
  0
LINE
  5
574
330
1F
100
AcDbEntity
  8
0
  6
Continuous
 62
     7
370
    35
100
AcDbLine
 10
319.5306717514
 20
458.3332455804
 30
0.0
 11
319.5306717514
 21
452.3332455804
 31
0.0
  0
LINE
  5
575
330
1F
100
AcDbEntity
  8
0
  6
Continuous
 62
     7
370
    35
100
AcDbLine
 10
319.9306717514
 20
446.3332455804
 30
0.0
 11
319.9306717514
 21
458.3332455804
 31
0.0
  0
LINE
  5
576
330
1F
100
AcDbEntity
  8
0
  6
Continuous
 62
     7
370
    35
100
AcDbLine
 10
315.2306717514
 20
448.1332455804
 30
0.0
 11
315.2306717514
 21
452.3332455804
 31
0.0
  0
LINE
  5
577
330
1F
100
AcDbEntity
  8
0
  6
Continuous
 62
     7
370
    35
100
AcDbLine
 10
315.5306717514
 20
455.1925525625
 30
0.0
 11
315.5306717514
 21
447.8332455804
 31
0.0
  0
LINE
  5
578
330
1F
100
AcDbEntity
  8
0
  6
Continuous
 62
     7
370
    35
100
AcDbLine
 10
319.2306717514
 20
418.3332455804
 30
0.0
 11
319.2306717514
 21
424.0332455804
 31
0.0
  0
LINE
  5
579
330
1F
100
AcDbEntity
  8
0
  6
Continuous
 62
     7
370
    35
100
AcDbLine
 10
319.2306717514
 20
412.6332455804
 30
0.0
 11
319.2306717514
 21
418.3332455804
 31
0.0
  0
LINE
  5
57A
330
1F
100
AcDbEntity
  8
0
  6
Continuous
 62
     7
370
    35
100
AcDbLine
 10
319.5306717514
 20
418.3332455804
 30
0.0
 11
319.5306717514
 21
412.3332455804
 31
0.0
  0
LINE
  5
57B
330
1F
100
AcDbEntity
  8
0
  6
Continuous
 62
     7
370
    35
100
AcDbLine
 10
319.5306717514
 20
424.3332455804
 30
0.0
 11
319.5306717514
 21
418.3332455804
 31
0.0
  0
LINE
  5
57C
330
1F
100
AcDbEntity
  8
0
  6
Continuous
 62
     7
370
    35
100
AcDbLine
 10
319.9306717514
 20
412.3332455804
 30
0.0
 11
319.9306717514
 21
424.3332455804
 31
0.0
  0
LINE
  5
57D
330
1F
100
AcDbEntity
  8
0
  6
Continuous
 62
     7
370
    35
100
AcDbLine
 10
315.2306717514
 20
414.1332455804
 30
0.0
 11
315.2306717514
 21
418.3332455804
 31
0.0
  0
LINE
  5
57E
330
1F
100
AcDbEntity
  8
0
  6
Continuous
 62
     7
370
    35
100
AcDbLine
 10
315.5306717514
 20
421.1925525625
 30
0.0
 11
315.5306717514
 21
413.8332455804
 31
0.0
  0
LINE
  5
57F
330
1F
100
AcDbEntity
  8
0
  6
Continuous
 62
     7
370
    35
100
AcDbLine
 10
261.2306717514
 20
421.8332455804
 30
0.0
 11
261.2306717514
 21
414.8332455804
 31
0.0
  0
LINE
  5
580
330
1F
100
AcDbEntity
  8
0
  6
Continuous
 62
     7
370
    35
100
AcDbLine
 10
260.5306717514
 20
421.2832455804
 30
0.0
 11
260.5306717514
 21
415.3832455804
 31
0.0
  0
LINE
  5
581
330
1F
100
AcDbEntity
  8
0
  6
Continuous
 62
     7
370
    35
100
AcDbLine
 10
257.5306717514
 20
415.8832455804
 30
0.0
 11
257.5306717514
 21
420.7832455804
 31
0.0
  0
LINE
  5
582
330
1F
100
AcDbEntity
  8
0
  6
Continuous
 62
     7
370
    35
100
AcDbLine
 10
257.8306717514
 20
421.0832455804
 30
0.0
 11
257.8306717514
 21
415.5832455804
 31
0.0
  0
LINE
  5
583
330
1F
100
AcDbEntity
  8
0
  6
Continuous
 62
     7
370
    35
100
AcDbLine
 10
261.2306717514
 20
455.8332455804
 30
0.0
 11
261.2306717514
 21
448.8332455804
 31
0.0
  0
LINE
  5
584
330
1F
100
AcDbEntity
  8
0
  6
Continuous
 62
     7
370
    35
100
AcDbLine
 10
260.5306717514
 20
455.2832455804
 30
0.0
 11
260.5306717514
 21
449.3832455804
 31
0.0
  0
LINE
  5
585
330
1F
100
AcDbEntity
  8
0
  6
Continuous
 62
     7
370
    35
100
AcDbLine
 10
257.5306717514
 20
449.8832455804
 30
0.0
 11
257.5306717514
 21
454.7832455804
 31
0.0
  0
LINE
  5
586
330
1F
100
AcDbEntity
  8
0
  6
Continuous
 62
     7
370
    35
100
AcDbLine
 10
257.8306717514
 20
455.0832455804
 30
0.0
 11
257.8306717514
 21
449.5832455804
 31
0.0
  0
CIRCLE
  5
587
330
1F
100
AcDbEntity
  8
0
  6
Continuous
 62
     7
370
    35
100
AcDbCircle
 10
265.7306717514
 20
412.3332455804
 30
0.0
 40
2.449999999999989
  0
CIRCLE
  5
588
330
1F
100
AcDbEntity
  8
0
  6
Continuous
 62
     7
370
    35
100
AcDbCircle
 10
265.7306717514
 20
412.3332455804
 30
0.0
 40
2.749999999999943
  0
LINE
  5
589
330
1F
100
AcDbEntity
  8
0
  6
Continuous
 62
     7
370
    35
100
AcDbLine
 10
267.1740474244
 20
412.3332455804
 30
0.0
 11
266.4523595879
 21
413.5832455804
 31
0.0
  0
LINE
  5
58A
330
1F
100
AcDbEntity
  8
0
  6
Continuous
 62
     7
370
    35
100
AcDbLine
 10
266.4523595879
 20
413.5832455804
 30
0.0
 11
265.0089839149
 21
413.5832455804
 31
0.0
  0
LINE
  5
58B
330
1F
100
AcDbEntity
  8
0
  6
Continuous
 62
     7
370
    35
100
AcDbLine
 10
265.0089839149
 20
413.5832455804
 30
0.0
 11
264.2872960784
 21
412.3332455804
 31
0.0
  0
LINE
  5
58C
330
1F
100
AcDbEntity
  8
0
  6
Continuous
 62
     7
370
    35
100
AcDbLine
 10
264.2872960784
 20
412.3332455804
 30
0.0
 11
265.0089839149
 21
411.0832455804
 31
0.0
  0
LINE
  5
58D
330
1F
100
AcDbEntity
  8
0
  6
Continuous
 62
     7
370
    35
100
AcDbLine
 10
265.0089839149
 20
411.0832455804
 30
0.0
 11
266.4523595879
 21
411.0832455804
 31
0.0
  0
LINE
  5
58E
330
1F
100
AcDbEntity
  8
0
  6
Continuous
 62
     7
370
    35
100
AcDbLine
 10
266.4523595879
 20
411.0832455804
 30
0.0
 11
267.1740474244
 21
412.3332455804
 31
0.0
  0
LINE
  5
58F
330
1F
100
AcDbEntity
  8
0
  6
Continuous
 62
     7
370
    35
100
AcDbLine
 10
264.2872960784
 20
412.3332455804
 30
0.0
 11
265.7306717514
 21
412.3332455804
 31
0.0
  0
LINE
  5
590
330
1F
100
AcDbEntity
  8
0
  6
Continuous
 62
     7
370
    35
100
AcDbLine
 10
265.0089839149
 20
411.0832455804
 30
0.0
 11
265.7306717514
 21
412.3332455804
 31
0.0
  0
LINE
  5
591
330
1F
100
AcDbEntity
  8
0
  6
Continuous
 62
     7
370
    35
100
AcDbLine
 10
265.0089839149
 20
413.5832455804
 30
0.0
 11
265.7306717514
 21
412.3332455804
 31
0.0
  0
LINE
  5
592
330
1F
100
AcDbEntity
  8
0
  6
Continuous
 62
     7
370
    35
100
AcDbLine
 10
266.4523595879
 20
413.5832455804
 30
0.0
 11
265.7306717514
 21
412.3332455804
 31
0.0
  0
LINE
  5
593
330
1F
100
AcDbEntity
  8
0
  6
Continuous
 62
     7
370
    35
100
AcDbLine
 10
265.7306717514
 20
412.3332455804
 30
0.0
 11
266.4523595879
 21
411.0832455804
 31
0.0
  0
LINE
  5
594
330
1F
100
AcDbEntity
  8
0
  6
Continuous
 62
     7
370
    35
100
AcDbLine
 10
267.1740474244
 20
412.3332455804
 30
0.0
 11
265.7306717514
 21
412.3332455804
 31
0.0
  0
CIRCLE
  5
595
330
1F
100
AcDbEntity
  8
0
  6
Continuous
 62
     7
370
    35
100
AcDbCircle
 10
265.7306717514
 20
446.3332455804
 30
0.0
 40
2.449999999999989
  0
CIRCLE
  5
596
330
1F
100
AcDbEntity
  8
0
  6
Continuous
 62
     7
370
    35
100
AcDbCircle
 10
265.7306717514
 20
446.3332455804
 30
0.0
 40
2.749999999999943
  0
LINE
  5
597
330
1F
100
AcDbEntity
  8
0
  6
Continuous
 62
     7
370
    35
100
AcDbLine
 10
267.1740474244
 20
446.3332455804
 30
0.0
 11
266.4523595879
 21
447.5832455804
 31
0.0
  0
LINE
  5
598
330
1F
100
AcDbEntity
  8
0
  6
Continuous
 62
     7
370
    35
100
AcDbLine
 10
266.4523595879
 20
447.5832455804
 30
0.0
 11
265.0089839149
 21
447.5832455804
 31
0.0
  0
LINE
  5
599
330
1F
100
AcDbEntity
  8
0
  6
Continuous
 62
     7
370
    35
100
AcDbLine
 10
265.0089839149
 20
447.5832455804
 30
0.0
 11
264.2872960784
 21
446.3332455804
 31
0.0
  0
LINE
  5
59A
330
1F
100
AcDbEntity
  8
0
  6
Continuous
 62
     7
370
    35
100
AcDbLine
 10
264.2872960784
 20
446.3332455804
 30
0.0
 11
265.0089839149
 21
445.0832455804
 31
0.0
  0
LINE
  5
59B
330
1F
100
AcDbEntity
  8
0
  6
Continuous
 62
     7
370
    35
100
AcDbLine
 10
265.0089839149
 20
445.0832455804
 30
0.0
 11
266.4523595879
 21
445.0832455804
 31
0.0
  0
LINE
  5
59C
330
1F
100
AcDbEntity
  8
0
  6
Continuous
 62
     7
370
    35
100
AcDbLine
 10
266.4523595879
 20
445.0832455804
 30
0.0
 11
267.1740474244
 21
446.3332455804
 31
0.0
  0
LINE
  5
59D
330
1F
100
AcDbEntity
  8
0
  6
Continuous
 62
     7
370
    35
100
AcDbLine
 10
265.0089839149
 20
447.5832455804
 30
0.0
 11
265.7306717514
 21
446.3332455804
 31
0.0
  0
LINE
  5
59E
330
1F
100
AcDbEntity
  8
0
  6
Continuous
 62
     7
370
    35
100
AcDbLine
 10
264.2872960784
 20
446.3332455804
 30
0.0
 11
265.7306717514
 21
446.3332455804
 31
0.0
  0
LINE
  5
59F
330
1F
100
AcDbEntity
  8
0
  6
Continuous
 62
     7
370
    35
100
AcDbLine
 10
265.0089839149
 20
445.0832455804
 30
0.0
 11
265.7306717514
 21
446.3332455804
 31
0.0
  0
LINE
  5
5A0
330
1F
100
AcDbEntity
  8
0
  6
Continuous
 62
     7
370
    35
100
AcDbLine
 10
266.4523595879
 20
447.5832455804
 30
0.0
 11
265.7306717514
 21
446.3332455804
 31
0.0
  0
LINE
  5
5A1
330
1F
100
AcDbEntity
  8
0
  6
Continuous
 62
     7
370
    35
100
AcDbLine
 10
265.7306717514
 20
446.3332455804
 30
0.0
 11
266.4523595879
 21
445.0832455804
 31
0.0
  0
LINE
  5
5A2
330
1F
100
AcDbEntity
  8
0
  6
Continuous
 62
     7
370
    35
100
AcDbLine
 10
267.1740474244
 20
446.3332455804
 30
0.0
 11
265.7306717514
 21
446.3332455804
 31
0.0
  0
LINE
  5
5A3
330
1F
100
AcDbEntity
  8
0
  6
Continuous
 62
     7
370
    35
100
AcDbLine
 10
279.3306717514
 20
451.1332455804
 30
0.0
 11
279.3306717514
 21
453.5332455804
 31
0.0
  0
LINE
  5
5A4
330
1F
100
AcDbEntity
  8
0
  6
Continuous
 62
     7
370
    35
100
AcDbLine
 10
279.6306717514
 20
453.8332455804
 30
0.0
 11
279.6306717514
 21
450.8332455804
 31
0.0
  0
LINE
  5
5A5
330
1F
100
AcDbEntity
  8
0
  6
Continuous
 62
     7
370
    35
100
AcDbLine
 10
279.3306717514
 20
417.1332455804
 30
0.0
 11
279.3306717514
 21
419.5332455804
 31
0.0
  0
LINE
  5
5A6
330
1F
100
AcDbEntity
  8
0
  6
Continuous
 62
     7
370
    35
100
AcDbLine
 10
279.6306717514
 20
419.8332455804
 30
0.0
 11
279.6306717514
 21
416.8332455804
 31
0.0
  0
LINE
  5
5A7
330
1F
100
AcDbEntity
  8
0
  6
Continuous
 62
     7
370
    35
100
AcDbLine
 10
262.2306717514
 20
462.3332455804
 30
0.0
 11
262.2306717514
 21
442.3457534027
 31
0.0
  0
LINE
  5
5A8
330
1F
100
AcDbEntity
  8
0
  6
Continuous
 62
     7
370
    35
100
AcDbLine
 10
262.2306717514
 20
442.3457534027
 30
0.0
 11
261.7306717514
 21
442.8464125999
 31
0.0
  0
LINE
  5
5A9
330
1F
100
AcDbEntity
  8
0
  6
Continuous
 62
     7
370
    35
100
AcDbLine
 10
261.7306717514
 20
442.8464125999
 30
0.0
 11
261.7306717514
 21
461.8332455804
 31
0.0
  0
LINE
  5
5AA
330
1F
100
AcDbEntity
  8
0
  6
Continuous
 62
     7
370
    35
100
AcDbLine
 10
269.2306717514
 20
442.3457534027
 30
0.0
 11
269.2306717514
 21
459.3332455804
 31
0.0
  0
LINE
  5
5AB
330
1F
100
AcDbEntity
  8
0
  6
Continuous
 62
     7
370
    35
100
AcDbLine
 10
262.2306717514
 20
442.3457534027
 30
0.0
 11
269.2306717514
 21
442.3457534027
 31
0.0
  0
CIRCLE
  5
5AC
330
1F
100
AcDbEntity
  8
0
  6
Continuous
 62
     7
370
    35
100
AcDbCircle
 10
265.7306717514
 20
446.3332455804
 30
0.0
 40
3.0
  0
LINE
  5
5AD
330
1F
100
AcDbEntity
  8
0
  6
Continuous
 62
     7
370
    35
100
AcDbLine
 10
269.7306717514
 20
459.3332455804
 30
0.0
 11
269.7306717514
 21
442.8464125999
 31
0.0
  0
LINE
  5
5AE
330
1F
100
AcDbEntity
  8
0
  6
Continuous
 62
     7
370
    35
100
AcDbLine
 10
269.7306717514
 20
442.8464125999
 30
0.0
 11
269.2306717514
 21
442.3457534027
 31
0.0
  0
LINE
  5
5AF
330
1F
100
AcDbEntity
  8
0
  6
Continuous
 62
     7
370
    35
100
AcDbLine
 10
262.2306717514
 20
428.3332455804
 30
0.0
 11
262.2306717514
 21
408.3457534027
 31
0.0
  0
LINE
  5
5B0
330
1F
100
AcDbEntity
  8
0
  6
Continuous
 62
     7
370
    35
100
AcDbLine
 10
262.2306717514
 20
408.3457534027
 30
0.0
 11
261.7306717514
 21
408.8464125999
 31
0.0
  0
LINE
  5
5B1
330
1F
100
AcDbEntity
  8
0
  6
Continuous
 62
     7
370
    35
100
AcDbLine
 10
261.7306717514
 20
408.8464125999
 30
0.0
 11
261.7306717514
 21
427.8332455804
 31
0.0
  0
LINE
  5
5B2
330
1F
100
AcDbEntity
  8
0
  6
Continuous
 62
     7
370
    35
100
AcDbLine
 10
269.2306717514
 20
408.3457534027
 30
0.0
 11
269.2306717514
 21
428.3332455804
 31
0.0
  0
LINE
  5
5B3
330
1F
100
AcDbEntity
  8
0
  6
Continuous
 62
     7
370
    35
100
AcDbLine
 10
262.2306717514
 20
408.3457534027
 30
0.0
 11
269.2306717514
 21
408.3457534027
 31
0.0
  0
CIRCLE
  5
5B4
330
1F
100
AcDbEntity
  8
0
  6
Continuous
 62
     7
370
    35
100
AcDbCircle
 10
265.7306717514
 20
412.3332455804
 30
0.0
 40
2.999999999999943
  0
LINE
  5
5B5
330
1F
100
AcDbEntity
  8
0
  6
Continuous
 62
     7
370
    35
100
AcDbLine
 10
269.7306717514
 20
427.8332455804
 30
0.0
 11
269.7306717514
 21
408.8464125999
 31
0.0
  0
LINE
  5
5B6
330
1F
100
AcDbEntity
  8
0
  6
Continuous
 62
     7
370
    35
100
AcDbLine
 10
269.7306717514
 20
408.8464125999
 30
0.0
 11
269.2306717514
 21
408.3457534027
 31
0.0
  0
LINE
  5
5B7
330
1F
100
AcDbEntity
  8
0
  6
Continuous
 62
     7
370
    35
100
AcDbLine
 10
271.7306717514
 20
425.8332455804
 30
0.0
 11
271.7306717514
 21
410.8332455804
 31
0.0
  0
LINE
  5
5B8
330
1F
100
AcDbEntity
  8
0
  6
Continuous
 62
     7
370
    35
100
AcDbLine
 10
271.7306717514
 20
459.8332455804
 30
0.0
 11
271.7306717514
 21
444.8332455804
 31
0.0
  0
ARC
  5
5B9
330
1F
100
AcDbEntity
  8
0
  6
Continuous
 62
     7
370
    35
100
AcDbCircle
 10
292.3306717514
 20
423.8332455804
 30
0.0
 40
0.3000000000000019
100
AcDbArc
 50
271.6266387053
 51
90.0
  0
ARC
  5
5BA
330
1F
100
AcDbEntity
  8
0
  6
Continuous
 62
     7
370
    35
100
AcDbCircle
 10
292.3306717514
 20
423.8332455804
 30
0.0
 40
0.2999999999999471
100
AcDbArc
 50
151.9239888363
 51
185.9937750476
  0
ARC
  5
5BB
330
1F
100
AcDbEntity
  8
0
  6
Continuous
 62
     7
370
    35
100
AcDbCircle
 10
318.6306717514
 20
423.8332455804
 30
0.0
 40
0.2999999999999632
100
AcDbArc
 50
269.9589283782
 51
90.0
  0
ARC
  5
5BC
330
1F
100
AcDbEntity
  8
0
  6
Continuous
 62
     7
370
    35
100
AcDbCircle
 10
292.0306717514
 20
412.8332455804
 30
0.0
 40
0.3000000000000348
100
AcDbArc
 50
180.0000000017
 51
270.0389262695
  0
LINE
  5
5BD
330
1F
100
AcDbEntity
  8
0
  6
Continuous
 62
     7
370
    35
100
AcDbLine
 10
292.0305540662
 20
413.1332455574
 30
0.0
 11
292.0213338584
 21
413.1331002181
 31
0.0
  0
LINE
  5
5BE
330
1F
100
AcDbEntity
  8
0
  6
Continuous
 62
     7
370
    35
100
AcDbLine
 10
319.2306717514
 20
412.9091959358
 30
0.0
 11
319.2306717514
 21
424.1332455804
 31
0.0
  0
ARC
  5
5BF
330
1F
100
AcDbEntity
  8
0
  6
Continuous
 62
     7
370
    35
100
AcDbCircle
 10
291.7306717514
 20
423.8332455804
 30
0.0
 40
0.3000000000000114
100
AcDbArc
 50
0.0
 51
90.0
  0
ARC
  5
5C0
330
1F
100
AcDbEntity
  8
0
  6
Continuous
 62
     7
370
    35
100
AcDbCircle
 10
291.7306717514
 20
423.8332455804
 30
0.0
 40
0.3000000000000114
100
AcDbArc
 50
270.0
 51
0.0
  0
LINE
  5
5C1
330
1F
100
AcDbEntity
  8
0
  6
Continuous
 62
     7
370
    35
100
AcDbLine
 10
291.7306717514
 20
424.1332455804
 30
0.0
 11
291.7306717514
 21
424.0332455802
 31
0.0
  0
ARC
  5
5C2
330
1F
100
AcDbEntity
  8
0
  6
Continuous
 62
     7
370
    35
100
AcDbCircle
 10
292.3306717514
 20
457.8332455804
 30
0.0
 40
0.3000000000000114
100
AcDbArc
 50
271.6266387053
 51
90.0
  0
ARC
  5
5C3
330
1F
100
AcDbEntity
  8
0
  6
Continuous
 62
     7
370
    35
100
AcDbCircle
 10
292.3306717514
 20
457.8332455804
 30
0.0
 40
0.2999999999999855
100
AcDbArc
 50
151.9239888363
 51
185.9937750476
  0
ARC
  5
5C4
330
1F
100
AcDbEntity
  8
0
  6
Continuous
 62
     7
370
    35
100
AcDbCircle
 10
318.6306717514
 20
457.8332455804
 30
0.0
 40
0.30000000000002
100
AcDbArc
 50
269.9589283782
 51
90.0
  0
ARC
  5
5C5
330
1F
100
AcDbEntity
  8
0
  6
Continuous
 62
     7
370
    35
100
AcDbCircle
 10
292.0306717514
 20
446.8332455804
 30
0.0
 40
0.3000000000000348
100
AcDbArc
 50
180.0000000017
 51
270.0389262695
  0
LINE
  5
5C6
330
1F
100
AcDbEntity
  8
0
  6
Continuous
 62
     7
370
    35
100
AcDbLine
 10
292.0305540662
 20
447.1332455574
 30
0.0
 11
292.0213338584
 21
447.1331002181
 31
0.0
  0
LINE
  5
5C7
330
1F
100
AcDbEntity
  8
0
  6
Continuous
 62
     7
370
    35
100
AcDbLine
 10
319.2306717514
 20
446.9091959358
 30
0.0
 11
319.2306717514
 21
458.1332455804
 31
0.0
  0
ARC
  5
5C8
330
1F
100
AcDbEntity
  8
0
  6
Continuous
 62
     7
370
    35
100
AcDbCircle
 10
291.7306717514
 20
457.8332455804
 30
0.0
 40
0.3000000000000114
100
AcDbArc
 50
0.0
 51
90.0
  0
ARC
  5
5C9
330
1F
100
AcDbEntity
  8
0
  6
Continuous
 62
     7
370
    35
100
AcDbCircle
 10
291.7306717514
 20
457.8332455804
 30
0.0
 40
0.3000000000000114
100
AcDbArc
 50
270.0
 51
0.0
  0
LINE
  5
5CA
330
1F
100
AcDbEntity
  8
0
  6
Continuous
 62
     7
370
    35
100
AcDbLine
 10
291.7306717514
 20
458.1332455804
 30
0.0
 11
291.7306717514
 21
458.0332455802
 31
0.0
  0
LINE
  5
5CB
330
1F
100
AcDbEntity
  8
0
  6
Continuous
 62
     7
370
    35
100
AcDbLine
 10
291.4306717514
 20
424.3332455806
 30
0.0
 11
291.4306717514
 21
412.3332455802
 31
0.0
  0
LINE
  5
5CC
330
1F
100
AcDbEntity
  8
0
  6
Continuous
 62
     7
370
    35
100
AcDbLine
 10
291.0306717514
 20
424.3332455806
 30
0.0
 11
291.0306717514
 21
412.3332455802
 31
0.0
  0
LINE
  5
5CD
330
1F
100
AcDbEntity
  8
0
  6
Continuous
 62
     7
370
    35
100
AcDbLine
 10
291.7306717514
 20
418.3332455804
 30
0.0
 11
291.7306717514
 21
412.6332455807
 31
0.0
  0
LINE
  5
5CE
330
1F
100
AcDbEntity
  8
0
  6
Continuous
 62
     7
370
    35
100
AcDbLine
 10
291.7306717514
 20
424.0332455802
 30
0.0
 11
291.7306717514
 21
418.3332455804
 31
0.0
  0
LINE
  5
5CF
330
1F
100
AcDbEntity
  8
0
  6
Continuous
 62
     7
370
    35
100
AcDbLine
 10
295.4306717514
 20
422.0832455803
 30
0.0
 11
295.4306717514
 21
414.5832455805
 31
0.0
  0
LINE
  5
5D0
330
1F
100
AcDbEntity
  8
0
  6
Continuous
 62
     7
370
    35
100
AcDbLine
 10
295.7306717514
 20
418.3332455804
 30
0.0
 11
295.7306717514
 21
421.7832455808
 31
0.0
  0
LINE
  5
5D1
330
1F
100
AcDbEntity
  8
0
  6
Continuous
 62
     7
370
    35
100
AcDbLine
 10
295.7306717514
 20
414.8832455801
 30
0.0
 11
295.7306717514
 21
418.3332455804
 31
0.0
  0
LINE
  5
5D2
330
1F
100
AcDbEntity
  8
0
  6
Continuous
 62
     7
370
    35
100
AcDbLine
 10
291.0306717514
 20
458.3332455806
 30
0.0
 11
291.0306717514
 21
446.3332455802
 31
0.0
  0
LINE
  5
5D3
330
1F
100
AcDbEntity
  8
0
  6
Continuous
 62
     7
370
    35
100
AcDbLine
 10
291.4306717514
 20
458.3332455806
 30
0.0
 11
291.4306717514
 21
446.3332455802
 31
0.0
  0
LINE
  5
5D4
330
1F
100
AcDbEntity
  8
0
  6
Continuous
 62
     7
370
    35
100
AcDbLine
 10
291.7306717514
 20
452.3332455804
 30
0.0
 11
291.7306717514
 21
446.6332455807
 31
0.0
  0
LINE
  5
5D5
330
1F
100
AcDbEntity
  8
0
  6
Continuous
 62
     7
370
    35
100
AcDbLine
 10
291.7306717514
 20
458.0332455802
 30
0.0
 11
291.7306717514
 21
452.3332455804
 31
0.0
  0
LINE
  5
5D6
330
1F
100
AcDbEntity
  8
0
  6
Continuous
 62
     7
370
    35
100
AcDbLine
 10
295.4306717514
 20
456.0832455803
 30
0.0
 11
295.4306717514
 21
448.5832455805
 31
0.0
  0
LINE
  5
5D7
330
1F
100
AcDbEntity
  8
0
  6
Continuous
 62
     7
370
    35
100
AcDbLine
 10
295.7306717514
 20
452.3332455804
 30
0.0
 11
295.7306717514
 21
455.7832455808
 31
0.0
  0
LINE
  5
5D8
330
1F
100
AcDbEntity
  8
0
  6
Continuous
 62
     7
370
    35
100
AcDbLine
 10
295.7306717514
 20
448.8832455801
 30
0.0
 11
295.7306717514
 21
452.3332455804
 31
0.0
  0
LINE
  5
5D9
330
1F
100
AcDbEntity
  8
0
  6
Continuous
 62
     7
370
    35
100
AcDbLine
 10
286.5306717514
 20
496.3332455804
 30
0.0
 11
286.5306717514
 21
506.3332455804
 31
0.0
  0
LINE
  5
5DA
330
1F
100
AcDbEntity
  8
0
  6
Continuous
 62
     7
370
    35
100
AcDbLine
 10
287.5306717514
 20
497.5332455804
 30
0.0
 11
287.5306717514
 21
505.1332455804
 31
0.0
  0
LINE
  5
5DB
330
1F
100
AcDbEntity
  8
0
  6
Continuous
 62
     7
370
    35
100
AcDbLine
 10
291.1306717514
 20
497.8332455804
 30
0.0
 11
291.1306717514
 21
504.8332455804
 31
0.0
  0
LINE
  5
5DC
330
1F
100
AcDbEntity
  8
0
  6
Continuous
 62
     7
370
    35
100
AcDbLine
 10
291.5306717514
 20
498.2638530127
 30
0.0
 11
291.5306717514
 21
498.2332455804
 31
0.0
  0
LINE
  5
5DD
330
1F
100
AcDbEntity
  8
0
  6
Continuous
 62
     7
370
    35
100
AcDbLine
 10
291.5306717514
 20
504.4332455804
 30
0.0
 11
291.5306717514
 21
498.2638530127
 31
0.0
  0
LINE
  5
5DE
330
1F
100
AcDbEntity
  8
0
  6
Continuous
 62
     7
370
    35
100
AcDbLine
 10
286.5306717514
 20
516.3332455804
 30
0.0
 11
286.5306717514
 21
526.3332455804
 31
0.0
  0
LINE
  5
5DF
330
1F
100
AcDbEntity
  8
0
  6
Continuous
 62
     7
370
    35
100
AcDbLine
 10
287.5306717514
 20
517.5332455804
 30
0.0
 11
287.5306717514
 21
525.1332455804
 31
0.0
  0
LINE
  5
5E0
330
1F
100
AcDbEntity
  8
0
  6
Continuous
 62
     7
370
    35
100
AcDbLine
 10
291.1306717514
 20
517.8332455804
 30
0.0
 11
291.1306717514
 21
524.8332455804
 31
0.0
  0
LINE
  5
5E1
330
1F
100
AcDbEntity
  8
0
  6
Continuous
 62
     7
370
    35
100
AcDbLine
 10
291.5306717514
 20
518.2638530127
 30
0.0
 11
291.5306717514
 21
518.2332455804
 31
0.0
  0
LINE
  5
5E2
330
1F
100
AcDbEntity
  8
0
  6
Continuous
 62
     7
370
    35
100
AcDbLine
 10
291.5306717514
 20
524.4332455804
 30
0.0
 11
291.5306717514
 21
518.2638530127
 31
0.0
  0
LINE
  5
5E3
330
1F
100
AcDbEntity
  8
0
  6
Continuous
 62
     7
370
    35
100
AcDbLine
 10
286.5306717514
 20
459.3332455804
 30
0.0
 11
286.5306717514
 21
469.3332455804
 31
0.0
  0
LINE
  5
5E4
330
1F
100
AcDbEntity
  8
0
  6
Continuous
 62
     7
370
    35
100
AcDbLine
 10
287.5306717514
 20
460.5332455804
 30
0.0
 11
287.5306717514
 21
468.1332455804
 31
0.0
  0
LINE
  5
5E5
330
1F
100
AcDbEntity
  8
0
  6
Continuous
 62
     7
370
    35
100
AcDbLine
 10
291.1306717514
 20
460.8332455804
 30
0.0
 11
291.1306717514
 21
467.8332455804
 31
0.0
  0
LINE
  5
5E6
330
1F
100
AcDbEntity
  8
0
  6
Continuous
 62
     7
370
    35
100
AcDbLine
 10
291.5306717514
 20
461.2638530127
 30
0.0
 11
291.5306717514
 21
461.2332455804
 31
0.0
  0
LINE
  5
5E7
330
1F
100
AcDbEntity
  8
0
  6
Continuous
 62
     7
370
    35
100
AcDbLine
 10
291.5306717514
 20
467.4332455804
 30
0.0
 11
291.5306717514
 21
461.2638530127
 31
0.0
  0
LINE
  5
5E8
330
1F
100
AcDbEntity
  8
0
  6
Continuous
 62
     7
370
    35
100
AcDbLine
 10
286.5306717514
 20
479.3332455804
 30
0.0
 11
286.5306717514
 21
489.3332455804
 31
0.0
  0
LINE
  5
5E9
330
1F
100
AcDbEntity
  8
0
  6
Continuous
 62
     7
370
    35
100
AcDbLine
 10
287.5306717514
 20
480.5332455804
 30
0.0
 11
287.5306717514
 21
488.1332455804
 31
0.0
  0
LINE
  5
5EA
330
1F
100
AcDbEntity
  8
0
  6
Continuous
 62
     7
370
    35
100
AcDbLine
 10
291.1306717514
 20
480.8332455804
 30
0.0
 11
291.1306717514
 21
487.8332455804
 31
0.0
  0
LINE
  5
5EB
330
1F
100
AcDbEntity
  8
0
  6
Continuous
 62
     7
370
    35
100
AcDbLine
 10
291.5306717514
 20
481.2638530127
 30
0.0
 11
291.5306717514
 21
481.2332455804
 31
0.0
  0
LINE
  5
5EC
330
1F
100
AcDbEntity
  8
0
  6
Continuous
 62
     7
370
    35
100
AcDbLine
 10
291.5306717514
 20
487.4332455804
 30
0.0
 11
291.5306717514
 21
481.2638530127
 31
0.0
  0
LINE
  5
5ED
330
1F
100
AcDbEntity
  8
0
  6
Continuous
 62
     7
370
    35
100
AcDbLine
 10
265.2306717514
 20
526.3332455804
 30
0.0
 11
263.7306717514
 21
524.8332455804
 31
0.0
  0
LINE
  5
5EE
330
1F
100
AcDbEntity
  8
0
  6
Continuous
 62
     7
370
    35
100
AcDbLine
 10
271.2306717514
 20
526.3332455804
 30
0.0
 11
265.2306717514
 21
526.3332455804
 31
0.0
  0
LINE
  5
5EF
330
1F
100
AcDbEntity
  8
0
  6
Continuous
 62
     7
370
    35
100
AcDbLine
 10
271.2306717514
 20
517.312375952
 30
0.0
 11
271.2306717514
 21
526.3332455804
 31
0.0
  0
ARC
  5
5F0
330
1F
100
AcDbEntity
  8
0
  6
Continuous
 62
     7
370
    35
100
AcDbCircle
 10
271.7306717514
 20
511.3332455804
 30
0.0
 40
5.999999999999992
100
AcDbArc
 50
94.7801918472
 51
265.2198081528
  0
LINE
  5
5F1
330
1F
100
AcDbEntity
  8
0
  6
Continuous
 62
     7
370
    35
100
AcDbLine
 10
271.2306717514
 20
496.3332455804
 30
0.0
 11
271.2306717514
 21
505.3541152089
 31
0.0
  0
LINE
  5
5F2
330
1F
100
AcDbEntity
  8
0
  6
Continuous
 62
     7
370
    35
100
AcDbLine
 10
265.2306717514
 20
496.3332455804
 30
0.0
 11
271.2306717514
 21
496.3332455804
 31
0.0
  0
LINE
  5
5F3
330
1F
100
AcDbEntity
  8
0
  6
Continuous
 62
     7
370
    35
100
AcDbLine
 10
263.7306717514
 20
524.8332455804
 30
0.0
 11
263.7306717514
 21
497.8332455804
 31
0.0
  0
LINE
  5
5F4
330
1F
100
AcDbEntity
  8
0
  6
Continuous
 62
     7
370
    35
100
AcDbLine
 10
263.7306717514
 20
497.8332455804
 30
0.0
 11
265.2306717514
 21
496.3332455804
 31
0.0
  0
LINE
  5
5F5
330
1F
100
AcDbEntity
  8
0
  6
Continuous
 62
     7
370
    35
100
AcDbLine
 10
265.2306717514
 20
489.3332455804
 30
0.0
 11
263.7306717514
 21
487.8332455804
 31
0.0
  0
LINE
  5
5F6
330
1F
100
AcDbEntity
  8
0
  6
Continuous
 62
     7
370
    35
100
AcDbLine
 10
271.2306717514
 20
489.3332455804
 30
0.0
 11
265.2306717514
 21
489.3332455804
 31
0.0
  0
LINE
  5
5F7
330
1F
100
AcDbEntity
  8
0
  6
Continuous
 62
     7
370
    35
100
AcDbLine
 10
271.2306717514
 20
480.312375952
 30
0.0
 11
271.2306717514
 21
489.3332455804
 31
0.0
  0
ARC
  5
5F8
330
1F
100
AcDbEntity
  8
0
  6
Continuous
 62
     7
370
    35
100
AcDbCircle
 10
271.7306717514
 20
474.3332455804
 30
0.0
 40
6.000000000000001
100
AcDbArc
 50
94.7801918472
 51
265.2198081528
  0
LINE
  5
5F9
330
1F
100
AcDbEntity
  8
0
  6
Continuous
 62
     7
370
    35
100
AcDbLine
 10
271.2306717514
 20
459.3332455804
 30
0.0
 11
271.2306717514
 21
468.3541152089
 31
0.0
  0
LINE
  5
5FA
330
1F
100
AcDbEntity
  8
0
  6
Continuous
 62
     7
370
    35
100
AcDbLine
 10
265.2306717514
 20
459.3332455804
 30
0.0
 11
271.2306717514
 21
459.3332455804
 31
0.0
  0
LINE
  5
5FB
330
1F
100
AcDbEntity
  8
0
  6
Continuous
 62
     7
370
    35
100
AcDbLine
 10
263.7306717514
 20
460.8332455804
 30
0.0
 11
265.2306717514
 21
459.3332455804
 31
0.0
  0
LINE
  5
5FC
330
1F
100
AcDbEntity
  8
0
  6
Continuous
 62
     7
370
    35
100
AcDbLine
 10
263.7306717514
 20
487.8332455804
 30
0.0
 11
263.7306717514
 21
460.8332455804
 31
0.0
  0
LINE
  5
5FD
330
1F
100
AcDbEntity
  8
0
  6
Continuous
 62
     7
370
    35
100
AcDbLine
 10
279.7306717514
 20
487.8332455804
 30
0.0
 11
278.2306717514
 21
489.3332455804
 31
0.0
  0
LINE
  5
5FE
330
1F
100
AcDbEntity
  8
0
  6
Continuous
 62
     7
370
    35
100
AcDbLine
 10
278.2306717514
 20
459.3332455804
 30
0.0
 11
279.7306717514
 21
460.8332455804
 31
0.0
  0
LINE
  5
5FF
330
1F
100
AcDbEntity
  8
0
  6
Continuous
 62
     7
370
    35
100
AcDbLine
 10
272.2306717514
 20
489.3332455804
 30
0.0
 11
272.2306717514
 21
480.312375952
 31
0.0
  0
LINE
  5
600
330
1F
100
AcDbEntity
  8
0
  6
Continuous
 62
     7
370
    35
100
AcDbLine
 10
278.2306717514
 20
489.3332455804
 30
0.0
 11
272.2306717514
 21
489.3332455804
 31
0.0
  0
LINE
  5
601
330
1F
100
AcDbEntity
  8
0
  6
Continuous
 62
     7
370
    35
100
AcDbLine
 10
272.2306717514
 20
459.3332455804
 30
0.0
 11
278.2306717514
 21
459.3332455804
 31
0.0
  0
ARC
  5
602
330
1F
100
AcDbEntity
  8
0
  6
Continuous
 62
     7
370
    35
100
AcDbCircle
 10
271.7306717514
 20
474.3332455804
 30
0.0
 40
6.000000000000001
100
AcDbArc
 50
274.7801918472
 51
85.2198081528
  0
LINE
  5
603
330
1F
100
AcDbEntity
  8
0
  6
Continuous
 62
     7
370
    35
100
AcDbLine
 10
272.2306717514
 20
468.3541152089
 30
0.0
 11
272.2306717514
 21
459.3332455804
 31
0.0
  0
LINE
  5
604
330
1F
100
AcDbEntity
  8
0
  6
Continuous
 62
     7
370
    35
100
AcDbLine
 10
272.2306717514
 20
505.3541152089
 30
0.0
 11
272.2306717514
 21
496.3332455804
 31
0.0
  0
LINE
  5
605
330
1F
100
AcDbEntity
  8
0
  6
Continuous
 62
     7
370
    35
100
AcDbLine
 10
279.7306717514
 20
524.8332455804
 30
0.0
 11
278.2306717514
 21
526.3332455804
 31
0.0
  0
LINE
  5
606
330
1F
100
AcDbEntity
  8
0
  6
Continuous
 62
     7
370
    35
100
AcDbLine
 10
278.2306717514
 20
496.3332455804
 30
0.0
 11
279.7306717514
 21
497.8332455804
 31
0.0
  0
LINE
  5
607
330
1F
100
AcDbEntity
  8
0
  6
Continuous
 62
     7
370
    35
100
AcDbLine
 10
272.2306717514
 20
496.3332455804
 30
0.0
 11
278.2306717514
 21
496.3332455804
 31
0.0
  0
LINE
  5
608
330
1F
100
AcDbEntity
  8
0
  6
Continuous
 62
     7
370
    35
100
AcDbLine
 10
278.2306717514
 20
526.3332455804
 30
0.0
 11
272.2306717514
 21
526.3332455804
 31
0.0
  0
ARC
  5
609
330
1F
100
AcDbEntity
  8
0
  6
Continuous
 62
     7
370
    35
100
AcDbCircle
 10
271.7306717514
 20
511.3332455804
 30
0.0
 40
6.000000000000001
100
AcDbArc
 50
274.7801918472
 51
85.2198081528
  0
LINE
  5
60A
330
1F
100
AcDbEntity
  8
0
  6
Continuous
 62
     7
370
    35
100
AcDbLine
 10
272.2306717514
 20
526.3332455804
 30
0.0
 11
272.2306717514
 21
517.312375952
 31
0.0
  0
LINE
  5
60B
330
1F
100
AcDbEntity
  8
0
  6
Continuous
 62
     7
370
    35
100
AcDbLine
 10
285.7306717514
 20
443.3332455804
 30
0.0
 11
290.7306717514
 21
443.3332455804
 31
0.0
  0
LINE
  5
60C
330
1F
100
AcDbEntity
  8
0
  6
Continuous
 62
     7
370
    35
100
AcDbLine
 10
290.7306717514
 20
460.8332455804
 30
0.0
 11
290.7306717514
 21
443.3332455804
 31
0.0
  0
LINE
  5
60D
330
1F
100
AcDbEntity
  8
0
  6
Continuous
 62
     7
370
    35
100
AcDbLine
 10
285.7306717514
 20
409.3332455804
 30
0.0
 11
290.7306717514
 21
409.3332455804
 31
0.0
  0
LINE
  5
60E
330
1F
100
AcDbEntity
  8
0
  6
Continuous
 62
     7
370
    35
100
AcDbLine
 10
285.7306717514
 20
427.3332455804
 30
0.0
 11
290.7306717514
 21
427.3332455804
 31
0.0
  0
LINE
  5
60F
330
1F
100
AcDbEntity
  8
0
  6
Continuous
 62
     7
370
    35
100
AcDbLine
 10
290.7306717514
 20
427.3332455804
 30
0.0
 11
290.7306717514
 21
409.3332455804
 31
0.0
  0
LINE
  5
610
330
1F
100
AcDbEntity
  8
0
  6
Continuous
 62
     7
370
    35
100
AcDbLine
 10
328.2306717514
 20
401.3332455804
 30
0.0
 11
320.2306717514
 21
401.3332455804
 31
0.0
  0
LINE
  5
611
330
1F
100
AcDbEntity
  8
0
  6
Continuous
 62
     7
370
    35
100
AcDbLine
 10
328.2306717514
 20
398.3332455804
 30
0.0
 11
328.2306717514
 21
401.3332455804
 31
0.0
  0
LINE
  5
612
330
1F
100
AcDbEntity
  8
0
  6
Continuous
 62
     7
370
    35
100
AcDbLine
 10
328.2306717514
 20
398.3332455804
 30
0.0
 11
320.2306717514
 21
398.3332455804
 31
0.0
  0
LINE
  5
613
330
1F
100
AcDbEntity
  8
0
  6
Continuous
 62
     7
370
    35
100
AcDbLine
 10
320.2306717514
 20
398.3332455804
 30
0.0
 11
320.2306717514
 21
401.3332455804
 31
0.0
  0
LINE
  5
614
330
1F
100
AcDbEntity
  8
0
  6
Continuous
 62
     7
370
    35
100
AcDbLine
 10
328.2306717514
 20
455.3332455804
 30
0.0
 11
320.2306717514
 21
455.3332455804
 31
0.0
  0
LINE
  5
615
330
1F
100
AcDbEntity
  8
0
  6
Continuous
 62
     7
370
    35
100
AcDbLine
 10
328.2306717514
 20
401.3332455804
 30
0.0
 11
328.2306717514
 21
455.3332455804
 31
0.0
  0
LINE
  5
616
330
1F
100
AcDbEntity
  8
0
  6
Continuous
 62
     7
370
    35
100
AcDbLine
 10
320.2306717514
 20
401.3332455804
 30
0.0
 11
320.2306717514
 21
455.3332455804
 31
0.0
  0
LINE
  5
617
330
1F
100
AcDbEntity
  8
0
  6
Continuous
 62
     7
370
    35
100
AcDbLine
 10
328.2306717514
 20
458.3332455804
 30
0.0
 11
320.2306717514
 21
458.3332455804
 31
0.0
  0
LINE
  5
618
330
1F
100
AcDbEntity
  8
0
  6
Continuous
 62
     7
370
    35
100
AcDbLine
 10
328.2306717514
 20
455.3332455804
 30
0.0
 11
328.2306717514
 21
458.3332455804
 31
0.0
  0
LINE
  5
619
330
1F
100
AcDbEntity
  8
0
  6
Continuous
 62
     7
370
    35
100
AcDbLine
 10
320.2306717514
 20
455.3332455804
 30
0.0
 11
320.2306717514
 21
458.3332455804
 31
0.0
  0
ARC
  5
61A
330
1F
100
AcDbEntity
  8
0
  6
Continuous
 62
    18
370
    35
100
AcDbCircle
 10
292.0306717514
 20
412.8332455804
 30
0.0
 40
0.3000000000000114
100
AcDbArc
 50
91.7836942917
 51
180.0000000017
  0
ARC
  5
61B
330
1F
100
AcDbEntity
  8
0
  6
Continuous
 62
    18
370
    35
100
AcDbCircle
 10
318.9306717514
 20
412.8332455804
 30
0.0
 40
0.3000000000000199
100
AcDbArc
 50
90.9228516343
 51
270.0756313915
  0
ARC
  5
61C
330
1F
100
AcDbEntity
  8
0
  6
Continuous
 62
    18
370
    35
100
AcDbCircle
 10
292.0306717514
 20
446.8332455804
 30
0.0
 40
0.2999999999999969
100
AcDbArc
 50
91.7836942917
 51
180.0000000017
  0
ARC
  5
61D
330
1F
100
AcDbEntity
  8
0
  6
Continuous
 62
    18
370
    35
100
AcDbCircle
 10
318.9306717514
 20
446.8332455804
 30
0.0
 40
0.3000000000000208
100
AcDbArc
 50
90.9228516343
 51
270.0756313915
  0
LINE
  5
61E
330
1F
100
AcDbEntity
  8
0
  6
Continuous
 62
    18
370
    35
100
AcDbLine
 10
272.3306717514
 20
452.3332455804
 30
0.0
 11
272.3306717514
 21
446.3332455804
 31
0.0
  0
LINE
  5
61F
330
1F
100
AcDbEntity
  8
0
  6
Continuous
 62
    18
370
    35
100
AcDbLine
 10
272.3306717514
 20
458.3332455804
 30
0.0
 11
272.3306717514
 21
452.3332455804
 31
0.0
  0
LINE
  5
620
330
1F
100
AcDbEntity
  8
0
  6
Continuous
 62
    18
370
    35
100
AcDbLine
 10
272.3306717514
 20
418.3332455804
 30
0.0
 11
272.3306717514
 21
412.3332455804
 31
0.0
  0
LINE
  5
621
330
1F
100
AcDbEntity
  8
0
  6
Continuous
 62
    18
370
    35
100
AcDbLine
 10
272.3306717514
 20
424.3332455804
 30
0.0
 11
272.3306717514
 21
418.3332455804
 31
0.0
  0
DIMENSION
  5
622
330
1F
100
AcDbEntity
  8
LIVELLO1
100
AcDbDimension
  2
_D_14
 10
348.2306717514
 20
511.3332455804
 30
0.0
 11
348.2306717514
 21
520.3332455804
 31
0.0
 70
   160
  1
<>
 71
     2
 42
-1.0
  3
SLDDIMSTYLE2
100
AcDbAlignedDimension
 13
285.7306717514
 23
529.3332455804
 33
0.0
 14
280.7306717514
 24
511.3332455804
 34
0.0
 50
90.0
100
AcDbRotatedDimension
  0
DIMENSION
  5
62E
330
1F
100
AcDbEntity
  8
LIVELLO1
100
AcDbDimension
  2
_D_15
 10
348.2306717514
 20
474.3332455804
 30
0.0
 11
348.2306717514
 21
492.8332455804
 31
0.0
 70
   160
  1
<>
 71
     2
 42
-1.0
  3
SLDDIMSTYLE0
100
AcDbAlignedDimension
 13
280.7306717514
 23
511.3332455804
 33
0.0
 14
280.7306717514
 24
474.3332455804
 34
0.0
 50
90.0
100
AcDbRotatedDimension
  0
DIMENSION
  5
638
330
1F
100
AcDbEntity
  8
LIVELLO1
100
AcDbDimension
  2
_D_16
 10
267.8652057814
 20
515.9530609847
 30
0.0
 11
245.0115546989
 21
538.8067120672
 31
0.0
 70
   160
  1
%%c<>
 71
     2
 42
-1.0
  3
SLDDIMSTYLE4
100
AcDbAlignedDimension
 13
275.9733124385
 23
507.0906048933
 33
0.0
 14
267.4880310643
 24
515.5758862676
 34
0.0
 50
-45.0
100
AcDbRotatedDimension
  0
INSERT
  5
650
330
1F
100
AcDbEntity
  8
LIVELLO1
100
AcDbBlockReference
  2
SW_CENTERMARKSYMBOL_22
 10
265.7306717514
 20
446.3332455804
 30
0.0
  0
INSERT
  5
65C
330
1F
100
AcDbEntity
  8
LIVELLO1
100
AcDbBlockReference
  2
SW_CENTERMARKSYMBOL_23
 10
265.7306717514
 20
412.3332455804
 30
0.0
  0
INSERT
  5
668
330
1F
100
AcDbEntity
  8
LIVELLO1
100
AcDbBlockReference
  2
SW_CENTERMARKSYMBOL_24
 10
271.7306717514
 20
511.3332455804
 30
0.0
  0
INSERT
  5
674
330
1F
100
AcDbEntity
  8
LIVELLO1
100
AcDbBlockReference
  2
SW_CENTERMARKSYMBOL_25
 10
271.7306717514
 20
474.3332455804
 30
0.0
  0
ENDSEC
  0
SECTION
  2
OBJECTS
  0
DICTIONARY
  5
C
330
0
100
AcDbDictionary
281
     1
  3
ACAD_GROUP
350
D
  3
ACAD_LAYOUT
350
1A
  3
ACAD_MLINESTYLE
350
17
  3
ACAD_PLOTSETTINGS
350
19
  3
ACAD_PLOTSTYLENAME
350
E
  3
ACAD_SCALELIST
350
47
  3
DWGPROPS
350
675
  0
DICTIONARY
  5
D
102
{ACAD_REACTORS
330
C
102
}
330
C
100
AcDbDictionary
281
     1
  0
DICTIONARY
  5
1A
102
{ACAD_REACTORS
330
C
102
}
330
C
100
AcDbDictionary
281
     1
  3
Layout1
350
1E
  3
Layout2
350
26
  3
Model
350
22
  0
DICTIONARY
  5
17
102
{ACAD_REACTORS
330
C
102
}
330
C
100
AcDbDictionary
281
     1
  3
Standard
350
18
  0
DICTIONARY
  5
19
102
{ACAD_REACTORS
330
C
102
}
330
C
100
AcDbDictionary
281
     1
  0
ACDBDICTIONARYWDFLT
  5
E
102
{ACAD_REACTORS
330
C
102
}
330
C
100
AcDbDictionary
281
     1
  3
Normal
350
F
100
AcDbDictionaryWithDefault
340
F
  0
DICTIONARY
  5
47
102
{ACAD_REACTORS
330
C
102
}
330
C
100
AcDbDictionary
281
     1
  3
A0
350
48
  3
A1
350
49
  3
A2
350
4A
  3
A3
350
4B
  3
A4
350
4C
  3
A5
350
4D
  3
A6
350
4E
  3
A7
350
4F
  3
A8
350
50
  3
A9
350
51
  3
B0
350
52
  3
B1
350
53
  3
B2
350
54
  3
B3
350
55
  3
B4
350
56
  3
B5
350
57
  3
B6
350
58
  3
B7
350
59
  3
B8
350
5A
  3
B9
350
5B
  3
C0
350
5C
  3
C1
350
5D
  3
C2
350
5E
  3
C3
350
5F
  3
C4
350
60
  3
C5
350
61
  3
C6
350
62
  3
C7
350
63
  3
C8
350
64
  3
C9
350
65
  3
D0
350
66
  3
D1
350
67
  3
D2
350
68
  0
XRECORD
  5
675
102
{ACAD_REACTORS
330
C
102
}
330
C
100
AcDbXrecord
280
     1
  1
DWGPROPS COOKIE
  2

  3

  4

  6

  7

  8
ftodaro
  9

300
=
301
=
302
=
303
=
304
=
305
=
306
=
307
=
308
=
309
=
 40
0.0
 41
2460033.621017257
 42
2460033.621019016
  1

 90
        0
  0
LAYOUT
  5
1E
102
{ACAD_REACTORS
330
1A
102
}
330
1A
100
AcDbPlotSettings
  1

  2
none_device
  4

  6

 40
0.0
 41
0.0
 42
0.0
 43
0.0
 44
0.0
 45
0.0
 46
0.0
 47
0.0
 48
0.0
 49
0.0
140
0.0
141
0.0
142
1.0
143
1.0
 70
   688
 72
     1
 73
     0
 74
     5
  7

 75
    16
147
1.0
148
0.0
149
0.0
100
AcDbLayout
  1
Layout1
 70
     1
 71
     1
 10
0.0
 20
0.0
 11
420.0
 21
297.0
 12
0.0
 22
0.0
 32
0.0
 14
1.0000000000E+20
 24
1.0000000000E+20
 34
1.0000000000E+20
 15
-1.0000000000E+20
 25
-1.0000000000E+20
 35
-1.0000000000E+20
146
0.0
 13
0.0
 23
0.0
 33
0.0
 16
1.0
 26
0.0
 36
0.0
 17
0.0
 27
1.0
 37
0.0
 76
     0
330
1B
  0
LAYOUT
  5
26
102
{ACAD_REACTORS
330
1A
102
}
330
1A
100
AcDbPlotSettings
  1

  2
none_device
  4

  6

 40
0.0
 41
0.0
 42
0.0
 43
0.0
 44
0.0
 45
0.0
 46
0.0
 47
0.0
 48
0.0
 49
0.0
140
0.0
141
0.0
142
1.0
143
1.0
 70
   688
 72
     1
 73
     0
 74
     5
  7

 75
    16
147
1.0
148
0.0
149
0.0
100
AcDbLayout
  1
Layout2
 70
     1
 71
     2
 10
0.0
 20
0.0
 11
0.0
 21
0.0
 12
0.0
 22
0.0
 32
0.0
 14
0.0
 24
0.0
 34
0.0
 15
0.0
 25
0.0
 35
0.0
146
0.0
 13
0.0
 23
0.0
 33
0.0
 16
1.0
 26
0.0
 36
0.0
 17
0.0
 27
1.0
 37
0.0
 76
     0
330
23
  0
LAYOUT
  5
22
102
{ACAD_REACTORS
330
1A
102
}
330
1A
100
AcDbPlotSettings
  1

  2
none_device
  4
Letter_(8.50_x_11.00_Inches)
  6

 40
6.35
 41
6.35
 42
6.35000508
 43
6.35000508
 44
215.9
 45
279.4
 46
0.0
 47
0.0
 48
0.0
 49
0.0
140
0.0
141
0.0
142
1.0
143
1.0
 70
  1712
 72
     1
 73
     0
 74
     0
  7

 75
     0
147
1.0
148
0.0
149
0.0
100
AcDbLayout
  1
Model
 70
     1
 71
     0
 10
0.0
 20
0.0
 11
420.0
 21
594.0
 12
0.0
 22
0.0
 32
0.0
 14
0.0
 24
0.0
 34
0.0
 15
420.0
 25
594.0
 35
0.0
146
0.0
 13
0.0
 23
0.0
 33
0.0
 16
1.0
 26
0.0
 36
0.0
 17
0.0
 27
1.0
 37
0.0
 76
     0
330
1F
331
29
  0
MLINESTYLE
  5
18
102
{ACAD_REACTORS
330
17
102
}
330
17
100
AcDbMlineStyle
  2
Standard
 70
     0
  3

 62
   256
 51
90.0
 52
90.0
 71
     2
 49
0.5
 62
   256
  6
BYLAYER
 49
-0.5
 62
   256
  6
BYLAYER
  0
ACDBPLACEHOLDER
  5
F
102
{ACAD_REACTORS
330
E
102
}
330
E
  0
SCALE
  5
48
102
{ACAD_REACTORS
330
47
102
}
330
47
100
AcDbScale
 70
     0
300
1:1
140
1.0
141
1.0
290
     1
  0
SCALE
  5
49
102
{ACAD_REACTORS
330
47
102
}
330
47
100
AcDbScale
 70
     0
300
1:2
140
1.0
141
2.0
290
     0
  0
SCALE
  5
4A
102
{ACAD_REACTORS
330
47
102
}
330
47
100
AcDbScale
 70
     0
300
1:4
140
1.0
141
4.0
290
     0
  0
SCALE
  5
4B
102
{ACAD_REACTORS
330
47
102
}
330
47
100
AcDbScale
 70
     0
300
1:5
140
1.0
141
5.0
290
     0
  0
SCALE
  5
4C
102
{ACAD_REACTORS
330
47
102
}
330
47
100
AcDbScale
 70
     0
300
1:8
140
1.0
141
8.0
290
     0
  0
SCALE
  5
4D
102
{ACAD_REACTORS
330
47
102
}
330
47
100
AcDbScale
 70
     0
300
1:10
140
1.0
141
10.0
290
     0
  0
SCALE
  5
4E
102
{ACAD_REACTORS
330
47
102
}
330
47
100
AcDbScale
 70
     0
300
1:16
140
1.0
141
16.0
290
     0
  0
SCALE
  5
4F
102
{ACAD_REACTORS
330
47
102
}
330
47
100
AcDbScale
 70
     0
300
1:20
140
1.0
141
20.0
290
     0
  0
SCALE
  5
50
102
{ACAD_REACTORS
330
47
102
}
330
47
100
AcDbScale
 70
     0
300
1:30
140
1.0
141
30.0
290
     0
  0
SCALE
  5
51
102
{ACAD_REACTORS
330
47
102
}
330
47
100
AcDbScale
 70
     0
300
1:40
140
1.0
141
40.0
290
     0
  0
SCALE
  5
52
102
{ACAD_REACTORS
330
47
102
}
330
47
100
AcDbScale
 70
     0
300
1:50
140
1.0
141
50.0
290
     0
  0
SCALE
  5
53
102
{ACAD_REACTORS
330
47
102
}
330
47
100
AcDbScale
 70
     0
300
1:100
140
1.0
141
100.0
290
     0
  0
SCALE
  5
54
102
{ACAD_REACTORS
330
47
102
}
330
47
100
AcDbScale
 70
     0
300
2:1
140
2.0
141
1.0
290
     0
  0
SCALE
  5
55
102
{ACAD_REACTORS
330
47
102
}
330
47
100
AcDbScale
 70
     0
300
4:1
140
4.0
141
1.0
290
     0
  0
SCALE
  5
56
102
{ACAD_REACTORS
330
47
102
}
330
47
100
AcDbScale
 70
     0
300
8:1
140
8.0
141
1.0
290
     0
  0
SCALE
  5
57
102
{ACAD_REACTORS
330
47
102
}
330
47
100
AcDbScale
 70
     0
300
10:1
140
10.0
141
1.0
290
     0
  0
SCALE
  5
58
102
{ACAD_REACTORS
330
47
102
}
330
47
100
AcDbScale
 70
     0
300
100:1
140
100.0
141
1.0
290
     0
  0
SCALE
  5
59
102
{ACAD_REACTORS
330
47
102
}
330
47
100
AcDbScale
 70
     0
300
1/128" = 1'-0"
140
0.0078125
141
12.0
290
     0
  0
SCALE
  5
5A
102
{ACAD_REACTORS
330
47
102
}
330
47
100
AcDbScale
 70
     0
300
1/64" = 1'-0"
140
0.015625
141
12.0
290
     0
  0
SCALE
  5
5B
102
{ACAD_REACTORS
330
47
102
}
330
47
100
AcDbScale
 70
     0
300
1/32" = 1'-0"
140
0.03125
141
12.0
290
     0
  0
SCALE
  5
5C
102
{ACAD_REACTORS
330
47
102
}
330
47
100
AcDbScale
 70
     0
300
1/16" = 1'-0"
140
0.0625
141
12.0
290
     0
  0
SCALE
  5
5D
102
{ACAD_REACTORS
330
47
102
}
330
47
100
AcDbScale
 70
     0
300
3/32" = 1'-0"
140
0.09375
141
12.0
290
     0
  0
SCALE
  5
5E
102
{ACAD_REACTORS
330
47
102
}
330
47
100
AcDbScale
 70
     0
300
1/8" = 1'-0"
140
0.125
141
12.0
290
     0
  0
SCALE
  5
5F
102
{ACAD_REACTORS
330
47
102
}
330
47
100
AcDbScale
 70
     0
300
3/16" = 1'-0"
140
0.1875
141
12.0
290
     0
  0
SCALE
  5
60
102
{ACAD_REACTORS
330
47
102
}
330
47
100
AcDbScale
 70
     0
300
1/4" = 1'-0"
140
0.25
141
12.0
290
     0
  0
SCALE
  5
61
102
{ACAD_REACTORS
330
47
102
}
330
47
100
AcDbScale
 70
     0
300
3/8" = 1'-0"
140
0.375
141
12.0
290
     0
  0
SCALE
  5
62
102
{ACAD_REACTORS
330
47
102
}
330
47
100
AcDbScale
 70
     0
300
1/2" = 1'-0"
140
0.5
141
12.0
290
     0
  0
SCALE
  5
63
102
{ACAD_REACTORS
330
47
102
}
330
47
100
AcDbScale
 70
     0
300
3/4" = 1'-0"
140
0.75
141
12.0
290
     0
  0
SCALE
  5
64
102
{ACAD_REACTORS
330
47
102
}
330
47
100
AcDbScale
 70
     0
300
1" = 1'-0"
140
1.0
141
12.0
290
     0
  0
SCALE
  5
65
102
{ACAD_REACTORS
330
47
102
}
330
47
100
AcDbScale
 70
     0
300
1-1/2" = 1'-0"
140
1.5
141
12.0
290
     0
  0
SCALE
  5
66
102
{ACAD_REACTORS
330
47
102
}
330
47
100
AcDbScale
 70
     0
300
3" = 1'-0"
140
3.0
141
12.0
290
     0
  0
SCALE
  5
67
102
{ACAD_REACTORS
330
47
102
}
330
47
100
AcDbScale
 70
     0
300
6" = 1'-0"
140
6.0
141
12.0
290
     0
  0
SCALE
  5
68
102
{ACAD_REACTORS
330
47
102
}
330
47
100
AcDbScale
 70
     0
300
1'-0" = 1'-0"
140
12.0
141
12.0
290
     0
  0
ENDSEC
  0
EOF
