  0
SECTION
  2
HEADER
  9
$ACADVER
  1
AC1015
  9
$ACADMAINTVER
 70
     6
  9
$DWGCODEPAGE
  3
DOS932
  9
$INSBASE
 10
0.0
 20
0.0
 30
0.0
  9
$EXTMIN
 10
0.0
 20
0.0
 30
0.0
  9
$EXTMAX
 10
420.0
 20
297.0
 30
0.0
  9
$LIMMIN
 10
0.0
 20
0.0
  9
$LIMMAX
 10
420.0
 20
297.0
  9
$ORTHOMODE
 70
     0
  9
$REGENMODE
 70
     1
  9
$FILLMODE
 70
     1
  9
$QTEXTMODE
 70
     0
  9
$MIRRTEXT
 70
     1
  9
$LTSCALE
 40
1.0
  9
$ATTMODE
 70
     1
  9
$TEXTSIZE
 40
3.5
  9
$TRACEWID
 40
1.0
  9
$TEXTSTYLE
  7
Standard
  9
$CLAYER
  8
0
  9
$CELTYPE
  6
ByLayer
  9
$CECOLOR
 62
   256
  9
$CELTSCALE
 40
1.0
  9
$DISPSILH
 70
     0
  9
$DIMSCALE
 40
1.0
  9
$DIMASZ
 40
3.0
  9
$DIMEXO
 40
1.0
  9
$DIMDLI
 40
3.75
  9
$DIMRND
 40
0.0
  9
$DIMDLE
 40
0.0
  9
$DIMEXE
 40
1.0
  9
$DIMTP
 40
0.0
  9
$DIMTM
 40
0.0
  9
$DIMTXT
 40
3.5
  9
$DIMCEN
 40
2.5
  9
$DIMTSZ
 40
0.0
  9
$DIMTOL
 70
     0
  9
$DIMLIM
 70
     0
  9
$DIMTIH
 70
     1
  9
$DIMTOH
 70
     1
  9
$DIMSE1
 70
     0
  9
$DIMSE2
 70
     0
  9
$DIMTAD
 70
     1
  9
$DIMZIN
 70
     0
  9
$DIMBLK
  1

  9
$DIMASO
 70
     1
  9
$DIMSHO
 70
     1
  9
$DIMPOST
  1

  9
$DIMAPOST
  1

  9
$DIMALT
 70
     0
  9
$DIMALTD
 70
     3
  9
$DIMALTF
 40
0.0393700787
  9
$DIMLFAC
 40
1.0
  9
$DIMTOFL
 70
     1
  9
$DIMTVP
 40
0.0
  9
$DIMTIX
 70
     0
  9
$DIMSOXD
 70
     0
  9
$DIMSAH
 70
     0
  9
$DIMBLK1
  1

  9
$DIMBLK2
  1

  9
$DIMSTYLE
  2
ISO-25
  9
$DIMCLRD
 70
     0
  9
$DIMCLRE
 70
     0
  9
$DIMCLRT
 70
     0
  9
$DIMTFAC
 40
1.0
  9
$DIMGAP
 40
1.524
  9
$DIMJUST
 70
     0
  9
$DIMSD1
 70
     0
  9
$DIMSD2
 70
     0
  9
$DIMTOLJ
 70
     0
  9
$DIMTZIN
 70
     0
  9
$DIMALTZ
 70
     0
  9
$DIMALTTZ
 70
     0
  9
$DIMUPT
 70
     0
  9
$DIMDEC
 70
     1
  9
$DIMTDEC
 70
     3
  9
$DIMALTU
 70
     2
  9
$DIMALTTD
 70
     3
  9
$DIMTXSTY
  7
Standard
  9
$DIMAUNIT
 70
     0
  9
$DIMADEC
 70
     2
  9
$DIMALTRND
 40
0.0
  9
$DIMAZIN
 70
     0
  9
$DIMDSEP
 70
    44
  9
$DIMATFIT
 70
     3
  9
$DIMFRAC
 70
     0
  9
$DIMLDRBLK
  1

  9
$DIMLUNIT
 70
     2
  9
$DIMLWD
 70
    -2
  9
$DIMLWE
 70
    -2
  9
$DIMTMOVE
 70
     0
  9
$LUNITS
 70
     2
  9
$LUPREC
 70
     1
  9
$SKETCHINC
 40
1.0
  9
$FILLETRAD
 40
10.0
  9
$AUNITS
 70
     0
  9
$AUPREC
 70
     2
  9
$MENU
  1
.
  9
$ELEVATION
 40
0.0
  9
$PELEVATION
 40
0.0
  9
$THICKNESS
 40
0.0
  9
$LIMCHECK
 70
     0
  9
$CHAMFERA
 40
10.0
  9
$CHAMFERB
 40
10.0
  9
$CHAMFERC
 40
20.0
  9
$CHAMFERD
 40
0.0
  9
$SKPOLY
 70
     0
  9
$TDCREATE
 40
2456912.846955741
  9
$TDUCREATE
 40
2456912.471955741
  9
$TDUPDATE
 40
2456912.846957141
  9
$TDUUPDATE
 40
2456912.471957141
  9
$TDINDWG
 40
0.0000000116
  9
$TDUSRTIMER
 40
0.0000000116
  9
$USRTIMER
 70
     1
  9
$ANGBASE
 50
0.0
  9
$ANGDIR
 70
     0
  9
$PDMODE
 70
     0
  9
$PDSIZE
 40
-1.0
  9
$PLINEWID
 40
0.0
  9
$SPLFRAME
 70
     0
  9
$SPLINETYPE
 70
     6
  9
$SPLINESEGS
 70
     8
  9
$HANDSEED
  5
300
  9
$SURFTAB1
 70
     6
  9
$SURFTAB2
 70
     6
  9
$SURFTYPE
 70
     6
  9
$SURFU
 70
     6
  9
$SURFV
 70
     6
  9
$UCSBASE
  2

  9
$UCSNAME
  2

  9
$UCSORG
 10
0.0
 20
0.0
 30
0.0
  9
$UCSXDIR
 10
1.0
 20
0.0
 30
0.0
  9
$UCSYDIR
 10
0.0
 20
1.0
 30
0.0
  9
$UCSORTHOREF
  2

  9
$UCSORTHOVIEW
 70
     0
  9
$UCSORGTOP
 10
0.0
 20
0.0
 30
0.0
  9
$UCSORGBOTTOM
 10
0.0
 20
0.0
 30
0.0
  9
$UCSORGLEFT
 10
0.0
 20
0.0
 30
0.0
  9
$UCSORGRIGHT
 10
0.0
 20
0.0
 30
0.0
  9
$UCSORGFRONT
 10
0.0
 20
0.0
 30
0.0
  9
$UCSORGBACK
 10
0.0
 20
0.0
 30
0.0
  9
$PUCSBASE
  2

  9
$PUCSNAME
  2

  9
$PUCSORG
 10
0.0
 20
0.0
 30
0.0
  9
$PUCSXDIR
 10
1.0
 20
0.0
 30
0.0
  9
$PUCSYDIR
 10
0.0
 20
1.0
 30
0.0
  9
$PUCSORTHOREF
  2

  9
$PUCSORTHOVIEW
 70
     0
  9
$PUCSORGTOP
 10
0.0
 20
0.0
 30
0.0
  9
$PUCSORGBOTTOM
 10
0.0
 20
0.0
 30
0.0
  9
$PUCSORGLEFT
 10
0.0
 20
0.0
 30
0.0
  9
$PUCSORGRIGHT
 10
0.0
 20
0.0
 30
0.0
  9
$PUCSORGFRONT
 10
0.0
 20
0.0
 30
0.0
  9
$PUCSORGBACK
 10
0.0
 20
0.0
 30
0.0
  9
$USERI1
 70
     0
  9
$USERI2
 70
     0
  9
$USERI3
 70
     0
  9
$USERI4
 70
     0
  9
$USERI5
 70
     0
  9
$USERR1
 40
0.0
  9
$USERR2
 40
0.0
  9
$USERR3
 40
0.0
  9
$USERR4
 40
0.0
  9
$USERR5
 40
0.0
  9
$WORLDVIEW
 70
     1
  9
$SHADEDGE
 70
     3
  9
$SHADEDIF
 70
    70
  9
$TILEMODE
 70
     1
  9
$MAXACTVP
 70
    64
  9
$PINSBASE
 10
0.0
 20
0.0
 30
0.0
  9
$PLIMCHECK
 70
     0
  9
$PEXTMIN
 10
1.0000000000E+20
 20
1.0000000000E+20
 30
1.0000000000E+20
  9
$PEXTMAX
 10
-1.0000000000E+20
 20
-1.0000000000E+20
 30
-1.0000000000E+20
  9
$PLIMMIN
 10
0.0
 20
0.0
  9
$PLIMMAX
 10
420.0
 20
297.0
  9
$UNITMODE
 70
     0
  9
$VISRETAIN
 70
     1
  9
$PLINEGEN
 70
     0
  9
$PSLTSCALE
 70
     1
  9
$TREEDEPTH
 70
  3020
  9
$CMLSTYLE
  2
Standard
  9
$CMLJUST
 70
     0
  9
$CMLSCALE
 40
20.0
  9
$PROXYGRAPHICS
 70
     1
  9
$MEASUREMENT
 70
     1
  9
$CELWEIGHT
370
    -1
  9
$ENDCAPS
280
     0
  9
$JOINSTYLE
280
     0
  9
$LWDISPLAY
290
     1
  9
$INSUNITS
 70
     4
  9
$HYPERLINKBASE
  1

  9
$STYLESHEET
  1

  9
$XEDIT
290
     1
  9
$CEPSNTYPE
380
     0
  9
$PSTYLEMODE
290
     1
  9
$FINGERPRINTGUID
  2
{0A76CE39-F414-4359-BA98-06087EF0B494}
  9
$VERSIONGUID
  2
{FAEB1C32-E019-11D5-929B-00C0DF256EC4}
  9
$EXTNAMES
290
     1
  9
$PSVPSCALE
 40
0.0
  9
$OLESTARTUP
290
     0
  0
ENDSEC
  0
SECTION
  2
CLASSES
  0
CLASS
  1
ACDBDICTIONARYWDFLT
  2
AcDbDictionaryWithDefault
  3
ObjectDBX Classes
 90
        0
280
     0
281
     0
  0
CLASS
  1
VISUALSTYLE
  2
AcDbVisualStyle
  3
ObjectDBX Classes
 90
     4095
280
     0
281
     0
  0
CLASS
  1
MATERIAL
  2
AcDbMaterial
  3
ObjectDBX Classes
 90
     1153
280
     0
281
     0
  0
CLASS
  1
ACDBPLACEHOLDER
  2
AcDbPlaceHolder
  3
ObjectDBX Classes
 90
        0
280
     0
281
     0
  0
CLASS
  1
LAYOUT
  2
AcDbLayout
  3
ObjectDBX Classes
 90
        0
280
     0
281
     0
  0
ENDSEC
  0
SECTION
  2
TABLES
  0
TABLE
  2
VPORT
  5
8
330
0
100
AcDbSymbolTable
 70
     1
  0
VPORT
  5
29
330
8
100
AcDbSymbolTableRecord
100
AcDbViewportTableRecord
  2
*Active
 70
     0
 10
0.0
 20
0.0
 11
1.0
 21
1.0
 12
210.0
 22
148.5
 13
0.0
 23
0.0
 14
10.0
 24
10.0
 15
10.0
 25
10.0
 16
0.0
 26
0.0
 36
1.0
 17
0.0
 27
0.0
 37
0.0
 40
297.0
 41
1.4141414141
 42
50.0
 43
0.0
 44
0.0
 50
0.0
 51
0.0
 71
     0
 72
  2000
 73
     1
 74
     3
 75
     0
 76
     0
 77
     0
 78
     0
281
     0
 65
     1
110
0.0
120
0.0
130
0.0
111
1.0
121
0.0
131
0.0
112
0.0
122
1.0
132
0.0
 79
     0
146
0.0
  0
ENDTAB
  0
TABLE
  2
LTYPE
  5
5
330
0
100
AcDbSymbolTable
 70
     6
  0
LTYPE
  5
14
330
5
100
AcDbSymbolTableRecord
100
AcDbLinetypeTableRecord
  2
ByBlock
 70
     0
  3

 72
    65
 73
     0
 40
0.0
  0
LTYPE
  5
15
330
5
100
AcDbSymbolTableRecord
100
AcDbLinetypeTableRecord
  2
ByLayer
 70
     0
  3

 72
    65
 73
     0
 40
0.0
  0
LTYPE
  5
16
330
5
100
AcDbSymbolTableRecord
100
AcDbLinetypeTableRecord
  2
Continuous
 70
     0
  3
Solid line
 72
    65
 73
     0
 40
0.0
  0
LTYPE
  5
3F
330
5
100
AcDbSymbolTableRecord
100
AcDbLinetypeTableRecord
  2
HIDDEN
 70
     0
  3
Hidden __ __ __ __ __ __ __ __ __ __ __ __ __ __
 72
    65
 73
     2
 40
1.905
 49
1.27
 74
     0
 49
-0.635
 74
     0
  0
LTYPE
  5
40
330
5
100
AcDbSymbolTableRecord
100
AcDbLinetypeTableRecord
  2
PHANTOM
 70
     0
  3
Phantom ______  __  __  ______  __  __  ______
 72
    65
 73
     6
 40
12.7
 49
6.35
 74
     0
 49
-1.27
 74
     0
 49
1.27
 74
     0
 49
-1.27
 74
     0
 49
1.27
 74
     0
 49
-1.27
 74
     0
  0
LTYPE
  5
41
330
5
100
AcDbSymbolTableRecord
100
AcDbLinetypeTableRecord
  2
CENTER
 70
     0
  3
Center ____ _ ____ _ ____ _ ____ _ ____ _ ____
 72
    65
 73
     4
 40
10.16
 49
6.35
 74
     0
 49
-1.27
 74
     0
 49
1.27
 74
     0
 49
-1.27
 74
     0
  0
LTYPE
  5
42
330
5
100
AcDbSymbolTableRecord
100
AcDbLinetypeTableRecord
  2
CENTERX2
 70
     0
  3
Center (2x) ________  __  ________  __  _____
 72
    65
 73
     4
 40
20.32
 49
12.7
 74
     0
 49
-2.54
 74
     0
 49
2.54
 74
     0
 49
-2.54
 74
     0
  0
LTYPE
  5
43
330
5
100
AcDbSymbolTableRecord
100
AcDbLinetypeTableRecord
  2
DOT2
 70
     0
  3
Dot (.5x) ........................................
 72
    65
 73
     2
 40
0.635
 49
0.0
 74
     0
 49
-0.635
 74
     0
  0
ENDTAB
  0
TABLE
  2
LAYER
  5
2
330
0
100
AcDbSymbolTable
 70
     3
  0
LAYER
  5
10
330
2
100
AcDbSymbolTableRecord
100
AcDbLayerTableRecord
  2
0
 70
     0
 62
     7
  6
Continuous
370
    -3
390
F
  0
LAYER
  5
44
330
2
100
AcDbSymbolTableRecord
100
AcDbLayerTableRecord
  2
SLD-0_0
 70
     0
 62
   179
  6
Continuous
370
    -3
390
F
  0
LAYER
  5
45
330
2
100
AcDbSymbolTableRecord
100
AcDbLayerTableRecord
  2
SLD-0
 70
     0
 62
   179
  6
Continuous
370
    -3
390
F
  0
ENDTAB
  0
TABLE
  2
STYLE
  5
3
330
0
100
AcDbSymbolTable
 70
     2
  0
STYLE
  5
11
330
3
100
AcDbSymbolTableRecord
100
AcDbTextStyleTableRecord
  2
Standard
 70
     0
 40
0.0
 41
1.0
 50
0.0
 71
     0
 42
3.5
  3
txt
  4
bigfont
  0
STYLE
  5
50
330
3
100
AcDbSymbolTableRecord
100
AcDbTextStyleTableRecord
  2
SLDTEXTSTYLE0
 70
     0
 40
0.0
 41
0.7
 50
0.0
 71
     0
 42
0.2
  3
TXT
  4
bigfont
  0
ENDTAB
  0
TABLE
  2
VIEW
  5
6
330
0
100
AcDbSymbolTable
 70
     0
  0
ENDTAB
  0
TABLE
  2
UCS
  5
7
330
0
100
AcDbSymbolTable
 70
     0
  0
ENDTAB
  0
TABLE
  2
APPID
  5
9
330
0
100
AcDbSymbolTable
 70
     1
  0
APPID
  5
12
330
9
100
AcDbSymbolTableRecord
100
AcDbRegAppTableRecord
  2
ACAD
 70
     0
  0
ENDTAB
  0
TABLE
  2
DIMSTYLE
  5
A
330
0
100
AcDbSymbolTable
 70
     7
100
AcDbDimStyleTable
  0
DIMSTYLE
105
27
330
A
100
AcDbSymbolTableRecord
100
AcDbDimStyleTableRecord
  2
ISO-25
 70
     0
 41
2.5
 42
0.625
 43
3.75
 44
1.25
 73
     0
 74
     0
 77
     1
 78
     8
140
2.5
141
2.5
143
0.0393700787
147
0.625
171
     3
172
     1
178
     0
271
     2
272
     2
274
     3
278
    44
283
     0
284
     8
340
11
  0
DIMSTYLE
105
F1
102
{ACAD_REACTORS
330
F0
330
FC
330
107
330
111
330
11B
102
}
330
A
100
AcDbSymbolTableRecord
100
AcDbDimStyleTableRecord
  2
SLDDIMSTYLE0
 70
     0
 41
3.0
 44
0.0
 45
0.000000001
 73
     0
 74
     0
 77
     3
 78
    12
 79
     3
140
3.5
147
0.875
173
     1
178
     0
271
     1
272
     3
276
     2
284
    12
340
50
  0
DIMSTYLE
105
130
330
A
100
AcDbSymbolTableRecord
100
AcDbDimStyleTableRecord
  2
SLDDIMSTYLE1
 70
     0
 41
3.0
 44
0.0
 45
0.000000001
140
0.0
146
3.0
147
0.0
173
     1
178
     0
271
     0
272
     0
276
     2
340
11
  0
DIMSTYLE
105
1E6
102
{ACAD_REACTORS
330
1E5
330
2C1
102
}
330
A
100
AcDbSymbolTableRecord
100
AcDbDimStyleTableRecord
  2
SLDDIMSTYLE2
 70
     0
  3
<>
 41
3.0
 44
0.0
 45
0.000000001
 78
    12
 79
     3
140
3.5
141
0.0
147
0.875
173
     1
178
     0
271
     1
272
     3
276
     2
284
    12
340
50
  0
DIMSTYLE
105
1F1
102
{ACAD_REACTORS
330
1F0
330
1FD
330
209
330
2B7
102
}
330
A
100
AcDbSymbolTableRecord
100
AcDbDimStyleTableRecord
  2
SLDDIMSTYLE3
 70
     0
 41
3.0
 44
0.0
 73
     0
 74
     0
 77
     3
 78
    12
 79
     3
140
3.5
147
0.875
173
     1
178
     0
179
     2
272
     3
276
     2
284
    12
340
50
  0
DIMSTYLE
105
216
102
{ACAD_REACTORS
330
215
330
2AC
102
}
330
A
100
AcDbSymbolTableRecord
100
AcDbDimStyleTableRecord
  2
SLDDIMSTYLE4
 70
     0
 41
3.0
 44
0.0
 45
0.000000001
 78
    12
 79
     3
140
3.5
141
0.0
147
0.875
173
     1
178
     0
271
     1
272
     3
276
     2
284
    12
340
50
  0
DIMSTYLE
105
22E
330
A
100
AcDbSymbolTableRecord
100
AcDbDimStyleTableRecord
  2
SLDDIMSTYLE5
 70
     0
 41
3.0
 44
0.0
 45
0.000000001
140
0.0
146
3.0
147
0.0
173
     1
178
     0
271
     0
272
     0
276
     2
340
11
341
22F
343
22F
344
22F
  0
ENDTAB
  0
TABLE
  2
BLOCK_RECORD
  5
1
330
0
100
AcDbSymbolTable
 70
    22
  0
BLOCK_RECORD
  5
1F
330
1
100
AcDbSymbolTableRecord
100
AcDbBlockTableRecord
  2
*Model_Space
340
22
  0
BLOCK_RECORD
  5
1B
330
1
100
AcDbSymbolTableRecord
100
AcDbBlockTableRecord
  2
*Paper_Space
340
1E
  0
BLOCK_RECORD
  5
23
330
1
100
AcDbSymbolTableRecord
100
AcDbBlockTableRecord
  2
*Paper_Space0
340
26
  0
BLOCK_RECORD
  5
F2
330
1
100
AcDbSymbolTableRecord
100
AcDbBlockTableRecord
  2
_D
340
0
  0
BLOCK_RECORD
  5
FD
330
1
100
AcDbSymbolTableRecord
100
AcDbBlockTableRecord
  2
_D_1
340
0
  0
BLOCK_RECORD
  5
108
330
1
100
AcDbSymbolTableRecord
100
AcDbBlockTableRecord
  2
_D_2
340
0
  0
BLOCK_RECORD
  5
112
330
1
100
AcDbSymbolTableRecord
100
AcDbBlockTableRecord
  2
_D_3
340
0
  0
BLOCK_RECORD
  5
11C
330
1
100
AcDbSymbolTableRecord
100
AcDbBlockTableRecord
  2
_D_4
340
0
  0
BLOCK_RECORD
  5
125
330
1
100
AcDbSymbolTableRecord
100
AcDbBlockTableRecord
  2
SW_NOTE_0
340
0
102
{BLKREFS
331
12F
102
}
  0
BLOCK_RECORD
  5
132
330
1
100
AcDbSymbolTableRecord
100
AcDbBlockTableRecord
  2
SW_NOTE_1
340
0
102
{BLKREFS
331
13C
102
}
  0
BLOCK_RECORD
  5
1E7
330
1
100
AcDbSymbolTableRecord
100
AcDbBlockTableRecord
  2
_D_5
340
0
  0
BLOCK_RECORD
  5
1F2
330
1
100
AcDbSymbolTableRecord
100
AcDbBlockTableRecord
  2
_D_6
340
0
  0
BLOCK_RECORD
  5
1FE
330
1
100
AcDbSymbolTableRecord
100
AcDbBlockTableRecord
  2
_D_7
340
0
  0
BLOCK_RECORD
  5
20A
330
1
100
AcDbSymbolTableRecord
100
AcDbBlockTableRecord
  2
_D_8
340
0
  0
BLOCK_RECORD
  5
217
330
1
100
AcDbSymbolTableRecord
100
AcDbBlockTableRecord
  2
_D_9
340
0
  0
BLOCK_RECORD
  5
223
330
1
100
AcDbSymbolTableRecord
100
AcDbBlockTableRecord
  2
SW_NOTE_2
340
0
102
{BLKREFS
331
22D
102
}
  0
BLOCK_RECORD
  5
22F
330
1
100
AcDbSymbolTableRecord
100
AcDbBlockTableRecord
  2
_OPEN30
340
0
  0
BLOCK_RECORD
  5
236
330
1
100
AcDbSymbolTableRecord
100
AcDbBlockTableRecord
  2
SW_CENTERMARKSYMBOL_0
340
0
102
{BLKREFS
331
24E
102
}
  0
BLOCK_RECORD
  5
24F
330
1
100
AcDbSymbolTableRecord
100
AcDbBlockTableRecord
  2
SW_CENTERMARKSYMBOL_1
340
0
102
{BLKREFS
331
25A
102
}
  0
BLOCK_RECORD
  5
2AD
330
1
100
AcDbSymbolTableRecord
100
AcDbBlockTableRecord
  2
_D_10
340
0
  0
BLOCK_RECORD
  5
2B8
330
1
100
AcDbSymbolTableRecord
100
AcDbBlockTableRecord
  2
_D_11
340
0
  0
BLOCK_RECORD
  5
2C2
330
1
100
AcDbSymbolTableRecord
100
AcDbBlockTableRecord
  2
_D_12
340
0
  0
BLOCK_RECORD
  5
2CC
330
1
100
AcDbSymbolTableRecord
100
AcDbBlockTableRecord
  2
SW_CENTERMARKSYMBOL_2
340
0
102
{BLKREFS
331
2F3
102
}
  0
BLOCK_RECORD
  5
2F4
330
1
100
AcDbSymbolTableRecord
100
AcDbBlockTableRecord
  2
SW_CENTERMARKSYMBOL_3
340
0
102
{BLKREFS
331
2FF
102
}
  0
ENDTAB
  0
ENDSEC
  0
SECTION
  2
BLOCKS
  0
BLOCK
  5
20
330
1F
100
AcDbEntity
  8
0
100
AcDbBlockBegin
  2
*Model_Space
 70
     0
 10
0.0
 20
0.0
 30
0.0
  3
*Model_Space
  1

  0
ENDBLK
  5
21
330
1F
100
AcDbEntity
  8
0
100
AcDbBlockEnd
  0
BLOCK
  5
1C
330
1B
100
AcDbEntity
 67
     1
  8
0
100
AcDbBlockBegin
  2
*Paper_Space
 70
     0
 10
0.0
 20
0.0
 30
0.0
  3
*Paper_Space
  1

  0
ENDBLK
  5
1D
330
1B
100
AcDbEntity
 67
     1
  8
0
100
AcDbBlockEnd
  0
BLOCK
  5
24
330
23
100
AcDbEntity
  8
0
100
AcDbBlockBegin
  2
*Paper_Space0
 70
     0
 10
0.0
 20
0.0
 30
0.0
  3
*Paper_Space0
  1

  0
ENDBLK
  5
25
330
23
100
AcDbEntity
  8
0
100
AcDbBlockEnd
  0
BLOCK
  5
F3
330
F2
100
AcDbEntity
  8
0
100
AcDbBlockBegin
  2
_D
 70
     0
 10
0.0
 20
0.0
 30
0.0
  3
_D
  1

  0
SOLID
  5
F5
330
F2
100
AcDbEntity
  8
SLD-0
 62
     7
100
AcDbTrace
 10
162.4424926061
 20
114.6820213764
 30
0.0
 11
163.1924926061
 21
117.6820213764
 31
0.0
 12
161.6924926061
 22
117.6820213764
 32
0.0
 13
161.6924926061
 23
117.6820213764
 33
0.0
  0
SOLID
  5
F6
330
F2
100
AcDbEntity
  8
SLD-0
 62
     7
100
AcDbTrace
 10
162.4424926061
 20
149.6820213764
 30
0.0
 11
161.6924926061
 21
146.6820213764
 31
0.0
 12
163.1924926061
 22
146.6820213764
 32
0.0
 13
163.1924926061
 23
146.6820213764
 33
0.0
  0
LINE
  5
F7
330
F2
100
AcDbEntity
  8
SLD-0
 62
     7
100
AcDbLine
 10
173.370689167
 20
114.6820213764
 30
0.0
 11
161.4424926061
 21
114.6820213764
 31
0.0
  0
LINE
  5
F8
330
F2
100
AcDbEntity
  8
SLD-0
 62
     7
100
AcDbLine
 10
173.370689167
 20
149.6820213764
 30
0.0
 11
161.4424926061
 21
149.6820213764
 31
0.0
  0
LINE
  5
F9
330
F2
100
AcDbEntity
  8
SLD-0
 62
     7
100
AcDbLine
 10
162.4424926061
 20
114.6820213764
 30
0.0
 11
162.4424926061
 21
149.6820213764
 31
0.0
  0
MTEXT
  5
FA
330
F2
100
AcDbEntity
  8
SLD-0
 62
     7
100
AcDbMText
 10
157.930755284
 20
128.210250505
 30
1.1264396477
 40
3.5
 41
0.0
 71
     1
 72
     1
  1
%%c
  7
SLDTEXTSTYLE0
 11
3.391901413832837E-15
 21
1.0
 31
0.0
 73
     1
 44
1.0
  0
MTEXT
  5
FB
330
F2
100
AcDbEntity
  8
SLD-0
 62
     7
100
AcDbMText
 10
157.930755284
 20
132.08018102
 30
1.1264396477
 40
3.5
 41
0.0
 71
     1
 72
     1
  1
35
  7
SLDTEXTSTYLE0
 11
3.391901413832837E-15
 21
1.0
 31
0.0
 73
     1
 44
1.0
  0
ENDBLK
  5
F4
330
F2
100
AcDbEntity
  8
0
100
AcDbBlockEnd
  0
BLOCK
  5
FE
330
FD
100
AcDbEntity
  8
0
100
AcDbBlockBegin
  2
_D_1
 70
     0
 10
0.0
 20
0.0
 30
0.0
  3
_D_1
  1

  0
SOLID
  5
100
330
FD
100
AcDbEntity
  8
SLD-0
 62
     7
100
AcDbTrace
 10
254.570689167
 20
143.6820213764
 30
0.0
 11
253.820689167
 21
140.6820213764
 31
0.0
 12
255.320689167
 22
140.6820213764
 32
0.0
 13
255.320689167
 23
140.6820213764
 33
0.0
  0
SOLID
  5
101
330
FD
100
AcDbEntity
  8
SLD-0
 62
     7
100
AcDbTrace
 10
254.570689167
 20
120.6820213764
 30
0.0
 11
255.320689167
 21
123.6820213764
 31
0.0
 12
253.820689167
 22
123.6820213764
 32
0.0
 13
253.820689167
 23
123.6820213764
 33
0.0
  0
LINE
  5
102
330
FD
100
AcDbEntity
  8
SLD-0
 62
     7
100
AcDbLine
 10
245.070689167
 20
143.6820213764
 30
0.0
 11
255.570689167
 21
143.6820213764
 31
0.0
  0
LINE
  5
103
330
FD
100
AcDbEntity
  8
SLD-0
 62
     7
100
AcDbLine
 10
245.070689167
 20
120.6820213764
 30
0.0
 11
255.570689167
 21
120.6820213764
 31
0.0
  0
LINE
  5
104
330
FD
100
AcDbEntity
  8
SLD-0
 62
     7
100
AcDbLine
 10
254.570689167
 20
143.6820213764
 30
0.0
 11
254.570689167
 21
120.6820213764
 31
0.0
  0
MTEXT
  5
105
330
FD
100
AcDbEntity
  8
SLD-0
 62
     7
100
AcDbMText
 10
250.058951845
 20
128.210250505
 30
1.1264396477
 40
3.5
 41
0.0
 71
     1
 72
     1
  1
%%c
  7
SLDTEXTSTYLE0
 11
-3.491481338843133E-15
 21
1.0
 31
0.0
 73
     1
 44
1.0
  0
MTEXT
  5
106
330
FD
100
AcDbEntity
  8
SLD-0
 62
     7
100
AcDbMText
 10
250.058951845
 20
132.08018102
 30
1.1264396477
 40
3.5
 41
0.0
 71
     1
 72
     1
  1
23
  7
SLDTEXTSTYLE0
 11
-3.491481338843133E-15
 21
1.0
 31
0.0
 73
     1
 44
1.0
  0
ENDBLK
  5
FF
330
FD
100
AcDbEntity
  8
0
100
AcDbBlockEnd
  0
BLOCK
  5
109
330
108
100
AcDbEntity
  8
0
100
AcDbBlockBegin
  2
_D_2
 70
     0
 10
0.0
 20
0.0
 30
0.0
  3
_D_2
  1

  0
SOLID
  5
10B
330
108
100
AcDbEntity
  8
SLD-0
 62
     7
100
AcDbTrace
 10
264.4653319767
 20
114.6820213764
 30
0.0
 11
265.2153319767
 21
117.6820213764
 31
0.0
 12
263.7153319767
 22
117.6820213764
 32
0.0
 13
263.7153319767
 23
117.6820213764
 33
0.0
  0
SOLID
  5
10C
330
108
100
AcDbEntity
  8
SLD-0
 62
     7
100
AcDbTrace
 10
264.4653319767
 20
149.1820213764
 30
0.0
 11
263.7153319767
 21
146.1820213764
 31
0.0
 12
265.2153319767
 22
146.1820213764
 32
0.0
 13
265.2153319767
 23
146.1820213764
 33
0.0
  0
LINE
  5
10D
330
108
100
AcDbEntity
  8
SLD-0
 62
     7
100
AcDbLine
 10
205.070689167
 20
114.6820213764
 30
0.0
 11
265.4653319767
 21
114.6820213764
 31
0.0
  0
LINE
  5
10E
330
108
100
AcDbEntity
  8
SLD-0
 62
     7
100
AcDbLine
 10
205.070689167
 20
149.1820213764
 30
0.0
 11
265.4653319767
 21
149.1820213764
 31
0.0
  0
LINE
  5
10F
330
108
100
AcDbEntity
  8
SLD-0
 62
     7
100
AcDbLine
 10
264.4653319767
 20
114.6820213764
 30
0.0
 11
264.4653319767
 21
149.1820213764
 31
0.0
  0
MTEXT
  5
110
330
108
100
AcDbEntity
  8
SLD-0
 62
     7
100
AcDbMText
 10
259.9535951203
 20
127.8584103814
 30
1.1264396477
 40
3.5
 41
0.0
 71
     1
 72
     1
  1
34.5
  7
SLDTEXTSTYLE0
 11
3.391901413832837E-15
 21
1.0
 31
0.0
 73
     1
 44
1.0
  0
ENDBLK
  5
10A
330
108
100
AcDbEntity
  8
0
100
AcDbBlockEnd
  0
BLOCK
  5
113
330
112
100
AcDbEntity
  8
0
100
AcDbBlockBegin
  2
_D_3
 70
     0
 10
0.0
 20
0.0
 30
0.0
  3
_D_3
  1

  0
SOLID
  5
115
330
112
100
AcDbEntity
  8
SLD-0
 62
     7
100
AcDbTrace
 10
244.570689167
 20
103.7672429926
 30
0.0
 11
241.570689167
 21
104.5172429926
 31
0.0
 12
241.570689167
 22
103.0172429926
 32
0.0
 13
241.570689167
 23
103.0172429926
 33
0.0
  0
SOLID
  5
116
330
112
100
AcDbEntity
  8
SLD-0
 62
     7
100
AcDbTrace
 10
174.370689167
 20
103.7672429926
 30
0.0
 11
177.370689167
 21
103.0172429926
 31
0.0
 12
177.370689167
 22
104.5172429926
 32
0.0
 13
177.370689167
 23
104.5172429926
 33
0.0
  0
LINE
  5
117
330
112
100
AcDbEntity
  8
SLD-0
 62
     7
100
AcDbLine
 10
244.570689167
 20
120.1820213764
 30
0.0
 11
244.570689167
 21
102.7672429926
 31
0.0
  0
LINE
  5
118
330
112
100
AcDbEntity
  8
SLD-0
 62
     7
100
AcDbLine
 10
174.370689167
 20
113.6820213764
 30
0.0
 11
174.370689167
 21
102.7672429926
 31
0.0
  0
LINE
  5
119
330
112
100
AcDbEntity
  8
SLD-0
 62
     7
100
AcDbLine
 10
244.570689167
 20
103.7672429926
 30
0.0
 11
174.370689167
 21
103.7672429926
 31
0.0
  0
MTEXT
  5
11A
330
112
100
AcDbEntity
  8
SLD-0
 62
     7
100
AcDbMText
 10
205.397078172
 20
108.278979849
 30
1.1264396477
 40
3.5
 41
0.0
 71
     1
 72
     1
  1
70.2
  7
SLDTEXTSTYLE0
 73
     1
 44
1.0
  0
ENDBLK
  5
114
330
112
100
AcDbEntity
  8
0
100
AcDbBlockEnd
  0
BLOCK
  5
11D
330
11C
100
AcDbEntity
  8
0
100
AcDbBlockBegin
  2
_D_4
 70
     0
 10
0.0
 20
0.0
 30
0.0
  3
_D_4
  1

  0
SOLID
  5
11F
330
11C
100
AcDbEntity
  8
SLD-0
 62
     7
100
AcDbTrace
 10
244.570689167
 20
166.6026271576
 30
0.0
 11
241.570689167
 21
167.3526271576
 31
0.0
 12
241.570689167
 22
165.8526271576
 32
0.0
 13
241.570689167
 23
165.8526271576
 33
0.0
  0
SOLID
  5
120
330
11C
100
AcDbEntity
  8
SLD-0
 62
     7
100
AcDbTrace
 10
204.570689167
 20
166.6026271576
 30
0.0
 11
207.570689167
 21
165.8526271576
 31
0.0
 12
207.570689167
 22
167.3526271576
 32
0.0
 13
207.570689167
 23
167.3526271576
 33
0.0
  0
LINE
  5
121
330
11C
100
AcDbEntity
  8
SLD-0
 62
     7
100
AcDbLine
 10
244.570689167
 20
144.1820213764
 30
0.0
 11
244.570689167
 21
167.6026271576
 31
0.0
  0
LINE
  5
122
330
11C
100
AcDbEntity
  8
SLD-0
 62
     7
100
AcDbLine
 10
204.570689167
 20
150.1820213764
 30
0.0
 11
204.570689167
 21
167.6026271576
 31
0.0
  0
LINE
  5
123
330
11C
100
AcDbEntity
  8
SLD-0
 62
     7
100
AcDbLine
 10
244.570689167
 20
166.6026271576
 30
0.0
 11
204.570689167
 21
166.6026271576
 31
0.0
  0
MTEXT
  5
124
330
11C
100
AcDbEntity
  8
SLD-0
 62
     7
100
AcDbMText
 10
222.5338836695
 20
171.114364014
 30
1.1264396477
 40
3.5
 41
0.0
 71
     1
 72
     1
  1
40
  7
SLDTEXTSTYLE0
 73
     1
 44
1.0
  0
ENDBLK
  5
11E
330
11C
100
AcDbEntity
  8
0
100
AcDbBlockEnd
  0
BLOCK
  5
126
330
125
100
AcDbEntity
  8
0
100
AcDbBlockBegin
  2
SW_NOTE_0
 70
     0
 10
0.0
 20
0.0
 30
0.0
  3
SW_NOTE_0
  1

  0
LINE
  5
128
330
125
100
AcDbEntity
  8
SLD-0
 62
     0
100
AcDbLine
 10
-20.3703703704
 20
0.0
 30
0.0
 11
0.0
 21
0.0
 31
0.0
  0
LINE
  5
129
330
125
100
AcDbEntity
  8
SLD-0
 62
     0
100
AcDbLine
 10
0.0
 20
0.0
 30
0.0
 11
-20.3703703704
 21
0.0
 31
0.0
  0
LINE
  5
12A
330
125
100
AcDbEntity
  8
SLD-0
 62
     0
100
AcDbLine
 10
-20.3703703704
 20
0.0
 30
0.0
 11
0.0
 21
0.0
 31
0.0
  0
LINE
  5
12B
330
125
100
AcDbEntity
  8
SLD-0
 62
     0
100
AcDbLine
 10
0.0
 20
0.0
 30
0.0
 11
-20.3703703704
 21
0.0
 31
0.0
  0
LINE
  5
12C
330
125
100
AcDbEntity
  8
SLD-0
 62
     0
100
AcDbLine
 10
-20.3703703704
 20
0.0
 30
0.0
 11
0.0
 21
0.0
 31
0.0
  0
LINE
  5
12D
330
125
100
AcDbEntity
  8
SLD-0
 62
     0
100
AcDbLine
 10
0.0
 20
0.0
 30
0.0
 11
-20.3703703704
 21
0.0
 31
0.0
  0
MTEXT
  5
12E
330
125
100
AcDbEntity
  8
SLD-0
 62
     0
100
AcDbMText
 10
-20.3015930322
 20
4.5334729711
 30
0.0
 40
3.5
 41
0.0
 71
     1
 72
     1
  1
KQ2L06-M5A
  7
SLDTEXTSTYLE0
 73
     1
 44
1.0
  0
ENDBLK
  5
127
330
125
100
AcDbEntity
  8
0
100
AcDbBlockEnd
  0
BLOCK
  5
133
330
132
100
AcDbEntity
  8
0
100
AcDbBlockBegin
  2
SW_NOTE_1
 70
     0
 10
0.0
 20
0.0
 30
0.0
  3
SW_NOTE_1
  1

  0
LINE
  5
135
330
132
100
AcDbEntity
  8
SLD-0
 62
     0
100
AcDbLine
 10
-22.440087146
 20
0.0
 30
0.0
 11
0.0
 21
0.0
 31
0.0
  0
LINE
  5
136
330
132
100
AcDbEntity
  8
SLD-0
 62
     0
100
AcDbLine
 10
0.0
 20
0.0
 30
0.0
 11
-22.440087146
 21
0.0
 31
0.0
  0
LINE
  5
137
330
132
100
AcDbEntity
  8
SLD-0
 62
     0
100
AcDbLine
 10
-22.440087146
 20
0.0
 30
0.0
 11
0.0
 21
0.0
 31
0.0
  0
LINE
  5
138
330
132
100
AcDbEntity
  8
SLD-0
 62
     0
100
AcDbLine
 10
0.0
 20
0.0
 30
0.0
 11
-22.440087146
 21
0.0
 31
0.0
  0
LINE
  5
139
330
132
100
AcDbEntity
  8
SLD-0
 62
     0
100
AcDbLine
 10
-22.440087146
 20
0.0
 30
0.0
 11
0.0
 21
0.0
 31
0.0
  0
LINE
  5
13A
330
132
100
AcDbEntity
  8
SLD-0
 62
     0
100
AcDbLine
 10
0.0
 20
0.0
 30
0.0
 11
-22.440087146
 21
0.0
 31
0.0
  0
MTEXT
  5
13B
330
132
100
AcDbEntity
  8
SLD-0
 62
     0
100
AcDbMText
 10
-22.3639218234
 20
4.5868647634
 30
0.0
 40
3.5
 41
0.0
 71
     1
 72
     1
  1
KQ2L08-01AS
  7
SLDTEXTSTYLE0
 73
     1
 44
1.0
  0
ENDBLK
  5
134
330
132
100
AcDbEntity
  8
0
100
AcDbBlockEnd
  0
BLOCK
  5
1E8
330
1E7
100
AcDbEntity
  8
0
100
AcDbBlockBegin
  2
_D_5
 70
     0
 10
0.0
 20
0.0
 30
0.0
  3
_D_5
  1

  0
ARC
  5
1EA
330
1E7
100
AcDbEntity
  8
SLD-0
 62
     7
100
AcDbCircle
 10
306.9739736796
 20
132.1820213764
 30
0.0
 40
47.75458093209494
100
AcDbArc
 50
281.054813771
 51
273.5634851718
  0
SOLID
  5
1EB
330
1E7
100
AcDbEntity
  8
SLD-0
 62
     7
100
AcDbTrace
 10
310.7268498336
 20
118.1760968952
 30
0.0
 11
310.7788625992
 21
115.0842051325
 31
0.0
 12
312.2277513386
 22
115.4724337002
 32
0.0
 13
312.2277513386
 23
115.4724337002
 33
0.0
  0
LINE
  5
1EC
330
1E7
100
AcDbEntity
  8
SLD-0
 62
     7
100
AcDbLine
 10
310.7268498336
 20
118.1760968952
 30
0.0
 11
313.3787940938
 21
108.2789061772
 31
0.0
  0
LINE
  5
1ED
330
1E7
100
AcDbEntity
  8
SLD-0
 62
     7
100
AcDbLine
 10
313.3787940938
 20
108.2789061772
 30
0.0
 11
331.2607380737
 21
108.2789061772
 31
0.0
  0
MTEXT
  5
1EE
330
1E7
100
AcDbEntity
  8
SLD-0
 62
     7
100
AcDbMText
 10
314.9662940938
 20
112.7906430336
 30
-45.8624971919
 40
3.5
 41
0.0
 71
     1
 72
     1
  1
P.C.D.
  7
SLDTEXTSTYLE0
 73
     1
 44
1.0
  0
MTEXT
  5
1EF
330
1E7
100
AcDbEntity
  8
SLD-0
 62
     7
100
AcDbMText
 10
327.1871275444
 20
112.7906430336
 30
-45.8624971919
 40
3.5
 41
0.0
 71
     1
 72
     1
  1
29
  7
SLDTEXTSTYLE0
 73
     1
 44
1.0
  0
ENDBLK
  5
1E9
330
1E7
100
AcDbEntity
  8
0
100
AcDbBlockEnd
  0
BLOCK
  5
1F3
330
1F2
100
AcDbEntity
  8
0
100
AcDbBlockBegin
  2
_D_6
 70
     0
 10
0.0
 20
0.0
 30
0.0
  3
_D_6
  1

  0
ARC
  5
1F5
330
1F2
100
AcDbEntity
  8
SLD-0
 62
     7
100
AcDbCircle
 10
306.9739736796
 20
132.1820213764
 30
0.0
 40
25.02825357031179
100
AcDbArc
 50
356.0
 51
0.0
  0
ARC
  5
1F6
330
1F2
100
AcDbEntity
  8
SLD-0
 62
     7
100
AcDbCircle
 10
306.9739736796
 20
132.1820213764
 30
0.0
 40
25.02825357031179
100
AcDbArc
 50
337.6088000449
 51
356.0
  0
ARC
  5
1F7
330
1F2
100
AcDbEntity
  8
SLD-0
 62
     7
100
AcDbCircle
 10
306.9739736796
 20
132.1820213764
 30
0.0
 40
25.02825357031181
100
AcDbArc
 50
0.0
 51
11.4102999965
  0
SOLID
  5
1F8
330
1F2
100
AcDbEntity
  8
SLD-0
 62
     7
100
AcDbTrace
 10
331.9412596821
 20
130.4361386634
 30
0.0
 11
330.8102373481
 21
127.5580683932
 31
0.0
 12
332.2976848086
 22
127.3644190913
 32
0.0
 13
332.2976848086
 23
127.3644190913
 33
0.0
  0
SOLID
  5
1F9
330
1F2
100
AcDbEntity
  8
SLD-0
 62
     7
100
AcDbTrace
 10
332.0022272499
 20
132.1820213764
 30
0.0
 11
332.5720564684
 21
135.221395434
 31
0.0
 12
331.0747240626
 22
135.1319769418
 32
0.0
 13
331.0747240626
 23
135.1319769418
 33
0.0
  0
LINE
  5
1FA
330
1F2
100
AcDbEntity
  8
SLD-0
 62
     7
100
AcDbLine
 10
327.4240367099
 20
130.7520136647
 30
0.0
 11
332.9388237324
 21
130.3663821896
 31
0.0
  0
LINE
  5
1FB
330
1F2
100
AcDbEntity
  8
SLD-0
 62
     7
100
AcDbLine
 10
327.9739736796
 20
132.1820213764
 30
0.0
 11
333.0022272499
 21
132.1820213764
 31
0.0
  0
MTEXT
  5
1FC
330
1F2
100
AcDbEntity
  8
SLD-0
 62
     7
100
AcDbMText
 10
325.9379040294
 20
123.777790186
 30
-45.8624971919
 40
3.5
 41
0.0
 71
     1
 72
     1
  1
4°
  7
SLDTEXTSTYLE0
 11
0.2660863751885117
 21
0.9639491900193903
 31
0.0
 73
     1
 44
1.0
  0
ENDBLK
  5
1F4
330
1F2
100
AcDbEntity
  8
0
100
AcDbBlockEnd
  0
BLOCK
  5
1FF
330
1FE
100
AcDbEntity
  8
0
100
AcDbBlockBegin
  2
_D_7
 70
     0
 10
0.0
 20
0.0
 30
0.0
  3
_D_7
  1

  0
ARC
  5
201
330
1FE
100
AcDbEntity
  8
SLD-0
 62
     7
100
AcDbCircle
 10
306.9739736796
 20
132.1820213764
 30
0.0
 40
24.43717942361656
100
AcDbArc
 50
176.0
 51
180.0
  0
ARC
  5
202
330
1FE
100
AcDbEntity
  8
SLD-0
 62
     7
100
AcDbCircle
 10
306.9739736796
 20
132.1820213764
 30
0.0
 40
24.43717942361656
100
AcDbArc
 50
147.3434033528
 51
176.0
  0
ARC
  5
203
330
1FE
100
AcDbEntity
  8
SLD-0
 62
     7
100
AcDbCircle
 10
306.9739736796
 20
132.1820213764
 30
0.0
 40
24.43717942361652
100
AcDbArc
 50
180.0
 51
191.6844786118
  0
SOLID
  5
204
330
1FE
100
AcDbEntity
  8
SLD-0
 62
     7
100
AcDbTrace
 10
282.5963219969
 20
133.8866728412
 30
0.0
 11
283.7314547457
 21
136.7631244126
 31
0.0
 12
282.2442854476
 22
136.9588984625
 32
0.0
 13
282.2442854476
 23
136.9588984625
 33
0.0
  0
SOLID
  5
205
330
1FE
100
AcDbEntity
  8
SLD-0
 62
     7
100
AcDbTrace
 10
282.536794256
 20
132.1820213764
 30
0.0
 11
281.9713076242
 21
129.1418363706
 31
0.0
 12
283.46851076
 22
129.2333938387
 32
0.0
 13
283.46851076
 23
129.2333938387
 33
0.0
  0
LINE
  5
206
330
1FE
100
AcDbEntity
  8
SLD-0
 62
     7
100
AcDbLine
 10
286.5239106493
 20
133.6120290882
 30
0.0
 11
281.5987579466
 21
133.956429315
 31
0.0
  0
LINE
  5
207
330
1FE
100
AcDbEntity
  8
SLD-0
 62
     7
100
AcDbLine
 10
285.9739736796
 20
132.1820213764
 30
0.0
 11
281.536794256
 21
132.1820213764
 31
0.0
  0
MTEXT
  5
208
330
1FE
100
AcDbEntity
  8
SLD-0
 62
     7
100
AcDbMText
 10
279.5349405682
 20
141.9017700271
 30
-45.8624971919
 40
3.5
 41
0.0
 71
     1
 72
     1
  1
4°
  7
SLDTEXTSTYLE0
 11
0.43098812448615
 21
0.9023575990437001
 31
0.0
 73
     1
 44
1.0
  0
ENDBLK
  5
200
330
1FE
100
AcDbEntity
  8
0
100
AcDbBlockEnd
  0
BLOCK
  5
20B
330
20A
100
AcDbEntity
  8
0
100
AcDbBlockBegin
  2
_D_8
 70
     0
 10
0.0
 20
0.0
 30
0.0
  3
_D_8
  1

  0
ARC
  5
20D
330
20A
100
AcDbEntity
  8
SLD-0
 62
     7
100
AcDbCircle
 10
306.9739736796
 20
132.1820213764
 30
0.0
 40
31.2939683604174
100
AcDbArc
 50
266.0
 51
270.0
  0
ARC
  5
20E
330
20A
100
AcDbEntity
  8
SLD-0
 62
     7
100
AcDbCircle
 10
306.9739736796
 20
132.1820213764
 30
0.0
 40
31.2939683604174
100
AcDbArc
 50
252.4199930384
 51
266.0
  0
ARC
  5
20F
330
20A
100
AcDbEntity
  8
SLD-0
 62
     7
100
AcDbCircle
 10
306.9739736796
 20
132.1820213764
 30
0.0
 40
31.2939683604174
100
AcDbArc
 50
270.0
 51
279.1360929791
  0
SOLID
  5
210
330
20A
100
AcDbEntity
  8
SLD-0
 62
     7
100
AcDbTrace
 10
304.7910167973
 20
100.9642835501
 30
0.0
 11
301.8997340531
 21
102.0610898651
 31
0.0
 12
301.7237408159
 22
100.5714501837
 32
0.0
 13
301.7237408159
 23
100.5714501837
 33
0.0
  0
SOLID
  5
211
330
20A
100
AcDbEntity
  8
SLD-0
 62
     7
100
AcDbTrace
 10
306.9739736796
 20
100.888053016
 30
0.0
 11
310.0063752605
 21
100.2822142155
 31
0.0
 12
309.9347227453
 22
101.7805018771
 32
0.0
 13
309.9347227453
 23
101.7805018771
 33
0.0
  0
LINE
  5
212
330
20A
100
AcDbEntity
  8
SLD-0
 62
     7
100
AcDbLine
 10
305.5439659679
 20
111.7319583461
 30
0.0
 11
304.7212603236
 21
99.9667194998
 31
0.0
  0
LINE
  5
213
330
20A
100
AcDbEntity
  8
SLD-0
 62
     7
100
AcDbLine
 10
306.9739736796
 20
111.1820213764
 30
0.0
 11
306.9739736796
 21
99.888053016
 31
0.0
  0
MTEXT
  5
214
330
20A
100
AcDbEntity
  8
SLD-0
 62
     7
100
AcDbMText
 10
298.4154361057
 20
106.6208465781
 30
-45.8624971919
 40
3.5
 41
0.0
 71
     1
 72
     1
  1
4°
  7
SLDTEXTSTYLE0
 11
0.9781333333170972
 21
-0.2079788024150164
 31
0.0
 73
     1
 44
1.0
  0
ENDBLK
  5
20C
330
20A
100
AcDbEntity
  8
0
100
AcDbBlockEnd
  0
BLOCK
  5
218
330
217
100
AcDbEntity
  8
0
100
AcDbBlockBegin
  2
_D_9
 70
     0
 10
0.0
 20
0.0
 30
0.0
  3
_D_9
  1

  0
SOLID
  5
21A
330
217
100
AcDbEntity
  8
SLD-0
 62
     7
100
AcDbTrace
 10
322.7123107162
 20
133.3217834373
 30
0.0
 11
324.8860699646
 21
135.5211630612
 31
0.0
 12
323.5953314065
 22
136.2853580459
 32
0.0
 13
323.5953314065
 23
136.2853580459
 33
0.0
  0
LINE
  5
21B
330
217
100
AcDbEntity
  8
SLD-0
 62
     7
100
AcDbLine
 10
322.7123107162
 20
133.3217834373
 30
0.0
 11
328.103354706
 21
142.4273500605
 31
0.0
  0
LINE
  5
21C
330
217
100
AcDbEntity
  8
SLD-0
 62
     7
100
AcDbLine
 10
328.103354706
 20
142.4273500605
 30
0.0
 11
358.0024518893
 21
142.4273500605
 31
0.0
  0
MTEXT
  5
21D
330
217
100
AcDbEntity
  8
SLD-0
 62
     7
100
AcDbMText
 10
332.746064
 20
152.01269761
 30
-45.8624971919
 40
3.5
 41
0.0
 71
     1
 72
     1
  1
3-
  7
SLDTEXTSTYLE0
 73
     1
 44
1.0
  0
MTEXT
  5
21E
330
217
100
AcDbEntity
  8
SLD-0
 62
     7
100
AcDbMText
 10
336.8196749949
 20
152.01269761
 30
-45.8624971919
 40
3.5
 41
0.0
 71
     1
 72
     1
  1
%%c
  7
SLDTEXTSTYLE0
 73
     1
 44
1.0
  0
MTEXT
  5
21F
330
217
100
AcDbEntity
  8
SLD-0
 62
     7
100
AcDbMText
 10
340.6896057428
 20
152.01269761
 30
-45.8624971919
 40
3.5
 41
0.0
 71
     1
 72
     1
  1
2.9キリ
  7
SLDTEXTSTYLE0
 73
     1
 44
1.0
  0
MTEXT
  5
220
330
217
100
AcDbEntity
  8
SLD-0
 62
     7
100
AcDbMText
 10
329.690854706
 20
146.9390869168
 30
-45.8624971919
 40
3.5
 41
0.0
 71
     1
 72
     1
  1
%%c
  7
SLDTEXTSTYLE0
 73
     1
 44
1.0
  0
MTEXT
  5
221
330
217
100
AcDbEntity
  8
SLD-0
 62
     7
100
AcDbMText
 10
333.5607852211
 20
146.9390869168
 30
-45.8624971919
 40
3.5
 41
0.0
 71
     1
 72
     1
  1
5
  7
SLDTEXTSTYLE0
 73
     1
 44
1.0
  0
MTEXT
  5
222
330
217
100
AcDbEntity
  8
SLD-0
 62
     7
100
AcDbMText
 10
335.5975907185
 20
146.9390869168
 30
-45.8624971919
 40
3.5
 41
0.0
 71
     1
 72
     1
  1
ザグリ深4.7
  7
SLDTEXTSTYLE0
 73
     1
 44
1.0
  0
ENDBLK
  5
219
330
217
100
AcDbEntity
  8
0
100
AcDbBlockEnd
  0
BLOCK
  5
224
330
223
100
AcDbEntity
  8
0
100
AcDbBlockBegin
  2
SW_NOTE_2
 70
     0
 10
0.0
 20
0.0
 30
0.0
  3
SW_NOTE_2
  1

  0
LINE
  5
226
330
223
100
AcDbEntity
  8
SLD-0
 62
     0
100
AcDbLine
 10
-10.2396514161
 20
0.0
 30
0.0
 11
0.0
 21
0.0
 31
0.0
  0
LINE
  5
227
330
223
100
AcDbEntity
  8
SLD-0
 62
     0
100
AcDbLine
 10
0.0
 20
0.0
 30
0.0
 11
-10.2396514161
 21
0.0
 31
0.0
  0
LINE
  5
228
330
223
100
AcDbEntity
  8
SLD-0
 62
     0
100
AcDbLine
 10
-10.2396514161
 20
0.0
 30
0.0
 11
0.0
 21
0.0
 31
0.0
  0
LINE
  5
229
330
223
100
AcDbEntity
  8
SLD-0
 62
     0
100
AcDbLine
 10
0.0
 20
0.0
 30
0.0
 11
-10.2396514161
 21
0.0
 31
0.0
  0
LINE
  5
22A
330
223
100
AcDbEntity
  8
SLD-0
 62
     0
100
AcDbLine
 10
-10.2396514161
 20
0.0
 30
0.0
 11
0.0
 21
0.0
 31
0.0
  0
LINE
  5
22B
330
223
100
AcDbEntity
  8
SLD-0
 62
     0
100
AcDbLine
 10
0.0
 20
0.0
 30
0.0
 11
-10.2396514161
 21
0.0
 31
0.0
  0
MTEXT
  5
22C
330
223
100
AcDbEntity
  8
SLD-0
 62
     0
100
AcDbMText
 10
-10.1632135973
 20
4.5637943564
 30
0.0
 40
3.5
 41
0.0
 71
     1
 72
     1
  1
PT3/8
  7
SLDTEXTSTYLE0
 73
     1
 44
1.0
  0
ENDBLK
  5
225
330
223
100
AcDbEntity
  8
0
100
AcDbBlockEnd
  0
BLOCK
  5
230
330
22F
100
AcDbEntity
  8
0
100
AcDbBlockBegin
  2
_OPEN30
 70
     0
 10
0.0
 20
0.0
 30
0.0
  3
_OPEN30
  1

  0
LINE
  5
232
330
22F
100
AcDbEntity
  8
0
  6
ByBlock
 62
     0
370
    -2
100
AcDbLine
 10
-1.0
 20
0.267949
 30
0.0
 11
0.0
 21
0.0
 31
0.0
  0
LINE
  5
233
330
22F
100
AcDbEntity
  8
0
  6
ByBlock
 62
     0
370
    -2
100
AcDbLine
 10
0.0
 20
0.0
 30
0.0
 11
-1.0
 21
-0.267949
 31
0.0
  0
LINE
  5
234
330
22F
100
AcDbEntity
  8
0
  6
ByBlock
 62
     0
370
    -2
100
AcDbLine
 10
0.0
 20
0.0
 30
0.0
 11
-1.0
 21
0.0
 31
0.0
  0
ENDBLK
  5
231
330
22F
100
AcDbEntity
  8
0
100
AcDbBlockEnd
  0
BLOCK
  5
237
330
236
100
AcDbEntity
  8
0
100
AcDbBlockBegin
  2
SW_CENTERMARKSYMBOL_0
 70
     0
 10
0.0
 20
0.0
 30
0.0
  3
SW_CENTERMARKSYMBOL_0
  1

  0
ARC
  5
239
330
236
100
AcDbEntity
  8
SLD-0
 62
     0
100
AcDbCircle
 10
14.4646787288
 20
-1.0114688693
 30
0.0
 40
14.49999999999999
100
AcDbArc
 50
176.0
 51
185.8785826747
  0
ARC
  5
23A
330
236
100
AcDbEntity
  8
SLD-0
 62
     0
100
AcDbCircle
 10
14.4646787288
 20
-1.0114688693
 30
0.0
 40
14.49999999999998
100
AcDbArc
 50
166.1214173253
 51
176.0
  0
ARC
  5
23B
330
236
100
AcDbEntity
  8
SLD-0
 62
     0
100
AcDbCircle
 10
14.4646787288
 20
-1.0114688693
 30
0.0
 40
14.5
100
AcDbArc
 50
356.0
 51
5.8785826747
  0
ARC
  5
23C
330
236
100
AcDbEntity
  8
SLD-0
 62
     0
100
AcDbCircle
 10
14.4646787288
 20
-1.0114688693
 30
0.0
 40
14.49999999999999
100
AcDbArc
 50
346.1214173253
 51
356.0
  0
ARC
  5
23D
330
236
100
AcDbEntity
  8
SLD-0
 62
     0
100
AcDbCircle
 10
14.4646787288
 20
-1.0114688693
 30
0.0
 40
14.5
100
AcDbArc
 50
266.0
 51
275.8785826747
  0
ARC
  5
23E
330
236
100
AcDbEntity
  8
SLD-0
 62
     0
100
AcDbCircle
 10
14.4646787288
 20
-1.0114688693
 30
0.0
 40
14.5
100
AcDbArc
 50
256.1214173253
 51
266.0
  0
ARC
  5
23F
330
236
100
AcDbEntity
  8
SLD-0
 62
     0
100
AcDbCircle
 10
14.4646787288
 20
-1.0114688693
 30
0.0
 40
14.50000000000001
100
AcDbArc
 50
195.7571653493
 51
246.2428346507
  0
ARC
  5
240
330
236
100
AcDbEntity
  8
SLD-0
 62
     0
100
AcDbCircle
 10
14.4646787288
 20
-1.0114688693
 30
0.0
 40
14.50000000000001
100
AcDbArc
 50
285.7571653493
 51
336.2428346507
  0
ARC
  5
241
330
236
100
AcDbEntity
  8
SLD-0
 62
     0
100
AcDbCircle
 10
14.4646787288
 20
-1.0114688693
 30
0.0
 40
14.50000000000001
100
AcDbArc
 50
15.7571653493
 51
156.2428346507
  0
LINE
  5
242
330
236
100
AcDbEntity
  8
SLD-0
 62
     0
100
AcDbLine
 10
0.0
 20
0.0
 30
0.0
 11
-2.4939101256
 21
0.1743911844
 31
0.0
  0
LINE
  5
243
330
236
100
AcDbEntity
  8
SLD-0
 62
     0
100
AcDbLine
 10
0.0
 20
0.0
 30
0.0
 11
2.4939101256
 21
-0.1743911844
 31
0.0
  0
LINE
  5
244
330
236
100
AcDbEntity
  8
SLD-0
 62
     0
100
AcDbLine
 10
-2.4939101256
 20
0.1743911844
 30
0.0
 11
-4.9878202513
 21
0.3487823687
 31
0.0
  0
LINE
  5
245
330
236
100
AcDbEntity
  8
SLD-0
 62
     0
100
AcDbLine
 10
2.4939101256
 20
-0.1743911844
 30
0.0
 11
4.9878202513
 21
-0.3487823687
 31
0.0
  0
LINE
  5
246
330
236
100
AcDbEntity
  8
SLD-0
 62
     0
100
AcDbLine
 10
28.9293574575
 20
-2.0229377386
 30
0.0
 11
31.4232675832
 21
-2.1973289229
 31
0.0
  0
LINE
  5
247
330
236
100
AcDbEntity
  8
SLD-0
 62
     0
100
AcDbLine
 10
28.9293574575
 20
-2.0229377386
 30
0.0
 11
26.4354473319
 21
-1.8485465542
 31
0.0
  0
LINE
  5
248
330
236
100
AcDbEntity
  8
SLD-0
 62
     0
100
AcDbLine
 10
31.4232675832
 20
-2.1973289229
 30
0.0
 11
33.9171777088
 21
-2.3717201073
 31
0.0
  0
LINE
  5
249
330
236
100
AcDbEntity
  8
SLD-0
 62
     0
100
AcDbLine
 10
26.4354473319
 20
-1.8485465542
 30
0.0
 11
23.9415372062
 21
-1.6741553699
 31
0.0
  0
LINE
  5
24A
330
236
100
AcDbEntity
  8
SLD-0
 62
     0
100
AcDbLine
 10
13.4532098595
 20
-15.4761475981
 30
0.0
 11
13.2788186751
 21
-17.9700577237
 31
0.0
  0
LINE
  5
24B
330
236
100
AcDbEntity
  8
SLD-0
 62
     0
100
AcDbLine
 10
13.4532098595
 20
-15.4761475981
 30
0.0
 11
13.6276010438
 21
-12.9822374724
 31
0.0
  0
LINE
  5
24C
330
236
100
AcDbEntity
  8
SLD-0
 62
     0
100
AcDbLine
 10
13.2788186751
 20
-17.9700577237
 30
0.0
 11
13.1044274908
 21
-20.4639678494
 31
0.0
  0
LINE
  5
24D
330
236
100
AcDbEntity
  8
SLD-0
 62
     0
100
AcDbLine
 10
13.6276010438
 20
-12.9822374724
 30
0.0
 11
13.8019922282
 21
-10.4883273468
 31
0.0
  0
ENDBLK
  5
238
330
236
100
AcDbEntity
  8
0
100
AcDbBlockEnd
  0
BLOCK
  5
250
330
24F
100
AcDbEntity
  8
0
100
AcDbBlockBegin
  2
SW_CENTERMARKSYMBOL_1
 70
     0
 10
0.0
 20
0.0
 30
0.0
  3
SW_CENTERMARKSYMBOL_1
  1

  0
LINE
  5
252
330
24F
100
AcDbEntity
  8
SLD-0
 62
     0
100
AcDbLine
 10
0.0
 20
0.0
 30
0.0
 11
0.0
 21
2.5
 31
0.0
  0
LINE
  5
253
330
24F
100
AcDbEntity
  8
SLD-0
 62
     0
100
AcDbLine
 10
0.0
 20
0.0
 30
0.0
 11
-2.5
 21
0.0
 31
0.0
  0
LINE
  5
254
330
24F
100
AcDbEntity
  8
SLD-0
 62
     0
100
AcDbLine
 10
0.0
 20
0.0
 30
0.0
 11
0.0
 21
-2.5
 31
0.0
  0
LINE
  5
255
330
24F
100
AcDbEntity
  8
SLD-0
 62
     0
100
AcDbLine
 10
0.0
 20
0.0
 30
0.0
 11
2.5
 21
0.0
 31
0.0
  0
LINE
  5
256
330
24F
100
AcDbEntity
  8
SLD-0
 62
     0
100
AcDbLine
 10
0.0
 20
5.0
 30
0.0
 11
0.0
 21
20.0
 31
0.0
  0
LINE
  5
257
330
24F
100
AcDbEntity
  8
SLD-0
 62
     0
100
AcDbLine
 10
-5.0
 20
0.0
 30
0.0
 11
-20.0
 21
0.0
 31
0.0
  0
LINE
  5
258
330
24F
100
AcDbEntity
  8
SLD-0
 62
     0
100
AcDbLine
 10
0.0
 20
-5.0
 30
0.0
 11
0.0
 21
-20.0
 31
0.0
  0
LINE
  5
259
330
24F
100
AcDbEntity
  8
SLD-0
 62
     0
100
AcDbLine
 10
5.0
 20
0.0
 30
0.0
 11
20.0
 21
0.0
 31
0.0
  0
ENDBLK
  5
251
330
24F
100
AcDbEntity
  8
0
100
AcDbBlockEnd
  0
BLOCK
  5
2AE
330
2AD
100
AcDbEntity
  8
0
100
AcDbBlockBegin
  2
_D_10
 70
     0
 10
0.0
 20
0.0
 30
0.0
  3
_D_10
  1

  0
ARC
  5
2B0
330
2AD
100
AcDbEntity
  8
SLD-0
 62
     7
100
AcDbCircle
 10
98.4160263204
 20
132.1820213764
 30
0.0
 40
21.07937380474108
100
AcDbArc
 50
240.9047574758
 51
259.1189349521
  0
SOLID
  5
2B1
330
2AD
100
AcDbEntity
  8
SLD-0
 62
     7
100
AcDbTrace
 10
94.7056401449
 20
118.1647807625
 30
0.0
 11
93.2129443527
 21
115.4565785411
 31
0.0
 12
94.6630037266
 22
115.0727454884
 32
0.0
 13
94.6630037266
 23
115.0727454884
 33
0.0
  0
LINE
  5
2B2
330
2AD
100
AcDbEntity
  8
SLD-0
 62
     7
100
AcDbLine
 10
94.7056401449
 20
118.1647807625
 30
0.0
 11
92.1522425046
 21
108.5184562519
 31
0.0
  0
LINE
  5
2B3
330
2AD
100
AcDbEntity
  8
SLD-0
 62
     7
100
AcDbLine
 10
92.1522425046
 20
108.5184562519
 30
0.0
 11
70.4003663799
 21
108.5184562519
 31
0.0
  0
MTEXT
  5
2B4
330
2AD
100
AcDbEntity
  8
SLD-0
 62
     7
100
AcDbMText
 10
70.4003663799
 20
113.030193574
 30
46.0624971919
 40
3.5
 41
0.0
 71
     1
 72
     1
  1
P.C.D.
  7
SLDTEXTSTYLE0
 73
     1
 44
1.0
  0
MTEXT
  5
2B5
330
2AD
100
AcDbEntity
  8
SLD-0
 62
     7
100
AcDbMText
 10
82.6211998304
 20
113.030193574
 30
46.0624971919
 40
3.5
 41
0.0
 71
     1
 72
     1
  1
%%c
  7
SLDTEXTSTYLE0
 73
     1
 44
1.0
  0
MTEXT
  5
2B6
330
2AD
100
AcDbEntity
  8
SLD-0
 62
     7
100
AcDbMText
 10
86.4911301126
 20
113.030193574
 30
46.0624971919
 40
3.5
 41
0.0
 71
     1
 72
     1
  1
29
  7
SLDTEXTSTYLE0
 73
     1
 44
1.0
  0
ENDBLK
  5
2AF
330
2AD
100
AcDbEntity
  8
0
100
AcDbBlockEnd
  0
BLOCK
  5
2B9
330
2B8
100
AcDbEntity
  8
0
100
AcDbBlockBegin
  2
_D_11
 70
     0
 10
0.0
 20
0.0
 30
0.0
  3
_D_11
  1

  0
ARC
  5
2BB
330
2B8
100
AcDbEntity
  8
SLD-0
 62
     7
100
AcDbCircle
 10
98.4160263204
 20
132.1820213764
 30
0.0
 40
24.3457438135198
100
AcDbArc
 50
0.0
 51
55.0
  0
SOLID
  5
2BC
330
2B8
100
AcDbEntity
  8
SLD-0
 62
     7
100
AcDbTrace
 10
122.7617701339
 20
132.1820213764
 30
0.0
 11
123.3265663335
 21
135.2223347242
 31
0.0
 12
121.8293840287
 22
135.1304372478
 32
0.0
 13
121.8293840287
 23
135.1304372478
 33
0.0
  0
SOLID
  5
2BD
330
2B8
100
AcDbEntity
  8
SLD-0
 62
     7
100
AcDbTrace
 10
112.3801712973
 20
152.124887191
 30
0.0
 11
114.2605774862
 21
149.6699793384
 31
0.0
 12
115.1946039828
 22
150.8436890571
 32
0.0
 13
115.1946039828
 23
150.8436890571
 33
0.0
  0
LINE
  5
2BE
330
2B8
100
AcDbEntity
  8
SLD-0
 62
     7
100
AcDbLine
 10
119.4160263204
 20
132.1820213764
 30
0.0
 11
123.7617701339
 21
132.1820213764
 31
0.0
  0
LINE
  5
2BF
330
2B8
100
AcDbEntity
  8
SLD-0
 62
     7
100
AcDbLine
 10
109.328318022
 20
147.766389019
 30
0.0
 11
112.9537477336
 21
152.9440392353
 31
0.0
  0
MTEXT
  5
2C0
330
2B8
100
AcDbEntity
  8
SLD-0
 62
     7
100
AcDbMText
 10
122.131940065
 20
149.1202601399
 30
46.0624971919
 40
3.5
 41
0.0
 71
     1
 72
     1
  1
55°
  7
SLDTEXTSTYLE0
 11
0.4617486132350229
 21
-0.8870108331782275
 31
0.0
 73
     1
 44
1.0
  0
ENDBLK
  5
2BA
330
2B8
100
AcDbEntity
  8
0
100
AcDbBlockEnd
  0
BLOCK
  5
2C3
330
2C2
100
AcDbEntity
  8
0
100
AcDbBlockBegin
  2
_D_12
 70
     0
 10
0.0
 20
0.0
 30
0.0
  3
_D_12
  1

  0
SOLID
  5
2C5
330
2C2
100
AcDbEntity
  8
SLD-0
 62
     7
100
AcDbTrace
 10
110.8062309626
 20
122.9774870104
 30
0.0
 11
111.6567119097
 21
120.0044107991
 31
0.0
 12
112.9557500154
 22
120.7544107991
 32
0.0
 13
112.9557500154
 23
120.7544107991
 33
0.0
  0
LINE
  5
2C6
330
2C2
100
AcDbEntity
  8
SLD-0
 62
     7
100
AcDbLine
 10
110.8062309626
 20
122.9774870104
 30
0.0
 11
116.757101332
 21
112.6702771814
 31
0.0
  0
LINE
  5
2C7
330
2C2
100
AcDbEntity
  8
SLD-0
 62
     7
100
AcDbLine
 10
116.757101332
 20
112.6702771814
 30
0.0
 11
138.7126577038
 21
112.6702771814
 31
0.0
  0
MTEXT
  5
2C8
330
2C2
100
AcDbEntity
  8
SLD-0
 62
     7
100
AcDbMText
 10
118.344601332
 20
121.6820133784
 30
46.0624971919
 40
3.5
 41
0.0
 71
     1
 72
     1
  1
4-M2.5深10
  7
SLDTEXTSTYLE0
 73
     1
 44
1.0
  0
MTEXT
  5
2C9
330
2C2
100
AcDbEntity
  8
SLD-0
 62
     7
100
AcDbMText
 10
119.566684677
 20
117.1820135721
 30
46.0624971919
 40
3.5
 41
0.0
 71
     1
 72
     1
  1
(90
  7
SLDTEXTSTYLE0
 73
     1
 44
1.0
  0
MTEXT
  5
2CA
330
2C2
100
AcDbEntity
  8
SLD-0
 62
     7
100
AcDbMText
 10
125.6771014023
 20
117.1820135721
 30
46.0624971919
 40
3.5
 41
0.0
 71
     1
 72
     1
  1
%%d
  7
SLDTEXTSTYLE0
 73
     1
 44
1.0
  0
MTEXT
  5
2CB
330
2C2
100
AcDbEntity
  8
SLD-0
 62
     7
100
AcDbMText
 10
127.3065457072
 20
117.1820135721
 30
46.0624971919
 40
3.5
 41
0.0
 71
     1
 72
     1
  1
等配)
  7
SLDTEXTSTYLE0
 73
     1
 44
1.0
  0
ENDBLK
  5
2C4
330
2C2
100
AcDbEntity
  8
0
100
AcDbBlockEnd
  0
BLOCK
  5
2CD
330
2CC
100
AcDbEntity
  8
0
100
AcDbBlockBegin
  2
SW_CENTERMARKSYMBOL_2
 70
     0
 10
0.0
 20
0.0
 30
0.0
  3
SW_CENTERMARKSYMBOL_2
  1

  0
ARC
  5
2CF
330
2CC
100
AcDbEntity
  8
SLD-0
 62
     0
100
AcDbCircle
 10
-8.3168583271
 20
-11.8777046422
 30
0.0
 40
14.50000000000001
100
AcDbArc
 50
55.0
 51
64.8785826747
  0
ARC
  5
2D0
330
2CC
100
AcDbEntity
  8
SLD-0
 62
     0
100
AcDbCircle
 10
-8.3168583271
 20
-11.8777046422
 30
0.0
 40
14.50000000000001
100
AcDbArc
 50
45.1214173253
 51
55.0
  0
ARC
  5
2D1
330
2CC
100
AcDbEntity
  8
SLD-0
 62
     0
100
AcDbCircle
 10
-8.3168583271
 20
-11.8777046422
 30
0.0
 40
14.49999999999999
100
AcDbArc
 50
325.0
 51
334.8785826747
  0
ARC
  5
2D2
330
2CC
100
AcDbEntity
  8
SLD-0
 62
     0
100
AcDbCircle
 10
-8.3168583271
 20
-11.8777046422
 30
0.0
 40
14.49999999999999
100
AcDbArc
 50
315.1214173253
 51
325.0
  0
ARC
  5
2D3
330
2CC
100
AcDbEntity
  8
SLD-0
 62
     0
100
AcDbCircle
 10
-8.3168583271
 20
-11.8777046422
 30
0.0
 40
14.5
100
AcDbArc
 50
235.0
 51
244.8785826747
  0
ARC
  5
2D4
330
2CC
100
AcDbEntity
  8
SLD-0
 62
     0
100
AcDbCircle
 10
-8.3168583271
 20
-11.8777046422
 30
0.0
 40
14.5
100
AcDbArc
 50
225.1214173253
 51
235.0
  0
ARC
  5
2D5
330
2CC
100
AcDbEntity
  8
SLD-0
 62
     0
100
AcDbCircle
 10
-8.3168583271
 20
-11.8777046422
 30
0.0
 40
14.50000000000002
100
AcDbArc
 50
145.0
 51
154.8785826747
  0
ARC
  5
2D6
330
2CC
100
AcDbEntity
  8
SLD-0
 62
     0
100
AcDbCircle
 10
-8.3168583271
 20
-11.8777046422
 30
0.0
 40
14.50000000000002
100
AcDbArc
 50
135.1214173253
 51
145.0
  0
ARC
  5
2D7
330
2CC
100
AcDbEntity
  8
SLD-0
 62
     0
100
AcDbCircle
 10
-8.3168583271
 20
-11.8777046422
 30
0.0
 40
14.5
100
AcDbArc
 50
254.7571653493
 51
305.2428346507
  0
ARC
  5
2D8
330
2CC
100
AcDbEntity
  8
SLD-0
 62
     0
100
AcDbCircle
 10
-8.3168583271
 20
-11.8777046422
 30
0.0
 40
14.5
100
AcDbArc
 50
344.7571653493
 51
35.2428346507
  0
ARC
  5
2D9
330
2CC
100
AcDbEntity
  8
SLD-0
 62
     0
100
AcDbCircle
 10
-8.3168583271
 20
-11.8777046422
 30
0.0
 40
14.50000000000002
100
AcDbArc
 50
74.7571653493
 51
125.2428346507
  0
ARC
  5
2DA
330
2CC
100
AcDbEntity
  8
SLD-0
 62
     0
100
AcDbCircle
 10
-8.3168583271
 20
-11.8777046422
 30
0.0
 40
14.50000000000001
100
AcDbArc
 50
164.7571653493
 51
215.2428346507
  0
LINE
  5
2DB
330
2CC
100
AcDbEntity
  8
SLD-0
 62
     0
100
AcDbLine
 10
0.0
 20
0.0
 30
0.0
 11
1.4339410909
 21
2.0478801107
 31
0.0
  0
LINE
  5
2DC
330
2CC
100
AcDbEntity
  8
SLD-0
 62
     0
100
AcDbLine
 10
0.0
 20
0.0
 30
0.0
 11
-1.4339410909
 21
-2.0478801107
 31
0.0
  0
LINE
  5
2DD
330
2CC
100
AcDbEntity
  8
SLD-0
 62
     0
100
AcDbLine
 10
1.4339410909
 20
2.0478801107
 30
0.0
 11
2.0218569381
 21
2.8875109561
 31
0.0
  0
LINE
  5
2DE
330
2CC
100
AcDbEntity
  8
SLD-0
 62
     0
100
AcDbLine
 10
-1.4339410909
 20
-2.0478801107
 30
0.0
 11
-2.0218569381
 21
-2.8875109561
 31
0.0
  0
LINE
  5
2DF
330
2CC
100
AcDbEntity
  8
SLD-0
 62
     0
100
AcDbLine
 10
3.5608463151
 20
-20.1945629693
 30
0.0
 11
5.6087264258
 21
-21.6285040602
 31
0.0
  0
LINE
  5
2E0
330
2CC
100
AcDbEntity
  8
SLD-0
 62
     0
100
AcDbLine
 10
3.5608463151
 20
-20.1945629693
 30
0.0
 11
1.5129662044
 21
-18.7606218784
 31
0.0
  0
LINE
  5
2E1
330
2CC
100
AcDbEntity
  8
SLD-0
 62
     0
100
AcDbLine
 10
5.6087264258
 20
-21.6285040602
 30
0.0
 11
6.4483572712
 21
-22.2164199074
 31
0.0
  0
LINE
  5
2E2
330
2CC
100
AcDbEntity
  8
SLD-0
 62
     0
100
AcDbLine
 10
1.5129662044
 20
-18.7606218784
 30
0.0
 11
0.673335359
 21
-18.1727060311
 31
0.0
  0
LINE
  5
2E3
330
2CC
100
AcDbEntity
  8
SLD-0
 62
     0
100
AcDbLine
 10
-16.6337166542
 20
-23.7554092844
 30
0.0
 11
-18.0676577451
 21
-25.8032893951
 31
0.0
  0
LINE
  5
2E4
330
2CC
100
AcDbEntity
  8
SLD-0
 62
     0
100
AcDbLine
 10
-16.6337166542
 20
-23.7554092844
 30
0.0
 11
-15.1997755633
 21
-21.7075291737
 31
0.0
  0
LINE
  5
2E5
330
2CC
100
AcDbEntity
  8
SLD-0
 62
     0
100
AcDbLine
 10
-18.0676577451
 20
-25.8032893951
 30
0.0
 11
-18.6555735923
 21
-26.6429202405
 31
0.0
  0
LINE
  5
2E6
330
2CC
100
AcDbEntity
  8
SLD-0
 62
     0
100
AcDbLine
 10
-15.1997755633
 20
-21.7075291737
 30
0.0
 11
-14.5064802921
 21
-20.717400914
 31
0.0
  0
LINE
  5
2E7
330
2CC
100
AcDbEntity
  8
SLD-0
 62
     0
100
AcDbLine
 10
-8.3168583271
 20
-11.8777046422
 30
0.0
 11
-8.3168583271
 21
-9.3777046422
 31
0.0
  0
LINE
  5
2E8
330
2CC
100
AcDbEntity
  8
SLD-0
 62
     0
100
AcDbLine
 10
-8.3168583271
 20
-11.8777046422
 30
0.0
 11
-10.8168583271
 21
-11.8777046422
 31
0.0
  0
LINE
  5
2E9
330
2CC
100
AcDbEntity
  8
SLD-0
 62
     0
100
AcDbLine
 10
-8.3168583271
 20
-11.8777046422
 30
0.0
 11
-8.3168583271
 21
-14.3777046422
 31
0.0
  0
LINE
  5
2EA
330
2CC
100
AcDbEntity
  8
SLD-0
 62
     0
100
AcDbLine
 10
-8.3168583271
 20
-11.8777046422
 30
0.0
 11
-5.8168583271
 21
-11.8777046422
 31
0.0
  0
LINE
  5
2EB
330
2CC
100
AcDbEntity
  8
SLD-0
 62
     0
100
AcDbLine
 10
-8.3168583271
 20
-6.8777046422
 30
0.0
 11
-8.3168583271
 21
0.875343685
 31
0.0
  0
LINE
  5
2EC
330
2CC
100
AcDbEntity
  8
SLD-0
 62
     0
100
AcDbLine
 10
-13.3168583271
 20
-11.8777046422
 30
0.0
 11
-21.0699066543
 21
-11.8777046422
 31
0.0
  0
LINE
  5
2ED
330
2CC
100
AcDbEntity
  8
SLD-0
 62
     0
100
AcDbLine
 10
-8.3168583271
 20
-16.8777046422
 30
0.0
 11
-8.3168583271
 21
-24.6307529694
 31
0.0
  0
LINE
  5
2EE
330
2CC
100
AcDbEntity
  8
SLD-0
 62
     0
100
AcDbLine
 10
-3.3168583271
 20
-11.8777046422
 30
0.0
 11
4.4361900001
 21
-11.8777046422
 31
0.0
  0
LINE
  5
2EF
330
2CC
100
AcDbEntity
  8
SLD-0
 62
     0
100
AcDbLine
 10
-20.1945629693
 20
-3.5608463151
 30
0.0
 11
-22.24244308
 21
-2.1269052242
 31
0.0
  0
LINE
  5
2F0
330
2CC
100
AcDbEntity
  8
SLD-0
 62
     0
100
AcDbLine
 10
-20.1945629693
 20
-3.5608463151
 30
0.0
 11
-18.1466828586
 21
-4.994787406
 31
0.0
  0
LINE
  5
2F1
330
2CC
100
AcDbEntity
  8
SLD-0
 62
     0
100
AcDbLine
 10
-22.24244308
 20
-2.1269052242
 30
0.0
 11
-23.0820739254
 21
-1.538989377
 31
0.0
  0
LINE
  5
2F2
330
2CC
100
AcDbEntity
  8
SLD-0
 62
     0
100
AcDbLine
 10
-18.1466828586
 20
-4.994787406
 30
0.0
 11
-17.2497988062
 21
-5.6227923803
 31
0.0
  0
ENDBLK
  5
2CE
330
2CC
100
AcDbEntity
  8
0
100
AcDbBlockEnd
  0
BLOCK
  5
2F5
330
2F4
100
AcDbEntity
  8
0
100
AcDbBlockBegin
  2
SW_CENTERMARKSYMBOL_3
 70
     0
 10
0.0
 20
0.0
 30
0.0
  3
SW_CENTERMARKSYMBOL_3
  1

  0
LINE
  5
2F7
330
2F4
100
AcDbEntity
  8
SLD-0
 62
     0
100
AcDbLine
 10
0.0
 20
0.0
 30
0.0
 11
0.0
 21
2.5
 31
0.0
  0
LINE
  5
2F8
330
2F4
100
AcDbEntity
  8
SLD-0
 62
     0
100
AcDbLine
 10
0.0
 20
0.0
 30
0.0
 11
-2.5
 21
0.0
 31
0.0
  0
LINE
  5
2F9
330
2F4
100
AcDbEntity
  8
SLD-0
 62
     0
100
AcDbLine
 10
0.0
 20
0.0
 30
0.0
 11
0.0
 21
-2.5
 31
0.0
  0
LINE
  5
2FA
330
2F4
100
AcDbEntity
  8
SLD-0
 62
     0
100
AcDbLine
 10
0.0
 20
0.0
 30
0.0
 11
2.5
 21
0.0
 31
0.0
  0
LINE
  5
2FB
330
2F4
100
AcDbEntity
  8
SLD-0
 62
     0
100
AcDbLine
 10
0.0
 20
5.0
 30
0.0
 11
0.0
 21
20.0
 31
0.0
  0
LINE
  5
2FC
330
2F4
100
AcDbEntity
  8
SLD-0
 62
     0
100
AcDbLine
 10
-5.0
 20
0.0
 30
0.0
 11
-20.0
 21
0.0
 31
0.0
  0
LINE
  5
2FD
330
2F4
100
AcDbEntity
  8
SLD-0
 62
     0
100
AcDbLine
 10
0.0
 20
-5.0
 30
0.0
 11
0.0
 21
-20.0
 31
0.0
  0
LINE
  5
2FE
330
2F4
100
AcDbEntity
  8
SLD-0
 62
     0
100
AcDbLine
 10
5.0
 20
0.0
 30
0.0
 11
20.0
 21
0.0
 31
0.0
  0
ENDBLK
  5
2F6
330
2F4
100
AcDbEntity
  8
0
100
AcDbBlockEnd
  0
ENDSEC
  0
SECTION
  2
ENTITIES
  0
LINE
  5
46
330
1F
100
AcDbEntity
  8
SLD-0
100
AcDbLine
 10
334.4999964925
 20
24.4999957746
 30
0.0
 11
334.4999964925
 21
36.9999957746
 31
0.0
  0
LINE
  5
47
330
1F
100
AcDbEntity
  8
SLD-0
100
AcDbLine
 10
16.9999964925
 20
11.9999957746
 30
0.0
 11
402.9999964925
 21
11.9999957746
 31
0.0
  0
LINE
  5
48
330
1F
100
AcDbEntity
  8
SLD-0
100
AcDbLine
 10
16.9999964925
 20
11.9999957746
 30
0.0
 11
16.9999964925
 21
284.9999957746
 31
0.0
  0
LINE
  5
49
330
1F
100
AcDbEntity
  8
SLD-0
100
AcDbLine
 10
16.9999964925
 20
284.9999957746
 30
0.0
 11
402.9999964925
 21
284.9999957746
 31
0.0
  0
LINE
  5
4A
330
1F
100
AcDbEntity
  8
SLD-0
100
AcDbLine
 10
402.9999964925
 20
11.9999957746
 30
0.0
 11
402.9999964925
 21
284.9999957746
 31
0.0
  0
LINE
  5
4B
330
1F
100
AcDbEntity
  8
SLD-0
100
AcDbLine
 10
402.9999964925
 20
24.4999957746
 30
0.0
 11
334.4999964925
 21
24.4999957746
 31
0.0
  0
LINE
  5
4C
330
1F
100
AcDbEntity
  8
SLD-0
100
AcDbLine
 10
334.4999964925
 20
11.9999957746
 30
0.0
 11
334.4999964925
 21
24.4999957746
 31
0.0
  0
LINE
  5
4D
330
1F
100
AcDbEntity
  8
SLD-0
100
AcDbLine
 10
334.4999964925
 20
36.9999957746
 30
0.0
 11
402.9999964925
 21
36.9999957746
 31
0.0
  0
LINE
  5
4E
330
1F
100
AcDbEntity
  8
SLD-0
100
AcDbLine
 10
334.4999964925
 20
36.9999957746
 30
0.0
 11
334.4999964925
 21
49.4999957746
 31
0.0
  0
LINE
  5
4F
330
1F
100
AcDbEntity
  8
SLD-0
100
AcDbLine
 10
334.4999964925
 20
49.4999957746
 30
0.0
 11
402.9999964925
 21
49.4999957746
 31
0.0
  0
MTEXT
  5
51
330
1F
100
AcDbEntity
  8
SLD-0
 62
     7
100
AcDbMText
 10
358.7766969258
 20
21.5752971171
 30
0.0
 40
5.2916666667
 41
0.0
 71
     1
 72
     1
  1
041860
  7
SLDTEXTSTYLE0
 73
     1
 44
1.0
  0
MTEXT
  5
52
330
1F
100
AcDbEntity
  8
SLD-0
 62
     7
100
AcDbMText
 10
357.0128082911
 20
34.0029699025
 30
0.0
 40
5.2916666667
 41
0.0
 71
     1
 72
     1
  1
ESVMR-A
  7
SLDTEXTSTYLE0
 73
     1
 44
1.0
  0
MTEXT
  5
53
330
1F
100
AcDbEntity
  8
SLD-0
 62
     7
100
AcDbMText
 10
337.6100323776
 20
46.5646280403
 30
0.0
 40
5.2916666667
 41
0.0
 71
     1
 72
     1
  1
マルチエジェクター
  7
SLDTEXTSTYLE0
 73
     1
 44
1.0
  0
LINE
  5
54
330
1F
100
AcDbEntity
  8
0
  6
Continuous
 62
     7
370
     0
100
AcDbLine
 10
178.1376730009
 20
152.6712292116
 30
0.0
 11
178.067544411
 21
152.1716975849
 31
0.0
  0
LINE
  5
55
330
1F
100
AcDbEntity
  8
0
  6
Continuous
 62
     7
370
     0
100
AcDbLine
 10
185.0183381989
 20
151.3322369438
 30
0.0
 11
185.1532998785
 21
152.2935946714
 31
0.0
  0
LINE
  5
56
330
1F
100
AcDbEntity
  8
0
  6
Continuous
 62
     7
370
     0
100
AcDbLine
 10
178.5617227956
 20
162.0184966605
 30
0.0
 11
168.8175144895
 21
163.0301774722
 31
0.0
  0
LINE
  5
57
330
1F
100
AcDbEntity
  8
0
  6
Continuous
 62
     7
370
     0
100
AcDbLine
 10
167.61959524
 20
151.4921990466
 30
0.0
 11
177.2957536682
 21
150.4875813853
 31
0.0
  0
LINE
  5
58
330
1F
100
AcDbEntity
  8
0
  6
Continuous
 62
     7
370
     0
100
AcDbLine
 10
178.9993419602
 20
160.3644603174
 30
0.0
 11
178.6199900611
 21
161.9169303458
 31
0.0
  0
LINE
  5
59
330
1F
100
AcDbEntity
  8
0
  6
Continuous
 62
     7
370
     0
100
AcDbLine
 10
185.1301974907
 20
152.6366249901
 30
0.0
 11
184.9885004862
 21
153.1664413642
 31
0.0
  0
LINE
  5
5A
330
1F
100
AcDbEntity
  8
0
  6
Continuous
 62
     7
370
     0
100
AcDbLine
 10
168.2116751849
 20
162.9925408643
 30
0.0
 11
167.2191554039
 21
163.0955898445
 31
0.0
  0
LINE
  5
5B
330
1F
100
AcDbEntity
  8
0
  6
Continuous
 62
     7
370
     0
100
AcDbLine
 10
166.0418905608
 20
151.7565400582
 30
0.0
 11
167.0344098761
 21
151.6534929406
 31
0.0
  0
SPLINE
  5
5C
330
1F
100
AcDbEntity
  8
0
  6
Continuous
 62
     7
370
     0
100
AcDbSpline
210
0.0
220
0.0
230
1.0
 70
     8
 71
     3
 72
    14
 73
    10
 74
     0
 42
0.00000001
 43
0.00000001
 12
1.0
 22
0.0
 32
0.0
 13
1.0
 23
0.0
 33
0.0
 40
0.0
 40
0.0
 40
0.0
 40
0.0
 40
0.0209638263697134
 40
0.3795103694447369
 40
0.6000746376559626
 40
0.7309940569507727
 40
0.8449585704207813
 40
0.9617493933955236
 40
1.0
 40
1.0
 40
1.0
 40
1.0
 10
165.5107791825332
 20
152.5583640914649
 30
0.0
 10
165.5110590554505
 20
152.5517073405094
 30
0.0
 10
165.51612562452
 20
152.4311994728185
 30
0.0
 10
165.5364268080401
 20
152.3018946768956
 30
0.0
 10
165.5775754998119
 20
152.1319083479822
 30
0.0
 10
165.6535158650632
 20
151.9791721279639
 30
0.0
 10
165.7809629791636
 20
151.8479026412507
 30
0.0
 10
165.9272431829576
 20
151.7642114959868
 30
0.0
 10
166.0203178958621
 20
151.7655941281615
 30
0.0
 10
166.0432805596985
 20
151.7659352403373
 30
0.0
  0
SPLINE
  5
5D
330
1F
100
AcDbEntity
  8
0
  6
Continuous
 62
     7
370
     0
100
AcDbSpline
210
0.0
220
0.0
230
1.0
 70
     8
 71
     3
 72
    15
 73
    11
 74
     0
 42
0.00000001
 43
0.00000001
 12
1.0
 22
0.0
 32
0.0
 13
1.0
 23
0.0
 33
0.0
 40
0.0
 40
0.0
 40
0.0
 40
0.0
 40
0.0185174757582829
 40
0.1212025050697755
 40
0.2101485661113549
 40
0.301058476249626
 40
0.407945273270467
 40
0.5564721339792434
 40
0.8130349126088662
 40
1.0
 40
1.0
 40
1.0
 40
1.0
 10
167.2238548576035
 20
163.0886608045787
 30
0.0
 10
167.2114153123576
 20
163.0921236418078
 30
0.0
 10
167.1299947091711
 20
163.1147889635983
 30
0.0
 10
166.9777248170685
 20
163.0725545233295
 30
0.0
 10
166.8279834216809
 20
162.9860769592898
 30
0.0
 10
166.7331113824978
 20
162.8847091205826
 30
0.0
 10
166.6680330743141
 20
162.7836679317891
 30
0.0
 10
166.6071415400782
 20
162.6515560348725
 30
0.0
 10
166.5530496829365
 20
162.49687697627
 30
0.0
 10
166.5124445102261
 20
162.3352639282771
 30
0.0
 10
166.4953277736105
 20
162.2671374362201
 30
0.0
  0
LINE
  5
5E
330
1F
100
AcDbEntity
  8
0
  6
Continuous
 62
     7
370
     0
100
AcDbLine
 10
181.270688708
 20
160.1286401283
 30
0.0
 11
180.6706897273
 21
160.1909344327
 31
0.0
  0
LINE
  5
5F
330
1F
100
AcDbEntity
  8
0
  6
Continuous
 62
     7
370
     0
100
AcDbLine
 10
179.1706885501
 20
160.3466701936
 30
0.0
 11
178.9744886859
 21
160.367040081
 31
0.0
  0
LINE
  5
60
330
1F
100
AcDbEntity
  8
0
  6
Continuous
 62
     7
370
     0
100
AcDbLine
 10
181.8349584296
 20
158.7630679142
 30
0.0
 11
181.8303278937
 21
158.7820221912
 31
0.0
  0
LINE
  5
61
330
1F
100
AcDbEntity
  8
0
  6
Continuous
 62
     7
370
     0
100
AcDbLine
 10
184.7349963441
 20
153.6297631692
 30
0.0
 11
184.9856692656
 21
155.4153600019
 31
0.0
  0
LINE
  5
62
330
1F
100
AcDbEntity
  8
0
  6
Continuous
 62
     7
370
     0
100
AcDbLine
 10
182.4133097484
 20
158.7030199599
 30
0.0
 11
181.8177978798
 21
158.764848603
 31
0.0
  0
ARC
  5
63
330
1F
100
AcDbEntity
  8
0
  6
Continuous
 62
     7
370
     0
100
AcDbCircle
 10
182.1138305791
 20
155.818525707
 30
0.0
 40
2.899999999999997
100
AcDbArc
 50
352.0086869646
 51
0.0
  0
ARC
  5
64
330
1F
100
AcDbEntity
  8
0
  6
Continuous
 62
     7
370
     0
100
AcDbCircle
 10
182.1138305791
 20
155.818525707
 30
0.0
 40
2.899999999999983
100
AcDbArc
 50
0.0
 51
84.0725614265
  0
LINE
  5
65
330
1F
100
AcDbEntity
  8
0
  6
Continuous
 62
     7
370
     0
100
AcDbLine
 10
168.2267300143
 20
160.4272724372
 30
0.0
 11
167.9483400016
 21
160.4561751019
 31
0.0
  0
LINE
  5
66
330
1F
100
AcDbEntity
  8
0
  6
Continuous
 62
     7
370
     0
100
AcDbLine
 10
167.2977459907
 20
154.189858703
 30
0.0
 11
167.5761360034
 21
154.1609541755
 31
0.0
  0
LINE
  5
67
330
1F
100
AcDbEntity
  8
0
  6
Continuous
 62
     7
370
     0
100
AcDbLine
 10
187.5706891819
 20
114.6820216682
 30
0.0
 11
204.0706909551
 21
114.6820216682
 31
0.0
  0
LINE
  5
68
330
1F
100
AcDbEntity
  8
0
  6
Continuous
 62
     7
370
     0
100
AcDbLine
 10
204.0706909551
 20
114.6820216682
 30
0.0
 11
204.5706882431
 21
115.1820217502
 31
0.0
  0
LINE
  5
69
330
1F
100
AcDbEntity
  8
0
  6
Continuous
 62
     7
370
     0
100
AcDbLine
 10
204.5706882431
 20
120.6820217204
 30
0.0
 11
244.0706900611
 21
120.6820217204
 31
0.0
  0
LINE
  5
6A
330
1F
100
AcDbEntity
  8
0
  6
Continuous
 62
     7
370
     0
100
AcDbLine
 10
244.0706900611
 20
143.6820217651
 30
0.0
 11
204.5706882431
 21
143.6820217651
 31
0.0
  0
LINE
  5
6B
330
1F
100
AcDbEntity
  8
0
  6
Continuous
 62
     7
370
     0
100
AcDbLine
 10
244.0706900611
 20
120.6820217204
 30
0.0
 11
244.5706910744
 21
121.1820218023
 31
0.0
  0
LINE
  5
6C
330
1F
100
AcDbEntity
  8
0
  6
Continuous
 62
     7
370
     0
100
AcDbLine
 10
244.5706910744
 20
143.1820216831
 30
0.0
 11
244.0706900611
 21
143.6820217651
 31
0.0
  0
LINE
  5
6D
330
1F
100
AcDbEntity
  8
0
  6
Continuous
 62
     7
370
     0
100
AcDbLine
 10
184.770984511
 20
118.3902836647
 30
0.0
 11
184.6734899386
 21
119.084763458
 31
0.0
  0
LINE
  5
6E
330
1F
100
AcDbEntity
  8
0
  6
Continuous
 62
     7
370
     0
100
AcDbLine
 10
176.7511758312
 20
117.9725799021
 30
0.0
 11
176.8192722752
 21
117.4875219595
 31
0.0
  0
LINE
  5
6F
330
1F
100
AcDbEntity
  8
0
  6
Continuous
 62
     7
370
     0
100
AcDbLine
 10
187.3706895217
 20
149.6820208859
 30
0.0
 11
174.3706892534
 21
149.6820208859
 31
0.0
  0
LINE
  5
70
330
1F
100
AcDbEntity
  8
0
  6
Continuous
 62
     7
370
     0
100
AcDbLine
 10
174.3706892534
 20
114.6820216682
 30
0.0
 11
177.858063887
 21
114.6820216682
 31
0.0
  0
LINE
  5
71
330
1F
100
AcDbEntity
  8
0
  6
Continuous
 62
     7
370
     0
100
AcDbLine
 10
183.6229599371
 20
114.6820216682
 30
0.0
 11
187.3706895217
 21
114.6820216682
 31
0.0
  0
LINE
  5
72
330
1F
100
AcDbEntity
  8
0
  6
Continuous
 62
     7
370
     0
100
AcDbLine
 10
187.5706891819
 20
148.682020722
 30
0.0
 11
187.3706895217
 21
148.682020722
 31
0.0
  0
LINE
  5
73
330
1F
100
AcDbEntity
  8
0
  6
Continuous
 62
     7
370
     0
100
AcDbLine
 10
187.3706895217
 20
115.6820218321
 30
0.0
 11
187.5706891819
 21
115.6820218321
 31
0.0
  0
LINE
  5
74
330
1F
100
AcDbEntity
  8
0
  6
Continuous
 62
     7
370
     0
100
AcDbLine
 10
179.1706885501
 20
158.7820221912
 30
0.0
 11
180.6706897273
 21
158.7820221912
 31
0.0
  0
LINE
  5
75
330
1F
100
AcDbEntity
  8
0
  6
Continuous
 62
     7
370
     0
100
AcDbLine
 10
180.6706897273
 20
171.9820202571
 30
0.0
 11
179.1706885501
 21
171.9820202571
 31
0.0
  0
LINE
  5
76
330
1F
100
AcDbEntity
  8
0
  6
Continuous
 62
     7
370
     0
100
AcDbLine
 10
181.270688708
 20
158.7820221912
 30
0.0
 11
191.086899425
 21
158.7820221912
 31
0.0
  0
LINE
  5
77
330
1F
100
AcDbEntity
  8
0
  6
Continuous
 62
     7
370
     0
100
AcDbLine
 10
191.4706900074
 20
171.9820202571
 30
0.0
 11
181.270688708
 21
171.9820202571
 31
0.0
  0
ARC
  5
78
330
1F
100
AcDbEntity
  8
0
  6
Continuous
 62
     7
370
     0
100
AcDbCircle
 10
192.470689167
 20
170.8477228911
 30
0.0
 40
0.9999999999999907
100
AcDbArc
 50
180.0248666682
 51
271.0954393772
  0
LINE
  5
79
330
1F
100
AcDbEntity
  8
0
  6
Continuous
 62
     7
370
     0
100
AcDbLine
 10
180.6706897273
 20
160.3820213359
 30
0.0
 11
181.270688708
 21
160.3820213359
 31
0.0
  0
LINE
  5
7A
330
1F
100
AcDbEntity
  8
0
  6
Continuous
 62
     7
370
     0
100
AcDbLine
 10
181.270688708
 20
170.382022975
 30
0.0
 11
180.6706897273
 21
170.382022975
 31
0.0
  0
LINE
  5
7B
330
1F
100
AcDbEntity
  8
0
  6
Continuous
 62
     7
370
     0
100
AcDbLine
 10
195.5706886306
 20
169.8824317437
 30
0.0
 11
192.4710161342
 21
169.8475518506
 31
0.0
  0
LINE
  5
7C
330
1F
100
AcDbEntity
  8
0
  6
Continuous
 62
     7
370
     0
100
AcDbLine
 10
200.4206887736
 20
157.9820216876
 30
0.0
 11
200.2206891134
 21
158.1820213478
 31
0.0
  0
LINE
  5
7D
330
1F
100
AcDbEntity
  8
0
  6
Continuous
 62
     7
370
     0
100
AcDbLine
 10
190.9206881478
 20
158.1820213478
 30
0.0
 11
190.7206884875
 21
157.9820216876
 31
0.0
  0
LINE
  5
7E
330
1F
100
AcDbEntity
  8
0
  6
Continuous
 62
     7
370
     0
100
AcDbLine
 10
200.4206887736
 20
157.6820221972
 30
0.0
 11
200.4206887736
 21
157.9820216876
 31
0.0
  0
LINE
  5
7F
330
1F
100
AcDbEntity
  8
0
  6
Continuous
 62
     7
370
     0
100
AcDbLine
 10
190.7206884875
 20
157.9820216876
 30
0.0
 11
190.7206884875
 21
157.6820221972
 31
0.0
  0
LINE
  5
80
330
1F
100
AcDbEntity
  8
0
  6
Continuous
 62
     7
370
     0
100
AcDbLine
 10
200.4206887736
 20
149.1820217353
 30
0.0
 11
200.4206887736
 21
154.6820217055
 31
0.0
  0
LINE
  5
81
330
1F
100
AcDbEntity
  8
0
  6
Continuous
 62
     7
370
     0
100
AcDbLine
 10
190.7206884875
 20
154.6820217055
 30
0.0
 11
190.7206884875
 21
149.1820217353
 31
0.0
  0
LINE
  5
82
330
1F
100
AcDbEntity
  8
0
  6
Continuous
 62
     7
370
     0
100
AcDbLine
 10
191.083639796
 20
158.7843262833
 30
0.0
 11
191.0849063947
 21
158.1388396453
 31
0.0
  0
LINE
  5
83
330
1F
100
AcDbEntity
  8
0
  6
Continuous
 62
     7
370
     0
100
AcDbLine
 10
200.0564708664
 20
158.1388396453
 30
0.0
 11
200.0706940248
 21
165.3820202928
 31
0.0
  0
ARC
  5
84
330
1F
100
AcDbEntity
  8
0
  6
Continuous
 62
     7
370
     0
100
AcDbCircle
 10
195.5709500642
 20
165.3820213764
 30
0.0
 40
4.499739102837414
100
AcDbArc
 50
0.0
 51
89.988643769
  0
LINE
  5
85
330
1F
100
AcDbEntity
  8
0
  6
Continuous
 62
     7
370
     0
100
AcDbLine
 10
183.4603603288
 20
152.7956855726
 30
0.0
 11
183.023245941
 21
149.6820208859
 31
0.0
  0
LINE
  5
86
330
1F
100
AcDbEntity
  8
0
  6
Continuous
 62
     7
370
     0
100
AcDbLine
 10
179.4491390987
 20
153.2121450883
 30
0.0
 11
178.9535581424
 21
149.6820208859
 31
0.0
  0
LINE
  5
87
330
1F
100
AcDbEntity
  8
0
  6
Continuous
 62
     7
370
     0
100
AcDbLine
 10
179.4491390987
 20
153.2121450883
 30
0.0
 11
181.4547497138
 21
153.0039162617
 31
0.0
  0
LINE
  5
88
330
1F
100
AcDbEntity
  8
0
  6
Continuous
 62
     7
370
     0
100
AcDbLine
 10
181.4547497138
 20
153.0039162617
 30
0.0
 11
183.4603603288
 21
152.7956855726
 31
0.0
  0
LINE
  5
89
330
1F
100
AcDbEntity
  8
0
  6
Continuous
 62
     7
370
     0
100
AcDbLine
 10
185.4913308575
 20
150.887942059
 30
0.0
 11
185.3220350399
 21
149.6820208859
 31
0.0
  0
LINE
  5
8A
330
1F
100
AcDbEntity
  8
0
  6
Continuous
 62
     7
370
     0
100
AcDbLine
 10
183.4603603288
 20
152.7956855726
 30
0.0
 11
184.4758446618
 21
151.8418138158
 31
0.0
  0
LINE
  5
8B
330
1F
100
AcDbEntity
  8
0
  6
Continuous
 62
     7
370
     0
100
AcDbLine
 10
184.4758446618
 20
151.8418138158
 30
0.0
 11
185.4913308575
 21
150.887942059
 31
0.0
  0
LINE
  5
8C
330
1F
100
AcDbEntity
  8
0
  6
Continuous
 62
     7
370
     0
100
AcDbLine
 10
177.4429454758
 20
151.5360643398
 30
0.0
 11
177.1826631679
 21
149.6820208859
 31
0.0
  0
SPLINE
  5
8D
330
1F
100
AcDbEntity
  8
0
  6
Continuous
 62
     7
370
     0
100
AcDbSpline
210
0.0
220
0.0
230
1.0
 70
     8
 71
     3
 72
     8
 73
     4
 74
     0
 42
0.00000001
 43
0.00000001
 12
1.0
 22
0.0
 32
0.0
 13
1.0
 23
0.0
 33
0.0
 40
0.000000392399246
 40
0.000000392399246
 40
0.000000392399246
 40
0.000000392399246
 40
0.0002629724099929
 40
0.0002629724099929
 40
0.0002629724099929
 40
0.0002629724099929
 10
177.4429459297013
 20
151.5360639630421
 30
0.0
 10
177.4768097430032
 20
151.6165013830442
 30
0.0
 10
177.5105686263268
 20
151.6970083956338
 30
0.0
 10
177.5442113122923
 20
151.777587623767
 30
0.0
  0
LINE
  5
8E
330
1F
100
AcDbEntity
  8
0
  6
Continuous
 62
     7
370
     0
100
AcDbLine
 10
177.5442119046
 20
151.7775879484
 30
0.0
 11
178.4590146794
 21
152.4665058833
 31
0.0
  0
LINE
  5
8F
330
1F
100
AcDbEntity
  8
0
  6
Continuous
 62
     7
370
     0
100
AcDbLine
 10
178.4590146794
 20
152.4665058833
 30
0.0
 11
179.4491390987
 21
153.2121450883
 31
0.0
  0
LWPOLYLINE
  5
90
330
1F
100
AcDbEntity
  8
0
  6
Continuous
 62
     7
370
     0
100
AcDbPolyline
 90
       15
 70
   128
 43
0.0
 10
185.1532998785
 20
152.2935946714
 10
185.1449384644
 20
152.5728442949
 10
185.0299294396
 20
152.8832559716
 10
184.8081182047
 20
153.1903726291
 10
184.4865921243
 20
153.4843837153
 10
184.0756255492
 20
153.7558940482
 10
183.5883464023
 20
153.9962292891
 10
183.0403282597
 20
154.1977097523
 10
182.4490781232
 20
154.353898136
 10
181.8334869399
 20
154.4598044139
 10
181.2132242425
 20
154.5120441597
 10
180.6081104382
 20
154.5089484435
 10
180.0374760582
 20
154.4506141227
 10
179.5195563986
 20
154.3389094305
 10
179.0708973362
 20
154.1773994696
  0
SPLINE
  5
91
330
1F
100
AcDbEntity
  8
0
  6
Continuous
 62
     7
370
     0
100
AcDbSpline
210
0.0
220
0.0
230
1.0
 70
     8
 71
     3
 72
    11
 73
     7
 74
     0
 42
0.00000001
 43
0.00000001
 12
1.0
 22
0.0
 32
0.0
 13
1.0
 23
0.0
 33
0.0
 40
0.0
 40
0.0
 40
0.0
 40
0.0
 40
0.2995612704745049
 40
0.7348010206765209
 40
0.9506255488932795
 40
1.0
 40
1.0
 40
1.0
 40
1.0
 10
179.0708973362245
 20
154.1773994695634
 30
0.0
 10
178.9256308796368
 20
154.0197361991927
 30
0.0
 10
178.5693033063106
 20
153.6330001841928
 30
0.0
 10
178.2757793100847
 20
153.1327810387302
 30
0.0
 10
178.1482889954015
 20
152.7952502069455
 30
0.0
 10
178.1452215611408
 20
152.6899932352206
 30
0.0
 10
178.1446504696407
 20
152.6703966092557
 30
0.0
  0
ARC
  5
92
330
1F
100
AcDbEntity
  8
0
  6
Continuous
 62
     7
370
     0
100
AcDbCircle
 10
177.0426089119
 20
159.6987096287
 30
0.0
 40
8.874167918688192
100
AcDbArc
 50
157.9502297022
 51
177.5534686995
  0
ARC
  5
93
330
1F
100
AcDbEntity
  8
0
  6
Continuous
 62
     7
370
     0
100
AcDbCircle
 10
202.1731306746
 20
153.5614177594
 30
0.0
 40
34.61543697708129
100
AcDbArc
 50
169.1497510473
 51
183.4270322951
  0
LWPOLYLINE
  5
94
330
1F
100
AcDbEntity
  8
0
  6
Continuous
 62
     7
370
     0
100
AcDbPolyline
 90
       11
 70
   128
 43
0.0
 10
177.920738171
 20
159.0658390206
 10
178.0173777892
 20
159.7252042275
 10
178.1130004033
 20
160.3198238891
 10
178.2058253243
 20
160.8386227172
 10
178.2941202923
 20
161.2719335836
 10
178.3762443169
 20
161.6116837841
 10
178.4506644412
 20
161.8515515011
 10
178.5159967198
 20
161.9870589357
 10
178.5710248455
 20
162.0156877917
 10
178.614720638
 20
161.9369053524
 10
178.6199900611
 20
161.9169303458
  0
ARC
  5
95
330
1F
100
AcDbEntity
  8
0
  6
Continuous
 62
     7
370
     0
100
AcDbCircle
 10
223.1416899982
 20
151.5335423739
 30
0.0
 40
45.84397427072307
100
AcDbArc
 50
170.5432606974
 51
181.2003049957
  0
ARC
  5
96
330
1F
100
AcDbEntity
  8
0
  6
Continuous
 62
     7
370
     0
100
AcDbCircle
 10
183.7284600177
 20
158.2155686993
 30
0.0
 40
5.218148381288868
100
AcDbArc
 50
155.6502535251
 51
179.8535141927
  0
ARC
  5
97
330
1F
100
AcDbEntity
  8
0
  6
Continuous
 62
     7
370
     0
100
AcDbCircle
 10
213.9900960426
 20
152.4936494434
 30
0.0
 40
35.94032695625307
100
AcDbArc
 50
170.8176380447
 51
180.5327341496
  0
ARC
  5
98
330
1F
100
AcDbEntity
  8
0
  6
Continuous
 62
     7
370
     0
100
AcDbCircle
 10
181.4206063704
 20
150.6124311809
 30
0.0
 40
4.387805423979544
100
AcDbArc
 50
35.5962720038
 51
102.0163611445
  0
SPLINE
  5
99
330
1F
100
AcDbEntity
  8
0
  6
Continuous
 62
     7
370
     0
100
AcDbSpline
210
0.0
220
0.0
230
1.0
 70
     8
 71
     3
 72
    10
 73
     6
 74
     0
 42
0.00000001
 43
0.00000001
 12
1.0
 22
0.0
 32
0.0
 13
1.0
 23
0.0
 33
0.0
 40
0.0
 40
0.0
 40
0.0
 40
0.0
 40
0.5
 40
0.5
 40
1.0
 40
1.0
 40
1.0
 40
1.0
 10
179.0708980115176
 20
154.177400343549
 30
0.0
 10
179.2812230685188
 20
154.3321112958189
 30
0.0
 10
179.5060964842884
 20
154.4730913978671
 30
0.0
 10
179.9847395341727
 20
154.719821141367
 30
0.0
 10
180.2404811505213
 20
154.8261265040372
 30
0.0
 10
180.5071056052053
 20
154.904092708611
 30
0.0
  0
LWPOLYLINE
  5
9A
330
1F
100
AcDbEntity
  8
0
  6
Continuous
 62
     7
370
     0
100
AcDbPolyline
 90
       38
 70
   128
 43
0.0
 10
168.2766954704
 20
160.7598421406
 10
168.2914196803
 20
161.0586160105
 10
168.3115716382
 20
161.6045722049
 10
168.3188974216
 20
162.0707736593
 10
168.313260126
 20
162.4485329967
 10
168.2947659223
 20
162.7308131438
 10
168.2637584685
 20
162.9123577159
 10
168.220816116
 20
162.9897841495
 10
168.1667379393
 20
162.9616470319
 10
168.102532561
 20
162.8284753543
 10
168.0293939366
 20
162.5927427095
 10
167.9486864536
 20
162.2588486653
 10
167.8619132667
 20
161.8330107313
 10
167.7706902205
 20
161.3231563252
 10
167.6767160474
 20
160.7387905251
 10
167.5817425653
 20
160.0907930415
 10
167.4875383555
 20
159.3912375402
 10
167.3958580299
 20
158.6531550866
 10
167.3084105655
 20
157.8902957272
 10
167.2268229826
 20
157.1168677192
 10
167.1526170625
 20
156.3472804856
 10
167.0871739566
 20
155.5958689433
 10
167.0317136972
 20
154.8766308706
 10
166.98726819
 20
154.2029642742
 10
166.9546653806
 20
153.5874196571
 10
166.9345143541
 20
153.0414616
 10
166.9271885707
 20
152.5752601456
 10
166.9328258663
 20
152.1975008082
 10
166.9513200699
 20
151.9152187985
 10
166.9823265924
 20
151.733676089
 10
167.0252698763
 20
151.6562515181
 10
167.0793471216
 20
151.6843867731
 10
167.1435534313
 20
151.8175603133
 10
167.2166911244
 20
152.0532892328
 10
167.2973986074
 20
152.387183277
 10
167.3841727256
 20
152.8130230736
 10
167.4753957718
 20
153.3228756171
 10
167.5567142024
 20
153.8252123874
  0
ARC
  5
9B
330
1F
100
AcDbEntity
  8
0
  6
Continuous
 62
     7
370
     0
100
AcDbCircle
 10
185.1149831429
 20
155.5069337725
 30
0.0
 40
17.86585084667627
100
AcDbArc
 50
163.9174261726
 51
184.2276947133
  0
ARC
  5
9C
330
1F
100
AcDbEntity
  8
0
  6
Continuous
 62
     7
370
     0
100
AcDbCircle
 10
213.9092989364
 20
152.5568123363
 30
0.0
 40
48.39681325625669
100
AcDbArc
 50
168.5041997363
 51
179.8932687968
  0
ARC
  5
9D
330
1F
100
AcDbEntity
  8
0
  6
Continuous
 62
     7
370
     0
100
AcDbCircle
 10
225.538352857
 20
151.3913538025
 30
0.0
 40
45.00105344296661
100
AcDbArc
 50
169.641779376
 51
175.5450229795
  0
ARC
  5
9E
330
1F
100
AcDbEntity
  8
0
  6
Continuous
 62
     7
370
     0
100
AcDbCircle
 10
186.7953674798
 20
156.7477651276
 30
0.0
 40
5.370737832844925
100
AcDbArc
 50
157.9405054801
 51
180.1127986593
  0
SPLINE
  5
9F
330
1F
100
AcDbEntity
  8
0
  6
Continuous
 62
     7
370
     0
100
AcDbSpline
210
0.0
220
0.0
230
1.0
 70
     8
 71
     3
 72
     9
 73
     5
 74
     0
 42
0.00000001
 43
0.00000001
 12
1.0
 22
0.0
 32
0.0
 13
1.0
 23
0.0
 33
0.0
 40
0.0
 40
0.0
 40
0.0
 40
0.0
 40
0.449465840512428
 40
1.0
 40
1.0
 40
1.0
 40
1.0
 10
180.8227709784307
 20
154.9039968531818
 30
0.0
 10
180.9324923839549
 20
155.1774480522089
 30
0.0
 10
181.1766074993531
 20
155.7858395569233
 30
0.0
 10
181.3365733756611
 20
156.3994037001018
 30
0.0
 10
181.4246400549211
 20
156.7371917199582
 30
0.0
  0
ELLIPSE
  5
A0
330
1F
100
AcDbEntity
  8
0
  6
Continuous
 62
     7
370
     0
100
AcDbEllipse
 10
182.1138305791
 20
155.818525707
 30
0.0
 11
3.153389272628942
 21
2.467300314416207
 31
0.0
210
0.0
220
0.0
230
1.0
 40
0.2867760894
 41
1.356572320329428
 42
1.564974126921175
  0
LINE
  5
A1
330
1F
100
AcDbEntity
  8
0
  6
Continuous
 62
     7
370
     0
100
AcDbLine
 10
187.5706891819
 20
114.6820216682
 30
0.0
 11
187.5706891819
 21
149.1820217353
 31
0.0
  0
LINE
  5
A2
330
1F
100
AcDbEntity
  8
0
  6
Continuous
 62
     7
370
     0
100
AcDbLine
 10
187.5706891819
 20
149.1820217353
 30
0.0
 11
193.0661945894
 21
149.1820217353
 31
0.0
  0
LINE
  5
A3
330
1F
100
AcDbEntity
  8
0
  6
Continuous
 62
     7
370
     0
100
AcDbLine
 10
198.0751863971
 20
149.1820217353
 30
0.0
 11
204.0706909551
 21
149.1820217353
 31
0.0
  0
LINE
  5
A4
330
1F
100
AcDbEntity
  8
0
  6
Continuous
 62
     7
370
     0
100
AcDbLine
 10
204.0706909551
 20
114.6820216682
 30
0.0
 11
204.0706909551
 21
149.1820217353
 31
0.0
  0
SPLINE
  5
A5
330
1F
100
AcDbEntity
  8
0
  6
Continuous
 62
     7
370
     0
100
AcDbSpline
210
0.0
220
0.0
230
1.0
 70
    24
 71
     3
 72
     8
 73
     4
 74
     0
 42
0.00000001
 43
0.00000001
 12
1.0
 22
0.0
 32
0.0
 13
1.0
 23
0.0
 33
0.0
 40
0.0
 40
0.0
 40
0.0
 40
0.0
 40
1.0
 40
1.0
 40
1.0
 40
1.0
 10
204.5706891670026
 20
149.182021376405
 30
0.0
 10
204.5706891670026
 20
149.182021376405
 30
0.0
 10
204.3928782047761
 20
149.182021376405
 30
0.0
 10
204.0706891670026
 20
149.182021376405
 30
0.0
  0
LINE
  5
A6
330
1F
100
AcDbEntity
  8
0
  6
Continuous
 62
     7
370
     0
100
AcDbLine
 10
204.5706882431
 20
149.1820217353
 30
0.0
 11
204.5706882431
 21
146.1076067072
 31
0.0
  0
LINE
  5
A7
330
1F
100
AcDbEntity
  8
0
  6
Continuous
 62
     7
370
     0
100
AcDbLine
 10
204.5706882431
 20
146.1076067072
 30
0.0
 11
204.5706882431
 21
133.3678815291
 31
0.0
  0
LINE
  5
A8
330
1F
100
AcDbEntity
  8
0
  6
Continuous
 62
     7
370
     0
100
AcDbLine
 10
204.5706882431
 20
133.3678815291
 30
0.0
 11
204.5706882431
 21
122.4312220011
 31
0.0
  0
LINE
  5
A9
330
1F
100
AcDbEntity
  8
0
  6
Continuous
 62
     7
370
     0
100
AcDbLine
 10
204.5706882431
 20
122.4312220011
 30
0.0
 11
204.5706882431
 21
115.2234320771
 31
0.0
  0
LINE
  5
AA
330
1F
100
AcDbEntity
  8
0
  6
Continuous
 62
     7
370
     0
100
AcDbLine
 10
204.5706882431
 20
115.2234320771
 30
0.0
 11
204.5706882431
 21
115.1820217502
 31
0.0
  0
LINE
  5
AB
330
1F
100
AcDbEntity
  8
0
  6
Continuous
 62
     7
370
     0
100
AcDbLine
 10
244.0706900611
 20
120.6820217204
 30
0.0
 11
244.0706900611
 21
143.6820217651
 31
0.0
  0
LINE
  5
AC
330
1F
100
AcDbEntity
  8
0
  6
Continuous
 62
     7
370
     0
100
AcDbLine
 10
244.5706910744
 20
143.1820216831
 30
0.0
 11
244.5706910744
 21
121.1820218023
 31
0.0
  0
LINE
  5
AD
330
1F
100
AcDbEntity
  8
0
  6
Continuous
 62
     7
370
     0
100
AcDbLine
 10
176.7919118806
 20
117.4629965108
 30
0.0
 11
177.0965847477
 21
115.2927448284
 31
0.0
  0
LINE
  5
AE
330
1F
100
AcDbEntity
  8
0
  6
Continuous
 62
     7
370
     0
100
AcDbLine
 10
176.8451742186
 20
117.5107407626
 30
0.0
 11
176.7919118806
 21
117.4629965108
 31
0.0
  0
LINE
  5
AF
330
1F
100
AcDbEntity
  8
0
  6
Continuous
 62
     7
370
     0
100
AcDbLine
 10
178.8544989481
 20
119.3119493556
 30
0.0
 11
176.8451742186
 21
117.5107407626
 31
0.0
  0
LINE
  5
B0
330
1F
100
AcDbEntity
  8
0
  6
Continuous
 62
     7
370
     0
100
AcDbLine
 10
178.9077612861
 20
119.3596936073
 30
0.0
 11
178.8544989481
 21
119.3119493556
 31
0.0
  0
LINE
  5
B1
330
1F
100
AcDbEntity
  8
0
  6
Continuous
 62
     7
370
     0
100
AcDbLine
 10
178.9077612861
 20
119.3596936073
 30
0.0
 11
179.2124341532
 21
117.1894428563
 31
0.0
  0
LINE
  5
B2
330
1F
100
AcDbEntity
  8
0
  6
Continuous
 62
     7
370
     0
100
AcDbLine
 10
179.2124341532
 20
117.1894428563
 30
0.0
 11
177.0965847477
 21
115.2927448284
 31
0.0
  0
LINE
  5
B3
330
1F
100
AcDbEntity
  8
0
  6
Continuous
 62
     7
370
     0
100
AcDbLine
 10
183.0165702208
 20
114.1384384837
 30
0.0
 11
185.1324177637
 21
116.0351355803
 31
0.0
  0
LINE
  5
B4
330
1F
100
AcDbEntity
  8
0
  6
Continuous
 62
     7
370
     0
100
AcDbLine
 10
178.9986527815
 20
113.7672421765
 30
0.0
 11
183.0165702208
 21
114.1384384837
 31
0.0
  0
LINE
  5
B5
330
1F
100
AcDbEntity
  8
0
  6
Continuous
 62
     7
370
     0
100
AcDbLine
 10
177.0965847477
 20
115.2927448284
 30
0.0
 11
178.9986527815
 21
113.7672421765
 31
0.0
  0
LINE
  5
B6
330
1F
100
AcDbEntity
  8
0
  6
Continuous
 62
     7
370
     0
100
AcDbLine
 10
183.2303515925
 20
117.5606382322
 30
0.0
 11
179.2124341532
 21
117.1894428563
 31
0.0
  0
LINE
  5
B7
330
1F
100
AcDbEntity
  8
0
  6
Continuous
 62
     7
370
     0
100
AcDbLine
 10
185.1324177637
 20
116.0351355803
 30
0.0
 11
183.2303515925
 21
117.5606382322
 31
0.0
  0
LINE
  5
B8
330
1F
100
AcDbEntity
  8
0
  6
Continuous
 62
     7
370
     0
100
AcDbLine
 10
179.0089029177
 20
119.3690375667
 30
0.0
 11
178.9077612861
 21
119.3596936073
 31
0.0
  0
LINE
  5
B9
330
1F
100
AcDbEntity
  8
0
  6
Continuous
 62
     7
370
     0
100
AcDbLine
 10
182.8245370939
 20
119.7215450239
 30
0.0
 11
179.0089029177
 21
119.3690375667
 31
0.0
  0
LINE
  5
BA
330
1F
100
AcDbEntity
  8
0
  6
Continuous
 62
     7
370
     0
100
AcDbLine
 10
182.9256787255
 20
119.7308889833
 30
0.0
 11
182.8245370939
 21
119.7215450239
 31
0.0
  0
LINE
  5
BB
330
1F
100
AcDbEntity
  8
0
  6
Continuous
 62
     7
370
     0
100
AcDbLine
 10
182.9256787255
 20
119.7308889833
 30
0.0
 11
183.2303515925
 21
117.5606382322
 31
0.0
  0
LINE
  5
BC
330
1F
100
AcDbEntity
  8
0
  6
Continuous
 62
     7
370
     0
100
AcDbLine
 10
182.973558019
 20
119.6924886909
 30
0.0
 11
182.9256787255
 21
119.7308889833
 31
0.0
  0
LINE
  5
BD
330
1F
100
AcDbEntity
  8
0
  6
Continuous
 62
     7
370
     0
100
AcDbLine
 10
184.7798656031
 20
118.243787555
 30
0.0
 11
182.973558019
 21
119.6924886909
 31
0.0
  0
LINE
  5
BE
330
1F
100
AcDbEntity
  8
0
  6
Continuous
 62
     7
370
     0
100
AcDbLine
 10
184.8277448966
 20
118.2053872627
 30
0.0
 11
184.7798656031
 21
118.243787555
 31
0.0
  0
LINE
  5
BF
330
1F
100
AcDbEntity
  8
0
  6
Continuous
 62
     7
370
     0
100
AcDbLine
 10
184.8277448966
 20
118.2053872627
 30
0.0
 11
185.1324177637
 21
116.0351355803
 31
0.0
  0
LWPOLYLINE
  5
C0
330
1F
100
AcDbEntity
  8
0
  6
Continuous
 62
     7
370
     0
100
AcDbPolyline
 90
        9
 70
   128
 43
0.0
 10
182.973558019
 20
119.6924886909
 10
183.3728439464
 20
119.5904390197
 10
183.7318911507
 20
119.4608166125
 10
184.0450614049
 20
119.3056564089
 10
184.3074391886
 20
119.1273947489
 10
184.5149061932
 20
118.9288302567
 10
184.6642027899
 20
118.7130800691
 10
184.7529876336
 20
118.4835314062
 10
184.7798656031
 20
118.243787555
  0
ARC
  5
C1
330
1F
100
AcDbEntity
  8
0
  6
Continuous
 62
     7
370
     0
100
AcDbCircle
 10
181.6092140081
 20
112.0495526142
 30
0.0
 40
7.767655871419501
100
AcDbArc
 50
80.9985512148
 51
109.5580273935
  0
ARC
  5
C2
330
1F
100
AcDbEntity
  8
0
  6
Continuous
 62
     7
370
     0
100
AcDbCircle
 10
179.4809998881
 20
116.5917130749
 30
0.0
 40
2.79144923837479
100
AcDbArc
 50
102.969699126
 51
160.7779785912
  0
ARC
  5
C3
330
1F
100
AcDbEntity
  8
0
  6
Continuous
 62
     7
370
     0
100
AcDbCircle
 10
183.5428781353
 20
118.8880693123
 30
0.0
 40
1.147593846548017
100
AcDbArc
 50
9.8690536855
 51
54.4598000753
  0
LWPOLYLINE
  5
C4
330
1F
100
AcDbEntity
  8
0
  6
Continuous
 62
     7
370
     0
100
AcDbPolyline
 90
       18
 70
   128
 43
0.0
 10
176.7511758312
 20
117.9725799021
 10
176.7421680792
 20
118.1084282007
 10
176.7983752593
 20
118.4335678127
 10
176.9613455339
 20
118.761301158
 10
177.2266327693
 20
119.0826894026
 10
177.587000589
 20
119.3889650759
 10
178.0326198145
 20
119.6717742142
 10
178.5513348236
 20
119.9234026727
 10
179.1289951011
 20
120.136986604
 10
179.7498445316
 20
120.3066996541
 10
180.3969498082
 20
120.4279131498
 10
181.0526567801
 20
120.4973199647
 10
181.6990803286
 20
120.5130267199
 10
182.3185886546
 20
120.4746059384
 10
182.8942819788
 20
120.3831053581
 10
183.4104582026
 20
120.2410209235
 10
183.8530357286
 20
120.0522269365
 10
184.2099446162
 20
119.8218754735
  0
LINE
  5
C5
330
1F
100
AcDbEntity
  8
0
  6
Continuous
 62
     7
370
     0
100
AcDbLine
 10
187.3706895217
 20
149.6820208859
 30
0.0
 11
187.3706895217
 21
114.6820216682
 31
0.0
  0
LINE
  5
C6
330
1F
100
AcDbEntity
  8
0
  6
Continuous
 62
     7
370
     0
100
AcDbLine
 10
174.3706892534
 20
140.6661897209
 30
0.0
 11
174.3706892534
 21
149.6820208859
 31
0.0
  0
LINE
  5
C7
330
1F
100
AcDbEntity
  8
0
  6
Continuous
 62
     7
370
     0
100
AcDbLine
 10
174.3706892534
 20
114.6820216682
 30
0.0
 11
174.3706892534
 21
140.6661897209
 31
0.0
  0
SPLINE
  5
C8
330
1F
100
AcDbEntity
  8
0
  6
Continuous
 62
     7
370
     0
100
AcDbSpline
210
0.0
220
0.0
230
1.0
 70
     8
 71
     3
 72
    18
 73
    14
 74
     0
 42
0.00000001
 43
0.00000001
 12
1.0
 22
0.0
 32
0.0
 13
1.0
 23
0.0
 33
0.0
 40
0.0
 40
0.0
 40
0.0
 40
0.0
 40
0.1249999999999996
 40
0.1249999999999996
 40
0.2499999999999992
 40
0.2499999999999992
 40
0.3749999999999988
 40
0.3749999999999988
 40
0.4999999999999984
 40
0.4999999999999984
 40
0.7499999999999992
 40
0.7499999999999992
 40
1.0
 40
1.0
 40
1.0
 40
1.0
 10
183.8366104380728
 20
120.7127588946188
 30
0.0
 10
183.9736536179687
 20
120.7127588946188
 30
0.0
 10
184.1081318742557
 20
120.7017083010012
 30
0.0
 10
184.3723461923048
 20
120.6593082558283
 30
0.0
 10
184.5034566775015
 20
120.6274152414898
 30
0.0
 10
184.7522629688019
 20
120.5459894350611
 30
0.0
 10
184.8702120733152
 20
120.496705956397
 30
0.0
 10
185.0936862926159
 20
120.3821668648516
 30
0.0
 10
185.1988599019519
 20
120.316808416081
 30
0.0
 10
185.4836372733969
 20
120.1056825458139
 30
0.0
 10
185.6392457203023
 20
119.9397201730434
 30
0.0
 10
185.8546737445003
 20
119.5910815212884
 30
0.0
 10
185.9173042210087
 20
119.4045294455888
 30
0.0
 10
185.924986842649
 20
119.2206043945644
 30
0.0
  0
LINE
  5
C9
330
1F
100
AcDbEntity
  8
0
  6
Continuous
 62
     7
370
     0
100
AcDbLine
 10
183.8366109236
 20
120.7127590906
 30
0.0
 11
177.7915506913
 21
120.7127590906
 31
0.0
  0
SPLINE
  5
CA
330
1F
100
AcDbEntity
  8
0
  6
Continuous
 62
     7
370
     0
100
AcDbSpline
210
0.0
220
0.0
230
1.0
 70
     8
 71
     3
 72
    20
 73
    16
 74
     0
 42
0.00000001
 43
0.00000001
 12
1.0
 22
0.0
 32
0.0
 13
1.0
 23
0.0
 33
0.0
 40
0.0
 40
0.0
 40
0.0
 40
0.0
 40
0.1249999999999995
 40
0.1249999999999995
 40
0.249999999999999
 40
0.249999999999999
 40
0.3749999999999985
 40
0.3749999999999985
 40
0.499999999999998
 40
0.499999999999998
 40
0.6249999999999976
 40
0.6249999999999976
 40
0.749999999999997
 40
0.749999999999997
 40
1.0
 40
1.0
 40
1.0
 40
1.0
 10
175.8498885880606
 20
119.2206043945644
 30
0.0
 10
175.846138160168
 20
119.3103911462494
 30
0.0
 10
175.8549211666908
 20
119.4001174302829
 30
0.0
 10
175.8966150352975
 20
119.5793677826848
 30
0.0
 10
175.9299979110345
 20
119.6697518735693
 30
0.0
 10
176.0204936933574
 20
119.8456768685074
 30
0.0
 10
176.0769561246014
 20
119.9305044619717
 30
0.0
 10
176.212404451026
 20
120.0933578248178
 30
0.0
 10
176.292478201702
 20
120.172104151299
 30
0.0
 10
176.4700056273807
 20
120.3153756988854
 30
0.0
 10
176.5676717077414
 20
120.3805339472682
 30
0.0
 10
176.781519117947
 20
120.4967268787646
 30
0.0
 10
176.8977614261557
 20
120.547399492915
 30
0.0
 10
177.2583689376025
 20
120.6691018558705
 30
0.0
 10
177.5238674731398
 20
120.7127588946188
 30
0.0
 10
177.7915514853197
 20
120.7127588946188
 30
0.0
  0
ELLIPSE
  5
CB
330
1F
100
AcDbEntity
  8
0
  6
Continuous
 62
     7
370
     0
100
AcDbEllipse
 10
173.7580417851
 20
132.1820213764
 30
0.0
 11
-1.885889812007719
 21
17.49964811206166
 31
0.0
210
0.0
220
0.0
230
1.0
 40
0.058846104
 41
3.410786524704126
 42
3.872006547276266
  0
SPLINE
  5
CC
330
1F
100
AcDbEntity
  8
0
  6
Continuous
 62
     7
370
     0
100
AcDbSpline
210
0.0
220
0.0
230
1.0
 70
     8
 71
     3
 72
    12
 73
     8
 74
     0
 42
0.00000001
 43
0.00000001
 12
1.0
 22
0.0
 32
0.0
 13
1.0
 23
0.0
 33
0.0
 40
0.0
 40
0.0
 40
0.0
 40
0.0
 40
0.1434405608432359
 40
0.357515753122251
 40
0.5730934791827013
 40
0.7979721513603281
 40
1.0
 40
1.0
 40
1.0
 40
1.0
 10
177.5855309619702
 20
114.9005993511767
 30
0.0
 10
177.4439233276065
 20
114.9030248202108
 30
0.0
 10
177.0909760179348
 20
114.9090701353107
 30
0.0
 10
176.5900335148829
 20
114.9586306842817
 30
0.0
 10
176.1526368908271
 20
115.0497001944193
 30
0.0
 10
175.8836350897905
 20
115.1787093391723
 30
0.0
 10
175.8607286014011
 20
115.2896337638785
 30
0.0
 10
175.8498884095945
 20
115.3421272766084
 30
0.0
  0
SPLINE
  5
CD
330
1F
100
AcDbEntity
  8
0
  6
Continuous
 62
     7
370
     0
100
AcDbSpline
210
0.0
220
0.0
230
1.0
 70
     8
 71
     3
 72
    20
 73
    16
 74
     0
 42
0.00000001
 43
0.00000001
 12
1.0
 22
0.0
 32
0.0
 13
1.0
 23
0.0
 33
0.0
 40
0.0
 40
0.0
 40
0.0
 40
0.0
 40
0.125
 40
0.125
 40
0.25
 40
0.25
 40
0.375
 40
0.375
 40
0.5
 40
0.5
 40
0.625
 40
0.625
 40
0.75
 40
0.75
 40
1.0
 40
1.0
 40
1.0
 40
1.0
 10
185.924986842649
 20
115.3421274325937
 30
0.0
 10
185.9211427117916
 20
115.304862465369
 30
0.0
 10
185.9038885938671
 20
115.2698871393092
 30
0.0
 10
185.8445225112919
 20
115.204062569383
 30
0.0
 10
185.8018401360445
 20
115.172948554704
 30
0.0
 10
185.6933504245942
 20
115.115937703488
 30
0.0
 10
185.6282033972793
 20
115.09019050638
 30
0.0
 10
185.476676269774
 20
115.0433889804165
 30
0.0
 10
185.3893213557003
 20
115.0222040761645
 30
0.0
 10
185.199152657151
 20
114.9853839278703
 30
0.0
 10
185.0959876399506
 20
114.9695480611848
 30
0.0
 10
184.872972521873
 20
114.9422963000764
 30
0.0
 10
184.7526950153022
 20
114.9309231747018
 30
0.0
 10
184.3816462724254
 20
114.9041216304156
 30
0.0
 10
184.1108356284577
 20
114.8950434516628
 30
0.0
 10
183.8366104380728
 20
114.8950434516628
 30
0.0
  0
ELLIPSE
  5
CE
330
1F
100
AcDbEntity
  8
0
  6
Continuous
 62
     7
370
     0
100
AcDbEllipse
 10
183.8331400397
 20
132.1820213764
 30
0.0
 11
-1.885889812007719
 21
17.49964811206166
 31
0.0
210
0.0
220
0.0
230
1.0
 40
0.058846104
 41
3.410786524704127
 42
3.872006547276268
  0
LINE
  5
CF
330
1F
100
AcDbEntity
  8
0
  6
Continuous
 62
     7
370
     0
100
AcDbLine
 10
185.6750640377
 20
119.8276692312
 30
0.0
 11
185.6750640377
 21
117.1223801803
 31
0.0
  0
ARC
  5
D0
330
1F
100
AcDbEntity
  8
0
  6
Continuous
 62
     7
370
     0
100
AcDbCircle
 10
184.6434535132
 20
117.3229160275
 30
0.0
 40
1.050920977153902
100
AcDbArc
 50
294.8730802797
 51
348.9994073151
  0
ARC
  5
D1
330
1F
100
AcDbEntity
  8
0
  6
Continuous
 62
     7
370
     0
100
AcDbCircle
 10
177.0475710965
 20
117.0388229257
 30
0.0
 40
1.757680260279998
100
AcDbArc
 50
228.3577039819
 51
272.0251029345
  0
LINE
  5
D2
330
1F
100
AcDbEntity
  8
0
  6
Continuous
 62
     7
370
     0
100
AcDbLine
 10
185.6750640377
 20
117.1223801803
 30
0.0
 11
185.9249863132
 21
115.3421272766
 31
0.0
  0
LINE
  5
D3
330
1F
100
AcDbEntity
  8
0
  6
Continuous
 62
     7
370
     0
100
AcDbLine
 10
180.6706897273
 20
165.3820202928
 30
0.0
 11
180.6706897273
 21
171.9820202571
 31
0.0
  0
LINE
  5
D4
330
1F
100
AcDbEntity
  8
0
  6
Continuous
 62
     7
370
     0
100
AcDbLine
 10
180.6706897273
 20
158.7820221912
 30
0.0
 11
180.6706897273
 21
165.3820202928
 31
0.0
  0
LINE
  5
D5
330
1F
100
AcDbEntity
  8
0
  6
Continuous
 62
     7
370
     0
100
AcDbLine
 10
179.1706885501
 20
165.3820202928
 30
0.0
 11
179.1706885501
 21
171.9820202571
 31
0.0
  0
LINE
  5
D6
330
1F
100
AcDbEntity
  8
0
  6
Continuous
 62
     7
370
     0
100
AcDbLine
 10
179.1706885501
 20
158.7820221912
 30
0.0
 11
179.1706885501
 21
165.3820202928
 31
0.0
  0
SPLINE
  5
D7
330
1F
100
AcDbEntity
  8
0
  6
Continuous
 62
     7
370
     0
100
AcDbSpline
210
0.0
220
0.0
230
1.0
 70
     8
 71
     3
 72
    10
 73
     6
 74
     0
 42
0.00000001
 43
0.00000001
 12
1.0
 22
0.0
 32
0.0
 13
1.0
 23
0.0
 33
0.0
 40
0.0
 40
0.0
 40
0.0
 40
0.0
 40
0.0251897498948467
 40
0.3749891126168687
 40
1.0
 40
1.0
 40
1.0
 40
1.0
 10
191.0868994250096
 20
158.7841716837377
 30
0.0
 10
191.0858785476557
 20
158.783468165997
 30
0.0
 10
191.0706811798903
 20
158.7729951960636
 30
0.0
 10
191.1426954507391
 20
158.8233261134916
 30
0.0
 10
191.3425505772572
 20
158.9550979788265
 30
0.0
 10
191.4706900074281
 20
159.0395850371808
 30
0.0
  0
LINE
  5
D8
330
1F
100
AcDbEntity
  8
0
  6
Continuous
 62
     7
370
     0
100
AcDbLine
 10
191.4706900074
 20
159.0395850372
 30
0.0
 11
191.4706900074
 21
171.9820202571
 31
0.0
  0
LINE
  5
D9
330
1F
100
AcDbEntity
  8
0
  6
Continuous
 62
     7
370
     0
100
AcDbLine
 10
181.270688708
 20
165.3820202928
 30
0.0
 11
181.270688708
 21
171.9820202571
 31
0.0
  0
LINE
  5
DA
330
1F
100
AcDbEntity
  8
0
  6
Continuous
 62
     7
370
     0
100
AcDbLine
 10
181.270688708
 20
158.7820221912
 30
0.0
 11
181.270688708
 21
165.3820202928
 31
0.0
  0
LINE
  5
DB
330
1F
100
AcDbEntity
  8
0
  6
Continuous
 62
     7
370
     0
100
AcDbLine
 10
190.5706896736
 20
157.6820221972
 30
0.0
 11
190.5706896736
 21
154.6820217055
 31
0.0
  0
LINE
  5
DC
330
1F
100
AcDbEntity
  8
0
  6
Continuous
 62
     7
370
     0
100
AcDbLine
 10
195.5706886306
 20
157.6820221972
 30
0.0
 11
190.5706896736
 21
157.6820221972
 31
0.0
  0
LINE
  5
DD
330
1F
100
AcDbEntity
  8
0
  6
Continuous
 62
     7
370
     0
100
AcDbLine
 10
195.5706886306
 20
157.6820221972
 30
0.0
 11
195.5706886306
 21
154.6820217055
 31
0.0
  0
LINE
  5
DE
330
1F
100
AcDbEntity
  8
0
  6
Continuous
 62
     7
370
     0
100
AcDbLine
 10
195.5706886306
 20
154.6820217055
 30
0.0
 11
190.5706896736
 21
154.6820217055
 31
0.0
  0
LINE
  5
DF
330
1F
100
AcDbEntity
  8
0
  6
Continuous
 62
     7
370
     0
100
AcDbLine
 10
200.5706875875
 20
157.6820221972
 30
0.0
 11
200.5706875875
 21
154.6820217055
 31
0.0
  0
LINE
  5
E0
330
1F
100
AcDbEntity
  8
0
  6
Continuous
 62
     7
370
     0
100
AcDbLine
 10
200.5706875875
 20
154.6820217055
 30
0.0
 11
195.5706886306
 21
154.6820217055
 31
0.0
  0
LINE
  5
E1
330
1F
100
AcDbEntity
  8
0
  6
Continuous
 62
     7
370
     0
100
AcDbLine
 10
200.5706875875
 20
157.6820221972
 30
0.0
 11
195.5706886306
 21
157.6820221972
 31
0.0
  0
SPLINE
  5
E2
330
1F
100
AcDbEntity
  8
0
  6
Continuous
 62
     7
370
     0
100
AcDbSpline
210
0.0
220
0.0
230
1.0
 70
     8
 71
     3
 72
    16
 73
    12
 74
     0
 42
0.00000001
 43
0.00000001
 12
1.0
 22
0.0
 32
0.0
 13
1.0
 23
0.0
 33
0.0
 40
0.0
 40
0.0
 40
0.0
 40
0.0
 40
0.249999999999999
 40
0.249999999999999
 40
0.499999999999998
 40
0.499999999999998
 40
0.749999999999997
 40
0.749999999999997
 40
0.8749999999999984
 40
0.8749999999999984
 40
1.0
 40
1.0
 40
1.0
 40
1.0
 10
192.4896496400075
 20
162.343112927576
 30
0.0
 10
192.3502791024801
 20
162.2052210527939
 30
0.0
 10
192.2319770472991
 20
162.0501823166555
 30
0.0
 10
192.0147805522259
 20
161.7312353020106
 30
0.0
 10
191.9169394430889
 20
161.5662475201686
 30
0.0
 10
191.7401446911669
 20
161.2256751918204
 30
0.0
 10
191.6609636323674
 20
161.0505790659822
 30
0.0
 10
191.5630830761941
 20
160.7691975881976
 30
0.0
 10
191.5338557841523
 20
160.6720089006771
 30
0.0
 10
191.4879965003769
 20
160.4641760132375
 30
0.0
 10
191.4706891670026
 20
160.3534072440307
 30
0.0
 10
191.4706891670026
 20
160.2342831709091
 30
0.0
  0
SPLINE
  5
E3
330
1F
100
AcDbEntity
  8
0
  6
Continuous
 62
     7
370
     0
100
AcDbSpline
210
0.0
220
0.0
230
1.0
 70
    24
 71
     3
 72
     8
 73
     4
 74
     0
 42
0.00000001
 43
0.00000001
 12
1.0
 22
0.0
 32
0.0
 13
1.0
 23
0.0
 33
0.0
 40
0.1777967695985417
 40
0.1777967695985417
 40
0.1777967695985417
 40
0.1777967695985417
 40
0.1801424627971557
 40
0.1801424627971557
 40
0.1801424627971557
 40
0.1801424627971557
 10
195.5706891670026
 20
165.3164745294195
 30
0.0
 10
195.5706891670026
 20
165.3383332604823
 30
0.0
 10
195.5706891670026
 20
165.3601828635559
 30
0.0
 10
195.5706891670026
 20
165.3820216239687
 30
0.0
  0
SPLINE
  5
E4
330
1F
100
AcDbEntity
  8
0
  6
Continuous
 62
     7
370
     0
100
AcDbSpline
210
0.0
220
0.0
230
1.0
 70
     8
 71
     3
 72
    22
 73
    18
 74
     0
 42
0.00000001
 43
0.00000001
 12
1.0
 22
0.0
 32
0.0
 13
1.0
 23
0.0
 33
0.0
 40
0.0
 40
0.0
 40
0.0
 40
0.0
 40
0.0156249999999998
 40
0.0156249999999998
 40
0.0312499999999996
 40
0.0312499999999996
 40
0.0624999999999992
 40
0.0624999999999992
 40
0.1249999999999984
 40
0.1249999999999984
 40
0.25
 40
0.25
 40
0.5
 40
0.5
 40
0.75
 40
0.75
 40
1.0
 40
1.0
 40
1.0
 40
1.0
 10
195.5706891670026
 20
165.3164743691632
 30
0.0
 10
195.5465351309369
 20
165.3161327498712
 30
0.0
 10
195.5253812176234
 20
165.3027774903949
 30
0.0
 10
195.4866933409642
 20
165.275571138628
 30
0.0
 10
195.4684509453062
 20
165.2602807936528
 30
0.0
 10
195.4146897201089
 20
165.2138791661467
 30
0.0
 10
195.3800523466829
 20
165.1816405725051
 30
0.0
 10
195.2764930117595
 20
165.0845917156434
 30
0.0
 10
195.2083207335664
 20
165.0189849416542
 30
0.0
 10
195.0045415956948
 20
164.8224428284494
 30
0.0
 10
194.8698559688865
 20
164.6912740421948
 30
0.0
 10
194.4678009839932
 20
164.2989473751752
 30
0.0
 10
194.2019130940872
 20
164.038059855735
 30
0.0
 10
193.6867360024245
 20
163.5305134374113
 30
0.0
 10
193.4364152826421
 20
163.2821759678592
 30
0.0
 10
192.9502900519975
 20
162.7995042534082
 30
0.0
 10
192.7120952524623
 20
162.5631984856892
 30
0.0
 10
192.4896496400173
 20
162.3431129275712
 30
0.0
  0
LINE
  5
E5
330
1F
100
AcDbEntity
  8
0
  6
Continuous
 62
     7
370
     0
100
AcDbLine
 10
195.5706886306
 20
157.9820216876
 30
0.0
 11
190.7206884875
 21
157.9820216876
 31
0.0
  0
LINE
  5
E6
330
1F
100
AcDbEntity
  8
0
  6
Continuous
 62
     7
370
     0
100
AcDbLine
 10
200.4206887736
 20
157.9820216876
 30
0.0
 11
195.5706886306
 21
157.9820216876
 31
0.0
  0
LINE
  5
E7
330
1F
100
AcDbEntity
  8
0
  6
Continuous
 62
     7
370
     0
100
AcDbLine
 10
195.5706886306
 20
158.1820213478
 30
0.0
 11
200.2206891134
 21
158.1820213478
 31
0.0
  0
LINE
  5
E8
330
1F
100
AcDbEntity
  8
0
  6
Continuous
 62
     7
370
     0
100
AcDbLine
 10
190.9206881478
 20
158.1820213478
 30
0.0
 11
195.5706886306
 21
158.1820213478
 31
0.0
  0
ARC
  5
E9
330
1F
100
AcDbEntity
  8
0
  6
Continuous
 62
     7
370
     0
100
AcDbCircle
 10
200.5896465438
 20
153.900294889
 30
0.0
 40
34.61420413990037
100
AcDbArc
 50
164.5943662272
 51
183.5507608628
  0
LWPOLYLINE
  5
EA
330
1F
100
AcDbEntity
  8
0
  6
Continuous
 62
     7
370
     0
100
AcDbPolyline
 90
       10
 70
   128
 43
0.0
 10
184.9856692656
 20
155.4153600019
 10
184.9921382322
 20
155.5196886193
 10
184.9327328905
 20
155.8001508247
 10
184.7649979695
 20
156.0813189727
 10
184.4953819468
 20
156.3523878586
 10
184.134242992
 20
156.6029397082
 10
183.6954615369
 20
156.8233483713
 10
183.1958982452
 20
157.0051425379
 10
182.6547514006
 20
157.1413354259
 10
182.0928174361
 20
157.2266930025
  0
ARC
  5
EB
330
1F
100
AcDbEntity
  8
0
  6
Continuous
 62
     7
370
     0
100
AcDbCircle
 10
186.2834848063
 20
157.0899019137
 30
0.0
 40
4.192899332226655
100
AcDbArc
 50
157.3732591992
 51
178.1304242159
  0
LINE
  5
EC
330
1F
100
AcDbEntity
  8
0
  6
Continuous
 62
     7
370
     0
100
AcDbLine
 10
185.9249863132
 20
119.2206043061
 30
0.0
 11
185.8963108911
 21
119.424875943
 31
0.0
  0
SPLINE
  5
ED
330
1F
100
AcDbEntity
  8
0
  6
Continuous
 62
     7
370
     0
100
AcDbSpline
210
0.0
220
0.0
230
1.0
 70
     8
 71
     3
 72
    21
 73
    17
 74
     0
 42
0.00000001
 43
0.00000001
 12
1.0
 22
0.0
 32
0.0
 13
1.0
 23
0.0
 33
0.0
 40
0.0
 40
0.0
 40
0.0
 40
0.0
 40
0.0674391617240009
 40
0.1389401032693495
 40
0.2124957500077969
 40
0.2843444910929983
 40
0.3583064166813595
 40
0.4297476814036018
 40
0.5032415501311297
 40
0.5751098911389957
 40
0.6490485089475029
 40
0.7209413331352091
 40
0.7949592848340871
 40
0.8663760944139266
 40
0.9398117115905731
 40
1.0
 40
1.0
 40
1.0
 40
1.0
 10
192.4895196511544
 20
169.8471606951446
 30
0.0
 10
192.4895592723734
 20
169.8368644066687
 30
0.0
 10
192.4896409011499
 20
169.8156516966117
 30
0.0
 10
192.4898163547507
 20
169.632829701061
 30
0.0
 10
192.4894408407221
 20
169.3363829380939
 30
0.0
 10
192.4895650709568
 20
168.922590712262
 30
0.0
 10
192.489736771609
 20
168.411822596466
 30
0.0
 10
192.4897620016558
 20
167.8107781816675
 30
0.0
 10
192.4896495638352
 20
167.1473502790831
 30
0.0
 10
192.4894996224331
 20
166.4266814831457
 30
0.0
 10
192.4894651642568
 20
165.6812974298087
 30
0.0
 10
192.4895770284791
 20
164.9202009569931
 30
0.0
 10
192.4897993308918
 20
164.1802180926701
 30
0.0
 10
192.4895515807606
 20
163.4714908634607
 30
0.0
 10
192.4894890296795
 20
162.8516489844886
 30
0.0
 10
192.4896000357778
 20
162.5010398119694
 30
0.0
 10
192.4896500363149
 20
162.3431147318572
 30
0.0
  0
SPLINE
  5
EE
330
1F
100
AcDbEntity
  8
0
  6
Continuous
 62
     7
370
     0
100
AcDbSpline
210
0.0
220
0.0
230
1.0
 70
    24
 71
     3
 72
    15
 73
    11
 74
     0
 42
0.00000001
 43
0.00000001
 12
1.0
 22
0.0
 32
0.0
 13
1.0
 23
0.0
 33
0.0
 40
0.0
 40
0.0
 40
0.0
 40
0.0
 40
0.1250003550058271
 40
0.2500001746815016
 40
0.3750000814470413
 40
0.4999998916211577
 40
0.6250001810971829
 40
0.7500000158818104
 40
0.8750000218222487
 40
1.0
 40
1.0
 40
1.0
 40
1.0
 10
195.5709494008817
 20
165.3820202928275
 30
0.0
 10
195.5709494008817
 20
165.6765321270838
 30
0.0
 10
195.5709494008817
 20
166.2655545343115
 30
0.0
 10
195.5709494008817
 20
167.1151075214553
 30
0.0
 10
195.5709494008817
 20
167.8981179334567
 30
0.0
 10
195.5709494008817
 20
168.5841926547757
 30
0.0
 10
195.5709494008817
 20
169.1481064683998
 30
0.0
 10
195.5709494008817
 20
169.5639577587382
 30
0.0
 10
195.5709494008817
 20
169.8315216657487
 30
0.0
 10
195.5709494008817
 20
169.8650146841138
 30
0.0
 10
195.5709494008817
 20
169.8817611914367
 30
0.0
  0
SPLINE
  5
EF
330
1F
100
AcDbEntity
  8
0
  6
Continuous
 62
     7
370
     0
100
AcDbSpline
210
0.0
220
0.0
230
1.0
 70
    24
 71
     3
 72
    16
 73
    12
 74
     0
 42
0.00000001
 43
0.00000001
 12
1.0
 22
0.0
 32
0.0
 13
1.0
 23
0.0
 33
0.0
 40
0.0
 40
0.0
 40
0.0
 40
0.0
 40
0.1249672316883084
 40
0.249934958410011
 40
0.3749022671808189
 40
0.4998694793853931
 40
0.6248368359756875
 40
0.7498043215554493
 40
0.8747717294752925
 40
0.9997391096396888
 40
1.0
 40
1.0
 40
1.0
 40
1.0
 10
195.5709494008817
 20
165.3820202928275
 30
0.0
 10
195.8654574977929
 20
165.3820202928275
 30
0.0
 10
196.4544748582519
 20
165.3820202928275
 30
0.0
 10
197.3040649386151
 20
165.3820202928275
 30
0.0
 10
198.0869372271382
 20
165.3820202928275
 30
0.0
 10
198.7735310437879
 20
165.3820202928275
 30
0.0
 10
199.335505235171
 20
165.3820202928275
 30
0.0
 10
199.7585811615835
 20
165.3820202928277
 30
0.0
 10
199.9992030147889
 20
165.3820202928267
 30
0.0
 10
200.0998305039688
 20
165.3820202928293
 30
0.0
 10
200.0705687218753
 20
165.3820202928275
 30
0.0
 10
200.0705077602662
 20
165.3820202928275
 30
0.0
  0
DIMENSION
  5
F0
330
1F
100
AcDbEntity
  8
SLD-0
 62
     7
100
AcDbDimension
  2
_D
 10
162.4424926061
 20
149.6820213764
 30
0.0
 11
162.4424926061
 21
132.1820213764
 31
0.0
 70
   160
  1
%%c<>
 71
     2
 42
-1.0
  3
SLDDIMSTYLE0
100
AcDbAlignedDimension
 13
174.370689167
 23
114.6820213764
 33
0.0
 14
174.370689167
 24
149.6820213764
 34
0.0
 50
90.0
100
AcDbRotatedDimension
  0
DIMENSION
  5
FC
330
1F
100
AcDbEntity
  8
SLD-0
 62
     7
100
AcDbDimension
  2
_D_1
 10
254.570689167
 20
120.6820213764
 30
0.0
 11
254.570689167
 21
132.1820213764
 31
0.0
 70
   160
  1
%%c<>
 71
     2
 42
-1.0
  3
SLDDIMSTYLE0
100
AcDbAlignedDimension
 13
244.070689167
 23
143.6820213764
 33
0.0
 14
244.070689167
 24
120.6820213764
 34
0.0
 50
90.0
100
AcDbRotatedDimension
  0
DIMENSION
  5
107
330
1F
100
AcDbEntity
  8
SLD-0
 62
     7
100
AcDbDimension
  2
_D_2
 10
264.4653319767
 20
149.1820213764
 30
0.0
 11
264.4653319767
 21
131.9320213764
 31
0.0
 70
   160
  1
<>
 71
     2
 42
-1.0
  3
SLDDIMSTYLE0
100
AcDbAlignedDimension
 13
204.070689167
 23
114.6820213764
 33
0.0
 14
204.070689167
 24
149.1820213764
 34
0.0
 50
90.0
100
AcDbRotatedDimension
  0
DIMENSION
  5
111
330
1F
100
AcDbEntity
  8
SLD-0
 62
     7
100
AcDbDimension
  2
_D_3
 10
174.370689167
 20
103.7672429926
 30
0.0
 11
209.470689167
 21
103.7672429926
 31
0.0
 70
   160
  1
<>
 71
     2
 42
-1.0
  3
SLDDIMSTYLE0
100
AcDbAlignedDimension
 13
244.570689167
 23
121.1820213764
 33
0.0
 14
174.370689167
 24
114.6820213764
 34
0.0
 50
0.0
100
AcDbRotatedDimension
  0
DIMENSION
  5
11B
330
1F
100
AcDbEntity
  8
SLD-0
 62
     7
100
AcDbDimension
  2
_D_4
 10
204.570689167
 20
166.6026271576
 30
0.0
 11
224.570689167
 21
166.6026271576
 31
0.0
 70
   160
  1
<>
 71
     2
 42
-1.0
  3
SLDDIMSTYLE0
100
AcDbAlignedDimension
 13
244.570689167
 23
143.1820213764
 33
0.0
 14
204.570689167
 24
149.1820213764
 34
0.0
 50
0.0
100
AcDbRotatedDimension
  0
INSERT
  5
12F
330
1F
100
AcDbEntity
  8
SLD-0
 62
     7
100
AcDbBlockReference
  2
SW_NOTE_0
 10
168.954248366
 20
168.3006535948
 30
0.0
  0
LEADER
  5
131
330
1F
100
AcDbEntity
  8
SLD-0
 62
     7
100
AcDbLeader
  3
SLDDIMSTYLE1
 76
     2
 10
172.6118173963
 20
159.0240691861
 30
0.0
 10
168.954248366
 20
168.3006535948
 30
0.0
  0
INSERT
  5
13C
330
1F
100
AcDbEntity
  8
SLD-0
 62
     7
100
AcDbBlockReference
  2
SW_NOTE_1
 10
180.0653594771
 20
177.4509803922
 30
0.0
  0
LEADER
  5
13D
330
1F
100
AcDbEntity
  8
SLD-0
 62
     7
100
AcDbLeader
  3
SLDDIMSTYLE1
 76
     2
 10
186.6141421165
 20
167.7224830275
 30
0.0
 10
180.0653594771
 20
177.4509803922
 30
0.0
  0
LINE
  5
13E
330
1F
100
AcDbEntity
  8
SLD-0
  6
CENTERX2
 62
     7
370
     0
100
AcDbLine
 10
204.070689167
 20
132.1820213764
 30
0.0
 11
172.370689167
 21
132.1820213764
 31
0.0
  0
LINE
  5
13F
330
1F
100
AcDbEntity
  8
SLD-0
  6
CENTERX2
 62
     7
370
     0
100
AcDbLine
 10
204.070689167
 20
132.1820213764
 30
0.0
 11
204.570689167
 21
132.1820213764
 31
0.0
  0
LINE
  5
140
330
1F
100
AcDbEntity
  8
SLD-0
  6
CENTERX2
 62
     7
370
     0
100
AcDbLine
 10
244.070689167
 20
132.1820213764
 30
0.0
 11
204.570689167
 21
132.1820213764
 31
0.0
  0
LINE
  5
141
330
1F
100
AcDbEntity
  8
SLD-0
  6
CENTERX2
 62
     7
370
     0
100
AcDbLine
 10
244.070689167
 20
132.1820213764
 30
0.0
 11
246.570689167
 21
132.1820213764
 31
0.0
  0
LINE
  5
142
330
1F
100
AcDbEntity
  8
0
  6
Continuous
 62
     7
370
     0
100
AcDbLine
 10
315.3305473268
 20
154.4770078045
 30
0.0
 11
314.5125140898
 21
153.001237778
 31
0.0
  0
LINE
  5
143
330
1F
100
AcDbEntity
  8
0
  6
Continuous
 62
     7
370
     0
100
AcDbLine
 10
320.6348522097
 20
149.6075690966
 30
0.0
 11
321.452884981
 21
151.0833409857
 31
0.0
  0
LINE
  5
144
330
1F
100
AcDbEntity
  8
0
  6
Continuous
 62
     7
370
     0
100
AcDbLine
 10
321.4590680316
 20
151.1017085295
 30
0.0
 11
321.5563986912
 21
151.7272965294
 31
0.0
  0
LINE
  5
145
330
1F
100
AcDbEntity
  8
0
  6
Continuous
 62
     7
370
     0
100
AcDbLine
 10
315.8217985645
 20
154.9060364496
 30
0.0
 11
315.3428473041
 21
154.4919853341
 31
0.0
  0
ARC
  5
146
330
1F
100
AcDbEntity
  8
0
  6
Continuous
 62
     7
370
     0
100
AcDbCircle
 10
320.0759019748
 20
155.818525707
 30
0.0
 40
2.900000000000009
100
AcDbArc
 50
147.5719422886
 51
151.0
  0
LINE
  5
147
330
1F
100
AcDbEntity
  8
0
  6
Continuous
 62
     7
370
     0
100
AcDbLine
 10
317.5395047754
 20
157.2244727295
 30
0.0
 11
316.1440371066
 21
154.7069830131
 31
0.0
  0
LINE
  5
148
330
1F
100
AcDbEntity
  8
0
  6
Continuous
 62
     7
370
     0
100
AcDbLine
 10
321.21683103
 20
151.8950873297
 30
0.0
 11
322.6021118924
 21
154.3942001891
 31
0.0
  0
LINE
  5
149
330
1F
100
AcDbEntity
  8
0
  6
Continuous
 62
     7
370
     0
100
AcDbLine
 10
317.6673921287
 20
157.4354508203
 30
0.0
 11
317.6281126678
 21
157.3736221772
 31
0.0
  0
LINE
  5
14A
330
1F
100
AcDbEntity
  8
0
  6
Continuous
 62
     7
370
     0
100
AcDbLine
 10
316.7665070385
 20
158.4417057466
 30
0.0
 11
316.6010836601
 21
158.1813209933
 31
0.0
  0
LINE
  5
14B
330
1F
100
AcDbEntity
  8
0
  6
Continuous
 62
     7
370
     0
100
AcDbLine
 10
323.6912331075
 20
153.6769029927
 30
0.0
 11
323.8566564858
 21
153.937287746
 31
0.0
  0
LINE
  5
14C
330
1F
100
AcDbEntity
  8
0
  6
Continuous
 62
     7
370
     0
100
AcDbLine
 10
325.2452863842
 20
153.1393119376
 30
0.0
 11
325.8880144447
 21
154.1509946119
 31
0.0
  0
LINE
  5
14D
330
1F
100
AcDbEntity
  8
0
  6
Continuous
 62
     7
370
     0
100
AcDbLine
 10
316.0968553737
 20
160.3713819068
 30
0.0
 11
315.4541273132
 21
159.3596992325
 31
0.0
  0
LINE
  5
14E
330
1F
100
AcDbEntity
  8
0
  6
Continuous
 62
     7
370
     0
100
AcDbLine
 10
311.8239734784
 20
157.9820216876
 30
0.0
 11
311.6239738181
 21
158.1820213478
 31
0.0
  0
LINE
  5
14F
330
1F
100
AcDbEntity
  8
0
  6
Continuous
 62
     7
370
     0
100
AcDbLine
 10
302.3239737839
 20
158.1820213478
 30
0.0
 11
302.1239736579
 21
157.9820216876
 31
0.0
  0
LINE
  5
150
330
1F
100
AcDbEntity
  8
0
  6
Continuous
 62
     7
370
     0
100
AcDbLine
 10
311.8239734784
 20
157.6820221972
 30
0.0
 11
311.8239734784
 21
157.9820216876
 31
0.0
  0
LINE
  5
151
330
1F
100
AcDbEntity
  8
0
  6
Continuous
 62
     7
370
     0
100
AcDbLine
 10
302.1239736579
 20
157.9820216876
 30
0.0
 11
302.1239736579
 21
157.6820221972
 31
0.0
  0
LINE
  5
152
330
1F
100
AcDbEntity
  8
0
  6
Continuous
 62
     7
370
     0
100
AcDbLine
 10
311.8239734784
 20
148.9965246301
 30
0.0
 11
311.8239734784
 21
154.6820217055
 31
0.0
  0
LINE
  5
153
330
1F
100
AcDbEntity
  8
0
  6
Continuous
 62
     7
370
     0
100
AcDbLine
 10
302.1239736579
 20
154.6820217055
 30
0.0
 11
302.1239736579
 21
148.9965246301
 31
0.0
  0
LINE
  5
154
330
1F
100
AcDbEntity
  8
0
  6
Continuous
 62
     7
370
     0
100
AcDbLine
 10
302.4739693381
 20
165.3820202928
 30
0.0
 11
302.4881901681
 21
158.1388396453
 31
0.0
  0
LINE
  5
155
330
1F
100
AcDbEntity
  8
0
  6
Continuous
 62
     7
370
     0
100
AcDbLine
 10
311.4597569682
 20
158.1388396453
 30
0.0
 11
311.4739782639
 21
165.3820202928
 31
0.0
  0
LINE
  5
156
330
1F
100
AcDbEntity
  8
0
  6
Continuous
 62
     7
370
     0
100
AcDbLine
 10
317.309103021
 20
150.887942059
 30
0.0
 11
315.4323259831
 21
147.5021486413
 31
0.0
  0
LINE
  5
157
330
1F
100
AcDbEntity
  8
0
  6
Continuous
 62
     7
370
     0
100
AcDbLine
 10
314.3818150736
 20
152.7956855726
 30
0.0
 11
312.2112839945
 21
148.8799435329
 31
0.0
  0
LINE
  5
158
330
1F
100
AcDbEntity
  8
0
  6
Continuous
 62
     7
370
     0
100
AcDbLine
 10
314.3818150736
 20
152.7956855726
 30
0.0
 11
315.8454588145
 21
151.8418138158
 31
0.0
  0
LINE
  5
159
330
1F
100
AcDbEntity
  8
0
  6
Continuous
 62
     7
370
     0
100
AcDbLine
 10
315.8454588145
 20
151.8418138158
 30
0.0
 11
317.309103021
 21
150.887942059
 31
0.0
  0
ARC
  5
15A
330
1F
100
AcDbEntity
  8
0
  6
Continuous
 62
     7
370
     0
100
AcDbCircle
 10
330.2160001216
 20
174.1088495497
 30
0.0
 40
26.50157236531537
100
AcDbArc
 50
237.1628982711
 51
244.7351289975
  0
LINE
  5
15B
330
1F
100
AcDbEntity
  8
0
  6
Continuous
 62
     7
370
     0
100
AcDbLine
 10
317.309103021
 20
150.887942059
 30
0.0
 11
318.9050369427
 21
150.1423009914
 31
0.0
  0
LINE
  5
15C
330
1F
100
AcDbEntity
  8
0
  6
Continuous
 62
     7
370
     0
100
AcDbLine
 10
320.5009708643
 20
149.3966617864
 30
0.0
 11
318.3363778979
 21
145.4916336816
 31
0.0
  0
LINE
  5
15D
330
1F
100
AcDbEntity
  8
0
  6
Continuous
 62
     7
370
     0
100
AcDbLine
 10
318.9050369427
 20
150.1423009914
 30
0.0
 11
320.5009708643
 21
149.3966617864
 31
0.0
  0
LWPOLYLINE
  5
15E
330
1F
100
AcDbEntity
  8
0
  6
Continuous
 62
     7
370
     0
100
AcDbPolyline
 90
       20
 70
   128
 43
0.0
 10
321.4590680316
 20
151.1017085295
 10
321.4362478346
 20
151.0649268758
 10
321.3199694172
 20
151.0431357902
 10
321.1101294026
 20
151.0768478047
 10
320.8134333134
 20
151.1649807226
 10
320.4393592194
 20
151.3047219496
 10
319.9998606458
 20
151.4916067254
 10
319.5089800745
 20
151.7196634095
 10
318.9824009776
 20
151.9816034716
 10
318.4369486287
 20
152.2690580469
 10
317.8900508672
 20
152.5728442949
 10
317.3591830298
 20
152.8832559716
 10
316.861305432
 20
153.1903726291
 10
316.4123259947
 20
153.4843837153
 10
316.0265908107
 20
153.7558940482
 10
315.7164250031
 20
153.9962292891
 10
315.4917378441
 20
154.1977097523
 10
315.3597088993
 20
154.353898136
 10
315.3245561287
 20
154.4598044139
 10
315.3428473041
 20
154.4919853341
  0
ARC
  5
15F
330
1F
100
AcDbEntity
  8
0
  6
Continuous
 62
     7
370
     0
100
AcDbCircle
 10
317.0172087081
 20
154.5278985079
 30
0.0
 40
2.930537286306597
100
AcDbArc
 50
211.334605861
 51
246.4317410689
  0
ARC
  5
160
330
1F
100
AcDbEntity
  8
0
  6
Continuous
 62
     7
370
     0
100
AcDbCircle
 10
320.672536852
 20
152.778754739
 30
0.0
 40
3.174105274346304
100
AcDbArc
 50
236.1617803617
 51
269.2910058456
  0
LWPOLYLINE
  5
161
330
1F
100
AcDbEntity
  8
0
  6
Continuous
 62
     7
370
     0
100
AcDbPolyline
 90
       22
 70
   128
 43
0.0
 10
316.1058566064
 20
154.9040918481
 10
315.9125242844
 20
154.9299397748
 10
315.815208526
 20
154.8992824983
 10
315.8172863066
 20
154.8131835889
 10
315.9186840519
 20
154.6746270042
 10
316.1158850879
 20
154.4884220939
 10
316.4020497814
 20
154.2610285115
 10
316.7672493026
 20
154.0003326964
 10
317.1988158017
 20
153.7153796535
 10
317.6817782685
 20
153.416052578
 10
318.1993840724
 20
153.112733854
 10
318.7336773142
 20
152.8159492892
 10
319.2661237434
 20
152.5359918606
 10
319.7782524392
 20
152.2825734001
 10
320.2522984237
 20
152.0644837301
 10
320.6718182653
 20
151.8892889153
 10
321.022257255
 20
151.7630667668
 10
321.2914607018
 20
151.6901963633
 10
321.4700883716
 20
151.6732053142
 10
321.551946038
 20
151.7126822155
 10
321.5341922358
 20
151.807258023
 10
321.4174435005
 20
151.9536507558
  0
SPLINE
  5
162
330
1F
100
AcDbEntity
  8
0
  6
Continuous
 62
     7
370
     0
100
AcDbSpline
210
0.0
220
0.0
230
1.0
 70
     8
 71
     3
 72
     9
 73
     5
 74
     0
 42
0.00000001
 43
0.00000001
 12
1.0
 22
0.0
 32
0.0
 13
1.0
 23
0.0
 33
0.0
 40
0.0
 40
0.0
 40
0.0
 40
0.0
 40
0.7263792661485778
 40
1.0
 40
1.0
 40
1.0
 40
1.0
 10
316.2067104592985
 20
154.8200492989511
 30
0.0
 10
316.1795993920157
 20
154.836224102101
 30
0.0
 10
316.1422758221586
 20
154.8584918125157
 30
0.0
 10
316.1050755641959
 20
154.8807512482238
 30
0.0
 10
316.0948968023127
 20
154.8868418913573
 30
0.0
  0
LWPOLYLINE
  5
163
330
1F
100
AcDbEntity
  8
0
  6
Continuous
 62
     7
370
     0
100
AcDbPolyline
 90
       19
 70
   128
 43
0.0
 10
316.1440371066
 20
154.7069830131
 10
316.1403015718
 20
154.6980106514
 10
316.1675269246
 20
154.6060350966
 10
316.2871245757
 20
154.4660889786
 10
316.4946968198
 20
154.2833150607
 10
316.7826151937
 20
154.0644337666
 10
317.1402942851
 20
153.8174917232
 10
317.5545884758
 20
153.5515656006
 10
318.0102669165
 20
153.2764286977
 10
318.4905807018
 20
153.0021970403
 10
318.9778728873
 20
152.738951264
 10
319.4542313457
 20
152.4963659477
 10
319.9021462813
 20
152.2833594363
 10
320.3051519111
 20
152.1077622902
 10
320.6484346181
 20
151.976026712
 10
320.9193759129
 20
151.8929993045
 10
321.1080153003
 20
151.8617292177
 10
321.2074200153
 20
151.8833657038
 10
321.21683103
 20
151.8950873297
  0
LINE
  5
164
330
1F
100
AcDbEntity
  8
0
  6
Continuous
 62
     7
370
     0
100
AcDbLine
 10
321.4064836964
 20
151.9364007991
 30
0.0
 11
321.2767821267
 21
152.0032418203
 31
0.0
  0
ARC
  5
165
330
1F
100
AcDbEntity
  8
0
  6
Continuous
 62
     7
370
     0
100
AcDbCircle
 10
324.655618859
 20
164.0632443212
 30
0.0
 40
9.867053589211185
100
AcDbArc
 50
223.8574512006
 51
258.0405896526
  0
LINE
  5
166
330
1F
100
AcDbEntity
  8
0
  6
Continuous
 62
     7
370
     0
100
AcDbLine
 10
320.5009708643
 20
149.3966617864
 30
0.0
 11
320.6332605794
 21
149.6048924756
 31
0.0
  0
LINE
  5
167
330
1F
100
AcDbEntity
  8
0
  6
Continuous
 62
     7
370
     0
100
AcDbLine
 10
314.5141052544
 20
153.0039162617
 30
0.0
 11
314.3818150736
 21
152.7956855726
 31
0.0
  0
LINE
  5
168
330
1F
100
AcDbEntity
  8
0
  6
Continuous
 62
     7
370
     0
100
AcDbLine
 10
320.7655512258
 20
149.8131213021
 30
0.0
 11
318.3595715553
 21
145.4726197999
 31
0.0
  0
LINE
  5
169
330
1F
100
AcDbEntity
  8
0
  6
Continuous
 62
     7
370
     0
100
AcDbLine
 10
318.3592334852
 20
145.4720870834
 30
0.0
 11
318.3595715553
 21
145.4726197999
 31
0.0
  0
LINE
  5
16A
330
1F
100
AcDbEntity
  8
0
  6
Continuous
 62
     7
370
     0
100
AcDbLine
 10
320.6332605794
 20
149.6048924756
 30
0.0
 11
320.7655512258
 21
149.8131213021
 31
0.0
  0
ARC
  5
16B
330
1F
100
AcDbEntity
  8
0
  6
Continuous
 62
     7
370
     0
100
AcDbCircle
 10
320.1064284403
 20
155.8665757711
 30
0.0
 40
2.900046042605255
100
AcDbArc
 50
327.8944649928
 51
147.2494321191
  0
ARC
  5
16C
330
1F
100
AcDbEntity
  8
0
  6
Continuous
 62
     7
370
     0
100
AcDbCircle
 10
320.1501863119
 20
155.931090371
 30
0.0
 40
4.187580195559841
100
AcDbArc
 50
287.457937685
 51
194.4401165819
  0
ARC
  5
16D
330
1F
100
AcDbEntity
  8
0
  6
Continuous
 62
     7
370
     0
100
AcDbCircle
 10
320.2981369341
 20
156.1683340034
 30
0.0
 40
4.200074856762853
100
AcDbArc
 50
327.9139695901
 51
147.2299098502
  0
LINE
  5
16E
330
1F
100
AcDbEntity
  8
0
  6
Continuous
 62
     7
370
     0
100
AcDbLine
 10
320.7655512258
 20
149.8131213021
 30
0.0
 11
320.7532391414
 21
149.8211455774
 31
0.0
  0
ARC
  5
16F
330
1F
100
AcDbEntity
  8
0
  6
Continuous
 62
     7
370
     0
100
AcDbCircle
 10
320.3372920647
 20
156.2580328224
 30
0.0
 40
5.784854381167253
100
AcDbArc
 50
278.0378052288
 51
150.9631539053
  0
ARC
  5
170
330
1F
100
AcDbEntity
  8
0
  6
Continuous
 62
     7
370
     0
100
AcDbCircle
 10
320.3083629521
 20
156.2849333728
 30
0.0
 40
5.746512476743638
100
AcDbArc
 50
151.057654432
 51
203.7641951875
  0
ARC
  5
171
330
1F
100
AcDbEntity
  8
0
  6
Continuous
 62
     7
370
     0
100
AcDbCircle
 10
320.9740244384
 20
157.2322093807
 30
0.0
 40
5.800101915828085
100
AcDbArc
 50
327.9110908261
 51
147.2327858213
  0
ARC
  5
172
330
1F
100
AcDbEntity
  8
0
  6
Continuous
 62
     7
370
     0
100
AcDbCircle
 10
321.0650938728
 20
157.3755561316
 30
0.0
 40
5.719276069252258
100
AcDbArc
 50
357.598738477
 51
117.5451678874
  0
CIRCLE
  5
173
330
1F
100
AcDbEntity
  8
0
  6
Continuous
 62
     7
370
     0
100
AcDbCircle
 10
306.9739736796
 20
132.1820213764
 30
0.0
 40
11.0
  0
CIRCLE
  5
174
330
1F
100
AcDbEntity
  8
0
  6
Continuous
 62
     7
370
     0
100
AcDbCircle
 10
306.9739736796
 20
132.1820213764
 30
0.0
 40
11.49999999999997
  0
CIRCLE
  5
175
330
1F
100
AcDbEntity
  8
0
  6
Continuous
 62
     7
370
     0
100
AcDbCircle
 10
306.9739736796
 20
132.1820213764
 30
0.0
 40
8.90300000000002
  0
CIRCLE
  5
176
330
1F
100
AcDbEntity
  8
0
  6
Continuous
 62
     7
370
     0
100
AcDbCircle
 10
306.9739736796
 20
132.1820213764
 30
0.0
 40
7.870777501406309
  0
CIRCLE
  5
177
330
1F
100
AcDbEntity
  8
0
  6
Continuous
 62
     7
370
     0
100
AcDbCircle
 10
306.9739736796
 20
132.1820213764
 30
0.0
 40
7.547130519855415
  0
CIRCLE
  5
178
330
1F
100
AcDbEntity
  8
0
  6
Continuous
 62
     7
370
     0
100
AcDbCircle
 10
306.9739736796
 20
132.1820213764
 30
0.0
 40
7.149999999999977
  0
CIRCLE
  5
179
330
1F
100
AcDbEntity
  8
0
  6
Continuous
 62
     7
370
     0
100
AcDbCircle
 10
306.9739736796
 20
132.1820213764
 30
0.0
 40
5.969272932568998
  0
CIRCLE
  5
17A
330
1F
100
AcDbEntity
  8
0
  6
Continuous
 62
     7
370
     0
100
AcDbCircle
 10
306.9739736796
 20
132.1820213764
 30
0.0
 40
5.0
  0
SPLINE
  5
17B
330
1F
100
AcDbEntity
  8
0
  6
Continuous
 62
     7
370
     0
100
AcDbSpline
210
0.0
220
0.0
230
1.0
 70
    24
 71
     3
 72
     8
 73
     4
 74
     0
 42
0.00000001
 43
0.00000001
 12
1.0
 22
0.0
 32
0.0
 13
1.0
 23
0.0
 33
0.0
 40
0.0
 40
0.0
 40
0.0
 40
0.0
 40
1.0
 40
1.0
 40
1.0
 40
1.0
 10
306.97397367961
 20
149.182021376405
 30
0.0
 10
305.5607171126169
 20
149.182021376405
 30
0.0
 10
304.1782068240045
 20
149.182021376405
 30
0.0
 10
302.8206617481511
 20
149.182021376405
 30
0.0
  0
ARC
  5
17C
330
1F
100
AcDbEntity
  8
0
  6
Continuous
 62
     7
370
     0
100
AcDbCircle
 10
306.9739736796
 20
132.1820213764
 30
0.0
 40
16.99999999999999
100
AcDbArc
 50
90.0
 51
125.0
  0
ARC
  5
17D
330
1F
100
AcDbEntity
  8
0
  6
Continuous
 62
     7
370
     0
100
AcDbCircle
 10
306.9739736796
 20
132.1820213764
 30
0.0
 40
17.00000000000001
100
AcDbArc
 50
125.0
 51
176.0
  0
ARC
  5
17E
330
1F
100
AcDbEntity
  8
0
  6
Continuous
 62
     7
370
     0
100
AcDbCircle
 10
306.9739736796
 20
132.1820213764
 30
0.0
 40
17.00000000000001
100
AcDbArc
 50
176.0
 51
215.0
  0
ARC
  5
17F
330
1F
100
AcDbEntity
  8
0
  6
Continuous
 62
     7
370
     0
100
AcDbCircle
 10
306.9739736796
 20
132.1820213764
 30
0.0
 40
17.0
100
AcDbArc
 50
215.0
 51
266.0
  0
ARC
  5
180
330
1F
100
AcDbEntity
  8
0
  6
Continuous
 62
     7
370
     0
100
AcDbCircle
 10
306.9739736796
 20
132.1820213764
 30
0.0
 40
17.00000000000005
100
AcDbArc
 50
266.0
 51
305.0
  0
ARC
  5
181
330
1F
100
AcDbEntity
  8
0
  6
Continuous
 62
     7
370
     0
100
AcDbCircle
 10
306.9739736796
 20
132.1820213764
 30
0.0
 40
17.00000000000005
100
AcDbArc
 50
305.0
 51
356.0
  0
ARC
  5
182
330
1F
100
AcDbEntity
  8
0
  6
Continuous
 62
     7
370
     0
100
AcDbCircle
 10
306.9739736796
 20
132.1820213764
 30
0.0
 40
17.00000000000005
100
AcDbArc
 50
356.0
 51
35.0
  0
ARC
  5
183
330
1F
100
AcDbEntity
  8
0
  6
Continuous
 62
     7
370
     0
100
AcDbCircle
 10
306.9739736796
 20
132.1820213764
 30
0.0
 40
17.00000000000005
100
AcDbArc
 50
35.0
 51
90.0
  0
SPLINE
  5
184
330
1F
100
AcDbEntity
  8
0
  6
Continuous
 62
     7
370
     0
100
AcDbSpline
210
0.0
220
0.0
230
1.0
 70
    24
 71
     3
 72
     8
 73
     4
 74
     0
 42
0.00000001
 43
0.00000001
 12
1.0
 22
0.0
 32
0.0
 13
1.0
 23
0.0
 33
0.0
 40
0.0
 40
0.0
 40
0.0
 40
0.0
 40
1.0
 40
1.0
 40
1.0
 40
1.0
 10
311.1272856110691
 20
149.182021376405
 30
0.0
 10
309.7666242952752
 20
149.182021376405
 30
0.0
 10
308.3824941609757
 20
149.182021376405
 30
0.0
 10
306.97397367961
 20
149.182021376405
 30
0.0
  0
ARC
  5
185
330
1F
100
AcDbEntity
  8
0
  6
Continuous
 62
     7
370
     0
100
AcDbCircle
 10
306.9739736796
 20
132.1820213764
 30
0.0
 40
17.49999999999998
100
AcDbArc
 50
103.7291326754
 51
76.2708673246
  0
CIRCLE
  5
186
330
1F
100
AcDbEntity
  8
0
  6
Continuous
 62
     7
370
     0
100
AcDbCircle
 10
318.8516783218
 20
140.4988797035
 30
0.0
 40
2.500000000000048
  0
CIRCLE
  5
187
330
1F
100
AcDbEntity
  8
0
  6
Continuous
 62
     7
370
     0
100
AcDbCircle
 10
321.4386524084
 20
131.1705525071
 30
0.0
 40
2.499999999999945
  0
CIRCLE
  5
188
330
1F
100
AcDbEntity
  8
0
  6
Continuous
 62
     7
370
     0
100
AcDbCircle
 10
315.2908320067
 20
120.3043167342
 30
0.0
 40
2.500000000000012
  0
CIRCLE
  5
189
330
1F
100
AcDbEntity
  8
0
  6
Continuous
 62
     7
370
     0
100
AcDbCircle
 10
305.9625048103
 20
117.7173426476
 30
0.0
 40
2.499999999999986
  0
CIRCLE
  5
18A
330
1F
100
AcDbEntity
  8
0
  6
Continuous
 62
     7
370
     0
100
AcDbCircle
 10
295.0962690374
 20
123.8651630493
 30
0.0
 40
2.499999999999993
  0
CIRCLE
  5
18B
330
1F
100
AcDbEntity
  8
0
  6
Continuous
 62
     7
370
     0
100
AcDbCircle
 10
292.5092949508
 20
133.1934902457
 30
0.0
 40
2.500000000000057
  0
CIRCLE
  5
18C
330
1F
100
AcDbEntity
  8
0
  6
Continuous
 62
     7
370
     0
100
AcDbCircle
 10
298.6571153525
 20
144.0597260186
 30
0.0
 40
2.500000000000033
  0
CIRCLE
  5
18D
330
1F
100
AcDbEntity
  8
0
  6
Continuous
 62
     7
370
     0
100
AcDbCircle
 10
292.5092949508
 20
133.1934902457
 30
0.0
 40
1.449999999999989
  0
CIRCLE
  5
18E
330
1F
100
AcDbEntity
  8
0
  6
Continuous
 62
     7
370
     0
100
AcDbCircle
 10
305.9625048103
 20
117.7173426476
 30
0.0
 40
1.450000000000017
  0
CIRCLE
  5
18F
330
1F
100
AcDbEntity
  8
0
  6
Continuous
 62
     7
370
     0
100
AcDbCircle
 10
321.4386524084
 20
131.1705525071
 30
0.0
 40
1.44999999999996
  0
LINE
  5
190
330
1F
100
AcDbEntity
  8
0
  6
Continuous
 62
     7
370
     0
100
AcDbLine
 10
295.6438670397
 20
118.8449050542
 30
0.0
 11
294.9319864154
 21
117.5606382322
 31
0.0
  0
LINE
  5
191
330
1F
100
AcDbEntity
  8
0
  6
Continuous
 62
     7
370
     0
100
AcDbLine
 10
298.5987822056
 20
116.8162749391
 30
0.0
 11
298.1657898516
 21
116.0351355803
 31
0.0
  0
LINE
  5
192
330
1F
100
AcDbEntity
  8
0
  6
Continuous
 62
     7
370
     0
100
AcDbLine
 10
298.1657898516
 20
116.0351355803
 30
0.0
 11
294.9319864154
 21
117.5606382322
 31
0.0
  0
LINE
  5
193
330
1F
100
AcDbEntity
  8
0
  6
Continuous
 62
     7
370
     0
100
AcDbLine
 10
301.0516548991
 20
114.1384384837
 30
0.0
 11
298.1657898516
 21
116.0351355803
 31
0.0
  0
LINE
  5
194
330
1F
100
AcDbEntity
  8
0
  6
Continuous
 62
     7
370
     0
100
AcDbLine
 10
300.7037174419
 20
113.7672421765
 30
0.0
 11
301.0516548991
 21
114.1384384837
 31
0.0
  0
LINE
  5
195
330
1F
100
AcDbEntity
  8
0
  6
Continuous
 62
     7
370
     0
100
AcDbLine
 10
297.4699140057
 20
115.2927448284
 30
0.0
 11
300.7037174419
 21
113.7672421765
 31
0.0
  0
LINE
  5
196
330
1F
100
AcDbEntity
  8
0
  6
Continuous
 62
     7
370
     0
100
AcDbLine
 10
294.5840489581
 20
117.1894428563
 30
0.0
 11
297.4699140057
 21
115.2927448284
 31
0.0
  0
LINE
  5
197
330
1F
100
AcDbEntity
  8
0
  6
Continuous
 62
     7
370
     0
100
AcDbLine
 10
294.9319864154
 20
117.5606382322
 30
0.0
 11
294.5840489581
 21
117.1894428563
 31
0.0
  0
LINE
  5
198
330
1F
100
AcDbEntity
  8
0
  6
Continuous
 62
     7
370
     0
100
AcDbLine
 10
301.788589032
 20
115.4679023903
 30
0.0
 11
301.0516548991
 21
114.1384384837
 31
0.0
  0
LINE
  5
199
330
1F
100
AcDbEntity
  8
0
  6
Continuous
 62
     7
370
     0
100
AcDbLine
 10
295.5474323124
 20
118.9274314102
 30
0.0
 11
294.5840489581
 21
117.1894428563
 31
0.0
  0
CIRCLE
  5
19A
330
1F
100
AcDbEntity
  8
0
  6
Continuous
 62
     7
370
     0
100
AcDbCircle
 10
318.8516783218
 20
140.4988797035
 30
0.0
 40
2.125
  0
CIRCLE
  5
19B
330
1F
100
AcDbEntity
  8
0
  6
Continuous
 62
     7
370
     0
100
AcDbCircle
 10
318.8516783218
 20
140.4988797035
 30
0.0
 40
2.25
  0
LINE
  5
19C
330
1F
100
AcDbEntity
  8
0
  6
Continuous
 62
     7
370
     0
100
AcDbLine
 10
317.6709972784
 20
140.498879483
 30
0.0
 11
318.2613375127
 21
139.476379497
 31
0.0
  0
LINE
  5
19D
330
1F
100
AcDbEntity
  8
0
  6
Continuous
 62
     7
370
     0
100
AcDbLine
 10
318.2613375127
 20
139.476379497
 30
0.0
 11
319.4420189127
 21
139.476379497
 31
0.0
  0
LINE
  5
19E
330
1F
100
AcDbEntity
  8
0
  6
Continuous
 62
     7
370
     0
100
AcDbLine
 10
320.0323600784
 20
140.498879483
 30
0.0
 11
319.4420189127
 21
139.476379497
 31
0.0
  0
LINE
  5
19F
330
1F
100
AcDbEntity
  8
0
  6
Continuous
 62
     7
370
     0
100
AcDbLine
 10
319.4420189127
 20
141.521379469
 30
0.0
 11
320.0323600784
 21
140.498879483
 31
0.0
  0
LINE
  5
1A0
330
1F
100
AcDbEntity
  8
0
  6
Continuous
 62
     7
370
     0
100
AcDbLine
 10
319.4420189127
 20
141.521379469
 30
0.0
 11
318.2613375127
 21
141.521379469
 31
0.0
  0
LINE
  5
1A1
330
1F
100
AcDbEntity
  8
0
  6
Continuous
 62
     7
370
     0
100
AcDbLine
 10
317.6709972784
 20
140.498879483
 30
0.0
 11
318.2613375127
 21
141.521379469
 31
0.0
  0
ARC
  5
1A2
330
1F
100
AcDbEntity
  8
0
  6
Continuous
 62
     7
370
     0
100
AcDbCircle
 10
318.8516783218
 20
140.4988797035
 30
0.0
 40
1.022500000000008
100
AcDbArc
 50
90.0
 51
150.0
  0
ARC
  5
1A3
330
1F
100
AcDbEntity
  8
0
  6
Continuous
 62
     7
370
     0
100
AcDbCircle
 10
318.8516783218
 20
140.4988797035
 30
0.0
 40
1.022500000000055
100
AcDbArc
 50
30.0
 51
90.0
  0
ARC
  5
1A4
330
1F
100
AcDbEntity
  8
0
  6
Continuous
 62
     7
370
     0
100
AcDbCircle
 10
318.8516783218
 20
140.4988797035
 30
0.0
 40
1.022500000000055
100
AcDbArc
 50
330.0
 51
30.0
  0
ARC
  5
1A5
330
1F
100
AcDbEntity
  8
0
  6
Continuous
 62
     7
370
     0
100
AcDbCircle
 10
318.8516783218
 20
140.4988797035
 30
0.0
 40
1.02250000000004
100
AcDbArc
 50
270.0
 51
330.0
  0
ARC
  5
1A6
330
1F
100
AcDbEntity
  8
0
  6
Continuous
 62
     7
370
     0
100
AcDbCircle
 10
318.8516783218
 20
140.4988797035
 30
0.0
 40
1.022500000000008
100
AcDbArc
 50
210.0
 51
270.0
  0
ARC
  5
1A7
330
1F
100
AcDbEntity
  8
0
  6
Continuous
 62
     7
370
     0
100
AcDbCircle
 10
318.8516783218
 20
140.4988797035
 30
0.0
 40
1.022499999999991
100
AcDbArc
 50
150.0
 51
210.0
  0
ARC
  5
1A8
330
1F
100
AcDbEntity
  8
0
  6
Continuous
 62
     7
370
     0
100
AcDbCircle
 10
306.9739736796
 20
132.1820213764
 30
0.0
 40
17.50000000000009
100
AcDbArc
 50
106.0897552514
 51
331.0
  0
CIRCLE
  5
1A9
330
1F
100
AcDbEntity
  8
0
  6
Continuous
 62
     7
370
     0
100
AcDbCircle
 10
298.6571153525
 20
144.0597260186
 30
0.0
 40
2.124999999999949
  0
LINE
  5
1AA
330
1F
100
AcDbEntity
  8
0
  6
Continuous
 62
     7
370
     0
100
AcDbLine
 10
297.6057772055
 20
144.5970312935
 30
0.0
 11
297.666125977
 21
143.417893095
 31
0.0
  0
LINE
  5
1AB
330
1F
100
AcDbEntity
  8
0
  6
Continuous
 62
     7
370
     0
100
AcDbLine
 10
297.666125977
 20
143.417893095
 30
0.0
 11
298.7174643666
 21
142.880587956
 31
0.0
  0
LINE
  5
1AC
330
1F
100
AcDbEntity
  8
0
  6
Continuous
 62
     7
370
     0
100
AcDbLine
 10
299.7084530532
 20
143.5224200841
 30
0.0
 11
298.7174643666
 21
142.880587956
 31
0.0
  0
LINE
  5
1AD
330
1F
100
AcDbEntity
  8
0
  6
Continuous
 62
     7
370
     0
100
AcDbLine
 10
299.6481042817
 20
144.7015582826
 30
0.0
 11
299.7084530532
 21
143.5224200841
 31
0.0
  0
LINE
  5
1AE
330
1F
100
AcDbEntity
  8
0
  6
Continuous
 62
     7
370
     0
100
AcDbLine
 10
299.6481042817
 20
144.7015582826
 30
0.0
 11
298.5967668235
 21
145.2388634216
 31
0.0
  0
LINE
  5
1AF
330
1F
100
AcDbEntity
  8
0
  6
Continuous
 62
     7
370
     0
100
AcDbLine
 10
297.6057772055
 20
144.5970312935
 30
0.0
 11
298.5967668235
 21
145.2388634216
 31
0.0
  0
CIRCLE
  5
1B0
330
1F
100
AcDbEntity
  8
0
  6
Continuous
 62
     7
370
     0
100
AcDbCircle
 10
298.6571153525
 20
144.0597260186
 30
0.0
 40
2.25
  0
ARC
  5
1B1
330
1F
100
AcDbEntity
  8
0
  6
Continuous
 62
     7
370
     0
100
AcDbCircle
 10
298.6571153525
 20
144.0597260186
 30
0.0
 40
1.022499999999965
100
AcDbArc
 50
2.929860903
 51
62.929860903
  0
ARC
  5
1B2
330
1F
100
AcDbEntity
  8
0
  6
Continuous
 62
     7
370
     0
100
AcDbCircle
 10
298.6571153525
 20
144.0597260186
 30
0.0
 40
1.022500000000026
100
AcDbArc
 50
302.929860903
 51
2.929860903
  0
ARC
  5
1B3
330
1F
100
AcDbEntity
  8
0
  6
Continuous
 62
     7
370
     0
100
AcDbCircle
 10
298.6571153525
 20
144.0597260186
 30
0.0
 40
1.022500000000026
100
AcDbArc
 50
242.929860903
 51
302.929860903
  0
ARC
  5
1B4
330
1F
100
AcDbEntity
  8
0
  6
Continuous
 62
     7
370
     0
100
AcDbCircle
 10
298.6571153525
 20
144.0597260186
 30
0.0
 40
1.022500000000023
100
AcDbArc
 50
182.929860903
 51
242.929860903
  0
ARC
  5
1B5
330
1F
100
AcDbEntity
  8
0
  6
Continuous
 62
     7
370
     0
100
AcDbCircle
 10
298.6571153525
 20
144.0597260186
 30
0.0
 40
1.022500000000023
100
AcDbArc
 50
122.929860903
 51
182.929860903
  0
ARC
  5
1B6
330
1F
100
AcDbEntity
  8
0
  6
Continuous
 62
     7
370
     0
100
AcDbCircle
 10
298.6571153525
 20
144.0597260186
 30
0.0
 40
1.022500000000002
100
AcDbArc
 50
62.929860903
 51
122.929860903
  0
CIRCLE
  5
1B7
330
1F
100
AcDbEntity
  8
0
  6
Continuous
 62
     7
370
     0
100
AcDbCircle
 10
295.0962690374
 20
123.8651630493
 30
0.0
 40
2.125000000000014
  0
LINE
  5
1B8
330
1F
100
AcDbEntity
  8
0
  6
Continuous
 62
     7
370
     0
100
AcDbLine
 10
293.9155875236
 20
123.8651630711
 30
0.0
 11
294.5059286892
 21
122.8426630851
 31
0.0
  0
LINE
  5
1B9
330
1F
100
AcDbEntity
  8
0
  6
Continuous
 62
     7
370
     0
100
AcDbLine
 10
294.5059286892
 20
122.8426630851
 30
0.0
 11
295.6866100892
 21
122.8426630851
 31
0.0
  0
LINE
  5
1BA
330
1F
100
AcDbEntity
  8
0
  6
Continuous
 62
     7
370
     0
100
AcDbLine
 10
296.2769503236
 20
123.8651630711
 30
0.0
 11
295.6866100892
 21
122.8426630851
 31
0.0
  0
LINE
  5
1BB
330
1F
100
AcDbEntity
  8
0
  6
Continuous
 62
     7
370
     0
100
AcDbLine
 10
295.6866100892
 20
124.8876630571
 30
0.0
 11
296.2769503236
 21
123.8651630711
 31
0.0
  0
LINE
  5
1BC
330
1F
100
AcDbEntity
  8
0
  6
Continuous
 62
     7
370
     0
100
AcDbLine
 10
295.6866100892
 20
124.8876630571
 30
0.0
 11
294.5059286892
 21
124.8876630571
 31
0.0
  0
LINE
  5
1BD
330
1F
100
AcDbEntity
  8
0
  6
Continuous
 62
     7
370
     0
100
AcDbLine
 10
293.9155875236
 20
123.8651630711
 30
0.0
 11
294.5059286892
 21
124.8876630571
 31
0.0
  0
CIRCLE
  5
1BE
330
1F
100
AcDbEntity
  8
0
  6
Continuous
 62
     7
370
     0
100
AcDbCircle
 10
295.0962690374
 20
123.8651630493
 30
0.0
 40
2.25
  0
ARC
  5
1BF
330
1F
100
AcDbEntity
  8
0
  6
Continuous
 62
     7
370
     0
100
AcDbCircle
 10
295.0962690374
 20
123.8651630493
 30
0.0
 40
1.022499999999998
100
AcDbArc
 50
30.0
 51
90.0
  0
ARC
  5
1C0
330
1F
100
AcDbEntity
  8
0
  6
Continuous
 62
     7
370
     0
100
AcDbCircle
 10
295.0962690374
 20
123.8651630493
 30
0.0
 40
1.022499999999998
100
AcDbArc
 50
330.0
 51
30.0
  0
ARC
  5
1C1
330
1F
100
AcDbEntity
  8
0
  6
Continuous
 62
     7
370
     0
100
AcDbCircle
 10
295.0962690374
 20
123.8651630493
 30
0.0
 40
1.022499999999994
100
AcDbArc
 50
270.0
 51
330.0
  0
ARC
  5
1C2
330
1F
100
AcDbEntity
  8
0
  6
Continuous
 62
     7
370
     0
100
AcDbCircle
 10
295.0962690374
 20
123.8651630493
 30
0.0
 40
1.022499999999994
100
AcDbArc
 50
210.0
 51
270.0
  0
ARC
  5
1C3
330
1F
100
AcDbEntity
  8
0
  6
Continuous
 62
     7
370
     0
100
AcDbCircle
 10
295.0962690374
 20
123.8651630493
 30
0.0
 40
1.022499999999998
100
AcDbArc
 50
150.0
 51
210.0
  0
ARC
  5
1C4
330
1F
100
AcDbEntity
  8
0
  6
Continuous
 62
     7
370
     0
100
AcDbCircle
 10
295.0962690374
 20
123.8651630493
 30
0.0
 40
1.022499999999998
100
AcDbArc
 50
90.0
 51
150.0
  0
CIRCLE
  5
1C5
330
1F
100
AcDbEntity
  8
0
  6
Continuous
 62
     7
370
     0
100
AcDbCircle
 10
315.2908320067
 20
120.3043167342
 30
0.0
 40
2.124999999999986
  0
CIRCLE
  5
1C6
330
1F
100
AcDbEntity
  8
0
  6
Continuous
 62
     7
370
     0
100
AcDbCircle
 10
315.2908320067
 20
120.3043167342
 30
0.0
 40
2.249999999999986
  0
LINE
  5
1C7
330
1F
100
AcDbEntity
  8
0
  6
Continuous
 62
     7
370
     0
100
AcDbLine
 10
314.1101506069
 20
120.3043163996
 30
0.0
 11
314.7004913069
 21
119.2818164136
 31
0.0
  0
LINE
  5
1C8
330
1F
100
AcDbEntity
  8
0
  6
Continuous
 62
     7
370
     0
100
AcDbLine
 10
314.7004913069
 20
119.2818164136
 30
0.0
 11
315.8811722413
 21
119.2818164136
 31
0.0
  0
LINE
  5
1C9
330
1F
100
AcDbEntity
  8
0
  6
Continuous
 62
     7
370
     0
100
AcDbLine
 10
316.4715134069
 20
120.3043163996
 30
0.0
 11
315.8811722413
 21
119.2818164136
 31
0.0
  0
LINE
  5
1CA
330
1F
100
AcDbEntity
  8
0
  6
Continuous
 62
     7
370
     0
100
AcDbLine
 10
315.8811722413
 20
121.3268163856
 30
0.0
 11
316.4715134069
 21
120.3043163996
 31
0.0
  0
LINE
  5
1CB
330
1F
100
AcDbEntity
  8
0
  6
Continuous
 62
     7
370
     0
100
AcDbLine
 10
315.8811722413
 20
121.3268163856
 30
0.0
 11
314.7004913069
 21
121.3268163856
 31
0.0
  0
LINE
  5
1CC
330
1F
100
AcDbEntity
  8
0
  6
Continuous
 62
     7
370
     0
100
AcDbLine
 10
314.1101506069
 20
120.3043163996
 30
0.0
 11
314.7004913069
 21
121.3268163856
 31
0.0
  0
ARC
  5
1CD
330
1F
100
AcDbEntity
  8
0
  6
Continuous
 62
     7
370
     0
100
AcDbCircle
 10
315.2908320067
 20
120.3043167342
 30
0.0
 40
1.022499999999991
100
AcDbArc
 50
30.0
 51
90.0
  0
ARC
  5
1CE
330
1F
100
AcDbEntity
  8
0
  6
Continuous
 62
     7
370
     0
100
AcDbCircle
 10
315.2908320067
 20
120.3043167342
 30
0.0
 40
1.022499999999998
100
AcDbArc
 50
330.0
 51
30.0
  0
ARC
  5
1CF
330
1F
100
AcDbEntity
  8
0
  6
Continuous
 62
     7
370
     0
100
AcDbCircle
 10
315.2908320067
 20
120.3043167342
 30
0.0
 40
1.022500000000008
100
AcDbArc
 50
270.0
 51
330.0
  0
ARC
  5
1D0
330
1F
100
AcDbEntity
  8
0
  6
Continuous
 62
     7
370
     0
100
AcDbCircle
 10
315.2908320067
 20
120.3043167342
 30
0.0
 40
1.022500000000008
100
AcDbArc
 50
210.0
 51
270.0
  0
ARC
  5
1D1
330
1F
100
AcDbEntity
  8
0
  6
Continuous
 62
     7
370
     0
100
AcDbCircle
 10
315.2908320067
 20
120.3043167342
 30
0.0
 40
1.022499999999998
100
AcDbArc
 50
150.0
 51
210.0
  0
ARC
  5
1D2
330
1F
100
AcDbEntity
  8
0
  6
Continuous
 62
     7
370
     0
100
AcDbCircle
 10
315.2908320067
 20
120.3043167342
 30
0.0
 40
1.022499999999991
100
AcDbArc
 50
90.0
 51
150.0
  0
LINE
  5
1D3
330
1F
100
AcDbEntity
  8
0
  6
Continuous
 62
     7
370
     0
100
AcDbLine
 10
301.2004709333
 20
157.6820221972
 30
0.0
 11
301.2004709333
 21
154.6820217055
 31
0.0
  0
LINE
  5
1D4
330
1F
100
AcDbEntity
  8
0
  6
Continuous
 62
     7
370
     0
100
AcDbLine
 10
304.0872223672
 20
157.6820221972
 30
0.0
 11
301.2004709333
 21
157.6820221972
 31
0.0
  0
LINE
  5
1D5
330
1F
100
AcDbEntity
  8
0
  6
Continuous
 62
     7
370
     0
100
AcDbLine
 10
304.0872223672
 20
157.6820221972
 30
0.0
 11
304.0872223672
 21
154.6820217055
 31
0.0
  0
LINE
  5
1D6
330
1F
100
AcDbEntity
  8
0
  6
Continuous
 62
     7
370
     0
100
AcDbLine
 10
304.0872223672
 20
154.6820217055
 30
0.0
 11
301.2004709333
 21
154.6820217055
 31
0.0
  0
LINE
  5
1D7
330
1F
100
AcDbEntity
  8
0
  6
Continuous
 62
     7
370
     0
100
AcDbLine
 10
309.860725002
 20
157.6820221972
 30
0.0
 11
309.860725002
 21
154.6820217055
 31
0.0
  0
LINE
  5
1D8
330
1F
100
AcDbEntity
  8
0
  6
Continuous
 62
     7
370
     0
100
AcDbLine
 10
309.860725002
 20
154.6820217055
 30
0.0
 11
304.0872223672
 21
154.6820217055
 31
0.0
  0
LINE
  5
1D9
330
1F
100
AcDbEntity
  8
0
  6
Continuous
 62
     7
370
     0
100
AcDbLine
 10
309.860725002
 20
157.6820221972
 30
0.0
 11
304.0872223672
 21
157.6820221972
 31
0.0
  0
LINE
  5
1DA
330
1F
100
AcDbEntity
  8
0
  6
Continuous
 62
     7
370
     0
100
AcDbLine
 10
312.747476203
 20
157.6820221972
 30
0.0
 11
312.747476203
 21
154.6820217055
 31
0.0
  0
LINE
  5
1DB
330
1F
100
AcDbEntity
  8
0
  6
Continuous
 62
     7
370
     0
100
AcDbLine
 10
312.747476203
 20
154.6820217055
 30
0.0
 11
309.860725002
 21
154.6820217055
 31
0.0
  0
LINE
  5
1DC
330
1F
100
AcDbEntity
  8
0
  6
Continuous
 62
     7
370
     0
100
AcDbLine
 10
312.747476203
 20
157.6820221972
 30
0.0
 11
309.860725002
 21
157.6820221972
 31
0.0
  0
LINE
  5
1DD
330
1F
100
AcDbEntity
  8
0
  6
Continuous
 62
     7
370
     0
100
AcDbLine
 10
311.8239734784
 20
157.9820216876
 30
0.0
 11
302.1239736579
 21
157.9820216876
 31
0.0
  0
LINE
  5
1DE
330
1F
100
AcDbEntity
  8
0
  6
Continuous
 62
     7
370
     0
100
AcDbLine
 10
302.3239737839
 20
158.1820213478
 30
0.0
 11
311.6239738181
 21
158.1820213478
 31
0.0
  0
SPLINE
  5
1DF
330
1F
100
AcDbEntity
  8
0
  6
Continuous
 62
     7
370
     0
100
AcDbSpline
210
0.0
220
0.0
230
1.0
 70
    24
 71
     3
 72
    22
 73
    18
 74
     0
 42
0.00000001
 43
0.00000001
 12
1.0
 22
0.0
 32
0.0
 13
1.0
 23
0.0
 33
0.0
 40
0.0
 40
0.0
 40
0.0
 40
0.0
 40
0.125
 40
0.125
 40
0.25
 40
0.25
 40
0.375
 40
0.375
 40
0.5
 40
0.5
 40
0.625
 40
0.625
 40
0.75
 40
0.75
 40
0.875
 40
0.875
 40
1.0
 40
1.0
 40
1.0
 40
1.0
 10
302.4739736871731
 20
165.382021376405
 30
0.0
 10
302.4740078372713
 20
165.382021376405
 30
0.0
 10
302.5911561766649
 20
165.382021376405
 30
0.0
 10
303.0420251593469
 20
165.382021376405
 30
0.0
 10
303.3755684310364
 20
165.382021376405
 30
0.0
 10
304.2086023823317
 20
165.382021376405
 30
0.0
 10
304.7077653468594
 20
165.382021376405
 30
0.0
 10
305.796151640211
 20
165.382021376405
 30
0.0
 10
306.3849467984922
 20
165.382021376405
 30
0.0
 10
307.5630005607279
 20
165.382021376405
 30
0.0
 10
308.1517957190091
 20
165.382021376405
 30
0.0
 10
309.2401820123607
 20
165.382021376405
 30
0.0
 10
309.7393449768885
 20
165.382021376405
 30
0.0
 10
310.5723789281837
 20
165.382021376405
 30
0.0
 10
310.9059221998732
 20
165.382021376405
 30
0.0
 10
311.3567911825552
 20
165.382021376405
 30
0.0
 10
311.4739395219488
 20
165.382021376405
 30
0.0
 10
311.4739736720471
 20
165.382021376405
 30
0.0
  0
SPLINE
  5
1E0
330
1F
100
AcDbEntity
  8
0
  6
Continuous
 62
     7
370
     0
100
AcDbSpline
210
0.0
220
0.0
230
1.0
 70
     8
 71
     3
 72
    21
 73
    17
 74
     0
 42
0.00000001
 43
0.00000001
 12
1.0
 22
0.0
 32
0.0
 13
1.0
 23
0.0
 33
0.0
 40
0.6778070109512722
 40
0.6778070109512722
 40
0.6778070109512722
 40
0.6778070109512722
 40
0.8056037805498142
 40
0.8181037805498141
 40
0.8306037805498143
 40
0.8431037805498143
 40
0.8556037805498142
 40
0.8556037805498142
 40
0.8556037805498142
 40
0.8681037805498142
 40
0.8806037805498143
 40
0.8931037805498142
 40
0.9056037805498143
 40
1.105603780549814
 40
1.105603780549814
 40
1.177796769598542
 40
1.177796769598542
 40
1.177796769598542
 40
1.177796769598542
 10
302.4735657892892
 20
165.3820216239687
 30
0.0
 10
302.4748991865421
 20
166.571828984301
 30
0.0
 10
302.9961531473679
 20
167.8426818330493
 30
0.0
 10
304.0624979864783
 20
168.8205644805681
 30
0.0
 10
304.345486664781
 20
169.0412392152266
 30
0.0
 10
304.6492319738587
 20
169.2410359211114
 30
0.0
 10
304.865216338743
 20
169.3592771347904
 30
0.0
 10
304.9764928288055
 20
169.41439911797
 30
0.0
 10
305.0877693188679
 20
169.4695211011497
 30
0.0
 10
305.3127040956243
 20
169.5696938354255
 30
0.0
 10
305.6556947940603
 20
169.6902646331152
 30
0.0
 10
306.0027171692051
 20
169.7816725196072
 30
0.0
 10
308.0997003407714
 20
170.1582947265323
 30
0.0
 10
310.1243996903007
 20
169.1599260682093
 30
0.0
 10
311.3247050794177
 20
166.7368316329328
 30
0.0
 10
311.4750922543917
 20
166.0544377951918
 30
0.0
 10
311.4743818813753
 20
165.3823071751156
 30
0.0
  0
SPLINE
  5
1E1
330
1F
100
AcDbEntity
  8
0
  6
Continuous
 62
     7
370
     0
100
AcDbSpline
210
0.0
220
0.0
230
1.0
 70
     8
 71
     3
 72
     8
 73
     4
 74
     0
 42
0.00000001
 43
0.00000001
 12
1.0
 22
0.0
 32
0.0
 13
1.0
 23
0.0
 33
0.0
 40
0.6758102696030354
 40
0.6758102696030354
 40
0.6758102696030354
 40
0.6758102696030354
 40
0.6778070109512722
 40
0.6778070109512722
 40
0.6778070109512722
 40
0.6778070109512722
 10
311.4743818813753
 20
165.3823071751156
 30
0.0
 10
311.4743622336063
 20
165.3637171289323
 30
0.0
 10
311.4742269983049
 20
165.3451349339685
 30
0.0
 10
311.4739765323887
 20
165.3265616478516
 30
0.0
  0
ARC
  5
1E2
330
1F
100
AcDbEntity
  8
0
  6
Continuous
 62
     7
370
     0
100
AcDbCircle
 10
306.9739736796
 20
165.3820213764
 30
0.0
 40
6.599999999999992
100
AcDbArc
 50
313.1706309548
 51
226.9422237289
  0
ARC
  5
1E3
330
1F
100
AcDbEntity
  8
0
  6
Continuous
 62
     7
370
     0
100
AcDbCircle
 10
320.0666187168
 20
155.80298937
 30
0.0
 40
2.900551527879871
100
AcDbArc
 50
331.3063564393
 51
147.2145634662
  0
SPLINE
  5
1E4
330
1F
100
AcDbEntity
  8
0
  6
Continuous
 62
     7
370
     0
100
AcDbSpline
210
0.0
220
0.0
230
1.0
 70
     8
 71
     3
 72
    33
 73
    29
 74
     0
 42
0.00000001
 43
0.00000001
 12
1.0
 22
0.0
 32
0.0
 13
1.0
 23
0.0
 33
0.0
 40
0.0
 40
0.0
 40
0.0
 40
0.0
 40
0.0377578169188088
 40
0.0763520040187344
 40
0.1153103205287839
 40
0.1542687314354707
 40
0.1931235801136673
 40
0.2319797595673959
 40
0.2706221322966804
 40
0.3092623466114386
 40
0.3481846117259678
 40
0.3871083797110601
 40
0.4257716257584136
 40
0.4644308027099242
 40
0.5004714101161885
 40
0.5365133970847468
 40
0.5908249990824272
 40
0.6294551141557728
 40
0.668083279155184
 40
0.7070212067561187
 40
0.7459604887222724
 40
0.7846295409477293
 40
0.8232948316838375
 40
0.8623078757306895
 40
0.9013226675238722
 40
0.9400378460770499
 40
0.9787532905097411
 40
1.0
 40
1.0
 40
1.0
 40
1.0
 10
302.480071829266
 20
162.2736976724357
 30
0.0
 10
302.3215484945443
 20
162.5275331816927
 30
0.0
 10
302.0009903882388
 20
163.0408268889152
 30
0.0
 10
301.6865407946276
 20
163.9037852900085
 30
0.0
 10
301.511982713757
 20
164.8120487452246
 30
0.0
 10
301.4936881724761
 20
165.7402269846567
 30
0.0
 10
301.6345323156872
 20
166.6564219742655
 30
0.0
 10
301.9231127638453
 20
167.5347981706855
 30
0.0
 10
302.3558372808151
 20
168.3498115083094
 30
0.0
 10
302.9163336789621
 20
169.0836134255491
 30
0.0
 10
303.5965547038334
 20
169.7115339014144
 30
0.0
 10
304.3716587864424
 20
170.2178765168931
 30
0.0
 10
305.219529208973
 20
170.5841561619064
 30
0.0
 10
306.0936701238297
 20
170.8016965249997
 30
0.0
 10
306.9706342357917
 20
170.8693906427555
 30
0.0
 10
307.9707682529444
 20
170.7916377234178
 30
0.0
 10
308.9629317834012
 20
170.511931088225
 30
0.0
 10
309.891109954312
 20
170.0322840220625
 30
0.0
 10
310.6310249274984
 20
169.4797625101788
 30
0.0
 10
311.2664825591863
 20
168.8064270080524
 30
0.0
 10
311.7814300814998
 20
168.0366204125417
 30
0.0
 10
312.1568107322906
 20
167.1925332927746
 30
0.0
 10
312.3898998901918
 20
166.2977980890547
 30
0.0
 10
312.4645954197467
 20
165.3736810114293
 30
0.0
 10
312.3865340300068
 20
164.4484742051203
 30
0.0
 10
312.1458647051293
 20
163.5570875948629
 30
0.0
 10
311.8405958770308
 20
162.831189655777
 30
0.0
 10
311.5654384845967
 20
162.4439994839358
 30
0.0
 10
311.4679404996401
 20
162.3068043273181
 30
0.0
  0
DIMENSION
  5
1E5
330
1F
100
AcDbEntity
  8
SLD-0
 62
     7
100
AcDbDimension
  2
_D_5
 10
303.2210975256
 20
146.1879458576
 30
0.0
 11
323.1135160838
 21
110.3157116747
 31
0.0
 70
   163
  1
P.C.D.<>
 71
     1
 42
-1.0
  3
SLDDIMSTYLE2
100
AcDbDiametricDimension
 15
310.7268498336
 25
118.1760968952
 35
0.0
 40
0.0
  0
DIMENSION
  5
1F0
330
1F
100
AcDbEntity
  8
SLD-0
 62
     7
100
AcDbDimension
  2
_D_6
 10
316.4508321571
 20
131.5193348758
 30
0.0
 11
331.0999384363
 21
125.5223441066
 31
0.0
 70
   162
  1
<>
 71
     1
 42
-1.0
  3
SLDDIMSTYLE3
100
AcDb2LineAngularDimension
 13
326.9739736796
 23
132.1820213764
 33
0.0
 14
286.9739736796
 24
132.1820213764
 34
0.0
 15
326.4264726597
 25
130.8217701384
 35
0.0
 16
331.9869807141
 26
131.3085479235
 36
0.0
  0
DIMENSION
  5
1FD
330
1F
100
AcDbEntity
  8
SLD-0
 62
     7
100
AcDbDimension
  2
_D_7
 10
297.4971152021
 20
132.844707877
 30
0.0
 11
284.9228991275
 21
142.7141555039
 31
0.0
 70
   162
  1
<>
 71
     1
 42
-1.0
  3
SLDDIMSTYLE3
100
AcDb2LineAngularDimension
 13
326.9739736796
 23
132.1820213764
 33
0.0
 14
286.9739736796
 24
132.1820213764
 34
0.0
 15
287.5214746995
 25
133.5422726144
 35
0.0
 16
282.5516807254
 26
133.0348666391
 36
0.0
  0
DIMENSION
  5
209
330
1F
100
AcDbEntity
  8
SLD-0
 62
     7
100
AcDbDimension
  2
_D_8
 10
306.9739736796
 20
112.1820213764
 30
0.0
 11
300.4654916172
 21
101.5723477913
 31
0.0
 70
   162
  1
<>
 71
     1
 42
-1.0
  3
SLDDIMSTYLE3
100
AcDb2LineAngularDimension
 13
305.6137224416
 23
112.7295223963
 33
0.0
 14
306.311287179
 24
122.7051628989
 34
0.0
 15
306.9739736796
 25
152.1820213764
 35
0.0
 16
305.881829934
 26
100.907116456
 36
0.0
  0
DIMENSION
  5
215
330
1F
100
AcDbEntity
  8
SLD-0
 62
     7
100
AcDbDimension
  2
_D_9
 10
320.1649941006
 20
129.0193215769
 30
0.0
 11
343.8466532977
 21
147.2141553102
 31
0.0
 70
   163
  1
3-%%c2.9キリ\P<>ザグリ深4.7
 71
     1
 42
-1.0
  3
SLDDIMSTYLE4
100
AcDbDiametricDimension
 15
322.7123107162
 25
133.3217834373
 35
0.0
 40
0.0
  0
INSERT
  5
22D
330
1F
100
AcDbEntity
  8
SLD-0
 62
     7
100
AcDbBlockReference
  2
SW_NOTE_2
 10
287.5816993464
 20
149.2374727669
 30
0.0
  0
LEADER
  5
235
330
1F
100
AcDbEntity
  8
SLD-0
 62
     7
100
AcDbLeader
  3
SLDDIMSTYLE5
 76
     2
 10
301.6427199951
 20
136.9464976489
 30
0.0
 10
287.5816993464
 20
149.2374727669
 30
0.0
  0
INSERT
  5
24E
330
1F
100
AcDbEntity
  8
SLD-0
 62
     7
100
AcDbBlockReference
  2
SW_CENTERMARKSYMBOL_0
 10
292.5092949508
 20
133.1934902457
 30
0.0
  0
INSERT
  5
25A
330
1F
100
AcDbEntity
  8
SLD-0
 62
     7
100
AcDbBlockReference
  2
SW_CENTERMARKSYMBOL_1
 10
306.9739736796
 20
132.1820213764
 30
0.0
  0
LINE
  5
25B
330
1F
100
AcDbEntity
  8
0
  6
Continuous
 62
     7
370
     0
100
AcDbLine
 10
89.1694584691
 20
160.3795868587
 30
0.0
 11
89.1039911488
 21
160.4826339763
 31
0.0
  0
LINE
  5
25C
330
1F
100
AcDbEntity
  8
0
  6
Continuous
 62
     7
370
     0
100
AcDbLine
 10
79.4816454703
 20
154.3694959264
 30
0.0
 11
79.5471118593
 21
154.2664469462
 31
0.0
  0
LINE
  5
25D
330
1F
100
AcDbEntity
  8
0
  6
Continuous
 62
     7
370
     0
100
AcDbLine
 10
89.9358726868
 20
159.3596992325
 30
0.0
 11
89.2931446263
 21
160.3713819068
 31
0.0
  0
LINE
  5
25E
330
1F
100
AcDbEntity
  8
0
  6
Continuous
 62
     7
370
     0
100
AcDbLine
 10
79.5019855553
 20
154.1509946119
 30
0.0
 11
80.1447136158
 21
153.1393119376
 31
0.0
  0
LINE
  5
25F
330
1F
100
AcDbEntity
  8
0
  6
Continuous
 62
     7
370
     0
100
AcDbLine
 10
84.2438321391
 20
150.5300087165
 30
0.0
 11
84.6367608586
 21
149.8211455774
 31
0.0
  0
LINE
  5
260
330
1F
100
AcDbEntity
  8
0
  6
Continuous
 62
     7
370
     0
100
AcDbLine
 10
90.8767310733
 20
153.0025993716
 30
0.0
 11
90.3409123251
 21
153.9692414236
 31
0.0
  0
LINE
  5
261
330
1F
100
AcDbEntity
  8
0
  6
Continuous
 62
     7
370
     0
100
AcDbLine
 10
83.5612620988
 20
155.0809984338
 30
0.0
 11
83.5595913061
 21
155.0835372191
 31
0.0
  0
LINE
  5
262
330
1F
100
AcDbEntity
  8
0
  6
Continuous
 62
     7
370
     0
100
AcDbLine
 10
103.2660263421
 20
148.9965246301
 30
0.0
 11
103.2660263421
 21
154.6820217055
 31
0.0
  0
LINE
  5
263
330
1F
100
AcDbEntity
  8
0
  6
Continuous
 62
     7
370
     0
100
AcDbLine
 10
93.5660265216
 20
154.6820217055
 30
0.0
 11
93.5660265216
 21
148.9965246301
 31
0.0
  0
LINE
  5
264
330
1F
100
AcDbEntity
  8
0
  6
Continuous
 62
     7
370
     0
100
AcDbLine
 10
103.2660263421
 20
157.6820221972
 30
0.0
 11
103.2660263421
 21
157.9820216876
 31
0.0
  0
LINE
  5
265
330
1F
100
AcDbEntity
  8
0
  6
Continuous
 62
     7
370
     0
100
AcDbLine
 10
93.5660265216
 20
157.9820216876
 30
0.0
 11
93.5660265216
 21
157.6820221972
 31
0.0
  0
LINE
  5
266
330
1F
100
AcDbEntity
  8
0
  6
Continuous
 62
     7
370
     0
100
AcDbLine
 10
103.2660263421
 20
157.9820216876
 30
0.0
 11
103.0660262161
 21
158.1820213478
 31
0.0
  0
LINE
  5
267
330
1F
100
AcDbEntity
  8
0
  6
Continuous
 62
     7
370
     0
100
AcDbLine
 10
93.7660261819
 20
158.1820213478
 30
0.0
 11
93.5660265216
 21
157.9820216876
 31
0.0
  0
LINE
  5
268
330
1F
100
AcDbEntity
  8
0
  6
Continuous
 62
     7
370
     0
100
AcDbLine
 10
93.9253941008
 20
160.6084463429
 30
0.0
 11
93.9302430318
 21
158.1388396453
 31
0.0
  0
LINE
  5
269
330
1F
100
AcDbEntity
  8
0
  6
Continuous
 62
     7
370
     0
100
AcDbLine
 10
102.9018098319
 20
158.1388396453
 30
0.0
 11
102.9066620225
 21
160.6103071254
 31
0.0
  0
CIRCLE
  5
26A
330
1F
100
AcDbEntity
  8
0
  6
Continuous
 62
     7
370
     0
100
AcDbCircle
 10
84.2380129716
 20
157.4643148089
 30
0.0
 40
5.174123861895086
  0
CIRCLE
  5
26B
330
1F
100
AcDbEntity
  8
0
  6
Continuous
 62
     7
370
     0
100
AcDbCircle
 10
84.267091823
 20
157.4103031805
 30
0.0
 40
5.669707393498737
  0
CIRCLE
  5
26C
330
1F
100
AcDbEntity
  8
0
  6
Continuous
 62
     7
370
     0
100
AcDbCircle
 10
84.2449716033
 20
157.4691401448
 30
0.0
 40
3.482593547975355
  0
CIRCLE
  5
26D
330
1F
100
AcDbEntity
  8
0
  6
Continuous
 62
     7
370
     0
100
AcDbCircle
 10
84.2822599013
 20
157.4140327002
 30
0.0
 40
2.984853923567972
  0
ARC
  5
26E
330
1F
100
AcDbEntity
  8
0
  6
Continuous
 62
     7
370
     0
100
AcDbCircle
 10
84.3401920022
 20
157.351496322
 30
0.0
 40
5.700100605006239
100
AcDbArc
 50
212.7672174349
 51
32.0889082642
  0
ARC
  5
26F
330
1F
100
AcDbEntity
  8
0
  6
Continuous
 62
     7
370
     0
100
AcDbCircle
 10
85.156901738
 20
156.0659598558
 30
0.0
 40
3.004926657280837
100
AcDbArc
 50
48.2209425442
 51
196.6351797571
  0
ARC
  5
270
330
1F
100
AcDbEntity
  8
0
  6
Continuous
 62
     7
370
     0
100
AcDbCircle
 10
84.461761396
 20
157.30055686
 30
0.0
 40
5.724612155374076
100
AcDbArc
 50
29.0185147684
 51
64.0166338962
  0
ARC
  5
271
330
1F
100
AcDbEntity
  8
0
  6
Continuous
 62
     7
370
     0
100
AcDbCircle
 10
84.3987008553
 20
157.279804234
 30
0.0
 40
5.789836572511695
100
AcDbArc
 50
181.4238962429
 51
28.8953819321
  0
LINE
  5
272
330
1F
100
AcDbEntity
  8
0
  6
Continuous
 62
     7
370
     0
100
AcDbLine
 10
90.1104509661
 20
159.0658390206
 30
0.0
 11
89.9358726868
 21
159.3596992325
 31
0.0
  0
ARC
  5
273
330
1F
100
AcDbEntity
  8
0
  6
Continuous
 62
     7
370
     0
100
AcDbCircle
 10
85.0220229247
 20
156.2800785772
 30
0.0
 40
5.801082759233335
100
AcDbArc
 50
212.7797037931
 51
28.6993715968
  0
LINE
  5
274
330
1F
100
AcDbEntity
  8
0
  6
Continuous
 62
     7
370
     0
100
AcDbLine
 10
87.8321286121
 20
151.2150225472
 30
0.0
 11
89.9060666391
 21
147.4735421371
 31
0.0
  0
LINE
  5
275
330
1F
100
AcDbEntity
  8
0
  6
Continuous
 62
     7
370
     0
100
AcDbLine
 10
87.0304284447
 20
145.4726197999
 30
0.0
 11
87.0344433764
 21
145.4752368164
 31
0.0
  0
LINE
  5
276
330
1F
100
AcDbEntity
  8
0
  6
Continuous
 62
     7
370
     0
100
AcDbLine
 10
84.6244487742
 20
149.8131213021
 30
0.0
 11
87.0304284447
 21
145.4726197999
 31
0.0
  0
LINE
  5
277
330
1F
100
AcDbEntity
  8
0
  6
Continuous
 62
     7
370
     0
100
AcDbLine
 10
84.6244487742
 20
149.8131213021
 30
0.0
 11
85.716095736
 21
150.5245586168
 31
0.0
  0
LINE
  5
278
330
1F
100
AcDbEntity
  8
0
  6
Continuous
 62
     7
370
     0
100
AcDbLine
 10
90.7436045648
 20
153.2121450883
 30
0.0
 11
93.1495842354
 21
148.8716435861
 31
0.0
  0
LINE
  5
279
330
1F
100
AcDbEntity
  8
0
  6
Continuous
 62
     7
370
     0
100
AcDbLine
 10
93.1438663804
 20
148.868972553
 30
0.0
 11
93.1495842354
 21
148.8716435861
 31
0.0
  0
LINE
  5
27A
330
1F
100
AcDbEntity
  8
0
  6
Continuous
 62
     7
370
     0
100
AcDbLine
 10
89.5373811775
 20
152.6485831719
 30
0.0
 11
90.7436045648
 21
153.2121450883
 31
0.0
  0
LINE
  5
27B
330
1F
100
AcDbEntity
  8
0
  6
Continuous
 62
     7
370
     0
100
AcDbLine
 10
93.1495842354
 20
148.8716435861
 30
0.0
 11
93.1500424461
 21
148.8709227424
 31
0.0
  0
LINE
  5
27C
330
1F
100
AcDbEntity
  8
0
  6
Continuous
 62
     7
370
     0
100
AcDbLine
 10
87.0307665148
 20
145.4720870834
 30
0.0
 11
87.0304284447
 21
145.4726197999
 31
0.0
  0
LINE
  5
27D
330
1F
100
AcDbEntity
  8
0
  6
Continuous
 62
     7
370
     0
100
AcDbLine
 10
91.0081849264
 20
152.7956855726
 30
0.0
 11
93.1787160055
 21
148.8799435329
 31
0.0
  0
LINE
  5
27E
330
1F
100
AcDbEntity
  8
0
  6
Continuous
 62
     7
370
     0
100
AcDbLine
 10
90.8758947456
 20
153.0039162617
 30
0.0
 11
91.0081849264
 21
152.7956855726
 31
0.0
  0
LINE
  5
27F
330
1F
100
AcDbEntity
  8
0
  6
Continuous
 62
     7
370
     0
100
AcDbLine
 10
90.7436045648
 20
153.2121450883
 30
0.0
 11
90.8758947456
 21
153.0039162617
 31
0.0
  0
ARC
  5
280
330
1F
100
AcDbEntity
  8
0
  6
Continuous
 62
     7
370
     0
100
AcDbCircle
 10
85.1487036724
 20
156.0840790514
 30
0.0
 40
1.871894429740607
100
AcDbArc
 50
29.1860231059
 51
241.3021399282
  0
LWPOLYLINE
  5
281
330
1F
100
AcDbEntity
  8
0
  6
Continuous
 62
     7
370
     0
100
AcDbPolyline
 90
        3
 70
   128
 43
0.0
 10
87.0122769678
 20
156.1971158963
 10
86.9512371549
 20
156.5809139293
 10
86.7829443717
 20
156.9969021958
  0
CIRCLE
  5
282
330
1F
100
AcDbEntity
  8
0
  6
Continuous
 62
     7
370
     0
100
AcDbCircle
 10
98.4160263204
 20
132.1820213764
 30
0.0
 40
5.000000000000014
  0
LINE
  5
283
330
1F
100
AcDbEntity
  8
0
  6
Continuous
 62
     7
370
     0
100
AcDbLine
 10
104.6862825581
 20
113.7672421765
 30
0.0
 11
103.7225010635
 21
115.5059506428
 31
0.0
  0
LINE
  5
284
330
1F
100
AcDbEntity
  8
0
  6
Continuous
 62
     7
370
     0
100
AcDbLine
 10
107.0087430829
 20
116.9368504789
 30
0.0
 11
107.9200859943
 21
115.2927448284
 31
0.0
  0
LINE
  5
285
330
1F
100
AcDbEntity
  8
0
  6
Continuous
 62
     7
370
     0
100
AcDbLine
 10
107.9200859943
 20
115.2927448284
 30
0.0
 11
104.6862825581
 21
113.7672421765
 31
0.0
  0
LINE
  5
286
330
1F
100
AcDbEntity
  8
0
  6
Continuous
 62
     7
370
     0
100
AcDbLine
 10
109.8425676876
 20
118.9274314102
 30
0.0
 11
110.8059510419
 21
117.1894428563
 31
0.0
  0
LINE
  5
287
330
1F
100
AcDbEntity
  8
0
  6
Continuous
 62
     7
370
     0
100
AcDbLine
 10
110.8059510419
 20
117.1894428563
 30
0.0
 11
107.9200859943
 21
115.2927448284
 31
0.0
  0
LINE
  5
288
330
1F
100
AcDbEntity
  8
0
  6
Continuous
 62
     7
370
     0
100
AcDbLine
 10
103.601410968
 20
115.4679023903
 30
0.0
 11
104.3383451009
 21
114.1384384837
 31
0.0
  0
LINE
  5
289
330
1F
100
AcDbEntity
  8
0
  6
Continuous
 62
     7
370
     0
100
AcDbLine
 10
104.6862825581
 20
113.7672421765
 30
0.0
 11
104.3383451009
 21
114.1384384837
 31
0.0
  0
CIRCLE
  5
28A
330
1F
100
AcDbEntity
  8
0
  6
Continuous
 62
     7
370
     0
100
AcDbCircle
 10
86.5383216782
 20
140.4988797035
 30
0.0
 40
0.9965000000000259
  0
CIRCLE
  5
28B
330
1F
100
AcDbEntity
  8
0
  6
Continuous
 62
     7
370
     0
100
AcDbCircle
 10
98.4160263204
 20
132.1820213764
 30
0.0
 40
12.75
  0
CIRCLE
  5
28C
330
1F
100
AcDbEntity
  8
0
  6
Continuous
 62
     7
370
     0
100
AcDbCircle
 10
98.4160263204
 20
132.1820213764
 30
0.0
 40
17.5
  0
CIRCLE
  5
28D
330
1F
100
AcDbEntity
  8
0
  6
Continuous
 62
     7
370
     0
100
AcDbCircle
 10
106.7328846475
 20
144.0597260186
 30
0.0
 40
1.025000000000005
  0
CIRCLE
  5
28E
330
1F
100
AcDbEntity
  8
0
  6
Continuous
 62
     7
370
     0
100
AcDbCircle
 10
110.2937309626
 20
123.8651630493
 30
0.0
 40
1.024999999999991
  0
CIRCLE
  5
28F
330
1F
100
AcDbEntity
  8
0
  6
Continuous
 62
     7
370
     0
100
AcDbCircle
 10
90.0991679933
 20
120.3043167342
 30
0.0
 40
1.024999999999991
  0
CIRCLE
  5
290
330
1F
100
AcDbEntity
  8
0
  6
Continuous
 62
     7
370
     0
100
AcDbCircle
 10
86.5383216782
 20
140.4988797035
 30
0.0
 40
1.025000000000005
  0
CIRCLE
  5
291
330
1F
100
AcDbEntity
  8
0
  6
Continuous
 62
     7
370
     0
100
AcDbCircle
 10
99.4274951897
 20
117.7173426476
 30
0.0
 40
1.449999999999998
  0
CIRCLE
  5
292
330
1F
100
AcDbEntity
  8
0
  6
Continuous
 62
     7
370
     0
100
AcDbCircle
 10
83.9513475916
 20
131.1705525071
 30
0.0
 40
1.450000000000005
  0
CIRCLE
  5
293
330
1F
100
AcDbEntity
  8
0
  6
Continuous
 62
     7
370
     0
100
AcDbCircle
 10
112.8807050492
 20
133.1934902457
 30
0.0
 40
1.449999999999978
  0
CIRCLE
  5
294
330
1F
100
AcDbEntity
  8
0
  6
Continuous
 62
     7
370
     0
100
AcDbCircle
 10
98.4160263204
 20
132.1820213764
 30
0.0
 40
8.499999999999996
  0
CIRCLE
  5
295
330
1F
100
AcDbEntity
  8
0
  6
Continuous
 62
     7
370
     0
100
AcDbCircle
 10
98.4160263204
 20
132.1820213764
 30
0.0
 40
10.99999999999999
  0
CIRCLE
  5
296
330
1F
100
AcDbEntity
  8
0
  6
Continuous
 62
     7
370
     0
100
AcDbCircle
 10
98.4160263204
 20
132.1820213764
 30
0.0
 40
7.999999999999984
  0
CIRCLE
  5
297
330
1F
100
AcDbEntity
  8
0
  6
Continuous
 62
     7
370
     0
100
AcDbCircle
 10
98.4160263204
 20
132.1820213764
 30
0.0
 40
6.250000000000011
  0
CIRCLE
  5
298
330
1F
100
AcDbEntity
  8
0
  6
Continuous
 62
     7
370
     0
100
AcDbCircle
 10
106.7328846475
 20
144.0597260186
 30
0.0
 40
0.9964999999999844
  0
CIRCLE
  5
299
330
1F
100
AcDbEntity
  8
0
  6
Continuous
 62
     7
370
     0
100
AcDbCircle
 10
110.2937309626
 20
123.8651630493
 30
0.0
 40
0.9965000000000117
  0
CIRCLE
  5
29A
330
1F
100
AcDbEntity
  8
0
  6
Continuous
 62
     7
370
     0
100
AcDbCircle
 10
90.0991679933
 20
120.3043167342
 30
0.0
 40
0.9964999999999833
  0
CIRCLE
  5
29B
330
1F
100
AcDbEntity
  8
0
  6
Continuous
 62
     7
370
     0
100
AcDbCircle
 10
98.4160263204
 20
165.3820213764
 30
0.0
 40
4.0
  0
CIRCLE
  5
29C
330
1F
100
AcDbEntity
  8
0
  6
Continuous
 62
     7
370
     0
100
AcDbCircle
 10
98.4160263204
 20
165.3820213764
 30
0.0
 40
6.599999999999994
  0
LINE
  5
29D
330
1F
100
AcDbEntity
  8
0
  6
Continuous
 62
     7
370
     0
100
AcDbLine
 10
92.642523797
 20
157.6820221972
 30
0.0
 11
92.642523797
 21
154.6820217055
 31
0.0
  0
LINE
  5
29E
330
1F
100
AcDbEntity
  8
0
  6
Continuous
 62
     7
370
     0
100
AcDbLine
 10
95.529274998
 20
157.6820221972
 30
0.0
 11
92.642523797
 21
157.6820221972
 31
0.0
  0
LINE
  5
29F
330
1F
100
AcDbEntity
  8
0
  6
Continuous
 62
     7
370
     0
100
AcDbLine
 10
95.529274998
 20
157.6820221972
 30
0.0
 11
95.529274998
 21
154.6820217055
 31
0.0
  0
LINE
  5
2A0
330
1F
100
AcDbEntity
  8
0
  6
Continuous
 62
     7
370
     0
100
AcDbLine
 10
95.529274998
 20
154.6820217055
 30
0.0
 11
92.642523797
 21
154.6820217055
 31
0.0
  0
LINE
  5
2A1
330
1F
100
AcDbEntity
  8
0
  6
Continuous
 62
     7
370
     0
100
AcDbLine
 10
101.3027776328
 20
157.6820221972
 30
0.0
 11
101.3027776328
 21
154.6820217055
 31
0.0
  0
LINE
  5
2A2
330
1F
100
AcDbEntity
  8
0
  6
Continuous
 62
     7
370
     0
100
AcDbLine
 10
101.3027776328
 20
157.6820221972
 30
0.0
 11
95.529274998
 21
157.6820221972
 31
0.0
  0
LINE
  5
2A3
330
1F
100
AcDbEntity
  8
0
  6
Continuous
 62
     7
370
     0
100
AcDbLine
 10
101.3027776328
 20
154.6820217055
 30
0.0
 11
95.529274998
 21
154.6820217055
 31
0.0
  0
LINE
  5
2A4
330
1F
100
AcDbEntity
  8
0
  6
Continuous
 62
     7
370
     0
100
AcDbLine
 10
104.1895290667
 20
157.6820221972
 30
0.0
 11
104.1895290667
 21
154.6820217055
 31
0.0
  0
LINE
  5
2A5
330
1F
100
AcDbEntity
  8
0
  6
Continuous
 62
     7
370
     0
100
AcDbLine
 10
104.1895290667
 20
157.6820221972
 30
0.0
 11
101.3027776328
 21
157.6820221972
 31
0.0
  0
LINE
  5
2A6
330
1F
100
AcDbEntity
  8
0
  6
Continuous
 62
     7
370
     0
100
AcDbLine
 10
104.1895290667
 20
154.6820217055
 30
0.0
 11
101.3027776328
 21
154.6820217055
 31
0.0
  0
LINE
  5
2A7
330
1F
100
AcDbEntity
  8
0
  6
Continuous
 62
     7
370
     0
100
AcDbLine
 10
103.2660263421
 20
157.9820216876
 30
0.0
 11
93.5660265216
 21
157.9820216876
 31
0.0
  0
LINE
  5
2A8
330
1F
100
AcDbEntity
  8
0
  6
Continuous
 62
     7
370
     0
100
AcDbLine
 10
93.7660261819
 20
158.1820213478
 30
0.0
 11
103.0660262161
 21
158.1820213478
 31
0.0
  0
LINE
  5
2A9
330
1F
100
AcDbEntity
  8
0
  6
Continuous
 62
     7
370
     0
100
AcDbLine
 10
101.277844032
 20
167.1820209604
 30
0.0
 11
101.277844032
 21
162.5873820167
 31
0.0
  0
LINE
  5
2AA
330
1F
100
AcDbEntity
  8
0
  6
Continuous
 62
     7
370
     0
100
AcDbLine
 10
95.5542088316
 20
162.5873820167
 30
0.0
 11
95.5542088316
 21
167.1820209604
 31
0.0
  0
LINE
  5
2AB
330
1F
100
AcDbEntity
  8
0
  6
Continuous
 62
     7
370
     0
100
AcDbLine
 10
101.277844032
 20
167.1820209604
 30
0.0
 11
95.5542088316
 21
167.1820209604
 31
0.0
  0
DIMENSION
  5
2AC
330
1F
100
AcDbEntity
  8
SLD-0
 62
     7
100
AcDbDimension
  2
_D_10
 10
102.1264124958
 20
146.1992619903
 30
0.0
 11
80.4825544422
 21
111.0552618314
 31
0.0
 70
   163
  1
P.C.D.<>
 71
     1
 42
-1.0
  3
SLDDIMSTYLE4
100
AcDbDiametricDimension
 15
94.7056401449
 25
118.1647807625
 35
0.0
 40
0.0
  0
DIMENSION
  5
2B7
330
1F
100
AcDbEntity
  8
SLD-0
 62
     7
100
AcDbDimension
  2
_D_11
 10
78.4160263204
 20
132.1820213764
 30
0.0
 11
120.0109648248
 21
143.4236348205
 31
0.0
 70
   162
  1
<>
 71
     1
 42
-1.0
  3
SLDDIMSTYLE3
100
AcDb2LineAngularDimension
 13
108.7547415856
 23
146.9472369747
 33
0.0
 14
104.7110277093
 24
141.1722150625
 34
0.0
 15
118.4160263204
 25
132.1820213764
 35
0.0
 16
120.0109648248
 26
143.4236348205
 36
0.0
  0
DIMENSION
  5
2C1
330
1F
100
AcDbEntity
  8
SLD-0
 62
     7
100
AcDbDimension
  2
_D_12
 10
109.7812309626
 20
124.7528390882
 30
0.0
 11
128.5286295179
 21
116.9570823492
 31
0.0
 70
   163
  1
4-M2.5深10\P(90%%d等配)
 71
     1
 42
-1.0
  3
SLDDIMSTYLE2
100
AcDbDiametricDimension
 15
110.8062309626
 25
122.9774870104
 35
0.0
 40
0.0
  0
INSERT
  5
2F3
330
1F
100
AcDbEntity
  8
SLD-0
 62
     7
100
AcDbBlockReference
  2
SW_CENTERMARKSYMBOL_2
 10
106.7328846475
 20
144.0597260186
 30
0.0
  0
INSERT
  5
2FF
330
1F
100
AcDbEntity
  8
SLD-0
 62
     7
100
AcDbBlockReference
  2
SW_CENTERMARKSYMBOL_3
 10
98.4160263204
 20
132.1820213764
 30
0.0
  0
ENDSEC
  0
SECTION
  2
OBJECTS
  0
DICTIONARY
  5
C
330
0
100
AcDbDictionary
281
     1
  3
ACAD_GROUP
350
D
  3
ACAD_LAYOUT
350
1A
  3
ACAD_MLINESTYLE
350
17
  3
ACAD_PLOTSETTINGS
350
19
  3
ACAD_PLOTSTYLENAME
350
E
  0
DICTIONARY
  5
D
102
{ACAD_REACTORS
330
C
102
}
330
C
100
AcDbDictionary
281
     1
  0
DICTIONARY
  5
1A
102
{ACAD_REACTORS
330
C
102
}
330
C
100
AcDbDictionary
281
     1
  3
Layout1
350
1E
  3
Layout2
350
26
  3
Model
350
22
  0
DICTIONARY
  5
17
102
{ACAD_REACTORS
330
C
102
}
330
C
100
AcDbDictionary
281
     1
  3
Standard
350
18
  0
DICTIONARY
  5
19
102
{ACAD_REACTORS
330
C
102
}
330
C
100
AcDbDictionary
281
     1
  0
ACDBDICTIONARYWDFLT
  5
E
102
{ACAD_REACTORS
330
C
102
}
330
C
100
AcDbDictionary
281
     1
  3
Normal
350
F
100
AcDbDictionaryWithDefault
340
F
  0
LAYOUT
  5
1E
102
{ACAD_REACTORS
330
1A
102
}
330
1A
100
AcDbPlotSettings
  1

  2
none_device
  4

  6

 40
0.0
 41
0.0
 42
0.0
 43
0.0
 44
0.0
 45
0.0
 46
0.0
 47
0.0
 48
0.0
 49
0.0
140
0.0
141
0.0
142
1.0
143
1.0
 70
   688
 72
     0
 73
     0
 74
     5
  7

 75
    16
147
1.0
148
0.0
149
0.0
100
AcDbLayout
  1
Layout1
 70
     1
 71
     1
 10
0.0
 20
0.0
 11
420.0
 21
297.0
 12
0.0
 22
0.0
 32
0.0
 14
1.0000000000E+20
 24
1.0000000000E+20
 34
1.0000000000E+20
 15
-1.0000000000E+20
 25
-1.0000000000E+20
 35
-1.0000000000E+20
146
0.0
 13
0.0
 23
0.0
 33
0.0
 16
1.0
 26
0.0
 36
0.0
 17
0.0
 27
1.0
 37
0.0
 76
     0
330
1B
  0
LAYOUT
  5
26
102
{ACAD_REACTORS
330
1A
102
}
330
1A
100
AcDbPlotSettings
  1

  2
none_device
  4

  6

 40
0.0
 41
0.0
 42
0.0
 43
0.0
 44
0.0
 45
0.0
 46
0.0
 47
0.0
 48
0.0
 49
0.0
140
0.0
141
0.0
142
1.0
143
1.0
 70
   688
 72
     0
 73
     0
 74
     5
  7

 75
    16
147
1.0
148
0.0
149
0.0
100
AcDbLayout
  1
Layout2
 70
     1
 71
     2
 10
0.0
 20
0.0
 11
0.0
 21
0.0
 12
0.0
 22
0.0
 32
0.0
 14
0.0
 24
0.0
 34
0.0
 15
0.0
 25
0.0
 35
0.0
146
0.0
 13
0.0
 23
0.0
 33
0.0
 16
1.0
 26
0.0
 36
0.0
 17
0.0
 27
1.0
 37
0.0
 76
     0
330
23
  0
LAYOUT
  5
22
102
{ACAD_REACTORS
330
1A
102
}
330
1A
100
AcDbPlotSettings
  1

  2
none_device
  4

  6

 40
0.0
 41
0.0
 42
0.0
 43
0.0
 44
0.0
 45
0.0
 46
0.0
 47
0.0
 48
0.0
 49
0.0
140
0.0
141
0.0
142
1.0
143
1.0
 70
  1712
 72
     0
 73
     0
 74
     0
  7

 75
     0
147
1.0
148
0.0
149
0.0
100
AcDbLayout
  1
Model
 70
     1
 71
     0
 10
0.0
 20
0.0
 11
420.0
 21
297.0
 12
0.0
 22
0.0
 32
0.0
 14
0.0
 24
0.0
 34
0.0
 15
420.0
 25
297.0
 35
0.0
146
0.0
 13
0.0
 23
0.0
 33
0.0
 16
1.0
 26
0.0
 36
0.0
 17
0.0
 27
1.0
 37
0.0
 76
     0
330
1F
331
29
  0
MLINESTYLE
  5
18
102
{ACAD_REACTORS
330
17
102
}
330
17
100
AcDbMlineStyle
  2
Standard
 70
     0
  3

 62
   256
 51
90.0
 52
90.0
 71
     2
 49
0.5
 62
   256
  6
BYLAYER
 49
-0.5
 62
   256
  6
BYLAYER
  0
ACDBPLACEHOLDER
  5
F
102
{ACAD_REACTORS
330
E
102
}
330
E
  0
ENDSEC
  0
EOF
