  0
SECTION
  2
HEADER
  9
$ACADVER
  1
AC1015
  9
$ACADMAINTVER
 70
     6
  9
$DWGCODEPAGE
  3
DOS932
  9
$INSBASE
 10
0.0
 20
0.0
 30
0.0
  9
$EXTMIN
 10
0.0
 20
0.0
 30
0.0
  9
$EXTMAX
 10
210.0
 20
297.0
 30
0.0
  9
$LIMMIN
 10
0.0
 20
0.0
  9
$LIMMAX
 10
210.0
 20
297.0
  9
$ORTHOMODE
 70
     0
  9
$REGENMODE
 70
     1
  9
$FILLMODE
 70
     1
  9
$QTEXTMODE
 70
     0
  9
$MIRRTEXT
 70
     1
  9
$LTSCALE
 40
1.0
  9
$ATTMODE
 70
     1
  9
$TEXTSIZE
 40
3.5
  9
$TRACEWID
 40
1.0
  9
$TEXTSTYLE
  7
Standard
  9
$CLAYER
  8
0
  9
$CELTYPE
  6
ByLayer
  9
$CECOLOR
 62
   256
  9
$CELTSCALE
 40
1.0
  9
$DISPSILH
 70
     0
  9
$DIMSCALE
 40
1.0
  9
$DIMASZ
 40
3.0
  9
$DIMEXO
 40
1.0
  9
$DIMDLI
 40
3.75
  9
$DIMRND
 40
0.0
  9
$DIMDLE
 40
0.0
  9
$DIMEXE
 40
1.0
  9
$DIMTP
 40
0.0
  9
$DIMTM
 40
0.0
  9
$DIMTXT
 40
3.5
  9
$DIMCEN
 40
2.5
  9
$DIMTSZ
 40
0.0
  9
$DIMTOL
 70
     0
  9
$DIMLIM
 70
     0
  9
$DIMTIH
 70
     1
  9
$DIMTOH
 70
     1
  9
$DIMSE1
 70
     0
  9
$DIMSE2
 70
     0
  9
$DIMTAD
 70
     1
  9
$DIMZIN
 70
     0
  9
$DIMBLK
  1

  9
$DIMASO
 70
     1
  9
$DIMSHO
 70
     1
  9
$DIMPOST
  1

  9
$DIMAPOST
  1

  9
$DIMALT
 70
     0
  9
$DIMALTD
 70
     3
  9
$DIMALTF
 40
0.0393700787
  9
$DIMLFAC
 40
1.0
  9
$DIMTOFL
 70
     1
  9
$DIMTVP
 40
0.0
  9
$DIMTIX
 70
     0
  9
$DIMSOXD
 70
     0
  9
$DIMSAH
 70
     0
  9
$DIMBLK1
  1

  9
$DIMBLK2
  1

  9
$DIMSTYLE
  2
ISO-25
  9
$DIMCLRD
 70
     0
  9
$DIMCLRE
 70
     0
  9
$DIMCLRT
 70
     0
  9
$DIMTFAC
 40
1.0
  9
$DIMGAP
 40
1.524
  9
$DIMJUST
 70
     0
  9
$DIMSD1
 70
     0
  9
$DIMSD2
 70
     0
  9
$DIMTOLJ
 70
     0
  9
$DIMTZIN
 70
     0
  9
$DIMALTZ
 70
     0
  9
$DIMALTTZ
 70
     0
  9
$DIMUPT
 70
     0
  9
$DIMDEC
 70
     1
  9
$DIMTDEC
 70
     3
  9
$DIMALTU
 70
     2
  9
$DIMALTTD
 70
     3
  9
$DIMTXSTY
  7
Standard
  9
$DIMAUNIT
 70
     0
  9
$DIMADEC
 70
     2
  9
$DIMALTRND
 40
0.0
  9
$DIMAZIN
 70
     0
  9
$DIMDSEP
 70
    44
  9
$DIMATFIT
 70
     3
  9
$DIMFRAC
 70
     0
  9
$DIMLDRBLK
  1

  9
$DIMLUNIT
 70
     2
  9
$DIMLWD
 70
    -2
  9
$DIMLWE
 70
    -2
  9
$DIMTMOVE
 70
     0
  9
$LUNITS
 70
     2
  9
$LUPREC
 70
     1
  9
$SKETCHINC
 40
1.0
  9
$FILLETRAD
 40
10.0
  9
$AUNITS
 70
     0
  9
$AUPREC
 70
     2
  9
$MENU
  1
.
  9
$ELEVATION
 40
0.0
  9
$PELEVATION
 40
0.0
  9
$THICKNESS
 40
0.0
  9
$LIMCHECK
 70
     0
  9
$CHAMFERA
 40
0.0
  9
$CHAMFERB
 40
0.0
  9
$CHAMFERC
 40
0.0
  9
$CHAMFERD
 40
0.0
  9
$SKPOLY
 70
     0
  9
$TDCREATE
 40
2458899.717164919
  9
$TDUCREATE
 40
2458899.342164919
  9
$TDUPDATE
 40
2458899.717167882
  9
$TDUUPDATE
 40
2458899.342167882
  9
$TDINDWG
 40
0.0000000116
  9
$TDUSRTIMER
 40
0.0000000116
  9
$USRTIMER
 70
     1
  9
$ANGBASE
 50
0.0
  9
$ANGDIR
 70
     0
  9
$PDMODE
 70
     0
  9
$PDSIZE
 40
-1.0
  9
$PLINEWID
 40
0.0
  9
$SPLFRAME
 70
     0
  9
$SPLINETYPE
 70
     6
  9
$SPLINESEGS
 70
     8
  9
$HANDSEED
  5
26F
  9
$SURFTAB1
 70
     6
  9
$SURFTAB2
 70
     6
  9
$SURFTYPE
 70
     6
  9
$SURFU
 70
     6
  9
$SURFV
 70
     6
  9
$UCSBASE
  2

  9
$UCSNAME
  2

  9
$UCSORG
 10
0.0
 20
0.0
 30
0.0
  9
$UCSXDIR
 10
1.0
 20
0.0
 30
0.0
  9
$UCSYDIR
 10
0.0
 20
1.0
 30
0.0
  9
$UCSORTHOREF
  2

  9
$UCSORTHOVIEW
 70
     0
  9
$UCSORGTOP
 10
0.0
 20
0.0
 30
0.0
  9
$UCSORGBOTTOM
 10
0.0
 20
0.0
 30
0.0
  9
$UCSORGLEFT
 10
0.0
 20
0.0
 30
0.0
  9
$UCSORGRIGHT
 10
0.0
 20
0.0
 30
0.0
  9
$UCSORGFRONT
 10
0.0
 20
0.0
 30
0.0
  9
$UCSORGBACK
 10
0.0
 20
0.0
 30
0.0
  9
$PUCSBASE
  2

  9
$PUCSNAME
  2

  9
$PUCSORG
 10
0.0
 20
0.0
 30
0.0
  9
$PUCSXDIR
 10
1.0
 20
0.0
 30
0.0
  9
$PUCSYDIR
 10
0.0
 20
1.0
 30
0.0
  9
$PUCSORTHOREF
  2

  9
$PUCSORTHOVIEW
 70
     0
  9
$PUCSORGTOP
 10
0.0
 20
0.0
 30
0.0
  9
$PUCSORGBOTTOM
 10
0.0
 20
0.0
 30
0.0
  9
$PUCSORGLEFT
 10
0.0
 20
0.0
 30
0.0
  9
$PUCSORGRIGHT
 10
0.0
 20
0.0
 30
0.0
  9
$PUCSORGFRONT
 10
0.0
 20
0.0
 30
0.0
  9
$PUCSORGBACK
 10
0.0
 20
0.0
 30
0.0
  9
$USERI1
 70
     0
  9
$USERI2
 70
     0
  9
$USERI3
 70
     0
  9
$USERI4
 70
     0
  9
$USERI5
 70
     0
  9
$USERR1
 40
0.0
  9
$USERR2
 40
0.0
  9
$USERR3
 40
0.0
  9
$USERR4
 40
0.0
  9
$USERR5
 40
0.0
  9
$WORLDVIEW
 70
     1
  9
$SHADEDGE
 70
     3
  9
$SHADEDIF
 70
    70
  9
$TILEMODE
 70
     1
  9
$MAXACTVP
 70
    64
  9
$PINSBASE
 10
0.0
 20
0.0
 30
0.0
  9
$PLIMCHECK
 70
     0
  9
$PEXTMIN
 10
1.0000000000E+20
 20
1.0000000000E+20
 30
1.0000000000E+20
  9
$PEXTMAX
 10
-1.0000000000E+20
 20
-1.0000000000E+20
 30
-1.0000000000E+20
  9
$PLIMMIN
 10
0.0
 20
0.0
  9
$PLIMMAX
 10
420.0
 20
297.0
  9
$UNITMODE
 70
     0
  9
$VISRETAIN
 70
     1
  9
$PLINEGEN
 70
     0
  9
$PSLTSCALE
 70
     1
  9
$TREEDEPTH
 70
  3020
  9
$CMLSTYLE
  2
Standard
  9
$CMLJUST
 70
     0
  9
$CMLSCALE
 40
20.0
  9
$PROXYGRAPHICS
 70
     1
  9
$MEASUREMENT
 70
     1
  9
$CELWEIGHT
370
    -1
  9
$ENDCAPS
280
     0
  9
$JOINSTYLE
280
     0
  9
$LWDISPLAY
290
     1
  9
$INSUNITS
 70
     4
  9
$HYPERLINKBASE
  1

  9
$STYLESHEET
  1

  9
$XEDIT
290
     1
  9
$CEPSNTYPE
380
     0
  9
$PSTYLEMODE
290
     1
  9
$FINGERPRINTGUID
  2
{8D5760EF-E6A6-4005-A9A3-8AB85890A0F3}
  9
$VERSIONGUID
  2
{FAEB1C32-E019-11D5-929B-00C0DF256EC4}
  9
$EXTNAMES
290
     1
  9
$PSVPSCALE
 40
0.0
  9
$OLESTARTUP
290
     0
  0
ENDSEC
  0
SECTION
  2
CLASSES
  0
CLASS
  1
ACDBDICTIONARYWDFLT
  2
AcDbDictionaryWithDefault
  3
ObjectDBX Classes
 90
        0
280
     0
281
     0
  0
CLASS
  1
VISUALSTYLE
  2
AcDbVisualStyle
  3
ObjectDBX Classes
 90
     4095
280
     0
281
     0
  0
CLASS
  1
MATERIAL
  2
AcDbMaterial
  3
ObjectDBX Classes
 90
     1153
280
     0
281
     0
  0
CLASS
  1
SCALE
  2
AcDbScale
  3
ObjectDBX Classes
 90
     1153
280
     0
281
     0
  0
CLASS
  1
TABLESTYLE
  2
AcDbTableStyle
  3
ObjectDBX Classes
 90
     4095
280
     0
281
     0
  0
CLASS
  1
MLEADERSTYLE
  2
AcDbMLeaderStyle
  3
ACDB_MLEADERSTYLE_CLASS
 90
     4095
280
     0
281
     0
  0
CLASS
  1
SUN
  2
AcDbSun
  3
SCENEOE
 90
     1153
280
     0
281
     0
  0
CLASS
  1
ACDBPLACEHOLDER
  2
AcDbPlaceHolder
  3
ObjectDBX Classes
 90
        0
280
     0
281
     0
  0
CLASS
  1
LAYOUT
  2
AcDbLayout
  3
ObjectDBX Classes
 90
        0
280
     0
281
     0
  0
ENDSEC
  0
SECTION
  2
TABLES
  0
TABLE
  2
VPORT
  5
8
330
0
100
AcDbSymbolTable
 70
     1
  0
VPORT
  5
29
330
8
100
AcDbSymbolTableRecord
100
AcDbViewportTableRecord
  2
*Active
 70
     0
 10
0.0
 20
0.0
 11
1.0
 21
1.0
 12
105.0
 22
148.5
 13
0.0
 23
0.0
 14
10.0
 24
10.0
 15
10.0
 25
10.0
 16
0.0
 26
0.0
 36
1.0
 17
0.0
 27
0.0
 37
0.0
 40
297.0
 41
0.7070707071
 42
50.0
 43
0.0
 44
0.0
 50
0.0
 51
0.0
 71
     0
 72
  2000
 73
     1
 74
     3
 75
     0
 76
     0
 77
     0
 78
     0
281
     0
 65
     1
110
0.0
120
0.0
130
0.0
111
1.0
121
0.0
131
0.0
112
0.0
122
1.0
132
0.0
 79
     0
146
0.0
  0
ENDTAB
  0
TABLE
  2
LTYPE
  5
5
330
0
100
AcDbSymbolTable
 70
     6
  0
LTYPE
  5
14
330
5
100
AcDbSymbolTableRecord
100
AcDbLinetypeTableRecord
  2
ByBlock
 70
     0
  3

 72
    65
 73
     0
 40
0.0
  0
LTYPE
  5
15
330
5
100
AcDbSymbolTableRecord
100
AcDbLinetypeTableRecord
  2
ByLayer
 70
     0
  3

 72
    65
 73
     0
 40
0.0
  0
LTYPE
  5
16
330
5
100
AcDbSymbolTableRecord
100
AcDbLinetypeTableRecord
  2
Continuous
 70
     0
  3
Solid line
 72
    65
 73
     0
 40
0.0
  0
LTYPE
  5
6E
330
5
100
AcDbSymbolTableRecord
100
AcDbLinetypeTableRecord
  2
HIDDEN
 70
     0
  3
Hidden __ __ __ __ __ __ __ __ __ __ __ __ __ __
 72
    65
 73
     2
 40
1.905
 49
1.27
 74
     0
 49
-0.635
 74
     0
  0
LTYPE
  5
6F
330
5
100
AcDbSymbolTableRecord
100
AcDbLinetypeTableRecord
  2
PHANTOM
 70
     0
  3
Phantom ______  __  __  ______  __  __  ______
 72
    65
 73
     6
 40
12.7
 49
6.35
 74
     0
 49
-1.27
 74
     0
 49
1.27
 74
     0
 49
-1.27
 74
     0
 49
1.27
 74
     0
 49
-1.27
 74
     0
  0
LTYPE
  5
70
330
5
100
AcDbSymbolTableRecord
100
AcDbLinetypeTableRecord
  2
CENTER
 70
     0
  3
Center ____ _ ____ _ ____ _ ____ _ ____ _ ____
 72
    65
 73
     4
 40
10.16
 49
6.35
 74
     0
 49
-1.27
 74
     0
 49
1.27
 74
     0
 49
-1.27
 74
     0
  0
LTYPE
  5
71
330
5
100
AcDbSymbolTableRecord
100
AcDbLinetypeTableRecord
  2
CENTERX2
 70
     0
  3
Center (2x) ________  __  ________  __  _____
 72
    65
 73
     4
 40
20.32
 49
12.7
 74
     0
 49
-2.54
 74
     0
 49
2.54
 74
     0
 49
-2.54
 74
     0
  0
LTYPE
  5
72
330
5
100
AcDbSymbolTableRecord
100
AcDbLinetypeTableRecord
  2
DOT2
 70
     0
  3
Dot (.5x) ........................................
 72
    65
 73
     2
 40
0.635
 49
0.0
 74
     0
 49
-0.635
 74
     0
  0
ENDTAB
  0
TABLE
  2
LAYER
  5
2
330
0
100
AcDbSymbolTable
 70
     1
  0
LAYER
  5
10
330
2
100
AcDbSymbolTableRecord
100
AcDbLayerTableRecord
  2
0
 70
     0
 62
     7
  6
Continuous
370
    -3
390
F
  0
ENDTAB
  0
TABLE
  2
STYLE
  5
3
330
0
100
AcDbSymbolTable
 70
     2
  0
STYLE
  5
11
330
3
100
AcDbSymbolTableRecord
100
AcDbTextStyleTableRecord
  2
Standard
 70
     0
 40
0.0
 41
1.0
 50
0.0
 71
     0
 42
3.5
  3
txt
  4
bigfont
  0
STYLE
  5
7B
330
3
100
AcDbSymbolTableRecord
100
AcDbTextStyleTableRecord
  2
SLDTEXTSTYLE0
 70
     0
 40
0.0
 41
0.7
 50
0.0
 71
     0
 42
3.5
  3
TXT
  4
bigfont
  0
ENDTAB
  0
TABLE
  2
VIEW
  5
6
330
0
100
AcDbSymbolTable
 70
     0
  0
ENDTAB
  0
TABLE
  2
UCS
  5
7
330
0
100
AcDbSymbolTable
 70
     0
  0
ENDTAB
  0
TABLE
  2
APPID
  5
9
330
0
100
AcDbSymbolTable
 70
     1
  0
APPID
  5
12
330
9
100
AcDbSymbolTableRecord
100
AcDbRegAppTableRecord
  2
ACAD
 70
     0
  0
ENDTAB
  0
TABLE
  2
DIMSTYLE
  5
A
330
0
100
AcDbSymbolTable
 70
     4
100
AcDbDimStyleTable
  0
DIMSTYLE
105
27
330
A
100
AcDbSymbolTableRecord
100
AcDbDimStyleTableRecord
  2
ISO-25
 70
     0
 41
2.5
 42
0.625
 43
3.75
 44
1.25
 73
     0
 74
     0
 77
     1
 78
     8
140
2.5
141
2.5
143
0.0393700787
147
0.625
171
     3
172
     1
178
     0
271
     2
272
     2
274
     3
278
    44
283
     0
284
     8
340
11
  0
DIMSTYLE
105
FB
102
{ACAD_REACTORS
330
FA
330
11D
330
133
330
13F
330
1A6
330
1B2
330
250
102
}
330
A
100
AcDbSymbolTableRecord
100
AcDbDimStyleTableRecord
  2
SLDDIMSTYLE0
 70
     0
 41
3.0
 44
0.0
 45
0.000000001
 73
     0
 74
     0
 77
     3
 78
    12
 79
     3
140
3.5
147
0.875
172
     1
173
     1
178
     0
271
     1
272
     3
276
     2
284
    12
289
     0
340
7B
  0
DIMSTYLE
105
109
102
{ACAD_REACTORS
330
108
330
113
330
129
330
1BE
330
1C8
102
}
330
A
100
AcDbSymbolTableRecord
100
AcDbDimStyleTableRecord
  2
SLDDIMSTYLE1
 70
     0
 41
3.0
 44
0.0
 45
0.000000001
 73
     0
 74
     0
 77
     3
 78
    12
 79
     3
140
3.5
147
0.875
173
     1
178
     0
271
     1
272
     3
276
     2
284
    12
340
7B
  0
DIMSTYLE
105
151
330
A
100
AcDbSymbolTableRecord
100
AcDbDimStyleTableRecord
  2
SLDDIMSTYLE2
 70
     0
 41
3.0
 44
0.0
 45
0.000000001
146
3.0
147
0.0
173
     1
178
     0
271
     0
272
     0
276
     2
340
11
  0
ENDTAB
  0
TABLE
  2
BLOCK_RECORD
  5
1
330
0
100
AcDbSymbolTable
 70
    20
  0
BLOCK_RECORD
  5
1F
330
1
100
AcDbSymbolTableRecord
100
AcDbBlockTableRecord
  2
*Model_Space
340
22
  0
BLOCK_RECORD
  5
1B
330
1
100
AcDbSymbolTableRecord
100
AcDbBlockTableRecord
  2
*Paper_Space
340
1E
  0
BLOCK_RECORD
  5
23
330
1
100
AcDbSymbolTableRecord
100
AcDbBlockTableRecord
  2
*Paper_Space0
340
26
  0
BLOCK_RECORD
  5
FC
330
1
100
AcDbSymbolTableRecord
100
AcDbBlockTableRecord
  2
_D
340
0
  0
BLOCK_RECORD
  5
10A
330
1
100
AcDbSymbolTableRecord
100
AcDbBlockTableRecord
  2
_D_1
340
0
  0
BLOCK_RECORD
  5
114
330
1
100
AcDbSymbolTableRecord
100
AcDbBlockTableRecord
  2
_D_2
340
0
  0
BLOCK_RECORD
  5
11E
330
1
100
AcDbSymbolTableRecord
100
AcDbBlockTableRecord
  2
_D_3
340
0
  0
BLOCK_RECORD
  5
12A
330
1
100
AcDbSymbolTableRecord
100
AcDbBlockTableRecord
  2
_D_4
340
0
  0
BLOCK_RECORD
  5
134
330
1
100
AcDbSymbolTableRecord
100
AcDbBlockTableRecord
  2
_D_5
340
0
  0
BLOCK_RECORD
  5
140
330
1
100
AcDbSymbolTableRecord
100
AcDbBlockTableRecord
  2
_D_6
340
0
  0
BLOCK_RECORD
  5
14B
330
1
100
AcDbSymbolTableRecord
100
AcDbBlockTableRecord
  2
SW_NOTE_0
340
0
102
{BLKREFS
331
150
102
}
  0
BLOCK_RECORD
  5
153
330
1
100
AcDbSymbolTableRecord
100
AcDbBlockTableRecord
  2
SW_CENTERMARKSYMBOL_0
340
0
102
{BLKREFS
331
15E
102
}
  0
BLOCK_RECORD
  5
15F
330
1
100
AcDbSymbolTableRecord
100
AcDbBlockTableRecord
  2
SW_CENTERMARKSYMBOL_1
340
0
102
{BLKREFS
331
16A
102
}
  0
BLOCK_RECORD
  5
1A7
330
1
100
AcDbSymbolTableRecord
100
AcDbBlockTableRecord
  2
_D_7
340
0
  0
BLOCK_RECORD
  5
1B3
330
1
100
AcDbSymbolTableRecord
100
AcDbBlockTableRecord
  2
_D_8
340
0
  0
BLOCK_RECORD
  5
1BF
330
1
100
AcDbSymbolTableRecord
100
AcDbBlockTableRecord
  2
_D_9
340
0
  0
BLOCK_RECORD
  5
1C9
330
1
100
AcDbSymbolTableRecord
100
AcDbBlockTableRecord
  2
_D_10
340
0
  0
BLOCK_RECORD
  5
1D2
330
1
100
AcDbSymbolTableRecord
100
AcDbBlockTableRecord
  2
SW_NOTE_1
340
0
102
{BLKREFS
331
1D7
102
}
  0
BLOCK_RECORD
  5
1D9
330
1
100
AcDbSymbolTableRecord
100
AcDbBlockTableRecord
  2
SW_CENTERMARKSYMBOL_2
340
0
102
{BLKREFS
331
1E4
102
}
  0
BLOCK_RECORD
  5
251
330
1
100
AcDbSymbolTableRecord
100
AcDbBlockTableRecord
  2
_D_11
340
0
  0
BLOCK_RECORD
  5
25C
330
1
100
AcDbSymbolTableRecord
100
AcDbBlockTableRecord
  2
SW_NOTE_2
340
0
102
{BLKREFS
331
261
102
}
  0
BLOCK_RECORD
  5
263
330
1
100
AcDbSymbolTableRecord
100
AcDbBlockTableRecord
  2
SW_CENTERMARKSYMBOL_3
340
0
102
{BLKREFS
331
26E
102
}
  0
ENDTAB
  0
ENDSEC
  0
SECTION
  2
BLOCKS
  0
BLOCK
  5
20
330
1F
100
AcDbEntity
  8
0
100
AcDbBlockBegin
  2
*Model_Space
 70
     0
 10
0.0
 20
0.0
 30
0.0
  3
*Model_Space
  1

  0
ENDBLK
  5
21
330
1F
100
AcDbEntity
  8
0
100
AcDbBlockEnd
  0
BLOCK
  5
1C
330
1B
100
AcDbEntity
 67
     1
  8
0
100
AcDbBlockBegin
  2
*Paper_Space
 70
     0
 10
0.0
 20
0.0
 30
0.0
  3
*Paper_Space
  1

  0
ENDBLK
  5
1D
330
1B
100
AcDbEntity
 67
     1
  8
0
100
AcDbBlockEnd
  0
BLOCK
  5
24
330
23
100
AcDbEntity
  8
0
100
AcDbBlockBegin
  2
*Paper_Space0
 70
     0
 10
0.0
 20
0.0
 30
0.0
  3
*Paper_Space0
  1

  0
ENDBLK
  5
25
330
23
100
AcDbEntity
  8
0
100
AcDbBlockEnd
  0
BLOCK
  5
FD
330
FC
100
AcDbEntity
  8
0
100
AcDbBlockBegin
  2
_D
 70
     0
 10
0.0
 20
0.0
 30
0.0
  3
_D
  1

  0
SOLID
  5
FF
330
FC
100
AcDbEntity
  8
0
  6
Continuous
 62
     7
370
    18
100
AcDbTrace
 10
30.9487225816
 20
189.1598320137
 30
0.0
 11
31.6987225816
 21
192.1598320137
 31
0.0
 12
30.1987225816
 22
192.1598320137
 32
0.0
 13
30.1987225816
 23
192.1598320137
 33
0.0
  0
SOLID
  5
100
330
FC
100
AcDbEntity
  8
0
  6
Continuous
 62
     7
370
    18
100
AcDbTrace
 10
30.9487225816
 20
173.1598320137
 30
0.0
 11
30.1987225816
 21
170.1598320137
 31
0.0
 12
31.6987225816
 22
170.1598320137
 32
0.0
 13
31.6987225816
 23
170.1598320137
 33
0.0
  0
LINE
  5
101
330
FC
100
AcDbEntity
  8
0
  6
Continuous
 62
     7
370
    18
100
AcDbLine
 10
37.8141555261
 20
189.1598320137
 30
0.0
 11
29.9487225816
 21
189.1598320137
 31
0.0
  0
LINE
  5
102
330
FC
100
AcDbEntity
  8
0
  6
Continuous
 62
     7
370
    18
100
AcDbLine
 10
37.8141555261
 20
173.1598320137
 30
0.0
 11
29.9487225816
 21
173.1598320137
 31
0.0
  0
LINE
  5
103
330
FC
100
AcDbEntity
  8
0
  6
Continuous
 62
     7
370
    18
100
AcDbLine
 10
30.9487225816
 20
189.1598320137
 30
0.0
 11
30.9487225816
 21
194.1598320137
 31
0.0
  0
LINE
  5
104
330
FC
100
AcDbEntity
  8
0
  6
Continuous
 62
     7
370
    18
100
AcDbLine
 10
30.9487225816
 20
189.1598320137
 30
0.0
 11
30.9487225816
 21
173.1598320137
 31
0.0
  0
LINE
  5
105
330
FC
100
AcDbEntity
  8
0
  6
Continuous
 62
     7
370
    18
100
AcDbLine
 10
30.9487225816
 20
173.1598320137
 30
0.0
 11
30.9487225816
 21
168.1598320137
 31
0.0
  0
MTEXT
  5
106
330
FC
100
AcDbEntity
  8
0
  6
Continuous
 62
     7
370
    18
100
AcDbMText
 10
26.4369857252
 20
177.0862210188
 30
0.0
 40
3.5
 41
0.0
 71
     1
 72
     1
  1
Φ
  7
SLDTEXTSTYLE0
 11
-1.059690869644414E-14
 21
1.0
 31
0.0
 73
     1
 44
1.0
  0
MTEXT
  5
107
330
FC
100
AcDbEntity
  8
0
  6
Continuous
 62
     7
370
    18
100
AcDbMText
 10
26.4369857252
 20
181.1598320137
 30
0.0
 40
3.5
 41
0.0
 71
     1
 72
     1
  1
16
  7
SLDTEXTSTYLE0
 11
-1.059690869644414E-14
 21
1.0
 31
0.0
 73
     1
 44
1.0
  0
ENDBLK
  5
FE
330
FC
100
AcDbEntity
  8
0
100
AcDbBlockEnd
  0
BLOCK
  5
10B
330
10A
100
AcDbEntity
  8
0
100
AcDbBlockBegin
  2
_D_1
 70
     0
 10
0.0
 20
0.0
 30
0.0
  3
_D_1
  1

  0
SOLID
  5
10D
330
10A
100
AcDbEntity
  8
0
  6
Continuous
 62
     7
370
    18
100
AcDbTrace
 10
38.3141555258
 20
143.3548320186
 30
0.0
 11
41.3141555258
 21
142.6048320186
 31
0.0
 12
41.3141555258
 22
144.1048320186
 32
0.0
 13
41.3141555258
 23
144.1048320186
 33
0.0
  0
SOLID
  5
10E
330
10A
100
AcDbEntity
  8
0
  6
Continuous
 62
     7
370
    18
100
AcDbTrace
 10
64.3141555262
 20
143.3548320186
 30
0.0
 11
61.3141555262
 21
144.1048320186
 31
0.0
 12
61.3141555262
 22
142.6048320186
 32
0.0
 13
61.3141555262
 23
142.6048320186
 33
0.0
  0
LINE
  5
10F
330
10A
100
AcDbEntity
  8
0
  6
Continuous
 62
     7
370
    18
100
AcDbLine
 10
38.3141555258
 20
172.6598319294
 30
0.0
 11
38.3141555258
 21
142.3548320186
 31
0.0
  0
LINE
  5
110
330
10A
100
AcDbEntity
  8
0
  6
Continuous
 62
     7
370
    18
100
AcDbLine
 10
64.3141555262
 20
157.1598320185
 30
0.0
 11
64.3141555262
 21
142.3548320186
 31
0.0
  0
LINE
  5
111
330
10A
100
AcDbEntity
  8
0
  6
Continuous
 62
     7
370
    18
100
AcDbLine
 10
38.3141555258
 20
143.3548320186
 30
0.0
 11
64.3141555262
 21
143.3548320186
 31
0.0
  0
MTEXT
  5
112
330
10A
100
AcDbEntity
  8
0
  6
Continuous
 62
     7
370
    18
100
AcDbMText
 10
49.2773500285
 20
147.866568875
 30
0.0
 40
3.5
 41
0.0
 71
     1
 72
     1
  1
26
  7
SLDTEXTSTYLE0
 73
     1
 44
1.0
  0
ENDBLK
  5
10C
330
10A
100
AcDbEntity
  8
0
100
AcDbBlockEnd
  0
BLOCK
  5
115
330
114
100
AcDbEntity
  8
0
100
AcDbBlockBegin
  2
_D_2
 70
     0
 10
0.0
 20
0.0
 30
0.0
  3
_D_2
  1

  0
SOLID
  5
117
330
114
100
AcDbEntity
  8
0
  6
Continuous
 62
     7
370
    18
100
AcDbTrace
 10
64.3141555262
 20
143.3548320186
 30
0.0
 11
67.3141555262
 21
142.6048320186
 31
0.0
 12
67.3141555262
 22
144.1048320186
 32
0.0
 13
67.3141555262
 23
144.1048320186
 33
0.0
  0
SOLID
  5
118
330
114
100
AcDbEntity
  8
0
  6
Continuous
 62
     7
370
    18
100
AcDbTrace
 10
109.3141555171
 20
143.3548320186
 30
0.0
 11
106.3141555171
 21
144.1048320186
 31
0.0
 12
106.3141555171
 22
142.6048320186
 32
0.0
 13
106.3141555171
 23
142.6048320186
 33
0.0
  0
LINE
  5
119
330
114
100
AcDbEntity
  8
0
  6
Continuous
 62
     7
370
    18
100
AcDbLine
 10
64.3141555262
 20
157.1598320185
 30
0.0
 11
64.3141555262
 21
142.3548320186
 31
0.0
  0
LINE
  5
11A
330
114
100
AcDbEntity
  8
0
  6
Continuous
 62
     7
370
    18
100
AcDbLine
 10
109.3141555171
 20
157.1598320177
 30
0.0
 11
109.3141555171
 21
142.3548320186
 31
0.0
  0
LINE
  5
11B
330
114
100
AcDbEntity
  8
0
  6
Continuous
 62
     7
370
    18
100
AcDbLine
 10
64.3141555262
 20
143.3548320186
 30
0.0
 11
109.3141555171
 21
143.3548320186
 31
0.0
  0
MTEXT
  5
11C
330
114
100
AcDbEntity
  8
0
  6
Continuous
 62
     7
370
    18
100
AcDbMText
 10
84.7773500241
 20
147.866568875
 30
0.0
 40
3.5
 41
0.0
 71
     1
 72
     1
  1
45
  7
SLDTEXTSTYLE0
 73
     1
 44
1.0
  0
ENDBLK
  5
116
330
114
100
AcDbEntity
  8
0
100
AcDbBlockEnd
  0
BLOCK
  5
11F
330
11E
100
AcDbEntity
  8
0
100
AcDbBlockBegin
  2
_D_3
 70
     0
 10
0.0
 20
0.0
 30
0.0
  3
_D_3
  1

  0
SOLID
  5
121
330
11E
100
AcDbEntity
  8
0
  6
Continuous
 62
     7
370
    18
100
AcDbTrace
 10
109.3141555171
 20
143.3548320186
 30
0.0
 11
106.3141555171
 21
144.1048320186
 31
0.0
 12
106.3141555171
 22
142.6048320186
 32
0.0
 13
106.3141555171
 23
142.6048320186
 33
0.0
  0
SOLID
  5
122
330
11E
100
AcDbEntity
  8
0
  6
Continuous
 62
     7
370
    18
100
AcDbTrace
 10
119.3141555151
 20
143.3548320186
 30
0.0
 11
122.3141555151
 21
142.6048320186
 31
0.0
 12
122.3141555151
 22
144.1048320186
 32
0.0
 13
122.3141555151
 23
144.1048320186
 33
0.0
  0
LINE
  5
123
330
11E
100
AcDbEntity
  8
0
  6
Continuous
 62
     7
370
    18
100
AcDbLine
 10
109.3141555171
 20
157.1598320177
 30
0.0
 11
109.3141555171
 21
142.3548320186
 31
0.0
  0
LINE
  5
124
330
11E
100
AcDbEntity
  8
0
  6
Continuous
 62
     7
370
    18
100
AcDbLine
 10
119.3141555151
 20
173.159832015
 30
0.0
 11
119.3141555151
 21
142.3548320186
 31
0.0
  0
LINE
  5
125
330
11E
100
AcDbEntity
  8
0
  6
Continuous
 62
     7
370
    18
100
AcDbLine
 10
109.3141555171
 20
143.3548320186
 30
0.0
 11
104.3141555171
 21
143.3548320186
 31
0.0
  0
LINE
  5
126
330
11E
100
AcDbEntity
  8
0
  6
Continuous
 62
     7
370
    18
100
AcDbLine
 10
109.3141555171
 20
143.3548320186
 30
0.0
 11
119.3141555151
 21
143.3548320186
 31
0.0
  0
LINE
  5
127
330
11E
100
AcDbEntity
  8
0
  6
Continuous
 62
     7
370
    18
100
AcDbLine
 10
119.3141555151
 20
143.3548320186
 30
0.0
 11
124.3141555151
 21
143.3548320186
 31
0.0
  0
MTEXT
  5
128
330
11E
100
AcDbEntity
  8
0
  6
Continuous
 62
     7
370
    18
100
AcDbMText
 10
112.2773500186
 20
147.866568875
 30
0.0
 40
3.5
 41
0.0
 71
     1
 72
     1
  1
10
  7
SLDTEXTSTYLE0
 73
     1
 44
1.0
  0
ENDBLK
  5
120
330
11E
100
AcDbEntity
  8
0
100
AcDbBlockEnd
  0
BLOCK
  5
12B
330
12A
100
AcDbEntity
  8
0
100
AcDbBlockBegin
  2
_D_4
 70
     0
 10
0.0
 20
0.0
 30
0.0
  3
_D_4
  1

  0
SOLID
  5
12D
330
12A
100
AcDbEntity
  8
0
  6
Continuous
 62
     7
370
    18
100
AcDbTrace
 10
75.3141555238
 20
201.3196926898
 30
0.0
 11
78.3141555238
 21
200.5696926898
 31
0.0
 12
78.3141555238
 22
202.0696926898
 32
0.0
 13
78.3141555238
 23
202.0696926898
 33
0.0
  0
SOLID
  5
12E
330
12A
100
AcDbEntity
  8
0
  6
Continuous
 62
     7
370
    18
100
AcDbTrace
 10
95.3141555196
 20
201.3196926898
 30
0.0
 11
92.3141555196
 21
202.0696926898
 31
0.0
 12
92.3141555196
 22
200.5696926898
 32
0.0
 13
92.3141555196
 23
200.5696926898
 33
0.0
  0
LINE
  5
12F
330
12A
100
AcDbEntity
  8
0
  6
Continuous
 62
     7
370
    18
100
AcDbLine
 10
75.3141555238
 20
192.2598320124
 30
0.0
 11
75.3141555238
 21
202.3196926898
 31
0.0
  0
LINE
  5
130
330
12A
100
AcDbEntity
  8
0
  6
Continuous
 62
     7
370
    18
100
AcDbLine
 10
95.3141555196
 20
192.2598320117
 30
0.0
 11
95.3141555196
 21
202.3196926898
 31
0.0
  0
LINE
  5
131
330
12A
100
AcDbEntity
  8
0
  6
Continuous
 62
     7
370
    18
100
AcDbLine
 10
75.3141555238
 20
201.3196926898
 30
0.0
 11
95.3141555196
 21
201.3196926898
 31
0.0
  0
MTEXT
  5
132
330
12A
100
AcDbEntity
  8
0
  6
Continuous
 62
     7
370
    18
100
AcDbMText
 10
83.2773500242
 20
205.8314295462
 30
0.0
 40
3.5
 41
0.0
 71
     1
 72
     1
  1
20
  7
SLDTEXTSTYLE0
 73
     1
 44
1.0
  0
ENDBLK
  5
12C
330
12A
100
AcDbEntity
  8
0
100
AcDbBlockEnd
  0
BLOCK
  5
135
330
134
100
AcDbEntity
  8
0
100
AcDbBlockBegin
  2
_D_5
 70
     0
 10
0.0
 20
0.0
 30
0.0
  3
_D_5
  1

  0
SOLID
  5
137
330
134
100
AcDbEntity
  8
0
  6
Continuous
 62
     7
370
    18
100
AcDbTrace
 10
95.3141555196
 20
201.3196926898
 30
0.0
 11
92.3141555196
 21
202.0696926898
 31
0.0
 12
92.3141555196
 22
200.5696926898
 32
0.0
 13
92.3141555196
 23
200.5696926898
 33
0.0
  0
SOLID
  5
138
330
134
100
AcDbEntity
  8
0
  6
Continuous
 62
     7
370
    18
100
AcDbTrace
 10
109.3141555172
 20
201.3196926898
 30
0.0
 11
112.3141555172
 21
200.5696926898
 31
0.0
 12
112.3141555172
 22
202.0696926898
 32
0.0
 13
112.3141555172
 23
202.0696926898
 33
0.0
  0
LINE
  5
139
330
134
100
AcDbEntity
  8
0
  6
Continuous
 62
     7
370
    18
100
AcDbLine
 10
95.3141555196
 20
192.2598320117
 30
0.0
 11
95.3141555196
 21
202.3196926898
 31
0.0
  0
LINE
  5
13A
330
134
100
AcDbEntity
  8
0
  6
Continuous
 62
     7
370
    18
100
AcDbLine
 10
109.3141555172
 20
192.1598320121
 30
0.0
 11
109.3141555172
 21
202.3196926898
 31
0.0
  0
LINE
  5
13B
330
134
100
AcDbEntity
  8
0
  6
Continuous
 62
     7
370
    18
100
AcDbLine
 10
95.3141555196
 20
201.3196926898
 30
0.0
 11
90.3141555196
 21
201.3196926898
 31
0.0
  0
LINE
  5
13C
330
134
100
AcDbEntity
  8
0
  6
Continuous
 62
     7
370
    18
100
AcDbLine
 10
95.3141555196
 20
201.3196926898
 30
0.0
 11
109.3141555172
 21
201.3196926898
 31
0.0
  0
LINE
  5
13D
330
134
100
AcDbEntity
  8
0
  6
Continuous
 62
     7
370
    18
100
AcDbLine
 10
109.3141555172
 20
201.3196926898
 30
0.0
 11
114.3141555172
 21
201.3196926898
 31
0.0
  0
MTEXT
  5
13E
330
134
100
AcDbEntity
  8
0
  6
Continuous
 62
     7
370
    18
100
AcDbMText
 10
100.2773500209
 20
205.8314295462
 30
0.0
 40
3.5
 41
0.0
 71
     1
 72
     1
  1
14
  7
SLDTEXTSTYLE0
 73
     1
 44
1.0
  0
ENDBLK
  5
136
330
134
100
AcDbEntity
  8
0
100
AcDbBlockEnd
  0
BLOCK
  5
141
330
140
100
AcDbEntity
  8
0
100
AcDbBlockBegin
  2
_D_6
 70
     0
 10
0.0
 20
0.0
 30
0.0
  3
_D_6
  1

  0
SOLID
  5
143
330
140
100
AcDbEntity
  8
0
  6
Continuous
 62
     7
370
    18
100
AcDbTrace
 10
129.3191797617
 20
191.1598320121
 30
0.0
 11
130.0691797617
 21
194.1598320121
 31
0.0
 12
128.5691797617
 22
194.1598320121
 32
0.0
 13
128.5691797617
 23
194.1598320121
 33
0.0
  0
SOLID
  5
144
330
140
100
AcDbEntity
  8
0
  6
Continuous
 62
     7
370
    18
100
AcDbTrace
 10
129.3191797617
 20
186.6598320126
 30
0.0
 11
128.5691797617
 21
183.6598320126
 31
0.0
 12
130.0691797617
 22
183.6598320126
 32
0.0
 13
130.0691797617
 23
183.6598320126
 33
0.0
  0
LINE
  5
145
330
140
100
AcDbEntity
  8
0
  6
Continuous
 62
     7
370
    18
100
AcDbLine
 10
110.3141555172
 20
191.1598320121
 30
0.0
 11
130.3191797617
 21
191.1598320121
 31
0.0
  0
LINE
  5
146
330
140
100
AcDbEntity
  8
0
  6
Continuous
 62
     7
370
    18
100
AcDbLine
 10
100.9141555188
 20
186.6598320126
 30
0.0
 11
130.3191797617
 21
186.6598320126
 31
0.0
  0
LINE
  5
147
330
140
100
AcDbEntity
  8
0
  6
Continuous
 62
     7
370
    18
100
AcDbLine
 10
129.3191797617
 20
191.1598320121
 30
0.0
 11
129.3191797617
 21
202.2665574492
 31
0.0
  0
LINE
  5
148
330
140
100
AcDbEntity
  8
0
  6
Continuous
 62
     7
370
    18
100
AcDbLine
 10
129.3191797617
 20
191.1598320121
 30
0.0
 11
129.3191797617
 21
186.6598320126
 31
0.0
  0
LINE
  5
149
330
140
100
AcDbEntity
  8
0
  6
Continuous
 62
     7
370
    18
100
AcDbLine
 10
129.3191797617
 20
186.6598320126
 30
0.0
 11
129.3191797617
 21
181.6598320126
 31
0.0
  0
MTEXT
  5
14A
330
140
100
AcDbEntity
  8
0
  6
Continuous
 62
     7
370
    18
100
AcDbMText
 10
124.8074429054
 20
196.1561407239
 30
0.0
 40
3.5
 41
0.0
 71
     1
 72
     1
  1
4.5
  7
SLDTEXTSTYLE0
 11
-1.059690869644414E-14
 21
1.0
 31
0.0
 73
     1
 44
1.0
  0
ENDBLK
  5
142
330
140
100
AcDbEntity
  8
0
100
AcDbBlockEnd
  0
BLOCK
  5
14C
330
14B
100
AcDbEntity
  8
0
100
AcDbBlockBegin
  2
SW_NOTE_0
 70
     0
 10
0.0
 20
0.0
 30
0.0
  3
SW_NOTE_0
  1

  0
LINE
  5
14E
330
14B
100
AcDbEntity
  8
0
  6
Continuous
 62
     0
370
     0
100
AcDbLine
 10
-26.6028474812
 20
0.0
 30
0.0
 11
0.0
 21
0.0
 31
0.0
  0
MTEXT
  5
14F
330
14B
100
AcDbEntity
  8
0
  6
Continuous
 62
     0
370
     0
100
AcDbMText
 10
-27.025439079
 20
4.5339378685
 30
0.0
 40
3.5
 41
0.0
 71
     1
 72
     1
  1
2-Φ4.2取付穴
  7
SLDTEXTSTYLE0
 73
     1
 44
1.0
  0
ENDBLK
  5
14D
330
14B
100
AcDbEntity
  8
0
100
AcDbBlockEnd
  0
BLOCK
  5
154
330
153
100
AcDbEntity
  8
0
100
AcDbBlockBegin
  2
SW_CENTERMARKSYMBOL_0
 70
     0
 10
0.0
 20
0.0
 30
0.0
  3
SW_CENTERMARKSYMBOL_0
  1

  0
LINE
  5
156
330
153
100
AcDbEntity
  8
0
  6
Continuous
 62
     0
370
    18
100
AcDbLine
 10
0.0
 20
0.0
 30
0.0
 11
0.0
 21
2.5
 31
0.0
  0
LINE
  5
157
330
153
100
AcDbEntity
  8
0
  6
Continuous
 62
     0
370
    18
100
AcDbLine
 10
0.0
 20
0.0
 30
0.0
 11
-2.5
 21
0.0
 31
0.0
  0
LINE
  5
158
330
153
100
AcDbEntity
  8
0
  6
Continuous
 62
     0
370
    18
100
AcDbLine
 10
0.0
 20
0.0
 30
0.0
 11
0.0
 21
-2.5
 31
0.0
  0
LINE
  5
159
330
153
100
AcDbEntity
  8
0
  6
Continuous
 62
     0
370
    18
100
AcDbLine
 10
0.0
 20
0.0
 30
0.0
 11
2.5
 21
0.0
 31
0.0
  0
LINE
  5
15A
330
153
100
AcDbEntity
  8
0
  6
Continuous
 62
     0
370
    18
100
AcDbLine
 10
0.0
 20
2.5
 30
0.0
 11
0.0
 21
4.5999999998
 31
0.0
  0
LINE
  5
15B
330
153
100
AcDbEntity
  8
0
  6
Continuous
 62
     0
370
    18
100
AcDbLine
 10
-2.5
 20
0.0
 30
0.0
 11
-4.5999999998
 21
0.0
 31
0.0
  0
LINE
  5
15C
330
153
100
AcDbEntity
  8
0
  6
Continuous
 62
     0
370
    18
100
AcDbLine
 10
0.0
 20
-2.5
 30
0.0
 11
0.0
 21
-4.5999999998
 31
0.0
  0
LINE
  5
15D
330
153
100
AcDbEntity
  8
0
  6
Continuous
 62
     0
370
    18
100
AcDbLine
 10
2.5
 20
0.0
 30
0.0
 11
4.5999999998
 21
0.0
 31
0.0
  0
ENDBLK
  5
155
330
153
100
AcDbEntity
  8
0
100
AcDbBlockEnd
  0
BLOCK
  5
160
330
15F
100
AcDbEntity
  8
0
100
AcDbBlockBegin
  2
SW_CENTERMARKSYMBOL_1
 70
     0
 10
0.0
 20
0.0
 30
0.0
  3
SW_CENTERMARKSYMBOL_1
  1

  0
LINE
  5
162
330
15F
100
AcDbEntity
  8
0
  6
Continuous
 62
     0
370
    18
100
AcDbLine
 10
0.0
 20
0.0
 30
0.0
 11
0.0
 21
2.5
 31
0.0
  0
LINE
  5
163
330
15F
100
AcDbEntity
  8
0
  6
Continuous
 62
     0
370
    18
100
AcDbLine
 10
0.0
 20
0.0
 30
0.0
 11
-2.5
 21
0.0
 31
0.0
  0
LINE
  5
164
330
15F
100
AcDbEntity
  8
0
  6
Continuous
 62
     0
370
    18
100
AcDbLine
 10
0.0
 20
0.0
 30
0.0
 11
0.0
 21
-2.5
 31
0.0
  0
LINE
  5
165
330
15F
100
AcDbEntity
  8
0
  6
Continuous
 62
     0
370
    18
100
AcDbLine
 10
0.0
 20
0.0
 30
0.0
 11
2.5
 21
0.0
 31
0.0
  0
LINE
  5
166
330
15F
100
AcDbEntity
  8
0
  6
Continuous
 62
     0
370
    18
100
AcDbLine
 10
0.0
 20
2.5
 30
0.0
 11
0.0
 21
4.5999999991
 31
0.0
  0
LINE
  5
167
330
15F
100
AcDbEntity
  8
0
  6
Continuous
 62
     0
370
    18
100
AcDbLine
 10
-2.5
 20
0.0
 30
0.0
 11
-4.5999999991
 21
0.0
 31
0.0
  0
LINE
  5
168
330
15F
100
AcDbEntity
  8
0
  6
Continuous
 62
     0
370
    18
100
AcDbLine
 10
0.0
 20
-2.5
 30
0.0
 11
0.0
 21
-4.5999999991
 31
0.0
  0
LINE
  5
169
330
15F
100
AcDbEntity
  8
0
  6
Continuous
 62
     0
370
    18
100
AcDbLine
 10
2.5
 20
0.0
 30
0.0
 11
4.5999999991
 21
0.0
 31
0.0
  0
ENDBLK
  5
161
330
15F
100
AcDbEntity
  8
0
100
AcDbBlockEnd
  0
BLOCK
  5
1A8
330
1A7
100
AcDbEntity
  8
0
100
AcDbBlockBegin
  2
_D_7
 70
     0
 10
0.0
 20
0.0
 30
0.0
  3
_D_7
  1

  0
SOLID
  5
1AA
330
1A7
100
AcDbEntity
  8
0
  6
Continuous
 62
     7
370
    18
100
AcDbTrace
 10
176.0968776746
 20
191.1598320117
 30
0.0
 11
176.8468776746
 21
194.1598320117
 31
0.0
 12
175.3468776746
 22
194.1598320117
 32
0.0
 13
175.3468776746
 23
194.1598320117
 33
0.0
  0
SOLID
  5
1AB
330
1A7
100
AcDbEntity
  8
0
  6
Continuous
 62
     7
370
    18
100
AcDbTrace
 10
176.0968776746
 20
181.1598320138
 30
0.0
 11
175.3468776746
 21
178.1598320138
 31
0.0
 12
176.8468776746
 22
178.1598320138
 32
0.0
 13
176.8468776746
 23
178.1598320138
 33
0.0
  0
LINE
  5
1AC
330
1A7
100
AcDbEntity
  8
0
  6
Continuous
 62
     7
370
    18
100
AcDbLine
 10
167.866962512
 20
191.1598320117
 30
0.0
 11
177.0968776746
 21
191.1598320117
 31
0.0
  0
LINE
  5
1AD
330
1A7
100
AcDbEntity
  8
0
  6
Continuous
 62
     7
370
    18
100
AcDbLine
 10
166.6499625135
 20
181.1598320138
 30
0.0
 11
177.0968776746
 21
181.1598320138
 31
0.0
  0
LINE
  5
1AE
330
1A7
100
AcDbEntity
  8
0
  6
Continuous
 62
     7
370
    18
100
AcDbLine
 10
176.0968776746
 20
191.1598320117
 30
0.0
 11
176.0968776746
 21
196.1598320117
 31
0.0
  0
LINE
  5
1AF
330
1A7
100
AcDbEntity
  8
0
  6
Continuous
 62
     7
370
    18
100
AcDbLine
 10
176.0968776746
 20
191.1598320117
 30
0.0
 11
176.0968776746
 21
181.1598320138
 31
0.0
  0
LINE
  5
1B0
330
1A7
100
AcDbEntity
  8
0
  6
Continuous
 62
     7
370
    18
100
AcDbLine
 10
176.0968776746
 20
181.1598320138
 30
0.0
 11
176.0968776746
 21
176.1598320138
 31
0.0
  0
MTEXT
  5
1B1
330
1A7
100
AcDbEntity
  8
0
  6
Continuous
 62
     7
370
    18
100
AcDbMText
 10
171.5851408183
 20
184.1230265153
 30
0.0
 40
3.5
 41
0.0
 71
     1
 72
     1
  1
10
  7
SLDTEXTSTYLE0
 11
-7.044195017643634E-15
 21
1.0
 31
0.0
 73
     1
 44
1.0
  0
ENDBLK
  5
1A9
330
1A7
100
AcDbEntity
  8
0
100
AcDbBlockEnd
  0
BLOCK
  5
1B4
330
1B3
100
AcDbEntity
  8
0
100
AcDbBlockBegin
  2
_D_8
 70
     0
 10
0.0
 20
0.0
 30
0.0
  3
_D_8
  1

  0
SOLID
  5
1B6
330
1B3
100
AcDbEntity
  8
0
  6
Continuous
 62
     7
370
    18
100
AcDbTrace
 10
165.866962512
 20
151.0215044457
 30
0.0
 11
168.866962512
 21
150.2715044456
 31
0.0
 12
168.866962512
 22
151.7715044456
 32
0.0
 13
168.866962512
 23
151.7715044456
 33
0.0
  0
SOLID
  5
1B7
330
1B3
100
AcDbEntity
  8
0
  6
Continuous
 62
     7
370
    18
100
AcDbTrace
 10
151.8669625149
 20
151.0215044463
 30
0.0
 11
148.866962515
 21
151.7715044464
 31
0.0
 12
148.8669625149
 22
150.2715044464
 32
0.0
 13
148.8669625149
 23
150.2715044464
 33
0.0
  0
LINE
  5
1B8
330
1B3
100
AcDbEntity
  8
0
  6
Continuous
 62
     7
370
    18
100
AcDbLine
 10
165.866962513
 20
176.1098320145
 30
0.0
 11
165.8669625119
 21
150.0215044457
 31
0.0
  0
LINE
  5
1B9
330
1B3
100
AcDbEntity
  8
0
  6
Continuous
 62
     7
370
    18
100
AcDbLine
 10
151.866962516
 20
176.1098320151
 30
0.0
 11
151.8669625149
 21
150.0215044463
 31
0.0
  0
LINE
  5
1BA
330
1B3
100
AcDbEntity
  8
0
  6
Continuous
 62
     7
370
    18
100
AcDbLine
 10
165.866962512
 20
151.0215044457
 30
0.0
 11
170.866962512
 21
151.0215044455
 31
0.0
  0
LINE
  5
1BB
330
1B3
100
AcDbEntity
  8
0
  6
Continuous
 62
     7
370
    18
100
AcDbLine
 10
165.866962512
 20
151.0215044457
 30
0.0
 11
151.8669625149
 21
151.0215044463
 31
0.0
  0
LINE
  5
1BC
330
1B3
100
AcDbEntity
  8
0
  6
Continuous
 62
     7
370
    18
100
AcDbLine
 10
151.8669625149
 20
151.0215044463
 30
0.0
 11
146.8669625149
 21
151.0215044465
 31
0.0
  0
MTEXT
  5
1BD
330
1B3
100
AcDbEntity
  8
0
  6
Continuous
 62
     7
370
    18
100
AcDbMText
 10
156.8301570162
 20
155.5332413025
 30
0.0
 40
3.5
 41
0.0
 71
     1
 72
     1
  1
14
  7
SLDTEXTSTYLE0
 73
     1
 44
1.0
  0
ENDBLK
  5
1B5
330
1B3
100
AcDbEntity
  8
0
100
AcDbBlockEnd
  0
BLOCK
  5
1C0
330
1BF
100
AcDbEntity
  8
0
100
AcDbBlockBegin
  2
_D_9
 70
     0
 10
0.0
 20
0.0
 30
0.0
  3
_D_9
  1

  0
SOLID
  5
1C2
330
1BF
100
AcDbEntity
  8
0
  6
Continuous
 62
     7
370
    18
100
AcDbTrace
 10
150.8669625166
 20
143.3548320184
 30
0.0
 11
153.8669625166
 21
142.6048320185
 31
0.0
 12
153.8669625166
 22
144.1048320185
 32
0.0
 13
153.8669625166
 23
144.1048320185
 33
0.0
  0
SOLID
  5
1C3
330
1BF
100
AcDbEntity
  8
0
  6
Continuous
 62
     7
370
    18
100
AcDbTrace
 10
166.8669625131
 20
143.3548320189
 30
0.0
 11
163.8669625131
 21
144.1048320188
 31
0.0
 12
163.8669625132
 22
142.6048320188
 32
0.0
 13
163.8669625132
 23
142.6048320188
 33
0.0
  0
LINE
  5
1C4
330
1BF
100
AcDbEntity
  8
0
  6
Continuous
 62
     7
370
    18
100
AcDbLine
 10
150.8669625162
 20
157.1598320177
 30
0.0
 11
150.8669625166
 21
142.3548320184
 31
0.0
  0
LINE
  5
1C5
330
1BF
100
AcDbEntity
  8
0
  6
Continuous
 62
     7
370
    18
100
AcDbLine
 10
166.8669625128
 20
157.1598320184
 30
0.0
 11
166.8669625132
 21
142.3548320189
 31
0.0
  0
LINE
  5
1C6
330
1BF
100
AcDbEntity
  8
0
  6
Continuous
 62
     7
370
    18
100
AcDbLine
 10
150.8669625166
 20
143.3548320184
 30
0.0
 11
166.8669625131
 21
143.3548320189
 31
0.0
  0
MTEXT
  5
1C7
330
1BF
100
AcDbEntity
  8
0
  6
Continuous
 62
     7
370
    18
100
AcDbMText
 10
156.8301570176
 20
147.8665688749
 30
0.0
 40
3.5
 41
0.0
 71
     1
 72
     1
  1
16
  7
SLDTEXTSTYLE0
 73
     1
 44
1.0
  0
ENDBLK
  5
1C1
330
1BF
100
AcDbEntity
  8
0
100
AcDbBlockEnd
  0
BLOCK
  5
1CA
330
1C9
100
AcDbEntity
  8
0
100
AcDbBlockBegin
  2
_D_10
 70
     0
 10
0.0
 20
0.0
 30
0.0
  3
_D_10
  1

  0
SOLID
  5
1CC
330
1C9
100
AcDbEntity
  8
0
  6
Continuous
 62
     7
370
    18
100
AcDbTrace
 10
143.4643376174
 20
191.1598320117
 30
0.0
 11
142.7143376174
 21
188.1598320117
 31
0.0
 12
144.2143376174
 22
188.1598320117
 32
0.0
 13
144.2143376174
 23
188.1598320117
 33
0.0
  0
SOLID
  5
1CD
330
1C9
100
AcDbEntity
  8
0
  6
Continuous
 62
     7
370
    18
100
AcDbTrace
 10
143.4643376174
 20
158.1598320187
 30
0.0
 11
144.2143376174
 21
161.1598320187
 31
0.0
 12
142.7143376174
 22
161.1598320187
 32
0.0
 13
142.7143376174
 23
161.1598320187
 33
0.0
  0
LINE
  5
1CE
330
1C9
100
AcDbEntity
  8
0
  6
Continuous
 62
     7
370
    18
100
AcDbLine
 10
149.8669625168
 20
191.1598320117
 30
0.0
 11
142.4643376174
 21
191.1598320117
 31
0.0
  0
LINE
  5
1CF
330
1C9
100
AcDbEntity
  8
0
  6
Continuous
 62
     7
370
    18
100
AcDbLine
 10
149.8669625167
 20
158.1598320187
 30
0.0
 11
142.4643376174
 21
158.1598320187
 31
0.0
  0
LINE
  5
1D0
330
1C9
100
AcDbEntity
  8
0
  6
Continuous
 62
     7
370
    18
100
AcDbLine
 10
143.4643376174
 20
191.1598320117
 30
0.0
 11
143.4643376174
 21
158.1598320187
 31
0.0
  0
MTEXT
  5
1D1
330
1C9
100
AcDbEntity
  8
0
  6
Continuous
 62
     7
370
    18
100
AcDbMText
 10
138.952600761
 20
172.6230265177
 30
0.0
 40
3.5
 41
0.0
 71
     1
 72
     1
  1
33
  7
SLDTEXTSTYLE0
 11
-7.044195017643634E-15
 21
1.0
 31
0.0
 73
     1
 44
1.0
  0
ENDBLK
  5
1CB
330
1C9
100
AcDbEntity
  8
0
100
AcDbBlockEnd
  0
BLOCK
  5
1D3
330
1D2
100
AcDbEntity
  8
0
100
AcDbBlockBegin
  2
SW_NOTE_1
 70
     0
 10
0.0
 20
0.0
 30
0.0
  3
SW_NOTE_1
  1

  0
LINE
  5
1D5
330
1D2
100
AcDbEntity
  8
0
  6
Continuous
 62
     0
370
     0
100
AcDbLine
 10
22.280480733
 20
0.0
 30
0.0
 11
0.0
 21
0.0
 31
0.0
  0
MTEXT
  5
1D6
330
1D2
100
AcDbEntity
  8
0
  6
Continuous
 62
     0
370
     0
100
AcDbMText
 10
0.398270083
 20
4.5603869742
 30
0.0
 40
3.5
 41
0.0
 71
     1
 72
     1
  1
Rp1/8供給口
  7
SLDTEXTSTYLE0
 73
     1
 44
1.0
  0
ENDBLK
  5
1D4
330
1D2
100
AcDbEntity
  8
0
100
AcDbBlockEnd
  0
BLOCK
  5
1DA
330
1D9
100
AcDbEntity
  8
0
100
AcDbBlockBegin
  2
SW_CENTERMARKSYMBOL_2
 70
     0
 10
0.0
 20
0.0
 30
0.0
  3
SW_CENTERMARKSYMBOL_2
  1

  0
LINE
  5
1DC
330
1D9
100
AcDbEntity
  8
0
  6
Continuous
 62
     0
370
    18
100
AcDbLine
 10
0.0
 20
0.0
 30
0.0
 11
0.0
 21
2.5
 31
0.0
  0
LINE
  5
1DD
330
1D9
100
AcDbEntity
  8
0
  6
Continuous
 62
     0
370
    18
100
AcDbLine
 10
0.0
 20
0.0
 30
0.0
 11
-2.5
 21
0.0
 31
0.0
  0
LINE
  5
1DE
330
1D9
100
AcDbEntity
  8
0
  6
Continuous
 62
     0
370
    18
100
AcDbLine
 10
0.0
 20
0.0
 30
0.0
 11
0.0
 21
-2.5
 31
0.0
  0
LINE
  5
1DF
330
1D9
100
AcDbEntity
  8
0
  6
Continuous
 62
     0
370
    18
100
AcDbLine
 10
0.0
 20
0.0
 30
0.0
 11
2.5
 21
0.0
 31
0.0
  0
LINE
  5
1E0
330
1D9
100
AcDbEntity
  8
0
  6
Continuous
 62
     0
370
    18
100
AcDbLine
 10
0.0
 20
5.0
 30
0.0
 11
0.0
 21
6.782999999
 31
0.0
  0
LINE
  5
1E1
330
1D9
100
AcDbEntity
  8
0
  6
Continuous
 62
     0
370
    18
100
AcDbLine
 10
-5.0
 20
0.0
 30
0.0
 11
-6.782999999
 21
0.0
 31
0.0
  0
LINE
  5
1E2
330
1D9
100
AcDbEntity
  8
0
  6
Continuous
 62
     0
370
    18
100
AcDbLine
 10
0.0
 20
-5.0
 30
0.0
 11
0.0
 21
-6.782999999
 31
0.0
  0
LINE
  5
1E3
330
1D9
100
AcDbEntity
  8
0
  6
Continuous
 62
     0
370
    18
100
AcDbLine
 10
5.0
 20
0.0
 30
0.0
 11
6.782999999
 21
0.0
 31
0.0
  0
ENDBLK
  5
1DB
330
1D9
100
AcDbEntity
  8
0
100
AcDbBlockEnd
  0
BLOCK
  5
252
330
251
100
AcDbEntity
  8
0
100
AcDbBlockBegin
  2
_D_11
 70
     0
 10
0.0
 20
0.0
 30
0.0
  3
_D_11
  1

  0
SOLID
  5
254
330
251
100
AcDbEntity
  8
0
  6
Continuous
 62
     7
370
    18
100
AcDbTrace
 10
109.3141555171
 20
71.9751726119
 30
0.0
 11
112.3141555171
 21
71.2251726119
 31
0.0
 12
112.3141555171
 22
72.7251726119
 32
0.0
 13
112.3141555171
 23
72.7251726119
 33
0.0
  0
SOLID
  5
255
330
251
100
AcDbEntity
  8
0
  6
Continuous
 62
     7
370
    18
100
AcDbTrace
 10
101.3141555188
 20
71.9751726119
 30
0.0
 11
98.3141555188
 21
72.7251726119
 31
0.0
 12
98.3141555188
 22
71.2251726119
 32
0.0
 13
98.3141555188
 23
71.2251726119
 33
0.0
  0
LINE
  5
256
330
251
100
AcDbEntity
  8
0
  6
Continuous
 62
     7
370
    18
100
AcDbLine
 10
109.3141555171
 20
79.9670149266
 30
0.0
 11
109.3141555171
 21
70.9751726119
 31
0.0
  0
LINE
  5
257
330
251
100
AcDbEntity
  8
0
  6
Continuous
 62
     7
370
    18
100
AcDbLine
 10
101.3141555188
 20
80.967014925
 30
0.0
 11
101.3141555188
 21
70.9751726119
 31
0.0
  0
LINE
  5
258
330
251
100
AcDbEntity
  8
0
  6
Continuous
 62
     7
370
    18
100
AcDbLine
 10
109.3141555171
 20
71.9751726119
 30
0.0
 11
114.3141555171
 21
71.9751726119
 31
0.0
  0
LINE
  5
259
330
251
100
AcDbEntity
  8
0
  6
Continuous
 62
     7
370
    18
100
AcDbLine
 10
109.3141555171
 20
71.9751726119
 30
0.0
 11
101.3141555188
 21
71.9751726119
 31
0.0
  0
LINE
  5
25A
330
251
100
AcDbEntity
  8
0
  6
Continuous
 62
     7
370
    18
100
AcDbLine
 10
101.3141555188
 20
71.9751726119
 30
0.0
 11
96.3141555188
 21
71.9751726119
 31
0.0
  0
MTEXT
  5
25B
330
251
100
AcDbEntity
  8
0
  6
Continuous
 62
     7
370
    18
100
AcDbMText
 10
104.2957527692
 20
76.4869094683
 30
0.0
 40
3.5
 41
0.0
 71
     1
 72
     1
  1
8
  7
SLDTEXTSTYLE0
 73
     1
 44
1.0
  0
ENDBLK
  5
253
330
251
100
AcDbEntity
  8
0
100
AcDbBlockEnd
  0
BLOCK
  5
25D
330
25C
100
AcDbEntity
  8
0
100
AcDbBlockBegin
  2
SW_NOTE_2
 70
     0
 10
0.0
 20
0.0
 30
0.0
  3
SW_NOTE_2
  1

  0
LINE
  5
25F
330
25C
100
AcDbEntity
  8
0
  6
Continuous
 62
     0
370
     0
100
AcDbLine
 10
-22.5292369519
 20
0.0
 30
0.0
 11
0.0
 21
0.0
 31
0.0
  0
MTEXT
  5
260
330
25C
100
AcDbEntity
  8
0
  6
Continuous
 62
     0
370
     0
100
AcDbMText
 10
-22.9742644385
 20
4.418273512
 30
0.0
 40
3.5
 41
0.0
 71
     1
 72
     1
  1
Rp1/8真空口
  7
SLDTEXTSTYLE0
 73
     1
 44
1.0
  0
ENDBLK
  5
25E
330
25C
100
AcDbEntity
  8
0
100
AcDbBlockEnd
  0
BLOCK
  5
264
330
263
100
AcDbEntity
  8
0
100
AcDbBlockBegin
  2
SW_CENTERMARKSYMBOL_3
 70
     0
 10
0.0
 20
0.0
 30
0.0
  3
SW_CENTERMARKSYMBOL_3
  1

  0
LINE
  5
266
330
263
100
AcDbEntity
  8
0
  6
Continuous
 62
     0
370
    18
100
AcDbLine
 10
0.0
 20
0.0
 30
0.0
 11
0.0
 21
2.5
 31
0.0
  0
LINE
  5
267
330
263
100
AcDbEntity
  8
0
  6
Continuous
 62
     0
370
    18
100
AcDbLine
 10
0.0
 20
0.0
 30
0.0
 11
-2.5
 21
0.0
 31
0.0
  0
LINE
  5
268
330
263
100
AcDbEntity
  8
0
  6
Continuous
 62
     0
370
    18
100
AcDbLine
 10
0.0
 20
0.0
 30
0.0
 11
0.0
 21
-2.5
 31
0.0
  0
LINE
  5
269
330
263
100
AcDbEntity
  8
0
  6
Continuous
 62
     0
370
    18
100
AcDbLine
 10
0.0
 20
0.0
 30
0.0
 11
2.5
 21
0.0
 31
0.0
  0
LINE
  5
26A
330
263
100
AcDbEntity
  8
0
  6
Continuous
 62
     0
370
    18
100
AcDbLine
 10
0.0
 20
5.0
 30
0.0
 11
0.0
 21
6.9999999995
 31
0.0
  0
LINE
  5
26B
330
263
100
AcDbEntity
  8
0
  6
Continuous
 62
     0
370
    18
100
AcDbLine
 10
-5.0
 20
0.0
 30
0.0
 11
-70.7454874431
 21
0.0
 31
0.0
  0
LINE
  5
26C
330
263
100
AcDbEntity
  8
0
  6
Continuous
 62
     0
370
    18
100
AcDbLine
 10
0.0
 20
-5.0
 30
0.0
 11
0.0
 21
-6.9999999995
 31
0.0
  0
LINE
  5
26D
330
263
100
AcDbEntity
  8
0
  6
Continuous
 62
     0
370
    18
100
AcDbLine
 10
5.0
 20
0.0
 30
0.0
 11
22.1156187677
 21
0.0
 31
0.0
  0
ENDBLK
  5
265
330
263
100
AcDbEntity
  8
0
100
AcDbBlockEnd
  0
ENDSEC
  0
SECTION
  2
ENTITIES
  0
LINE
  5
73
330
1F
100
AcDbEntity
  8
0
  6
Continuous
 62
     7
370
    18
100
AcDbLine
 10
20.2604743903
 20
285.0
 30
0.0
 11
196.7604743903
 21
285.0
 31
0.0
  0
LINE
  5
74
330
1F
100
AcDbEntity
  8
0
  6
Continuous
 62
     7
370
    18
100
AcDbLine
 10
20.2604743903
 20
285.0
 30
0.0
 11
20.2604743903
 21
10.0
 31
0.0
  0
LINE
  5
75
330
1F
100
AcDbEntity
  8
0
  6
Continuous
 62
     7
370
    18
100
AcDbLine
 10
20.2604743903
 20
10.0
 30
0.0
 11
196.7604743903
 21
10.0
 31
0.0
  0
LINE
  5
76
330
1F
100
AcDbEntity
  8
0
  6
Continuous
 62
     7
370
    18
100
AcDbLine
 10
196.7604743903
 20
285.0
 30
0.0
 11
196.7604743903
 21
10.0
 31
0.0
  0
LINE
  5
77
330
1F
100
AcDbEntity
  8
0
  6
Continuous
 62
     7
370
    18
100
AcDbLine
 10
127.0104743903
 20
50.75
 30
0.0
 11
196.7604743903
 21
50.75
 31
0.0
  0
LINE
  5
78
330
1F
100
AcDbEntity
  8
0
  6
Continuous
 62
     7
370
    18
100
AcDbLine
 10
127.0104743903
 20
50.75
 30
0.0
 11
127.0104743903
 21
10.0
 31
0.0
  0
LINE
  5
79
330
1F
100
AcDbEntity
  8
0
  6
Continuous
 62
     7
370
    18
100
AcDbLine
 10
127.0104743903
 20
22.75
 30
0.0
 11
196.7604743903
 21
22.75
 31
0.0
  0
LINE
  5
7A
330
1F
100
AcDbEntity
  8
0
  6
Continuous
 62
     7
370
    18
100
AcDbLine
 10
127.0104743903
 20
36.75
 30
0.0
 11
196.7604743903
 21
36.75
 31
0.0
  0
MTEXT
  5
7C
330
1F
100
AcDbEntity
  8
0
  6
Continuous
 62
     7
370
     0
100
AcDbMText
 10
162.7419374003
 20
30.4171582345
 30
0.0
 40
4.2333333333
 41
0.0
 71
     2
 72
     1
  1
ECV-10HS
  7
SLDTEXTSTYLE0
 73
     1
 44
1.0
  0
MTEXT
  5
7D
330
1F
100
AcDbEntity
  8
0
  6
Continuous
 62
     7
370
     0
100
AcDbMText
 10
160.9688382198
 20
43.9409718514
 30
0.0
 40
4.2333333333
 41
0.0
 71
     2
 72
     1
  1
エアーエジェクター
  7
SLDTEXTSTYLE0
 73
     1
 44
1.0
  0
MTEXT
  5
7E
330
1F
100
AcDbEntity
  8
0
  6
Continuous
 62
     7
370
     0
100
AcDbMText
 10
162.874966734
 20
16.8228189052
 30
0.0
 40
4.2333333333
 41
0.0
 71
     2
 72
     1
  1
042034
  7
SLDTEXTSTYLE0
 73
     1
 44
1.0
  0
LINE
  5
7F
330
1F
100
AcDbEntity
  8
0
  6
Continuous
 62
     7
370
    18
100
AcDbLine
 10
119.3141557645
 20
188.1598322298
 30
0.0
 11
118.6802231144
 21
189.2578317429
 31
0.0
  0
LINE
  5
80
330
1F
100
AcDbEntity
  8
0
  6
Continuous
 62
     7
370
    18
100
AcDbLine
 10
118.6802231144
 20
173.0618313532
 30
0.0
 11
119.3179406594
 21
174.1663915682
 31
0.0
  0
SPLINE
  5
81
330
1F
100
AcDbEntity
  8
0
  6
Continuous
 62
   144
370
    18
100
AcDbSpline
210
0.0
220
0.0
230
1.0
 70
    24
 71
     3
 72
    24
 73
    20
 74
     0
 42
0.000000001
 43
0.00000001
 40
0.0
 40
0.0
 40
0.0
 40
0.0
 40
0.125
 40
0.125
 40
0.25
 40
0.25
 40
0.375
 40
0.375
 40
0.5
 40
0.5
 40
0.625
 40
0.625
 40
0.75
 40
0.75
 40
0.875
 40
0.875
 40
0.9375
 40
0.9375
 40
1.0
 40
1.0
 40
1.0
 40
1.0
 10
38.8141555260604
 20
189.1598320137294
 30
0.0
 10
38.8141555260604
 20
189.1598320137294
 30
0.0
 10
38.8141555260604
 20
189.1165227988578
 30
0.0
 10
38.8141555260604
 20
188.9281428769831
 30
0.0
 10
38.8141555260604
 20
188.782914778776
 30
0.0
 10
38.8141555260604
 20
188.3847356774648
 30
0.0
 10
38.8141555260604
 20
188.1317094545014
 30
0.0
 10
38.8141555260604
 20
187.5252732152341
 30
0.0
 10
38.8141555260604
 20
187.1719276441379
 30
0.0
 10
38.8141555260604
 20
186.3858257362218
 30
0.0
 10
38.8141555260604
 20
185.9532615663696
 30
0.0
 10
38.8141555260604
 20
185.0393526912237
 30
0.0
 10
38.8141555260604
 20
184.5582450722833
 30
0.0
 10
38.8141555260604
 20
183.5807326735249
 30
0.0
 10
38.8141555260604
 20
183.0845132322867
 30
0.0
 10
38.8141555260604
 20
182.3509488774741
 30
0.0
 10
38.8141555260604
 20
182.1081738348348
 30
0.0
 10
38.8141555260604
 20
181.6290759507975
 30
0.0
 10
38.8141555260604
 20
181.3951906193066
 30
0.0
 10
38.8141555260604
 20
181.1598307819361
 30
0.0
  0
SPLINE
  5
82
330
1F
100
AcDbEntity
  8
0
  6
Continuous
 62
   144
370
    18
100
AcDbSpline
210
0.0
220
0.0
230
1.0
 70
    24
 71
     3
 72
    22
 73
    18
 74
     0
 42
0.000000001
 43
0.00000001
 40
0.0
 40
0.0
 40
0.0
 40
0.0
 40
0.1250000000000001
 40
0.1250000000000001
 40
0.2500000000000002
 40
0.2500000000000002
 40
0.3750000000000001
 40
0.3750000000000001
 40
0.5000000000000001
 40
0.5000000000000001
 40
0.6250000000000001
 40
0.6250000000000001
 40
0.75
 40
0.75
 40
0.875
 40
0.875
 40
1.0
 40
1.0
 40
1.0
 40
1.0
 10
38.8141555260604
 20
181.1598307819361
 30
0.0
 10
38.8141555260604
 20
180.689277506253
 30
0.0
 10
38.8141555260604
 20
180.2010513475334
 30
0.0
 10
38.8141555260604
 20
179.2118976856453
 30
0.0
 10
38.8141555260604
 20
178.7110689281691
 30
0.0
 10
38.8141555260604
 20
177.7270838593151
 30
0.0
 10
38.8141555260604
 20
177.2441256113184
 30
0.0
 10
38.8141555260604
 20
176.3294798085461
 30
0.0
 10
38.8141555260604
 20
175.8980298113781
 30
0.0
 10
38.8141555260604
 20
175.1163976345425
 30
0.0
 10
38.8141555260604
 20
174.7663931892431
 30
0.0
 10
38.8141555260604
 20
174.1674265559147
 30
0.0
 10
38.8141555260604
 20
173.9185078876835
 30
0.0
 10
38.8141555260604
 20
173.5277176267114
 30
0.0
 10
38.8141555260604
 20
173.3857558301667
 30
0.0
 10
38.8141555260604
 20
173.2018932074023
 30
0.0
 10
38.8141555260604
 20
173.1598320137294
 30
0.0
 10
38.8141555260604
 20
173.1598320137294
 30
0.0
  0
LINE
  5
83
330
1F
100
AcDbEntity
  8
0
  6
Continuous
 62
   144
370
    18
100
AcDbLine
 10
38.8141555498
 20
173.1598316337
 30
0.0
 11
57.3141549151
 21
173.1598316337
 31
0.0
  0
SPLINE
  5
84
330
1F
100
AcDbEntity
  8
0
  6
Continuous
 62
   144
370
    18
100
AcDbSpline
210
0.0
220
0.0
230
1.0
 70
    24
 71
     3
 72
    22
 73
    18
 74
     0
 42
0.000000001
 43
0.00000001
 40
0.0
 40
0.0
 40
0.0
 40
0.0
 40
0.125
 40
0.125
 40
0.2499999999999999
 40
0.2499999999999999
 40
0.3749999999999999
 40
0.3749999999999999
 40
0.4999999999999999
 40
0.4999999999999999
 40
0.6249999999999999
 40
0.6249999999999999
 40
0.7499999999999998
 40
0.7499999999999998
 40
0.8749999999999999
 40
0.8749999999999999
 40
1.0
 40
1.0
 40
1.0
 40
1.0
 10
57.31415552606041
 20
173.1598320137294
 30
0.0
 10
57.31415552606041
 20
173.1598320137294
 30
0.0
 10
57.3141555260604
 20
173.2018932074023
 30
0.0
 10
57.31415552606041
 20
173.3857558301667
 30
0.0
 10
57.3141555260604
 20
173.5277176267114
 30
0.0
 10
57.3141555260604
 20
173.9185078876835
 30
0.0
 10
57.3141555260604
 20
174.1674265559147
 30
0.0
 10
57.31415552606041
 20
174.7663931892431
 30
0.0
 10
57.31415552606041
 20
175.1163976345425
 30
0.0
 10
57.31415552606041
 20
175.8980298113781
 30
0.0
 10
57.3141555260604
 20
176.3294798085461
 30
0.0
 10
57.3141555260604
 20
177.2441256113184
 30
0.0
 10
57.31415552606041
 20
177.7270838593151
 30
0.0
 10
57.3141555260604
 20
178.7110689281691
 30
0.0
 10
57.3141555260604
 20
179.2118976856453
 30
0.0
 10
57.3141555260604
 20
180.2010513475334
 30
0.0
 10
57.31415552606041
 20
180.689277506253
 30
0.0
 10
57.31415552606041
 20
181.1598307819361
 30
0.0
  0
SPLINE
  5
85
330
1F
100
AcDbEntity
  8
0
  6
Continuous
 62
   144
370
    18
100
AcDbSpline
210
0.0
220
0.0
230
1.0
 70
    24
 71
     3
 72
    24
 73
    20
 74
     0
 42
0.000000001
 43
0.00000001
 40
0.0
 40
0.0
 40
0.0
 40
0.0
 40
0.0625
 40
0.0625
 40
0.125
 40
0.125
 40
0.25
 40
0.25
 40
0.375
 40
0.375
 40
0.5
 40
0.5
 40
0.625
 40
0.625
 40
0.75
 40
0.75
 40
0.875
 40
0.875
 40
1.0
 40
1.0
 40
1.0
 40
1.0
 10
57.31415552606041
 20
181.1598307819361
 30
0.0
 10
57.31415552606041
 20
181.3951906193066
 30
0.0
 10
57.3141555260604
 20
181.6290759507975
 30
0.0
 10
57.3141555260604
 20
182.1081738348348
 30
0.0
 10
57.3141555260604
 20
182.3509488774741
 30
0.0
 10
57.31415552606041
 20
183.0845132322867
 30
0.0
 10
57.3141555260604
 20
183.5807326735249
 30
0.0
 10
57.3141555260604
 20
184.5582450722833
 30
0.0
 10
57.3141555260604
 20
185.0393526912237
 30
0.0
 10
57.3141555260604
 20
185.9532615663696
 30
0.0
 10
57.3141555260604
 20
186.3858257362218
 30
0.0
 10
57.3141555260604
 20
187.1719276441379
 30
0.0
 10
57.3141555260604
 20
187.5252732152341
 30
0.0
 10
57.3141555260604
 20
188.1317094545014
 30
0.0
 10
57.3141555260604
 20
188.3847356774648
 30
0.0
 10
57.3141555260604
 20
188.782914778776
 30
0.0
 10
57.3141555260604
 20
188.9281428769831
 30
0.0
 10
57.31415552606041
 20
189.1165227988578
 30
0.0
 10
57.31415552606041
 20
189.1598320137294
 30
0.0
 10
57.3141555260604
 20
189.1598320137294
 30
0.0
  0
LINE
  5
86
330
1F
100
AcDbEntity
  8
0
  6
Continuous
 62
   144
370
    18
100
AcDbLine
 10
57.3141549151
 20
189.1598323937
 30
0.0
 11
38.8141555498
 21
189.1598323937
 31
0.0
  0
SPLINE
  5
87
330
1F
100
AcDbEntity
  8
0
  6
Continuous
 62
   144
370
    18
100
AcDbSpline
210
0.0
220
0.0
230
1.0
 70
    24
 71
     3
 72
    22
 73
    18
 74
     0
 42
0.000000001
 43
0.00000001
 40
0.0
 40
0.0
 40
0.0
 40
0.0
 40
0.1249999999999999
 40
0.1249999999999999
 40
0.25
 40
0.25
 40
0.375
 40
0.375
 40
0.5
 40
0.5
 40
0.625
 40
0.625
 40
0.75
 40
0.75
 40
0.875
 40
0.875
 40
1.0
 40
1.0
 40
1.0
 40
1.0
 10
38.81415552622542
 20
173.1598320137294
 30
0.0
 10
38.81415552622542
 20
173.1598320137294
 30
0.0
 10
38.81415552622542
 20
173.2044778226848
 30
0.0
 10
38.81415552622542
 20
173.3976740957814
 30
0.0
 10
38.81415552622542
 20
173.5463778184907
 30
0.0
 10
38.81415552622542
 20
173.952392026868
 30
0.0
 10
38.81415552622542
 20
174.2097610603859
 30
0.0
 10
38.81415552622542
 20
174.8240778738176
 30
0.0
 10
38.81415552622542
 20
175.1809394146685
 30
0.0
 10
38.81415552622542
 20
175.9717647479447
 30
0.0
 10
38.81415552622542
 20
176.4055225727043
 30
0.0
 10
38.81415552622542
 20
177.3187764956073
 30
0.0
 10
38.81415552622542
 20
177.7980373162765
 30
0.0
 10
38.81415552622542
 20
178.769048469
 30
0.0
 10
38.81415552622542
 20
179.260626992497
 30
0.0
 10
38.81415552622542
 20
180.2275715697959
 30
0.0
 10
38.81415552622542
 20
180.7028695452774
 30
0.0
 10
38.81415552622542
 20
181.1598307822879
 30
0.0
  0
SPLINE
  5
88
330
1F
100
AcDbEntity
  8
0
  6
Continuous
 62
   144
370
    18
100
AcDbSpline
210
0.0
220
0.0
230
1.0
 70
     8
 71
     3
 72
    14
 73
    10
 74
     0
 42
0.000000001
 43
0.00000001
 40
0.0
 40
0.0
 40
0.0
 40
0.0
 40
0.25
 40
0.25
 40
0.5
 40
0.5
 40
0.75
 40
0.75
 40
1.0
 40
1.0
 40
1.0
 40
1.0
 10
38.31415552578888
 20
173.6598319294209
 30
0.0
 10
38.31415553574597
 20
173.6009063672066
 30
0.0
 10
38.32489491483949
 20
173.5373330590564
 30
0.0
 10
38.3736278881529
 20
173.4142361266196
 30
0.0
 10
38.41178663482389
 20
173.3550941139537
 30
0.0
 10
38.50941770585582
 20
173.257463062304
 30
0.0
 10
38.56855972493209
 20
173.2193043284137
 30
0.0
 10
38.69165666181308
 20
173.1705713804396
 30
0.0
 10
38.75522996812285
 20
173.1598320137294
 30
0.0
 10
38.81415552622542
 20
173.1598320137294
 30
0.0
  0
SPLINE
  5
89
330
1F
100
AcDbEntity
  8
0
  6
Continuous
 62
   144
370
    18
100
AcDbSpline
210
0.0
220
0.0
230
1.0
 70
    24
 71
     3
 72
    22
 73
    18
 74
     0
 42
0.000000001
 43
0.00000001
 40
0.0
 40
0.0
 40
0.0
 40
0.0
 40
0.125
 40
0.125
 40
0.2499999999999999
 40
0.2499999999999999
 40
0.3749999999999999
 40
0.3749999999999999
 40
0.4999999999999999
 40
0.4999999999999999
 40
0.6249999999999999
 40
0.6249999999999999
 40
0.7499999999999999
 40
0.7499999999999999
 40
0.875
 40
0.875
 40
1.0
 40
1.0
 40
1.0
 40
1.0
 10
38.31415552578888
 20
181.1598307399245
 30
0.0
 10
38.31415552578888
 20
180.7314295772817
 30
0.0
 10
38.31415552578888
 20
180.2858377232242
 30
0.0
 10
38.31415552578888
 20
179.379327179991
 30
0.0
 10
38.31415552578888
 20
178.9184723142454
 30
0.0
 10
38.31415552578888
 20
178.0081493605666
 30
0.0
 10
38.31415552578888
 20
177.5588423431545
 30
0.0
 10
38.31415552578888
 20
176.7026667956729
 30
0.0
 10
38.31415552578888
 20
176.2960188382266
 30
0.0
 10
38.31415552578888
 20
175.5546200951639
 30
0.0
 10
38.31415552578888
 20
175.2200624042216
 30
0.0
 10
38.31415552578888
 20
174.6441403982432
 30
0.0
 10
38.31415552578888
 20
174.40285693232
 30
0.0
 10
38.31415552578888
 20
174.0222186167699
 30
0.0
 10
38.31415552578888
 20
173.8828088785333
 30
0.0
 10
38.31415552578888
 20
173.7016873748097
 30
0.0
 10
38.31415552578888
 20
173.6598319294209
 30
0.0
 10
38.31415552578888
 20
173.6598319294209
 30
0.0
  0
SPLINE
  5
8A
330
1F
100
AcDbEntity
  8
0
  6
Continuous
 62
   144
370
    18
100
AcDbSpline
210
0.0
220
0.0
230
1.0
 70
    24
 71
     3
 72
    22
 73
    18
 74
     0
 42
0.000000001
 43
0.00000001
 40
0.0
 40
0.0
 40
0.0
 40
0.0
 40
0.125
 40
0.125
 40
0.2500000000000001
 40
0.2500000000000001
 40
0.3750000000000001
 40
0.3750000000000001
 40
0.5
 40
0.5
 40
0.6249999999999999
 40
0.6249999999999999
 40
0.7499999999999999
 40
0.7499999999999999
 40
0.875
 40
0.875
 40
1.0
 40
1.0
 40
1.0
 40
1.0
 10
38.31415552578888
 20
188.6598320980379
 30
0.0
 10
38.31415552578888
 20
188.6598320980379
 30
0.0
 10
38.31415552578888
 20
188.6175297856855
 30
0.0
 10
38.31415552578888
 20
188.4348081983213
 30
0.0
 10
38.31415552578888
 20
188.2942469118937
 30
0.0
 10
38.31415552578888
 20
187.9110283544181
 30
0.0
 10
38.31415552578888
 20
187.6683219831519
 30
0.0
 10
38.31415552578888
 20
187.0898390454771
 30
0.0
 10
38.31415552578888
 20
186.754150504011
 30
0.0
 10
38.31415552578888
 20
186.0112617877009
 30
0.0
 10
38.31415552578888
 20
185.604258919932
 30
0.0
 10
38.31415552578888
 20
184.7483698042508
 30
0.0
 10
38.31415552578888
 20
184.2997031669969
 30
0.0
 10
38.31415552578888
 20
183.391565803721
 30
0.0
 10
38.31415552578888
 20
182.9322515782501
 30
0.0
 10
38.31415552578888
 20
182.0294117455415
 30
0.0
 10
38.31415552578888
 20
181.5867084471165
 30
0.0
 10
38.31415552578888
 20
181.1598307399245
 30
0.0
  0
SPLINE
  5
8B
330
1F
100
AcDbEntity
  8
0
  6
Continuous
 62
   144
370
    18
100
AcDbSpline
210
0.0
220
0.0
230
1.0
 70
     8
 71
     3
 72
    14
 73
    10
 74
     0
 42
0.000000001
 43
0.00000001
 40
0.0
 40
0.0
 40
0.0
 40
0.0
 40
0.2499999999999978
 40
0.2499999999999978
 40
0.4999999999999956
 40
0.4999999999999956
 40
0.7499999999999978
 40
0.7499999999999978
 40
1.0
 40
1.0
 40
1.0
 40
1.0
 10
38.81415552622542
 20
189.1598320137294
 30
0.0
 10
38.75522996812285
 20
189.1598320137294
 30
0.0
 10
38.69165666181308
 20
189.1490926470192
 30
0.0
 10
38.56855972493209
 20
189.1003596990451
 30
0.0
 10
38.50941770585583
 20
189.0622009651548
 30
0.0
 10
38.41178663482389
 20
188.9645699135051
 30
0.0
 10
38.3736278881529
 20
188.9054279008392
 30
0.0
 10
38.32489491483949
 20
188.7823309684024
 30
0.0
 10
38.31415553574597
 20
188.7187576602522
 30
0.0
 10
38.31415552578888
 20
188.6598320980379
 30
0.0
  0
SPLINE
  5
8C
330
1F
100
AcDbEntity
  8
0
  6
Continuous
 62
   144
370
    18
100
AcDbSpline
210
0.0
220
0.0
230
1.0
 70
    24
 71
     3
 72
    22
 73
    18
 74
     0
 42
0.000000001
 43
0.00000001
 40
0.0
 40
0.0
 40
0.0
 40
0.0
 40
0.1249999999999999
 40
0.1249999999999999
 40
0.2499999999999998
 40
0.2499999999999998
 40
0.3749999999999999
 40
0.3749999999999999
 40
0.4999999999999999
 40
0.4999999999999999
 40
0.6249999999999999
 40
0.6249999999999999
 40
0.75
 40
0.75
 40
0.875
 40
0.875
 40
1.0
 40
1.0
 40
1.0
 40
1.0
 10
38.81415552622542
 20
181.1598307822879
 30
0.0
 10
38.81415552622542
 20
181.6151669896296
 30
0.0
 10
38.81415552622542
 20
182.0873838392538
 30
0.0
 10
38.81415552622542
 20
183.0504129747117
 30
0.0
 10
38.81415552622542
 20
183.5403481375405
 30
0.0
 10
38.81415552622542
 20
184.5090279678752
 30
0.0
 10
38.81415552622542
 20
184.9876057014648
 30
0.0
 10
38.81415552622542
 20
185.9005540654729
 30
0.0
 10
38.81415552622542
 20
186.3346904445371
 30
0.0
 10
38.81415552622542
 20
187.1271050501254
 30
0.0
 10
38.81415552622542
 20
187.4851728157875
 30
0.0
 10
38.81415552622542
 20
188.102221261683
 30
0.0
 10
38.81415552622542
 20
188.3611080486559
 30
0.0
 10
38.81415552622542
 20
188.7698744956003
 30
0.0
 10
38.81415552622542
 20
188.9198065291375
 30
0.0
 10
38.81415552622542
 20
189.1147095487851
 30
0.0
 10
38.81415552622542
 20
189.1598320137294
 30
0.0
 10
38.81415552622542
 20
189.1598320137294
 30
0.0
  0
SPLINE
  5
8D
330
1F
100
AcDbEntity
  8
0
  6
Continuous
 62
   144
370
    18
100
AcDbSpline
210
0.0
220
0.0
230
1.0
 70
     8
 71
     3
 72
    16
 73
    12
 74
     0
 42
0.000000001
 43
0.00000001
 40
0.0
 40
0.0
 40
0.0
 40
0.0
 40
0.125
 40
0.125
 40
0.25
 40
0.25
 40
0.5
 40
0.5
 40
0.75
 40
0.75
 40
1.0
 40
1.0
 40
1.0
 40
1.0
 10
97.41415551960958
 20
186.6598332152074
 30
0.0
 10
97.41415559054528
 20
186.5360160835655
 30
0.0
 10
97.40356001737358
 20
186.4123107392006
 30
0.0
 10
97.3571191533003
 20
186.156664518192
 30
0.0
 10
97.3211958271161
 20
186.0268713598342
 30
0.0
 10
97.17195083031046
 20
185.6429758186024
 30
0.0
 10
97.015247613783
 20
185.3948028336743
 30
0.0
 10
96.60896536099465
 20
184.9812967549844
 30
0.0
 10
96.36058842482747
 20
184.8175148738778
 30
0.0
 10
95.83874821003214
 20
184.6070395793995
 30
0.0
 10
95.5670174305587
 20
184.5598320127294
 30
0.0
 10
95.31415552006037
 20
184.5598320127294
 30
0.0
  0
SPLINE
  5
8E
330
1F
100
AcDbEntity
  8
0
  6
Continuous
 62
   144
370
    18
100
AcDbSpline
210
0.0
220
0.0
230
1.0
 70
     8
 71
     3
 72
    14
 73
    10
 74
     0
 42
0.000000001
 43
0.00000001
 40
0.0
 40
0.0
 40
0.0
 40
0.0
 40
0.25
 40
0.25
 40
0.5
 40
0.5
 40
0.75
 40
0.75
 40
1.0
 40
1.0
 40
1.0
 40
1.0
 10
95.31415552006038
 20
188.7598320117294
 30
0.0
 10
95.56164279316174
 20
188.7598320117294
 30
0.0
 10
95.82865059692615
 20
188.7147266981417
 30
0.0
 10
96.34565759468956
 20
188.5100484385772
 30
0.0
 10
96.59405402301546
 20
188.3497818519361
 30
0.0
 10
97.00410450076704
 20
187.9397316493941
 30
0.0
 10
97.16437126895883
 20
187.6913353120103
 30
0.0
 10
97.36904988853864
 20
187.1743283770475
 30
0.0
 10
97.41415537782235
 20
186.9073205470449
 30
0.0
 10
97.41415551960958
 20
186.6598332152074
 30
0.0
  0
SPLINE
  5
8F
330
1F
100
AcDbEntity
  8
0
  6
Continuous
 62
   144
370
    18
100
AcDbSpline
210
0.0
220
0.0
230
1.0
 70
     8
 71
     3
 72
    14
 73
    10
 74
     0
 42
0.000000001
 43
0.00000001
 40
0.0
 40
0.0
 40
0.0
 40
0.0
 40
0.25
 40
0.25
 40
0.5
 40
0.5
 40
0.75
 40
0.75
 40
1.0
 40
1.0
 40
1.0
 40
1.0
 10
75.3141555240604
 20
188.7598320117294
 30
0.0
 10
75.56164279716174
 20
188.7598320117294
 30
0.0
 10
75.82865060092614
 20
188.7147266981417
 30
0.0
 10
76.3456575986895
 20
188.5100484385772
 30
0.0
 10
76.59405402701547
 20
188.3497818519361
 30
0.0
 10
77.00410450476706
 20
187.9397316493941
 30
0.0
 10
77.1643712729588
 20
187.6913353120103
 30
0.0
 10
77.3690498925386
 20
187.1743283770475
 30
0.0
 10
77.41415538182234
 20
186.9073205470449
 30
0.0
 10
77.41415552360958
 20
186.6598332152074
 30
0.0
  0
SPLINE
  5
90
330
1F
100
AcDbEntity
  8
0
  6
Continuous
 62
   144
370
    18
100
AcDbSpline
210
0.0
220
0.0
230
1.0
 70
     8
 71
     3
 72
    16
 73
    12
 74
     0
 42
0.000000001
 43
0.00000001
 40
0.0
 40
0.0
 40
0.0
 40
0.0
 40
0.1249999999999998
 40
0.1249999999999998
 40
0.2499999999999995
 40
0.2499999999999995
 40
0.4999999999999997
 40
0.4999999999999997
 40
0.7499999999999998
 40
0.7499999999999998
 40
1.0
 40
1.0
 40
1.0
 40
1.0
 10
77.41415552360958
 20
186.6598332152074
 30
0.0
 10
77.41415559454529
 20
186.5360160835655
 30
0.0
 10
77.40356002137355
 20
186.4123107392006
 30
0.0
 10
77.35711915730029
 20
186.156664518192
 30
0.0
 10
77.32119583111611
 20
186.0268713598342
 30
0.0
 10
77.17195083431046
 20
185.6429758186024
 30
0.0
 10
77.015247617783
 20
185.3948028336743
 30
0.0
 10
76.60896536499467
 20
184.9812967549844
 30
0.0
 10
76.36058842882751
 20
184.8175148738778
 30
0.0
 10
75.8387482140322
 20
184.6070395793994
 30
0.0
 10
75.56701743455874
 20
184.5598320127294
 30
0.0
 10
75.31415552406042
 20
184.5598320127294
 30
0.0
  0
SPLINE
  5
91
330
1F
100
AcDbEntity
  8
0
  6
Continuous
 62
   144
370
    18
100
AcDbSpline
210
0.0
220
0.0
230
1.0
 70
     8
 71
     3
 72
     9
 73
     5
 74
     0
 42
0.000000001
 43
0.00000001
 40
0.0
 40
0.0
 40
0.0
 40
0.0
 40
0.5198645617902027
 40
1.0
 40
1.0
 40
1.0
 40
1.0
 10
109.6106611560767
 20
177.1098319086762
 30
0.0
 10
109.52603521831
 20
177.7820366043656
 30
0.0
 10
109.3632506317336
 20
179.0750747244762
 30
0.0
 10
109.3340041332784
 20
180.3778999698502
 30
0.0
 10
109.3199618529266
 20
181.0034325399486
 30
0.0
  0
SPLINE
  5
92
330
1F
100
AcDbEntity
  8
0
  6
Continuous
 62
   144
370
    18
100
AcDbSpline
210
0.0
220
0.0
230
1.0
 70
     8
 71
     3
 72
     9
 73
     5
 74
     0
 42
0.000000001
 43
0.00000001
 40
0.0
 40
0.0
 40
0.0
 40
0.0
 40
0.480128333466085
 40
1.0
 40
1.0
 40
1.0
 40
1.0
 10
109.3157969783729
 20
181.196260601648
 30
0.0
 10
109.3291908145045
 20
181.8410399501063
 30
0.0
 10
109.3570871813673
 20
183.1839712114287
 30
0.0
 10
109.5239262509367
 20
184.5168869779118
 30
0.0
 10
109.6106611560767
 20
185.2098321187826
 30
0.0
  0
SPLINE
  5
93
330
1F
100
AcDbEntity
  8
0
  6
Continuous
 62
   144
370
    18
100
AcDbSpline
210
0.0
220
0.0
230
1.0
 70
     8
 71
     3
 72
    17
 73
    13
 74
     0
 42
0.000000001
 43
0.00000001
 40
0.0
 40
0.0
 40
0.0
 40
0.0
 40
0.0642543967006909
 40
0.127217474620521
 40
0.1892201474783537
 40
0.2506215018122191
 40
0.3760354131825444
 40
0.5000032560210058
 40
0.6239274183969487
 40
0.7493846680610902
 40
0.8725093204021561
 40
1.0
 40
1.0
 40
1.0
 40
1.0
 10
109.6118242442155
 20
173.068380015171
 30
0.0
 10
109.5889812845787
 20
173.1545108923823
 30
0.0
 10
109.5437544396145
 20
173.3250416770184
 30
0.0
 10
109.4853134583395
 20
173.5792753690801
 30
0.0
 10
109.4348790587983
 20
173.829849409456
 30
0.0
 10
109.378475004042
 20
174.164768237895
 30
0.0
 10
109.3294154775232
 20
174.5849822800495
 30
0.0
 10
109.3096899840978
 20
175.088748292784
 30
0.0
 10
109.3290297426379
 20
175.5942440705174
 30
0.0
 10
109.3878026935062
 20
176.0963380125151
 30
0.0
 10
109.4801235018267
 20
176.6030686516471
 30
0.0
 10
109.5666450529916
 20
176.9389603446581
 30
0.0
 10
109.6106594844813
 20
177.1098320143278
 30
0.0
  0
LINE
  5
94
330
1F
100
AcDbEntity
  8
0
  6
Continuous
 62
   144
370
    18
100
AcDbLine
 10
109.2731796574
 20
174.3100853283
 30
0.0
 11
109.6118234466
 21
173.0683804135
 31
0.0
  0
LINE
  5
95
330
1F
100
AcDbEntity
  8
0
  6
Continuous
 62
   144
370
    18
100
AcDbLine
 10
109.6118234466
 20
189.2512826826
 30
0.0
 11
109.3141578506
 21
188.1598322298
 31
0.0
  0
SPLINE
  5
96
330
1F
100
AcDbEntity
  8
0
  6
Continuous
 62
   144
370
    18
100
AcDbSpline
210
0.0
220
0.0
230
1.0
 70
     8
 71
     3
 72
     9
 73
     5
 74
     0
 42
0.000000001
 43
0.00000001
 40
0.0
 40
0.0
 40
0.0
 40
0.0
 40
0.6697231237964145
 40
1.0
 40
1.0
 40
1.0
 40
1.0
 10
109.6106611560767
 20
185.2098321187826
 30
0.0
 10
109.4948831722179
 20
185.6591307776665
 30
0.0
 10
109.3220087712227
 20
186.3300030275854
 30
0.0
 10
109.3436404586918
 20
187.0056763453549
 30
0.0
 10
109.350784904856
 20
187.2288356180819
 30
0.0
  0
LINE
  5
97
330
1F
100
AcDbEntity
  8
0
  6
Continuous
 62
   144
370
    18
100
AcDbLine
 10
109.379454739
 20
188.048172241
 30
0.0
 11
109.6118234466
 21
189.2512826826
 31
0.0
  0
LINE
  5
98
330
1F
100
AcDbEntity
  8
0
  6
Continuous
 62
   144
370
    18
100
AcDbLine
 10
57.6043196391
 20
188.1598322298
 30
0.0
 11
64.0239932012
 21
188.1598322298
 31
0.0
  0
SPLINE
  5
99
330
1F
100
AcDbEntity
  8
0
  6
Continuous
 62
   144
370
    18
100
AcDbSpline
210
0.0
220
0.0
230
1.0
 70
    24
 71
     3
 72
     9
 73
     5
 74
     0
 42
0.000000001
 43
0.00000001
 40
0.0
 40
0.0
 40
0.0
 40
0.0
 40
0.6734256212934546
 40
1.0
 40
1.0
 40
1.0
 40
1.0
 10
64.02399320115501
 20
188.1598322297962
 30
0.0
 10
64.08311647750982
 20
188.1598322297962
 30
0.0
 10
64.17091129030777
 20
188.1598322297962
 30
0.0
 10
64.21629178447941
 20
188.1598322297962
 30
0.0
 10
64.2311118911689
 20
188.1598322297962
 30
0.0
  0
LINE
  5
9A
330
1F
100
AcDbEntity
  8
0
  6
Continuous
 62
   144
370
    18
100
AcDbLine
 10
64.0239932012
 20
188.1598322298
 30
0.0
 11
57.6043196391
 21
188.1598322298
 31
0.0
  0
SPLINE
  5
9B
330
1F
100
AcDbEntity
  8
0
  6
Continuous
 62
   144
370
    18
100
AcDbSpline
210
0.0
220
0.0
230
1.0
 70
     8
 71
     3
 72
    13
 73
     9
 74
     0
 42
0.000000001
 43
0.00000001
 40
0.0
 40
0.0
 40
0.0
 40
0.0
 40
0.1304752666633143
 40
0.2574826315781364
 40
0.3810481323639843
 40
0.5012000442772545
 40
0.7532665947528601
 40
1.0
 40
1.0
 40
1.0
 40
1.0
 10
57.6043187160604
 20
188.1598320141449
 30
0.0
 10
57.58155612294402
 20
188.0083838878743
 30
0.0
 10
57.53663594361018
 20
187.7095129746584
 30
0.0
 10
57.4790739336991
 20
187.2662646824584
 30
0.0
 10
57.42987278256041
 20
186.8344037367302
 30
0.0
 10
57.3749208779626
 20
186.2560341995578
 30
0.0
 10
57.32549342679643
 20
185.5325341064832
 30
0.0
 10
57.31790779122171
 20
184.9486517638727
 30
0.0
 10
57.31415552606041
 20
184.6598320135839
 30
0.0
  0
LINE
  5
9C
330
1F
100
AcDbEntity
  8
0
  6
Continuous
 62
   144
370
    18
100
AcDbLine
 10
57.3910765718
 20
182.9071066686
 30
0.0
 11
57.6043196391
 21
181.1598320139
 31
0.0
  0
LINE
  5
9D
330
1F
100
AcDbEntity
  8
0
  6
Continuous
 62
   144
370
    18
100
AcDbLine
 10
57.6043196391
 20
181.1598320139
 30
0.0
 11
64.0239932012
 21
181.1598320139
 31
0.0
  0
SPLINE
  5
9E
330
1F
100
AcDbEntity
  8
0
  6
Continuous
 62
   144
370
    18
100
AcDbSpline
210
0.0
220
0.0
230
1.0
 70
     8
 71
     3
 72
    13
 73
     9
 74
     0
 42
0.000000001
 43
0.00000001
 40
0.0
 40
0.0
 40
0.0
 40
0.0
 40
0.1304752666800741
 40
0.2574826315801461
 40
0.3810481323196461
 40
0.501200044154899
 40
0.7532665948155399
 40
1.0
 40
1.0
 40
1.0
 40
1.0
 10
64.0239923360604
 20
181.1598320138889
 30
0.0
 10
64.04675492917569
 20
181.3112801401415
 30
0.0
 10
64.09167510850197
 20
181.6101510532859
 30
0.0
 10
64.14923711841573
 20
182.0533993453232
 30
0.0
 10
64.19843826955172
 20
182.4852602907807
 30
0.0
 10
64.25339017420906
 20
183.0636298278773
 30
0.0
 10
64.30281762529228
 20
183.7871299208304
 30
0.0
 10
64.31040326088974
 20
184.3710122634398
 30
0.0
 10
64.31415552606042
 20
184.6598320135839
 30
0.0
  0
SPLINE
  5
9F
330
1F
100
AcDbEntity
  8
0
  6
Continuous
 62
   144
370
    18
100
AcDbSpline
210
0.0
220
0.0
230
1.0
 70
     8
 71
     3
 72
    11
 73
     7
 74
     0
 42
0.000000001
 43
0.00000001
 40
0.0
 40
0.0
 40
0.0
 40
0.0
 40
0.2397182245028043
 40
0.4862540928241105
 40
0.7396640333515326
 40
1.0
 40
1.0
 40
1.0
 40
1.0
 10
64.23756735173299
 20
186.4098318890573
 30
0.0
 10
64.22475718749912
 20
186.5500304275406
 30
0.0
 10
64.19877253488713
 20
186.8344147845784
 30
0.0
 10
64.14914815931245
 20
187.2662378341151
 30
0.0
 10
64.09170140171146
 20
187.7095008704697
 30
0.0
 10
64.04676396481595
 20
188.0083785341385
 30
0.0
 10
64.0239923360604
 20
188.1598320141449
 30
0.0
  0
LINE
  5
A0
330
1F
100
AcDbEntity
  8
0
  6
Continuous
 62
   144
370
    18
100
AcDbLine
 10
64.0239932012
 20
181.1598320141
 30
0.0
 11
57.6043196391
 21
181.1598320141
 31
0.0
  0
SPLINE
  5
A1
330
1F
100
AcDbEntity
  8
0
  6
Continuous
 62
   144
370
    18
100
AcDbSpline
210
0.0
220
0.0
230
1.0
 70
     8
 71
     3
 72
    13
 73
     9
 74
     0
 42
0.000000001
 43
0.00000001
 40
0.0
 40
0.0
 40
0.0
 40
0.0
 40
0.1304752666633142
 40
0.2574826315781364
 40
0.3810481323639841
 40
0.5012000442772545
 40
0.7532665947528602
 40
1.0
 40
1.0
 40
1.0
 40
1.0
 10
57.6043187160604
 20
181.1598320141449
 30
0.0
 10
57.58155612294403
 20
181.0083838878742
 30
0.0
 10
57.53663594361018
 20
180.7095129746584
 30
0.0
 10
57.4790739336991
 20
180.2662646824584
 30
0.0
 10
57.42987278256042
 20
179.8344037367302
 30
0.0
 10
57.37492087796261
 20
179.2560341995578
 30
0.0
 10
57.32549342679645
 20
178.5325341064832
 30
0.0
 10
57.31790779122171
 20
177.9486517638728
 30
0.0
 10
57.31415552606041
 20
177.6598320135839
 30
0.0
  0
SPLINE
  5
A2
330
1F
100
AcDbEntity
  8
0
  6
Continuous
 62
   144
370
    18
100
AcDbSpline
210
0.0
220
0.0
230
1.0
 70
     8
 71
     3
 72
    11
 73
     7
 74
     0
 42
0.000000001
 43
0.00000001
 40
0.0
 40
0.0
 40
0.0
 40
0.0
 40
0.2397182247137841
 40
0.4862540930033389
 40
0.7396640334602502
 40
1.0
 40
1.0
 40
1.0
 40
1.0
 10
57.39074369995335
 20
175.9098321431736
 30
0.0
 10
57.40355386420087
 20
175.769633604229
 30
0.0
 10
57.42953851682729
 20
175.485249246401
 30
0.0
 10
57.47916289249583
 20
175.0534261957633
 30
0.0
 10
57.53660965021937
 20
174.6101631584696
 30
0.0
 10
57.581547087242
 20
174.3112854941929
 30
0.0
 10
57.6043187160604
 20
174.1598320138889
 30
0.0
  0
LINE
  5
A3
330
1F
100
AcDbEntity
  8
0
  6
Continuous
 62
   144
370
    18
100
AcDbLine
 10
57.6043196391
 20
174.1598317977
 30
0.0
 11
64.0239932012
 21
174.1598317977
 31
0.0
  0
SPLINE
  5
A4
330
1F
100
AcDbEntity
  8
0
  6
Continuous
 62
   144
370
    18
100
AcDbSpline
210
0.0
220
0.0
230
1.0
 70
     8
 71
     3
 72
    13
 73
     9
 74
     0
 42
0.000000001
 43
0.00000001
 40
0.0
 40
0.0
 40
0.0
 40
0.0
 40
0.1304752666800741
 40
0.2574826315801461
 40
0.3810481323196462
 40
0.501200044154899
 40
0.7532665948155398
 40
1.0
 40
1.0
 40
1.0
 40
1.0
 10
64.0239923360604
 20
174.1598320138889
 30
0.0
 10
64.04675492917569
 20
174.3112801401415
 30
0.0
 10
64.09167510850199
 20
174.6101510532859
 30
0.0
 10
64.14923711841571
 20
175.0533993453232
 30
0.0
 10
64.19843826955172
 20
175.4852602907807
 30
0.0
 10
64.25339017420906
 20
176.0636298278773
 30
0.0
 10
64.30281762529228
 20
176.7871299208304
 30
0.0
 10
64.31040326088974
 20
177.3710122634397
 30
0.0
 10
64.3141555260604
 20
177.6598320135839
 30
0.0
  0
SPLINE
  5
A5
330
1F
100
AcDbEntity
  8
0
  6
Continuous
 62
   144
370
    18
100
AcDbSpline
210
0.0
220
0.0
230
1.0
 70
     8
 71
     3
 72
    11
 73
     7
 74
     0
 42
0.000000001
 43
0.00000001
 40
0.0
 40
0.0
 40
0.0
 40
0.0
 40
0.2397182217663623
 40
0.4862540914167466
 40
0.7396640328585908
 40
1.0
 40
1.0
 40
1.0
 40
1.0
 10
64.23756734217976
 20
179.409832000387
 30
0.0
 10
64.22475717826462
 20
179.5500305283329
 30
0.0
 10
64.19877252607775
 20
179.8344148664194
 30
0.0
 10
64.14914815257013
 20
180.2662378881787
 30
0.0
 10
64.09170139769999
 20
180.7095008979423
 30
0.0
 10
64.04676396345405
 20
181.008378543463
 30
0.0
 10
64.0239923360604
 20
181.1598320141449
 30
0.0
  0
LINE
  5
A6
330
1F
100
AcDbEntity
  8
0
  6
Continuous
 62
   144
370
    18
100
AcDbLine
 10
64.0239932012
 20
174.1598317977
 30
0.0
 11
57.6043196391
 21
174.1598317977
 31
0.0
  0
SPLINE
  5
A7
330
1F
100
AcDbEntity
  8
0
  6
Continuous
 62
   144
370
    18
100
AcDbSpline
210
0.0
220
0.0
230
1.0
 70
    24
 71
     3
 72
     9
 73
     5
 74
     0
 42
0.000000001
 43
0.00000001
 40
0.0
 40
0.0
 40
0.0
 40
0.0
 40
0.6734256553787304
 40
1.0
 40
1.0
 40
1.0
 40
1.0
 10
57.60431963910514
 20
174.1598317976625
 30
0.0
 10
57.54519553424235
 20
174.1598317976625
 30
0.0
 10
57.45739949559938
 20
174.1598317976625
 30
0.0
 10
57.4120191447752
 20
174.1598317976625
 30
0.0
 10
57.39719908644611
 20
174.1598317976625
 30
0.0
  0
LINE
  5
A8
330
1F
100
AcDbEntity
  8
0
  6
Continuous
 62
   144
370
    18
100
AcDbLine
 10
109.6106611561
 20
177.1098319087
 30
0.0
 11
118.6864741515
 21
177.1098319087
 31
0.0
  0
SPLINE
  5
A9
330
1F
100
AcDbEntity
  8
0
  6
Continuous
 62
   144
370
    18
100
AcDbSpline
210
0.0
220
0.0
230
1.0
 70
     8
 71
     3
 72
    19
 73
    15
 74
     0
 42
0.000000001
 43
0.00000001
 40
0.0
 40
0.0
 40
0.0
 40
0.0
 40
0.0525605877660475
 40
0.1037829063528306
 40
0.153693653683866
 40
0.2023216879801671
 40
0.2496982115181513
 40
0.3760577747314345
 40
0.4990566019266291
 40
0.6226846335499417
 40
0.749690599725293
 40
0.8295292951606543
 40
0.9129209649750547
 40
1.0
 40
1.0
 40
1.0
 40
1.0
 10
118.6864704522231
 20
177.1098320149417
 30
0.0
 10
118.7254542415617
 20
177.0406443198447
 30
0.0
 10
118.8024292361376
 20
176.904030549219
 30
0.0
 10
118.905135220097
 20
176.7001925806148
 30
0.0
 10
118.9964733490389
 20
176.5005309456185
 30
0.0
 10
119.0756947227061
 20
176.3049330210922
 30
0.0
 10
119.1809669447652
 20
176.0054121130757
 30
0.0
 10
119.2805979713549
 20
175.6022371344426
 30
0.0
 10
119.3242688614578
 20
175.0920553083954
 30
0.0
 10
119.2808285040386
 20
174.5809758553687
 30
0.0
 10
119.1699137903329
 20
174.1319596948106
 30
0.0
 10
119.0245216351824
 20
173.741674765745
 30
0.0
 10
118.8726823198764
 20
173.4077585185177
 30
0.0
 10
118.7477976861297
 20
173.1831258220253
 30
0.0
 10
118.6840047112232
 20
173.0683800159112
 30
0.0
  0
LINE
  5
AA
330
1F
100
AcDbEntity
  8
0
  6
Continuous
 62
   144
370
    18
100
AcDbLine
 10
118.6840080093
 20
173.0683804135
 30
0.0
 11
109.6118234466
 21
173.0683804135
 31
0.0
  0
SPLINE
  5
AB
330
1F
100
AcDbEntity
  8
0
  6
Continuous
 62
   144
370
    18
100
AcDbSpline
210
0.0
220
0.0
230
1.0
 70
     8
 71
     3
 72
    10
 73
     6
 74
     0
 42
0.000000001
 43
0.00000001
 40
0.0
 40
0.0
 40
0.0
 40
0.0
 40
0.5008563668392763
 40
0.9992154995678666
 40
1.0
 40
1.0
 40
1.0
 40
1.0
 10
109.6118234466499
 20
173.0683804135354
 30
0.0
 10
109.533461601798
 20
173.4046714914655
 30
0.0
 10
109.3771286186619
 20
174.0755769240043
 30
0.0
 10
109.290938002914
 20
174.7528800379576
 30
0.0
 10
109.3162563745716
 20
175.0901451297121
 30
0.0
 10
109.3162961672729
 20
175.0906752068134
 30
0.0
  0
SPLINE
  5
AC
330
1F
100
AcDbEntity
  8
0
  6
Continuous
 62
   144
370
    18
100
AcDbSpline
210
0.0
220
0.0
230
1.0
 70
     8
 71
     3
 72
     9
 73
     5
 74
     0
 42
0.000000001
 43
0.00000001
 40
0.0
 40
0.0
 40
0.0
 40
0.0
 40
0.0011397914996645
 40
1.0
 40
1.0
 40
1.0
 40
1.0
 10
109.3936331938689
 20
176.0982949863704
 30
0.0
 10
109.3936629661502
 20
176.0986811758676
 30
0.0
 10
109.4197837797464
 20
176.4375058620694
 30
0.0
 10
109.5152768890287
 20
176.7738605724927
 30
0.0
 10
109.6106611560767
 20
177.1098319086762
 30
0.0
  0
SPLINE
  5
AD
330
1F
100
AcDbEntity
  8
0
  6
Continuous
 62
   144
370
    18
100
AcDbSpline
210
0.0
220
0.0
230
1.0
 70
     8
 71
     3
 72
    16
 73
    12
 74
     0
 42
0.000000001
 43
0.00000001
 40
0.0
 40
0.0
 40
0.0
 40
0.0
 40
0.0818575510498196
 40
0.1643631787792066
 40
0.2475798871339372
 40
0.3315690798375343
 40
0.4163904829846013
 40
0.5021020829690979
 40
0.6609041265632313
 40
0.8267817274551837
 40
1.0
 40
1.0
 40
1.0
 40
1.0
 10
119.3141555147318
 20
181.1598320137574
 30
0.0
 10
119.3132407071532
 20
181.0476280064424
 30
0.0
 10
119.3114038493477
 20
180.8223316583653
 30
0.0
 10
119.2966018110656
 20
180.4832355199254
 30
0.0
 10
119.273004141075
 20
180.1417437935333
 30
0.0
 10
119.2397297705611
 20
179.7978564147392
 30
0.0
 10
119.1970081391674
 20
179.4515756165041
 30
0.0
 10
119.1301774748699
 20
179.0050861815317
 30
0.0
 10
119.0266649969371
 20
178.4520081660575
 30
0.0
 10
118.8748736376717
 20
177.7863887083291
 30
0.0
 10
118.7501713567261
 20
177.3385822507654
 30
0.0
 10
118.6864704527048
 20
177.1098320149474
 30
0.0
  0
SPLINE
  5
AE
330
1F
100
AcDbEntity
  8
0
  6
Continuous
 62
   144
370
    18
100
AcDbSpline
210
0.0
220
0.0
230
1.0
 70
     8
 71
     3
 72
    15
 73
    11
 74
     0
 42
0.000000001
 43
0.00000001
 40
0.0
 40
0.0
 40
0.0
 40
0.0
 40
0.1056214996411978
 40
0.2085342696916716
 40
0.3087925754356317
 40
0.4064551070432989
 40
0.5015853591588569
 40
0.6707661264916837
 40
0.836746343912572
 40
1.0
 40
1.0
 40
1.0
 40
1.0
 10
118.6864704527048
 20
185.2098320125674
 30
0.0
 10
118.7258464198141
 20
185.0705140374221
 30
0.0
 10
118.8035885326646
 20
184.7954509839667
 30
0.0
 10
118.9072803892358
 20
184.3850484353835
 30
0.0
 10
118.9994559052852
 20
183.9831122990997
 30
0.0
 10
119.0793275620349
 20
183.5894185812631
 30
0.0
 10
119.1653973231907
 20
183.1007397670572
 30
0.0
 10
119.2444034498253
 20
182.5160699873175
 30
0.0
 10
119.3030929748747
 20
181.8349391232893
 30
0.0
 10
119.3104884166456
 20
181.3836218505725
 30
0.0
 10
119.3141555147318
 20
181.1598320137574
 30
0.0
  0
LINE
  5
AF
330
1F
100
AcDbEntity
  8
0
  6
Continuous
 62
   144
370
    18
100
AcDbLine
 10
109.6106611561
 20
185.2098321188
 30
0.0
 11
118.6864741515
 21
185.2098321188
 31
0.0
  0
SPLINE
  5
B0
330
1F
100
AcDbEntity
  8
0
  6
Continuous
 62
   144
370
    18
100
AcDbSpline
210
0.0
220
0.0
230
1.0
 70
     8
 71
     3
 72
     9
 73
     5
 74
     0
 42
0.000000001
 43
0.00000001
 40
0.0
 40
0.0
 40
0.0
 40
0.0
 40
0.506095352116414
 40
1.0
 40
1.0
 40
1.0
 40
1.0
 10
109.6106611560767
 20
177.1098319086762
 30
0.0
 10
109.5263609141605
 20
177.7820606926459
 30
0.0
 10
109.3597910344654
 20
179.1103257738376
 30
0.0
 10
109.3303968560832
 20
180.4486429102257
 30
0.0
 10
109.3158789347594
 20
181.10964396423
 30
0.0
  0
SPLINE
  5
B1
330
1F
100
AcDbEntity
  8
0
  6
Continuous
 62
   144
370
    18
100
AcDbSpline
210
0.0
220
0.0
230
1.0
 70
     8
 71
     3
 72
     9
 73
     5
 74
     0
 42
0.000000001
 43
0.00000001
 40
0.0
 40
0.0
 40
0.0
 40
0.0
 40
0.4977729860546693
 40
1.0
 40
1.0
 40
1.0
 40
1.0
 10
109.3144707750266
 20
181.159221400644
 30
0.0
 10
109.3288300193261
 20
181.833854530077
 30
0.0
 10
109.357676993151
 20
183.1891573454832
 30
0.0
 10
109.5260830733088
 20
184.534276794502
 30
0.0
 10
109.6106611560767
 20
185.2098321187826
 30
0.0
  0
LINE
  5
B2
330
1F
100
AcDbEntity
  8
0
  6
Continuous
 62
   144
370
    18
100
AcDbLine
 10
118.6864741515
 20
177.1098319087
 30
0.0
 11
109.6106611561
 21
177.1098319087
 31
0.0
  0
LINE
  5
B3
330
1F
100
AcDbEntity
  8
0
  6
Continuous
 62
   144
370
    18
100
AcDbLine
 10
109.6118234466
 20
189.2512826826
 30
0.0
 11
118.6840080093
 21
189.2512826826
 31
0.0
  0
SPLINE
  5
B4
330
1F
100
AcDbEntity
  8
0
  6
Continuous
 62
   144
370
    18
100
AcDbSpline
210
0.0
220
0.0
230
1.0
 70
     8
 71
     3
 72
    19
 73
    15
 74
     0
 42
0.000000001
 43
0.00000001
 40
0.0
 40
0.0
 40
0.0
 40
0.0
 40
0.0525647903419337
 40
0.103789348200775
 40
0.153700278622365
 40
0.2023263428969529
 40
0.2496986426268224
 40
0.3760710304265698
 40
0.4990554420077804
 40
0.6226979287422117
 40
0.7496907735456064
 40
0.829535365407839
 40
0.9129268264389597
 40
1.0
 40
1.0
 40
1.0
 40
1.0
 10
118.6840052884878
 20
189.2512830119418
 30
0.0
 10
118.7230522377638
 20
189.1820982806837
 30
0.0
 10
118.8001505651465
 20
189.0454928054973
 30
0.0
 10
118.9030584848508
 20
188.841671112655
 30
0.0
 10
118.9946053983426
 20
188.642032861343
 30
0.0
 10
119.0740439212214
 20
188.4464654778691
 30
0.0
 10
119.1796808512162
 20
188.1469676427194
 30
0.0
 10
119.2798494136887
 20
187.7438349810099
 30
0.0
 10
119.3242646558663
 20
187.2336523056289
 30
0.0
 10
119.2815703237923
 20
186.7225746469931
 30
0.0
 10
119.1712550704934
 20
186.2735107370632
 30
0.0
 10
119.0263271901767
 20
185.8831927731354
 30
0.0
 10
118.8748396427839
 20
185.5492364619735
 30
0.0
 10
118.7501578128713
 20
185.3245841835246
 30
0.0
 10
118.6864704524879
 20
185.2098320129113
 30
0.0
  0
LINE
  5
B5
330
1F
100
AcDbEntity
  8
0
  6
Continuous
 62
   144
370
    18
100
AcDbLine
 10
118.6864741515
 20
185.2098321188
 30
0.0
 11
109.6106611561
 21
185.2098321188
 31
0.0
  0
SPLINE
  5
B6
330
1F
100
AcDbEntity
  8
0
  6
Continuous
 62
   144
370
    18
100
AcDbSpline
210
0.0
220
0.0
230
1.0
 70
     8
 71
     3
 72
     9
 73
     5
 74
     0
 42
0.000000001
 43
0.00000001
 40
0.0
 40
0.0
 40
0.0
 40
0.0
 40
0.8407776117702658
 40
1.0
 40
1.0
 40
1.0
 40
1.0
 10
109.6106611560767
 20
185.2098321187826
 30
0.0
 10
109.518870270713
 20
185.5459160259415
 30
0.0
 10
109.4096964724593
 20
185.9456458741844
 30
0.0
 10
109.3831843276821
 20
186.3483840892548
 30
0.0
 10
109.3789630006736
 20
186.4125090296896
 30
0.0
  0
SPLINE
  5
B7
330
1F
100
AcDbEntity
  8
0
  6
Continuous
 62
   144
370
    18
100
AcDbSpline
210
0.0
220
0.0
230
1.0
 70
     8
 71
     3
 72
     9
 73
     5
 74
     0
 42
0.000000001
 43
0.00000001
 40
0.0
 40
0.0
 40
0.0
 40
0.0
 40
0.1595483058290595
 40
1.0
 40
1.0
 40
1.0
 40
1.0
 10
109.379454738993
 20
188.0481722410353
 30
0.0
 10
109.3837284142001
 20
188.1124524368293
 30
0.0
 10
109.4105145037475
 20
188.5153410507821
 30
0.0
 10
109.5198946866341
 20
188.9152111664442
 30
0.0
 10
109.6118234466499
 20
189.2512826826008
 30
0.0
  0
LINE
  5
B8
330
1F
100
AcDbEntity
  8
0
  6
Continuous
 62
   144
370
    18
100
AcDbLine
 10
118.6840080093
 20
189.2512826826
 30
0.0
 11
109.6118234466
 21
189.2512826826
 31
0.0
  0
LINE
  5
B9
330
1F
100
AcDbEntity
  8
0
  6
Continuous
 62
   144
370
    18
100
AcDbLine
 10
109.6118234466
 20
173.0683804135
 30
0.0
 11
118.6840080093
 21
173.0683804135
 31
0.0
  0
SPLINE
  5
BA
330
1F
100
AcDbEntity
  8
0
  6
Continuous
 62
   144
370
    18
100
AcDbSpline
210
0.0
220
0.0
230
1.0
 70
     8
 71
     3
 72
    15
 73
    11
 74
     0
 42
0.000000001
 43
0.00000001
 40
0.0
 40
0.0
 40
0.0
 40
0.0
 40
0.1046585854018886
 40
0.2069104537608144
 40
0.3069785762766606
 40
0.4051114277460999
 40
0.5015828554372577
 40
0.6702410833122665
 40
0.8356627366339303
 40
1.0
 40
1.0
 40
1.0
 40
1.0
 10
118.6864704524824
 20
185.209832012664
 30
0.0
 10
118.7255048622816
 20
185.0717880078211
 30
0.0
 10
118.8026760509885
 20
184.7988744425238
 30
0.0
 10
118.9059613790529
 20
184.3909312319576
 30
0.0
 10
118.9981937771291
 20
183.9895395995714
 30
0.0
 10
119.0786083760473
 20
183.5936834938814
 30
0.0
 10
119.1649588854309
 20
183.1032562804249
 30
0.0
 10
119.2444554544521
 20
182.5182937925672
 30
0.0
 10
119.3033066594137
 20
181.8371576557181
 30
0.0
 10
119.3105471662347
 20
181.3851117205677
 30
0.0
 10
119.314155514686
 20
181.1598320142763
 30
0.0
  0
SPLINE
  5
BB
330
1F
100
AcDbEntity
  8
0
  6
Continuous
 62
   144
370
    18
100
AcDbSpline
210
0.0
220
0.0
230
1.0
 70
    24
 71
     3
 72
    24
 73
    20
 74
     0
 42
0.000000001
 43
0.00000001
 40
0.0
 40
0.0
 40
0.0
 40
0.0
 40
0.1250000000000002
 40
0.1250000000000002
 40
0.2500000000000002
 40
0.2500000000000002
 40
0.3750000000000002
 40
0.3750000000000002
 40
0.5000000000000002
 40
0.5000000000000002
 40
0.6250000000000002
 40
0.6250000000000002
 40
0.7500000000000002
 40
0.7500000000000002
 40
0.8750000000000001
 40
0.8750000000000001
 40
0.9375
 40
0.9375
 40
1.0
 40
1.0
 40
1.0
 40
1.0
 10
119.314155514686
 20
181.1598320142763
 30
0.0
 10
119.314155514686
 20
181.5788823212078
 30
0.0
 10
119.314155514686
 20
182.0130024531038
 30
0.0
 10
119.314155514686
 20
182.8902966494731
 30
0.0
 10
119.314155514686
 20
183.3333672548849
 30
0.0
 10
119.314155514686
 20
184.2010159041084
 30
0.0
 10
119.314155514686
 20
184.6254078802583
 30
0.0
 10
119.314155514686
 20
185.4261455833356
 30
0.0
 10
119.314155514686
 20
185.8022849552503
 30
0.0
 10
119.3141555146859
 20
186.4811316143351
 30
0.0
 10
119.314155514686
 20
186.7837003508389
 30
0.0
 10
119.314155514686
 20
187.2996966920441
 30
0.0
 10
119.314155514686
 20
187.5131083414527
 30
0.0
 10
119.314155514686
 20
187.8472279073735
 30
0.0
 10
119.314155514686
 20
187.9680292065752
 30
0.0
 10
119.314155514686
 20
188.0851847632992
 30
0.0
 10
119.314155514686
 20
188.1136366214826
 30
0.0
 10
119.314155514686
 20
188.1509461849061
 30
0.0
 10
119.314155514686
 20
188.1598319734246
 30
0.0
 10
119.314155514686
 20
188.1598320120437
 30
0.0
  0
SPLINE
  5
BC
330
1F
100
AcDbEntity
  8
0
  6
Continuous
 62
   144
370
    18
100
AcDbSpline
210
0.0
220
0.0
230
1.0
 70
     8
 71
     3
 72
    19
 73
    15
 74
     0
 42
0.000000001
 43
0.00000001
 40
0.0
 40
0.0
 40
0.0
 40
0.0
 40
0.0412130798596097
 40
0.0828692567460496
 40
0.1251563265231852
 40
0.1879865067078558
 40
0.2496969288104903
 40
0.3754395046280887
 40
0.4990552767440277
 40
0.6232604024136049
 40
0.7496919173077019
 40
0.8307155493310527
 40
0.9139086071752142
 40
1.0
 40
1.0
 40
1.0
 40
1.0
 10
118.6840052881902
 20
189.2512830115218
 30
0.0
 10
118.7148857930412
 20
189.1968586488455
 30
0.0
 10
118.7769788104439
 20
189.0874247870903
 30
0.0
 10
118.863060520547
 20
188.9221130022798
 30
0.0
 10
118.9570787037904
 20
188.7273909439807
 30
0.0
 10
119.0529372758638
 20
188.5040942609462
 30
0.0
 10
119.1743670607851
 20
188.1673850627568
 30
0.0
 10
119.2805115817856
 20
187.7441234219022
 30
0.0
 10
119.3240119720739
 20
187.2340275818938
 30
0.0
 10
119.2822074085686
 20
186.7212458309362
 30
0.0
 10
119.1703728261206
 20
186.2712940719946
 30
0.0
 10
119.0253938962483
 20
185.8801592504391
 30
0.0
 10
118.8734719525354
 20
185.5462937991716
 30
0.0
 10
118.7495117307006
 20
185.3232588091709
 30
0.0
 10
118.6864704524824
 20
185.209832012664
 30
0.0
  0
SPLINE
  5
BD
330
1F
100
AcDbEntity
  8
0
  6
Continuous
 62
   144
370
    18
100
AcDbSpline
210
0.0
220
0.0
230
1.0
 70
     8
 71
     3
 72
    16
 73
    12
 74
     0
 42
0.000000001
 43
0.00000001
 40
0.0
 40
0.0
 40
0.0
 40
0.0
 40
0.0827465640832701
 40
0.1654964931412902
 40
0.2485345807766894
 40
0.3321388172837707
 40
0.4165770956151824
 40
0.5021043805273933
 40
0.6626007861154469
 40
0.8281964729262536
 40
1.0
 40
1.0
 40
1.0
 40
1.0
 10
119.3141555152396
 20
181.1598320132335
 30
0.0
 10
119.3132456035863
 20
181.0464083987955
 30
0.0
 10
119.3114257432773
 20
180.8195565574306
 30
0.0
 10
119.2966397862304
 20
180.4791466574018
 30
0.0
 10
119.2730222701683
 20
180.1380908890967
 30
0.0
 10
119.2397165430375
 20
179.7955068340053
 30
0.0
 10
119.1969413565872
 20
179.4505452779364
 30
0.0
 10
119.1297316452338
 20
179.0025493807368
 30
0.0
 10
119.0259748527252
 20
178.4477965747628
 30
0.0
 10
118.8738738614841
 20
177.7822435416547
 30
0.0
 10
118.7496998188631
 20
177.3367017128017
 30
0.0
 10
118.6864704525356
 20
177.1098320151087
 30
0.0
  0
SPLINE
  5
BE
330
1F
100
AcDbEntity
  8
0
  6
Continuous
 62
   144
370
    18
100
AcDbSpline
210
0.0
220
0.0
230
1.0
 70
    24
 71
     3
 72
    22
 73
    18
 74
     0
 42
0.000000001
 43
0.00000001
 40
0.0
 40
0.0
 40
0.0
 40
0.0
 40
0.125
 40
0.125
 40
0.25
 40
0.25
 40
0.375
 40
0.375
 40
0.5
 40
0.5
 40
0.625
 40
0.625
 40
0.75
 40
0.75
 40
0.875
 40
0.875
 40
1.0
 40
1.0
 40
1.0
 40
1.0
 10
119.3141555152396
 20
174.1598320148424
 30
0.0
 10
119.3141555152396
 20
174.1598319382014
 30
0.0
 10
119.3141555152396
 20
174.19585980064
 30
0.0
 10
119.3141555152396
 20
174.3539100950287
 30
0.0
 10
119.3141555152396
 20
174.4760740933225
 30
0.0
 10
119.3141555152396
 20
174.8133376285625
 30
0.0
 10
119.3141555152396
 20
175.0285248877511
 30
0.0
 10
119.3141555152396
 20
175.5478142207922
 30
0.0
 10
119.3141555152396
 20
175.851891375979
 30
0.0
 10
119.3141555152396
 20
176.5328386813104
 30
0.0
 10
119.3141555152396
 20
176.9095631606007
 30
0.0
 10
119.3141555152396
 20
177.7101783773453
 30
0.0
 10
119.3141555152396
 20
178.1338618505473
 30
0.0
 10
119.3141555152396
 20
178.9988395697227
 30
0.0
 10
119.3141555152396
 20
179.4399528045904
 30
0.0
 10
119.3141555152396
 20
180.3124643798583
 30
0.0
 10
119.3141555152396
 20
180.7437662785713
 30
0.0
 10
119.3141555152396
 20
181.1598320132335
 30
0.0
  0
LINE
  5
BF
330
1F
100
AcDbEntity
  8
0
  6
Continuous
 62
   144
370
    18
100
AcDbLine
 10
119.0216757726
 20
176.4370821993
 30
0.0
 11
118.8025616478
 21
176.87683223
 31
0.0
  0
SPLINE
  5
C0
330
1F
100
AcDbEntity
  8
0
  6
Continuous
 62
   144
370
    18
100
AcDbSpline
210
0.0
220
0.0
230
1.0
 70
     8
 71
     3
 72
    19
 73
    15
 74
     0
 42
0.000000001
 43
0.00000001
 40
0.0
 40
0.0
 40
0.0
 40
0.0
 40
0.0519001163814096
 40
0.1026689484186091
 40
0.1524510774124499
 40
0.2014038876537099
 40
0.24969683493401
 40
0.3754803342995155
 40
0.4990562109998515
 40
0.6233035710857227
 40
0.7496916159961632
 40
0.8310136268476773
 40
0.9141571339885755
 40
1.0
 40
1.0
 40
1.0
 40
1.0
 10
118.6864704525356
 20
177.1098320151087
 30
0.0
 10
118.7249928502357
 20
177.04152573554
 30
0.0
 10
118.8011979599382
 20
176.9064020714202
 30
0.0
 10
118.9033579238218
 20
176.7043041729702
 30
0.0
 10
118.9947726095139
 20
176.5050126142147
 30
0.0
 10
119.0747202505327
 20
176.3078868067432
 30
0.0
 10
119.1802615102528
 20
176.0073493471145
 30
0.0
 10
119.2812231722518
 20
175.6035848989318
 30
0.0
 10
119.324013638679
 20
175.0917112757222
 30
0.0
 10
119.2815149860448
 20
174.5807248098879
 30
0.0
 10
119.1688652492251
 20
174.1289536424137
 30
0.0
 10
119.0233392374892
 20
173.7381996082708
 30
0.0
 10
118.870961441745
 20
173.4042789262093
 30
0.0
 10
118.7469837536807
 20
173.181532357129
 30
0.0
 10
118.6840047106586
 20
173.0683800151539
 30
0.0
  0
SPLINE
  5
C1
330
1F
100
AcDbEntity
  8
0
  6
Continuous
 62
   144
370
    18
100
AcDbSpline
210
0.0
220
0.0
230
1.0
 70
    24
 71
     3
 72
    25
 73
    21
 74
     0
 42
0.000000001
 43
0.00000001
 40
0.0
 40
0.0
 40
0.0
 40
0.0
 40
0.0248082565869036
 40
0.0495601607243327
 40
0.0742932522215237
 40
0.0990451564840551
 40
0.1238534133205951
 40
0.1869754200008847
 40
0.2500974262844048
 40
0.3132194316879567
 40
0.376341435919204
 40
0.5000068842759144
 40
0.6236723386074066
 40
0.6867943511438873
 40
0.7499163688441451
 40
0.8130383913881936
 40
0.8761604183135986
 40
0.9174692899903225
 40
0.958691125847994
 40
0.9999999999999999
 40
0.9999999999999999
 40
0.9999999999999999
 40
0.9999999999999999
 10
119.3141555150604
 20
188.1598320128476
 30
0.0
 10
119.3141555150604
 20
188.1588196031035
 30
0.0
 10
119.3141555150604
 20
188.1567970833241
 30
0.0
 10
119.3141555150604
 20
188.1403701183024
 30
0.0
 10
119.3141555150604
 20
188.1141283703239
 30
0.0
 10
119.3141555150604
 20
188.0771139327053
 30
0.0
 10
119.3141555150604
 20
188.0052051641265
 30
0.0
 10
119.3141555150604
 20
187.8714895671324
 30
0.0
 10
119.3141555150604
 20
187.6375237224976
 30
0.0
 10
119.3141555150604
 20
187.3403486467313
 30
0.0
 10
119.3141555150604
 20
186.8678038845146
 30
0.0
 10
119.3141555150604
 20
186.1409796973207
 30
0.0
 10
119.3141555150604
 20
185.2565019321567
 30
0.0
 10
119.3141555150604
 20
184.4710255600974
 30
0.0
 10
119.3141555150604
 20
183.8429656838608
 30
0.0
 10
119.3141555150604
 20
183.188811166869
 30
0.0
 10
119.3141555150604
 20
182.5921588510066
 30
0.0
 10
119.3141555150604
 20
182.0653251739634
 30
0.0
 10
119.3141555150604
 20
181.6135250031468
 30
0.0
 10
119.3141555150604
 20
181.3111692998158
 30
0.0
 10
119.3141555150604
 20
181.1598320134096
 30
0.0
  0
SPLINE
  5
C2
330
1F
100
AcDbEntity
  8
0
  6
Continuous
 62
   144
370
    18
100
AcDbSpline
210
0.0
220
0.0
230
1.0
 70
    24
 71
     3
 72
    25
 73
    21
 74
     0
 42
0.000000001
 43
0.00000001
 40
0.0
 40
0.0
 40
0.0
 40
0.0
 40
0.0248082615267591
 40
0.0495601704468186
 40
0.0742932665842533
 40
0.0990451753601458
 40
0.123853436599226
 40
0.1869754533214487
 40
0.2500974704284602
 40
0.313219488347065
 40
0.3763415074832894
 40
0.5000069974046693
 40
0.6236724813528199
 40
0.6867944921149605
 40
0.7499164977780673
 40
0.8130384985762102
 40
0.8761604950572746
 40
0.9174693436829904
 40
0.958691153899754
 40
1.0
 40
1.0
 40
1.0
 40
1.0
 10
119.3141555150604
 20
181.1598320134096
 30
0.0
 10
119.3141555150604
 20
181.0689557325452
 30
0.0
 10
119.3141555150604
 20
180.8874095986351
 30
0.0
 10
119.3141555150604
 20
180.6156712587671
 30
0.0
 10
119.3141555150604
 20
180.3449645573432
 30
0.0
 10
119.3141555150604
 20
180.0752828792278
 30
0.0
 10
119.3141555150604
 20
179.6687795551088
 30
0.0
 10
119.3141555150604
 20
179.130841328276
 30
0.0
 10
119.3141555150604
 20
178.476701703947
 30
0.0
 10
119.3141555150604
 20
177.8486378947862
 30
0.0
 10
119.3141555150604
 20
177.063162631064
 30
0.0
 10
119.3141555150604
 20
176.1786847514837
 30
0.0
 10
119.3141555150604
 20
175.4518583304364
 30
0.0
 10
119.3141555150604
 20
174.9793180452612
 30
0.0
 10
119.3141555150604
 20
174.6821288233829
 30
0.0
 10
119.3141555150604
 20
174.4482160803267
 30
0.0
 10
119.3141555150604
 20
174.2997184017946
 30
0.0
 10
119.3141555150604
 20
174.213966722633
 30
0.0
 10
119.3141555150604
 20
174.1682572896738
 30
0.0
 10
119.3141555150604
 20
174.1626424136668
 30
0.0
 10
119.3141555150604
 20
174.1598320149714
 30
0.0
  0
LINE
  5
C3
330
1F
100
AcDbEntity
  8
0
  6
Continuous
 62
   144
370
    18
100
AcDbLine
 10
109.6118234466
 20
173.0683804135
 30
0.0
 11
109.2731796574
 21
174.3100853283
 31
0.0
  0
LINE
  5
C4
330
1F
100
AcDbEntity
  8
0
  6
Continuous
 62
   144
370
    18
100
AcDbLine
 10
109.3141578506
 20
188.1598322298
 30
0.0
 11
109.6118234466
 21
189.2512826826
 31
0.0
  0
SPLINE
  5
C5
330
1F
100
AcDbEntity
  8
0
  6
Continuous
 62
   144
370
    18
100
AcDbSpline
210
0.0
220
0.0
230
1.0
 70
     8
 71
     3
 72
     9
 73
     5
 74
     0
 42
0.000000001
 43
0.00000001
 40
0.0
 40
0.0
 40
0.0
 40
0.0
 40
0.6697218751687879
 40
1.0
 40
1.0
 40
1.0
 40
1.0
 10
109.6106611560767
 20
177.1098319086762
 30
0.0
 10
109.4948832267115
 20
176.6605355125063
 30
0.0
 10
109.3220085847774
 20
175.9896653904028
 30
0.0
 10
109.3436403920976
 20
175.3139915066635
 30
0.0
 10
109.350784904856
 20
175.0908312033446
 30
0.0
  0
LINE
  5
C6
330
1F
100
AcDbEntity
  8
0
  6
Continuous
 62
   144
370
    18
100
AcDbLine
 10
109.2731796574
 20
182.9566571042
 30
0.0
 11
109.3141578506
 21
182.9566571042
 31
0.0
  0
SPLINE
  5
C7
330
1F
100
AcDbEntity
  8
0
  6
Continuous
 62
   144
370
    18
100
AcDbSpline
210
0.0
220
0.0
230
1.0
 70
    24
 71
     3
 72
     9
 73
     5
 74
     0
 42
0.000000001
 43
0.00000001
 40
0.0
 40
0.0
 40
0.0
 40
0.0
 40
0.4394614724585902
 40
0.9999999999999999
 40
0.9999999999999999
 40
0.9999999999999999
 40
0.9999999999999999
 10
109.3141578506415
 20
189.0076347272428
 30
0.0
 10
109.3141578506415
 20
189.1021268061419
 30
0.0
 10
109.3141578506415
 20
189.3171446969491
 30
0.0
 10
109.3141578506415
 20
189.3439015519573
 30
0.0
 10
109.3141578506415
 20
189.3588998000653
 30
0.0
  0
SPLINE
  5
C8
330
1F
100
AcDbEntity
  8
0
  6
Continuous
 62
   144
370
    18
100
AcDbSpline
210
0.0
220
0.0
230
1.0
 70
    24
 71
     3
 72
    13
 73
     9
 74
     0
 42
0.000000001
 43
0.00000001
 40
0.0
 40
0.0
 40
0.0
 40
0.0
 40
0.0531154331839034
 40
0.2897535698427229
 40
0.5263916343080223
 40
0.6846182315345088
 40
0.841773409252558
 40
1.0
 40
1.0
 40
1.0
 40
1.0
 10
109.2731796573585
 20
189.0093716438444
 30
0.0
 10
109.2731796573585
 20
188.9817068836862
 30
0.0
 10
109.2731796573584
 20
188.8307909909938
 30
0.0
 10
109.2731796573585
 20
188.3812526558911
 30
0.0
 10
109.2731796573585
 20
187.6820294065861
 30
0.0
 10
109.2731796573585
 20
186.9393830419787
 30
0.0
 10
109.2731796573585
 20
186.2291835749901
 30
0.0
 10
109.2731796573585
 20
185.7004029104641
 30
0.0
 10
109.2731796573585
 20
185.4351143929692
 30
0.0
  0
LINE
  5
C9
330
1F
100
AcDbEntity
  8
0
  6
Continuous
 62
   144
370
    18
100
AcDbLine
 10
109.2731796574
 20
182.9566571042
 30
0.0
 11
109.2731796574
 21
179.3630069233
 31
0.0
  0
SPLINE
  5
CA
330
1F
100
AcDbEntity
  8
0
  6
Continuous
 62
   144
370
    18
100
AcDbSpline
210
0.0
220
0.0
230
1.0
 70
    24
 71
     3
 72
    25
 73
    21
 74
     0
 42
0.000000001
 43
0.00000001
 40
0.0
 40
0.0
 40
0.0
 40
0.0
 40
0.0271493084551641
 40
0.0541728631939266
 40
0.0811062343719173
 40
0.107985350177153
 40
0.1348463565078616
 40
0.161725472320938
 40
0.1886588435145793
 40
0.2156823982767389
 40
0.242831706762954
 40
0.3714233636533746
 40
0.5000150205931434
 40
0.62860667750829
 40
0.7571983344239221
 40
0.8059689152369387
 40
0.8544242615279907
 40
0.9027740729162516
 40
0.9512294192066548
 40
1.0
 40
1.0
 40
1.0
 40
1.0
 10
109.2731773580604
 20
179.3630068850072
 30
0.0
 10
109.2731773580604
 20
179.265563473082
 30
0.0
 10
109.2731773580604
 20
179.0711280003666
 30
0.0
 10
109.2731773580604
 20
178.7833950273532
 30
0.0
 10
109.2731773580604
 20
178.4995916722029
 30
0.0
 10
109.2731773580604
 20
178.2199311679049
 30
0.0
 10
109.2731773580604
 20
177.9443588988629
 30
0.0
 10
109.2731773580604
 20
177.6728903603879
 30
0.0
 10
109.2731773580604
 20
177.4055270354714
 30
0.0
 10
109.2731773580604
 20
177.1422557611668
 30
0.0
 10
109.2731773580604
 20
176.5610549748645
 30
0.0
 10
109.2731773580604
 20
175.7110810973718
 30
0.0
 10
109.2731773580604
 20
174.72671882461
 30
0.0
 10
109.2731773580604
 20
173.9313582994662
 30
0.0
 10
109.2731773580604
 20
173.4767085988809
 30
0.0
 10
109.2731773580604
 20
173.2342400681709
 30
0.0
 10
109.2731773580604
 20
173.1116592614943
 30
0.0
 10
109.2731773580604
 20
173.0247922695665
 30
0.0
 10
109.2731773580604
 20
172.9704908461056
 30
0.0
 10
109.2731773580604
 20
172.9638563541922
 30
0.0
 10
109.2731773580604
 20
172.9605283527672
 30
0.0
  0
SPLINE
  5
CB
330
1F
100
AcDbEntity
  8
0
  6
Continuous
 62
   144
370
    18
100
AcDbSpline
210
0.0
220
0.0
230
1.0
 70
    24
 71
     3
 72
     9
 73
     5
 74
     0
 42
0.000000001
 43
0.00000001
 40
0.0
 40
0.0
 40
0.0
 40
0.0
 40
0.0627136618236106
 40
1.0
 40
1.0
 40
1.0
 40
1.0
 10
109.3141578506415
 20
172.9607642273934
 30
0.0
 10
109.3141578506415
 20
172.9606807799047
 30
0.0
 10
109.3141578506415
 20
172.9593501688979
 30
0.0
 10
109.3141578506415
 20
172.9617616992791
 30
0.0
 10
109.3141578506415
 20
172.9640219937594
 30
0.0
  0
SPLINE
  5
CC
330
1F
100
AcDbEntity
  8
0
  6
Continuous
 62
   144
370
    18
100
AcDbSpline
210
0.0
220
0.0
230
1.0
 70
    24
 71
     3
 72
    15
 73
    11
 74
     0
 42
0.000000001
 43
0.00000001
 40
0.0
 40
0.0
 40
0.0
 40
0.0
 40
0.1211164347749043
 40
0.2470225203636411
 40
0.3761250575056582
 40
0.5065624288443545
 40
0.6363550152019849
 40
0.7635806041959283
 40
0.8865376073312896
 40
0.9999999999999999
 40
0.9999999999999999
 40
0.9999999999999999
 40
0.9999999999999999
 10
109.2731796573585
 20
179.3630069233062
 30
0.0
 10
109.2731796573585
 20
178.9335362851758
 30
0.0
 10
109.2731796573585
 20
178.0576112329702
 30
0.0
 10
109.2731796573585
 20
176.8230693189444
 30
0.0
 10
109.2731796573585
 20
175.6818442669527
 30
0.0
 10
109.2731796573585
 20
174.6966229376284
 30
0.0
 10
109.2731796573585
 20
173.9103819053448
 30
0.0
 10
109.2731796573585
 20
173.3570244005664
 30
0.0
 10
109.2731796573585
 20
173.0240565919271
 30
0.0
 10
109.2731796573585
 20
172.9834904810469
 30
0.0
 10
109.2731796573585
 20
172.9640219937594
 30
0.0
  0
LINE
  5
CD
330
1F
100
AcDbEntity
  8
0
  6
Continuous
 62
   144
370
    18
100
AcDbLine
 10
109.2731796574
 20
172.9607642274
 30
0.0
 11
109.2731796574
 21
172.9644960369
 31
0.0
  0
LINE
  5
CE
330
1F
100
AcDbEntity
  8
0
  6
Continuous
 62
   144
370
    18
100
AcDbLine
 10
109.3141578506
 20
179.3630069233
 30
0.0
 11
109.2731796574
 21
179.3630069233
 31
0.0
  0
LINE
  5
CF
330
1F
100
AcDbEntity
  8
0
  6
Continuous
 62
   144
370
    18
100
AcDbLine
 10
64.3141560625
 20
158.159831969
 30
0.0
 11
109.3141578506
 21
158.159831969
 31
0.0
  0
LINE
  5
D0
330
1F
100
AcDbEntity
  8
0
  6
Continuous
 62
   144
370
    18
100
AcDbLine
 10
64.3141560625
 20
191.1598317902
 30
0.0
 11
64.3141560625
 21
158.159831969
 31
0.0
  0
LINE
  5
D1
330
1F
100
AcDbEntity
  8
0
  6
Continuous
 62
   144
370
    18
100
AcDbLine
 10
109.3141578506
 20
191.1598317902
 30
0.0
 11
64.3141560625
 21
191.1598317902
 31
0.0
  0
SPLINE
  5
D2
330
1F
100
AcDbEntity
  8
0
  6
Continuous
 62
   144
370
    18
100
AcDbSpline
210
0.0
220
0.0
230
1.0
 70
     8
 71
     3
 72
    16
 73
    12
 74
     0
 42
0.000000001
 43
0.00000001
 40
0.0
 40
0.0
 40
0.0
 40
0.0
 40
0.125
 40
0.125
 40
0.25
 40
0.25
 40
0.5
 40
0.5
 40
0.75
 40
0.75
 40
1.0
 40
1.0
 40
1.0
 40
1.0
 10
73.21415552451121
 20
186.6598308090643
 30
0.0
 10
73.21415545332638
 20
186.784063452761
 30
0.0
 10
73.22482819959929
 20
186.9082024664244
 30
0.0
 10
73.27155449483969
 20
187.1645671773496
 30
0.0
 10
73.30768573111217
 20
187.2946601742003
 30
0.0
 10
73.45764706809774
 20
187.6791885044021
 30
0.0
 10
73.61494803352898
 20
187.9273944382824
 30
0.0
 10
74.0218662698608
 20
188.3403108377609
 30
0.0
 10
74.270249450928
 20
188.5034963766425
 30
0.0
 10
74.79127493450736
 20
188.7129842391371
 30
0.0
 10
75.06220578028154
 20
188.7598320117294
 30
0.0
 10
75.31415552406042
 20
188.7598320117294
 30
0.0
  0
SPLINE
  5
D3
330
1F
100
AcDbEntity
  8
0
  6
Continuous
 62
   144
370
    18
100
AcDbSpline
210
0.0
220
0.0
230
1.0
 70
     8
 71
     3
 72
    14
 73
    10
 74
     0
 42
0.000000001
 43
0.00000001
 40
0.0
 40
0.0
 40
0.0
 40
0.0
 40
0.25
 40
0.25
 40
0.5
 40
0.5
 40
0.75
 40
0.75
 40
1.0
 40
1.0
 40
1.0
 40
1.0
 10
75.31415552428214
 20
184.5598320127294
 30
0.0
 10
75.06756123362105
 20
184.5598320127294
 30
0.0
 10
74.8013459350483
 20
184.6045923561713
 30
0.0
 10
74.28516946696465
 20
184.8082998324657
 30
0.0
 10
74.03678796985646
 20
184.9679685051627
 30
0.0
 10
73.62612557029446
 20
185.3774027275201
 30
0.0
 10
73.4652609658282
 20
185.625810534195
 30
0.0
 10
73.25960859894762
 20
186.1436455758611
 30
0.0
 10
73.21415566683406
 20
186.4114472608359
 30
0.0
 10
73.21415552451121
 20
186.6598308090643
 30
0.0
  0
SPLINE
  5
D4
330
1F
100
AcDbEntity
  8
0
  6
Continuous
 62
   144
370
    18
100
AcDbSpline
210
0.0
220
0.0
230
1.0
 70
     8
 71
     3
 72
    14
 73
    10
 74
     0
 42
0.000000001
 43
0.00000001
 40
0.0
 40
0.0
 40
0.0
 40
0.0
 40
0.25
 40
0.25
 40
0.5
 40
0.5
 40
0.75
 40
0.75
 40
1.0
 40
1.0
 40
1.0
 40
1.0
 10
95.31415552028209
 20
184.5598320127294
 30
0.0
 10
95.06756122962051
 20
184.5598320127294
 30
0.0
 10
94.80134593104825
 20
184.6045923561713
 30
0.0
 10
94.28516946296459
 20
184.8082998324657
 30
0.0
 10
94.03678796585643
 20
184.9679685051627
 30
0.0
 10
93.62612556629446
 20
185.3774027275201
 30
0.0
 10
93.46526096182819
 20
185.625810534195
 30
0.0
 10
93.25960859494761
 20
186.1436455758611
 30
0.0
 10
93.21415566283406
 20
186.4114472608359
 30
0.0
 10
93.21415552051123
 20
186.6598308090643
 30
0.0
  0
SPLINE
  5
D5
330
1F
100
AcDbEntity
  8
0
  6
Continuous
 62
   144
370
    18
100
AcDbSpline
210
0.0
220
0.0
230
1.0
 70
     8
 71
     3
 72
    16
 73
    12
 74
     0
 42
0.000000001
 43
0.00000001
 40
0.0
 40
0.0
 40
0.0
 40
0.0
 40
0.1249999999999997
 40
0.1249999999999997
 40
0.2499999999999994
 40
0.2499999999999994
 40
0.4999999999999997
 40
0.4999999999999997
 40
0.7499999999999999
 40
0.7499999999999999
 40
1.0
 40
1.0
 40
1.0
 40
1.0
 10
93.21415552051123
 20
186.6598308090643
 30
0.0
 10
93.2141554493264
 20
186.784063452761
 30
0.0
 10
93.22482819559927
 20
186.9082024664244
 30
0.0
 10
93.2715544908397
 20
187.1645671773496
 30
0.0
 10
93.30768572711222
 20
187.2946601742003
 30
0.0
 10
93.45764706409776
 20
187.6791885044021
 30
0.0
 10
93.61494802952897
 20
187.9273944382824
 30
0.0
 10
94.02186626586084
 20
188.3403108377609
 30
0.0
 10
94.27024944692805
 20
188.5034963766425
 30
0.0
 10
94.7912749305074
 20
188.7129842391371
 30
0.0
 10
95.0622057762816
 20
188.7598320117294
 30
0.0
 10
95.31415552006045
 20
188.7598320117294
 30
0.0
  0
LINE
  5
D6
330
1F
100
AcDbEntity
  8
0
  6
Continuous
 62
   144
370
    18
100
AcDbLine
 10
64.3141560625
 20
191.1598317902
 30
0.0
 11
109.3141578506
 21
191.1598317902
 31
0.0
  0
LINE
  5
D7
330
1F
100
AcDbEntity
  8
0
  6
Continuous
 62
   144
370
    18
100
AcDbLine
 10
64.3141560625
 20
158.159831969
 30
0.0
 11
64.3141560625
 21
191.1598317902
 31
0.0
  0
LINE
  5
D8
330
1F
100
AcDbEntity
  8
0
  6
Continuous
 62
   144
370
    18
100
AcDbLine
 10
109.3141578506
 20
158.159831969
 30
0.0
 11
64.3141560625
 21
158.159831969
 31
0.0
  0
LINE
  5
D9
330
1F
100
AcDbEntity
  8
0
  6
Continuous
 62
   144
370
    18
100
AcDbLine
 10
109.3141578506
 20
179.3630069233
 30
0.0
 11
109.3141578506
 21
158.159831969
 31
0.0
  0
LINE
  5
DA
330
1F
100
AcDbEntity
  8
0
  6
Continuous
 62
   144
370
    18
100
AcDbLine
 10
109.2731796574
 20
179.3630069233
 30
0.0
 11
109.3141578506
 21
179.3630069233
 31
0.0
  0
LINE
  5
DB
330
1F
100
AcDbEntity
  8
0
  6
Continuous
 62
   144
370
    18
100
AcDbLine
 10
109.2731796574
 20
182.9566571042
 30
0.0
 11
109.2731796574
 21
179.3630069233
 31
0.0
  0
LINE
  5
DC
330
1F
100
AcDbEntity
  8
0
  6
Continuous
 62
   144
370
    18
100
AcDbLine
 10
109.3141578506
 20
182.9566571042
 30
0.0
 11
109.2731796574
 21
182.9566571042
 31
0.0
  0
LINE
  5
DD
330
1F
100
AcDbEntity
  8
0
  6
Continuous
 62
   144
370
    18
100
AcDbLine
 10
109.3141578506
 20
191.1598317902
 30
0.0
 11
109.3141578506
 21
182.9566571042
 31
0.0
  0
SPLINE
  5
DE
330
1F
100
AcDbEntity
  8
0
  6
Continuous
 62
   144
370
    18
100
AcDbSpline
210
0.0
220
0.0
230
1.0
 70
     8
 71
     3
 72
    20
 73
    16
 74
     0
 42
0.000000001
 43
0.00000001
 40
0.0
 40
0.0
 40
0.0
 40
0.0
 40
0.0420033742080249
 40
0.0836457596064723
 40
0.1251064719713567
 40
0.1665671843296315
 40
0.2082095697083055
 40
0.2502129438836849
 40
0.3751401098935263
 40
0.5000672942013626
 40
0.62499446033098
 40
0.7499215635289149
 40
0.8335228983797814
 40
0.9163987045295817
 40
1.0
 40
1.0
 40
1.0
 40
1.0
 10
95.3141555201604
 20
188.7598320120985
 30
0.0
 10
95.2680048606392
 20
188.7589865879223
 30
0.0
 10
95.1761001733426
 20
188.7573030053831
 30
0.0
 10
95.03921344947211
 20
188.743490575521
 30
0.0
 10
94.90409281118009
 20
188.7213800633689
 30
0.0
 10
94.77074926467537
 20
188.6901869669006
 30
0.0
 10
94.63917642794938
 20
188.6501088628335
 30
0.0
 10
94.4247223254184
 20
188.5691872894441
 30
0.0
 10
94.13942789557409
 20
188.417807038595
 30
0.0
 10
93.81993543341434
 20
188.1540493994
 30
0.0
 10
93.55621562342259
 20
187.8345253662356
 30
0.0
 10
93.38309856766047
 20
187.5087132616504
 30
0.0
 10
93.27995413598056
 20
187.2050301562942
 30
0.0
 10
93.2242209929009
 20
186.9347592727206
 30
0.0
 10
93.21752041121223
 20
186.7517394905045
 30
0.0
 10
93.2141555201604
 20
186.659830809124
 30
0.0
  0
SPLINE
  5
DF
330
1F
100
AcDbEntity
  8
0
  6
Continuous
 62
   144
370
    18
100
AcDbSpline
210
0.0
220
0.0
230
1.0
 70
     8
 71
     3
 72
    20
 73
    16
 74
     0
 42
0.000000001
 43
0.00000001
 40
0.0
 40
0.0
 40
0.0
 40
0.0
 40
0.0420033513482637
 40
0.0836457143177605
 40
0.1251064044765148
 40
0.1665670946390793
 40
0.2082094576199587
 40
0.2502128089870287
 40
0.3751398879751888
 40
0.5000669487243253
 40
0.6249940276963162
 40
0.749921169671529
 40
0.8335225959026327
 40
0.9163985343036289
 40
0.9999999999999999
 40
0.9999999999999999
 40
0.9999999999999999
 40
0.9999999999999999
 10
97.41415551916042
 20
186.659833216124
 30
0.0
 10
97.4133101224424
 20
186.7059838319905
 30
0.0
 10
97.41162659457883
 20
186.7978884326105
 30
0.0
 10
97.39781426032803
 20
186.9347750344582
 30
0.0
 10
97.37570385319638
 20
187.0698955582784
 30
0.0
 10
97.34451087215577
 20
187.2032389983509
 30
0.0
 10
97.30443289354889
 20
187.3348117364997
 30
0.0
 10
97.22351155215243
 20
187.5492656703154
 30
0.0
 10
97.07213168934986
 20
187.8345598610643
 30
0.0
 10
96.8083745973908
 20
188.1540521340505
 30
0.0
 10
96.48885089190904
 20
188.4177717994045
 30
0.0
 10
96.16303883790853
 20
188.5908887360806
 30
0.0
 10
95.85935557465504
 20
188.6940331850048
 30
0.0
 10
95.58908438346836
 20
188.7497664006611
 30
0.0
 10
95.40606434857816
 20
188.7564670741891
 30
0.0
 10
95.3141555201604
 20
188.7598320120985
 30
0.0
  0
SPLINE
  5
E0
330
1F
100
AcDbEntity
  8
0
  6
Continuous
 62
   144
370
    18
100
AcDbSpline
210
0.0
220
0.0
230
1.0
 70
     8
 71
     3
 72
    20
 73
    16
 74
     0
 42
0.000000001
 43
0.00000001
 40
0.0
 40
0.0
 40
0.0
 40
0.0
 40
0.0420033741335373
 40
0.0836457594913114
 40
0.1251064718491914
 40
0.166567184233505
 40
0.2082095696702335
 40
0.2502129439342287
 40
0.3751401097722737
 40
0.5000672940505171
 40
0.6249944602091392
 40
0.7499215634360803
 40
0.8335228983498231
 40
0.9163987045188661
 40
1.0
 40
1.0
 40
1.0
 40
1.0
 10
95.3141555201604
 20
184.5598320131494
 30
0.0
 10
95.36030617958903
 20
184.5606774373263
 30
0.0
 10
95.45221086673774
 20
184.5623610198678
 30
0.0
 10
95.58909759044099
 20
184.5761734497342
 30
0.0
 10
95.7242182286753
 20
184.5982839618904
 30
0.0
 10
95.85756177523487
 20
184.6294770583578
 30
0.0
 10
95.98913461211731
 20
184.6695551624424
 30
0.0
 10
96.20358871467039
 20
184.7504767355604
 30
0.0
 10
96.48888314408113
 20
184.9018569868643
 30
0.0
 10
96.80837560591532
 20
185.1656146259059
 30
0.0
 10
97.07209541596887
 20
185.485138658988
 30
0.0
 10
97.24521247146815
 20
185.8109507637167
 30
0.0
 10
97.34835690387791
 20
186.114633868863
 30
0.0
 10
97.40409004694637
 20
186.3849047525218
 30
0.0
 10
97.41079062828469
 20
186.5679245347447
 30
0.0
 10
97.41415551916042
 20
186.659833216124
 30
0.0
  0
SPLINE
  5
E1
330
1F
100
AcDbEntity
  8
0
  6
Continuous
 62
   144
370
    18
100
AcDbSpline
210
0.0
220
0.0
230
1.0
 70
     8
 71
     3
 72
    20
 73
    16
 74
     0
 42
0.000000001
 43
0.00000001
 40
0.0
 40
0.0
 40
0.0
 40
0.0
 40
0.0420033513296244
 40
0.0836457142638283
 40
0.1251064043709159
 40
0.1665670944659438
 40
0.2082094573641264
 40
0.250212808634228
 40
0.3751398877928128
 40
0.5000669485701651
 40
0.6249940276289581
 40
0.7499211694399224
 40
0.8335225958102764
 40
0.9163985342903126
 40
1.0
 40
1.0
 40
1.0
 40
1.0
 10
93.2141555201604
 20
186.659830809124
 30
0.0
 10
93.21500091687798
 20
186.6136801932666
 30
0.0
 10
93.21668444474047
 20
186.5217755926835
 30
0.0
 10
93.23049677898926
 20
186.3848889909186
 30
0.0
 10
93.25260718611857
 20
186.2497684672356
 30
0.0
 10
93.28380016716154
 20
186.1164250273576
 30
0.0
 10
93.32387814575365
 20
185.9848522894507
 30
0.0
 10
93.4047994874194
 20
185.7703983556929
 30
0.0
 10
93.55617934977829
 20
185.4851041645427
 30
0.0
 10
93.81993644187997
 20
185.1656118910139
 30
0.0
 10
94.13946014780974
 20
184.9018922261968
 30
0.0
 10
94.46527220163807
 20
184.7287752888874
 30
0.0
 10
94.76895546517997
 20
184.6256308403059
 30
0.0
 10
95.03922665666585
 20
184.5698976245897
 30
0.0
 10
95.22224669170446
 20
184.5631969510588
 30
0.0
 10
95.31415552016041
 20
184.5598320131494
 30
0.0
  0
SPLINE
  5
E2
330
1F
100
AcDbEntity
  8
0
  6
Continuous
 62
   144
370
    18
100
AcDbSpline
210
0.0
220
0.0
230
1.0
 70
     8
 71
     3
 72
    20
 73
    16
 74
     0
 42
0.000000001
 43
0.00000001
 40
0.0
 40
0.0
 40
0.0
 40
0.0
 40
0.0420033742080271
 40
0.0836457596064682
 40
0.1251064719713528
 40
0.1665671843296277
 40
0.2082095697083037
 40
0.2502129438836831
 40
0.3751401098935286
 40
0.5000672942013618
 40
0.6249944603309776
 40
0.749921563528915
 40
0.8335228983797811
 40
0.9163987045295818
 40
1.0
 40
1.0
 40
1.0
 40
1.0
 10
75.3141555241604
 20
188.7598320120985
 30
0.0
 10
75.26800486463921
 20
188.7589865879223
 30
0.0
 10
75.17610017734262
 20
188.7573030053831
 30
0.0
 10
75.03921345347213
 20
188.743490575521
 30
0.0
 10
74.90409281518009
 20
188.7213800633689
 30
0.0
 10
74.7707492686754
 20
188.6901869669006
 30
0.0
 10
74.63917643194935
 20
188.6501088628334
 30
0.0
 10
74.42472232941842
 20
188.5691872894441
 30
0.0
 10
74.13942789957406
 20
188.4178070385951
 30
0.0
 10
73.81993543741433
 20
188.1540493994
 30
0.0
 10
73.55621562742262
 20
187.8345253662356
 30
0.0
 10
73.38309857166045
 20
187.5087132616504
 30
0.0
 10
73.27995413998059
 20
187.2050301562942
 30
0.0
 10
73.2242209969009
 20
186.9347592727206
 30
0.0
 10
73.21752041521223
 20
186.7517394905045
 30
0.0
 10
73.21415552416042
 20
186.659830809124
 30
0.0
  0
SPLINE
  5
E3
330
1F
100
AcDbEntity
  8
0
  6
Continuous
 62
   144
370
    18
100
AcDbSpline
210
0.0
220
0.0
230
1.0
 70
     8
 71
     3
 72
    20
 73
    16
 74
     0
 42
0.000000001
 43
0.00000001
 40
0.0
 40
0.0
 40
0.0
 40
0.0
 40
0.0420033513482631
 40
0.0836457143177605
 40
0.1251064044765144
 40
0.1665670946390794
 40
0.2082094576199578
 40
0.25021280898703
 40
0.375139887975189
 40
0.5000669487243269
 40
0.6249940276963144
 40
0.7499211696715253
 40
0.8335225959026328
 40
0.916398534303625
 40
1.0
 40
1.0
 40
1.0
 40
1.0
 10
77.41415552316042
 20
186.659833216124
 30
0.0
 10
77.41331012644243
 20
186.7059838319905
 30
0.0
 10
77.41162659857886
 20
186.7978884326105
 30
0.0
 10
77.39781426432805
 20
186.9347750344582
 30
0.0
 10
77.37570385719638
 20
187.0698955582784
 30
0.0
 10
77.3445108761558
 20
187.2032389983509
 30
0.0
 10
77.30443289754889
 20
187.3348117364997
 30
0.0
 10
77.22351155615243
 20
187.5492656703154
 30
0.0
 10
77.07213169334989
 20
187.8345598610643
 30
0.0
 10
76.80837460139078
 20
188.1540521340505
 30
0.0
 10
76.48885089590904
 20
188.4177717994045
 30
0.0
 10
76.16303884190853
 20
188.5908887360806
 30
0.0
 10
75.85935557865506
 20
188.6940331850048
 30
0.0
 10
75.58908438746835
 20
188.7497664006611
 30
0.0
 10
75.40606435257818
 20
188.7564670741891
 30
0.0
 10
75.3141555241604
 20
188.7598320120985
 30
0.0
  0
SPLINE
  5
E4
330
1F
100
AcDbEntity
  8
0
  6
Continuous
 62
   144
370
    18
100
AcDbSpline
210
0.0
220
0.0
230
1.0
 70
     8
 71
     3
 72
    20
 73
    16
 74
     0
 42
0.000000001
 43
0.00000001
 40
0.0
 40
0.0
 40
0.0
 40
0.0
 40
0.0420033741335373
 40
0.0836457594913114
 40
0.1251064718491934
 40
0.1665671842335091
 40
0.2082095696702335
 40
0.2502129439342287
 40
0.3751401097722736
 40
0.5000672940505153
 40
0.6249944602091387
 40
0.7499215634360789
 40
0.8335228983498236
 40
0.9163987045188658
 40
1.0
 40
1.0
 40
1.0
 40
1.0
 10
75.3141555241604
 20
184.5598320131494
 30
0.0
 10
75.36030618358905
 20
184.5606774373263
 30
0.0
 10
75.45221087073776
 20
184.5623610198678
 30
0.0
 10
75.58909759444099
 20
184.5761734497342
 30
0.0
 10
75.7242182326753
 20
184.5982839618904
 30
0.0
 10
75.85756177923487
 20
184.6294770583578
 30
0.0
 10
75.98913461611731
 20
184.6695551624424
 30
0.0
 10
76.20358871867039
 20
184.7504767355604
 30
0.0
 10
76.48888314808114
 20
184.9018569868643
 30
0.0
 10
76.80837560991533
 20
185.165614625906
 30
0.0
 10
77.07209541996883
 20
185.485138658988
 30
0.0
 10
77.24521247546816
 20
185.8109507637167
 30
0.0
 10
77.34835690787791
 20
186.114633868863
 30
0.0
 10
77.40409005094637
 20
186.3849047525218
 30
0.0
 10
77.41079063228469
 20
186.5679245347447
 30
0.0
 10
77.41415552316042
 20
186.659833216124
 30
0.0
  0
SPLINE
  5
E5
330
1F
100
AcDbEntity
  8
0
  6
Continuous
 62
   144
370
    18
100
AcDbSpline
210
0.0
220
0.0
230
1.0
 70
     8
 71
     3
 72
    20
 73
    16
 74
     0
 42
0.000000001
 43
0.00000001
 40
0.0
 40
0.0
 40
0.0
 40
0.0
 40
0.0420033513296244
 40
0.0836457142638283
 40
0.125106404370916
 40
0.1665670944659441
 40
0.2082094573641246
 40
0.2502128086342285
 40
0.3751398877928125
 40
0.5000669485701662
 40
0.6249940276289594
 40
0.7499211694399238
 40
0.8335225958102741
 40
0.9163985342903125
 40
1.0
 40
1.0
 40
1.0
 40
1.0
 10
73.21415552416042
 20
186.659830809124
 30
0.0
 10
73.21500092087801
 20
186.6136801932666
 30
0.0
 10
73.21668444874047
 20
186.5217755926835
 30
0.0
 10
73.23049678298923
 20
186.3848889909185
 30
0.0
 10
73.25260719011858
 20
186.2497684672356
 30
0.0
 10
73.28380017116157
 20
186.1164250273576
 30
0.0
 10
73.32387814975363
 20
185.9848522894507
 30
0.0
 10
73.40479949141942
 20
185.7703983556929
 30
0.0
 10
73.55617935377829
 20
185.4851041645427
 30
0.0
 10
73.81993644587996
 20
185.1656118910139
 30
0.0
 10
74.13946015180974
 20
184.9018922261968
 30
0.0
 10
74.46527220563807
 20
184.7287752888874
 30
0.0
 10
74.76895546917994
 20
184.6256308403059
 30
0.0
 10
75.03922666066588
 20
184.5698976245897
 30
0.0
 10
75.22224669570446
 20
184.5631969510588
 30
0.0
 10
75.3141555241604
 20
184.5598320131494
 30
0.0
  0
LINE
  5
E6
330
1F
100
AcDbEntity
  8
0
  6
Continuous
 62
   144
370
    18
100
AcDbLine
 10
109.3141578506
 20
158.159831969
 30
0.0
 11
109.3141578506
 21
179.3630069233
 31
0.0
  0
LINE
  5
E7
330
1F
100
AcDbEntity
  8
0
  6
Continuous
 62
   144
370
    18
100
AcDbLine
 10
109.3141578506
 20
182.9566571042
 30
0.0
 11
109.3141578506
 21
191.1598317902
 31
0.0
  0
SPLINE
  5
E8
330
1F
100
AcDbEntity
  8
0
  6
Continuous
 62
   144
370
    18
100
AcDbSpline
210
0.0
220
0.0
230
1.0
 70
     8
 71
     3
 72
    11
 73
     7
 74
     0
 42
0.000000001
 43
0.00000001
 40
0.0
 40
0.0
 40
0.0
 40
0.0
 40
0.2574997452046743
 40
0.5093492209958381
 40
0.75649911443591
 40
1.0
 40
1.0
 40
1.0
 40
1.0
 10
64.02399233623609
 20
181.1598320141646
 30
0.0
 10
64.04653502231625
 20
181.0100343161638
 30
0.0
 10
64.09112574447386
 20
180.7137259034193
 30
0.0
 10
64.14845053258234
 20
180.2727048725411
 30
0.0
 10
64.19834550877707
 20
179.839216020361
 30
0.0
 10
64.22455837932468
 20
179.5522486160615
 30
0.0
 10
64.2375673410234
 20
179.4098320133268
 30
0.0
  0
SPLINE
  5
E9
330
1F
100
AcDbEntity
  8
0
  6
Continuous
 62
   144
370
    18
100
AcDbSpline
210
0.0
220
0.0
230
1.0
 70
     8
 71
     3
 72
    13
 73
     9
 74
     0
 42
0.000000001
 43
0.00000001
 40
0.0
 40
0.0
 40
0.0
 40
0.0
 40
0.1238814816462475
 40
0.2477559577883558
 40
0.3724650872620743
 40
0.4988179998163619
 40
0.7446387138820142
 40
1.0
 40
1.0
 40
1.0
 40
1.0
 10
64.31415552603141
 20
184.6598320135354
 30
0.0
 10
64.31323693633546
 20
184.514801532688
 30
0.0
 10
64.31139980888985
 20
184.2247487724742
 30
0.0
 10
64.29642543687766
 20
183.788844717099
 30
0.0
 10
64.27254145563671
 20
183.3505175212101
 30
0.0
 10
64.22828407784701
 20
182.7702491670435
 30
0.0
 10
64.15252718336441
 20
182.0383722964673
 30
0.0
 10
64.06737759186915
 20
181.4563717898224
 30
0.0
 10
64.02399233623609
 20
181.1598320141646
 30
0.0
  0
SPLINE
  5
EA
330
1F
100
AcDbEntity
  8
0
  6
Continuous
 62
   144
370
    18
100
AcDbSpline
210
0.0
220
0.0
230
1.0
 70
     8
 71
     3
 72
    11
 73
     7
 74
     0
 42
0.000000001
 43
0.00000001
 40
0.0
 40
0.0
 40
0.0
 40
0.0
 40
0.2575161187198768
 40
0.5093746790202113
 40
0.756520919072686
 40
1.0
 40
1.0
 40
1.0
 40
1.0
 10
64.02399233609607
 20
188.1598320136507
 30
0.0
 10
64.04653632676333
 20
188.0100175726399
 30
0.0
 10
64.09112902281298
 20
187.7136800727512
 30
0.0
 10
64.14845445570361
 20
187.2726051046754
 30
0.0
 10
64.19834793222984
 20
186.839156853455
 30
0.0
 10
64.22455951043266
 20
186.5522254079289
 30
0.0
 10
64.23756734084331
 20
186.4098320139102
 30
0.0
  0
SPLINE
  5
EB
330
1F
100
AcDbEntity
  8
0
  6
Continuous
 62
   144
370
    18
100
AcDbSpline
210
0.0
220
0.0
230
1.0
 70
     8
 71
     3
 72
    13
 73
     9
 74
     0
 42
0.000000001
 43
0.00000001
 40
0.0
 40
0.0
 40
0.0
 40
0.0
 40
0.1238863829471218
 40
0.2477603517464636
 40
0.372466745889576
 40
0.4988180012106344
 40
0.7446517833621823
 40
1.0
 40
1.0
 40
1.0
 40
1.0
 10
64.31415552577761
 20
177.6598320136677
 30
0.0
 10
64.31323698695364
 20
177.5148393455032
 30
0.0
 10
64.31140000134872
 20
177.2248685382965
 30
0.0
 10
64.29642565697868
 20
176.7891189180966
 30
0.0
 10
64.27254133256682
 20
176.3506358539887
 30
0.0
 10
64.22828239252715
 20
175.7701536409791
 30
0.0
 10
64.15252625813756
 20
175.0384507317964
 30
0.0
 10
64.06737580857057
 20
174.4563882099314
 30
0.0
 10
64.02399233610876
 20
174.1598320142003
 30
0.0
  0
SPLINE
  5
EC
330
1F
100
AcDbEntity
  8
0
  6
Continuous
 62
   144
370
    18
100
AcDbSpline
210
0.0
220
0.0
230
1.0
 70
     8
 71
     3
 72
     9
 73
     5
 74
     0
 42
0.000000001
 43
0.00000001
 40
0.0
 40
0.0
 40
0.0
 40
0.0
 40
0.9973954556348658
 40
1.0
 40
1.0
 40
1.0
 40
1.0
 10
64.02399320115501
 20
174.1598317976625
 30
0.0
 10
64.11780758996544
 20
174.1598322629197
 30
0.0
 10
64.21186696057957
 20
174.1598327293916
 30
0.0
 10
64.23755307270173
 20
174.1598327289862
 30
0.0
 10
64.2376199733203
 20
174.1598327289851
 30
0.0
  0
SPLINE
  5
ED
330
1F
100
AcDbEntity
  8
0
  6
Continuous
 62
   144
370
    18
100
AcDbSpline
210
0.0
220
0.0
230
1.0
 70
     8
 71
     3
 72
    11
 73
     7
 74
     0
 42
0.000000001
 43
0.00000001
 40
0.0
 40
0.0
 40
0.0
 40
0.0
 40
0.2574997451829835
 40
0.5093492209668149
 40
0.7564991144141934
 40
1.0
 40
1.0
 40
1.0
 40
1.0
 10
57.60431871601796
 20
174.1598320136417
 30
0.0
 10
57.58177602992449
 20
174.3096371096027
 30
0.0
 10
57.53718530773932
 20
174.6059601559434
 30
0.0
 10
57.47986051959791
 20
175.0470230936554
 30
0.0
 10
57.42996554337437
 20
175.4804801175146
 30
0.0
 10
57.40375267281275
 20
175.7674260615359
 30
0.0
 10
57.39074371110667
 20
175.9098320139367
 30
0.0
  0
LINE
  5
EE
330
1F
100
AcDbEntity
  8
0
  6
Continuous
 62
   144
370
    18
100
AcDbLine
 10
57.6043196391
 20
181.1598320138
 30
0.0
 11
57.4164942275
 21
182.6988401236
 31
0.0
  0
SPLINE
  5
EF
330
1F
100
AcDbEntity
  8
0
  6
Continuous
 62
   144
370
    18
100
AcDbSpline
210
0.0
220
0.0
230
1.0
 70
     8
 71
     3
 72
    13
 73
     9
 74
     0
 42
0.000000001
 43
0.00000001
 40
0.0
 40
0.0
 40
0.0
 40
0.0
 40
0.1238863829317803
 40
0.2477603517202284
 40
0.3724667458569539
 40
0.4988180011761684
 40
0.7446517833368065
 40
1.0
 40
1.0
 40
1.0
 40
1.0
 10
57.3141555260894
 20
177.6598320134485
 30
0.0
 10
57.31507406491382
 20
177.8048684602901
 30
0.0
 10
57.31691105051966
 20
178.0949268204693
 30
0.0
 10
57.33188539489644
 20
178.5308337025003
 30
0.0
 10
57.35576971931891
 20
178.9691543608664
 30
0.0
 10
57.40002865937871
 20
179.5494313924259
 30
0.0
 10
57.4757847938038
 20
180.281309033017
 30
0.0
 10
57.56093524340444
 20
180.8633081316427
 30
0.0
 10
57.60431871588474
 20
181.1598320137503
 30
0.0
  0
SPLINE
  5
F0
330
1F
100
AcDbEntity
  8
0
  6
Continuous
 62
   144
370
    18
100
AcDbSpline
210
0.0
220
0.0
230
1.0
 70
     8
 71
     3
 72
    13
 73
     9
 74
     0
 42
0.000000001
 43
0.00000001
 40
0.0
 40
0.0
 40
0.0
 40
0.0
 40
0.1238814817129252
 40
0.2477559578767314
 40
0.3724650873236059
 40
0.4988179998001422
 40
0.7446387138700248
 40
1.0
 40
1.0
 40
1.0
 40
1.0
 10
57.31415552655961
 20
184.6598320135083
 30
0.0
 10
57.3150741162541
 20
184.8048191694002
 30
0.0
 10
57.31691124369645
 20
185.0947852821003
 30
0.0
 10
57.33188561568958
 20
185.5305338287658
 30
0.0
 10
57.35576959689794
 20
185.9690218519056
 30
0.0
 10
57.40002697466761
 20
186.5494925696671
 30
0.0
 10
57.47578386903696
 20
187.2811999823043
 30
0.0
 10
57.56093346043477
 20
187.863261269296
 30
0.0
 10
57.60431871601882
 20
188.1598320136432
 30
0.0
  0
SPLINE
  5
F1
330
1F
100
AcDbEntity
  8
0
  6
Continuous
 62
   144
370
    18
100
AcDbSpline
210
0.0
220
0.0
230
1.0
 70
     8
 71
     3
 72
     9
 73
     5
 74
     0
 42
0.000000001
 43
0.00000001
 40
0.0
 40
0.0
 40
0.0
 40
0.0
 40
0.997419776913427
 40
1.0
 40
1.0
 40
1.0
 40
1.0
 10
57.60431963910514
 20
188.1598322297962
 30
0.0
 10
57.51050509728686
 20
188.1598317645355
 30
0.0
 10
57.4164478668311
 20
188.1598312980711
 30
0.0
 10
57.39075914956121
 20
188.1598312984726
 30
0.0
 10
57.39069286693984
 20
188.1598312984736
 30
0.0
  0
SPLINE
  5
F2
330
1F
100
AcDbEntity
  8
0
  6
Continuous
 62
   144
370
    18
100
AcDbSpline
210
0.0
220
0.0
230
1.0
 70
    24
 71
     3
 72
    26
 73
    22
 74
     0
 42
0.000000001
 43
0.00000001
 40
0.0
 40
0.0
 40
0.0
 40
0.0
 40
0.0206788215516793
 40
0.0413141761482077
 40
0.0619277628758344
 40
0.0825413495633802
 40
0.1031767040397926
 40
0.1238555253917
 40
0.1869773910377587
 40
0.2500992570707545
 40
0.3132211238640388
 40
0.3763429917683305
 40
0.5000081846707684
 40
0.6236733722516052
 40
0.6867952325551849
 40
0.7499170881830881
 40
0.8130389394610449
 40
0.8761607868475384
 40
0.9174695379966337
 40
0.9586912510898405
 40
1.0
 40
1.0
 40
1.0
 40
1.0
 10
38.3141555260604
 20
188.6598320972754
 30
0.0
 10
38.3141555260604
 20
188.6590785382885
 30
0.0
 10
38.3141555260604
 20
188.6575730042983
 30
0.0
 10
38.3141555260604
 20
188.6453534316766
 30
0.0
 10
38.3141555260604
 20
188.625834372499
 30
0.0
 10
38.3141555260604
 20
188.5983061704144
 30
0.0
 10
38.3141555260604
 20
188.5629557933345
 30
0.0
 10
38.3141555260604
 20
188.4902374311416
 30
0.0
 10
38.3141555260604
 20
188.3508955697865
 30
0.0
 10
38.3141555260604
 20
188.1002147422258
 30
0.0
 10
38.3141555260604
 20
187.7818134047232
 30
0.0
 10
38.3141555260604
 20
187.2755148146634
 30
0.0
 10
38.3141555260604
 20
186.4967742153936
 30
0.0
 10
38.3141555260604
 20
185.549119060174
 30
0.0
 10
38.3141555260604
 20
184.707537085839
 30
0.0
 10
38.3141555260604
 20
184.0346158320045
 30
0.0
 10
38.3141555260604
 20
183.3337361323831
 30
0.0
 10
38.3141555260604
 20
182.6944659787545
 30
0.0
 10
38.3141555260604
 20
182.1300015345767
 30
0.0
 10
38.3141555260604
 20
181.6459301364325
 30
0.0
 10
38.3141555260604
 20
181.321977751533
 30
0.0
 10
38.3141555260604
 20
181.159830740577
 30
0.0
  0
SPLINE
  5
F3
330
1F
100
AcDbEntity
  8
0
  6
Continuous
 62
   144
370
    18
100
AcDbSpline
210
0.0
220
0.0
230
1.0
 70
    24
 71
     3
 72
    26
 73
    22
 74
     0
 42
0.000000001
 43
0.00000001
 40
0.0
 40
0.0
 40
0.0
 40
0.0
 40
0.0206788178164508
 40
0.0413141687757238
 40
0.061927751956217
 40
0.0825413351786028
 40
0.1031766862634209
 40
0.1238555042886739
 40
0.1869773608706072
 40
0.2500992170503314
 40
0.3132210725167036
 40
0.3763429268887846
 40
0.5000080822689978
 40
0.6236732429752175
 40
0.6867951048918167
 40
0.7499169714790332
 40
0.8130388424359564
 40
0.8761607173370689
 40
0.9174694893810035
 40
0.9586912256999113
 40
1.0
 40
1.0
 40
1.0
 40
1.0
 10
38.3141555260604
 20
181.159830740577
 30
0.0
 10
38.3141555260604
 20
181.0786719103025
 30
0.0
 10
38.3141555260604
 20
180.9165248455445
 30
0.0
 10
38.3141555260604
 20
180.6737285578152
 30
0.0
 10
38.3141555260604
 20
180.4316976703306
 30
0.0
 10
38.3141555260604
 20
180.1904347607596
 30
0.0
 10
38.3141555260604
 20
179.9499337954825
 30
0.0
 10
38.3141555260604
 20
179.5465268994108
 30
0.0
 10
38.3141555260604
 20
178.9859096328809
 30
0.0
 10
38.3141555260604
 20
178.285049797528
 30
0.0
 10
38.3141555260604
 20
177.6121233826516
 30
0.0
 10
38.3141555260604
 20
176.7705432874929
 30
0.0
 10
38.3141555260604
 20
175.8228884232534
 30
0.0
 10
38.3141555260604
 20
175.044146049692
 30
0.0
 10
38.3141555260604
 20
174.5378529812917
 30
0.0
 10
38.3141555260604
 20
174.2194359616951
 30
0.0
 10
38.3141555260604
 20
173.9688151340302
 30
0.0
 10
38.3141555260604
 20
173.8097104259231
 30
0.0
 10
38.3141555260604
 20
173.7178335596114
 30
0.0
 10
38.3141555260604
 20
173.6688590968346
 30
0.0
 10
38.3141555260604
 20
173.6628431003856
 30
0.0
 10
38.3141555260604
 20
173.6598319298786
 30
0.0
  0
SPLINE
  5
F4
330
1F
100
AcDbEntity
  8
0
  6
Continuous
 62
   144
370
    18
100
AcDbSpline
210
0.0
220
0.0
230
1.0
 70
     8
 71
     3
 72
    14
 73
    10
 74
     0
 42
0.000000001
 43
0.00000001
 40
0.0
 40
0.0
 40
0.0
 40
0.0
 40
0.25
 40
0.25
 40
0.5
 40
0.5
 40
0.75
 40
0.75
 40
1.0
 40
1.0
 40
1.0
 40
1.0
 10
38.31415552578888
 20
188.6598320980379
 30
0.0
 10
38.31415553574597
 20
188.7187576602522
 30
0.0
 10
38.32489491483949
 20
188.7823309684024
 30
0.0
 10
38.3736278881529
 20
188.9054279008392
 30
0.0
 10
38.4117866348239
 20
188.9645699135051
 30
0.0
 10
38.50941770585583
 20
189.0622009651548
 30
0.0
 10
38.5685597249321
 20
189.1003596990451
 30
0.0
 10
38.69165666181308
 20
189.1490926470192
 30
0.0
 10
38.75522996812285
 20
189.1598320137294
 30
0.0
 10
38.81415552622542
 20
189.1598320137294
 30
0.0
  0
SPLINE
  5
F5
330
1F
100
AcDbEntity
  8
0
  6
Continuous
 62
   144
370
    18
100
AcDbSpline
210
0.0
220
0.0
230
1.0
 70
     8
 71
     3
 72
    14
 73
    10
 74
     0
 42
0.000000001
 43
0.00000001
 40
0.0
 40
0.0
 40
0.0
 40
0.0
 40
0.25
 40
0.25
 40
0.5
 40
0.5
 40
0.75
 40
0.75
 40
1.0
 40
1.0
 40
1.0
 40
1.0
 10
38.81415552622542
 20
173.1598320137294
 30
0.0
 10
38.75522996812285
 20
173.1598320137294
 30
0.0
 10
38.69165666181308
 20
173.1705713804396
 30
0.0
 10
38.5685597249321
 20
173.2193043284137
 30
0.0
 10
38.50941770585583
 20
173.257463062304
 30
0.0
 10
38.4117866348239
 20
173.3550941139537
 30
0.0
 10
38.3736278881529
 20
173.4142361266196
 30
0.0
 10
38.32489491483949
 20
173.5373330590564
 30
0.0
 10
38.31415553574597
 20
173.6009063672066
 30
0.0
 10
38.31415552578888
 20
173.6598319294209
 30
0.0
  0
LINE
  5
F6
330
1F
100
AcDbEntity
  8
0
  6
Continuous
 62
   144
370
    18
100
AcDbLine
 10
57.3141549151
 20
173.1598316337
 30
0.0
 11
38.8141555498
 21
173.1598316337
 31
0.0
  0
LINE
  5
F7
330
1F
100
AcDbEntity
  8
0
  6
Continuous
 62
   144
370
    18
100
AcDbLine
 10
38.8141555498
 20
189.1598323937
 30
0.0
 11
57.3141549151
 21
189.1598323937
 31
0.0
  0
SPLINE
  5
F8
330
1F
100
AcDbEntity
  8
0
  6
Continuous
 62
   144
370
    18
100
AcDbSpline
210
0.0
220
0.0
230
1.0
 70
    24
 71
     3
 72
    26
 73
    22
 74
     0
 42
0.000000001
 43
0.00000001
 40
0.0
 40
0.0
 40
0.0
 40
0.0
 40
0.0206788255565792
 40
0.041314183966712
 40
0.0619277743026157
 40
0.0825413643796728
 40
0.1031767220140836
 40
0.1238555462805106
 40
0.1869774199259004
 40
0.2500992899626245
 40
0.3132211560257271
 40
0.3763430178606595
 40
0.5000081798707712
 40
0.623673337023279
 40
0.6867951919850976
 40
0.749917047956492
 40
0.8130389046114733
 40
0.8761607616079146
 40
0.9174695202098083
 40
0.9586912417539838
 40
1.0
 40
1.0
 40
1.0
 40
1.0
 10
57.31415552606041
 20
173.1598320137294
 30
0.0
 10
57.3141555260604
 20
173.1606357950002
 30
0.0
 10
57.3141555260604
 20
173.1622416679836
 30
0.0
 10
57.31415552606041
 20
173.1752758299777
 30
0.0
 10
57.31415552606041
 20
173.1960961082156
 30
0.0
 10
57.31415552606041
 20
173.2254594691799
 30
0.0
 10
57.31415552606041
 20
173.2631664804816
 30
0.0
 10
57.31415552606041
 20
173.3407326312678
 30
0.0
 10
57.3141555260604
 20
173.489363789043
 30
0.0
 10
57.31415552606041
 20
173.7567564446962
 30
0.0
 10
57.31415552606041
 20
174.0963842852882
 30
0.0
 10
57.3141555260604
 20
174.6364357185959
 30
0.0
 10
57.31415552606041
 20
175.4670918348586
 30
0.0
 10
57.3141555260604
 20
176.4779235805343
 30
0.0
 10
57.31415552606041
 20
177.3756107468567
 30
0.0
 10
57.3141555260604
 20
178.093393311886
 30
0.0
 10
57.31415552606041
 20
178.840998275665
 30
0.0
 10
57.3141555260604
 20
179.5228864309385
 30
0.0
 10
57.31415552606042
 20
180.1249818567603
 30
0.0
 10
57.3141555260604
 20
180.6413247138204
 30
0.0
 10
57.31415552606041
 20
180.9868739536029
 30
0.0
 10
57.31415552606041
 20
181.1598307817294
 30
0.0
  0
SPLINE
  5
F9
330
1F
100
AcDbEntity
  8
0
  6
Continuous
 62
   144
370
    18
100
AcDbSpline
210
0.0
220
0.0
230
1.0
 70
    24
 71
     3
 72
    26
 73
    22
 74
     0
 42
0.000000001
 43
0.00000001
 40
0.0
 40
0.0
 40
0.0
 40
0.0
 40
0.0206788138297458
 40
0.0413141609835507
 40
0.0619277405541666
 40
0.0825413203760574
 40
0.1031766682828926
 40
0.1238554833650512
 40
0.1869773320181379
 40
0.2500991841972489
 40
0.3132210403448605
 40
0.3763429007008235
 40
0.5000080870295657
 40
0.6236732781802976
 40
0.6867951454546215
 40
0.7499170117111962
 40
0.8130388772805751
 40
0.8761607425081251
 40
0.9174695071401022
 40
0.958691235031658
 40
1.0
 40
1.0
 40
1.0
 40
1.0
 10
57.31415552606041
 20
181.1598307817294
 30
0.0
 10
57.3141555260604
 20
181.2464001932287
 30
0.0
 10
57.3141555260604
 20
181.4193570481226
 30
0.0
 10
57.31415552606042
 20
181.6783397363583
 30
0.0
 10
57.3141555260604
 20
181.9365060008633
 30
0.0
 10
57.31415552606041
 20
182.193853092237
 30
0.0
 10
57.31415552606041
 20
182.4503874463165
 30
0.0
 10
57.3141555260604
 20
182.880688129251
 30
0.0
 10
57.31415552606041
 20
183.4786798925429
 30
0.0
 10
57.31415552606041
 20
184.226263763354
 30
0.0
 10
57.3141555260604
 20
184.9440520377729
 30
0.0
 10
57.31415552606041
 20
185.8417377293298
 30
0.0
 10
57.31415552606041
 20
186.8525699716523
 30
0.0
 10
57.3141555260604
 20
187.6832289943858
 30
0.0
 10
57.31415552606041
 20
188.2232753050014
 30
0.0
 10
57.31415552606041
 20
188.5629203594679
 30
0.0
 10
57.3141555260604
 20
188.8302494514864
 30
0.0
 10
57.3141555260604
 20
188.999961307981
 30
0.0
 10
57.31415552606041
 20
189.0979634268198
 30
0.0
 10
57.31415552606041
 20
189.1502029522163
 30
0.0
 10
57.31415552606041
 20
189.1566200707164
 30
0.0
 10
57.31415552606041
 20
189.1598320137294
 30
0.0
  0
DIMENSION
  5
FA
330
1F
100
AcDbEntity
  8
0
  6
Continuous
 62
     7
370
    18
100
AcDbDimension
  2
_D
 10
30.9487225816
 20
173.1598320137
 30
0.0
 11
30.9487225816
 21
181.1598320137
 31
0.0
 70
   160
  1
Φ<>
 71
     2
 42
-1.0
  3
SLDDIMSTYLE0
100
AcDbAlignedDimension
 13
38.8141555261
 23
189.1598320137
 33
0.0
 14
38.8141555261
 24
173.1598320137
 34
0.0
 50
90.0
100
AcDbRotatedDimension
  0
DIMENSION
  5
108
330
1F
100
AcDbEntity
  8
0
  6
Continuous
 62
     7
370
    18
100
AcDbDimension
  2
_D_1
 10
64.3141555262
 20
143.3548320186
 30
0.0
 11
51.314155526
 21
143.3548320186
 31
0.0
 70
   160
  1
<>
 71
     2
 42
-1.0
  3
SLDDIMSTYLE1
100
AcDbAlignedDimension
 13
38.3141555258
 23
173.6598319294
 33
0.0
 14
64.3141555262
 24
158.1598320185
 34
0.0
 50
0.0
100
AcDbRotatedDimension
  0
DIMENSION
  5
113
330
1F
100
AcDbEntity
  8
0
  6
Continuous
 62
     7
370
    18
100
AcDbDimension
  2
_D_2
 10
109.3141555171
 20
143.3548320186
 30
0.0
 11
86.8141555216
 21
143.3548320186
 31
0.0
 70
   160
  1
<>
 71
     2
 42
-1.0
  3
SLDDIMSTYLE1
100
AcDbAlignedDimension
 13
64.3141555262
 23
158.1598320185
 33
0.0
 14
109.3141555171
 24
158.1598320177
 34
0.0
 50
0.0
100
AcDbRotatedDimension
  0
DIMENSION
  5
11D
330
1F
100
AcDbEntity
  8
0
  6
Continuous
 62
     7
370
    18
100
AcDbDimension
  2
_D_3
 10
119.3141555151
 20
143.3548320186
 30
0.0
 11
114.3141555161
 21
143.3548320186
 31
0.0
 70
   160
  1
<>
 71
     2
 42
-1.0
  3
SLDDIMSTYLE0
100
AcDbAlignedDimension
 13
109.3141555171
 23
158.1598320177
 33
0.0
 14
119.3141555151
 24
174.159832015
 34
0.0
 50
0.0
100
AcDbRotatedDimension
  0
DIMENSION
  5
129
330
1F
100
AcDbEntity
  8
0
  6
Continuous
 62
     7
370
    18
100
AcDbDimension
  2
_D_4
 10
95.3141555196
 20
201.3196926898
 30
0.0
 11
85.3141555217
 21
201.3196926898
 31
0.0
 70
   160
  1
<>
 71
     2
 42
-1.0
  3
SLDDIMSTYLE1
100
AcDbAlignedDimension
 13
75.3141555238
 23
191.2598320124
 33
0.0
 14
95.3141555196
 24
191.2598320117
 34
0.0
100
AcDbRotatedDimension
  0
DIMENSION
  5
133
330
1F
100
AcDbEntity
  8
0
  6
Continuous
 62
     7
370
    18
100
AcDbDimension
  2
_D_5
 10
109.3141555172
 20
201.3196926898
 30
0.0
 11
102.3141555184
 21
201.3196926898
 31
0.0
 70
   160
  1
<>
 71
     2
 42
-1.0
  3
SLDDIMSTYLE0
100
AcDbAlignedDimension
 13
95.3141555196
 23
191.2598320117
 33
0.0
 14
109.3141555172
 24
191.1598320121
 34
0.0
100
AcDbRotatedDimension
  0
DIMENSION
  5
13F
330
1F
100
AcDbEntity
  8
0
  6
Continuous
 62
     7
370
    18
100
AcDbDimension
  2
_D_6
 10
129.3191797617
 20
186.6598320126
 30
0.0
 11
129.3191797617
 21
199.2113490866
 31
0.0
 70
   160
  1
<>
 71
     2
 42
-1.0
  3
SLDDIMSTYLE0
100
AcDbAlignedDimension
 13
109.3141555172
 23
191.1598320121
 33
0.0
 14
99.9141555188
 24
186.6598320126
 34
0.0
 50
90.0
100
AcDbRotatedDimension
  0
INSERT
  5
150
330
1F
100
AcDbEntity
  8
0
  6
Continuous
 62
     7
370
     0
100
AcDbBlockReference
  2
SW_NOTE_0
 10
65.1003599191
 20
200.7238807907
 30
0.0
  0
LEADER
  5
152
330
1F
100
AcDbEntity
  8
0
  6
Continuous
 62
     7
370
     0
100
AcDbLeader
  3
SLDDIMSTYLE2
 76
     2
 10
73.8442646603
 20
188.1596389489
 30
0.0
 10
65.1003599191
 20
200.7238807907
 30
0.0
  0
INSERT
  5
15E
330
1F
100
AcDbEntity
  8
0
  6
Continuous
 62
     7
370
    18
100
AcDbBlockReference
  2
SW_CENTERMARKSYMBOL_0
 10
75.3141555238
 20
186.6598320126
 30
0.0
  0
INSERT
  5
16A
330
1F
100
AcDbEntity
  8
0
  6
Continuous
 62
     7
370
    18
100
AcDbBlockReference
  2
SW_CENTERMARKSYMBOL_1
 10
95.3141555196
 20
186.6598320126
 30
0.0
  0
SPLINE
  5
16B
330
1F
100
AcDbEntity
  8
0
  6
Continuous
 62
   144
370
    18
100
AcDbSpline
210
0.0
220
0.0
230
1.0
 70
     8
 71
     3
 72
     9
 73
     5
 74
     0
 42
0.000000001
 43
0.00000001
 40
0.0
 40
0.0
 40
0.0
 40
0.0
 40
0.5198645462517718
 40
1.0
 40
1.0
 40
1.0
 40
1.0
 10
151.866962516112
 20
177.1098320143278
 30
0.0
 10
151.8669605924634
 20
177.7820366351448
 30
0.0
 10
151.8669568921752
 20
179.0750746498807
 30
0.0
 10
151.8669510837935
 20
180.3778999362037
 30
0.0
 10
151.8669482949834
 20
181.003432546207
 30
0.0
  0
SPLINE
  5
16C
330
1F
100
AcDbEntity
  8
0
  6
Continuous
 62
   144
370
    18
100
AcDbSpline
210
0.0
220
0.0
230
1.0
 70
     8
 71
     3
 72
     9
 73
     5
 74
     0
 42
0.000000001
 43
0.00000001
 40
0.0
 40
0.0
 40
0.0
 40
0.0
 40
0.4755658462447945
 40
1.0
 40
1.0
 40
1.0
 40
1.0
 10
151.8669782101062
 20
181.2312686969139
 30
0.0
 10
151.8673357233135
 20
181.8643575796332
 30
0.0
 10
151.8680874871546
 20
183.1955904419558
 30
0.0
 10
151.8673495273993
 20
184.5168948521863
 30
0.0
 10
151.8669625160995
 20
185.2098320124185
 30
0.0
  0
SPLINE
  5
16D
330
1F
100
AcDbEntity
  8
0
  6
Continuous
 62
   144
370
    18
100
AcDbSpline
210
0.0
220
0.0
230
1.0
 70
     8
 71
     3
 72
    14
 73
    10
 74
     0
 42
0.000000001
 43
0.00000001
 40
0.0
 40
0.0
 40
0.0
 40
0.0
 40
0.25
 40
0.25
 40
0.5
 40
0.5
 40
0.75
 40
0.75
 40
1.0
 40
1.0
 40
1.0
 40
1.0
 10
158.8669625143467
 20
185.4428320127294
 30
0.0
 10
159.3717188355548
 20
185.4428320127294
 30
0.0
 10
159.916287766452
 20
185.3508386006014
 30
0.0
 10
160.9707361092925
 20
184.9333921837232
 30
0.0
 10
161.4773466375707
 20
184.6065244814706
 30
0.0
 10
162.3136543884904
 20
183.7702169206714
 30
0.0
 10
162.6405222161921
 20
183.2636064551875
 30
0.0
 10
163.0579688818747
 20
182.2091581556201
 30
0.0
 10
163.1499624154447
 20
181.6645892065176
 30
0.0
 10
163.1499625134653
 20
181.1598328446454
 30
0.0
  0
SPLINE
  5
16E
330
1F
100
AcDbEntity
  8
0
  6
Continuous
 62
   144
370
    18
100
AcDbSpline
210
0.0
220
0.0
230
1.0
 70
     8
 71
     3
 72
    18
 73
    14
 74
     0
 42
0.000000001
 43
0.00000001
 40
0.0
 40
0.0
 40
0.0
 40
0.0
 40
0.0625000000000001
 40
0.0625000000000001
 40
0.1250000000000002
 40
0.1250000000000002
 40
0.2500000000000003
 40
0.2500000000000003
 40
0.5000000000000002
 40
0.5000000000000002
 40
0.7500000000000001
 40
0.7500000000000001
 40
1.0
 40
1.0
 40
1.0
 40
1.0
 10
163.1499625134653
 20
181.1598328446454
 30
0.0
 10
163.149962537985
 20
181.0335689042395
 30
0.0
 10
163.1445452888893
 20
180.9092564439273
 30
0.0
 10
163.1219200473452
 20
180.6540268124461
 30
0.0
 10
163.1046731980564
 20
180.5246558520348
 30
0.0
 10
163.0336351366948
 20
180.1336085190852
 30
0.0
 10
162.9603685812633
 20
179.8688923527039
 30
0.0
 10
162.6559796689423
 20
179.0859285028516
 30
0.0
 10
162.3363796619874
 20
178.5797740050963
 30
0.0
 10
161.5077573632688
 20
177.7364189159923
 30
0.0
 10
161.0011867821782
 20
177.4023820541721
 30
0.0
 10
159.9368814981524
 20
176.973112917361
 30
0.0
 10
159.3826802633764
 20
176.8768320147294
 30
0.0
 10
158.8669625143467
 20
176.8768320147294
 30
0.0
  0
SPLINE
  5
16F
330
1F
100
AcDbEntity
  8
0
  6
Continuous
 62
   144
370
    18
100
AcDbSpline
210
0.0
220
0.0
230
1.0
 70
    24
 71
     3
 72
    19
 73
    15
 74
     0
 42
0.000000001
 43
0.00000001
 40
0.0
 40
0.0
 40
0.0
 40
0.0
 40
0.0525605877660475
 40
0.1037829063528306
 40
0.153693653683866
 40
0.2023216879801671
 40
0.2496982115181513
 40
0.3760577747314345
 40
0.4990566019266291
 40
0.6226846335499417
 40
0.749690599725293
 40
0.8295292951606543
 40
0.9129209649750547
 40
1.0
 40
1.0
 40
1.0
 40
1.0
 10
151.866962514979
 20
177.1098320149417
 30
0.0
 10
151.9867991147281
 20
177.0406443198447
 30
0.0
 10
152.2234210997176
 20
176.904030549219
 30
0.0
 10
152.5764788077837
 20
176.7001925806148
 30
0.0
 10
152.9223028940578
 20
176.5005309456185
 30
0.0
 10
153.2610884275312
 20
176.3049330210922
 30
0.0
 10
153.7798738433507
 20
176.0054121130757
 30
0.0
 10
154.4781933707698
 20
175.6022371344426
 30
0.0
 10
155.3618541893825
 20
175.0920553083954
 30
0.0
 10
156.2470697434856
 20
174.5809758553687
 30
0.0
 10
157.0247885248135
 20
174.1319596948106
 30
0.0
 10
157.7007818321063
 20
173.741674765745
 30
0.0
 10
158.2791417212835
 20
173.4077585185177
 30
0.0
 10
158.6682169535544
 20
173.1831258220253
 30
0.0
 10
158.8669625140317
 20
173.0683800159112
 30
0.0
  0
SPLINE
  5
170
330
1F
100
AcDbEntity
  8
0
  6
Continuous
 62
   144
370
    18
100
AcDbSpline
210
0.0
220
0.0
230
1.0
 70
    24
 71
     3
 72
    16
 73
    12
 74
     0
 42
0.000000001
 43
0.00000001
 40
0.0
 40
0.0
 40
0.0
 40
0.0
 40
0.0818575510498196
 40
0.1643631787792066
 40
0.2475798871339372
 40
0.3315690798375343
 40
0.4163904829846013
 40
0.5021020829690979
 40
0.6609041265632313
 40
0.8267817274551837
 40
1.0
 40
1.0
 40
1.0
 40
1.0
 10
151.8669625153467
 20
181.1598320137574
 30
0.0
 10
151.8669625153467
 20
181.0476280064424
 30
0.0
 10
151.8669625153467
 20
180.8223316583653
 30
0.0
 10
151.8669625153467
 20
180.4832355199254
 30
0.0
 10
151.8669625153467
 20
180.1417437935333
 30
0.0
 10
151.8669625153467
 20
179.7978564147392
 30
0.0
 10
151.8669625153467
 20
179.4515756165041
 30
0.0
 10
151.8669625153467
 20
179.0050861815317
 30
0.0
 10
151.8669625153467
 20
178.4520081660575
 30
0.0
 10
151.8669625153467
 20
177.7863887083291
 30
0.0
 10
151.8669625153467
 20
177.3385822507654
 30
0.0
 10
151.8669625153467
 20
177.1098320149474
 30
0.0
  0
SPLINE
  5
171
330
1F
100
AcDbEntity
  8
0
  6
Continuous
 62
   144
370
    18
100
AcDbSpline
210
0.0
220
0.0
230
1.0
 70
    24
 71
     3
 72
    15
 73
    11
 74
     0
 42
0.000000001
 43
0.00000001
 40
0.0
 40
0.0
 40
0.0
 40
0.0
 40
0.1056214996411978
 40
0.2085342696916716
 40
0.3087925754356317
 40
0.4064551070432989
 40
0.5015853591588569
 40
0.6707661264916837
 40
0.836746343912572
 40
1.0
 40
1.0
 40
1.0
 40
1.0
 10
151.8669625153467
 20
185.2098320125674
 30
0.0
 10
151.8669625153467
 20
185.0705140374221
 30
0.0
 10
151.8669625153467
 20
184.7954509839667
 30
0.0
 10
151.8669625153467
 20
184.3850484353835
 30
0.0
 10
151.8669625153467
 20
183.9831122990997
 30
0.0
 10
151.8669625153467
 20
183.5894185812631
 30
0.0
 10
151.8669625153467
 20
183.1007397670572
 30
0.0
 10
151.8669625153467
 20
182.5160699873175
 30
0.0
 10
151.8669625153467
 20
181.8349391232893
 30
0.0
 10
151.8669625153467
 20
181.3836218505725
 30
0.0
 10
151.8669625153467
 20
181.1598320137574
 30
0.0
  0
SPLINE
  5
172
330
1F
100
AcDbEntity
  8
0
  6
Continuous
 62
   144
370
    18
100
AcDbSpline
210
0.0
220
0.0
230
1.0
 70
    24
 71
     3
 72
    19
 73
    15
 74
     0
 42
0.000000001
 43
0.00000001
 40
0.0
 40
0.0
 40
0.0
 40
0.0
 40
0.0525647903419337
 40
0.103789348200775
 40
0.153700278622365
 40
0.2023263428969529
 40
0.2496986426268224
 40
0.3760710304265698
 40
0.4990554420077804
 40
0.6226979287422117
 40
0.7496907735456064
 40
0.829535365407839
 40
0.9129268264389597
 40
1.0
 40
1.0
 40
1.0
 40
1.0
 10
158.8669625147146
 20
189.2512830119418
 30
0.0
 10
158.7471310188341
 20
189.1820982806837
 30
0.0
 10
158.5105233434214
 20
189.0454928054973
 30
0.0
 10
158.1574937384489
 20
188.841671112655
 30
0.0
 10
157.8117100683438
 20
188.642032861343
 30
0.0
 10
157.4729773497087
 20
188.4464654778691
 30
0.0
 10
156.9542317689094
 20
188.1469676427194
 30
0.0
 10
156.2559853637786
 20
187.7438349810099
 30
0.0
 10
155.3723228554271
 20
187.2336523056289
 30
0.0
 10
154.4871101902666
 20
186.7225746469931
 30
0.0
 10
153.7093085121472
 20
186.2735107370632
 30
0.0
 10
153.0332578195171
 20
185.8831927731354
 30
0.0
 10
152.4548283944474
 20
185.5492364619735
 30
0.0
 10
152.0657191489544
 20
185.3245841835246
 30
0.0
 10
151.8669625156617
 20
185.2098320129113
 30
0.0
  0
SPLINE
  5
173
330
1F
100
AcDbEntity
  8
0
  6
Continuous
 62
   144
370
    18
100
AcDbSpline
210
0.0
220
0.0
230
1.0
 70
    24
 71
     3
 72
    19
 73
    15
 74
     0
 42
0.000000001
 43
0.00000001
 40
0.0
 40
0.0
 40
0.0
 40
0.0
 40
0.0525605882532245
 40
0.1037829071053339
 40
0.1536936544685927
 40
0.2023216885522458
 40
0.2496982116204569
 40
0.376057776366204
 40
0.4990566017240805
 40
0.6226846351353492
 40
0.7496905996721228
 40
0.8295292957767715
 40
0.9129209655904578
 40
1.0
 40
1.0
 40
1.0
 40
1.0
 10
165.8669625137144
 20
185.2098320125171
 30
0.0
 10
165.7471259145544
 20
185.2790196901544
 30
0.0
 10
165.5105039312058
 20
185.4156334260296
 30
0.0
 10
165.1574462263734
 20
185.6194713423301
 30
0.0
 10
164.8116221447367
 20
185.8191329252456
 30
0.0
 10
164.4728366173156
 20
186.0147307978796
 30
0.0
 10
163.9540512059952
 20
186.3142516291863
 30
0.0
 10
163.255731687385
 20
186.7174265029737
 30
0.0
 10
162.3720708686049
 20
187.2276082028803
 30
0.0
 10
161.4868553151758
 20
187.7386875290585
 30
0.0
 10
160.7091365241913
 20
188.1877035840891
 30
0.0
 10
160.0331432103875
 20
188.5779884203434
 30
0.0
 10
159.4547833129447
 20
188.91190458972
 30
0.0
 10
159.0657080765561
 20
189.1365372330076
 30
0.0
 10
158.8669625146617
 20
189.2512830115475
 30
0.0
  0
SPLINE
  5
174
330
1F
100
AcDbEntity
  8
0
  6
Continuous
 62
   144
370
    18
100
AcDbSpline
210
0.0
220
0.0
230
1.0
 70
    24
 71
     3
 72
    16
 73
    12
 74
     0
 42
0.000000001
 43
0.00000001
 40
0.0
 40
0.0
 40
0.0
 40
0.0
 40
0.0813257634157734
 40
0.1632705323872334
 40
0.2458958687157287
 40
0.3292618265162103
 40
0.4134268745561773
 40
0.4984478330201435
 40
0.6583951747754733
 40
0.8254885838823784
 40
1.0
 40
1.0
 40
1.0
 40
1.0
 10
165.8669625133467
 20
181.1598320137014
 30
0.0
 10
165.8669625133467
 20
181.2713068376009
 30
0.0
 10
165.8669625133467
 20
181.4951049684931
 30
0.0
 10
165.8669625133467
 20
181.8318972701585
 30
0.0
 10
165.8669625133467
 20
182.1709712806593
 30
0.0
 10
165.8669625133467
 20
182.5123269588512
 30
0.0
 10
165.8669625133467
 20
182.8559621999722
 30
0.0
 10
165.8669625133467
 20
183.3022434500144
 30
0.0
 10
165.8669625133467
 20
183.8576622317309
 30
0.0
 10
165.8669625133467
 20
184.5282432958389
 30
0.0
 10
165.8669625133467
 20
184.9793703400653
 30
0.0
 10
165.8669625133467
 20
185.2098320125114
 30
0.0
  0
SPLINE
  5
175
330
1F
100
AcDbEntity
  8
0
  6
Continuous
 62
   144
370
    18
100
AcDbSpline
210
0.0
220
0.0
230
1.0
 70
    24
 71
     3
 72
    15
 73
    11
 74
     0
 42
0.000000001
 43
0.00000001
 40
0.0
 40
0.0
 40
0.0
 40
0.0
 40
0.1048318408122729
 40
0.2069857821766891
 40
0.3065147376918778
 40
0.4034759185689143
 40
0.4979312020085359
 40
0.6684540325628093
 40
0.835648811485135
 40
1.0
 40
1.0
 40
1.0
 40
1.0
 10
165.8669625133467
 20
177.1098320148914
 30
0.0
 10
165.8669625133467
 20
177.2481074347849
 30
0.0
 10
165.8669625133467
 20
177.5211260684434
 30
0.0
 10
165.8669625133467
 20
177.9284729135329
 30
0.0
 10
165.8669625133467
 20
178.3274404781061
 30
0.0
 10
165.8669625133467
 20
178.7182492617519
 30
0.0
 10
165.8669625133467
 20
179.20679960082
 30
0.0
 10
165.8669625133467
 20
179.7939539299606
 30
0.0
 10
165.8669625133467
 20
180.480049050815
 30
0.0
 10
165.8669625133467
 20
180.9345370376332
 30
0.0
 10
165.8669625133467
 20
181.1598320137014
 30
0.0
  0
SPLINE
  5
176
330
1F
100
AcDbEntity
  8
0
  6
Continuous
 62
   144
370
    18
100
AcDbSpline
210
0.0
220
0.0
230
1.0
 70
    24
 71
     3
 72
    19
 73
    15
 74
     0
 42
0.000000001
 43
0.00000001
 40
0.0
 40
0.0
 40
0.0
 40
0.0
 40
0.0525647908480932
 40
0.103789348971652
 40
0.1537002794061579
 40
0.2023263434310902
 40
0.2496986426375892
 40
0.3760710320236226
 40
0.4990554418305531
 40
0.6226979304315464
 40
0.7496907736057642
 40
0.8295353662740419
 40
0.912926827268207
 40
1.0
 40
1.0
 40
1.0
 40
1.0
 10
158.8669625139788
 20
173.068380015517
 30
0.0
 10
158.9867940092721
 20
173.1375647635549
 30
0.0
 10
159.2234016830045
 20
173.2741702715722
 30
0.0
 10
159.5764312846707
 20
173.4779920129385
 30
0.0
 10
159.922214949973
 20
173.6776303108752
 30
0.0
 10
160.2609476622962
 20
173.8731977390954
 30
0.0
 10
160.7796932385642
 20
174.1726956457354
 30
0.0
 10
161.4779396349925
 20
174.5758284021701
 30
0.0
 10
162.3616021439904
 20
175.0860112041617
 30
0.0
 10
163.246814808777
 20
175.5970889890407
 30
0.0
 10
164.0246164970663
 20
176.0461530159566
 30
0.0
 10
164.7006671963957
 20
176.4364710803309
 30
0.0
 10
165.2790966295548
 20
176.770427478796
 30
0.0
 10
165.6682058787373
 20
176.9950798149621
 30
0.0
 10
165.8669625130317
 20
177.1098320145475
 30
0.0
  0
SPLINE
  5
177
330
1F
100
AcDbEntity
  8
0
  6
Continuous
 62
   144
370
    18
100
AcDbSpline
210
0.0
220
0.0
230
1.0
 70
     8
 71
     3
 72
    15
 73
    11
 74
     0
 42
0.000000001
 43
0.00000001
 40
0.0
 40
0.0
 40
0.0
 40
0.0
 40
0.1046585854018886
 40
0.2069104537608144
 40
0.3069785762766606
 40
0.4051114277460999
 40
0.5015828554372577
 40
0.6702410833122665
 40
0.8356627366339303
 40
1.0
 40
1.0
 40
1.0
 40
1.0
 10
151.8669625152703
 20
185.209832012664
 30
0.0
 10
151.8669604919432
 20
185.0717880078211
 30
0.0
 10
151.8669564918172
 20
184.7988744425238
 30
0.0
 10
151.8669464577612
 20
184.3909312319576
 30
0.0
 10
151.8669502506771
 20
183.9895395995714
 30
0.0
 10
151.8669657446526
 20
183.5936834938814
 30
0.0
 10
151.8669376331337
 20
183.1032562804249
 30
0.0
 10
151.8671298817478
 20
182.5182937925672
 30
0.0
 10
151.8671204632128
 20
181.8371576557181
 30
0.0
 10
151.8670150493578
 20
181.3851117205677
 30
0.0
 10
151.8669625157535
 20
181.1598320142763
 30
0.0
  0
SPLINE
  5
178
330
1F
100
AcDbEntity
  8
0
  6
Continuous
 62
   144
370
    18
100
AcDbSpline
210
0.0
220
0.0
230
1.0
 70
     8
 71
     3
 72
    24
 73
    20
 74
     0
 42
0.000000001
 43
0.00000001
 40
0.0
 40
0.0
 40
0.0
 40
0.0
 40
0.1250000000000002
 40
0.1250000000000002
 40
0.2500000000000002
 40
0.2500000000000002
 40
0.3750000000000002
 40
0.3750000000000002
 40
0.5000000000000002
 40
0.5000000000000002
 40
0.6250000000000002
 40
0.6250000000000002
 40
0.7500000000000002
 40
0.7500000000000002
 40
0.8750000000000001
 40
0.8750000000000001
 40
0.9375
 40
0.9375
 40
1.0
 40
1.0
 40
1.0
 40
1.0
 10
151.8669625157535
 20
181.1598320142763
 30
0.0
 10
151.8669625157525
 20
181.5788823212078
 30
0.0
 10
151.9048295473033
 20
182.0130024531038
 30
0.0
 10
152.069559525359
 20
182.8902966494731
 30
0.0
 10
152.1965602745368
 20
183.3333672548849
 30
0.0
 10
152.544801330793
 20
184.2010159041084
 30
0.0
 10
152.7661078138378
 20
184.6254078802583
 30
0.0
 10
153.2965753923223
 20
185.4261455833356
 30
0.0
 10
153.6056805758793
 20
185.8022849552503
 30
0.0
 10
154.2934269552474
 20
186.4811316143351
 30
0.0
 10
154.6719003148992
 20
186.7837003508389
 30
0.0
 10
155.4715974881152
 20
187.2996966920441
 30
0.0
 10
155.8926138169547
 20
187.5131083414527
 30
0.0
 10
156.7480933748089
 20
187.8472279073735
 30
0.0
 10
157.182394132211
 20
187.9680292065752
 30
0.0
 10
157.8244563082839
 20
188.0851847632992
 30
0.0
 10
158.0369538758836
 20
188.1136366214826
 30
0.0
 10
158.4563099754639
 20
188.1509461849061
 30
0.0
 10
158.661102360199
 20
188.1598319734246
 30
0.0
 10
158.8669612017742
 20
188.1598320120437
 30
0.0
  0
SPLINE
  5
179
330
1F
100
AcDbEntity
  8
0
  6
Continuous
 62
   144
370
    18
100
AcDbSpline
210
0.0
220
0.0
230
1.0
 70
     8
 71
     3
 72
    22
 73
    18
 74
     0
 42
0.000000001
 43
0.00000001
 40
0.0
 40
0.0
 40
0.0
 40
0.0
 40
0.125
 40
0.125
 40
0.25
 40
0.25
 40
0.375
 40
0.375
 40
0.5
 40
0.5
 40
0.625
 40
0.625
 40
0.75
 40
0.75
 40
0.875
 40
0.875
 40
1.0
 40
1.0
 40
1.0
 40
1.0
 10
158.8669612017742
 20
188.1598320120437
 30
0.0
 10
159.2785392722796
 20
188.1598320892556
 30
0.0
 10
159.7055891805093
 20
188.1233265459669
 30
0.0
 10
160.5708457423026
 20
187.963531943361
 30
0.0
 10
161.0089663528147
 20
187.8401020300357
 30
0.0
 10
161.8698083219368
 20
187.4999507028359
 30
0.0
 10
162.2923566596083
 20
187.2831469365911
 30
0.0
 10
163.0926598316109
 20
186.7608848503841
 30
0.0
 10
163.4702067942944
 20
186.4554595721021
 30
0.0
 10
164.1542421934858
 20
185.7726622440007
 30
0.0
 10
164.4605747651033
 20
185.3954420147523
 30
0.0
 10
164.9848448805883
 20
184.5950038356159
 30
0.0
 10
165.2027438652739
 20
184.1719936036271
 30
0.0
 10
165.544855779251
 20
183.3094794994989
 30
0.0
 10
165.6691473075004
 20
182.8701519084221
 30
0.0
 10
165.8301305407976
 20
182.0019740075168
 30
0.0
 10
165.866962513249
 20
181.5732139042673
 30
0.0
 10
165.8669625132652
 20
181.159832014108
 30
0.0
  0
SPLINE
  5
17A
330
1F
100
AcDbEntity
  8
0
  6
Continuous
 62
   144
370
    18
100
AcDbSpline
210
0.0
220
0.0
230
1.0
 70
     8
 71
     3
 72
    16
 73
    12
 74
     0
 42
0.000000001
 43
0.00000001
 40
0.0
 40
0.0
 40
0.0
 40
0.0
 40
0.0821549627458143
 40
0.1643173296500978
 40
0.2467635109585973
 40
0.3297632266076215
 40
0.4135763677214072
 40
0.4984502982383931
 40
0.6600700622382352
 40
0.8268785864809354
 40
1.0
 40
1.0
 40
1.0
 40
1.0
 10
165.8669625132652
 20
181.159832014108
 30
0.0
 10
165.8669506104646
 20
181.272444525532
 30
0.0
 10
165.8669268037908
 20
181.4976796975037
 30
0.0
 10
165.8668311793909
 20
181.8356668536174
 30
0.0
 10
165.8668013190421
 20
182.174293466745
 30
0.0
 10
165.8668402402492
 20
182.5144135853822
 30
0.0
 10
165.8669307115296
 20
182.8568487872617
 30
0.0
 10
165.866980169406
 20
183.304700443003
 30
0.0
 10
165.8669676804412
 20
183.8618107725656
 30
0.0
 10
165.8669884297182
 20
184.5323240819621
 30
0.0
 10
165.8669712582171
 20
184.9812172156095
 30
0.0
 10
165.8669625130193
 20
185.2098320129048
 30
0.0
  0
SPLINE
  5
17B
330
1F
100
AcDbEntity
  8
0
  6
Continuous
 62
   144
370
    18
100
AcDbSpline
210
0.0
220
0.0
230
1.0
 70
     8
 71
     3
 72
    19
 73
    15
 74
     0
 42
0.000000001
 43
0.00000001
 40
0.0
 40
0.0
 40
0.0
 40
0.0
 40
0.0518948137389659
 40
0.1026599794334315
 40
0.1524410792577373
 40
0.2013965314161237
 40
0.2496968422692092
 40
0.3754777343234573
 40
0.499056230041922
 40
0.6233035438865636
 40
0.7496916292359901
 40
0.8310073137362791
 40
0.9141518696061676
 40
1.0
 40
1.0
 40
1.0
 40
1.0
 10
165.8669625130193
 20
185.2098320129048
 30
0.0
 10
165.7486444988382
 20
185.2781309402957
 30
0.0
 10
165.5145840209738
 20
185.4132420617374
 30
0.0
 10
165.1644285310527
 20
185.6153244466499
 30
0.0
 10
164.8192438704168
 20
185.8146130048395
 30
0.0
 10
164.4778971297409
 20
186.0117524500866
 30
0.0
 10
163.9576022519271
 20
186.3123021967292
 30
0.0
 10
163.2568471304968
 20
186.716069945255
 30
0.0
 10
162.3721447325999
 20
187.2279499023003
 30
0.0
 10
161.4849674726891
 20
187.7389384227571
 30
0.0
 10
160.7043545745349
 20
188.190700315939
 30
0.0
 10
160.0266869602403
 20
188.5814496440591
 30
0.0
 10
159.448458259857
 20
188.9153702594861
 30
0.0
 10
159.0628507680971
 20
189.1381242086427
 30
0.0
 10
158.8669625142009
 20
189.2512830115218
 30
0.0
  0
SPLINE
  5
17C
330
1F
100
AcDbEntity
  8
0
  6
Continuous
 62
   144
370
    18
100
AcDbSpline
210
0.0
220
0.0
230
1.0
 70
     8
 71
     3
 72
    19
 73
    15
 74
     0
 42
0.000000001
 43
0.00000001
 40
0.0
 40
0.0
 40
0.0
 40
0.0
 40
0.0412130798596097
 40
0.0828692567460496
 40
0.1251563265231852
 40
0.1879865067078558
 40
0.2496969288104903
 40
0.3754395046280887
 40
0.4990552767440277
 40
0.6232604024136049
 40
0.7496919173077019
 40
0.8307155493310527
 40
0.9139086071752142
 40
1.0
 40
1.0
 40
1.0
 40
1.0
 10
158.8669625142009
 20
189.2512830115218
 30
0.0
 10
158.7732012623089
 20
189.1968586488455
 30
0.0
 10
158.5846706967133
 20
189.0874247870903
 30
0.0
 10
158.297509116504
 20
188.9221130022798
 30
0.0
 10
157.9592664121096
 20
188.7273909439807
 30
0.0
 10
157.5729627454001
 20
188.5040942609462
 30
0.0
 10
156.9893466388811
 20
188.1673850627568
 30
0.0
 10
156.2578909613345
 20
187.7441234219022
 30
0.0
 10
155.3723208744
 20
187.2340275818938
 30
0.0
 10
154.4860323551626
 20
186.7212458309362
 30
0.0
 10
153.7051794312669
 20
186.2712940719946
 30
0.0
 10
153.0282619922159
 20
185.8801592504391
 30
0.0
 10
152.4498834278171
 20
185.5462937991716
 30
0.0
 10
152.0634747326409
 20
185.3232588091709
 30
0.0
 10
151.8669625152703
 20
185.209832012664
 30
0.0
  0
SPLINE
  5
17D
330
1F
100
AcDbEntity
  8
0
  6
Continuous
 62
   144
370
    18
100
AcDbSpline
210
0.0
220
0.0
230
1.0
 70
     8
 71
     3
 72
    16
 73
    12
 74
     0
 42
0.000000001
 43
0.00000001
 40
0.0
 40
0.0
 40
0.0
 40
0.0
 40
0.0827465640832701
 40
0.1654964931412902
 40
0.2485345807766894
 40
0.3321388172837707
 40
0.4165770956151824
 40
0.5021043805273933
 40
0.6626007861154469
 40
0.8281964729262536
 40
1.0
 40
1.0
 40
1.0
 40
1.0
 10
151.8669625154795
 20
181.1598320132335
 30
0.0
 10
151.8669795258328
 20
181.0464083987955
 30
0.0
 10
151.867013547231
 20
180.8195565574306
 30
0.0
 10
151.8671192655895
 20
180.4791466574018
 30
0.0
 10
151.8671503320301
 20
180.1380908890967
 30
0.0
 10
151.8671042170969
 20
179.7955068340053
 30
0.0
 10
151.8670014715885
 20
179.4505452779364
 30
0.0
 10
151.8669402811515
 20
179.0025493807368
 30
0.0
 10
151.8669552414626
 20
178.4477965747628
 30
0.0
 10
151.8669340834555
 20
177.7822435416547
 30
0.0
 10
151.866952922937
 20
177.3367017128017
 30
0.0
 10
151.8669625159925
 20
177.1098320151087
 30
0.0
  0
SPLINE
  5
17E
330
1F
100
AcDbEntity
  8
0
  6
Continuous
 62
   144
370
    18
100
AcDbSpline
210
0.0
220
0.0
230
1.0
 70
     8
 71
     3
 72
    22
 73
    18
 74
     0
 42
0.000000001
 43
0.00000001
 40
0.0
 40
0.0
 40
0.0
 40
0.0
 40
0.125
 40
0.125
 40
0.25
 40
0.25
 40
0.375
 40
0.375
 40
0.5
 40
0.5
 40
0.625
 40
0.625
 40
0.75
 40
0.75
 40
0.875
 40
0.875
 40
1.0
 40
1.0
 40
1.0
 40
1.0
 10
158.8669638267397
 20
174.1598320148424
 30
0.0
 10
158.4580406530187
 20
174.1598319382014
 30
0.0
 10
158.0335105613689
 20
174.19585980064
 30
0.0
 10
157.1725664631435
 20
174.3539100950287
 30
0.0
 10
156.7362324141483
 20
174.4760740933225
 30
0.0
 10
155.8778757446393
 20
174.8133376285625
 30
0.0
 10
155.4560212319871
 20
175.0285248877511
 30
0.0
 10
154.6559408098
 20
175.5478142207922
 30
0.0
 10
154.2779227758435
 20
175.851891375979
 30
0.0
 10
153.5920736778629
 20
176.5328386813104
 30
0.0
 10
153.2844042942683
 20
176.9095631606007
 30
0.0
 10
152.7571645312798
 20
177.7101783773453
 30
0.0
 10
152.5376409122625
 20
178.1338618505473
 30
0.0
 10
152.1926146788874
 20
178.9988395697227
 30
0.0
 10
152.0670392046521
 20
179.4399528045904
 30
0.0
 10
151.9042827424868
 20
180.3124643798583
 30
0.0
 10
151.8669625155231
 20
180.7437662785713
 30
0.0
 10
151.8669625154795
 20
181.1598320132335
 30
0.0
  0
SPLINE
  5
17F
330
1F
100
AcDbEntity
  8
0
  6
Continuous
 62
   144
370
    18
100
AcDbSpline
210
0.0
220
0.0
230
1.0
 70
     8
 71
     3
 72
    22
 73
    18
 74
     0
 42
0.000000001
 43
0.00000001
 40
0.0
 40
0.0
 40
0.0
 40
0.0
 40
0.1250000000000001
 40
0.1250000000000001
 40
0.2500000000000002
 40
0.2500000000000002
 40
0.3750000000000001
 40
0.3750000000000001
 40
0.5000000000000001
 40
0.5000000000000001
 40
0.6250000000000001
 40
0.6250000000000001
 40
0.75
 40
0.75
 40
0.875
 40
0.875
 40
1.0
 40
1.0
 40
1.0
 40
1.0
 10
165.8669625134785
 20
181.1598320132708
 30
0.0
 10
165.8669625134648
 20
180.7434508174674
 30
0.0
 10
165.8295846850316
 20
180.3118503989149
 30
0.0
 10
165.6666194426856
 20
179.4388305705648
 30
0.0
 10
165.5408929233759
 20
178.9975083385587
 30
0.0
 10
165.1955244814082
 20
178.1322431696163
 30
0.0
 10
164.9758103860069
 20
177.7084817899285
 30
0.0
 10
164.4482232761366
 20
176.9078478893177
 30
0.0
 10
164.140397985425
 20
176.5311825611739
 30
0.0
 10
163.4543384079234
 20
175.8504535348149
 30
0.0
 10
163.0762664690737
 20
175.5465347739082
 30
0.0
 10
162.2762145769736
 20
175.0275937552427
 30
0.0
 10
161.8544424818928
 20
174.8125954679757
 30
0.0
 10
160.9963784533134
 20
174.4756689334914
 30
0.0
 10
160.560254045031
 20
174.3536523495885
 30
0.0
 10
159.6998148897593
 20
174.1958048203688
 30
0.0
 10
159.2758963549595
 20
174.1598320914852
 30
0.0
 10
158.8669638267397
 20
174.1598320148424
 30
0.0
  0
SPLINE
  5
180
330
1F
100
AcDbEntity
  8
0
  6
Continuous
 62
   144
370
    18
100
AcDbSpline
210
0.0
220
0.0
230
1.0
 70
     8
 71
     3
 72
    15
 73
    11
 74
     0
 42
0.000000001
 43
0.00000001
 40
0.0
 40
0.0
 40
0.0
 40
0.0
 40
0.10388707085279
 40
0.2053961126105655
 40
0.3047421299311298
 40
0.4021649098677018
 40
0.4979289689911547
 40
0.6678839089439189
 40
0.8345140944897417
 40
1.0
 40
1.0
 40
1.0
 40
1.0
 10
165.866962512572
 20
177.1098320148802
 30
0.0
 10
165.8669663459614
 20
177.2468567633191
 30
0.0
 10
165.8669739249921
 20
177.5177696924233
 30
0.0
 10
165.866986912865
 20
177.9227134509794
 30
0.0
 10
165.8669820490536
 20
178.3211571377585
 30
0.0
 10
165.8669619752182
 20
178.7140833860945
 30
0.0
 10
165.8669874132853
 20
179.2042660600826
 30
0.0
 10
165.866793239153
 20
179.7915998626163
 30
0.0
 10
165.8667873039283
 20
180.4776995122746
 30
0.0
 10
165.8669042445984
 20
180.9329773877181
 30
0.0
 10
165.8669625134785
 20
181.1598320132708
 30
0.0
  0
SPLINE
  5
181
330
1F
100
AcDbEntity
  8
0
  6
Continuous
 62
   144
370
    18
100
AcDbSpline
210
0.0
220
0.0
230
1.0
 70
     8
 71
     3
 72
    19
 73
    15
 74
     0
 42
0.000000001
 43
0.00000001
 40
0.0
 40
0.0
 40
0.0
 40
0.0
 40
0.0516861813761213
 40
0.1023174581925347
 40
0.1520685428422541
 40
0.201128113848916
 40
0.2496979484149738
 40
0.3754403170987867
 40
0.4990559471289661
 40
0.6232635952961212
 40
0.7496922552569273
 40
0.8307254955191158
 40
0.9139168237087901
 40
1.0
 40
1.0
 40
1.0
 40
1.0
 10
158.8669625140392
 20
173.0683800151539
 30
0.0
 10
158.9847511704924
 20
173.1364500981103
 30
0.0
 10
159.2179244406265
 20
173.2712009673297
 30
0.0
 10
159.5670616214557
 20
173.4729290775855
 30
0.0
 10
159.9120706931254
 20
173.6720832292756
 30
0.0
 10
160.2542843171641
 20
173.8694690412802
 30
0.0
 10
160.7754939080353
 20
174.170114679929
 30
0.0
 10
161.4760278105844
 20
174.5755557764376
 30
0.0
 10
162.3616127821526
 20
175.0856339804559
 30
0.0
 10
163.2478957622584
 20
175.5984281386503
 30
0.0
 10
164.0287757819724
 20
176.0483841175752
 30
0.0
 10
164.7057029778692
 20
176.4395318137653
 30
0.0
 10
165.2840812629987
 20
176.7733964107709
 30
0.0
 10
165.6704684450658
 20
176.9964168031991
 30
0.0
 10
165.866962512572
 20
177.1098320148802
 30
0.0
  0
SPLINE
  5
182
330
1F
100
AcDbEntity
  8
0
  6
Continuous
 62
   144
370
    18
100
AcDbSpline
210
0.0
220
0.0
230
1.0
 70
     8
 71
     3
 72
    19
 73
    15
 74
     0
 42
0.000000001
 43
0.00000001
 40
0.0
 40
0.0
 40
0.0
 40
0.0
 40
0.0519001163814096
 40
0.1026689484186091
 40
0.1524510774124499
 40
0.2014038876537099
 40
0.24969683493401
 40
0.3754803342995155
 40
0.4990562109998515
 40
0.6233035710857227
 40
0.7496916159961632
 40
0.8310136268476773
 40
0.9141571339885755
 40
1.0
 40
1.0
 40
1.0
 40
1.0
 10
151.8669625159925
 20
177.1098320151087
 30
0.0
 10
151.9852924975119
 20
177.04152573554
 30
0.0
 10
152.2193731820273
 20
176.9064020714202
 30
0.0
 10
152.5695510748292
 20
176.7043041729702
 30
0.0
 10
152.9147408375355
 20
176.5050126142147
 30
0.0
 10
153.256067862527
 20
176.3078868067432
 30
0.0
 10
153.7763468289572
 20
176.0073493471145
 30
0.0
 10
154.4770814693374
 20
175.6035848989318
 30
0.0
 10
155.3617873261596
 20
175.0917112757222
 30
0.0
 10
156.2489576976462
 20
174.5807248098879
 30
0.0
 10
157.0295849700212
 20
174.1289536424137
 30
0.0
 10
157.7072662186924
 20
173.7381996082708
 30
0.0
 10
158.2854943862116
 20
173.4042789262093
 30
0.0
 10
158.6710866767498
 20
173.181532357129
 30
0.0
 10
158.8669625140392
 20
173.0683800151539
 30
0.0
  0
SPLINE
  5
183
330
1F
100
AcDbEntity
  8
0
  6
Continuous
 62
   144
370
    18
100
AcDbSpline
210
0.0
220
0.0
230
1.0
 70
     8
 71
     3
 72
    18
 73
    14
 74
     0
 42
0.000000001
 43
0.00000001
 40
0.0
 40
0.0
 40
0.0
 40
0.0
 40
0.0625
 40
0.0625
 40
0.125
 40
0.125
 40
0.2500000000000001
 40
0.2500000000000001
 40
0.5000000000000001
 40
0.5000000000000001
 40
0.7500000000000002
 40
0.7500000000000002
 40
1.0
 40
1.0
 40
1.0
 40
1.0
 10
154.5839625156971
 20
181.159831182858
 30
0.0
 10
154.5839624912536
 20
181.285836961468
 30
0.0
 10
154.5893984110144
 20
181.4110533207651
 30
0.0
 10
154.6122135335267
 20
181.6675503547122
 30
0.0
 10
154.6296115517804
 20
181.7975260457111
 30
0.0
 10
154.7012521779165
 20
182.1902580709975
 30
0.0
 10
154.7751231782115
 20
182.4559215618492
 30
0.0
 10
155.0816258696771
 20
183.2409251388501
 30
0.0
 10
155.4030271527049
 20
183.7472686548164
 30
0.0
 10
156.2336052506247
 20
184.588987315444
 30
0.0
 10
156.7402323217026
 20
184.921277213034
 30
0.0
 10
157.8021525899078
 20
185.347627510696
 30
0.0
 10
158.3539748334847
 20
185.4428320127294
 30
0.0
 10
158.8669625145008
 20
185.4428320127294
 30
0.0
  0
SPLINE
  5
184
330
1F
100
AcDbEntity
  8
0
  6
Continuous
 62
   144
370
    18
100
AcDbSpline
210
0.0
220
0.0
230
1.0
 70
     8
 71
     3
 72
    14
 73
    10
 74
     0
 42
0.000000001
 43
0.00000001
 40
0.0
 40
0.0
 40
0.0
 40
0.0
 40
0.2499999999999999
 40
0.2499999999999999
 40
0.4999999999999999
 40
0.4999999999999999
 40
0.7499999999999999
 40
0.7499999999999999
 40
1.0
 40
1.0
 40
1.0
 40
1.0
 10
158.8669625143467
 20
176.8768320147294
 30
0.0
 10
158.3612930964971
 20
176.8768320147294
 30
0.0
 10
157.8159149695732
 20
176.9691791013362
 30
0.0
 10
156.7606215377305
 20
177.38761774843
 30
0.0
 10
156.2539984296336
 20
177.7150951208658
 30
0.0
 10
155.4183177965495
 20
178.5520277306867
 30
0.0
 10
155.0920596786939
 20
179.0586238516731
 30
0.0
 10
154.6756037326716
 20
180.1122258274522
 30
0.0
 10
154.5839626134361
 20
180.6559862688759
 30
0.0
 10
154.5839625156971
 20
181.159831182858
 30
0.0
  0
SPLINE
  5
185
330
1F
100
AcDbEntity
  8
0
  6
Continuous
 62
   144
370
    18
100
AcDbSpline
210
0.0
220
0.0
230
1.0
 70
     8
 71
     3
 72
    25
 73
    21
 74
     0
 42
0.000000001
 43
0.00000001
 40
0.0
 40
0.0
 40
0.0
 40
0.0
 40
0.0248082565869036
 40
0.0495601607243327
 40
0.0742932522215237
 40
0.0990451564840551
 40
0.1238534133205951
 40
0.1869754200008847
 40
0.2500974262844048
 40
0.3132194316879567
 40
0.376341435919204
 40
0.5000068842759144
 40
0.6236723386074066
 40
0.6867943511438873
 40
0.7499163688441451
 40
0.8130383913881936
 40
0.8761604183135986
 40
0.9174692899903225
 40
0.958691125847994
 40
0.9999999999999999
 40
0.9999999999999999
 40
0.9999999999999999
 40
0.9999999999999999
 10
158.8669612016667
 20
188.1598320128476
 30
0.0
 10
158.7760849509543
 20
188.1588196031035
 30
0.0
 10
158.5945388767448
 20
188.1567970833241
 30
0.0
 10
158.3228006228774
 20
188.1403701183024
 30
0.0
 10
158.0520940035944
 20
188.1141283703239
 30
0.0
 10
157.782412403588
 20
188.0771139327053
 30
0.0
 10
157.3759091877917
 20
188.0052051641265
 30
0.0
 10
156.837971095037
 20
187.8714895671324
 30
0.0
 10
156.1838316221097
 20
187.6375237224976
 30
0.0
 10
155.5557679556915
 20
187.3403486467313
 30
0.0
 10
154.7702929081874
 20
186.8678038845146
 30
0.0
 10
153.8858152128707
 20
186.1409796973207
 30
0.0
 10
153.158988978271
 20
185.2565019321567
 30
0.0
 10
152.6864488046698
 20
184.4710255600974
 30
0.0
 10
152.3892595949217
 20
183.8429656838608
 30
0.0
 10
152.1553468302968
 20
183.188811166869
 30
0.0
 10
152.0068491071651
 20
182.5921588510066
 30
0.0
 10
151.9210973679882
 20
182.0653251739634
 30
0.0
 10
151.8753878707987
 20
181.6135250031468
 30
0.0
 10
151.8697729409697
 20
181.3111692998158
 30
0.0
 10
151.8669625152548
 20
181.1598320134096
 30
0.0
  0
SPLINE
  5
186
330
1F
100
AcDbEntity
  8
0
  6
Continuous
 62
   144
370
    18
100
AcDbSpline
210
0.0
220
0.0
230
1.0
 70
     8
 71
     3
 72
    25
 73
    21
 74
     0
 42
0.000000001
 43
0.00000001
 40
0.0
 40
0.0
 40
0.0
 40
0.0
 40
0.0248082615279792
 40
0.049560170456526
 40
0.074293266609663
 40
0.0990451754083859
 40
0.1238534366773064
 40
0.1869754533492176
 40
0.2500974704929192
 40
0.3132194884053673
 40
0.3763415075354353
 40
0.5000069973869548
 40
0.6236724813230436
 40
0.6867944920828395
 40
0.7499164976889295
 40
0.8130384985314196
 40
0.8761604949786534
 40
0.9174693436103188
 40
0.9586911538532527
 40
1.0
 40
1.0
 40
1.0
 40
1.0
 10
165.8669625130785
 20
181.1598320134096
 30
0.0
 10
165.8659500858765
 20
181.2507082942873
 30
0.0
 10
165.8639275312267
 20
181.4322544282506
 30
0.0
 10
165.8475005083899
 20
181.703992768238
 30
0.0
 10
165.8212586986502
 20
181.9746994698621
 30
0.0
 10
165.7842441949419
 20
182.244381148254
 30
0.0
 10
165.7123353206946
 20
182.6508844724516
 30
0.0
 10
165.5786195680089
 20
183.1888226993122
 30
0.0
 10
165.3446535045973
 20
183.8429623237498
 30
0.0
 10
165.0474781838446
 20
184.4710261330381
 30
0.0
 10
164.5749330487828
 20
185.2565013965184
 30
0.0
 10
163.8481083523691
 20
186.1409792764759
 30
0.0
 10
162.9636302277917
 20
186.8678056979495
 30
0.0
 10
162.1781537111318
 20
187.3403459814466
 30
0.0
 10
161.5500938818715
 20
187.6375352037039
 30
0.0
 10
160.8959395074959
 20
187.8714479463455
 30
0.0
 10
160.2992873787223
 20
188.0199456262478
 30
0.0
 10
159.7724539124114
 20
188.1056973051603
 30
0.0
 10
159.3206539552572
 20
188.1514067381614
 30
0.0
 10
159.0182984064528
 20
188.1570216141572
 30
0.0
 10
158.8669612016667
 20
188.1598320128476
 30
0.0
  0
SPLINE
  5
187
330
1F
100
AcDbEntity
  8
0
  6
Continuous
 62
   144
370
    18
100
AcDbSpline
210
0.0
220
0.0
230
1.0
 70
     8
 71
     3
 72
    25
 73
    21
 74
     0
 42
0.000000001
 43
0.00000001
 40
0.0
 40
0.0
 40
0.0
 40
0.0
 40
0.024808256590897
 40
0.0495601607395814
 40
0.0742932522552404
 40
0.0990451565433699
 40
0.1238534134125241
 40
0.1869754200661441
 40
0.2500974262633251
 40
0.313219431708904
 40
0.3763414359020614
 40
0.5000068843183364
 40
0.6236723386391024
 40
0.6867943512349715
 40
0.7499163689566933
 40
0.8130383914572492
 40
0.8761604183118303
 40
0.9174692899891441
 40
0.958691125847404
 40
1.0
 40
1.0
 40
1.0
 40
1.0
 10
158.8669638266667
 20
174.1598320149714
 30
0.0
 10
158.9578400773924
 20
174.1608444247159
 30
0.0
 10
159.1393861516551
 20
174.1628669444963
 30
0.0
 10
159.4111244056421
 20
174.1792939095202
 30
0.0
 10
159.6818310251247
 20
174.2055356574989
 30
0.0
 10
159.9515126254094
 20
174.2425500951228
 30
0.0
 10
160.3580158413348
 20
174.3144588636075
 30
0.0
 10
160.8959539338031
 20
174.4481744604634
 30
0.0
 10
161.5500934066707
 20
174.6821403044457
 30
0.0
 10
162.1781570729174
 20
174.9793153798747
 30
0.0
 10
162.9636321204854
 20
175.4518601425242
 30
0.0
 10
163.848109814592
 20
176.1786843309092
 30
0.0
 10
164.5749360516911
 20
177.0631620945379
 30
0.0
 10
165.0474762244291
 20
177.8486384674527
 30
0.0
 10
165.3446654345332
 20
178.4766983436528
 30
0.0
 10
165.5785781980539
 20
179.1308528606816
 30
0.0
 10
165.7270759212376
 20
179.7275051760611
 30
0.0
 10
165.8128276603393
 20
180.254338852858
 30
0.0
 10
165.8585371575361
 20
180.7061390236717
 30
0.0
 10
165.8641520873641
 20
181.0084947270032
 30
0.0
 10
165.8669625130785
 20
181.1598320134096
 30
0.0
  0
SPLINE
  5
188
330
1F
100
AcDbEntity
  8
0
  6
Continuous
 62
   144
370
    18
100
AcDbSpline
210
0.0
220
0.0
230
1.0
 70
     8
 71
     3
 72
    25
 73
    21
 74
     0
 42
0.000000001
 43
0.00000001
 40
0.0
 40
0.0
 40
0.0
 40
0.0
 40
0.0248082615267591
 40
0.0495601704468186
 40
0.0742932665842533
 40
0.0990451753601458
 40
0.123853436599226
 40
0.1869754533214487
 40
0.2500974704284602
 40
0.313219488347065
 40
0.3763415074832894
 40
0.5000069974046693
 40
0.6236724813528199
 40
0.6867944921149605
 40
0.7499164977780673
 40
0.8130384985762102
 40
0.8761604950572746
 40
0.9174693436829904
 40
0.958691153899754
 40
1.0
 40
1.0
 40
1.0
 40
1.0
 10
151.8669625152548
 20
181.1598320134096
 30
0.0
 10
151.8679749424566
 20
181.0689557325452
 30
0.0
 10
151.8699974971055
 20
180.8874095986351
 30
0.0
 10
151.8864245199397
 20
180.6156712587671
 30
0.0
 10
151.9126663296809
 20
180.3449645573432
 30
0.0
 10
151.949680833377
 20
180.0752828792278
 30
0.0
 10
152.0215897077685
 20
179.6687795551088
 30
0.0
 10
152.1553054601072
 20
179.130841328276
 30
0.0
 10
152.3892715238692
 20
178.476701703947
 30
0.0
 10
152.6864468444869
 20
177.8486378947862
 30
0.0
 10
153.158991979584
 20
177.063162631064
 30
0.0
 10
153.8858166769275
 20
176.1786847514837
 30
0.0
 10
154.7702948018478
 20
175.4518583304364
 30
0.0
 10
155.5557713177263
 20
174.9793180452612
 30
0.0
 10
156.1838311471699
 20
174.6821288233829
 30
0.0
 10
156.8379855215297
 20
174.4482160803267
 30
0.0
 10
157.4346376505252
 20
174.2997184017946
 30
0.0
 10
157.9614711167273
 20
174.213966722633
 30
0.0
 10
158.4132710735596
 20
174.1682572896738
 30
0.0
 10
158.7156266220666
 20
174.1626424136668
 30
0.0
 10
158.8669638266667
 20
174.1598320149714
 30
0.0
  0
SPLINE
  5
189
330
1F
100
AcDbEntity
  8
0
  6
Continuous
 62
   144
370
    18
100
AcDbSpline
210
0.0
220
0.0
230
1.0
 70
     8
 71
     3
 72
    23
 73
    19
 74
     0
 42
0.000000001
 43
0.00000001
 40
0.0
 40
0.0
 40
0.0
 40
0.0
 40
0.0309999496247829
 40
0.0619264901252311
 40
0.0928530298973712
 40
0.1238529773424057
 40
0.1869769946101257
 40
0.2501010073891665
 40
0.3132250151381958
 40
0.3763490175854223
 40
0.5000183697741692
 40
0.6236877159686107
 40
0.6868117096787473
 40
0.7499357047222183
 40
0.8130597006593235
 40
0.8761836970348367
 40
0.9380918487304479
 40
1.0
 40
1.0
 40
1.0
 40
1.0
 10
158.8669625146667
 20
176.8768320141415
 30
0.0
 10
158.7974812367328
 20
176.8777995910659
 30
0.0
 10
158.6586832153185
 20
176.8797324536536
 30
0.0
 10
158.4510595124194
 20
176.8954441122249
 30
0.0
 10
158.2444168435568
 20
176.9205520859691
 30
0.0
 10
157.9681329873228
 20
176.9681129908884
 30
0.0
 10
157.6255126075025
 20
177.0532480239223
 30
0.0
 10
157.2252692197736
 20
177.196412303856
 30
0.0
 10
156.8409847180044
 20
177.3782381709286
 30
0.0
 10
156.3603861656251
 20
177.6673689459147
 30
0.0
 10
155.81920979564
 20
178.1120812100318
 30
0.0
 10
155.3745045320747
 20
178.6532548390062
 30
0.0
 10
155.0853597437484
 20
179.1338551106638
 30
0.0
 10
154.903576870178
 20
179.5181347428052
 30
0.0
 10
154.7602512191614
 20
179.9183957425473
 30
0.0
 10
154.658980893472
 20
180.3282947632735
 30
0.0
 10
154.5955763842597
 20
180.7434311179956
 30
0.0
 10
154.5878338050208
 20
181.0210311612567
 30
0.0
 10
154.5839625154147
 20
181.1598311824096
 30
0.0
  0
SPLINE
  5
18A
330
1F
100
AcDbEntity
  8
0
  6
Continuous
 62
   144
370
    18
100
AcDbSpline
210
0.0
220
0.0
230
1.0
 70
     8
 71
     3
 72
    23
 73
    19
 74
     0
 42
0.000000001
 43
0.00000001
 40
0.0
 40
0.0
 40
0.0
 40
0.0
 40
0.0309999276462179
 40
0.0619264475310691
 40
0.0928529681325948
 40
0.1238528979237451
 40
0.186976883725275
 40
0.250100874032441
 40
0.3132248693150075
 40
0.3763488699045638
 40
0.5000182527186738
 40
0.6236876418018948
 40
0.6868116510660537
 40
0.7499356590237028
 40
0.8130596662060054
 40
0.8761836728999371
 40
0.9380918362918123
 40
1.0
 40
1.0
 40
1.0
 40
1.0
 10
163.1499625139187
 20
181.1598328444096
 30
0.0
 10
163.1489949500111
 20
181.0903516058474
 30
0.0
 10
163.1470621133851
 20
180.9515536601451
 30
0.0
 10
163.131350488055
 20
180.743930064276
 30
0.0
 10
163.1062425433631
 20
180.5372874922648
 30
0.0
 10
163.0586816703467
 20
180.2610037460424
 30
0.0
 10
162.973546661769
 20
179.9183834743695
 30
0.0
 10
162.8303823961587
 20
179.5181401765654
 30
0.0
 10
162.6485565206066
 20
179.1338557047767
 30
0.0
 10
162.359425675618
 20
178.6532570611153
 30
0.0
 10
161.9147132934882
 20
178.1120804637532
 30
0.0
 10
161.37353954803
 20
177.66737487693
 30
0.0
 10
160.8929391390024
 20
177.3782298534212
 30
0.0
 10
160.508659416411
 20
177.1964468242655
 30
0.0
 10
160.1083983208582
 20
177.0531210347708
 30
0.0
 10
159.6984991929907
 20
176.9518505857158
 30
0.0
 10
159.2833627169403
 20
176.888445968636
 30
0.0
 10
159.0057625823276
 20
176.8807033323129
 30
0.0
 10
158.8669625146667
 20
176.8768320141415
 30
0.0
  0
SPLINE
  5
18B
330
1F
100
AcDbEntity
  8
0
  6
Continuous
 62
   144
370
    18
100
AcDbSpline
210
0.0
220
0.0
230
1.0
 70
     8
 71
     3
 72
    23
 73
    19
 74
     0
 42
0.000000001
 43
0.00000001
 40
0.0
 40
0.0
 40
0.0
 40
0.0
 40
0.0309999495682561
 40
0.0619264900475907
 40
0.0928530298320071
 40
0.1238529773204451
 40
0.186976994587061
 40
0.2501010073649978
 40
0.3132250151447432
 40
0.3763490175525334
 40
0.5000183698335844
 40
0.623687715816512
 40
0.6868117096594685
 40
0.7499357047036234
 40
0.8130597006046099
 40
0.876183696870768
 40
0.9380918486183075
 40
1.0
 40
1.0
 40
1.0
 40
1.0
 10
158.8669625146667
 20
185.4428320126776
 30
0.0
 10
158.9364437924747
 20
185.4418644357632
 30
0.0
 10
159.0752418137166
 20
185.4399315731943
 30
0.0
 10
159.2828655164863
 20
185.4242199148231
 30
0.0
 10
159.4895081854552
 20
185.3991119413403
 30
0.0
 10
159.7657920419755
 20
185.3515510372816
 30
0.0
 10
160.1084124217859
 20
185.2664160037369
 30
0.0
 10
160.5086558097249
 20
185.1232517241521
 30
0.0
 10
160.8929403110328
 20
184.9414258561708
 30
0.0
 10
161.3735388642361
 20
184.652295082201
 30
0.0
 10
161.9147152330272
 20
184.2075828169526
 30
0.0
 10
162.359420496571
 20
183.6664091881415
 30
0.0
 10
162.6485652851443
 20
183.1858089167557
 30
0.0
 10
162.8303481579082
 20
182.8015292839948
 30
0.0
 10
162.9736738091976
 20
182.4012682847045
 30
0.0
 10
163.0749441347334
 20
181.9913692641607
 30
0.0
 10
163.1383486450138
 20
181.5762329094698
 30
0.0
 10
163.1460912242914
 20
181.2986328658229
 30
0.0
 10
163.1499625139187
 20
181.1598328444096
 30
0.0
  0
SPLINE
  5
18C
330
1F
100
AcDbEntity
  8
0
  6
Continuous
 62
   144
370
    18
100
AcDbSpline
210
0.0
220
0.0
230
1.0
 70
     8
 71
     3
 72
    23
 73
    19
 74
     0
 42
0.000000001
 43
0.00000001
 40
0.0
 40
0.0
 40
0.0
 40
0.0
 40
0.0309999276487521
 40
0.0619264475528624
 40
0.0928529681919697
 40
0.1238528980404923
 40
0.1869768837953819
 40
0.2501008739869469
 40
0.3132248693243854
 40
0.3763488699606453
 40
0.5000182528485398
 40
0.6236876417961948
 40
0.6868116510624951
 40
0.7499356590626817
 40
0.8130596661643984
 40
0.8761836729199404
 40
0.9380918362278848
 40
1.0
 40
1.0
 40
1.0
 40
1.0
 10
154.5839625154147
 20
181.1598311824096
 30
0.0
 10
154.5849300791683
 20
181.2293124209915
 30
0.0
 10
154.5868629154874
 20
181.3681103667707
 30
0.0
 10
154.602574540514
 20
181.5757339628342
 30
0.0
 10
154.6276824850252
 20
181.7823765351608
 30
0.0
 10
154.6752433578663
 20
182.0586602815752
 30
0.0
 10
154.7603783665318
 20
182.4012805530454
 30
0.0
 10
154.9035426322144
 20
182.801523850675
 30
0.0
 10
155.0853685085644
 20
183.1858083220713
 30
0.0
 10
155.3744993520451
 20
183.6664069672344
 30
0.0
 10
155.8192117361357
 20
184.2075835632056
 30
0.0
 10
156.360385480369
 20
184.6522891512053
 30
0.0
 10
156.8409858895857
 20
184.9414341744088
 30
0.0
 10
157.2252656128238
 20
185.1232172020828
 30
0.0
 10
157.625526708212
 20
185.2665429923271
 30
0.0
 10
158.0354258360517
 20
185.3678134409342
 30
0.0
 10
158.4505623122123
 20
185.4312180582646
 30
0.0
 10
158.728162446835
 20
185.4389606945303
 30
0.0
 10
158.8669625146667
 20
185.4428320126776
 30
0.0
  0
SPLINE
  5
18D
330
1F
100
AcDbEntity
  8
0
  6
Continuous
 62
   144
370
    18
100
AcDbSpline
210
0.0
220
0.0
230
1.0
 70
     8
 71
     3
 72
     9
 73
     5
 74
     0
 42
0.000000001
 43
0.00000001
 40
0.0
 40
0.0
 40
0.0
 40
0.0
 40
0.5269473297323516
 40
1.0
 40
1.0
 40
1.0
 40
1.0
 10
165.8669625121118
 20
185.2098320130985
 30
0.0
 10
165.8669629865131
 20
184.5343191706378
 30
0.0
 10
165.8669638867953
 20
183.2523829991351
 30
0.0
 10
165.8669722847949
 20
181.9607412203959
 30
0.0
 10
165.866976257491
 20
181.3497266279341
 30
0.0
  0
SPLINE
  5
18E
330
1F
100
AcDbEntity
  8
0
  6
Continuous
 62
   144
370
    18
100
AcDbSpline
210
0.0
220
0.0
230
1.0
 70
     8
 71
     3
 72
     9
 73
     5
 74
     0
 42
0.000000001
 43
0.00000001
 40
0.0
 40
0.0
 40
0.0
 40
0.0
 40
0.4778510215285136
 40
1.0
 40
1.0
 40
1.0
 40
1.0
 10
165.8669542435776
 20
181.0915654050223
 30
0.0
 10
165.8666020620084
 20
180.4549328755878
 30
0.0
 10
165.8658650507784
 20
179.1226504261373
 30
0.0
 10
165.8665860457439
 20
177.8002973321881
 30
0.0
 10
165.8669625125286
 20
177.1098320150039
 30
0.0
  0
SPLINE
  5
18F
330
1F
100
AcDbEntity
  8
0
  6
Continuous
 62
   144
370
    18
100
AcDbSpline
210
0.0
220
0.0
230
1.0
 70
     8
 71
     3
 72
    26
 73
    22
 74
     0
 42
0.000000001
 43
0.00000001
 40
0.0
 40
0.0
 40
0.0
 40
0.0
 40
0.1249999999999999
 40
0.1249999999999999
 40
0.2499999999999998
 40
0.2499999999999998
 40
0.3749999999999997
 40
0.3749999999999997
 40
0.4999999999999996
 40
0.4999999999999996
 40
0.5312499999999996
 40
0.5312499999999996
 40
0.5624999999999996
 40
0.5624999999999996
 40
0.6249999999999996
 40
0.6249999999999996
 40
0.7499999999999997
 40
0.7499999999999997
 40
0.8749999999999998
 40
0.8749999999999998
 40
1.0
 40
1.0
 40
1.0
 40
1.0
 10
150.8669625162787
 20
182.9566571424268
 30
0.0
 10
151.0544104385468
 20
183.7912310553687
 30
0.0
 10
151.3864819075485
 20
184.6438636323252
 30
0.0
 10
152.3585165047981
 20
186.2329175612129
 30
0.0
 10
152.9988472218173
 20
186.9662094895532
 30
0.0
 10
154.4976124654074
 20
188.1639434226908
 30
0.0
 10
155.3533510959796
 20
188.6262723972776
 30
0.0
 10
157.1145502375093
 20
189.2234694318974
 30
0.0
 10
158.0170727328073
 20
189.3594346003757
 30
0.0
 10
159.0830337205551
 20
189.3590603111014
 30
0.0
 10
159.2937543525227
 20
189.3508569360338
 30
0.0
 10
159.7235239712362
 20
189.3171197383195
 30
0.0
 10
159.9405987841019
 20
189.2915435439068
 30
0.0
 10
160.5953558454044
 20
189.1870746244501
 30
0.0
 10
161.0366644030861
 20
189.0802499186613
 30
0.0
 10
162.3464671165421
 20
188.6411293918647
 30
0.0
 10
163.2000360484096
 20
188.1863382802143
 30
0.0
 10
164.7038665089965
 20
186.9974572432627
 30
0.0
 10
165.351229758772
 20
186.2651782610322
 30
0.0
 10
166.3375473242179
 20
184.6670594938844
 30
0.0
 10
166.67654698035
 20
183.8044437368828
 30
0.0
 10
166.8669625123467
 20
182.9566571427294
 30
0.0
  0
LINE
  5
190
330
1F
100
AcDbEntity
  8
0
  6
Continuous
 62
   144
370
    18
100
AcDbLine
 10
150.8669625168
 20
182.9566571421
 30
0.0
 11
150.8669625168
 21
179.363006885
 31
0.0
  0
SPLINE
  5
191
330
1F
100
AcDbEntity
  8
0
  6
Continuous
 62
   144
370
    18
100
AcDbSpline
210
0.0
220
0.0
230
1.0
 70
     8
 71
     3
 72
    33
 73
    29
 74
     0
 42
0.000000001
 43
0.00000001
 40
0.0
 40
0.0
 40
0.0
 40
0.0
 40
0.0135779624032228
 40
0.0270930326225292
 40
0.0405630000698645
 40
0.0540058332170028
 40
0.0674396094173635
 40
0.0808824425626119
 40
0.0943524100061746
 40
0.1078674802198411
 40
0.1214454426155789
 40
0.1857569400565569
 40
0.2500684375222152
 40
0.3143799349881141
 40
0.3786914324326113
 40
0.4393494722718036
 40
0.5000075121098598
 40
0.5606655519479161
 40
0.6213235917871084
 40
0.6856350892316057
 40
0.7499465866975044
 40
0.8142580841631626
 40
0.8785695816041404
 40
0.902960814749174
 40
0.9271943922207062
 40
0.9513751893813553
 40
0.9756087668535836
 40
1.0
 40
1.0
 40
1.0
 40
1.0
 10
166.8669625120267
 20
182.9566571421419
 30
0.0
 10
166.8440204677205
 20
183.0541005541323
 30
0.0
 10
166.7982426450726
 20
183.24853602696
 30
0.0
 10
166.7164599847949
 20
183.5362690001265
 30
0.0
 10
166.6252938321455
 20
183.8200723553526
 30
0.0
 10
166.5238007640917
 20
184.0997328597813
 30
0.0
 10
166.4122332053635
 20
184.3753051285169
 30
0.0
 10
166.2905232080751
 20
184.6467736680855
 30
0.0
 10
166.1586943711185
 20
184.9141369886227
 30
0.0
 10
166.0167250313378
 20
185.1774082788375
 30
0.0
 10
165.6757018597771
 20
185.7586089296998
 30
0.0
 10
165.0516814303832
 20
186.6085854539716
 30
0.0
 10
164.0155095979724
 20
187.5929361728107
 30
0.0
 10
162.8276971267398
 20
188.3883393227183
 30
0.0
 10
161.5428390210979
 20
188.9505923032752
 30
0.0
 10
160.2101703282947
 20
189.2871118307229
 30
0.0
 10
158.86696254454
 20
189.3951476419417
 30
0.0
 10
157.5237545801053
 20
189.2871116478003
 30
0.0
 10
156.1910864402245
 20
188.9505930533279
 30
0.0
 10
154.9062261880628
 20
188.3883363201687
 30
0.0
 10
153.7184218131836
 20
187.5929473605246
 30
0.0
 10
152.6822197833105
 20
186.6085437056654
 30
0.0
 10
152.0108368562601
 20
185.6940897915541
 30
0.0
 10
151.599637868729
 20
184.9697386936029
 30
0.0
 10
151.365422776154
 20
184.4863075846068
 30
0.0
 10
151.1647904695747
 20
183.9894254945353
 30
0.0
 10
150.9946639226486
 20
183.4797607871777
 30
0.0
 10
150.9096215627283
 20
183.1314015175954
 30
0.0
 10
150.8669625168267
 20
182.9566571421419
 30
0.0
  0
LINE
  5
192
330
1F
100
AcDbEntity
  8
0
  6
Continuous
 62
   144
370
    18
100
AcDbLine
 10
166.866962512
 20
179.363006885
 30
0.0
 11
166.866962512
 21
182.9566571421
 31
0.0
  0
SPLINE
  5
193
330
1F
100
AcDbEntity
  8
0
  6
Continuous
 62
   144
370
    18
100
AcDbSpline
210
0.0
220
0.0
230
1.0
 70
     8
 71
     3
 72
    33
 73
    29
 74
     0
 42
0.000000001
 43
0.00000001
 40
0.0
 40
0.0
 40
0.0
 40
0.0
 40
0.0135779623925732
 40
0.0270930326037544
 40
0.0405630000456106
 40
0.0540058331900287
 40
0.0674396093905292
 40
0.0808824425388686
 40
0.094352409988552
 40
0.1078674802114346
 40
0.1214454426195371
 40
0.1857569400611853
 40
0.2500684375275136
 40
0.3143799349815277
 40
0.3786914324357847
 40
0.439349472275609
 40
0.5000075121142973
 40
0.5606655519529856
 40
0.6213235917928099
 40
0.6856350892470667
 40
0.7499465867010809
 40
0.8142580841674093
 40
0.8785695816090574
 40
0.9029608147597875
 40
0.9271943922349327
 40
0.9513751893958337
 40
0.9756087668637112
 40
1.0
 40
1.0
 40
1.0
 40
1.0
 10
150.8669625168267
 20
179.3630068850072
 30
0.0
 10
150.8899045610646
 20
179.2655634730824
 30
0.0
 10
150.9356823835806
 20
179.0711280003678
 30
0.0
 10
151.0174650437137
 20
178.7833950273485
 30
0.0
 10
151.108631196265
 20
178.4995916722203
 30
0.0
 10
151.210124264271
 20
178.2199311678402
 30
0.0
 10
151.3216918230006
 20
177.9443588991042
 30
0.0
 10
151.4434018203398
 20
177.6728903594858
 30
0.0
 10
151.5752306573971
 20
177.4055270388501
 30
0.0
 10
151.7171999973257
 20
177.1422557484863
 30
0.0
 10
152.0582231691186
 20
176.5610550975779
 30
0.0
 10
152.6822435984609
 20
175.7110785732028
 30
0.0
 10
153.7184154307175
 20
174.726727854235
 30
0.0
 10
154.9062279024035
 20
173.9313247051351
 30
0.0
 10
156.1910860076087
 20
173.3690717237183
 30
0.0
 10
157.5237547005785
 20
173.0325521964741
 30
0.0
 10
158.8669624843136
 20
172.9245163851833
 30
0.0
 10
160.2101704487274
 20
173.0325523793971
 30
0.0
 10
161.5428385887786
 20
173.3690709736638
 30
0.0
 10
162.827698840489
 20
173.9313277076915
 30
0.0
 10
164.0155032158766
 20
174.7267166664959
 30
0.0
 10
165.0517052453904
 20
175.7111203216029
 30
0.0
 10
165.7230881729587
 20
176.6255742354267
 30
0.0
 10
166.1342871597419
 20
177.3499253338896
 30
0.0
 10
166.3685022521838
 20
177.8333564430103
 30
0.0
 10
166.5691345587543
 20
178.3302385330738
 30
0.0
 10
166.7392611058337
 20
178.8399032402563
 30
0.0
 10
166.8243034660045
 20
179.1882625096625
 30
0.0
 10
166.8669625120267
 20
179.3630068850072
 30
0.0
  0
SPLINE
  5
194
330
1F
100
AcDbEntity
  8
0
  6
Continuous
 62
   144
370
    18
100
AcDbSpline
210
0.0
220
0.0
230
1.0
 70
     8
 71
     3
 72
    26
 73
    22
 74
     0
 42
0.000000001
 43
0.00000001
 40
0.0
 40
0.0
 40
0.0
 40
0.0
 40
0.125
 40
0.125
 40
0.25
 40
0.25
 40
0.375
 40
0.375
 40
0.5000000000000001
 40
0.5000000000000001
 40
0.5312500000000001
 40
0.5312500000000001
 40
0.5625000000000001
 40
0.5625000000000001
 40
0.6250000000000001
 40
0.6250000000000001
 40
0.75
 40
0.75
 40
0.875
 40
0.875
 40
1.0
 40
1.0
 40
1.0
 40
1.0
 10
166.8669625124147
 20
179.3630068850321
 30
0.0
 10
166.6795145901543
 20
178.528432972087
 30
0.0
 10
166.3474431211449
 20
177.6758003951337
 30
0.0
 10
165.3754085238953
 20
176.086746466246
 30
0.0
 10
164.735077806876
 20
175.3534545379056
 30
0.0
 10
163.236312563286
 20
174.155720604768
 30
0.0
 10
162.3805739327137
 20
173.6933916301812
 30
0.0
 10
160.619374791184
 20
173.0961945955614
 30
0.0
 10
159.7168522958859
 20
172.9602294270831
 30
0.0
 10
158.6508913081381
 20
172.9606037163574
 30
0.0
 10
158.4401706761705
 20
172.968807091425
 30
0.0
 10
158.0104010574571
 20
173.0025442891393
 30
0.0
 10
157.7933262445914
 20
173.0281204835521
 30
0.0
 10
157.1385691832889
 20
173.1325894030087
 30
0.0
 10
156.6972606256072
 20
173.2394141087976
 30
0.0
 10
155.3874579121512
 20
173.6785346355942
 30
0.0
 10
154.5338889802837
 20
174.1333257472446
 30
0.0
 10
153.0300585196968
 20
175.3222067841962
 30
0.0
 10
152.3826952699213
 20
176.0544857664267
 30
0.0
 10
151.3963777044754
 20
177.6526045335744
 30
0.0
 10
151.0573780483433
 20
178.5152202905761
 30
0.0
 10
150.8669625163467
 20
179.3630068847294
 30
0.0
  0
LINE
  5
195
330
1F
100
AcDbEntity
  8
0
  6
Continuous
 62
   144
370
    18
100
AcDbLine
 10
150.8669625167
 20
158.1598320187
 30
0.0
 11
166.8669625119
 21
158.1598320187
 31
0.0
  0
LINE
  5
196
330
1F
100
AcDbEntity
  8
0
  6
Continuous
 62
   144
370
    18
100
AcDbLine
 10
166.866962512
 20
191.1598320117
 30
0.0
 11
150.8669625168
 21
191.1598320117
 31
0.0
  0
LINE
  5
197
330
1F
100
AcDbEntity
  8
0
  6
Continuous
 62
   144
370
    18
100
AcDbLine
 10
166.8669625123
 20
191.1598320121
 30
0.0
 11
166.8669625123
 21
182.9566571422
 31
0.0
  0
LINE
  5
198
330
1F
100
AcDbEntity
  8
0
  6
Continuous
 62
   144
370
    18
100
AcDbLine
 10
166.8669625123
 20
182.9566571422
 30
0.0
 11
166.8669625123
 21
179.3630068852
 31
0.0
  0
LINE
  5
199
330
1F
100
AcDbEntity
  8
0
  6
Continuous
 62
   144
370
    18
100
AcDbLine
 10
166.8669625123
 20
179.3630068852
 30
0.0
 11
166.8669625123
 21
158.1598320185
 31
0.0
  0
LINE
  5
19A
330
1F
100
AcDbEntity
  8
0
  6
Continuous
 62
   144
370
    18
100
AcDbLine
 10
150.8669625163
 20
179.3630068852
 30
0.0
 11
150.8669625163
 21
158.1598320185
 31
0.0
  0
LINE
  5
19B
330
1F
100
AcDbEntity
  8
0
  6
Continuous
 62
   144
370
    18
100
AcDbLine
 10
150.8669625163
 20
182.9566571422
 30
0.0
 11
150.8669625163
 21
179.3630068852
 31
0.0
  0
LINE
  5
19C
330
1F
100
AcDbEntity
  8
0
  6
Continuous
 62
   144
370
    18
100
AcDbLine
 10
150.8669625163
 20
191.1598320121
 30
0.0
 11
150.8669625163
 21
182.9566571422
 31
0.0
  0
LINE
  5
19D
330
1F
100
AcDbEntity
  8
0
  6
Continuous
 62
   144
370
    18
100
AcDbLine
 10
166.8669625127
 20
158.1598320184
 30
0.0
 11
150.8669625162
 21
158.1598320177
 31
0.0
  0
LINE
  5
19E
330
1F
100
AcDbEntity
  8
0
  6
Continuous
 62
   144
370
    18
100
AcDbLine
 10
166.8669625128
 20
179.3630068845
 30
0.0
 11
166.8669625127
 21
158.1598320184
 31
0.0
  0
SPLINE
  5
19F
330
1F
100
AcDbEntity
  8
0
  6
Continuous
 62
   144
370
    18
100
AcDbSpline
210
0.0
220
0.0
230
1.0
 70
     8
 71
     3
 72
    33
 73
    29
 74
     0
 42
0.000000001
 43
0.00000001
 40
0.0
 40
0.0
 40
0.0
 40
0.0
 40
0.013577962394019
 40
0.0270930326054309
 40
0.0405630000461175
 40
0.0540058331877839
 40
0.0674396093837745
 40
0.0808824425256752
 40
0.0943524099668302
 40
0.1078674801789423
 40
0.1214454425738896
 40
0.1857569400428585
 40
0.2500684375204801
 40
0.3143799349782532
 40
0.3786914324476351
 40
0.4393494722667711
 40
0.5000075121106625
 40
0.5606655519693303
 40
0.6213235918004548
 40
0.685635089266034
 40
0.7499465867258082
 40
0.8142580841985754
 40
0.8785695816555376
 40
0.9029608147836764
 40
0.9271943922429062
 40
0.9513751893945829
 40
0.9756087668598551
 40
1.0
 40
1.0
 40
1.0
 40
1.0
 10
150.8669625156125
 20
179.36300688458
 30
0.0
 10
150.8899045599445
 20
179.2655634726692
 30
0.0
 10
150.9356823826461
 20
179.0711279999915
 30
0.0
 10
151.0174650429796
 20
178.783395027035
 30
0.0
 10
151.1086311956701
 20
178.4995916719891
 30
0.0
 10
151.2101242637484
 20
178.2199311677109
 30
0.0
 10
151.3216918224849
 20
177.944358899096
 30
0.0
 10
151.4434018197659
 20
177.6728903596185
 30
0.0
 10
151.5752306566973
 20
177.4055270391418
 30
0.0
 10
151.7171999964425
 20
177.1422557489612
 30
0.0
 10
152.0582231679543
 20
176.5610550978806
 30
0.0
 10
152.6822435979246
 20
175.71107857364
 30
0.0
 10
153.7184154310127
 20
174.7267278553745
 30
0.0
 10
154.9062279019437
 20
173.9313247047116
 30
0.0
 10
156.1910860078112
 20
173.3690717248297
 30
0.0
 10
157.5237547003405
 20
173.0325521964803
 30
0.0
 10
158.8669624841332
 20
172.9245163847891
 30
0.0
 10
160.2101704486193
 20
173.0325523797017
 30
0.0
 10
161.5428385885471
 20
173.369070974596
 30
0.0
 10
162.8276988407617
 20
173.9313277076695
 30
0.0
 10
164.0155032155415
 20
174.7267166676227
 30
0.0
 10
165.0517052458968
 20
175.7111203220258
 30
0.0
 10
165.723088173098
 20
176.6255742361167
 30
0.0
 10
166.1342871601241
 20
177.3499253342042
 30
0.0
 10
166.3685022525351
 20
177.8333564429365
 30
0.0
 10
166.5691345591721
 20
178.3302385327354
 30
0.0
 10
166.7392611063848
 20
178.8399032397952
 30
0.0
 10
166.8243034666949
 20
179.1882625091664
 30
0.0
 10
166.8669625127927
 20
179.3630068845166
 30
0.0
  0
LINE
  5
1A0
330
1F
100
AcDbEntity
  8
0
  6
Continuous
 62
   144
370
    18
100
AcDbLine
 10
150.8669625162
 20
158.1598320177
 30
0.0
 11
150.8669625156
 21
179.3630068846
 31
0.0
  0
LINE
  5
1A1
330
1F
100
AcDbEntity
  8
0
  6
Continuous
 62
   144
370
    18
100
AcDbLine
 10
150.8669625168
 20
191.1598320117
 30
0.0
 11
166.866962512
 21
191.1598320117
 31
0.0
  0
LINE
  5
1A2
330
1F
100
AcDbEntity
  8
0
  6
Continuous
 62
   144
370
    18
100
AcDbLine
 10
150.8669625168
 20
182.9566571431
 30
0.0
 11
150.8669625168
 21
191.1598320117
 31
0.0
  0
SPLINE
  5
1A3
330
1F
100
AcDbEntity
  8
0
  6
Continuous
 62
   144
370
    18
100
AcDbSpline
210
0.0
220
0.0
230
1.0
 70
     8
 71
     3
 72
    37
 73
    33
 74
     0
 42
0.000000001
 43
0.00000001
 40
0.0
 40
0.0
 40
0.0
 40
0.0
 40
0.0135750594708818
 40
0.0270872402051693
 40
0.0405543278114828
 40
0.0539942869199847
 40
0.0674251910191986
 40
0.0808651501280784
 40
0.0943322377351463
 40
0.1078444184705615
 40
0.1214194779429399
 40
0.153352602309974
 40
0.1852857266682615
 40
0.2177075206071661
 40
0.2501293145181233
 40
0.314910619940954
 40
0.3787173677784351
 40
0.4393624391438748
 40
0.5000075105011194
 40
0.5606525818583639
 40
0.6212976532238036
 40
0.6851044011026766
 40
0.7498857064878788
 40
0.782307500398836
 40
0.8147292943377404
 40
0.8466624187102032
 40
0.8785955430646332
 40
0.9029815614441237
 40
0.9272099578529411
 40
0.951385585231526
 40
0.9756139816337035
 40
0.9999999999999999
 40
0.9999999999999999
 40
0.9999999999999999
 40
0.9999999999999999
 10
166.8669625120267
 20
182.9566571430773
 30
0.0
 10
166.8440204677077
 20
183.0541005552456
 30
0.0
 10
166.7982426450324
 20
183.2485360284367
 30
0.0
 10
166.7164599849376
 20
183.5362689975695
 30
0.0
 10
166.6252938315951
 20
183.8200723670644
 30
0.0
 10
166.5238007661217
 20
184.0997328174687
 30
0.0
 10
166.4122331977684
 20
184.3753052869431
 30
0.0
 10
166.2905232364431
 20
184.6467730758163
 30
0.0
 10
166.1586942648367
 20
184.9141392065088
 30
0.0
 10
166.0167254301955
 20
185.1773999540042
 30
0.0
 10
165.7964752151836
 20
185.5528217932584
 30
0.0
 10
165.4777542892834
 20
186.0275618806506
 30
0.0
 10
165.0318685023683
 20
186.5811569579291
 30
0.0
 10
164.5373251634533
 20
187.0969223856195
 30
0.0
 10
163.8170800932111
 20
187.7267661259096
 30
0.0
 10
162.8235027806823
 20
188.3886993538556
 30
0.0
 10
161.5395407973824
 20
188.9518399542746
 30
0.0
 10
160.2101146580078
 20
189.2870119777434
 30
0.0
 10
158.8669625165924
 20
189.3951975247847
 30
0.0
 10
157.5238103621825
 20
189.2870119715743
 30
0.0
 10
156.1943842621717
 20
188.9518399794121
 30
0.0
 10
154.9104221252651
 20
188.3886992529793
 30
0.0
 10
153.9168453005495
 20
187.7267664289257
 30
0.0
 10
153.196599232657
 20
187.0969218599525
 30
0.0
 10
152.702058926062
 20
186.581158951519
 30
0.0
 10
152.2561619201577
 20
186.0275545532872
 30
0.0
 10
151.8929853891377
 20
185.4865717746324
 30
0.0
 10
151.5996348761545
 20
184.9697136038882
 30
0.0
 10
151.3654235735505
 20
184.4863142697267
 30
0.0
 10
151.164790256678
 20
183.9894237097448
 30
0.0
 10
150.994663976341
 20
183.4797612377853
 30
0.0
 10
150.9096215806622
 20
183.1314016687362
 30
0.0
 10
150.8669625168267
 20
182.9566571430773
 30
0.0
  0
LINE
  5
1A4
330
1F
100
AcDbEntity
  8
0
  6
Continuous
 62
   144
370
    18
100
AcDbLine
 10
166.866962512
 20
191.1598320117
 30
0.0
 11
166.866962512
 21
182.9566571431
 31
0.0
  0
CIRCLE
  5
1A5
330
1F
100
AcDbEntity
  8
0
  6
Continuous
 62
     7
370
    18
100
AcDbCircle
 10
158.8669625139
 20
181.1598320132
 30
0.0
 40
3.99061909191565
  0
DIMENSION
  5
1A6
330
1F
100
AcDbEntity
  8
0
  6
Continuous
 62
     7
370
    18
100
AcDbDimension
  2
_D_7
 10
176.0968776746
 20
181.1598320138
 30
0.0
 11
176.0968776746
 21
186.1598320128
 31
0.0
 70
   160
  1
<>
 71
     2
 42
-1.0
  3
SLDDIMSTYLE0
100
AcDbAlignedDimension
 13
166.866962512
 23
191.1598320117
 33
0.0
 14
165.6499625135
 24
181.1598320138
 34
0.0
 50
90.0
100
AcDbRotatedDimension
  0
DIMENSION
  5
1B2
330
1F
100
AcDbEntity
  8
0
  6
Continuous
 62
     7
370
    18
100
AcDbDimension
  2
_D_8
 10
151.8669625149
 20
151.0215044463
 30
0.0
 11
158.8669625135
 21
151.021504446
 31
0.0
 70
   160
  1
<>
 71
     2
 42
-1.0
  3
SLDDIMSTYLE0
100
AcDbAlignedDimension
 13
165.866962513
 23
177.1098320145
 33
0.0
 14
151.866962516
 24
177.1098320151
 34
0.0
 50
-0.0000000023
100
AcDbRotatedDimension
  0
DIMENSION
  5
1BE
330
1F
100
AcDbEntity
  8
0
  6
Continuous
 62
     7
370
    18
100
AcDbDimension
  2
_D_9
 10
166.8669625131
 20
143.3548320189
 30
0.0
 11
158.8669625152
 21
143.3548320186
 31
0.0
 70
   160
  1
<>
 71
     2
 42
-1.0
  3
SLDDIMSTYLE1
100
AcDbAlignedDimension
 13
150.8669625162
 23
158.1598320177
 33
0.0
 14
166.8669625127
 24
158.1598320184
 34
0.0
 50
0.0000000016
100
AcDbRotatedDimension
  0
DIMENSION
  5
1C8
330
1F
100
AcDbEntity
  8
0
  6
Continuous
 62
     7
370
    18
100
AcDbDimension
  2
_D_10
 10
143.4643376174
 20
158.1598320187
 30
0.0
 11
143.4643376174
 21
174.6598320152
 31
0.0
 70
   160
  1
<>
 71
     2
 42
-1.0
  3
SLDDIMSTYLE1
100
AcDbAlignedDimension
 13
150.8669625168
 23
191.1598320117
 33
0.0
 14
150.8669625167
 24
158.1598320187
 34
0.0
 50
90.0
100
AcDbRotatedDimension
  0
INSERT
  5
1D7
330
1F
100
AcDbEntity
  8
0
  6
Continuous
 62
     7
370
     0
100
AcDbBlockReference
  2
SW_NOTE_1
 10
168.2189054726
 20
201.8432837758
 30
0.0
  0
LEADER
  5
1D8
330
1F
100
AcDbEntity
  8
0
  6
Continuous
 62
     7
370
     0
100
AcDbLeader
  3
SLDDIMSTYLE2
 76
     2
 10
160.8397156328
 20
184.9614545784
 30
0.0
 10
168.2189054726
 20
201.8432837758
 30
0.0
  0
INSERT
  5
1E4
330
1F
100
AcDbEntity
  8
0
  6
Continuous
 62
     7
370
    18
100
AcDbBlockReference
  2
SW_CENTERMARKSYMBOL_2
 10
158.8669625144
 20
181.1598320138
 30
0.0
  0
LINE
  5
1E5
330
1F
100
AcDbEntity
  8
0
  6
Continuous
 62
     7
370
    18
100
AcDbLine
 10
57.3191555261
 20
96.9670149241
 30
0.0
 11
38.8091555261
 21
96.9670149241
 31
0.0
  0
SPLINE
  5
1E6
330
1F
100
AcDbEntity
  8
0
  6
Continuous
 62
     7
370
    18
100
AcDbSpline
210
0.0
220
0.0
230
1.0
 70
     8
 71
     3
 72
    13
 73
     9
 74
     0
 42
0.000000001
 43
0.00000001
 40
0.0
 40
0.0
 40
0.0
 40
0.0
 40
0.2394568402893651
 40
0.3683606533536992
 40
0.4999999909025405
 40
0.6316393297834066
 40
0.7605431466786282
 40
1.0
 40
1.0
 40
1.0
 40
1.0
 10
38.81415552622542
 20
96.9670148971294
 30
0.0
 10
38.75125737375654
 20
96.9603359043978
 30
0.0
 10
38.65450004366657
 20
96.95006149284463
 30
0.0
 10
38.53809201319283
 20
96.88771271036543
 30
0.0
 10
38.45798865446172
 20
96.82318184206876
 30
0.0
 10
38.39345776881512
 20
96.74307849622538
 30
0.0
 10
38.33110896030211
 20
96.62667047469553
 30
0.0
 10
38.32083453046432
 20
96.52991314275596
 30
0.0
 10
38.31415552578888
 20
96.46701498854097
 30
0.0
  0
LINE
  5
1E7
330
1F
100
AcDbEntity
  8
0
  6
Continuous
 62
     7
370
    18
100
AcDbLine
 10
119.2601774332
 20
84.6840149252
 30
0.0
 11
119.2602794012
 21
84.6840149252
 31
0.0
  0
LINE
  5
1E8
330
1F
100
AcDbEntity
  8
0
  6
Continuous
 62
     7
370
    18
100
AcDbLine
 10
119.3179426144
 20
95.853100809
 30
0.0
 11
119.2496770389
 21
95.969525059
 31
0.0
  0
LINE
  5
1E9
330
1F
100
AcDbEntity
  8
0
  6
Continuous
 62
     7
370
    18
100
AcDbLine
 10
119.2496017232
 20
81.9645218112
 30
0.0
 11
119.3179426144
 21
82.081072088
 31
0.0
  0
LINE
  5
1EA
330
1F
100
AcDbEntity
  8
0
  6
Continuous
 62
     7
370
    18
100
AcDbLine
 10
119.2602514236
 20
93.2500149237
 30
0.0
 11
119.2601570693
 21
93.2500149237
 31
0.0
  0
LINE
  5
1EB
330
1F
100
AcDbEntity
  8
0
  6
Continuous
 62
     7
370
    18
100
AcDbLine
 10
64.0240340469
 20
97.0497630225
 30
0.0
 11
64.0222513571
 21
97.0564161115
 31
0.0
  0
LINE
  5
1EC
330
1F
100
AcDbEntity
  8
0
  6
Continuous
 62
     7
370
    18
100
AcDbLine
 10
64.0222513571
 20
80.8776137338
 30
0.0
 11
64.0239923362
 21
80.8841111564
 31
0.0
  0
LINE
  5
1ED
330
1F
100
AcDbEntity
  8
0
  6
Continuous
 62
     7
370
    18
100
AcDbLine
 10
57.6042908915
 20
80.8842150007
 30
0.0
 11
57.606059695
 21
80.8776137361
 31
0.0
  0
LINE
  5
1EE
330
1F
100
AcDbEntity
  8
0
  6
Continuous
 62
     7
370
    18
100
AcDbLine
 10
57.606059695
 20
97.056416114
 30
0.0
 11
57.6042908915
 21
97.0498148494
 31
0.0
  0
SPLINE
  5
1EF
330
1F
100
AcDbEntity
  8
0
  6
Continuous
 62
     7
370
    18
100
AcDbSpline
210
0.0
220
0.0
230
1.0
 70
     8
 71
     3
 72
    13
 73
     9
 74
     0
 42
0.000000001
 43
0.00000001
 40
0.0
 40
0.0
 40
0.0
 40
0.0
 40
0.2394568533211341
 40
0.3683606702167495
 40
0.5000000090981063
 40
0.6316393466473567
 40
0.7605431597118384
 40
1.0
 40
1.0
 40
1.0
 40
1.0
 10
38.31415552578888
 20
81.46701486157343
 30
0.0
 10
38.32083453046437
 20
81.40411670735682
 30
0.0
 10
38.33110896030223
 20
81.30735937541462
 30
0.0
 10
38.39345776881514
 20
81.1909513538818
 30
0.0
 10
38.45798865446169
 20
81.11084800803576
 30
0.0
 10
38.53809201319276
 20
81.04631713973626
 30
0.0
 10
38.65450004366608
 20
80.98396835725329
 30
0.0
 10
38.75125737375642
 20
80.97369394569654
 30
0.0
 10
38.81415552622542
 20
80.96701495296263
 30
0.0
  0
LINE
  5
1F0
330
1F
100
AcDbEntity
  8
0
  6
Continuous
 62
     7
370
    18
100
AcDbLine
 10
38.8141555261
 20
80.9670149265
 30
0.0
 11
57.3141555261
 21
80.9670149265
 31
0.0
  0
SPLINE
  5
1F1
330
1F
100
AcDbEntity
  8
0
  6
Continuous
 62
   144
370
    18
100
AcDbSpline
210
0.0
220
0.0
230
1.0
 70
     8
 71
     3
 72
    14
 73
    10
 74
     0
 42
0.000000001
 43
0.00000001
 40
0.0
 40
0.0
 40
0.0
 40
0.0
 40
0.25
 40
0.25
 40
0.5
 40
0.5
 40
0.75
 40
0.75
 40
1.0
 40
1.0
 40
1.0
 40
1.0
 10
105.8141555176738
 20
88.96701411906157
 30
0.0
 10
105.8141554227465
 20
88.43668406113304
 30
0.0
 10
105.7175010058635
 20
87.86452429169192
 30
0.0
 10
105.2789042396032
 20
86.75665191035397
 30
0.0
 10
104.9354755182964
 20
86.22437380297107
 30
0.0
 10
104.0567958811921
 20
85.34569435017737
 30
0.0
 10
103.5245177128977
 20
85.0022657504504
 30
0.0
 10
102.4166452894785
 20
84.56366922527181
 30
0.0
 10
101.8444855374087
 20
84.46701492604602
 30
0.0
 10
101.3141555189825
 20
84.467014926046
 30
0.0
  0
SPLINE
  5
1F2
330
1F
100
AcDbEntity
  8
0
  6
Continuous
 62
   144
370
    18
100
AcDbSpline
210
0.0
220
0.0
230
1.0
 70
     8
 71
     3
 72
    20
 73
    16
 74
     0
 42
0.000000001
 43
0.00000001
 40
0.0
 40
0.0
 40
0.0
 40
0.0
 40
0.2500000000000012
 40
0.2500000000000012
 40
0.3749999999999992
 40
0.3749999999999992
 40
0.4999999999999973
 40
0.4999999999999973
 40
0.7499999999999976
 40
0.7499999999999976
 40
0.8749999999999987
 40
0.8749999999999987
 40
0.9374999999999993
 40
0.9374999999999993
 40
1.0
 40
1.0
 40
1.0
 40
1.0
 10
101.3141555187384
 20
93.46701492404603
 30
0.0
 10
101.8560023191281
 20
93.46701492404601
 30
0.0
 10
102.4382823863498
 20
93.36585591120229
 30
0.0
 10
103.2769539480871
 20
93.02759223971914
 30
0.0
 10
103.5501226092216
 20
92.88441881124083
 30
0.0
 10
104.0649108937128
 20
92.54178021862654
 30
0.0
 10
104.3063985233438
 20
92.34235570664939
 30
0.0
 10
104.9593521199344
 20
91.677792696586
 30
0.0
 10
105.2951447986586
 20
91.14599367670709
 30
0.0
 10
105.6149557112951
 20
90.32336064355314
 30
0.0
 10
105.6919343508023
 20
90.04523252391574
 30
0.0
 10
105.7665715906806
 20
89.63437261640813
 30
0.0
 10
105.7846922606642
 20
89.49844702273343
 30
0.0
 10
105.8084638233005
 20
89.23028607602986
 30
0.0
 10
105.8141555414197
 20
89.09967527296415
 30
0.0
 10
105.8141555176738
 20
88.96701411906157
 30
0.0
  0
SPLINE
  5
1F3
330
1F
100
AcDbEntity
  8
0
  6
Continuous
 62
   144
370
    18
100
AcDbSpline
210
0.0
220
0.0
230
1.0
 70
    24
 71
     3
 72
    22
 73
    18
 74
     0
 42
0.000000001
 43
0.00000001
 40
0.0
 40
0.0
 40
0.0
 40
0.0
 40
0.1250000000000001
 40
0.1250000000000001
 40
0.2500000000000002
 40
0.2500000000000002
 40
0.3750000000000001
 40
0.3750000000000001
 40
0.5000000000000001
 40
0.5000000000000001
 40
0.6250000000000001
 40
0.6250000000000001
 40
0.75
 40
0.75
 40
0.875
 40
0.875
 40
1.0
 40
1.0
 40
1.0
 40
1.0
 10
38.8141555260604
 20
96.9670149248029
 30
0.0
 10
38.8141555260604
 20
96.96701485240582
 30
0.0
 10
38.8141555260604
 20
96.92526186516817
 30
0.0
 10
38.8141555260604
 20
96.74252176259705
 30
0.0
 10
38.8141555260604
 20
96.60137372573426
 30
0.0
 10
38.8141555260604
 20
96.21243520659118
 30
0.0
 10
38.8141555260604
 20
95.96455097495357
 30
0.0
 10
38.8141555260604
 20
95.36748092167124
 30
0.0
 10
38.8141555260604
 20
95.01833340782845
 30
0.0
 10
38.8141555260604
 20
94.237870519835
 30
0.0
 10
38.8141555260604
 20
93.80672905966709
 30
0.0
 10
38.8141555260604
 20
92.8919555386643
 30
0.0
 10
38.8141555260604
 20
92.4085608902253
 30
0.0
 10
38.8141555260604
 20
91.42299613668403
 30
0.0
 10
38.8141555260604
 20
90.92102717459909
 30
0.0
 10
38.8141555260604
 20
89.92911384600325
 30
0.0
 10
38.8141555260604
 20
89.43927215817067
 30
0.0
 10
38.8141555260604
 20
88.96701492504602
 30
0.0
  0
LINE
  5
1F4
330
1F
100
AcDbEntity
  8
0
  6
Continuous
 62
   144
370
    18
100
AcDbLine
 10
38.8141555261
 20
88.9670149251
 30
0.0
 11
57.3141555261
 21
88.9670149251
 31
0.0
  0
SPLINE
  5
1F5
330
1F
100
AcDbEntity
  8
0
  6
Continuous
 62
   144
370
    18
100
AcDbSpline
210
0.0
220
0.0
230
1.0
 70
    24
 71
     3
 72
    22
 73
    18
 74
     0
 42
0.000000001
 43
0.00000001
 40
0.0
 40
0.0
 40
0.0
 40
0.0
 40
0.125
 40
0.125
 40
0.2499999999999999
 40
0.2499999999999999
 40
0.3749999999999999
 40
0.3749999999999999
 40
0.4999999999999999
 40
0.4999999999999999
 40
0.6249999999999999
 40
0.6249999999999999
 40
0.7499999999999998
 40
0.7499999999999998
 40
0.8749999999999999
 40
0.8749999999999999
 40
1.0
 40
1.0
 40
1.0
 40
1.0
 10
57.31415552606041
 20
88.96701492504602
 30
0.0
 10
57.31415552606041
 20
89.43927215817067
 30
0.0
 10
57.3141555260604
 20
89.92911384600325
 30
0.0
 10
57.31415552606041
 20
90.92102717459909
 30
0.0
 10
57.3141555260604
 20
91.42299613668403
 30
0.0
 10
57.3141555260604
 20
92.4085608902253
 30
0.0
 10
57.3141555260604
 20
92.8919555386643
 30
0.0
 10
57.31415552606041
 20
93.80672905966709
 30
0.0
 10
57.31415552606041
 20
94.237870519835
 30
0.0
 10
57.31415552606041
 20
95.01833340782845
 30
0.0
 10
57.3141555260604
 20
95.36748092167124
 30
0.0
 10
57.3141555260604
 20
95.96455097495357
 30
0.0
 10
57.31415552606041
 20
96.21243520659118
 30
0.0
 10
57.3141555260604
 20
96.60137372573426
 30
0.0
 10
57.3141555260604
 20
96.74252176259705
 30
0.0
 10
57.3141555260604
 20
96.92526186516817
 30
0.0
 10
57.31415552606041
 20
96.96701485240582
 30
0.0
 10
57.31415552606041
 20
96.9670149248029
 30
0.0
  0
SPLINE
  5
1F6
330
1F
100
AcDbEntity
  8
0
  6
Continuous
 62
   144
370
    18
100
AcDbSpline
210
0.0
220
0.0
230
1.0
 70
    24
 71
     3
 72
    22
 73
    18
 74
     0
 42
0.000000001
 43
0.00000001
 40
0.0
 40
0.0
 40
0.0
 40
0.0
 40
0.125
 40
0.125
 40
0.2499999999999999
 40
0.2499999999999999
 40
0.3749999999999999
 40
0.3749999999999999
 40
0.4999999999999999
 40
0.4999999999999999
 40
0.6249999999999999
 40
0.6249999999999999
 40
0.7499999999999999
 40
0.7499999999999999
 40
0.875
 40
0.875
 40
1.0
 40
1.0
 40
1.0
 40
1.0
 10
38.31415552578888
 20
96.46701500932677
 30
0.0
 10
38.31415552578888
 20
96.46701493659278
 30
0.0
 10
38.31415552578888
 20
96.43013876170896
 30
0.0
 10
38.31415552578888
 20
96.26714409916381
 30
0.0
 10
38.31415552578888
 20
96.14087274331762
 30
0.0
 10
38.31415552578888
 20
95.79012460856241
 30
0.0
 10
38.31415552578888
 20
95.56553569404302
 30
0.0
 10
38.31415552578888
 20
95.02021913153304
 30
0.0
 10
38.31415552578888
 20
94.69948849292896
 30
0.0
 10
38.31415552578888
 20
93.97695815430862
 30
0.0
 10
38.31415552578888
 20
93.57529011357316
 30
0.0
 10
38.31415552578888
 20
92.71705839130067
 30
0.0
 10
38.31415552578888
 20
92.26071280315317
 30
0.0
 10
38.31415552578888
 20
91.32490231809409
 30
0.0
 10
38.31415552578888
 20
90.8456479041588
 30
0.0
 10
38.31415552578888
 20
89.89459571677338
 30
0.0
 10
38.31415552578888
 20
89.42292515169882
 30
0.0
 10
38.31415552578888
 20
88.96701492488904
 30
0.0
  0
SPLINE
  5
1F7
330
1F
100
AcDbEntity
  8
0
  6
Continuous
 62
   144
370
    18
100
AcDbSpline
210
0.0
220
0.0
230
1.0
 70
    24
 71
     3
 72
    14
 73
    10
 74
     0
 42
0.000000001
 43
0.00000001
 40
0.0
 40
0.0
 40
0.0
 40
0.0
 40
0.25
 40
0.25
 40
0.5
 40
0.5
 40
0.75
 40
0.75
 40
1.0
 40
1.0
 40
1.0
 40
1.0
 10
38.31415552578888
 20
88.96701492488904
 30
0.0
 10
38.31415553574597
 20
88.96701492488782
 30
0.0
 10
38.32489491483949
 20
88.96701492488648
 30
0.0
 10
38.3736278881529
 20
88.9670149248839
 30
0.0
 10
38.41178663482389
 20
88.96701492488266
 30
0.0
 10
38.50941770585582
 20
88.96701492488063
 30
0.0
 10
38.56855972493209
 20
88.96701492487982
 30
0.0
 10
38.69165666181308
 20
88.96701492487881
 30
0.0
 10
38.75522996812285
 20
88.96701492487857
 30
0.0
 10
38.81415552622542
 20
88.96701492487857
 30
0.0
  0
SPLINE
  5
1F8
330
1F
100
AcDbEntity
  8
0
  6
Continuous
 62
   144
370
    18
100
AcDbSpline
210
0.0
220
0.0
230
1.0
 70
    24
 71
     3
 72
    22
 73
    18
 74
     0
 42
0.000000001
 43
0.00000001
 40
0.0
 40
0.0
 40
0.0
 40
0.0
 40
0.1249999999999999
 40
0.1249999999999999
 40
0.25
 40
0.25
 40
0.375
 40
0.375
 40
0.5
 40
0.5
 40
0.625
 40
0.625
 40
0.75
 40
0.75
 40
0.875
 40
0.875
 40
1.0
 40
1.0
 40
1.0
 40
1.0
 10
38.81415552622542
 20
88.96701492487857
 30
0.0
 10
38.81415552622542
 20
89.4533191669409
 30
0.0
 10
38.81415552622542
 20
89.95643443669472
 30
0.0
 10
38.81415552622542
 20
90.97089010369884
 30
0.0
 10
38.81415552622542
 20
91.48209481200769
 30
0.0
 10
38.81415552622542
 20
92.48029266189724
 30
0.0
 10
38.81415552622542
 20
92.9670612882916
 30
0.0
 10
38.81415552622542
 20
93.88250845499074
 30
0.0
 10
38.81415552622542
 20
94.31095436233754
 30
0.0
 10
38.81415552622542
 20
95.08165338256589
 30
0.0
 10
38.81415552622542
 20
95.4237660588808
 30
0.0
 10
38.81415552622542
 20
96.00543704738969
 30
0.0
 10
38.81415552622542
 20
96.24499854957965
 30
0.0
 10
38.81415552622542
 20
96.61912987907827
 30
0.0
 10
38.81415552622542
 20
96.75381931771584
 30
0.0
 10
38.81415552622542
 20
96.92768027588355
 30
0.0
 10
38.81415552622542
 20
96.96701485481881
 30
0.0
 10
38.81415552622542
 20
96.96701492519462
 30
0.0
  0
SPLINE
  5
1F9
330
1F
100
AcDbEntity
  8
0
  6
Continuous
 62
   144
370
    18
100
AcDbSpline
210
0.0
220
0.0
230
1.0
 70
     8
 71
     3
 72
    10
 73
     6
 74
     0
 42
0.000000001
 43
0.00000001
 40
0.0
 40
0.0
 40
0.0
 40
0.0
 40
0.4998327074606009
 40
0.9981829822895423
 40
1.0
 40
1.0
 40
1.0
 40
1.0
 10
109.6106594844813
 20
95.96701492328073
 30
0.0
 10
109.5321799174709
 20
95.96697905401645
 30
0.0
 10
109.3754535426699
 20
95.966907421871
 30
0.0
 10
109.2889591225206
 20
95.96729092962964
 30
0.0
 10
109.3143441444105
 20
95.96702786585222
 30
0.0
 10
109.314436363624
 20
95.96702691018888
 30
0.0
  0
SPLINE
  5
1FA
330
1F
100
AcDbEntity
  8
0
  6
Continuous
 62
   144
370
    18
100
AcDbSpline
210
0.0
220
0.0
230
1.0
 70
     8
 71
     3
 72
    17
 73
    13
 74
     0
 42
0.000000001
 43
0.00000001
 40
0.0
 40
0.0
 40
0.0
 40
0.0
 40
0.0642543967006909
 40
0.127217474620521
 40
0.1892201474783537
 40
0.2506215018122191
 40
0.3760354131825444
 40
0.5000032560210058
 40
0.6239274183969487
 40
0.7493846680610902
 40
0.8725093204021561
 40
1.0
 40
1.0
 40
1.0
 40
1.0
 10
109.6118242442155
 20
88.96701492477986
 30
0.0
 10
109.5889812845787
 20
89.11613192814698
 30
0.0
 10
109.5437544396145
 20
89.4113691347107
 30
0.0
 10
109.4853134583395
 20
89.85143916840359
 30
0.0
 10
109.4348790587983
 20
90.28565361067601
 30
0.0
 10
109.378475004042
 20
90.86631577966946
 30
0.0
 10
109.3294154775232
 20
91.59246363915108
 30
0.0
 10
109.3096899840978
 20
92.46703078008558
 30
0.0
 10
109.3290297426379
 20
93.3407659313382
 30
0.0
 10
109.3878026935062
 20
94.21198935653028
 30
0.0
 10
109.4801235018267
 20
95.08883951428834
 30
0.0
 10
109.5666450529916
 20
95.67090966104618
 30
0.0
 10
109.6106594844813
 20
95.96701492328073
 30
0.0
  0
LINE
  5
1FB
330
1F
100
AcDbEntity
  8
0
  6
Continuous
 62
   144
370
    18
100
AcDbLine
 10
109.2731773585
 20
88.9670149248
 30
0.0
 11
109.6118242442
 21
88.9670149248
 31
0.0
  0
LINE
  5
1FC
330
1F
100
AcDbEntity
  8
0
  6
Continuous
 62
   144
370
    18
100
AcDbLine
 10
64.0239923361
 20
80.8841111558
 30
0.0
 11
57.6043187161
 21
80.8841111558
 31
0.0
  0
LINE
  5
1FD
330
1F
100
AcDbEntity
  8
0
  6
Continuous
 62
   144
370
    18
100
AcDbLine
 10
57.6043187161
 20
97.049918694
 30
0.0
 11
64.0239923361
 21
97.049918694
 31
0.0
  0
LINE
  5
1FE
330
1F
100
AcDbEntity
  8
0
  6
Continuous
 62
   144
370
    18
100
AcDbLine
 10
57.6043187161
 20
93.0084668091
 30
0.0
 11
64.0239923361
 21
93.0084668091
 31
0.0
  0
LINE
  5
1FF
330
1F
100
AcDbEntity
  8
0
  6
Continuous
 62
   144
370
    18
100
AcDbLine
 10
57.3141555261
 20
95.0291927515
 30
0.0
 11
57.3276430615
 21
94.8512631354
 31
0.0
  0
SPLINE
  5
200
330
1F
100
AcDbEntity
  8
0
  6
Continuous
 62
   144
370
    18
100
AcDbSpline
210
0.0
220
0.0
230
1.0
 70
     8
 71
     3
 72
    11
 73
     7
 74
     0
 42
0.000000001
 43
0.00000001
 40
0.0
 40
0.0
 40
0.0
 40
0.0
 40
0.2397182215322694
 40
0.4862540913670703
 40
0.7396640328871328
 40
1.0
 40
1.0
 40
1.0
 40
1.0
 10
57.3907437110604
 20
94.01882978030004
 30
0.0
 10
57.40355387493735
 20
93.93788612316021
 30
0.0
 10
57.42953852706947
 20
93.77369675030879
 30
0.0
 10
57.47916290033474
 20
93.52438361438496
 30
0.0
 10
57.5366096548833
 20
93.26846559828837
 30
0.0
 10
57.58154708882542
 20
93.09590851051676
 30
0.0
 10
57.6043187160604
 20
93.00846680913807
 30
0.0
  0
SPLINE
  5
201
330
1F
100
AcDbEntity
  8
0
  6
Continuous
 62
   144
370
    18
100
AcDbSpline
210
0.0
220
0.0
230
1.0
 70
     8
 71
     3
 72
    13
 73
     9
 74
     0
 42
0.000000001
 43
0.00000001
 40
0.0
 40
0.0
 40
0.0
 40
0.0
 40
0.1304752666633142
 40
0.2574826315781364
 40
0.3810481323639841
 40
0.5012000442772545
 40
0.7532665947528602
 40
1.0
 40
1.0
 40
1.0
 40
1.0
 10
57.6043187160604
 20
97.04991869428589
 30
0.0
 10
57.58155612294403
 20
96.96248007780073
 30
0.0
 10
57.53663594361018
 20
96.78992687557388
 30
0.0
 10
57.4790739336991
 20
96.53401735471178
 30
0.0
 10
57.42987278256042
 20
96.28468232140162
 30
0.0
 10
57.37492087796261
 20
95.9507605133685
 30
0.0
 10
57.32549342679645
 20
95.5330475398036
 30
0.0
 10
57.31790779122171
 20
95.1959429120663
 30
0.0
 10
57.31415552606041
 20
95.02919275146199
 30
0.0
  0
LINE
  5
202
330
1F
100
AcDbEntity
  8
0
  6
Continuous
 62
   144
370
    18
100
AcDbLine
 10
64.0239923361
 20
97.0499186943
 30
0.0
 11
57.6043187161
 21
97.0499186943
 31
0.0
  0
SPLINE
  5
203
330
1F
100
AcDbEntity
  8
0
  6
Continuous
 62
   144
370
    18
100
AcDbSpline
210
0.0
220
0.0
230
1.0
 70
     8
 71
     3
 72
     9
 73
     5
 74
     0
 42
0.000000001
 43
0.00000001
 40
0.0
 40
0.0
 40
0.0
 40
0.0
 40
0.3399217934604812
 40
0.9999999999999999
 40
0.9999999999999999
 40
0.9999999999999999
 40
0.9999999999999999
 10
64.27719933769389
 20
95.5167244024708
 30
0.0
 10
64.26797443367117
 20
95.69114442823066
 30
0.0
 10
64.24083612068218
 20
96.20426253102782
 30
0.0
 10
64.11021348870763
 20
96.71366995528457
 30
0.0
 10
64.0239923360604
 20
97.04991869428589
 30
0.0
  0
SPLINE
  5
204
330
1F
100
AcDbEntity
  8
0
  6
Continuous
 62
   144
370
    18
100
AcDbSpline
210
0.0
220
0.0
230
1.0
 70
     8
 71
     3
 72
     9
 73
     5
 74
     0
 42
0.000000001
 43
0.00000001
 40
0.0
 40
0.0
 40
0.0
 40
0.0
 40
0.6142860378408318
 40
1.0
 40
1.0
 40
1.0
 40
1.0
 10
64.0239923360604
 20
93.00846680913807
 30
0.0
 10
64.08257470389982
 20
93.23659543885205
 30
0.0
 10
64.17794129898854
 20
93.60796743115033
 30
0.0
 10
64.22681238524494
 20
93.98153430981414
 30
0.0
 10
64.24566264555992
 20
94.125624270715
 30
0.0
  0
LINE
  5
205
330
1F
100
AcDbEntity
  8
0
  6
Continuous
 62
   144
370
    18
100
AcDbLine
 10
57.6043187161
 20
84.9255630412
 30
0.0
 11
64.0239923364
 21
84.9255630412
 31
0.0
  0
SPLINE
  5
206
330
1F
100
AcDbEntity
  8
0
  6
Continuous
 62
   144
370
    18
100
AcDbSpline
210
0.0
220
0.0
230
1.0
 70
     8
 71
     3
 72
    13
 73
     9
 74
     0
 42
0.000000001
 43
0.00000001
 40
0.0
 40
0.0
 40
0.0
 40
0.0
 40
0.1228743607714365
 40
0.246917529722557
 40
0.3721728436478405
 40
0.4986823936598628
 40
0.7424415067123902
 40
1.0
 40
1.0
 40
1.0
 40
1.0
 10
57.31415552604523
 20
88.96701492485316
 30
0.0
 10
57.3151026046176
 20
88.80093505155621
 30
0.0
 10
57.31700577058383
 20
88.46719551636222
 30
0.0
 10
57.3319807633894
 20
87.96434399489486
 30
0.0
 10
57.35574431539775
 20
87.45693125377414
 30
0.0
 10
57.39969879320017
 20
86.78859861517256
 30
0.0
 10
57.47557689809558
 20
85.94321609151693
 30
0.0
 10
57.56062443095222
 20
85.27094904880781
 30
0.0
 10
57.60431871605883
 20
84.92556304118054
 30
0.0
  0
SPLINE
  5
207
330
1F
100
AcDbEntity
  8
0
  6
Continuous
 62
   144
370
    18
100
AcDbSpline
210
0.0
220
0.0
230
1.0
 70
     8
 71
     3
 72
     9
 73
     5
 74
     0
 42
0.000000001
 43
0.00000001
 40
0.0
 40
0.0
 40
0.0
 40
0.0
 40
0.6734256824667818
 40
1.0
 40
1.0
 40
1.0
 40
1.0
 10
57.60431871605881
 20
93.00846680952577
 30
0.0
 10
57.54519490414782
 20
92.5525782321308
 30
0.0
 10
57.45739930405368
 20
91.87560883630223
 30
0.0
 10
57.41201962380666
 20
91.19463420224194
 30
0.0
 10
57.39719978570011
 20
90.97224537586628
 30
0.0
  0
LINE
  5
208
330
1F
100
AcDbEntity
  8
0
  6
Continuous
 62
   144
370
    18
100
AcDbLine
 10
64.0239923364
 20
93.0084668095
 30
0.0
 11
57.6043187161
 21
93.0084668095
 31
0.0
  0
LINE
  5
209
330
1F
100
AcDbEntity
  8
0
  6
Continuous
 62
   144
370
    18
100
AcDbLine
 10
64.2246172317
 20
91.110855701
 30
0.0
 11
64.0239923364
 21
93.0084668095
 31
0.0
  0
SPLINE
  5
20A
330
1F
100
AcDbEntity
  8
0
  6
Continuous
 62
   144
370
    18
100
AcDbSpline
210
0.0
220
0.0
230
1.0
 70
     8
 71
     3
 72
    13
 73
     9
 74
     0
 42
0.000000001
 43
0.00000001
 40
0.0
 40
0.0
 40
0.0
 40
0.0
 40
0.130516421978707
 40
0.2575600016736866
 40
0.3811567952518499
 40
0.5013351008206561
 40
0.7530857897156491
 40
1.0
 40
1.0
 40
1.0
 40
1.0
 10
64.02399233635958
 20
84.92556304118054
 30
0.0
 10
64.04676271982625
 20
85.10049535286794
 30
0.0
 10
64.09169760169684
 20
85.4457052950953
 30
0.0
 10
64.14927691660047
 20
85.95767022760758
 30
0.0
 10
64.19848745361412
 20
86.45646682966934
 30
0.0
 10
64.25341435990359
 20
87.12396266325605
 30
0.0
 10
64.30276943792441
 20
87.95924469089451
 30
0.0
 10
64.31038478360173
 20
88.6332706067687
 30
0.0
 10
64.31415552637318
 20
88.96701492485316
 30
0.0
  0
LINE
  5
20B
330
1F
100
AcDbEntity
  8
0
  6
Continuous
 62
   144
370
    18
100
AcDbLine
 10
57.6043187161
 20
80.8841111561
 30
0.0
 11
64.0239923361
 21
80.8841111561
 31
0.0
  0
SPLINE
  5
20C
330
1F
100
AcDbEntity
  8
0
  6
Continuous
 62
   144
370
    18
100
AcDbSpline
210
0.0
220
0.0
230
1.0
 70
     8
 71
     3
 72
    13
 73
     9
 74
     0
 42
0.000000001
 43
0.00000001
 40
0.0
 40
0.0
 40
0.0
 40
0.0
 40
0.1227219374535089
 40
0.2467366818915704
 40
0.3720878014796358
 40
0.4988174861007782
 40
0.7425187864143339
 40
1.0
 40
1.0
 40
1.0
 40
1.0
 10
57.31415552606041
 20
82.90483709846198
 30
0.0
 10
57.31508643631663
 20
82.82190009903842
 30
0.0
 10
57.31695806344804
 20
82.65515240528104
 30
0.0
 10
57.3319358704579
 20
82.4037839901832
 30
0.0
 10
57.3557372072508
 20
82.14988398296511
 30
0.0
 10
57.39973096948049
 20
81.81554411621558
 30
0.0
 10
57.4756143477054
 20
81.39279547699947
 30
0.0
 10
57.56063802360437
 20
81.0567524088069
 30
0.0
 10
57.6043187160604
 20
80.88411115613808
 30
0.0
  0
SPLINE
  5
20D
330
1F
100
AcDbEntity
  8
0
  6
Continuous
 62
   144
370
    18
100
AcDbSpline
210
0.0
220
0.0
230
1.0
 70
     8
 71
     3
 72
    13
 73
     9
 74
     0
 42
0.000000001
 43
0.00000001
 40
0.0
 40
0.0
 40
0.0
 40
0.0
 40
0.1304752666633139
 40
0.2574826315781363
 40
0.3810481323639839
 40
0.5012000442772544
 40
0.75326659475286
 40
1.0
 40
1.0
 40
1.0
 40
1.0
 10
57.6043187160604
 20
84.92556304128588
 30
0.0
 10
57.58155612294403
 20
84.83812442480071
 30
0.0
 10
57.53663594361018
 20
84.66557122257389
 30
0.0
 10
57.4790739336991
 20
84.40966170171177
 30
0.0
 10
57.42987278256041
 20
84.16032666840161
 30
0.0
 10
57.3749208779626
 20
83.8264048603685
 30
0.0
 10
57.32549342679643
 20
83.4086918868036
 30
0.0
 10
57.31790779122171
 20
83.0715872590663
 30
0.0
 10
57.31415552606041
 20
82.90483709846198
 30
0.0
  0
LINE
  5
20E
330
1F
100
AcDbEntity
  8
0
  6
Continuous
 62
   144
370
    18
100
AcDbLine
 10
64.0239923361
 20
84.9255630413
 30
0.0
 11
57.6043187161
 21
84.9255630413
 31
0.0
  0
SPLINE
  5
20F
330
1F
100
AcDbEntity
  8
0
  6
Continuous
 62
   144
370
    18
100
AcDbSpline
210
0.0
220
0.0
230
1.0
 70
     8
 71
     3
 72
    13
 73
     9
 74
     0
 42
0.000000001
 43
0.00000001
 40
0.0
 40
0.0
 40
0.0
 40
0.0
 40
0.1227219375158883
 40
0.2467366819543485
 40
0.3720878014808768
 40
0.4988174859786513
 40
0.7425187862938407
 40
1.0
 40
1.0
 40
1.0
 40
1.0
 10
64.3141555260604
 20
82.90483709846198
 30
0.0
 10
64.31322461580477
 20
82.98777409794803
 30
0.0
 10
64.31135298867497
 20
83.15452179178875
 30
0.0
 10
64.29637518166705
 20
83.40589020694917
 30
0.0
 10
64.27257384488003
 20
83.65979021410506
 30
0.0
 10
64.22858008260711
 20
83.99413008081139
 30
0.0
 10
64.15269670439147
 20
84.41687872013097
 30
0.0
 10
64.06767302851479
 20
84.75292178849186
 30
0.0
 10
64.0239923360604
 20
84.92556304128588
 30
0.0
  0
SPLINE
  5
210
330
1F
100
AcDbEntity
  8
0
  6
Continuous
 62
   144
370
    18
100
AcDbSpline
210
0.0
220
0.0
230
1.0
 70
     8
 71
     3
 72
    13
 73
     9
 74
     0
 42
0.000000001
 43
0.00000001
 40
0.0
 40
0.0
 40
0.0
 40
0.0
 40
0.1304752665882451
 40
0.2574826314576026
 40
0.3810481322277031
 40
0.5012000441550488
 40
0.7532665946924105
 40
1.0
 40
1.0
 40
1.0
 40
1.0
 10
64.0239923360604
 20
80.88411115613808
 30
0.0
 10
64.04675492917771
 20
80.97154977255025
 30
0.0
 10
64.0916751085182
 20
81.14410297465152
 30
0.0
 10
64.14923711842758
 20
81.40001249535763
 30
0.0
 10
64.19843826956622
 20
81.64934752857413
 30
0.0
 10
64.25339017416114
 20
81.98326933656577
 30
0.0
 10
64.30281762532383
 20
82.40098231012037
 30
0.0
 10
64.31040326089892
 20
82.73808693785767
 30
0.0
 10
64.3141555260604
 20
82.90483709846198
 30
0.0
  0
LINE
  5
211
330
1F
100
AcDbEntity
  8
0
  6
Continuous
 62
   144
370
    18
100
AcDbLine
 10
109.6106594845
 20
95.9670149244
 30
0.0
 11
118.6864704522
 21
95.9670149244
 31
0.0
  0
SPLINE
  5
212
330
1F
100
AcDbEntity
  8
0
  6
Continuous
 62
   144
370
    18
100
AcDbSpline
210
0.0
220
0.0
230
1.0
 70
     8
 71
     3
 72
    19
 73
    15
 74
     0
 42
0.000000001
 43
0.00000001
 40
0.0
 40
0.0
 40
0.0
 40
0.0
 40
0.0525605877660475
 40
0.1037829063528306
 40
0.153693653683866
 40
0.2023216879801671
 40
0.2496982115181513
 40
0.3760577747314345
 40
0.4990566019266291
 40
0.6226846335499417
 40
0.749690599725293
 40
0.8295292951606543
 40
0.9129209649750547
 40
1.0
 40
1.0
 40
1.0
 40
1.0
 10
118.6864704522231
 20
95.96701492441377
 30
0.0
 10
118.7254542415617
 20
95.84717832466454
 30
0.0
 10
118.8024292361376
 20
95.61055633967507
 30
0.0
 10
118.905135220097
 20
95.25749863160898
 30
0.0
 10
118.9964733490389
 20
94.91167454533492
 30
0.0
 10
119.0756947227061
 20
94.57288901186149
 30
0.0
 10
119.1809669447652
 20
94.05410359604204
 30
0.0
 10
119.2805979713549
 20
93.3557840686229
 30
0.0
 10
119.3242688614578
 20
92.4721232500102
 30
0.0
 10
119.2808285040386
 20
91.5869076959071
 30
0.0
 10
119.1699137903329
 20
90.80918891457921
 30
0.0
 10
119.0245216351824
 20
90.13319560728644
 30
0.0
 10
118.8726823198764
 20
89.55483571810922
 30
0.0
 10
118.7477976861297
 20
89.16576048583829
 30
0.0
 10
118.6840047112232
 20
88.96701492536098
 30
0.0
  0
LINE
  5
213
330
1F
100
AcDbEntity
  8
0
  6
Continuous
 62
   144
370
    18
100
AcDbLine
 10
118.6840047112
 20
88.9670149254
 30
0.0
 11
109.6118242445
 21
88.9670149254
 31
0.0
  0
SPLINE
  5
214
330
1F
100
AcDbEntity
  8
0
  6
Continuous
 62
   144
370
    18
100
AcDbSpline
210
0.0
220
0.0
230
1.0
 70
     8
 71
     3
 72
    17
 73
    13
 74
     0
 42
0.000000001
 43
0.00000001
 40
0.0
 40
0.0
 40
0.0
 40
0.0
 40
0.0652491525376919
 40
0.1287599950941322
 40
0.1905459722076894
 40
0.2506216864675393
 40
0.3766559994424769
 40
0.500003165469559
 40
0.6233671995805854
 40
0.7493843677969443
 40
0.8712526231038619
 40
1.0
 40
1.0
 40
1.0
 40
1.0
 10
109.6118242444885
 20
88.96701492536098
 30
0.0
 10
109.5886563273079
 20
89.11846027475634
 30
0.0
 10
109.5429377120232
 20
89.41731630103055
 30
0.0
 10
109.4843214284334
 20
89.86056175566685
 30
0.0
 10
109.434275196253
 20
90.29241553345706
 30
0.0
 10
109.3780413268221
 20
90.87078206430945
 30
0.0
 10
109.3297251366861
 20
91.59427494571686
 30
0.0
 10
109.3095738830473
 20
92.46701341737993
 30
0.0
 10
109.3293142273056
 20
93.3397370051578
 30
0.0
 10
109.3873403961677
 20
94.20765403356334
 30
0.0
 10
109.4799267547085
 20
95.08600664767634
 30
0.0
 10
109.5662917005192
 20
95.66802028884541
 30
0.0
 10
109.6106594844885
 20
95.96701492441377
 30
0.0
  0
SPLINE
  5
215
330
1F
100
AcDbEntity
  8
0
  6
Continuous
 62
   144
370
    18
100
AcDbSpline
210
0.0
220
0.0
230
1.0
 70
    24
 71
     3
 72
    16
 73
    12
 74
     0
 42
0.000000001
 43
0.00000001
 40
0.0
 40
0.0
 40
0.0
 40
0.0
 40
0.0818575510498196
 40
0.1643631787792066
 40
0.2475798871339372
 40
0.3315690798375343
 40
0.4163904829846013
 40
0.5021020829690979
 40
0.6609041265632313
 40
0.8267817274551837
 40
1.0
 40
1.0
 40
1.0
 40
1.0
 10
119.3141555147318
 20
95.96701492404601
 30
0.0
 10
119.3132407071532
 20
95.96701492404601
 30
0.0
 10
119.3114038493477
 20
95.96701492404601
 30
0.0
 10
119.2966018110656
 20
95.96701492404603
 30
0.0
 10
119.273004141075
 20
95.96701492404601
 30
0.0
 10
119.2397297705611
 20
95.96701492404601
 30
0.0
 10
119.1970081391674
 20
95.96701492404603
 30
0.0
 10
119.1301774748699
 20
95.96701492404601
 30
0.0
 10
119.0266649969371
 20
95.96701492404603
 30
0.0
 10
118.8748736376717
 20
95.96701492404601
 30
0.0
 10
118.7501713567261
 20
95.96701492404601
 30
0.0
 10
118.6864704527048
 20
95.96701492404601
 30
0.0
  0
SPLINE
  5
216
330
1F
100
AcDbEntity
  8
0
  6
Continuous
 62
   144
370
    18
100
AcDbSpline
210
0.0
220
0.0
230
1.0
 70
    24
 71
     3
 72
    10
 73
     6
 74
     0
 42
0.000000001
 43
0.00000001
 40
0.0
 40
0.0
 40
0.0
 40
0.0
 40
0.5002071092833307
 40
0.9989301251543545
 40
1.0
 40
1.0
 40
1.0
 40
1.0
 10
109.6106594843139
 20
95.96701492404601
 30
0.0
 10
109.5322960809355
 20
95.96701492404605
 30
0.0
 10
109.3758017750939
 20
95.96701492404611
 30
0.0
 10
109.2883096028524
 20
95.9670149240458
 30
0.0
 10
109.3143261185093
 20
95.96701492404601
 30
0.0
 10
109.3143818104093
 20
95.96701492404601
 30
0.0
  0
LINE
  5
217
330
1F
100
AcDbEntity
  8
0
  6
Continuous
 62
   144
370
    18
100
AcDbLine
 10
118.6864704527
 20
95.967014924
 30
0.0
 11
109.6106594843
 21
95.967014924
 31
0.0
  0
LINE
  5
218
330
1F
100
AcDbEntity
  8
0
  6
Continuous
 62
   144
370
    18
100
AcDbLine
 10
109.6106594842
 20
81.967014926
 30
0.0
 11
118.6864704521
 21
81.967014926
 31
0.0
  0
SPLINE
  5
219
330
1F
100
AcDbEntity
  8
0
  6
Continuous
 62
   144
370
    18
100
AcDbSpline
210
0.0
220
0.0
230
1.0
 70
    24
 71
     3
 72
    15
 73
    11
 74
     0
 42
0.000000001
 43
0.00000001
 40
0.0
 40
0.0
 40
0.0
 40
0.0
 40
0.1048318408122729
 40
0.2069857821766891
 40
0.3065147376918778
 40
0.4034759185689143
 40
0.4979312020085359
 40
0.6684540325628093
 40
0.835648811485135
 40
1.0
 40
1.0
 40
1.0
 40
1.0
 10
118.6864704521468
 20
81.967014926046
 30
0.0
 10
118.725554774532
 20
81.967014926046
 30
0.0
 10
118.802725021444
 20
81.967014926046
 30
0.0
 10
118.905759188542
 20
81.96701492604602
 30
0.0
 10
118.9974481481187
 20
81.967014926046
 30
0.0
 10
119.0770167370286
 20
81.967014926046
 30
0.0
 10
119.1635350903037
 20
81.967014926046
 30
0.0
 10
119.2434333207277
 20
81.967014926046
 30
0.0
 10
119.3029814965829
 20
81.967014926046
 30
0.0
 10
119.3104521997694
 20
81.967014926046
 30
0.0
 10
119.3141555141462
 20
81.967014926046
 30
0.0
  0
SPLINE
  5
21A
330
1F
100
AcDbEntity
  8
0
  6
Continuous
 62
   144
370
    18
100
AcDbSpline
210
0.0
220
0.0
230
1.0
 70
    24
 71
     3
 72
    10
 73
     6
 74
     0
 42
0.000000001
 43
0.00000001
 40
0.0
 40
0.0
 40
0.0
 40
0.0
 40
0.0010941004257837
 40
0.4998050215026131
 40
1.0
 40
1.0
 40
1.0
 40
1.0
 10
109.3143855903226
 20
81.967014926046
 30
0.0
 10
109.3143286335253
 20
81.967014926046
 30
0.0
 10
109.2883097300991
 20
81.96701492604616
 30
0.0
 10
109.375800809349
 20
81.96701492604595
 30
0.0
 10
109.5322957585972
 20
81.96701492604599
 30
0.0
 10
109.6106594841569
 20
81.967014926046
 30
0.0
  0
LINE
  5
21B
330
1F
100
AcDbEntity
  8
0
  6
Continuous
 62
   144
370
    18
100
AcDbLine
 10
109.611824245
 20
88.9670149254
 30
0.0
 11
118.6840047111
 21
88.9670149254
 31
0.0
  0
SPLINE
  5
21C
330
1F
100
AcDbEntity
  8
0
  6
Continuous
 62
   144
370
    18
100
AcDbSpline
210
0.0
220
0.0
230
1.0
 70
     8
 71
     3
 72
    19
 73
    15
 74
     0
 42
0.000000001
 43
0.00000001
 40
0.0
 40
0.0
 40
0.0
 40
0.0
 40
0.0525647908480932
 40
0.103789348971652
 40
0.1537002794061579
 40
0.2023263434310902
 40
0.2496986426375892
 40
0.3760710320236226
 40
0.4990554418305531
 40
0.6226979304315464
 40
0.7496907736057642
 40
0.8295353662740419
 40
0.912926827268207
 40
1.0
 40
1.0
 40
1.0
 40
1.0
 10
118.684004711093
 20
88.96701492541389
 30
0.0
 10
118.723051670287
 20
88.84718343012057
 30
0.0
 10
118.8001500170831
 20
88.61057575638823
 30
0.0
 10
118.9030579669852
 20
88.25754615472195
 30
0.0
 10
118.9946049106537
 20
87.91176248941967
 30
0.0
 10
119.0740434638528
 20
87.57302977709648
 30
0.0
 10
119.1796804427845
 20
87.05428420082845
 30
0.0
 10
119.2798490750534
 20
86.35603780440016
 30
0.0
 10
119.3242644063853
 20
85.47237529540226
 30
0.0
 10
119.2815701589994
 20
84.58716263061571
 30
0.0
 10
119.1712549689233
 20
83.80936094232634
 30
0.0
 10
119.0263271337142
 20
83.13331024299703
 30
0.0
 10
118.8748396183605
 20
82.55488080983791
 30
0.0
 10
118.750157804827
 20
82.16577156065543
 30
0.0
 10
118.686470453093
 20
81.96701492636099
 30
0.0
  0
LINE
  5
21D
330
1F
100
AcDbEntity
  8
0
  6
Continuous
 62
   144
370
    18
100
AcDbLine
 10
118.6864704531
 20
81.9670149264
 30
0.0
 11
109.610659485
 21
81.9670149264
 31
0.0
  0
SPLINE
  5
21E
330
1F
100
AcDbEntity
  8
0
  6
Continuous
 62
   144
370
    18
100
AcDbSpline
210
0.0
220
0.0
230
1.0
 70
     8
 71
     3
 72
    17
 73
    13
 74
     0
 42
0.000000001
 43
0.00000001
 40
0.0
 40
0.0
 40
0.0
 40
0.0
 40
0.0652445741296813
 40
0.1287540301282223
 40
0.1905418512755358
 40
0.2506226799654677
 40
0.3766459512479196
 40
0.5000038776206255
 40
0.6233571465627645
 40
0.7493853515047509
 40
0.8712466542470089
 40
1.0
 40
1.0
 40
1.0
 40
1.0
 10
109.6106594850298
 20
81.96701492636099
 30
0.0
 10
109.5875314030891
 20
82.11845404004058
 30
0.0
 10
109.5418903088108
 20
82.41730488649623
 30
0.0
 10
109.4834009574058
 20
82.86055328252762
 30
0.0
 10
109.4334853641758
 20
83.29243155693905
 30
0.0
 10
109.3774433504478
 20
83.87080253637092
 30
0.0
 10
109.3293878813819
 20
84.59432005555662
 30
0.0
 10
109.3095738555687
 20
85.46703863528073
 30
0.0
 10
109.3296516294777
 20
86.33978210875561
 30
0.0
 10
109.3879898443861
 20
87.20766757397355
 30
0.0
 10
109.4808611679077
 20
88.08602070025057
 30
0.0
 10
109.567376809808
 20
88.66801512627792
 30
0.0
 10
109.6118242450298
 20
88.96701492541389
 30
0.0
  0
SPLINE
  5
21F
330
1F
100
AcDbEntity
  8
0
  6
Continuous
 62
   144
370
    18
100
AcDbSpline
210
0.0
220
0.0
230
1.0
 70
     8
 71
     3
 72
    10
 73
     6
 74
     0
 42
0.000000001
 43
0.00000001
 40
0.0
 40
0.0
 40
0.0
 40
0.0
 40
0.0425964067460915
 40
0.5162916965958897
 40
1.0
 40
1.0
 40
1.0
 40
1.0
 10
119.2451132983282
 20
95.96689415267154
 30
0.0
 10
119.2430071275893
 20
95.96688975299125
 30
0.0
 10
119.2174791887993
 20
95.96683642646498
 30
0.0
 10
119.0352152206899
 20
95.96711156908545
 30
0.0
 10
118.8035264150297
 20
95.96704736246379
 30
0.0
 10
118.6864704525356
 20
95.96701492340021
 30
0.0
  0
SPLINE
  5
220
330
1F
100
AcDbEntity
  8
0
  6
Continuous
 62
   144
370
    18
100
AcDbSpline
210
0.0
220
0.0
230
1.0
 70
    24
 71
     3
 72
    22
 73
    18
 74
     0
 42
0.000000001
 43
0.00000001
 40
0.0
 40
0.0
 40
0.0
 40
0.0
 40
0.125
 40
0.125
 40
0.25
 40
0.25
 40
0.375
 40
0.375
 40
0.5
 40
0.5
 40
0.625
 40
0.625
 40
0.75
 40
0.75
 40
0.875
 40
0.875
 40
1.0
 40
1.0
 40
1.0
 40
1.0
 10
119.3141555152396
 20
88.96701361265293
 30
0.0
 10
119.3141555152396
 20
89.37593678637404
 30
0.0
 10
119.3141555152396
 20
89.80046687802378
 30
0.0
 10
119.3141555152396
 20
90.66141097624921
 30
0.0
 10
119.3141555152396
 20
91.09774502524441
 30
0.0
 10
119.3141555152396
 20
91.95610169475334
 30
0.0
 10
119.3141555152396
 20
92.37795620740563
 30
0.0
 10
119.3141555152396
 20
93.17803662959267
 30
0.0
 10
119.3141555152396
 20
93.55605466354918
 30
0.0
 10
119.3141555152396
 20
94.24190376152985
 30
0.0
 10
119.3141555152396
 20
94.54957314512444
 30
0.0
 10
119.3141555152396
 20
95.07681290811294
 30
0.0
 10
119.3141555152396
 20
95.29633652713022
 30
0.0
 10
119.3141555152396
 20
95.64136276050533
 30
0.0
 10
119.3141555152396
 20
95.7669382347406
 30
0.0
 10
119.3141555152396
 20
95.9296946969059
 30
0.0
 10
119.3141555152396
 20
95.9670149238696
 30
0.0
 10
119.3141555152396
 20
95.96701492391324
 30
0.0
  0
SPLINE
  5
221
330
1F
100
AcDbEntity
  8
0
  6
Continuous
 62
   144
370
    18
100
AcDbSpline
210
0.0
220
0.0
230
1.0
 70
    24
 71
     3
 72
    22
 73
    18
 74
     0
 42
0.000000001
 43
0.00000001
 40
0.0
 40
0.0
 40
0.0
 40
0.0
 40
0.1250000000000001
 40
0.1250000000000001
 40
0.2500000000000002
 40
0.2500000000000002
 40
0.3750000000000001
 40
0.3750000000000001
 40
0.5000000000000001
 40
0.5000000000000001
 40
0.6250000000000001
 40
0.6250000000000001
 40
0.75
 40
0.75
 40
0.875
 40
0.875
 40
1.0
 40
1.0
 40
1.0
 40
1.0
 10
119.3141555152396
 20
81.9670149259142
 30
0.0
 10
119.3141555152396
 20
81.96701492592796
 30
0.0
 10
119.3141555152396
 20
82.0043927543611
 30
0.0
 10
119.3141555152396
 20
82.16735799670711
 30
0.0
 10
119.3141555152396
 20
82.2930845160168
 30
0.0
 10
119.3141555152397
 20
82.63845295798451
 30
0.0
 10
119.3141555152397
 20
82.8581670533858
 30
0.0
 10
119.3141555152396
 20
83.38575416325614
 30
0.0
 10
119.3141555152396
 20
83.6935794539677
 30
0.0
 10
119.3141555152396
 20
84.37963903146925
 30
0.0
 10
119.3141555152396
 20
84.75771097031898
 30
0.0
 10
119.3141555152396
 20
85.55776286241911
 30
0.0
 10
119.3141555152396
 20
85.97953495749995
 30
0.0
 10
119.3141555152396
 20
86.83759898607931
 30
0.0
 10
119.3141555152396
 20
87.2737233943617
 30
0.0
 10
119.3141555152396
 20
88.13416254963342
 30
0.0
 10
119.3141555152396
 20
88.55808108443327
 30
0.0
 10
119.3141555152396
 20
88.96701361265293
 30
0.0
  0
SPLINE
  5
222
330
1F
100
AcDbEntity
  8
0
  6
Continuous
 62
   144
370
    18
100
AcDbSpline
210
0.0
220
0.0
230
1.0
 70
     8
 71
     3
 72
    10
 73
     6
 74
     0
 42
0.000000001
 43
0.00000001
 40
0.0
 40
0.0
 40
0.0
 40
0.0
 40
0.4838468509195613
 40
0.9576850199638897
 40
1.0
 40
1.0
 40
1.0
 40
1.0
 10
118.6864704525356
 20
81.96701492682072
 30
0.0
 10
118.8035223364547
 20
81.96698258407392
 30
0.0
 10
119.0352048111361
 20
81.96691856761073
 30
0.0
 10
119.2174485618051
 20
81.96719420388838
 30
0.0
 10
119.2429738587437
 20
81.96714071125689
 30
0.0
 10
119.245066459423
 20
81.96713632585376
 30
0.0
  0
SPLINE
  5
223
330
1F
100
AcDbEntity
  8
0
  6
Continuous
 62
   144
370
    18
100
AcDbSpline
210
0.0
220
0.0
230
1.0
 70
     8
 71
     3
 72
    19
 73
    15
 74
     0
 42
0.000000001
 43
0.00000001
 40
0.0
 40
0.0
 40
0.0
 40
0.0
 40
0.0516861813761213
 40
0.1023174581925347
 40
0.1520685428422541
 40
0.201128113848916
 40
0.2496979484149738
 40
0.3754403170987867
 40
0.4990559471289661
 40
0.6232635952961212
 40
0.7496922552569273
 40
0.8307254955191158
 40
0.9139168237087901
 40
1.0
 40
1.0
 40
1.0
 40
1.0
 10
118.6840047106586
 20
88.96701492535354
 30
0.0
 10
118.7224522761964
 20
88.84922626890027
 30
0.0
 10
118.7985627001973
 20
88.61605299876621
 30
0.0
 10
118.9007494296222
 20
88.26691581793698
 30
0.0
 10
118.9923907824944
 20
87.92190674626731
 30
0.0
 10
119.0727651579202
 20
87.57969312222855
 30
0.0
 10
119.1788244868821
 20
87.05848353135741
 30
0.0
 10
119.2805207642098
 20
86.35794962880836
 30
0.0
 10
119.3240086406906
 20
85.47236465724009
 30
0.0
 10
119.2822107847032
 20
84.58608167713433
 30
0.0
 10
119.1703667062743
 20
83.8052016574203
 30
0.0
 10
119.0253862033579
 20
83.12827446152349
 30
0.0
 10
118.8734608499066
 20
82.54989617639404
 30
0.0
 10
118.7495064547932
 20
82.16350899432692
 30
0.0
 10
118.6864704525356
 20
81.96701492682072
 30
0.0
  0
SPLINE
  5
224
330
1F
100
AcDbEntity
  8
0
  6
Continuous
 62
   144
370
    18
100
AcDbSpline
210
0.0
220
0.0
230
1.0
 70
     8
 71
     3
 72
    19
 73
    15
 74
     0
 42
0.000000001
 43
0.00000001
 40
0.0
 40
0.0
 40
0.0
 40
0.0
 40
0.0519001163814096
 40
0.1026689484186091
 40
0.1524510774124499
 40
0.2014038876537099
 40
0.24969683493401
 40
0.3754803342995155
 40
0.4990562109998515
 40
0.6233035710857227
 40
0.7496916159961632
 40
0.8310136268476773
 40
0.9141571339885755
 40
1.0
 40
1.0
 40
1.0
 40
1.0
 10
118.6864704525356
 20
95.9670149234002
 30
0.0
 10
118.7249928502357
 20
95.84868494188082
 30
0.0
 10
118.8011979599382
 20
95.61460425736539
 30
0.0
 10
118.9033579238218
 20
95.26442636456349
 30
0.0
 10
118.9947726095139
 20
94.91923660185716
 30
0.0
 10
119.0747202505327
 20
94.57790957686565
 30
0.0
 10
119.1802615102528
 20
94.05763061043554
 30
0.0
 10
119.2812231722518
 20
93.35689597005528
 30
0.0
 10
119.324013638679
 20
92.47219011323314
 30
0.0
 10
119.2815149860448
 20
91.58501974174649
 30
0.0
 10
119.1688652492251
 20
90.80439246937146
 30
0.0
 10
119.0233392374892
 20
90.12671122070034
 30
0.0
 10
118.870961441745
 20
89.54848305318104
 30
0.0
 10
118.7469837536807
 20
89.1628907626429
 30
0.0
 10
118.6840047106586
 20
88.96701492535354
 30
0.0
  0
SPLINE
  5
225
330
1F
100
AcDbEntity
  8
0
  6
Continuous
 62
   144
370
    18
100
AcDbSpline
210
0.0
220
0.0
230
1.0
 70
    24
 71
     3
 72
    25
 73
    21
 74
     0
 42
0.000000001
 43
0.00000001
 40
0.0
 40
0.0
 40
0.0
 40
0.0
 40
0.024808256590897
 40
0.0495601607395814
 40
0.0742932522552404
 40
0.0990451565433699
 40
0.1238534134125241
 40
0.1869754200661441
 40
0.2500974262633251
 40
0.313219431708904
 40
0.3763414359020614
 40
0.5000068843183364
 40
0.6236723386391024
 40
0.6867943512349715
 40
0.7499163689566933
 40
0.8130383914572492
 40
0.8761604183118303
 40
0.9174692899891441
 40
0.958691125847404
 40
1.0
 40
1.0
 40
1.0
 40
1.0
 10
119.3141555150604
 20
88.96701361272602
 30
0.0
 10
119.3141555150604
 20
88.87613736200026
 30
0.0
 10
119.3141555150604
 20
88.69459128773758
 30
0.0
 10
119.3141555150604
 20
88.42285303375064
 30
0.0
 10
119.3141555150604
 20
88.15214641426796
 30
0.0
 10
119.3141555150604
 20
87.88246481398333
 30
0.0
 10
119.3141555150604
 20
87.47596159805792
 30
0.0
 10
119.3141555150604
 20
86.93802350558957
 30
0.0
 10
119.3141555150604
 20
86.28388403272201
 30
0.0
 10
119.3141555150604
 20
85.6558203664753
 30
0.0
 10
119.3141555150603
 20
84.87034531890728
 30
0.0
 10
119.3141555150605
 20
83.9858676248007
 30
0.0
 10
119.3141555150604
 20
83.25904138770166
 30
0.0
 10
119.3141555150604
 20
82.78650121496355
 30
0.0
 10
119.3141555150604
 20
82.4893120048595
 30
0.0
 10
119.3141555150604
 20
82.25539924133876
 30
0.0
 10
119.3141555150604
 20
82.10690151815513
 30
0.0
 10
119.3141555150604
 20
82.02114977905339
 30
0.0
 10
119.3141555150604
 20
81.97544028185655
 30
0.0
 10
119.3141555150604
 20
81.96982535202854
 30
0.0
 10
119.3141555150604
 20
81.96701492631415
 30
0.0
  0
SPLINE
  5
226
330
1F
100
AcDbEntity
  8
0
  6
Continuous
 62
   144
370
    18
100
AcDbSpline
210
0.0
220
0.0
230
1.0
 70
    24
 71
     3
 72
    25
 73
    21
 74
     0
 42
0.000000001
 43
0.00000001
 40
0.0
 40
0.0
 40
0.0
 40
0.0
 40
0.0248082615267591
 40
0.0495601704468186
 40
0.0742932665842533
 40
0.0990451753601458
 40
0.123853436599226
 40
0.1869754533214487
 40
0.2500974704284602
 40
0.313219488347065
 40
0.3763415074832894
 40
0.5000069974046693
 40
0.6236724813528199
 40
0.6867944921149605
 40
0.7499164977780673
 40
0.8130384985762102
 40
0.8761604950572746
 40
0.9174693436829904
 40
0.958691153899754
 40
1.0
 40
1.0
 40
1.0
 40
1.0
 10
119.3141555150604
 20
95.96701492413787
 30
0.0
 10
119.3141555150604
 20
95.96600249693611
 30
0.0
 10
119.3141555150604
 20
95.96397994228712
 30
0.0
 10
119.3141555150604
 20
95.94755291945306
 30
0.0
 10
119.3141555150604
 20
95.9213111097118
 30
0.0
 10
119.3141555150604
 20
95.88429660601572
 30
0.0
 10
119.3141555150604
 20
95.81238773162423
 30
0.0
 10
119.3141555150604
 20
95.67867197928551
 30
0.0
 10
119.3141555150604
 20
95.44470591552354
 30
0.0
 10
119.3141555150604
 20
95.14753059490587
 30
0.0
 10
119.3141555150604
 20
94.67498545980868
 30
0.0
 10
119.3141555150604
 20
93.94816076246519
 30
0.0
 10
119.3141555150604
 20
93.06368263754494
 30
0.0
 10
119.3141555150604
 20
92.2782061216664
 30
0.0
 10
119.3141555150604
 20
91.65014629222274
 30
0.0
 10
119.3141555150604
 20
90.99599191786301
 30
0.0
 10
119.3141555150604
 20
90.3993397888675
 30
0.0
 10
119.3141555150604
 20
89.8725063226654
 30
0.0
 10
119.3141555150604
 20
89.42070636583307
 30
0.0
 10
119.3141555150604
 20
89.11835081732612
 30
0.0
 10
119.3141555150604
 20
88.96701361272602
 30
0.0
  0
LINE
  5
227
330
1F
100
AcDbEntity
  8
0
  6
Continuous
 62
   144
370
    18
100
AcDbLine
 10
109.6118242442
 20
88.9670149249
 30
0.0
 11
109.2731773585
 21
88.9670149249
 31
0.0
  0
SPLINE
  5
228
330
1F
100
AcDbEntity
  8
0
  6
Continuous
 62
   144
370
    18
100
AcDbSpline
210
0.0
220
0.0
230
1.0
 70
     8
 71
     3
 72
    17
 73
    13
 74
     0
 42
0.000000001
 43
0.00000001
 40
0.0
 40
0.0
 40
0.0
 40
0.0
 40
0.0644107794582413
 40
0.1274605490989654
 40
0.1894292849310963
 40
0.2506224161984107
 40
0.3760662654390877
 40
0.5000038331129412
 40
0.6239647685532259
 40
0.7493855801395424
 40
0.8727612292285304
 40
1.0
 40
1.0
 40
1.0
 40
1.0
 10
109.6106594844727
 20
81.96701492686405
 30
0.0
 10
109.5878033744046
 20
82.11652599437697
 30
0.0
 10
109.5425741074396
 20
82.41238893722372
 30
0.0
 10
109.4842318294072
 20
82.85307208187173
 30
0.0
 10
109.433989612126
 20
83.28685785479469
 30
0.0
 10
109.3778237107016
 20
83.86679709923585
 30
0.0
 10
109.3290934117877
 20
84.59325952462098
 30
0.0
 10
109.3096904111319
 20
85.46694363146834
 30
0.0
 10
109.3293493330706
 20
86.34155468507082
 30
0.0
 10
109.3885202683593
 20
87.21248840278986
 30
0.0
 10
109.4811013569751
 20
88.08974352767702
 30
0.0
 10
109.567804450553
 20
88.67160142306687
 30
0.0
 10
109.6118242442068
 20
88.96701492486899
 30
0.0
  0
SPLINE
  5
229
330
1F
100
AcDbEntity
  8
0
  6
Continuous
 62
   144
370
    18
100
AcDbSpline
210
0.0
220
0.0
230
1.0
 70
     8
 71
     3
 72
    10
 73
     6
 74
     0
 42
0.000000001
 43
0.00000001
 40
0.0
 40
0.0
 40
0.0
 40
0.0
 40
0.0017778651378275
 40
0.4866164132495569
 40
1.0
 40
1.0
 40
1.0
 40
1.0
 10
109.3144380631021
 20
81.9670001192053
 30
0.0
 10
109.3143452816865
 20
81.96700010293563
 30
0.0
 10
109.2889502397671
 20
81.96699564979536
 30
0.0
 10
109.3742565024294
 20
81.96828518373654
 30
0.0
 10
109.5303704189415
 20
81.96744634163046
 30
0.0
 10
109.6106594844727
 20
81.96701492686405
 30
0.0
  0
LINE
  5
22A
330
1F
100
AcDbEntity
  8
0
  6
Continuous
 62
   144
370
    18
100
AcDbLine
 10
109.3141555172
 20
80.9670149275
 30
0.0
 11
64.3141555262
 21
80.9670149275
 31
0.0
  0
LINE
  5
22B
330
1F
100
AcDbEntity
  8
0
  6
Continuous
 62
   144
370
    18
100
AcDbLine
 10
109.3141555172
 20
96.9670149227
 30
0.0
 11
109.3141555172
 21
80.9670149275
 31
0.0
  0
LINE
  5
22C
330
1F
100
AcDbEntity
  8
0
  6
Continuous
 62
   144
370
    18
100
AcDbLine
 10
64.3141555262
 20
96.9670149227
 30
0.0
 11
109.3141555172
 21
96.9670149227
 31
0.0
  0
LINE
  5
22D
330
1F
100
AcDbEntity
  8
0
  6
Continuous
 62
   144
370
    18
100
AcDbLine
 10
64.3141555262
 20
80.9670149275
 30
0.0
 11
64.3141555262
 21
96.9670149227
 31
0.0
  0
SPLINE
  5
22E
330
1F
100
AcDbEntity
  8
0
  6
Continuous
 62
   144
370
    18
100
AcDbSpline
210
0.0
220
0.0
230
1.0
 70
     8
 71
     3
 72
    24
 73
    20
 74
     0
 42
0.000000001
 43
0.00000001
 40
0.0
 40
0.0
 40
0.0
 40
0.0
 40
0.0315414260138067
 40
0.0628549142812038
 40
0.0940155180501541
 40
0.1250993980252108
 40
0.1561832788744075
 40
0.1873438852593204
 40
0.2186573778653684
 40
0.2501988099093902
 40
0.3751091728170723
 40
0.5000195553255065
 40
0.624929943536733
 40
0.7498403260309079
 40
0.8001847481467744
 40
0.8500607334839234
 40
0.8997795924735247
 40
0.9496555778353136
 40
1.0
 40
1.0
 40
1.0
 40
1.0
 10
96.81415551916042
 20
88.96701573112601
 30
0.0
 10
96.81517668160708
 20
88.89274956580678
 30
0.0
 10
96.8172116269524
 20
88.74475392816215
 30
0.0
 10
96.83384992660392
 20
88.52390416756549
 30
0.0
 10
96.86046547089342
 20
88.30518120362385
 30
0.0
 10
96.8980126145525
 20
88.08858894952098
 30
0.0
 10
96.94623828121706
 20
87.87413017808632
 30
0.0
 10
97.00520376763619
 20
87.66181368017122
 30
0.0
 10
97.07490947272507
 20
87.45162427066897
 30
0.0
 10
97.23426801897821
 20
87.03922697851965
 30
0.0
 10
97.54707261019236
 20
86.44971985965054
 30
0.0
 10
98.11227106363567
 20
85.76514386040468
 30
0.0
 10
98.79689153591659
 20
85.19991619668735
 30
0.0
 10
99.42567467813365
 20
84.86626420369242
 30
0.0
 10
99.92308286887456
 20
84.68221502191857
 30
0.0
 10
100.2631089965006
 20
84.58578321853805
 30
0.0
 10
100.6086087740001
 20
84.51746830215474
 30
0.0
 10
100.9595835211112
 20
84.47480500608542
 30
0.0
 10
101.1955971387327
 20
84.46961969841931
 30
0.0
 10
101.3141555191604
 20
84.46701492635101
 30
0.0
  0
SPLINE
  5
22F
330
1F
100
AcDbEntity
  8
0
  6
Continuous
 62
   144
370
    18
100
AcDbSpline
210
0.0
220
0.0
230
1.0
 70
     8
 71
     3
 72
    24
 73
    20
 74
     0
 42
0.000000001
 43
0.00000001
 40
0.0
 40
0.0
 40
0.0
 40
0.0
 40
0.0315414472612782
 40
0.0628549552250907
 40
0.0940155770632013
 40
0.1250994734140405
 40
0.1561833688912143
 40
0.1873439881147795
 40
0.2186574917422945
 40
0.2501989329766269
 40
0.3751093080085214
 40
0.500019663264182
 40
0.62493001292671
 40
0.7498403683266499
 40
0.8001847818772687
 40
0.850060758815977
 40
0.899779609460644
 40
0.9496555864161321
 40
1.0
 40
1.0
 40
1.0
 40
1.0
 10
101.3141555191604
 20
93.46701492390103
 30
0.0
 10
101.2398893135711
 20
93.46599374862348
 30
0.0
 10
101.0918935989677
 20
93.46395877775434
 30
0.0
 10
100.8710437302501
 20
93.44732044543021
 30
0.0
 10
100.6523206700038
 20
93.42070487266476
 30
0.0
 10
100.4357283315741
 20
93.3831577052152
 30
0.0
 10
100.2212694877312
 20
93.33493201928225
 30
0.0
 10
100.0089529293631
 20
93.27596651813488
 30
0.0
 10
99.79876347126057
 20
93.20626080287934
 30
0.0
 10
99.38636615604285
 20
93.04690226405397
 30
0.0
 10
98.79685910107922
 20
92.7340977601741
 30
0.0
 10
98.11228332072277
 20
92.16889940411929
 30
0.0
 10
97.54705602375593
 20
91.48427905778682
 30
0.0
 10
97.2134042973562
 20
90.85549607850434
 30
0.0
 10
97.0293552817485
 20
90.3580880097811
 30
0.0
 10
96.93292357692194
 20
90.01806196362612
 30
0.0
 10
96.86460874911594
 20
89.67256227530179
 30
0.0
 10
96.82194553248729
 20
89.32158762467962
 30
0.0
 10
96.81676026902237
 20
89.085574076539
 30
0.0
 10
96.81415551916042
 20
88.96701573112601
 30
0.0
  0
SPLINE
  5
230
330
1F
100
AcDbEntity
  8
0
  6
Continuous
 62
   144
370
    18
100
AcDbSpline
210
0.0
220
0.0
230
1.0
 70
     8
 71
     3
 72
    24
 73
    20
 74
     0
 42
0.000000001
 43
0.00000001
 40
0.0
 40
0.0
 40
0.0
 40
0.0
 40
0.0315414260182141
 40
0.0628549142899867
 40
0.0940155180632917
 40
0.1250993980426913
 40
0.1561832788962315
 40
0.1873438852854988
 40
0.2186573778959221
 40
0.2501988099443505
 40
0.3751091728694891
 40
0.500019555395374
 40
0.6249299436240572
 40
0.7498403261356861
 40
0.800184748253277
 40
0.8500607335810453
 40
0.8997795925498233
 40
0.9496555778792073
 40
0.9999999999999999
 40
0.9999999999999999
 40
0.9999999999999999
 40
0.9999999999999999
 10
105.8141555181604
 20
88.96701411912602
 30
0.0
 10
105.8131343557138
 20
89.04128028444526
 30
0.0
 10
105.8110994103684
 20
89.18927592208989
 30
0.0
 10
105.7944611107169
 20
89.41012568268656
 30
0.0
 10
105.7678455664273
 20
89.6288486466282
 30
0.0
 10
105.7302984227683
 20
89.84544090073106
 30
0.0
 10
105.6820727561038
 20
90.05989967216573
 30
0.0
 10
105.6231072696846
 20
90.27221617008081
 30
0.0
 10
105.5534015645957
 20
90.48240557958304
 30
0.0
 10
105.3940430183426
 20
90.8948028717324
 30
0.0
 10
105.0812384271285
 20
91.48430999060163
 30
0.0
 10
104.5160399736849
 20
92.16888598984679
 30
0.0
 10
103.8314195014052
 20
92.7341136535669
 30
0.0
 10
103.2026363591956
 20
93.06776564654756
 30
0.0
 10
102.7052281685097
 20
93.25181482832025
 30
0.0
 10
102.3652020410063
 20
93.34824663170477
 30
0.0
 10
102.0197022637079
 20
93.41656154809064
 30
0.0
 10
101.6687275168771
 20
93.45922484416418
 30
0.0
 10
101.4327138994683
 20
93.46441015183211
 30
0.0
 10
101.3141555191604
 20
93.46701492390103
 30
0.0
  0
SPLINE
  5
231
330
1F
100
AcDbEntity
  8
0
  6
Continuous
 62
   144
370
    18
100
AcDbSpline
210
0.0
220
0.0
230
1.0
 70
     8
 71
     3
 72
    24
 73
    20
 74
     0
 42
0.000000001
 43
0.00000001
 40
0.0
 40
0.0
 40
0.0
 40
0.0
 40
0.0315414472325133
 40
0.0628549551720202
 40
0.0940155769903314
 40
0.1250994733258969
 40
0.1561833687923061
 40
0.187343988009569
 40
0.2186574916351593
 40
0.2501989328718369
 40
0.3751093079211886
 40
0.5000196631943048
 40
0.6249300128742911
 40
0.7498403682916885
 40
0.8001847818493434
 40
0.8500607587950212
 40
0.899779609446637
 40
0.9496555864090963
 40
1.0
 40
1.0
 40
1.0
 40
1.0
 10
101.3141555191604
 20
84.46701492635101
 30
0.0
 10
101.3884217246716
 20
84.4680361016287
 30
0.0
 10
101.5364174391294
 20
84.47007107249829
 30
0.0
 10
101.7572673076439
 20
84.48670940482339
 30
0.0
 10
101.9759903677183
 20
84.51332497758958
 30
0.0
 10
102.1925827060071
 20
84.55087214503995
 30
0.0
 10
102.4070415497402
 20
84.59909783097368
 30
0.0
 10
102.6193581080298
 20
84.65806333212159
 30
0.0
 10
102.8295475660846
 20
84.72776904737819
 30
0.0
 10
103.2419448812806
 20
84.88712758620429
 30
0.0
 10
103.8314519362423
 20
85.1999320900764
 30
0.0
 10
104.5160277165978
 20
85.76513044613317
 30
0.0
 10
105.081255013565
 20
86.4497507924651
 30
0.0
 10
105.4149067399646
 20
87.0785337717477
 30
0.0
 10
105.5989557555724
 20
87.57594184047093
 30
0.0
 10
105.6953874603988
 20
87.91596788662592
 30
0.0
 10
105.7637022882049
 20
88.26146757495025
 30
0.0
 10
105.8063655048335
 20
88.61244222557242
 30
0.0
 10
105.8115507682985
 20
88.84845577371304
 30
0.0
 10
105.8141555181604
 20
88.96701411912602
 30
0.0
  0
LINE
  5
232
330
1F
100
AcDbEntity
  8
0
  6
Continuous
 62
   144
370
    18
100
AcDbLine
 10
64.3141555261
 20
96.9670149226
 30
0.0
 11
64.3141555261
 21
80.9670149274
 31
0.0
  0
LINE
  5
233
330
1F
100
AcDbEntity
  8
0
  6
Continuous
 62
   144
370
    18
100
AcDbLine
 10
109.3141555172
 20
80.967014927
 30
0.0
 11
64.3141555262
 21
80.967014927
 31
0.0
  0
LINE
  5
234
330
1F
100
AcDbEntity
  8
0
  6
Continuous
 62
   144
370
    18
100
AcDbLine
 10
109.3141555172
 20
96.967014923
 30
0.0
 11
64.3141555262
 21
96.967014923
 31
0.0
  0
LINE
  5
235
330
1F
100
AcDbEntity
  8
0
  6
Continuous
 62
   144
370
    18
100
AcDbLine
 10
109.3141555171
 20
80.9670149266
 30
0.0
 11
109.3141555171
 21
96.9670149232
 31
0.0
  0
SPLINE
  5
236
330
1F
100
AcDbEntity
  8
0
  6
Continuous
 62
   144
370
    18
100
AcDbSpline
210
0.0
220
0.0
230
1.0
 70
     8
 71
     3
 72
     9
 73
     5
 74
     0
 42
0.000000001
 43
0.00000001
 40
0.0
 40
0.0
 40
0.0
 40
0.0
 40
0.6600782791602313
 40
1.0
 40
1.0
 40
1.0
 40
1.0
 10
64.02399233623605
 20
97.04991869340382
 30
0.0
 10
64.11021349044093
 20
96.71366995484527
 30
0.0
 10
64.24083611040436
 20
96.20426258730346
 30
0.0
 10
64.26797442293949
 20
95.691144541278
 30
0.0
 10
64.27719932483714
 20
95.51672457207907
 30
0.0
  0
SPLINE
  5
237
330
1F
100
AcDbEntity
  8
0
  6
Continuous
 62
   144
370
    18
100
AcDbSpline
210
0.0
220
0.0
230
1.0
 70
     8
 71
     3
 72
    13
 73
     9
 74
     0
 42
0.000000001
 43
0.00000001
 40
0.0
 40
0.0
 40
0.0
 40
0.0
 40
0.1238960108718391
 40
0.2477689799383143
 40
0.3724700018275496
 40
0.4988180041591518
 40
0.7446777327884918
 40
1.0
 40
1.0
 40
1.0
 40
1.0
 10
64.31415552603141
 20
82.90483709891473
 30
0.0
 10
64.31323708719519
 20
82.82114508145189
 30
0.0
 10
64.31140038033121
 20
82.65377661131448
 30
0.0
 10
64.29642608964801
 20
82.4022880150772
 30
0.0
 10
64.27254109162003
 20
82.14903976988009
 30
0.0
 10
64.22827905671309
 20
81.81376331981328
 30
0.0
 10
64.15252441684181
 20
81.39142647771862
 30
0.0
 10
64.06737226657152
 20
81.05533147113333
 30
0.0
 10
64.02399233623609
 20
80.88411115637352
 30
0.0
  0
SPLINE
  5
238
330
1F
100
AcDbEntity
  8
0
  6
Continuous
 62
   144
370
    18
100
AcDbSpline
210
0.0
220
0.0
230
1.0
 70
     8
 71
     3
 72
     9
 73
     5
 74
     0
 42
0.000000001
 43
0.00000001
 40
0.0
 40
0.0
 40
0.0
 40
0.0
 40
0.0951774930108021
 40
1.0
 40
1.0
 40
1.0
 40
1.0
 10
64.24566264555992
 20
94.125624270715
 30
0.0
 10
64.2431921681025
 20
94.09001793337836
 30
0.0
 10
64.21723563805254
 20
93.71591333984182
 30
0.0
 10
64.1157861322667
 20
93.34451572795825
 30
0.0
 10
64.02399233610875
 20
93.00846680968395
 30
0.0
  0
SPLINE
  5
239
330
1F
100
AcDbEntity
  8
0
  6
Continuous
 62
   144
370
    18
100
AcDbSpline
210
0.0
220
0.0
230
1.0
 70
     8
 71
     3
 72
     9
 73
     5
 74
     0
 42
0.000000001
 43
0.00000001
 40
0.0
 40
0.0
 40
0.0
 40
0.0
 40
0.9973955491579338
 40
1.0
 40
1.0
 40
1.0
 40
1.0
 10
64.02399233610875
 20
93.00846680968395
 30
0.0
 10
64.11781996425978
 20
92.33718869135177
 30
0.0
 10
64.21189259996606
 20
91.66415769687927
 30
0.0
 10
64.23755232104118
 20
90.98621818102663
 30
0.0
 10
64.23761915052334
 20
90.9844525208837
 30
0.0
  0
SPLINE
  5
23A
330
1F
100
AcDbEntity
  8
0
  6
Continuous
 62
   144
370
    18
100
AcDbSpline
210
0.0
220
0.0
230
1.0
 70
     8
 71
     3
 72
    13
 73
     9
 74
     0
 42
0.000000001
 43
0.00000001
 40
0.0
 40
0.0
 40
0.0
 40
0.0
 40
0.1238598107048877
 40
0.247705532540773
 40
0.3723773346629763
 40
0.4986830464605984
 40
0.7445687021706061
 40
1.0
 40
1.0
 40
1.0
 40
1.0
 10
64.3141555260314
 20
88.96701492501815
 30
0.0
 10
64.31323627483935
 20
88.7996024681014
 30
0.0
 10
64.3113978770187
 20
88.46479659718557
 30
0.0
 10
64.29643108794312
 20
87.96166623724909
 30
0.0
 10
64.27256158626757
 20
87.45558935703819
 30
0.0
 10
64.22831759374556
 20
86.78546201988475
 30
0.0
 10
64.15256022307356
 20
85.94034203243135
 30
0.0
 10
64.06738888473328
 20
85.26808952093248
 30
0.0
 10
64.02399233622931
 20
84.9255630408905
 30
0.0
  0
SPLINE
  5
23B
330
1F
100
AcDbEntity
  8
0
  6
Continuous
 62
   144
370
    18
100
AcDbSpline
210
0.0
220
0.0
230
1.0
 70
     8
 71
     3
 72
    13
 73
     9
 74
     0
 42
0.000000001
 43
0.00000001
 40
0.0
 40
0.0
 40
0.0
 40
0.0
 40
0.1290587687432894
 40
0.2552856247307863
 40
0.3791570519369286
 40
0.5011995978669715
 40
0.7522215408448744
 40
1.0
 40
1.0
 40
1.0
 40
1.0
 10
64.02399233622931
 20
84.9255630408905
 30
0.0
 10
64.04652719773935
 20
84.83908145498016
 30
0.0
 10
64.0911024424502
 20
84.66801593264634
 30
0.0
 10
64.14854065493245
 20
84.41341819639534
 30
0.0
 10
64.19801640289002
 20
84.16311870647955
 30
0.0
 10
64.25306427591565
 20
83.82832160550103
 30
0.0
 10
64.30303281193997
 20
83.40976701712626
 30
0.0
 10
64.31046406207213
 20
83.07241585485383
 30
0.0
 10
64.3141555260314
 20
82.90483709825178
 30
0.0
  0
SPLINE
  5
23C
330
1F
100
AcDbEntity
  8
0
  6
Continuous
 62
   144
370
    18
100
AcDbSpline
210
0.0
220
0.0
230
1.0
 70
     8
 71
     3
 72
    13
 73
     9
 74
     0
 42
0.000000001
 43
0.00000001
 40
0.0
 40
0.0
 40
0.0
 40
0.0
 40
0.1290669753065248
 40
0.2552983846611434
 40
0.3791679810539857
 40
0.5011995988178778
 40
0.7522256681504438
 40
1.0
 40
1.0
 40
1.0
 40
1.0
 10
57.60431871588474
 20
80.8841111567243
 30
0.0
 10
57.58178255109974
 20
80.97061117884074
 30
0.0
 10
57.53720533487222
 20
81.14171084137668
 30
0.0
 10
57.47976646430132
 20
81.39638066910312
 30
0.0
 10
57.43029223193719
 20
81.64664501805574
 30
0.0
 10
57.37524513778776
 20
81.98124276550337
 30
0.0
 10
57.32527911399606
 20
82.40063270411125
 30
0.0
 10
57.31784723897414
 20
82.73750099444341
 30
0.0
 10
57.31415552608942
 20
82.90483709794401
 30
0.0
  0
SPLINE
  5
23D
330
1F
100
AcDbEntity
  8
0
  6
Continuous
 62
   144
370
    18
100
AcDbSpline
210
0.0
220
0.0
230
1.0
 70
     8
 71
     3
 72
    13
 73
     9
 74
     0
 42
0.000000001
 43
0.00000001
 40
0.0
 40
0.0
 40
0.0
 40
0.0
 40
0.1291028046975415
 40
0.2553683561896026
 40
0.3792708320333759
 40
0.5013345483879256
 40
0.7522760463287264
 40
1.0
 40
1.0
 40
1.0
 40
1.0
 10
57.60431871589149
 20
84.92556304049846
 30
0.0
 10
57.58177642491071
 20
85.09859853733155
 30
0.0
 10
57.53718724804504
 20
85.44086678233397
 30
0.0
 10
57.47973562407692
 20
85.95028152693943
 30
0.0
 10
57.43025333617131
 20
86.45097255879871
 30
0.0
 10
57.37521793767186
 20
87.12033380578524
 30
0.0
 10
57.32527705931229
 20
87.95813765076407
 30
0.0
 10
57.31784672288476
 20
88.63217219404436
 30
0.0
 10
57.31415552608943
 20
88.9670149256445
 30
0.0
  0
SPLINE
  5
23E
330
1F
100
AcDbEntity
  8
0
  6
Continuous
 62
   144
370
    18
100
AcDbSpline
210
0.0
220
0.0
230
1.0
 70
     8
 71
     3
 72
    13
 73
     9
 74
     0
 42
0.000000001
 43
0.00000001
 40
0.0
 40
0.0
 40
0.0
 40
0.0
 40
0.1238863829304368
 40
0.2477603517156273
 40
0.3724667458491847
 40
0.4988180011666408
 40
0.7446517833295054
 40
1.0
 40
1.0
 40
1.0
 40
1.0
 10
57.31415552608943
 20
82.90483709815244
 30
0.0
 10
57.31507406491384
 20
82.98859920540706
 30
0.0
 10
57.31691105051967
 20
83.15611502645977
 30
0.0
 10
57.33188539489685
 20
83.40787677728362
 30
0.0
 10
57.35576971932007
 20
83.66084756235193
 30
0.0
 10
57.40002865938138
 20
83.9957522010979
 30
0.0
 10
57.47578479380874
 20
84.41840283501683
 30
0.0
 10
57.56093524341031
 20
84.75438355370198
 30
0.0
 10
57.60431871589149
 20
84.92556304049846
 30
0.0
  0
SPLINE
  5
23F
330
1F
100
AcDbEntity
  8
0
  6
Continuous
 62
   144
370
    18
100
AcDbSpline
210
0.0
220
0.0
230
1.0
 70
     8
 71
     3
 72
     9
 73
     5
 74
     0
 42
0.000000001
 43
0.00000001
 40
0.0
 40
0.0
 40
0.0
 40
0.0
 40
0.0067834618028728
 40
1.0
 40
1.0
 40
1.0
 40
1.0
 10
57.39036725780382
 20
90.97589517601304
 30
0.0
 10
57.39054140273553
 20
90.9805133489964
 30
0.0
 10
57.41621338803879
 20
91.66131219736705
 30
0.0
 10
57.51058613900408
 20
92.33718187148344
 30
0.0
 10
57.60431871601796
 20
93.00846680948172
 30
0.0
  0
SPLINE
  5
240
330
1F
100
AcDbEntity
  8
0
  6
Continuous
 62
   144
370
    18
100
AcDbSpline
210
0.0
220
0.0
230
1.0
 70
     8
 71
     3
 72
    11
 73
     7
 74
     0
 42
0.000000001
 43
0.00000001
 40
0.0
 40
0.0
 40
0.0
 40
0.0
 40
0.2574997451829835
 40
0.5093492209668149
 40
0.7564991144141934
 40
1.0
 40
1.0
 40
1.0
 40
1.0
 10
57.60431871601796
 20
93.00846680948172
 30
0.0
 10
57.58177602992449
 20
93.09494827946506
 30
0.0
 10
57.53718530773932
 20
93.26601357249199
 30
0.0
 10
57.47986051959791
 20
93.52061298829322
 30
0.0
 10
57.42996554337437
 20
93.77090626973904
 30
0.0
 10
57.40375267281275
 20
93.9365993678775
 30
0.0
 10
57.39074371110667
 20
94.01882978074197
 30
0.0
  0
LINE
  5
241
330
1F
100
AcDbEntity
  8
0
  6
Continuous
 62
   144
370
    18
100
AcDbLine
 10
57.3276430771
 20
94.8512629295
 30
0.0
 11
57.3141555261
 21
95.0291927513
 31
0.0
  0
SPLINE
  5
242
330
1F
100
AcDbEntity
  8
0
  6
Continuous
 62
   144
370
    18
100
AcDbSpline
210
0.0
220
0.0
230
1.0
 70
     8
 71
     3
 72
    13
 73
     9
 74
     0
 42
0.000000001
 43
0.00000001
 40
0.0
 40
0.0
 40
0.0
 40
0.0
 40
0.1238863829317803
 40
0.2477603517202284
 40
0.3724667458569539
 40
0.4988180011761684
 40
0.7446517833368065
 40
1.0
 40
1.0
 40
1.0
 40
1.0
 10
57.3141555260894
 20
95.02919275141997
 30
0.0
 10
57.31507406491382
 20
95.1128790317913
 30
0.0
 10
57.31691105051966
 20
95.28024320667703
 30
0.0
 10
57.33188539489644
 20
95.5317325720701
 30
0.0
 10
57.35576971931891
 20
95.78498465221439
 30
0.0
 10
57.40002865937871
 20
96.12024467581612
 30
0.0
 10
57.4757847938038
 20
96.54259266633414
 30
0.0
 10
57.56093524340444
 20
96.87868323757505
 30
0.0
 10
57.60431871588474
 20
97.04991869336772
 30
0.0
  0
SPLINE
  5
243
330
1F
100
AcDbEntity
  8
0
  6
Continuous
 62
   144
370
    18
100
AcDbSpline
210
0.0
220
0.0
230
1.0
 70
    24
 71
     3
 72
    26
 73
    22
 74
     0
 42
0.000000001
 43
0.00000001
 40
0.0
 40
0.0
 40
0.0
 40
0.0
 40
0.0206788215503074
 40
0.0413141761454663
 40
0.0619277628717257
 40
0.082541349557904
 40
0.1031767040329476
 40
0.1238555253834827
 40
0.1869773910253538
 40
0.2500992570541615
 40
0.3132211238240662
 40
0.3763429916695827
 40
0.5000081846294204
 40
0.6236733722020527
 40
0.6867952325014448
 40
0.7499170881251602
 40
0.8130389394246269
 40
0.8761607867759763
 40
0.9174695379255503
 40
0.9586912510442005
 40
0.9999999999999999
 40
0.9999999999999999
 40
0.9999999999999999
 40
0.9999999999999999
 10
38.3141555260604
 20
88.96701492489375
 30
0.0
 10
38.3141555260604
 20
88.88585607018376
 30
0.0
 10
38.3141555260604
 20
88.72370895695997
 30
0.0
 10
38.3141555260604
 20
88.4809125989055
 30
0.0
 10
38.3141555260604
 20
88.23888164366662
 30
0.0
 10
38.3141555260604
 20
87.99761866903418
 30
0.0
 10
38.3141555260604
 20
87.75711764135326
 30
0.0
 10
38.3141555260604
 20
87.35371064874228
 30
0.0
 10
38.3141555260604
 20
86.79309325588932
 30
0.0
 10
38.3141555260604
 20
86.09223327333595
 30
0.0
 10
38.3141555260604
 20
85.41930672046229
 30
0.0
 10
38.3141555260604
 20
84.57772641566046
 30
0.0
 10
38.3141555260604
 20
83.63007137152256
 30
0.0
 10
38.3141555260604
 20
82.85132881788007
 30
0.0
 10
38.3141555260604
 20
82.34503564149459
 30
0.0
 10
38.3141555260604
 20
82.02661860968357
 30
0.0
 10
38.3141555260604
 20
81.77599780467808
 30
0.0
 10
38.3141555260604
 20
81.61689313802168
 30
0.0
 10
38.3141555260604
 20
81.52501633021087
 30
0.0
 10
38.3141555260604
 20
81.47604192967509
 30
0.0
 10
38.3141555260604
 20
81.47002598539085
 30
0.0
 10
38.3141555260604
 20
81.46701484107005
 30
0.0
  0
SPLINE
  5
244
330
1F
100
AcDbEntity
  8
0
  6
Continuous
 62
   144
370
    18
100
AcDbSpline
210
0.0
220
0.0
230
1.0
 70
    24
 71
     3
 72
    26
 73
    22
 74
     0
 42
0.000000001
 43
0.00000001
 40
0.0
 40
0.0
 40
0.0
 40
0.0
 40
0.0206788178164508
 40
0.0413141687757238
 40
0.061927751956217
 40
0.0825413351786028
 40
0.1031766862634209
 40
0.1238555042886739
 40
0.1869773608706072
 40
0.2500992170503314
 40
0.3132210725167036
 40
0.3763429268887846
 40
0.5000080822689978
 40
0.6236732429752175
 40
0.6867951048918167
 40
0.7499169714790332
 40
0.8130388424359564
 40
0.8761607173370689
 40
0.9174694893810035
 40
0.9586912256999113
 40
1.0
 40
1.0
 40
1.0
 40
1.0
 10
38.3141555260604
 20
96.46701500871744
 30
0.0
 10
38.3141555260604
 20
96.46626146377514
 30
0.0
 10
38.3141555260604
 20
96.46475595784138
 30
0.0
 10
38.3141555260604
 20
96.45253643105757
 30
0.0
 10
38.3141555260604
 20
96.43301742040225
 30
0.0
 10
38.3141555260604
 20
96.40548926979041
 30
0.0
 10
38.3141555260604
 20
96.37013894705612
 30
0.0
 10
38.3141555260604
 20
96.29742068052266
 30
0.0
 10
38.3141555260604
 20
96.15807896629072
 30
0.0
 10
38.3141555260604
 20
95.90739835052254
 30
0.0
 10
38.3141555260604
 20
95.58899725187977
 30
0.0
 10
38.3141555260604
 20
95.08269902218403
 30
0.0
 10
38.3141555260604
 20
94.30395891761637
 30
0.0
 10
38.3141555260604
 20
93.35630411177061
 30
0.0
 10
38.3141555260604
 20
92.51472227700462
 30
0.0
 10
38.3141555260604
 20
91.84180097753365
 30
0.0
 10
38.3141555260604
 20
91.1409211396688
 30
0.0
 10
38.3141555260604
 20
90.5016508048174
 30
0.0
 10
38.3141555260604
 20
89.93718615605958
 30
0.0
 10
38.3141555260604
 20
89.4531145502556
 30
0.0
 10
38.3141555260604
 20
89.12916201516927
 30
0.0
 10
38.3141555260604
 20
88.96701492489375
 30
0.0
  0
SPLINE
  5
245
330
1F
100
AcDbEntity
  8
0
  6
Continuous
 62
   144
370
    18
100
AcDbSpline
210
0.0
220
0.0
230
1.0
 70
    24
 71
     3
 72
    22
 73
    18
 74
     0
 42
0.000000001
 43
0.00000001
 40
0.0
 40
0.0
 40
0.0
 40
0.0
 40
0.125
 40
0.125
 40
0.25
 40
0.25
 40
0.375
 40
0.375
 40
0.5
 40
0.5
 40
0.625
 40
0.625
 40
0.75
 40
0.75
 40
0.875
 40
0.875
 40
1.0
 40
1.0
 40
1.0
 40
1.0
 10
38.31415552578888
 20
88.96701492504602
 30
0.0
 10
38.31415552578888
 20
88.50871801038633
 30
0.0
 10
38.31415552578888
 20
88.03479977507612
 30
0.0
 10
38.31415552578888
 20
87.07995301369976
 30
0.0
 10
38.31415552578888
 20
86.59915738891273
 30
0.0
 10
38.31415552578888
 20
85.6612664137494
 30
0.0
 10
38.31415552578888
 20
85.20438513657832
 30
0.0
 10
38.31415552578888
 20
84.34610146444102
 30
0.0
 10
38.31415552578888
 20
83.94491572783541
 30
0.0
 10
38.31415552578888
 20
83.22406195071497
 30
0.0
 10
38.31415552578888
 20
82.90451957726354
 30
0.0
 10
38.31415552578888
 20
82.36177633038947
 30
0.0
 10
38.31415552578888
 20
82.13856570517416
 30
0.0
 10
38.31415552578888
 20
81.79025563563842
 30
0.0
 10
38.31415552578888
 20
81.66504023698809
 30
0.0
 10
38.31415552578888
 20
81.50349453933562
 30
0.0
 10
38.31415552578888
 20
81.46701476828991
 30
0.0
 10
38.31415552578888
 20
81.46701484076524
 30
0.0
  0
SPLINE
  5
246
330
1F
100
AcDbEntity
  8
0
  6
Continuous
 62
   144
370
    18
100
AcDbSpline
210
0.0
220
0.0
230
1.0
 70
    24
 71
     3
 72
    14
 73
    10
 74
     0
 42
0.000000001
 43
0.00000001
 40
0.0
 40
0.0
 40
0.0
 40
0.0
 40
0.25
 40
0.25
 40
0.5
 40
0.5
 40
0.75
 40
0.75
 40
1.0
 40
1.0
 40
1.0
 40
1.0
 10
38.81415552622542
 20
88.96701492477813
 30
0.0
 10
38.75522996812285
 20
88.96701492477813
 30
0.0
 10
38.69165666181308
 20
88.96701492477848
 30
0.0
 10
38.5685597249321
 20
88.96701492478013
 30
0.0
 10
38.50941770585583
 20
88.9670149247814
 30
0.0
 10
38.4117866348239
 20
88.96701492478466
 30
0.0
 10
38.3736278881529
 20
88.96701492478665
 30
0.0
 10
38.32489491483949
 20
88.96701492479077
 30
0.0
 10
38.31415553574597
 20
88.96701492479289
 30
0.0
 10
38.31415552578888
 20
88.96701492479488
 30
0.0
  0
SPLINE
  5
247
330
1F
100
AcDbEntity
  8
0
  6
Continuous
 62
   144
370
    18
100
AcDbSpline
210
0.0
220
0.0
230
1.0
 70
    24
 71
     3
 72
    22
 73
    18
 74
     0
 42
0.000000001
 43
0.00000001
 40
0.0
 40
0.0
 40
0.0
 40
0.0
 40
0.125
 40
0.125
 40
0.25
 40
0.25
 40
0.375
 40
0.375
 40
0.5
 40
0.5
 40
0.625
 40
0.625
 40
0.75
 40
0.75
 40
0.875
 40
0.875
 40
1.0
 40
1.0
 40
1.0
 40
1.0
 10
38.81415552622542
 20
80.96701492489741
 30
0.0
 10
38.81415552622542
 20
80.96701485477189
 30
0.0
 10
38.81415552622542
 20
81.00592661733789
 30
0.0
 10
38.81415552622542
 20
81.17824203956276
 30
0.0
 10
38.81415552622542
 20
81.31180513608898
 30
0.0
 10
38.81415552622542
 20
81.68333588290659
 30
0.0
 10
38.81415552622542
 20
81.9214272178026
 30
0.0
 10
38.81415552622542
 20
82.5003533464033
 30
0.0
 10
38.81415552622542
 20
82.84119854201138
 30
0.0
 10
38.81415552622542
 20
83.61010922805632
 30
0.0
 10
38.81415552622542
 20
84.03804067362853
 30
0.0
 10
38.81415552622542
 20
84.95354324043348
 30
0.0
 10
38.81415552622542
 20
85.44088325942899
 30
0.0
 10
38.81415552622542
 20
86.44130027792446
 30
0.0
 10
38.81415552622542
 20
86.95414893268911
 30
0.0
 10
38.81415552622542
 20
87.97265212136962
 30
0.0
 10
38.81415552622542
 20
88.47816489393217
 30
0.0
 10
38.81415552622542
 20
88.96701492504602
 30
0.0
  0
SPLINE
  5
248
330
1F
100
AcDbEntity
  8
0
  6
Continuous
 62
   144
370
    18
100
AcDbSpline
210
0.0
220
0.0
230
1.0
 70
    24
 71
     3
 72
    24
 73
    20
 74
     0
 42
0.000000001
 43
0.00000001
 40
0.0
 40
0.0
 40
0.0
 40
0.0
 40
0.1249999999999999
 40
0.1249999999999999
 40
0.25
 40
0.25
 40
0.3749999999999999
 40
0.3749999999999999
 40
0.4999999999999999
 40
0.4999999999999999
 40
0.6249999999999998
 40
0.6249999999999998
 40
0.7499999999999998
 40
0.7499999999999998
 40
0.8749999999999999
 40
0.8749999999999999
 40
0.9374999999999999
 40
0.9374999999999999
 40
1.0
 40
1.0
 40
1.0
 40
1.0
 10
38.8141555260604
 20
88.96701492537507
 30
0.0
 10
38.8141555260604
 20
88.48537333347396
 30
0.0
 10
38.8141555260604
 20
87.9866681926397
 30
0.0
 10
38.8141555260604
 20
86.97970749412761
 30
0.0
 10
38.8141555260604
 20
86.47157664991342
 30
0.0
 10
38.8141555260604
 20
85.47759555547499
 30
0.0
 10
38.8141555260604
 20
84.9919623869975
 30
0.0
 10
38.8141555260604
 20
84.07678322460079
 30
0.0
 10
38.8141555260604
 20
83.64747188617507
 30
0.0
 10
38.8141555260604
 20
82.8736009584575
 30
0.0
 10
38.8141555260604
 20
82.52919298196294
 30
0.0
 10
38.8141555260604
 20
81.94247901060946
 30
0.0
 10
38.8141555260604
 20
81.70018313836974
 30
0.0
 10
38.8141555260604
 20
81.32114796697832
 30
0.0
 10
38.8141555260604
 20
81.1842970427714
 30
0.0
 10
38.8141555260604
 20
81.0516086007068
 30
0.0
 10
38.8141555260604
 20
81.01939407086785
 30
0.0
 10
38.8141555260604
 20
80.97713350398874
 30
0.0
 10
38.8141555260604
 20
80.9670148885378
 30
0.0
 10
38.8141555260604
 20
80.96701492486764
 30
0.0
  0
LINE
  5
249
330
1F
100
AcDbEntity
  8
0
  6
Continuous
 62
   144
370
    18
100
AcDbLine
 10
57.3141555261
 20
88.9670149254
 30
0.0
 11
38.8141555261
 21
88.9670149254
 31
0.0
  0
SPLINE
  5
24A
330
1F
100
AcDbEntity
  8
0
  6
Continuous
 62
   144
370
    18
100
AcDbSpline
210
0.0
220
0.0
230
1.0
 70
    24
 71
     3
 72
    24
 73
    20
 74
     0
 42
0.000000001
 43
0.00000001
 40
0.0
 40
0.0
 40
0.0
 40
0.0
 40
0.0625000000000001
 40
0.0625000000000001
 40
0.1250000000000001
 40
0.1250000000000001
 40
0.2500000000000002
 40
0.2500000000000002
 40
0.3750000000000002
 40
0.3750000000000002
 40
0.5000000000000001
 40
0.5000000000000001
 40
0.6250000000000001
 40
0.6250000000000001
 40
0.75
 40
0.75
 40
0.8750000000000001
 40
0.8750000000000001
 40
1.0
 40
1.0
 40
1.0
 40
1.0
 10
57.31415552606041
 20
80.96701492486764
 30
0.0
 10
57.31415552606041
 20
80.9670148885378
 30
0.0
 10
57.31415552606041
 20
80.97713350398874
 30
0.0
 10
57.31415552606041
 20
81.01939407086785
 30
0.0
 10
57.31415552606041
 20
81.0516086007068
 30
0.0
 10
57.31415552606041
 20
81.1842970427714
 30
0.0
 10
57.31415552606041
 20
81.32114796697832
 30
0.0
 10
57.3141555260604
 20
81.70018313836974
 30
0.0
 10
57.31415552606041
 20
81.94247901060946
 30
0.0
 10
57.3141555260604
 20
82.52919298196294
 30
0.0
 10
57.31415552606041
 20
82.8736009584575
 30
0.0
 10
57.31415552606041
 20
83.64747188617507
 30
0.0
 10
57.3141555260604
 20
84.07678322460079
 30
0.0
 10
57.3141555260604
 20
84.9919623869975
 30
0.0
 10
57.31415552606041
 20
85.47759555547499
 30
0.0
 10
57.3141555260604
 20
86.47157664991342
 30
0.0
 10
57.3141555260604
 20
86.97970749412761
 30
0.0
 10
57.3141555260604
 20
87.9866681926397
 30
0.0
 10
57.3141555260604
 20
88.48537333347396
 30
0.0
 10
57.3141555260604
 20
88.96701492537507
 30
0.0
  0
SPLINE
  5
24B
330
1F
100
AcDbEntity
  8
0
  6
Continuous
 62
   144
370
    18
100
AcDbSpline
210
0.0
220
0.0
230
1.0
 70
    24
 71
     3
 72
    26
 73
    22
 74
     0
 42
0.000000001
 43
0.00000001
 40
0.0
 40
0.0
 40
0.0
 40
0.0
 40
0.020678813829746
 40
0.0413141609835508
 40
0.0619277405541665
 40
0.0825413203760573
 40
0.1031766682828925
 40
0.123855483365051
 40
0.1869773320181379
 40
0.2500991841972488
 40
0.3132210403448605
 40
0.3763429007008234
 40
0.5000080870295656
 40
0.6236732781802977
 40
0.6867951454546215
 40
0.7499170117111962
 40
0.8130388772805751
 40
0.8761607425081251
 40
0.9174695071401022
 40
0.958691235031658
 40
0.9999999999999999
 40
0.9999999999999999
 40
0.9999999999999999
 40
0.9999999999999999
 10
57.31415552606041
 20
80.96701492545272
 30
0.0
 10
57.31415552606041
 20
80.96781869370294
 30
0.0
 10
57.31415552606041
 20
80.96942454068994
 30
0.0
 10
57.31415552606041
 20
80.98245866745305
 30
0.0
 10
57.31415552606041
 20
81.00327891323468
 30
0.0
 10
57.3141555260604
 20
81.03264224482326
 30
0.0
 10
57.31415552606041
 20
81.07034922974734
 30
0.0
 10
57.31415552606041
 20
81.14791534297777
 30
0.0
 10
57.3141555260604
 20
81.29654646745283
 30
0.0
 10
57.31415552606041
 20
81.56393910341419
 30
0.0
 10
57.3141555260604
 20
81.90356695447194
 30
0.0
 10
57.31415552606041
 20
82.4436184925761
 30
0.0
 10
57.31415552606041
 20
83.2742747822005
 30
0.0
 10
57.31415552606041
 20
84.2851067013515
 30
0.0
 10
57.3141555260604
 20
85.18279407075234
 30
0.0
 10
57.31415552606042
 20
85.90057677011562
 30
0.0
 10
57.3141555260604
 20
86.64818187617605
 30
0.0
 10
57.3141555260604
 20
87.33007017129972
 30
0.0
 10
57.31415552606041
 20
87.93216573275531
 30
0.0
 10
57.3141555260604
 20
88.44850871830194
 30
0.0
 10
57.3141555260604
 20
88.79405805010485
 30
0.0
 10
57.31415552606041
 20
88.96701492504614
 30
0.0
  0
SPLINE
  5
24C
330
1F
100
AcDbEntity
  8
0
  6
Continuous
 62
   144
370
    18
100
AcDbSpline
210
0.0
220
0.0
230
1.0
 70
    24
 71
     3
 72
    26
 73
    22
 74
     0
 42
0.000000001
 43
0.00000001
 40
0.0
 40
0.0
 40
0.0
 40
0.0
 40
0.0206788255565792
 40
0.041314183966712
 40
0.0619277743026157
 40
0.0825413643796728
 40
0.1031767220140836
 40
0.1238555462805106
 40
0.1869774199259004
 40
0.2500992899626245
 40
0.3132211560257271
 40
0.3763430178606595
 40
0.5000081798707712
 40
0.623673337023279
 40
0.6867951919850976
 40
0.749917047956492
 40
0.8130389046114733
 40
0.8761607616079146
 40
0.9174695202098083
 40
0.9586912417539838
 40
1.0
 40
1.0
 40
1.0
 40
1.0
 10
57.31415552606041
 20
88.96701492504614
 30
0.0
 10
57.3141555260604
 20
89.05358437592082
 30
0.0
 10
57.3141555260604
 20
89.22654130761633
 30
0.0
 10
57.31415552606041
 20
89.48552410671026
 30
0.0
 10
57.31415552606041
 20
89.74369047534427
 30
0.0
 10
57.31415552606041
 20
90.00103766400264
 30
0.0
 10
57.31415552606041
 20
90.25757210855794
 30
0.0
 10
57.31415552606041
 20
90.68787292221195
 30
0.0
 10
57.3141555260604
 20
91.28586483077092
 30
0.0
 10
57.31415552606041
 20
92.03344883572655
 30
0.0
 10
57.31415552606041
 20
92.75123715377094
 30
0.0
 10
57.3141555260604
 20
93.6489227105467
 30
0.0
 10
57.31415552606041
 20
94.65975461458403
 30
0.0
 10
57.3141555260604
 20
95.49041315919538
 30
0.0
 10
57.31415552606041
 20
96.0304591204261
 30
0.0
 10
57.3141555260604
 20
96.37010394460394
 30
0.0
 10
57.31415552606041
 20
96.63743283114309
 30
0.0
 10
57.3141555260604
 20
96.80714452399454
 30
0.0
 10
57.31415552606042
 20
96.90514651769355
 30
0.0
 10
57.3141555260604
 20
96.95738594601691
 30
0.0
 10
57.31415552606041
 20
96.96380300928556
 30
0.0
 10
57.31415552606041
 20
96.96701492463959
 30
0.0
  0
SPLINE
  5
24D
330
1F
100
AcDbEntity
  8
0
  6
Continuous
 62
   144
370
    18
100
AcDbSpline
210
0.0
220
0.0
230
1.0
 70
     8
 71
     3
 72
    18
 73
    14
 74
     0
 42
0.000000001
 43
0.00000001
 40
0.0
 40
0.0
 40
0.0
 40
0.0
 40
0.2499999999999999
 40
0.2499999999999999
 40
0.4999999999999998
 40
0.4999999999999998
 40
0.7499999999999996
 40
0.7499999999999996
 40
0.8749999999999996
 40
0.8749999999999996
 40
0.9374999999999998
 40
0.9374999999999998
 40
1.0
 40
1.0
 40
1.0
 40
1.0
 10
101.3141555192209
 20
84.467014926046
 30
0.0
 10
100.7751771067568
 20
84.467014926046
 30
0.0
 10
100.1953965631547
 20
84.56704300209901
 30
0.0
 10
99.07967366757029
 20
85.01499450745236
 30
0.0
 10
98.54737812625214
 20
85.3641200051055
 30
0.0
 10
97.67471844004037
 20
86.24848467958618
 30
0.0
 10
97.3370332227535
 20
86.78048229423203
 30
0.0
 10
97.01500143529823
 20
87.60525839793335
 30
0.0
 10
96.93738772641247
 20
87.88438183855038
 30
0.0
 10
96.86211739246129
 20
88.29701179392015
 30
0.0
 10
96.84383789443864
 20
88.4335727570726
 30
0.0
 10
96.81986683036362
 20
88.70306531964532
 30
0.0
 10
96.81415549555511
 20
88.83462581856783
 30
0.0
 10
96.81415551926712
 20
88.9670157308189
 30
0.0
  0
SPLINE
  5
24E
330
1F
100
AcDbEntity
  8
0
  6
Continuous
 62
   144
370
    18
100
AcDbSpline
210
0.0
220
0.0
230
1.0
 70
     8
 71
     3
 72
    14
 73
    10
 74
     0
 42
0.000000001
 43
0.00000001
 40
0.0
 40
0.0
 40
0.0
 40
0.0
 40
0.25
 40
0.25
 40
0.5
 40
0.5
 40
0.75
 40
0.75
 40
1.0
 40
1.0
 40
1.0
 40
1.0
 10
96.81415551926712
 20
88.9670157308189
 30
0.0
 10
96.8141556140816
 20
89.49638816201882
 30
0.0
 10
96.91043976160992
 20
90.06769846043413
 30
0.0
 10
97.34799561336732
 20
91.1746816386796
 30
0.0
 10
97.69078373380641
 20
91.70694467480867
 30
0.0
 10
98.56880448021323
 20
92.58628084502078
 30
0.0
 10
99.10109586583205
 20
92.9303500041384
 30
0.0
 10
100.2098561952847
 20
93.36998903130036
 30
0.0
 10
100.7828661415397
 20
93.46701492404603
 30
0.0
 10
101.3141555192981
 20
93.46701492404603
 30
0.0
  0
CIRCLE
  5
24F
330
1F
100
AcDbEntity
  8
0
  6
Continuous
 62
     7
370
    18
100
AcDbCircle
 10
101.3141555188
 20
88.9670149252
 30
0.0
 40
4.221145164042094
  0
DIMENSION
  5
250
330
1F
100
AcDbEntity
  8
0
  6
Continuous
 62
     7
370
    18
100
AcDbDimension
  2
_D_11
 10
101.3141555188
 20
71.9751726119
 30
0.0
 11
105.3141555179
 21
71.9751726119
 31
0.0
 70
   160
  1
<>
 71
     2
 42
-1.0
  3
SLDDIMSTYLE0
100
AcDbAlignedDimension
 13
109.3141555171
 23
80.9670149266
 33
0.0
 14
101.3141555188
 24
81.967014925
 34
0.0
100
AcDbRotatedDimension
  0
INSERT
  5
261
330
1F
100
AcDbEntity
  8
0
  6
Continuous
 62
     7
370
     0
100
AcDbBlockReference
  2
SW_NOTE_2
 10
88.3899334694
 20
71.4950250693
 30
0.0
  0
LEADER
  5
262
330
1F
100
AcDbEntity
  8
0
  6
Continuous
 62
     7
370
     0
100
AcDbLeader
  3
SLDDIMSTYLE2
 76
     2
 10
98.4622553382
 20
85.4861148471
 30
0.0
 10
88.3899334694
 20
71.4950250693
 30
0.0
  0
INSERT
  5
26E
330
1F
100
AcDbEntity
  8
0
  6
Continuous
 62
     7
370
    18
100
AcDbBlockReference
  2
SW_CENTERMARKSYMBOL_3
 10
101.3141555188
 20
88.9670149245
 30
0.0
  0
ENDSEC
  0
SECTION
  2
OBJECTS
  0
DICTIONARY
  5
C
330
0
100
AcDbDictionary
281
     1
  3
ACAD_GROUP
350
D
  3
ACAD_LAYOUT
350
1A
  3
ACAD_MLINESTYLE
350
17
  3
ACAD_PLOTSETTINGS
350
19
  3
ACAD_PLOTSTYLENAME
350
E
  3
ACAD_SCALELIST
350
47
  0
DICTIONARY
  5
D
102
{ACAD_REACTORS
330
C
102
}
330
C
100
AcDbDictionary
281
     1
  0
DICTIONARY
  5
1A
102
{ACAD_REACTORS
330
C
102
}
330
C
100
AcDbDictionary
281
     1
  3
Layout1
350
1E
  3
Layout2
350
26
  3
Model
350
22
  0
DICTIONARY
  5
17
102
{ACAD_REACTORS
330
C
102
}
330
C
100
AcDbDictionary
281
     1
  3
Standard
350
18
  0
DICTIONARY
  5
19
102
{ACAD_REACTORS
330
C
102
}
330
C
100
AcDbDictionary
281
     1
  0
ACDBDICTIONARYWDFLT
  5
E
102
{ACAD_REACTORS
330
C
102
}
330
C
100
AcDbDictionary
281
     1
  3
Normal
350
F
100
AcDbDictionaryWithDefault
340
F
  0
DICTIONARY
  5
47
102
{ACAD_REACTORS
330
C
102
}
330
C
100
AcDbDictionary
281
     1
  3
A0
350
48
  3
A1
350
49
  3
A2
350
4A
  3
A3
350
4B
  3
A4
350
4C
  3
A5
350
4D
  3
A6
350
4E
  3
A7
350
4F
  3
A8
350
50
  3
A9
350
51
  3
B0
350
52
  3
B1
350
53
  3
B2
350
54
  3
B3
350
55
  3
B4
350
56
  3
B5
350
57
  3
B6
350
58
  3
B7
350
59
  3
B8
350
5A
  3
B9
350
5B
  3
C0
350
5C
  3
C1
350
5D
  3
C2
350
5E
  3
C3
350
5F
  3
C4
350
60
  3
C5
350
61
  3
C6
350
62
  3
C7
350
63
  3
C8
350
64
  3
C9
350
65
  3
D0
350
66
  3
D1
350
67
  3
D2
350
68
  0
LAYOUT
  5
1E
102
{ACAD_REACTORS
330
1A
102
}
330
1A
100
AcDbPlotSettings
  1

  2
none_device
  4

  6

 40
0.0
 41
0.0
 42
0.0
 43
0.0
 44
0.0
 45
0.0
 46
0.0
 47
0.0
 48
0.0
 49
0.0
140
0.0
141
0.0
142
1.0
143
1.0
 70
   688
 72
     1
 73
     0
 74
     5
  7

 75
    16
147
1.0
148
0.0
149
0.0
100
AcDbLayout
  1
Layout1
 70
     1
 71
     1
 10
0.0
 20
0.0
 11
420.0
 21
297.0
 12
0.0
 22
0.0
 32
0.0
 14
1.0000000000E+20
 24
1.0000000000E+20
 34
1.0000000000E+20
 15
-1.0000000000E+20
 25
-1.0000000000E+20
 35
-1.0000000000E+20
146
0.0
 13
0.0
 23
0.0
 33
0.0
 16
1.0
 26
0.0
 36
0.0
 17
0.0
 27
1.0
 37
0.0
 76
     0
330
1B
  0
LAYOUT
  5
26
102
{ACAD_REACTORS
330
1A
102
}
330
1A
100
AcDbPlotSettings
  1

  2
none_device
  4

  6

 40
0.0
 41
0.0
 42
0.0
 43
0.0
 44
0.0
 45
0.0
 46
0.0
 47
0.0
 48
0.0
 49
0.0
140
0.0
141
0.0
142
1.0
143
1.0
 70
   688
 72
     1
 73
     0
 74
     5
  7

 75
    16
147
1.0
148
0.0
149
0.0
100
AcDbLayout
  1
Layout2
 70
     1
 71
     2
 10
0.0
 20
0.0
 11
0.0
 21
0.0
 12
0.0
 22
0.0
 32
0.0
 14
0.0
 24
0.0
 34
0.0
 15
0.0
 25
0.0
 35
0.0
146
0.0
 13
0.0
 23
0.0
 33
0.0
 16
1.0
 26
0.0
 36
0.0
 17
0.0
 27
1.0
 37
0.0
 76
     0
330
23
  0
LAYOUT
  5
22
102
{ACAD_REACTORS
330
1A
102
}
330
1A
100
AcDbPlotSettings
  1

  2
none_device
  4
Letter_(8.50_x_11.00_Inches)
  6

 40
6.35
 41
6.35
 42
6.35000508
 43
6.35000508
 44
215.9
 45
279.4
 46
0.0
 47
0.0
 48
0.0
 49
0.0
140
0.0
141
0.0
142
1.0
143
1.0
 70
  1712
 72
     1
 73
     0
 74
     0
  7

 75
     0
147
1.0
148
0.0
149
0.0
100
AcDbLayout
  1
Model
 70
     1
 71
     0
 10
0.0
 20
0.0
 11
210.0
 21
297.0
 12
0.0
 22
0.0
 32
0.0
 14
0.0
 24
0.0
 34
0.0
 15
210.0
 25
297.0
 35
0.0
146
0.0
 13
0.0
 23
0.0
 33
0.0
 16
1.0
 26
0.0
 36
0.0
 17
0.0
 27
1.0
 37
0.0
 76
     0
330
1F
331
29
  0
MLINESTYLE
  5
18
102
{ACAD_REACTORS
330
17
102
}
330
17
100
AcDbMlineStyle
  2
Standard
 70
     0
  3

 62
   256
 51
90.0
 52
90.0
 71
     2
 49
0.5
 62
   256
  6
BYLAYER
 49
-0.5
 62
   256
  6
BYLAYER
  0
ACDBPLACEHOLDER
  5
F
102
{ACAD_REACTORS
330
E
102
}
330
E
  0
SCALE
  5
48
102
{ACAD_REACTORS
330
47
102
}
330
47
100
AcDbScale
 70
     0
300
1:1
140
1.0
141
1.0
290
     1
  0
SCALE
  5
49
102
{ACAD_REACTORS
330
47
102
}
330
47
100
AcDbScale
 70
     0
300
1:2
140
1.0
141
2.0
290
     0
  0
SCALE
  5
4A
102
{ACAD_REACTORS
330
47
102
}
330
47
100
AcDbScale
 70
     0
300
1:4
140
1.0
141
4.0
290
     0
  0
SCALE
  5
4B
102
{ACAD_REACTORS
330
47
102
}
330
47
100
AcDbScale
 70
     0
300
1:5
140
1.0
141
5.0
290
     0
  0
SCALE
  5
4C
102
{ACAD_REACTORS
330
47
102
}
330
47
100
AcDbScale
 70
     0
300
1:8
140
1.0
141
8.0
290
     0
  0
SCALE
  5
4D
102
{ACAD_REACTORS
330
47
102
}
330
47
100
AcDbScale
 70
     0
300
1:10
140
1.0
141
10.0
290
     0
  0
SCALE
  5
4E
102
{ACAD_REACTORS
330
47
102
}
330
47
100
AcDbScale
 70
     0
300
1:16
140
1.0
141
16.0
290
     0
  0
SCALE
  5
4F
102
{ACAD_REACTORS
330
47
102
}
330
47
100
AcDbScale
 70
     0
300
1:20
140
1.0
141
20.0
290
     0
  0
SCALE
  5
50
102
{ACAD_REACTORS
330
47
102
}
330
47
100
AcDbScale
 70
     0
300
1:30
140
1.0
141
30.0
290
     0
  0
SCALE
  5
51
102
{ACAD_REACTORS
330
47
102
}
330
47
100
AcDbScale
 70
     0
300
1:40
140
1.0
141
40.0
290
     0
  0
SCALE
  5
52
102
{ACAD_REACTORS
330
47
102
}
330
47
100
AcDbScale
 70
     0
300
1:50
140
1.0
141
50.0
290
     0
  0
SCALE
  5
53
102
{ACAD_REACTORS
330
47
102
}
330
47
100
AcDbScale
 70
     0
300
1:100
140
1.0
141
100.0
290
     0
  0
SCALE
  5
54
102
{ACAD_REACTORS
330
47
102
}
330
47
100
AcDbScale
 70
     0
300
2:1
140
2.0
141
1.0
290
     0
  0
SCALE
  5
55
102
{ACAD_REACTORS
330
47
102
}
330
47
100
AcDbScale
 70
     0
300
4:1
140
4.0
141
1.0
290
     0
  0
SCALE
  5
56
102
{ACAD_REACTORS
330
47
102
}
330
47
100
AcDbScale
 70
     0
300
8:1
140
8.0
141
1.0
290
     0
  0
SCALE
  5
57
102
{ACAD_REACTORS
330
47
102
}
330
47
100
AcDbScale
 70
     0
300
10:1
140
10.0
141
1.0
290
     0
  0
SCALE
  5
58
102
{ACAD_REACTORS
330
47
102
}
330
47
100
AcDbScale
 70
     0
300
100:1
140
100.0
141
1.0
290
     0
  0
SCALE
  5
59
102
{ACAD_REACTORS
330
47
102
}
330
47
100
AcDbScale
 70
     0
300
1/128" = 1'-0"
140
0.0078125
141
12.0
290
     0
  0
SCALE
  5
5A
102
{ACAD_REACTORS
330
47
102
}
330
47
100
AcDbScale
 70
     0
300
1/64" = 1'-0"
140
0.015625
141
12.0
290
     0
  0
SCALE
  5
5B
102
{ACAD_REACTORS
330
47
102
}
330
47
100
AcDbScale
 70
     0
300
1/32" = 1'-0"
140
0.03125
141
12.0
290
     0
  0
SCALE
  5
5C
102
{ACAD_REACTORS
330
47
102
}
330
47
100
AcDbScale
 70
     0
300
1/16" = 1'-0"
140
0.0625
141
12.0
290
     0
  0
SCALE
  5
5D
102
{ACAD_REACTORS
330
47
102
}
330
47
100
AcDbScale
 70
     0
300
3/32" = 1'-0"
140
0.09375
141
12.0
290
     0
  0
SCALE
  5
5E
102
{ACAD_REACTORS
330
47
102
}
330
47
100
AcDbScale
 70
     0
300
1/8" = 1'-0"
140
0.125
141
12.0
290
     0
  0
SCALE
  5
5F
102
{ACAD_REACTORS
330
47
102
}
330
47
100
AcDbScale
 70
     0
300
3/16" = 1'-0"
140
0.1875
141
12.0
290
     0
  0
SCALE
  5
60
102
{ACAD_REACTORS
330
47
102
}
330
47
100
AcDbScale
 70
     0
300
1/4" = 1'-0"
140
0.25
141
12.0
290
     0
  0
SCALE
  5
61
102
{ACAD_REACTORS
330
47
102
}
330
47
100
AcDbScale
 70
     0
300
3/8" = 1'-0"
140
0.375
141
12.0
290
     0
  0
SCALE
  5
62
102
{ACAD_REACTORS
330
47
102
}
330
47
100
AcDbScale
 70
     0
300
1/2" = 1'-0"
140
0.5
141
12.0
290
     0
  0
SCALE
  5
63
102
{ACAD_REACTORS
330
47
102
}
330
47
100
AcDbScale
 70
     0
300
3/4" = 1'-0"
140
0.75
141
12.0
290
     0
  0
SCALE
  5
64
102
{ACAD_REACTORS
330
47
102
}
330
47
100
AcDbScale
 70
     0
300
1" = 1'-0"
140
1.0
141
12.0
290
     0
  0
SCALE
  5
65
102
{ACAD_REACTORS
330
47
102
}
330
47
100
AcDbScale
 70
     0
300
1-1/2" = 1'-0"
140
1.5
141
12.0
290
     0
  0
SCALE
  5
66
102
{ACAD_REACTORS
330
47
102
}
330
47
100
AcDbScale
 70
     0
300
3" = 1'-0"
140
3.0
141
12.0
290
     0
  0
SCALE
  5
67
102
{ACAD_REACTORS
330
47
102
}
330
47
100
AcDbScale
 70
     0
300
6" = 1'-0"
140
6.0
141
12.0
290
     0
  0
SCALE
  5
68
102
{ACAD_REACTORS
330
47
102
}
330
47
100
AcDbScale
 70
     0
300
1'-0" = 1'-0"
140
12.0
141
12.0
290
     0
  0
ENDSEC
  0
EOF
