  0
SECTION
  2
HEADER
  9
$ACADVER
  1
AC1015
  9
$ACADMAINTVER
 70
     6
  9
$DWGCODEPAGE
  3
DOS932
  9
$INSBASE
 10
0.0
 20
0.0
 30
0.0
  9
$EXTMIN
 10
0.0
 20
0.0
 30
0.0
  9
$EXTMAX
 10
210.0
 20
297.0
 30
0.0
  9
$LIMMIN
 10
0.0
 20
0.0
  9
$LIMMAX
 10
210.0
 20
297.0
  9
$ORTHOMODE
 70
     0
  9
$REGENMODE
 70
     1
  9
$FILLMODE
 70
     1
  9
$QTEXTMODE
 70
     0
  9
$MIRRTEXT
 70
     1
  9
$LTSCALE
 40
1.0
  9
$ATTMODE
 70
     1
  9
$TEXTSIZE
 40
3.5
  9
$TRACEWID
 40
1.0
  9
$TEXTSTYLE
  7
Standard
  9
$CLAYER
  8
0
  9
$CELTYPE
  6
ByLayer
  9
$CECOLOR
 62
   256
  9
$CELTSCALE
 40
1.0
  9
$DISPSILH
 70
     0
  9
$DIMSCALE
 40
1.0
  9
$DIMASZ
 40
3.0
  9
$DIMEXO
 40
1.0
  9
$DIMDLI
 40
3.75
  9
$DIMRND
 40
0.0
  9
$DIMDLE
 40
0.0
  9
$DIMEXE
 40
1.0
  9
$DIMTP
 40
0.0
  9
$DIMTM
 40
0.0
  9
$DIMTXT
 40
3.5
  9
$DIMCEN
 40
2.5
  9
$DIMTSZ
 40
0.0
  9
$DIMTOL
 70
     0
  9
$DIMLIM
 70
     0
  9
$DIMTIH
 70
     1
  9
$DIMTOH
 70
     1
  9
$DIMSE1
 70
     0
  9
$DIMSE2
 70
     0
  9
$DIMTAD
 70
     1
  9
$DIMZIN
 70
     0
  9
$DIMBLK
  1

  9
$DIMASO
 70
     1
  9
$DIMSHO
 70
     1
  9
$DIMPOST
  1

  9
$DIMAPOST
  1

  9
$DIMALT
 70
     0
  9
$DIMALTD
 70
     3
  9
$DIMALTF
 40
0.0393700787
  9
$DIMLFAC
 40
1.0
  9
$DIMTOFL
 70
     1
  9
$DIMTVP
 40
0.0
  9
$DIMTIX
 70
     0
  9
$DIMSOXD
 70
     0
  9
$DIMSAH
 70
     0
  9
$DIMBLK1
  1

  9
$DIMBLK2
  1

  9
$DIMSTYLE
  2
ISO-25
  9
$DIMCLRD
 70
     0
  9
$DIMCLRE
 70
     0
  9
$DIMCLRT
 70
     0
  9
$DIMTFAC
 40
1.0
  9
$DIMGAP
 40
1.524
  9
$DIMJUST
 70
     0
  9
$DIMSD1
 70
     0
  9
$DIMSD2
 70
     0
  9
$DIMTOLJ
 70
     0
  9
$DIMTZIN
 70
     0
  9
$DIMALTZ
 70
     0
  9
$DIMALTTZ
 70
     0
  9
$DIMUPT
 70
     0
  9
$DIMDEC
 70
     1
  9
$DIMTDEC
 70
     3
  9
$DIMALTU
 70
     2
  9
$DIMALTTD
 70
     3
  9
$DIMTXSTY
  7
Standard
  9
$DIMAUNIT
 70
     0
  9
$DIMADEC
 70
     2
  9
$DIMALTRND
 40
0.0
  9
$DIMAZIN
 70
     0
  9
$DIMDSEP
 70
    44
  9
$DIMATFIT
 70
     3
  9
$DIMFRAC
 70
     0
  9
$DIMLDRBLK
  1

  9
$DIMLUNIT
 70
     2
  9
$DIMLWD
 70
    -2
  9
$DIMLWE
 70
    -2
  9
$DIMTMOVE
 70
     0
  9
$LUNITS
 70
     2
  9
$LUPREC
 70
     1
  9
$SKETCHINC
 40
1.0
  9
$FILLETRAD
 40
10.0
  9
$AUNITS
 70
     0
  9
$AUPREC
 70
     2
  9
$MENU
  1
.
  9
$ELEVATION
 40
0.0
  9
$PELEVATION
 40
0.0
  9
$THICKNESS
 40
0.0
  9
$LIMCHECK
 70
     0
  9
$CHAMFERA
 40
0.0
  9
$CHAMFERB
 40
0.0
  9
$CHAMFERC
 40
0.0
  9
$CHAMFERD
 40
0.0
  9
$SKPOLY
 70
     0
  9
$TDCREATE
 40
2458898.927891574
  9
$TDUCREATE
 40
2458898.552891574
  9
$TDUPDATE
 40
2458898.927893206
  9
$TDUUPDATE
 40
2458898.552893206
  9
$TDINDWG
 40
0.0000000116
  9
$TDUSRTIMER
 40
0.0000000116
  9
$USRTIMER
 70
     1
  9
$ANGBASE
 50
0.0
  9
$ANGDIR
 70
     0
  9
$PDMODE
 70
     0
  9
$PDSIZE
 40
-1.0
  9
$PLINEWID
 40
0.0
  9
$SPLFRAME
 70
     0
  9
$SPLINETYPE
 70
     6
  9
$SPLINESEGS
 70
     8
  9
$HANDSEED
  5
121
  9
$SURFTAB1
 70
     6
  9
$SURFTAB2
 70
     6
  9
$SURFTYPE
 70
     6
  9
$SURFU
 70
     6
  9
$SURFV
 70
     6
  9
$UCSBASE
  2

  9
$UCSNAME
  2

  9
$UCSORG
 10
0.0
 20
0.0
 30
0.0
  9
$UCSXDIR
 10
1.0
 20
0.0
 30
0.0
  9
$UCSYDIR
 10
0.0
 20
1.0
 30
0.0
  9
$UCSORTHOREF
  2

  9
$UCSORTHOVIEW
 70
     0
  9
$UCSORGTOP
 10
0.0
 20
0.0
 30
0.0
  9
$UCSORGBOTTOM
 10
0.0
 20
0.0
 30
0.0
  9
$UCSORGLEFT
 10
0.0
 20
0.0
 30
0.0
  9
$UCSORGRIGHT
 10
0.0
 20
0.0
 30
0.0
  9
$UCSORGFRONT
 10
0.0
 20
0.0
 30
0.0
  9
$UCSORGBACK
 10
0.0
 20
0.0
 30
0.0
  9
$PUCSBASE
  2

  9
$PUCSNAME
  2

  9
$PUCSORG
 10
0.0
 20
0.0
 30
0.0
  9
$PUCSXDIR
 10
1.0
 20
0.0
 30
0.0
  9
$PUCSYDIR
 10
0.0
 20
1.0
 30
0.0
  9
$PUCSORTHOREF
  2

  9
$PUCSORTHOVIEW
 70
     0
  9
$PUCSORGTOP
 10
0.0
 20
0.0
 30
0.0
  9
$PUCSORGBOTTOM
 10
0.0
 20
0.0
 30
0.0
  9
$PUCSORGLEFT
 10
0.0
 20
0.0
 30
0.0
  9
$PUCSORGRIGHT
 10
0.0
 20
0.0
 30
0.0
  9
$PUCSORGFRONT
 10
0.0
 20
0.0
 30
0.0
  9
$PUCSORGBACK
 10
0.0
 20
0.0
 30
0.0
  9
$USERI1
 70
     0
  9
$USERI2
 70
     0
  9
$USERI3
 70
     0
  9
$USERI4
 70
     0
  9
$USERI5
 70
     0
  9
$USERR1
 40
0.0
  9
$USERR2
 40
0.0
  9
$USERR3
 40
0.0
  9
$USERR4
 40
0.0
  9
$USERR5
 40
0.0
  9
$WORLDVIEW
 70
     1
  9
$SHADEDGE
 70
     3
  9
$SHADEDIF
 70
    70
  9
$TILEMODE
 70
     1
  9
$MAXACTVP
 70
    64
  9
$PINSBASE
 10
0.0
 20
0.0
 30
0.0
  9
$PLIMCHECK
 70
     0
  9
$PEXTMIN
 10
1.0000000000E+20
 20
1.0000000000E+20
 30
1.0000000000E+20
  9
$PEXTMAX
 10
-1.0000000000E+20
 20
-1.0000000000E+20
 30
-1.0000000000E+20
  9
$PLIMMIN
 10
0.0
 20
0.0
  9
$PLIMMAX
 10
420.0
 20
297.0
  9
$UNITMODE
 70
     0
  9
$VISRETAIN
 70
     1
  9
$PLINEGEN
 70
     0
  9
$PSLTSCALE
 70
     1
  9
$TREEDEPTH
 70
  3020
  9
$CMLSTYLE
  2
Standard
  9
$CMLJUST
 70
     0
  9
$CMLSCALE
 40
20.0
  9
$PROXYGRAPHICS
 70
     1
  9
$MEASUREMENT
 70
     1
  9
$CELWEIGHT
370
    -1
  9
$ENDCAPS
280
     0
  9
$JOINSTYLE
280
     0
  9
$LWDISPLAY
290
     1
  9
$INSUNITS
 70
     4
  9
$HYPERLINKBASE
  1

  9
$STYLESHEET
  1

  9
$XEDIT
290
     1
  9
$CEPSNTYPE
380
     0
  9
$PSTYLEMODE
290
     1
  9
$FINGERPRINTGUID
  2
{90424AFC-0379-4B98-A8EF-ECB3F6357BEF}
  9
$VERSIONGUID
  2
{FAEB1C32-E019-11D5-929B-00C0DF256EC4}
  9
$EXTNAMES
290
     1
  9
$PSVPSCALE
 40
0.0
  9
$OLESTARTUP
290
     0
  0
ENDSEC
  0
SECTION
  2
CLASSES
  0
CLASS
  1
ACDBDICTIONARYWDFLT
  2
AcDbDictionaryWithDefault
  3
ObjectDBX Classes
 90
        0
280
     0
281
     0
  0
CLASS
  1
VISUALSTYLE
  2
AcDbVisualStyle
  3
ObjectDBX Classes
 90
     4095
280
     0
281
     0
  0
CLASS
  1
MATERIAL
  2
AcDbMaterial
  3
ObjectDBX Classes
 90
     1153
280
     0
281
     0
  0
CLASS
  1
SCALE
  2
AcDbScale
  3
ObjectDBX Classes
 90
     1153
280
     0
281
     0
  0
CLASS
  1
TABLESTYLE
  2
AcDbTableStyle
  3
ObjectDBX Classes
 90
     4095
280
     0
281
     0
  0
CLASS
  1
MLEADERSTYLE
  2
AcDbMLeaderStyle
  3
ACDB_MLEADERSTYLE_CLASS
 90
     4095
280
     0
281
     0
  0
CLASS
  1
SUN
  2
AcDbSun
  3
SCENEOE
 90
     1153
280
     0
281
     0
  0
CLASS
  1
ACDBPLACEHOLDER
  2
AcDbPlaceHolder
  3
ObjectDBX Classes
 90
        0
280
     0
281
     0
  0
CLASS
  1
LAYOUT
  2
AcDbLayout
  3
ObjectDBX Classes
 90
        0
280
     0
281
     0
  0
ENDSEC
  0
SECTION
  2
TABLES
  0
TABLE
  2
VPORT
  5
8
330
0
100
AcDbSymbolTable
 70
     1
  0
VPORT
  5
29
330
8
100
AcDbSymbolTableRecord
100
AcDbViewportTableRecord
  2
*Active
 70
     0
 10
0.0
 20
0.0
 11
1.0
 21
1.0
 12
105.0
 22
148.5
 13
0.0
 23
0.0
 14
10.0
 24
10.0
 15
10.0
 25
10.0
 16
0.0
 26
0.0
 36
1.0
 17
0.0
 27
0.0
 37
0.0
 40
297.0
 41
0.7070707071
 42
50.0
 43
0.0
 44
0.0
 50
0.0
 51
0.0
 71
     0
 72
  2000
 73
     1
 74
     3
 75
     0
 76
     0
 77
     0
 78
     0
281
     0
 65
     1
110
0.0
120
0.0
130
0.0
111
1.0
121
0.0
131
0.0
112
0.0
122
1.0
132
0.0
 79
     0
146
0.0
  0
ENDTAB
  0
TABLE
  2
LTYPE
  5
5
330
0
100
AcDbSymbolTable
 70
     6
  0
LTYPE
  5
14
330
5
100
AcDbSymbolTableRecord
100
AcDbLinetypeTableRecord
  2
ByBlock
 70
     0
  3

 72
    65
 73
     0
 40
0.0
  0
LTYPE
  5
15
330
5
100
AcDbSymbolTableRecord
100
AcDbLinetypeTableRecord
  2
ByLayer
 70
     0
  3

 72
    65
 73
     0
 40
0.0
  0
LTYPE
  5
16
330
5
100
AcDbSymbolTableRecord
100
AcDbLinetypeTableRecord
  2
Continuous
 70
     0
  3
Solid line
 72
    65
 73
     0
 40
0.0
  0
LTYPE
  5
6E
330
5
100
AcDbSymbolTableRecord
100
AcDbLinetypeTableRecord
  2
HIDDEN
 70
     0
  3
Hidden __ __ __ __ __ __ __ __ __ __ __ __ __ __
 72
    65
 73
     2
 40
1.905
 49
1.27
 74
     0
 49
-0.635
 74
     0
  0
LTYPE
  5
6F
330
5
100
AcDbSymbolTableRecord
100
AcDbLinetypeTableRecord
  2
PHANTOM
 70
     0
  3
Phantom ______  __  __  ______  __  __  ______
 72
    65
 73
     6
 40
12.7
 49
6.35
 74
     0
 49
-1.27
 74
     0
 49
1.27
 74
     0
 49
-1.27
 74
     0
 49
1.27
 74
     0
 49
-1.27
 74
     0
  0
LTYPE
  5
70
330
5
100
AcDbSymbolTableRecord
100
AcDbLinetypeTableRecord
  2
CENTER
 70
     0
  3
Center ____ _ ____ _ ____ _ ____ _ ____ _ ____
 72
    65
 73
     4
 40
10.16
 49
6.35
 74
     0
 49
-1.27
 74
     0
 49
1.27
 74
     0
 49
-1.27
 74
     0
  0
LTYPE
  5
71
330
5
100
AcDbSymbolTableRecord
100
AcDbLinetypeTableRecord
  2
CENTERX2
 70
     0
  3
Center (2x) ________  __  ________  __  _____
 72
    65
 73
     4
 40
20.32
 49
12.7
 74
     0
 49
-2.54
 74
     0
 49
2.54
 74
     0
 49
-2.54
 74
     0
  0
LTYPE
  5
72
330
5
100
AcDbSymbolTableRecord
100
AcDbLinetypeTableRecord
  2
DOT2
 70
     0
  3
Dot (.5x) ........................................
 72
    65
 73
     2
 40
0.635
 49
0.0
 74
     0
 49
-0.635
 74
     0
  0
ENDTAB
  0
TABLE
  2
LAYER
  5
2
330
0
100
AcDbSymbolTable
 70
     1
  0
LAYER
  5
10
330
2
100
AcDbSymbolTableRecord
100
AcDbLayerTableRecord
  2
0
 70
     0
 62
     7
  6
Continuous
370
    -3
390
F
  0
ENDTAB
  0
TABLE
  2
STYLE
  5
3
330
0
100
AcDbSymbolTable
 70
     2
  0
STYLE
  5
11
330
3
100
AcDbSymbolTableRecord
100
AcDbTextStyleTableRecord
  2
Standard
 70
     0
 40
0.0
 41
1.0
 50
0.0
 71
     0
 42
3.5
  3
txt
  4
bigfont
  0
STYLE
  5
7B
330
3
100
AcDbSymbolTableRecord
100
AcDbTextStyleTableRecord
  2
SLDTEXTSTYLE0
 70
     0
 40
0.0
 41
0.7
 50
0.0
 71
     0
 42
3.5
  3
TXT
  4
bigfont
  0
ENDTAB
  0
TABLE
  2
VIEW
  5
6
330
0
100
AcDbSymbolTable
 70
     0
  0
ENDTAB
  0
TABLE
  2
UCS
  5
7
330
0
100
AcDbSymbolTable
 70
     0
  0
ENDTAB
  0
TABLE
  2
APPID
  5
9
330
0
100
AcDbSymbolTable
 70
     1
  0
APPID
  5
12
330
9
100
AcDbSymbolTableRecord
100
AcDbRegAppTableRecord
  2
ACAD
 70
     0
  0
ENDTAB
  0
TABLE
  2
DIMSTYLE
  5
A
330
0
100
AcDbSymbolTable
 70
     4
100
AcDbDimStyleTable
  0
DIMSTYLE
105
27
330
A
100
AcDbSymbolTableRecord
100
AcDbDimStyleTableRecord
  2
ISO-25
 70
     0
 41
2.5
 42
0.625
 43
3.75
 44
1.25
 73
     0
 74
     0
 77
     1
 78
     8
140
2.5
141
2.5
143
0.0393700787
147
0.625
171
     3
172
     1
178
     0
271
     2
272
     2
274
     3
278
    44
283
     0
284
     8
340
11
  0
DIMSTYLE
105
D4
102
{ACAD_REACTORS
330
D3
330
ED
330
103
102
}
330
A
100
AcDbSymbolTableRecord
100
AcDbDimStyleTableRecord
  2
SLDDIMSTYLE0
 70
     0
 41
3.0
 44
0.0
 45
0.000000001
 73
     0
 74
     0
 77
     3
 78
    12
 79
     3
140
3.5
147
0.875
172
     1
173
     1
178
     0
271
     1
272
     3
276
     2
284
    12
289
     0
340
7B
  0
DIMSTYLE
105
E2
102
{ACAD_REACTORS
330
E1
330
F9
330
10F
102
}
330
A
100
AcDbSymbolTableRecord
100
AcDbDimStyleTableRecord
  2
SLDDIMSTYLE1
 70
     0
 41
3.0
 44
0.0
 45
0.000000001
 73
     0
 74
     0
 77
     3
 78
    12
 79
     3
140
3.5
147
0.875
173
     1
178
     0
271
     1
272
     3
276
     2
284
    12
340
7B
  0
DIMSTYLE
105
11F
330
A
100
AcDbSymbolTableRecord
100
AcDbDimStyleTableRecord
  2
SLDDIMSTYLE2
 70
     0
 41
3.0
 44
0.0
 45
0.000000001
146
3.0
147
0.0
173
     1
178
     0
271
     0
272
     0
276
     2
340
11
  0
ENDTAB
  0
TABLE
  2
BLOCK_RECORD
  5
1
330
0
100
AcDbSymbolTable
 70
     8
  0
BLOCK_RECORD
  5
1F
330
1
100
AcDbSymbolTableRecord
100
AcDbBlockTableRecord
  2
*Model_Space
340
22
  0
BLOCK_RECORD
  5
1B
330
1
100
AcDbSymbolTableRecord
100
AcDbBlockTableRecord
  2
*Paper_Space
340
1E
  0
BLOCK_RECORD
  5
23
330
1
100
AcDbSymbolTableRecord
100
AcDbBlockTableRecord
  2
*Paper_Space0
340
26
  0
BLOCK_RECORD
  5
D5
330
1
100
AcDbSymbolTableRecord
100
AcDbBlockTableRecord
  2
_D
340
0
  0
BLOCK_RECORD
  5
E3
330
1
100
AcDbSymbolTableRecord
100
AcDbBlockTableRecord
  2
_D_1
340
0
  0
BLOCK_RECORD
  5
EE
330
1
100
AcDbSymbolTableRecord
100
AcDbBlockTableRecord
  2
_D_2
340
0
  0
BLOCK_RECORD
  5
FA
330
1
100
AcDbSymbolTableRecord
100
AcDbBlockTableRecord
  2
_D_3
340
0
  0
BLOCK_RECORD
  5
104
330
1
100
AcDbSymbolTableRecord
100
AcDbBlockTableRecord
  2
_D_4
340
0
  0
BLOCK_RECORD
  5
110
330
1
100
AcDbSymbolTableRecord
100
AcDbBlockTableRecord
  2
_D_5
340
0
  0
BLOCK_RECORD
  5
119
330
1
100
AcDbSymbolTableRecord
100
AcDbBlockTableRecord
  2
SW_NOTE_0
340
0
102
{BLKREFS
331
11E
102
}
  0
ENDTAB
  0
ENDSEC
  0
SECTION
  2
BLOCKS
  0
BLOCK
  5
20
330
1F
100
AcDbEntity
  8
0
100
AcDbBlockBegin
  2
*Model_Space
 70
     0
 10
0.0
 20
0.0
 30
0.0
  3
*Model_Space
  1

  0
ENDBLK
  5
21
330
1F
100
AcDbEntity
  8
0
100
AcDbBlockEnd
  0
BLOCK
  5
1C
330
1B
100
AcDbEntity
 67
     1
  8
0
100
AcDbBlockBegin
  2
*Paper_Space
 70
     0
 10
0.0
 20
0.0
 30
0.0
  3
*Paper_Space
  1

  0
ENDBLK
  5
1D
330
1B
100
AcDbEntity
 67
     1
  8
0
100
AcDbBlockEnd
  0
BLOCK
  5
24
330
23
100
AcDbEntity
  8
0
100
AcDbBlockBegin
  2
*Paper_Space0
 70
     0
 10
0.0
 20
0.0
 30
0.0
  3
*Paper_Space0
  1

  0
ENDBLK
  5
25
330
23
100
AcDbEntity
  8
0
100
AcDbBlockEnd
  0
BLOCK
  5
D6
330
D5
100
AcDbEntity
  8
0
100
AcDbBlockBegin
  2
_D
 70
     0
 10
0.0
 20
0.0
 30
0.0
  3
_D
  1

  0
SOLID
  5
D8
330
D5
100
AcDbEntity
  8
0
  6
Continuous
 62
     7
370
    18
100
AcDbTrace
 10
147.3891266931
 20
168.2091791045
 30
0.0
 11
148.1391266931
 21
171.2091791045
 31
0.0
 12
146.6391266931
 22
171.2091791045
 32
0.0
 13
146.6391266931
 23
171.2091791045
 33
0.0
  0
SOLID
  5
D9
330
D5
100
AcDbEntity
  8
0
  6
Continuous
 62
     7
370
    18
100
AcDbTrace
 10
147.3891266931
 20
164.2091791045
 30
0.0
 11
146.6391266931
 21
161.2091791045
 31
0.0
 12
148.1391266931
 22
161.2091791045
 32
0.0
 13
148.1391266931
 23
161.2091791045
 33
0.0
  0
LINE
  5
DA
330
D5
100
AcDbEntity
  8
0
  6
Continuous
 62
     7
370
    18
100
AcDbLine
 10
138.3841266931
 20
168.2091791045
 30
0.0
 11
148.3891266931
 21
168.2091791045
 31
0.0
  0
LINE
  5
DB
330
D5
100
AcDbEntity
  8
0
  6
Continuous
 62
     7
370
    18
100
AcDbLine
 10
138.3841266931
 20
164.2091791045
 30
0.0
 11
148.3891266931
 21
164.2091791045
 31
0.0
  0
LINE
  5
DC
330
D5
100
AcDbEntity
  8
0
  6
Continuous
 62
     7
370
    18
100
AcDbLine
 10
147.3891266931
 20
168.2091791045
 30
0.0
 11
147.3891266931
 21
184.0912626736
 31
0.0
  0
LINE
  5
DD
330
D5
100
AcDbEntity
  8
0
  6
Continuous
 62
     7
370
    18
100
AcDbLine
 10
147.3891266931
 20
168.2091791045
 30
0.0
 11
147.3891266931
 21
164.2091791045
 31
0.0
  0
LINE
  5
DE
330
D5
100
AcDbEntity
  8
0
  6
Continuous
 62
     7
370
    18
100
AcDbLine
 10
147.3891266931
 20
164.2091791045
 30
0.0
 11
147.3891266931
 21
159.2091791045
 31
0.0
  0
MTEXT
  5
DF
330
D5
100
AcDbEntity
  8
0
  6
Continuous
 62
     7
370
    18
100
AcDbMText
 10
142.8773898368
 20
177.9808459483
 30
0.0
 40
3.5
 41
0.0
 71
     1
 72
     1
  1
Φ
  7
SLDTEXTSTYLE0
 11
-7.044195017643634E-15
 21
1.0
 31
0.0
 73
     1
 44
1.0
  0
MTEXT
  5
E0
330
D5
100
AcDbEntity
  8
0
  6
Continuous
 62
     7
370
    18
100
AcDbMText
 10
142.8773898368
 20
182.0544569433
 30
0.0
 40
3.5
 41
0.0
 71
     1
 72
     1
  1
4
  7
SLDTEXTSTYLE0
 11
-7.044195017643634E-15
 21
1.0
 31
0.0
 73
     1
 44
1.0
  0
ENDBLK
  5
D7
330
D5
100
AcDbEntity
  8
0
100
AcDbBlockEnd
  0
BLOCK
  5
E4
330
E3
100
AcDbEntity
  8
0
100
AcDbBlockBegin
  2
_D_1
 70
     0
 10
0.0
 20
0.0
 30
0.0
  3
_D_1
  1

  0
SOLID
  5
E6
330
E3
100
AcDbEntity
  8
0
  6
Continuous
 62
     7
370
    18
100
AcDbTrace
 10
159.3891266931
 20
175.7091791045
 30
0.0
 11
158.6391266931
 21
172.7091791045
 31
0.0
 12
160.1391266931
 22
172.7091791045
 32
0.0
 13
160.1391266931
 23
172.7091791045
 33
0.0
  0
SOLID
  5
E7
330
E3
100
AcDbEntity
  8
0
  6
Continuous
 62
     7
370
    18
100
AcDbTrace
 10
159.3891266931
 20
156.7091791045
 30
0.0
 11
160.1391266931
 21
159.7091791045
 31
0.0
 12
158.6391266931
 22
159.7091791045
 32
0.0
 13
158.6391266931
 23
159.7091791045
 33
0.0
  0
LINE
  5
E8
330
E3
100
AcDbEntity
  8
0
  6
Continuous
 62
     7
370
    18
100
AcDbLine
 10
130.8851266931
 20
175.7091791045
 30
0.0
 11
160.3891266931
 21
175.7091791045
 31
0.0
  0
LINE
  5
E9
330
E3
100
AcDbEntity
  8
0
  6
Continuous
 62
     7
370
    18
100
AcDbLine
 10
130.8851266931
 20
156.7091791045
 30
0.0
 11
160.3891266931
 21
156.7091791045
 31
0.0
  0
LINE
  5
EA
330
E3
100
AcDbEntity
  8
0
  6
Continuous
 62
     7
370
    18
100
AcDbLine
 10
159.3891266931
 20
175.7091791045
 30
0.0
 11
159.3891266931
 21
156.7091791045
 31
0.0
  0
MTEXT
  5
EB
330
E3
100
AcDbEntity
  8
0
  6
Continuous
 62
     7
370
    18
100
AcDbMText
 10
154.8773898368
 20
162.1355681095
 30
0.0
 40
3.5
 41
0.0
 71
     1
 72
     1
  1
Φ
  7
SLDTEXTSTYLE0
 11
-6.156016597943509E-15
 21
1.0
 31
0.0
 73
     1
 44
1.0
  0
MTEXT
  5
EC
330
E3
100
AcDbEntity
  8
0
  6
Continuous
 62
     7
370
    18
100
AcDbMText
 10
154.8773898368
 20
166.2091791045
 30
0.0
 40
3.5
 41
0.0
 71
     1
 72
     1
  1
19
  7
SLDTEXTSTYLE0
 11
-6.156016597943509E-15
 21
1.0
 31
0.0
 73
     1
 44
1.0
  0
ENDBLK
  5
E5
330
E3
100
AcDbEntity
  8
0
100
AcDbBlockEnd
  0
BLOCK
  5
EF
330
EE
100
AcDbEntity
  8
0
100
AcDbBlockBegin
  2
_D_2
 70
     0
 10
0.0
 20
0.0
 30
0.0
  3
_D_2
  1

  0
SOLID
  5
F1
330
EE
100
AcDbEntity
  8
0
  6
Continuous
 62
     7
370
    18
100
AcDbTrace
 10
82.3841266931
 20
140.7041791092
 30
0.0
 11
79.3841266931
 21
141.4541791092
 31
0.0
 12
79.3841266931
 22
139.9541791092
 32
0.0
 13
79.3841266931
 23
139.9541791092
 33
0.0
  0
SOLID
  5
F2
330
EE
100
AcDbEntity
  8
0
  6
Continuous
 62
     7
370
    18
100
AcDbTrace
 10
92.8831266931
 20
140.7041791092
 30
0.0
 11
95.8831266931
 21
139.9541791092
 31
0.0
 12
95.8831266931
 22
141.4541791092
 32
0.0
 13
95.8831266931
 23
141.4541791092
 33
0.0
  0
LINE
  5
F3
330
EE
100
AcDbEntity
  8
0
  6
Continuous
 62
     7
370
    18
100
AcDbLine
 10
82.3841266931
 20
160.3591791045
 30
0.0
 11
82.3841266931
 21
139.7041791092
 31
0.0
  0
LINE
  5
F4
330
EE
100
AcDbEntity
  8
0
  6
Continuous
 62
     7
370
    18
100
AcDbLine
 10
92.8831266931
 20
156.2091791045
 30
0.0
 11
92.8831266931
 21
139.7041791092
 31
0.0
  0
LINE
  5
F5
330
EE
100
AcDbEntity
  8
0
  6
Continuous
 62
     7
370
    18
100
AcDbLine
 10
82.3841266931
 20
140.7041791092
 30
0.0
 11
77.3841266931
 21
140.7041791092
 31
0.0
  0
LINE
  5
F6
330
EE
100
AcDbEntity
  8
0
  6
Continuous
 62
     7
370
    18
100
AcDbLine
 10
82.3841266931
 20
140.7041791092
 30
0.0
 11
92.8831266931
 21
140.7041791092
 31
0.0
  0
LINE
  5
F7
330
EE
100
AcDbEntity
  8
0
  6
Continuous
 62
     7
370
    18
100
AcDbLine
 10
92.8831266931
 20
140.7041791092
 30
0.0
 11
97.8831266931
 21
140.7041791092
 31
0.0
  0
MTEXT
  5
F8
330
EE
100
AcDbEntity
  8
0
  6
Continuous
 62
     7
370
    18
100
AcDbMText
 10
83.5600156982
 20
145.2159159656
 30
0.0
 40
3.5
 41
0.0
 71
     1
 72
     1
  1
10.5
  7
SLDTEXTSTYLE0
 73
     1
 44
1.0
  0
ENDBLK
  5
F0
330
EE
100
AcDbEntity
  8
0
100
AcDbBlockEnd
  0
BLOCK
  5
FB
330
FA
100
AcDbEntity
  8
0
100
AcDbBlockBegin
  2
_D_3
 70
     0
 10
0.0
 20
0.0
 30
0.0
  3
_D_3
  1

  0
SOLID
  5
FD
330
FA
100
AcDbEntity
  8
0
  6
Continuous
 62
     7
370
    18
100
AcDbTrace
 10
92.8831266931
 20
140.7041791092
 30
0.0
 11
95.8831266931
 21
139.9541791092
 31
0.0
 12
95.8831266931
 22
141.4541791092
 32
0.0
 13
95.8831266931
 23
141.4541791092
 33
0.0
  0
SOLID
  5
FE
330
FA
100
AcDbEntity
  8
0
  6
Continuous
 62
     7
370
    18
100
AcDbTrace
 10
126.8851266931
 20
140.7041791092
 30
0.0
 11
123.8851266931
 21
141.4541791092
 31
0.0
 12
123.8851266931
 22
139.9541791092
 32
0.0
 13
123.8851266931
 23
139.9541791092
 33
0.0
  0
LINE
  5
FF
330
FA
100
AcDbEntity
  8
0
  6
Continuous
 62
     7
370
    18
100
AcDbLine
 10
92.8831266931
 20
156.2091791045
 30
0.0
 11
92.8831266931
 21
139.7041791092
 31
0.0
  0
LINE
  5
100
330
FA
100
AcDbEntity
  8
0
  6
Continuous
 62
     7
370
    18
100
AcDbLine
 10
126.8851266931
 20
155.7091791045
 30
0.0
 11
126.8851266931
 21
139.7041791092
 31
0.0
  0
LINE
  5
101
330
FA
100
AcDbEntity
  8
0
  6
Continuous
 62
     7
370
    18
100
AcDbLine
 10
92.8831266931
 20
140.7041791092
 30
0.0
 11
126.8851266931
 21
140.7041791092
 31
0.0
  0
MTEXT
  5
102
330
FA
100
AcDbEntity
  8
0
  6
Continuous
 62
     7
370
    18
100
AcDbMText
 10
107.8473211956
 20
145.2159159656
 30
0.0
 40
3.5
 41
0.0
 71
     1
 72
     1
  1
34
  7
SLDTEXTSTYLE0
 73
     1
 44
1.0
  0
ENDBLK
  5
FC
330
FA
100
AcDbEntity
  8
0
100
AcDbBlockEnd
  0
BLOCK
  5
105
330
104
100
AcDbEntity
  8
0
100
AcDbBlockBegin
  2
_D_4
 70
     0
 10
0.0
 20
0.0
 30
0.0
  3
_D_4
  1

  0
SOLID
  5
107
330
104
100
AcDbEntity
  8
0
  6
Continuous
 62
     7
370
    18
100
AcDbTrace
 10
126.8851266931
 20
140.7041791092
 30
0.0
 11
123.8851266931
 21
141.4541791092
 31
0.0
 12
123.8851266931
 22
139.9541791092
 32
0.0
 13
123.8851266931
 23
139.9541791092
 33
0.0
  0
SOLID
  5
108
330
104
100
AcDbEntity
  8
0
  6
Continuous
 62
     7
370
    18
100
AcDbTrace
 10
137.3841266931
 20
140.7041791092
 30
0.0
 11
140.3841266931
 21
139.9541791092
 31
0.0
 12
140.3841266931
 22
141.4541791092
 32
0.0
 13
140.3841266931
 23
141.4541791092
 33
0.0
  0
LINE
  5
109
330
104
100
AcDbEntity
  8
0
  6
Continuous
 62
     7
370
    18
100
AcDbLine
 10
126.8851266931
 20
155.7091791045
 30
0.0
 11
126.8851266931
 21
139.7041791092
 31
0.0
  0
LINE
  5
10A
330
104
100
AcDbEntity
  8
0
  6
Continuous
 62
     7
370
    18
100
AcDbLine
 10
137.3841266931
 20
160.3591791045
 30
0.0
 11
137.3841266931
 21
139.7041791092
 31
0.0
  0
LINE
  5
10B
330
104
100
AcDbEntity
  8
0
  6
Continuous
 62
     7
370
    18
100
AcDbLine
 10
126.8851266931
 20
140.7041791092
 30
0.0
 11
121.8851266931
 21
140.7041791092
 31
0.0
  0
LINE
  5
10C
330
104
100
AcDbEntity
  8
0
  6
Continuous
 62
     7
370
    18
100
AcDbLine
 10
126.8851266931
 20
140.7041791092
 30
0.0
 11
137.3841266931
 21
140.7041791092
 31
0.0
  0
LINE
  5
10D
330
104
100
AcDbEntity
  8
0
  6
Continuous
 62
     7
370
    18
100
AcDbLine
 10
137.3841266931
 20
140.7041791092
 30
0.0
 11
142.3841266931
 21
140.7041791092
 31
0.0
  0
MTEXT
  5
10E
330
104
100
AcDbEntity
  8
0
  6
Continuous
 62
     7
370
    18
100
AcDbMText
 10
128.0610156982
 20
145.2159159656
 30
0.0
 40
3.5
 41
0.0
 71
     1
 72
     1
  1
10.5
  7
SLDTEXTSTYLE0
 73
     1
 44
1.0
  0
ENDBLK
  5
106
330
104
100
AcDbEntity
  8
0
100
AcDbBlockEnd
  0
BLOCK
  5
111
330
110
100
AcDbEntity
  8
0
100
AcDbBlockBegin
  2
_D_5
 70
     0
 10
0.0
 20
0.0
 30
0.0
  3
_D_5
  1

  0
SOLID
  5
113
330
110
100
AcDbEntity
  8
0
  6
Continuous
 62
     7
370
    18
100
AcDbTrace
 10
82.3841266931
 20
132.0837816273
 30
0.0
 11
85.3841266931
 21
131.3337816273
 31
0.0
 12
85.3841266931
 22
132.8337816273
 32
0.0
 13
85.3841266931
 23
132.8337816273
 33
0.0
  0
SOLID
  5
114
330
110
100
AcDbEntity
  8
0
  6
Continuous
 62
     7
370
    18
100
AcDbTrace
 10
137.3841266931
 20
132.0837816273
 30
0.0
 11
134.3841266931
 21
132.8337816273
 31
0.0
 12
134.3841266931
 22
131.3337816273
 32
0.0
 13
134.3841266931
 23
131.3337816273
 33
0.0
  0
LINE
  5
115
330
110
100
AcDbEntity
  8
0
  6
Continuous
 62
     7
370
    18
100
AcDbLine
 10
82.3841266931
 20
160.3591791045
 30
0.0
 11
82.3841266931
 21
131.0837816273
 31
0.0
  0
LINE
  5
116
330
110
100
AcDbEntity
  8
0
  6
Continuous
 62
     7
370
    18
100
AcDbLine
 10
137.3841266931
 20
160.3591791045
 30
0.0
 11
137.3841266931
 21
131.0837816273
 31
0.0
  0
LINE
  5
117
330
110
100
AcDbEntity
  8
0
  6
Continuous
 62
     7
370
    18
100
AcDbLine
 10
82.3841266931
 20
132.0837816273
 30
0.0
 11
137.3841266931
 21
132.0837816273
 31
0.0
  0
MTEXT
  5
118
330
110
100
AcDbEntity
  8
0
  6
Continuous
 62
     7
370
    18
100
AcDbMText
 10
107.8473211956
 20
136.5955184837
 30
0.0
 40
3.5
 41
0.0
 71
     1
 72
     1
  1
55
  7
SLDTEXTSTYLE0
 73
     1
 44
1.0
  0
ENDBLK
  5
112
330
110
100
AcDbEntity
  8
0
100
AcDbBlockEnd
  0
BLOCK
  5
11A
330
119
100
AcDbEntity
  8
0
100
AcDbBlockBegin
  2
SW_NOTE_0
 70
     0
 10
0.0
 20
0.0
 30
0.0
  3
SW_NOTE_0
  1

  0
LINE
  5
11C
330
119
100
AcDbEntity
  8
0
  6
Continuous
 62
     0
370
     0
100
AcDbLine
 10
-8.2716000994
 20
0.0
 30
0.0
 11
0.0
 21
0.0
 31
0.0
  0
MTEXT
  5
11D
330
119
100
AcDbEntity
  8
0
  6
Continuous
 62
     0
370
     0
100
AcDbMText
 10
-8.7103315399
 20
4.5294121984
 30
0.0
 40
3.5
 41
0.0
 71
     1
 72
     1
  1
Φ18
  7
SLDTEXTSTYLE0
 73
     1
 44
1.0
  0
ENDBLK
  5
11B
330
119
100
AcDbEntity
  8
0
100
AcDbBlockEnd
  0
ENDSEC
  0
SECTION
  2
ENTITIES
  0
LINE
  5
73
330
1F
100
AcDbEntity
  8
0
  6
Continuous
 62
     7
370
    18
100
AcDbLine
 10
20.2604743903
 20
285.0
 30
0.0
 11
196.7604743903
 21
285.0
 31
0.0
  0
LINE
  5
74
330
1F
100
AcDbEntity
  8
0
  6
Continuous
 62
     7
370
    18
100
AcDbLine
 10
20.2604743903
 20
285.0
 30
0.0
 11
20.2604743903
 21
10.0
 31
0.0
  0
LINE
  5
75
330
1F
100
AcDbEntity
  8
0
  6
Continuous
 62
     7
370
    18
100
AcDbLine
 10
20.2604743903
 20
10.0
 30
0.0
 11
196.7604743903
 21
10.0
 31
0.0
  0
LINE
  5
76
330
1F
100
AcDbEntity
  8
0
  6
Continuous
 62
     7
370
    18
100
AcDbLine
 10
196.7604743903
 20
285.0
 30
0.0
 11
196.7604743903
 21
10.0
 31
0.0
  0
LINE
  5
77
330
1F
100
AcDbEntity
  8
0
  6
Continuous
 62
     7
370
    18
100
AcDbLine
 10
127.0104743903
 20
50.75
 30
0.0
 11
196.7604743903
 21
50.75
 31
0.0
  0
LINE
  5
78
330
1F
100
AcDbEntity
  8
0
  6
Continuous
 62
     7
370
    18
100
AcDbLine
 10
127.0104743903
 20
50.75
 30
0.0
 11
127.0104743903
 21
10.0
 31
0.0
  0
LINE
  5
79
330
1F
100
AcDbEntity
  8
0
  6
Continuous
 62
     7
370
    18
100
AcDbLine
 10
127.0104743903
 20
22.75
 30
0.0
 11
196.7604743903
 21
22.75
 31
0.0
  0
LINE
  5
7A
330
1F
100
AcDbEntity
  8
0
  6
Continuous
 62
     7
370
    18
100
AcDbLine
 10
127.0104743903
 20
36.75
 30
0.0
 11
196.7604743903
 21
36.75
 31
0.0
  0
MTEXT
  5
7C
330
1F
100
AcDbEntity
  8
0
  6
Continuous
 62
     7
370
     0
100
AcDbMText
 10
162.7914247089
 20
30.4171582345
 30
0.0
 40
4.2333333333
 41
0.0
 71
     2
 72
     1
  1
EVFL-44
  7
SLDTEXTSTYLE0
 73
     1
 44
1.0
  0
MTEXT
  5
7D
330
1F
100
AcDbEntity
  8
0
  6
Continuous
 62
     7
370
     0
100
AcDbMText
 10
161.5538607289
 20
43.9409718514
 30
0.0
 40
4.2333333333
 41
0.0
 71
     2
 72
     1
  1
小型フィルター
  7
SLDTEXTSTYLE0
 73
     1
 44
1.0
  0
MTEXT
  5
7E
330
1F
100
AcDbEntity
  8
0
  6
Continuous
 62
     7
370
     0
100
AcDbMText
 10
162.8901556738
 20
16.8228189052
 30
0.0
 40
4.2333333333
 41
0.0
 71
     2
 72
     1
  1
042036
  7
SLDTEXTSTYLE0
 73
     1
 44
1.0
  0
LINE
  5
7F
330
1F
100
AcDbEntity
  8
0
  6
Continuous
 62
     7
370
    18
100
AcDbLine
 10
82.3841268421
 20
161.3591789614
 30
0.0
 11
83.7171269805
 21
161.3591789614
 31
0.0
  0
LINE
  5
80
330
1F
100
AcDbEntity
  8
0
  6
Continuous
 62
     7
370
    18
100
AcDbLine
 10
83.7171269805
 20
171.0591792475
 30
0.0
 11
82.3841268421
 21
171.0591792475
 31
0.0
  0
LINE
  5
81
330
1F
100
AcDbEntity
  8
0
  6
Continuous
 62
     7
370
    18
100
AcDbLine
 10
83.7171269805
 20
163.7091791604
 30
0.0
 11
85.0501271189
 21
163.7091791604
 31
0.0
  0
LINE
  5
82
330
1F
100
AcDbEntity
  8
0
  6
Continuous
 62
     7
370
    18
100
AcDbLine
 10
85.0501271189
 20
168.7091790486
 30
0.0
 11
83.7171269805
 21
168.7091790486
 31
0.0
  0
LINE
  5
83
330
1F
100
AcDbEntity
  8
0
  6
Continuous
 62
     7
370
    18
100
AcDbLine
 10
85.0501271189
 20
161.3591789614
 30
0.0
 11
86.3831272573
 21
161.3591789614
 31
0.0
  0
LINE
  5
84
330
1F
100
AcDbEntity
  8
0
  6
Continuous
 62
     7
370
    18
100
AcDbLine
 10
86.3831272573
 20
171.0591792475
 30
0.0
 11
85.0501271189
 21
171.0591792475
 31
0.0
  0
LINE
  5
85
330
1F
100
AcDbEntity
  8
0
  6
Continuous
 62
     7
370
    18
100
AcDbLine
 10
86.3831272573
 20
159.7091789704
 30
0.0
 11
88.3831275852
 21
159.7091789704
 31
0.0
  0
LINE
  5
86
330
1F
100
AcDbEntity
  8
0
  6
Continuous
 62
     7
370
    18
100
AcDbLine
 10
88.3831275852
 20
172.7091792386
 30
0.0
 11
86.3831272573
 21
172.7091792386
 31
0.0
  0
LWPOLYLINE
  5
87
330
1F
100
AcDbEntity
  8
0
  6
Continuous
 62
     7
370
    18
100
AcDbPolyline
 90
        3
 70
   128
 43
0.0
 10
89.8831268997
 20
174.2091794845
 10
89.0431260915
 20
173.3691791419
 10
88.3831275852
 20
172.7091792386
  0
LWPOLYLINE
  5
88
330
1F
100
AcDbEntity
  8
0
  6
Continuous
 62
     7
370
    18
100
AcDbPolyline
 90
        3
 70
   128
 43
0.0
 10
88.3831275852
 20
159.7091789704
 10
89.2231265308
 20
158.8691790935
 10
89.8831268997
 20
158.2091787245
  0
LINE
  5
89
330
1F
100
AcDbEntity
  8
0
  6
Continuous
 62
     7
370
    18
100
AcDbLine
 10
89.8831268997
 20
156.70917941
 30
0.0
 11
92.8831273915
 21
156.70917941
 31
0.0
  0
LINE
  5
8A
330
1F
100
AcDbEntity
  8
0
  6
Continuous
 62
     7
370
    18
100
AcDbLine
 10
92.8831273915
 20
175.709178799
 30
0.0
 11
89.8831268997
 21
175.709178799
 31
0.0
  0
LINE
  5
8B
330
1F
100
AcDbEntity
  8
0
  6
Continuous
 62
     7
370
    18
100
AcDbLine
 10
92.8831273915
 20
157.2091794919
 30
0.0
 11
126.8851259948
 21
157.2091794919
 31
0.0
  0
LINE
  5
8C
330
1F
100
AcDbEntity
  8
0
  6
Continuous
 62
     7
370
    18
100
AcDbLine
 10
126.8851259948
 20
175.209178717
 30
0.0
 11
92.8831273915
 21
175.209178717
 31
0.0
  0
LINE
  5
8D
330
1F
100
AcDbEntity
  8
0
  6
Continuous
 62
     7
370
    18
100
AcDbLine
 10
126.8851259948
 20
156.70917941
 30
0.0
 11
129.8851264865
 21
156.70917941
 31
0.0
  0
LINE
  5
8E
330
1F
100
AcDbEntity
  8
0
  6
Continuous
 62
     7
370
    18
100
AcDbLine
 10
129.8851264865
 20
175.709178799
 30
0.0
 11
126.8851259948
 21
175.709178799
 31
0.0
  0
LWPOLYLINE
  5
8F
330
1F
100
AcDbEntity
  8
0
  6
Continuous
 62
     7
370
    18
100
AcDbPolyline
 90
        3
 70
   128
 43
0.0
 10
129.8851264865
 20
158.2091787245
 10
130.7251272948
 20
159.0491790671
 10
131.3851258011
 20
159.7091789704
  0
LWPOLYLINE
  5
90
330
1F
100
AcDbEntity
  8
0
  6
Continuous
 62
     7
370
    18
100
AcDbPolyline
 90
        3
 70
   128
 43
0.0
 10
131.3851258011
 20
172.7091792386
 10
130.5451268555
 20
173.5491791155
 10
129.8851264865
 20
174.2091794845
  0
LINE
  5
91
330
1F
100
AcDbEntity
  8
0
  6
Continuous
 62
     7
370
    18
100
AcDbLine
 10
131.3851258011
 20
159.7091789704
 30
0.0
 11
133.3851261289
 21
159.7091789704
 31
0.0
  0
LINE
  5
92
330
1F
100
AcDbEntity
  8
0
  6
Continuous
 62
     7
370
    18
100
AcDbLine
 10
133.3851261289
 20
172.7091792386
 30
0.0
 11
131.3851258011
 21
172.7091792386
 31
0.0
  0
LINE
  5
93
330
1F
100
AcDbEntity
  8
0
  6
Continuous
 62
     7
370
    18
100
AcDbLine
 10
133.3851261289
 20
161.3591789614
 30
0.0
 11
134.7181262673
 21
161.3591789614
 31
0.0
  0
LINE
  5
94
330
1F
100
AcDbEntity
  8
0
  6
Continuous
 62
     7
370
    18
100
AcDbLine
 10
134.7181262673
 20
171.0591792475
 30
0.0
 11
133.3851261289
 21
171.0591792475
 31
0.0
  0
LINE
  5
95
330
1F
100
AcDbEntity
  8
0
  6
Continuous
 62
     7
370
    18
100
AcDbLine
 10
134.7181262673
 20
163.7091791604
 30
0.0
 11
136.0511264057
 21
163.7091791604
 31
0.0
  0
LINE
  5
96
330
1F
100
AcDbEntity
  8
0
  6
Continuous
 62
     7
370
    18
100
AcDbLine
 10
136.0511264057
 20
168.7091790486
 30
0.0
 11
134.7181262673
 21
168.7091790486
 31
0.0
  0
LINE
  5
97
330
1F
100
AcDbEntity
  8
0
  6
Continuous
 62
     7
370
    18
100
AcDbLine
 10
136.0511264057
 20
161.3591789614
 30
0.0
 11
137.3841265441
 21
161.3591789614
 31
0.0
  0
LINE
  5
98
330
1F
100
AcDbEntity
  8
0
  6
Continuous
 62
     7
370
    18
100
AcDbLine
 10
137.3841265441
 20
171.0591792475
 30
0.0
 11
136.0511264057
 21
171.0591792475
 31
0.0
  0
SPLINE
  5
99
330
1F
100
AcDbEntity
  8
0
  6
Continuous
 62
   144
370
    18
100
AcDbSpline
210
0.0
220
0.0
230
1.0
 70
    24
 71
     3
 72
    10
 73
     6
 74
     0
 42
0.000000001
 43
0.00000001
 40
0.0
 40
0.0
 40
0.0
 40
0.0
 40
0.5
 40
0.5
 40
1.0
 40
1.0
 40
1.0
 40
1.0
 10
83.71712669312397
 20
166.2091791036065
 30
0.0
 10
83.71712669312397
 20
164.9229155312441
 30
0.0
 10
83.71712669312397
 20
163.6892369094485
 30
0.0
 10
83.71712669312397
 20
161.8701855209142
 30
0.0
 10
83.71712669312397
 20
161.3591791043024
 30
0.0
 10
83.71712669312397
 20
161.3591791044776
 30
0.0
  0
LINE
  5
9A
330
1F
100
AcDbEntity
  8
0
  6
Continuous
 62
   144
370
    18
100
AcDbLine
 10
83.7171269805
 20
171.0591792475
 30
0.0
 11
83.7171269805
 21
166.2091791036
 31
0.0
  0
SPLINE
  5
9B
330
1F
100
AcDbEntity
  8
0
  6
Continuous
 62
   144
370
    18
100
AcDbSpline
210
0.0
220
0.0
230
1.0
 70
    24
 71
     3
 72
    10
 73
     6
 74
     0
 42
0.000000001
 43
0.00000001
 40
0.0
 40
0.0
 40
0.0
 40
0.0
 40
0.5
 40
0.5
 40
1.0
 40
1.0
 40
1.0
 40
1.0
 10
82.38412669312397
 20
166.2091791044776
 30
0.0
 10
82.38412669312397
 20
167.49544267684
 30
0.0
 10
82.38412669312397
 20
168.7291212987274
 30
0.0
 10
82.38412669312397
 20
170.5481726875883
 30
0.0
 10
82.38412669312397
 20
171.0591791044217
 30
0.0
 10
82.38412669312397
 20
171.0591791044776
 30
0.0
  0
LINE
  5
9C
330
1F
100
AcDbEntity
  8
0
  6
Continuous
 62
   144
370
    18
100
AcDbLine
 10
82.3841268421
 20
161.3591789614
 30
0.0
 11
82.3841268421
 21
166.2091791045
 31
0.0
  0
SPLINE
  5
9D
330
1F
100
AcDbEntity
  8
0
  6
Continuous
 62
   144
370
    18
100
AcDbSpline
210
0.0
220
0.0
230
1.0
 70
    24
 71
     3
 72
    25
 73
    21
 74
     0
 42
0.000000001
 43
0.00000001
 40
0.0
 40
0.0
 40
0.0
 40
0.0
 40
0.0250529547012751
 40
0.0500478753409905
 40
0.0750234212569812
 40
0.1000183416871889
 40
0.1250712959704198
 40
0.1875858261821786
 40
0.2501003567404746
 40
0.3126148877363531
 40
0.3751294184057041
 40
0.5000071476030015
 40
0.6248848768002989
 40
0.68739940746965
 40
0.7499139384655285
 40
0.8124284690238245
 40
0.8749429992355833
 40
0.9166585443993364
 40
0.9582844542614404
 40
1.0
 40
1.0
 40
1.0
 40
1.0
 10
83.71712669312397
 20
166.2091791044776
 30
0.0
 10
83.71712669312397
 20
166.2727640798374
 30
0.0
 10
83.71712669312397
 20
166.3997867387738
 30
0.0
 10
83.71712669312397
 20
166.5899063077804
 30
0.0
 10
83.71712669312397
 20
166.7792898555936
 30
0.0
 10
83.71712669312396
 20
166.9679418534905
 30
0.0
 10
83.71712669312397
 20
167.2492048176134
 30
0.0
 10
83.71712669312397
 20
167.6193755588982
 30
0.0
 10
83.71712669312397
 20
168.0681474221371
 30
0.0
 10
83.71712669312397
 20
168.4991972639351
 30
0.0
 10
83.71712669312397
 20
169.0438617564287
 30
0.0
 10
83.71712669312397
 20
169.6608340974759
 30
0.0
 10
83.71712669312397
 20
170.1668440350122
 30
0.0
 10
83.71712669312397
 20
170.4934435434075
 30
0.0
 10
83.71712669312397
 20
170.6971626361208
 30
0.0
 10
83.71712669312397
 20
170.8578749545044
 30
0.0
 10
83.71712669312397
 20
170.9608550652388
 30
0.0
 10
83.71712669312397
 20
171.0209319984204
 30
0.0
 10
83.71712669312397
 20
171.0532271884505
 30
0.0
 10
83.71712669312397
 20
171.0571937088333
 30
0.0
 10
83.71712669312397
 20
171.0591791020719
 30
0.0
  0
LINE
  5
9E
330
1F
100
AcDbEntity
  8
0
  6
Continuous
 62
   144
370
    18
100
AcDbLine
 10
83.7171269805
 20
161.3591789614
 30
0.0
 11
83.7171269805
 21
166.2091791045
 31
0.0
  0
SPLINE
  5
9F
330
1F
100
AcDbEntity
  8
0
  6
Continuous
 62
   144
370
    18
100
AcDbSpline
210
0.0
220
0.0
230
1.0
 70
    24
 71
     3
 72
    25
 73
    21
 74
     0
 42
0.000000001
 43
0.00000001
 40
0.0
 40
0.0
 40
0.0
 40
0.0
 40
0.0250529547012751
 40
0.0500478753409905
 40
0.0750234212569811
 40
0.100018341687189
 40
0.1250712959704198
 40
0.1875858261821789
 40
0.2501003567404747
 40
0.3126148877363533
 40
0.3751294184057042
 40
0.5000071476030017
 40
0.624884876800299
 40
0.68739940746965
 40
0.7499139384655286
 40
0.8124284690238245
 40
0.8749429992355834
 40
0.9166585443993366
 40
0.9582844542614405
 40
1.0
 40
1.0
 40
1.0
 40
1.0
 10
85.05012669312399
 20
166.2091791044776
 30
0.0
 10
85.05012669312399
 20
166.1455941291177
 30
0.0
 10
85.05012669312399
 20
166.0185714701813
 30
0.0
 10
85.05012669312399
 20
165.8284519011746
 30
0.0
 10
85.05012669312397
 20
165.6390683533615
 30
0.0
 10
85.05012669312399
 20
165.4504163554646
 30
0.0
 10
85.05012669312397
 20
165.1691533913417
 30
0.0
 10
85.05012669312399
 20
164.7989826500569
 30
0.0
 10
85.05012669312399
 20
164.350210786818
 30
0.0
 10
85.05012669312399
 20
163.9191609450201
 30
0.0
 10
85.05012669312397
 20
163.3744964525264
 30
0.0
 10
85.05012669312399
 20
162.7575241114791
 30
0.0
 10
85.05012669312397
 20
162.2515141739429
 30
0.0
 10
85.05012669312399
 20
161.9249146655476
 30
0.0
 10
85.05012669312399
 20
161.7211955728343
 30
0.0
 10
85.05012669312399
 20
161.5604832544507
 30
0.0
 10
85.05012669312399
 20
161.4575031437163
 30
0.0
 10
85.05012669312397
 20
161.3974262105347
 30
0.0
 10
85.05012669312399
 20
161.3651310205046
 30
0.0
 10
85.05012669312399
 20
161.3611645001218
 30
0.0
 10
85.05012669312399
 20
161.3591791068831
 30
0.0
  0
LINE
  5
A0
330
1F
100
AcDbEntity
  8
0
  6
Continuous
 62
   144
370
    18
100
AcDbLine
 10
85.0501271189
 20
171.0591792475
 30
0.0
 11
85.0501271189
 21
166.2091791045
 31
0.0
  0
SPLINE
  5
A1
330
1F
100
AcDbEntity
  8
0
  6
Continuous
 62
   144
370
    18
100
AcDbSpline
210
0.0
220
0.0
230
1.0
 70
    24
 71
     3
 72
    10
 73
     6
 74
     0
 42
0.000000001
 43
0.00000001
 40
0.0
 40
0.0
 40
0.0
 40
0.0
 40
0.5
 40
0.5
 40
1.0
 40
1.0
 40
1.0
 40
1.0
 10
85.05012669312399
 20
166.2091791044776
 30
0.0
 10
85.05012669312399
 20
167.49544267684
 30
0.0
 10
85.05012669312399
 20
168.7291212987274
 30
0.0
 10
85.05012669312399
 20
170.5481726875883
 30
0.0
 10
85.05012669312399
 20
171.0591791044217
 30
0.0
 10
85.05012669312399
 20
171.0591791044776
 30
0.0
  0
LINE
  5
A2
330
1F
100
AcDbEntity
  8
0
  6
Continuous
 62
   144
370
    18
100
AcDbLine
 10
85.0501271189
 20
161.3591789614
 30
0.0
 11
85.0501271189
 21
166.2091791045
 31
0.0
  0
SPLINE
  5
A3
330
1F
100
AcDbEntity
  8
0
  6
Continuous
 62
   144
370
    18
100
AcDbSpline
210
0.0
220
0.0
230
1.0
 70
    24
 71
     3
 72
    25
 73
    21
 74
     0
 42
0.000000001
 43
0.00000001
 40
0.0
 40
0.0
 40
0.0
 40
0.0
 40
0.0250529547012751
 40
0.0500478753409905
 40
0.0750234212569811
 40
0.100018341687189
 40
0.1250712959704198
 40
0.1875858261821789
 40
0.2501003567404746
 40
0.3126148877363531
 40
0.3751294184057042
 40
0.5000071476030016
 40
0.6248848768002989
 40
0.68739940746965
 40
0.7499139384655285
 40
0.8124284690238245
 40
0.8749429992355834
 40
0.9166585443993365
 40
0.9582844542614403
 40
1.0
 40
1.0
 40
1.0
 40
1.0
 10
86.38312669312397
 20
166.2091791044776
 30
0.0
 10
86.38312669312397
 20
166.1239621271912
 30
0.0
 10
86.38312669312397
 20
165.9537255739775
 30
0.0
 10
86.38312669312398
 20
165.6989261515974
 30
0.0
 10
86.38312669312398
 20
165.4451131493736
 30
0.0
 10
86.38312669312397
 20
165.1922805748725
 30
0.0
 10
86.38312669312398
 20
164.8153302105841
 30
0.0
 10
86.38312669312397
 20
164.3192250933984
 30
0.0
 10
86.38312669312397
 20
163.7177782663771
 30
0.0
 10
86.38312669312398
 20
163.1400826021118
 30
0.0
 10
86.38312669312397
 20
162.4101198802131
 30
0.0
 10
86.38312669312398
 20
161.5832497324178
 30
0.0
 10
86.38312669312397
 20
160.9050920841734
 30
0.0
 10
86.38312669312398
 20
160.4673814028188
 30
0.0
 10
86.38312669312397
 20
160.1943558146465
 30
0.0
 10
86.38312669312398
 20
159.9789681714519
 30
0.0
 10
86.38312669312398
 20
159.8409535900552
 30
0.0
 10
86.38312669312398
 20
159.7604381125954
 30
0.0
 10
86.38312669312398
 20
159.7171558991529
 30
0.0
 10
86.38312669312398
 20
159.7118399440008
 30
0.0
 10
86.38312669312398
 20
159.7091791077015
 30
0.0
  0
LINE
  5
A4
330
1F
100
AcDbEntity
  8
0
  6
Continuous
 62
   144
370
    18
100
AcDbLine
 10
86.3831272573
 20
172.7091792386
 30
0.0
 11
86.3831272573
 21
166.2091791045
 31
0.0
  0
SPLINE
  5
A5
330
1F
100
AcDbEntity
  8
0
  6
Continuous
 62
   144
370
    18
100
AcDbSpline
210
0.0
220
0.0
230
1.0
 70
    24
 71
     3
 72
    10
 73
     6
 74
     0
 42
0.000000001
 43
0.00000001
 40
0.0
 40
0.0
 40
0.0
 40
0.0
 40
0.5
 40
0.5
 40
1.0
 40
1.0
 40
1.0
 40
1.0
 10
88.38312669312398
 20
166.2091791033102
 30
0.0
 10
88.38312669312398
 20
164.4853207073606
 30
0.0
 10
88.38312669312398
 20
162.8319369874283
 30
0.0
 10
88.38312669312398
 20
160.3940330646505
 30
0.0
 10
88.38312669312398
 20
159.7091791042428
 30
0.0
 10
88.38312669312398
 20
159.7091791044776
 30
0.0
  0
LINE
  5
A6
330
1F
100
AcDbEntity
  8
0
  6
Continuous
 62
   144
370
    18
100
AcDbLine
 10
88.3831275852
 20
172.7091792386
 30
0.0
 11
88.3831275852
 21
166.2091791033
 31
0.0
  0
SPLINE
  5
A7
330
1F
100
AcDbEntity
  8
0
  6
Continuous
 62
   144
370
    18
100
AcDbSpline
210
0.0
220
0.0
230
1.0
 70
    24
 71
     3
 72
    10
 73
     6
 74
     0
 42
0.000000001
 43
0.00000001
 40
0.0
 40
0.0
 40
0.0
 40
0.0
 40
0.5
 40
0.5
 40
1.0
 40
1.0
 40
1.0
 40
1.0
 10
86.38312669312398
 20
166.2091791044776
 30
0.0
 10
86.38312669312398
 20
167.9330375004272
 30
0.0
 10
86.38312669312398
 20
169.5864212204825
 30
0.0
 10
86.38312669312398
 20
172.0243251436981
 30
0.0
 10
86.38312669312398
 20
172.7091791044027
 30
0.0
 10
86.38312669312398
 20
172.7091791044776
 30
0.0
  0
LINE
  5
A8
330
1F
100
AcDbEntity
  8
0
  6
Continuous
 62
   144
370
    18
100
AcDbLine
 10
86.3831272573
 20
159.7091789704
 30
0.0
 11
86.3831272573
 21
166.2091791045
 31
0.0
  0
SPLINE
  5
A9
330
1F
100
AcDbEntity
  8
0
  6
Continuous
 62
   144
370
    18
100
AcDbSpline
210
0.0
220
0.0
230
1.0
 70
    24
 71
     3
 72
    10
 73
     6
 74
     0
 42
0.000000001
 43
0.00000001
 40
0.0
 40
0.0
 40
0.0
 40
0.0
 40
0.5
 40
0.5
 40
1.0
 40
1.0
 40
1.0
 40
1.0
 10
88.38312669312398
 20
166.2091791044775
 30
0.0
 10
88.38312669312398
 20
167.9330375004775
 30
0.0
 10
88.38312669312398
 20
169.5864212205483
 30
0.0
 10
88.38312669312398
 20
172.0243251437927
 30
0.0
 10
88.38312669312398
 20
172.7091791044628
 30
0.0
 10
88.38312669312398
 20
172.7091791044776
 30
0.0
  0
LINE
  5
AA
330
1F
100
AcDbEntity
  8
0
  6
Continuous
 62
   144
370
    18
100
AcDbLine
 10
88.3831275852
 20
159.7091789704
 30
0.0
 11
88.3831275852
 21
166.2091791045
 31
0.0
  0
SPLINE
  5
AB
330
1F
100
AcDbEntity
  8
0
  6
Continuous
 62
   144
370
    18
100
AcDbSpline
210
0.0
220
0.0
230
1.0
 70
    24
 71
     3
 72
    26
 73
    22
 74
     0
 42
0.000000001
 43
0.00000001
 40
0.0
 40
0.0
 40
0.0
 40
0.0
 40
0.020882889354119
 40
0.0417210150794465
 40
0.0625367228553891
 40
0.0833524305585393
 40
0.1041905560657254
 40
0.1250734450570548
 40
0.1875878217144263
 40
0.2501021987183335
 40
0.3126165761598226
 40
0.3751309532747848
 40
0.5000083757350215
 40
0.6248857981952584
 40
0.6874001753102207
 40
0.7499145527517097
 40
0.8124289297556171
 40
0.8749433064129885
 40
0.9166587491108833
 40
0.9582845567273001
 40
1.0
 40
1.0
 40
1.0
 40
1.0
 10
89.88312669312397
 20
166.2091791044776
 30
0.0
 10
89.88312669312397
 20
166.105363998663
 30
0.0
 10
89.88312669312397
 20
165.8979563204574
 30
0.0
 10
89.88312669312397
 20
165.5873982294299
 30
0.0
 10
89.88312669312398
 20
165.2778385313035
 30
0.0
 10
89.88312669312397
 20
164.9692805252473
 30
0.0
 10
89.88312669312397
 20
164.6617166707196
 30
0.0
 10
89.88312669312397
 20
164.1518794847281
 30
0.0
 10
89.88312669312397
 20
163.4469347738807
 30
0.0
 10
89.88312669312398
 20
162.5679019872203
 30
0.0
 10
89.88312669312396
 20
161.7235762540197
 30
0.0
 10
89.88312669312398
 20
160.6567080864179
 30
0.0
 10
89.88312669312397
 20
159.4482053526745
 30
0.0
 10
89.88312669312397
 20
158.4570519276883
 30
0.0
 10
89.88312669312398
 20
157.8173209238612
 30
0.0
 10
89.88312669312397
 20
157.4182835273724
 30
0.0
 10
89.88312669312398
 20
157.1034862022708
 30
0.0
 10
89.88312669312397
 20
156.9017725834145
 30
0.0
 10
89.88312669312397
 20
156.7840961163386
 30
0.0
 10
89.88312669312398
 20
156.7208374966963
 30
0.0
 10
89.88312669312398
 20
156.713068023781
 30
0.0
 10
89.88312669312397
 20
156.7091791091896
 30
0.0
  0
LINE
  5
AC
330
1F
100
AcDbEntity
  8
0
  6
Continuous
 62
   144
370
    18
100
AcDbLine
 10
89.8831268997
 20
175.709178799
 30
0.0
 11
89.8831268997
 21
166.2091791045
 31
0.0
  0
SPLINE
  5
AD
330
1F
100
AcDbEntity
  8
0
  6
Continuous
 62
   144
370
    18
100
AcDbSpline
210
0.0
220
0.0
230
1.0
 70
    24
 71
     3
 72
    10
 73
     6
 74
     0
 42
0.000000001
 43
0.00000001
 40
0.0
 40
0.0
 40
0.0
 40
0.0
 40
0.5
 40
0.5
 40
1.0
 40
1.0
 40
1.0
 40
1.0
 10
92.88312669312397
 20
166.2091791027715
 30
0.0
 10
92.88312669312397
 20
163.6896937548451
 30
0.0
 10
92.88312669312397
 20
161.2732098564825
 30
0.0
 10
92.88312669312397
 20
157.7101195078072
 30
0.0
 10
92.88312669312397
 20
156.7091791041345
 30
0.0
 10
92.88312669312397
 20
156.7091791044775
 30
0.0
  0
LINE
  5
AE
330
1F
100
AcDbEntity
  8
0
  6
Continuous
 62
   144
370
    18
100
AcDbLine
 10
92.8831273915
 20
175.709178799
 30
0.0
 11
92.8831273915
 21
166.2091791028
 31
0.0
  0
SPLINE
  5
AF
330
1F
100
AcDbEntity
  8
0
  6
Continuous
 62
   144
370
    18
100
AcDbSpline
210
0.0
220
0.0
230
1.0
 70
    24
 71
     3
 72
    10
 73
     6
 74
     0
 42
0.000000001
 43
0.00000001
 40
0.0
 40
0.0
 40
0.0
 40
0.0
 40
0.5
 40
0.5
 40
1.0
 40
1.0
 40
1.0
 40
1.0
 10
89.88312669312397
 20
166.2091791044776
 30
0.0
 10
89.88312669312397
 20
168.7286644524039
 30
0.0
 10
89.88312669312397
 20
171.1451483509464
 30
0.0
 10
89.88312669312397
 20
174.7082387002615
 30
0.0
 10
89.88312669312397
 20
175.7091791043681
 30
0.0
 10
89.88312669312397
 20
175.7091791044776
 30
0.0
  0
LINE
  5
B0
330
1F
100
AcDbEntity
  8
0
  6
Continuous
 62
   144
370
    18
100
AcDbLine
 10
89.8831268997
 20
156.70917941
 30
0.0
 11
89.8831268997
 21
166.2091791045
 31
0.0
  0
SPLINE
  5
B1
330
1F
100
AcDbEntity
  8
0
  6
Continuous
 62
   144
370
    18
100
AcDbSpline
210
0.0
220
0.0
230
1.0
 70
    24
 71
     3
 72
    26
 73
    22
 74
     0
 42
0.000000001
 43
0.00000001
 40
0.0
 40
0.0
 40
0.0
 40
0.0
 40
0.020882889354119
 40
0.0417210150794468
 40
0.0625367228553889
 40
0.0833524305585393
 40
0.1041905560657254
 40
0.1250734450570548
 40
0.1875878217144259
 40
0.2501021987183334
 40
0.3126165761598224
 40
0.3751309532747847
 40
0.5000083757350215
 40
0.6248857981952584
 40
0.6874001753102208
 40
0.7499145527517097
 40
0.8124289297556171
 40
0.8749433064129883
 40
0.9166587491108831
 40
0.9582845567272998
 40
1.0
 40
1.0
 40
1.0
 40
1.0
 10
92.88312669312397
 20
166.2091791044776
 30
0.0
 10
92.88312669312397
 20
166.3129942102921
 30
0.0
 10
92.88312669312397
 20
166.5204018884977
 30
0.0
 10
92.88312669312397
 20
166.8309599795252
 30
0.0
 10
92.88312669312397
 20
167.1405196776516
 30
0.0
 10
92.88312669312397
 20
167.4490776837079
 30
0.0
 10
92.88312669312397
 20
167.7566415382355
 30
0.0
 10
92.88312669312398
 20
168.2664787242269
 30
0.0
 10
92.88312669312397
 20
168.9714234350744
 30
0.0
 10
92.88312669312398
 20
169.8504562217348
 30
0.0
 10
92.88312669312397
 20
170.6947819549354
 30
0.0
 10
92.88312669312398
 20
171.7616501225372
 30
0.0
 10
92.88312669312397
 20
172.9701528562805
 30
0.0
 10
92.88312669312397
 20
173.9613062812668
 30
0.0
 10
92.88312669312397
 20
174.6010372850939
 30
0.0
 10
92.88312669312397
 20
175.0000746815827
 30
0.0
 10
92.88312669312398
 20
175.3148720066843
 30
0.0
 10
92.88312669312397
 20
175.5165856255406
 30
0.0
 10
92.88312669312397
 20
175.6342620926166
 30
0.0
 10
92.88312669312398
 20
175.6975207122588
 30
0.0
 10
92.88312669312397
 20
175.7052901851741
 30
0.0
 10
92.88312669312397
 20
175.7091790997655
 30
0.0
  0
LINE
  5
B2
330
1F
100
AcDbEntity
  8
0
  6
Continuous
 62
   144
370
    18
100
AcDbLine
 10
92.8831273915
 20
156.70917941
 30
0.0
 11
92.8831273915
 21
166.2091791045
 31
0.0
  0
SPLINE
  5
B3
330
1F
100
AcDbEntity
  8
0
  6
Continuous
 62
   144
370
    18
100
AcDbSpline
210
0.0
220
0.0
230
1.0
 70
    24
 71
     3
 72
    26
 73
    22
 74
     0
 42
0.000000001
 43
0.00000001
 40
0.0
 40
0.0
 40
0.0
 40
0.0
 40
0.020882889354119
 40
0.0417210150794465
 40
0.0625367228553891
 40
0.0833524305585393
 40
0.1041905560657254
 40
0.1250734450570548
 40
0.1875878217144263
 40
0.2501021987183335
 40
0.3126165761598226
 40
0.3751309532747848
 40
0.5000083757350215
 40
0.6248857981952584
 40
0.6874001753102207
 40
0.7499145527517097
 40
0.8124289297556171
 40
0.8749433064129885
 40
0.9166587491108833
 40
0.9582845567273001
 40
1.0
 40
1.0
 40
1.0
 40
1.0
 10
126.885126693124
 20
166.2091791044776
 30
0.0
 10
126.885126693124
 20
166.105363998663
 30
0.0
 10
126.885126693124
 20
165.8979563204574
 30
0.0
 10
126.885126693124
 20
165.5873982294299
 30
0.0
 10
126.885126693124
 20
165.2778385313035
 30
0.0
 10
126.885126693124
 20
164.9692805252473
 30
0.0
 10
126.885126693124
 20
164.6617166707196
 30
0.0
 10
126.885126693124
 20
164.1518794847281
 30
0.0
 10
126.885126693124
 20
163.4469347738807
 30
0.0
 10
126.885126693124
 20
162.5679019872203
 30
0.0
 10
126.885126693124
 20
161.7235762540197
 30
0.0
 10
126.885126693124
 20
160.6567080864179
 30
0.0
 10
126.885126693124
 20
159.4482053526745
 30
0.0
 10
126.885126693124
 20
158.4570519276883
 30
0.0
 10
126.885126693124
 20
157.8173209238612
 30
0.0
 10
126.885126693124
 20
157.4182835273724
 30
0.0
 10
126.885126693124
 20
157.1034862022708
 30
0.0
 10
126.885126693124
 20
156.9017725834145
 30
0.0
 10
126.885126693124
 20
156.7840961163386
 30
0.0
 10
126.885126693124
 20
156.7208374966963
 30
0.0
 10
126.885126693124
 20
156.713068023781
 30
0.0
 10
126.885126693124
 20
156.7091791091896
 30
0.0
  0
LINE
  5
B4
330
1F
100
AcDbEntity
  8
0
  6
Continuous
 62
   144
370
    18
100
AcDbLine
 10
126.8851259948
 20
175.709178799
 30
0.0
 11
126.8851259948
 21
166.2091791045
 31
0.0
  0
SPLINE
  5
B5
330
1F
100
AcDbEntity
  8
0
  6
Continuous
 62
   144
370
    18
100
AcDbSpline
210
0.0
220
0.0
230
1.0
 70
    24
 71
     3
 72
    10
 73
     6
 74
     0
 42
0.000000001
 43
0.00000001
 40
0.0
 40
0.0
 40
0.0
 40
0.0
 40
0.5
 40
0.5
 40
1.0
 40
1.0
 40
1.0
 40
1.0
 10
129.885126693124
 20
166.2091791027715
 30
0.0
 10
129.885126693124
 20
163.6896937548451
 30
0.0
 10
129.885126693124
 20
161.2732098564825
 30
0.0
 10
129.885126693124
 20
157.7101195078072
 30
0.0
 10
129.885126693124
 20
156.7091791041345
 30
0.0
 10
129.885126693124
 20
156.7091791044775
 30
0.0
  0
LINE
  5
B6
330
1F
100
AcDbEntity
  8
0
  6
Continuous
 62
   144
370
    18
100
AcDbLine
 10
129.8851264865
 20
175.709178799
 30
0.0
 11
129.8851264865
 21
166.2091791028
 31
0.0
  0
SPLINE
  5
B7
330
1F
100
AcDbEntity
  8
0
  6
Continuous
 62
   144
370
    18
100
AcDbSpline
210
0.0
220
0.0
230
1.0
 70
    24
 71
     3
 72
    10
 73
     6
 74
     0
 42
0.000000001
 43
0.00000001
 40
0.0
 40
0.0
 40
0.0
 40
0.0
 40
0.5
 40
0.5
 40
1.0
 40
1.0
 40
1.0
 40
1.0
 10
126.885126693124
 20
166.2091791044776
 30
0.0
 10
126.885126693124
 20
168.7286644524039
 30
0.0
 10
126.885126693124
 20
171.1451483509464
 30
0.0
 10
126.885126693124
 20
174.7082387002615
 30
0.0
 10
126.885126693124
 20
175.7091791043681
 30
0.0
 10
126.885126693124
 20
175.7091791044776
 30
0.0
  0
LINE
  5
B8
330
1F
100
AcDbEntity
  8
0
  6
Continuous
 62
   144
370
    18
100
AcDbLine
 10
126.8851259948
 20
156.70917941
 30
0.0
 11
126.8851259948
 21
166.2091791045
 31
0.0
  0
SPLINE
  5
B9
330
1F
100
AcDbEntity
  8
0
  6
Continuous
 62
   144
370
    18
100
AcDbSpline
210
0.0
220
0.0
230
1.0
 70
    24
 71
     3
 72
    26
 73
    22
 74
     0
 42
0.000000001
 43
0.00000001
 40
0.0
 40
0.0
 40
0.0
 40
0.0
 40
0.020882889354119
 40
0.0417210150794468
 40
0.0625367228553889
 40
0.0833524305585393
 40
0.1041905560657254
 40
0.1250734450570548
 40
0.1875878217144259
 40
0.2501021987183334
 40
0.3126165761598224
 40
0.3751309532747847
 40
0.5000083757350215
 40
0.6248857981952584
 40
0.6874001753102208
 40
0.7499145527517097
 40
0.8124289297556171
 40
0.8749433064129883
 40
0.9166587491108831
 40
0.9582845567272998
 40
1.0
 40
1.0
 40
1.0
 40
1.0
 10
129.885126693124
 20
166.2091791044776
 30
0.0
 10
129.885126693124
 20
166.3129942102921
 30
0.0
 10
129.885126693124
 20
166.5204018884977
 30
0.0
 10
129.885126693124
 20
166.8309599795252
 30
0.0
 10
129.885126693124
 20
167.1405196776516
 30
0.0
 10
129.885126693124
 20
167.4490776837079
 30
0.0
 10
129.885126693124
 20
167.7566415382355
 30
0.0
 10
129.885126693124
 20
168.2664787242269
 30
0.0
 10
129.885126693124
 20
168.9714234350744
 30
0.0
 10
129.885126693124
 20
169.8504562217348
 30
0.0
 10
129.885126693124
 20
170.6947819549354
 30
0.0
 10
129.885126693124
 20
171.7616501225372
 30
0.0
 10
129.885126693124
 20
172.9701528562805
 30
0.0
 10
129.885126693124
 20
173.9613062812668
 30
0.0
 10
129.885126693124
 20
174.6010372850939
 30
0.0
 10
129.885126693124
 20
175.0000746815827
 30
0.0
 10
129.885126693124
 20
175.3148720066843
 30
0.0
 10
129.885126693124
 20
175.5165856255406
 30
0.0
 10
129.885126693124
 20
175.6342620926166
 30
0.0
 10
129.885126693124
 20
175.6975207122588
 30
0.0
 10
129.885126693124
 20
175.7052901851741
 30
0.0
 10
129.885126693124
 20
175.7091790997655
 30
0.0
  0
LINE
  5
BA
330
1F
100
AcDbEntity
  8
0
  6
Continuous
 62
   144
370
    18
100
AcDbLine
 10
129.8851264865
 20
156.70917941
 30
0.0
 11
129.8851264865
 21
166.2091791045
 31
0.0
  0
SPLINE
  5
BB
330
1F
100
AcDbEntity
  8
0
  6
Continuous
 62
   144
370
    18
100
AcDbSpline
210
0.0
220
0.0
230
1.0
 70
    24
 71
     3
 72
    10
 73
     6
 74
     0
 42
0.000000001
 43
0.00000001
 40
0.0
 40
0.0
 40
0.0
 40
0.0
 40
0.5
 40
0.5
 40
1.0
 40
1.0
 40
1.0
 40
1.0
 10
131.385126693124
 20
166.2091791033102
 30
0.0
 10
131.385126693124
 20
164.4853207073606
 30
0.0
 10
131.385126693124
 20
162.8319369874283
 30
0.0
 10
131.385126693124
 20
160.3940330646505
 30
0.0
 10
131.385126693124
 20
159.7091791042428
 30
0.0
 10
131.385126693124
 20
159.7091791044776
 30
0.0
  0
LINE
  5
BC
330
1F
100
AcDbEntity
  8
0
  6
Continuous
 62
   144
370
    18
100
AcDbLine
 10
131.3851258011
 20
172.7091792386
 30
0.0
 11
131.3851258011
 21
166.2091791033
 31
0.0
  0
SPLINE
  5
BD
330
1F
100
AcDbEntity
  8
0
  6
Continuous
 62
   144
370
    18
100
AcDbSpline
210
0.0
220
0.0
230
1.0
 70
    24
 71
     3
 72
    10
 73
     6
 74
     0
 42
0.000000001
 43
0.00000001
 40
0.0
 40
0.0
 40
0.0
 40
0.0
 40
0.5
 40
0.5
 40
1.0
 40
1.0
 40
1.0
 40
1.0
 10
133.385126693124
 20
166.2091791033102
 30
0.0
 10
133.385126693124
 20
164.4853207073606
 30
0.0
 10
133.385126693124
 20
162.8319369874283
 30
0.0
 10
133.385126693124
 20
160.3940330646505
 30
0.0
 10
133.385126693124
 20
159.7091791042428
 30
0.0
 10
133.385126693124
 20
159.7091791044776
 30
0.0
  0
LINE
  5
BE
330
1F
100
AcDbEntity
  8
0
  6
Continuous
 62
   144
370
    18
100
AcDbLine
 10
133.3851261289
 20
172.7091792386
 30
0.0
 11
133.3851261289
 21
166.2091791033
 31
0.0
  0
SPLINE
  5
BF
330
1F
100
AcDbEntity
  8
0
  6
Continuous
 62
   144
370
    18
100
AcDbSpline
210
0.0
220
0.0
230
1.0
 70
    24
 71
     3
 72
    10
 73
     6
 74
     0
 42
0.000000001
 43
0.00000001
 40
0.0
 40
0.0
 40
0.0
 40
0.0
 40
0.5
 40
0.5
 40
1.0
 40
1.0
 40
1.0
 40
1.0
 10
131.385126693124
 20
166.2091791044776
 30
0.0
 10
131.385126693124
 20
167.9330375004272
 30
0.0
 10
131.385126693124
 20
169.5864212204825
 30
0.0
 10
131.385126693124
 20
172.0243251436981
 30
0.0
 10
131.385126693124
 20
172.7091791044027
 30
0.0
 10
131.385126693124
 20
172.7091791044776
 30
0.0
  0
LINE
  5
C0
330
1F
100
AcDbEntity
  8
0
  6
Continuous
 62
   144
370
    18
100
AcDbLine
 10
131.3851258011
 20
159.7091789704
 30
0.0
 11
131.3851258011
 21
166.2091791045
 31
0.0
  0
SPLINE
  5
C1
330
1F
100
AcDbEntity
  8
0
  6
Continuous
 62
   144
370
    18
100
AcDbSpline
210
0.0
220
0.0
230
1.0
 70
    24
 71
     3
 72
    25
 73
    21
 74
     0
 42
0.000000001
 43
0.00000001
 40
0.0
 40
0.0
 40
0.0
 40
0.0
 40
0.0250529547012752
 40
0.0500478753409906
 40
0.0750234212569812
 40
0.1000183416871888
 40
0.1250712959704198
 40
0.1875858261821786
 40
0.2501003567404746
 40
0.3126148877363531
 40
0.3751294184057042
 40
0.5000071476030016
 40
0.6248848768002989
 40
0.68739940746965
 40
0.7499139384655286
 40
0.8124284690238246
 40
0.8749429992355833
 40
0.9166585443993364
 40
0.9582844542614403
 40
1.0
 40
1.0
 40
1.0
 40
1.0
 10
133.385126693124
 20
166.2091791044776
 30
0.0
 10
133.385126693124
 20
166.2943960817639
 30
0.0
 10
133.385126693124
 20
166.4646326349776
 30
0.0
 10
133.385126693124
 20
166.7194320573577
 30
0.0
 10
133.385126693124
 20
166.9732450595815
 30
0.0
 10
133.385126693124
 20
167.2260776340826
 30
0.0
 10
133.385126693124
 20
167.6030279983709
 30
0.0
 10
133.385126693124
 20
168.0991331155567
 30
0.0
 10
133.385126693124
 20
168.700579942578
 30
0.0
 10
133.385126693124
 20
169.2782756068433
 30
0.0
 10
133.385126693124
 20
170.008238328742
 30
0.0
 10
133.385126693124
 20
170.8351084765373
 30
0.0
 10
133.385126693124
 20
171.5132661247818
 30
0.0
 10
133.385126693124
 20
171.9509768061363
 30
0.0
 10
133.385126693124
 20
172.2240023943087
 30
0.0
 10
133.385126693124
 20
172.4393900375032
 30
0.0
 10
133.385126693124
 20
172.5774046188999
 30
0.0
 10
133.385126693124
 20
172.6579200963598
 30
0.0
 10
133.385126693124
 20
172.7012023098021
 30
0.0
 10
133.385126693124
 20
172.7065182649543
 30
0.0
 10
133.385126693124
 20
172.7091791012535
 30
0.0
  0
LINE
  5
C2
330
1F
100
AcDbEntity
  8
0
  6
Continuous
 62
   144
370
    18
100
AcDbLine
 10
133.3851261289
 20
159.7091789704
 30
0.0
 11
133.3851261289
 21
166.2091791045
 31
0.0
  0
SPLINE
  5
C3
330
1F
100
AcDbEntity
  8
0
  6
Continuous
 62
   144
370
    18
100
AcDbSpline
210
0.0
220
0.0
230
1.0
 70
    24
 71
     3
 72
    10
 73
     6
 74
     0
 42
0.000000001
 43
0.00000001
 40
0.0
 40
0.0
 40
0.0
 40
0.0
 40
0.5
 40
0.5
 40
1.0
 40
1.0
 40
1.0
 40
1.0
 10
134.718126693124
 20
166.2091791036065
 30
0.0
 10
134.718126693124
 20
164.9229155312441
 30
0.0
 10
134.718126693124
 20
163.6892369094485
 30
0.0
 10
134.718126693124
 20
161.8701855209142
 30
0.0
 10
134.718126693124
 20
161.3591791043024
 30
0.0
 10
134.718126693124
 20
161.3591791044776
 30
0.0
  0
LINE
  5
C4
330
1F
100
AcDbEntity
  8
0
  6
Continuous
 62
   144
370
    18
100
AcDbLine
 10
134.7181262673
 20
171.0591792475
 30
0.0
 11
134.7181262673
 21
166.2091791036
 31
0.0
  0
SPLINE
  5
C5
330
1F
100
AcDbEntity
  8
0
  6
Continuous
 62
   144
370
    18
100
AcDbSpline
210
0.0
220
0.0
230
1.0
 70
    24
 71
     3
 72
    25
 73
    21
 74
     0
 42
0.000000001
 43
0.00000001
 40
0.0
 40
0.0
 40
0.0
 40
0.0
 40
0.0250529547012751
 40
0.0500478753409905
 40
0.0750234212569812
 40
0.1000183416871889
 40
0.1250712959704198
 40
0.1875858261821786
 40
0.2501003567404746
 40
0.3126148877363531
 40
0.3751294184057041
 40
0.5000071476030015
 40
0.6248848768002989
 40
0.68739940746965
 40
0.7499139384655285
 40
0.8124284690238245
 40
0.8749429992355833
 40
0.9166585443993364
 40
0.9582844542614404
 40
1.0
 40
1.0
 40
1.0
 40
1.0
 10
134.718126693124
 20
166.2091791044776
 30
0.0
 10
134.718126693124
 20
166.2727640798374
 30
0.0
 10
134.718126693124
 20
166.3997867387738
 30
0.0
 10
134.718126693124
 20
166.5899063077804
 30
0.0
 10
134.718126693124
 20
166.7792898555936
 30
0.0
 10
134.718126693124
 20
166.9679418534905
 30
0.0
 10
134.718126693124
 20
167.2492048176134
 30
0.0
 10
134.718126693124
 20
167.6193755588982
 30
0.0
 10
134.718126693124
 20
168.0681474221371
 30
0.0
 10
134.718126693124
 20
168.4991972639351
 30
0.0
 10
134.718126693124
 20
169.0438617564287
 30
0.0
 10
134.718126693124
 20
169.6608340974759
 30
0.0
 10
134.718126693124
 20
170.1668440350122
 30
0.0
 10
134.718126693124
 20
170.4934435434075
 30
0.0
 10
134.718126693124
 20
170.6971626361208
 30
0.0
 10
134.718126693124
 20
170.8578749545044
 30
0.0
 10
134.718126693124
 20
170.9608550652388
 30
0.0
 10
134.718126693124
 20
171.0209319984204
 30
0.0
 10
134.718126693124
 20
171.0532271884505
 30
0.0
 10
134.718126693124
 20
171.0571937088333
 30
0.0
 10
134.718126693124
 20
171.0591791020719
 30
0.0
  0
LINE
  5
C6
330
1F
100
AcDbEntity
  8
0
  6
Continuous
 62
   144
370
    18
100
AcDbLine
 10
134.7181262673
 20
161.3591789614
 30
0.0
 11
134.7181262673
 21
166.2091791045
 31
0.0
  0
SPLINE
  5
C7
330
1F
100
AcDbEntity
  8
0
  6
Continuous
 62
   144
370
    18
100
AcDbSpline
210
0.0
220
0.0
230
1.0
 70
    24
 71
     3
 72
    25
 73
    21
 74
     0
 42
0.000000001
 43
0.00000001
 40
0.0
 40
0.0
 40
0.0
 40
0.0
 40
0.0250529547012751
 40
0.0500478753409905
 40
0.0750234212569811
 40
0.100018341687189
 40
0.1250712959704198
 40
0.1875858261821789
 40
0.2501003567404747
 40
0.3126148877363533
 40
0.3751294184057042
 40
0.5000071476030017
 40
0.624884876800299
 40
0.68739940746965
 40
0.7499139384655286
 40
0.8124284690238245
 40
0.8749429992355834
 40
0.9166585443993366
 40
0.9582844542614405
 40
1.0
 40
1.0
 40
1.0
 40
1.0
 10
136.051126693124
 20
166.2091791044776
 30
0.0
 10
136.051126693124
 20
166.1455941291177
 30
0.0
 10
136.051126693124
 20
166.0185714701813
 30
0.0
 10
136.051126693124
 20
165.8284519011746
 30
0.0
 10
136.051126693124
 20
165.6390683533615
 30
0.0
 10
136.051126693124
 20
165.4504163554646
 30
0.0
 10
136.051126693124
 20
165.1691533913417
 30
0.0
 10
136.051126693124
 20
164.7989826500569
 30
0.0
 10
136.051126693124
 20
164.350210786818
 30
0.0
 10
136.051126693124
 20
163.9191609450201
 30
0.0
 10
136.051126693124
 20
163.3744964525264
 30
0.0
 10
136.051126693124
 20
162.7575241114791
 30
0.0
 10
136.051126693124
 20
162.2515141739429
 30
0.0
 10
136.051126693124
 20
161.9249146655476
 30
0.0
 10
136.051126693124
 20
161.7211955728343
 30
0.0
 10
136.051126693124
 20
161.5604832544507
 30
0.0
 10
136.051126693124
 20
161.4575031437163
 30
0.0
 10
136.051126693124
 20
161.3974262105347
 30
0.0
 10
136.051126693124
 20
161.3651310205046
 30
0.0
 10
136.051126693124
 20
161.3611645001218
 30
0.0
 10
136.051126693124
 20
161.3591791068831
 30
0.0
  0
LINE
  5
C8
330
1F
100
AcDbEntity
  8
0
  6
Continuous
 62
   144
370
    18
100
AcDbLine
 10
136.0511264057
 20
171.0591792475
 30
0.0
 11
136.0511264057
 21
166.2091791045
 31
0.0
  0
SPLINE
  5
C9
330
1F
100
AcDbEntity
  8
0
  6
Continuous
 62
   144
370
    18
100
AcDbSpline
210
0.0
220
0.0
230
1.0
 70
    24
 71
     3
 72
    10
 73
     6
 74
     0
 42
0.000000001
 43
0.00000001
 40
0.0
 40
0.0
 40
0.0
 40
0.0
 40
0.5
 40
0.5
 40
1.0
 40
1.0
 40
1.0
 40
1.0
 10
137.384126693124
 20
166.2091791036065
 30
0.0
 10
137.384126693124
 20
164.9229155312441
 30
0.0
 10
137.384126693124
 20
163.6892369094485
 30
0.0
 10
137.384126693124
 20
161.8701855209142
 30
0.0
 10
137.384126693124
 20
161.3591791043024
 30
0.0
 10
137.384126693124
 20
161.3591791044776
 30
0.0
  0
LINE
  5
CA
330
1F
100
AcDbEntity
  8
0
  6
Continuous
 62
   144
370
    18
100
AcDbLine
 10
137.3841265441
 20
171.0591792475
 30
0.0
 11
137.3841265441
 21
166.2091791036
 31
0.0
  0
SPLINE
  5
CB
330
1F
100
AcDbEntity
  8
0
  6
Continuous
 62
   144
370
    18
100
AcDbSpline
210
0.0
220
0.0
230
1.0
 70
    24
 71
     3
 72
    10
 73
     6
 74
     0
 42
0.000000001
 43
0.00000001
 40
0.0
 40
0.0
 40
0.0
 40
0.0
 40
0.5
 40
0.5
 40
1.0
 40
1.0
 40
1.0
 40
1.0
 10
136.051126693124
 20
166.2091791044776
 30
0.0
 10
136.051126693124
 20
167.49544267684
 30
0.0
 10
136.051126693124
 20
168.7291212987274
 30
0.0
 10
136.051126693124
 20
170.5481726875883
 30
0.0
 10
136.051126693124
 20
171.0591791044217
 30
0.0
 10
136.051126693124
 20
171.0591791044776
 30
0.0
  0
LINE
  5
CC
330
1F
100
AcDbEntity
  8
0
  6
Continuous
 62
   144
370
    18
100
AcDbLine
 10
136.0511264057
 20
161.3591789614
 30
0.0
 11
136.0511264057
 21
166.2091791045
 31
0.0
  0
SPLINE
  5
CD
330
1F
100
AcDbEntity
  8
0
  6
Continuous
 62
   144
370
    18
100
AcDbSpline
210
0.0
220
0.0
230
1.0
 70
    24
 71
     3
 72
    25
 73
    21
 74
     0
 42
0.000000001
 43
0.00000001
 40
0.0
 40
0.0
 40
0.0
 40
0.0
 40
0.0250529547012751
 40
0.0500478753409905
 40
0.0750234212569812
 40
0.1000183416871889
 40
0.1250712959704198
 40
0.1875858261821786
 40
0.2501003567404746
 40
0.3126148877363531
 40
0.3751294184057041
 40
0.5000071476030015
 40
0.6248848768002989
 40
0.68739940746965
 40
0.7499139384655285
 40
0.8124284690238245
 40
0.8749429992355833
 40
0.9166585443993364
 40
0.9582844542614404
 40
1.0
 40
1.0
 40
1.0
 40
1.0
 10
137.384126693124
 20
166.2091791044776
 30
0.0
 10
137.384126693124
 20
166.2727640798374
 30
0.0
 10
137.384126693124
 20
166.3997867387738
 30
0.0
 10
137.384126693124
 20
166.5899063077804
 30
0.0
 10
137.384126693124
 20
166.7792898555936
 30
0.0
 10
137.384126693124
 20
166.9679418534905
 30
0.0
 10
137.384126693124
 20
167.2492048176134
 30
0.0
 10
137.384126693124
 20
167.6193755588982
 30
0.0
 10
137.384126693124
 20
168.0681474221371
 30
0.0
 10
137.384126693124
 20
168.4991972639351
 30
0.0
 10
137.384126693124
 20
169.0438617564287
 30
0.0
 10
137.384126693124
 20
169.6608340974759
 30
0.0
 10
137.384126693124
 20
170.1668440350122
 30
0.0
 10
137.3841266931239
 20
170.4934435434075
 30
0.0
 10
137.384126693124
 20
170.6971626361208
 30
0.0
 10
137.384126693124
 20
170.8578749545044
 30
0.0
 10
137.384126693124
 20
170.9608550652388
 30
0.0
 10
137.384126693124
 20
171.0209319984204
 30
0.0
 10
137.384126693124
 20
171.0532271884505
 30
0.0
 10
137.384126693124
 20
171.0571937088333
 30
0.0
 10
137.384126693124
 20
171.0591791020719
 30
0.0
  0
LINE
  5
CE
330
1F
100
AcDbEntity
  8
0
  6
Continuous
 62
   144
370
    18
100
AcDbLine
 10
137.3841265441
 20
161.3591789614
 30
0.0
 11
137.3841265441
 21
166.2091791045
 31
0.0
  0
SPLINE
  5
CF
330
1F
100
AcDbEntity
  8
0
  6
Continuous
 62
   144
370
    18
100
AcDbSpline
210
0.0
220
0.0
230
1.0
 70
    24
 71
     3
 72
    25
 73
    21
 74
     0
 42
0.000000001
 43
0.00000001
 40
0.0
 40
0.0
 40
0.0
 40
0.0
 40
0.0250529547012751
 40
0.0500478753409905
 40
0.0750234212569811
 40
0.100018341687189
 40
0.1250712959704198
 40
0.1875858261821789
 40
0.2501003567404747
 40
0.3126148877363533
 40
0.3751294184057042
 40
0.5000071476030017
 40
0.624884876800299
 40
0.68739940746965
 40
0.7499139384655286
 40
0.8124284690238245
 40
0.8749429992355834
 40
0.9166585443993366
 40
0.9582844542614405
 40
1.0
 40
1.0
 40
1.0
 40
1.0
 10
82.38412669312397
 20
166.2091791044776
 30
0.0
 10
82.38412669312397
 20
166.1455941291177
 30
0.0
 10
82.38412669312397
 20
166.0185714701813
 30
0.0
 10
82.38412669312397
 20
165.8284519011746
 30
0.0
 10
82.38412669312397
 20
165.6390683533615
 30
0.0
 10
82.38412669312397
 20
165.4504163554646
 30
0.0
 10
82.38412669312396
 20
165.1691533913417
 30
0.0
 10
82.38412669312397
 20
164.7989826500569
 30
0.0
 10
82.38412669312396
 20
164.350210786818
 30
0.0
 10
82.38412669312397
 20
163.9191609450201
 30
0.0
 10
82.38412669312396
 20
163.3744964525264
 30
0.0
 10
82.38412669312397
 20
162.7575241114791
 30
0.0
 10
82.38412669312397
 20
162.2515141739429
 30
0.0
 10
82.38412669312397
 20
161.9249146655476
 30
0.0
 10
82.38412669312396
 20
161.7211955728343
 30
0.0
 10
82.38412669312397
 20
161.5604832544507
 30
0.0
 10
82.38412669312397
 20
161.4575031437163
 30
0.0
 10
82.38412669312396
 20
161.3974262105347
 30
0.0
 10
82.38412669312399
 20
161.3651310205046
 30
0.0
 10
82.38412669312397
 20
161.3611645001218
 30
0.0
 10
82.38412669312397
 20
161.3591791068831
 30
0.0
  0
LINE
  5
D0
330
1F
100
AcDbEntity
  8
0
  6
Continuous
 62
   144
370
    18
100
AcDbLine
 10
82.3841268421
 20
171.0591792475
 30
0.0
 11
82.3841268421
 21
166.2091791045
 31
0.0
  0
LINE
  5
D1
330
1F
100
AcDbEntity
  8
0
  6
HIDDEN
 62
     7
370
    18
100
AcDbLine
 10
82.3841268421
 20
164.2091790095
 30
0.0
 11
137.3841265441
 21
164.2091790095
 31
0.0
  0
LINE
  5
D2
330
1F
100
AcDbEntity
  8
0
  6
HIDDEN
 62
     7
370
    18
100
AcDbLine
 10
137.3841265441
 20
168.2091791995
 30
0.0
 11
82.3841268421
 21
168.2091791995
 31
0.0
  0
DIMENSION
  5
D3
330
1F
100
AcDbEntity
  8
0
  6
Continuous
 62
     7
370
    18
100
AcDbDimension
  2
_D
 10
147.3891266931
 20
164.2091791045
 30
0.0
 11
147.3891266931
 21
181.0360543109
 31
0.0
 70
   160
  1
Φ<>
 71
     2
 42
-1.0
  3
SLDDIMSTYLE0
100
AcDbAlignedDimension
 13
137.3841266931
 23
168.2091791045
 33
0.0
 14
137.3841266931
 24
164.2091791045
 34
0.0
 50
90.0
100
AcDbRotatedDimension
  0
DIMENSION
  5
E1
330
1F
100
AcDbEntity
  8
0
  6
Continuous
 62
     7
370
    18
100
AcDbDimension
  2
_D_1
 10
159.3891266931
 20
156.7091791045
 30
0.0
 11
159.3891266931
 21
166.2091791045
 31
0.0
 70
   160
  1
Φ<>
 71
     2
 42
-1.0
  3
SLDDIMSTYLE1
100
AcDbAlignedDimension
 13
129.8851266931
 23
175.7091791045
 33
0.0
 14
129.8851266931
 24
156.7091791045
 34
0.0
 50
90.0
100
AcDbRotatedDimension
  0
DIMENSION
  5
ED
330
1F
100
AcDbEntity
  8
0
  6
Continuous
 62
     7
370
    18
100
AcDbDimension
  2
_D_2
 10
92.8831266931
 20
140.7041791092
 30
0.0
 11
87.6336266931
 21
140.7041791092
 31
0.0
 70
   160
  1
<>
 71
     2
 42
-1.0
  3
SLDDIMSTYLE0
100
AcDbAlignedDimension
 13
82.3841266931
 23
161.3591791045
 33
0.0
 14
92.8831266931
 24
157.2091791045
 34
0.0
100
AcDbRotatedDimension
  0
DIMENSION
  5
F9
330
1F
100
AcDbEntity
  8
0
  6
Continuous
 62
     7
370
    18
100
AcDbDimension
  2
_D_3
 10
126.8851266931
 20
140.7041791092
 30
0.0
 11
109.8841266931
 21
140.7041791092
 31
0.0
 70
   160
  1
<>
 71
     2
 42
-1.0
  3
SLDDIMSTYLE1
100
AcDbAlignedDimension
 13
92.8831266931
 23
157.2091791045
 33
0.0
 14
126.8851266931
 24
156.7091791045
 34
0.0
100
AcDbRotatedDimension
  0
DIMENSION
  5
103
330
1F
100
AcDbEntity
  8
0
  6
Continuous
 62
     7
370
    18
100
AcDbDimension
  2
_D_4
 10
137.3841266931
 20
140.7041791092
 30
0.0
 11
132.1346266931
 21
140.7041791092
 31
0.0
 70
   160
  1
<>
 71
     2
 42
-1.0
  3
SLDDIMSTYLE0
100
AcDbAlignedDimension
 13
126.8851266931
 23
156.7091791045
 33
0.0
 14
137.3841266931
 24
161.3591791045
 34
0.0
100
AcDbRotatedDimension
  0
DIMENSION
  5
10F
330
1F
100
AcDbEntity
  8
0
  6
Continuous
 62
     7
370
    18
100
AcDbDimension
  2
_D_5
 10
137.3841266931
 20
132.0837816273
 30
0.0
 11
109.8841266931
 21
132.0837816273
 31
0.0
 70
   160
  1
<>
 71
     2
 42
-1.0
  3
SLDDIMSTYLE1
100
AcDbAlignedDimension
 13
82.3841266931
 23
161.3591791045
 33
0.0
 14
137.3841266931
 24
161.3591791045
 34
0.0
100
AcDbRotatedDimension
  0
INSERT
  5
11E
330
1F
100
AcDbEntity
  8
0
  6
Continuous
 62
     7
370
     0
100
AcDbBlockReference
  2
SW_NOTE_0
 10
92.2915005969
 20
187.4154230793
 30
0.0
  0
LEADER
  5
120
330
1F
100
AcDbEntity
  8
0
  6
Continuous
 62
     7
370
     0
100
AcDbLeader
  3
SLDDIMSTYLE2
 76
     2
 10
99.7247347189
 20
175.2091791045
 30
0.0
 10
92.2915005969
 20
187.4154230793
 30
0.0
  0
ENDSEC
  0
SECTION
  2
OBJECTS
  0
DICTIONARY
  5
C
330
0
100
AcDbDictionary
281
     1
  3
ACAD_GROUP
350
D
  3
ACAD_LAYOUT
350
1A
  3
ACAD_MLINESTYLE
350
17
  3
ACAD_PLOTSETTINGS
350
19
  3
ACAD_PLOTSTYLENAME
350
E
  3
ACAD_SCALELIST
350
47
  0
DICTIONARY
  5
D
102
{ACAD_REACTORS
330
C
102
}
330
C
100
AcDbDictionary
281
     1
  0
DICTIONARY
  5
1A
102
{ACAD_REACTORS
330
C
102
}
330
C
100
AcDbDictionary
281
     1
  3
Layout1
350
1E
  3
Layout2
350
26
  3
Model
350
22
  0
DICTIONARY
  5
17
102
{ACAD_REACTORS
330
C
102
}
330
C
100
AcDbDictionary
281
     1
  3
Standard
350
18
  0
DICTIONARY
  5
19
102
{ACAD_REACTORS
330
C
102
}
330
C
100
AcDbDictionary
281
     1
  0
ACDBDICTIONARYWDFLT
  5
E
102
{ACAD_REACTORS
330
C
102
}
330
C
100
AcDbDictionary
281
     1
  3
Normal
350
F
100
AcDbDictionaryWithDefault
340
F
  0
DICTIONARY
  5
47
102
{ACAD_REACTORS
330
C
102
}
330
C
100
AcDbDictionary
281
     1
  3
A0
350
48
  3
A1
350
49
  3
A2
350
4A
  3
A3
350
4B
  3
A4
350
4C
  3
A5
350
4D
  3
A6
350
4E
  3
A7
350
4F
  3
A8
350
50
  3
A9
350
51
  3
B0
350
52
  3
B1
350
53
  3
B2
350
54
  3
B3
350
55
  3
B4
350
56
  3
B5
350
57
  3
B6
350
58
  3
B7
350
59
  3
B8
350
5A
  3
B9
350
5B
  3
C0
350
5C
  3
C1
350
5D
  3
C2
350
5E
  3
C3
350
5F
  3
C4
350
60
  3
C5
350
61
  3
C6
350
62
  3
C7
350
63
  3
C8
350
64
  3
C9
350
65
  3
D0
350
66
  3
D1
350
67
  3
D2
350
68
  0
LAYOUT
  5
1E
102
{ACAD_REACTORS
330
1A
102
}
330
1A
100
AcDbPlotSettings
  1

  2
none_device
  4

  6

 40
0.0
 41
0.0
 42
0.0
 43
0.0
 44
0.0
 45
0.0
 46
0.0
 47
0.0
 48
0.0
 49
0.0
140
0.0
141
0.0
142
1.0
143
1.0
 70
   688
 72
     1
 73
     0
 74
     5
  7

 75
    16
147
1.0
148
0.0
149
0.0
100
AcDbLayout
  1
Layout1
 70
     1
 71
     1
 10
0.0
 20
0.0
 11
420.0
 21
297.0
 12
0.0
 22
0.0
 32
0.0
 14
1.0000000000E+20
 24
1.0000000000E+20
 34
1.0000000000E+20
 15
-1.0000000000E+20
 25
-1.0000000000E+20
 35
-1.0000000000E+20
146
0.0
 13
0.0
 23
0.0
 33
0.0
 16
1.0
 26
0.0
 36
0.0
 17
0.0
 27
1.0
 37
0.0
 76
     0
330
1B
  0
LAYOUT
  5
26
102
{ACAD_REACTORS
330
1A
102
}
330
1A
100
AcDbPlotSettings
  1

  2
none_device
  4

  6

 40
0.0
 41
0.0
 42
0.0
 43
0.0
 44
0.0
 45
0.0
 46
0.0
 47
0.0
 48
0.0
 49
0.0
140
0.0
141
0.0
142
1.0
143
1.0
 70
   688
 72
     1
 73
     0
 74
     5
  7

 75
    16
147
1.0
148
0.0
149
0.0
100
AcDbLayout
  1
Layout2
 70
     1
 71
     2
 10
0.0
 20
0.0
 11
0.0
 21
0.0
 12
0.0
 22
0.0
 32
0.0
 14
0.0
 24
0.0
 34
0.0
 15
0.0
 25
0.0
 35
0.0
146
0.0
 13
0.0
 23
0.0
 33
0.0
 16
1.0
 26
0.0
 36
0.0
 17
0.0
 27
1.0
 37
0.0
 76
     0
330
23
  0
LAYOUT
  5
22
102
{ACAD_REACTORS
330
1A
102
}
330
1A
100
AcDbPlotSettings
  1

  2
none_device
  4
Letter_(8.50_x_11.00_Inches)
  6

 40
6.35
 41
6.35
 42
6.35000508
 43
6.35000508
 44
215.9
 45
279.4
 46
0.0
 47
0.0
 48
0.0
 49
0.0
140
0.0
141
0.0
142
1.0
143
1.0
 70
  1712
 72
     1
 73
     0
 74
     0
  7

 75
     0
147
1.0
148
0.0
149
0.0
100
AcDbLayout
  1
Model
 70
     1
 71
     0
 10
0.0
 20
0.0
 11
210.0
 21
297.0
 12
0.0
 22
0.0
 32
0.0
 14
0.0
 24
0.0
 34
0.0
 15
210.0
 25
297.0
 35
0.0
146
0.0
 13
0.0
 23
0.0
 33
0.0
 16
1.0
 26
0.0
 36
0.0
 17
0.0
 27
1.0
 37
0.0
 76
     0
330
1F
331
29
  0
MLINESTYLE
  5
18
102
{ACAD_REACTORS
330
17
102
}
330
17
100
AcDbMlineStyle
  2
Standard
 70
     0
  3

 62
   256
 51
90.0
 52
90.0
 71
     2
 49
0.5
 62
   256
  6
BYLAYER
 49
-0.5
 62
   256
  6
BYLAYER
  0
ACDBPLACEHOLDER
  5
F
102
{ACAD_REACTORS
330
E
102
}
330
E
  0
SCALE
  5
48
102
{ACAD_REACTORS
330
47
102
}
330
47
100
AcDbScale
 70
     0
300
1:1
140
1.0
141
1.0
290
     1
  0
SCALE
  5
49
102
{ACAD_REACTORS
330
47
102
}
330
47
100
AcDbScale
 70
     0
300
1:2
140
1.0
141
2.0
290
     0
  0
SCALE
  5
4A
102
{ACAD_REACTORS
330
47
102
}
330
47
100
AcDbScale
 70
     0
300
1:4
140
1.0
141
4.0
290
     0
  0
SCALE
  5
4B
102
{ACAD_REACTORS
330
47
102
}
330
47
100
AcDbScale
 70
     0
300
1:5
140
1.0
141
5.0
290
     0
  0
SCALE
  5
4C
102
{ACAD_REACTORS
330
47
102
}
330
47
100
AcDbScale
 70
     0
300
1:8
140
1.0
141
8.0
290
     0
  0
SCALE
  5
4D
102
{ACAD_REACTORS
330
47
102
}
330
47
100
AcDbScale
 70
     0
300
1:10
140
1.0
141
10.0
290
     0
  0
SCALE
  5
4E
102
{ACAD_REACTORS
330
47
102
}
330
47
100
AcDbScale
 70
     0
300
1:16
140
1.0
141
16.0
290
     0
  0
SCALE
  5
4F
102
{ACAD_REACTORS
330
47
102
}
330
47
100
AcDbScale
 70
     0
300
1:20
140
1.0
141
20.0
290
     0
  0
SCALE
  5
50
102
{ACAD_REACTORS
330
47
102
}
330
47
100
AcDbScale
 70
     0
300
1:30
140
1.0
141
30.0
290
     0
  0
SCALE
  5
51
102
{ACAD_REACTORS
330
47
102
}
330
47
100
AcDbScale
 70
     0
300
1:40
140
1.0
141
40.0
290
     0
  0
SCALE
  5
52
102
{ACAD_REACTORS
330
47
102
}
330
47
100
AcDbScale
 70
     0
300
1:50
140
1.0
141
50.0
290
     0
  0
SCALE
  5
53
102
{ACAD_REACTORS
330
47
102
}
330
47
100
AcDbScale
 70
     0
300
1:100
140
1.0
141
100.0
290
     0
  0
SCALE
  5
54
102
{ACAD_REACTORS
330
47
102
}
330
47
100
AcDbScale
 70
     0
300
2:1
140
2.0
141
1.0
290
     0
  0
SCALE
  5
55
102
{ACAD_REACTORS
330
47
102
}
330
47
100
AcDbScale
 70
     0
300
4:1
140
4.0
141
1.0
290
     0
  0
SCALE
  5
56
102
{ACAD_REACTORS
330
47
102
}
330
47
100
AcDbScale
 70
     0
300
8:1
140
8.0
141
1.0
290
     0
  0
SCALE
  5
57
102
{ACAD_REACTORS
330
47
102
}
330
47
100
AcDbScale
 70
     0
300
10:1
140
10.0
141
1.0
290
     0
  0
SCALE
  5
58
102
{ACAD_REACTORS
330
47
102
}
330
47
100
AcDbScale
 70
     0
300
100:1
140
100.0
141
1.0
290
     0
  0
SCALE
  5
59
102
{ACAD_REACTORS
330
47
102
}
330
47
100
AcDbScale
 70
     0
300
1/128" = 1'-0"
140
0.0078125
141
12.0
290
     0
  0
SCALE
  5
5A
102
{ACAD_REACTORS
330
47
102
}
330
47
100
AcDbScale
 70
     0
300
1/64" = 1'-0"
140
0.015625
141
12.0
290
     0
  0
SCALE
  5
5B
102
{ACAD_REACTORS
330
47
102
}
330
47
100
AcDbScale
 70
     0
300
1/32" = 1'-0"
140
0.03125
141
12.0
290
     0
  0
SCALE
  5
5C
102
{ACAD_REACTORS
330
47
102
}
330
47
100
AcDbScale
 70
     0
300
1/16" = 1'-0"
140
0.0625
141
12.0
290
     0
  0
SCALE
  5
5D
102
{ACAD_REACTORS
330
47
102
}
330
47
100
AcDbScale
 70
     0
300
3/32" = 1'-0"
140
0.09375
141
12.0
290
     0
  0
SCALE
  5
5E
102
{ACAD_REACTORS
330
47
102
}
330
47
100
AcDbScale
 70
     0
300
1/8" = 1'-0"
140
0.125
141
12.0
290
     0
  0
SCALE
  5
5F
102
{ACAD_REACTORS
330
47
102
}
330
47
100
AcDbScale
 70
     0
300
3/16" = 1'-0"
140
0.1875
141
12.0
290
     0
  0
SCALE
  5
60
102
{ACAD_REACTORS
330
47
102
}
330
47
100
AcDbScale
 70
     0
300
1/4" = 1'-0"
140
0.25
141
12.0
290
     0
  0
SCALE
  5
61
102
{ACAD_REACTORS
330
47
102
}
330
47
100
AcDbScale
 70
     0
300
3/8" = 1'-0"
140
0.375
141
12.0
290
     0
  0
SCALE
  5
62
102
{ACAD_REACTORS
330
47
102
}
330
47
100
AcDbScale
 70
     0
300
1/2" = 1'-0"
140
0.5
141
12.0
290
     0
  0
SCALE
  5
63
102
{ACAD_REACTORS
330
47
102
}
330
47
100
AcDbScale
 70
     0
300
3/4" = 1'-0"
140
0.75
141
12.0
290
     0
  0
SCALE
  5
64
102
{ACAD_REACTORS
330
47
102
}
330
47
100
AcDbScale
 70
     0
300
1" = 1'-0"
140
1.0
141
12.0
290
     0
  0
SCALE
  5
65
102
{ACAD_REACTORS
330
47
102
}
330
47
100
AcDbScale
 70
     0
300
1-1/2" = 1'-0"
140
1.5
141
12.0
290
     0
  0
SCALE
  5
66
102
{ACAD_REACTORS
330
47
102
}
330
47
100
AcDbScale
 70
     0
300
3" = 1'-0"
140
3.0
141
12.0
290
     0
  0
SCALE
  5
67
102
{ACAD_REACTORS
330
47
102
}
330
47
100
AcDbScale
 70
     0
300
6" = 1'-0"
140
6.0
141
12.0
290
     0
  0
SCALE
  5
68
102
{ACAD_REACTORS
330
47
102
}
330
47
100
AcDbScale
 70
     0
300
1'-0" = 1'-0"
140
12.0
141
12.0
290
     0
  0
ENDSEC
  0
EOF
