  0
SECTION
  2
HEADER
  9
$ACADVER
  1
AC1015
  9
$ACADMAINTVER
 70
     6
  9
$DWGCODEPAGE
  3
DOS932
  9
$INSBASE
 10
0.0
 20
0.0
 30
0.0
  9
$EXTMIN
 10
0.0
 20
0.0
 30
0.0
  9
$EXTMAX
 10
210.0
 20
297.0
 30
0.0
  9
$LIMMIN
 10
0.0
 20
0.0
  9
$LIMMAX
 10
210.0
 20
297.0
  9
$ORTHOMODE
 70
     0
  9
$REGENMODE
 70
     1
  9
$FILLMODE
 70
     1
  9
$QTEXTMODE
 70
     0
  9
$MIRRTEXT
 70
     1
  9
$LTSCALE
 40
1.0
  9
$ATTMODE
 70
     1
  9
$TEXTSIZE
 40
3.5
  9
$TRACEWID
 40
1.0
  9
$TEXTSTYLE
  7
Standard
  9
$CLAYER
  8
0
  9
$CELTYPE
  6
ByLayer
  9
$CECOLOR
 62
   256
  9
$CELTSCALE
 40
1.0
  9
$DISPSILH
 70
     0
  9
$DIMSCALE
 40
1.0
  9
$DIMASZ
 40
3.0
  9
$DIMEXO
 40
1.0
  9
$DIMDLI
 40
3.75
  9
$DIMRND
 40
0.0
  9
$DIMDLE
 40
0.0
  9
$DIMEXE
 40
1.0
  9
$DIMTP
 40
0.0
  9
$DIMTM
 40
0.0
  9
$DIMTXT
 40
3.5
  9
$DIMCEN
 40
2.5
  9
$DIMTSZ
 40
0.0
  9
$DIMTOL
 70
     0
  9
$DIMLIM
 70
     0
  9
$DIMTIH
 70
     1
  9
$DIMTOH
 70
     1
  9
$DIMSE1
 70
     0
  9
$DIMSE2
 70
     0
  9
$DIMTAD
 70
     1
  9
$DIMZIN
 70
     0
  9
$DIMBLK
  1

  9
$DIMASO
 70
     1
  9
$DIMSHO
 70
     1
  9
$DIMPOST
  1

  9
$DIMAPOST
  1

  9
$DIMALT
 70
     0
  9
$DIMALTD
 70
     3
  9
$DIMALTF
 40
0.0393700787
  9
$DIMLFAC
 40
1.0
  9
$DIMTOFL
 70
     1
  9
$DIMTVP
 40
0.0
  9
$DIMTIX
 70
     0
  9
$DIMSOXD
 70
     0
  9
$DIMSAH
 70
     0
  9
$DIMBLK1
  1

  9
$DIMBLK2
  1

  9
$DIMSTYLE
  2
ISO-25
  9
$DIMCLRD
 70
     0
  9
$DIMCLRE
 70
     0
  9
$DIMCLRT
 70
     0
  9
$DIMTFAC
 40
1.0
  9
$DIMGAP
 40
1.524
  9
$DIMJUST
 70
     0
  9
$DIMSD1
 70
     0
  9
$DIMSD2
 70
     0
  9
$DIMTOLJ
 70
     0
  9
$DIMTZIN
 70
     0
  9
$DIMALTZ
 70
     0
  9
$DIMALTTZ
 70
     0
  9
$DIMUPT
 70
     0
  9
$DIMDEC
 70
     1
  9
$DIMTDEC
 70
     3
  9
$DIMALTU
 70
     2
  9
$DIMALTTD
 70
     3
  9
$DIMTXSTY
  7
Standard
  9
$DIMAUNIT
 70
     0
  9
$DIMADEC
 70
     2
  9
$DIMALTRND
 40
0.0
  9
$DIMAZIN
 70
     0
  9
$DIMDSEP
 70
    44
  9
$DIMATFIT
 70
     3
  9
$DIMFRAC
 70
     0
  9
$DIMLDRBLK
  1

  9
$DIMLUNIT
 70
     2
  9
$DIMLWD
 70
    -2
  9
$DIMLWE
 70
    -2
  9
$DIMTMOVE
 70
     0
  9
$LUNITS
 70
     2
  9
$LUPREC
 70
     1
  9
$SKETCHINC
 40
1.0
  9
$FILLETRAD
 40
10.0
  9
$AUNITS
 70
     0
  9
$AUPREC
 70
     2
  9
$MENU
  1
.
  9
$ELEVATION
 40
0.0
  9
$PELEVATION
 40
0.0
  9
$THICKNESS
 40
0.0
  9
$LIMCHECK
 70
     0
  9
$CHAMFERA
 40
0.0
  9
$CHAMFERB
 40
0.0
  9
$CHAMFERC
 40
0.0
  9
$CHAMFERD
 40
0.0
  9
$SKPOLY
 70
     0
  9
$TDCREATE
 40
2458898.921525301
  9
$TDUCREATE
 40
2458898.546525301
  9
$TDUPDATE
 40
2458898.921526748
  9
$TDUUPDATE
 40
2458898.546526748
  9
$TDINDWG
 40
0.0000000116
  9
$TDUSRTIMER
 40
0.0000000116
  9
$USRTIMER
 70
     1
  9
$ANGBASE
 50
0.0
  9
$ANGDIR
 70
     0
  9
$PDMODE
 70
     0
  9
$PDSIZE
 40
-1.0
  9
$PLINEWID
 40
0.0
  9
$SPLFRAME
 70
     0
  9
$SPLINETYPE
 70
     6
  9
$SPLINESEGS
 70
     8
  9
$HANDSEED
  5
123
  9
$SURFTAB1
 70
     6
  9
$SURFTAB2
 70
     6
  9
$SURFTYPE
 70
     6
  9
$SURFU
 70
     6
  9
$SURFV
 70
     6
  9
$UCSBASE
  2

  9
$UCSNAME
  2

  9
$UCSORG
 10
0.0
 20
0.0
 30
0.0
  9
$UCSXDIR
 10
1.0
 20
0.0
 30
0.0
  9
$UCSYDIR
 10
0.0
 20
1.0
 30
0.0
  9
$UCSORTHOREF
  2

  9
$UCSORTHOVIEW
 70
     0
  9
$UCSORGTOP
 10
0.0
 20
0.0
 30
0.0
  9
$UCSORGBOTTOM
 10
0.0
 20
0.0
 30
0.0
  9
$UCSORGLEFT
 10
0.0
 20
0.0
 30
0.0
  9
$UCSORGRIGHT
 10
0.0
 20
0.0
 30
0.0
  9
$UCSORGFRONT
 10
0.0
 20
0.0
 30
0.0
  9
$UCSORGBACK
 10
0.0
 20
0.0
 30
0.0
  9
$PUCSBASE
  2

  9
$PUCSNAME
  2

  9
$PUCSORG
 10
0.0
 20
0.0
 30
0.0
  9
$PUCSXDIR
 10
1.0
 20
0.0
 30
0.0
  9
$PUCSYDIR
 10
0.0
 20
1.0
 30
0.0
  9
$PUCSORTHOREF
  2

  9
$PUCSORTHOVIEW
 70
     0
  9
$PUCSORGTOP
 10
0.0
 20
0.0
 30
0.0
  9
$PUCSORGBOTTOM
 10
0.0
 20
0.0
 30
0.0
  9
$PUCSORGLEFT
 10
0.0
 20
0.0
 30
0.0
  9
$PUCSORGRIGHT
 10
0.0
 20
0.0
 30
0.0
  9
$PUCSORGFRONT
 10
0.0
 20
0.0
 30
0.0
  9
$PUCSORGBACK
 10
0.0
 20
0.0
 30
0.0
  9
$USERI1
 70
     0
  9
$USERI2
 70
     0
  9
$USERI3
 70
     0
  9
$USERI4
 70
     0
  9
$USERI5
 70
     0
  9
$USERR1
 40
0.0
  9
$USERR2
 40
0.0
  9
$USERR3
 40
0.0
  9
$USERR4
 40
0.0
  9
$USERR5
 40
0.0
  9
$WORLDVIEW
 70
     1
  9
$SHADEDGE
 70
     3
  9
$SHADEDIF
 70
    70
  9
$TILEMODE
 70
     1
  9
$MAXACTVP
 70
    64
  9
$PINSBASE
 10
0.0
 20
0.0
 30
0.0
  9
$PLIMCHECK
 70
     0
  9
$PEXTMIN
 10
1.0000000000E+20
 20
1.0000000000E+20
 30
1.0000000000E+20
  9
$PEXTMAX
 10
-1.0000000000E+20
 20
-1.0000000000E+20
 30
-1.0000000000E+20
  9
$PLIMMIN
 10
0.0
 20
0.0
  9
$PLIMMAX
 10
420.0
 20
297.0
  9
$UNITMODE
 70
     0
  9
$VISRETAIN
 70
     1
  9
$PLINEGEN
 70
     0
  9
$PSLTSCALE
 70
     1
  9
$TREEDEPTH
 70
  3020
  9
$CMLSTYLE
  2
Standard
  9
$CMLJUST
 70
     0
  9
$CMLSCALE
 40
20.0
  9
$PROXYGRAPHICS
 70
     1
  9
$MEASUREMENT
 70
     1
  9
$CELWEIGHT
370
    -1
  9
$ENDCAPS
280
     0
  9
$JOINSTYLE
280
     0
  9
$LWDISPLAY
290
     1
  9
$INSUNITS
 70
     4
  9
$HYPERLINKBASE
  1

  9
$STYLESHEET
  1

  9
$XEDIT
290
     1
  9
$CEPSNTYPE
380
     0
  9
$PSTYLEMODE
290
     1
  9
$FINGERPRINTGUID
  2
{0B02AB8F-FF4D-4274-BA1A-F2827F37E674}
  9
$VERSIONGUID
  2
{FAEB1C32-E019-11D5-929B-00C0DF256EC4}
  9
$EXTNAMES
290
     1
  9
$PSVPSCALE
 40
0.0
  9
$OLESTARTUP
290
     0
  0
ENDSEC
  0
SECTION
  2
CLASSES
  0
CLASS
  1
ACDBDICTIONARYWDFLT
  2
AcDbDictionaryWithDefault
  3
ObjectDBX Classes
 90
        0
280
     0
281
     0
  0
CLASS
  1
VISUALSTYLE
  2
AcDbVisualStyle
  3
ObjectDBX Classes
 90
     4095
280
     0
281
     0
  0
CLASS
  1
MATERIAL
  2
AcDbMaterial
  3
ObjectDBX Classes
 90
     1153
280
     0
281
     0
  0
CLASS
  1
SCALE
  2
AcDbScale
  3
ObjectDBX Classes
 90
     1153
280
     0
281
     0
  0
CLASS
  1
TABLESTYLE
  2
AcDbTableStyle
  3
ObjectDBX Classes
 90
     4095
280
     0
281
     0
  0
CLASS
  1
MLEADERSTYLE
  2
AcDbMLeaderStyle
  3
ACDB_MLEADERSTYLE_CLASS
 90
     4095
280
     0
281
     0
  0
CLASS
  1
SUN
  2
AcDbSun
  3
SCENEOE
 90
     1153
280
     0
281
     0
  0
CLASS
  1
ACDBPLACEHOLDER
  2
AcDbPlaceHolder
  3
ObjectDBX Classes
 90
        0
280
     0
281
     0
  0
CLASS
  1
LAYOUT
  2
AcDbLayout
  3
ObjectDBX Classes
 90
        0
280
     0
281
     0
  0
ENDSEC
  0
SECTION
  2
TABLES
  0
TABLE
  2
VPORT
  5
8
330
0
100
AcDbSymbolTable
 70
     1
  0
VPORT
  5
29
330
8
100
AcDbSymbolTableRecord
100
AcDbViewportTableRecord
  2
*Active
 70
     0
 10
0.0
 20
0.0
 11
1.0
 21
1.0
 12
105.0
 22
148.5
 13
0.0
 23
0.0
 14
10.0
 24
10.0
 15
10.0
 25
10.0
 16
0.0
 26
0.0
 36
1.0
 17
0.0
 27
0.0
 37
0.0
 40
297.0
 41
0.7070707071
 42
50.0
 43
0.0
 44
0.0
 50
0.0
 51
0.0
 71
     0
 72
  2000
 73
     1
 74
     3
 75
     0
 76
     0
 77
     0
 78
     0
281
     0
 65
     1
110
0.0
120
0.0
130
0.0
111
1.0
121
0.0
131
0.0
112
0.0
122
1.0
132
0.0
 79
     0
146
0.0
  0
ENDTAB
  0
TABLE
  2
LTYPE
  5
5
330
0
100
AcDbSymbolTable
 70
     6
  0
LTYPE
  5
14
330
5
100
AcDbSymbolTableRecord
100
AcDbLinetypeTableRecord
  2
ByBlock
 70
     0
  3

 72
    65
 73
     0
 40
0.0
  0
LTYPE
  5
15
330
5
100
AcDbSymbolTableRecord
100
AcDbLinetypeTableRecord
  2
ByLayer
 70
     0
  3

 72
    65
 73
     0
 40
0.0
  0
LTYPE
  5
16
330
5
100
AcDbSymbolTableRecord
100
AcDbLinetypeTableRecord
  2
Continuous
 70
     0
  3
Solid line
 72
    65
 73
     0
 40
0.0
  0
LTYPE
  5
6E
330
5
100
AcDbSymbolTableRecord
100
AcDbLinetypeTableRecord
  2
HIDDEN
 70
     0
  3
Hidden __ __ __ __ __ __ __ __ __ __ __ __ __ __
 72
    65
 73
     2
 40
1.905
 49
1.27
 74
     0
 49
-0.635
 74
     0
  0
LTYPE
  5
6F
330
5
100
AcDbSymbolTableRecord
100
AcDbLinetypeTableRecord
  2
PHANTOM
 70
     0
  3
Phantom ______  __  __  ______  __  __  ______
 72
    65
 73
     6
 40
12.7
 49
6.35
 74
     0
 49
-1.27
 74
     0
 49
1.27
 74
     0
 49
-1.27
 74
     0
 49
1.27
 74
     0
 49
-1.27
 74
     0
  0
LTYPE
  5
70
330
5
100
AcDbSymbolTableRecord
100
AcDbLinetypeTableRecord
  2
CENTER
 70
     0
  3
Center ____ _ ____ _ ____ _ ____ _ ____ _ ____
 72
    65
 73
     4
 40
10.16
 49
6.35
 74
     0
 49
-1.27
 74
     0
 49
1.27
 74
     0
 49
-1.27
 74
     0
  0
LTYPE
  5
71
330
5
100
AcDbSymbolTableRecord
100
AcDbLinetypeTableRecord
  2
CENTERX2
 70
     0
  3
Center (2x) ________  __  ________  __  _____
 72
    65
 73
     4
 40
20.32
 49
12.7
 74
     0
 49
-2.54
 74
     0
 49
2.54
 74
     0
 49
-2.54
 74
     0
  0
LTYPE
  5
72
330
5
100
AcDbSymbolTableRecord
100
AcDbLinetypeTableRecord
  2
DOT2
 70
     0
  3
Dot (.5x) ........................................
 72
    65
 73
     2
 40
0.635
 49
0.0
 74
     0
 49
-0.635
 74
     0
  0
ENDTAB
  0
TABLE
  2
LAYER
  5
2
330
0
100
AcDbSymbolTable
 70
     1
  0
LAYER
  5
10
330
2
100
AcDbSymbolTableRecord
100
AcDbLayerTableRecord
  2
0
 70
     0
 62
     7
  6
Continuous
370
    -3
390
F
  0
ENDTAB
  0
TABLE
  2
STYLE
  5
3
330
0
100
AcDbSymbolTable
 70
     2
  0
STYLE
  5
11
330
3
100
AcDbSymbolTableRecord
100
AcDbTextStyleTableRecord
  2
Standard
 70
     0
 40
0.0
 41
1.0
 50
0.0
 71
     0
 42
3.5
  3
txt
  4
bigfont
  0
STYLE
  5
7B
330
3
100
AcDbSymbolTableRecord
100
AcDbTextStyleTableRecord
  2
SLDTEXTSTYLE0
 70
     0
 40
0.0
 41
0.7
 50
0.0
 71
     0
 42
3.5
  3
TXT
  4
bigfont
  0
ENDTAB
  0
TABLE
  2
VIEW
  5
6
330
0
100
AcDbSymbolTable
 70
     0
  0
ENDTAB
  0
TABLE
  2
UCS
  5
7
330
0
100
AcDbSymbolTable
 70
     0
  0
ENDTAB
  0
TABLE
  2
APPID
  5
9
330
0
100
AcDbSymbolTable
 70
     1
  0
APPID
  5
12
330
9
100
AcDbSymbolTableRecord
100
AcDbRegAppTableRecord
  2
ACAD
 70
     0
  0
ENDTAB
  0
TABLE
  2
DIMSTYLE
  5
A
330
0
100
AcDbSymbolTable
 70
     4
100
AcDbDimStyleTable
  0
DIMSTYLE
105
27
330
A
100
AcDbSymbolTableRecord
100
AcDbDimStyleTableRecord
  2
ISO-25
 70
     0
 41
2.5
 42
0.625
 43
3.75
 44
1.25
 73
     0
 74
     0
 77
     1
 78
     8
140
2.5
141
2.5
143
0.0393700787
147
0.625
171
     3
172
     1
178
     0
271
     2
272
     2
274
     3
278
    44
283
     0
284
     8
340
11
  0
DIMSTYLE
105
D6
102
{ACAD_REACTORS
330
D5
330
FB
330
111
102
}
330
A
100
AcDbSymbolTableRecord
100
AcDbDimStyleTableRecord
  2
SLDDIMSTYLE0
 70
     0
 41
3.0
 44
0.0
 45
0.000000001
 73
     0
 74
     0
 77
     3
 78
    12
 79
     3
140
3.5
147
0.875
173
     1
178
     0
271
     1
272
     3
276
     2
284
    12
340
7B
  0
DIMSTYLE
105
E2
102
{ACAD_REACTORS
330
E1
330
EF
330
105
102
}
330
A
100
AcDbSymbolTableRecord
100
AcDbDimStyleTableRecord
  2
SLDDIMSTYLE1
 70
     0
 41
3.0
 44
0.0
 45
0.000000001
 73
     0
 74
     0
 77
     3
 78
    12
 79
     3
140
3.5
147
0.875
172
     1
173
     1
178
     0
271
     1
272
     3
276
     2
284
    12
289
     0
340
7B
  0
DIMSTYLE
105
121
330
A
100
AcDbSymbolTableRecord
100
AcDbDimStyleTableRecord
  2
SLDDIMSTYLE2
 70
     0
 41
3.0
 44
0.0
 45
0.000000001
146
3.0
147
0.0
173
     1
178
     0
271
     0
272
     0
276
     2
340
11
  0
ENDTAB
  0
TABLE
  2
BLOCK_RECORD
  5
1
330
0
100
AcDbSymbolTable
 70
     8
  0
BLOCK_RECORD
  5
1F
330
1
100
AcDbSymbolTableRecord
100
AcDbBlockTableRecord
  2
*Model_Space
340
22
  0
BLOCK_RECORD
  5
1B
330
1
100
AcDbSymbolTableRecord
100
AcDbBlockTableRecord
  2
*Paper_Space
340
1E
  0
BLOCK_RECORD
  5
23
330
1
100
AcDbSymbolTableRecord
100
AcDbBlockTableRecord
  2
*Paper_Space0
340
26
  0
BLOCK_RECORD
  5
D7
330
1
100
AcDbSymbolTableRecord
100
AcDbBlockTableRecord
  2
_D
340
0
  0
BLOCK_RECORD
  5
E3
330
1
100
AcDbSymbolTableRecord
100
AcDbBlockTableRecord
  2
_D_1
340
0
  0
BLOCK_RECORD
  5
F0
330
1
100
AcDbSymbolTableRecord
100
AcDbBlockTableRecord
  2
_D_2
340
0
  0
BLOCK_RECORD
  5
FC
330
1
100
AcDbSymbolTableRecord
100
AcDbBlockTableRecord
  2
_D_3
340
0
  0
BLOCK_RECORD
  5
106
330
1
100
AcDbSymbolTableRecord
100
AcDbBlockTableRecord
  2
_D_4
340
0
  0
BLOCK_RECORD
  5
112
330
1
100
AcDbSymbolTableRecord
100
AcDbBlockTableRecord
  2
_D_5
340
0
  0
BLOCK_RECORD
  5
11B
330
1
100
AcDbSymbolTableRecord
100
AcDbBlockTableRecord
  2
SW_NOTE_0
340
0
102
{BLKREFS
331
120
102
}
  0
ENDTAB
  0
ENDSEC
  0
SECTION
  2
BLOCKS
  0
BLOCK
  5
20
330
1F
100
AcDbEntity
  8
0
100
AcDbBlockBegin
  2
*Model_Space
 70
     0
 10
0.0
 20
0.0
 30
0.0
  3
*Model_Space
  1

  0
ENDBLK
  5
21
330
1F
100
AcDbEntity
  8
0
100
AcDbBlockEnd
  0
BLOCK
  5
1C
330
1B
100
AcDbEntity
 67
     1
  8
0
100
AcDbBlockBegin
  2
*Paper_Space
 70
     0
 10
0.0
 20
0.0
 30
0.0
  3
*Paper_Space
  1

  0
ENDBLK
  5
1D
330
1B
100
AcDbEntity
 67
     1
  8
0
100
AcDbBlockEnd
  0
BLOCK
  5
24
330
23
100
AcDbEntity
  8
0
100
AcDbBlockBegin
  2
*Paper_Space0
 70
     0
 10
0.0
 20
0.0
 30
0.0
  3
*Paper_Space0
  1

  0
ENDBLK
  5
25
330
23
100
AcDbEntity
  8
0
100
AcDbBlockEnd
  0
BLOCK
  5
D8
330
D7
100
AcDbEntity
  8
0
100
AcDbBlockBegin
  2
_D
 70
     0
 10
0.0
 20
0.0
 30
0.0
  3
_D
  1

  0
SOLID
  5
DA
330
D7
100
AcDbEntity
  8
0
  6
Continuous
 62
     7
370
    18
100
AcDbTrace
 10
153.0371313172
 20
165.1590298507
 30
0.0
 11
152.2871313172
 21
162.1590298507
 31
0.0
 12
153.7871313172
 22
162.1590298507
 32
0.0
 13
153.7871313172
 23
162.1590298507
 33
0.0
  0
SOLID
  5
DB
330
D7
100
AcDbEntity
  8
0
  6
Continuous
 62
     7
370
    18
100
AcDbTrace
 10
153.0371313172
 20
146.1590298507
 30
0.0
 11
153.7871313172
 21
149.1590298507
 31
0.0
 12
152.2871313172
 22
149.1590298507
 32
0.0
 13
152.2871313172
 23
149.1590298507
 33
0.0
  0
LINE
  5
DC
330
D7
100
AcDbEntity
  8
0
  6
Continuous
 62
     7
370
    18
100
AcDbLine
 10
126.4786789319
 20
165.1590298507
 30
0.0
 11
154.0371313172
 21
165.1590298507
 31
0.0
  0
LINE
  5
DD
330
D7
100
AcDbEntity
  8
0
  6
Continuous
 62
     7
370
    18
100
AcDbLine
 10
126.4786789319
 20
146.1590298507
 30
0.0
 11
154.0371313172
 21
146.1590298507
 31
0.0
  0
LINE
  5
DE
330
D7
100
AcDbEntity
  8
0
  6
Continuous
 62
     7
370
    18
100
AcDbLine
 10
153.0371313172
 20
165.1590298507
 30
0.0
 11
153.0371313172
 21
146.1590298507
 31
0.0
  0
MTEXT
  5
DF
330
D7
100
AcDbEntity
  8
0
  6
Continuous
 62
     7
370
    18
100
AcDbMText
 10
148.5253944608
 20
151.5854188558
 30
0.0
 40
3.5
 41
0.0
 71
     1
 72
     1
  1
Φ
  7
SLDTEXTSTYLE0
 11
-7.044195017643634E-15
 21
1.0
 31
0.0
 73
     1
 44
1.0
  0
MTEXT
  5
E0
330
D7
100
AcDbEntity
  8
0
  6
Continuous
 62
     7
370
    18
100
AcDbMText
 10
148.5253944608
 20
155.6590298507
 30
0.0
 40
3.5
 41
0.0
 71
     1
 72
     1
  1
19
  7
SLDTEXTSTYLE0
 11
-7.044195017643634E-15
 21
1.0
 31
0.0
 73
     1
 44
1.0
  0
ENDBLK
  5
D9
330
D7
100
AcDbEntity
  8
0
100
AcDbBlockEnd
  0
BLOCK
  5
E4
330
E3
100
AcDbEntity
  8
0
100
AcDbBlockBegin
  2
_D_1
 70
     0
 10
0.0
 20
0.0
 30
0.0
  3
_D_1
  1

  0
SOLID
  5
E6
330
E3
100
AcDbEntity
  8
0
  6
Continuous
 62
     7
370
    18
100
AcDbTrace
 10
140.2612534042
 20
158.6590298507
 30
0.0
 11
141.0112534042
 21
161.6590298507
 31
0.0
 12
139.5112534042
 22
161.6590298507
 32
0.0
 13
139.5112534042
 23
161.6590298507
 33
0.0
  0
SOLID
  5
E7
330
E3
100
AcDbEntity
  8
0
  6
Continuous
 62
     7
370
    18
100
AcDbTrace
 10
140.2612534042
 20
152.6590298507
 30
0.0
 11
139.5112534042
 21
149.6590298507
 31
0.0
 12
141.0112534042
 22
149.6590298507
 32
0.0
 13
141.0112534042
 23
149.6590298507
 33
0.0
  0
LINE
  5
E8
330
E3
100
AcDbEntity
  8
0
  6
Continuous
 62
     7
370
    18
100
AcDbLine
 10
133.4786789319
 20
158.6590298507
 30
0.0
 11
141.2612534042
 21
158.6590298507
 31
0.0
  0
LINE
  5
E9
330
E3
100
AcDbEntity
  8
0
  6
Continuous
 62
     7
370
    18
100
AcDbLine
 10
133.4786789319
 20
152.6590298507
 30
0.0
 11
141.2612534042
 21
152.6590298507
 31
0.0
  0
LINE
  5
EA
330
E3
100
AcDbEntity
  8
0
  6
Continuous
 62
     7
370
    18
100
AcDbLine
 10
140.2612534042
 20
158.6590298507
 30
0.0
 11
140.2612534042
 21
173.9319146029
 31
0.0
  0
LINE
  5
EB
330
E3
100
AcDbEntity
  8
0
  6
Continuous
 62
     7
370
    18
100
AcDbLine
 10
140.2612534042
 20
158.6590298507
 30
0.0
 11
140.2612534042
 21
152.6590298507
 31
0.0
  0
LINE
  5
EC
330
E3
100
AcDbEntity
  8
0
  6
Continuous
 62
     7
370
    18
100
AcDbLine
 10
140.2612534042
 20
152.6590298507
 30
0.0
 11
140.2612534042
 21
147.6590298507
 31
0.0
  0
MTEXT
  5
ED
330
E3
100
AcDbEntity
  8
0
  6
Continuous
 62
     7
370
    18
100
AcDbMText
 10
135.7495165479
 20
167.8214978776
 30
0.0
 40
3.5
 41
0.0
 71
     1
 72
     1
  1
Φ
  7
SLDTEXTSTYLE0
 11
-7.044195017643634E-15
 21
1.0
 31
0.0
 73
     1
 44
1.0
  0
MTEXT
  5
EE
330
E3
100
AcDbEntity
  8
0
  6
Continuous
 62
     7
370
    18
100
AcDbMText
 10
135.7495165479
 20
171.8951088725
 30
0.0
 40
3.5
 41
0.0
 71
     1
 72
     1
  1
6
  7
SLDTEXTSTYLE0
 11
-7.044195017643634E-15
 21
1.0
 31
0.0
 73
     1
 44
1.0
  0
ENDBLK
  5
E5
330
E3
100
AcDbEntity
  8
0
100
AcDbBlockEnd
  0
BLOCK
  5
F1
330
F0
100
AcDbEntity
  8
0
100
AcDbBlockBegin
  2
_D_2
 70
     0
 10
0.0
 20
0.0
 30
0.0
  3
_D_2
  1

  0
SOLID
  5
F3
330
F0
100
AcDbEntity
  8
0
  6
Continuous
 62
     7
370
    18
100
AcDbTrace
 10
74.4786789319
 20
136.1540298555
 30
0.0
 11
71.4786789319
 21
136.9040298555
 31
0.0
 12
71.4786789319
 22
135.4040298555
 32
0.0
 13
71.4786789319
 23
135.4040298555
 33
0.0
  0
SOLID
  5
F4
330
F0
100
AcDbEntity
  8
0
  6
Continuous
 62
     7
370
    18
100
AcDbTrace
 10
86.4786789319
 20
136.1540298555
 30
0.0
 11
89.4786789319
 21
135.4040298555
 31
0.0
 12
89.4786789319
 22
136.9040298555
 32
0.0
 13
89.4786789319
 23
136.9040298555
 33
0.0
  0
LINE
  5
F5
330
F0
100
AcDbEntity
  8
0
  6
Continuous
 62
     7
370
    18
100
AcDbLine
 10
74.4786789319
 20
148.6590298507
 30
0.0
 11
74.4786789319
 21
135.1540298555
 31
0.0
  0
LINE
  5
F6
330
F0
100
AcDbEntity
  8
0
  6
Continuous
 62
     7
370
    18
100
AcDbLine
 10
86.4786789319
 20
145.1590298507
 30
0.0
 11
86.4786789319
 21
135.1540298555
 31
0.0
  0
LINE
  5
F7
330
F0
100
AcDbEntity
  8
0
  6
Continuous
 62
     7
370
    18
100
AcDbLine
 10
74.4786789319
 20
136.1540298555
 30
0.0
 11
69.4786789319
 21
136.1540298555
 31
0.0
  0
LINE
  5
F8
330
F0
100
AcDbEntity
  8
0
  6
Continuous
 62
     7
370
    18
100
AcDbLine
 10
74.4786789319
 20
136.1540298555
 30
0.0
 11
86.4786789319
 21
136.1540298555
 31
0.0
  0
LINE
  5
F9
330
F0
100
AcDbEntity
  8
0
  6
Continuous
 62
     7
370
    18
100
AcDbLine
 10
86.4786789319
 20
136.1540298555
 30
0.0
 11
91.4786789319
 21
136.1540298555
 31
0.0
  0
MTEXT
  5
FA
330
F0
100
AcDbEntity
  8
0
  6
Continuous
 62
     7
370
    18
100
AcDbMText
 10
78.4418734344
 20
140.6657667118
 30
0.0
 40
3.5
 41
0.0
 71
     1
 72
     1
  1
12
  7
SLDTEXTSTYLE0
 73
     1
 44
1.0
  0
ENDBLK
  5
F2
330
F0
100
AcDbEntity
  8
0
100
AcDbBlockEnd
  0
BLOCK
  5
FD
330
FC
100
AcDbEntity
  8
0
100
AcDbBlockBegin
  2
_D_3
 70
     0
 10
0.0
 20
0.0
 30
0.0
  3
_D_3
  1

  0
SOLID
  5
FF
330
FC
100
AcDbEntity
  8
0
  6
Continuous
 62
     7
370
    18
100
AcDbTrace
 10
86.4786789319
 20
136.1540298555
 30
0.0
 11
89.4786789319
 21
135.4040298555
 31
0.0
 12
89.4786789319
 22
136.9040298555
 32
0.0
 13
89.4786789319
 23
136.9040298555
 33
0.0
  0
SOLID
  5
100
330
FC
100
AcDbEntity
  8
0
  6
Continuous
 62
     7
370
    18
100
AcDbTrace
 10
120.4786789319
 20
136.1540298555
 30
0.0
 11
117.4786789319
 21
136.9040298555
 31
0.0
 12
117.4786789319
 22
135.4040298555
 32
0.0
 13
117.4786789319
 23
135.4040298555
 33
0.0
  0
LINE
  5
101
330
FC
100
AcDbEntity
  8
0
  6
Continuous
 62
     7
370
    18
100
AcDbLine
 10
86.4786789319
 20
145.6590298451
 30
0.0
 11
86.4786789319
 21
135.1540298555
 31
0.0
  0
LINE
  5
102
330
FC
100
AcDbEntity
  8
0
  6
Continuous
 62
     7
370
    18
100
AcDbLine
 10
120.4786789319
 20
145.1590298555
 30
0.0
 11
120.4786789319
 21
135.1540298555
 31
0.0
  0
LINE
  5
103
330
FC
100
AcDbEntity
  8
0
  6
Continuous
 62
     7
370
    18
100
AcDbLine
 10
86.4786789319
 20
136.1540298555
 30
0.0
 11
120.4786789319
 21
136.1540298555
 31
0.0
  0
MTEXT
  5
104
330
FC
100
AcDbEntity
  8
0
  6
Continuous
 62
     7
370
    18
100
AcDbMText
 10
101.4418734344
 20
140.6657667118
 30
0.0
 40
3.5
 41
0.0
 71
     1
 72
     1
  1
34
  7
SLDTEXTSTYLE0
 73
     1
 44
1.0
  0
ENDBLK
  5
FE
330
FC
100
AcDbEntity
  8
0
100
AcDbBlockEnd
  0
BLOCK
  5
107
330
106
100
AcDbEntity
  8
0
100
AcDbBlockBegin
  2
_D_4
 70
     0
 10
0.0
 20
0.0
 30
0.0
  3
_D_4
  1

  0
SOLID
  5
109
330
106
100
AcDbEntity
  8
0
  6
Continuous
 62
     7
370
    18
100
AcDbTrace
 10
120.4786789319
 20
136.1540298555
 30
0.0
 11
117.4786789319
 21
136.9040298555
 31
0.0
 12
117.4786789319
 22
135.4040298555
 32
0.0
 13
117.4786789319
 23
135.4040298555
 33
0.0
  0
SOLID
  5
10A
330
106
100
AcDbEntity
  8
0
  6
Continuous
 62
     7
370
    18
100
AcDbTrace
 10
132.4786789319
 20
136.1540298555
 30
0.0
 11
135.4786789319
 21
135.4040298555
 31
0.0
 12
135.4786789319
 22
136.9040298555
 32
0.0
 13
135.4786789319
 23
136.9040298555
 33
0.0
  0
LINE
  5
10B
330
106
100
AcDbEntity
  8
0
  6
Continuous
 62
     7
370
    18
100
AcDbLine
 10
120.4786789319
 20
145.1590298555
 30
0.0
 11
120.4786789319
 21
135.1540298555
 31
0.0
  0
LINE
  5
10C
330
106
100
AcDbEntity
  8
0
  6
Continuous
 62
     7
370
    18
100
AcDbLine
 10
132.4786789319
 20
148.6590298507
 30
0.0
 11
132.4786789319
 21
135.1540298555
 31
0.0
  0
LINE
  5
10D
330
106
100
AcDbEntity
  8
0
  6
Continuous
 62
     7
370
    18
100
AcDbLine
 10
120.4786789319
 20
136.1540298555
 30
0.0
 11
115.4786789319
 21
136.1540298555
 31
0.0
  0
LINE
  5
10E
330
106
100
AcDbEntity
  8
0
  6
Continuous
 62
     7
370
    18
100
AcDbLine
 10
120.4786789319
 20
136.1540298555
 30
0.0
 11
132.4786789319
 21
136.1540298555
 31
0.0
  0
LINE
  5
10F
330
106
100
AcDbEntity
  8
0
  6
Continuous
 62
     7
370
    18
100
AcDbLine
 10
132.4786789319
 20
136.1540298555
 30
0.0
 11
137.4786789319
 21
136.1540298555
 31
0.0
  0
MTEXT
  5
110
330
106
100
AcDbEntity
  8
0
  6
Continuous
 62
     7
370
    18
100
AcDbMText
 10
124.4418734344
 20
140.6657667118
 30
0.0
 40
3.5
 41
0.0
 71
     1
 72
     1
  1
12
  7
SLDTEXTSTYLE0
 73
     1
 44
1.0
  0
ENDBLK
  5
108
330
106
100
AcDbEntity
  8
0
100
AcDbBlockEnd
  0
BLOCK
  5
113
330
112
100
AcDbEntity
  8
0
100
AcDbBlockBegin
  2
_D_5
 70
     0
 10
0.0
 20
0.0
 30
0.0
  3
_D_5
  1

  0
SOLID
  5
115
330
112
100
AcDbEntity
  8
0
  6
Continuous
 62
     7
370
    18
100
AcDbTrace
 10
74.4786789319
 20
126.8168094363
 30
0.0
 11
77.4786789319
 21
126.0668094363
 31
0.0
 12
77.4786789319
 22
127.5668094363
 32
0.0
 13
77.4786789319
 23
127.5668094363
 33
0.0
  0
SOLID
  5
116
330
112
100
AcDbEntity
  8
0
  6
Continuous
 62
     7
370
    18
100
AcDbTrace
 10
132.4786789319
 20
126.8168094363
 30
0.0
 11
129.4786789319
 21
127.5668094363
 31
0.0
 12
129.4786789319
 22
126.0668094363
 32
0.0
 13
129.4786789319
 23
126.0668094363
 33
0.0
  0
LINE
  5
117
330
112
100
AcDbEntity
  8
0
  6
Continuous
 62
     7
370
    18
100
AcDbLine
 10
74.4786789319
 20
148.6590298507
 30
0.0
 11
74.4786789319
 21
125.8168094363
 31
0.0
  0
LINE
  5
118
330
112
100
AcDbEntity
  8
0
  6
Continuous
 62
     7
370
    18
100
AcDbLine
 10
132.4786789319
 20
148.6590298507
 30
0.0
 11
132.4786789319
 21
125.8168094363
 31
0.0
  0
LINE
  5
119
330
112
100
AcDbEntity
  8
0
  6
Continuous
 62
     7
370
    18
100
AcDbLine
 10
74.4786789319
 20
126.8168094363
 30
0.0
 11
132.4786789319
 21
126.8168094363
 31
0.0
  0
MTEXT
  5
11A
330
112
100
AcDbEntity
  8
0
  6
Continuous
 62
     7
370
    18
100
AcDbMText
 10
101.4418734344
 20
131.3285462926
 30
0.0
 40
3.5
 41
0.0
 71
     1
 72
     1
  1
58
  7
SLDTEXTSTYLE0
 73
     1
 44
1.0
  0
ENDBLK
  5
114
330
112
100
AcDbEntity
  8
0
100
AcDbBlockEnd
  0
BLOCK
  5
11C
330
11B
100
AcDbEntity
  8
0
100
AcDbBlockBegin
  2
SW_NOTE_0
 70
     0
 10
0.0
 20
0.0
 30
0.0
  3
SW_NOTE_0
  1

  0
LINE
  5
11E
330
11B
100
AcDbEntity
  8
0
  6
Continuous
 62
     0
370
     0
100
AcDbLine
 10
-8.2716000994
 20
0.0
 30
0.0
 11
0.0
 21
0.0
 31
0.0
  0
MTEXT
  5
11F
330
11B
100
AcDbEntity
  8
0
  6
Continuous
 62
     0
370
     0
100
AcDbMText
 10
-8.7081621922
 20
4.5973292977
 30
0.0
 40
3.5
 41
0.0
 71
     1
 72
     1
  1
Φ18
  7
SLDTEXTSTYLE0
 73
     1
 44
1.0
  0
ENDBLK
  5
11D
330
11B
100
AcDbEntity
  8
0
100
AcDbBlockEnd
  0
ENDSEC
  0
SECTION
  2
ENTITIES
  0
LINE
  5
73
330
1F
100
AcDbEntity
  8
0
  6
Continuous
 62
     7
370
    18
100
AcDbLine
 10
20.2604743903
 20
285.0
 30
0.0
 11
196.7604743903
 21
285.0
 31
0.0
  0
LINE
  5
74
330
1F
100
AcDbEntity
  8
0
  6
Continuous
 62
     7
370
    18
100
AcDbLine
 10
20.2604743903
 20
285.0
 30
0.0
 11
20.2604743903
 21
10.0
 31
0.0
  0
LINE
  5
75
330
1F
100
AcDbEntity
  8
0
  6
Continuous
 62
     7
370
    18
100
AcDbLine
 10
20.2604743903
 20
10.0
 30
0.0
 11
196.7604743903
 21
10.0
 31
0.0
  0
LINE
  5
76
330
1F
100
AcDbEntity
  8
0
  6
Continuous
 62
     7
370
    18
100
AcDbLine
 10
196.7604743903
 20
285.0
 30
0.0
 11
196.7604743903
 21
10.0
 31
0.0
  0
LINE
  5
77
330
1F
100
AcDbEntity
  8
0
  6
Continuous
 62
     7
370
    18
100
AcDbLine
 10
127.0104743903
 20
50.75
 30
0.0
 11
196.7604743903
 21
50.75
 31
0.0
  0
LINE
  5
78
330
1F
100
AcDbEntity
  8
0
  6
Continuous
 62
     7
370
    18
100
AcDbLine
 10
127.0104743903
 20
50.75
 30
0.0
 11
127.0104743903
 21
10.0
 31
0.0
  0
LINE
  5
79
330
1F
100
AcDbEntity
  8
0
  6
Continuous
 62
     7
370
    18
100
AcDbLine
 10
127.0104743903
 20
22.75
 30
0.0
 11
196.7604743903
 21
22.75
 31
0.0
  0
LINE
  5
7A
330
1F
100
AcDbEntity
  8
0
  6
Continuous
 62
     7
370
    18
100
AcDbLine
 10
127.0104743903
 20
36.75
 30
0.0
 11
196.7604743903
 21
36.75
 31
0.0
  0
MTEXT
  5
7C
330
1F
100
AcDbEntity
  8
0
  6
Continuous
 62
     7
370
     0
100
AcDbMText
 10
162.8218025887
 20
30.4171582345
 30
0.0
 40
4.2333333333
 41
0.0
 71
     2
 72
     1
  1
EVFL-66
  7
SLDTEXTSTYLE0
 73
     1
 44
1.0
  0
MTEXT
  5
7D
330
1F
100
AcDbEntity
  8
0
  6
Continuous
 62
     7
370
     0
100
AcDbMText
 10
161.5538607289
 20
43.9409718514
 30
0.0
 40
4.2333333333
 41
0.0
 71
     2
 72
     1
  1
小型フィルター
  7
SLDTEXTSTYLE0
 73
     1
 44
1.0
  0
MTEXT
  5
7E
330
1F
100
AcDbEntity
  8
0
  6
Continuous
 62
     7
370
     0
100
AcDbMText
 10
162.8975047403
 20
16.8228189052
 30
0.0
 40
4.2333333333
 41
0.0
 71
     2
 72
     1
  1
042037
  7
SLDTEXTSTYLE0
 73
     1
 44
1.0
  0
LINE
  5
7F
330
1F
100
AcDbEntity
  8
0
  6
Continuous
 62
     7
370
    18
100
AcDbLine
 10
130.9786787829
 20
149.6590297986
 30
0.0
 11
132.4786780975
 21
149.6590297986
 31
0.0
  0
LINE
  5
80
330
1F
100
AcDbEntity
  8
0
  6
Continuous
 62
     7
370
    18
100
AcDbLine
 10
132.4786780975
 20
161.6590299029
 30
0.0
 11
130.9786787829
 21
161.6590299029
 31
0.0
  0
LINE
  5
81
330
1F
100
AcDbEntity
  8
0
  6
Continuous
 62
     7
370
    18
100
AcDbLine
 10
129.4786794684
 20
152.1590297427
 30
0.0
 11
130.9786787829
 21
152.1590297427
 31
0.0
  0
LINE
  5
82
330
1F
100
AcDbEntity
  8
0
  6
Continuous
 62
     7
370
    18
100
AcDbLine
 10
130.9786787829
 20
159.1590299588
 30
0.0
 11
129.4786794684
 21
159.1590299588
 31
0.0
  0
LINE
  5
83
330
1F
100
AcDbEntity
  8
0
  6
Continuous
 62
     7
370
    18
100
AcDbLine
 10
127.9786782912
 20
149.6590297986
 30
0.0
 11
129.4786794684
 21
149.6590297986
 31
0.0
  0
LINE
  5
84
330
1F
100
AcDbEntity
  8
0
  6
Continuous
 62
     7
370
    18
100
AcDbLine
 10
129.4786794684
 20
161.6590299029
 30
0.0
 11
127.9786782912
 21
161.6590299029
 31
0.0
  0
LINE
  5
85
330
1F
100
AcDbEntity
  8
0
  6
Continuous
 62
     7
370
    18
100
AcDbLine
 10
126.9786781273
 20
149.1590297166
 30
0.0
 11
127.9786782912
 21
149.1590297166
 31
0.0
  0
LINE
  5
86
330
1F
100
AcDbEntity
  8
0
  6
Continuous
 62
     7
370
    18
100
AcDbLine
 10
127.9786782912
 20
162.1590299849
 30
0.0
 11
126.9786781273
 21
162.1590299849
 31
0.0
  0
LWPOLYLINE
  5
87
330
1F
100
AcDbEntity
  8
0
  6
Continuous
 62
     7
370
    18
100
AcDbPolyline
 90
        3
 70
   128
 43
0.0
 10
125.4786788127
 20
147.6590294708
 10
126.318679621
 20
148.4990298133
 10
126.9786781273
 20
149.1590297166
  0
LWPOLYLINE
  5
88
330
1F
100
AcDbEntity
  8
0
  6
Continuous
 62
     7
370
    18
100
AcDbPolyline
 90
        3
 70
   128
 43
0.0
 10
126.9786781273
 20
162.1590299849
 10
126.1386791817
 20
162.9990298618
 10
125.4786788127
 20
163.6590302307
  0
LINE
  5
89
330
1F
100
AcDbEntity
  8
0
  6
Continuous
 62
     7
370
    18
100
AcDbLine
 10
120.4786798558
 20
146.1590301562
 30
0.0
 11
125.4786788127
 21
146.1590301562
 31
0.0
  0
LINE
  5
8A
330
1F
100
AcDbEntity
  8
0
  6
Continuous
 62
     7
370
    18
100
AcDbLine
 10
125.4786788127
 20
165.1590295453
 30
0.0
 11
120.4786798558
 21
165.1590295453
 31
0.0
  0
LINE
  5
8B
330
1F
100
AcDbEntity
  8
0
  6
Continuous
 62
     7
370
    18
100
AcDbLine
 10
86.4786780081
 20
146.6590302382
 30
0.0
 11
120.4786798558
 21
146.6590302382
 31
0.0
  0
LINE
  5
8C
330
1F
100
AcDbEntity
  8
0
  6
Continuous
 62
     7
370
    18
100
AcDbLine
 10
120.4786798558
 20
164.6590294633
 30
0.0
 11
86.4786780081
 21
164.6590294633
 31
0.0
  0
LINE
  5
8D
330
1F
100
AcDbEntity
  8
0
  6
Continuous
 62
     7
370
    18
100
AcDbLine
 10
81.4786790511
 20
146.1590301562
 30
0.0
 11
86.4786780081
 21
146.1590301562
 31
0.0
  0
LINE
  5
8E
330
1F
100
AcDbEntity
  8
0
  6
Continuous
 62
     7
370
    18
100
AcDbLine
 10
86.4786780081
 20
165.1590295453
 30
0.0
 11
81.4786790511
 21
165.1590295453
 31
0.0
  0
LWPOLYLINE
  5
8F
330
1F
100
AcDbEntity
  8
0
  6
Continuous
 62
     7
370
    18
100
AcDbPolyline
 90
        3
 70
   128
 43
0.0
 10
81.4786790511
 20
163.6590302307
 10
80.6386782429
 20
162.8190298881
 10
79.9786797366
 20
162.1590299849
  0
LWPOLYLINE
  5
90
330
1F
100
AcDbEntity
  8
0
  6
Continuous
 62
     7
370
    18
100
AcDbPolyline
 90
        3
 70
   128
 43
0.0
 10
79.9786797366
 20
149.1590297166
 10
80.8186786822
 20
148.3190298397
 10
81.4786790511
 20
147.6590294708
  0
LINE
  5
91
330
1F
100
AcDbEntity
  8
0
  6
Continuous
 62
     7
370
    18
100
AcDbLine
 10
78.9786795727
 20
149.1590297166
 30
0.0
 11
79.9786797366
 21
149.1590297166
 31
0.0
  0
LINE
  5
92
330
1F
100
AcDbEntity
  8
0
  6
Continuous
 62
     7
370
    18
100
AcDbLine
 10
79.9786797366
 20
162.1590299849
 30
0.0
 11
78.9786795727
 21
162.1590299849
 31
0.0
  0
LINE
  5
93
330
1F
100
AcDbEntity
  8
0
  6
Continuous
 62
     7
370
    18
100
AcDbLine
 10
77.4786783955
 20
149.6590297986
 30
0.0
 11
78.9786795727
 21
149.6590297986
 31
0.0
  0
LINE
  5
94
330
1F
100
AcDbEntity
  8
0
  6
Continuous
 62
     7
370
    18
100
AcDbLine
 10
78.9786795727
 20
161.6590299029
 30
0.0
 11
77.4786783955
 21
161.6590299029
 31
0.0
  0
LINE
  5
95
330
1F
100
AcDbEntity
  8
0
  6
Continuous
 62
     7
370
    18
100
AcDbLine
 10
75.9786790809
 20
152.1590297427
 30
0.0
 11
77.4786783955
 21
152.1590297427
 31
0.0
  0
LINE
  5
96
330
1F
100
AcDbEntity
  8
0
  6
Continuous
 62
     7
370
    18
100
AcDbLine
 10
77.4786783955
 20
159.1590299588
 30
0.0
 11
75.9786790809
 21
159.1590299588
 31
0.0
  0
LINE
  5
97
330
1F
100
AcDbEntity
  8
0
  6
Continuous
 62
     7
370
    18
100
AcDbLine
 10
74.4786797664
 20
149.6590297986
 30
0.0
 11
75.9786790809
 21
149.6590297986
 31
0.0
  0
LINE
  5
98
330
1F
100
AcDbEntity
  8
0
  6
Continuous
 62
     7
370
    18
100
AcDbLine
 10
75.9786790809
 20
161.6590299029
 30
0.0
 11
74.4786797664
 21
161.6590299029
 31
0.0
  0
SPLINE
  5
99
330
1F
100
AcDbEntity
  8
0
  6
Continuous
 62
   144
370
    18
100
AcDbSpline
210
0.0
220
0.0
230
1.0
 70
    24
 71
     3
 72
    25
 73
    21
 74
     0
 42
0.000000001
 43
0.00000001
 40
0.0
 40
0.0
 40
0.0
 40
0.0
 40
0.0250529547012752
 40
0.0500478753409905
 40
0.0750234212569812
 40
0.1000183416871889
 40
0.1250712959704198
 40
0.1875858261821786
 40
0.2501003567404745
 40
0.312614887736353
 40
0.3751294184057042
 40
0.5000071476030015
 40
0.6248848768002988
 40
0.6873994074696499
 40
0.7499139384655286
 40
0.8124284690238244
 40
0.8749429992355832
 40
0.9166585443993363
 40
0.9582844542614402
 40
1.0
 40
1.0
 40
1.0
 40
1.0
 10
132.4786789319299
 20
155.6590298507462
 30
0.0
 10
132.4786789319299
 20
155.7376916759336
 30
0.0
 10
132.4786789319299
 20
155.8948331096693
 30
0.0
 10
132.4786789319299
 20
156.1300325764817
 30
0.0
 10
132.4786789319299
 20
156.3643215016114
 30
0.0
 10
132.4786789319299
 20
156.5977054165355
 30
0.0
 10
132.4786789319299
 20
156.9456595989555
 30
0.0
 10
132.4786789319299
 20
157.40360278405
 30
0.0
 10
132.4786789319299
 20
157.9587844705312
 30
0.0
 10
132.4786789319299
 20
158.4920420067761
 30
0.0
 10
132.4786789319299
 20
159.1658537500672
 30
0.0
 10
132.4786789319299
 20
159.9291185018782
 30
0.0
 10
132.4786789319299
 20
160.5551101771809
 30
0.0
 10
132.4786789319299
 20
160.9591508061235
 30
0.0
 10
132.4786789319299
 20
161.2111744259749
 30
0.0
 10
132.4786789319299
 20
161.4099937889237
 30
0.0
 10
132.4786789319299
 20
161.5373918640591
 30
0.0
 10
132.4786789319299
 20
161.6117138432529
 30
0.0
 10
132.4786789319299
 20
161.6516666556612
 30
0.0
 10
132.4786789319299
 20
161.6565736911863
 30
0.0
 10
132.4786789319299
 20
161.6590298477702
 30
0.0
  0
LINE
  5
9A
330
1F
100
AcDbEntity
  8
0
  6
Continuous
 62
   144
370
    18
100
AcDbLine
 10
132.4786780975
 20
149.6590297986
 30
0.0
 11
132.4786780975
 21
155.6590298507
 31
0.0
  0
SPLINE
  5
9B
330
1F
100
AcDbEntity
  8
0
  6
Continuous
 62
   144
370
    18
100
AcDbSpline
210
0.0
220
0.0
230
1.0
 70
    24
 71
     3
 72
    10
 73
     6
 74
     0
 42
0.000000001
 43
0.00000001
 40
0.0
 40
0.0
 40
0.0
 40
0.0
 40
0.5
 40
0.5
 40
1.0
 40
1.0
 40
1.0
 40
1.0
 10
132.4786789319299
 20
155.6590298496687
 30
0.0
 10
132.4786789319299
 20
154.0677759457152
 30
0.0
 10
132.4786789319299
 20
152.5415755888546
 30
0.0
 10
132.4786789319299
 20
150.2912027370597
 30
0.0
 10
132.4786789319299
 20
149.6590298505295
 30
0.0
 10
132.4786789319299
 20
149.6590298507462
 30
0.0
  0
LINE
  5
9C
330
1F
100
AcDbEntity
  8
0
  6
Continuous
 62
   144
370
    18
100
AcDbLine
 10
132.4786780975
 20
161.6590299029
 30
0.0
 11
132.4786780975
 21
155.6590298497
 31
0.0
  0
SPLINE
  5
9D
330
1F
100
AcDbEntity
  8
0
  6
Continuous
 62
   144
370
    18
100
AcDbSpline
210
0.0
220
0.0
230
1.0
 70
    24
 71
     3
 72
    10
 73
     6
 74
     0
 42
0.000000001
 43
0.00000001
 40
0.0
 40
0.0
 40
0.0
 40
0.0
 40
0.5
 40
0.5
 40
1.0
 40
1.0
 40
1.0
 40
1.0
 10
130.9786789319299
 20
155.6590298507462
 30
0.0
 10
130.9786789319299
 20
157.2502837546997
 30
0.0
 10
130.9786789319299
 20
158.7764841116739
 30
0.0
 10
130.9786789319299
 20
161.0268569638729
 30
0.0
 10
130.9786789319299
 20
161.6590298506771
 30
0.0
 10
130.9786789319299
 20
161.6590298507462
 30
0.0
  0
LINE
  5
9E
330
1F
100
AcDbEntity
  8
0
  6
Continuous
 62
   144
370
    18
100
AcDbLine
 10
130.9786787829
 20
149.6590297986
 30
0.0
 11
130.9786787829
 21
155.6590298507
 31
0.0
  0
SPLINE
  5
9F
330
1F
100
AcDbEntity
  8
0
  6
Continuous
 62
   144
370
    18
100
AcDbSpline
210
0.0
220
0.0
230
1.0
 70
    24
 71
     3
 72
    25
 73
    21
 74
     0
 42
0.000000001
 43
0.00000001
 40
0.0
 40
0.0
 40
0.0
 40
0.0
 40
0.0250529547012751
 40
0.0500478753409905
 40
0.075023421256981
 40
0.1000183416871889
 40
0.1250712959704198
 40
0.1875858261821789
 40
0.2501003567404746
 40
0.3126148877363531
 40
0.3751294184057043
 40
0.5000071476030015
 40
0.6248848768002987
 40
0.6873994074696498
 40
0.7499139384655282
 40
0.8124284690238243
 40
0.8749429992355832
 40
0.9166585443993365
 40
0.9582844542614403
 40
1.0
 40
1.0
 40
1.0
 40
1.0
 10
130.9786789319299
 20
155.6590298507462
 30
0.0
 10
130.9786789319299
 20
155.5803680255588
 30
0.0
 10
130.9786789319299
 20
155.4232265918231
 30
0.0
 10
130.9786789319299
 20
155.1880271250107
 30
0.0
 10
130.9786789319299
 20
154.953738199881
 30
0.0
 10
130.9786789319299
 20
154.720354284957
 30
0.0
 10
130.9786789319299
 20
154.3724001025369
 30
0.0
 10
130.9786789319299
 20
153.9144569174424
 30
0.0
 10
130.9786789319299
 20
153.3592752309611
 30
0.0
 10
130.9786789319299
 20
152.8260176947163
 30
0.0
 10
130.9786789319299
 20
152.1522059514252
 30
0.0
 10
130.9786789319299
 20
151.3889411996142
 30
0.0
 10
130.9786789319299
 20
150.7629495243116
 30
0.0
 10
130.9786789319299
 20
150.3589088953689
 30
0.0
 10
130.9786789319299
 20
150.1068852755175
 30
0.0
 10
130.9786789319299
 20
149.9080659125687
 30
0.0
 10
130.9786789319299
 20
149.7806678374333
 30
0.0
 10
130.9786789319299
 20
149.7063458582396
 30
0.0
 10
130.9786789319299
 20
149.6663930458312
 30
0.0
 10
130.9786789319299
 20
149.6614860103061
 30
0.0
 10
130.9786789319299
 20
149.6590298537222
 30
0.0
  0
LINE
  5
A0
330
1F
100
AcDbEntity
  8
0
  6
Continuous
 62
   144
370
    18
100
AcDbLine
 10
130.9786787829
 20
161.6590299029
 30
0.0
 11
130.9786787829
 21
155.6590298507
 31
0.0
  0
SPLINE
  5
A1
330
1F
100
AcDbEntity
  8
0
  6
Continuous
 62
   144
370
    18
100
AcDbSpline
210
0.0
220
0.0
230
1.0
 70
    24
 71
     3
 72
    25
 73
    21
 74
     0
 42
0.000000001
 43
0.00000001
 40
0.0
 40
0.0
 40
0.0
 40
0.0
 40
0.0250529547012752
 40
0.0500478753409905
 40
0.0750234212569812
 40
0.1000183416871889
 40
0.1250712959704198
 40
0.1875858261821786
 40
0.2501003567404745
 40
0.312614887736353
 40
0.3751294184057042
 40
0.5000071476030015
 40
0.6248848768002988
 40
0.6873994074696499
 40
0.7499139384655286
 40
0.8124284690238244
 40
0.8749429992355832
 40
0.9166585443993363
 40
0.9582844542614402
 40
1.0
 40
1.0
 40
1.0
 40
1.0
 10
129.4786789319299
 20
155.6590298507462
 30
0.0
 10
129.4786789319299
 20
155.7376916759336
 30
0.0
 10
129.4786789319299
 20
155.8948331096693
 30
0.0
 10
129.4786789319299
 20
156.1300325764817
 30
0.0
 10
129.4786789319299
 20
156.3643215016114
 30
0.0
 10
129.4786789319299
 20
156.5977054165355
 30
0.0
 10
129.4786789319299
 20
156.9456595989555
 30
0.0
 10
129.4786789319299
 20
157.40360278405
 30
0.0
 10
129.4786789319299
 20
157.9587844705312
 30
0.0
 10
129.4786789319299
 20
158.4920420067761
 30
0.0
 10
129.4786789319299
 20
159.1658537500672
 30
0.0
 10
129.4786789319299
 20
159.9291185018782
 30
0.0
 10
129.4786789319299
 20
160.5551101771809
 30
0.0
 10
129.4786789319299
 20
160.9591508061235
 30
0.0
 10
129.4786789319299
 20
161.2111744259749
 30
0.0
 10
129.4786789319299
 20
161.4099937889237
 30
0.0
 10
129.4786789319299
 20
161.5373918640591
 30
0.0
 10
129.4786789319299
 20
161.6117138432529
 30
0.0
 10
129.4786789319299
 20
161.6516666556612
 30
0.0
 10
129.4786789319299
 20
161.6565736911863
 30
0.0
 10
129.4786789319299
 20
161.6590298477702
 30
0.0
  0
LINE
  5
A2
330
1F
100
AcDbEntity
  8
0
  6
Continuous
 62
   144
370
    18
100
AcDbLine
 10
129.4786794684
 20
149.6590297986
 30
0.0
 11
129.4786794684
 21
155.6590298507
 31
0.0
  0
SPLINE
  5
A3
330
1F
100
AcDbEntity
  8
0
  6
Continuous
 62
   144
370
    18
100
AcDbSpline
210
0.0
220
0.0
230
1.0
 70
    24
 71
     3
 72
    10
 73
     6
 74
     0
 42
0.000000001
 43
0.00000001
 40
0.0
 40
0.0
 40
0.0
 40
0.0
 40
0.5
 40
0.5
 40
1.0
 40
1.0
 40
1.0
 40
1.0
 10
129.4786789319299
 20
155.6590298496687
 30
0.0
 10
129.4786789319299
 20
154.0677759457152
 30
0.0
 10
129.4786789319299
 20
152.5415755888546
 30
0.0
 10
129.4786789319299
 20
150.2912027370597
 30
0.0
 10
129.4786789319299
 20
149.6590298505295
 30
0.0
 10
129.4786789319299
 20
149.6590298507462
 30
0.0
  0
LINE
  5
A4
330
1F
100
AcDbEntity
  8
0
  6
Continuous
 62
   144
370
    18
100
AcDbLine
 10
129.4786794684
 20
161.6590299029
 30
0.0
 11
129.4786794684
 21
155.6590298497
 31
0.0
  0
SPLINE
  5
A5
330
1F
100
AcDbEntity
  8
0
  6
Continuous
 62
   144
370
    18
100
AcDbSpline
210
0.0
220
0.0
230
1.0
 70
    24
 71
     3
 72
    17
 73
    13
 74
     0
 42
0.000000001
 43
0.00000001
 40
0.0
 40
0.0
 40
0.0
 40
0.0
 40
0.0667798568853995
 40
0.1334050211857663
 40
0.1999785412272841
 40
0.2666037049691979
 40
0.3333835607402804
 40
0.5000190506686097
 40
0.6666545415206505
 40
0.7778493374058082
 40
0.8888052048877821
 40
1.0
 40
1.0
 40
1.0
 40
1.0
 10
127.9786789319299
 20
155.6590298507462
 30
0.0
 10
127.9786789319299
 20
155.7442468316275
 30
0.0
 10
127.9786789319299
 20
155.9144833920228
 30
0.0
 10
127.9786789319299
 20
156.1692827606505
 30
0.0
 10
127.9786789319299
 20
156.4230959669354
 30
0.0
 10
127.9786789319299
 20
156.6759277778371
 30
0.0
 10
127.9786789319299
 20
157.0528824241601
 30
0.0
 10
127.9786789319299
 20
157.5489460454485
 30
0.0
 10
127.9786789319299
 20
158.0838467659157
 30
0.0
 10
127.9786789319299
 20
158.535806093764
 30
0.0
 10
127.9786789319299
 20
158.9120751192227
 30
0.0
 10
127.9786789319299
 20
159.1507637131539
 30
0.0
 10
127.9786789319299
 20
159.2702363673782
 30
0.0
  0
LINE
  5
A6
330
1F
100
AcDbEntity
  8
0
  6
Continuous
 62
   144
370
    18
100
AcDbLine
 10
127.9786782912
 20
149.1590297166
 30
0.0
 11
127.9786782912
 21
155.6590298507
 31
0.0
  0
SPLINE
  5
A7
330
1F
100
AcDbEntity
  8
0
  6
Continuous
 62
   144
370
    18
100
AcDbSpline
210
0.0
220
0.0
230
1.0
 70
    24
 71
     3
 72
    10
 73
     6
 74
     0
 42
0.000000001
 43
0.00000001
 40
0.0
 40
0.0
 40
0.0
 40
0.0
 40
0.5
 40
0.5
 40
1.0
 40
1.0
 40
1.0
 40
1.0
 10
127.9786789319299
 20
155.6590298495789
 30
0.0
 10
127.9786789319299
 20
153.9351714536293
 30
0.0
 10
127.9786789319299
 20
152.2817877336969
 30
0.0
 10
127.9786789319299
 20
149.8438838109191
 30
0.0
 10
127.9786789319299
 20
149.1590298505115
 30
0.0
 10
127.9786789319299
 20
149.1590298507462
 30
0.0
  0
LINE
  5
A8
330
1F
100
AcDbEntity
  8
0
  6
Continuous
 62
   144
370
    18
100
AcDbLine
 10
127.9786782912
 20
162.1590299849
 30
0.0
 11
127.9786782912
 21
155.6590298496
 31
0.0
  0
SPLINE
  5
A9
330
1F
100
AcDbEntity
  8
0
  6
Continuous
 62
   144
370
    18
100
AcDbSpline
210
0.0
220
0.0
230
1.0
 70
    24
 71
     3
 72
    10
 73
     6
 74
     0
 42
0.000000001
 43
0.00000001
 40
0.0
 40
0.0
 40
0.0
 40
0.0
 40
0.5
 40
0.5
 40
1.0
 40
1.0
 40
1.0
 40
1.0
 10
126.9786789319299
 20
155.6590298507462
 30
0.0
 10
126.9786789319299
 20
157.3828882466958
 30
0.0
 10
126.9786789319299
 20
159.0362719667511
 30
0.0
 10
126.9786789319299
 20
161.4741758899668
 30
0.0
 10
126.9786789319299
 20
162.1590298506713
 30
0.0
 10
126.9786789319299
 20
162.1590298507462
 30
0.0
  0
LINE
  5
AA
330
1F
100
AcDbEntity
  8
0
  6
Continuous
 62
   144
370
    18
100
AcDbLine
 10
126.9786781273
 20
149.1590297166
 30
0.0
 11
126.9786781273
 21
155.6590298507
 31
0.0
  0
SPLINE
  5
AB
330
1F
100
AcDbEntity
  8
0
  6
Continuous
 62
   144
370
    18
100
AcDbSpline
210
0.0
220
0.0
230
1.0
 70
    24
 71
     3
 72
    10
 73
     6
 74
     0
 42
0.000000001
 43
0.00000001
 40
0.0
 40
0.0
 40
0.0
 40
0.0
 40
0.5
 40
0.5
 40
1.0
 40
1.0
 40
1.0
 40
1.0
 10
126.97867893193
 20
155.6590298495789
 30
0.0
 10
126.97867893193
 20
153.9351714536293
 30
0.0
 10
126.97867893193
 20
152.2817877336969
 30
0.0
 10
126.9786789319299
 20
149.8438838109191
 30
0.0
 10
126.9786789319299
 20
149.1590298505115
 30
0.0
 10
126.9786789319299
 20
149.1590298507462
 30
0.0
  0
LINE
  5
AC
330
1F
100
AcDbEntity
  8
0
  6
Continuous
 62
   144
370
    18
100
AcDbLine
 10
126.9786781273
 20
162.1590299849
 30
0.0
 11
126.9786781273
 21
155.6590298496
 31
0.0
  0
SPLINE
  5
AD
330
1F
100
AcDbEntity
  8
0
  6
Continuous
 62
   144
370
    18
100
AcDbSpline
210
0.0
220
0.0
230
1.0
 70
    24
 71
     3
 72
    26
 73
    22
 74
     0
 42
0.000000001
 43
0.00000001
 40
0.0
 40
0.0
 40
0.0
 40
0.0
 40
0.020882889354119
 40
0.0417210150794468
 40
0.0625367228553889
 40
0.0833524305585393
 40
0.1041905560657254
 40
0.1250734450570548
 40
0.1875878217144259
 40
0.2501021987183334
 40
0.3126165761598224
 40
0.3751309532747847
 40
0.5000083757350215
 40
0.6248857981952584
 40
0.6874001753102208
 40
0.7499145527517097
 40
0.8124289297556171
 40
0.8749433064129883
 40
0.9166587491108831
 40
0.9582845567272998
 40
1.0
 40
1.0
 40
1.0
 40
1.0
 10
125.4786789319299
 20
155.6590298507462
 30
0.0
 10
125.4786789319299
 20
155.7628449565607
 30
0.0
 10
125.4786789319299
 20
155.9702526347664
 30
0.0
 10
125.4786789319299
 20
156.2808107257939
 30
0.0
 10
125.4786789319299
 20
156.5903704239203
 30
0.0
 10
125.4786789319299
 20
156.8989284299765
 30
0.0
 10
125.4786789319299
 20
157.2064922845042
 30
0.0
 10
125.4786789319299
 20
157.7163294704956
 30
0.0
 10
125.4786789319299
 20
158.4212741813431
 30
0.0
 10
125.4786789319299
 20
159.3003069680034
 30
0.0
 10
125.4786789319299
 20
160.1446327012041
 30
0.0
 10
125.4786789319299
 20
161.2115008688058
 30
0.0
 10
125.4786789319299
 20
162.4200036025492
 30
0.0
 10
125.4786789319299
 20
163.4111570275355
 30
0.0
 10
125.4786789319299
 20
164.0508880313626
 30
0.0
 10
125.4786789319299
 20
164.4499254278513
 30
0.0
 10
125.4786789319299
 20
164.764722752953
 30
0.0
 10
125.4786789319299
 20
164.9664363718092
 30
0.0
 10
125.4786789319299
 20
165.0841128388852
 30
0.0
 10
125.4786789319299
 20
165.1473714585274
 30
0.0
 10
125.4786789319299
 20
165.1551409314427
 30
0.0
 10
125.4786789319299
 20
165.1590298460342
 30
0.0
  0
LINE
  5
AE
330
1F
100
AcDbEntity
  8
0
  6
Continuous
 62
   144
370
    18
100
AcDbLine
 10
125.4786788127
 20
146.1590301562
 30
0.0
 11
125.4786788127
 21
155.6590298507
 31
0.0
  0
SPLINE
  5
AF
330
1F
100
AcDbEntity
  8
0
  6
Continuous
 62
   144
370
    18
100
AcDbSpline
210
0.0
220
0.0
230
1.0
 70
    24
 71
     3
 72
    10
 73
     6
 74
     0
 42
0.000000001
 43
0.00000001
 40
0.0
 40
0.0
 40
0.0
 40
0.0
 40
0.5
 40
0.5
 40
1.0
 40
1.0
 40
1.0
 40
1.0
 10
125.4786789319299
 20
155.6590298490401
 30
0.0
 10
125.4786789319299
 20
153.1395445011138
 30
0.0
 10
125.4786789319299
 20
150.7230606027511
 30
0.0
 10
125.4786789319299
 20
147.1599702540759
 30
0.0
 10
125.4786789319299
 20
146.1590298504031
 30
0.0
 10
125.4786789319299
 20
146.1590298507462
 30
0.0
  0
LINE
  5
B0
330
1F
100
AcDbEntity
  8
0
  6
Continuous
 62
   144
370
    18
100
AcDbLine
 10
125.4786788127
 20
165.1590295453
 30
0.0
 11
125.4786788127
 21
155.659029849
 31
0.0
  0
SPLINE
  5
B1
330
1F
100
AcDbEntity
  8
0
  6
Continuous
 62
   144
370
    18
100
AcDbSpline
210
0.0
220
0.0
230
1.0
 70
    24
 71
     3
 72
    10
 73
     6
 74
     0
 42
0.000000001
 43
0.00000001
 40
0.0
 40
0.0
 40
0.0
 40
0.0
 40
0.5
 40
0.5
 40
1.0
 40
1.0
 40
1.0
 40
1.0
 10
120.4786789319299
 20
155.6590298507462
 30
0.0
 10
120.4786789319299
 20
158.1785151986726
 30
0.0
 10
120.4786789319299
 20
160.594999097215
 30
0.0
 10
120.4786789319299
 20
164.1580894465301
 30
0.0
 10
120.4786789319299
 20
165.1590298506368
 30
0.0
 10
120.4786789319299
 20
165.1590298507462
 30
0.0
  0
LINE
  5
B2
330
1F
100
AcDbEntity
  8
0
  6
Continuous
 62
   144
370
    18
100
AcDbLine
 10
120.4786798558
 20
146.1590301562
 30
0.0
 11
120.4786798558
 21
155.6590298507
 31
0.0
  0
SPLINE
  5
B3
330
1F
100
AcDbEntity
  8
0
  6
Continuous
 62
   144
370
    18
100
AcDbSpline
210
0.0
220
0.0
230
1.0
 70
    24
 71
     3
 72
    26
 73
    22
 74
     0
 42
0.000000001
 43
0.00000001
 40
0.0
 40
0.0
 40
0.0
 40
0.0
 40
0.020882889354119
 40
0.0417210150794465
 40
0.0625367228553891
 40
0.0833524305585393
 40
0.1041905560657254
 40
0.1250734450570548
 40
0.1875878217144263
 40
0.2501021987183335
 40
0.3126165761598226
 40
0.3751309532747848
 40
0.5000083757350215
 40
0.6248857981952584
 40
0.6874001753102207
 40
0.7499145527517097
 40
0.8124289297556171
 40
0.8749433064129885
 40
0.9166587491108833
 40
0.9582845567273001
 40
1.0
 40
1.0
 40
1.0
 40
1.0
 10
120.4786789319299
 20
155.6590298507462
 30
0.0
 10
120.4786789319299
 20
155.5552147449317
 30
0.0
 10
120.4786789319299
 20
155.347807066726
 30
0.0
 10
120.4786789319299
 20
155.0372489756985
 30
0.0
 10
120.4786789319299
 20
154.7276892775721
 30
0.0
 10
120.4786789319299
 20
154.4191312715159
 30
0.0
 10
120.4786789319299
 20
154.1115674169882
 30
0.0
 10
120.4786789319299
 20
153.6017302309968
 30
0.0
 10
120.4786789319299
 20
152.8967855201493
 30
0.0
 10
120.4786789319299
 20
152.017752733489
 30
0.0
 10
120.4786789319299
 20
151.1734270002883
 30
0.0
 10
120.4786789319299
 20
150.1065588326866
 30
0.0
 10
120.4786789319299
 20
148.8980560989432
 30
0.0
 10
120.4786789319299
 20
147.9069026739569
 30
0.0
 10
120.4786789319299
 20
147.2671716701298
 30
0.0
 10
120.4786789319299
 20
146.8681342736411
 30
0.0
 10
120.4786789319299
 20
146.5533369485394
 30
0.0
 10
120.4786789319299
 20
146.3516233296832
 30
0.0
 10
120.4786789319299
 20
146.2339468626072
 30
0.0
 10
120.4786789319299
 20
146.170688242965
 30
0.0
 10
120.4786789319299
 20
146.1629187700497
 30
0.0
 10
120.4786789319299
 20
146.1590298554582
 30
0.0
  0
LINE
  5
B4
330
1F
100
AcDbEntity
  8
0
  6
Continuous
 62
   144
370
    18
100
AcDbLine
 10
120.4786798558
 20
165.1590295453
 30
0.0
 11
120.4786798558
 21
155.6590298507
 31
0.0
  0
SPLINE
  5
B5
330
1F
100
AcDbEntity
  8
0
  6
Continuous
 62
   144
370
    18
100
AcDbSpline
210
0.0
220
0.0
230
1.0
 70
    24
 71
     3
 72
    26
 73
    22
 74
     0
 42
0.000000001
 43
0.00000001
 40
0.0
 40
0.0
 40
0.0
 40
0.0
 40
0.020882889354119
 40
0.0417210150794468
 40
0.0625367228553889
 40
0.0833524305585393
 40
0.1041905560657254
 40
0.1250734450570548
 40
0.1875878217144259
 40
0.2501021987183334
 40
0.3126165761598224
 40
0.3751309532747847
 40
0.5000083757350215
 40
0.6248857981952584
 40
0.6874001753102208
 40
0.7499145527517097
 40
0.8124289297556171
 40
0.8749433064129883
 40
0.9166587491108831
 40
0.9582845567272998
 40
1.0
 40
1.0
 40
1.0
 40
1.0
 10
86.4786789319299
 20
155.6590298507462
 30
0.0
 10
86.4786789319299
 20
155.7628449565607
 30
0.0
 10
86.4786789319299
 20
155.9702526347664
 30
0.0
 10
86.4786789319299
 20
156.2808107257939
 30
0.0
 10
86.4786789319299
 20
156.5903704239203
 30
0.0
 10
86.4786789319299
 20
156.8989284299765
 30
0.0
 10
86.4786789319299
 20
157.2064922845042
 30
0.0
 10
86.47867893192992
 20
157.7163294704956
 30
0.0
 10
86.4786789319299
 20
158.4212741813431
 30
0.0
 10
86.4786789319299
 20
159.3003069680034
 30
0.0
 10
86.4786789319299
 20
160.1446327012041
 30
0.0
 10
86.47867893192992
 20
161.2115008688058
 30
0.0
 10
86.4786789319299
 20
162.4200036025492
 30
0.0
 10
86.4786789319299
 20
163.4111570275355
 30
0.0
 10
86.4786789319299
 20
164.0508880313626
 30
0.0
 10
86.4786789319299
 20
164.4499254278513
 30
0.0
 10
86.4786789319299
 20
164.764722752953
 30
0.0
 10
86.4786789319299
 20
164.9664363718092
 30
0.0
 10
86.4786789319299
 20
165.0841128388852
 30
0.0
 10
86.4786789319299
 20
165.1473714585274
 30
0.0
 10
86.4786789319299
 20
165.1551409314427
 30
0.0
 10
86.4786789319299
 20
165.1590298460342
 30
0.0
  0
LINE
  5
B6
330
1F
100
AcDbEntity
  8
0
  6
Continuous
 62
   144
370
    18
100
AcDbLine
 10
86.4786780081
 20
146.1590301562
 30
0.0
 11
86.4786780081
 21
155.6590298507
 31
0.0
  0
SPLINE
  5
B7
330
1F
100
AcDbEntity
  8
0
  6
Continuous
 62
   144
370
    18
100
AcDbSpline
210
0.0
220
0.0
230
1.0
 70
    24
 71
     3
 72
    10
 73
     6
 74
     0
 42
0.000000001
 43
0.00000001
 40
0.0
 40
0.0
 40
0.0
 40
0.0
 40
0.5
 40
0.5
 40
1.0
 40
1.0
 40
1.0
 40
1.0
 10
86.4786789319299
 20
155.6590298490401
 30
0.0
 10
86.4786789319299
 20
153.1395445011138
 30
0.0
 10
86.4786789319299
 20
150.7230606027511
 30
0.0
 10
86.4786789319299
 20
147.1599702540759
 30
0.0
 10
86.4786789319299
 20
146.1590298504031
 30
0.0
 10
86.4786789319299
 20
146.1590298507462
 30
0.0
  0
LINE
  5
B8
330
1F
100
AcDbEntity
  8
0
  6
Continuous
 62
   144
370
    18
100
AcDbLine
 10
86.4786780081
 20
165.1590295453
 30
0.0
 11
86.4786780081
 21
155.659029849
 31
0.0
  0
SPLINE
  5
B9
330
1F
100
AcDbEntity
  8
0
  6
Continuous
 62
   144
370
    18
100
AcDbSpline
210
0.0
220
0.0
230
1.0
 70
    24
 71
     3
 72
    10
 73
     6
 74
     0
 42
0.000000001
 43
0.00000001
 40
0.0
 40
0.0
 40
0.0
 40
0.0
 40
0.5
 40
0.5
 40
1.0
 40
1.0
 40
1.0
 40
1.0
 10
81.47867893192992
 20
155.6590298507462
 30
0.0
 10
81.47867893192992
 20
158.1785151986726
 30
0.0
 10
81.47867893192992
 20
160.594999097215
 30
0.0
 10
81.47867893192992
 20
164.1580894465301
 30
0.0
 10
81.47867893192992
 20
165.1590298506368
 30
0.0
 10
81.47867893192992
 20
165.1590298507462
 30
0.0
  0
LINE
  5
BA
330
1F
100
AcDbEntity
  8
0
  6
Continuous
 62
   144
370
    18
100
AcDbLine
 10
81.4786790511
 20
146.1590301562
 30
0.0
 11
81.4786790511
 21
155.6590298507
 31
0.0
  0
SPLINE
  5
BB
330
1F
100
AcDbEntity
  8
0
  6
Continuous
 62
   144
370
    18
100
AcDbSpline
210
0.0
220
0.0
230
1.0
 70
    24
 71
     3
 72
    26
 73
    22
 74
     0
 42
0.000000001
 43
0.00000001
 40
0.0
 40
0.0
 40
0.0
 40
0.0
 40
0.020882889354119
 40
0.0417210150794465
 40
0.0625367228553891
 40
0.0833524305585393
 40
0.1041905560657254
 40
0.1250734450570548
 40
0.1875878217144263
 40
0.2501021987183335
 40
0.3126165761598226
 40
0.3751309532747848
 40
0.5000083757350215
 40
0.6248857981952584
 40
0.6874001753102207
 40
0.7499145527517097
 40
0.8124289297556171
 40
0.8749433064129885
 40
0.9166587491108833
 40
0.9582845567273001
 40
1.0
 40
1.0
 40
1.0
 40
1.0
 10
81.47867893192992
 20
155.6590298507462
 30
0.0
 10
81.47867893192992
 20
155.5552147449317
 30
0.0
 10
81.47867893192992
 20
155.347807066726
 30
0.0
 10
81.4786789319299
 20
155.0372489756985
 30
0.0
 10
81.47867893192992
 20
154.7276892775721
 30
0.0
 10
81.4786789319299
 20
154.4191312715159
 30
0.0
 10
81.4786789319299
 20
154.1115674169882
 30
0.0
 10
81.47867893192992
 20
153.6017302309968
 30
0.0
 10
81.47867893192992
 20
152.8967855201493
 30
0.0
 10
81.4786789319299
 20
152.017752733489
 30
0.0
 10
81.4786789319299
 20
151.1734270002883
 30
0.0
 10
81.47867893192992
 20
150.1065588326866
 30
0.0
 10
81.4786789319299
 20
148.8980560989432
 30
0.0
 10
81.4786789319299
 20
147.9069026739569
 30
0.0
 10
81.47867893192992
 20
147.2671716701298
 30
0.0
 10
81.47867893192992
 20
146.8681342736411
 30
0.0
 10
81.47867893192992
 20
146.5533369485394
 30
0.0
 10
81.4786789319299
 20
146.3516233296832
 30
0.0
 10
81.47867893192992
 20
146.2339468626072
 30
0.0
 10
81.47867893192992
 20
146.170688242965
 30
0.0
 10
81.47867893192992
 20
146.1629187700497
 30
0.0
 10
81.47867893192992
 20
146.1590298554582
 30
0.0
  0
LINE
  5
BC
330
1F
100
AcDbEntity
  8
0
  6
Continuous
 62
   144
370
    18
100
AcDbLine
 10
81.4786790511
 20
165.1590295453
 30
0.0
 11
81.4786790511
 21
155.6590298507
 31
0.0
  0
SPLINE
  5
BD
330
1F
100
AcDbEntity
  8
0
  6
Continuous
 62
   144
370
    18
100
AcDbSpline
210
0.0
220
0.0
230
1.0
 70
    24
 71
     3
 72
    10
 73
     6
 74
     0
 42
0.000000001
 43
0.00000001
 40
0.0
 40
0.0
 40
0.0
 40
0.0
 40
0.5
 40
0.5
 40
1.0
 40
1.0
 40
1.0
 40
1.0
 10
79.97867893192995
 20
155.6590298507462
 30
0.0
 10
79.97867893192993
 20
157.3828882467461
 30
0.0
 10
79.97867893192993
 20
159.036271966817
 30
0.0
 10
79.97867893192992
 20
161.4741758900613
 30
0.0
 10
79.97867893192992
 20
162.1590298507315
 30
0.0
 10
79.97867893192992
 20
162.1590298507462
 30
0.0
  0
LINE
  5
BE
330
1F
100
AcDbEntity
  8
0
  6
Continuous
 62
   144
370
    18
100
AcDbLine
 10
79.9786797366
 20
149.1590297166
 30
0.0
 11
79.9786797366
 21
155.6590298507
 31
0.0
  0
SPLINE
  5
BF
330
1F
100
AcDbEntity
  8
0
  6
Continuous
 62
   144
370
    18
100
AcDbSpline
210
0.0
220
0.0
230
1.0
 70
    24
 71
     3
 72
    10
 73
     6
 74
     0
 42
0.000000001
 43
0.00000001
 40
0.0
 40
0.0
 40
0.0
 40
0.0
 40
0.5
 40
0.5
 40
1.0
 40
1.0
 40
1.0
 40
1.0
 10
79.97867893192992
 20
155.6590298495789
 30
0.0
 10
79.97867893192992
 20
153.9351714536293
 30
0.0
 10
79.97867893192992
 20
152.2817877336969
 30
0.0
 10
79.97867893192992
 20
149.8438838109191
 30
0.0
 10
79.97867893192992
 20
149.1590298505115
 30
0.0
 10
79.97867893192992
 20
149.1590298507462
 30
0.0
  0
LINE
  5
C0
330
1F
100
AcDbEntity
  8
0
  6
Continuous
 62
   144
370
    18
100
AcDbLine
 10
79.9786797366
 20
162.1590299849
 30
0.0
 11
79.9786797366
 21
155.6590298496
 31
0.0
  0
SPLINE
  5
C1
330
1F
100
AcDbEntity
  8
0
  6
Continuous
 62
   144
370
    18
100
AcDbSpline
210
0.0
220
0.0
230
1.0
 70
    24
 71
     3
 72
    10
 73
     6
 74
     0
 42
0.000000001
 43
0.00000001
 40
0.0
 40
0.0
 40
0.0
 40
0.0
 40
0.5
 40
0.5
 40
1.0
 40
1.0
 40
1.0
 40
1.0
 10
78.97867893192992
 20
155.6590298507462
 30
0.0
 10
78.97867893192992
 20
157.3828882466958
 30
0.0
 10
78.97867893192992
 20
159.0362719667511
 30
0.0
 10
78.97867893192992
 20
161.4741758899668
 30
0.0
 10
78.97867893192992
 20
162.1590298506713
 30
0.0
 10
78.97867893192992
 20
162.1590298507462
 30
0.0
  0
LINE
  5
C2
330
1F
100
AcDbEntity
  8
0
  6
Continuous
 62
   144
370
    18
100
AcDbLine
 10
78.9786795727
 20
149.1590297166
 30
0.0
 11
78.9786795727
 21
155.6590298507
 31
0.0
  0
SPLINE
  5
C3
330
1F
100
AcDbEntity
  8
0
  6
Continuous
 62
   144
370
    18
100
AcDbSpline
210
0.0
220
0.0
230
1.0
 70
    24
 71
     3
 72
    17
 73
    13
 74
     0
 42
0.000000001
 43
0.00000001
 40
0.0
 40
0.0
 40
0.0
 40
0.0
 40
0.0667798568853992
 40
0.1334050211857663
 40
0.1999785412272836
 40
0.2666037049691983
 40
0.3333835607402804
 40
0.5000190506686105
 40
0.6666545415206508
 40
0.7778493374058085
 40
0.8888052048877825
 40
1.0
 40
1.0
 40
1.0
 40
1.0
 10
78.97867893192992
 20
155.6590298507462
 30
0.0
 10
78.97867893192992
 20
155.5738128698649
 30
0.0
 10
78.9786789319299
 20
155.4035763094696
 30
0.0
 10
78.97867893192992
 20
155.1487769408419
 30
0.0
 10
78.9786789319299
 20
154.894963734557
 30
0.0
 10
78.97867893192992
 20
154.6421319236553
 30
0.0
 10
78.9786789319299
 20
154.2651772773323
 30
0.0
 10
78.97867893192992
 20
153.7691136560439
 30
0.0
 10
78.9786789319299
 20
153.2342129355767
 30
0.0
 10
78.97867893192992
 20
152.7822536077284
 30
0.0
 10
78.97867893192992
 20
152.4059845822697
 30
0.0
 10
78.9786789319299
 20
152.1672959883385
 30
0.0
 10
78.97867893192992
 20
152.0478233341142
 30
0.0
  0
LINE
  5
C4
330
1F
100
AcDbEntity
  8
0
  6
Continuous
 62
   144
370
    18
100
AcDbLine
 10
78.9786795727
 20
162.1590299849
 30
0.0
 11
78.9786795727
 21
155.6590298507
 31
0.0
  0
SPLINE
  5
C5
330
1F
100
AcDbEntity
  8
0
  6
Continuous
 62
   144
370
    18
100
AcDbSpline
210
0.0
220
0.0
230
1.0
 70
    24
 71
     3
 72
    10
 73
     6
 74
     0
 42
0.000000001
 43
0.00000001
 40
0.0
 40
0.0
 40
0.0
 40
0.0
 40
0.5
 40
0.5
 40
1.0
 40
1.0
 40
1.0
 40
1.0
 10
77.47867893192992
 20
155.6590298507462
 30
0.0
 10
77.47867893192992
 20
157.2502837546997
 30
0.0
 10
77.47867893192992
 20
158.7764841116739
 30
0.0
 10
77.47867893192992
 20
161.0268569638729
 30
0.0
 10
77.47867893192992
 20
161.6590298506771
 30
0.0
 10
77.47867893192992
 20
161.6590298507462
 30
0.0
  0
LINE
  5
C6
330
1F
100
AcDbEntity
  8
0
  6
Continuous
 62
   144
370
    18
100
AcDbLine
 10
77.4786783955
 20
149.6590297986
 30
0.0
 11
77.4786783955
 21
155.6590298507
 31
0.0
  0
SPLINE
  5
C7
330
1F
100
AcDbEntity
  8
0
  6
Continuous
 62
   144
370
    18
100
AcDbSpline
210
0.0
220
0.0
230
1.0
 70
    24
 71
     3
 72
    25
 73
    21
 74
     0
 42
0.000000001
 43
0.00000001
 40
0.0
 40
0.0
 40
0.0
 40
0.0
 40
0.0250529547012751
 40
0.0500478753409905
 40
0.075023421256981
 40
0.1000183416871889
 40
0.1250712959704198
 40
0.1875858261821789
 40
0.2501003567404746
 40
0.3126148877363531
 40
0.3751294184057043
 40
0.5000071476030015
 40
0.6248848768002987
 40
0.6873994074696498
 40
0.7499139384655282
 40
0.8124284690238243
 40
0.8749429992355832
 40
0.9166585443993365
 40
0.9582844542614403
 40
1.0
 40
1.0
 40
1.0
 40
1.0
 10
77.47867893192992
 20
155.6590298507462
 30
0.0
 10
77.47867893192992
 20
155.5803680255588
 30
0.0
 10
77.47867893192992
 20
155.4232265918231
 30
0.0
 10
77.47867893192992
 20
155.1880271250107
 30
0.0
 10
77.47867893192992
 20
154.953738199881
 30
0.0
 10
77.4786789319299
 20
154.720354284957
 30
0.0
 10
77.47867893192992
 20
154.3724001025369
 30
0.0
 10
77.47867893192992
 20
153.9144569174424
 30
0.0
 10
77.47867893192992
 20
153.3592752309611
 30
0.0
 10
77.47867893192992
 20
152.8260176947163
 30
0.0
 10
77.4786789319299
 20
152.1522059514252
 30
0.0
 10
77.47867893192992
 20
151.3889411996142
 30
0.0
 10
77.4786789319299
 20
150.7629495243116
 30
0.0
 10
77.47867893192992
 20
150.3589088953689
 30
0.0
 10
77.47867893192992
 20
150.1068852755175
 30
0.0
 10
77.47867893192992
 20
149.9080659125687
 30
0.0
 10
77.47867893192992
 20
149.7806678374333
 30
0.0
 10
77.4786789319299
 20
149.7063458582396
 30
0.0
 10
77.47867893192992
 20
149.6663930458312
 30
0.0
 10
77.47867893192992
 20
149.6614860103061
 30
0.0
 10
77.47867893192992
 20
149.6590298537222
 30
0.0
  0
LINE
  5
C8
330
1F
100
AcDbEntity
  8
0
  6
Continuous
 62
   144
370
    18
100
AcDbLine
 10
77.4786783955
 20
161.6590299029
 30
0.0
 11
77.4786783955
 21
155.6590298507
 31
0.0
  0
SPLINE
  5
C9
330
1F
100
AcDbEntity
  8
0
  6
Continuous
 62
   144
370
    18
100
AcDbSpline
210
0.0
220
0.0
230
1.0
 70
    24
 71
     3
 72
    25
 73
    21
 74
     0
 42
0.000000001
 43
0.00000001
 40
0.0
 40
0.0
 40
0.0
 40
0.0
 40
0.0250529547012752
 40
0.0500478753409905
 40
0.0750234212569812
 40
0.1000183416871889
 40
0.1250712959704198
 40
0.1875858261821786
 40
0.2501003567404745
 40
0.312614887736353
 40
0.3751294184057042
 40
0.5000071476030015
 40
0.6248848768002988
 40
0.6873994074696499
 40
0.7499139384655286
 40
0.8124284690238244
 40
0.8749429992355832
 40
0.9166585443993363
 40
0.9582844542614402
 40
1.0
 40
1.0
 40
1.0
 40
1.0
 10
75.97867893192992
 20
155.6590298507462
 30
0.0
 10
75.97867893192992
 20
155.7376916759336
 30
0.0
 10
75.97867893192992
 20
155.8948331096693
 30
0.0
 10
75.97867893192989
 20
156.1300325764817
 30
0.0
 10
75.97867893192993
 20
156.3643215016114
 30
0.0
 10
75.9786789319299
 20
156.5977054165355
 30
0.0
 10
75.97867893192992
 20
156.9456595989555
 30
0.0
 10
75.97867893192989
 20
157.40360278405
 30
0.0
 10
75.97867893192992
 20
157.9587844705312
 30
0.0
 10
75.97867893192992
 20
158.4920420067761
 30
0.0
 10
75.9786789319299
 20
159.1658537500672
 30
0.0
 10
75.97867893192992
 20
159.9291185018782
 30
0.0
 10
75.9786789319299
 20
160.5551101771809
 30
0.0
 10
75.97867893192992
 20
160.9591508061235
 30
0.0
 10
75.97867893192992
 20
161.2111744259749
 30
0.0
 10
75.9786789319299
 20
161.4099937889237
 30
0.0
 10
75.97867893192992
 20
161.5373918640591
 30
0.0
 10
75.97867893192992
 20
161.6117138432529
 30
0.0
 10
75.97867893192992
 20
161.6516666556612
 30
0.0
 10
75.97867893192992
 20
161.6565736911863
 30
0.0
 10
75.97867893192992
 20
161.6590298477702
 30
0.0
  0
LINE
  5
CA
330
1F
100
AcDbEntity
  8
0
  6
Continuous
 62
   144
370
    18
100
AcDbLine
 10
75.9786790809
 20
149.6590297986
 30
0.0
 11
75.9786790809
 21
155.6590298507
 31
0.0
  0
SPLINE
  5
CB
330
1F
100
AcDbEntity
  8
0
  6
Continuous
 62
   144
370
    18
100
AcDbSpline
210
0.0
220
0.0
230
1.0
 70
    24
 71
     3
 72
    10
 73
     6
 74
     0
 42
0.000000001
 43
0.00000001
 40
0.0
 40
0.0
 40
0.0
 40
0.0
 40
0.5
 40
0.5
 40
1.0
 40
1.0
 40
1.0
 40
1.0
 10
75.97867893192992
 20
155.6590298496687
 30
0.0
 10
75.97867893192992
 20
154.0677759457152
 30
0.0
 10
75.97867893192992
 20
152.5415755888546
 30
0.0
 10
75.97867893192992
 20
150.2912027370597
 30
0.0
 10
75.97867893192992
 20
149.6590298505295
 30
0.0
 10
75.97867893192992
 20
149.6590298507462
 30
0.0
  0
LINE
  5
CC
330
1F
100
AcDbEntity
  8
0
  6
Continuous
 62
   144
370
    18
100
AcDbLine
 10
75.9786790809
 20
161.6590299029
 30
0.0
 11
75.9786790809
 21
155.6590298497
 31
0.0
  0
SPLINE
  5
CD
330
1F
100
AcDbEntity
  8
0
  6
Continuous
 62
   144
370
    18
100
AcDbSpline
210
0.0
220
0.0
230
1.0
 70
    24
 71
     3
 72
    10
 73
     6
 74
     0
 42
0.000000001
 43
0.00000001
 40
0.0
 40
0.0
 40
0.0
 40
0.0
 40
0.5
 40
0.5
 40
1.0
 40
1.0
 40
1.0
 40
1.0
 10
74.47867893192992
 20
155.6590298507462
 30
0.0
 10
74.47867893192992
 20
157.2502837546997
 30
0.0
 10
74.47867893192992
 20
158.7764841116739
 30
0.0
 10
74.47867893192992
 20
161.0268569638729
 30
0.0
 10
74.47867893192992
 20
161.6590298506771
 30
0.0
 10
74.47867893192992
 20
161.6590298507462
 30
0.0
  0
LINE
  5
CE
330
1F
100
AcDbEntity
  8
0
  6
Continuous
 62
   144
370
    18
100
AcDbLine
 10
74.4786797664
 20
149.6590297986
 30
0.0
 11
74.4786797664
 21
155.6590298507
 31
0.0
  0
SPLINE
  5
CF
330
1F
100
AcDbEntity
  8
0
  6
Continuous
 62
   144
370
    18
100
AcDbSpline
210
0.0
220
0.0
230
1.0
 70
    24
 71
     3
 72
    25
 73
    21
 74
     0
 42
0.000000001
 43
0.00000001
 40
0.0
 40
0.0
 40
0.0
 40
0.0
 40
0.0250529547012751
 40
0.0500478753409905
 40
0.075023421256981
 40
0.1000183416871889
 40
0.1250712959704198
 40
0.1875858261821789
 40
0.2501003567404746
 40
0.3126148877363531
 40
0.3751294184057043
 40
0.5000071476030015
 40
0.6248848768002987
 40
0.6873994074696498
 40
0.7499139384655282
 40
0.8124284690238243
 40
0.8749429992355832
 40
0.9166585443993365
 40
0.9582844542614403
 40
1.0
 40
1.0
 40
1.0
 40
1.0
 10
74.47867893192992
 20
155.6590298507462
 30
0.0
 10
74.47867893192992
 20
155.5803680255588
 30
0.0
 10
74.47867893192993
 20
155.4232265918231
 30
0.0
 10
74.47867893192992
 20
155.1880271250107
 30
0.0
 10
74.47867893192992
 20
154.953738199881
 30
0.0
 10
74.47867893192992
 20
154.720354284957
 30
0.0
 10
74.4786789319299
 20
154.3724001025369
 30
0.0
 10
74.4786789319299
 20
153.9144569174424
 30
0.0
 10
74.4786789319299
 20
153.3592752309611
 30
0.0
 10
74.47867893192992
 20
152.8260176947163
 30
0.0
 10
74.47867893192992
 20
152.1522059514252
 30
0.0
 10
74.47867893192992
 20
151.3889411996142
 30
0.0
 10
74.4786789319299
 20
150.7629495243116
 30
0.0
 10
74.47867893192992
 20
150.3589088953689
 30
0.0
 10
74.4786789319299
 20
150.1068852755175
 30
0.0
 10
74.47867893192992
 20
149.9080659125687
 30
0.0
 10
74.4786789319299
 20
149.7806678374333
 30
0.0
 10
74.47867893192992
 20
149.7063458582396
 30
0.0
 10
74.47867893192992
 20
149.6663930458312
 30
0.0
 10
74.47867893192992
 20
149.6614860103061
 30
0.0
 10
74.47867893192992
 20
149.6590298537222
 30
0.0
  0
LINE
  5
D0
330
1F
100
AcDbEntity
  8
0
  6
Continuous
 62
   144
370
    18
100
AcDbLine
 10
74.4786797664
 20
161.6590299029
 30
0.0
 11
74.4786797664
 21
155.6590298507
 31
0.0
  0
SPLINE
  5
D1
330
1F
100
AcDbEntity
  8
0
  6
HIDDEN
 62
   144
370
    18
100
AcDbSpline
210
0.0
220
0.0
230
1.0
 70
    24
 71
     3
 72
    21
 73
    17
 74
     0
 42
0.000000001
 43
0.00000001
 40
0.0
 40
0.0
 40
0.0
 40
0.0
 40
0.0400709107659388
 40
0.080048999312098
 40
0.1199960992681777
 40
0.1599741880531763
 40
0.2000450992956888
 40
0.3000338757990103
 40
0.400022651585112
 40
0.5000114284397059
 40
0.6000002058165638
 40
0.6999889824935309
 40
0.7999777586162296
 40
0.8666996277894584
 40
0.9332781299073974
 40
1.0
 40
1.0
 40
1.0
 40
1.0
 10
127.9786789319299
 20
159.2702363990986
 30
0.0
 10
127.9786789319299
 20
159.3405591828433
 30
0.0
 10
127.9786789319299
 20
159.4810418511931
 30
0.0
 10
127.9786789319299
 20
159.6842585119713
 30
0.0
 10
127.9786789319299
 20
159.8814917940428
 30
0.0
 10
127.9786789319299
 20
160.0722427599576
 30
0.0
 10
127.9786789319299
 20
160.348247532331
 30
0.0
 10
127.9786789319299
 20
160.69181043872
 30
0.0
 10
127.9786789319299
 20
161.0722045317347
 30
0.0
 10
127.9786789319299
 20
161.4008653941052
 30
0.0
 10
127.9786789319299
 20
161.6738429912579
 30
0.0
 10
127.9786789319299
 20
161.8892435393496
 30
0.0
 10
127.9786789319299
 20
162.0272548945929
 30
0.0
 10
127.9786789319299
 20
162.1077709460326
 30
0.0
 10
127.9786789319299
 20
162.151053030178
 30
0.0
 10
127.9786789319299
 20
162.1563690025858
 30
0.0
 10
127.9786789319299
 20
162.1590298475222
 30
0.0
  0
SPLINE
  5
D2
330
1F
100
AcDbEntity
  8
0
  6
HIDDEN
 62
   144
370
    18
100
AcDbSpline
210
0.0
220
0.0
230
1.0
 70
    24
 71
     3
 72
    21
 73
    17
 74
     0
 42
0.000000001
 43
0.00000001
 40
0.0
 40
0.0
 40
0.0
 40
0.0
 40
0.0400709107659387
 40
0.0800489993120978
 40
0.1199960992681772
 40
0.1599741880531765
 40
0.2000450992956887
 40
0.3000338757990101
 40
0.4000226515851117
 40
0.5000114284397057
 40
0.6000002058165635
 40
0.6999889824935306
 40
0.7999777586162294
 40
0.8666996277894585
 40
0.9332781299073974
 40
1.0
 40
1.0
 40
1.0
 40
1.0
 10
78.9786789319299
 20
152.0478233023938
 30
0.0
 10
78.9786789319299
 20
151.9775005186491
 30
0.0
 10
78.9786789319299
 20
151.8370178502993
 30
0.0
 10
78.97867893192992
 20
151.6338011895212
 30
0.0
 10
78.97867893192992
 20
151.4365679074496
 30
0.0
 10
78.9786789319299
 20
151.2458169415348
 30
0.0
 10
78.97867893192993
 20
150.9698121691614
 30
0.0
 10
78.97867893192992
 20
150.6262492627724
 30
0.0
 10
78.97867893192992
 20
150.2458551697578
 30
0.0
 10
78.97867893192992
 20
149.9171943073872
 30
0.0
 10
78.9786789319299
 20
149.6442167102345
 30
0.0
 10
78.97867893192992
 20
149.4288161621428
 30
0.0
 10
78.9786789319299
 20
149.2908048068995
 30
0.0
 10
78.97867893192992
 20
149.2102887554597
 30
0.0
 10
78.9786789319299
 20
149.1670066713144
 30
0.0
 10
78.97867893192992
 20
149.1616906989066
 30
0.0
 10
78.97867893192992
 20
149.1590298539702
 30
0.0
  0
LINE
  5
D3
330
1F
100
AcDbEntity
  8
0
  6
HIDDEN
 62
     7
370
    18
100
AcDbLine
 10
74.4786797664
 20
152.6590298247
 30
0.0
 11
132.4786780975
 21
152.6590298247
 31
0.0
  0
LINE
  5
D4
330
1F
100
AcDbEntity
  8
0
  6
HIDDEN
 62
     7
370
    18
100
AcDbLine
 10
132.4786780975
 20
158.6590298768
 30
0.0
 11
74.4786797664
 21
158.6590298768
 31
0.0
  0
DIMENSION
  5
D5
330
1F
100
AcDbEntity
  8
0
  6
Continuous
 62
     7
370
    18
100
AcDbDimension
  2
_D
 10
153.0371313172
 20
146.1590298507
 30
0.0
 11
153.0371313172
 21
155.6590298507
 31
0.0
 70
   160
  1
Φ<>
 71
     2
 42
-1.0
  3
SLDDIMSTYLE0
100
AcDbAlignedDimension
 13
125.4786789319
 23
165.1590298507
 33
0.0
 14
125.4786789319
 24
146.1590298507
 34
0.0
 50
90.0
100
AcDbRotatedDimension
  0
DIMENSION
  5
E1
330
1F
100
AcDbEntity
  8
0
  6
Continuous
 62
     7
370
    18
100
AcDbDimension
  2
_D_1
 10
140.2612534042
 20
152.6590298507
 30
0.0
 11
140.2612534042
 21
170.8767062402
 31
0.0
 70
   160
  1
Φ<>
 71
     2
 42
-1.0
  3
SLDDIMSTYLE1
100
AcDbAlignedDimension
 13
132.4786789319
 23
158.6590298507
 33
0.0
 14
132.4786789319
 24
152.6590298507
 34
0.0
 50
90.0
100
AcDbRotatedDimension
  0
DIMENSION
  5
EF
330
1F
100
AcDbEntity
  8
0
  6
Continuous
 62
     7
370
    18
100
AcDbDimension
  2
_D_2
 10
86.4786789319
 20
136.1540298555
 30
0.0
 11
80.4786789319
 21
136.1540298555
 31
0.0
 70
   160
  1
<>
 71
     2
 42
-1.0
  3
SLDDIMSTYLE1
100
AcDbAlignedDimension
 13
74.4786789319
 23
149.6590298507
 33
0.0
 14
86.4786789319
 24
146.1590298507
 34
0.0
100
AcDbRotatedDimension
  0
DIMENSION
  5
FB
330
1F
100
AcDbEntity
  8
0
  6
Continuous
 62
     7
370
    18
100
AcDbDimension
  2
_D_3
 10
120.4786789319
 20
136.1540298555
 30
0.0
 11
103.4786789319
 21
136.1540298555
 31
0.0
 70
   160
  1
<>
 71
     2
 42
-1.0
  3
SLDDIMSTYLE0
100
AcDbAlignedDimension
 13
86.4786789319
 23
146.6590298451
 33
0.0
 14
120.4786789319
 24
146.1590298555
 34
0.0
100
AcDbRotatedDimension
  0
DIMENSION
  5
105
330
1F
100
AcDbEntity
  8
0
  6
Continuous
 62
     7
370
    18
100
AcDbDimension
  2
_D_4
 10
132.4786789319
 20
136.1540298555
 30
0.0
 11
126.4786789319
 21
136.1540298555
 31
0.0
 70
   160
  1
<>
 71
     2
 42
-1.0
  3
SLDDIMSTYLE1
100
AcDbAlignedDimension
 13
120.4786789319
 23
146.1590298555
 33
0.0
 14
132.4786789319
 24
149.6590298507
 34
0.0
100
AcDbRotatedDimension
  0
DIMENSION
  5
111
330
1F
100
AcDbEntity
  8
0
  6
Continuous
 62
     7
370
    18
100
AcDbDimension
  2
_D_5
 10
132.4786789319
 20
126.8168094363
 30
0.0
 11
103.4786789319
 21
126.8168094363
 31
0.0
 70
   160
  1
<>
 71
     2
 42
-1.0
  3
SLDDIMSTYLE0
100
AcDbAlignedDimension
 13
74.4786789319
 23
149.6590298507
 33
0.0
 14
132.4786789319
 24
149.6590298507
 34
0.0
100
AcDbRotatedDimension
  0
INSERT
  5
120
330
1F
100
AcDbEntity
  8
0
  6
Continuous
 62
     7
370
     0
100
AcDbBlockReference
  2
SW_NOTE_0
 10
90.9233413929
 20
178.0870648703
 30
0.0
  0
LEADER
  5
122
330
1F
100
AcDbEntity
  8
0
  6
Continuous
 62
     7
370
     0
100
AcDbLeader
  3
SLDDIMSTYLE2
 76
     2
 10
100.9348403767
 20
164.6590298507
 30
0.0
 10
90.9233413929
 20
178.0870648703
 30
0.0
  0
ENDSEC
  0
SECTION
  2
OBJECTS
  0
DICTIONARY
  5
C
330
0
100
AcDbDictionary
281
     1
  3
ACAD_GROUP
350
D
  3
ACAD_LAYOUT
350
1A
  3
ACAD_MLINESTYLE
350
17
  3
ACAD_PLOTSETTINGS
350
19
  3
ACAD_PLOTSTYLENAME
350
E
  3
ACAD_SCALELIST
350
47
  0
DICTIONARY
  5
D
102
{ACAD_REACTORS
330
C
102
}
330
C
100
AcDbDictionary
281
     1
  0
DICTIONARY
  5
1A
102
{ACAD_REACTORS
330
C
102
}
330
C
100
AcDbDictionary
281
     1
  3
Layout1
350
1E
  3
Layout2
350
26
  3
Model
350
22
  0
DICTIONARY
  5
17
102
{ACAD_REACTORS
330
C
102
}
330
C
100
AcDbDictionary
281
     1
  3
Standard
350
18
  0
DICTIONARY
  5
19
102
{ACAD_REACTORS
330
C
102
}
330
C
100
AcDbDictionary
281
     1
  0
ACDBDICTIONARYWDFLT
  5
E
102
{ACAD_REACTORS
330
C
102
}
330
C
100
AcDbDictionary
281
     1
  3
Normal
350
F
100
AcDbDictionaryWithDefault
340
F
  0
DICTIONARY
  5
47
102
{ACAD_REACTORS
330
C
102
}
330
C
100
AcDbDictionary
281
     1
  3
A0
350
48
  3
A1
350
49
  3
A2
350
4A
  3
A3
350
4B
  3
A4
350
4C
  3
A5
350
4D
  3
A6
350
4E
  3
A7
350
4F
  3
A8
350
50
  3
A9
350
51
  3
B0
350
52
  3
B1
350
53
  3
B2
350
54
  3
B3
350
55
  3
B4
350
56
  3
B5
350
57
  3
B6
350
58
  3
B7
350
59
  3
B8
350
5A
  3
B9
350
5B
  3
C0
350
5C
  3
C1
350
5D
  3
C2
350
5E
  3
C3
350
5F
  3
C4
350
60
  3
C5
350
61
  3
C6
350
62
  3
C7
350
63
  3
C8
350
64
  3
C9
350
65
  3
D0
350
66
  3
D1
350
67
  3
D2
350
68
  0
LAYOUT
  5
1E
102
{ACAD_REACTORS
330
1A
102
}
330
1A
100
AcDbPlotSettings
  1

  2
none_device
  4

  6

 40
0.0
 41
0.0
 42
0.0
 43
0.0
 44
0.0
 45
0.0
 46
0.0
 47
0.0
 48
0.0
 49
0.0
140
0.0
141
0.0
142
1.0
143
1.0
 70
   688
 72
     1
 73
     0
 74
     5
  7

 75
    16
147
1.0
148
0.0
149
0.0
100
AcDbLayout
  1
Layout1
 70
     1
 71
     1
 10
0.0
 20
0.0
 11
420.0
 21
297.0
 12
0.0
 22
0.0
 32
0.0
 14
1.0000000000E+20
 24
1.0000000000E+20
 34
1.0000000000E+20
 15
-1.0000000000E+20
 25
-1.0000000000E+20
 35
-1.0000000000E+20
146
0.0
 13
0.0
 23
0.0
 33
0.0
 16
1.0
 26
0.0
 36
0.0
 17
0.0
 27
1.0
 37
0.0
 76
     0
330
1B
  0
LAYOUT
  5
26
102
{ACAD_REACTORS
330
1A
102
}
330
1A
100
AcDbPlotSettings
  1

  2
none_device
  4

  6

 40
0.0
 41
0.0
 42
0.0
 43
0.0
 44
0.0
 45
0.0
 46
0.0
 47
0.0
 48
0.0
 49
0.0
140
0.0
141
0.0
142
1.0
143
1.0
 70
   688
 72
     1
 73
     0
 74
     5
  7

 75
    16
147
1.0
148
0.0
149
0.0
100
AcDbLayout
  1
Layout2
 70
     1
 71
     2
 10
0.0
 20
0.0
 11
0.0
 21
0.0
 12
0.0
 22
0.0
 32
0.0
 14
0.0
 24
0.0
 34
0.0
 15
0.0
 25
0.0
 35
0.0
146
0.0
 13
0.0
 23
0.0
 33
0.0
 16
1.0
 26
0.0
 36
0.0
 17
0.0
 27
1.0
 37
0.0
 76
     0
330
23
  0
LAYOUT
  5
22
102
{ACAD_REACTORS
330
1A
102
}
330
1A
100
AcDbPlotSettings
  1

  2
none_device
  4
Letter_(8.50_x_11.00_Inches)
  6

 40
6.35
 41
6.35
 42
6.35000508
 43
6.35000508
 44
215.9
 45
279.4
 46
0.0
 47
0.0
 48
0.0
 49
0.0
140
0.0
141
0.0
142
1.0
143
1.0
 70
  1712
 72
     1
 73
     0
 74
     0
  7

 75
     0
147
1.0
148
0.0
149
0.0
100
AcDbLayout
  1
Model
 70
     1
 71
     0
 10
0.0
 20
0.0
 11
210.0
 21
297.0
 12
0.0
 22
0.0
 32
0.0
 14
0.0
 24
0.0
 34
0.0
 15
210.0
 25
297.0
 35
0.0
146
0.0
 13
0.0
 23
0.0
 33
0.0
 16
1.0
 26
0.0
 36
0.0
 17
0.0
 27
1.0
 37
0.0
 76
     0
330
1F
331
29
  0
MLINESTYLE
  5
18
102
{ACAD_REACTORS
330
17
102
}
330
17
100
AcDbMlineStyle
  2
Standard
 70
     0
  3

 62
   256
 51
90.0
 52
90.0
 71
     2
 49
0.5
 62
   256
  6
BYLAYER
 49
-0.5
 62
   256
  6
BYLAYER
  0
ACDBPLACEHOLDER
  5
F
102
{ACAD_REACTORS
330
E
102
}
330
E
  0
SCALE
  5
48
102
{ACAD_REACTORS
330
47
102
}
330
47
100
AcDbScale
 70
     0
300
1:1
140
1.0
141
1.0
290
     1
  0
SCALE
  5
49
102
{ACAD_REACTORS
330
47
102
}
330
47
100
AcDbScale
 70
     0
300
1:2
140
1.0
141
2.0
290
     0
  0
SCALE
  5
4A
102
{ACAD_REACTORS
330
47
102
}
330
47
100
AcDbScale
 70
     0
300
1:4
140
1.0
141
4.0
290
     0
  0
SCALE
  5
4B
102
{ACAD_REACTORS
330
47
102
}
330
47
100
AcDbScale
 70
     0
300
1:5
140
1.0
141
5.0
290
     0
  0
SCALE
  5
4C
102
{ACAD_REACTORS
330
47
102
}
330
47
100
AcDbScale
 70
     0
300
1:8
140
1.0
141
8.0
290
     0
  0
SCALE
  5
4D
102
{ACAD_REACTORS
330
47
102
}
330
47
100
AcDbScale
 70
     0
300
1:10
140
1.0
141
10.0
290
     0
  0
SCALE
  5
4E
102
{ACAD_REACTORS
330
47
102
}
330
47
100
AcDbScale
 70
     0
300
1:16
140
1.0
141
16.0
290
     0
  0
SCALE
  5
4F
102
{ACAD_REACTORS
330
47
102
}
330
47
100
AcDbScale
 70
     0
300
1:20
140
1.0
141
20.0
290
     0
  0
SCALE
  5
50
102
{ACAD_REACTORS
330
47
102
}
330
47
100
AcDbScale
 70
     0
300
1:30
140
1.0
141
30.0
290
     0
  0
SCALE
  5
51
102
{ACAD_REACTORS
330
47
102
}
330
47
100
AcDbScale
 70
     0
300
1:40
140
1.0
141
40.0
290
     0
  0
SCALE
  5
52
102
{ACAD_REACTORS
330
47
102
}
330
47
100
AcDbScale
 70
     0
300
1:50
140
1.0
141
50.0
290
     0
  0
SCALE
  5
53
102
{ACAD_REACTORS
330
47
102
}
330
47
100
AcDbScale
 70
     0
300
1:100
140
1.0
141
100.0
290
     0
  0
SCALE
  5
54
102
{ACAD_REACTORS
330
47
102
}
330
47
100
AcDbScale
 70
     0
300
2:1
140
2.0
141
1.0
290
     0
  0
SCALE
  5
55
102
{ACAD_REACTORS
330
47
102
}
330
47
100
AcDbScale
 70
     0
300
4:1
140
4.0
141
1.0
290
     0
  0
SCALE
  5
56
102
{ACAD_REACTORS
330
47
102
}
330
47
100
AcDbScale
 70
     0
300
8:1
140
8.0
141
1.0
290
     0
  0
SCALE
  5
57
102
{ACAD_REACTORS
330
47
102
}
330
47
100
AcDbScale
 70
     0
300
10:1
140
10.0
141
1.0
290
     0
  0
SCALE
  5
58
102
{ACAD_REACTORS
330
47
102
}
330
47
100
AcDbScale
 70
     0
300
100:1
140
100.0
141
1.0
290
     0
  0
SCALE
  5
59
102
{ACAD_REACTORS
330
47
102
}
330
47
100
AcDbScale
 70
     0
300
1/128" = 1'-0"
140
0.0078125
141
12.0
290
     0
  0
SCALE
  5
5A
102
{ACAD_REACTORS
330
47
102
}
330
47
100
AcDbScale
 70
     0
300
1/64" = 1'-0"
140
0.015625
141
12.0
290
     0
  0
SCALE
  5
5B
102
{ACAD_REACTORS
330
47
102
}
330
47
100
AcDbScale
 70
     0
300
1/32" = 1'-0"
140
0.03125
141
12.0
290
     0
  0
SCALE
  5
5C
102
{ACAD_REACTORS
330
47
102
}
330
47
100
AcDbScale
 70
     0
300
1/16" = 1'-0"
140
0.0625
141
12.0
290
     0
  0
SCALE
  5
5D
102
{ACAD_REACTORS
330
47
102
}
330
47
100
AcDbScale
 70
     0
300
3/32" = 1'-0"
140
0.09375
141
12.0
290
     0
  0
SCALE
  5
5E
102
{ACAD_REACTORS
330
47
102
}
330
47
100
AcDbScale
 70
     0
300
1/8" = 1'-0"
140
0.125
141
12.0
290
     0
  0
SCALE
  5
5F
102
{ACAD_REACTORS
330
47
102
}
330
47
100
AcDbScale
 70
     0
300
3/16" = 1'-0"
140
0.1875
141
12.0
290
     0
  0
SCALE
  5
60
102
{ACAD_REACTORS
330
47
102
}
330
47
100
AcDbScale
 70
     0
300
1/4" = 1'-0"
140
0.25
141
12.0
290
     0
  0
SCALE
  5
61
102
{ACAD_REACTORS
330
47
102
}
330
47
100
AcDbScale
 70
     0
300
3/8" = 1'-0"
140
0.375
141
12.0
290
     0
  0
SCALE
  5
62
102
{ACAD_REACTORS
330
47
102
}
330
47
100
AcDbScale
 70
     0
300
1/2" = 1'-0"
140
0.5
141
12.0
290
     0
  0
SCALE
  5
63
102
{ACAD_REACTORS
330
47
102
}
330
47
100
AcDbScale
 70
     0
300
3/4" = 1'-0"
140
0.75
141
12.0
290
     0
  0
SCALE
  5
64
102
{ACAD_REACTORS
330
47
102
}
330
47
100
AcDbScale
 70
     0
300
1" = 1'-0"
140
1.0
141
12.0
290
     0
  0
SCALE
  5
65
102
{ACAD_REACTORS
330
47
102
}
330
47
100
AcDbScale
 70
     0
300
1-1/2" = 1'-0"
140
1.5
141
12.0
290
     0
  0
SCALE
  5
66
102
{ACAD_REACTORS
330
47
102
}
330
47
100
AcDbScale
 70
     0
300
3" = 1'-0"
140
3.0
141
12.0
290
     0
  0
SCALE
  5
67
102
{ACAD_REACTORS
330
47
102
}
330
47
100
AcDbScale
 70
     0
300
6" = 1'-0"
140
6.0
141
12.0
290
     0
  0
SCALE
  5
68
102
{ACAD_REACTORS
330
47
102
}
330
47
100
AcDbScale
 70
     0
300
1'-0" = 1'-0"
140
12.0
141
12.0
290
     0
  0
ENDSEC
  0
EOF
