  0
SECTION
  2
HEADER
  9
$ACADVER
  1
AC1015
  9
$ACADMAINTVER
 70
     6
  9
$DWGCODEPAGE
  3
DOS932
  9
$INSBASE
 10
0.0
 20
0.0
 30
0.0
  9
$EXTMIN
 10
0.0
 20
0.0
 30
0.0
  9
$EXTMAX
 10
210.0
 20
297.0
 30
0.0
  9
$LIMMIN
 10
0.0
 20
0.0
  9
$LIMMAX
 10
210.0
 20
297.0
  9
$ORTHOMODE
 70
     0
  9
$REGENMODE
 70
     1
  9
$FILLMODE
 70
     1
  9
$QTEXTMODE
 70
     0
  9
$MIRRTEXT
 70
     1
  9
$LTSCALE
 40
1.0
  9
$ATTMODE
 70
     1
  9
$TEXTSIZE
 40
3.5
  9
$TRACEWID
 40
1.0
  9
$TEXTSTYLE
  7
STANDARD
  9
$CLAYER
  8
0
  9
$CELTYPE
  6
ByLayer
  9
$CECOLOR
 62
   256
  9
$CELTSCALE
 40
1.0
  9
$DISPSILH
 70
     0
  9
$DIMSCALE
 40
1.0
  9
$DIMASZ
 40
3.302
  9
$DIMEXO
 40
1.0
  9
$DIMDLI
 40
3.75
  9
$DIMRND
 40
0.0
  9
$DIMDLE
 40
0.0
  9
$DIMEXE
 40
1.0
  9
$DIMTP
 40
0.0
  9
$DIMTM
 40
0.0
  9
$DIMTXT
 40
3.5
  9
$DIMCEN
 40
2.5
  9
$DIMTSZ
 40
0.0
  9
$DIMTOL
 70
     0
  9
$DIMLIM
 70
     0
  9
$DIMTIH
 70
     1
  9
$DIMTOH
 70
     1
  9
$DIMSE1
 70
     0
  9
$DIMSE2
 70
     0
  9
$DIMTAD
 70
     1
  9
$DIMZIN
 70
     1
  9
$DIMBLK
  1

  9
$DIMASO
 70
     1
  9
$DIMSHO
 70
     1
  9
$DIMPOST
  1

  9
$DIMAPOST
  1

  9
$DIMALT
 70
     0
  9
$DIMALTD
 70
     3
  9
$DIMALTF
 40
0.0393700787
  9
$DIMLFAC
 40
1.0
  9
$DIMTOFL
 70
     1
  9
$DIMTVP
 40
0.0
  9
$DIMTIX
 70
     0
  9
$DIMSOXD
 70
     0
  9
$DIMSAH
 70
     0
  9
$DIMBLK1
  1

  9
$DIMBLK2
  1

  9
$DIMSTYLE
  2
ISO-25
  9
$DIMCLRD
 70
     0
  9
$DIMCLRE
 70
     0
  9
$DIMCLRT
 70
     0
  9
$DIMTFAC
 40
1.0
  9
$DIMGAP
 40
1.524
  9
$DIMJUST
 70
     0
  9
$DIMSD1
 70
     0
  9
$DIMSD2
 70
     0
  9
$DIMTOLJ
 70
     0
  9
$DIMTZIN
 70
     1
  9
$DIMALTZ
 70
     0
  9
$DIMALTTZ
 70
     0
  9
$DIMUPT
 70
     0
  9
$DIMDEC
 70
     2
  9
$DIMTDEC
 70
     3
  9
$DIMALTU
 70
     2
  9
$DIMALTTD
 70
     3
  9
$DIMTXSTY
  7
STANDARD
  9
$DIMAUNIT
 70
     0
  9
$DIMADEC
 70
     2
  9
$DIMALTRND
 40
0.0
  9
$DIMAZIN
 70
     0
  9
$DIMDSEP
 70
    44
  9
$DIMATFIT
 70
     3
  9
$DIMFRAC
 70
     0
  9
$DIMLDRBLK
  1

  9
$DIMLUNIT
 70
     2
  9
$DIMLWD
 70
    -2
  9
$DIMLWE
 70
    -2
  9
$DIMTMOVE
 70
     0
  9
$LUNITS
 70
     2
  9
$LUPREC
 70
     1
  9
$SKETCHINC
 40
1.0
  9
$FILLETRAD
 40
10.0
  9
$AUNITS
 70
     0
  9
$AUPREC
 70
     2
  9
$MENU
  1
.
  9
$ELEVATION
 40
0.0
  9
$PELEVATION
 40
0.0
  9
$THICKNESS
 40
0.0
  9
$LIMCHECK
 70
     0
  9
$CHAMFERA
 40
0.0
  9
$CHAMFERB
 40
0.0
  9
$CHAMFERC
 40
0.0
  9
$CHAMFERD
 40
0.0
  9
$SKPOLY
 70
     0
  9
$TDCREATE
 40
2459135.605225637
  9
$TDUCREATE
 40
2459135.230225637
  9
$TDUPDATE
 40
2459135.60522654
  9
$TDUUPDATE
 40
2459135.23022654
  9
$TDINDWG
 40
0.0000000116
  9
$TDUSRTIMER
 40
0.0000000116
  9
$USRTIMER
 70
     1
  9
$ANGBASE
 50
0.0
  9
$ANGDIR
 70
     0
  9
$PDMODE
 70
     0
  9
$PDSIZE
 40
-1.0
  9
$PLINEWID
 40
0.0
  9
$SPLFRAME
 70
     0
  9
$SPLINETYPE
 70
     6
  9
$SPLINESEGS
 70
     8
  9
$HANDSEED
  5
170
  9
$SURFTAB1
 70
     6
  9
$SURFTAB2
 70
     6
  9
$SURFTYPE
 70
     6
  9
$SURFU
 70
     6
  9
$SURFV
 70
     6
  9
$UCSBASE
  2

  9
$UCSNAME
  2

  9
$UCSORG
 10
0.0
 20
0.0
 30
0.0
  9
$UCSXDIR
 10
1.0
 20
0.0
 30
0.0
  9
$UCSYDIR
 10
0.0
 20
1.0
 30
0.0
  9
$UCSORTHOREF
  2

  9
$UCSORTHOVIEW
 70
     0
  9
$UCSORGTOP
 10
0.0
 20
0.0
 30
0.0
  9
$UCSORGBOTTOM
 10
0.0
 20
0.0
 30
0.0
  9
$UCSORGLEFT
 10
0.0
 20
0.0
 30
0.0
  9
$UCSORGRIGHT
 10
0.0
 20
0.0
 30
0.0
  9
$UCSORGFRONT
 10
0.0
 20
0.0
 30
0.0
  9
$UCSORGBACK
 10
0.0
 20
0.0
 30
0.0
  9
$PUCSBASE
  2

  9
$PUCSNAME
  2

  9
$PUCSORG
 10
0.0
 20
0.0
 30
0.0
  9
$PUCSXDIR
 10
1.0
 20
0.0
 30
0.0
  9
$PUCSYDIR
 10
0.0
 20
1.0
 30
0.0
  9
$PUCSORTHOREF
  2

  9
$PUCSORTHOVIEW
 70
     0
  9
$PUCSORGTOP
 10
0.0
 20
0.0
 30
0.0
  9
$PUCSORGBOTTOM
 10
0.0
 20
0.0
 30
0.0
  9
$PUCSORGLEFT
 10
0.0
 20
0.0
 30
0.0
  9
$PUCSORGRIGHT
 10
0.0
 20
0.0
 30
0.0
  9
$PUCSORGFRONT
 10
0.0
 20
0.0
 30
0.0
  9
$PUCSORGBACK
 10
0.0
 20
0.0
 30
0.0
  9
$USERI1
 70
     0
  9
$USERI2
 70
     0
  9
$USERI3
 70
     0
  9
$USERI4
 70
     0
  9
$USERI5
 70
     0
  9
$USERR1
 40
0.0
  9
$USERR2
 40
0.0
  9
$USERR3
 40
0.0
  9
$USERR4
 40
0.0
  9
$USERR5
 40
0.0
  9
$WORLDVIEW
 70
     1
  9
$SHADEDGE
 70
     3
  9
$SHADEDIF
 70
    70
  9
$TILEMODE
 70
     1
  9
$MAXACTVP
 70
    64
  9
$PINSBASE
 10
0.0
 20
0.0
 30
0.0
  9
$PLIMCHECK
 70
     0
  9
$PEXTMIN
 10
1.0000000000E+20
 20
1.0000000000E+20
 30
1.0000000000E+20
  9
$PEXTMAX
 10
-1.0000000000E+20
 20
-1.0000000000E+20
 30
-1.0000000000E+20
  9
$PLIMMIN
 10
0.0
 20
0.0
  9
$PLIMMAX
 10
420.0
 20
297.0
  9
$UNITMODE
 70
     0
  9
$VISRETAIN
 70
     1
  9
$PLINEGEN
 70
     0
  9
$PSLTSCALE
 70
     1
  9
$TREEDEPTH
 70
  3020
  9
$CMLSTYLE
  2
Standard
  9
$CMLJUST
 70
     0
  9
$CMLSCALE
 40
20.0
  9
$PROXYGRAPHICS
 70
     1
  9
$MEASUREMENT
 70
     1
  9
$CELWEIGHT
370
    -1
  9
$ENDCAPS
280
     0
  9
$JOINSTYLE
280
     0
  9
$LWDISPLAY
290
     1
  9
$INSUNITS
 70
     4
  9
$HYPERLINKBASE
  1

  9
$STYLESHEET
  1

  9
$XEDIT
290
     1
  9
$CEPSNTYPE
380
     0
  9
$PSTYLEMODE
290
     1
  9
$FINGERPRINTGUID
  2
{75694872-5B3D-4E24-A884-74A1F290D055}
  9
$VERSIONGUID
  2
{FAEB1C32-E019-11D5-929B-00C0DF256EC4}
  9
$EXTNAMES
290
     1
  9
$PSVPSCALE
 40
0.0
  9
$OLESTARTUP
290
     0
  0
ENDSEC
  0
SECTION
  2
CLASSES
  0
CLASS
  1
ACDBDICTIONARYWDFLT
  2
AcDbDictionaryWithDefault
  3
ObjectDBX Classes
 90
        0
280
     0
281
     0
  0
CLASS
  1
VISUALSTYLE
  2
AcDbVisualStyle
  3
ObjectDBX Classes
 90
     4095
280
     0
281
     0
  0
CLASS
  1
MATERIAL
  2
AcDbMaterial
  3
ObjectDBX Classes
 90
     1153
280
     0
281
     0
  0
CLASS
  1
SCALE
  2
AcDbScale
  3
ObjectDBX Classes
 90
     1153
280
     0
281
     0
  0
CLASS
  1
TABLESTYLE
  2
AcDbTableStyle
  3
ObjectDBX Classes
 90
     4095
280
     0
281
     0
  0
CLASS
  1
MLEADERSTYLE
  2
AcDbMLeaderStyle
  3
ACDB_MLEADERSTYLE_CLASS
 90
     4095
280
     0
281
     0
  0
CLASS
  1
SUN
  2
AcDbSun
  3
SCENEOE
 90
     1153
280
     0
281
     0
  0
CLASS
  1
ACDBPLACEHOLDER
  2
AcDbPlaceHolder
  3
ObjectDBX Classes
 90
        0
280
     0
281
     0
  0
CLASS
  1
LAYOUT
  2
AcDbLayout
  3
ObjectDBX Classes
 90
        0
280
     0
281
     0
  0
ENDSEC
  0
SECTION
  2
TABLES
  0
TABLE
  2
VPORT
  5
8
330
0
100
AcDbSymbolTable
 70
     1
  0
VPORT
  5
29
330
8
100
AcDbSymbolTableRecord
100
AcDbViewportTableRecord
  2
*Active
 70
     0
 10
0.0
 20
0.0
 11
1.0
 21
1.0
 12
105.0
 22
148.5
 13
0.0
 23
0.0
 14
10.0
 24
10.0
 15
10.0
 25
10.0
 16
0.0
 26
0.0
 36
1.0
 17
0.0
 27
0.0
 37
0.0
 40
297.0
 41
0.7070707071
 42
50.0
 43
0.0
 44
0.0
 50
0.0
 51
0.0
 71
     0
 72
  2000
 73
     1
 74
     3
 75
     0
 76
     0
 77
     0
 78
     0
281
     0
 65
     1
110
0.0
120
0.0
130
0.0
111
1.0
121
0.0
131
0.0
112
0.0
122
1.0
132
0.0
 79
     0
146
0.0
  0
ENDTAB
  0
TABLE
  2
LTYPE
  5
5
330
0
100
AcDbSymbolTable
 70
     8
  0
LTYPE
  5
14
330
5
100
AcDbSymbolTableRecord
100
AcDbLinetypeTableRecord
  2
ByBlock
 70
     0
  3

 72
    65
 73
     0
 40
0.0
  0
LTYPE
  5
15
330
5
100
AcDbSymbolTableRecord
100
AcDbLinetypeTableRecord
  2
ByLayer
 70
     0
  3

 72
    65
 73
     0
 40
0.0
  0
LTYPE
  5
16
330
5
100
AcDbSymbolTableRecord
100
AcDbLinetypeTableRecord
  2
Continuous
 70
     0
  3
Solid line
 72
    65
 73
     0
 40
0.0
  0
LTYPE
  5
6E
330
5
100
AcDbSymbolTableRecord
100
AcDbLinetypeTableRecord
  2
SLD-実線
 70
     0
  3
SolidWorks Line Style
 72
    65
 73
     0
 40
0.0
  0
LTYPE
  5
6F
330
5
100
AcDbSymbolTableRecord
100
AcDbLinetypeTableRecord
  2
SLD-破線
 70
     0
  3
SolidWorks Line Style
 72
    65
 73
     2
 40
1.905
 49
1.27
 74
     0
 49
-0.635
 74
     0
  0
LTYPE
  5
70
330
5
100
AcDbSymbolTableRecord
100
AcDbLinetypeTableRecord
  2
SLD-2点鎖線
 70
     0
  3
SolidWorks Line Style
 72
    65
 73
     6
 40
12.7
 49
6.35
 74
     0
 49
-1.27
 74
     0
 49
1.27
 74
     0
 49
-1.27
 74
     0
 49
1.27
 74
     0
 49
-1.27
 74
     0
  0
LTYPE
  5
71
330
5
100
AcDbSymbolTableRecord
100
AcDbLinetypeTableRecord
  2
SLD-鎖線
 70
     0
  3
SolidWorks Line Style
 72
    65
 73
     4
 40
10.16
 49
6.35
 74
     0
 49
-1.27
 74
     0
 49
1.27
 74
     0
 49
-1.27
 74
     0
  0
LTYPE
  5
72
330
5
100
AcDbSymbolTableRecord
100
AcDbLinetypeTableRecord
  2
SLD-1点鎖線(中心線)
 70
     0
  3
SolidWorks Line Style
 72
    65
 73
     4
 40
34.29
 49
30.48
 74
     0
 49
-1.27
 74
     0
 49
1.27
 74
     0
 49
-1.27
 74
     0
  0
LTYPE
  5
73
330
5
100
AcDbSymbolTableRecord
100
AcDbLinetypeTableRecord
  2
SLD-点線
 70
     0
  3
SolidWorks Line Style
 72
    65
 73
     2
 40
0.635
 49
0.0
 74
     0
 49
-0.635
 74
     0
  0
LTYPE
  5
74
330
5
100
AcDbSymbolTableRecord
100
AcDbLinetypeTableRecord
  2
SLD-細-太鎖線(切断面)
 70
     0
  3
SolidWorks Line Style
 72
    65
 73
     4
 40
10.16
 49
6.35
 74
     0
 49
-1.27
 74
     0
 49
1.27
 74
     0
 49
-1.27
 74
     0
  0
ENDTAB
  0
TABLE
  2
LAYER
  5
2
330
0
100
AcDbSymbolTable
 70
     4
  0
LAYER
  5
10
330
2
100
AcDbSymbolTableRecord
100
AcDbLayerTableRecord
  2
0
 70
     0
 62
     7
  6
Continuous
370
    -3
390
F
  0
LAYER
  5
75
330
2
100
AcDbSymbolTableRecord
100
AcDbLayerTableRecord
  2
SLD-0_1
 70
     0
 62
   179
  6
SLD-実線
370
    -3
390
F
  0
LAYER
  5
76
330
2
100
AcDbSymbolTableRecord
100
AcDbLayerTableRecord
  2
SLD-0_0
 70
     0
 62
   179
  6
SLD-実線
370
    -3
390
F
  0
LAYER
  5
77
330
2
100
AcDbSymbolTableRecord
100
AcDbLayerTableRecord
  2
SLD-0
 70
     0
 62
   179
  6
SLD-実線
370
    -3
390
F
  0
ENDTAB
  0
TABLE
  2
STYLE
  5
3
330
0
100
AcDbSymbolTable
 70
     4
  0
STYLE
  5
11
330
3
100
AcDbSymbolTableRecord
100
AcDbTextStyleTableRecord
  2
STANDARD
 70
     0
 40
0.0
 41
1.0
 50
0.0
 71
     0
 42
3.5
  3
GOTHIC.TTF
  4

1001
ACAD
1000
CENTURY GOTHIC
1071
       34
  0
STYLE
  5
10C
330
3
100
AcDbSymbolTableRecord
100
AcDbTextStyleTableRecord
  2
SLDTEXTSTYLE0
 70
     0
 40
0.0
 41
0.7240625
 50
0.0
 71
     0
 42
3.5
  3
SWTXT.TTF
  4

1001
ACAD
1000
SWTXT
1071
      258
  0
STYLE
  5
117
330
3
100
AcDbSymbolTableRecord
100
AcDbTextStyleTableRecord
  2
SLDTEXTSTYLE1
 70
     0
 40
0.0
 41
0.993
 50
0.0
 71
     0
 42
3.5
  3
SWTXT.TTF
  4

1001
ACAD
1000
SWTXT
1071
      258
  0
STYLE
  5
16D
330
3
100
AcDbSymbolTableRecord
100
AcDbTextStyleTableRecord
  2
SLDTEXTSTYLE2
 70
     0
 40
0.0
 41
0.7240625
 50
0.0
 71
     0
 42
3.5
  3
SWTXT.TTF
  4
bigfont
1001
ACAD
1000
SWTXT
1071
      258
  0
ENDTAB
  0
TABLE
  2
VIEW
  5
6
330
0
100
AcDbSymbolTable
 70
     0
  0
ENDTAB
  0
TABLE
  2
UCS
  5
7
330
0
100
AcDbSymbolTable
 70
     0
  0
ENDTAB
  0
TABLE
  2
APPID
  5
9
330
0
100
AcDbSymbolTable
 70
     1
  0
APPID
  5
12
330
9
100
AcDbSymbolTableRecord
100
AcDbRegAppTableRecord
  2
ACAD
 70
     0
  0
ENDTAB
  0
TABLE
  2
DIMSTYLE
  5
A
330
0
100
AcDbSymbolTable
 70
     3
100
AcDbDimStyleTable
  0
DIMSTYLE
105
27
330
A
100
AcDbSymbolTableRecord
100
AcDbDimStyleTableRecord
  2
ISO-25
 70
     0
 41
2.5
 42
0.625
 43
3.75
 44
1.25
 73
     0
 74
     0
 77
     1
 78
     8
140
2.5
141
2.5
143
0.0393700787
147
0.625
171
     3
172
     1
178
     0
271
     2
272
     2
274
     3
278
    44
283
     0
284
     8
340
11
  0
DIMSTYLE
105
10D
102
{ACAD_REACTORS
330
10B
330
11B
330
125
330
12F
330
143
330
14D
330
160
102
}
330
A
100
AcDbSymbolTableRecord
100
AcDbDimStyleTableRecord
  2
SLDDIMSTYLE0
 70
     0
 41
3.302
 44
0.0
 45
0.000000001
 73
     0
 74
     0
 77
     3
 78
    12
 79
     3
140
3.5
147
0.875
173
     1
178
     0
271
     0
272
     3
276
     2
284
    12
340
10C
341
10E
343
10E
344
10E
  0
DIMSTYLE
105
13A
102
{ACAD_REACTORS
330
139
330
157
102
}
330
A
100
AcDbSymbolTableRecord
100
AcDbDimStyleTableRecord
  2
SLDDIMSTYLE1
 70
     0
 41
3.302
 44
0.0
 45
0.000000001
 73
     0
 74
     0
 77
     3
 78
    12
 79
     3
140
3.5
141
0.0
147
0.875
172
     1
173
     1
178
     0
271
     0
272
     3
276
     2
284
    12
340
10C
341
10E
343
10E
344
10E
  0
ENDTAB
  0
TABLE
  2
BLOCK_RECORD
  5
1
330
0
100
AcDbSymbolTable
 70
    13
  0
BLOCK_RECORD
  5
1F
330
1
100
AcDbSymbolTableRecord
100
AcDbBlockTableRecord
  2
*Model_Space
340
22
  0
BLOCK_RECORD
  5
1B
330
1
100
AcDbSymbolTableRecord
100
AcDbBlockTableRecord
  2
*Paper_Space
340
1E
  0
BLOCK_RECORD
  5
23
330
1
100
AcDbSymbolTableRecord
100
AcDbBlockTableRecord
  2
*Paper_Space0
340
26
  0
BLOCK_RECORD
  5
78
330
1
100
AcDbSymbolTableRecord
100
AcDbBlockTableRecord
  2
SW_CENTERMARKSYMBOL_0
340
0
102
{BLKREFS
331
10A
102
}
  0
BLOCK_RECORD
  5
83
330
1
100
AcDbSymbolTableRecord
100
AcDbBlockTableRecord
  2
SW_CENTERMARKSYMBOL_1
340
0
102
{BLKREFS
331
109
102
}
  0
BLOCK_RECORD
  5
10E
330
1
100
AcDbSymbolTableRecord
100
AcDbBlockTableRecord
  2
_NONE
340
0
  0
BLOCK_RECORD
  5
111
330
1
100
AcDbSymbolTableRecord
100
AcDbBlockTableRecord
  2
_D
340
0
  0
BLOCK_RECORD
  5
11C
330
1
100
AcDbSymbolTableRecord
100
AcDbBlockTableRecord
  2
_D_1
340
0
  0
BLOCK_RECORD
  5
126
330
1
100
AcDbSymbolTableRecord
100
AcDbBlockTableRecord
  2
_D_2
340
0
  0
BLOCK_RECORD
  5
130
330
1
100
AcDbSymbolTableRecord
100
AcDbBlockTableRecord
  2
_D_3
340
0
  0
BLOCK_RECORD
  5
13B
330
1
100
AcDbSymbolTableRecord
100
AcDbBlockTableRecord
  2
_D_4
340
0
  0
BLOCK_RECORD
  5
144
330
1
100
AcDbSymbolTableRecord
100
AcDbBlockTableRecord
  2
_D_5
340
0
  0
BLOCK_RECORD
  5
14E
330
1
100
AcDbSymbolTableRecord
100
AcDbBlockTableRecord
  2
_D_6
340
0
  0
BLOCK_RECORD
  5
158
330
1
100
AcDbSymbolTableRecord
100
AcDbBlockTableRecord
  2
_D_7
340
0
  0
BLOCK_RECORD
  5
161
330
1
100
AcDbSymbolTableRecord
100
AcDbBlockTableRecord
  2
_D_8
340
0
  0
ENDTAB
  0
ENDSEC
  0
SECTION
  2
BLOCKS
  0
BLOCK
  5
20
330
1F
100
AcDbEntity
  8
0
100
AcDbBlockBegin
  2
*Model_Space
 70
     0
 10
0.0
 20
0.0
 30
0.0
  3
*Model_Space
  1

  0
ENDBLK
  5
21
330
1F
100
AcDbEntity
  8
0
100
AcDbBlockEnd
  0
BLOCK
  5
1C
330
1B
100
AcDbEntity
 67
     1
  8
0
100
AcDbBlockBegin
  2
*Paper_Space
 70
     0
 10
0.0
 20
0.0
 30
0.0
  3
*Paper_Space
  1

  0
ENDBLK
  5
1D
330
1B
100
AcDbEntity
 67
     1
  8
0
100
AcDbBlockEnd
  0
BLOCK
  5
24
330
23
100
AcDbEntity
  8
0
100
AcDbBlockBegin
  2
*Paper_Space0
 70
     0
 10
0.0
 20
0.0
 30
0.0
  3
*Paper_Space0
  1

  0
ENDBLK
  5
25
330
23
100
AcDbEntity
  8
0
100
AcDbBlockEnd
  0
BLOCK
  5
79
330
78
100
AcDbEntity
  8
0
100
AcDbBlockBegin
  2
SW_CENTERMARKSYMBOL_0
 70
     0
 10
0.0
 20
0.0
 30
0.0
  3
SW_CENTERMARKSYMBOL_0
  1

  0
LINE
  5
7B
330
78
100
AcDbEntity
  8
SLD-0
  6
SLD-実線
 62
   179
370
    18
100
AcDbLine
 10
0.0
 20
0.0
 30
0.0
 11
0.0
 21
2.5
 31
0.0
  0
LINE
  5
7C
330
78
100
AcDbEntity
  8
SLD-0
  6
SLD-実線
 62
   179
370
    18
100
AcDbLine
 10
0.0
 20
0.0
 30
0.0
 11
-2.5
 21
0.0
 31
0.0
  0
LINE
  5
7D
330
78
100
AcDbEntity
  8
SLD-0
  6
SLD-実線
 62
   179
370
    18
100
AcDbLine
 10
0.0
 20
0.0
 30
0.0
 11
0.0
 21
-2.5
 31
0.0
  0
LINE
  5
7E
330
78
100
AcDbEntity
  8
SLD-0
  6
SLD-実線
 62
   179
370
    18
100
AcDbLine
 10
0.0
 20
0.0
 30
0.0
 11
2.5
 21
0.0
 31
0.0
  0
LINE
  5
7F
330
78
100
AcDbEntity
  8
SLD-0
  6
SLD-実線
 62
   179
370
    18
100
AcDbLine
 10
0.0
 20
5.0
 30
0.0
 11
0.0
 21
13.0668758751
 31
0.0
  0
LINE
  5
80
330
78
100
AcDbEntity
  8
SLD-0
  6
SLD-実線
 62
   179
370
    18
100
AcDbLine
 10
-5.0
 20
0.0
 30
0.0
 11
-13.0668758751
 21
0.0
 31
0.0
  0
LINE
  5
81
330
78
100
AcDbEntity
  8
SLD-0
  6
SLD-実線
 62
   179
370
    18
100
AcDbLine
 10
0.0
 20
-5.0
 30
0.0
 11
0.0
 21
-13.0668758751
 31
0.0
  0
LINE
  5
82
330
78
100
AcDbEntity
  8
SLD-0
  6
SLD-実線
 62
   179
370
    18
100
AcDbLine
 10
5.0
 20
0.0
 30
0.0
 11
13.0668758751
 21
0.0
 31
0.0
  0
ENDBLK
  5
7A
330
78
100
AcDbEntity
  8
0
100
AcDbBlockEnd
  0
BLOCK
  5
84
330
83
100
AcDbEntity
  8
0
100
AcDbBlockBegin
  2
SW_CENTERMARKSYMBOL_1
 70
     0
 10
0.0
 20
0.0
 30
0.0
  3
SW_CENTERMARKSYMBOL_1
  1

  0
LINE
  5
86
330
83
100
AcDbEntity
  8
SLD-0
  6
SLD-実線
 62
   179
370
    18
100
AcDbLine
 10
0.0
 20
0.0
 30
0.0
 11
0.0
 21
2.5
 31
0.0
  0
LINE
  5
87
330
83
100
AcDbEntity
  8
SLD-0
  6
SLD-実線
 62
   179
370
    18
100
AcDbLine
 10
0.0
 20
0.0
 30
0.0
 11
-2.5
 21
0.0
 31
0.0
  0
LINE
  5
88
330
83
100
AcDbEntity
  8
SLD-0
  6
SLD-実線
 62
   179
370
    18
100
AcDbLine
 10
0.0
 20
0.0
 30
0.0
 11
0.0
 21
-2.5
 31
0.0
  0
LINE
  5
89
330
83
100
AcDbEntity
  8
SLD-0
  6
SLD-実線
 62
   179
370
    18
100
AcDbLine
 10
0.0
 20
0.0
 30
0.0
 11
2.5
 21
0.0
 31
0.0
  0
LINE
  5
8A
330
83
100
AcDbEntity
  8
SLD-0
  6
SLD-実線
 62
   179
370
    18
100
AcDbLine
 10
0.0
 20
5.0
 30
0.0
 11
0.0
 21
8.5
 31
0.0
  0
LINE
  5
8B
330
83
100
AcDbEntity
  8
SLD-0
  6
SLD-実線
 62
   179
370
    18
100
AcDbLine
 10
-5.0
 20
0.0
 30
0.0
 11
-8.5
 21
0.0
 31
0.0
  0
LINE
  5
8C
330
83
100
AcDbEntity
  8
SLD-0
  6
SLD-実線
 62
   179
370
    18
100
AcDbLine
 10
0.0
 20
-5.0
 30
0.0
 11
0.0
 21
-8.5
 31
0.0
  0
LINE
  5
8D
330
83
100
AcDbEntity
  8
SLD-0
  6
SLD-実線
 62
   179
370
    18
100
AcDbLine
 10
5.0
 20
0.0
 30
0.0
 11
8.5
 21
0.0
 31
0.0
  0
ENDBLK
  5
85
330
83
100
AcDbEntity
  8
0
100
AcDbBlockEnd
  0
BLOCK
  5
10F
330
10E
100
AcDbEntity
  8
0
100
AcDbBlockBegin
  2
_NONE
 70
     0
 10
0.0
 20
0.0
 30
0.0
  3
_NONE
  1

  0
ENDBLK
  5
110
330
10E
100
AcDbEntity
  8
0
100
AcDbBlockEnd
  0
BLOCK
  5
112
330
111
100
AcDbEntity
  8
0
100
AcDbBlockBegin
  2
_D
 70
     0
 10
0.0
 20
0.0
 30
0.0
  3
_D
  1

  0
LINE
  5
114
330
111
100
AcDbEntity
  8
SLD-0
 62
   179
100
AcDbLine
 10
76.7515005869
 20
204.8432608696
 30
0.0
 11
54.7515005869
 21
204.8432608696
 31
0.0
  0
LINE
  5
115
330
111
100
AcDbEntity
  8
SLD-0
 62
   179
100
AcDbLine
 10
100.7515005869
 20
174.8432608696
 30
0.0
 11
54.7515005869
 21
174.8432608696
 31
0.0
  0
LINE
  5
116
330
111
100
AcDbEntity
  8
SLD-0
 62
   179
100
AcDbLine
 10
55.7515005869
 20
204.8432608696
 30
0.0
 11
55.7515005869
 21
174.8432608696
 31
0.0
  0
MTEXT
  5
118
330
111
100
AcDbEntity
  8
SLD-0
 62
   179
100
AcDbMText
 10
51.2397637305
 20
187.8064553721
 30
0.0
 40
3.5
 41
0.0
 71
     1
 72
     1
  1
30
  7
SLDTEXTSTYLE1
 11
-7.044195017643634E-15
 21
1.0
 31
0.0
 73
     1
 44
1.0
  0
SOLID
  5
119
330
111
100
AcDbEntity
  8
SLD-0
 62
   179
100
AcDbTrace
 10
55.7515005869
 20
204.8432608696
 30
0.0
 11
55.0015005869
 21
201.8432608696
 31
0.0
 12
56.5015005869
 22
201.8432608696
 32
0.0
 13
56.5015005869
 23
201.8432608696
 33
0.0
  0
SOLID
  5
11A
330
111
100
AcDbEntity
  8
SLD-0
 62
   179
100
AcDbTrace
 10
55.7515005869
 20
174.8432608696
 30
0.0
 11
56.5015005869
 21
177.8432608696
 31
0.0
 12
55.0015005869
 22
177.8432608696
 32
0.0
 13
55.0015005869
 23
177.8432608696
 33
0.0
  0
ENDBLK
  5
113
330
111
100
AcDbEntity
  8
0
100
AcDbBlockEnd
  0
BLOCK
  5
11D
330
11C
100
AcDbEntity
  8
0
100
AcDbBlockBegin
  2
_D_1
 70
     0
 10
0.0
 20
0.0
 30
0.0
  3
_D_1
  1

  0
LINE
  5
11F
330
11C
100
AcDbEntity
  8
SLD-0
 62
   179
100
AcDbLine
 10
77.7515005869
 20
205.8432608696
 30
0.0
 11
77.7515005869
 21
221.8432608696
 31
0.0
  0
LINE
  5
120
330
11C
100
AcDbEntity
  8
SLD-0
 62
   179
100
AcDbLine
 10
139.7515005869
 20
200.8432608696
 30
0.0
 11
139.7515005869
 21
221.8432608696
 31
0.0
  0
LINE
  5
121
330
11C
100
AcDbEntity
  8
SLD-0
 62
   179
100
AcDbLine
 10
77.7515005869
 20
220.8432608696
 30
0.0
 11
139.7515005869
 21
220.8432608696
 31
0.0
  0
MTEXT
  5
122
330
11C
100
AcDbEntity
  8
SLD-0
 62
   179
100
AcDbMText
 10
106.7146950894
 20
225.3549977259
 30
0.0
 40
3.5
 41
0.0
 71
     1
 72
     1
  1
62
  7
SLDTEXTSTYLE1
 73
     1
 44
1.0
  0
SOLID
  5
123
330
11C
100
AcDbEntity
  8
SLD-0
 62
   179
100
AcDbTrace
 10
77.7515005869
 20
220.8432608696
 30
0.0
 11
80.7515005869
 21
220.0932608696
 31
0.0
 12
80.7515005869
 22
221.5932608696
 32
0.0
 13
80.7515005869
 23
221.5932608696
 33
0.0
  0
SOLID
  5
124
330
11C
100
AcDbEntity
  8
SLD-0
 62
   179
100
AcDbTrace
 10
139.7515005869
 20
220.8432608696
 30
0.0
 11
136.7515005869
 21
221.5932608696
 31
0.0
 12
136.7515005869
 22
220.0932608696
 32
0.0
 13
136.7515005869
 23
220.0932608696
 33
0.0
  0
ENDBLK
  5
11E
330
11C
100
AcDbEntity
  8
0
100
AcDbBlockEnd
  0
BLOCK
  5
127
330
126
100
AcDbEntity
  8
0
100
AcDbBlockBegin
  2
_D_2
 70
     0
 10
0.0
 20
0.0
 30
0.0
  3
_D_2
  1

  0
LINE
  5
129
330
126
100
AcDbEntity
  8
SLD-0
 62
   179
100
AcDbLine
 10
76.7515005869
 20
204.8432608696
 30
0.0
 11
66.7515005869
 21
204.8432608696
 31
0.0
  0
LINE
  5
12A
330
126
100
AcDbEntity
  8
SLD-0
 62
   179
100
AcDbLine
 10
87.6846247118
 20
189.8432608696
 30
0.0
 11
66.7515005869
 21
189.8432608696
 31
0.0
  0
LINE
  5
12B
330
126
100
AcDbEntity
  8
SLD-0
 62
   179
100
AcDbLine
 10
67.7515005869
 20
204.8432608696
 30
0.0
 11
67.7515005869
 21
189.8432608696
 31
0.0
  0
MTEXT
  5
12C
330
126
100
AcDbEntity
  8
SLD-0
 62
   179
100
AcDbMText
 10
63.2397637305
 20
195.3064553721
 30
0.0
 40
3.5
 41
0.0
 71
     1
 72
     1
  1
15
  7
SLDTEXTSTYLE1
 11
-7.044195017643634E-15
 21
1.0
 31
0.0
 73
     1
 44
1.0
  0
SOLID
  5
12D
330
126
100
AcDbEntity
  8
SLD-0
 62
   179
100
AcDbTrace
 10
67.7515005869
 20
204.8432608696
 30
0.0
 11
67.0015005869
 21
201.8432608696
 31
0.0
 12
68.5015005869
 22
201.8432608696
 32
0.0
 13
68.5015005869
 23
201.8432608696
 33
0.0
  0
SOLID
  5
12E
330
126
100
AcDbEntity
  8
SLD-0
 62
   179
100
AcDbTrace
 10
67.7515005869
 20
189.8432608696
 30
0.0
 11
68.5015005869
 21
192.8432608696
 31
0.0
 12
67.0015005869
 22
192.8432608696
 32
0.0
 13
67.0015005869
 23
192.8432608696
 33
0.0
  0
ENDBLK
  5
128
330
126
100
AcDbEntity
  8
0
100
AcDbBlockEnd
  0
BLOCK
  5
131
330
130
100
AcDbEntity
  8
0
100
AcDbBlockBegin
  2
_D_3
 70
     0
 10
0.0
 20
0.0
 30
0.0
  3
_D_3
  1

  0
LINE
  5
133
330
130
100
AcDbEntity
  8
SLD-0
 62
   179
100
AcDbLine
 10
77.7515005869
 20
180.8432608696
 30
0.0
 11
77.7515005869
 21
160.3369505118
 31
0.0
  0
LINE
  5
134
330
130
100
AcDbEntity
  8
SLD-0
 62
   179
100
AcDbLine
 10
101.7515005869
 20
175.7763849945
 30
0.0
 11
101.7515005869
 21
160.3369505118
 31
0.0
  0
LINE
  5
135
330
130
100
AcDbEntity
  8
SLD-0
 62
   179
100
AcDbLine
 10
77.7515005869
 20
161.3369505118
 30
0.0
 11
101.7515005869
 21
161.3369505118
 31
0.0
  0
MTEXT
  5
136
330
130
100
AcDbEntity
  8
SLD-0
 62
   179
100
AcDbMText
 10
87.7146950894
 20
165.8486873681
 30
0.0
 40
3.5
 41
0.0
 71
     1
 72
     1
  1
24
  7
SLDTEXTSTYLE1
 73
     1
 44
1.0
  0
SOLID
  5
137
330
130
100
AcDbEntity
  8
SLD-0
 62
   179
100
AcDbTrace
 10
77.7515005869
 20
161.3369505118
 30
0.0
 11
80.7515005869
 21
160.5869505118
 31
0.0
 12
80.7515005869
 22
162.0869505118
 32
0.0
 13
80.7515005869
 23
162.0869505118
 33
0.0
  0
SOLID
  5
138
330
130
100
AcDbEntity
  8
SLD-0
 62
   179
100
AcDbTrace
 10
101.7515005869
 20
161.3369505118
 30
0.0
 11
98.7515005869
 21
162.0869505118
 31
0.0
 12
98.7515005869
 22
160.5869505118
 32
0.0
 13
98.7515005869
 23
160.5869505118
 33
0.0
  0
ENDBLK
  5
132
330
130
100
AcDbEntity
  8
0
100
AcDbBlockEnd
  0
BLOCK
  5
13C
330
13B
100
AcDbEntity
  8
0
100
AcDbBlockBegin
  2
_D_4
 70
     0
 10
0.0
 20
0.0
 30
0.0
  3
_D_4
  1

  0
LINE
  5
13E
330
13B
100
AcDbEntity
  8
SLD-0
 62
   179
100
AcDbLine
 10
105.9654919025
 20
185.5721629789
 30
0.0
 11
122.9153793079
 21
168.3925764723
 31
0.0
  0
LINE
  5
13F
330
13B
100
AcDbEntity
  8
SLD-0
 62
   179
100
AcDbLine
 10
122.9153793079
 20
168.3925764723
 30
0.0
 11
132.4464210507
 21
168.3925764723
 31
0.0
  0
MTEXT
  5
140
330
13B
100
AcDbEntity
  8
SLD-0
 62
   179
100
AcDbMText
 10
119.2528793079
 20
172.9043137943
 30
0.0
 40
3.5
 41
0.0
 71
     1
 72
     1
  1
%%c
  7
SLDTEXTSTYLE1
 73
     1
 44
1.0
  0
MTEXT
  5
141
330
13B
100
AcDbEntity
  8
SLD-0
 62
   179
100
AcDbMText
 10
128.372809823
 20
172.9043137943
 30
0.0
 40
3.5
 41
0.0
 71
     1
 72
     1
  1
12
  7
SLDTEXTSTYLE1
 73
     1
 44
1.0
  0
SOLID
  5
142
330
13B
100
AcDbEntity
  8
SLD-0
 62
   179
100
AcDbTrace
 10
105.9654919025
 20
185.5721629789
 30
0.0
 11
107.538600324
 21
182.9098651191
 31
0.0
 12
108.6063747966
 22
183.963362948
 32
0.0
 13
108.6063747966
 23
183.963362948
 33
0.0
  0
ENDBLK
  5
13D
330
13B
100
AcDbEntity
  8
0
100
AcDbBlockEnd
  0
BLOCK
  5
145
330
144
100
AcDbEntity
  8
0
100
AcDbBlockBegin
  2
_D_5
 70
     0
 10
0.0
 20
0.0
 30
0.0
  3
_D_5
  1

  0
LINE
  5
147
330
144
100
AcDbEntity
  8
SLD-0
 62
   179
100
AcDbLine
 10
140.7515005869
 20
101.0836956522
 30
0.0
 11
162.7515005869
 21
101.0836956522
 31
0.0
  0
LINE
  5
148
330
144
100
AcDbEntity
  8
SLD-0
 62
   179
100
AcDbLine
 10
140.7515005869
 20
119.0836956522
 30
0.0
 11
162.7515005869
 21
119.0836956522
 31
0.0
  0
LINE
  5
149
330
144
100
AcDbEntity
  8
SLD-0
 62
   179
100
AcDbLine
 10
161.7515005869
 20
101.0836956522
 30
0.0
 11
161.7515005869
 21
119.0836956522
 31
0.0
  0
MTEXT
  5
14A
330
144
100
AcDbEntity
  8
SLD-0
 62
   179
100
AcDbMText
 10
157.2397637305
 20
108.0468901547
 30
0.0
 40
3.5
 41
0.0
 71
     1
 72
     1
  1
18
  7
SLDTEXTSTYLE1
 11
6.123233995736766E-17
 21
1.0
 31
0.0
 73
     1
 44
1.0
  0
SOLID
  5
14B
330
144
100
AcDbEntity
  8
SLD-0
 62
   179
100
AcDbTrace
 10
161.7515005869
 20
101.0836956522
 30
0.0
 11
162.5015005869
 21
104.0836956522
 31
0.0
 12
161.0015005869
 22
104.0836956522
 32
0.0
 13
161.0015005869
 23
104.0836956522
 33
0.0
  0
SOLID
  5
14C
330
144
100
AcDbEntity
  8
SLD-0
 62
   179
100
AcDbTrace
 10
161.7515005869
 20
119.0836956522
 30
0.0
 11
161.0015005869
 21
116.0836956522
 31
0.0
 12
162.5015005869
 22
116.0836956522
 32
0.0
 13
162.5015005869
 23
116.0836956522
 33
0.0
  0
ENDBLK
  5
146
330
144
100
AcDbEntity
  8
0
100
AcDbBlockEnd
  0
BLOCK
  5
14F
330
14E
100
AcDbEntity
  8
0
100
AcDbBlockBegin
  2
_D_6
 70
     0
 10
0.0
 20
0.0
 30
0.0
  3
_D_6
  1

  0
LINE
  5
151
330
14E
100
AcDbEntity
  8
SLD-0
 62
   179
100
AcDbLine
 10
77.7515005869
 20
116.5836956522
 30
0.0
 11
77.7515005869
 21
130.0836956522
 31
0.0
  0
LINE
  5
152
330
14E
100
AcDbEntity
  8
SLD-0
 62
   179
100
AcDbLine
 10
121.7515005869
 20
119.5836956522
 30
0.0
 11
121.7515005869
 21
130.0836956522
 31
0.0
  0
LINE
  5
153
330
14E
100
AcDbEntity
  8
SLD-0
 62
   179
100
AcDbLine
 10
77.7515005869
 20
129.0836956522
 30
0.0
 11
121.7515005869
 21
129.0836956522
 31
0.0
  0
MTEXT
  5
154
330
14E
100
AcDbEntity
  8
SLD-0
 62
   179
100
AcDbMText
 10
97.7146950894
 20
133.5954325085
 30
0.0
 40
3.5
 41
0.0
 71
     1
 72
     1
  1
44
  7
SLDTEXTSTYLE1
 73
     1
 44
1.0
  0
SOLID
  5
155
330
14E
100
AcDbEntity
  8
SLD-0
 62
   179
100
AcDbTrace
 10
77.7515005869
 20
129.0836956522
 30
0.0
 11
80.7515005869
 21
128.3336956522
 31
0.0
 12
80.7515005869
 22
129.8336956522
 32
0.0
 13
80.7515005869
 23
129.8336956522
 33
0.0
  0
SOLID
  5
156
330
14E
100
AcDbEntity
  8
SLD-0
 62
   179
100
AcDbTrace
 10
121.7515005869
 20
129.0836956522
 30
0.0
 11
118.7515005869
 21
129.8336956522
 31
0.0
 12
118.7515005869
 22
128.3336956522
 32
0.0
 13
118.7515005869
 23
128.3336956522
 33
0.0
  0
ENDBLK
  5
150
330
14E
100
AcDbEntity
  8
0
100
AcDbBlockEnd
  0
BLOCK
  5
159
330
158
100
AcDbEntity
  8
0
100
AcDbBlockBegin
  2
_D_7
 70
     0
 10
0.0
 20
0.0
 30
0.0
  3
_D_7
  1

  0
LINE
  5
15B
330
158
100
AcDbEntity
  8
SLD-0
 62
   179
100
AcDbLine
 10
126.0262825865
 20
114.2939496654
 30
0.0
 11
140.7515005869
 21
128.7968899759
 31
0.0
  0
LINE
  5
15C
330
158
100
AcDbEntity
  8
SLD-0
 62
   179
100
AcDbLine
 10
140.7515005869
 20
128.7968899759
 30
0.0
 11
150.2825423297
 21
128.7968899759
 31
0.0
  0
MTEXT
  5
15D
330
158
100
AcDbEntity
  8
SLD-0
 62
   179
100
AcDbMText
 10
137.0890005869
 20
133.3086272979
 30
0.0
 40
3.5
 41
0.0
 71
     1
 72
     1
  1
%%c
  7
SLDTEXTSTYLE1
 73
     1
 44
1.0
  0
MTEXT
  5
15E
330
158
100
AcDbEntity
  8
SLD-0
 62
   179
100
AcDbMText
 10
146.2089311019
 20
133.3086272979
 30
0.0
 40
3.5
 41
0.0
 71
     1
 72
     1
  1
12
  7
SLDTEXTSTYLE1
 73
     1
 44
1.0
  0
SOLID
  5
15F
330
158
100
AcDbEntity
  8
SLD-0
 62
   179
100
AcDbTrace
 10
126.0262825865
 20
114.2939496654
 30
0.0
 11
128.689955338
 21
115.864728922
 31
0.0
 12
127.6373918347
 22
116.9334244219
 32
0.0
 13
127.6373918347
 23
116.9334244219
 33
0.0
  0
ENDBLK
  5
15A
330
158
100
AcDbEntity
  8
0
100
AcDbBlockEnd
  0
BLOCK
  5
162
330
161
100
AcDbEntity
  8
0
100
AcDbBlockBegin
  2
_D_8
 70
     0
 10
0.0
 20
0.0
 30
0.0
  3
_D_8
  1

  0
LINE
  5
164
330
161
100
AcDbEntity
  8
SLD-0
 62
   179
100
AcDbLine
 10
140.7515005869
 20
119.0836956522
 30
0.0
 11
153.1453199779
 21
119.0836956522
 31
0.0
  0
LINE
  5
165
330
161
100
AcDbEntity
  8
SLD-0
 62
   179
100
AcDbLine
 10
131.2515005869
 20
110.0836956522
 30
0.0
 11
153.1453199779
 21
110.0836956522
 31
0.0
  0
LINE
  5
166
330
161
100
AcDbEntity
  8
SLD-0
 62
   179
100
AcDbLine
 10
152.1453199779
 20
119.0836956522
 30
0.0
 11
152.1453199779
 21
124.0836956522
 31
0.0
  0
LINE
  5
167
330
161
100
AcDbEntity
  8
SLD-0
 62
   179
100
AcDbLine
 10
152.1453199779
 20
119.0836956522
 30
0.0
 11
152.1453199779
 21
110.0836956522
 31
0.0
  0
LINE
  5
168
330
161
100
AcDbEntity
  8
SLD-0
 62
   179
100
AcDbLine
 10
152.1453199779
 20
110.0836956522
 30
0.0
 11
152.1453199779
 21
105.0836956522
 31
0.0
  0
MTEXT
  5
169
330
161
100
AcDbEntity
  8
SLD-0
 62
   179
100
AcDbMText
 10
147.6335831215
 20
113.5652929034
 30
0.0
 40
3.5
 41
0.0
 71
     1
 72
     1
  1
9
  7
SLDTEXTSTYLE1
 11
-7.044195017643634E-15
 21
1.0
 31
0.0
 73
     1
 44
1.0
  0
SOLID
  5
16A
330
161
100
AcDbEntity
  8
SLD-0
 62
   179
100
AcDbTrace
 10
152.1453199779
 20
119.0836956522
 30
0.0
 11
152.8953199779
 21
122.0836956522
 31
0.0
 12
151.3953199779
 22
122.0836956522
 32
0.0
 13
151.3953199779
 23
122.0836956522
 33
0.0
  0
SOLID
  5
16B
330
161
100
AcDbEntity
  8
SLD-0
 62
   179
100
AcDbTrace
 10
152.1453199779
 20
110.0836956522
 30
0.0
 11
151.3953199779
 21
107.0836956522
 31
0.0
 12
152.8953199779
 22
107.0836956522
 32
0.0
 13
152.8953199779
 23
107.0836956522
 33
0.0
  0
ENDBLK
  5
163
330
161
100
AcDbEntity
  8
0
100
AcDbBlockEnd
  0
ENDSEC
  0
SECTION
  2
ENTITIES
  0
LINE
  5
8E
330
1F
100
AcDbEntity
  8
SLD-0
  6
SLD-実線
 62
   179
370
    18
100
AcDbLine
 10
20.2604743903
 20
285.0
 30
0.0
 11
196.7604743903
 21
285.0
 31
0.0
  0
LINE
  5
8F
330
1F
100
AcDbEntity
  8
SLD-0
  6
SLD-実線
 62
   179
370
    18
100
AcDbLine
 10
20.2604743903
 20
285.0
 30
0.0
 11
20.2604743903
 21
10.0
 31
0.0
  0
LINE
  5
90
330
1F
100
AcDbEntity
  8
SLD-0
  6
SLD-実線
 62
   179
370
    18
100
AcDbLine
 10
20.2604743903
 20
10.0
 30
0.0
 11
196.7604743903
 21
10.0
 31
0.0
  0
LINE
  5
91
330
1F
100
AcDbEntity
  8
SLD-0
  6
SLD-実線
 62
   179
370
    18
100
AcDbLine
 10
196.7604743903
 20
285.0
 30
0.0
 11
196.7604743903
 21
10.0
 31
0.0
  0
LINE
  5
92
330
1F
100
AcDbEntity
  8
SLD-0
  6
SLD-実線
 62
   179
370
    18
100
AcDbLine
 10
127.0104743903
 20
50.75
 30
0.0
 11
196.7604743903
 21
50.75
 31
0.0
  0
LINE
  5
93
330
1F
100
AcDbEntity
  8
SLD-0
  6
SLD-実線
 62
   179
370
    18
100
AcDbLine
 10
127.0104743903
 20
50.75
 30
0.0
 11
127.0104743903
 21
10.0
 31
0.0
  0
LINE
  5
94
330
1F
100
AcDbEntity
  8
SLD-0
  6
SLD-実線
 62
   179
370
    18
100
AcDbLine
 10
127.0104743903
 20
22.75
 30
0.0
 11
196.7604743903
 21
22.75
 31
0.0
  0
LINE
  5
95
330
1F
100
AcDbEntity
  8
SLD-0
  6
SLD-実線
 62
   179
370
    18
100
AcDbLine
 10
127.0104743903
 20
36.75
 30
0.0
 11
196.7604743903
 21
36.75
 31
0.0
  0
LINE
  5
96
330
1F
100
AcDbEntity
  8
SLD-0
  6
SLD-実線
 62
   179
370
    18
100
AcDbLine
 10
89.7515005869
 20
176.1432608696
 30
0.0
 11
90.2515005869
 21
181.8432608696
 31
0.0
  0
LINE
  5
97
330
1F
100
AcDbEntity
  8
SLD-0
  6
SLD-実線
 62
   179
370
    18
100
AcDbLine
 10
79.7515005869
 20
181.8432608696
 30
0.0
 11
79.7515005869
 21
176.1432608696
 31
0.0
  0
LINE
  5
98
330
1F
100
AcDbEntity
  8
SLD-0
  6
SLD-実線
 62
   179
370
    18
100
AcDbLine
 10
87.7515005869
 20
187.8432608696
 30
0.0
 11
87.7515005869
 21
191.8432608696
 31
0.0
  0
LINE
  5
99
330
1F
100
AcDbEntity
  8
SLD-0
  6
SLD-実線
 62
   179
370
    18
100
AcDbLine
 10
81.7515005869
 20
191.8432608696
 30
0.0
 11
81.7515005869
 21
187.8432608696
 31
0.0
  0
LINE
  5
9A
330
1F
100
AcDbEntity
  8
SLD-0
  6
SLD-実線
 62
   179
370
    18
100
AcDbLine
 10
111.8495767982
 20
200.935098266
 30
0.0
 11
111.8495767982
 21
197.1234839932
 31
0.0
  0
LINE
  5
9B
330
1F
100
AcDbEntity
  8
SLD-0
  6
SLD-実線
 62
   179
370
    18
100
AcDbLine
 10
114.5967331655
 20
199.8432608696
 30
0.0
 11
116.7515005869
 21
199.8432608696
 31
0.0
  0
LINE
  5
9C
330
1F
100
AcDbEntity
  8
SLD-0
  6
SLD-実線
 62
   179
370
    18
100
AcDbLine
 10
116.7515005869
 20
179.8432608696
 30
0.0
 11
116.7515005869
 21
199.8432608696
 31
0.0
  0
LINE
  5
9D
330
1F
100
AcDbEntity
  8
SLD-0
  6
SLD-実線
 62
   179
370
    18
100
AcDbLine
 10
111.8495767982
 20
182.563037746
 30
0.0
 11
111.8495767982
 21
178.7514234731
 31
0.0
  0
LINE
  5
9E
330
1F
100
AcDbEntity
  8
SLD-0
  6
SLD-実線
 62
   179
370
    18
100
AcDbLine
 10
116.7515005869
 20
179.8432608696
 30
0.0
 11
114.5967331655
 21
179.8432608696
 31
0.0
  0
LINE
  5
9F
330
1F
100
AcDbEntity
  8
SLD-0
  6
SLD-実線
 62
   179
370
    18
100
AcDbLine
 10
139.7515005869
 20
199.8432608696
 30
0.0
 11
139.7515005869
 21
179.8432608696
 31
0.0
  0
LINE
  5
A0
330
1F
100
AcDbEntity
  8
SLD-0
  6
SLD-実線
 62
   179
370
    18
100
AcDbLine
 10
116.7515005869
 20
199.8432608696
 30
0.0
 11
139.7515005869
 21
199.8432608696
 31
0.0
  0
LINE
  5
A1
330
1F
100
AcDbEntity
  8
SLD-0
  6
SLD-実線
 62
   179
370
    18
100
AcDbLine
 10
139.7515005869
 20
179.8432608696
 30
0.0
 11
116.7515005869
 21
179.8432608696
 31
0.0
  0
LINE
  5
A2
330
1F
100
AcDbEntity
  8
SLD-0
  6
SLD-実線
 62
   179
370
    18
100
AcDbLine
 10
109.3495767982
 20
199.7043982171
 30
0.0
 11
109.3495767982
 21
202.7765217842
 31
0.0
  0
LINE
  5
A3
330
1F
100
AcDbEntity
  8
SLD-0
  6
SLD-実線
 62
   179
370
    18
100
AcDbLine
 10
109.3495767982
 20
176.9099999549
 30
0.0
 11
109.3495767982
 21
179.9821235221
 31
0.0
  0
LINE
  5
A4
330
1F
100
AcDbEntity
  8
SLD-0
  6
SLD-実線
 62
   179
370
    18
100
AcDbLine
 10
90.2515005869
 20
176.8432608696
 30
0.0
 11
90.2515005869
 21
181.8432608696
 31
0.0
  0
LINE
  5
A5
330
1F
100
AcDbEntity
  8
SLD-0
  6
SLD-実線
 62
   179
370
    18
100
AcDbLine
 10
77.7515005869
 20
187.8432608696
 30
0.0
 11
89.4644019912
 21
187.8432608696
 31
0.0
  0
LINE
  5
A6
330
1F
100
AcDbEntity
  8
SLD-0
  6
SLD-実線
 62
   179
370
    18
100
AcDbLine
 10
77.7515005869
 20
181.8432608696
 30
0.0
 11
77.7515005869
 21
187.8432608696
 31
0.0
  0
LINE
  5
A7
330
1F
100
AcDbEntity
  8
SLD-0
  6
SLD-実線
 62
   179
370
    18
100
AcDbLine
 10
98.8146185841
 20
175.1335795643
 30
0.0
 11
90.2515005869
 21
176.8432608696
 31
0.0
  0
LINE
  5
A8
330
1F
100
AcDbEntity
  8
SLD-0
  6
SLD-実線
 62
   179
370
    18
100
AcDbLine
 10
90.2515005869
 20
181.8432608696
 30
0.0
 11
77.7515005869
 21
181.8432608696
 31
0.0
  0
LINE
  5
A9
330
1F
100
AcDbEntity
  8
SLD-0
  6
SLD-実線
 62
   179
370
    18
100
AcDbLine
 10
89.4644019913
 20
191.8432608697
 30
0.0
 11
77.751500587
 21
191.8432608697
 31
0.0
  0
LINE
  5
AA
330
1F
100
AcDbEntity
  8
SLD-0
  6
SLD-実線
 62
   179
370
    18
100
AcDbLine
 10
77.751500587
 20
204.8432608695
 30
0.0
 11
101.7515005869
 21
204.8432608695
 31
0.0
  0
LINE
  5
AB
330
1F
100
AcDbEntity
  8
SLD-0
  6
SLD-実線
 62
   179
370
    18
100
AcDbLine
 10
77.751500587
 20
191.8432608697
 30
0.0
 11
77.751500587
 21
204.8432608695
 31
0.0
  0
LINE
  5
AC
330
1F
100
AcDbEntity
  8
SLD-0
  6
SLD-実線
 62
   179
370
    18
100
AcDbLine
 10
112.2709523673
 20
188.8432608696
 30
0.0
 11
109.381048411
 21
188.8432608696
 31
0.0
  0
LINE
  5
AD
330
1F
100
AcDbEntity
  8
SLD-0
  6
SLD-実線
 62
   179
370
    18
100
AcDbLine
 10
109.381048411
 20
190.8432608696
 30
0.0
 11
112.2709523673
 21
190.8432608696
 31
0.0
  0
LINE
  5
AE
330
1F
100
AcDbEntity
  8
SLD-0
  6
SLD-実線
 62
   179
370
    18
100
AcDbLine
 10
109.381048411
 20
188.8432608696
 30
0.0
 11
107.66758037
 21
188.8432608696
 31
0.0
  0
LINE
  5
AF
330
1F
100
AcDbEntity
  8
SLD-0
  6
SLD-実線
 62
   179
370
    18
100
AcDbLine
 10
107.66758037
 20
190.8432608696
 30
0.0
 11
109.381048411
 21
190.8432608696
 31
0.0
  0
LINE
  5
B0
330
1F
100
AcDbEntity
  8
SLD-0
  6
SLD-実線
 62
   179
370
    18
100
AcDbLine
 10
80.4099788866
 20
175.8432608696
 30
0.0
 11
80.0515005869
 21
175.8432608696
 31
0.0
  0
LINE
  5
B1
330
1F
100
AcDbEntity
  8
SLD-0
  6
SLD-実線
 62
   179
370
    18
100
AcDbLine
 10
89.4515005869
 20
175.8432608696
 30
0.0
 11
80.4099788866
 21
175.8432608696
 31
0.0
  0
LINE
  5
B2
330
1F
100
AcDbEntity
  8
SLD-0
  6
SLD-実線
 62
     8
370
    18
100
AcDbLine
 10
80.1328604801
 20
176.1432608696
 30
0.0
 11
89.7515005869
 21
176.1432608696
 31
0.0
  0
LINE
  5
B3
330
1F
100
AcDbEntity
  8
SLD-0
  6
SLD-実線
 62
     8
370
    18
100
AcDbLine
 10
79.7515005869
 20
176.1432608696
 30
0.0
 11
80.1328604801
 21
176.1432608696
 31
0.0
  0
LINE
  5
B4
330
1F
100
AcDbEntity
  8
SLD-0
  6
SLD-1点鎖線(中心線)
 62
   179
370
    18
100
AcDbLine
 10
121.7095404784
 20
177.8432608696
 30
0.0
 11
121.7095404784
 21
201.8432608696
 31
0.0
  0
LINE
  5
B5
330
1F
100
AcDbEntity
  8
SLD-0
  6
SLD-実線
 62
   179
370
    18
100
AcDbLine
 10
136.7515007359
 20
109.0836956047
 30
0.0
 11
136.7515007359
 21
111.0836956997
 31
0.0
  0
LINE
  5
B6
330
1F
100
AcDbEntity
  8
SLD-0
  6
SLD-実線
 62
   179
370
    18
100
AcDbLine
 10
130.7514997524
 20
111.0836956997
 30
0.0
 11
130.7514997524
 21
109.0836956047
 31
0.0
  0
LINE
  5
B7
330
1F
100
AcDbEntity
  8
SLD-0
  6
SLD-実線
 62
   179
370
    18
100
AcDbLine
 10
98.8146188342
 20
104.5836958092
 30
0.0
 11
98.8146188342
 21
115.5836956522
 31
0.0
  0
LINE
  5
B8
330
1F
100
AcDbEntity
  8
SLD-0
  6
SLD-実線
 62
   179
370
    18
100
AcDbLine
 10
109.3495767982
 20
115.5836956522
 30
0.0
 11
98.8146188342
 21
115.5836956522
 31
0.0
  0
LINE
  5
B9
330
1F
100
AcDbEntity
  8
SLD-0
  6
SLD-実線
 62
   179
370
    18
100
AcDbLine
 10
111.8495767982
 20
116.2535686333
 30
0.0
 11
111.8924737302
 21
116.2783351375
 31
0.0
  0
LINE
  5
BA
330
1F
100
AcDbEntity
  8
SLD-0
  6
SLD-実線
 62
   179
370
    18
100
AcDbLine
 10
111.8924737302
 20
103.8890561668
 30
0.0
 11
111.8924737302
 21
116.2783351375
 31
0.0
  0
LINE
  5
BB
330
1F
100
AcDbEntity
  8
SLD-0
  6
SLD-実線
 62
   179
370
    18
100
AcDbLine
 10
111.8924737302
 20
103.8890561668
 30
0.0
 11
111.8495770124
 21
103.9138228281
 31
0.0
  0
LINE
  5
BC
330
1F
100
AcDbEntity
  8
SLD-0
  6
SLD-実線
 62
   179
370
    18
100
AcDbLine
 10
109.3495770124
 20
104.5836958092
 30
0.0
 11
98.8146188342
 21
104.5836958092
 31
0.0
  0
LINE
  5
BD
330
1F
100
AcDbEntity
  8
SLD-0
  6
SLD-実線
 62
   179
370
    18
100
AcDbLine
 10
90.2515007787
 20
104.5836958092
 30
0.0
 11
90.2515007787
 21
115.5836956522
 31
0.0
  0
LINE
  5
BE
330
1F
100
AcDbEntity
  8
SLD-0
  6
SLD-実線
 62
   179
370
    18
100
AcDbLine
 10
98.8146188342
 20
115.5836956522
 30
0.0
 11
90.2515007787
 21
115.5836956522
 31
0.0
  0
LINE
  5
BF
330
1F
100
AcDbEntity
  8
SLD-0
  6
SLD-実線
 62
   179
370
    18
100
AcDbLine
 10
98.8146188342
 20
104.5836958092
 30
0.0
 11
90.2515007787
 21
104.5836958092
 31
0.0
  0
LINE
  5
C0
330
1F
100
AcDbEntity
  8
SLD-0
  6
SLD-実線
 62
   179
370
    18
100
AcDbLine
 10
114.5967327383
 20
117.8396401575
 30
0.0
 11
114.5967327383
 21
102.3277511468
 31
0.0
  0
LINE
  5
C1
330
1F
100
AcDbEntity
  8
SLD-0
  6
SLD-実線
 62
   179
370
    18
100
AcDbLine
 10
114.5967327383
 20
117.8396401575
 30
0.0
 11
114.0049862069
 21
117.4979947156
 31
0.0
  0
LINE
  5
C2
330
1F
100
AcDbEntity
  8
SLD-0
  6
SLD-実線
 62
   179
370
    18
100
AcDbLine
 10
114.0049862069
 20
117.4979947156
 30
0.0
 11
113.4262614277
 21
117.1638678408
 31
0.0
  0
LINE
  5
C3
330
1F
100
AcDbEntity
  8
SLD-0
  6
SLD-実線
 62
   179
370
    18
100
AcDbLine
 10
113.4262614277
 20
117.1638678408
 30
0.0
 11
112.873294237
 21
116.8446118592
 31
0.0
  0
LINE
  5
C4
330
1F
100
AcDbEntity
  8
SLD-0
  6
SLD-実線
 62
   179
370
    18
100
AcDbLine
 10
112.873294237
 20
116.8446118592
 30
0.0
 11
112.3582532954
 21
116.5472531339
 31
0.0
  0
LINE
  5
C5
330
1F
100
AcDbEntity
  8
SLD-0
  6
SLD-実線
 62
   179
370
    18
100
AcDbLine
 10
112.3582532954
 20
116.5472531339
 30
0.0
 11
111.8924737302
 21
116.2783351375
 31
0.0
  0
LINE
  5
C6
330
1F
100
AcDbEntity
  8
SLD-0
  6
SLD-実線
 62
   179
370
    18
100
AcDbLine
 10
111.8924737302
 20
103.8890561668
 30
0.0
 11
112.3582532954
 21
103.6201381704
 31
0.0
  0
LINE
  5
C7
330
1F
100
AcDbEntity
  8
SLD-0
  6
SLD-実線
 62
   179
370
    18
100
AcDbLine
 10
112.3582532954
 20
103.6201381704
 30
0.0
 11
112.873294237
 21
103.3227794452
 31
0.0
  0
LINE
  5
C8
330
1F
100
AcDbEntity
  8
SLD-0
  6
SLD-実線
 62
   179
370
    18
100
AcDbLine
 10
112.873294237
 20
103.3227794452
 30
0.0
 11
113.4262614277
 21
103.0035234636
 31
0.0
  0
LINE
  5
C9
330
1F
100
AcDbEntity
  8
SLD-0
  6
SLD-実線
 62
   179
370
    18
100
AcDbLine
 10
113.4262614277
 20
103.0035234636
 30
0.0
 11
114.0049862069
 21
102.6693965888
 31
0.0
  0
LINE
  5
CA
330
1F
100
AcDbEntity
  8
SLD-0
  6
SLD-実線
 62
   179
370
    18
100
AcDbLine
 10
114.0049862069
 20
102.6693965888
 30
0.0
 11
114.5967327383
 21
102.3277511468
 31
0.0
  0
LINE
  5
CB
330
1F
100
AcDbEntity
  8
SLD-0
  6
SLD-実線
 62
   179
370
    18
100
AcDbLine
 10
139.751499365
 20
101.0836960396
 30
0.0
 11
139.751499365
 21
109.0836956047
 31
0.0
  0
LINE
  5
CC
330
1F
100
AcDbEntity
  8
SLD-0
  6
SLD-実線
 62
   179
370
    18
100
AcDbLine
 10
139.751499365
 20
101.0836960396
 30
0.0
 11
116.7515002516
 21
101.0836960396
 31
0.0
  0
LINE
  5
CD
330
1F
100
AcDbEntity
  8
SLD-0
  6
SLD-実線
 62
   179
370
    18
100
AcDbLine
 10
139.751500061
 20
119.0836952647
 30
0.0
 11
116.7515002516
 21
119.0836952647
 31
0.0
  0
LINE
  5
CE
330
1F
100
AcDbEntity
  8
SLD-0
  6
SLD-実線
 62
   179
370
    18
100
AcDbLine
 10
139.751500061
 20
111.0836956522
 30
0.0
 11
139.751500061
 21
119.0836952647
 31
0.0
  0
LINE
  5
CF
330
1F
100
AcDbEntity
  8
SLD-0
  6
SLD-実線
 62
   179
370
    18
100
AcDbLine
 10
139.751500061
 20
111.0836956522
 30
0.0
 11
127.6675803421
 21
111.0836956522
 31
0.0
  0
LINE
  5
D0
330
1F
100
AcDbEntity
  8
SLD-0
  6
SLD-実線
 62
   179
370
    18
100
AcDbLine
 10
127.66758037
 20
109.0836956047
 30
0.0
 11
139.751499365
 21
109.0836956047
 31
0.0
  0
LINE
  5
D1
330
1F
100
AcDbEntity
  8
SLD-0
  6
SLD-実線
 62
   179
370
    18
100
AcDbLine
 10
116.7515002516
 20
119.0836952647
 30
0.0
 11
114.5967327383
 21
117.8396401575
 31
0.0
  0
LINE
  5
D2
330
1F
100
AcDbEntity
  8
SLD-0
  6
SLD-実線
 62
   179
370
    18
100
AcDbLine
 10
114.5967327383
 20
102.3277511468
 30
0.0
 11
116.7515002516
 21
101.0836960396
 31
0.0
  0
LINE
  5
D3
330
1F
100
AcDbEntity
  8
SLD-0
  6
SLD-実線
 62
   179
370
    18
100
AcDbLine
 10
77.7515005925
 20
104.5836958092
 30
0.0
 11
77.7515005925
 21
115.5836956522
 31
0.0
  0
LINE
  5
D4
330
1F
100
AcDbEntity
  8
SLD-0
  6
SLD-実線
 62
   179
370
    18
100
AcDbLine
 10
90.2515007787
 20
115.5836956522
 30
0.0
 11
77.7515005925
 21
115.5836956522
 31
0.0
  0
LINE
  5
D5
330
1F
100
AcDbEntity
  8
SLD-0
  6
SLD-実線
 62
   179
370
    18
100
AcDbLine
 10
90.2515007787
 20
104.5836958092
 30
0.0
 11
77.7515005925
 21
104.5836958092
 31
0.0
  0
LINE
  5
D6
330
1F
100
AcDbEntity
  8
SLD-0
  6
SLD-実線
 62
   179
370
    18
100
AcDbLine
 10
94.0566971456
 20
102.0836956522
 30
0.0
 11
109.3810483207
 21
102.0836952722
 31
0.0
  0
LINE
  5
D7
330
1F
100
AcDbEntity
  8
SLD-0
  6
SLD-実線
 62
   179
370
    18
100
AcDbLine
 10
94.0566971456
 20
118.0836954983
 30
0.0
 11
109.3810483207
 21
118.0836958783
 31
0.0
  0
LINE
  5
D8
330
1F
100
AcDbEntity
  8
SLD-0
  6
SLD-実線
 62
   179
370
    18
100
AcDbLine
 10
83.6271567595
 20
107.3723241335
 30
0.0
 11
86.5374448103
 21
107.7542993354
 31
0.0
  0
LINE
  5
D9
330
1F
100
AcDbEntity
  8
SLD-0
  6
SLD-実線
 62
   179
370
    18
100
AcDbLine
 10
86.5374448103
 20
107.7542993354
 30
0.0
 11
87.6617895764
 21
110.4656708541
 31
0.0
  0
LINE
  5
DA
330
1F
100
AcDbEntity
  8
SLD-0
  6
SLD-実線
 62
   179
370
    18
100
AcDbLine
 10
85.8758444292
 20
112.7950671708
 30
0.0
 11
87.6617895764
 21
110.4656708541
 31
0.0
  0
LINE
  5
DB
330
1F
100
AcDbEntity
  8
SLD-0
  6
SLD-実線
 62
   179
370
    18
100
AcDbLine
 10
82.9655563784
 20
112.413091969
 30
0.0
 11
85.8758444292
 21
112.7950671708
 31
0.0
  0
LINE
  5
DC
330
1F
100
AcDbEntity
  8
SLD-0
  6
SLD-実線
 62
   179
370
    18
100
AcDbLine
 10
82.9655563784
 20
112.413091969
 30
0.0
 11
81.8412116122
 21
109.7017204503
 31
0.0
  0
LINE
  5
DD
330
1F
100
AcDbEntity
  8
SLD-0
  6
SLD-実線
 62
   179
370
    18
100
AcDbLine
 10
83.6271567595
 20
107.3723241335
 30
0.0
 11
81.8412116122
 21
109.7017204503
 31
0.0
  0
LINE
  5
DE
330
1F
100
AcDbEntity
  8
SLD-0
  6
SLD-1点鎖線(中心線)
 62
   179
370
    18
100
AcDbLine
 10
101.7095404784
 20
120.0836956522
 30
0.0
 11
101.7095404784
 21
100.3836956522
 31
0.0
  0
ARC
  5
DF
330
1F
100
AcDbEntity
  8
SLD-0
  6
SLD-実線
 62
   179
370
    18
100
AcDbCircle
 10
101.3583548031
 20
189.8505769928
 30
0.0
 40
10.56687587511148
100
AcDbArc
 50
87.8677903959
 51
169.1301708267
  0
ARC
  5
E0
330
1F
100
AcDbEntity
  8
SLD-0
  6
SLD-実線
 62
   179
370
    18
100
AcDbCircle
 10
101.7515005869
 20
189.8432608696
 30
0.0
 40
10.56687587508293
100
AcDbArc
 50
190.8976959254
 51
89.9999999996
  0
ARC
  5
E1
330
1F
100
AcDbEntity
  8
SLD-0
  6
SLD-実線
 62
   179
370
    18
100
AcDbCircle
 10
101.8994014309
 20
189.8432608696
 30
0.0
 40
11.09999999995254
100
AcDbArc
 50
169.6197450355
 51
190.3802549642
  0
ARC
  5
E2
330
1F
100
AcDbEntity
  8
SLD-0
  6
SLD-実線
 62
   179
370
    18
100
AcDbCircle
 10
89.4515005869
 20
176.1432608696
 30
0.0
 40
0.3000000000000114
100
AcDbArc
 50
270.0
 51
0.0
  0
ARC
  5
E3
330
1F
100
AcDbEntity
  8
SLD-0
  6
SLD-実線
 62
   179
370
    18
100
AcDbCircle
 10
80.0515005869
 20
176.1432608696
 30
0.0
 40
0.3000000000000398
100
AcDbArc
 50
180.0
 51
270.0
  0
ARC
  5
E4
330
1F
100
AcDbEntity
  8
SLD-0
  6
SLD-実線
 62
   179
370
    18
100
AcDbCircle
 10
101.7515005869
 20
189.8432608696
 30
0.0
 40
14.99999999994547
100
AcDbArc
 50
47.463101637
 51
47.6850809438
  0
ARC
  5
E5
330
1F
100
AcDbEntity
  8
SLD-0
  6
SLD-実線
 62
   179
370
    18
100
AcDbCircle
 10
114.5967331655
 20
203.8432608696
 30
0.0
 40
3.999999999999403
100
AcDbArc
 50
227.4631016378
 51
270.0
  0
ARC
  5
E6
330
1F
100
AcDbEntity
  8
SLD-0
  6
SLD-実線
 62
   179
370
    18
100
AcDbCircle
 10
114.5967331655
 20
175.8432608696
 30
0.0
 40
4.0
100
AcDbArc
 50
90.0
 51
132.536898363
  0
ARC
  5
E7
330
1F
100
AcDbEntity
  8
SLD-0
  6
SLD-実線
 62
   179
370
    18
100
AcDbCircle
 10
101.7515005869
 20
189.8432608696
 30
0.0
 40
15.00000000002064
100
AcDbArc
 50
312.3149190559
 51
312.5368983628
  0
ARC
  5
E8
330
1F
100
AcDbEntity
  8
SLD-0
  6
SLD-実線
 62
   179
370
    18
100
AcDbCircle
 10
101.7515005869
 20
189.8432608696
 30
0.0
 40
12.4488068464115
100
AcDbArc
 50
324.2102249984
 51
35.7897750016
  0
CIRCLE
  5
E9
330
1F
100
AcDbEntity
  8
SLD-0
  6
SLD-実線
 62
   179
370
    18
100
AcDbCircle
 10
133.7515005869
 20
189.8432608696
 30
0.0
 40
2.5
  0
ARC
  5
EA
330
1F
100
AcDbEntity
  8
SLD-0
  6
SLD-実線
 62
   179
370
    18
100
AcDbCircle
 10
101.7515005869
 20
189.8432608696
 30
0.0
 40
12.44880684642137
100
AcDbArc
 50
189.2450890328
 51
307.6145063278
  0
ARC
  5
EB
330
1F
100
AcDbEntity
  8
SLD-0
  6
SLD-実線
 62
   179
370
    18
100
AcDbCircle
 10
101.7515005869
 20
189.8432608696
 30
0.0
 40
15.00000000003528
100
AcDbArc
 50
258.7089984643
 51
300.4335290677
  0
ARC
  5
EC
330
1F
100
AcDbEntity
  8
SLD-0
  6
SLD-実線
 62
   179
370
    18
100
AcDbCircle
 10
101.7515005869
 20
189.8432608696
 30
0.0
 40
12.44880684642026
100
AcDbArc
 50
52.3854936722
 51
170.7549109669
  0
ARC
  5
ED
330
1F
100
AcDbEntity
  8
SLD-0
  6
SLD-実線
 62
   179
370
    18
100
AcDbCircle
 10
101.7515005869
 20
189.8432608696
 30
0.0
 40
10.95455217095157
100
AcDbArc
 50
190.5196367748
 51
169.4803632249
  0
ARC
  5
EE
330
1F
100
AcDbEntity
  8
SLD-0
  6
SLD-実線
 62
   179
370
    18
100
AcDbCircle
 10
101.7515005869
 20
189.8432608696
 30
0.0
 40
14.99999999994796
100
AcDbArc
 50
59.5664709321
 51
90.0
  0
ARC
  5
EF
330
1F
100
AcDbEntity
  8
SLD-0
  6
SLD-実線
 62
   179
370
    18
100
AcDbCircle
 10
101.7515005869
 20
189.8432608696
 30
0.0
 40
7.694803441299139
100
AcDbArc
 50
7.4671558002
 51
352.5328441998
  0
ARC
  5
F0
330
1F
100
AcDbEntity
  8
SLD-0
  6
SLD-実線
 62
   179
370
    18
100
AcDbCircle
 10
101.7515005869
 20
189.8432608696
 30
0.0
 40
6.000000000000381
100
AcDbArc
 50
9.5940682269
 51
350.4059317731
  0
ARC
  5
F1
330
1F
100
AcDbEntity
  8
SLD-0
  6
SLD-実線
 62
     8
370
    18
100
AcDbCircle
 10
98.8483028536
 20
190.5583558368
 30
0.0
 40
12.78745265570978
100
AcDbArc
 50
352.2920740829
 51
1.2766582377
  0
ARC
  5
F2
330
1F
100
AcDbEntity
  8
SLD-0
  6
SLD-実線
 62
   179
370
    18
100
AcDbCircle
 10
101.7515006603
 20
110.0836955752
 30
0.0
 40
11.09999999546988
100
AcDbArc
 50
133.8859839749
 51
150.2975708217
  0
ARC
  5
F3
330
1F
100
AcDbEntity
  8
SLD-0
  6
SLD-実線
 62
   179
370
    18
100
AcDbCircle
 10
101.7515006603
 20
110.0836955752
 30
0.0
 40
11.09999999539859
100
AcDbArc
 50
209.7024291783
 51
226.1140160248
  0
ARC
  5
F4
330
1F
100
AcDbEntity
  8
SLD-0
  6
SLD-実線
 62
   179
370
    18
100
AcDbCircle
 10
121.7515009349
 20
110.0836955459
 30
0.0
 40
5.999999647071204
100
AcDbArc
 50
9.594069826
 51
350.4059317729
  0
ARC
  5
F5
330
1F
100
AcDbEntity
  8
SLD-0
  6
SLD-実線
 62
   179
370
    18
100
AcDbCircle
 10
101.7515006603
 20
110.0836955752
 30
0.0
 40
11.05486328954492
100
AcDbArc
 50
313.6422256358
 51
327.9960975878
  0
ARC
  5
F6
330
1F
100
AcDbEntity
  8
SLD-0
  6
SLD-実線
 62
   179
370
    18
100
AcDbCircle
 10
101.7515006603
 20
110.0836955752
 30
0.0
 40
11.0548632895992
100
AcDbArc
 50
31.9097539221
 51
46.3577743646
  0
CIRCLE
  5
F7
330
1F
100
AcDbEntity
  8
SLD-0
  6
SLD-実線
 62
   179
370
    18
100
AcDbCircle
 10
84.7515005869
 20
110.0836956522
 30
0.0
 40
4.700000000000003
  0
CIRCLE
  5
F8
330
1F
100
AcDbEntity
  8
SLD-0
  6
SLD-実線
 62
   179
370
    18
100
AcDbCircle
 10
84.7515005869
 20
110.0836956522
 30
0.0
 40
5.0
  0
ARC
  5
F9
330
1F
100
AcDbEntity
  8
SLD-0
  6
SLD-実線
 62
   179
370
    18
100
AcDbCircle
 10
84.7515005869
 20
110.0836956522
 30
0.0
 40
2.542000000000003
100
AcDbArc
 50
277.4773264141
 51
337.4773264141
  0
ARC
  5
FA
330
1F
100
AcDbEntity
  8
SLD-0
  6
SLD-実線
 62
   179
370
    18
100
AcDbCircle
 10
84.7515005869
 20
110.0836956522
 30
0.0
 40
2.542000000000041
100
AcDbArc
 50
97.4773264141
 51
157.4773264141
  0
ARC
  5
FB
330
1F
100
AcDbEntity
  8
SLD-0
  6
SLD-実線
 62
   179
370
    18
100
AcDbCircle
 10
84.7515005869
 20
110.0836956522
 30
0.0
 40
2.542000000000043
100
AcDbArc
 50
37.4773264141
 51
97.4773264141
  0
ARC
  5
FC
330
1F
100
AcDbEntity
  8
SLD-0
  6
SLD-実線
 62
   179
370
    18
100
AcDbCircle
 10
84.7515005869
 20
110.0836956522
 30
0.0
 40
2.542000000000018
100
AcDbArc
 50
337.4773264141
 51
37.4773264141
  0
ARC
  5
FD
330
1F
100
AcDbEntity
  8
SLD-0
  6
SLD-実線
 62
   179
370
    18
100
AcDbCircle
 10
84.7515005869
 20
110.0836956522
 30
0.0
 40
2.542
100
AcDbArc
 50
217.4773264141
 51
277.4773264141
  0
ARC
  5
FE
330
1F
100
AcDbEntity
  8
SLD-0
  6
SLD-実線
 62
   179
370
    18
100
AcDbCircle
 10
84.7515005869
 20
110.0836956522
 30
0.0
 40
2.542000000000032
100
AcDbArc
 50
157.4773264141
 51
217.4773264141
  0
SPLINE
  5
FF
330
1F
100
AcDbEntity
  8
SLD-0
  6
SLD-実線
 62
   179
370
    18
100
AcDbSpline
210
0.0
220
0.0
230
1.0
 70
     8
 71
     3
 72
    10
 73
     6
 74
     0
 42
0.000000001
 43
0.00000001
 40
0.0
 40
0.0
 40
0.0
 40
0.0
 40
0.4148996730302578
 40
0.8345158400022684
 40
1.0
 40
1.0
 40
1.0
 40
1.0
 10
111.6325812667138
 20
190.8432608695923
 30
0.0
 10
111.5422331504411
 20
190.5668552797092
 30
0.0
 10
111.5739781848482
 20
190.0109019782391
 30
0.0
 10
111.5661397109387
 20
189.3415621294868
 30
0.0
 10
111.5303413373196
 20
188.953123205992
 30
0.0
 10
111.5202164689601
 20
188.8432608695656
 30
0.0
  0
SPLINE
  5
100
330
1F
100
AcDbEntity
  8
SLD-0
  6
SLD-実線
 62
   179
370
    18
100
AcDbSpline
210
0.0
220
0.0
230
1.0
 70
     8
 71
     3
 72
    10
 73
     6
 74
     0
 42
0.000000001
 43
0.00000001
 40
0.0
 40
0.0
 40
0.0
 40
0.0
 40
0.5
 40
0.5
 40
1.0
 40
1.0
 40
1.0
 40
1.0
 10
109.3495767982122
 20
202.7765217842158
 30
0.0
 10
109.8149940261559
 20
202.5030968845458
 30
0.0
 10
110.2540187389197
 20
202.2115897359974
 30
0.0
 10
111.087060598596
 20
201.5955241895219
 30
0.0
 10
111.4834969653149
 20
201.2683795719063
 30
0.0
 10
111.8495767982122
 20
200.9350982660323
 30
0.0
  0
SPLINE
  5
101
330
1F
100
AcDbEntity
  8
SLD-0
  6
SLD-実線
 62
   179
370
    18
100
AcDbSpline
210
0.0
220
0.0
230
1.0
 70
     8
 71
     3
 72
    12
 73
     8
 74
     0
 42
0.000000001
 43
0.00000001
 40
0.0
 40
0.0
 40
0.0
 40
0.0
 40
0.5
 40
0.5
 40
0.75
 40
0.75
 40
1.0
 40
1.0
 40
1.0
 40
1.0
 10
111.8495767982129
 20
197.1234839932259
 30
0.0
 10
111.507181856479
 20
197.5984049066785
 30
0.0
 10
111.1302676491518
 20
198.051158023312
 30
0.0
 10
110.5074091179011
 20
198.6974334195768
 30
0.0
 10
110.2901525027899
 20
198.9073597686355
 30
0.0
 10
109.8344131458789
 20
199.3160107320301
 30
0.0
 10
109.595374407531
 20
199.5150094171876
 30
0.0
 10
109.3495767982122
 20
199.7043982171158
 30
0.0
  0
SPLINE
  5
102
330
1F
100
AcDbEntity
  8
SLD-0
  6
SLD-実線
 62
   179
370
    18
100
AcDbSpline
210
0.0
220
0.0
230
1.0
 70
     8
 71
     3
 72
    10
 73
     6
 74
     0
 42
0.000000001
 43
0.00000001
 40
0.0
 40
0.0
 40
0.0
 40
0.0
 40
0.5
 40
0.5
 40
1.0
 40
1.0
 40
1.0
 40
1.0
 10
111.8495767982129
 20
178.7514234730667
 30
0.0
 10
111.4839460868807
 20
178.4185510501966
 30
0.0
 10
111.0943646327629
 20
178.0968060428209
 30
0.0
 10
110.2618082830698
 20
177.4802930829519
 30
0.0
 10
109.8141606548085
 20
177.1829352627125
 30
0.0
 10
109.3495767982129
 20
176.9099999548833
 30
0.0
  0
SPLINE
  5
103
330
1F
100
AcDbEntity
  8
SLD-0
  6
SLD-実線
 62
   179
370
    18
100
AcDbSpline
210
0.0
220
0.0
230
1.0
 70
     8
 71
     3
 72
    10
 73
     6
 74
     0
 42
0.000000001
 43
0.00000001
 40
0.0
 40
0.0
 40
0.0
 40
0.0
 40
0.5
 40
0.5
 40
1.0
 40
1.0
 40
1.0
 40
1.0
 10
109.3495767982129
 20
179.9821235220833
 30
0.0
 10
109.8399588464079
 20
180.3599663655162
 30
0.0
 10
110.291039904652
 20
180.765293925112
 30
0.0
 10
111.1249626716743
 20
181.6291617619761
 30
0.0
 10
111.5076315802408
 20
182.0887406245041
 30
0.0
 10
111.8495767982129
 20
182.563037745974
 30
0.0
  0
SPLINE
  5
104
330
1F
100
AcDbEntity
  8
SLD-0
  6
SLD-実線
 62
   179
370
    18
100
AcDbSpline
210
0.0
220
0.0
230
1.0
 70
    24
 71
     3
 72
     8
 73
     4
 74
     0
 42
0.000000001
 43
0.00000001
 40
0.0
 40
0.0
 40
0.0
 40
0.0
 40
0.0019077769805325
 40
0.0019077769805325
 40
0.0019077769805325
 40
0.0019077769805325
 10
89.46440199124493
 20
187.8432608695603
 30
0.0
 10
89.96961999769383
 20
187.8432608695603
 30
0.0
 10
90.47512930806138
 20
187.8432608695603
 30
0.0
 10
90.98106822482924
 20
187.8432608695603
 30
0.0
  0
SPLINE
  5
105
330
1F
100
AcDbEntity
  8
SLD-0
  6
SLD-実線
 62
   179
370
    18
100
AcDbSpline
210
0.0
220
0.0
230
1.0
 70
    24
 71
     3
 72
     8
 73
     4
 74
     0
 42
0.000000001
 43
0.00000001
 40
0.0007219042793202
 40
0.0007219042793202
 40
0.0007219042793202
 40
0.0007219042793202
 40
0.0026296812598526
 40
0.0026296812598526
 40
0.0026296812598526
 40
0.0026296812598526
 10
90.98106822483857
 20
191.8432608696899
 30
0.0
 10
90.47512930807068
 20
191.8432608696899
 30
0.0
 10
89.96961999770313
 20
191.8432608696899
 30
0.0
 10
89.46440199125423
 20
191.8432608696899
 30
0.0
  0
SPLINE
  5
106
330
1F
100
AcDbEntity
  8
SLD-0
  6
SLD-実線
 62
   179
370
    18
100
AcDbSpline
210
0.0
220
0.0
230
1.0
 70
     8
 71
     3
 72
    10
 73
     6
 74
     0
 42
0.000000001
 43
0.00000001
 40
0.0
 40
0.0
 40
0.0
 40
0.0
 40
0.3685590140764022
 40
0.7373042279390948
 40
0.9999999999999999
 40
0.9999999999999999
 40
0.9999999999999999
 40
0.9999999999999999
 10
90.98106822482924
 20
187.8432608695603
 30
0.0
 10
91.06342105131958
 20
187.8432608695603
 30
0.0
 10
91.22816830979107
 20
187.8432608695603
 30
0.0
 10
91.36033332018093
 20
187.8432608695603
 30
0.0
 10
91.36305953492327
 20
187.8432608695603
 30
0.0
 10
91.37518441086618
 20
187.8455300633129
 30
0.0
  0
SPLINE
  5
107
330
1F
100
AcDbEntity
  8
SLD-0
  6
SLD-実線
 62
   179
370
    18
100
AcDbSpline
210
0.0
220
0.0
230
1.0
 70
     8
 71
     3
 72
    10
 73
     6
 74
     0
 42
0.000000001
 43
0.00000001
 40
0.0
 40
0.0
 40
0.0
 40
0.0
 40
0.5
 40
0.5
 40
1.0
 40
1.0
 40
1.0
 40
1.0
 10
111.8495767982
 20
116.2535686333
 30
0.0
 10
111.4839460868678
 20
116.0424716436884
 30
0.0
 10
111.09436463275
 20
115.878149364002
 30
0.0
 10
110.2618082830569
 20
115.6486896566623
 30
0.0
 10
109.8141606547956
 20
115.5836956522222
 30
0.0
 10
109.3495767982
 20
115.5836956522222
 30
0.0
  0
SPLINE
  5
108
330
1F
100
AcDbEntity
  8
SLD-0
  6
SLD-実線
 62
   179
370
    18
100
AcDbSpline
210
0.0
220
0.0
230
1.0
 70
     8
 71
     3
 72
    10
 73
     6
 74
     0
 42
0.000000001
 43
0.00000001
 40
0.0
 40
0.0
 40
0.0
 40
0.0
 40
0.5
 40
0.5
 40
1.0
 40
1.0
 40
1.0
 40
1.0
 10
109.3495770124
 20
104.5836958091777
 30
0.0
 10
109.8149942403437
 20
104.5836958091777
 30
0.0
 10
110.2540189531075
 20
104.5201411149752
 30
0.0
 10
111.0870608127838
 20
104.2919499999202
 30
0.0
 10
111.4834971795026
 20
104.1251791181682
 30
0.0
 10
111.8495770124
 20
103.9138228281
 30
0.0
  0
INSERT
  5
109
330
1F
100
AcDbEntity
  8
0
  6
Continuous
 62
     7
100
AcDbBlockReference
  2
SW_CENTERMARKSYMBOL_1
 10
121.7515005869
 20
110.0836956522
 30
0.0
  0
INSERT
  5
10A
330
1F
100
AcDbEntity
  8
0
  6
Continuous
 62
     7
100
AcDbBlockReference
  2
SW_CENTERMARKSYMBOL_0
 10
101.7515005869
 20
189.8432608696
 30
0.0
  0
DIMENSION
  5
10B
330
1F
100
AcDbEntity
  8
SLD-0
 62
   179
100
AcDbDimension
  2
_D
 10
55.7515005869
 20
204.8432608696
 30
0.0
 11
55.7515005869
 21
189.8432608696
 31
0.0
 70
   160
  1
<>
 71
     2
 42
-1.0
  3
SLDDIMSTYLE0
100
AcDbAlignedDimension
 13
101.7515005869
 23
174.8432608696
 33
0.0
 14
77.7515005869
 24
204.8432608696
 34
0.0
 50
90.0
100
AcDbRotatedDimension
  0
DIMENSION
  5
11B
330
1F
100
AcDbEntity
  8
SLD-0
 62
   179
100
AcDbDimension
  2
_D_1
 10
77.7515005869
 20
220.8432608696
 30
0.0
 11
108.7515005869
 21
220.8432608696
 31
0.0
 70
   160
  1
<>
 71
     2
 42
-1.0
  3
SLDDIMSTYLE0
100
AcDbAlignedDimension
 13
139.7515005869
 23
199.8432608696
 33
0.0
 14
77.7515005869
 24
204.8432608696
 34
0.0
100
AcDbRotatedDimension
  0
DIMENSION
  5
125
330
1F
100
AcDbEntity
  8
SLD-0
 62
   179
100
AcDbDimension
  2
_D_2
 10
67.7515005869
 20
204.8432608696
 30
0.0
 11
67.7515005869
 21
197.3432608696
 31
0.0
 70
   160
  1
<>
 71
     2
 42
-1.0
  3
SLDDIMSTYLE0
100
AcDbAlignedDimension
 13
88.6846247118
 23
189.8432608696
 33
0.0
 14
77.7515005869
 24
204.8432608696
 34
0.0
 50
90.0
100
AcDbRotatedDimension
  0
DIMENSION
  5
12F
330
1F
100
AcDbEntity
  8
SLD-0
 62
   179
100
AcDbDimension
  2
_D_3
 10
77.7515005869
 20
161.3369505118
 30
0.0
 11
89.7515005869
 21
161.3369505118
 31
0.0
 70
   160
  1
<>
 71
     2
 42
-1.0
  3
SLDDIMSTYLE0
100
AcDbAlignedDimension
 13
101.7515005869
 23
176.7763849945
 33
0.0
 14
77.7515005869
 24
181.8432608696
 34
0.0
100
AcDbRotatedDimension
  0
DIMENSION
  5
139
330
1F
100
AcDbEntity
  8
SLD-0
 62
   179
100
AcDbDimension
  2
_D_4
 10
5.6688106127
 20
10.5766056103
 30
0.0
 11
128.4746501793
 21
170.9293820517
 31
0.0
 70
   163
  1
<>
 71
     1
 42
-1.0
  3
SLDDIMSTYLE1
100
AcDbDiametricDimension
 15
0.0
 25
0.0
 35
0.0
 40
0.0
  0
DIMENSION
  5
143
330
1F
100
AcDbEntity
  8
SLD-0
 62
   179
100
AcDbDimension
  2
_D_5
 10
161.7515005869
 20
101.0836956522
 30
0.0
 11
161.7515005869
 21
110.0836956522
 31
0.0
 70
   160
  1
<>
 71
     2
 42
-1.0
  3
SLDDIMSTYLE0
100
AcDbAlignedDimension
 13
139.7515005869
 23
119.0836956522
 33
0.0
 14
139.7515005869
 24
101.0836956522
 34
0.0
 50
90.0
100
AcDbRotatedDimension
  0
DIMENSION
  5
14D
330
1F
100
AcDbEntity
  8
SLD-0
 62
   179
100
AcDbDimension
  2
_D_6
 10
77.7515005869
 20
129.0836956522
 30
0.0
 11
99.7515005869
 21
129.0836956522
 31
0.0
 70
   160
  1
<>
 71
     2
 42
-1.0
  3
SLDDIMSTYLE0
100
AcDbAlignedDimension
 13
121.7515005869
 23
118.5836956522
 33
0.0
 14
77.7515005869
 24
115.5836956522
 34
0.0
100
AcDbRotatedDimension
  0
DIMENSION
  5
157
330
1F
100
AcDbEntity
  8
SLD-0
 62
   179
100
AcDbDimension
  2
_D_7
 10
8.9010630696
 20
8.0480479765
 30
0.0
 11
146.3107714583
 21
131.3336955553
 31
0.0
 70
   163
  1
<>
 71
     1
 42
-1.0
  3
SLDDIMSTYLE1
100
AcDbDiametricDimension
 15
0.0
 25
0.0
 35
0.0
 40
0.0
  0
DIMENSION
  5
160
330
1F
100
AcDbEntity
  8
SLD-0
 62
   179
100
AcDbDimension
  2
_D_8
 10
152.1453199779
 20
119.0836956522
 30
0.0
 11
152.1453199779
 21
114.5836956522
 31
0.0
 70
   160
  1
<>
 71
     2
 42
-1.0
  3
SLDDIMSTYLE0
100
AcDbAlignedDimension
 13
130.2515005869
 23
110.0836956522
 33
0.0
 14
139.7515005869
 24
119.0836956522
 34
0.0
 50
90.0
100
AcDbRotatedDimension
  0
MTEXT
  5
16C
330
1F
100
AcDbEntity
  8
SLD-0
 62
   179
100
AcDbMText
 10
162.4384315825
 20
30.4189349992
 30
0.0
 40
4.2333333333
 41
0.0
 71
     2
 72
     1
  1
F-CROSS-12
  7
SLDTEXTSTYLE0
 73
     1
 44
1.0
  0
MTEXT
  5
16E
330
1F
100
AcDbEntity
  8
SLD-0
 62
   179
100
AcDbMText
 10
155.0184789615
 20
45.6916901655
 30
0.0
 40
3.175
 41
0.0
 71
     2
 72
     1
  1
フローティングクロスコネクターΦ12
  7
SLDTEXTSTYLE2
 73
     1
 44
1.0
  0
MTEXT
  5
16F
330
1F
100
AcDbEntity
  8
SLD-0
 62
   179
100
AcDbMText
 10
162.7966322459
 20
16.8245956699
 30
0.0
 40
4.2333333333
 41
0.0
 71
     2
 72
     1
  1
054346
  7
SLDTEXTSTYLE0
 73
     1
 44
1.0
  0
ENDSEC
  0
SECTION
  2
OBJECTS
  0
DICTIONARY
  5
C
330
0
100
AcDbDictionary
281
     1
  3
ACAD_GROUP
350
D
  3
ACAD_LAYOUT
350
1A
  3
ACAD_MLINESTYLE
350
17
  3
ACAD_PLOTSETTINGS
350
19
  3
ACAD_PLOTSTYLENAME
350
E
  3
ACAD_SCALELIST
350
47
  0
DICTIONARY
  5
D
102
{ACAD_REACTORS
330
C
102
}
330
C
100
AcDbDictionary
281
     1
  0
DICTIONARY
  5
1A
102
{ACAD_REACTORS
330
C
102
}
330
C
100
AcDbDictionary
281
     1
  3
Layout1
350
1E
  3
Layout2
350
26
  3
Model
350
22
  0
DICTIONARY
  5
17
102
{ACAD_REACTORS
330
C
102
}
330
C
100
AcDbDictionary
281
     1
  3
Standard
350
18
  0
DICTIONARY
  5
19
102
{ACAD_REACTORS
330
C
102
}
330
C
100
AcDbDictionary
281
     1
  0
ACDBDICTIONARYWDFLT
  5
E
102
{ACAD_REACTORS
330
C
102
}
330
C
100
AcDbDictionary
281
     1
  3
Normal
350
F
100
AcDbDictionaryWithDefault
340
F
  0
DICTIONARY
  5
47
102
{ACAD_REACTORS
330
C
102
}
330
C
100
AcDbDictionary
281
     1
  3
A0
350
48
  3
A1
350
49
  3
A2
350
4A
  3
A3
350
4B
  3
A4
350
4C
  3
A5
350
4D
  3
A6
350
4E
  3
A7
350
4F
  3
A8
350
50
  3
A9
350
51
  3
B0
350
52
  3
B1
350
53
  3
B2
350
54
  3
B3
350
55
  3
B4
350
56
  3
B5
350
57
  3
B6
350
58
  3
B7
350
59
  3
B8
350
5A
  3
B9
350
5B
  3
C0
350
5C
  3
C1
350
5D
  3
C2
350
5E
  3
C3
350
5F
  3
C4
350
60
  3
C5
350
61
  3
C6
350
62
  3
C7
350
63
  3
C8
350
64
  3
C9
350
65
  3
D0
350
66
  3
D1
350
67
  3
D2
350
68
  0
LAYOUT
  5
1E
102
{ACAD_REACTORS
330
1A
102
}
330
1A
100
AcDbPlotSettings
  1

  2
none_device
  4

  6

 40
0.0
 41
0.0
 42
0.0
 43
0.0
 44
0.0
 45
0.0
 46
0.0
 47
0.0
 48
0.0
 49
0.0
140
0.0
141
0.0
142
1.0
143
1.0
 70
   688
 72
     1
 73
     0
 74
     5
  7

 75
    16
147
1.0
148
0.0
149
0.0
100
AcDbLayout
  1
Layout1
 70
     1
 71
     1
 10
0.0
 20
0.0
 11
420.0
 21
297.0
 12
0.0
 22
0.0
 32
0.0
 14
1.0000000000E+20
 24
1.0000000000E+20
 34
1.0000000000E+20
 15
-1.0000000000E+20
 25
-1.0000000000E+20
 35
-1.0000000000E+20
146
0.0
 13
0.0
 23
0.0
 33
0.0
 16
1.0
 26
0.0
 36
0.0
 17
0.0
 27
1.0
 37
0.0
 76
     0
330
1B
  0
LAYOUT
  5
26
102
{ACAD_REACTORS
330
1A
102
}
330
1A
100
AcDbPlotSettings
  1

  2
none_device
  4

  6

 40
0.0
 41
0.0
 42
0.0
 43
0.0
 44
0.0
 45
0.0
 46
0.0
 47
0.0
 48
0.0
 49
0.0
140
0.0
141
0.0
142
1.0
143
1.0
 70
   688
 72
     1
 73
     0
 74
     5
  7

 75
    16
147
1.0
148
0.0
149
0.0
100
AcDbLayout
  1
Layout2
 70
     1
 71
     2
 10
0.0
 20
0.0
 11
0.0
 21
0.0
 12
0.0
 22
0.0
 32
0.0
 14
0.0
 24
0.0
 34
0.0
 15
0.0
 25
0.0
 35
0.0
146
0.0
 13
0.0
 23
0.0
 33
0.0
 16
1.0
 26
0.0
 36
0.0
 17
0.0
 27
1.0
 37
0.0
 76
     0
330
23
  0
LAYOUT
  5
22
102
{ACAD_REACTORS
330
1A
102
}
330
1A
100
AcDbPlotSettings
  1

  2
none_device
  4
Letter_(8.50_x_11.00_Inches)
  6

 40
6.35
 41
6.35
 42
6.35000508
 43
6.35000508
 44
215.9
 45
279.4
 46
0.0
 47
0.0
 48
0.0
 49
0.0
140
0.0
141
0.0
142
1.0
143
1.0
 70
  1712
 72
     1
 73
     0
 74
     0
  7

 75
     0
147
1.0
148
0.0
149
0.0
100
AcDbLayout
  1
Model
 70
     1
 71
     0
 10
0.0
 20
0.0
 11
210.0
 21
297.0
 12
0.0
 22
0.0
 32
0.0
 14
0.0
 24
0.0
 34
0.0
 15
210.0
 25
297.0
 35
0.0
146
0.0
 13
0.0
 23
0.0
 33
0.0
 16
1.0
 26
0.0
 36
0.0
 17
0.0
 27
1.0
 37
0.0
 76
     0
330
1F
331
29
  0
MLINESTYLE
  5
18
102
{ACAD_REACTORS
330
17
102
}
330
17
100
AcDbMlineStyle
  2
Standard
 70
     0
  3

 62
   256
 51
90.0
 52
90.0
 71
     2
 49
0.5
 62
   256
  6
BYLAYER
 49
-0.5
 62
   256
  6
BYLAYER
  0
ACDBPLACEHOLDER
  5
F
102
{ACAD_REACTORS
330
E
102
}
330
E
  0
SCALE
  5
48
102
{ACAD_REACTORS
330
47
102
}
330
47
100
AcDbScale
 70
     0
300
1:1
140
1.0
141
1.0
290
     1
  0
SCALE
  5
49
102
{ACAD_REACTORS
330
47
102
}
330
47
100
AcDbScale
 70
     0
300
1:2
140
1.0
141
2.0
290
     0
  0
SCALE
  5
4A
102
{ACAD_REACTORS
330
47
102
}
330
47
100
AcDbScale
 70
     0
300
1:4
140
1.0
141
4.0
290
     0
  0
SCALE
  5
4B
102
{ACAD_REACTORS
330
47
102
}
330
47
100
AcDbScale
 70
     0
300
1:5
140
1.0
141
5.0
290
     0
  0
SCALE
  5
4C
102
{ACAD_REACTORS
330
47
102
}
330
47
100
AcDbScale
 70
     0
300
1:8
140
1.0
141
8.0
290
     0
  0
SCALE
  5
4D
102
{ACAD_REACTORS
330
47
102
}
330
47
100
AcDbScale
 70
     0
300
1:10
140
1.0
141
10.0
290
     0
  0
SCALE
  5
4E
102
{ACAD_REACTORS
330
47
102
}
330
47
100
AcDbScale
 70
     0
300
1:16
140
1.0
141
16.0
290
     0
  0
SCALE
  5
4F
102
{ACAD_REACTORS
330
47
102
}
330
47
100
AcDbScale
 70
     0
300
1:20
140
1.0
141
20.0
290
     0
  0
SCALE
  5
50
102
{ACAD_REACTORS
330
47
102
}
330
47
100
AcDbScale
 70
     0
300
1:30
140
1.0
141
30.0
290
     0
  0
SCALE
  5
51
102
{ACAD_REACTORS
330
47
102
}
330
47
100
AcDbScale
 70
     0
300
1:40
140
1.0
141
40.0
290
     0
  0
SCALE
  5
52
102
{ACAD_REACTORS
330
47
102
}
330
47
100
AcDbScale
 70
     0
300
1:50
140
1.0
141
50.0
290
     0
  0
SCALE
  5
53
102
{ACAD_REACTORS
330
47
102
}
330
47
100
AcDbScale
 70
     0
300
1:100
140
1.0
141
100.0
290
     0
  0
SCALE
  5
54
102
{ACAD_REACTORS
330
47
102
}
330
47
100
AcDbScale
 70
     0
300
2:1
140
2.0
141
1.0
290
     0
  0
SCALE
  5
55
102
{ACAD_REACTORS
330
47
102
}
330
47
100
AcDbScale
 70
     0
300
4:1
140
4.0
141
1.0
290
     0
  0
SCALE
  5
56
102
{ACAD_REACTORS
330
47
102
}
330
47
100
AcDbScale
 70
     0
300
8:1
140
8.0
141
1.0
290
     0
  0
SCALE
  5
57
102
{ACAD_REACTORS
330
47
102
}
330
47
100
AcDbScale
 70
     0
300
10:1
140
10.0
141
1.0
290
     0
  0
SCALE
  5
58
102
{ACAD_REACTORS
330
47
102
}
330
47
100
AcDbScale
 70
     0
300
100:1
140
100.0
141
1.0
290
     0
  0
SCALE
  5
59
102
{ACAD_REACTORS
330
47
102
}
330
47
100
AcDbScale
 70
     0
300
1/128" = 1'-0"
140
0.0078125
141
12.0
290
     0
  0
SCALE
  5
5A
102
{ACAD_REACTORS
330
47
102
}
330
47
100
AcDbScale
 70
     0
300
1/64" = 1'-0"
140
0.015625
141
12.0
290
     0
  0
SCALE
  5
5B
102
{ACAD_REACTORS
330
47
102
}
330
47
100
AcDbScale
 70
     0
300
1/32" = 1'-0"
140
0.03125
141
12.0
290
     0
  0
SCALE
  5
5C
102
{ACAD_REACTORS
330
47
102
}
330
47
100
AcDbScale
 70
     0
300
1/16" = 1'-0"
140
0.0625
141
12.0
290
     0
  0
SCALE
  5
5D
102
{ACAD_REACTORS
330
47
102
}
330
47
100
AcDbScale
 70
     0
300
3/32" = 1'-0"
140
0.09375
141
12.0
290
     0
  0
SCALE
  5
5E
102
{ACAD_REACTORS
330
47
102
}
330
47
100
AcDbScale
 70
     0
300
1/8" = 1'-0"
140
0.125
141
12.0
290
     0
  0
SCALE
  5
5F
102
{ACAD_REACTORS
330
47
102
}
330
47
100
AcDbScale
 70
     0
300
3/16" = 1'-0"
140
0.1875
141
12.0
290
     0
  0
SCALE
  5
60
102
{ACAD_REACTORS
330
47
102
}
330
47
100
AcDbScale
 70
     0
300
1/4" = 1'-0"
140
0.25
141
12.0
290
     0
  0
SCALE
  5
61
102
{ACAD_REACTORS
330
47
102
}
330
47
100
AcDbScale
 70
     0
300
3/8" = 1'-0"
140
0.375
141
12.0
290
     0
  0
SCALE
  5
62
102
{ACAD_REACTORS
330
47
102
}
330
47
100
AcDbScale
 70
     0
300
1/2" = 1'-0"
140
0.5
141
12.0
290
     0
  0
SCALE
  5
63
102
{ACAD_REACTORS
330
47
102
}
330
47
100
AcDbScale
 70
     0
300
3/4" = 1'-0"
140
0.75
141
12.0
290
     0
  0
SCALE
  5
64
102
{ACAD_REACTORS
330
47
102
}
330
47
100
AcDbScale
 70
     0
300
1" = 1'-0"
140
1.0
141
12.0
290
     0
  0
SCALE
  5
65
102
{ACAD_REACTORS
330
47
102
}
330
47
100
AcDbScale
 70
     0
300
1-1/2" = 1'-0"
140
1.5
141
12.0
290
     0
  0
SCALE
  5
66
102
{ACAD_REACTORS
330
47
102
}
330
47
100
AcDbScale
 70
     0
300
3" = 1'-0"
140
3.0
141
12.0
290
     0
  0
SCALE
  5
67
102
{ACAD_REACTORS
330
47
102
}
330
47
100
AcDbScale
 70
     0
300
6" = 1'-0"
140
6.0
141
12.0
290
     0
  0
SCALE
  5
68
102
{ACAD_REACTORS
330
47
102
}
330
47
100
AcDbScale
 70
     0
300
1'-0" = 1'-0"
140
12.0
141
12.0
290
     0
  0
ENDSEC
  0
EOF
