  0
SECTION
  2
HEADER
  9
$ACADVER
  1
AC1015
  9
$ACADMAINTVER
 70
     6
  9
$DWGCODEPAGE
  3
DOS932
  9
$INSBASE
 10
0.0
 20
0.0
 30
0.0
  9
$EXTMIN
 10
0.0
 20
0.0
 30
0.0
  9
$EXTMAX
 10
210.0
 20
297.0
 30
0.0
  9
$LIMMIN
 10
0.0
 20
0.0
  9
$LIMMAX
 10
210.0
 20
297.0
  9
$ORTHOMODE
 70
     0
  9
$REGENMODE
 70
     1
  9
$FILLMODE
 70
     1
  9
$QTEXTMODE
 70
     0
  9
$MIRRTEXT
 70
     1
  9
$LTSCALE
 40
1.0
  9
$ATTMODE
 70
     1
  9
$TEXTSIZE
 40
3.5
  9
$TRACEWID
 40
1.0
  9
$TEXTSTYLE
  7
STANDARD
  9
$CLAYER
  8
0
  9
$CELTYPE
  6
ByLayer
  9
$CECOLOR
 62
   256
  9
$CELTSCALE
 40
1.0
  9
$DISPSILH
 70
     0
  9
$DIMSCALE
 40
1.0
  9
$DIMASZ
 40
3.302
  9
$DIMEXO
 40
1.0
  9
$DIMDLI
 40
3.75
  9
$DIMRND
 40
0.0
  9
$DIMDLE
 40
0.0
  9
$DIMEXE
 40
1.0
  9
$DIMTP
 40
0.0
  9
$DIMTM
 40
0.0
  9
$DIMTXT
 40
3.5
  9
$DIMCEN
 40
2.5
  9
$DIMTSZ
 40
0.0
  9
$DIMTOL
 70
     0
  9
$DIMLIM
 70
     0
  9
$DIMTIH
 70
     1
  9
$DIMTOH
 70
     1
  9
$DIMSE1
 70
     0
  9
$DIMSE2
 70
     0
  9
$DIMTAD
 70
     1
  9
$DIMZIN
 70
     1
  9
$DIMBLK
  1

  9
$DIMASO
 70
     1
  9
$DIMSHO
 70
     1
  9
$DIMPOST
  1

  9
$DIMAPOST
  1

  9
$DIMALT
 70
     0
  9
$DIMALTD
 70
     3
  9
$DIMALTF
 40
0.0393700787
  9
$DIMLFAC
 40
1.0
  9
$DIMTOFL
 70
     1
  9
$DIMTVP
 40
0.0
  9
$DIMTIX
 70
     0
  9
$DIMSOXD
 70
     0
  9
$DIMSAH
 70
     0
  9
$DIMBLK1
  1

  9
$DIMBLK2
  1

  9
$DIMSTYLE
  2
ISO-25
  9
$DIMCLRD
 70
     0
  9
$DIMCLRE
 70
     0
  9
$DIMCLRT
 70
     0
  9
$DIMTFAC
 40
1.0
  9
$DIMGAP
 40
1.524
  9
$DIMJUST
 70
     0
  9
$DIMSD1
 70
     0
  9
$DIMSD2
 70
     0
  9
$DIMTOLJ
 70
     0
  9
$DIMTZIN
 70
     1
  9
$DIMALTZ
 70
     0
  9
$DIMALTTZ
 70
     0
  9
$DIMUPT
 70
     0
  9
$DIMDEC
 70
     1
  9
$DIMTDEC
 70
     3
  9
$DIMALTU
 70
     2
  9
$DIMALTTD
 70
     3
  9
$DIMTXSTY
  7
STANDARD
  9
$DIMAUNIT
 70
     0
  9
$DIMADEC
 70
     2
  9
$DIMALTRND
 40
0.0
  9
$DIMAZIN
 70
     0
  9
$DIMDSEP
 70
    44
  9
$DIMATFIT
 70
     3
  9
$DIMFRAC
 70
     0
  9
$DIMLDRBLK
  1

  9
$DIMLUNIT
 70
     2
  9
$DIMLWD
 70
    -2
  9
$DIMLWE
 70
    -2
  9
$DIMTMOVE
 70
     0
  9
$LUNITS
 70
     2
  9
$LUPREC
 70
     1
  9
$SKETCHINC
 40
1.0
  9
$FILLETRAD
 40
10.0
  9
$AUNITS
 70
     0
  9
$AUPREC
 70
     2
  9
$MENU
  1
.
  9
$ELEVATION
 40
0.0
  9
$PELEVATION
 40
0.0
  9
$THICKNESS
 40
0.0
  9
$LIMCHECK
 70
     0
  9
$CHAMFERA
 40
0.0
  9
$CHAMFERB
 40
0.0
  9
$CHAMFERC
 40
0.0
  9
$CHAMFERD
 40
0.0
  9
$SKPOLY
 70
     0
  9
$TDCREATE
 40
2459135.609271123
  9
$TDUCREATE
 40
2459135.234271123
  9
$TDUPDATE
 40
2459135.60927184
  9
$TDUUPDATE
 40
2459135.23427184
  9
$TDINDWG
 40
0.0000000116
  9
$TDUSRTIMER
 40
0.0000000116
  9
$USRTIMER
 70
     1
  9
$ANGBASE
 50
0.0
  9
$ANGDIR
 70
     0
  9
$PDMODE
 70
     0
  9
$PDSIZE
 40
-1.0
  9
$PLINEWID
 40
0.0
  9
$SPLFRAME
 70
     0
  9
$SPLINETYPE
 70
     6
  9
$SPLINESEGS
 70
     8
  9
$HANDSEED
  5
172
  9
$SURFTAB1
 70
     6
  9
$SURFTAB2
 70
     6
  9
$SURFTYPE
 70
     6
  9
$SURFU
 70
     6
  9
$SURFV
 70
     6
  9
$UCSBASE
  2

  9
$UCSNAME
  2

  9
$UCSORG
 10
0.0
 20
0.0
 30
0.0
  9
$UCSXDIR
 10
1.0
 20
0.0
 30
0.0
  9
$UCSYDIR
 10
0.0
 20
1.0
 30
0.0
  9
$UCSORTHOREF
  2

  9
$UCSORTHOVIEW
 70
     0
  9
$UCSORGTOP
 10
0.0
 20
0.0
 30
0.0
  9
$UCSORGBOTTOM
 10
0.0
 20
0.0
 30
0.0
  9
$UCSORGLEFT
 10
0.0
 20
0.0
 30
0.0
  9
$UCSORGRIGHT
 10
0.0
 20
0.0
 30
0.0
  9
$UCSORGFRONT
 10
0.0
 20
0.0
 30
0.0
  9
$UCSORGBACK
 10
0.0
 20
0.0
 30
0.0
  9
$PUCSBASE
  2

  9
$PUCSNAME
  2

  9
$PUCSORG
 10
0.0
 20
0.0
 30
0.0
  9
$PUCSXDIR
 10
1.0
 20
0.0
 30
0.0
  9
$PUCSYDIR
 10
0.0
 20
1.0
 30
0.0
  9
$PUCSORTHOREF
  2

  9
$PUCSORTHOVIEW
 70
     0
  9
$PUCSORGTOP
 10
0.0
 20
0.0
 30
0.0
  9
$PUCSORGBOTTOM
 10
0.0
 20
0.0
 30
0.0
  9
$PUCSORGLEFT
 10
0.0
 20
0.0
 30
0.0
  9
$PUCSORGRIGHT
 10
0.0
 20
0.0
 30
0.0
  9
$PUCSORGFRONT
 10
0.0
 20
0.0
 30
0.0
  9
$PUCSORGBACK
 10
0.0
 20
0.0
 30
0.0
  9
$USERI1
 70
     0
  9
$USERI2
 70
     0
  9
$USERI3
 70
     0
  9
$USERI4
 70
     0
  9
$USERI5
 70
     0
  9
$USERR1
 40
0.0
  9
$USERR2
 40
0.0
  9
$USERR3
 40
0.0
  9
$USERR4
 40
0.0
  9
$USERR5
 40
0.0
  9
$WORLDVIEW
 70
     1
  9
$SHADEDGE
 70
     3
  9
$SHADEDIF
 70
    70
  9
$TILEMODE
 70
     1
  9
$MAXACTVP
 70
    64
  9
$PINSBASE
 10
0.0
 20
0.0
 30
0.0
  9
$PLIMCHECK
 70
     0
  9
$PEXTMIN
 10
1.0000000000E+20
 20
1.0000000000E+20
 30
1.0000000000E+20
  9
$PEXTMAX
 10
-1.0000000000E+20
 20
-1.0000000000E+20
 30
-1.0000000000E+20
  9
$PLIMMIN
 10
0.0
 20
0.0
  9
$PLIMMAX
 10
420.0
 20
297.0
  9
$UNITMODE
 70
     0
  9
$VISRETAIN
 70
     1
  9
$PLINEGEN
 70
     0
  9
$PSLTSCALE
 70
     1
  9
$TREEDEPTH
 70
  3020
  9
$CMLSTYLE
  2
Standard
  9
$CMLJUST
 70
     0
  9
$CMLSCALE
 40
20.0
  9
$PROXYGRAPHICS
 70
     1
  9
$MEASUREMENT
 70
     1
  9
$CELWEIGHT
370
    -1
  9
$ENDCAPS
280
     0
  9
$JOINSTYLE
280
     0
  9
$LWDISPLAY
290
     1
  9
$INSUNITS
 70
     4
  9
$HYPERLINKBASE
  1

  9
$STYLESHEET
  1

  9
$XEDIT
290
     1
  9
$CEPSNTYPE
380
     0
  9
$PSTYLEMODE
290
     1
  9
$FINGERPRINTGUID
  2
{97F5105F-387C-47A4-A913-F42ED4FB9CAD}
  9
$VERSIONGUID
  2
{FAEB1C32-E019-11D5-929B-00C0DF256EC4}
  9
$EXTNAMES
290
     1
  9
$PSVPSCALE
 40
0.0
  9
$OLESTARTUP
290
     0
  0
ENDSEC
  0
SECTION
  2
CLASSES
  0
CLASS
  1
ACDBDICTIONARYWDFLT
  2
AcDbDictionaryWithDefault
  3
ObjectDBX Classes
 90
        0
280
     0
281
     0
  0
CLASS
  1
VISUALSTYLE
  2
AcDbVisualStyle
  3
ObjectDBX Classes
 90
     4095
280
     0
281
     0
  0
CLASS
  1
MATERIAL
  2
AcDbMaterial
  3
ObjectDBX Classes
 90
     1153
280
     0
281
     0
  0
CLASS
  1
SCALE
  2
AcDbScale
  3
ObjectDBX Classes
 90
     1153
280
     0
281
     0
  0
CLASS
  1
TABLESTYLE
  2
AcDbTableStyle
  3
ObjectDBX Classes
 90
     4095
280
     0
281
     0
  0
CLASS
  1
MLEADERSTYLE
  2
AcDbMLeaderStyle
  3
ACDB_MLEADERSTYLE_CLASS
 90
     4095
280
     0
281
     0
  0
CLASS
  1
SUN
  2
AcDbSun
  3
SCENEOE
 90
     1153
280
     0
281
     0
  0
CLASS
  1
ACDBPLACEHOLDER
  2
AcDbPlaceHolder
  3
ObjectDBX Classes
 90
        0
280
     0
281
     0
  0
CLASS
  1
LAYOUT
  2
AcDbLayout
  3
ObjectDBX Classes
 90
        0
280
     0
281
     0
  0
ENDSEC
  0
SECTION
  2
TABLES
  0
TABLE
  2
VPORT
  5
8
330
0
100
AcDbSymbolTable
 70
     1
  0
VPORT
  5
29
330
8
100
AcDbSymbolTableRecord
100
AcDbViewportTableRecord
  2
*Active
 70
     0
 10
0.0
 20
0.0
 11
1.0
 21
1.0
 12
105.0
 22
148.5
 13
0.0
 23
0.0
 14
10.0
 24
10.0
 15
10.0
 25
10.0
 16
0.0
 26
0.0
 36
1.0
 17
0.0
 27
0.0
 37
0.0
 40
297.0
 41
0.7070707071
 42
50.0
 43
0.0
 44
0.0
 50
0.0
 51
0.0
 71
     0
 72
  2000
 73
     1
 74
     3
 75
     0
 76
     0
 77
     0
 78
     0
281
     0
 65
     1
110
0.0
120
0.0
130
0.0
111
1.0
121
0.0
131
0.0
112
0.0
122
1.0
132
0.0
 79
     0
146
0.0
  0
ENDTAB
  0
TABLE
  2
LTYPE
  5
5
330
0
100
AcDbSymbolTable
 70
     8
  0
LTYPE
  5
14
330
5
100
AcDbSymbolTableRecord
100
AcDbLinetypeTableRecord
  2
ByBlock
 70
     0
  3

 72
    65
 73
     0
 40
0.0
  0
LTYPE
  5
15
330
5
100
AcDbSymbolTableRecord
100
AcDbLinetypeTableRecord
  2
ByLayer
 70
     0
  3

 72
    65
 73
     0
 40
0.0
  0
LTYPE
  5
16
330
5
100
AcDbSymbolTableRecord
100
AcDbLinetypeTableRecord
  2
Continuous
 70
     0
  3
Solid line
 72
    65
 73
     0
 40
0.0
  0
LTYPE
  5
6E
330
5
100
AcDbSymbolTableRecord
100
AcDbLinetypeTableRecord
  2
SLD-実線
 70
     0
  3
SolidWorks Line Style
 72
    65
 73
     0
 40
0.0
  0
LTYPE
  5
6F
330
5
100
AcDbSymbolTableRecord
100
AcDbLinetypeTableRecord
  2
SLD-破線
 70
     0
  3
SolidWorks Line Style
 72
    65
 73
     2
 40
1.905
 49
1.27
 74
     0
 49
-0.635
 74
     0
  0
LTYPE
  5
70
330
5
100
AcDbSymbolTableRecord
100
AcDbLinetypeTableRecord
  2
SLD-2点鎖線
 70
     0
  3
SolidWorks Line Style
 72
    65
 73
     6
 40
12.7
 49
6.35
 74
     0
 49
-1.27
 74
     0
 49
1.27
 74
     0
 49
-1.27
 74
     0
 49
1.27
 74
     0
 49
-1.27
 74
     0
  0
LTYPE
  5
71
330
5
100
AcDbSymbolTableRecord
100
AcDbLinetypeTableRecord
  2
SLD-鎖線
 70
     0
  3
SolidWorks Line Style
 72
    65
 73
     4
 40
10.16
 49
6.35
 74
     0
 49
-1.27
 74
     0
 49
1.27
 74
     0
 49
-1.27
 74
     0
  0
LTYPE
  5
72
330
5
100
AcDbSymbolTableRecord
100
AcDbLinetypeTableRecord
  2
SLD-1点鎖線(中心線)
 70
     0
  3
SolidWorks Line Style
 72
    65
 73
     4
 40
34.29
 49
30.48
 74
     0
 49
-1.27
 74
     0
 49
1.27
 74
     0
 49
-1.27
 74
     0
  0
LTYPE
  5
73
330
5
100
AcDbSymbolTableRecord
100
AcDbLinetypeTableRecord
  2
SLD-点線
 70
     0
  3
SolidWorks Line Style
 72
    65
 73
     2
 40
0.635
 49
0.0
 74
     0
 49
-0.635
 74
     0
  0
LTYPE
  5
74
330
5
100
AcDbSymbolTableRecord
100
AcDbLinetypeTableRecord
  2
SLD-細-太鎖線(切断面)
 70
     0
  3
SolidWorks Line Style
 72
    65
 73
     4
 40
10.16
 49
6.35
 74
     0
 49
-1.27
 74
     0
 49
1.27
 74
     0
 49
-1.27
 74
     0
  0
ENDTAB
  0
TABLE
  2
LAYER
  5
2
330
0
100
AcDbSymbolTable
 70
     2
  0
LAYER
  5
10
330
2
100
AcDbSymbolTableRecord
100
AcDbLayerTableRecord
  2
0
 70
     0
 62
     7
  6
Continuous
370
    -3
390
F
  0
LAYER
  5
75
330
2
100
AcDbSymbolTableRecord
100
AcDbLayerTableRecord
  2
SLD-0
 70
     0
 62
   179
  6
SLD-実線
370
    -3
390
F
  0
ENDTAB
  0
TABLE
  2
STYLE
  5
3
330
0
100
AcDbSymbolTable
 70
     4
  0
STYLE
  5
11
330
3
100
AcDbSymbolTableRecord
100
AcDbTextStyleTableRecord
  2
STANDARD
 70
     0
 40
0.0
 41
1.0
 50
0.0
 71
     0
 42
3.5
  3
GOTHIC.TTF
  4

1001
ACAD
1000
CENTURY GOTHIC
1071
       34
  0
STYLE
  5
10D
330
3
100
AcDbSymbolTableRecord
100
AcDbTextStyleTableRecord
  2
SLDTEXTSTYLE0
 70
     0
 40
0.0
 41
0.7240625
 50
0.0
 71
     0
 42
3.5
  3
SWTXT.TTF
  4

1001
ACAD
1000
SWTXT
1071
      258
  0
STYLE
  5
118
330
3
100
AcDbSymbolTableRecord
100
AcDbTextStyleTableRecord
  2
SLDTEXTSTYLE1
 70
     0
 40
0.0
 41
0.993
 50
0.0
 71
     0
 42
3.5
  3
SWTXT.TTF
  4

1001
ACAD
1000
SWTXT
1071
      258
  0
STYLE
  5
16F
330
3
100
AcDbSymbolTableRecord
100
AcDbTextStyleTableRecord
  2
SLDTEXTSTYLE2
 70
     0
 40
0.0
 41
0.7240625
 50
0.0
 71
     0
 42
3.5
  3
SWTXT.TTF
  4
bigfont
1001
ACAD
1000
SWTXT
1071
      258
  0
ENDTAB
  0
TABLE
  2
VIEW
  5
6
330
0
100
AcDbSymbolTable
 70
     0
  0
ENDTAB
  0
TABLE
  2
UCS
  5
7
330
0
100
AcDbSymbolTable
 70
     0
  0
ENDTAB
  0
TABLE
  2
APPID
  5
9
330
0
100
AcDbSymbolTable
 70
     1
  0
APPID
  5
12
330
9
100
AcDbSymbolTableRecord
100
AcDbRegAppTableRecord
  2
ACAD
 70
     0
  0
ENDTAB
  0
TABLE
  2
DIMSTYLE
  5
A
330
0
100
AcDbSymbolTable
 70
     4
100
AcDbDimStyleTable
  0
DIMSTYLE
105
27
330
A
100
AcDbSymbolTableRecord
100
AcDbDimStyleTableRecord
  2
ISO-25
 70
     0
 41
2.5
 42
0.625
 43
3.75
 44
1.25
 73
     0
 74
     0
 77
     1
 78
     8
140
2.5
141
2.5
143
0.0393700787
147
0.625
171
     3
172
     1
178
     0
271
     2
272
     2
274
     3
278
    44
283
     0
284
     8
340
11
  0
DIMSTYLE
105
10E
102
{ACAD_REACTORS
330
10C
330
11C
330
126
330
130
330
144
330
164
102
}
330
A
100
AcDbSymbolTableRecord
100
AcDbDimStyleTableRecord
  2
SLDDIMSTYLE0
 70
     0
 41
3.302
 44
0.0
 45
0.000000001
 73
     0
 74
     0
 77
     3
 78
    12
 79
     3
140
3.5
147
0.875
173
     1
178
     0
271
     0
272
     3
276
     2
284
    12
340
10D
341
10F
343
10F
344
10F
  0
DIMSTYLE
105
13B
102
{ACAD_REACTORS
330
13A
330
15B
102
}
330
A
100
AcDbSymbolTableRecord
100
AcDbDimStyleTableRecord
  2
SLDDIMSTYLE1
 70
     0
 41
3.302
 44
0.0
 45
0.000000001
 73
     0
 74
     0
 77
     3
 78
    12
 79
     3
140
3.5
141
0.0
147
0.875
172
     1
173
     1
178
     0
271
     0
272
     3
276
     2
284
    12
340
10D
341
10F
343
10F
344
10F
  0
DIMSTYLE
105
14F
102
{ACAD_REACTORS
330
14E
102
}
330
A
100
AcDbSymbolTableRecord
100
AcDbDimStyleTableRecord
  2
SLDDIMSTYLE2
 70
     0
 41
3.302
 44
0.0
 45
0.000000001
 73
     0
 74
     0
 77
     3
 78
    12
 79
     3
140
3.5
147
0.875
173
     1
178
     0
271
     1
272
     3
276
     2
284
    12
340
10D
341
10F
343
10F
344
10F
  0
ENDTAB
  0
TABLE
  2
BLOCK_RECORD
  5
1
330
0
100
AcDbSymbolTable
 70
    13
  0
BLOCK_RECORD
  5
1F
330
1
100
AcDbSymbolTableRecord
100
AcDbBlockTableRecord
  2
*Model_Space
340
22
  0
BLOCK_RECORD
  5
1B
330
1
100
AcDbSymbolTableRecord
100
AcDbBlockTableRecord
  2
*Paper_Space
340
1E
  0
BLOCK_RECORD
  5
23
330
1
100
AcDbSymbolTableRecord
100
AcDbBlockTableRecord
  2
*Paper_Space0
340
26
  0
BLOCK_RECORD
  5
76
330
1
100
AcDbSymbolTableRecord
100
AcDbBlockTableRecord
  2
SW_CENTERMARKSYMBOL_0
340
0
102
{BLKREFS
331
10A
102
}
  0
BLOCK_RECORD
  5
81
330
1
100
AcDbSymbolTableRecord
100
AcDbBlockTableRecord
  2
SW_CENTERMARKSYMBOL_1
340
0
102
{BLKREFS
331
10B
102
}
  0
BLOCK_RECORD
  5
10F
330
1
100
AcDbSymbolTableRecord
100
AcDbBlockTableRecord
  2
_NONE
340
0
  0
BLOCK_RECORD
  5
112
330
1
100
AcDbSymbolTableRecord
100
AcDbBlockTableRecord
  2
_D
340
0
  0
BLOCK_RECORD
  5
11D
330
1
100
AcDbSymbolTableRecord
100
AcDbBlockTableRecord
  2
_D_1
340
0
  0
BLOCK_RECORD
  5
127
330
1
100
AcDbSymbolTableRecord
100
AcDbBlockTableRecord
  2
_D_2
340
0
  0
BLOCK_RECORD
  5
131
330
1
100
AcDbSymbolTableRecord
100
AcDbBlockTableRecord
  2
_D_3
340
0
  0
BLOCK_RECORD
  5
13C
330
1
100
AcDbSymbolTableRecord
100
AcDbBlockTableRecord
  2
_D_4
340
0
  0
BLOCK_RECORD
  5
145
330
1
100
AcDbSymbolTableRecord
100
AcDbBlockTableRecord
  2
_D_5
340
0
  0
BLOCK_RECORD
  5
150
330
1
100
AcDbSymbolTableRecord
100
AcDbBlockTableRecord
  2
_D_6
340
0
  0
BLOCK_RECORD
  5
15C
330
1
100
AcDbSymbolTableRecord
100
AcDbBlockTableRecord
  2
_D_7
340
0
  0
BLOCK_RECORD
  5
165
330
1
100
AcDbSymbolTableRecord
100
AcDbBlockTableRecord
  2
_D_8
340
0
  0
ENDTAB
  0
ENDSEC
  0
SECTION
  2
BLOCKS
  0
BLOCK
  5
20
330
1F
100
AcDbEntity
  8
0
100
AcDbBlockBegin
  2
*Model_Space
 70
     0
 10
0.0
 20
0.0
 30
0.0
  3
*Model_Space
  1

  0
ENDBLK
  5
21
330
1F
100
AcDbEntity
  8
0
100
AcDbBlockEnd
  0
BLOCK
  5
1C
330
1B
100
AcDbEntity
 67
     1
  8
0
100
AcDbBlockBegin
  2
*Paper_Space
 70
     0
 10
0.0
 20
0.0
 30
0.0
  3
*Paper_Space
  1

  0
ENDBLK
  5
1D
330
1B
100
AcDbEntity
 67
     1
  8
0
100
AcDbBlockEnd
  0
BLOCK
  5
24
330
23
100
AcDbEntity
  8
0
100
AcDbBlockBegin
  2
*Paper_Space0
 70
     0
 10
0.0
 20
0.0
 30
0.0
  3
*Paper_Space0
  1

  0
ENDBLK
  5
25
330
23
100
AcDbEntity
  8
0
100
AcDbBlockEnd
  0
BLOCK
  5
77
330
76
100
AcDbEntity
  8
0
100
AcDbBlockBegin
  2
SW_CENTERMARKSYMBOL_0
 70
     0
 10
0.0
 20
0.0
 30
0.0
  3
SW_CENTERMARKSYMBOL_0
  1

  0
LINE
  5
79
330
76
100
AcDbEntity
  8
SLD-0
  6
SLD-実線
 62
   179
370
    18
100
AcDbLine
 10
0.0
 20
0.0
 30
0.0
 11
0.0
 21
2.5
 31
0.0
  0
LINE
  5
7A
330
76
100
AcDbEntity
  8
SLD-0
  6
SLD-実線
 62
   179
370
    18
100
AcDbLine
 10
0.0
 20
0.0
 30
0.0
 11
-2.5
 21
0.0
 31
0.0
  0
LINE
  5
7B
330
76
100
AcDbEntity
  8
SLD-0
  6
SLD-実線
 62
   179
370
    18
100
AcDbLine
 10
0.0
 20
0.0
 30
0.0
 11
0.0
 21
-2.5
 31
0.0
  0
LINE
  5
7C
330
76
100
AcDbEntity
  8
SLD-0
  6
SLD-実線
 62
   179
370
    18
100
AcDbLine
 10
0.0
 20
0.0
 30
0.0
 11
2.5
 21
0.0
 31
0.0
  0
LINE
  5
7D
330
76
100
AcDbEntity
  8
SLD-0
  6
SLD-実線
 62
   179
370
    18
100
AcDbLine
 10
0.0
 20
5.0
 30
0.0
 11
0.0
 21
16.299232008
 31
0.0
  0
LINE
  5
7E
330
76
100
AcDbEntity
  8
SLD-0
  6
SLD-実線
 62
   179
370
    18
100
AcDbLine
 10
-5.0
 20
0.0
 30
0.0
 11
-16.299232008
 21
0.0
 31
0.0
  0
LINE
  5
7F
330
76
100
AcDbEntity
  8
SLD-0
  6
SLD-実線
 62
   179
370
    18
100
AcDbLine
 10
0.0
 20
-5.0
 30
0.0
 11
0.0
 21
-16.299232008
 31
0.0
  0
LINE
  5
80
330
76
100
AcDbEntity
  8
SLD-0
  6
SLD-実線
 62
   179
370
    18
100
AcDbLine
 10
5.0
 20
0.0
 30
0.0
 11
16.299232008
 21
0.0
 31
0.0
  0
ENDBLK
  5
78
330
76
100
AcDbEntity
  8
0
100
AcDbBlockEnd
  0
BLOCK
  5
82
330
81
100
AcDbEntity
  8
0
100
AcDbBlockBegin
  2
SW_CENTERMARKSYMBOL_1
 70
     0
 10
0.0
 20
0.0
 30
0.0
  3
SW_CENTERMARKSYMBOL_1
  1

  0
LINE
  5
84
330
81
100
AcDbEntity
  8
SLD-0
  6
SLD-実線
 62
   179
370
    18
100
AcDbLine
 10
0.0
 20
0.0
 30
0.0
 11
0.0
 21
2.5
 31
0.0
  0
LINE
  5
85
330
81
100
AcDbEntity
  8
SLD-0
  6
SLD-実線
 62
   179
370
    18
100
AcDbLine
 10
0.0
 20
0.0
 30
0.0
 11
-2.5
 21
0.0
 31
0.0
  0
LINE
  5
86
330
81
100
AcDbEntity
  8
SLD-0
  6
SLD-実線
 62
   179
370
    18
100
AcDbLine
 10
0.0
 20
0.0
 30
0.0
 11
0.0
 21
-2.5
 31
0.0
  0
LINE
  5
87
330
81
100
AcDbEntity
  8
SLD-0
  6
SLD-実線
 62
   179
370
    18
100
AcDbLine
 10
0.0
 20
0.0
 30
0.0
 11
2.5
 21
0.0
 31
0.0
  0
LINE
  5
88
330
81
100
AcDbEntity
  8
SLD-0
  6
SLD-実線
 62
   179
370
    18
100
AcDbLine
 10
0.0
 20
5.0
 30
0.0
 11
0.0
 21
12.5
 31
0.0
  0
LINE
  5
89
330
81
100
AcDbEntity
  8
SLD-0
  6
SLD-実線
 62
   179
370
    18
100
AcDbLine
 10
-5.0
 20
0.0
 30
0.0
 11
-12.5
 21
0.0
 31
0.0
  0
LINE
  5
8A
330
81
100
AcDbEntity
  8
SLD-0
  6
SLD-実線
 62
   179
370
    18
100
AcDbLine
 10
0.0
 20
-5.0
 30
0.0
 11
0.0
 21
-12.5
 31
0.0
  0
LINE
  5
8B
330
81
100
AcDbEntity
  8
SLD-0
  6
SLD-実線
 62
   179
370
    18
100
AcDbLine
 10
5.0
 20
0.0
 30
0.0
 11
12.5
 21
0.0
 31
0.0
  0
ENDBLK
  5
83
330
81
100
AcDbEntity
  8
0
100
AcDbBlockEnd
  0
BLOCK
  5
110
330
10F
100
AcDbEntity
  8
0
100
AcDbBlockBegin
  2
_NONE
 70
     0
 10
0.0
 20
0.0
 30
0.0
  3
_NONE
  1

  0
ENDBLK
  5
111
330
10F
100
AcDbEntity
  8
0
100
AcDbBlockEnd
  0
BLOCK
  5
113
330
112
100
AcDbEntity
  8
0
100
AcDbBlockBegin
  2
_D
 70
     0
 10
0.0
 20
0.0
 30
0.0
  3
_D
  1

  0
LINE
  5
115
330
112
100
AcDbEntity
  8
SLD-0
 62
   179
100
AcDbLine
 10
147.5273562322
 20
205.8124879666
 30
0.0
 11
147.5273562322
 21
228.3124879666
 31
0.0
  0
LINE
  5
116
330
112
100
AcDbEntity
  8
SLD-0
 62
   179
100
AcDbLine
 10
67.5273562322
 20
212.3124879666
 30
0.0
 11
67.5273562322
 21
228.3124879666
 31
0.0
  0
LINE
  5
117
330
112
100
AcDbEntity
  8
SLD-0
 62
   179
100
AcDbLine
 10
147.5273562322
 20
227.3124879666
 30
0.0
 11
67.5273562322
 21
227.3124879666
 31
0.0
  0
MTEXT
  5
119
330
112
100
AcDbEntity
  8
SLD-0
 62
   179
100
AcDbMText
 10
105.4905507347
 20
231.824224823
 30
0.0
 40
3.5
 41
0.0
 71
     1
 72
     1
  1
80
  7
SLDTEXTSTYLE1
 73
     1
 44
1.0
  0
SOLID
  5
11A
330
112
100
AcDbEntity
  8
SLD-0
 62
   179
100
AcDbTrace
 10
147.5273562322
 20
227.3124879666
 30
0.0
 11
144.5273562322
 21
228.0624879666
 31
0.0
 12
144.5273562322
 22
226.5624879666
 32
0.0
 13
144.5273562322
 23
226.5624879666
 33
0.0
  0
SOLID
  5
11B
330
112
100
AcDbEntity
  8
SLD-0
 62
   179
100
AcDbTrace
 10
67.5273562322
 20
227.3124879666
 30
0.0
 11
70.5273562322
 21
226.5624879666
 31
0.0
 12
70.5273562322
 22
228.0624879666
 32
0.0
 13
70.5273562322
 23
228.0624879666
 33
0.0
  0
ENDBLK
  5
114
330
112
100
AcDbEntity
  8
0
100
AcDbBlockEnd
  0
BLOCK
  5
11E
330
11D
100
AcDbEntity
  8
0
100
AcDbBlockBegin
  2
_D_1
 70
     0
 10
0.0
 20
0.0
 30
0.0
  3
_D_1
  1

  0
LINE
  5
120
330
11D
100
AcDbEntity
  8
SLD-0
 62
   179
100
AcDbLine
 10
66.5273562322
 20
211.3124879666
 30
0.0
 11
42.060553844
 21
211.3124879666
 31
0.0
  0
LINE
  5
121
330
11D
100
AcDbEntity
  8
SLD-0
 62
   179
100
AcDbLine
 10
94.5273562322
 20
173.3124879666
 30
0.0
 11
42.060553844
 21
173.3124879666
 31
0.0
  0
LINE
  5
122
330
11D
100
AcDbEntity
  8
SLD-0
 62
   179
100
AcDbLine
 10
43.060553844
 20
211.3124879666
 30
0.0
 11
43.060553844
 21
173.3124879666
 31
0.0
  0
MTEXT
  5
123
330
11D
100
AcDbEntity
  8
SLD-0
 62
   179
100
AcDbMText
 10
38.5488169876
 20
190.2756824691
 30
0.0
 40
3.5
 41
0.0
 71
     1
 72
     1
  1
38
  7
SLDTEXTSTYLE1
 11
-7.044195017643634E-15
 21
1.0
 31
0.0
 73
     1
 44
1.0
  0
SOLID
  5
124
330
11D
100
AcDbEntity
  8
SLD-0
 62
   179
100
AcDbTrace
 10
43.060553844
 20
211.3124879666
 30
0.0
 11
42.310553844
 21
208.3124879666
 31
0.0
 12
43.810553844
 22
208.3124879666
 32
0.0
 13
43.810553844
 23
208.3124879666
 33
0.0
  0
SOLID
  5
125
330
11D
100
AcDbEntity
  8
SLD-0
 62
   179
100
AcDbTrace
 10
43.060553844
 20
173.3124879666
 30
0.0
 11
43.810553844
 21
176.3124879666
 31
0.0
 12
42.310553844
 22
176.3124879666
 32
0.0
 13
42.310553844
 23
176.3124879666
 33
0.0
  0
ENDBLK
  5
11F
330
11D
100
AcDbEntity
  8
0
100
AcDbBlockEnd
  0
BLOCK
  5
128
330
127
100
AcDbEntity
  8
0
100
AcDbBlockBegin
  2
_D_2
 70
     0
 10
0.0
 20
0.0
 30
0.0
  3
_D_2
  1

  0
LINE
  5
12A
330
127
100
AcDbEntity
  8
SLD-0
 62
   179
100
AcDbLine
 10
66.5273562322
 20
211.3124879666
 30
0.0
 11
56.5273562322
 21
211.3124879666
 31
0.0
  0
LINE
  5
12B
330
127
100
AcDbEntity
  8
SLD-0
 62
   179
100
AcDbLine
 10
78.2281242242
 20
192.3124879666
 30
0.0
 11
56.5273562322
 21
192.3124879666
 31
0.0
  0
LINE
  5
12C
330
127
100
AcDbEntity
  8
SLD-0
 62
   179
100
AcDbLine
 10
57.5273562322
 20
211.3124879666
 30
0.0
 11
57.5273562322
 21
192.3124879666
 31
0.0
  0
MTEXT
  5
12D
330
127
100
AcDbEntity
  8
SLD-0
 62
   179
100
AcDbMText
 10
53.0156193758
 20
199.7756824691
 30
0.0
 40
3.5
 41
0.0
 71
     1
 72
     1
  1
19
  7
SLDTEXTSTYLE1
 11
-7.044195017643634E-15
 21
1.0
 31
0.0
 73
     1
 44
1.0
  0
SOLID
  5
12E
330
127
100
AcDbEntity
  8
SLD-0
 62
   179
100
AcDbTrace
 10
57.5273562322
 20
211.3124879666
 30
0.0
 11
56.7773562322
 21
208.3124879666
 31
0.0
 12
58.2773562322
 22
208.3124879666
 32
0.0
 13
58.2773562322
 23
208.3124879666
 33
0.0
  0
SOLID
  5
12F
330
127
100
AcDbEntity
  8
SLD-0
 62
   179
100
AcDbTrace
 10
57.5273562322
 20
192.3124879666
 30
0.0
 11
58.2773562322
 21
195.3124879666
 31
0.0
 12
56.7773562322
 22
195.3124879666
 32
0.0
 13
56.7773562322
 23
195.3124879666
 33
0.0
  0
ENDBLK
  5
129
330
127
100
AcDbEntity
  8
0
100
AcDbBlockEnd
  0
BLOCK
  5
132
330
131
100
AcDbEntity
  8
0
100
AcDbBlockBegin
  2
_D_3
 70
     0
 10
0.0
 20
0.0
 30
0.0
  3
_D_3
  1

  0
LINE
  5
134
330
131
100
AcDbEntity
  8
SLD-0
 62
   179
100
AcDbLine
 10
67.5273562322
 20
182.3124879666
 30
0.0
 11
67.5273562322
 21
156.3124879666
 31
0.0
  0
LINE
  5
135
330
131
100
AcDbEntity
  8
SLD-0
 62
   179
100
AcDbLine
 10
95.5273562322
 20
175.0132559586
 30
0.0
 11
95.5273562322
 21
156.3124879666
 31
0.0
  0
LINE
  5
136
330
131
100
AcDbEntity
  8
SLD-0
 62
   179
100
AcDbLine
 10
67.5273562322
 20
157.3124879666
 30
0.0
 11
95.5273562322
 21
157.3124879666
 31
0.0
  0
MTEXT
  5
137
330
131
100
AcDbEntity
  8
SLD-0
 62
   179
100
AcDbMText
 10
79.4905507347
 20
161.824224823
 30
0.0
 40
3.5
 41
0.0
 71
     1
 72
     1
  1
28
  7
SLDTEXTSTYLE1
 73
     1
 44
1.0
  0
SOLID
  5
138
330
131
100
AcDbEntity
  8
SLD-0
 62
   179
100
AcDbTrace
 10
67.5273562322
 20
157.3124879666
 30
0.0
 11
70.5273562322
 21
156.5624879666
 31
0.0
 12
70.5273562322
 22
158.0624879666
 32
0.0
 13
70.5273562322
 23
158.0624879666
 33
0.0
  0
SOLID
  5
139
330
131
100
AcDbEntity
  8
SLD-0
 62
   179
100
AcDbTrace
 10
95.5273562322
 20
157.3124879666
 30
0.0
 11
92.5273562322
 21
158.0624879666
 31
0.0
 12
92.5273562322
 22
156.5624879666
 32
0.0
 13
92.5273562322
 23
156.5624879666
 33
0.0
  0
ENDBLK
  5
133
330
131
100
AcDbEntity
  8
0
100
AcDbBlockEnd
  0
BLOCK
  5
13D
330
13C
100
AcDbEntity
  8
0
100
AcDbBlockBegin
  2
_D_4
 70
     0
 10
0.0
 20
0.0
 30
0.0
  3
_D_4
  1

  0
LINE
  5
13F
330
13C
100
AcDbEntity
  8
SLD-0
 62
   179
100
AcDbLine
 10
102.5598994694
 20
185.2031043353
 30
0.0
 11
121.7762236573
 21
165.7768148653
 31
0.0
  0
LINE
  5
140
330
13C
100
AcDbEntity
  8
SLD-0
 62
   179
100
AcDbLine
 10
121.7762236573
 20
165.7768148653
 30
0.0
 11
131.3072654001
 21
165.7768148653
 31
0.0
  0
MTEXT
  5
141
330
13C
100
AcDbEntity
  8
SLD-0
 62
   179
100
AcDbMText
 10
121.6137236573
 20
170.2885521873
 30
0.0
 40
3.5
 41
0.0
 71
     1
 72
     1
  1
%%c
  7
SLDTEXTSTYLE1
 73
     1
 44
1.0
  0
MTEXT
  5
142
330
13C
100
AcDbEntity
  8
SLD-0
 62
   179
100
AcDbMText
 10
127.2336541723
 20
170.2885521873
 30
0.0
 40
3.5
 41
0.0
 71
     1
 72
     1
  1
20
  7
SLDTEXTSTYLE1
 73
     1
 44
1.0
  0
SOLID
  5
143
330
13C
100
AcDbEntity
  8
SLD-0
 62
   179
100
AcDbTrace
 10
102.5598994694
 20
185.2031043353
 30
0.0
 11
104.1364586682
 21
182.5428485031
 31
0.0
 12
105.2028662129
 22
183.5977299887
 32
0.0
 13
105.2028662129
 23
183.5977299887
 33
0.0
  0
ENDBLK
  5
13E
330
13C
100
AcDbEntity
  8
0
100
AcDbBlockEnd
  0
BLOCK
  5
146
330
145
100
AcDbEntity
  8
0
100
AcDbBlockBegin
  2
_D_5
 70
     0
 10
0.0
 20
0.0
 30
0.0
  3
_D_5
  1

  0
LINE
  5
148
330
145
100
AcDbEntity
  8
SLD-0
 62
   179
100
AcDbLine
 10
148.5273562322
 20
114.0435031524
 30
0.0
 11
176.5273562322
 21
114.0435031524
 31
0.0
  0
LINE
  5
149
330
145
100
AcDbEntity
  8
SLD-0
 62
   179
100
AcDbLine
 10
148.5273562322
 20
89.0435031524
 30
0.0
 11
176.5273562322
 21
89.0435031524
 31
0.0
  0
LINE
  5
14A
330
145
100
AcDbEntity
  8
SLD-0
 62
   179
100
AcDbLine
 10
175.5273562322
 20
114.0435031524
 30
0.0
 11
175.5273562322
 21
89.0435031524
 31
0.0
  0
MTEXT
  5
14B
330
145
100
AcDbEntity
  8
SLD-0
 62
   179
100
AcDbMText
 10
171.0156193758
 20
99.5066976549
 30
0.0
 40
3.5
 41
0.0
 71
     1
 72
     1
  1
25
  7
SLDTEXTSTYLE1
 11
-7.044195017643634E-15
 21
1.0
 31
0.0
 73
     1
 44
1.0
  0
SOLID
  5
14C
330
145
100
AcDbEntity
  8
SLD-0
 62
   179
100
AcDbTrace
 10
175.5273562322
 20
114.0435031524
 30
0.0
 11
174.7773562322
 21
111.0435031524
 31
0.0
 12
176.2773562322
 22
111.0435031524
 32
0.0
 13
176.2773562322
 23
111.0435031524
 33
0.0
  0
SOLID
  5
14D
330
145
100
AcDbEntity
  8
SLD-0
 62
   179
100
AcDbTrace
 10
175.5273562322
 20
89.0435031524
 30
0.0
 11
176.2773562322
 21
92.0435031524
 31
0.0
 12
174.7773562322
 22
92.0435031524
 32
0.0
 13
174.7773562322
 23
92.0435031524
 33
0.0
  0
ENDBLK
  5
147
330
145
100
AcDbEntity
  8
0
100
AcDbBlockEnd
  0
BLOCK
  5
151
330
150
100
AcDbEntity
  8
0
100
AcDbBlockBegin
  2
_D_6
 70
     0
 10
0.0
 20
0.0
 30
0.0
  3
_D_6
  1

  0
LINE
  5
153
330
150
100
AcDbEntity
  8
SLD-0
 62
   179
100
AcDbLine
 10
148.5273562322
 20
114.0435031524
 30
0.0
 11
164.5273562322
 21
114.0435031524
 31
0.0
  0
LINE
  5
154
330
150
100
AcDbEntity
  8
SLD-0
 62
   179
100
AcDbLine
 10
139.0273562322
 20
101.5435031524
 30
0.0
 11
164.5273562322
 21
101.5435031524
 31
0.0
  0
LINE
  5
155
330
150
100
AcDbEntity
  8
SLD-0
 62
   179
100
AcDbLine
 10
163.5273562322
 20
114.0435031524
 30
0.0
 11
163.5273562322
 21
119.0435031524
 31
0.0
  0
LINE
  5
156
330
150
100
AcDbEntity
  8
SLD-0
 62
   179
100
AcDbLine
 10
163.5273562322
 20
114.0435031524
 30
0.0
 11
163.5273562322
 21
101.5435031524
 31
0.0
  0
LINE
  5
157
330
150
100
AcDbEntity
  8
SLD-0
 62
   179
100
AcDbLine
 10
163.5273562322
 20
101.5435031524
 30
0.0
 11
163.5273562322
 21
96.5435031524
 31
0.0
  0
MTEXT
  5
158
330
150
100
AcDbEntity
  8
SLD-0
 62
   179
100
AcDbMText
 10
159.0156193758
 20
103.7198921574
 30
0.0
 40
3.5
 41
0.0
 71
     1
 72
     1
  1
12.5
  7
SLDTEXTSTYLE1
 11
-7.044195017643634E-15
 21
1.0
 31
0.0
 73
     1
 44
1.0
  0
SOLID
  5
159
330
150
100
AcDbEntity
  8
SLD-0
 62
   179
100
AcDbTrace
 10
163.5273562322
 20
114.0435031524
 30
0.0
 11
164.2773562322
 21
117.0435031524
 31
0.0
 12
162.7773562322
 22
117.0435031524
 32
0.0
 13
162.7773562322
 23
117.0435031524
 33
0.0
  0
SOLID
  5
15A
330
150
100
AcDbEntity
  8
SLD-0
 62
   179
100
AcDbTrace
 10
163.5273562322
 20
101.5435031524
 30
0.0
 11
162.7773562322
 21
98.5435031524
 31
0.0
 12
164.2773562322
 22
98.5435031524
 32
0.0
 13
164.2773562322
 23
98.5435031524
 33
0.0
  0
ENDBLK
  5
152
330
150
100
AcDbEntity
  8
0
100
AcDbBlockEnd
  0
BLOCK
  5
15D
330
15C
100
AcDbEntity
  8
0
100
AcDbBlockBegin
  2
_D_7
 70
     0
 10
0.0
 20
0.0
 30
0.0
  3
_D_7
  1

  0
LINE
  5
15F
330
15C
100
AcDbEntity
  8
SLD-0
 62
   179
100
AcDbLine
 10
132.6388418837
 20
108.5739207664
 30
0.0
 11
150.6866485356
 21
126.4159897794
 31
0.0
  0
LINE
  5
160
330
15C
100
AcDbEntity
  8
SLD-0
 62
   179
100
AcDbLine
 10
150.6866485356
 20
126.4159897794
 30
0.0
 11
160.2176902784
 21
126.4159897794
 31
0.0
  0
MTEXT
  5
161
330
15C
100
AcDbEntity
  8
SLD-0
 62
   179
100
AcDbMText
 10
150.5241485356
 20
130.9277271015
 30
0.0
 40
3.5
 41
0.0
 71
     1
 72
     1
  1
%%c
  7
SLDTEXTSTYLE1
 73
     1
 44
1.0
  0
MTEXT
  5
162
330
15C
100
AcDbEntity
  8
SLD-0
 62
   179
100
AcDbMText
 10
156.1440790506
 20
130.9277271015
 30
0.0
 40
3.5
 41
0.0
 71
     1
 72
     1
  1
20
  7
SLDTEXTSTYLE1
 73
     1
 44
1.0
  0
SOLID
  5
163
330
15C
100
AcDbEntity
  8
SLD-0
 62
   179
100
AcDbTrace
 10
132.6388418837
 20
108.5739207664
 30
0.0
 11
135.2995689002
 21
110.1496846268
 31
0.0
 12
134.2450062581
 22
111.2164074745
 32
0.0
 13
134.2450062581
 23
111.2164074745
 33
0.0
  0
ENDBLK
  5
15E
330
15C
100
AcDbEntity
  8
0
100
AcDbBlockEnd
  0
BLOCK
  5
166
330
165
100
AcDbEntity
  8
0
100
AcDbBlockBegin
  2
_D_8
 70
     0
 10
0.0
 20
0.0
 30
0.0
  3
_D_8
  1

  0
LINE
  5
168
330
165
100
AcDbEntity
  8
SLD-0
 62
   179
100
AcDbLine
 10
67.5273562322
 20
108.5435031524
 30
0.0
 11
67.5273562322
 21
127.7027954557
 31
0.0
  0
LINE
  5
169
330
165
100
AcDbEntity
  8
SLD-0
 62
   179
100
AcDbLine
 10
125.5273562322
 20
115.0435031524
 30
0.0
 11
125.5273562322
 21
127.7027954557
 31
0.0
  0
LINE
  5
16A
330
165
100
AcDbEntity
  8
SLD-0
 62
   179
100
AcDbLine
 10
67.5273562322
 20
126.7027954557
 30
0.0
 11
125.5273562322
 21
126.7027954557
 31
0.0
  0
MTEXT
  5
16B
330
165
100
AcDbEntity
  8
SLD-0
 62
   179
100
AcDbMText
 10
94.4905507347
 20
131.2145323121
 30
0.0
 40
3.5
 41
0.0
 71
     1
 72
     1
  1
58
  7
SLDTEXTSTYLE1
 73
     1
 44
1.0
  0
SOLID
  5
16C
330
165
100
AcDbEntity
  8
SLD-0
 62
   179
100
AcDbTrace
 10
67.5273562322
 20
126.7027954557
 30
0.0
 11
70.5273562322
 21
125.9527954557
 31
0.0
 12
70.5273562322
 22
127.4527954557
 32
0.0
 13
70.5273562322
 23
127.4527954557
 33
0.0
  0
SOLID
  5
16D
330
165
100
AcDbEntity
  8
SLD-0
 62
   179
100
AcDbTrace
 10
125.5273562322
 20
126.7027954557
 30
0.0
 11
122.5273562322
 21
127.4527954557
 31
0.0
 12
122.5273562322
 22
125.9527954557
 32
0.0
 13
122.5273562322
 23
125.9527954557
 33
0.0
  0
ENDBLK
  5
167
330
165
100
AcDbEntity
  8
0
100
AcDbBlockEnd
  0
ENDSEC
  0
SECTION
  2
ENTITIES
  0
LINE
  5
8C
330
1F
100
AcDbEntity
  8
SLD-0
  6
SLD-実線
 62
   179
370
    18
100
AcDbLine
 10
20.2604743903
 20
285.0
 30
0.0
 11
196.7604743903
 21
285.0
 31
0.0
  0
LINE
  5
8D
330
1F
100
AcDbEntity
  8
SLD-0
  6
SLD-実線
 62
   179
370
    18
100
AcDbLine
 10
20.2604743903
 20
285.0
 30
0.0
 11
20.2604743903
 21
10.0
 31
0.0
  0
LINE
  5
8E
330
1F
100
AcDbEntity
  8
SLD-0
  6
SLD-実線
 62
   179
370
    18
100
AcDbLine
 10
20.2604743903
 20
10.0
 30
0.0
 11
196.7604743903
 21
10.0
 31
0.0
  0
LINE
  5
8F
330
1F
100
AcDbEntity
  8
SLD-0
  6
SLD-実線
 62
   179
370
    18
100
AcDbLine
 10
196.7604743903
 20
285.0
 30
0.0
 11
196.7604743903
 21
10.0
 31
0.0
  0
LINE
  5
90
330
1F
100
AcDbEntity
  8
SLD-0
  6
SLD-実線
 62
   179
370
    18
100
AcDbLine
 10
127.0104743903
 20
50.75
 30
0.0
 11
196.7604743903
 21
50.75
 31
0.0
  0
LINE
  5
91
330
1F
100
AcDbEntity
  8
SLD-0
  6
SLD-実線
 62
   179
370
    18
100
AcDbLine
 10
127.0104743903
 20
50.75
 30
0.0
 11
127.0104743903
 21
10.0
 31
0.0
  0
LINE
  5
92
330
1F
100
AcDbEntity
  8
SLD-0
  6
SLD-実線
 62
   179
370
    18
100
AcDbLine
 10
127.0104743903
 20
22.75
 30
0.0
 11
196.7604743903
 21
22.75
 31
0.0
  0
LINE
  5
93
330
1F
100
AcDbEntity
  8
SLD-0
  6
SLD-実線
 62
   179
370
    18
100
AcDbLine
 10
127.0104743903
 20
36.75
 30
0.0
 11
196.7604743903
 21
36.75
 31
0.0
  0
LINE
  5
94
330
1F
100
AcDbEntity
  8
SLD-0
  6
SLD-実線
 62
   179
370
    18
100
AcDbLine
 10
79.5273562322
 20
177.6124879666
 30
0.0
 11
80.0273562322
 21
183.3124879666
 31
0.0
  0
LINE
  5
95
330
1F
100
AcDbEntity
  8
SLD-0
  6
SLD-実線
 62
   179
370
    18
100
AcDbLine
 10
69.5273562322
 20
183.3124879666
 30
0.0
 11
69.5273562322
 21
177.6124879666
 31
0.0
  0
LINE
  5
96
330
1F
100
AcDbEntity
  8
SLD-0
  6
SLD-実線
 62
   179
370
    18
100
AcDbLine
 10
77.5273562322
 20
190.3124879666
 30
0.0
 11
77.5273562322
 21
194.3124879666
 31
0.0
  0
LINE
  5
97
330
1F
100
AcDbEntity
  8
SLD-0
  6
SLD-実線
 62
   179
370
    18
100
AcDbLine
 10
71.5273562322
 20
194.3124879666
 30
0.0
 11
71.5273562322
 21
190.3124879666
 31
0.0
  0
LINE
  5
98
330
1F
100
AcDbEntity
  8
SLD-0
  6
SLD-実線
 62
   179
370
    18
100
AcDbLine
 10
147.5273569977
 20
204.8124879666
 30
0.0
 11
147.5273569977
 21
179.8124863329
 31
0.0
  0
LINE
  5
99
330
1F
100
AcDbEntity
  8
SLD-0
  6
SLD-実線
 62
   179
370
    18
100
AcDbLine
 10
147.5273569977
 20
179.8124863329
 30
0.0
 11
119.5273569977
 21
179.8124863329
 31
0.0
  0
LINE
  5
9A
330
1F
100
AcDbEntity
  8
SLD-0
  6
SLD-実線
 62
   179
370
    18
100
AcDbLine
 10
119.5273569977
 20
204.8124879666
 30
0.0
 11
119.5273569977
 21
179.8124863329
 31
0.0
  0
LINE
  5
9B
330
1F
100
AcDbEntity
  8
SLD-0
  6
SLD-実線
 62
   179
370
    18
100
AcDbLine
 10
119.5273569977
 20
204.8124879666
 30
0.0
 11
147.5273569977
 21
204.8124879666
 31
0.0
  0
LINE
  5
9C
330
1F
100
AcDbEntity
  8
SLD-0
  6
SLD-実線
 62
   179
370
    18
100
AcDbLine
 10
109.4292800208
 20
205.9461791539
 30
0.0
 11
109.4292800208
 21
198.1298908528
 31
0.0
  0
LINE
  5
9D
330
1F
100
AcDbEntity
  8
SLD-0
  6
SLD-実線
 62
   179
370
    18
100
AcDbLine
 10
109.4292800208
 20
186.4950850805
 30
0.0
 11
109.4292800208
 21
178.6787967793
 31
0.0
  0
LINE
  5
9E
330
1F
100
AcDbEntity
  8
SLD-0
  6
SLD-実線
 62
   179
370
    18
100
AcDbLine
 10
119.5273569977
 20
179.8124863329
 30
0.0
 11
114.5273569976
 21
179.8124863329
 31
0.0
  0
LINE
  5
9F
330
1F
100
AcDbEntity
  8
SLD-0
  6
SLD-実線
 62
   179
370
    18
100
AcDbLine
 10
114.5273562322
 20
204.8124897707
 30
0.0
 11
119.5273569977
 21
204.8124879666
 31
0.0
  0
LINE
  5
A0
330
1F
100
AcDbEntity
  8
SLD-0
  6
SLD-実線
 62
   179
370
    18
100
AcDbLine
 10
106.9292800208
 20
202.1665122858
 30
0.0
 11
106.9292800208
 21
207.5110449349
 31
0.0
  0
LINE
  5
A1
330
1F
100
AcDbEntity
  8
SLD-0
  6
SLD-実線
 62
   179
370
    18
100
AcDbLine
 10
106.9292800208
 20
177.1139309983
 30
0.0
 11
106.9292800208
 21
182.4584636475
 31
0.0
  0
LINE
  5
A2
330
1F
100
AcDbEntity
  8
SLD-0
  6
SLD-実線
 62
   179
370
    18
100
AcDbLine
 10
80.0273562322
 20
178.3124879666
 30
0.0
 11
80.0273562322
 21
183.3124879666
 31
0.0
  0
LINE
  5
A3
330
1F
100
AcDbEntity
  8
SLD-0
  6
SLD-実線
 62
   179
370
    18
100
AcDbLine
 10
80.0273562322
 20
183.3124879666
 30
0.0
 11
67.5273562322
 21
183.3124879666
 31
0.0
  0
LINE
  5
A4
330
1F
100
AcDbEntity
  8
SLD-0
  6
SLD-実線
 62
   179
370
    18
100
AcDbLine
 10
67.5273562322
 20
190.3124879666
 30
0.0
 11
80.5906343239
 21
190.3124879666
 31
0.0
  0
LINE
  5
A5
330
1F
100
AcDbEntity
  8
SLD-0
  6
SLD-実線
 62
   179
370
    18
100
AcDbLine
 10
87.990310408
 20
174.8713601291
 30
0.0
 11
80.0273562322
 21
178.3124879666
 31
0.0
  0
LINE
  5
A6
330
1F
100
AcDbEntity
  8
SLD-0
  6
SLD-実線
 62
   179
370
    18
100
AcDbLine
 10
67.5273562322
 20
183.3124879666
 30
0.0
 11
67.5273562322
 21
190.3124879666
 31
0.0
  0
LINE
  5
A7
330
1F
100
AcDbEntity
  8
SLD-0
  6
SLD-実線
 62
   179
370
    18
100
AcDbLine
 10
80.5906343239
 20
194.3124879666
 30
0.0
 11
67.5273562322
 21
194.3124879666
 31
0.0
  0
LINE
  5
A8
330
1F
100
AcDbEntity
  8
SLD-0
  6
SLD-実線
 62
   179
370
    18
100
AcDbLine
 10
67.5273562322
 20
194.3124879666
 30
0.0
 11
67.5273562322
 21
211.3124879666
 31
0.0
  0
LINE
  5
A9
330
1F
100
AcDbEntity
  8
SLD-0
  6
SLD-実線
 62
   179
370
    18
100
AcDbLine
 10
67.5273562322
 20
211.3124879666
 30
0.0
 11
95.5273562322
 21
211.3124879666
 31
0.0
  0
LINE
  5
AA
330
1F
100
AcDbEntity
  8
SLD-0
  6
SLD-実線
 62
   179
370
    18
100
AcDbLine
 10
107.466891399
 20
193.8124879666
 30
0.0
 11
109.2448197007
 21
193.8124879666
 31
0.0
  0
LINE
  5
AB
330
1F
100
AcDbEntity
  8
SLD-0
  6
SLD-実線
 62
   179
370
    18
100
AcDbLine
 10
109.2448197007
 20
190.8124879666
 30
0.0
 11
107.466891399
 21
190.8124879666
 31
0.0
  0
LINE
  5
AC
330
1F
100
AcDbEntity
  8
SLD-0
  6
SLD-実線
 62
   179
370
    18
100
AcDbLine
 10
105.7175475945
 20
193.8124879666
 30
0.0
 11
105.6062218049
 21
193.8124879666
 31
0.0
  0
LINE
  5
AD
330
1F
100
AcDbEntity
  8
SLD-0
  6
SLD-実線
 62
   179
370
    18
100
AcDbLine
 10
105.7142161988
 20
190.8124879666
 30
0.0
 11
105.7175475945
 21
190.8124879666
 31
0.0
  0
LINE
  5
AE
330
1F
100
AcDbEntity
  8
SLD-0
  6
SLD-実線
 62
   179
370
    18
100
AcDbLine
 10
105.7175475945
 20
193.8124879666
 30
0.0
 11
107.466891399
 21
193.8124879666
 31
0.0
  0
LINE
  5
AF
330
1F
100
AcDbEntity
  8
SLD-0
  6
SLD-実線
 62
   179
370
    18
100
AcDbLine
 10
107.466891399
 20
190.8124879666
 30
0.0
 11
105.7175475945
 21
190.8124879666
 31
0.0
  0
LINE
  5
B0
330
1F
100
AcDbEntity
  8
SLD-0
  6
SLD-実線
 62
   179
370
    18
100
AcDbLine
 10
70.1858345319
 20
177.3124879666
 30
0.0
 11
69.8273562322
 21
177.3124879666
 31
0.0
  0
LINE
  5
B1
330
1F
100
AcDbEntity
  8
SLD-0
  6
SLD-実線
 62
   179
370
    18
100
AcDbLine
 10
79.2273562322
 20
177.3124879666
 30
0.0
 11
70.1858345319
 21
177.3124879666
 31
0.0
  0
LINE
  5
B2
330
1F
100
AcDbEntity
  8
SLD-0
  6
SLD-実線
 62
     8
370
    18
100
AcDbLine
 10
69.9087161255
 20
177.6124879666
 30
0.0
 11
79.5273562322
 21
177.6124879666
 31
0.0
  0
LINE
  5
B3
330
1F
100
AcDbEntity
  8
SLD-0
  6
SLD-実線
 62
     8
370
    18
100
AcDbLine
 10
69.5273562322
 20
177.6124879666
 30
0.0
 11
69.9087161255
 21
177.6124879666
 31
0.0
  0
LINE
  5
B4
330
1F
100
AcDbEntity
  8
SLD-0
  6
SLD-1点鎖線(中心線)
 62
   179
370
    18
100
AcDbLine
 10
125.5022934177
 20
177.8124879666
 30
0.0
 11
125.5022934177
 21
206.8124879666
 31
0.0
  0
LINE
  5
B5
330
1F
100
AcDbEntity
  8
SLD-0
  6
SLD-実線
 62
   179
370
    18
100
AcDbLine
 10
144.5273562322
 20
100.5435031524
 30
0.0
 11
144.5273562322
 21
102.5435031524
 31
0.0
  0
LINE
  5
B6
330
1F
100
AcDbEntity
  8
SLD-0
  6
SLD-実線
 62
   179
370
    18
100
AcDbLine
 10
138.5273562322
 20
102.5435031524
 30
0.0
 11
138.5273562322
 21
100.5435031524
 31
0.0
  0
LINE
  5
B7
330
1F
100
AcDbEntity
  8
SLD-0
  6
SLD-実線
 62
   179
370
    18
100
AcDbLine
 10
83.4939651889
 20
109.5435031524
 30
0.0
 11
82.8664565256
 21
108.5079929842
 31
0.0
  0
LINE
  5
B8
330
1F
100
AcDbEntity
  8
SLD-0
  6
SLD-実線
 62
   179
370
    18
100
AcDbLine
 10
82.8664565256
 20
108.5079929842
 30
0.0
 11
82.3819197617
 21
107.5435031524
 31
0.0
  0
LINE
  5
B9
330
1F
100
AcDbEntity
  8
SLD-0
  6
SLD-実線
 62
   179
370
    18
100
AcDbLine
 10
82.3819197617
 20
95.5435031524
 30
0.0
 11
82.8664565256
 21
94.5790133205
 31
0.0
  0
LINE
  5
BA
330
1F
100
AcDbEntity
  8
SLD-0
  6
SLD-実線
 62
   179
370
    18
100
AcDbLine
 10
82.8664565256
 20
94.5790133205
 30
0.0
 11
83.4939651889
 21
93.5435031524
 31
0.0
  0
LINE
  5
BB
330
1F
100
AcDbEntity
  8
SLD-0
  6
SLD-実線
 62
   179
370
    18
100
AcDbLine
 10
87.990310408
 20
95.5435031524
 30
0.0
 11
87.990310408
 21
107.5435031524
 31
0.0
  0
LINE
  5
BC
330
1F
100
AcDbEntity
  8
SLD-0
  6
SLD-実線
 62
   179
370
    18
100
AcDbLine
 10
106.9292800208
 20
107.5435031524
 30
0.0
 11
87.990310408
 21
107.5435031524
 31
0.0
  0
LINE
  5
BD
330
1F
100
AcDbEntity
  8
SLD-0
  6
SLD-実線
 62
   179
370
    18
100
AcDbLine
 10
107.1684845661
 20
95.5377779932
 30
0.0
 11
107.1684845661
 21
107.5492283116
 31
0.0
  0
LINE
  5
BE
330
1F
100
AcDbEntity
  8
SLD-0
  6
SLD-実線
 62
   179
370
    18
100
AcDbLine
 10
106.9292800208
 20
95.5435031524
 30
0.0
 11
87.990310408
 21
95.5435031524
 31
0.0
  0
LINE
  5
BF
330
1F
100
AcDbEntity
  8
SLD-0
  6
SLD-実線
 62
   179
370
    18
100
AcDbLine
 10
80.0273562322
 20
95.5435031524
 30
0.0
 11
80.0273562322
 21
107.5435031524
 31
0.0
  0
LINE
  5
C0
330
1F
100
AcDbEntity
  8
SLD-0
  6
SLD-実線
 62
   179
370
    18
100
AcDbLine
 10
87.990310408
 20
107.5435031524
 30
0.0
 11
80.0273562322
 21
107.5435031524
 31
0.0
  0
LINE
  5
C1
330
1F
100
AcDbEntity
  8
SLD-0
  6
SLD-実線
 62
   179
370
    18
100
AcDbLine
 10
87.990310408
 20
95.5435031524
 30
0.0
 11
80.0273562322
 21
95.5435031524
 31
0.0
  0
LINE
  5
C2
330
1F
100
AcDbEntity
  8
SLD-0
  6
SLD-実線
 62
   179
370
    18
100
AcDbLine
 10
114.5273562312
 20
111.1567518059
 30
0.0
 11
109.4292800208
 21
108.2133761334
 31
0.0
  0
LINE
  5
C3
330
1F
100
AcDbEntity
  8
SLD-0
  6
SLD-実線
 62
   179
370
    18
100
AcDbLine
 10
114.5273562312
 20
107.5435031524
 30
0.0
 11
114.5273562312
 21
111.1567518059
 31
0.0
  0
LINE
  5
C4
330
1F
100
AcDbEntity
  8
SLD-0
  6
SLD-実線
 62
   179
370
    18
100
AcDbLine
 10
114.5273562312
 20
107.5435031524
 30
0.0
 11
114.5207761454
 21
107.5435031524
 31
0.0
  0
LINE
  5
C5
330
1F
100
AcDbEntity
  8
SLD-0
  6
SLD-実線
 62
   179
370
    18
100
AcDbLine
 10
114.5207761454
 20
107.5435031524
 30
0.0
 11
114.5207761454
 21
95.5435031524
 31
0.0
  0
LINE
  5
C6
330
1F
100
AcDbEntity
  8
SLD-0
  6
SLD-実線
 62
   179
370
    18
100
AcDbLine
 10
114.5273562322
 20
95.5435031524
 30
0.0
 11
114.5207761454
 21
95.5435031524
 31
0.0
  0
LINE
  5
C7
330
1F
100
AcDbEntity
  8
SLD-0
  6
SLD-実線
 62
   179
370
    18
100
AcDbLine
 10
114.5273562322
 20
91.9302544983
 30
0.0
 11
114.5273562322
 21
95.5435031524
 31
0.0
  0
LINE
  5
C8
330
1F
100
AcDbEntity
  8
SLD-0
  6
SLD-実線
 62
   179
370
    18
100
AcDbLine
 10
109.4292800208
 20
94.8736301713
 30
0.0
 11
114.5273562322
 21
91.9302544983
 31
0.0
  0
LINE
  5
C9
330
1F
100
AcDbEntity
  8
SLD-0
  6
SLD-実線
 62
   179
370
    18
100
AcDbLine
 10
147.5273562322
 20
114.0435031524
 30
0.0
 11
119.5273562323
 21
114.0435031524
 31
0.0
  0
LINE
  5
CA
330
1F
100
AcDbEntity
  8
SLD-0
  6
SLD-実線
 62
   179
370
    18
100
AcDbLine
 10
147.5273562322
 20
102.5435031524
 30
0.0
 11
147.5273562322
 21
114.0435031524
 31
0.0
  0
LINE
  5
CB
330
1F
100
AcDbEntity
  8
SLD-0
  6
SLD-実線
 62
   179
370
    18
100
AcDbLine
 10
147.5273562322
 20
102.5435031524
 30
0.0
 11
135.4772306033
 21
102.5435031524
 31
0.0
  0
LINE
  5
CC
330
1F
100
AcDbEntity
  8
SLD-0
  6
SLD-実線
 62
   179
370
    18
100
AcDbLine
 10
135.4772306033
 20
100.5435031524
 30
0.0
 11
147.5273562322
 21
100.5435031524
 31
0.0
  0
LINE
  5
CD
330
1F
100
AcDbEntity
  8
SLD-0
  6
SLD-実線
 62
   179
370
    18
100
AcDbLine
 10
147.5273562322
 20
89.0435031524
 30
0.0
 11
147.5273562322
 21
100.5435031524
 31
0.0
  0
LINE
  5
CE
330
1F
100
AcDbEntity
  8
SLD-0
  6
SLD-実線
 62
   179
370
    18
100
AcDbLine
 10
147.5273562322
 20
89.0435031524
 30
0.0
 11
119.5273562322
 21
89.0435031524
 31
0.0
  0
LINE
  5
CF
330
1F
100
AcDbEntity
  8
SLD-0
  6
SLD-実線
 62
   179
370
    18
100
AcDbLine
 10
119.5273562323
 20
114.0435031524
 30
0.0
 11
114.5273562312
 21
111.1567518059
 31
0.0
  0
LINE
  5
D0
330
1F
100
AcDbEntity
  8
SLD-0
  6
SLD-実線
 62
   179
370
    18
100
AcDbLine
 10
114.5273562322
 20
91.9302544983
 30
0.0
 11
119.5273562322
 21
89.0435031524
 31
0.0
  0
LINE
  5
D1
330
1F
100
AcDbEntity
  8
SLD-0
  6
SLD-実線
 62
   179
370
    18
100
AcDbLine
 10
67.5273562322
 20
95.5435031524
 30
0.0
 11
67.5273562322
 21
107.5435031524
 31
0.0
  0
LINE
  5
D2
330
1F
100
AcDbEntity
  8
SLD-0
  6
SLD-実線
 62
   179
370
    18
100
AcDbLine
 10
80.0273562322
 20
107.5435031524
 30
0.0
 11
67.5273562322
 21
107.5435031524
 31
0.0
  0
LINE
  5
D3
330
1F
100
AcDbEntity
  8
SLD-0
  6
SLD-実線
 62
   179
370
    18
100
AcDbLine
 10
80.0273562322
 20
95.5435031524
 30
0.0
 11
67.5273562322
 21
95.5435031524
 31
0.0
  0
LINE
  5
D4
330
1F
100
AcDbEntity
  8
SLD-0
  6
SLD-実線
 62
   179
370
    18
100
AcDbLine
 10
83.4939651889
 20
93.5435031524
 30
0.0
 11
107.466891399
 21
93.5435031524
 31
0.0
  0
LINE
  5
D5
330
1F
100
AcDbEntity
  8
SLD-0
  6
SLD-実線
 62
   179
370
    18
100
AcDbLine
 10
83.4939651889
 20
109.5435031524
 30
0.0
 11
107.466891399
 21
109.5435031524
 31
0.0
  0
LINE
  5
D6
330
1F
100
AcDbEntity
  8
SLD-0
  6
SLD-実線
 62
   179
370
    18
100
AcDbLine
 10
107.466891399
 20
93.5435031524
 30
0.0
 11
108.0983291027
 21
94.5776477786
 31
0.0
  0
LINE
  5
D7
330
1F
100
AcDbEntity
  8
SLD-0
  6
SLD-実線
 62
   179
370
    18
100
AcDbLine
 10
108.0983291027
 20
94.5776477786
 30
0.0
 11
108.4599114261
 21
95.2744110207
 31
0.0
  0
LINE
  5
D8
330
1F
100
AcDbEntity
  8
SLD-0
  6
SLD-実線
 62
   179
370
    18
100
AcDbLine
 10
108.4677539411
 20
107.796391056
 30
0.0
 11
108.0983291027
 21
108.5093585261
 31
0.0
  0
LINE
  5
D9
330
1F
100
AcDbEntity
  8
SLD-0
  6
SLD-実線
 62
   179
370
    18
100
AcDbLine
 10
108.0983291027
 20
108.5093585261
 30
0.0
 11
107.466891399
 21
109.5435031524
 31
0.0
  0
LINE
  5
DA
330
1F
100
AcDbEntity
  8
SLD-0
  6
SLD-実線
 62
   179
370
    18
100
AcDbLine
 10
73.403012103
 20
98.8321316152
 30
0.0
 11
76.3133007978
 21
99.2141068053
 31
0.0
  0
LINE
  5
DB
330
1F
100
AcDbEntity
  8
SLD-0
  6
SLD-実線
 62
   179
370
    18
100
AcDbLine
 10
76.3133007978
 20
99.2141068053
 30
0.0
 11
77.4376449271
 21
101.9254783424
 31
0.0
  0
LINE
  5
DC
330
1F
100
AcDbEntity
  8
SLD-0
  6
SLD-実線
 62
   179
370
    18
100
AcDbLine
 10
75.6517003614
 20
104.2548746895
 30
0.0
 11
77.4376449271
 21
101.9254783424
 31
0.0
  0
LINE
  5
DD
330
1F
100
AcDbEntity
  8
SLD-0
  6
SLD-実線
 62
   179
370
    18
100
AcDbLine
 10
72.7414116665
 20
103.8728994994
 30
0.0
 11
75.6517003614
 21
104.2548746895
 31
0.0
  0
LINE
  5
DE
330
1F
100
AcDbEntity
  8
SLD-0
  6
SLD-実線
 62
   179
370
    18
100
AcDbLine
 10
72.7414116665
 20
103.8728994994
 30
0.0
 11
71.6170675373
 21
101.1615279623
 31
0.0
  0
LINE
  5
DF
330
1F
100
AcDbEntity
  8
SLD-0
  6
SLD-実線
 62
   179
370
    18
100
AcDbLine
 10
73.403012103
 20
98.8321316152
 30
0.0
 11
71.6170675373
 21
101.1615279623
 31
0.0
  0
LINE
  5
E0
330
1F
100
AcDbEntity
  8
SLD-0
  6
SLD-1点鎖線(中心線)
 62
   179
370
    18
100
AcDbLine
 10
95.4553480193
 20
111.3702980716
 30
0.0
 11
95.4553480193
 21
91.8435031524
 31
0.0
  0
ARC
  5
E1
330
1F
100
AcDbEntity
  8
SLD-0
  6
SLD-実線
 62
   179
370
    18
100
AcDbCircle
 10
95.1817701363
 20
192.316816051
 30
0.0
 40
13.79923200799531
100
AcDbArc
 50
88.5649422275
 51
171.6846119198
  0
ARC
  5
E2
330
1F
100
AcDbEntity
  8
SLD-0
  6
SLD-実線
 62
   179
370
    18
100
AcDbCircle
 10
95.1804974716
 20
192.3168479922
 30
0.0
 40
13.79923200799531
100
AcDbArc
 50
188.351846947
 51
88.5596563333
  0
ARC
  5
E3
330
1F
100
AcDbEntity
  8
SLD-0
  6
SLD-実線
 62
   179
370
    18
100
AcDbCircle
 10
95.6389923358
 20
191.202603773
 30
0.0
 40
14.44999999999999
100
AcDbArc
 50
167.5717473884
 51
183.5316392778
  0
ARC
  5
E4
330
1F
100
AcDbEntity
  8
SLD-0
  6
SLD-実線
 62
   179
370
    18
100
AcDbCircle
 10
79.2273562322
 20
177.6124879666
 30
0.0
 40
0.3000000000000114
100
AcDbArc
 50
270.0
 51
0.0
  0
ARC
  5
E5
330
1F
100
AcDbEntity
  8
SLD-0
  6
SLD-実線
 62
   179
370
    18
100
AcDbCircle
 10
69.8273562322
 20
177.6124879666
 30
0.0
 40
0.3000000000000114
100
AcDbArc
 50
180.0
 51
270.0
  0
CIRCLE
  5
E6
330
1F
100
AcDbEntity
  8
SLD-0
  6
SLD-実線
 62
   179
370
    18
100
AcDbCircle
 10
141.5273562322
 20
192.3124879666
 30
0.0
 40
2.5
  0
ARC
  5
E7
330
1F
100
AcDbEntity
  8
SLD-0
  6
SLD-実線
 62
   179
370
    18
100
AcDbCircle
 10
114.5207761454
 20
216.8124879666
 30
0.0
 40
11.99999999999544
100
AcDbArc
 50
244.894183977
 51
270.0314176017
  0
ARC
  5
E8
330
1F
100
AcDbEntity
  8
SLD-0
  6
SLD-実線
 62
   179
370
    18
100
AcDbCircle
 10
114.5207769109
 20
167.8124863329
 30
0.0
 40
12.00000180406411
100
AcDbArc
 50
89.9685824031
 51
115.1058160228
  0
ARC
  5
E9
330
1F
100
AcDbEntity
  8
SLD-0
  6
SLD-実線
 62
   179
370
    18
100
AcDbCircle
 10
95.5273562322
 20
192.3124879666
 30
0.0
 40
15.07002526090825
100
AcDbArc
 50
337.2926266342
 51
22.707373366
  0
ARC
  5
EA
330
1F
100
AcDbEntity
  8
SLD-0
  6
SLD-実線
 62
   179
370
    18
100
AcDbCircle
 10
95.5273562322
 20
192.3124879666
 30
0.0
 40
15.07002526090849
100
AcDbArc
 50
187.6264395014
 51
319.1650379998
  0
ARC
  5
EB
330
1F
100
AcDbEntity
  8
SLD-0
  6
SLD-実線
 62
   179
370
    18
100
AcDbCircle
 10
95.5273562322
 20
192.3124879666
 30
0.0
 40
19.00000000002623
100
AcDbArc
 50
246.6287940308
 51
306.8771496328
  0
ARC
  5
EC
330
1F
100
AcDbEntity
  8
SLD-0
  6
SLD-実線
 62
   179
370
    18
100
AcDbCircle
 10
95.5273562322
 20
192.3124879666
 30
0.0
 40
15.07002526090874
100
AcDbArc
 50
40.8349620005
 51
172.3735604986
  0
ARC
  5
ED
330
1F
100
AcDbEntity
  8
SLD-0
  6
SLD-実線
 62
   179
370
    18
100
AcDbCircle
 10
95.5273562322
 20
192.3124879666
 30
0.0
 40
18.99999999999219
100
AcDbArc
 50
53.1228503673
 51
90.0
  0
ARC
  5
EE
330
1F
100
AcDbEntity
  8
SLD-0
  6
SLD-実線
 62
   179
370
    18
100
AcDbCircle
 10
95.5273562322
 20
192.3124879666
 30
0.0
 40
14.14188471779408
100
AcDbArc
 50
188.1302475747
 51
171.8697524252
  0
CIRCLE
  5
EF
330
1F
100
AcDbEntity
  8
SLD-0
  6
SLD-実線
 62
   179
370
    18
100
AcDbCircle
 10
141.5273562322
 20
192.3124879666
 30
0.0
 40
2.44550000000001
  0
ARC
  5
F0
330
1F
100
AcDbEntity
  8
SLD-0
  6
SLD-実線
 62
   179
370
    18
100
AcDbCircle
 10
95.5273562322
 20
192.3124879666
 30
0.0
 40
12.03339104323433
100
AcDbArc
 50
7.1607256057
 51
352.8392743943
  0
ARC
  5
F1
330
1F
100
AcDbEntity
  8
SLD-0
  6
SLD-実線
 62
   179
370
    18
100
AcDbCircle
 10
95.5273562322
 20
192.3124879666
 30
0.0
 40
9.999999999996547
100
AcDbArc
 50
10.3932322689
 51
350.2643211615
  0
ARC
  5
F2
330
1F
100
AcDbEntity
  8
SLD-0
  6
SLD-実線
 62
   179
370
    18
100
AcDbCircle
 10
95.5273562322
 20
192.3124879666
 30
0.0
 40
10.3000000000058
100
AcDbArc
 50
8.373824637
 51
351.626175363
  0
ARC
  5
F3
330
1F
100
AcDbEntity
  8
SLD-0
  6
SLD-実線
 62
   179
370
    18
100
AcDbCircle
 10
125.5273562322
 20
101.5435031524
 30
0.0
 40
10.00000000001682
100
AcDbArc
 50
5.7391704772
 51
354.2608295227
  0
CIRCLE
  5
F4
330
1F
100
AcDbEntity
  8
SLD-0
  6
SLD-実線
 62
   179
370
    18
100
AcDbCircle
 10
74.5273562322
 20
101.5435031524
 30
0.0
 40
4.700000000000017
  0
CIRCLE
  5
F5
330
1F
100
AcDbEntity
  8
SLD-0
  6
SLD-実線
 62
   179
370
    18
100
AcDbCircle
 10
74.5273562322
 20
101.5435031524
 30
0.0
 40
5.0
  0
ARC
  5
F6
330
1F
100
AcDbEntity
  8
SLD-0
  6
SLD-実線
 62
   179
370
    18
100
AcDbCircle
 10
74.5273562322
 20
101.5435031524
 30
0.0
 40
2.542000000000017
100
AcDbArc
 50
277.4773264141
 51
337.4773264141
  0
ARC
  5
F7
330
1F
100
AcDbEntity
  8
SLD-0
  6
SLD-実線
 62
   179
370
    18
100
AcDbCircle
 10
74.5273562322
 20
101.5435031524
 30
0.0
 40
2.541999999999985
100
AcDbArc
 50
97.4773264141
 51
157.4773264141
  0
ARC
  5
F8
330
1F
100
AcDbEntity
  8
SLD-0
  6
SLD-実線
 62
   179
370
    18
100
AcDbCircle
 10
74.5273562322
 20
101.5435031524
 30
0.0
 40
2.541999999999989
100
AcDbArc
 50
37.4773264141
 51
97.4773264141
  0
ARC
  5
F9
330
1F
100
AcDbEntity
  8
SLD-0
  6
SLD-実線
 62
   179
370
    18
100
AcDbCircle
 10
74.5273562322
 20
101.5435031524
 30
0.0
 40
2.542000000000021
100
AcDbArc
 50
337.4773264141
 51
37.4773264141
  0
ARC
  5
FA
330
1F
100
AcDbEntity
  8
SLD-0
  6
SLD-実線
 62
   179
370
    18
100
AcDbCircle
 10
74.5273562322
 20
101.5435031524
 30
0.0
 40
2.542000000000018
100
AcDbArc
 50
217.4773264141
 51
277.4773264141
  0
ARC
  5
FB
330
1F
100
AcDbEntity
  8
SLD-0
  6
SLD-実線
 62
   179
370
    18
100
AcDbCircle
 10
74.5273562322
 20
101.5435031524
 30
0.0
 40
2.541999999999995
100
AcDbArc
 50
157.4773264141
 51
217.4773264141
  0
SPLINE
  5
FC
330
1F
100
AcDbEntity
  8
SLD-0
  6
SLD-実線
 62
   179
370
    18
100
AcDbSpline
210
0.0
220
0.0
230
1.0
 70
     8
 71
     3
 72
     8
 73
     4
 74
     0
 42
0.000000001
 43
0.00000001
 40
0.0
 40
0.0
 40
0.0
 40
0.0
 40
0.0003008846020687
 40
0.0003008846020687
 40
0.0003008846020687
 40
0.0003008846020687
 10
106.9292800208
 20
207.5110449349
 30
0.0
 10
107.0095082973858
 20
207.450857859427
 30
0.0
 10
107.0892759946222
 20
207.3900227808471
 30
0.0
 10
107.1684845660635
 20
207.3286169988833
 30
0.0
  0
SPLINE
  5
FD
330
1F
100
AcDbEntity
  8
SLD-0
  6
SLD-実線
 62
   179
370
    18
100
AcDbSpline
210
0.0
220
0.0
230
1.0
 70
     8
 71
     3
 72
    10
 73
     6
 74
     0
 42
0.000000001
 43
0.00000001
 40
0.0
 40
0.0
 40
0.0
 40
0.0
 40
0.5000000000000002
 40
0.5000000000000002
 40
1.0
 40
1.0
 40
1.0
 40
1.0
 10
109.4292800208202
 20
198.1298908527519
 30
0.0
 10
109.1235162346178
 20
198.8605785730789
 30
0.0
 10
108.7638619819819
 20
199.5598530970414
 30
0.0
 10
107.9338227019427
 20
200.9037029873696
 30
0.0
 10
107.4637007270648
 20
201.548143184354
 30
0.0
 10
106.9292800208
 20
202.1665122858
 30
0.0
  0
SPLINE
  5
FE
330
1F
100
AcDbEntity
  8
SLD-0
  6
SLD-実線
 62
   179
370
    18
100
AcDbSpline
210
0.0
220
0.0
230
1.0
 70
     8
 71
     3
 72
    12
 73
     8
 74
     0
 42
0.000000001
 43
0.00000001
 40
0.0
 40
0.0
 40
0.0
 40
0.0
 40
0.4999999999999991
 40
0.4999999999999991
 40
0.7499999999999996
 40
0.7499999999999996
 40
1.0
 40
1.0
 40
1.0
 40
1.0
 10
107.1684845660635
 20
207.3286169988833
 30
0.0
 10
107.5337719212591
 20
207.0454310345478
 30
0.0
 10
107.9081915281562
 20
206.7889137740408
 30
0.0
 10
108.4790348255016
 20
206.4420038625797
 30
0.0
 10
108.6718555538747
 20
206.3321661982591
 30
0.0
 10
109.0542962839425
 20
206.1277037208523
 30
0.0
 10
109.2433129173047
 20
206.0333155314044
 30
0.0
 10
109.4292800207996
 20
205.9461791539038
 30
0.0
  0
SPLINE
  5
FF
330
1F
100
AcDbEntity
  8
SLD-0
  6
SLD-実線
 62
   179
370
    18
100
AcDbSpline
210
0.0
220
0.0
230
1.0
 70
     8
 71
     3
 72
     8
 73
     4
 74
     0
 42
0.000000001
 43
0.00000001
 40
0.0
 40
0.0
 40
0.0
 40
0.0
 40
0.0003008846020687
 40
0.0003008846020687
 40
0.0003008846020687
 40
0.0003008846020687
 10
107.1684845661132
 20
177.2963589343111
 30
0.0
 10
107.0892759946719
 20
177.2349531523473
 30
0.0
 10
107.0095082974355
 20
177.1741180737675
 30
0.0
 10
106.9292800208493
 20
177.1139309982944
 30
0.0
  0
SPLINE
  5
100
330
1F
100
AcDbEntity
  8
SLD-0
  6
SLD-実線
 62
   179
370
    18
100
AcDbSpline
210
0.0
220
0.0
230
1.0
 70
     8
 71
     3
 72
    10
 73
     6
 74
     0
 42
0.000000001
 43
0.00000001
 40
0.0
 40
0.0
 40
0.0
 40
0.0
 40
0.5
 40
0.5
 40
1.0
 40
1.0
 40
1.0
 40
1.0
 10
106.9292800208493
 20
182.4584636474574
 30
0.0
 10
107.4597763888143
 20
183.0722919638684
 30
0.0
 10
107.9296524708092
 20
183.7151124076265
 30
0.0
 10
108.7618354343182
 20
185.0612550548151
 30
0.0
 10
109.1247883128041
 20
185.7674372619956
 30
0.0
 10
109.4292800208494
 20
186.4950850805178
 30
0.0
  0
SPLINE
  5
101
330
1F
100
AcDbEntity
  8
SLD-0
  6
SLD-実線
 62
   179
370
    18
100
AcDbSpline
210
0.0
220
0.0
230
1.0
 70
     8
 71
     3
 72
    10
 73
     6
 74
     0
 42
0.000000001
 43
0.00000001
 40
0.0
 40
0.0
 40
0.0
 40
0.0
 40
0.5
 40
0.5
 40
1.0
 40
1.0
 40
1.0
 40
1.0
 10
109.4292800208493
 20
178.6787967792906
 30
0.0
 10
109.0568618379825
 20
178.5042972535117
 30
0.0
 10
108.6774604080968
 20
178.3031365972369
 30
0.0
 10
107.9164793436037
 20
177.8415114111369
 30
0.0
 10
107.5342928468581
 20
177.5799487418181
 30
0.0
 10
107.1684845661132
 20
177.2963589343111
 30
0.0
  0
SPLINE
  5
102
330
1F
100
AcDbEntity
  8
SLD-0
  6
SLD-実線
 62
   179
370
    18
100
AcDbSpline
210
0.0
220
0.0
230
1.0
 70
    24
 71
     3
 72
     8
 73
     4
 74
     0
 42
0.000000001
 43
0.00000001
 40
0.0
 40
0.0
 40
0.0
 40
0.0
 40
0.0012383003860378
 40
0.0012383003860378
 40
0.0012383003860378
 40
0.0012383003860378
 10
80.59063432394754
 20
190.3124879666123
 30
0.0
 10
80.90288080980844
 20
190.3124879666123
 30
0.0
 10
81.21520075509375
 20
190.3124879666123
 30
0.0
 10
81.52760968551473
 20
190.3124879666121
 30
0.0
  0
SPLINE
  5
103
330
1F
100
AcDbEntity
  8
SLD-0
  6
SLD-実線
 62
   179
370
    18
100
AcDbSpline
210
0.0
220
0.0
230
1.0
 70
    24
 71
     3
 72
     8
 73
     4
 74
     0
 42
0.000000001
 43
0.00000001
 40
0.0006637690673063
 40
0.0006637690673063
 40
0.0006637690673063
 40
0.0006637690673063
 40
0.0019020694533439
 40
0.0019020694533439
 40
0.0019020694533439
 40
0.0019020694533439
 10
81.52760968551696
 20
194.3124879666035
 30
0.0
 10
81.21520075509605
 20
194.3124879666035
 30
0.0
 10
80.90288080981077
 20
194.3124879666035
 30
0.0
 10
80.59063432394993
 20
194.3124879666035
 30
0.0
  0
SPLINE
  5
104
330
1F
100
AcDbEntity
  8
SLD-0
  6
SLD-実線
 62
   179
370
    18
100
AcDbSpline
210
0.0
220
0.0
230
1.0
 70
    24
 71
     3
 72
     8
 73
     4
 74
     0
 42
0.000000001
 43
0.00000001
 40
0.0
 40
0.0
 40
0.0
 40
0.0
 40
0.0004043143972082
 40
0.0004043143972082
 40
0.0004043143972082
 40
0.0004043143972082
 10
105.6062218049146
 20
193.8124879666124
 30
0.0
 10
105.5254221548752
 20
193.9136064386831
 30
0.0
 10
105.4444420838779
 20
194.0149507024695
 30
0.0
 10
105.3632840994699
 20
194.1165176198469
 30
0.0
  0
SPLINE
  5
105
330
1F
100
AcDbEntity
  8
SLD-0
  6
SLD-実線
 62
   179
370
    18
100
AcDbSpline
210
0.0
220
0.0
230
1.0
 70
    24
 71
     3
 72
     8
 73
     4
 74
     0
 42
0.000000001
 43
0.00000001
 40
0.0
 40
0.0
 40
0.0
 40
0.0
 40
0.000418708367161
 40
0.000418708367161
 40
0.000418708367161
 40
0.000418708367161
 10
105.3833398063975
 20
190.6214563923592
 30
0.0
 10
105.4938117412892
 20
190.6852373937067
 30
0.0
 10
105.6040995298105
 20
190.7489120780978
 30
0.0
 10
105.7142161988398
 20
190.8124879666042
 30
0.0
  0
SPLINE
  5
106
330
1F
100
AcDbEntity
  8
SLD-0
  6
SLD-実線
 62
   179
370
    18
100
AcDbSpline
210
0.0
220
0.0
230
1.0
 70
     8
 71
     3
 72
     8
 73
     4
 74
     0
 42
0.000000001
 43
0.00000001
 40
0.0
 40
0.0
 40
0.0
 40
0.0
 40
0.0003008846020687
 40
0.0003008846020687
 40
0.0003008846020687
 40
0.0003008846020687
 10
107.1684845661014
 20
107.5492283115533
 30
0.0
 10
107.0892759946601
 20
107.5454345575216
 30
0.0
 10
107.0095082974237
 20
107.543503152361
 30
0.0
 10
106.9292800208374
 20
107.543503152361
 30
0.0
  0
SPLINE
  5
107
330
1F
100
AcDbEntity
  8
SLD-0
  6
SLD-実線
 62
   179
370
    18
100
AcDbSpline
210
0.0
220
0.0
230
1.0
 70
     8
 71
     3
 72
     8
 73
     4
 74
     0
 42
0.000000001
 43
0.00000001
 40
0.0
 40
0.0
 40
0.0
 40
0.0
 40
0.0003008846020687
 40
0.0003008846020687
 40
0.0003008846020687
 40
0.0003008846020687
 10
106.9292800208374
 20
95.5435031524
 30
0.0
 10
107.0095082974237
 20
95.5435031524
 30
0.0
 10
107.0892759946601
 20
95.54157174723943
 30
0.0
 10
107.1684845661014
 20
95.53777799320774
 30
0.0
  0
SPLINE
  5
108
330
1F
100
AcDbEntity
  8
SLD-0
  6
SLD-実線
 62
   179
370
    18
100
AcDbSpline
210
0.0
220
0.0
230
1.0
 70
     8
 71
     3
 72
    10
 73
     6
 74
     0
 42
0.000000001
 43
0.00000001
 40
0.0
 40
0.0
 40
0.0
 40
0.0
 40
0.5
 40
0.5
 40
1.0
 40
1.0
 40
1.0
 40
1.0
 10
109.4292800208374
 20
108.2133761334388
 30
0.0
 10
109.0568618379707
 20
107.9983603953096
 30
0.0
 10
108.677460408085
 20
107.842402558405
 30
0.0
 10
107.9164793435918
 20
107.6259916924858
 30
0.0
 10
107.5342928468463
 20
107.5667489739596
 30
0.0
 10
107.1684845661014
 20
107.5492283115533
 30
0.0
  0
SPLINE
  5
109
330
1F
100
AcDbEntity
  8
SLD-0
  6
SLD-実線
 62
   179
370
    18
100
AcDbSpline
210
0.0
220
0.0
230
1.0
 70
     8
 71
     3
 72
    12
 73
     8
 74
     0
 42
0.000000001
 43
0.00000001
 40
0.0
 40
0.0
 40
0.0
 40
0.0
 40
0.5000000000000008
 40
0.5000000000000008
 40
0.7500000000000003
 40
0.7500000000000003
 40
1.0
 40
1.0
 40
1.0
 40
1.0
 10
107.1684845661014
 20
95.53777799320774
 30
0.0
 10
107.533771921297
 20
95.52028228092209
 30
0.0
 10
107.908191528194
 20
95.46266173608348
 30
0.0
 10
108.4790348255395
 20
95.30137634038729
 30
0.0
 10
108.6718555539126
 20
95.23460401638218
 30
0.0
 10
109.0542962839804
 20
95.07420979550817
 30
0.0
 10
109.2433129173426
 20
94.98099832858537
 30
0.0
 10
109.4292800208374
 20
94.87363017132222
 30
0.0
  0
INSERT
  5
10A
330
1F
100
AcDbEntity
  8
0
  6
Continuous
 62
     7
100
AcDbBlockReference
  2
SW_CENTERMARKSYMBOL_0
 10
95.5273562322
 20
192.3124879666
 30
0.0
  0
INSERT
  5
10B
330
1F
100
AcDbEntity
  8
0
  6
Continuous
 62
     7
100
AcDbBlockReference
  2
SW_CENTERMARKSYMBOL_1
 10
125.5273562322
 20
101.5435031524
 30
0.0
  0
DIMENSION
  5
10C
330
1F
100
AcDbEntity
  8
SLD-0
 62
   179
100
AcDbDimension
  2
_D
 10
147.5273562322
 20
227.3124879666
 30
0.0
 11
107.5273562322
 21
227.3124879666
 31
0.0
 70
   160
  1
<>
 71
     2
 42
-1.0
  3
SLDDIMSTYLE0
100
AcDbAlignedDimension
 13
67.5273562322
 23
211.3124879666
 33
0.0
 14
147.5273562322
 24
204.8124879666
 34
0.0
100
AcDbRotatedDimension
  0
DIMENSION
  5
11C
330
1F
100
AcDbEntity
  8
SLD-0
 62
   179
100
AcDbDimension
  2
_D_1
 10
43.060553844
 20
211.3124879666
 30
0.0
 11
43.060553844
 21
192.3124879666
 31
0.0
 70
   160
  1
<>
 71
     2
 42
-1.0
  3
SLDDIMSTYLE0
100
AcDbAlignedDimension
 13
95.5273562322
 23
173.3124879666
 33
0.0
 14
67.5273562322
 24
211.3124879666
 34
0.0
 50
90.0
100
AcDbRotatedDimension
  0
DIMENSION
  5
126
330
1F
100
AcDbEntity
  8
SLD-0
 62
   179
100
AcDbDimension
  2
_D_2
 10
57.5273562322
 20
211.3124879666
 30
0.0
 11
57.5273562322
 21
201.8124879666
 31
0.0
 70
   160
  1
<>
 71
     2
 42
-1.0
  3
SLDDIMSTYLE0
100
AcDbAlignedDimension
 13
79.2281242242
 23
192.3124879666
 33
0.0
 14
67.5273562322
 24
211.3124879666
 34
0.0
 50
90.0
100
AcDbRotatedDimension
  0
DIMENSION
  5
130
330
1F
100
AcDbEntity
  8
SLD-0
 62
   179
100
AcDbDimension
  2
_D_3
 10
67.5273562322
 20
157.3124879666
 30
0.0
 11
81.5273562322
 21
157.3124879666
 31
0.0
 70
   160
  1
<>
 71
     2
 42
-1.0
  3
SLDDIMSTYLE0
100
AcDbAlignedDimension
 13
95.5273562322
 23
176.0132559586
 33
0.0
 14
67.5273562322
 24
183.3124879666
 34
0.0
100
AcDbRotatedDimension
  0
DIMENSION
  5
13A
330
1F
100
AcDbEntity
  8
SLD-0
 62
   179
100
AcDbDimension
  2
_D_4
 10
8.8973817292
 20
17.9119121917
 30
0.0
 11
127.3354945287
 21
168.3136204447
 31
0.0
 70
   163
  1
<>
 71
     1
 42
-1.0
  3
SLDDIMSTYLE1
100
AcDbDiametricDimension
 15
0.0
 25
0.0
 35
0.0
 40
0.0
  0
DIMENSION
  5
144
330
1F
100
AcDbEntity
  8
SLD-0
 62
   179
100
AcDbDimension
  2
_D_5
 10
175.5273562322
 20
114.0435031524
 30
0.0
 11
175.5273562322
 21
101.5435031524
 31
0.0
 70
   160
  1
<>
 71
     2
 42
-1.0
  3
SLDDIMSTYLE0
100
AcDbAlignedDimension
 13
147.5273562322
 23
89.0435031524
 33
0.0
 14
147.5273562322
 24
114.0435031524
 34
0.0
 50
90.0
100
AcDbRotatedDimension
  0
DIMENSION
  5
14E
330
1F
100
AcDbEntity
  8
SLD-0
 62
   179
100
AcDbDimension
  2
_D_6
 10
163.5273562322
 20
114.0435031524
 30
0.0
 11
163.5273562322
 21
107.7935031524
 31
0.0
 70
   160
  1
<>
 71
     2
 42
-1.0
  3
SLDDIMSTYLE2
100
AcDbAlignedDimension
 13
138.0273562322
 23
101.5435031524
 33
0.0
 14
147.5273562322
 24
114.0435031524
 34
0.0
 50
90.0
100
AcDbRotatedDimension
  0
DIMENSION
  5
15B
330
1F
100
AcDbEntity
  8
SLD-0
 62
   179
100
AcDbDimension
  2
_D_7
 10
15.5493720122
 20
12.5784351183
 30
0.0
 11
156.245919407
 21
128.9527953589
 31
0.0
 70
   163
  1
<>
 71
     1
 42
-1.0
  3
SLDDIMSTYLE1
100
AcDbDiametricDimension
 15
0.0
 25
0.0
 35
0.0
 40
0.0
  0
DIMENSION
  5
164
330
1F
100
AcDbEntity
  8
SLD-0
 62
   179
100
AcDbDimension
  2
_D_8
 10
67.5273562322
 20
126.7027954557
 30
0.0
 11
96.5273562322
 21
126.7027954557
 31
0.0
 70
   160
  1
<>
 71
     2
 42
-1.0
  3
SLDDIMSTYLE0
100
AcDbAlignedDimension
 13
125.5273562322
 23
114.0435031524
 33
0.0
 14
67.5273562322
 24
107.5435031524
 34
0.0
100
AcDbRotatedDimension
  0
MTEXT
  5
16E
330
1F
100
AcDbEntity
  8
SLD-0
 62
   179
100
AcDbMText
 10
162.3770945106
 20
30.4177504894
 30
0.0
 40
4.2333333333
 41
0.0
 71
     2
 72
     1
  1
F-CROSS-20
  7
SLDTEXTSTYLE0
 73
     1
 44
1.0
  0
MTEXT
  5
170
330
1F
100
AcDbEntity
  8
SLD-0
 62
   179
100
AcDbMText
 10
151.8136469875
 20
43.9882637787
 30
0.0
 40
3.175
 41
0.0
 71
     2
 72
     1
  1
フローティングクロスコネクターΦ20
  7
SLDTEXTSTYLE2
 73
     1
 44
1.0
  0
MTEXT
  5
171
330
1F
100
AcDbEntity
  8
SLD-0
 62
   179
100
AcDbMText
 10
162.8653505129
 20
16.8234111601
 30
0.0
 40
4.2333333333
 41
0.0
 71
     2
 72
     1
  1
054347
  7
SLDTEXTSTYLE0
 73
     1
 44
1.0
  0
ENDSEC
  0
SECTION
  2
OBJECTS
  0
DICTIONARY
  5
C
330
0
100
AcDbDictionary
281
     1
  3
ACAD_GROUP
350
D
  3
ACAD_LAYOUT
350
1A
  3
ACAD_MLINESTYLE
350
17
  3
ACAD_PLOTSETTINGS
350
19
  3
ACAD_PLOTSTYLENAME
350
E
  3
ACAD_SCALELIST
350
47
  0
DICTIONARY
  5
D
102
{ACAD_REACTORS
330
C
102
}
330
C
100
AcDbDictionary
281
     1
  0
DICTIONARY
  5
1A
102
{ACAD_REACTORS
330
C
102
}
330
C
100
AcDbDictionary
281
     1
  3
Layout1
350
1E
  3
Layout2
350
26
  3
Model
350
22
  0
DICTIONARY
  5
17
102
{ACAD_REACTORS
330
C
102
}
330
C
100
AcDbDictionary
281
     1
  3
Standard
350
18
  0
DICTIONARY
  5
19
102
{ACAD_REACTORS
330
C
102
}
330
C
100
AcDbDictionary
281
     1
  0
ACDBDICTIONARYWDFLT
  5
E
102
{ACAD_REACTORS
330
C
102
}
330
C
100
AcDbDictionary
281
     1
  3
Normal
350
F
100
AcDbDictionaryWithDefault
340
F
  0
DICTIONARY
  5
47
102
{ACAD_REACTORS
330
C
102
}
330
C
100
AcDbDictionary
281
     1
  3
A0
350
48
  3
A1
350
49
  3
A2
350
4A
  3
A3
350
4B
  3
A4
350
4C
  3
A5
350
4D
  3
A6
350
4E
  3
A7
350
4F
  3
A8
350
50
  3
A9
350
51
  3
B0
350
52
  3
B1
350
53
  3
B2
350
54
  3
B3
350
55
  3
B4
350
56
  3
B5
350
57
  3
B6
350
58
  3
B7
350
59
  3
B8
350
5A
  3
B9
350
5B
  3
C0
350
5C
  3
C1
350
5D
  3
C2
350
5E
  3
C3
350
5F
  3
C4
350
60
  3
C5
350
61
  3
C6
350
62
  3
C7
350
63
  3
C8
350
64
  3
C9
350
65
  3
D0
350
66
  3
D1
350
67
  3
D2
350
68
  0
LAYOUT
  5
1E
102
{ACAD_REACTORS
330
1A
102
}
330
1A
100
AcDbPlotSettings
  1

  2
none_device
  4

  6

 40
0.0
 41
0.0
 42
0.0
 43
0.0
 44
0.0
 45
0.0
 46
0.0
 47
0.0
 48
0.0
 49
0.0
140
0.0
141
0.0
142
1.0
143
1.0
 70
   688
 72
     1
 73
     0
 74
     5
  7

 75
    16
147
1.0
148
0.0
149
0.0
100
AcDbLayout
  1
Layout1
 70
     1
 71
     1
 10
0.0
 20
0.0
 11
420.0
 21
297.0
 12
0.0
 22
0.0
 32
0.0
 14
1.0000000000E+20
 24
1.0000000000E+20
 34
1.0000000000E+20
 15
-1.0000000000E+20
 25
-1.0000000000E+20
 35
-1.0000000000E+20
146
0.0
 13
0.0
 23
0.0
 33
0.0
 16
1.0
 26
0.0
 36
0.0
 17
0.0
 27
1.0
 37
0.0
 76
     0
330
1B
  0
LAYOUT
  5
26
102
{ACAD_REACTORS
330
1A
102
}
330
1A
100
AcDbPlotSettings
  1

  2
none_device
  4

  6

 40
0.0
 41
0.0
 42
0.0
 43
0.0
 44
0.0
 45
0.0
 46
0.0
 47
0.0
 48
0.0
 49
0.0
140
0.0
141
0.0
142
1.0
143
1.0
 70
   688
 72
     1
 73
     0
 74
     5
  7

 75
    16
147
1.0
148
0.0
149
0.0
100
AcDbLayout
  1
Layout2
 70
     1
 71
     2
 10
0.0
 20
0.0
 11
0.0
 21
0.0
 12
0.0
 22
0.0
 32
0.0
 14
0.0
 24
0.0
 34
0.0
 15
0.0
 25
0.0
 35
0.0
146
0.0
 13
0.0
 23
0.0
 33
0.0
 16
1.0
 26
0.0
 36
0.0
 17
0.0
 27
1.0
 37
0.0
 76
     0
330
23
  0
LAYOUT
  5
22
102
{ACAD_REACTORS
330
1A
102
}
330
1A
100
AcDbPlotSettings
  1

  2
none_device
  4
Letter_(8.50_x_11.00_Inches)
  6

 40
6.35
 41
6.35
 42
6.35000508
 43
6.35000508
 44
215.9
 45
279.4
 46
0.0
 47
0.0
 48
0.0
 49
0.0
140
0.0
141
0.0
142
1.0
143
1.0
 70
  1712
 72
     1
 73
     0
 74
     0
  7

 75
     0
147
1.0
148
0.0
149
0.0
100
AcDbLayout
  1
Model
 70
     1
 71
     0
 10
0.0
 20
0.0
 11
210.0
 21
297.0
 12
0.0
 22
0.0
 32
0.0
 14
0.0
 24
0.0
 34
0.0
 15
210.0
 25
297.0
 35
0.0
146
0.0
 13
0.0
 23
0.0
 33
0.0
 16
1.0
 26
0.0
 36
0.0
 17
0.0
 27
1.0
 37
0.0
 76
     0
330
1F
331
29
  0
MLINESTYLE
  5
18
102
{ACAD_REACTORS
330
17
102
}
330
17
100
AcDbMlineStyle
  2
Standard
 70
     0
  3

 62
   256
 51
90.0
 52
90.0
 71
     2
 49
0.5
 62
   256
  6
BYLAYER
 49
-0.5
 62
   256
  6
BYLAYER
  0
ACDBPLACEHOLDER
  5
F
102
{ACAD_REACTORS
330
E
102
}
330
E
  0
SCALE
  5
48
102
{ACAD_REACTORS
330
47
102
}
330
47
100
AcDbScale
 70
     0
300
1:1
140
1.0
141
1.0
290
     1
  0
SCALE
  5
49
102
{ACAD_REACTORS
330
47
102
}
330
47
100
AcDbScale
 70
     0
300
1:2
140
1.0
141
2.0
290
     0
  0
SCALE
  5
4A
102
{ACAD_REACTORS
330
47
102
}
330
47
100
AcDbScale
 70
     0
300
1:4
140
1.0
141
4.0
290
     0
  0
SCALE
  5
4B
102
{ACAD_REACTORS
330
47
102
}
330
47
100
AcDbScale
 70
     0
300
1:5
140
1.0
141
5.0
290
     0
  0
SCALE
  5
4C
102
{ACAD_REACTORS
330
47
102
}
330
47
100
AcDbScale
 70
     0
300
1:8
140
1.0
141
8.0
290
     0
  0
SCALE
  5
4D
102
{ACAD_REACTORS
330
47
102
}
330
47
100
AcDbScale
 70
     0
300
1:10
140
1.0
141
10.0
290
     0
  0
SCALE
  5
4E
102
{ACAD_REACTORS
330
47
102
}
330
47
100
AcDbScale
 70
     0
300
1:16
140
1.0
141
16.0
290
     0
  0
SCALE
  5
4F
102
{ACAD_REACTORS
330
47
102
}
330
47
100
AcDbScale
 70
     0
300
1:20
140
1.0
141
20.0
290
     0
  0
SCALE
  5
50
102
{ACAD_REACTORS
330
47
102
}
330
47
100
AcDbScale
 70
     0
300
1:30
140
1.0
141
30.0
290
     0
  0
SCALE
  5
51
102
{ACAD_REACTORS
330
47
102
}
330
47
100
AcDbScale
 70
     0
300
1:40
140
1.0
141
40.0
290
     0
  0
SCALE
  5
52
102
{ACAD_REACTORS
330
47
102
}
330
47
100
AcDbScale
 70
     0
300
1:50
140
1.0
141
50.0
290
     0
  0
SCALE
  5
53
102
{ACAD_REACTORS
330
47
102
}
330
47
100
AcDbScale
 70
     0
300
1:100
140
1.0
141
100.0
290
     0
  0
SCALE
  5
54
102
{ACAD_REACTORS
330
47
102
}
330
47
100
AcDbScale
 70
     0
300
2:1
140
2.0
141
1.0
290
     0
  0
SCALE
  5
55
102
{ACAD_REACTORS
330
47
102
}
330
47
100
AcDbScale
 70
     0
300
4:1
140
4.0
141
1.0
290
     0
  0
SCALE
  5
56
102
{ACAD_REACTORS
330
47
102
}
330
47
100
AcDbScale
 70
     0
300
8:1
140
8.0
141
1.0
290
     0
  0
SCALE
  5
57
102
{ACAD_REACTORS
330
47
102
}
330
47
100
AcDbScale
 70
     0
300
10:1
140
10.0
141
1.0
290
     0
  0
SCALE
  5
58
102
{ACAD_REACTORS
330
47
102
}
330
47
100
AcDbScale
 70
     0
300
100:1
140
100.0
141
1.0
290
     0
  0
SCALE
  5
59
102
{ACAD_REACTORS
330
47
102
}
330
47
100
AcDbScale
 70
     0
300
1/128" = 1'-0"
140
0.0078125
141
12.0
290
     0
  0
SCALE
  5
5A
102
{ACAD_REACTORS
330
47
102
}
330
47
100
AcDbScale
 70
     0
300
1/64" = 1'-0"
140
0.015625
141
12.0
290
     0
  0
SCALE
  5
5B
102
{ACAD_REACTORS
330
47
102
}
330
47
100
AcDbScale
 70
     0
300
1/32" = 1'-0"
140
0.03125
141
12.0
290
     0
  0
SCALE
  5
5C
102
{ACAD_REACTORS
330
47
102
}
330
47
100
AcDbScale
 70
     0
300
1/16" = 1'-0"
140
0.0625
141
12.0
290
     0
  0
SCALE
  5
5D
102
{ACAD_REACTORS
330
47
102
}
330
47
100
AcDbScale
 70
     0
300
3/32" = 1'-0"
140
0.09375
141
12.0
290
     0
  0
SCALE
  5
5E
102
{ACAD_REACTORS
330
47
102
}
330
47
100
AcDbScale
 70
     0
300
1/8" = 1'-0"
140
0.125
141
12.0
290
     0
  0
SCALE
  5
5F
102
{ACAD_REACTORS
330
47
102
}
330
47
100
AcDbScale
 70
     0
300
3/16" = 1'-0"
140
0.1875
141
12.0
290
     0
  0
SCALE
  5
60
102
{ACAD_REACTORS
330
47
102
}
330
47
100
AcDbScale
 70
     0
300
1/4" = 1'-0"
140
0.25
141
12.0
290
     0
  0
SCALE
  5
61
102
{ACAD_REACTORS
330
47
102
}
330
47
100
AcDbScale
 70
     0
300
3/8" = 1'-0"
140
0.375
141
12.0
290
     0
  0
SCALE
  5
62
102
{ACAD_REACTORS
330
47
102
}
330
47
100
AcDbScale
 70
     0
300
1/2" = 1'-0"
140
0.5
141
12.0
290
     0
  0
SCALE
  5
63
102
{ACAD_REACTORS
330
47
102
}
330
47
100
AcDbScale
 70
     0
300
3/4" = 1'-0"
140
0.75
141
12.0
290
     0
  0
SCALE
  5
64
102
{ACAD_REACTORS
330
47
102
}
330
47
100
AcDbScale
 70
     0
300
1" = 1'-0"
140
1.0
141
12.0
290
     0
  0
SCALE
  5
65
102
{ACAD_REACTORS
330
47
102
}
330
47
100
AcDbScale
 70
     0
300
1-1/2" = 1'-0"
140
1.5
141
12.0
290
     0
  0
SCALE
  5
66
102
{ACAD_REACTORS
330
47
102
}
330
47
100
AcDbScale
 70
     0
300
3" = 1'-0"
140
3.0
141
12.0
290
     0
  0
SCALE
  5
67
102
{ACAD_REACTORS
330
47
102
}
330
47
100
AcDbScale
 70
     0
300
6" = 1'-0"
140
6.0
141
12.0
290
     0
  0
SCALE
  5
68
102
{ACAD_REACTORS
330
47
102
}
330
47
100
AcDbScale
 70
     0
300
1'-0" = 1'-0"
140
12.0
141
12.0
290
     0
  0
ENDSEC
  0
EOF
