  0
SECTION
  2
HEADER
  9
$ACADVER
  1
AC1015
  9
$ACADMAINTVER
 70
     6
  9
$DWGCODEPAGE
  3
DOS932
  9
$INSBASE
 10
0.0
 20
0.0
 30
0.0
  9
$EXTMIN
 10
0.0
 20
0.0
 30
0.0
  9
$EXTMAX
 10
210.0
 20
297.0
 30
0.0
  9
$LIMMIN
 10
0.0
 20
0.0
  9
$LIMMAX
 10
0.0
 20
0.0
  9
$ORTHOMODE
 70
     0
  9
$REGENMODE
 70
     1
  9
$FILLMODE
 70
     1
  9
$QTEXTMODE
 70
     0
  9
$MIRRTEXT
 70
     1
  9
$LTSCALE
 40
1.0
  9
$ATTMODE
 70
     1
  9
$TEXTSIZE
 40
3.5
  9
$TRACEWID
 40
1.0
  9
$TEXTSTYLE
  7
Standard
  9
$CLAYER
  8
0
  9
$CELTYPE
  6
ByLayer
  9
$CECOLOR
 62
   256
  9
$CELTSCALE
 40
1.0
  9
$DISPSILH
 70
     0
  9
$DIMSCALE
 40
1.0
  9
$DIMASZ
 40
3.0
  9
$DIMEXO
 40
1.0
  9
$DIMDLI
 40
3.75
  9
$DIMRND
 40
0.0
  9
$DIMDLE
 40
0.0
  9
$DIMEXE
 40
1.0
  9
$DIMTP
 40
0.0
  9
$DIMTM
 40
0.0
  9
$DIMTXT
 40
3.0
  9
$DIMCEN
 40
2.5
  9
$DIMTSZ
 40
0.0
  9
$DIMTOL
 70
     0
  9
$DIMLIM
 70
     0
  9
$DIMTIH
 70
     1
  9
$DIMTOH
 70
     1
  9
$DIMSE1
 70
     0
  9
$DIMSE2
 70
     0
  9
$DIMTAD
 70
     1
  9
$DIMZIN
 70
     1
  9
$DIMBLK
  1

  9
$DIMASO
 70
     1
  9
$DIMSHO
 70
     1
  9
$DIMPOST
  1

  9
$DIMAPOST
  1

  9
$DIMALT
 70
     0
  9
$DIMALTD
 70
     3
  9
$DIMALTF
 40
0.0393700787
  9
$DIMLFAC
 40
1.0
  9
$DIMTOFL
 70
     1
  9
$DIMTVP
 40
0.0
  9
$DIMTIX
 70
     0
  9
$DIMSOXD
 70
     0
  9
$DIMSAH
 70
     0
  9
$DIMBLK1
  1

  9
$DIMBLK2
  1

  9
$DIMSTYLE
  2
ISO-25
  9
$DIMCLRD
 70
     0
  9
$DIMCLRE
 70
     0
  9
$DIMCLRT
 70
     0
  9
$DIMTFAC
 40
1.0
  9
$DIMGAP
 40
1.524
  9
$DIMJUST
 70
     0
  9
$DIMSD1
 70
     0
  9
$DIMSD2
 70
     0
  9
$DIMTOLJ
 70
     0
  9
$DIMTZIN
 70
     1
  9
$DIMALTZ
 70
     0
  9
$DIMALTTZ
 70
     0
  9
$DIMUPT
 70
     0
  9
$DIMDEC
 70
     2
  9
$DIMTDEC
 70
     2
  9
$DIMALTU
 70
     2
  9
$DIMALTTD
 70
     3
  9
$DIMTXSTY
  7
Standard
  9
$DIMAUNIT
 70
     0
  9
$DIMADEC
 70
     0
  9
$DIMALTRND
 40
0.0
  9
$DIMAZIN
 70
     0
  9
$DIMDSEP
 70
    44
  9
$DIMATFIT
 70
     3
  9
$DIMFRAC
 70
     0
  9
$DIMLDRBLK
  1

  9
$DIMLUNIT
 70
     2
  9
$DIMLWD
 70
    -2
  9
$DIMLWE
 70
    -2
  9
$DIMTMOVE
 70
     0
  9
$LUNITS
 70
     2
  9
$LUPREC
 70
     1
  9
$SKETCHINC
 40
1.0
  9
$FILLETRAD
 40
10.0
  9
$AUNITS
 70
     0
  9
$AUPREC
 70
     0
  9
$MENU
  1
.
  9
$ELEVATION
 40
0.0
  9
$PELEVATION
 40
0.0
  9
$THICKNESS
 40
0.0
  9
$LIMCHECK
 70
     0
  9
$CHAMFERA
 40
10.0
  9
$CHAMFERB
 40
10.0
  9
$CHAMFERC
 40
20.0
  9
$CHAMFERD
 40
0.0
  9
$SKPOLY
 70
     0
  9
$TDCREATE
 40
2454414.374300671
  9
$TDUCREATE
 40
2454413.999300671
  9
$TDUPDATE
 40
2454414.374300683
  9
$TDUUPDATE
 40
2454413.999300683
  9
$TDINDWG
 40
0.0000000116
  9
$TDUSRTIMER
 40
0.0000000116
  9
$USRTIMER
 70
     1
  9
$ANGBASE
 50
0.0
  9
$ANGDIR
 70
     0
  9
$PDMODE
 70
     0
  9
$PDSIZE
 40
-1.0
  9
$PLINEWID
 40
0.0
  9
$SPLFRAME
 70
     0
  9
$SPLINETYPE
 70
     6
  9
$SPLINESEGS
 70
     8
  9
$HANDSEED
  5
2A2
  9
$SURFTAB1
 70
     6
  9
$SURFTAB2
 70
     6
  9
$SURFTYPE
 70
     6
  9
$SURFU
 70
     6
  9
$SURFV
 70
     6
  9
$UCSBASE
  2

  9
$UCSNAME
  2

  9
$UCSORG
 10
0.0
 20
0.0
 30
0.0
  9
$UCSXDIR
 10
1.0
 20
0.0
 30
0.0
  9
$UCSYDIR
 10
0.0
 20
1.0
 30
0.0
  9
$UCSORTHOREF
  2

  9
$UCSORTHOVIEW
 70
     0
  9
$UCSORGTOP
 10
0.0
 20
0.0
 30
0.0
  9
$UCSORGBOTTOM
 10
0.0
 20
0.0
 30
0.0
  9
$UCSORGLEFT
 10
0.0
 20
0.0
 30
0.0
  9
$UCSORGRIGHT
 10
0.0
 20
0.0
 30
0.0
  9
$UCSORGFRONT
 10
0.0
 20
0.0
 30
0.0
  9
$UCSORGBACK
 10
0.0
 20
0.0
 30
0.0
  9
$PUCSBASE
  2

  9
$PUCSNAME
  2

  9
$PUCSORG
 10
0.0
 20
0.0
 30
0.0
  9
$PUCSXDIR
 10
1.0
 20
0.0
 30
0.0
  9
$PUCSYDIR
 10
0.0
 20
1.0
 30
0.0
  9
$PUCSORTHOREF
  2

  9
$PUCSORTHOVIEW
 70
     0
  9
$PUCSORGTOP
 10
0.0
 20
0.0
 30
0.0
  9
$PUCSORGBOTTOM
 10
0.0
 20
0.0
 30
0.0
  9
$PUCSORGLEFT
 10
0.0
 20
0.0
 30
0.0
  9
$PUCSORGRIGHT
 10
0.0
 20
0.0
 30
0.0
  9
$PUCSORGFRONT
 10
0.0
 20
0.0
 30
0.0
  9
$PUCSORGBACK
 10
0.0
 20
0.0
 30
0.0
  9
$USERI1
 70
     0
  9
$USERI2
 70
     0
  9
$USERI3
 70
     0
  9
$USERI4
 70
     0
  9
$USERI5
 70
     0
  9
$USERR1
 40
0.0
  9
$USERR2
 40
0.0
  9
$USERR3
 40
0.0
  9
$USERR4
 40
0.0
  9
$USERR5
 40
0.0
  9
$WORLDVIEW
 70
     1
  9
$SHADEDGE
 70
     3
  9
$SHADEDIF
 70
    70
  9
$TILEMODE
 70
     1
  9
$MAXACTVP
 70
    64
  9
$PINSBASE
 10
0.0
 20
0.0
 30
0.0
  9
$PLIMCHECK
 70
     0
  9
$PEXTMIN
 10
1.0000000000E+20
 20
1.0000000000E+20
 30
1.0000000000E+20
  9
$PEXTMAX
 10
-1.0000000000E+20
 20
-1.0000000000E+20
 30
-1.0000000000E+20
  9
$PLIMMIN
 10
0.0
 20
0.0
  9
$PLIMMAX
 10
420.0
 20
297.0
  9
$UNITMODE
 70
     0
  9
$VISRETAIN
 70
     1
  9
$PLINEGEN
 70
     0
  9
$PSLTSCALE
 70
     1
  9
$TREEDEPTH
 70
  3020
  9
$CMLSTYLE
  2
Standard
  9
$CMLJUST
 70
     0
  9
$CMLSCALE
 40
20.0
  9
$PROXYGRAPHICS
 70
     1
  9
$MEASUREMENT
 70
     1
  9
$CELWEIGHT
370
    -1
  9
$ENDCAPS
280
     0
  9
$JOINSTYLE
280
     0
  9
$LWDISPLAY
290
     1
  9
$INSUNITS
 70
     4
  9
$HYPERLINKBASE
  1

  9
$STYLESHEET
  1

  9
$XEDIT
290
     1
  9
$CEPSNTYPE
380
     0
  9
$PSTYLEMODE
290
     1
  9
$FINGERPRINTGUID
  2
{EF582C5C-C7A8-4448-95ED-A0A5E9D6F1E3}
  9
$VERSIONGUID
  2
{FAEB1C32-E019-11D5-929B-00C0DF256EC4}
  9
$EXTNAMES
290
     1
  9
$PSVPSCALE
 40
0.0
  9
$OLESTARTUP
290
     0
  0
ENDSEC
  0
SECTION
  2
CLASSES
  0
CLASS
  1
ACDBDICTIONARYWDFLT
  2
AcDbDictionaryWithDefault
  3
ObjectDBX Classes
 90
        0
280
     0
281
     0
  0
CLASS
  1
ACDBPLACEHOLDER
  2
AcDbPlaceHolder
  3
ObjectDBX Classes
 90
        0
280
     0
281
     0
  0
CLASS
  1
LAYOUT
  2
AcDbLayout
  3
ObjectDBX Classes
 90
        0
280
     0
281
     0
  0
ENDSEC
  0
SECTION
  2
TABLES
  0
TABLE
  2
VPORT
  5
8
330
0
100
AcDbSymbolTable
 70
     1
  0
VPORT
  5
29
330
8
100
AcDbSymbolTableRecord
100
AcDbViewportTableRecord
  2
*Active
 70
     0
 10
0.0
 20
0.0
 11
1.0
 21
1.0
 12
105.0
 22
148.5
 13
0.0
 23
0.0
 14
10.0
 24
10.0
 15
10.0
 25
10.0
 16
0.0
 26
0.0
 36
1.0
 17
0.0
 27
0.0
 37
0.0
 40
297.0
 41
1.9729729729
 42
50.0
 43
0.0
 44
0.0
 50
0.0
 51
0.0
 71
     0
 72
  2000
 73
     1
 74
     3
 75
     0
 76
     0
 77
     0
 78
     0
281
     0
 65
     1
110
0.0
120
0.0
130
0.0
111
1.0
121
0.0
131
0.0
112
0.0
122
1.0
132
0.0
 79
     0
146
0.0
  0
ENDTAB
  0
TABLE
  2
LTYPE
  5
5
330
0
100
AcDbSymbolTable
 70
     6
  0
LTYPE
  5
14
330
5
100
AcDbSymbolTableRecord
100
AcDbLinetypeTableRecord
  2
ByBlock
 70
     0
  3

 72
    65
 73
     0
 40
0.0
  0
LTYPE
  5
15
330
5
100
AcDbSymbolTableRecord
100
AcDbLinetypeTableRecord
  2
ByLayer
 70
     0
  3

 72
    65
 73
     0
 40
0.0
  0
LTYPE
  5
16
330
5
100
AcDbSymbolTableRecord
100
AcDbLinetypeTableRecord
  2
Continuous
 70
     0
  3
Solid line
 72
    65
 73
     0
 40
0.0
  0
LTYPE
  5
2A
330
5
100
AcDbSymbolTableRecord
100
AcDbLinetypeTableRecord
  2
HIDDEN
 70
     0
  3
Hidden __ __ __ __ __ __ __ __ __ __ __ __ __ __
 72
    65
 73
     2
 40
1.905
 49
1.27
 74
     0
 49
-0.635
 74
     0
  0
LTYPE
  5
2B
330
5
100
AcDbSymbolTableRecord
100
AcDbLinetypeTableRecord
  2
PHANTOM
 70
     0
  3
Phantom ______  __  __  ______  __  __  ______
 72
    65
 73
     6
 40
12.7
 49
6.35
 74
     0
 49
-1.27
 74
     0
 49
1.27
 74
     0
 49
-1.27
 74
     0
 49
1.27
 74
     0
 49
-1.27
 74
     0
  0
LTYPE
  5
2C
330
5
100
AcDbSymbolTableRecord
100
AcDbLinetypeTableRecord
  2
CENTER
 70
     0
  3
Center ____ _ ____ _ ____ _ ____ _ ____ _ ____
 72
    65
 73
     4
 40
10.16
 49
6.35
 74
     0
 49
-1.27
 74
     0
 49
1.27
 74
     0
 49
-1.27
 74
     0
  0
LTYPE
  5
2D
330
5
100
AcDbSymbolTableRecord
100
AcDbLinetypeTableRecord
  2
CENTERX2
 70
     0
  3
Center (2x) ________  __  ________  __  _____
 72
    65
 73
     4
 40
20.32
 49
12.7
 74
     0
 49
-2.54
 74
     0
 49
2.54
 74
     0
 49
-2.54
 74
     0
  0
LTYPE
  5
2E
330
5
100
AcDbSymbolTableRecord
100
AcDbLinetypeTableRecord
  2
DOT2
 70
     0
  3
Dot (.5x) ........................................
 72
    65
 73
     2
 40
0.635
 49
0.0
 74
     0
 49
-0.635
 74
     0
  0
ENDTAB
  0
TABLE
  2
LAYER
  5
2
330
0
100
AcDbSymbolTable
 70
    13
  0
LAYER
  5
10
330
2
100
AcDbSymbolTableRecord
100
AcDbLayerTableRecord
  2
0
 70
     0
 62
     7
  6
Continuous
370
    -3
390
F
  0
LAYER
  5
2F
330
2
100
AcDbSymbolTableRecord
100
AcDbLayerTableRecord
  2
SLD-0_1
 70
     0
 62
     7
  6
Continuous
370
     0
390
F
  0
LAYER
  5
30
330
2
100
AcDbSymbolTableRecord
100
AcDbLayerTableRecord
  2
SLD-0_0
 70
     0
 62
     7
  6
Continuous
370
     0
390
F
  0
LAYER
  5
31
330
2
100
AcDbSymbolTableRecord
100
AcDbLayerTableRecord
  2
SLD-0
 70
     0
 62
     7
  6
Continuous
370
     0
390
F
  0
LAYER
  5
32
330
2
100
AcDbSymbolTableRecord
100
AcDbLayerTableRecord
  2
1-1
 70
     0
 62
     7
  6
Continuous
370
     0
390
F
  0
LAYER
  5
33
330
2
100
AcDbSymbolTableRecord
100
AcDbLayerTableRecord
  2
1-2
 70
     0
 62
     7
  6
Continuous
370
     0
390
F
  0
LAYER
  5
34
330
2
100
AcDbSymbolTableRecord
100
AcDbLayerTableRecord
  2
1-3
 70
     0
 62
     7
  6
Continuous
370
     0
390
F
  0
LAYER
  5
35
330
2
100
AcDbSymbolTableRecord
100
AcDbLayerTableRecord
  2
1-4
 70
     0
 62
     7
  6
Continuous
370
     0
390
F
  0
LAYER
  5
36
330
2
100
AcDbSymbolTableRecord
100
AcDbLayerTableRecord
  2
1-6
 70
     0
 62
     7
  6
Continuous
370
     0
390
F
  0
LAYER
  5
37
330
2
100
AcDbSymbolTableRecord
100
AcDbLayerTableRecord
  2
1-7
 70
     0
 62
     7
  6
Continuous
370
     0
390
F
  0
LAYER
  5
38
330
2
100
AcDbSymbolTableRecord
100
AcDbLayerTableRecord
  2
ADD_LINE
 70
     0
 62
     7
  6
Continuous
370
     0
390
F
  0
LAYER
  5
39
330
2
100
AcDbSymbolTableRecord
100
AcDbLayerTableRecord
  2
SLD-DEFPOINTS
 70
     0
 62
     7
  6
Continuous
370
     0
390
F
  0
LAYER
  5
111
330
2
100
AcDbSymbolTableRecord
100
AcDbLayerTableRecord
  2
Defpoints
 70
     0
 62
     7
  6
Continuous
290
     0
370
    -3
390
F
  0
ENDTAB
  0
TABLE
  2
STYLE
  5
3
330
0
100
AcDbSymbolTable
 70
     3
  0
STYLE
  5
11
330
3
100
AcDbSymbolTableRecord
100
AcDbTextStyleTableRecord
  2
Standard
 70
     0
 40
0.0
 41
1.0
 50
0.0
 71
     0
 42
2.5
  3
txt
  4
bigfont
  0
STYLE
  5
3D
330
3
100
AcDbSymbolTableRecord
100
AcDbTextStyleTableRecord
  2
SLDTEXTSTYLE0
 70
     0
 40
0.0
 41
0.7
 50
0.0
 71
     0
 42
0.2
  3
TXT
  4
bigfont
  0
STYLE
  5
12B
330
3
100
AcDbSymbolTableRecord
100
AcDbTextStyleTableRecord
  2
SLDTEXTSTYLE1
 70
     0
 40
0.0
 41
0.96
 50
0.0
 71
     0
 42
0.2
  3
TXT
  4
bigfont
  0
ENDTAB
  0
TABLE
  2
VIEW
  5
6
330
0
100
AcDbSymbolTable
 70
     0
  0
ENDTAB
  0
TABLE
  2
UCS
  5
7
330
0
100
AcDbSymbolTable
 70
     0
  0
ENDTAB
  0
TABLE
  2
APPID
  5
9
330
0
100
AcDbSymbolTable
 70
     1
  0
APPID
  5
12
330
9
100
AcDbSymbolTableRecord
100
AcDbRegAppTableRecord
  2
ACAD
 70
     0
  0
ENDTAB
  0
TABLE
  2
DIMSTYLE
  5
A
330
0
100
AcDbSymbolTable
 70
     4
100
AcDbDimStyleTable
  0
DIMSTYLE
105
27
330
A
100
AcDbSymbolTableRecord
100
AcDbDimStyleTableRecord
  2
ISO-25
 70
     0
 41
2.5
 42
0.625
 43
3.75
 44
1.25
 73
     0
 74
     0
 77
     1
 78
     8
140
2.5
141
2.5
143
0.0393700787
147
0.625
171
     3
172
     1
271
     2
272
     2
274
     3
278
    44
283
     0
284
     8
340
11
  0
DIMSTYLE
105
11E
102
{ACAD_REACTORS
330
110
330
12D
330
146
330
177
330
18F
330
1A9
330
1C0
330
1F0
330
207
330
220
330
238
330
26B
330
284
102
}
330
A
100
AcDbSymbolTableRecord
100
AcDbDimStyleTableRecord
  2
SLDDIMSTYLE0
 70
     0
 41
3.0
 44
0.0
 73
     0
 74
     0
 77
     3
 78
     4
140
3.0
147
0.75
173
     1
271
     1
272
     3
284
    12
340
3D
341
11F
343
11F
344
11F
  0
DIMSTYLE
105
16C
102
{ACAD_REACTORS
330
15F
102
}
330
A
100
AcDbSymbolTableRecord
100
AcDbDimStyleTableRecord
  2
SLDDIMSTYLE1
 70
     0
 41
3.0
 44
0.0
 73
     0
 74
     0
 77
     3
 78
    12
140
3.0
147
0.75
173
     1
271
     0
272
     3
284
    12
340
3D
341
11F
343
11F
344
11F
  0
DIMSTYLE
105
1E5
102
{ACAD_REACTORS
330
1D7
330
24F
102
}
330
A
100
AcDbSymbolTableRecord
100
AcDbDimStyleTableRecord
  2
SLDDIMSTYLE2
 70
     0
 41
3.0
 44
0.0
 73
     0
 74
     0
 77
     3
 78
    12
140
3.0
147
0.75
173
     1
271
     1
272
     3
284
    12
340
3D
341
11F
343
11F
344
11F
  0
ENDTAB
  0
TABLE
  2
BLOCK_RECORD
  5
1
330
0
100
AcDbSymbolTable
 70
    19
  0
BLOCK_RECORD
  5
1F
330
1
100
AcDbSymbolTableRecord
100
AcDbBlockTableRecord
  2
*Model_Space
340
22
  0
BLOCK_RECORD
  5
1B
330
1
100
AcDbSymbolTableRecord
100
AcDbBlockTableRecord
  2
*Paper_Space
340
1E
  0
BLOCK_RECORD
  5
23
330
1
100
AcDbSymbolTableRecord
100
AcDbBlockTableRecord
  2
*Paper_Space0
340
26
  0
BLOCK_RECORD
  5
3A
330
1
100
AcDbSymbolTableRecord
100
AcDbBlockTableRecord
  2
注記
340
0
  0
BLOCK_RECORD
  5
112
330
1
100
AcDbSymbolTableRecord
100
AcDbBlockTableRecord
  2
*D2
340
0
  0
BLOCK_RECORD
  5
11F
330
1
100
AcDbSymbolTableRecord
100
AcDbBlockTableRecord
  2
_None
340
0
102
{BLKREFS
331
117
331
116
331
133
331
132
331
14C
331
14B
331
165
331
164
331
17D
331
17C
331
195
331
194
331
1AF
331
1AE
331
1C6
331
1C5
331
1DD
331
1DC
331
1F6
331
1F5
331
20D
331
20C
331
226
331
225
331
23E
331
23D
331
256
331
255
331
271
331
270
331
28A
331
289
102
}
  0
BLOCK_RECORD
  5
12E
330
1
100
AcDbSymbolTableRecord
100
AcDbBlockTableRecord
  2
*D4
340
0
  0
BLOCK_RECORD
  5
147
330
1
100
AcDbSymbolTableRecord
100
AcDbBlockTableRecord
  2
*D5
340
0
  0
BLOCK_RECORD
  5
160
330
1
100
AcDbSymbolTableRecord
100
AcDbBlockTableRecord
  2
*D6
340
0
  0
BLOCK_RECORD
  5
178
330
1
100
AcDbSymbolTableRecord
100
AcDbBlockTableRecord
  2
*D7
340
0
  0
BLOCK_RECORD
  5
190
330
1
100
AcDbSymbolTableRecord
100
AcDbBlockTableRecord
  2
*D8
340
0
  0
BLOCK_RECORD
  5
1AA
330
1
100
AcDbSymbolTableRecord
100
AcDbBlockTableRecord
  2
*D9
340
0
  0
BLOCK_RECORD
  5
1C1
330
1
100
AcDbSymbolTableRecord
100
AcDbBlockTableRecord
  2
*D10
340
0
  0
BLOCK_RECORD
  5
1D8
330
1
100
AcDbSymbolTableRecord
100
AcDbBlockTableRecord
  2
*D11
340
0
  0
BLOCK_RECORD
  5
1F1
330
1
100
AcDbSymbolTableRecord
100
AcDbBlockTableRecord
  2
*D12
340
0
  0
BLOCK_RECORD
  5
208
330
1
100
AcDbSymbolTableRecord
100
AcDbBlockTableRecord
  2
*D13
340
0
  0
BLOCK_RECORD
  5
221
330
1
100
AcDbSymbolTableRecord
100
AcDbBlockTableRecord
  2
*D14
340
0
  0
BLOCK_RECORD
  5
239
330
1
100
AcDbSymbolTableRecord
100
AcDbBlockTableRecord
  2
*D15
340
0
  0
BLOCK_RECORD
  5
250
330
1
100
AcDbSymbolTableRecord
100
AcDbBlockTableRecord
  2
*D16
340
0
  0
BLOCK_RECORD
  5
26C
330
1
100
AcDbSymbolTableRecord
100
AcDbBlockTableRecord
  2
*D17
340
0
  0
BLOCK_RECORD
  5
285
330
1
100
AcDbSymbolTableRecord
100
AcDbBlockTableRecord
  2
*D18
340
0
  0
ENDTAB
  0
ENDSEC
  0
SECTION
  2
BLOCKS
  0
BLOCK
  5
20
330
1F
100
AcDbEntity
  8
0
100
AcDbBlockBegin
  2
*Model_Space
 70
     0
 71
     0
 10
0.0
 20
0.0
 30
0.0
  3
*Model_Space
  1

  0
ENDBLK
  5
21
330
1F
100
AcDbEntity
  8
0
100
AcDbBlockEnd
  0
BLOCK
  5
1C
330
1B
100
AcDbEntity
 67
     1
  8
0
100
AcDbBlockBegin
  2
*Paper_Space
 70
     0
 71
     0
 10
0.0
 20
0.0
 30
0.0
  3
*Paper_Space
  1

  0
ENDBLK
  5
1D
330
1B
100
AcDbEntity
 67
     1
  8
0
100
AcDbBlockEnd
  0
BLOCK
  5
24
330
23
100
AcDbEntity
  8
0
100
AcDbBlockBegin
  2
*Paper_Space0
 70
     0
 71
     0
 10
0.0
 20
0.0
 30
0.0
  3
*Paper_Space0
  1

  0
ENDBLK
  5
25
330
23
100
AcDbEntity
  8
0
100
AcDbBlockEnd
  0
BLOCK
  5
3B
330
3A
100
AcDbEntity
  8
0
100
AcDbBlockBegin
  2
注記
 70
     0
 71
     0
 10
0.0
 20
0.0
 30
0.0
  3
注記
  1

  0
MTEXT
  5
3E
330
3A
100
AcDbEntity
  8
0
  6
Continuous
 62
     7
370
     0
100
AcDbMText
 10
0.2636785918
 20
9.0739778448
 30
0.0
 40
3.5
 41
0.0
 71
     1
 72
     1
  1
１．特記ナキ角部ハ、バリ　カエリノ無キコト。
  7
SLDTEXTSTYLE0
 73
     1
 44
1.0
  0
MTEXT
  5
3F
330
3A
100
AcDbEntity
  8
0
  6
Continuous
 62
     7
370
     0
100
AcDbMText
 10
0.2636785918
 20
3.5759549983
 30
0.0
 40
3.5
 41
0.0
 71
     1
 72
     1
  1
２．特記ナキ隅部ハ、Ｒ０．４ＭＡＸトスル。
  7
SLDTEXTSTYLE0
 73
     1
 44
1.0
  0
ENDBLK
  5
3C
330
3A
100
AcDbEntity
  8
0
100
AcDbBlockEnd
  0
BLOCK
  5
11C
330
112
100
AcDbEntity
  8
0
100
AcDbBlockBegin
  2
*D2
 70
     1
 71
     0
 10
0.0
 20
0.0
 30
0.0
  3
*D2
  1

  0
LINE
  5
122
330
112
100
AcDbEntity
  8
1-1
100
AcDbLine
 10
68.01756
 20
222.7120035907
 30
0.0
 11
71.01756
 21
221.9081565907
 31
0.0
  0
LINE
  5
123
330
112
100
AcDbEntity
  8
1-1
100
AcDbLine
 10
71.01756
 20
221.9081565907
 30
0.0
 11
68.01756
 21
221.1043095907
 31
0.0
  0
LINE
  5
124
330
112
100
AcDbEntity
  8
1-1
100
AcDbLine
 10
71.01756
 20
221.9081565907
 30
0.0
 11
68.01756
 21
221.9081565907
 31
0.0
  0
LINE
  5
125
330
112
100
AcDbEntity
  8
1-1
100
AcDbLine
 10
34.01759
 20
221.1043095907
 30
0.0
 11
31.01759
 21
221.9081565907
 31
0.0
  0
LINE
  5
126
330
112
100
AcDbEntity
  8
1-1
100
AcDbLine
 10
31.01759
 20
221.9081565907
 30
0.0
 11
34.01759
 21
222.7120035907
 31
0.0
  0
LINE
  5
127
330
112
100
AcDbEntity
  8
1-1
100
AcDbLine
 10
31.01759
 20
221.9081565907
 30
0.0
 11
34.01759
 21
221.9081565907
 31
0.0
  0
LINE
  5
128
330
112
100
AcDbEntity
  8
1-1
100
AcDbLine
 10
71.01756
 20
254.70448
 30
0.0
 11
71.01756
 21
220.9081565907
 31
0.0
  0
LINE
  5
129
330
112
100
AcDbEntity
  8
1-1
100
AcDbLine
 10
31.01759
 20
254.70448
 30
0.0
 11
31.01759
 21
220.9081565907
 31
0.0
  0
LINE
  5
12A
330
112
100
AcDbEntity
  8
1-1
100
AcDbLine
 10
71.01756
 20
221.9081565907
 30
0.0
 11
31.01759
 21
221.9081565907
 31
0.0
  0
MTEXT
  5
12C
330
112
100
AcDbEntity
  8
1-1
100
AcDbMText
 10
47.5273427514
 20
225.3990657398
 30
0.1
 40
3.0
 41
0.0
 71
     1
 72
     1
  1
40.0
  7
SLDTEXTSTYLE1
 73
     1
 44
1.0
  0
ENDBLK
  5
11D
330
112
100
AcDbEntity
  8
0
100
AcDbBlockEnd
  0
BLOCK
  5
120
330
11F
100
AcDbEntity
  8
0
100
AcDbBlockBegin
  2
_None
 70
     0
 71
     0
 10
0.0
 20
0.0
 30
0.0
  3
_None
  1

  0
ENDBLK
  5
121
330
11F
100
AcDbEntity
  8
0
100
AcDbBlockEnd
  0
BLOCK
  5
138
330
12E
100
AcDbEntity
  8
0
100
AcDbBlockBegin
  2
*D4
 70
     1
 71
     0
 10
0.0
 20
0.0
 30
0.0
  3
*D4
  1

  0
LINE
  5
13A
330
12E
100
AcDbEntity
  8
1-1
100
AcDbLine
 10
18.01756
 20
109.5223306472
 30
0.0
 11
21.01756
 21
108.7184836472
 31
0.0
  0
LINE
  5
13B
330
12E
100
AcDbEntity
  8
1-1
100
AcDbLine
 10
21.01756
 20
108.7184836472
 30
0.0
 11
18.01756
 21
107.9146366472
 31
0.0
  0
LINE
  5
13C
330
12E
100
AcDbEntity
  8
1-1
100
AcDbLine
 10
21.01756
 20
108.7184836472
 30
0.0
 11
18.01756
 21
108.7184836472
 31
0.0
  0
LINE
  5
13D
330
12E
100
AcDbEntity
  8
1-1
100
AcDbLine
 10
34.01757
 20
107.9146366472
 30
0.0
 11
31.01757
 21
108.7184836472
 31
0.0
  0
LINE
  5
13E
330
12E
100
AcDbEntity
  8
1-1
100
AcDbLine
 10
31.01757
 20
108.7184836472
 30
0.0
 11
34.01757
 21
109.5223306472
 31
0.0
  0
LINE
  5
13F
330
12E
100
AcDbEntity
  8
1-1
100
AcDbLine
 10
31.01757
 20
108.7184836472
 30
0.0
 11
34.01757
 21
108.7184836472
 31
0.0
  0
LINE
  5
140
330
12E
100
AcDbEntity
  8
1-1
100
AcDbLine
 10
21.01756
 20
118.70446
 30
0.0
 11
21.01756
 21
107.7184836472
 31
0.0
  0
LINE
  5
141
330
12E
100
AcDbEntity
  8
1-1
100
AcDbLine
 10
31.01757
 20
118.70446
 30
0.0
 11
31.01757
 21
107.7184836472
 31
0.0
  0
LINE
  5
142
330
12E
100
AcDbEntity
  8
1-1
100
AcDbLine
 10
21.01756
 20
108.7184836472
 30
0.0
 11
16.01756
 21
108.7184836472
 31
0.0
  0
LINE
  5
143
330
12E
100
AcDbEntity
  8
1-1
100
AcDbLine
 10
21.01756
 20
108.7184836472
 30
0.0
 11
31.01757
 21
108.7184836472
 31
0.0
  0
LINE
  5
144
330
12E
100
AcDbEntity
  8
1-1
100
AcDbLine
 10
31.01757
 20
108.7184836472
 30
0.0
 11
36.01757
 21
108.7184836472
 31
0.0
  0
MTEXT
  5
145
330
12E
100
AcDbEntity
  8
1-1
100
AcDbMText
 10
22.5273327514
 20
112.2093927963
 30
0.1
 40
3.0
 41
0.0
 71
     1
 72
     1
  1
10.0
  7
SLDTEXTSTYLE1
 73
     1
 44
1.0
  0
ENDBLK
  5
139
330
12E
100
AcDbEntity
  8
0
100
AcDbBlockEnd
  0
BLOCK
  5
151
330
147
100
AcDbEntity
  8
0
100
AcDbBlockBegin
  2
*D5
 70
     1
 71
     0
 10
0.0
 20
0.0
 30
0.0
  3
*D5
  1

  0
LINE
  5
153
330
147
100
AcDbEntity
  8
1-1
100
AcDbLine
 10
68.01758
 20
109.5223306472
 30
0.0
 11
71.01758
 21
108.7184836472
 31
0.0
  0
LINE
  5
154
330
147
100
AcDbEntity
  8
1-1
100
AcDbLine
 10
71.01758
 20
108.7184836472
 30
0.0
 11
68.01758
 21
107.9146366472
 31
0.0
  0
LINE
  5
155
330
147
100
AcDbEntity
  8
1-1
100
AcDbLine
 10
71.01758
 20
108.7184836472
 30
0.0
 11
68.01758
 21
108.7184836472
 31
0.0
  0
LINE
  5
156
330
147
100
AcDbEntity
  8
1-1
100
AcDbLine
 10
84.01757
 20
107.9146366472
 30
0.0
 11
81.01757
 21
108.7184836472
 31
0.0
  0
LINE
  5
157
330
147
100
AcDbEntity
  8
1-1
100
AcDbLine
 10
81.01757
 20
108.7184836472
 30
0.0
 11
84.01757
 21
109.5223306472
 31
0.0
  0
LINE
  5
158
330
147
100
AcDbEntity
  8
1-1
100
AcDbLine
 10
81.01757
 20
108.7184836472
 30
0.0
 11
84.01757
 21
108.7184836472
 31
0.0
  0
LINE
  5
159
330
147
100
AcDbEntity
  8
1-1
100
AcDbLine
 10
71.01758
 20
118.70446
 30
0.0
 11
71.01758
 21
107.7184836472
 31
0.0
  0
LINE
  5
15A
330
147
100
AcDbEntity
  8
1-1
100
AcDbLine
 10
81.01757
 20
118.70446
 30
0.0
 11
81.01757
 21
107.7184836472
 31
0.0
  0
LINE
  5
15B
330
147
100
AcDbEntity
  8
1-1
100
AcDbLine
 10
71.01758
 20
108.7184836472
 30
0.0
 11
66.01758
 21
108.7184836472
 31
0.0
  0
LINE
  5
15C
330
147
100
AcDbEntity
  8
1-1
100
AcDbLine
 10
71.01758
 20
108.7184836472
 30
0.0
 11
81.01757
 21
108.7184836472
 31
0.0
  0
LINE
  5
15D
330
147
100
AcDbEntity
  8
1-1
100
AcDbLine
 10
81.01757
 20
108.7184836472
 30
0.0
 11
86.01757
 21
108.7184836472
 31
0.0
  0
MTEXT
  5
15E
330
147
100
AcDbEntity
  8
1-1
100
AcDbMText
 10
72.5273427514
 20
112.2093927963
 30
0.1
 40
3.0
 41
0.0
 71
     1
 72
     1
  1
10.0
  7
SLDTEXTSTYLE1
 73
     1
 44
1.0
  0
ENDBLK
  5
152
330
147
100
AcDbEntity
  8
0
100
AcDbBlockEnd
  0
BLOCK
  5
16A
330
160
100
AcDbEntity
  8
0
100
AcDbBlockBegin
  2
*D6
 70
     1
 71
     0
 10
0.0
 20
0.0
 30
0.0
  3
*D6
  1

  0
LINE
  5
16D
330
160
100
AcDbEntity
  8
1-1
100
AcDbLine
 10
34.01757
 20
107.8820979706
 30
0.0
 11
31.01757
 21
108.6859449706
 31
0.0
  0
LINE
  5
16E
330
160
100
AcDbEntity
  8
1-1
100
AcDbLine
 10
31.01757
 20
108.6859449706
 30
0.0
 11
34.01757
 21
109.4897919706
 31
0.0
  0
LINE
  5
16F
330
160
100
AcDbEntity
  8
1-1
100
AcDbLine
 10
31.01757
 20
108.6859449706
 30
0.0
 11
34.01757
 21
108.6859449706
 31
0.0
  0
LINE
  5
170
330
160
100
AcDbEntity
  8
1-1
100
AcDbLine
 10
68.01758
 20
109.4897919706
 30
0.0
 11
71.01758
 21
108.6859449706
 31
0.0
  0
LINE
  5
171
330
160
100
AcDbEntity
  8
1-1
100
AcDbLine
 10
71.01758
 20
108.6859449706
 30
0.0
 11
68.01758
 21
107.8820979706
 31
0.0
  0
LINE
  5
172
330
160
100
AcDbEntity
  8
1-1
100
AcDbLine
 10
71.01758
 20
108.6859449706
 30
0.0
 11
68.01758
 21
108.6859449706
 31
0.0
  0
LINE
  5
173
330
160
100
AcDbEntity
  8
1-1
100
AcDbLine
 10
31.01757
 20
118.70446
 30
0.0
 11
31.01757
 21
107.6859449706
 31
0.0
  0
LINE
  5
174
330
160
100
AcDbEntity
  8
1-1
100
AcDbLine
 10
71.01758
 20
118.70446
 30
0.0
 11
71.01758
 21
107.6859449706
 31
0.0
  0
LINE
  5
175
330
160
100
AcDbEntity
  8
1-1
100
AcDbLine
 10
31.01757
 20
108.6859449706
 30
0.0
 11
71.01758
 21
108.6859449706
 31
0.0
  0
MTEXT
  5
176
330
160
100
AcDbEntity
  8
1-1
100
AcDbMText
 10
41.4155924482
 20
112.1768541197
 30
0.1
 40
3.0
 41
0.0
 71
     1
 72
     1
  1
Max40/Min20
  7
SLDTEXTSTYLE1
 73
     1
 44
1.0
  0
ENDBLK
  5
16B
330
160
100
AcDbEntity
  8
0
100
AcDbBlockEnd
  0
BLOCK
  5
183
330
178
100
AcDbEntity
  8
0
100
AcDbBlockBegin
  2
*D7
 70
     1
 71
     0
 10
0.0
 20
0.0
 30
0.0
  3
*D7
  1

  0
LINE
  5
185
330
178
100
AcDbEntity
  8
1-1
100
AcDbLine
 10
101.0627502987
 20
162.70449
 30
0.0
 11
101.8665972987
 21
165.70449
 31
0.0
  0
LINE
  5
186
330
178
100
AcDbEntity
  8
1-1
100
AcDbLine
 10
101.8665972987
 20
165.70449
 30
0.0
 11
102.6704442987
 21
162.70449
 31
0.0
  0
LINE
  5
187
330
178
100
AcDbEntity
  8
1-1
100
AcDbLine
 10
101.8665972987
 20
165.70449
 30
0.0
 11
101.8665972987
 21
162.70449
 31
0.0
  0
LINE
  5
188
330
178
100
AcDbEntity
  8
1-1
100
AcDbLine
 10
102.6704442987
 20
134.70447
 30
0.0
 11
101.8665972987
 21
131.70447
 31
0.0
  0
LINE
  5
189
330
178
100
AcDbEntity
  8
1-1
100
AcDbLine
 10
101.8665972987
 20
131.70447
 30
0.0
 11
101.0627502987
 21
134.70447
 31
0.0
  0
LINE
  5
18A
330
178
100
AcDbEntity
  8
1-1
100
AcDbLine
 10
101.8665972987
 20
131.70447
 30
0.0
 11
101.8665972987
 21
134.70447
 31
0.0
  0
LINE
  5
18B
330
178
100
AcDbEntity
  8
1-1
100
AcDbLine
 10
87.01757
 20
165.70449
 30
0.0
 11
102.8665972987
 21
165.70449
 31
0.0
  0
LINE
  5
18C
330
178
100
AcDbEntity
  8
1-1
100
AcDbLine
 10
87.01757
 20
131.70447
 30
0.0
 11
102.8665972987
 21
131.70447
 31
0.0
  0
LINE
  5
18D
330
178
100
AcDbEntity
  8
1-1
100
AcDbLine
 10
101.8665972987
 20
165.70449
 30
0.0
 11
101.8665972987
 21
131.70447
 31
0.0
  0
MTEXT
  5
18E
330
178
100
AcDbEntity
  8
1-1
100
AcDbMText
 10
98.3756881496
 20
145.2142477514
 30
0.1
 40
3.0
 41
0.0
 71
     1
 72
     1
  1
34.0
  7
SLDTEXTSTYLE1
 11
-7.044197039909883E-15
 21
1.0
 31
0.0
 73
     1
 44
1.0
  0
ENDBLK
  5
184
330
178
100
AcDbEntity
  8
0
100
AcDbBlockEnd
  0
BLOCK
  5
19B
330
190
100
AcDbEntity
  8
0
100
AcDbBlockBegin
  2
*D8
 70
     1
 71
     0
 10
0.0
 20
0.0
 30
0.0
  3
*D8
  1

  0
LINE
  5
19D
330
190
100
AcDbEntity
  8
1-1
100
AcDbLine
 10
102.6704442987
 20
134.70447
 30
0.0
 11
101.8665972987
 21
131.70447
 31
0.0
  0
LINE
  5
19E
330
190
100
AcDbEntity
  8
1-1
100
AcDbLine
 10
101.8665972987
 20
131.70447
 30
0.0
 11
101.0627502987
 21
134.70447
 31
0.0
  0
LINE
  5
19F
330
190
100
AcDbEntity
  8
1-1
100
AcDbLine
 10
101.8665972987
 20
131.70447
 30
0.0
 11
101.8665972987
 21
134.70447
 31
0.0
  0
LINE
  5
1A0
330
190
100
AcDbEntity
  8
1-1
100
AcDbLine
 10
101.0627502987
 20
116.70446
 30
0.0
 11
101.8665972987
 21
119.70446
 31
0.0
  0
LINE
  5
1A1
330
190
100
AcDbEntity
  8
1-1
100
AcDbLine
 10
101.8665972987
 20
119.70446
 30
0.0
 11
102.6704442987
 21
116.70446
 31
0.0
  0
LINE
  5
1A2
330
190
100
AcDbEntity
  8
1-1
100
AcDbLine
 10
101.8665972987
 20
119.70446
 30
0.0
 11
101.8665972987
 21
116.70446
 31
0.0
  0
LINE
  5
1A3
330
190
100
AcDbEntity
  8
1-1
100
AcDbLine
 10
82.01757
 20
131.70447
 30
0.0
 11
102.8665972987
 21
131.70447
 31
0.0
  0
LINE
  5
1A4
330
190
100
AcDbEntity
  8
1-1
100
AcDbLine
 10
82.01757
 20
119.70446
 30
0.0
 11
102.8665972987
 21
119.70446
 31
0.0
  0
LINE
  5
1A5
330
190
100
AcDbEntity
  8
1-1
100
AcDbLine
 10
101.8665972987
 20
131.70447
 30
0.0
 11
101.8665972987
 21
136.70447
 31
0.0
  0
LINE
  5
1A6
330
190
100
AcDbEntity
  8
1-1
100
AcDbLine
 10
101.8665972987
 20
131.70447
 30
0.0
 11
101.8665972987
 21
119.70446
 31
0.0
  0
LINE
  5
1A7
330
190
100
AcDbEntity
  8
1-1
100
AcDbLine
 10
101.8665972987
 20
119.70446
 30
0.0
 11
101.8665972987
 21
114.70446
 31
0.0
  0
MTEXT
  5
1A8
330
190
100
AcDbEntity
  8
1-1
100
AcDbMText
 10
98.3756881496
 20
122.2142327514
 30
0.1
 40
3.0
 41
0.0
 71
     1
 72
     1
  1
12.0
  7
SLDTEXTSTYLE1
 11
-7.044197039909883E-15
 21
1.0
 31
0.0
 73
     1
 44
1.0
  0
ENDBLK
  5
19C
330
190
100
AcDbEntity
  8
0
100
AcDbBlockEnd
  0
BLOCK
  5
1B4
330
1AA
100
AcDbEntity
  8
0
100
AcDbBlockBegin
  2
*D9
 70
     1
 71
     0
 10
0.0
 20
0.0
 30
0.0
  3
*D9
  1

  0
LINE
  5
1B6
330
1AA
100
AcDbEntity
  8
1-1
100
AcDbLine
 10
19.01758
 20
179.4149838535
 30
0.0
 11
16.01758
 21
180.2188308535
 31
0.0
  0
LINE
  5
1B7
330
1AA
100
AcDbEntity
  8
1-1
100
AcDbLine
 10
16.01758
 20
180.2188308535
 30
0.0
 11
19.01758
 21
181.0226778535
 31
0.0
  0
LINE
  5
1B8
330
1AA
100
AcDbEntity
  8
1-1
100
AcDbLine
 10
16.01758
 20
180.2188308535
 30
0.0
 11
19.01758
 21
180.2188308535
 31
0.0
  0
LINE
  5
1B9
330
1AA
100
AcDbEntity
  8
1-1
100
AcDbLine
 10
83.01757
 20
181.0226778535
 30
0.0
 11
86.01757
 21
180.2188308535
 31
0.0
  0
LINE
  5
1BA
330
1AA
100
AcDbEntity
  8
1-1
100
AcDbLine
 10
86.01757
 20
180.2188308535
 30
0.0
 11
83.01757
 21
179.4149838535
 31
0.0
  0
LINE
  5
1BB
330
1AA
100
AcDbEntity
  8
1-1
100
AcDbLine
 10
86.01757
 20
180.2188308535
 30
0.0
 11
83.01757
 21
180.2188308535
 31
0.0
  0
LINE
  5
1BC
330
1AA
100
AcDbEntity
  8
1-1
100
AcDbLine
 10
16.01758
 20
166.70449
 30
0.0
 11
16.01758
 21
181.2188308535
 31
0.0
  0
LINE
  5
1BD
330
1AA
100
AcDbEntity
  8
1-1
100
AcDbLine
 10
86.01757
 20
166.70449
 30
0.0
 11
86.01757
 21
181.2188308535
 31
0.0
  0
LINE
  5
1BE
330
1AA
100
AcDbEntity
  8
1-1
100
AcDbLine
 10
16.01758
 20
180.2188308535
 30
0.0
 11
86.01757
 21
180.2188308535
 31
0.0
  0
MTEXT
  5
1BF
330
1AA
100
AcDbEntity
  8
1-1
100
AcDbMText
 10
47.5273427514
 20
183.7097400026
 30
0.1
 40
3.0
 41
0.0
 71
     1
 72
     1
  1
70.0
  7
SLDTEXTSTYLE1
 73
     1
 44
1.0
  0
ENDBLK
  5
1B5
330
1AA
100
AcDbEntity
  8
0
100
AcDbBlockEnd
  0
BLOCK
  5
1CB
330
1C1
100
AcDbEntity
  8
0
100
AcDbBlockBegin
  2
*D10
 70
     1
 71
     0
 10
0.0
 20
0.0
 30
0.0
  3
*D10
  1

  0
LINE
  5
1CD
330
1C1
100
AcDbEntity
  8
1-1
100
AcDbLine
 10
34.01755
 20
172.2686268155
 30
0.0
 11
31.01755
 21
173.0724738155
 31
0.0
  0
LINE
  5
1CE
330
1C1
100
AcDbEntity
  8
1-1
100
AcDbLine
 10
31.01755
 20
173.0724738155
 30
0.0
 11
34.01755
 21
173.8763208155
 31
0.0
  0
LINE
  5
1CF
330
1C1
100
AcDbEntity
  8
1-1
100
AcDbLine
 10
31.01755
 20
173.0724738155
 30
0.0
 11
34.01755
 21
173.0724738155
 31
0.0
  0
LINE
  5
1D0
330
1C1
100
AcDbEntity
  8
1-1
100
AcDbLine
 10
68.01753
 20
173.8763208155
 30
0.0
 11
71.01753
 21
173.0724738155
 31
0.0
  0
LINE
  5
1D1
330
1C1
100
AcDbEntity
  8
1-1
100
AcDbLine
 10
71.01753
 20
173.0724738155
 30
0.0
 11
68.01753
 21
172.2686268155
 31
0.0
  0
LINE
  5
1D2
330
1C1
100
AcDbEntity
  8
1-1
100
AcDbLine
 10
71.01753
 20
173.0724738155
 30
0.0
 11
68.01753
 21
173.0724738155
 31
0.0
  0
LINE
  5
1D3
330
1C1
100
AcDbEntity
  8
1-1
100
AcDbLine
 10
31.01755
 20
158.7045
 30
0.0
 11
31.01755
 21
174.0724738155
 31
0.0
  0
LINE
  5
1D4
330
1C1
100
AcDbEntity
  8
1-1
100
AcDbLine
 10
71.01753
 20
158.7045
 30
0.0
 11
71.01753
 21
174.0724738155
 31
0.0
  0
LINE
  5
1D5
330
1C1
100
AcDbEntity
  8
1-1
100
AcDbLine
 10
31.01755
 20
173.0724738155
 30
0.0
 11
71.01753
 21
173.0724738155
 31
0.0
  0
MTEXT
  5
1D6
330
1C1
100
AcDbEntity
  8
1-1
100
AcDbMText
 10
47.5273077514
 20
176.5633829646
 30
0.1
 40
3.0
 41
0.0
 71
     1
 72
     1
  1
40.0
  7
SLDTEXTSTYLE1
 73
     1
 44
1.0
  0
ENDBLK
  5
1CC
330
1C1
100
AcDbEntity
  8
0
100
AcDbBlockEnd
  0
BLOCK
  5
1E3
330
1D8
100
AcDbEntity
  8
0
100
AcDbBlockBegin
  2
*D11
 70
     1
 71
     0
 10
0.0
 20
0.0
 30
0.0
  3
*D11
  1

  0
LINE
  5
1E6
330
1D8
100
AcDbEntity
  8
1-1
100
AcDbLine
 10
93.9848718986
 20
155.2045
 30
0.0
 11
93.1810248986
 21
152.2045
 31
0.0
  0
LINE
  5
1E7
330
1D8
100
AcDbEntity
  8
1-1
100
AcDbLine
 10
93.1810248986
 20
152.2045
 30
0.0
 11
92.3771778986
 21
155.2045
 31
0.0
  0
LINE
  5
1E8
330
1D8
100
AcDbEntity
  8
1-1
100
AcDbLine
 10
93.1810248986
 20
152.2045
 30
0.0
 11
93.1810248986
 21
155.2045
 31
0.0
  0
LINE
  5
1E9
330
1D8
100
AcDbEntity
  8
1-1
100
AcDbLine
 10
92.3771778986
 20
162.70449
 30
0.0
 11
93.1810248986
 21
165.70449
 31
0.0
  0
LINE
  5
1EA
330
1D8
100
AcDbEntity
  8
1-1
100
AcDbLine
 10
93.1810248986
 20
165.70449
 30
0.0
 11
93.9848718986
 21
162.70449
 31
0.0
  0
LINE
  5
1EB
330
1D8
100
AcDbEntity
  8
1-1
100
AcDbLine
 10
93.1810248986
 20
165.70449
 30
0.0
 11
93.1810248986
 21
162.70449
 31
0.0
  0
LINE
  5
1EC
330
1D8
100
AcDbEntity
  8
1-1
100
AcDbLine
 10
77.51753
 20
152.2045
 30
0.0
 11
94.1810248986
 21
152.2045
 31
0.0
  0
LINE
  5
1ED
330
1D8
100
AcDbEntity
  8
1-1
100
AcDbLine
 10
87.01757
 20
165.70449
 30
0.0
 11
94.1810248986
 21
165.70449
 31
0.0
  0
LINE
  5
1EE
330
1D8
100
AcDbEntity
  8
1-1
100
AcDbLine
 10
93.1810248986
 20
152.2045
 30
0.0
 11
93.1810248986
 21
165.70449
 31
0.0
  0
MTEXT
  5
1EF
330
1D8
100
AcDbEntity
  8
1-1
100
AcDbMText
 10
89.6901157495
 20
155.4642627514
 30
0.1
 40
3.0
 41
0.0
 71
     1
 72
     1
  1
13.5
  7
SLDTEXTSTYLE1
 11
6.123031769111886E-17
 21
1.0
 31
0.0
 73
     1
 44
1.0
  0
ENDBLK
  5
1E4
330
1D8
100
AcDbEntity
  8
0
100
AcDbBlockEnd
  0
BLOCK
  5
1FB
330
1F1
100
AcDbEntity
  8
0
100
AcDbBlockBegin
  2
*D12
 70
     1
 71
     0
 10
0.0
 20
0.0
 30
0.0
  3
*D12
  1

  0
LINE
  5
1FD
330
1F1
100
AcDbEntity
  8
1-1
100
AcDbLine
 10
161.51756
 20
102.764363813
 30
0.0
 11
158.51756
 21
103.568210813
 31
0.0
  0
LINE
  5
1FE
330
1F1
100
AcDbEntity
  8
1-1
100
AcDbLine
 10
158.51756
 20
103.568210813
 30
0.0
 11
161.51756
 21
104.372057813
 31
0.0
  0
LINE
  5
1FF
330
1F1
100
AcDbEntity
  8
1-1
100
AcDbLine
 10
158.51756
 20
103.568210813
 30
0.0
 11
161.51756
 21
103.568210813
 31
0.0
  0
LINE
  5
200
330
1F1
100
AcDbEntity
  8
1-1
100
AcDbLine
 10
185.51757
 20
104.372057813
 30
0.0
 11
188.51757
 21
103.568210813
 31
0.0
  0
LINE
  5
201
330
1F1
100
AcDbEntity
  8
1-1
100
AcDbLine
 10
188.51757
 20
103.568210813
 30
0.0
 11
185.51757
 21
102.764363813
 31
0.0
  0
LINE
  5
202
330
1F1
100
AcDbEntity
  8
1-1
100
AcDbLine
 10
188.51757
 20
103.568210813
 30
0.0
 11
185.51757
 21
103.568210813
 31
0.0
  0
LINE
  5
203
330
1F1
100
AcDbEntity
  8
1-1
100
AcDbLine
 10
158.51756
 20
118.70449
 30
0.0
 11
158.51756
 21
102.568210813
 31
0.0
  0
LINE
  5
204
330
1F1
100
AcDbEntity
  8
1-1
100
AcDbLine
 10
188.51757
 20
118.70449
 30
0.0
 11
188.51757
 21
102.568210813
 31
0.0
  0
LINE
  5
205
330
1F1
100
AcDbEntity
  8
1-1
100
AcDbLine
 10
158.51756
 20
103.568210813
 30
0.0
 11
188.51757
 21
103.568210813
 31
0.0
  0
MTEXT
  5
206
330
1F1
100
AcDbEntity
  8
1-1
100
AcDbMText
 10
170.0273327514
 20
107.0591199621
 30
0.1
 40
3.0
 41
0.0
 71
     1
 72
     1
  1
30.0
  7
SLDTEXTSTYLE1
 73
     1
 44
1.0
  0
ENDBLK
  5
1FC
330
1F1
100
AcDbEntity
  8
0
100
AcDbBlockEnd
  0
BLOCK
  5
212
330
208
100
AcDbEntity
  8
0
100
AcDbBlockBegin
  2
*D13
 70
     1
 71
     0
 10
0.0
 20
0.0
 30
0.0
  3
*D13
  1

  0
LINE
  5
214
330
208
100
AcDbEntity
  8
1-1
100
AcDbLine
 10
161.51754
 20
109.5939109932
 30
0.0
 11
164.51754
 21
108.7900639932
 31
0.0
  0
LINE
  5
215
330
208
100
AcDbEntity
  8
1-1
100
AcDbLine
 10
164.51754
 20
108.7900639932
 30
0.0
 11
161.51754
 21
107.9862169932
 31
0.0
  0
LINE
  5
216
330
208
100
AcDbEntity
  8
1-1
100
AcDbLine
 10
164.51754
 20
108.7900639932
 30
0.0
 11
161.51754
 21
108.7900639932
 31
0.0
  0
LINE
  5
217
330
208
100
AcDbEntity
  8
1-1
100
AcDbLine
 10
185.51755
 20
107.9862169932
 30
0.0
 11
182.51755
 21
108.7900639932
 31
0.0
  0
LINE
  5
218
330
208
100
AcDbEntity
  8
1-1
100
AcDbLine
 10
182.51755
 20
108.7900639932
 30
0.0
 11
185.51755
 21
109.5939109932
 31
0.0
  0
LINE
  5
219
330
208
100
AcDbEntity
  8
1-1
100
AcDbLine
 10
182.51755
 20
108.7900639932
 30
0.0
 11
185.51755
 21
108.7900639932
 31
0.0
  0
LINE
  5
21A
330
208
100
AcDbEntity
  8
1-1
100
AcDbLine
 10
164.51754
 20
118.2045
 30
0.0
 11
164.51754
 21
107.7900639932
 31
0.0
  0
LINE
  5
21B
330
208
100
AcDbEntity
  8
1-1
100
AcDbLine
 10
182.51755
 20
118.2045
 30
0.0
 11
182.51755
 21
107.7900639932
 31
0.0
  0
LINE
  5
21C
330
208
100
AcDbEntity
  8
1-1
100
AcDbLine
 10
164.51754
 20
108.7900639932
 30
0.0
 11
159.51754
 21
108.7900639932
 31
0.0
  0
LINE
  5
21D
330
208
100
AcDbEntity
  8
1-1
100
AcDbLine
 10
164.51754
 20
108.7900639932
 30
0.0
 11
182.51755
 21
108.7900639932
 31
0.0
  0
LINE
  5
21E
330
208
100
AcDbEntity
  8
1-1
100
AcDbLine
 10
182.51755
 20
108.7900639932
 30
0.0
 11
187.51755
 21
108.7900639932
 31
0.0
  0
MTEXT
  5
21F
330
208
100
AcDbEntity
  8
1-1
100
AcDbMText
 10
170.0273127514
 20
112.2809731423
 30
0.1
 40
3.0
 41
0.0
 71
     1
 72
     1
  1
18.0
  7
SLDTEXTSTYLE1
 73
     1
 44
1.0
  0
ENDBLK
  5
213
330
208
100
AcDbEntity
  8
0
100
AcDbBlockEnd
  0
BLOCK
  5
22C
330
221
100
AcDbEntity
  8
0
100
AcDbBlockBegin
  2
*D14
 70
     1
 71
     0
 10
0.0
 20
0.0
 30
0.0
  3
*D14
  1

  0
LINE
  5
22E
330
221
100
AcDbEntity
  8
1-1
100
AcDbLine
 10
138.0049263003
 20
162.70449
 30
0.0
 11
138.8087733003
 21
165.70449
 31
0.0
  0
LINE
  5
22F
330
221
100
AcDbEntity
  8
1-1
100
AcDbLine
 10
138.8087733003
 20
165.70449
 30
0.0
 11
139.6126203003
 21
162.70449
 31
0.0
  0
LINE
  5
230
330
221
100
AcDbEntity
  8
1-1
100
AcDbLine
 10
138.8087733003
 20
165.70449
 30
0.0
 11
138.8087733003
 21
162.70449
 31
0.0
  0
LINE
  5
231
330
221
100
AcDbEntity
  8
1-1
100
AcDbLine
 10
139.6126203003
 20
127.70449
 30
0.0
 11
138.8087733003
 21
124.70449
 31
0.0
  0
LINE
  5
232
330
221
100
AcDbEntity
  8
1-1
100
AcDbLine
 10
138.8087733003
 20
124.70449
 30
0.0
 11
138.0049263003
 21
127.70449
 31
0.0
  0
LINE
  5
233
330
221
100
AcDbEntity
  8
1-1
100
AcDbLine
 10
138.8087733003
 20
124.70449
 30
0.0
 11
138.8087733003
 21
127.70449
 31
0.0
  0
LINE
  5
234
330
221
100
AcDbEntity
  8
1-1
100
AcDbLine
 10
164.72466
 20
165.70449
 30
0.0
 11
137.8087733003
 21
165.70449
 31
0.0
  0
LINE
  5
235
330
221
100
AcDbEntity
  8
1-1
100
AcDbLine
 10
158.01754
 20
124.70449
 30
0.0
 11
137.8087733003
 21
124.70449
 31
0.0
  0
LINE
  5
236
330
221
100
AcDbEntity
  8
1-1
100
AcDbLine
 10
138.8087733003
 20
165.70449
 30
0.0
 11
138.8087733003
 21
124.70449
 31
0.0
  0
MTEXT
  5
237
330
221
100
AcDbEntity
  8
1-1
100
AcDbMText
 10
135.3178641512
 20
141.7142577514
 30
0.1
 40
3.0
 41
0.0
 71
     1
 72
     1
  1
41.0
  7
SLDTEXTSTYLE1
 11
-7.044197039909883E-15
 21
1.0
 31
0.0
 73
     1
 44
1.0
  0
ENDBLK
  5
22D
330
221
100
AcDbEntity
  8
0
100
AcDbBlockEnd
  0
BLOCK
  5
243
330
239
100
AcDbEntity
  8
0
100
AcDbBlockBegin
  2
*D15
 70
     1
 71
     0
 10
0.0
 20
0.0
 30
0.0
  3
*D15
  1

  0
LINE
  5
245
330
239
100
AcDbEntity
  8
1-1
100
AcDbLine
 10
155.01756
 20
185.0886520542
 30
0.0
 11
152.01756
 21
185.8924990542
 31
0.0
  0
LINE
  5
246
330
239
100
AcDbEntity
  8
1-1
100
AcDbLine
 10
152.01756
 20
185.8924990542
 30
0.0
 11
155.01756
 21
186.6963460542
 31
0.0
  0
LINE
  5
247
330
239
100
AcDbEntity
  8
1-1
100
AcDbLine
 10
152.01756
 20
185.8924990542
 30
0.0
 11
155.01756
 21
185.8924990542
 31
0.0
  0
LINE
  5
248
330
239
100
AcDbEntity
  8
1-1
100
AcDbLine
 10
192.01756
 20
186.6963460542
 30
0.0
 11
195.01756
 21
185.8924990542
 31
0.0
  0
LINE
  5
249
330
239
100
AcDbEntity
  8
1-1
100
AcDbLine
 10
195.01756
 20
185.8924990542
 30
0.0
 11
192.01756
 21
185.0886520542
 31
0.0
  0
LINE
  5
24A
330
239
100
AcDbEntity
  8
1-1
100
AcDbLine
 10
195.01756
 20
185.8924990542
 30
0.0
 11
192.01756
 21
185.8924990542
 31
0.0
  0
LINE
  5
24B
330
239
100
AcDbEntity
  8
1-1
100
AcDbLine
 10
152.01756
 20
163.7045
 30
0.0
 11
152.01756
 21
186.8924990542
 31
0.0
  0
LINE
  5
24C
330
239
100
AcDbEntity
  8
1-1
100
AcDbLine
 10
195.01756
 20
158.95451
 30
0.0
 11
195.01756
 21
186.8924990542
 31
0.0
  0
LINE
  5
24D
330
239
100
AcDbEntity
  8
1-1
100
AcDbLine
 10
152.01756
 20
185.8924990542
 30
0.0
 11
195.01756
 21
185.8924990542
 31
0.0
  0
MTEXT
  5
24E
330
239
100
AcDbEntity
  8
1-1
100
AcDbMText
 10
170.0273277514
 20
189.3834082033
 30
0.1
 40
3.0
 41
0.0
 71
     1
 72
     1
  1
43.0
  7
SLDTEXTSTYLE1
 73
     1
 44
1.0
  0
ENDBLK
  5
244
330
239
100
AcDbEntity
  8
0
100
AcDbBlockEnd
  0
BLOCK
  5
25D
330
250
100
AcDbEntity
  8
0
100
AcDbBlockBegin
  2
*D16
 70
     1
 71
     0
 10
0.0
 20
0.0
 30
0.0
  3
*D16
  1

  0
LINE
  5
25F
330
250
100
AcDbEntity
  8
1-1
100
AcDbLine
 10
149.01756
 20
177.1924618578
 30
0.0
 11
152.01756
 21
176.3886148578
 31
0.0
  0
LINE
  5
260
330
250
100
AcDbEntity
  8
1-1
100
AcDbLine
 10
152.01756
 20
176.3886148578
 30
0.0
 11
149.01756
 21
175.5847678578
 31
0.0
  0
LINE
  5
261
330
250
100
AcDbEntity
  8
1-1
100
AcDbLine
 10
152.01756
 20
176.3886148578
 30
0.0
 11
149.01756
 21
176.3886148578
 31
0.0
  0
LINE
  5
262
330
250
100
AcDbEntity
  8
1-1
100
AcDbLine
 10
160.51754
 20
175.5847678578
 30
0.0
 11
157.51754
 21
176.3886148578
 31
0.0
  0
LINE
  5
263
330
250
100
AcDbEntity
  8
1-1
100
AcDbLine
 10
157.51754
 20
176.3886148578
 30
0.0
 11
160.51754
 21
177.1924618578
 31
0.0
  0
LINE
  5
264
330
250
100
AcDbEntity
  8
1-1
100
AcDbLine
 10
157.51754
 20
176.3886148578
 30
0.0
 11
160.51754
 21
176.3886148578
 31
0.0
  0
LINE
  5
265
330
250
100
AcDbEntity
  8
1-1
100
AcDbLine
 10
152.01756
 20
163.7045
 30
0.0
 11
152.01756
 21
177.3886148578
 31
0.0
  0
LINE
  5
266
330
250
100
AcDbEntity
  8
1-1
100
AcDbLine
 10
157.51754
 20
163.20449
 30
0.0
 11
157.51754
 21
177.3886148578
 31
0.0
  0
LINE
  5
267
330
250
100
AcDbEntity
  8
1-1
100
AcDbLine
 10
152.01756
 20
176.3886148578
 30
0.0
 11
140.3410088938
 21
176.3886148578
 31
0.0
  0
LINE
  5
268
330
250
100
AcDbEntity
  8
1-1
100
AcDbLine
 10
152.01756
 20
176.3886148578
 30
0.0
 11
157.51754
 21
176.3886148578
 31
0.0
  0
LINE
  5
269
330
250
100
AcDbEntity
  8
1-1
100
AcDbLine
 10
157.51754
 20
176.3886148578
 30
0.0
 11
162.51754
 21
176.3886148578
 31
0.0
  0
MTEXT
  5
26A
330
250
100
AcDbEntity
  8
1-1
100
AcDbMText
 10
141.9285088938
 20
179.8795240069
 30
0.1
 40
3.0
 41
0.0
 71
     1
 72
     1
  1
5.5
  7
SLDTEXTSTYLE1
 73
     1
 44
1.0
  0
ENDBLK
  5
25E
330
250
100
AcDbEntity
  8
0
100
AcDbBlockEnd
  0
BLOCK
  5
276
330
26C
100
AcDbEntity
  8
0
100
AcDbBlockBegin
  2
*D17
 70
     1
 71
     0
 10
0.0
 20
0.0
 30
0.0
  3
*D17
  1

  0
LINE
  5
278
330
26C
100
AcDbEntity
  8
1-1
100
AcDbLine
 10
154.51754
 20
177.2316758821
 30
0.0
 11
157.51754
 21
176.4278288821
 31
0.0
  0
LINE
  5
279
330
26C
100
AcDbEntity
  8
1-1
100
AcDbLine
 10
157.51754
 20
176.4278288821
 30
0.0
 11
154.51754
 21
175.6239818821
 31
0.0
  0
LINE
  5
27A
330
26C
100
AcDbEntity
  8
1-1
100
AcDbLine
 10
157.51754
 20
176.4278288821
 30
0.0
 11
154.51754
 21
176.4278288821
 31
0.0
  0
LINE
  5
27B
330
26C
100
AcDbEntity
  8
1-1
100
AcDbLine
 10
174.51754
 20
175.6239818821
 30
0.0
 11
171.51754
 21
176.4278288821
 31
0.0
  0
LINE
  5
27C
330
26C
100
AcDbEntity
  8
1-1
100
AcDbLine
 10
171.51754
 20
176.4278288821
 30
0.0
 11
174.51754
 21
177.2316758821
 31
0.0
  0
LINE
  5
27D
330
26C
100
AcDbEntity
  8
1-1
100
AcDbLine
 10
171.51754
 20
176.4278288821
 30
0.0
 11
174.51754
 21
176.4278288821
 31
0.0
  0
LINE
  5
27E
330
26C
100
AcDbEntity
  8
1-1
100
AcDbLine
 10
157.51754
 20
163.20449
 30
0.0
 11
157.51754
 21
177.4278288821
 31
0.0
  0
LINE
  5
27F
330
26C
100
AcDbEntity
  8
1-1
100
AcDbLine
 10
171.51754
 20
163.20449
 30
0.0
 11
171.51754
 21
177.4278288821
 31
0.0
  0
LINE
  5
280
330
26C
100
AcDbEntity
  8
1-1
100
AcDbLine
 10
157.51754
 20
176.4278288821
 30
0.0
 11
152.51754
 21
176.4278288821
 31
0.0
  0
LINE
  5
281
330
26C
100
AcDbEntity
  8
1-1
100
AcDbLine
 10
157.51754
 20
176.4278288821
 30
0.0
 11
171.51754
 21
176.4278288821
 31
0.0
  0
LINE
  5
282
330
26C
100
AcDbEntity
  8
1-1
100
AcDbLine
 10
171.51754
 20
176.4278288821
 30
0.0
 11
176.51754
 21
176.4278288821
 31
0.0
  0
MTEXT
  5
283
330
26C
100
AcDbEntity
  8
1-1
100
AcDbMText
 10
161.0273077514
 20
179.9187380312
 30
0.1
 40
3.0
 41
0.0
 71
     1
 72
     1
  1
14.0
  7
SLDTEXTSTYLE1
 73
     1
 44
1.0
  0
ENDBLK
  5
277
330
26C
100
AcDbEntity
  8
0
100
AcDbBlockEnd
  0
BLOCK
  5
290
330
285
100
AcDbEntity
  8
0
100
AcDbBlockBegin
  2
*D18
 70
     1
 71
     0
 10
0.0
 20
0.0
 30
0.0
  3
*D18
  1

  0
LINE
  5
292
330
285
100
AcDbEntity
  8
1-1
100
AcDbLine
 10
147.1535770229
 20
159.70448
 30
0.0
 11
146.3497300229
 21
156.70448
 31
0.0
  0
LINE
  5
293
330
285
100
AcDbEntity
  8
1-1
100
AcDbLine
 10
146.3497300229
 20
156.70448
 30
0.0
 11
145.5458830229
 21
159.70448
 31
0.0
  0
LINE
  5
294
330
285
100
AcDbEntity
  8
1-1
100
AcDbLine
 10
146.3497300229
 20
156.70448
 30
0.0
 11
146.3497300229
 21
159.70448
 31
0.0
  0
LINE
  5
295
330
285
100
AcDbEntity
  8
1-1
100
AcDbLine
 10
145.5458830229
 20
162.70449
 30
0.0
 11
146.3497300229
 21
165.70449
 31
0.0
  0
LINE
  5
296
330
285
100
AcDbEntity
  8
1-1
100
AcDbLine
 10
146.3497300229
 20
165.70449
 30
0.0
 11
147.1535770229
 21
162.70449
 31
0.0
  0
LINE
  5
297
330
285
100
AcDbEntity
  8
1-1
100
AcDbLine
 10
146.3497300229
 20
165.70449
 30
0.0
 11
146.3497300229
 21
162.70449
 31
0.0
  0
LINE
  5
298
330
285
100
AcDbEntity
  8
1-1
100
AcDbLine
 10
151.01756
 20
156.70448
 30
0.0
 11
145.3497300229
 21
156.70448
 31
0.0
  0
LINE
  5
299
330
285
100
AcDbEntity
  8
1-1
100
AcDbLine
 10
164.72466
 20
165.70449
 30
0.0
 11
145.3497300229
 21
165.70449
 31
0.0
  0
LINE
  5
29A
330
285
100
AcDbEntity
  8
1-1
100
AcDbLine
 10
146.3497300229
 20
156.70448
 30
0.0
 11
146.3497300229
 21
165.70449
 31
0.0
  0
MTEXT
  5
29B
330
285
100
AcDbEntity
  8
1-1
100
AcDbMText
 10
142.8588208738
 20
158.5868108135
 30
0.1
 40
3.0
 41
0.0
 71
     1
 72
     1
  1
9.0
  7
SLDTEXTSTYLE1
 11
6.123031769111886E-17
 21
1.0
 31
0.0
 73
     1
 44
1.0
  0
ENDBLK
  5
291
330
285
100
AcDbEntity
  8
0
100
AcDbBlockEnd
  0
ENDSEC
  0
SECTION
  2
ENTITIES
  0
LINE
  5
40
330
1F
100
AcDbEntity
  8
1-4
  6
CENTER
 62
     1
100
AcDbLine
 10
52.01757
 20
37.204497
 30
0.0
 11
50.01756
 21
35.204497
 31
0.0
  0
LINE
  5
41
330
1F
100
AcDbEntity
  8
1-4
  6
CENTER
 62
     1
100
AcDbLine
 10
50.01756
 20
37.204497
 30
0.0
 11
52.01757
 21
35.204497
 31
0.0
  0
LINE
  5
42
330
1F
100
AcDbEntity
  8
1-4
  6
CENTER
 62
     1
100
AcDbLine
 10
172.51756
 20
166.70449
 30
0.0
 11
174.51757
 21
164.70448
 31
0.0
  0
LINE
  5
43
330
1F
100
AcDbEntity
  8
1-4
  6
CENTER
 62
     1
100
AcDbLine
 10
174.51757
 20
166.70449
 30
0.0
 11
172.51756
 21
164.70448
 31
0.0
  0
LINE
  5
44
330
1F
100
AcDbEntity
  8
1-4
  6
CENTER
 62
     1
100
AcDbLine
 10
50.01756
 20
158.20449
 30
0.0
 11
52.01757
 21
156.20449
 31
0.0
  0
LINE
  5
45
330
1F
100
AcDbEntity
  8
1-4
  6
CENTER
 62
     1
100
AcDbLine
 10
52.01757
 20
158.20449
 30
0.0
 11
50.01756
 21
156.20449
 31
0.0
  0
LINE
  5
46
330
1F
100
AcDbEntity
  8
1-4
  6
CENTER
 62
     1
100
AcDbLine
 10
52.01757
 20
262.20447
 30
0.0
 11
50.01756
 21
260.2045
 31
0.0
  0
LINE
  5
47
330
1F
100
AcDbEntity
  8
1-4
  6
CENTER
 62
     1
100
AcDbLine
 10
50.01756
 20
262.20447
 30
0.0
 11
52.01757
 21
260.2045
 31
0.0
  0
LINE
  5
48
330
1F
100
AcDbEntity
  8
1-4
  6
CENTER
 62
     1
100
AcDbLine
 10
51.01757
 20
60.704499
 30
0.0
 11
51.01757
 21
11.704499
 31
0.0
  0
LINE
  5
49
330
1F
100
AcDbEntity
  8
1-4
  6
CENTER
 62
     1
100
AcDbLine
 10
13.01758
 20
36.204499
 30
0.0
 11
89.01757
 21
36.204499
 31
0.0
  0
LINE
  5
4A
330
1F
100
AcDbEntity
  8
1-4
  6
CENTER
 62
     1
100
AcDbLine
 10
28.01758
 20
27.204498
 30
0.0
 11
54.01757
 21
27.204498
 31
0.0
  0
LINE
  5
4B
330
1F
100
AcDbEntity
  8
1-4
  6
CENTER
 62
     1
100
AcDbLine
 10
48.01758
 20
45.204495
 30
0.0
 11
74.01757
 21
45.204495
 31
0.0
  0
LINE
  5
4C
330
1F
100
AcDbEntity
  8
1-4
  6
CENTER
 62
     1
100
AcDbLine
 10
18.51756
 20
34.454499
 30
0.0
 11
18.51756
 21
26.454497
 31
0.0
  0
LINE
  5
4D
330
1F
100
AcDbEntity
  8
1-4
  6
CENTER
 62
     1
100
AcDbLine
 10
22.51757
 20
30.454498
 30
0.0
 11
14.51757
 21
30.454498
 31
0.0
  0
LINE
  5
4E
330
1F
100
AcDbEntity
  8
1-4
  6
CENTER
 62
     1
100
AcDbLine
 10
87.51758
 20
30.454498
 30
0.0
 11
79.51758
 21
30.454498
 31
0.0
  0
LINE
  5
4F
330
1F
100
AcDbEntity
  8
1-4
  6
CENTER
 62
     1
100
AcDbLine
 10
83.51757
 20
34.454499
 30
0.0
 11
83.51757
 21
26.454497
 31
0.0
  0
LINE
  5
50
330
1F
100
AcDbEntity
  8
1-4
  6
CENTER
 62
     1
100
AcDbLine
 10
163.01755
 20
156.70448
 30
0.0
 11
152.01756
 21
156.70448
 31
0.0
  0
LINE
  5
51
330
1F
100
AcDbEntity
  8
1-4
  6
CENTER
 62
     1
100
AcDbLine
 10
170.01755
 20
124.70449
 30
0.0
 11
159.01754
 21
124.70449
 31
0.0
  0
LINE
  5
52
330
1F
100
AcDbEntity
  8
1-4
  6
CENTER
 62
     1
100
AcDbLine
 10
170.01755
 20
136.7045
 30
0.0
 11
159.01523
 21
136.7045
 31
0.0
  0
LINE
  5
53
330
1F
100
AcDbEntity
  8
1-4
  6
CENTER
 62
     1
100
AcDbLine
 10
51.01757
 20
168.70449
 30
0.0
 11
51.01757
 21
128.70448
 31
0.0
  0
LINE
  5
54
330
1F
100
AcDbEntity
  8
1-4
  6
CENTER
 62
     1
100
AcDbLine
 10
173.51755
 20
116.70449
 30
0.0
 11
173.51755
 21
168.70449
 31
0.0
  0
LINE
  5
55
330
1F
100
AcDbEntity
  8
1-4
  6
CENTER
 62
     1
100
AcDbLine
 10
83.51755
 20
132.2045
 30
0.0
 11
83.51755
 21
141.2045
 31
0.0
  0
LINE
  5
56
330
1F
100
AcDbEntity
  8
1-4
  6
CENTER
 62
     1
100
AcDbLine
 10
18.51753
 20
132.2045
 30
0.0
 11
18.51753
 21
141.2045
 31
0.0
  0
LINE
  5
57
330
1F
100
AcDbEntity
  8
1-4
  6
CENTER
 62
     1
100
AcDbLine
 10
71.01756
 20
255.70448
 30
0.0
 11
71.01756
 21
266.70449
 31
0.0
  0
LINE
  5
58
330
1F
100
AcDbEntity
  8
1-4
  6
CENTER
 62
     1
100
AcDbLine
 10
31.01759
 20
255.70448
 30
0.0
 11
31.01759
 21
266.70449
 31
0.0
  0
LINE
  5
59
330
1F
100
AcDbEntity
  8
1-4
  6
CENTER
 62
     1
100
AcDbLine
 10
65.51754
 20
152.2045
 30
0.0
 11
76.51753
 21
152.2045
 31
0.0
  0
LINE
  5
5A
330
1F
100
AcDbEntity
  8
1-4
  6
CENTER
 62
     1
100
AcDbLine
 10
71.01753
 20
146.70449
 30
0.0
 11
71.01753
 21
157.7045
 31
0.0
  0
LINE
  5
5B
330
1F
100
AcDbEntity
  8
1-4
  6
CENTER
 62
     1
100
AcDbLine
 10
79.01755
 20
136.7045
 30
0.0
 11
88.01755
 21
136.7045
 31
0.0
  0
LINE
  5
5C
330
1F
100
AcDbEntity
  8
1-4
  6
CENTER
 62
     1
100
AcDbLine
 10
14.01754
 20
136.7045
 30
0.0
 11
23.01753
 21
136.7045
 31
0.0
  0
LINE
  5
5D
330
1F
100
AcDbEntity
  8
1-4
  6
CENTER
 62
     1
100
AcDbLine
 10
25.51756
 20
152.2045
 30
0.0
 11
36.51756
 21
152.2045
 31
0.0
  0
LINE
  5
5E
330
1F
100
AcDbEntity
  8
1-4
  6
CENTER
 62
     1
100
AcDbLine
 10
31.01755
 20
146.70449
 30
0.0
 11
31.01755
 21
157.7045
 31
0.0
  0
LINE
  5
5F
330
1F
100
AcDbEntity
  8
1-4
  6
CENTER
 62
     1
100
AcDbLine
 10
172.51753
 20
153.2045
 30
0.0
 11
194.51755
 21
153.2045
 31
0.0
  0
LINE
  5
60
330
1F
100
AcDbEntity
  8
1-4
  6
CENTER
 62
     1
100
AcDbLine
 10
157.51754
 20
151.20449
 30
0.0
 11
157.51754
 21
162.20449
 31
0.0
  0
LINE
  5
61
330
1F
100
AcDbEntity
  8
1-4
  6
CENTER
 62
     1
100
AcDbLine
 10
188.01756
 20
136.7045
 30
0.0
 11
177.01755
 21
136.7045
 31
0.0
  0
LINE
  5
62
330
1F
100
AcDbEntity
  8
1-4
  6
CENTER
 62
     1
100
AcDbLine
 10
182.51755
 20
131.2045
 30
0.0
 11
182.51755
 21
142.20449
 31
0.0
  0
LINE
  5
63
330
1F
100
AcDbEntity
  8
1-4
  6
CENTER
 62
     1
100
AcDbLine
 10
164.51754
 20
131.2045
 30
0.0
 11
164.51754
 21
142.20449
 31
0.0
  0
LINE
  5
64
330
1F
100
AcDbEntity
  8
1-4
  6
CENTER
 62
     1
100
AcDbLine
 10
182.51755
 20
119.2045
 30
0.0
 11
182.51755
 21
130.20449
 31
0.0
  0
LINE
  5
65
330
1F
100
AcDbEntity
  8
1-4
  6
CENTER
 62
     1
100
AcDbLine
 10
164.51754
 20
119.2045
 30
0.0
 11
164.51754
 21
130.20449
 31
0.0
  0
LINE
  5
66
330
1F
100
AcDbEntity
  8
1-4
  6
CENTER
 62
     1
100
AcDbLine
 10
188.01756
 20
124.70449
 30
0.0
 11
177.01755
 21
124.70449
 31
0.0
  0
LINE
  5
67
330
1F
100
AcDbEntity
  8
1-4
  6
CENTER
 62
     1
100
AcDbLine
 10
51.01757
 20
285.70449
 30
0.0
 11
51.01757
 21
236.70451
 31
0.0
  0
LINE
  5
68
330
1F
100
AcDbEntity
  8
1-4
  6
CENTER
 62
     1
100
AcDbLine
 10
89.01759
 20
261.20449
 30
0.0
 11
13.01758
 21
261.20449
 31
0.0
  0
LINE
  5
69
330
1F
100
AcDbEntity
  8
1-4
  6
CENTER
 62
     1
100
AcDbLine
 10
171.51754
 20
151.20449
 30
0.0
 11
171.51754
 21
162.20449
 31
0.0
  0
LINE
  5
6A
330
1F
100
AcDbEntity
  8
1-4
  6
CENTER
 62
     1
100
AcDbLine
 10
177.01755
 20
156.70448
 30
0.0
 11
166.01754
 21
156.70448
 31
0.0
  0
LINE
  5
6B
330
1F
100
AcDbEntity
  8
1-4
  6
CENTER
 62
     1
100
AcDbLine
 10
183.51754
 20
142.20451
 30
0.0
 11
183.51754
 21
164.20451
 31
0.0
  0
LINE
  5
6C
330
1F
100
AcDbEntity
  8
1-1
  6
Continuous
 62
     7
100
AcDbLine
 10
62.017583
 20
47.704496
 30
0.0
 11
62.017583
 21
49.604497
 31
0.0
  0
LINE
  5
6D
330
1F
100
AcDbEntity
  8
1-1
  6
Continuous
 62
     7
100
AcDbLine
 10
40.01757
 20
29.704496
 30
0.0
 11
40.01757
 21
36.704496
 31
0.0
  0
LINE
  5
6E
330
1F
100
AcDbEntity
  8
1-1
  6
Continuous
 62
     7
100
AcDbLine
 10
51.01757
 20
42.704498
 30
0.0
 11
71.01756
 21
42.704498
 31
0.0
  0
LINE
  5
6F
330
1F
100
AcDbEntity
  8
1-1
  6
Continuous
 62
     7
100
AcDbLine
 10
51.01757
 20
47.704493
 30
0.0
 11
71.01756
 21
47.704493
 31
0.0
  0
LINE
  5
70
330
1F
100
AcDbEntity
  8
1-1
  6
Continuous
 62
     7
100
AcDbLine
 10
31.01757
 20
24.704497
 30
0.0
 11
51.01757
 21
24.704497
 31
0.0
  0
LINE
  5
71
330
1F
100
AcDbEntity
  8
1-1
  6
Continuous
 62
     7
100
AcDbLine
 10
31.01757
 20
29.704496
 30
0.0
 11
51.01757
 21
29.704496
 31
0.0
  0
LINE
  5
72
330
1F
100
AcDbEntity
  8
1-1
  6
Continuous
 62
     7
100
AcDbLine
 10
46.37081
 20
29.704496
 30
0.0
 11
45.77438
 21
30.162245
 31
0.0
  0
LINE
  5
73
330
1F
100
AcDbEntity
  8
1-1
  6
Continuous
 62
     7
100
AcDbLine
 10
58.9179809384
 20
37.4628691495
 30
0.0
 11
59.0905409384
 21
35.7044981495
 31
0.0
  0
LINE
  5
74
330
1F
100
AcDbEntity
  8
1-1
  6
Continuous
 62
     7
100
AcDbLine
 10
55.6643199886
 20
42.7044976219
 30
0.0
 11
56.2607699886
 21
42.2467536219
 31
0.0
  0
LINE
  5
75
330
1F
100
AcDbEntity
  8
1-1
  6
Continuous
 62
     7
100
AcDbLine
 10
43.11716
 20
34.946125
 30
0.0
 11
42.94461
 21
36.704496
 31
0.0
  0
LINE
  5
76
330
1F
100
AcDbEntity
  8
1-1
  6
Continuous
 62
     7
100
AcDbLine
 10
51.01757
 20
51.204493
 30
0.0
 11
51.01757
 21
36.704496
 31
0.0
  0
LINE
  5
77
330
1F
100
AcDbEntity
  8
1-1
  6
Continuous
 62
     7
100
AcDbLine
 10
31.01757
 20
51.204493
 30
0.0
 11
31.01757
 21
21.204497
 31
0.0
  0
LINE
  5
78
330
1F
100
AcDbEntity
  8
1-1
  6
Continuous
 62
     7
100
AcDbLine
 10
51.01757
 20
36.704496
 30
0.0
 11
31.01757
 21
36.704496
 31
0.0
  0
LINE
  5
79
330
1F
100
AcDbEntity
  8
1-1
  6
Continuous
 62
     7
100
AcDbLine
 10
51.01757
 20
51.204493
 30
0.0
 11
21.01758
 21
51.204493
 31
0.0
  0
LINE
  5
7A
330
1F
100
AcDbEntity
  8
1-1
  6
Continuous
 62
     7
100
AcDbLine
 10
31.01757
 20
21.204497
 30
0.0
 11
21.01758
 21
21.204497
 31
0.0
  0
LINE
  5
7B
330
1F
100
AcDbEntity
  8
1-1
  6
Continuous
 62
     7
100
AcDbLine
 10
51.01757
 20
35.704498
 30
0.0
 11
51.01757
 21
21.204497
 31
0.0
  0
LINE
  5
7C
330
1F
100
AcDbEntity
  8
1-1
  6
Continuous
 62
     7
100
AcDbLine
 10
51.01757
 20
35.704498
 30
0.0
 11
71.01756
 21
35.704498
 31
0.0
  0
LINE
  5
7D
330
1F
100
AcDbEntity
  8
1-1
  6
Continuous
 62
     7
100
AcDbLine
 10
71.01756
 20
21.204497
 30
0.0
 11
71.01756
 21
51.204493
 31
0.0
  0
LINE
  5
7E
330
1F
100
AcDbEntity
  8
1-1
  6
Continuous
 62
     7
100
AcDbLine
 10
51.01757
 20
21.204497
 30
0.0
 11
81.01757
 21
21.204497
 31
0.0
  0
LINE
  5
7F
330
1F
100
AcDbEntity
  8
1-1
  6
Continuous
 62
     7
100
AcDbLine
 10
71.01756
 20
51.204493
 30
0.0
 11
81.01757
 21
51.204493
 31
0.0
  0
LINE
  5
80
330
1F
100
AcDbEntity
  8
1-1
  6
Continuous
 62
     7
100
AcDbLine
 10
42.5175685
 20
20.3044965
 30
0.0
 11
59.5175785
 21
20.3044965
 31
0.0
  0
LINE
  5
81
330
1F
100
AcDbEntity
  8
1-1
  6
Continuous
 62
     7
100
AcDbLine
 10
42.51757
 20
52.1045
 30
0.0
 11
59.51758
 21
52.1045
 31
0.0
  0
LINE
  5
82
330
1F
100
AcDbEntity
  8
1-1
  6
Continuous
 62
     7
100
AcDbLine
 10
40.01757
 20
22.804495
 30
0.0
 11
40.01757
 21
24.704497
 31
0.0
  0
LINE
  5
83
330
1F
100
AcDbEntity
  8
1-1
  6
Continuous
 62
     7
100
AcDbLine
 10
62.01758
 20
35.704498
 30
0.0
 11
62.01758
 21
42.704498
 31
0.0
  0
LINE
  5
84
330
1F
100
AcDbEntity
  8
1-1
  6
Continuous
 62
     7
100
AcDbLine
 10
21.01758
 20
21.204497
 30
0.0
 11
21.01758
 21
51.204493
 31
0.0
  0
LINE
  5
85
330
1F
100
AcDbEntity
  8
1-1
  6
Continuous
 62
     7
100
AcDbLine
 10
78.28552
 20
20.204498
 30
0.0
 11
23.74961
 21
20.204498
 31
0.0
  0
LINE
  5
86
330
1F
100
AcDbEntity
  8
1-1
  6
Continuous
 62
     7
100
AcDbLine
 10
81.01757
 20
51.204493
 30
0.0
 11
81.01757
 21
21.204497
 31
0.0
  0
LINE
  5
87
330
1F
100
AcDbEntity
  8
1-1
  6
Continuous
 62
     7
100
AcDbLine
 10
23.74961
 20
52.204495
 30
0.0
 11
78.28552
 21
52.204495
 31
0.0
  0
LINE
  5
88
330
1F
100
AcDbEntity
  8
1-1
  6
Continuous
 62
     7
100
AcDbLine
 10
16.01757
 20
14.704498
 30
0.0
 11
16.01757
 21
57.7045
 31
0.0
  0
LINE
  5
89
330
1F
100
AcDbEntity
  8
1-1
  6
Continuous
 62
     7
100
AcDbLine
 10
86.01757
 20
14.704498
 30
0.0
 11
16.01757
 21
14.704498
 31
0.0
  0
LINE
  5
8A
330
1F
100
AcDbEntity
  8
1-1
  6
Continuous
 62
     7
100
AcDbLine
 10
86.01757
 20
57.7045
 30
0.0
 11
86.01757
 21
14.704498
 31
0.0
  0
LINE
  5
8B
330
1F
100
AcDbEntity
  8
1-1
  6
Continuous
 62
     7
100
AcDbLine
 10
16.01757
 20
57.7045
 30
0.0
 11
86.01757
 21
57.7045
 31
0.0
  0
LINE
  5
8C
330
1F
100
AcDbEntity
  8
1-1
  6
Continuous
 62
     7
100
AcDbLine
 10
195.01756
 20
164.20449
 30
0.0
 11
195.01756
 21
163.45449
 31
0.0
  0
LINE
  5
8D
330
1F
100
AcDbEntity
  8
1-1
  6
Continuous
 62
     7
100
AcDbLine
 10
165.72466
 20
165.70449
 30
0.0
 11
193.51756
 21
165.70449
 31
0.0
  0
LINE
  5
8E
330
1F
100
AcDbEntity
  8
1-1
  6
Continuous
 62
     7
100
AcDbLine
 10
21.01756
 20
131.70447
 30
0.0
 11
21.01756
 21
119.70446
 31
0.0
  0
LINE
  5
8F
330
1F
100
AcDbEntity
  8
1-1
  6
Continuous
 62
     7
100
AcDbLine
 10
31.01757
 20
131.70447
 30
0.0
 11
31.01757
 21
119.70446
 31
0.0
  0
LINE
  5
90
330
1F
100
AcDbEntity
  8
1-1
  6
Continuous
 62
     7
100
AcDbLine
 10
71.01758
 20
131.70447
 30
0.0
 11
71.01758
 21
119.70446
 31
0.0
  0
LINE
  5
91
330
1F
100
AcDbEntity
  8
1-1
  6
Continuous
 62
     7
100
AcDbLine
 10
81.01757
 20
131.70447
 30
0.0
 11
81.01757
 21
119.70446
 31
0.0
  0
LINE
  5
92
330
1F
100
AcDbEntity
  8
1-1
  6
Continuous
 62
     7
100
AcDbLine
 10
16.01758
 20
131.70447
 30
0.0
 11
16.01758
 21
165.70449
 31
0.0
  0
LINE
  5
93
330
1F
100
AcDbEntity
  8
1-1
  6
Continuous
 62
     7
100
AcDbLine
 10
16.01758
 20
131.70447
 30
0.0
 11
86.01757
 21
131.70447
 31
0.0
  0
LINE
  5
94
330
1F
100
AcDbEntity
  8
1-1
  6
Continuous
 62
     7
100
AcDbLine
 10
86.01757
 20
165.70449
 30
0.0
 11
86.01757
 21
131.70447
 31
0.0
  0
LINE
  5
95
330
1F
100
AcDbEntity
  8
1-1
  6
Continuous
 62
     7
100
AcDbLine
 10
21.01756
 20
119.70446
 30
0.0
 11
31.01757
 21
119.70446
 31
0.0
  0
LINE
  5
96
330
1F
100
AcDbEntity
  8
1-1
  6
Continuous
 62
     7
100
AcDbLine
 10
71.01758
 20
119.70446
 30
0.0
 11
81.01757
 21
119.70446
 31
0.0
  0
LINE
  5
97
330
1F
100
AcDbEntity
  8
1-1
  6
Continuous
 62
     7
100
AcDbLine
 10
16.01758
 20
142.9545
 30
0.0
 11
86.01757
 21
142.9545
 31
0.0
  0
LINE
  5
98
330
1F
100
AcDbEntity
  8
1-1
  6
Continuous
 62
     7
100
AcDbLine
 10
16.01758
 20
148.45449
 30
0.0
 11
86.01757
 21
148.45449
 31
0.0
  0
LINE
  5
99
330
1F
100
AcDbEntity
  8
1-1
  6
Continuous
 62
     7
100
AcDbLine
 10
16.01758
 20
165.70449
 30
0.0
 11
86.01757
 21
165.70449
 31
0.0
  0
LINE
  5
9A
330
1F
100
AcDbEntity
  8
1-1
  6
Continuous
 62
     7
100
AcDbLine
 10
152.01756
 20
148.9545
 30
0.0
 11
152.01756
 21
162.7045
 31
0.0
  0
LINE
  5
9B
330
1F
100
AcDbEntity
  8
1-1
  6
Continuous
 62
     7
100
AcDbLine
 10
152.51757
 20
148.45449
 30
0.0
 11
154.01758
 21
148.45449
 31
0.0
  0
LINE
  5
9C
330
1F
100
AcDbEntity
  8
1-1
  6
Continuous
 62
     7
100
AcDbLine
 10
152.01756
 20
142.45451
 30
0.0
 11
152.01756
 21
134.70448
 31
0.0
  0
LINE
  5
9D
330
1F
100
AcDbEntity
  8
1-1
  6
Continuous
 62
     7
100
AcDbLine
 10
152.51757
 20
142.9545
 30
0.0
 11
154.01758
 21
142.9545
 31
0.0
  0
LINE
  5
9E
330
1F
100
AcDbEntity
  8
1-1
  6
Continuous
 62
     7
100
AcDbLine
 10
155.017555
 20
165.704495
 30
0.0
 11
159.310445
 21
165.704495
 31
0.0
  0
LINE
  5
9F
330
1F
100
AcDbEntity
  8
1-1
  6
Continuous
 62
     7
100
AcDbLine
 10
155.017555
 20
131.704485
 30
0.0
 11
192.017565
 21
131.704485
 31
0.0
  0
LINE
  5
A0
330
1F
100
AcDbEntity
  8
1-1
  6
Continuous
 62
     7
100
AcDbLine
 10
195.017555
 20
134.704475
 30
0.0
 11
195.017555
 21
142.954495
 31
0.0
  0
LINE
  5
A1
330
1F
100
AcDbEntity
  8
1-1
  6
Continuous
 62
     7
100
AcDbLine
 10
86.01758
 20
253.4116
 30
0.0
 11
16.01758
 21
253.4116
 31
0.0
  0
LINE
  5
A2
330
1F
100
AcDbEntity
  8
1-1
  6
Continuous
 62
     7
100
AcDbLine
 10
86.01758
 20
246.99739
 30
0.0
 11
16.01758
 21
246.99739
 31
0.0
  0
LINE
  5
A3
330
1F
100
AcDbEntity
  8
1-1
  6
Continuous
 62
     7
100
AcDbLine
 10
178.12621
 20
154.15513
 30
0.0
 11
175.14668
 21
154.68052
 31
0.0
  0
LINE
  5
A4
330
1F
100
AcDbEntity
  8
1-1
  6
Continuous
 62
     7
100
AcDbLine
 10
178.12621
 20
152.25386
 30
0.0
 11
175.14668
 21
151.72848
 31
0.0
  0
LINE
  5
A5
330
1F
100
AcDbEntity
  8
1-1
  6
Continuous
 62
     7
100
AcDbLine
 10
195.01756
 20
148.45449
 30
0.0
 11
195.01756
 21
157.95451
 31
0.0
  0
LINE
  5
A6
330
1F
100
AcDbEntity
  8
1-1
  6
Continuous
 62
     7
100
AcDbLine
 10
188.51757
 20
119.70449
 30
0.0
 11
188.51757
 21
131.70449
 31
0.0
  0
LINE
  5
A7
330
1F
100
AcDbEntity
  8
1-1
  6
Continuous
 62
     7
100
AcDbLine
 10
158.51756
 20
119.70449
 30
0.0
 11
158.51756
 21
131.70449
 31
0.0
  0
LINE
  5
A8
330
1F
100
AcDbEntity
  8
1-1
  6
Continuous
 62
     7
100
AcDbLine
 10
158.51756
 20
119.70449
 30
0.0
 11
188.51757
 21
119.70449
 31
0.0
  0
LINE
  5
A9
330
1F
100
AcDbEntity
  8
1-1
  6
Continuous
 62
     7
100
AcDbLine
 10
86.01758
 20
282.7045
 30
0.0
 11
86.01758
 21
239.7045
 31
0.0
  0
LINE
  5
AA
330
1F
100
AcDbEntity
  8
1-1
  6
Continuous
 62
     7
100
AcDbLine
 10
16.01758
 20
282.7045
 30
0.0
 11
86.01758
 21
282.7045
 31
0.0
  0
LINE
  5
AB
330
1F
100
AcDbEntity
  8
1-1
  6
Continuous
 62
     7
100
AcDbLine
 10
16.01758
 20
239.7045
 30
0.0
 11
16.01758
 21
282.7045
 31
0.0
  0
LINE
  5
AC
330
1F
100
AcDbEntity
  8
1-1
  6
Continuous
 62
     7
100
AcDbLine
 10
86.01758
 20
239.7045
 30
0.0
 11
16.01758
 21
239.7045
 31
0.0
  0
LINE
  5
AD
330
1F
100
AcDbEntity
  8
1-1
  6
Continuous
 62
     7
100
AcDbLine
 10
159.6639916901
 20
165.5580540803
 30
0.0
 11
162.1640016901
 21
163.0580340803
 31
0.0
  0
LINE
  5
AE
330
1F
100
AcDbEntity
  8
1-1
  6
Continuous
 62
     7
100
AcDbLine
 10
165.37109
 20
165.55805
 30
0.0
 11
162.87111
 21
163.05803
 31
0.0
  0
LINE
  5
AF
330
1F
100
AcDbEntity
  8
1-1
  6
Continuous
 62
     7
100
AcDbLine
 10
190.53015
 20
159.46708
 30
0.0
 11
192.79266
 21
157.20451
 31
0.0
  0
LINE
  5
B0
330
1F
100
AcDbEntity
  8
1-1
  6
Continuous
 62
     7
100
AcDbLine
 10
193.79268
 20
157.20451
 30
0.0
 11
192.79266
 21
157.20451
 31
0.0
  0
LINE
  5
B1
330
1F
100
AcDbEntity
  8
1-1
  6
Continuous
 62
     7
100
AcDbLine
 10
190.53015
 20
161.94192
 30
0.0
 11
192.79266
 21
164.20451
 31
0.0
  0
LINE
  5
B2
330
1F
100
AcDbEntity
  8
1-1
  6
Continuous
 62
     7
100
AcDbLine
 10
193.79268
 20
164.20451
 30
0.0
 11
192.79266
 21
164.20451
 31
0.0
  0
LINE
  5
B3
330
1F
100
AcDbEntity
  8
1-1
  6
Continuous
 62
     7
100
AcDbLine
 10
193.79268
 20
163.45449
 30
0.0
 11
193.79268
 21
164.20451
 31
0.0
  0
LINE
  5
B4
330
1F
100
AcDbEntity
  8
1-1
  6
Continuous
 62
     7
100
AcDbLine
 10
193.79268
 20
157.20451
 30
0.0
 11
193.79268
 21
157.95451
 31
0.0
  0
LINE
  5
B5
330
1F
100
AcDbEntity
  8
1-1
  6
Continuous
 62
     7
100
AcDbLine
 10
195.01756
 20
163.45449
 30
0.0
 11
193.79268
 21
163.45449
 31
0.0
  0
LINE
  5
B6
330
1F
100
AcDbEntity
  8
1-1
  6
Continuous
 62
     7
100
AcDbLine
 10
195.01756
 20
157.95451
 30
0.0
 11
193.79268
 21
157.95451
 31
0.0
  0
LINE
  5
B7
330
1F
100
AcDbEntity
  8
1-1
  6
Continuous
 62
     7
100
AcDbLine
 10
190.530145
 20
144.467065
 30
0.0
 11
192.792655
 21
142.204505
 31
0.0
  0
LINE
  5
B8
330
1F
100
AcDbEntity
  8
1-1
  6
Continuous
 62
     7
100
AcDbLine
 10
193.792675
 20
142.204505
 30
0.0
 11
192.792655
 21
142.204505
 31
0.0
  0
LINE
  5
B9
330
1F
100
AcDbEntity
  8
1-1
  6
Continuous
 62
     7
100
AcDbLine
 10
190.53015
 20
146.94194
 30
0.0
 11
192.79266
 21
149.20451
 31
0.0
  0
LINE
  5
BA
330
1F
100
AcDbEntity
  8
1-1
  6
Continuous
 62
     7
100
AcDbLine
 10
193.79268
 20
149.20451
 30
0.0
 11
192.79266
 21
149.20451
 31
0.0
  0
LINE
  5
BB
330
1F
100
AcDbEntity
  8
1-1
  6
Continuous
 62
     7
100
AcDbLine
 10
193.79268
 20
148.45449
 30
0.0
 11
193.79268
 21
149.20451
 31
0.0
  0
LINE
  5
BC
330
1F
100
AcDbEntity
  8
1-1
  6
Continuous
 62
     7
100
AcDbLine
 10
193.792675
 20
142.204505
 30
0.0
 11
193.792675
 21
142.954495
 31
0.0
  0
LINE
  5
BD
330
1F
100
AcDbEntity
  8
1-1
  6
Continuous
 62
     7
100
AcDbLine
 10
195.01756
 20
148.45449
 30
0.0
 11
193.79268
 21
148.45449
 31
0.0
  0
LINE
  5
BE
330
1F
100
AcDbEntity
  8
1-1
  6
Continuous
 62
     7
100
AcDbLine
 10
195.017555
 20
142.954495
 30
0.0
 11
193.792675
 21
142.954495
 31
0.0
  0
LINE
  5
BF
330
1F
100
AcDbEntity
  8
SLD-0_1
  6
Continuous
 62
     7
370
     0
100
AcDbLine
 10
20.2604743903
 20
-0.0630073976
 30
0.0
 11
209.7884889996
 21
-0.0630073976
 31
0.0
  0
LINE
  5
C0
330
1F
100
AcDbEntity
  8
SLD-0_1
  6
Continuous
 62
     7
370
     0
100
AcDbLine
 10
209.7884889996
 20
285.0
 30
0.0
 11
209.7884889996
 21
-0.0630073976
 31
0.0
  0
LINE
  5
C1
330
1F
100
AcDbEntity
  8
SLD-0_1
  6
Continuous
 62
     7
370
     0
100
AcDbLine
 10
127.0104743903
 20
50.75
 30
0.0
 11
209.7884889996
 21
50.75
 31
0.0
  0
LINE
  5
C2
330
1F
100
AcDbEntity
  8
SLD-0_1
  6
Continuous
 62
     7
370
     0
100
AcDbLine
 10
127.0104743903
 20
50.75
 30
0.0
 11
126.9695713718
 21
-0.0630073976
 31
0.0
  0
LINE
  5
C3
330
1F
100
AcDbEntity
  8
SLD-0_1
  6
Continuous
 62
     7
370
     0
100
AcDbLine
 10
126.9879351907
 20
22.75
 30
0.0
 11
209.7884889996
 21
22.75
 31
0.0
  0
LINE
  5
C4
330
1F
100
AcDbEntity
  8
SLD-0_1
  6
Continuous
 62
     7
370
     0
100
AcDbLine
 10
126.9992047905
 20
36.75
 30
0.0
 11
209.7884889996
 21
36.75
 31
0.0
  0
LINE
  5
C5
330
1F
100
AcDbEntity
  8
SLD-0_1
  6
Continuous
 62
     7
370
     0
100
AcDbLine
 10
75.5741354328
 20
155.3689349315
 30
0.0
 11
72.8160309884
 21
153.9409888985
 31
0.0
  0
LINE
  5
C6
330
1F
100
AcDbEntity
  8
SLD-0_1
  6
Continuous
 62
     7
370
     0
100
AcDbLine
 10
72.8160309884
 20
153.9409888985
 30
0.0
 11
74.4906474262
 21
156.5566780592
 31
0.0
  0
LINE
  5
C7
330
1F
100
AcDbEntity
  8
SLD-0_1
  6
Continuous
 62
     7
370
     0
100
AcDbLine
 10
72.8160309884
 20
153.9409888985
 30
0.0
 11
75.0323914295
 21
155.9628064954
 31
0.0
  0
LINE
  5
C8
330
1F
100
AcDbEntity
  8
1-1
100
AcDbLine
 10
75.0323914295
 20
155.9628064954
 30
0.0
 11
93.2553753638
 21
172.5862531616
 31
0.0
  0
LINE
  5
C9
330
1F
100
AcDbEntity
  8
1-1
100
AcDbLine
 10
93.2553753638
 20
172.5862531616
 30
0.0
 11
124.3064391436
 21
172.5862531616
 31
0.0
  0
LINE
  5
CA
330
1F
100
AcDbEntity
  8
SLD-0_1
  6
Continuous
 62
     7
370
     0
100
AcDbLine
 10
159.6956043477
 20
121.8673082578
 30
0.0
 11
162.4571598301
 21
123.2885687255
 31
0.0
  0
LINE
  5
CB
330
1F
100
AcDbEntity
  8
SLD-0_1
  6
Continuous
 62
     7
370
     0
100
AcDbLine
 10
162.4571598301
 20
123.2885687255
 30
0.0
 11
160.7762119244
 21
120.6769439175
 31
0.0
  0
LINE
  5
CC
330
1F
100
AcDbEntity
  8
SLD-0_1
  6
Continuous
 62
     7
370
     0
100
AcDbLine
 10
162.4571598301
 20
123.2885687255
 30
0.0
 11
160.2359081361
 21
121.2721260876
 31
0.0
  0
LINE
  5
CD
330
1F
100
AcDbEntity
  8
1-1
100
AcDbLine
 10
160.2359081361
 20
121.2721260876
 30
0.0
 11
139.4438889264
 21
102.3972213776
 31
0.0
  0
LINE
  5
CE
330
1F
100
AcDbEntity
  8
1-1
100
AcDbLine
 10
139.4438889264
 20
102.3972213776
 30
0.0
 11
114.5007315817
 21
102.3972213776
 31
0.0
  0
LINE
  5
CF
330
1F
100
AcDbEntity
  8
SLD-0_1
  6
Continuous
 62
     7
370
     0
100
AcDbLine
 10
75.9465957633
 20
263.7329970456
 30
0.0
 11
73.0146541079
 21
262.708356558
 31
0.0
  0
LINE
  5
D0
330
1F
100
AcDbEntity
  8
SLD-0_1
  6
Continuous
 62
     7
370
     0
100
AcDbLine
 10
73.0146541079
 20
262.708356558
 30
0.0
 11
75.0414706651
 21
265.0616913499
 31
0.0
  0
LINE
  5
D1
330
1F
100
AcDbEntity
  8
SLD-0_1
  6
Continuous
 62
     7
370
     0
100
AcDbLine
 10
73.0146541079
 20
262.708356558
 30
0.0
 11
75.4940332142
 21
264.3973441978
 31
0.0
  0
LINE
  5
D2
330
1F
100
AcDbEntity
  8
1-1
100
AcDbLine
 10
75.4940332142
 20
264.3973441978
 30
0.0
 11
87.6817665967
 21
272.6997982226
 31
0.0
  0
LINE
  5
D3
330
1F
100
AcDbEntity
  8
1-1
100
AcDbLine
 10
87.6817665967
 20
272.6997982226
 30
0.0
 11
118.7328303765
 21
272.6997982226
 31
0.0
  0
CIRCLE
  5
D4
330
1F
100
AcDbEntity
  8
1-3
  6
Continuous
 62
     4
100
AcDbCircle
 10
18.51756
 20
30.454498
 30
0.0
 40
1.499999899999978
  0
CIRCLE
  5
D5
330
1F
100
AcDbEntity
  8
1-3
  6
Continuous
 62
     4
100
AcDbCircle
 10
83.51757
 20
30.454498
 30
0.0
 40
1.499999900000006
  0
ARC
  5
D6
330
1F
100
AcDbEntity
  8
1-3
  6
Continuous
 62
     4
100
AcDbCircle
 10
171.51754
 20
156.70448
 30
0.0
 40
2.499999899999992
100
AcDbArc
 50
218.01025
 51
218.00994
  0
CIRCLE
  5
D7
330
1F
100
AcDbEntity
  8
1-3
  6
Continuous
 62
     4
100
AcDbCircle
 10
18.51753
 20
136.7045
 30
0.0
 40
1.499999899999981
  0
CIRCLE
  5
D8
330
1F
100
AcDbEntity
  8
1-3
  6
Continuous
 62
     4
100
AcDbCircle
 10
83.51755
 20
136.7045
 30
0.0
 40
1.499999900000006
  0
CIRCLE
  5
D9
330
1F
100
AcDbEntity
  8
1-3
  6
Continuous
 62
     4
100
AcDbCircle
 10
71.01753
 20
152.2045
 30
0.0
 40
2.499999899999978
  0
CIRCLE
  5
DA
330
1F
100
AcDbEntity
  8
1-3
  6
Continuous
 62
     4
100
AcDbCircle
 10
31.01755
 20
152.2045
 30
0.0
 40
2.499999899999978
  0
CIRCLE
  5
DB
330
1F
100
AcDbEntity
  8
1-3
  6
Continuous
 62
     4
100
AcDbCircle
 10
164.51754
 20
124.70449
 30
0.0
 40
2.499999899999921
  0
CIRCLE
  5
DC
330
1F
100
AcDbEntity
  8
1-3
  6
Continuous
 62
     4
100
AcDbCircle
 10
182.51755
 20
124.70449
 30
0.0
 40
2.499999900000034
  0
CIRCLE
  5
DD
330
1F
100
AcDbEntity
  8
1-3
  6
Continuous
 62
     4
100
AcDbCircle
 10
31.01759
 20
261.20449
 30
0.0
 40
2.499999899999999
  0
CIRCLE
  5
DE
330
1F
100
AcDbEntity
  8
1-3
  6
Continuous
 62
     4
100
AcDbCircle
 10
71.01756
 20
261.20449
 30
0.0
 40
2.499999899999978
  0
CIRCLE
  5
DF
330
1F
100
AcDbEntity
  8
1-3
  6
Continuous
 62
     4
100
AcDbCircle
 10
157.51754
 20
156.70448
 30
0.0
 40
2.499999899999978
  0
ARC
  5
E0
330
1F
100
AcDbEntity
  8
1-1
  6
Continuous
 62
     7
100
AcDbCircle
 10
51.0175703675
 20
36.2044990585
 30
0.0
 40
4.99999990000002
100
AcDbArc
 50
354.26081
 51
90.0
  0
ARC
  5
E1
330
1F
100
AcDbEntity
  8
1-1
  6
Continuous
 62
     7
100
AcDbCircle
 10
51.0175703675
 20
36.2044990585
 30
0.0
 40
7.999998904698151
100
AcDbArc
 50
9.0499974977
 51
49.0500097514
  0
ARC
  5
E2
330
1F
100
AcDbEntity
  8
1-1
  6
Continuous
 62
     7
100
AcDbCircle
 10
51.0175703675
 20
36.2044990585
 30
0.0
 40
7.999999327875426
100
AcDbArc
 50
189.0500257882
 51
229.04998
  0
ARC
  5
E3
330
1F
100
AcDbEntity
  8
1-1
  6
Continuous
 62
     7
100
AcDbCircle
 10
51.0175703675
 20
36.2044990585
 30
0.0
 40
4.99999990000001
100
AcDbArc
 50
174.26081
 51
270.0
  0
CIRCLE
  5
E4
330
1F
100
AcDbEntity
  8
1-1
  6
Continuous
 62
     7
100
AcDbCircle
 10
18.51756
 20
30.454498
 30
0.0
 40
1.299999899999982
  0
CIRCLE
  5
E5
330
1F
100
AcDbEntity
  8
1-1
  6
Continuous
 62
     7
100
AcDbCircle
 10
83.51757
 20
30.454498
 30
0.0
 40
1.299999899999989
  0
ARC
  5
E6
330
1F
100
AcDbEntity
  8
1-1
  6
Continuous
 62
     7
100
AcDbCircle
 10
59.51758
 20
49.604497
 30
0.0
 40
2.500003
100
AcDbArc
 50
0.0
 51
90.0
  0
ARC
  5
E7
330
1F
100
AcDbEntity
  8
1-1
  6
Continuous
 62
     7
100
AcDbCircle
 10
42.51757
 20
49.60449705
 30
0.0
 40
2.500002950000003
100
AcDbArc
 50
90.0
 51
140.20817
  0
ARC
  5
E8
330
1F
100
AcDbEntity
  8
1-1
  6
Continuous
 62
     7
100
AcDbCircle
 10
59.5175785
 20
22.80449495
 30
0.0
 40
2.499998450000004
100
AcDbArc
 50
270.0
 51
320.20817
  0
ARC
  5
E9
330
1F
100
AcDbEntity
  8
1-1
  6
Continuous
 62
     7
100
AcDbCircle
 10
42.5175685
 20
22.804495
 30
0.0
 40
2.499998500000004
100
AcDbArc
 50
180.0
 51
270.0
  0
ARC
  5
EA
330
1F
100
AcDbEntity
  8
1-1
  6
Continuous
 62
     7
100
AcDbCircle
 10
80.017570476
 20
21.2044972748
 30
0.0
 40
1.999999350267863
100
AcDbArc
 50
209.9999867573
 51
60.0
  0
ARC
  5
EB
330
1F
100
AcDbEntity
  8
1-1
  6
Continuous
 62
     7
100
AcDbCircle
 10
80.0175698265
 20
51.2044931002
 30
0.0
 40
2.000000100281179
100
AcDbArc
 50
300.0
 51
149.9999388136
  0
ARC
  5
EC
330
1F
100
AcDbEntity
  8
1-1
  6
Continuous
 62
     7
100
AcDbCircle
 10
22.017559524
 20
21.2044972748
 30
0.0
 40
1.999999350267845
100
AcDbArc
 50
119.99998
 51
330.0000132427
  0
ARC
  5
ED
330
1F
100
AcDbEntity
  8
1-1
  6
Continuous
 62
     7
100
AcDbCircle
 10
22.0175601735
 20
51.2044931002
 30
0.0
 40
2.000000100281178
100
AcDbArc
 50
30.0000611864
 51
240.0
  0
ARC
  5
EE
330
1F
100
AcDbEntity
  8
1-1
  6
Continuous
 62
     7
100
AcDbCircle
 10
193.51756
 20
164.20449
 30
0.0
 40
1.5
100
AcDbArc
 50
0.0
 51
90.0
  0
CIRCLE
  5
EF
330
1F
100
AcDbEntity
  8
1-1
  6
Continuous
 62
     7
100
AcDbCircle
 10
83.51755
 20
136.7045
 30
0.0
 40
1.249999900000006
  0
CIRCLE
  5
F0
330
1F
100
AcDbEntity
  8
1-1
  6
Continuous
 62
     7
100
AcDbCircle
 10
18.51753
 20
136.7045
 30
0.0
 40
1.249999899999978
  0
CIRCLE
  5
F1
330
1F
100
AcDbEntity
  8
1-1
  6
Continuous
 62
     7
100
AcDbCircle
 10
71.01753
 20
152.2045
 30
0.0
 40
2.099999999999966
  0
CIRCLE
  5
F2
330
1F
100
AcDbEntity
  8
1-1
  6
Continuous
 62
     7
100
AcDbCircle
 10
31.01755
 20
152.2045
 30
0.0
 40
2.099999999999994
  0
ARC
  5
F3
330
1F
100
AcDbEntity
  8
1-1
  6
Continuous
 62
     7
100
AcDbCircle
 10
152.51757
 20
148.9545
 30
0.0
 40
0.4999999000000059
100
AcDbArc
 50
180.0
 51
270.0
  0
ARC
  5
F4
330
1F
100
AcDbEntity
  8
1-1
  6
Continuous
 62
     7
100
AcDbCircle
 10
152.51757
 20
142.45450505
 30
0.0
 40
0.4999949500000298
100
AcDbArc
 50
90.0
 51
180.0
  0
ARC
  5
F5
330
1F
100
AcDbEntity
  8
1-1
  6
Continuous
 62
     7
100
AcDbCircle
 10
150.73632
 20
145.70451
 30
0.0
 40
4.281250800000003
100
AcDbArc
 50
320.03385
 51
39.96611
  0
ARC
  5
F6
330
1F
100
AcDbEntity
  8
1-1
  6
Continuous
 62
     7
100
AcDbCircle
 10
155.017555
 20
162.7045
 30
0.0
 40
2.999995000000013
100
AcDbArc
 50
90.0
 51
180.0
  0
ARC
  5
F7
330
1F
100
AcDbEntity
  8
1-1
  6
Continuous
 62
     7
100
AcDbCircle
 10
155.017555
 20
134.70448
 30
0.0
 40
2.999994999999984
100
AcDbArc
 50
180.0
 51
270.0
  0
ARC
  5
F8
330
1F
100
AcDbEntity
  8
1-1
  6
Continuous
 62
     7
100
AcDbCircle
 10
192.017565
 20
134.704475
 30
0.0
 40
2.999990000000025
100
AcDbArc
 50
270.0
 51
0.0
  0
ARC
  5
F9
330
1F
100
AcDbEntity
  8
1-1
  6
Continuous
 62
     7
100
AcDbCircle
 10
183.20981
 20
153.2045
 30
0.0
 40
6.462749600000037
100
AcDbArc
 50
231.54861
 51
128.45135
  0
ARC
  5
FA
330
1F
100
AcDbEntity
  8
1-1
  6
Continuous
 62
     7
100
AcDbCircle
 10
177.8908798413
 20
155.9865712352
 30
0.0
 40
1.846498654642369
100
AcDbArc
 50
277.322071625
 51
46.8812710001
  0
ARC
  5
FB
330
1F
100
AcDbEntity
  8
1-1
  6
Continuous
 62
     7
100
AcDbCircle
 10
179.57371
 20
157.78369
 30
0.0
 40
0.6155000000000408
100
AcDbArc
 50
128.45127
 51
226.88156
  0
CIRCLE
  5
FC
330
1F
100
AcDbEntity
  8
1-1
  6
Continuous
 62
     7
100
AcDbCircle
 10
177.8908798413
 20
155.9865712352
 30
0.0
 40
0.9232499000000303
  0
ARC
  5
FD
330
1F
100
AcDbEntity
  8
1-1
  6
Continuous
 62
     7
100
AcDbCircle
 10
177.8908804733
 20
150.4224136836
 30
0.0
 40
1.846503613862474
100
AcDbArc
 50
313.1186900001
 51
82.6779679197
  0
ARC
  5
FE
330
1F
100
AcDbEntity
  8
1-1
  6
Continuous
 62
     7
100
AcDbCircle
 10
179.57371
 20
148.62531
 30
0.0
 40
0.6155000000000104
100
AcDbArc
 50
133.1184
 51
231.54869
  0
CIRCLE
  5
FF
330
1F
100
AcDbEntity
  8
1-1
  6
Continuous
 62
     7
100
AcDbCircle
 10
177.8908804733
 20
150.4224136836
 30
0.0
 40
0.9232499000011956
  0
CIRCLE
  5
100
330
1F
100
AcDbEntity
  8
1-1
  6
Continuous
 62
     7
100
AcDbCircle
 10
164.51754
 20
136.7045
 30
0.0
 40
2.499999899999921
  0
CIRCLE
  5
101
330
1F
100
AcDbEntity
  8
1-1
  6
Continuous
 62
     7
100
AcDbCircle
 10
182.51755
 20
136.7045
 30
0.0
 40
2.499999900000034
  0
CIRCLE
  5
102
330
1F
100
AcDbEntity
  8
1-1
  6
Continuous
 62
     7
100
AcDbCircle
 10
182.51755
 20
124.70449
 30
0.0
 40
2.100000000000023
  0
CIRCLE
  5
103
330
1F
100
AcDbEntity
  8
1-1
  6
Continuous
 62
     7
100
AcDbCircle
 10
164.51754
 20
124.70449
 30
0.0
 40
2.099999999999966
  0
CIRCLE
  5
104
330
1F
100
AcDbEntity
  8
1-1
  6
Continuous
 62
     7
100
AcDbCircle
 10
71.01756
 20
261.20449
 30
0.0
 40
2.099999999999966
  0
CIRCLE
  5
105
330
1F
100
AcDbEntity
  8
1-1
  6
Continuous
 62
     7
100
AcDbCircle
 10
31.01759
 20
261.20449
 30
0.0
 40
2.099999999999987
  0
CIRCLE
  5
106
330
1F
100
AcDbEntity
  8
1-1
  6
Continuous
 62
     7
100
AcDbCircle
 10
51.01757
 20
261.20449
 30
0.0
 40
1.999999899999978
  0
ARC
  5
107
330
1F
100
AcDbEntity
  8
1-1
  6
Continuous
 62
     7
100
AcDbCircle
 10
159.310445
 20
165.2044974402
 30
0.0
 40
0.4999975598167907
100
AcDbArc
 50
45.0008062372
 51
90.0
  0
ARC
  5
108
330
1F
100
AcDbEntity
  8
1-1
  6
Continuous
 62
     7
100
AcDbCircle
 10
165.72466
 20
165.20449005
 30
0.0
 40
0.4999999500000605
100
AcDbArc
 50
90.0
 51
135.0
  0
ARC
  5
109
330
1F
100
AcDbEntity
  8
1-1
  6
Continuous
 62
     7
100
AcDbCircle
 10
162.51754
 20
163.41161
 30
0.0
 40
0.4999999000000969
100
AcDbArc
 50
225.0
 51
315.0
  0
CIRCLE
  5
10A
330
1F
100
AcDbEntity
  8
1-1
  6
Continuous
 62
     7
100
AcDbCircle
 10
171.51754
 20
156.70448
 30
0.0
 40
2.099999999999966
  0
CIRCLE
  5
10B
330
1F
100
AcDbEntity
  8
1-1
  6
Continuous
 62
     7
100
AcDbCircle
 10
157.51754
 20
156.70448
 30
0.0
 40
0.8999998999999548
  0
CIRCLE
  5
10C
330
1F
100
AcDbEntity
  8
1-1
  6
Continuous
 62
     7
100
AcDbCircle
 10
157.51754
 20
156.70448
 30
0.0
 40
2.099999999999966
  0
CIRCLE
  5
10D
330
1F
100
AcDbEntity
  8
1-1
  6
Continuous
 62
     7
100
AcDbCircle
 10
183.51754
 20
153.2045
 30
0.0
 40
8.499999899999978
  0
ARC
  5
10E
330
1F
100
AcDbEntity
  8
1-1
  6
Continuous
 62
     7
100
AcDbCircle
 10
191.76756
 20
160.70451
 30
0.0
 40
1.750000000000034
100
AcDbArc
 50
135.00012
 51
224.99984
  0
ARC
  5
10F
330
1F
100
AcDbEntity
  8
1-1
  6
Continuous
 62
     7
100
AcDbCircle
 10
191.76756
 20
145.70451
 30
0.0
 40
1.750000000000065
100
AcDbArc
 50
135.00012
 51
224.99984
  0
DIMENSION
  5
110
330
1F
100
AcDbEntity
  8
1-1
100
AcDbDimension
  2
*D2
 10
71.01756
 20
221.9081565907
 30
0.0
 11
51.017575
 21
221.9081565907
 31
0.0
 70
   160
 71
     1
 42
39.99997
  3
SLDDIMSTYLE0
100
AcDbAlignedDimension
 13
31.01759
 23
255.70448
 33
0.0
 14
71.01756
 24
255.70448
 34
0.0
100
AcDbRotatedDimension
1001
ACAD
1000
DSTYLE
1002
{
1070
    77
1070
     3
1070
   143
1040
0.0393700787
1070
    41
1040
3.0
1070
    44
1040
1.0
1070
    42
1040
1.0
1070
   147
1040
1.524
1070
    73
1070
     0
1070
    74
1070
     0
1070
   140
1040
3.0
1070
   284
1070
    12
1070
    78
1070
     4
1002
}
  0
DIMENSION
  5
12D
330
1F
100
AcDbEntity
  8
1-1
100
AcDbDimension
  2
*D4
 10
21.01756
 20
108.7184836472
 30
0.0
 11
26.017565
 21
108.7184836472
 31
0.0
 70
   160
 71
     1
 42
10.00001
  3
SLDDIMSTYLE0
100
AcDbAlignedDimension
 13
31.01757
 23
119.70446
 33
0.0
 14
21.01756
 24
119.70446
 34
0.0
100
AcDbRotatedDimension
1001
ACAD
1000
DSTYLE
1002
{
1070
    77
1070
     3
1070
   143
1040
0.0393700787
1070
    41
1040
3.0
1070
    44
1040
1.0
1070
    42
1040
1.0
1070
   147
1040
1.524
1070
    73
1070
     0
1070
    74
1070
     0
1070
   140
1040
3.0
1070
   284
1070
    12
1070
    78
1070
     4
1002
}
  0
DIMENSION
  5
146
330
1F
100
AcDbEntity
  8
1-1
100
AcDbDimension
  2
*D5
 10
71.01758
 20
108.7184836472
 30
0.0
 11
76.017575
 21
108.7184836472
 31
0.0
 70
   160
 71
     1
 42
9.99999
  3
SLDDIMSTYLE0
100
AcDbAlignedDimension
 13
81.01757
 23
119.70446
 33
0.0
 14
71.01758
 24
119.70446
 34
0.0
100
AcDbRotatedDimension
1001
ACAD
1000
DSTYLE
1002
{
1070
    77
1070
     3
1070
   143
1040
0.0393700787
1070
    41
1040
3.0
1070
    44
1040
1.0
1070
    42
1040
1.0
1070
   147
1040
1.524
1070
    73
1070
     0
1070
    74
1070
     0
1070
   140
1040
3.0
1070
   284
1070
    12
1070
    78
1070
     4
1002
}
  0
DIMENSION
  5
15F
330
1F
100
AcDbEntity
  8
1-1
100
AcDbDimension
  2
*D6
 10
31.01757
 20
108.6859449706
 30
0.0
 11
51.017575
 21
108.6859449706
 31
0.0
 70
   160
  1
Max40/Min20
 71
     1
 42
40.00001
  3
SLDDIMSTYLE1
100
AcDbAlignedDimension
 13
71.01758
 23
119.70446
 33
0.0
 14
31.01757
 24
119.70446
 34
0.0
100
AcDbRotatedDimension
1001
ACAD
1000
DSTYLE
1002
{
1070
    77
1070
     3
1070
   143
1040
0.0393700787
1070
    41
1040
3.0
1070
    44
1040
1.0
1070
    42
1040
1.0
1070
   147
1040
1.524
1070
    73
1070
     0
1070
    74
1070
     0
1070
   140
1040
3.0
1070
   284
1070
    12
1070
    78
1070
    12
1002
}
  0
DIMENSION
  5
177
330
1F
100
AcDbEntity
  8
1-1
100
AcDbDimension
  2
*D7
 10
101.8665972987
 20
165.70449
 30
0.0
 11
101.8665972987
 21
148.70448
 31
0.0
 70
   160
 71
     1
 42
34.00002
  3
SLDDIMSTYLE0
100
AcDbAlignedDimension
 13
86.01757
 23
131.70447
 33
0.0
 14
86.01757
 24
165.70449
 34
0.0
 50
90.0
100
AcDbRotatedDimension
1001
ACAD
1000
DSTYLE
1002
{
1070
    77
1070
     3
1070
   143
1040
0.0393700787
1070
    41
1040
3.0
1070
    44
1040
1.0
1070
    42
1040
1.0
1070
   147
1040
1.524
1070
    73
1070
     0
1070
    74
1070
     0
1070
   140
1040
3.0
1070
   284
1070
    12
1070
    78
1070
     4
1002
}
  0
DIMENSION
  5
18F
330
1F
100
AcDbEntity
  8
1-1
100
AcDbDimension
  2
*D8
 10
101.8665972987
 20
131.70447
 30
0.0
 11
101.8665972987
 21
125.704465
 31
0.0
 70
   160
 71
     1
 42
12.00001
  3
SLDDIMSTYLE0
100
AcDbAlignedDimension
 13
81.01757
 23
119.70446
 33
0.0
 14
81.01757
 24
131.70447
 34
0.0
 50
90.0
100
AcDbRotatedDimension
1001
ACAD
1000
DSTYLE
1002
{
1070
    77
1070
     3
1070
   143
1040
0.0393700787
1070
    41
1040
3.0
1070
    44
1040
1.0
1070
    42
1040
1.0
1070
   147
1040
1.524
1070
    73
1070
     0
1070
    74
1070
     0
1070
   140
1040
3.0
1070
   284
1070
    12
1070
    78
1070
     4
1002
}
  0
DIMENSION
  5
1A9
330
1F
100
AcDbEntity
  8
1-1
100
AcDbDimension
  2
*D9
 10
16.01758
 20
180.2188308535
 30
0.0
 11
51.017575
 21
180.2188308535
 31
0.0
 70
   160
 71
     1
 42
69.99999
  3
SLDDIMSTYLE0
100
AcDbAlignedDimension
 13
86.01757
 23
165.70449
 33
0.0
 14
16.01758
 24
165.70449
 34
0.0
100
AcDbRotatedDimension
1001
ACAD
1000
DSTYLE
1002
{
1070
    77
1070
     3
1070
   143
1040
0.0393700787
1070
    41
1040
3.0
1070
    44
1040
1.0
1070
    42
1040
1.0
1070
   147
1040
1.524
1070
    73
1070
     0
1070
    74
1070
     0
1070
   140
1040
3.0
1070
   284
1070
    12
1070
    78
1070
     4
1002
}
  0
DIMENSION
  5
1C0
330
1F
100
AcDbEntity
  8
1-1
100
AcDbDimension
  2
*D10
 10
31.01755
 20
173.0724738155
 30
0.0
 11
51.01754
 21
173.0724738155
 31
0.0
 70
   160
 71
     1
 42
39.99998
  3
SLDDIMSTYLE0
100
AcDbAlignedDimension
 13
71.01753
 23
157.7045
 33
0.0
 14
31.01755
 24
157.7045
 34
0.0
100
AcDbRotatedDimension
1001
ACAD
1000
DSTYLE
1002
{
1070
    77
1070
     3
1070
   143
1040
0.0393700787
1070
    41
1040
3.0
1070
    44
1040
1.0
1070
    42
1040
1.0
1070
   147
1040
1.524
1070
    73
1070
     0
1070
    74
1070
     0
1070
   140
1040
3.0
1070
   284
1070
    12
1070
    78
1070
     4
1002
}
  0
DIMENSION
  5
1D7
330
1F
100
AcDbEntity
  8
1-1
100
AcDbDimension
  2
*D11
 10
93.1810248986
 20
152.2045
 30
0.0
 11
93.1810248986
 21
158.954495
 31
0.0
 70
   160
 71
     1
 42
13.49999
  3
SLDDIMSTYLE2
100
AcDbAlignedDimension
 13
86.01757
 23
165.70449
 33
0.0
 14
76.51753
 24
152.2045
 34
0.0
 50
90.0
100
AcDbRotatedDimension
1001
ACAD
1000
DSTYLE
1002
{
1070
    77
1070
     3
1070
   143
1040
0.0393700787
1070
    41
1040
3.0
1070
    44
1040
1.0
1070
    42
1040
1.0
1070
   147
1040
1.524
1070
    73
1070
     0
1070
    74
1070
     0
1070
   140
1040
3.0
1070
   284
1070
    12
1070
    78
1070
    12
1002
}
  0
DIMENSION
  5
1F0
330
1F
100
AcDbEntity
  8
1-1
100
AcDbDimension
  2
*D12
 10
158.51756
 20
103.568210813
 30
0.0
 11
173.517565
 21
103.568210813
 31
0.0
 70
   160
 71
     1
 42
30.00001
  3
SLDDIMSTYLE0
100
AcDbAlignedDimension
 13
188.51757
 23
119.70449
 33
0.0
 14
158.51756
 24
119.70449
 34
0.0
100
AcDbRotatedDimension
1001
ACAD
1000
DSTYLE
1002
{
1070
    77
1070
     3
1070
   143
1040
0.0393700787
1070
    41
1040
3.0
1070
    44
1040
1.0
1070
    42
1040
1.0
1070
   147
1040
1.524
1070
    73
1070
     0
1070
    74
1070
     0
1070
   140
1040
3.0
1070
   284
1070
    12
1070
    78
1070
     4
1002
}
  0
DIMENSION
  5
207
330
1F
100
AcDbEntity
  8
1-1
100
AcDbDimension
  2
*D13
 10
164.51754
 20
108.7900639932
 30
0.0
 11
173.517545
 21
108.7900639932
 31
0.0
 70
   160
 71
     1
 42
18.00001
  3
SLDDIMSTYLE0
100
AcDbAlignedDimension
 13
182.51755
 23
119.2045
 33
0.0
 14
164.51754
 24
119.2045
 34
0.0
100
AcDbRotatedDimension
1001
ACAD
1000
DSTYLE
1002
{
1070
    77
1070
     3
1070
   143
1040
0.0393700787
1070
    41
1040
3.0
1070
    44
1040
1.0
1070
    42
1040
1.0
1070
   147
1040
1.524
1070
    73
1070
     0
1070
    74
1070
     0
1070
   140
1040
3.0
1070
   284
1070
    12
1070
    78
1070
     4
1002
}
  0
DIMENSION
  5
220
330
1F
100
AcDbEntity
  8
1-1
100
AcDbDimension
  2
*D14
 10
138.8087733003
 20
165.70449
 30
0.0
 11
138.8087733003
 21
145.20449
 31
0.0
 70
   160
 71
     1
 42
41.0
  3
SLDDIMSTYLE0
100
AcDbAlignedDimension
 13
159.01754
 23
124.70449
 33
0.0
 14
165.72466
 24
165.70449
 34
0.0
 50
90.0
100
AcDbRotatedDimension
1001
ACAD
1000
DSTYLE
1002
{
1070
    77
1070
     3
1070
   143
1040
0.0393700787
1070
    41
1040
3.0
1070
    44
1040
1.0
1070
    42
1040
1.0
1070
   147
1040
1.524
1070
    73
1070
     0
1070
    74
1070
     0
1070
   140
1040
3.0
1070
   284
1070
    12
1070
    78
1070
     4
1002
}
  0
DIMENSION
  5
238
330
1F
100
AcDbEntity
  8
1-1
100
AcDbDimension
  2
*D15
 10
152.01756
 20
185.8924990542
 30
0.0
 11
173.51756
 21
185.8924990542
 31
0.0
 70
   160
 71
     1
 42
43.0
  3
SLDDIMSTYLE0
100
AcDbAlignedDimension
 13
195.01756
 23
157.95451
 33
0.0
 14
152.01756
 24
162.7045
 34
0.0
100
AcDbRotatedDimension
1001
ACAD
1000
DSTYLE
1002
{
1070
    77
1070
     3
1070
   143
1040
0.0393700787
1070
    41
1040
3.0
1070
    44
1040
1.0
1070
    42
1040
1.0
1070
   147
1040
1.524
1070
    73
1070
     0
1070
    74
1070
     0
1070
   140
1040
3.0
1070
   284
1070
    12
1070
    78
1070
     4
1002
}
  0
DIMENSION
  5
24F
330
1F
100
AcDbEntity
  8
1-1
100
AcDbDimension
  2
*D16
 10
152.01756
 20
176.3886148578
 30
0.0
 11
144.5461830803
 21
176.3886148578
 31
0.0
 70
   160
 71
     1
 42
5.49998
  3
SLDDIMSTYLE2
100
AcDbAlignedDimension
 13
157.51754
 23
162.20449
 33
0.0
 14
152.01756
 24
162.7045
 34
0.0
100
AcDbRotatedDimension
1001
ACAD
1000
DSTYLE
1002
{
1070
    77
1070
     3
1070
   143
1040
0.0393700787
1070
    41
1040
3.0
1070
    44
1040
1.0
1070
    42
1040
1.0
1070
   147
1040
1.524
1070
    73
1070
     0
1070
    74
1070
     0
1070
   140
1040
3.0
1070
   284
1070
    12
1070
    78
1070
    12
1002
}
  0
DIMENSION
  5
26B
330
1F
100
AcDbEntity
  8
1-1
100
AcDbDimension
  2
*D17
 10
157.51754
 20
176.4278288821
 30
0.0
 11
164.51754
 21
176.4278288821
 31
0.0
 70
   160
 71
     1
 42
14.0
  3
SLDDIMSTYLE0
100
AcDbAlignedDimension
 13
171.51754
 23
162.20449
 33
0.0
 14
157.51754
 24
162.20449
 34
0.0
100
AcDbRotatedDimension
1001
ACAD
1000
DSTYLE
1002
{
1070
    77
1070
     3
1070
   143
1040
0.0393700787
1070
    41
1040
3.0
1070
    44
1040
1.0
1070
    42
1040
1.0
1070
   147
1040
1.524
1070
    73
1070
     0
1070
    74
1070
     0
1070
   140
1040
3.0
1070
   284
1070
    12
1070
    78
1070
     4
1002
}
  0
DIMENSION
  5
284
330
1F
100
AcDbEntity
  8
1-1
100
AcDbDimension
  2
*D18
 10
146.3497300229
 20
156.70448
 30
0.0
 11
146.3497300229
 21
161.204485
 31
0.0
 70
   160
 71
     1
 42
9.00001
  3
SLDDIMSTYLE0
100
AcDbAlignedDimension
 13
165.72466
 23
165.70449
 33
0.0
 14
152.01756
 24
156.70448
 34
0.0
 50
90.0
100
AcDbRotatedDimension
1001
ACAD
1000
DSTYLE
1002
{
1070
    77
1070
     3
1070
   143
1040
0.0393700787
1070
    41
1040
3.0
1070
    44
1040
1.0
1070
    42
1040
1.0
1070
   147
1040
1.524
1070
    73
1070
     0
1070
    74
1070
     0
1070
   140
1040
3.0
1070
   284
1070
    12
1070
    78
1070
     4
1002
}
  0
MTEXT
  5
29C
330
1F
100
AcDbEntity
  8
SLD-0_1
 62
     7
100
AcDbMText
 10
152.6769906748
 20
29.8867574891
 30
0.0
 40
4.2333333333
 41
0.0
 71
     1
 72
     1
  1
HLA-15AS
  7
SLDTEXTSTYLE0
 73
     1
 44
1.0
  0
MTEXT
  5
29D
330
1F
100
AcDbEntity
  8
SLD-0_1
 62
     7
100
AcDbMText
 10
145.3564638853
 20
43.410571106
 30
0.0
 40
4.2333333333
 41
0.0
 71
     1
 72
     1
  1
薄型平行ハンド
  7
SLDTEXTSTYLE0
 73
     1
 44
1.0
  0
MTEXT
  5
29E
330
1F
100
AcDbEntity
  8
SLD-0_1
 62
     7
100
AcDbMText
 10
155.3725594871
 20
16.2924181598
 30
0.0
 40
4.2333333333
 41
0.0
 71
     1
 72
     1
  1
070986
  7
SLDTEXTSTYLE0
 73
     1
 44
1.0
  0
MTEXT
  5
29F
330
1F
100
AcDbEntity
  8
SLD-0_1
 62
     7
100
AcDbMText
 10
89.7013953112
 20
277.0285978933
 30
0.0
 40
3.5
 41
0.0
 71
     1
 72
     1
  1
2-M5×0.8 深10
  7
SLDTEXTSTYLE0
 73
     1
 44
1.0
  0
MTEXT
  5
2A0
330
1F
100
AcDbEntity
  8
SLD-0_1
 62
     7
100
AcDbMText
 10
93.6577424504
 20
176.5646667848
 30
0.0
 40
3.5
 41
0.0
 71
     1
 72
     1
  1
2-M5×0.8 深10
  7
SLDTEXTSTYLE0
 73
     1
 44
1.0
  0
MTEXT
  5
2A1
330
1F
100
AcDbEntity
  8
SLD-0_1
 62
     7
100
AcDbMText
 10
114.405429384
 20
106.7789532635
 30
0.0
 40
3.5
 41
0.0
 71
     1
 72
     1
  1
2×2-M5×0.8
  7
SLDTEXTSTYLE0
 73
     1
 44
1.0
  0
ENDSEC
  0
SECTION
  2
OBJECTS
  0
DICTIONARY
  5
C
330
0
100
AcDbDictionary
281
     1
  3
ACAD_GROUP
350
D
  3
ACAD_LAYOUT
350
1A
  3
ACAD_MLINESTYLE
350
17
  3
ACAD_PLOTSETTINGS
350
19
  3
ACAD_PLOTSTYLENAME
350
E
  0
DICTIONARY
  5
D
102
{ACAD_REACTORS
330
C
102
}
330
C
100
AcDbDictionary
281
     1
  0
DICTIONARY
  5
1A
102
{ACAD_REACTORS
330
C
102
}
330
C
100
AcDbDictionary
281
     1
  3
Layout1
350
1E
  3
Layout2
350
26
  3
Model
350
22
  0
DICTIONARY
  5
17
102
{ACAD_REACTORS
330
C
102
}
330
C
100
AcDbDictionary
281
     1
  3
Standard
350
18
  0
DICTIONARY
  5
19
102
{ACAD_REACTORS
330
C
102
}
330
C
100
AcDbDictionary
281
     1
  0
ACDBDICTIONARYWDFLT
  5
E
102
{ACAD_REACTORS
330
C
102
}
330
C
100
AcDbDictionary
281
     1
  3
Normal
350
F
100
AcDbDictionaryWithDefault
340
F
  0
LAYOUT
  5
1E
102
{ACAD_REACTORS
330
1A
102
}
330
1A
100
AcDbPlotSettings
  1

  2

  4

  6

 40
0.0
 41
0.0
 42
0.0
 43
0.0
 44
0.0
 45
0.0
 46
0.0
 47
0.0
 48
0.0
 49
0.0
140
0.0
141
0.0
142
1.0
143
1.0
 70
   688
 72
     0
 73
     0
 74
     5
  7

 75
    16
147
1.0
148
0.0
149
0.0
100
AcDbLayout
  1
Layout1
 70
     1
 71
     1
 10
0.0
 20
0.0
 11
0.0
 21
0.0
 12
0.0
 22
0.0
 32
0.0
 14
0.0
 24
0.0
 34
0.0
 15
0.0
 25
0.0
 35
0.0
146
0.0
 13
0.0
 23
0.0
 33
0.0
 16
1.0
 26
0.0
 36
0.0
 17
0.0
 27
1.0
 37
0.0
 76
     0
330
1B
  0
LAYOUT
  5
26
102
{ACAD_REACTORS
330
1A
102
}
330
1A
100
AcDbPlotSettings
  1

  2

  4

  6

 40
0.0
 41
0.0
 42
0.0
 43
0.0
 44
0.0
 45
0.0
 46
0.0
 47
0.0
 48
0.0
 49
0.0
140
0.0
141
0.0
142
1.0
143
1.0
 70
   688
 72
     0
 73
     0
 74
     5
  7

 75
    16
147
1.0
148
0.0
149
0.0
100
AcDbLayout
  1
Layout2
 70
     1
 71
     2
 10
0.0
 20
0.0
 11
0.0
 21
0.0
 12
0.0
 22
0.0
 32
0.0
 14
0.0
 24
0.0
 34
0.0
 15
0.0
 25
0.0
 35
0.0
146
0.0
 13
0.0
 23
0.0
 33
0.0
 16
1.0
 26
0.0
 36
0.0
 17
0.0
 27
1.0
 37
0.0
 76
     0
330
23
  0
LAYOUT
  5
22
102
{ACAD_REACTORS
330
1A
102
}
330
1A
100
AcDbPlotSettings
  1

  2

  4

  6

 40
0.0
 41
0.0
 42
0.0
 43
0.0
 44
0.0
 45
0.0
 46
0.0
 47
0.0
 48
0.0
 49
0.0
140
0.0
141
0.0
142
1.0
143
1.0
 70
  1712
 72
     0
 73
     0
 74
     0
  7

 75
     0
147
1.0
148
0.0
149
0.0
100
AcDbLayout
  1
Model
 70
     1
 71
     0
 10
0.0
 20
0.0
 11
0.0
 21
0.0
 12
0.0
 22
0.0
 32
0.0
 14
0.0
 24
0.0
 34
0.0
 15
210.0
 25
297.0
 35
0.0
146
0.0
 13
0.0
 23
0.0
 33
0.0
 16
1.0
 26
0.0
 36
0.0
 17
0.0
 27
1.0
 37
0.0
 76
     0
330
1F
  0
MLINESTYLE
  5
18
102
{ACAD_REACTORS
330
17
102
}
330
17
100
AcDbMlineStyle
  2
Standard
 70
     0
  3

 62
   256
 51
90.0
 52
90.0
 71
     2
 49
0.5
 62
   256
  6
BYLAYER
 49
-0.5
 62
   256
  6
BYLAYER
  0
ACDBPLACEHOLDER
  5
F
102
{ACAD_REACTORS
330
E
102
}
330
E
  0
ENDSEC
  0
EOF
