  0
SECTION
  2
HEADER
  9
$ACADVER
  1
AC1015
  9
$ACADMAINTVER
 70
     6
  9
$DWGCODEPAGE
  3
DOS932
  9
$INSBASE
 10
0.0
 20
0.0
 30
0.0
  9
$EXTMIN
 10
0.0
 20
0.0
 30
0.0
  9
$EXTMAX
 10
210.0
 20
297.0
 30
0.0
  9
$LIMMIN
 10
0.0
 20
0.0
  9
$LIMMAX
 10
0.0
 20
0.0
  9
$ORTHOMODE
 70
     0
  9
$REGENMODE
 70
     1
  9
$FILLMODE
 70
     1
  9
$QTEXTMODE
 70
     0
  9
$MIRRTEXT
 70
     1
  9
$LTSCALE
 40
1.0
  9
$ATTMODE
 70
     1
  9
$TEXTSIZE
 40
3.5
  9
$TRACEWID
 40
1.0
  9
$TEXTSTYLE
  7
Standard
  9
$CLAYER
  8
0
  9
$CELTYPE
  6
ByLayer
  9
$CECOLOR
 62
   256
  9
$CELTSCALE
 40
1.0
  9
$DISPSILH
 70
     0
  9
$DIMSCALE
 40
1.0
  9
$DIMASZ
 40
3.0
  9
$DIMEXO
 40
1.0
  9
$DIMDLI
 40
3.75
  9
$DIMRND
 40
0.0
  9
$DIMDLE
 40
0.0
  9
$DIMEXE
 40
1.0
  9
$DIMTP
 40
0.0
  9
$DIMTM
 40
0.0
  9
$DIMTXT
 40
3.0
  9
$DIMCEN
 40
2.5
  9
$DIMTSZ
 40
0.0
  9
$DIMTOL
 70
     0
  9
$DIMLIM
 70
     0
  9
$DIMTIH
 70
     1
  9
$DIMTOH
 70
     1
  9
$DIMSE1
 70
     0
  9
$DIMSE2
 70
     0
  9
$DIMTAD
 70
     1
  9
$DIMZIN
 70
     1
  9
$DIMBLK
  1

  9
$DIMASO
 70
     1
  9
$DIMSHO
 70
     1
  9
$DIMPOST
  1

  9
$DIMAPOST
  1

  9
$DIMALT
 70
     0
  9
$DIMALTD
 70
     3
  9
$DIMALTF
 40
0.0393700787
  9
$DIMLFAC
 40
1.0
  9
$DIMTOFL
 70
     1
  9
$DIMTVP
 40
0.0
  9
$DIMTIX
 70
     0
  9
$DIMSOXD
 70
     0
  9
$DIMSAH
 70
     0
  9
$DIMBLK1
  1

  9
$DIMBLK2
  1

  9
$DIMSTYLE
  2
ISO-25
  9
$DIMCLRD
 70
     0
  9
$DIMCLRE
 70
     0
  9
$DIMCLRT
 70
     0
  9
$DIMTFAC
 40
1.0
  9
$DIMGAP
 40
1.524
  9
$DIMJUST
 70
     0
  9
$DIMSD1
 70
     0
  9
$DIMSD2
 70
     0
  9
$DIMTOLJ
 70
     0
  9
$DIMTZIN
 70
     1
  9
$DIMALTZ
 70
     0
  9
$DIMALTTZ
 70
     0
  9
$DIMUPT
 70
     0
  9
$DIMDEC
 70
     2
  9
$DIMTDEC
 70
     2
  9
$DIMALTU
 70
     2
  9
$DIMALTTD
 70
     3
  9
$DIMTXSTY
  7
Standard
  9
$DIMAUNIT
 70
     0
  9
$DIMADEC
 70
     0
  9
$DIMALTRND
 40
0.0
  9
$DIMAZIN
 70
     0
  9
$DIMDSEP
 70
    44
  9
$DIMATFIT
 70
     3
  9
$DIMFRAC
 70
     0
  9
$DIMLDRBLK
  1

  9
$DIMLUNIT
 70
     2
  9
$DIMLWD
 70
    -2
  9
$DIMLWE
 70
    -2
  9
$DIMTMOVE
 70
     0
  9
$LUNITS
 70
     2
  9
$LUPREC
 70
     1
  9
$SKETCHINC
 40
1.0
  9
$FILLETRAD
 40
10.0
  9
$AUNITS
 70
     0
  9
$AUPREC
 70
     0
  9
$MENU
  1
.
  9
$ELEVATION
 40
0.0
  9
$PELEVATION
 40
0.0
  9
$THICKNESS
 40
0.0
  9
$LIMCHECK
 70
     0
  9
$CHAMFERA
 40
10.0
  9
$CHAMFERB
 40
10.0
  9
$CHAMFERC
 40
20.0
  9
$CHAMFERD
 40
0.0
  9
$SKPOLY
 70
     0
  9
$TDCREATE
 40
2454413.541723623
  9
$TDUCREATE
 40
2454413.166723623
  9
$TDUPDATE
 40
2454413.541723634
  9
$TDUUPDATE
 40
2454413.166723634
  9
$TDINDWG
 40
0.0000000116
  9
$TDUSRTIMER
 40
0.0000000116
  9
$USRTIMER
 70
     1
  9
$ANGBASE
 50
0.0
  9
$ANGDIR
 70
     0
  9
$PDMODE
 70
     0
  9
$PDSIZE
 40
-1.0
  9
$PLINEWID
 40
0.0
  9
$SPLFRAME
 70
     0
  9
$SPLINETYPE
 70
     6
  9
$SPLINESEGS
 70
     8
  9
$HANDSEED
  5
29B
  9
$SURFTAB1
 70
     6
  9
$SURFTAB2
 70
     6
  9
$SURFTYPE
 70
     6
  9
$SURFU
 70
     6
  9
$SURFV
 70
     6
  9
$UCSBASE
  2

  9
$UCSNAME
  2

  9
$UCSORG
 10
0.0
 20
0.0
 30
0.0
  9
$UCSXDIR
 10
1.0
 20
0.0
 30
0.0
  9
$UCSYDIR
 10
0.0
 20
1.0
 30
0.0
  9
$UCSORTHOREF
  2

  9
$UCSORTHOVIEW
 70
     0
  9
$UCSORGTOP
 10
0.0
 20
0.0
 30
0.0
  9
$UCSORGBOTTOM
 10
0.0
 20
0.0
 30
0.0
  9
$UCSORGLEFT
 10
0.0
 20
0.0
 30
0.0
  9
$UCSORGRIGHT
 10
0.0
 20
0.0
 30
0.0
  9
$UCSORGFRONT
 10
0.0
 20
0.0
 30
0.0
  9
$UCSORGBACK
 10
0.0
 20
0.0
 30
0.0
  9
$PUCSBASE
  2

  9
$PUCSNAME
  2

  9
$PUCSORG
 10
0.0
 20
0.0
 30
0.0
  9
$PUCSXDIR
 10
1.0
 20
0.0
 30
0.0
  9
$PUCSYDIR
 10
0.0
 20
1.0
 30
0.0
  9
$PUCSORTHOREF
  2

  9
$PUCSORTHOVIEW
 70
     0
  9
$PUCSORGTOP
 10
0.0
 20
0.0
 30
0.0
  9
$PUCSORGBOTTOM
 10
0.0
 20
0.0
 30
0.0
  9
$PUCSORGLEFT
 10
0.0
 20
0.0
 30
0.0
  9
$PUCSORGRIGHT
 10
0.0
 20
0.0
 30
0.0
  9
$PUCSORGFRONT
 10
0.0
 20
0.0
 30
0.0
  9
$PUCSORGBACK
 10
0.0
 20
0.0
 30
0.0
  9
$USERI1
 70
     0
  9
$USERI2
 70
     0
  9
$USERI3
 70
     0
  9
$USERI4
 70
     0
  9
$USERI5
 70
     0
  9
$USERR1
 40
0.0
  9
$USERR2
 40
0.0
  9
$USERR3
 40
0.0
  9
$USERR4
 40
0.0
  9
$USERR5
 40
0.0
  9
$WORLDVIEW
 70
     1
  9
$SHADEDGE
 70
     3
  9
$SHADEDIF
 70
    70
  9
$TILEMODE
 70
     1
  9
$MAXACTVP
 70
    64
  9
$PINSBASE
 10
0.0
 20
0.0
 30
0.0
  9
$PLIMCHECK
 70
     0
  9
$PEXTMIN
 10
1.0000000000E+20
 20
1.0000000000E+20
 30
1.0000000000E+20
  9
$PEXTMAX
 10
-1.0000000000E+20
 20
-1.0000000000E+20
 30
-1.0000000000E+20
  9
$PLIMMIN
 10
0.0
 20
0.0
  9
$PLIMMAX
 10
420.0
 20
297.0
  9
$UNITMODE
 70
     0
  9
$VISRETAIN
 70
     1
  9
$PLINEGEN
 70
     0
  9
$PSLTSCALE
 70
     1
  9
$TREEDEPTH
 70
  3020
  9
$CMLSTYLE
  2
Standard
  9
$CMLJUST
 70
     0
  9
$CMLSCALE
 40
20.0
  9
$PROXYGRAPHICS
 70
     1
  9
$MEASUREMENT
 70
     1
  9
$CELWEIGHT
370
    -1
  9
$ENDCAPS
280
     0
  9
$JOINSTYLE
280
     0
  9
$LWDISPLAY
290
     1
  9
$INSUNITS
 70
     4
  9
$HYPERLINKBASE
  1

  9
$STYLESHEET
  1

  9
$XEDIT
290
     1
  9
$CEPSNTYPE
380
     0
  9
$PSTYLEMODE
290
     1
  9
$FINGERPRINTGUID
  2
{7C49DA97-C491-4DBC-BABB-575F076A15C1}
  9
$VERSIONGUID
  2
{FAEB1C32-E019-11D5-929B-00C0DF256EC4}
  9
$EXTNAMES
290
     1
  9
$PSVPSCALE
 40
0.0
  9
$OLESTARTUP
290
     0
  0
ENDSEC
  0
SECTION
  2
CLASSES
  0
CLASS
  1
ACDBDICTIONARYWDFLT
  2
AcDbDictionaryWithDefault
  3
ObjectDBX Classes
 90
        0
280
     0
281
     0
  0
CLASS
  1
ACDBPLACEHOLDER
  2
AcDbPlaceHolder
  3
ObjectDBX Classes
 90
        0
280
     0
281
     0
  0
CLASS
  1
LAYOUT
  2
AcDbLayout
  3
ObjectDBX Classes
 90
        0
280
     0
281
     0
  0
ENDSEC
  0
SECTION
  2
TABLES
  0
TABLE
  2
VPORT
  5
8
330
0
100
AcDbSymbolTable
 70
     1
  0
VPORT
  5
29
330
8
100
AcDbSymbolTableRecord
100
AcDbViewportTableRecord
  2
*Active
 70
     0
 10
0.0
 20
0.0
 11
1.0
 21
1.0
 12
105.0
 22
148.5
 13
0.0
 23
0.0
 14
10.0
 24
10.0
 15
10.0
 25
10.0
 16
0.0
 26
0.0
 36
1.0
 17
0.0
 27
0.0
 37
0.0
 40
297.0
 41
1.9729729729
 42
50.0
 43
0.0
 44
0.0
 50
0.0
 51
0.0
 71
     0
 72
  2000
 73
     1
 74
     3
 75
     0
 76
     0
 77
     0
 78
     0
281
     0
 65
     1
110
0.0
120
0.0
130
0.0
111
1.0
121
0.0
131
0.0
112
0.0
122
1.0
132
0.0
 79
     0
146
0.0
  0
ENDTAB
  0
TABLE
  2
LTYPE
  5
5
330
0
100
AcDbSymbolTable
 70
     6
  0
LTYPE
  5
14
330
5
100
AcDbSymbolTableRecord
100
AcDbLinetypeTableRecord
  2
ByBlock
 70
     0
  3

 72
    65
 73
     0
 40
0.0
  0
LTYPE
  5
15
330
5
100
AcDbSymbolTableRecord
100
AcDbLinetypeTableRecord
  2
ByLayer
 70
     0
  3

 72
    65
 73
     0
 40
0.0
  0
LTYPE
  5
16
330
5
100
AcDbSymbolTableRecord
100
AcDbLinetypeTableRecord
  2
Continuous
 70
     0
  3
Solid line
 72
    65
 73
     0
 40
0.0
  0
LTYPE
  5
2A
330
5
100
AcDbSymbolTableRecord
100
AcDbLinetypeTableRecord
  2
HIDDEN
 70
     0
  3
Hidden __ __ __ __ __ __ __ __ __ __ __ __ __ __
 72
    65
 73
     2
 40
1.905
 49
1.27
 74
     0
 49
-0.635
 74
     0
  0
LTYPE
  5
2B
330
5
100
AcDbSymbolTableRecord
100
AcDbLinetypeTableRecord
  2
PHANTOM
 70
     0
  3
Phantom ______  __  __  ______  __  __  ______
 72
    65
 73
     6
 40
12.7
 49
6.35
 74
     0
 49
-1.27
 74
     0
 49
1.27
 74
     0
 49
-1.27
 74
     0
 49
1.27
 74
     0
 49
-1.27
 74
     0
  0
LTYPE
  5
2C
330
5
100
AcDbSymbolTableRecord
100
AcDbLinetypeTableRecord
  2
CENTER
 70
     0
  3
Center ____ _ ____ _ ____ _ ____ _ ____ _ ____
 72
    65
 73
     4
 40
10.16
 49
6.35
 74
     0
 49
-1.27
 74
     0
 49
1.27
 74
     0
 49
-1.27
 74
     0
  0
LTYPE
  5
2D
330
5
100
AcDbSymbolTableRecord
100
AcDbLinetypeTableRecord
  2
CENTERX2
 70
     0
  3
Center (2x) ________  __  ________  __  _____
 72
    65
 73
     4
 40
20.32
 49
12.7
 74
     0
 49
-2.54
 74
     0
 49
2.54
 74
     0
 49
-2.54
 74
     0
  0
LTYPE
  5
2E
330
5
100
AcDbSymbolTableRecord
100
AcDbLinetypeTableRecord
  2
DOT2
 70
     0
  3
Dot (.5x) ........................................
 72
    65
 73
     2
 40
0.635
 49
0.0
 74
     0
 49
-0.635
 74
     0
  0
ENDTAB
  0
TABLE
  2
LAYER
  5
2
330
0
100
AcDbSymbolTable
 70
    12
  0
LAYER
  5
10
330
2
100
AcDbSymbolTableRecord
100
AcDbLayerTableRecord
  2
0
 70
     0
 62
     7
  6
Continuous
370
    -3
390
F
  0
LAYER
  5
2F
330
2
100
AcDbSymbolTableRecord
100
AcDbLayerTableRecord
  2
SLD-0_1
 70
     0
 62
     7
  6
Continuous
370
     0
390
F
  0
LAYER
  5
30
330
2
100
AcDbSymbolTableRecord
100
AcDbLayerTableRecord
  2
SLD-0_0
 70
     0
 62
     7
  6
Continuous
370
     0
390
F
  0
LAYER
  5
31
330
2
100
AcDbSymbolTableRecord
100
AcDbLayerTableRecord
  2
SLD-0
 70
     0
 62
     7
  6
Continuous
370
     0
390
F
  0
LAYER
  5
32
330
2
100
AcDbSymbolTableRecord
100
AcDbLayerTableRecord
  2
HASEN
 70
     0
 62
     2
  6
HIDDEN
370
     0
390
F
  0
LAYER
  5
33
330
2
100
AcDbSymbolTableRecord
100
AcDbLayerTableRecord
  2
ITTEN
 70
     0
 62
     1
  6
CENTER
370
     0
390
F
  0
LAYER
  5
34
330
2
100
AcDbSymbolTableRecord
100
AcDbLayerTableRecord
  2
SUNPOU
 70
     0
 62
     3
  6
Continuous
370
     0
390
F
  0
LAYER
  5
35
330
2
100
AcDbSymbolTableRecord
100
AcDbLayerTableRecord
  2
TEXT
 70
     0
 62
     3
  6
Continuous
370
     0
390
F
  0
LAYER
  5
36
330
2
100
AcDbSymbolTableRecord
100
AcDbLayerTableRecord
  2
SAISEN
 70
     0
 62
     4
  6
Continuous
370
     0
390
F
  0
LAYER
  5
37
330
2
100
AcDbSymbolTableRecord
100
AcDbLayerTableRecord
  2
JISSEN
 70
     0
 62
     7
  6
Continuous
370
     0
390
F
  0
LAYER
  5
38
330
2
100
AcDbSymbolTableRecord
100
AcDbLayerTableRecord
  2
SLD-DEFPOINTS
 70
     0
 62
     7
  6
Continuous
370
     0
390
F
  0
LAYER
  5
10C
330
2
100
AcDbSymbolTableRecord
100
AcDbLayerTableRecord
  2
Defpoints
 70
     0
 62
     7
  6
Continuous
290
     0
370
    -3
390
F
  0
ENDTAB
  0
TABLE
  2
STYLE
  5
3
330
0
100
AcDbSymbolTable
 70
     3
  0
STYLE
  5
11
330
3
100
AcDbSymbolTableRecord
100
AcDbTextStyleTableRecord
  2
Standard
 70
     0
 40
0.0
 41
1.0
 50
0.0
 71
     0
 42
2.5
  3
txt
  4
bigfont
  0
STYLE
  5
3C
330
3
100
AcDbSymbolTableRecord
100
AcDbTextStyleTableRecord
  2
SLDTEXTSTYLE0
 70
     0
 40
0.0
 41
0.7
 50
0.0
 71
     0
 42
0.2
  3
TXT
  4
bigfont
  0
STYLE
  5
129
330
3
100
AcDbSymbolTableRecord
100
AcDbTextStyleTableRecord
  2
SLDTEXTSTYLE1
 70
     0
 40
0.0
 41
0.96
 50
0.0
 71
     0
 42
0.2
  3
TXT
  4
bigfont
  0
ENDTAB
  0
TABLE
  2
VIEW
  5
6
330
0
100
AcDbSymbolTable
 70
     0
  0
ENDTAB
  0
TABLE
  2
UCS
  5
7
330
0
100
AcDbSymbolTable
 70
     0
  0
ENDTAB
  0
TABLE
  2
APPID
  5
9
330
0
100
AcDbSymbolTable
 70
     1
  0
APPID
  5
12
330
9
100
AcDbSymbolTableRecord
100
AcDbRegAppTableRecord
  2
ACAD
 70
     0
  0
ENDTAB
  0
TABLE
  2
DIMSTYLE
  5
A
330
0
100
AcDbSymbolTable
 70
     4
100
AcDbDimStyleTable
  0
DIMSTYLE
105
27
330
A
100
AcDbSymbolTableRecord
100
AcDbDimStyleTableRecord
  2
ISO-25
 70
     0
 41
2.5
 42
0.625
 43
3.75
 44
1.25
 73
     0
 74
     0
 77
     1
 78
     8
140
2.5
141
2.5
143
0.0393700787
147
0.625
171
     3
172
     1
271
     2
272
     2
274
     3
278
    44
283
     0
284
     8
340
11
  0
DIMSTYLE
105
11A
102
{ACAD_REACTORS
330
10B
330
12B
330
15C
330
176
330
18E
330
1A6
330
1BE
330
1D5
330
1EC
330
203
330
21A
330
232
330
24A
330
27E
102
}
330
A
100
AcDbSymbolTableRecord
100
AcDbDimStyleTableRecord
  2
SLDDIMSTYLE0
 70
     0
 41
3.0
 44
0.0
 73
     0
 74
     0
 77
     3
 78
     4
140
3.0
147
0.75
173
     1
271
     1
272
     3
284
    12
340
3C
341
11B
343
11B
344
11B
  0
DIMSTYLE
105
14F
102
{ACAD_REACTORS
330
142
102
}
330
A
100
AcDbSymbolTableRecord
100
AcDbDimStyleTableRecord
  2
SLDDIMSTYLE1
 70
     0
 41
3.0
 44
0.0
 73
     0
 74
     0
 77
     3
 78
    12
140
3.0
147
0.75
173
     1
271
     0
272
     3
284
    12
340
3C
341
11B
343
11B
344
11B
  0
DIMSTYLE
105
273
102
{ACAD_REACTORS
330
266
102
}
330
A
100
AcDbSymbolTableRecord
100
AcDbDimStyleTableRecord
  2
SLDDIMSTYLE2
 70
     0
 41
3.0
 44
0.0
 73
     0
 74
     0
 77
     3
 78
    12
140
3.0
147
0.75
173
     1
271
     1
272
     3
284
    12
340
3C
341
11B
343
11B
344
11B
  0
ENDTAB
  0
TABLE
  2
BLOCK_RECORD
  5
1
330
0
100
AcDbSymbolTable
 70
    19
  0
BLOCK_RECORD
  5
1F
330
1
100
AcDbSymbolTableRecord
100
AcDbBlockTableRecord
  2
*Model_Space
340
22
  0
BLOCK_RECORD
  5
1B
330
1
100
AcDbSymbolTableRecord
100
AcDbBlockTableRecord
  2
*Paper_Space
340
1E
  0
BLOCK_RECORD
  5
23
330
1
100
AcDbSymbolTableRecord
100
AcDbBlockTableRecord
  2
*Paper_Space0
340
26
  0
BLOCK_RECORD
  5
39
330
1
100
AcDbSymbolTableRecord
100
AcDbBlockTableRecord
  2
注記
340
0
  0
BLOCK_RECORD
  5
10D
330
1
100
AcDbSymbolTableRecord
100
AcDbBlockTableRecord
  2
*D2
340
0
  0
BLOCK_RECORD
  5
11B
330
1
100
AcDbSymbolTableRecord
100
AcDbBlockTableRecord
  2
_None
340
0
102
{BLKREFS
331
112
331
111
331
131
331
130
331
148
331
147
331
162
331
161
331
17C
331
17B
331
194
331
193
331
1AC
331
1AB
331
1C4
331
1C3
331
1DB
331
1DA
331
1F2
331
1F1
331
209
331
208
331
220
331
21F
331
238
331
237
331
251
331
250
331
26C
331
26B
331
284
331
283
102
}
  0
BLOCK_RECORD
  5
12C
330
1
100
AcDbSymbolTableRecord
100
AcDbBlockTableRecord
  2
*D4
340
0
  0
BLOCK_RECORD
  5
143
330
1
100
AcDbSymbolTableRecord
100
AcDbBlockTableRecord
  2
*D5
340
0
  0
BLOCK_RECORD
  5
15D
330
1
100
AcDbSymbolTableRecord
100
AcDbBlockTableRecord
  2
*D6
340
0
  0
BLOCK_RECORD
  5
177
330
1
100
AcDbSymbolTableRecord
100
AcDbBlockTableRecord
  2
*D7
340
0
  0
BLOCK_RECORD
  5
18F
330
1
100
AcDbSymbolTableRecord
100
AcDbBlockTableRecord
  2
*D8
340
0
  0
BLOCK_RECORD
  5
1A7
330
1
100
AcDbSymbolTableRecord
100
AcDbBlockTableRecord
  2
*D9
340
0
  0
BLOCK_RECORD
  5
1BF
330
1
100
AcDbSymbolTableRecord
100
AcDbBlockTableRecord
  2
*D10
340
0
  0
BLOCK_RECORD
  5
1D6
330
1
100
AcDbSymbolTableRecord
100
AcDbBlockTableRecord
  2
*D11
340
0
  0
BLOCK_RECORD
  5
1ED
330
1
100
AcDbSymbolTableRecord
100
AcDbBlockTableRecord
  2
*D12
340
0
  0
BLOCK_RECORD
  5
204
330
1
100
AcDbSymbolTableRecord
100
AcDbBlockTableRecord
  2
*D13
340
0
  0
BLOCK_RECORD
  5
21B
330
1
100
AcDbSymbolTableRecord
100
AcDbBlockTableRecord
  2
*D14
340
0
  0
BLOCK_RECORD
  5
233
330
1
100
AcDbSymbolTableRecord
100
AcDbBlockTableRecord
  2
*D15
340
0
  0
BLOCK_RECORD
  5
24B
330
1
100
AcDbSymbolTableRecord
100
AcDbBlockTableRecord
  2
*D16
340
0
  0
BLOCK_RECORD
  5
267
330
1
100
AcDbSymbolTableRecord
100
AcDbBlockTableRecord
  2
*D17
340
0
  0
BLOCK_RECORD
  5
27F
330
1
100
AcDbSymbolTableRecord
100
AcDbBlockTableRecord
  2
*D18
340
0
  0
ENDTAB
  0
ENDSEC
  0
SECTION
  2
BLOCKS
  0
BLOCK
  5
20
330
1F
100
AcDbEntity
  8
0
100
AcDbBlockBegin
  2
*Model_Space
 70
     0
 71
     0
 10
0.0
 20
0.0
 30
0.0
  3
*Model_Space
  1

  0
ENDBLK
  5
21
330
1F
100
AcDbEntity
  8
0
100
AcDbBlockEnd
  0
BLOCK
  5
1C
330
1B
100
AcDbEntity
 67
     1
  8
0
100
AcDbBlockBegin
  2
*Paper_Space
 70
     0
 71
     0
 10
0.0
 20
0.0
 30
0.0
  3
*Paper_Space
  1

  0
ENDBLK
  5
1D
330
1B
100
AcDbEntity
 67
     1
  8
0
100
AcDbBlockEnd
  0
BLOCK
  5
24
330
23
100
AcDbEntity
  8
0
100
AcDbBlockBegin
  2
*Paper_Space0
 70
     0
 71
     0
 10
0.0
 20
0.0
 30
0.0
  3
*Paper_Space0
  1

  0
ENDBLK
  5
25
330
23
100
AcDbEntity
  8
0
100
AcDbBlockEnd
  0
BLOCK
  5
3A
330
39
100
AcDbEntity
  8
0
100
AcDbBlockBegin
  2
注記
 70
     0
 71
     0
 10
0.0
 20
0.0
 30
0.0
  3
注記
  1

  0
MTEXT
  5
3D
330
39
100
AcDbEntity
  8
0
  6
Continuous
 62
     7
370
     0
100
AcDbMText
 10
0.2636785918
 20
9.0739778448
 30
0.0
 40
3.5
 41
0.0
 71
     1
 72
     1
  1
１．特記ナキ角部ハ、バリ　カエリノ無キコト。
  7
SLDTEXTSTYLE0
 73
     1
 44
1.0
  0
MTEXT
  5
3E
330
39
100
AcDbEntity
  8
0
  6
Continuous
 62
     7
370
     0
100
AcDbMText
 10
0.2636785918
 20
3.5759549983
 30
0.0
 40
3.5
 41
0.0
 71
     1
 72
     1
  1
２．特記ナキ隅部ハ、Ｒ０．４ＭＡＸトスル。
  7
SLDTEXTSTYLE0
 73
     1
 44
1.0
  0
ENDBLK
  5
3B
330
39
100
AcDbEntity
  8
0
100
AcDbBlockEnd
  0
BLOCK
  5
118
330
10D
100
AcDbEntity
  8
0
100
AcDbBlockBegin
  2
*D2
 70
     1
 71
     0
 10
0.0
 20
0.0
 30
0.0
  3
*D2
  1

  0
LINE
  5
11E
330
10D
100
AcDbEntity
  8
JISSEN
100
AcDbLine
 10
28.874979
 20
118.7771161405
 30
0.0
 11
31.874979
 21
117.9732691405
 31
0.0
  0
LINE
  5
11F
330
10D
100
AcDbEntity
  8
JISSEN
100
AcDbLine
 10
31.874979
 20
117.9732691405
 30
0.0
 11
28.874979
 21
117.1694221405
 31
0.0
  0
LINE
  5
120
330
10D
100
AcDbEntity
  8
JISSEN
100
AcDbLine
 10
31.874979
 20
117.9732691405
 30
0.0
 11
28.874979
 21
117.9732691405
 31
0.0
  0
LINE
  5
121
330
10D
100
AcDbEntity
  8
JISSEN
100
AcDbLine
 10
40.874949
 20
117.1694221405
 30
0.0
 11
37.874949
 21
117.9732691405
 31
0.0
  0
LINE
  5
122
330
10D
100
AcDbEntity
  8
JISSEN
100
AcDbLine
 10
37.874949
 20
117.9732691405
 30
0.0
 11
40.874949
 21
118.7771161405
 31
0.0
  0
LINE
  5
123
330
10D
100
AcDbEntity
  8
JISSEN
100
AcDbLine
 10
37.874949
 20
117.9732691405
 30
0.0
 11
40.874949
 21
117.9732691405
 31
0.0
  0
LINE
  5
124
330
10D
100
AcDbEntity
  8
JISSEN
100
AcDbLine
 10
31.874979
 20
126.374997
 30
0.0
 11
31.874979
 21
116.9732691405
 31
0.0
  0
LINE
  5
125
330
10D
100
AcDbEntity
  8
JISSEN
100
AcDbLine
 10
37.874949
 20
126.374997
 30
0.0
 11
37.874949
 21
116.9732691405
 31
0.0
  0
LINE
  5
126
330
10D
100
AcDbEntity
  8
JISSEN
100
AcDbLine
 10
31.874979
 20
117.9732691405
 30
0.0
 11
26.874979
 21
117.9732691405
 31
0.0
  0
LINE
  5
127
330
10D
100
AcDbEntity
  8
JISSEN
100
AcDbLine
 10
31.874979
 20
117.9732691405
 30
0.0
 11
37.874949
 21
117.9732691405
 31
0.0
  0
LINE
  5
128
330
10D
100
AcDbEntity
  8
JISSEN
100
AcDbLine
 10
37.874949
 20
117.9732691405
 30
0.0
 11
42.874949
 21
117.9732691405
 31
0.0
  0
MTEXT
  5
12A
330
10D
100
AcDbEntity
  8
JISSEN
100
AcDbMText
 10
32.2564158204
 20
121.4641782896
 30
0.1
 40
3.0
 41
0.0
 71
     1
 72
     1
  1
6.0
  7
SLDTEXTSTYLE1
 73
     1
 44
1.0
  0
ENDBLK
  5
119
330
10D
100
AcDbEntity
  8
0
100
AcDbBlockEnd
  0
BLOCK
  5
11C
330
11B
100
AcDbEntity
  8
0
100
AcDbBlockBegin
  2
_None
 70
     0
 71
     0
 10
0.0
 20
0.0
 30
0.0
  3
_None
  1

  0
ENDBLK
  5
11D
330
11B
100
AcDbEntity
  8
0
100
AcDbBlockEnd
  0
BLOCK
  5
136
330
12C
100
AcDbEntity
  8
0
100
AcDbBlockBegin
  2
*D4
 70
     1
 71
     0
 10
0.0
 20
0.0
 30
0.0
  3
*D4
  1

  0
LINE
  5
138
330
12C
100
AcDbEntity
  8
JISSEN
100
AcDbLine
 10
28.874979
 20
179.7494540815
 30
0.0
 11
25.874979
 21
180.5533010815
 31
0.0
  0
LINE
  5
139
330
12C
100
AcDbEntity
  8
JISSEN
100
AcDbLine
 10
25.874979
 20
180.5533010815
 30
0.0
 11
28.874979
 21
181.3571480815
 31
0.0
  0
LINE
  5
13A
330
12C
100
AcDbEntity
  8
JISSEN
100
AcDbLine
 10
25.874979
 20
180.5533010815
 30
0.0
 11
28.874979
 21
180.5533010815
 31
0.0
  0
LINE
  5
13B
330
12C
100
AcDbEntity
  8
JISSEN
100
AcDbLine
 10
76.874959
 20
181.3571480815
 30
0.0
 11
79.874959
 21
180.5533010815
 31
0.0
  0
LINE
  5
13C
330
12C
100
AcDbEntity
  8
JISSEN
100
AcDbLine
 10
79.874959
 20
180.5533010815
 30
0.0
 11
76.874959
 21
179.7494540815
 31
0.0
  0
LINE
  5
13D
330
12C
100
AcDbEntity
  8
JISSEN
100
AcDbLine
 10
79.874959
 20
180.5533010815
 30
0.0
 11
76.874959
 21
180.5533010815
 31
0.0
  0
LINE
  5
13E
330
12C
100
AcDbEntity
  8
JISSEN
100
AcDbLine
 10
25.874979
 20
138.374981
 30
0.0
 11
25.874979
 21
181.5533010815
 31
0.0
  0
LINE
  5
13F
330
12C
100
AcDbEntity
  8
JISSEN
100
AcDbLine
 10
79.874959
 20
138.374981
 30
0.0
 11
79.874959
 21
181.5533010815
 31
0.0
  0
LINE
  5
140
330
12C
100
AcDbEntity
  8
JISSEN
100
AcDbLine
 10
25.874979
 20
180.5533010815
 30
0.0
 11
79.874959
 21
180.5533010815
 31
0.0
  0
MTEXT
  5
141
330
12C
100
AcDbEntity
  8
JISSEN
100
AcDbMText
 10
49.3839111895
 20
184.0442102306
 30
0.1
 40
3.0
 41
0.0
 71
     1
 72
     1
  1
54.0
  7
SLDTEXTSTYLE1
 73
     1
 44
1.0
  0
ENDBLK
  5
137
330
12C
100
AcDbEntity
  8
0
100
AcDbBlockEnd
  0
BLOCK
  5
14D
330
143
100
AcDbEntity
  8
0
100
AcDbBlockBegin
  2
*D5
 70
     1
 71
     0
 10
0.0
 20
0.0
 30
0.0
  3
*D5
  1

  0
LINE
  5
150
330
143
100
AcDbEntity
  8
JISSEN
100
AcDbLine
 10
34.874949
 20
118.7771161405
 30
0.0
 11
37.874949
 21
117.9732691405
 31
0.0
  0
LINE
  5
151
330
143
100
AcDbEntity
  8
JISSEN
100
AcDbLine
 10
37.874949
 20
117.9732691405
 30
0.0
 11
34.874949
 21
117.1694221405
 31
0.0
  0
LINE
  5
152
330
143
100
AcDbEntity
  8
JISSEN
100
AcDbLine
 10
37.874949
 20
117.9732691405
 30
0.0
 11
34.874949
 21
117.9732691405
 31
0.0
  0
LINE
  5
153
330
143
100
AcDbEntity
  8
JISSEN
100
AcDbLine
 10
70.874949
 20
117.1694221405
 30
0.0
 11
67.874949
 21
117.9732691405
 31
0.0
  0
LINE
  5
154
330
143
100
AcDbEntity
  8
JISSEN
100
AcDbLine
 10
67.874949
 20
117.9732691405
 30
0.0
 11
70.874949
 21
118.7771161405
 31
0.0
  0
LINE
  5
155
330
143
100
AcDbEntity
  8
JISSEN
100
AcDbLine
 10
67.874949
 20
117.9732691405
 30
0.0
 11
70.874949
 21
117.9732691405
 31
0.0
  0
LINE
  5
156
330
143
100
AcDbEntity
  8
JISSEN
100
AcDbLine
 10
37.874949
 20
126.374997
 30
0.0
 11
37.874949
 21
116.9732691405
 31
0.0
  0
LINE
  5
157
330
143
100
AcDbEntity
  8
JISSEN
100
AcDbLine
 10
67.874949
 20
126.374997
 30
0.0
 11
67.874949
 21
116.9732691405
 31
0.0
  0
LINE
  5
158
330
143
100
AcDbEntity
  8
JISSEN
100
AcDbLine
 10
37.874949
 20
117.9732691405
 30
0.0
 11
32.874949
 21
117.9732691405
 31
0.0
  0
LINE
  5
159
330
143
100
AcDbEntity
  8
JISSEN
100
AcDbLine
 10
37.874949
 20
117.9732691405
 30
0.0
 11
67.874949
 21
117.9732691405
 31
0.0
  0
LINE
  5
15A
330
143
100
AcDbEntity
  8
JISSEN
100
AcDbLine
 10
67.874949
 20
117.9732691405
 30
0.0
 11
72.874949
 21
117.9732691405
 31
0.0
  0
MTEXT
  5
15B
330
143
100
AcDbEntity
  8
JISSEN
100
AcDbMText
 10
43.2732659124
 20
121.4641782896
 30
0.1
 40
3.0
 41
0.0
 71
     1
 72
     1
  1
Max30/Min15
  7
SLDTEXTSTYLE1
 73
     1
 44
1.0
  0
ENDBLK
  5
14E
330
143
100
AcDbEntity
  8
0
100
AcDbBlockEnd
  0
BLOCK
  5
168
330
15D
100
AcDbEntity
  8
0
100
AcDbBlockBegin
  2
*D6
 70
     1
 71
     0
 10
0.0
 20
0.0
 30
0.0
  3
*D6
  1

  0
LINE
  5
16A
330
15D
100
AcDbEntity
  8
JISSEN
100
AcDbLine
 10
64.874949
 20
118.7771161405
 30
0.0
 11
67.874949
 21
117.9732691405
 31
0.0
  0
LINE
  5
16B
330
15D
100
AcDbEntity
  8
JISSEN
100
AcDbLine
 10
67.874949
 20
117.9732691405
 30
0.0
 11
64.874949
 21
117.1694221405
 31
0.0
  0
LINE
  5
16C
330
15D
100
AcDbEntity
  8
JISSEN
100
AcDbLine
 10
67.874949
 20
117.9732691405
 30
0.0
 11
64.874949
 21
117.9732691405
 31
0.0
  0
LINE
  5
16D
330
15D
100
AcDbEntity
  8
JISSEN
100
AcDbLine
 10
76.874969
 20
117.1694221405
 30
0.0
 11
73.874969
 21
117.9732691405
 31
0.0
  0
LINE
  5
16E
330
15D
100
AcDbEntity
  8
JISSEN
100
AcDbLine
 10
73.874969
 20
117.9732691405
 30
0.0
 11
76.874969
 21
118.7771161405
 31
0.0
  0
LINE
  5
16F
330
15D
100
AcDbEntity
  8
JISSEN
100
AcDbLine
 10
73.874969
 20
117.9732691405
 30
0.0
 11
76.874969
 21
117.9732691405
 31
0.0
  0
LINE
  5
170
330
15D
100
AcDbEntity
  8
JISSEN
100
AcDbLine
 10
67.874949
 20
126.374997
 30
0.0
 11
67.874949
 21
116.9732691405
 31
0.0
  0
LINE
  5
171
330
15D
100
AcDbEntity
  8
JISSEN
100
AcDbLine
 10
73.874969
 20
126.374997
 30
0.0
 11
73.874969
 21
116.9732691405
 31
0.0
  0
LINE
  5
172
330
15D
100
AcDbEntity
  8
JISSEN
100
AcDbLine
 10
67.874949
 20
117.9732691405
 30
0.0
 11
62.874949
 21
117.9732691405
 31
0.0
  0
LINE
  5
173
330
15D
100
AcDbEntity
  8
JISSEN
100
AcDbLine
 10
67.874949
 20
117.9732691405
 30
0.0
 11
73.874969
 21
117.9732691405
 31
0.0
  0
LINE
  5
174
330
15D
100
AcDbEntity
  8
JISSEN
100
AcDbLine
 10
73.874969
 20
117.9732691405
 30
0.0
 11
78.874969
 21
117.9732691405
 31
0.0
  0
MTEXT
  5
175
330
15D
100
AcDbEntity
  8
JISSEN
100
AcDbMText
 10
68.2564108204
 20
121.4641782896
 30
0.1
 40
3.0
 41
0.0
 71
     1
 72
     1
  1
6.0
  7
SLDTEXTSTYLE1
 73
     1
 44
1.0
  0
ENDBLK
  5
169
330
15D
100
AcDbEntity
  8
0
100
AcDbBlockEnd
  0
BLOCK
  5
182
330
177
100
AcDbEntity
  8
0
100
AcDbBlockBegin
  2
*D7
 70
     1
 71
     0
 10
0.0
 20
0.0
 30
0.0
  3
*D7
  1

  0
LINE
  5
184
330
177
100
AcDbEntity
  8
JISSEN
100
AcDbLine
 10
93.8167329021
 20
130.374997
 30
0.0
 11
93.0128859021
 21
127.374997
 31
0.0
  0
LINE
  5
185
330
177
100
AcDbEntity
  8
JISSEN
100
AcDbLine
 10
93.0128859021
 20
127.374997
 30
0.0
 11
92.2090389021
 21
130.374997
 31
0.0
  0
LINE
  5
186
330
177
100
AcDbEntity
  8
JISSEN
100
AcDbLine
 10
93.0128859021
 20
127.374997
 30
0.0
 11
93.0128859021
 21
130.374997
 31
0.0
  0
LINE
  5
187
330
177
100
AcDbEntity
  8
JISSEN
100
AcDbLine
 10
92.2090389021
 20
134.374981
 30
0.0
 11
93.0128859021
 21
137.374981
 31
0.0
  0
LINE
  5
188
330
177
100
AcDbEntity
  8
JISSEN
100
AcDbLine
 10
93.0128859021
 20
137.374981
 30
0.0
 11
93.8167329021
 21
134.374981
 31
0.0
  0
LINE
  5
189
330
177
100
AcDbEntity
  8
JISSEN
100
AcDbLine
 10
93.0128859021
 20
137.374981
 30
0.0
 11
93.0128859021
 21
134.374981
 31
0.0
  0
LINE
  5
18A
330
177
100
AcDbEntity
  8
JISSEN
100
AcDbLine
 10
74.874969
 20
127.374997
 30
0.0
 11
94.0128859021
 21
127.374997
 31
0.0
  0
LINE
  5
18B
330
177
100
AcDbEntity
  8
JISSEN
100
AcDbLine
 10
80.874959
 20
137.374981
 30
0.0
 11
94.0128859021
 21
137.374981
 31
0.0
  0
LINE
  5
18C
330
177
100
AcDbEntity
  8
JISSEN
100
AcDbLine
 10
93.0128859021
 20
127.374997
 30
0.0
 11
93.0128859021
 21
137.374981
 31
0.0
  0
MTEXT
  5
18D
330
177
100
AcDbEntity
  8
JISSEN
100
AcDbMText
 10
89.521976753
 20
128.8839311895
 30
0.1
 40
3.0
 41
0.0
 71
     1
 72
     1
  1
10.0
  7
SLDTEXTSTYLE1
 11
6.123031769111886E-17
 21
1.0
 31
0.0
 73
     1
 44
1.0
  0
ENDBLK
  5
183
330
177
100
AcDbEntity
  8
0
100
AcDbBlockEnd
  0
BLOCK
  5
19A
330
18F
100
AcDbEntity
  8
0
100
AcDbBlockBegin
  2
*D8
 70
     1
 71
     0
 10
0.0
 20
0.0
 30
0.0
  3
*D8
  1

  0
LINE
  5
19C
330
18F
100
AcDbEntity
  8
JISSEN
100
AcDbLine
 10
92.2090389021
 20
163.374977
 30
0.0
 11
93.0128859021
 21
166.374977
 31
0.0
  0
LINE
  5
19D
330
18F
100
AcDbEntity
  8
JISSEN
100
AcDbLine
 10
93.0128859021
 20
166.374977
 30
0.0
 11
93.8167329021
 21
163.374977
 31
0.0
  0
LINE
  5
19E
330
18F
100
AcDbEntity
  8
JISSEN
100
AcDbLine
 10
93.0128859021
 20
166.374977
 30
0.0
 11
93.0128859021
 21
163.374977
 31
0.0
  0
LINE
  5
19F
330
18F
100
AcDbEntity
  8
JISSEN
100
AcDbLine
 10
93.8167329021
 20
140.374981
 30
0.0
 11
93.0128859021
 21
137.374981
 31
0.0
  0
LINE
  5
1A0
330
18F
100
AcDbEntity
  8
JISSEN
100
AcDbLine
 10
93.0128859021
 20
137.374981
 30
0.0
 11
92.2090389021
 21
140.374981
 31
0.0
  0
LINE
  5
1A1
330
18F
100
AcDbEntity
  8
JISSEN
100
AcDbLine
 10
93.0128859021
 20
137.374981
 30
0.0
 11
93.0128859021
 21
140.374981
 31
0.0
  0
LINE
  5
1A2
330
18F
100
AcDbEntity
  8
JISSEN
100
AcDbLine
 10
80.874959
 20
166.374977
 30
0.0
 11
94.0128859021
 21
166.374977
 31
0.0
  0
LINE
  5
1A3
330
18F
100
AcDbEntity
  8
JISSEN
100
AcDbLine
 10
80.874959
 20
137.374981
 30
0.0
 11
94.0128859021
 21
137.374981
 31
0.0
  0
LINE
  5
1A4
330
18F
100
AcDbEntity
  8
JISSEN
100
AcDbLine
 10
93.0128859021
 20
166.374977
 30
0.0
 11
93.0128859021
 21
137.374981
 31
0.0
  0
MTEXT
  5
1A5
330
18F
100
AcDbEntity
  8
JISSEN
100
AcDbMText
 10
89.521976753
 20
148.3839211895
 30
0.1
 40
3.0
 41
0.0
 71
     1
 72
     1
  1
29.0
  7
SLDTEXTSTYLE1
 11
-7.044197039909883E-15
 21
1.0
 31
0.0
 73
     1
 44
1.0
  0
ENDBLK
  5
19B
330
18F
100
AcDbEntity
  8
0
100
AcDbBlockEnd
  0
BLOCK
  5
1B2
330
1A7
100
AcDbEntity
  8
0
100
AcDbBlockBegin
  2
*D9
 70
     1
 71
     0
 10
0.0
 20
0.0
 30
0.0
  3
*D9
  1

  0
LINE
  5
1B4
330
1A7
100
AcDbEntity
  8
JISSEN
100
AcDbLine
 10
85.2154910376
 20
163.374977
 30
0.0
 11
86.0193380376
 21
166.374977
 31
0.0
  0
LINE
  5
1B5
330
1A7
100
AcDbEntity
  8
JISSEN
100
AcDbLine
 10
86.0193380376
 20
166.374977
 30
0.0
 11
86.8231850376
 21
163.374977
 31
0.0
  0
LINE
  5
1B6
330
1A7
100
AcDbEntity
  8
JISSEN
100
AcDbLine
 10
86.0193380376
 20
166.374977
 30
0.0
 11
86.0193380376
 21
163.374977
 31
0.0
  0
LINE
  5
1B7
330
1A7
100
AcDbEntity
  8
JISSEN
100
AcDbLine
 10
86.8231850376
 20
157.374987
 30
0.0
 11
86.0193380376
 21
154.374987
 31
0.0
  0
LINE
  5
1B8
330
1A7
100
AcDbEntity
  8
JISSEN
100
AcDbLine
 10
86.0193380376
 20
154.374987
 30
0.0
 11
85.2154910376
 21
157.374987
 31
0.0
  0
LINE
  5
1B9
330
1A7
100
AcDbEntity
  8
JISSEN
100
AcDbLine
 10
86.0193380376
 20
154.374987
 30
0.0
 11
86.0193380376
 21
157.374987
 31
0.0
  0
LINE
  5
1BA
330
1A7
100
AcDbEntity
  8
JISSEN
100
AcDbLine
 10
80.874959
 20
166.374977
 30
0.0
 11
87.0193380376
 21
166.374977
 31
0.0
  0
LINE
  5
1BB
330
1A7
100
AcDbEntity
  8
JISSEN
100
AcDbLine
 10
74.374969
 20
154.374987
 30
0.0
 11
87.0193380376
 21
154.374987
 31
0.0
  0
LINE
  5
1BC
330
1A7
100
AcDbEntity
  8
JISSEN
100
AcDbLine
 10
86.0193380376
 20
166.374977
 30
0.0
 11
86.0193380376
 21
154.374987
 31
0.0
  0
MTEXT
  5
1BD
330
1A7
100
AcDbEntity
  8
JISSEN
100
AcDbMText
 10
82.5284288885
 20
156.8839241895
 30
0.1
 40
3.0
 41
0.0
 71
     1
 72
     1
  1
12.0
  7
SLDTEXTSTYLE1
 11
-7.044197039909883E-15
 21
1.0
 31
0.0
 73
     1
 44
1.0
  0
ENDBLK
  5
1B3
330
1A7
100
AcDbEntity
  8
0
100
AcDbBlockEnd
  0
BLOCK
  5
1C9
330
1BF
100
AcDbEntity
  8
0
100
AcDbBlockBegin
  2
*D10
 70
     1
 71
     0
 10
0.0
 20
0.0
 30
0.0
  3
*D10
  1

  0
LINE
  5
1CB
330
1BF
100
AcDbEntity
  8
JISSEN
100
AcDbLine
 10
40.874969
 20
172.6195682179
 30
0.0
 11
37.874969
 21
173.4234152179
 31
0.0
  0
LINE
  5
1CC
330
1BF
100
AcDbEntity
  8
JISSEN
100
AcDbLine
 10
37.874969
 20
173.4234152179
 30
0.0
 11
40.874969
 21
174.2272622179
 31
0.0
  0
LINE
  5
1CD
330
1BF
100
AcDbEntity
  8
JISSEN
100
AcDbLine
 10
37.874969
 20
173.4234152179
 30
0.0
 11
40.874969
 21
173.4234152179
 31
0.0
  0
LINE
  5
1CE
330
1BF
100
AcDbEntity
  8
JISSEN
100
AcDbLine
 10
64.874969
 20
174.2272622179
 30
0.0
 11
67.874969
 21
173.4234152179
 31
0.0
  0
LINE
  5
1CF
330
1BF
100
AcDbEntity
  8
JISSEN
100
AcDbLine
 10
67.874969
 20
173.4234152179
 30
0.0
 11
64.874969
 21
172.6195682179
 31
0.0
  0
LINE
  5
1D0
330
1BF
100
AcDbEntity
  8
JISSEN
100
AcDbLine
 10
67.874969
 20
173.4234152179
 30
0.0
 11
64.874969
 21
173.4234152179
 31
0.0
  0
LINE
  5
1D1
330
1BF
100
AcDbEntity
  8
JISSEN
100
AcDbLine
 10
37.874969
 20
160.874987
 30
0.0
 11
37.874969
 21
174.4234152179
 31
0.0
  0
LINE
  5
1D2
330
1BF
100
AcDbEntity
  8
JISSEN
100
AcDbLine
 10
67.874969
 20
160.874987
 30
0.0
 11
67.874969
 21
174.4234152179
 31
0.0
  0
LINE
  5
1D3
330
1BF
100
AcDbEntity
  8
JISSEN
100
AcDbLine
 10
37.874969
 20
173.4234152179
 30
0.0
 11
67.874969
 21
173.4234152179
 31
0.0
  0
MTEXT
  5
1D4
330
1BF
100
AcDbEntity
  8
JISSEN
100
AcDbMText
 10
49.3839111895
 20
176.914324367
 30
0.1
 40
3.0
 41
0.0
 71
     1
 72
     1
  1
30.0
  7
SLDTEXTSTYLE1
 73
     1
 44
1.0
  0
ENDBLK
  5
1CA
330
1BF
100
AcDbEntity
  8
0
100
AcDbBlockEnd
  0
BLOCK
  5
1E0
330
1D6
100
AcDbEntity
  8
0
100
AcDbBlockBegin
  2
*D11
 70
     1
 71
     0
 10
0.0
 20
0.0
 30
0.0
  3
*D11
  1

  0
LINE
  5
1E2
330
1D6
100
AcDbEntity
  8
JISSEN
100
AcDbLine
 10
40.874989
 20
197.9134466739
 30
0.0
 11
37.874989
 21
198.7172936739
 31
0.0
  0
LINE
  5
1E3
330
1D6
100
AcDbEntity
  8
JISSEN
100
AcDbLine
 10
37.874989
 20
198.7172936739
 30
0.0
 11
40.874989
 21
199.5211406739
 31
0.0
  0
LINE
  5
1E4
330
1D6
100
AcDbEntity
  8
JISSEN
100
AcDbLine
 10
37.874989
 20
198.7172936739
 30
0.0
 11
40.874989
 21
198.7172936739
 31
0.0
  0
LINE
  5
1E5
330
1D6
100
AcDbEntity
  8
JISSEN
100
AcDbLine
 10
64.874969
 20
199.5211406739
 30
0.0
 11
67.874969
 21
198.7172936739
 31
0.0
  0
LINE
  5
1E6
330
1D6
100
AcDbEntity
  8
JISSEN
100
AcDbLine
 10
67.874969
 20
198.7172936739
 30
0.0
 11
64.874969
 21
197.9134466739
 31
0.0
  0
LINE
  5
1E7
330
1D6
100
AcDbEntity
  8
JISSEN
100
AcDbLine
 10
67.874969
 20
198.7172936739
 30
0.0
 11
64.874969
 21
198.7172936739
 31
0.0
  0
LINE
  5
1E8
330
1D6
100
AcDbEntity
  8
JISSEN
100
AcDbLine
 10
37.874989
 20
228.874977
 30
0.0
 11
37.874989
 21
197.7172936739
 31
0.0
  0
LINE
  5
1E9
330
1D6
100
AcDbEntity
  8
JISSEN
100
AcDbLine
 10
67.874969
 20
228.874977
 30
0.0
 11
67.874969
 21
197.7172936739
 31
0.0
  0
LINE
  5
1EA
330
1D6
100
AcDbEntity
  8
JISSEN
100
AcDbLine
 10
37.874989
 20
198.7172936739
 30
0.0
 11
67.874969
 21
198.7172936739
 31
0.0
  0
MTEXT
  5
1EB
330
1D6
100
AcDbEntity
  8
JISSEN
100
AcDbMText
 10
49.3839211895
 20
202.208202823
 30
0.1
 40
3.0
 41
0.0
 71
     1
 72
     1
  1
30.0
  7
SLDTEXTSTYLE1
 73
     1
 44
1.0
  0
ENDBLK
  5
1E1
330
1D6
100
AcDbEntity
  8
0
100
AcDbBlockEnd
  0
BLOCK
  5
1F7
330
1ED
100
AcDbEntity
  8
0
100
AcDbBlockBegin
  2
*D12
 70
     1
 71
     0
 10
0.0
 20
0.0
 30
0.0
  3
*D12
  1

  0
LINE
  5
1F9
330
1ED
100
AcDbEntity
  8
JISSEN
100
AcDbLine
 10
165.874959
 20
117.2948161312
 30
0.0
 11
162.874959
 21
118.0986631312
 31
0.0
  0
LINE
  5
1FA
330
1ED
100
AcDbEntity
  8
JISSEN
100
AcDbLine
 10
162.874959
 20
118.0986631312
 30
0.0
 11
165.874959
 21
118.9025101312
 31
0.0
  0
LINE
  5
1FB
330
1ED
100
AcDbEntity
  8
JISSEN
100
AcDbLine
 10
162.874959
 20
118.0986631312
 30
0.0
 11
165.874959
 21
118.0986631312
 31
0.0
  0
LINE
  5
1FC
330
1ED
100
AcDbEntity
  8
JISSEN
100
AcDbLine
 10
173.874939
 20
118.9025101312
 30
0.0
 11
176.874939
 21
118.0986631312
 31
0.0
  0
LINE
  5
1FD
330
1ED
100
AcDbEntity
  8
JISSEN
100
AcDbLine
 10
176.874939
 20
118.0986631312
 30
0.0
 11
173.874939
 21
117.2948161312
 31
0.0
  0
LINE
  5
1FE
330
1ED
100
AcDbEntity
  8
JISSEN
100
AcDbLine
 10
176.874939
 20
118.0986631312
 30
0.0
 11
173.874939
 21
118.0986631312
 31
0.0
  0
LINE
  5
1FF
330
1ED
100
AcDbEntity
  8
JISSEN
100
AcDbLine
 10
162.874959
 20
125.374986
 30
0.0
 11
162.874959
 21
117.0986631312
 31
0.0
  0
LINE
  5
200
330
1ED
100
AcDbEntity
  8
JISSEN
100
AcDbLine
 10
176.874939
 20
125.374986
 30
0.0
 11
176.874939
 21
117.0986631312
 31
0.0
  0
LINE
  5
201
330
1ED
100
AcDbEntity
  8
JISSEN
100
AcDbLine
 10
162.874959
 20
118.0986631312
 30
0.0
 11
176.874939
 21
118.0986631312
 31
0.0
  0
MTEXT
  5
202
330
1ED
100
AcDbEntity
  8
JISSEN
100
AcDbMText
 10
166.3838911895
 20
121.5895722803
 30
0.1
 40
3.0
 41
0.0
 71
     1
 72
     1
  1
14.0
  7
SLDTEXTSTYLE1
 73
     1
 44
1.0
  0
ENDBLK
  5
1F8
330
1ED
100
AcDbEntity
  8
0
100
AcDbBlockEnd
  0
BLOCK
  5
20E
330
204
100
AcDbEntity
  8
0
100
AcDbBlockBegin
  2
*D13
 70
     1
 71
     0
 10
0.0
 20
0.0
 30
0.0
  3
*D13
  1

  0
LINE
  5
210
330
204
100
AcDbEntity
  8
JISSEN
100
AcDbLine
 10
177.874949
 20
108.5211440836
 30
0.0
 11
180.874949
 21
107.7172970836
 31
0.0
  0
LINE
  5
211
330
204
100
AcDbEntity
  8
JISSEN
100
AcDbLine
 10
180.874949
 20
107.7172970836
 30
0.0
 11
177.874949
 21
106.9134500836
 31
0.0
  0
LINE
  5
212
330
204
100
AcDbEntity
  8
JISSEN
100
AcDbLine
 10
180.874949
 20
107.7172970836
 30
0.0
 11
177.874949
 21
107.7172970836
 31
0.0
  0
LINE
  5
213
330
204
100
AcDbEntity
  8
JISSEN
100
AcDbLine
 10
161.874979
 20
106.9134500836
 30
0.0
 11
158.874979
 21
107.7172970836
 31
0.0
  0
LINE
  5
214
330
204
100
AcDbEntity
  8
JISSEN
100
AcDbLine
 10
158.874979
 20
107.7172970836
 30
0.0
 11
161.874979
 21
108.5211440836
 31
0.0
  0
LINE
  5
215
330
204
100
AcDbEntity
  8
JISSEN
100
AcDbLine
 10
158.874979
 20
107.7172970836
 30
0.0
 11
161.874979
 21
107.7172970836
 31
0.0
  0
LINE
  5
216
330
204
100
AcDbEntity
  8
JISSEN
100
AcDbLine
 10
180.874949
 20
126.374997
 30
0.0
 11
180.874949
 21
106.7172970836
 31
0.0
  0
LINE
  5
217
330
204
100
AcDbEntity
  8
JISSEN
100
AcDbLine
 10
158.874979
 20
126.374997
 30
0.0
 11
158.874979
 21
106.7172970836
 31
0.0
  0
LINE
  5
218
330
204
100
AcDbEntity
  8
JISSEN
100
AcDbLine
 10
180.874949
 20
107.7172970836
 30
0.0
 11
158.874979
 21
107.7172970836
 31
0.0
  0
MTEXT
  5
219
330
204
100
AcDbEntity
  8
JISSEN
100
AcDbMText
 10
166.3839061895
 20
111.2082062327
 30
0.1
 40
3.0
 41
0.0
 71
     1
 72
     1
  1
22.0
  7
SLDTEXTSTYLE1
 73
     1
 44
1.0
  0
ENDBLK
  5
20F
330
204
100
AcDbEntity
  8
0
100
AcDbBlockEnd
  0
BLOCK
  5
226
330
21B
100
AcDbEntity
  8
0
100
AcDbBlockBegin
  2
*D14
 70
     1
 71
     0
 10
0.0
 20
0.0
 30
0.0
  3
*D14
  1

  0
LINE
  5
228
330
21B
100
AcDbEntity
  8
JISSEN
100
AcDbLine
 10
142.1520037852
 20
134.3749704286
 30
0.0
 11
141.3481602793
 21
131.3749694924
 31
0.0
  0
LINE
  5
229
330
21B
100
AcDbEntity
  8
JISSEN
100
AcDbLine
 10
141.3481602793
 20
131.3749694924
 30
0.0
 11
140.5443097852
 21
134.3749685562
 31
0.0
  0
LINE
  5
22A
330
21B
100
AcDbEntity
  8
JISSEN
100
AcDbLine
 10
141.3481602793
 20
131.3749694924
 30
0.0
 11
141.3481567852
 21
134.3749694924
 31
0.0
  0
LINE
  5
22B
330
21B
100
AcDbEntity
  8
JISSEN
100
AcDbLine
 10
140.5442760088
 20
163.3749550561
 30
0.0
 11
141.3481195147
 21
166.3749559923
 31
0.0
  0
LINE
  5
22C
330
21B
100
AcDbEntity
  8
JISSEN
100
AcDbLine
 10
141.3481195147
 20
166.3749559923
 30
0.0
 11
142.1519700088
 21
163.3749569285
 31
0.0
  0
LINE
  5
22D
330
21B
100
AcDbEntity
  8
JISSEN
100
AcDbLine
 10
141.3481195147
 20
166.3749559923
 30
0.0
 11
141.3481230088
 21
163.3749559923
 31
0.0
  0
LINE
  5
22E
330
21B
100
AcDbEntity
  8
JISSEN
100
AcDbLine
 10
156.874959
 20
131.3749875765
 30
0.0
 11
140.3481602793
 21
131.3749683277
 31
0.0
  0
LINE
  5
22F
330
21B
100
AcDbEntity
  8
JISSEN
100
AcDbLine
 10
152.374929
 20
166.3749688353
 30
0.0
 11
140.3481195147
 21
166.3749548276
 31
0.0
  0
LINE
  5
230
330
21B
100
AcDbEntity
  8
JISSEN
100
AcDbLine
 10
141.3481602793
 20
131.3749694924
 30
0.0
 11
141.3481195147
 21
166.3749559923
 31
0.0
  0
MTEXT
  5
231
330
21B
100
AcDbEntity
  8
JISSEN
100
AcDbMText
 10
137.8572348139
 20
145.383900866
 30
0.1
 40
3.0
 41
0.0
 71
     1
 72
     1
  1
35.0
  7
SLDTEXTSTYLE1
 11
-1.164702975780653E-6
 21
0.9999999999993218
 31
0.0
 73
     1
 44
1.0
  0
ENDBLK
  5
227
330
21B
100
AcDbEntity
  8
0
100
AcDbBlockEnd
  0
BLOCK
  5
23E
330
233
100
AcDbEntity
  8
0
100
AcDbBlockBegin
  2
*D15
 70
     1
 71
     0
 10
0.0
 20
0.0
 30
0.0
  3
*D15
  1

  0
LINE
  5
240
330
233
100
AcDbEntity
  8
JISSEN
100
AcDbLine
 10
147.8026207478
 20
161.3749911805
 30
0.0
 11
146.9987772419
 21
158.3749902443
 31
0.0
  0
LINE
  5
241
330
233
100
AcDbEntity
  8
JISSEN
100
AcDbLine
 10
146.9987772419
 20
158.3749902443
 30
0.0
 11
146.1949267478
 21
161.3749893081
 31
0.0
  0
LINE
  5
242
330
233
100
AcDbEntity
  8
JISSEN
100
AcDbLine
 10
146.9987772419
 20
158.3749902443
 30
0.0
 11
146.9987737478
 21
161.3749902443
 31
0.0
  0
LINE
  5
243
330
233
100
AcDbEntity
  8
JISSEN
100
AcDbLine
 10
146.1949244184
 20
163.3749616375
 30
0.0
 11
146.9987679243
 21
166.3749625737
 31
0.0
  0
LINE
  5
244
330
233
100
AcDbEntity
  8
JISSEN
100
AcDbLine
 10
146.9987679243
 20
166.3749625737
 30
0.0
 11
147.8026184184
 21
163.3749635099
 31
0.0
  0
LINE
  5
245
330
233
100
AcDbEntity
  8
JISSEN
100
AcDbLine
 10
146.9987679243
 20
166.3749625737
 30
0.0
 11
146.9987714184
 21
163.3749625737
 31
0.0
  0
LINE
  5
246
330
233
100
AcDbEntity
  8
JISSEN
100
AcDbLine
 10
148.874939
 20
158.3749924294
 30
0.0
 11
145.9987772419
 21
158.3749890796
 31
0.0
  0
LINE
  5
247
330
233
100
AcDbEntity
  8
JISSEN
100
AcDbLine
 10
152.374929
 20
166.3749688353
 30
0.0
 11
145.9987679243
 21
166.374961409
 31
0.0
  0
LINE
  5
248
330
233
100
AcDbEntity
  8
JISSEN
100
AcDbLine
 10
146.9987772419
 20
158.3749902443
 30
0.0
 11
146.9987679243
 21
166.3749625737
 31
0.0
  0
MTEXT
  5
249
330
233
100
AcDbEntity
  8
JISSEN
100
AcDbMText
 10
143.5078664838
 20
159.7564241635
 30
0.1
 40
3.0
 41
0.0
 71
     1
 72
     1
  1
8.0
  7
SLDTEXTSTYLE1
 11
-1.164702978001099E-6
 21
0.9999999999993218
 31
0.0
 73
     1
 44
1.0
  0
ENDBLK
  5
23F
330
233
100
AcDbEntity
  8
0
100
AcDbBlockEnd
  0
BLOCK
  5
258
330
24B
100
AcDbEntity
  8
0
100
AcDbBlockBegin
  2
*D16
 70
     1
 71
     0
 10
0.0
 20
0.0
 30
0.0
  3
*D16
  1

  0
LINE
  5
25A
330
24B
100
AcDbEntity
  8
JISSEN
100
AcDbLine
 10
148.374949
 20
172.123437337
 30
0.0
 11
151.374949
 21
171.319590337
 31
0.0
  0
LINE
  5
25B
330
24B
100
AcDbEntity
  8
JISSEN
100
AcDbLine
 10
151.374949
 20
171.319590337
 30
0.0
 11
148.374949
 21
170.515743337
 31
0.0
  0
LINE
  5
25C
330
24B
100
AcDbEntity
  8
JISSEN
100
AcDbLine
 10
151.374949
 20
171.319590337
 30
0.0
 11
148.374949
 21
171.319590337
 31
0.0
  0
LINE
  5
25D
330
24B
100
AcDbEntity
  8
JISSEN
100
AcDbLine
 10
158.374939
 20
170.515743337
 30
0.0
 11
155.374939
 21
171.319590337
 31
0.0
  0
LINE
  5
25E
330
24B
100
AcDbEntity
  8
JISSEN
100
AcDbLine
 10
155.374939
 20
171.319590337
 30
0.0
 11
158.374939
 21
172.123437337
 31
0.0
  0
LINE
  5
25F
330
24B
100
AcDbEntity
  8
JISSEN
100
AcDbLine
 10
155.374939
 20
171.319590337
 30
0.0
 11
158.374939
 21
171.319590337
 31
0.0
  0
LINE
  5
260
330
24B
100
AcDbEntity
  8
JISSEN
100
AcDbLine
 10
151.374949
 20
165.37497
 30
0.0
 11
151.374949
 21
172.319590337
 31
0.0
  0
LINE
  5
261
330
24B
100
AcDbEntity
  8
JISSEN
100
AcDbLine
 10
155.374939
 20
164.875
 30
0.0
 11
155.374939
 21
172.319590337
 31
0.0
  0
LINE
  5
262
330
24B
100
AcDbEntity
  8
JISSEN
100
AcDbLine
 10
151.374949
 20
171.319590337
 30
0.0
 11
140.4184854434
 21
171.319590337
 31
0.0
  0
LINE
  5
263
330
24B
100
AcDbEntity
  8
JISSEN
100
AcDbLine
 10
151.374949
 20
171.319590337
 30
0.0
 11
155.374939
 21
171.319590337
 31
0.0
  0
LINE
  5
264
330
24B
100
AcDbEntity
  8
JISSEN
100
AcDbLine
 10
155.374939
 20
171.319590337
 30
0.0
 11
160.374939
 21
171.319590337
 31
0.0
  0
MTEXT
  5
265
330
24B
100
AcDbEntity
  8
JISSEN
100
AcDbMText
 10
142.0059854434
 20
174.8104994861
 30
0.1
 40
3.0
 41
0.0
 71
     1
 72
     1
  1
4.0
  7
SLDTEXTSTYLE1
 73
     1
 44
1.0
  0
ENDBLK
  5
259
330
24B
100
AcDbEntity
  8
0
100
AcDbBlockEnd
  0
BLOCK
  5
271
330
267
100
AcDbEntity
  8
0
100
AcDbBlockBegin
  2
*D17
 70
     1
 71
     0
 10
0.0
 20
0.0
 30
0.0
  3
*D17
  1

  0
LINE
  5
274
330
267
100
AcDbEntity
  8
JISSEN
100
AcDbLine
 10
158.374939
 20
170.515743337
 30
0.0
 11
155.374939
 21
171.319590337
 31
0.0
  0
LINE
  5
275
330
267
100
AcDbEntity
  8
JISSEN
100
AcDbLine
 10
155.374939
 20
171.319590337
 30
0.0
 11
158.374939
 21
172.123437337
 31
0.0
  0
LINE
  5
276
330
267
100
AcDbEntity
  8
JISSEN
100
AcDbLine
 10
155.374939
 20
171.319590337
 30
0.0
 11
158.374939
 21
171.319590337
 31
0.0
  0
LINE
  5
277
330
267
100
AcDbEntity
  8
JISSEN
100
AcDbLine
 10
165.874959
 20
172.123437337
 30
0.0
 11
168.874959
 21
171.319590337
 31
0.0
  0
LINE
  5
278
330
267
100
AcDbEntity
  8
JISSEN
100
AcDbLine
 10
168.874959
 20
171.319590337
 30
0.0
 11
165.874959
 21
170.515743337
 31
0.0
  0
LINE
  5
279
330
267
100
AcDbEntity
  8
JISSEN
100
AcDbLine
 10
168.874959
 20
171.319590337
 30
0.0
 11
165.874959
 21
171.319590337
 31
0.0
  0
LINE
  5
27A
330
267
100
AcDbEntity
  8
JISSEN
100
AcDbLine
 10
155.374939
 20
164.875
 30
0.0
 11
155.374939
 21
172.319590337
 31
0.0
  0
LINE
  5
27B
330
267
100
AcDbEntity
  8
JISSEN
100
AcDbLine
 10
168.874959
 20
164.874975
 30
0.0
 11
168.874959
 21
172.319590337
 31
0.0
  0
LINE
  5
27C
330
267
100
AcDbEntity
  8
JISSEN
100
AcDbLine
 10
155.374939
 20
171.319590337
 30
0.0
 11
168.874959
 21
171.319590337
 31
0.0
  0
MTEXT
  5
27D
330
267
100
AcDbEntity
  8
JISSEN
100
AcDbMText
 10
158.6338911895
 20
174.8104994861
 30
0.1
 40
3.0
 41
0.0
 71
     1
 72
     1
  1
13.5
  7
SLDTEXTSTYLE1
 73
     1
 44
1.0
  0
ENDBLK
  5
272
330
267
100
AcDbEntity
  8
0
100
AcDbBlockEnd
  0
BLOCK
  5
289
330
27F
100
AcDbEntity
  8
0
100
AcDbBlockBegin
  2
*D18
 70
     1
 71
     0
 10
0.0
 20
0.0
 30
0.0
  3
*D18
  1

  0
LINE
  5
28B
330
27F
100
AcDbEntity
  8
JISSEN
100
AcDbLine
 10
185.374969
 20
176.854186422
 30
0.0
 11
188.374969
 21
176.050339422
 31
0.0
  0
LINE
  5
28C
330
27F
100
AcDbEntity
  8
JISSEN
100
AcDbLine
 10
188.374969
 20
176.050339422
 30
0.0
 11
185.374969
 21
175.246492422
 31
0.0
  0
LINE
  5
28D
330
27F
100
AcDbEntity
  8
JISSEN
100
AcDbLine
 10
188.374969
 20
176.050339422
 30
0.0
 11
185.374969
 21
176.050339422
 31
0.0
  0
LINE
  5
28E
330
27F
100
AcDbEntity
  8
JISSEN
100
AcDbLine
 10
154.374949
 20
175.246492422
 30
0.0
 11
151.374949
 21
176.050339422
 31
0.0
  0
LINE
  5
28F
330
27F
100
AcDbEntity
  8
JISSEN
100
AcDbLine
 10
151.374949
 20
176.050339422
 30
0.0
 11
154.374949
 21
176.854186422
 31
0.0
  0
LINE
  5
290
330
27F
100
AcDbEntity
  8
JISSEN
100
AcDbLine
 10
151.374949
 20
176.050339422
 30
0.0
 11
154.374949
 21
176.050339422
 31
0.0
  0
LINE
  5
291
330
27F
100
AcDbEntity
  8
JISSEN
100
AcDbLine
 10
188.374969
 20
165.874978
 30
0.0
 11
188.374969
 21
177.050339422
 31
0.0
  0
LINE
  5
292
330
27F
100
AcDbEntity
  8
JISSEN
100
AcDbLine
 10
151.374949
 20
165.37497
 30
0.0
 11
151.374949
 21
177.050339422
 31
0.0
  0
LINE
  5
293
330
27F
100
AcDbEntity
  8
JISSEN
100
AcDbLine
 10
188.374969
 20
176.050339422
 30
0.0
 11
151.374949
 21
176.050339422
 31
0.0
  0
MTEXT
  5
294
330
27F
100
AcDbEntity
  8
JISSEN
100
AcDbMText
 10
166.3839011895
 20
179.5412485711
 30
0.1
 40
3.0
 41
0.0
 71
     1
 72
     1
  1
37.0
  7
SLDTEXTSTYLE1
 73
     1
 44
1.0
  0
ENDBLK
  5
28A
330
27F
100
AcDbEntity
  8
0
100
AcDbBlockEnd
  0
ENDSEC
  0
SECTION
  2
ENTITIES
  0
LINE
  5
3F
330
1F
100
AcDbEntity
  8
ITTEN
  6
CENTER
 62
     1
100
AcDbLine
 10
53.874969
 20
57.375
 30
0.0
 11
51.874969
 21
59.375
 31
0.0
  0
LINE
  5
40
330
1F
100
AcDbEntity
  8
ITTEN
  6
CENTER
 62
     1
100
AcDbLine
 10
51.874969
 20
57.375
 30
0.0
 11
53.874969
 21
59.375
 31
0.0
  0
LINE
  5
41
330
1F
100
AcDbEntity
  8
ITTEN
  6
CENTER
 62
     1
100
AcDbLine
 10
168.874959
 20
165.374977
 30
0.0
 11
170.874959
 21
167.374977
 31
0.0
  0
LINE
  5
42
330
1F
100
AcDbEntity
  8
ITTEN
  6
CENTER
 62
     1
100
AcDbLine
 10
170.874959
 20
165.374977
 30
0.0
 11
168.874959
 21
167.374977
 31
0.0
  0
LINE
  5
43
330
1F
100
AcDbEntity
  8
ITTEN
  6
CENTER
 62
     1
100
AcDbLine
 10
51.874969
 20
156.874977
 30
0.0
 11
53.874969
 21
158.874977
 31
0.0
  0
LINE
  5
44
330
1F
100
AcDbEntity
  8
ITTEN
  6
CENTER
 62
     1
100
AcDbLine
 10
53.874969
 20
156.874977
 30
0.0
 11
51.874969
 21
158.874977
 31
0.0
  0
LINE
  5
45
330
1F
100
AcDbEntity
  8
ITTEN
  6
CENTER
 62
     1
100
AcDbLine
 10
53.874969
 20
234.374977
 30
0.0
 11
51.874969
 21
236.374977
 31
0.0
  0
LINE
  5
46
330
1F
100
AcDbEntity
  8
ITTEN
  6
CENTER
 62
     1
100
AcDbLine
 10
51.874969
 20
234.374977
 30
0.0
 11
53.874969
 21
236.374977
 31
0.0
  0
LINE
  5
47
330
1F
100
AcDbEntity
  8
ITTEN
  6
CENTER
 62
     1
100
AcDbLine
 10
52.874969
 20
36.875
 30
0.0
 11
52.874969
 21
79.875
 31
0.0
  0
LINE
  5
48
330
1F
100
AcDbEntity
  8
ITTEN
  6
CENTER
 62
     1
100
AcDbLine
 10
22.874969
 20
58.375
 30
0.0
 11
82.874969
 21
58.375
 31
0.0
  0
LINE
  5
49
330
1F
100
AcDbEntity
  8
ITTEN
  6
CENTER
 62
     1
100
AcDbLine
 10
34.874969
 20
51.375
 30
0.0
 11
55.874969
 21
51.375
 31
0.0
  0
LINE
  5
4A
330
1F
100
AcDbEntity
  8
ITTEN
  6
CENTER
 62
     1
100
AcDbLine
 10
49.874969
 20
65.375
 30
0.0
 11
70.874969
 21
65.375
 31
0.0
  0
LINE
  5
4B
330
1F
100
AcDbEntity
  8
ITTEN
  6
CENTER
 62
     1
100
AcDbLine
 10
28.874969
 20
58.625
 30
0.0
 11
28.874969
 21
50.625
 31
0.0
  0
LINE
  5
4C
330
1F
100
AcDbEntity
  8
ITTEN
  6
CENTER
 62
     1
100
AcDbLine
 10
32.874969
 20
54.625
 30
0.0
 11
24.874969
 21
54.625
 31
0.0
  0
LINE
  5
4D
330
1F
100
AcDbEntity
  8
ITTEN
  6
CENTER
 62
     1
100
AcDbLine
 10
80.874969
 20
54.625
 30
0.0
 11
72.874969
 21
54.625
 31
0.0
  0
LINE
  5
4E
330
1F
100
AcDbEntity
  8
ITTEN
  6
CENTER
 62
     1
100
AcDbLine
 10
76.874969
 20
58.625
 30
0.0
 11
76.874969
 21
50.625
 31
0.0
  0
LINE
  5
4F
330
1F
100
AcDbEntity
  8
JISSEN
  6
Continuous
 62
     7
100
AcDbLine
 10
60.874969
 20
67.875
 30
0.0
 11
60.874969
 21
68.375
 31
0.0
  0
LINE
  5
50
330
1F
100
AcDbEntity
  8
JISSEN
  6
Continuous
 62
     7
100
AcDbLine
 10
44.874969
 20
53.875
 30
0.0
 11
44.874969
 21
58.875
 31
0.0
  0
LINE
  5
51
330
1F
100
AcDbEntity
  8
JISSEN
  6
Continuous
 62
     7
100
AcDbLine
 10
52.874969
 20
62.875
 30
0.0
 11
67.874969
 21
62.875
 31
0.0
  0
LINE
  5
52
330
1F
100
AcDbEntity
  8
JISSEN
  6
Continuous
 62
     7
100
AcDbLine
 10
52.874969
 20
67.875
 30
0.0
 11
67.874969
 21
67.875
 31
0.0
  0
LINE
  5
53
330
1F
100
AcDbEntity
  8
JISSEN
  6
Continuous
 62
     7
100
AcDbLine
 10
37.874969
 20
48.875
 30
0.0
 11
52.874969
 21
48.875
 31
0.0
  0
LINE
  5
54
330
1F
100
AcDbEntity
  8
JISSEN
  6
Continuous
 62
     7
100
AcDbLine
 10
37.874969
 20
53.875
 30
0.0
 11
52.874969
 21
53.875
 31
0.0
  0
LINE
  5
55
330
1F
100
AcDbEntity
  8
JISSEN
  6
Continuous
 62
     7
100
AcDbLine
 10
49.121377
 20
53.875
 30
0.0
 11
46.236953
 21
58.875
 31
0.0
  0
LINE
  5
56
330
1F
100
AcDbEntity
  8
JISSEN
  6
Continuous
 62
     7
100
AcDbLine
 10
59.512985
 20
57.875
 30
0.0
 11
56.62856
 21
62.875
 31
0.0
  0
LINE
  5
57
330
1F
100
AcDbEntity
  8
JISSEN
  6
Continuous
 62
     7
100
AcDbLine
 10
37.874969
 20
58.875
 30
0.0
 11
52.874969
 21
58.875
 31
0.0
  0
LINE
  5
58
330
1F
100
AcDbEntity
  8
JISSEN
  6
Continuous
 62
     7
100
AcDbLine
 10
52.874969
 20
58.875
 30
0.0
 11
52.874969
 21
69.375
 31
0.0
  0
LINE
  5
59
330
1F
100
AcDbEntity
  8
JISSEN
  6
Continuous
 62
     7
100
AcDbLine
 10
52.874969
 20
57.875
 30
0.0
 11
52.874969
 21
47.375
 31
0.0
  0
LINE
  5
5A
330
1F
100
AcDbEntity
  8
JISSEN
  6
Continuous
 62
     7
100
AcDbLine
 10
52.874969
 20
57.875
 30
0.0
 11
67.874969
 21
57.875
 31
0.0
  0
LINE
  5
5B
330
1F
100
AcDbEntity
  8
JISSEN
  6
Continuous
 62
     7
100
AcDbLine
 10
37.874969
 20
69.375
 30
0.0
 11
37.874969
 21
47.375
 31
0.0
  0
LINE
  5
5C
330
1F
100
AcDbEntity
  8
JISSEN
  6
Continuous
 62
     7
100
AcDbLine
 10
37.874969
 20
47.375
 30
0.0
 11
31.874969
 21
47.375
 31
0.0
  0
LINE
  5
5D
330
1F
100
AcDbEntity
  8
JISSEN
  6
Continuous
 62
     7
100
AcDbLine
 10
31.874969
 20
69.375
 30
0.0
 11
52.874969
 21
69.375
 31
0.0
  0
LINE
  5
5E
330
1F
100
AcDbEntity
  8
JISSEN
  6
Continuous
 62
     7
100
AcDbLine
 10
52.874969
 20
47.375
 30
0.0
 11
73.874969
 21
47.375
 31
0.0
  0
LINE
  5
5F
330
1F
100
AcDbEntity
  8
JISSEN
  6
Continuous
 62
     7
100
AcDbLine
 10
67.874969
 20
69.375
 30
0.0
 11
67.874969
 21
47.375
 31
0.0
  0
LINE
  5
60
330
1F
100
AcDbEntity
  8
JISSEN
  6
Continuous
 62
     7
100
AcDbLine
 10
73.874969
 20
69.375
 30
0.0
 11
67.874969
 21
69.375
 31
0.0
  0
LINE
  5
61
330
1F
100
AcDbEntity
  8
JISSEN
  6
Continuous
 62
     7
100
AcDbLine
 10
34.60702
 20
70.875
 30
0.0
 11
71.142918
 21
70.875
 31
0.0
  0
LINE
  5
62
330
1F
100
AcDbEntity
  8
JISSEN
  6
Continuous
 62
     7
100
AcDbLine
 10
44.874969
 20
48.375
 30
0.0
 11
44.874969
 21
48.875
 31
0.0
  0
LINE
  5
63
330
1F
100
AcDbEntity
  8
JISSEN
  6
Continuous
 62
     7
100
AcDbLine
 10
60.874969
 20
57.875
 30
0.0
 11
60.874969
 21
62.875
 31
0.0
  0
LINE
  5
64
330
1F
100
AcDbEntity
  8
JISSEN
  6
Continuous
 62
     7
100
AcDbLine
 10
31.874969
 20
47.375
 30
0.0
 11
31.874969
 21
69.375
 31
0.0
  0
LINE
  5
65
330
1F
100
AcDbEntity
  8
JISSEN
  6
Continuous
 62
     7
100
AcDbLine
 10
71.1429181924
 20
45.875
 30
0.0
 11
34.6070198076
 21
45.875
 31
0.0
  0
LINE
  5
66
330
1F
100
AcDbEntity
  8
JISSEN
  6
Continuous
 62
     7
100
AcDbLine
 10
73.874969
 20
69.375
 30
0.0
 11
73.874969
 21
47.375
 31
0.0
  0
LINE
  5
67
330
1F
100
AcDbEntity
  8
JISSEN
  6
Continuous
 62
     7
100
AcDbLine
 10
25.874969
 20
39.875
 30
0.0
 11
25.874969
 21
76.875
 31
0.0
  0
LINE
  5
68
330
1F
100
AcDbEntity
  8
JISSEN
  6
Continuous
 62
     7
100
AcDbLine
 10
79.874969
 20
39.875
 30
0.0
 11
25.874969
 21
39.875
 31
0.0
  0
LINE
  5
69
330
1F
100
AcDbEntity
  8
JISSEN
  6
Continuous
 62
     7
100
AcDbLine
 10
79.874969
 20
76.875
 30
0.0
 11
79.874969
 21
39.875
 31
0.0
  0
LINE
  5
6A
330
1F
100
AcDbEntity
  8
JISSEN
  6
Continuous
 62
     7
100
AcDbLine
 10
25.874969
 20
76.875
 30
0.0
 11
79.874969
 21
76.875
 31
0.0
  0
LINE
  5
6B
330
1F
100
AcDbEntity
  8
ITTEN
  6
CENTER
 62
     1
100
AcDbLine
 10
163.374959
 20
158.375
 30
0.0
 11
174.374959
 21
158.375
 31
0.0
  0
LINE
  5
6C
330
1F
100
AcDbEntity
  8
ITTEN
  6
CENTER
 62
     1
100
AcDbLine
 10
167.874959
 20
131.3750003882
 30
0.0
 11
157.874959
 21
131.3749887412
 31
0.0
  0
LINE
  5
6D
330
1F
100
AcDbEntity
  8
ITTEN
  6
CENTER
 62
     1
100
AcDbLine
 10
52.874969
 20
169.374977
 30
0.0
 11
52.874969
 21
134.374981
 31
0.0
  0
LINE
  5
6E
330
1F
100
AcDbEntity
  8
JISSEN
  6
Continuous
 62
     7
100
AcDbLine
 10
188.374969
 20
164.874978
 30
0.0
 11
188.374969
 21
164.124982
 31
0.0
  0
LINE
  5
6F
330
1F
100
AcDbEntity
  8
JISSEN
  6
Continuous
 62
     7
100
AcDbLine
 10
164.082049
 20
166.374975
 30
0.0
 11
186.874969
 21
166.374978
 31
0.0
  0
LINE
  5
70
330
1F
100
AcDbEntity
  8
ITTEN
  6
CENTER
 62
     1
100
AcDbLine
 10
178.874939
 20
164.379932
 30
0.0
 11
178.874939
 21
145.374989
 31
0.0
  0
LINE
  5
71
330
1F
100
AcDbEntity
  8
ITTEN
  6
CENTER
 62
     1
100
AcDbLine
 10
188.374939
 20
154.874989
 30
0.0
 11
169.374939
 21
154.874989
 31
0.0
  0
LINE
  5
72
330
1F
100
AcDbEntity
  8
ITTEN
  6
CENTER
 62
     1
100
AcDbLine
 10
149.874939
 20
158.3749935941
 30
0.0
 11
160.874939
 21
158.3750064059
 31
0.0
  0
LINE
  5
73
330
1F
100
AcDbEntity
  8
JISSEN
  6
Continuous
 62
     7
100
AcDbLine
 10
151.374949
 20
151.62499
 30
0.0
 11
151.374949
 21
164.37497
 31
0.0
  0
LINE
  5
74
330
1F
100
AcDbEntity
  8
JISSEN
  6
Continuous
 62
     7
100
AcDbLine
 10
151.874949
 20
151.124964
 30
0.0
 11
153.374929
 21
151.124964
 31
0.0
  0
LINE
  5
75
330
1F
100
AcDbEntity
  8
JISSEN
  6
Continuous
 62
     7
100
AcDbLine
 10
151.374949
 20
145.124994
 30
0.0
 11
151.374949
 21
139.374987
 31
0.0
  0
LINE
  5
76
330
1F
100
AcDbEntity
  8
JISSEN
  6
Continuous
 62
     7
100
AcDbLine
 10
151.874949
 20
145.624994
 30
0.0
 11
153.374929
 21
145.624995
 31
0.0
  0
LINE
  5
77
330
1F
100
AcDbEntity
  8
JISSEN
  6
Continuous
 62
     7
100
AcDbLine
 10
153.374929
 20
166.37497
 30
0.0
 11
157.667869
 21
166.374975
 31
0.0
  0
LINE
  5
78
330
1F
100
AcDbEntity
  8
JISSEN
  6
Continuous
 62
     7
100
AcDbLine
 10
153.374929
 20
137.374987
 30
0.0
 11
186.374969
 21
137.374987
 31
0.0
  0
LINE
  5
79
330
1F
100
AcDbEntity
  8
JISSEN
  6
Continuous
 62
     7
100
AcDbLine
 10
188.374969
 20
139.374987
 30
0.0
 11
188.374969
 21
145.624995
 31
0.0
  0
LINE
  5
7A
330
1F
100
AcDbEntity
  8
JISSEN
  6
Continuous
 62
     7
100
AcDbLine
 10
79.874959
 20
229.582067
 30
0.0
 11
25.874979
 21
229.582067
 31
0.0
  0
LINE
  5
7B
330
1F
100
AcDbEntity
  8
JISSEN
  6
Continuous
 62
     7
100
AcDbLine
 10
79.874959
 20
223.167887
 30
0.0
 11
25.874979
 21
223.167887
 31
0.0
  0
LINE
  5
7C
330
1F
100
AcDbEntity
  8
ITTEN
  6
CENTER
 62
     1
100
AcDbLine
 10
168.874959
 20
152.874975
 30
0.0
 11
168.874959
 21
163.874975
 31
0.0
  0
LINE
  5
7D
330
1F
100
AcDbEntity
  8
JISSEN
  6
Continuous
 62
     7
100
AcDbLine
 10
25.874979
 20
145.624971
 30
0.0
 11
79.874959
 21
145.624971
 31
0.0
  0
LINE
  5
7E
330
1F
100
AcDbEntity
  8
JISSEN
  6
Continuous
 62
     7
100
AcDbLine
 10
25.874979
 20
151.124964
 30
0.0
 11
79.874959
 21
151.124964
 31
0.0
  0
LINE
  5
7F
330
1F
100
AcDbEntity
  8
JISSEN
  6
Continuous
 62
     7
100
AcDbLine
 10
188.374969
 20
158.624989
 30
0.0
 11
188.374969
 21
151.124964
 31
0.0
  0
LINE
  5
80
330
1F
100
AcDbEntity
  8
JISSEN
  6
Continuous
 62
     7
100
AcDbLine
 10
187.150119
 20
151.124964
 30
0.0
 11
188.374969
 21
151.124964
 31
0.0
  0
LINE
  5
81
330
1F
100
AcDbEntity
  8
JISSEN
  6
Continuous
 62
     7
100
AcDbLine
 10
187.150119
 20
145.624995
 30
0.0
 11
188.374969
 21
145.624995
 31
0.0
  0
LINE
  5
82
330
1F
100
AcDbEntity
  8
JISSEN
  6
Continuous
 62
     7
100
AcDbLine
 10
187.150119
 20
158.624989
 30
0.0
 11
188.374969
 21
158.624989
 31
0.0
  0
LINE
  5
83
330
1F
100
AcDbEntity
  8
JISSEN
  6
Continuous
 62
     7
100
AcDbLine
 10
187.150119
 20
164.124982
 30
0.0
 11
188.374969
 21
164.124982
 31
0.0
  0
LINE
  5
84
330
1F
100
AcDbEntity
  8
ITTEN
  6
CENTER
 62
     1
100
AcDbLine
 10
171.374959
 20
141.874995
 30
0.0
 11
182.374959
 21
141.874995
 31
0.0
  0
LINE
  5
85
330
1F
100
AcDbEntity
  8
ITTEN
  6
CENTER
 62
     1
100
AcDbLine
 10
157.374959
 20
141.874995
 30
0.0
 11
168.374959
 21
141.874995
 31
0.0
  0
LINE
  5
86
330
1F
100
AcDbEntity
  8
ITTEN
  6
CENTER
 62
     1
100
AcDbLine
 10
176.874959
 20
136.374995
 30
0.0
 11
176.874959
 21
147.374995
 31
0.0
  0
LINE
  5
87
330
1F
100
AcDbEntity
  8
ITTEN
  6
CENTER
 62
     1
100
AcDbLine
 10
162.874959
 20
136.374995
 30
0.0
 11
162.874959
 21
147.374995
 31
0.0
  0
LINE
  5
88
330
1F
100
AcDbEntity
  8
JISSEN
  6
Continuous
 62
     7
100
AcDbLine
 10
174.495309
 20
155.647224
 30
0.0
 11
172.473699
 21
156.00371
 31
0.0
  0
LINE
  5
89
330
1F
100
AcDbEntity
  8
JISSEN
  6
Continuous
 62
     7
100
AcDbLine
 10
174.495309
 20
154.102754
 30
0.0
 11
172.473699
 21
153.746267
 31
0.0
  0
LINE
  5
8A
330
1F
100
AcDbEntity
  8
ITTEN
  6
CENTER
 62
     1
100
AcDbLine
 10
72.374949
 20
141.874971
 30
0.0
 11
81.374949
 21
141.874971
 31
0.0
  0
LINE
  5
8B
330
1F
100
AcDbEntity
  8
ITTEN
  6
CENTER
 62
     1
100
AcDbLine
 10
24.374939
 20
141.874971
 30
0.0
 11
33.374939
 21
141.874971
 31
0.0
  0
LINE
  5
8C
330
1F
100
AcDbEntity
  8
ITTEN
  6
CENTER
 62
     1
100
AcDbLine
 10
76.874949
 20
137.374971
 30
0.0
 11
76.874949
 21
146.374971
 31
0.0
  0
LINE
  5
8D
330
1F
100
AcDbEntity
  8
ITTEN
  6
CENTER
 62
     1
100
AcDbLine
 10
28.874939
 20
137.374971
 30
0.0
 11
28.874939
 21
146.374971
 31
0.0
  0
LINE
  5
8E
330
1F
100
AcDbEntity
  8
ITTEN
  6
CENTER
 62
     1
100
AcDbLine
 10
43.374969
 20
154.374987
 30
0.0
 11
32.374969
 21
154.374987
 31
0.0
  0
LINE
  5
8F
330
1F
100
AcDbEntity
  8
ITTEN
  6
CENTER
 62
     1
100
AcDbLine
 10
73.374969
 20
154.374987
 30
0.0
 11
62.374969
 21
154.374987
 31
0.0
  0
LINE
  5
90
330
1F
100
AcDbEntity
  8
ITTEN
  6
CENTER
 62
     1
100
AcDbLine
 10
37.874969
 20
148.874987
 30
0.0
 11
37.874969
 21
159.874987
 31
0.0
  0
LINE
  5
91
330
1F
100
AcDbEntity
  8
ITTEN
  6
CENTER
 62
     1
100
AcDbLine
 10
67.874969
 20
148.874987
 30
0.0
 11
67.874969
 21
159.874987
 31
0.0
  0
LINE
  5
92
330
1F
100
AcDbEntity
  8
JISSEN
  6
Continuous
 62
     7
100
AcDbLine
 10
31.874979
 20
137.374981
 30
0.0
 11
31.874979
 21
127.374997
 31
0.0
  0
LINE
  5
93
330
1F
100
AcDbEntity
  8
JISSEN
  6
Continuous
 62
     7
100
AcDbLine
 10
37.874949
 20
137.374981
 30
0.0
 11
37.874949
 21
127.374997
 31
0.0
  0
LINE
  5
94
330
1F
100
AcDbEntity
  8
JISSEN
  6
Continuous
 62
     7
100
AcDbLine
 10
67.874949
 20
137.374981
 30
0.0
 11
67.874949
 21
127.374997
 31
0.0
  0
LINE
  5
95
330
1F
100
AcDbEntity
  8
JISSEN
  6
Continuous
 62
     7
100
AcDbLine
 10
73.874969
 20
137.374981
 30
0.0
 11
73.874969
 21
127.374997
 31
0.0
  0
LINE
  5
96
330
1F
100
AcDbEntity
  8
JISSEN
  6
Continuous
 62
     7
100
AcDbLine
 10
25.874979
 20
137.374981
 30
0.0
 11
79.874959
 21
137.374981
 31
0.0
  0
LINE
  5
97
330
1F
100
AcDbEntity
  8
JISSEN
  6
Continuous
 62
     7
100
AcDbLine
 10
67.874949
 20
127.374997
 30
0.0
 11
73.874969
 21
127.374997
 31
0.0
  0
LINE
  5
98
330
1F
100
AcDbEntity
  8
JISSEN
  6
Continuous
 62
     7
100
AcDbLine
 10
31.874979
 20
127.374997
 30
0.0
 11
37.874949
 21
127.374997
 31
0.0
  0
LINE
  5
99
330
1F
100
AcDbEntity
  8
JISSEN
  6
Continuous
 62
     7
100
AcDbLine
 10
25.874979
 20
137.374981
 30
0.0
 11
25.874979
 21
166.374977
 31
0.0
  0
LINE
  5
9A
330
1F
100
AcDbEntity
  8
JISSEN
  6
Continuous
 62
     7
100
AcDbLine
 10
79.874959
 20
166.374977
 30
0.0
 11
79.874959
 21
137.374981
 31
0.0
  0
LINE
  5
9B
330
1F
100
AcDbEntity
  8
JISSEN
  6
Continuous
 62
     7
100
AcDbLine
 10
25.874979
 20
166.374977
 30
0.0
 11
79.874959
 21
166.374977
 31
0.0
  0
LINE
  5
9C
330
1F
100
AcDbEntity
  8
JISSEN
  6
Continuous
 62
     7
100
AcDbLine
 10
79.874959
 20
253.874977
 30
0.0
 11
79.874959
 21
216.874977
 31
0.0
  0
LINE
  5
9D
330
1F
100
AcDbEntity
  8
JISSEN
  6
Continuous
 62
     7
100
AcDbLine
 10
158.021409
 20
166.228542
 30
0.0
 11
160.521389
 21
163.728534
 31
0.0
  0
LINE
  5
9E
330
1F
100
AcDbEntity
  8
JISSEN
  6
Continuous
 62
     7
100
AcDbLine
 10
163.728509
 20
166.228542
 30
0.0
 11
161.228519
 21
163.728534
 31
0.0
  0
LINE
  5
9F
330
1F
100
AcDbEntity
  8
ITTEN
  6
CENTER
 62
     1
100
AcDbLine
 10
155.374939
 20
152.875
 30
0.0
 11
155.374939
 21
163.875
 31
0.0
  0
LINE
  5
A0
330
1F
100
AcDbEntity
  8
ITTEN
  6
CENTER
 62
     1
100
AcDbLine
 10
176.874939
 20
126.374986
 30
0.0
 11
176.874939
 21
136.374986
 31
0.0
  0
LINE
  5
A1
330
1F
100
AcDbEntity
  8
ITTEN
  6
CENTER
 62
     1
100
AcDbLine
 10
162.874959
 20
126.374986
 30
0.0
 11
162.874959
 21
136.374995
 31
0.0
  0
LINE
  5
A2
330
1F
100
AcDbEntity
  8
ITTEN
  6
CENTER
 62
     1
100
AcDbLine
 10
181.874939
 20
131.374986
 30
0.0
 11
171.874939
 21
131.374986
 31
0.0
  0
LINE
  5
A3
330
1F
100
AcDbEntity
  8
JISSEN
  6
Continuous
 62
     7
100
AcDbLine
 10
158.874979
 20
127.374997
 30
0.0
 11
158.874979
 21
137.374981
 31
0.0
  0
LINE
  5
A4
330
1F
100
AcDbEntity
  8
JISSEN
  6
Continuous
 62
     7
100
AcDbLine
 10
180.874949
 20
127.374997
 30
0.0
 11
158.874979
 21
127.374997
 31
0.0
  0
LINE
  5
A5
330
1F
100
AcDbEntity
  8
JISSEN
  6
Continuous
 62
     7
100
AcDbLine
 10
180.874949
 20
137.374981
 30
0.0
 11
180.874949
 21
127.374997
 31
0.0
  0
LINE
  5
A6
330
1F
100
AcDbEntity
  8
JISSEN
  6
Continuous
 62
     7
100
AcDbLine
 10
183.887579
 20
149.612414
 30
0.0
 11
186.150119
 21
151.874979
 31
0.0
  0
LINE
  5
A7
330
1F
100
AcDbEntity
  8
JISSEN
  6
Continuous
 62
     7
100
AcDbLine
 10
183.887579
 20
147.137545
 30
0.0
 11
186.150119
 21
144.87498
 31
0.0
  0
LINE
  5
A8
330
1F
100
AcDbEntity
  8
JISSEN
  6
Continuous
 62
     7
100
AcDbLine
 10
186.150119
 20
144.87498
 30
0.0
 11
187.150119
 21
144.87498
 31
0.0
  0
LINE
  5
A9
330
1F
100
AcDbEntity
  8
JISSEN
  6
Continuous
 62
     7
100
AcDbLine
 10
187.150119
 20
145.624995
 30
0.0
 11
187.150119
 21
144.87498
 31
0.0
  0
LINE
  5
AA
330
1F
100
AcDbEntity
  8
JISSEN
  6
Continuous
 62
     7
100
AcDbLine
 10
186.150119
 20
151.874979
 30
0.0
 11
187.150119
 21
151.874979
 31
0.0
  0
LINE
  5
AB
330
1F
100
AcDbEntity
  8
JISSEN
  6
Continuous
 62
     7
100
AcDbLine
 10
187.150119
 20
151.874979
 30
0.0
 11
187.150119
 21
151.124964
 31
0.0
  0
LINE
  5
AC
330
1F
100
AcDbEntity
  8
ITTEN
  6
CENTER
 62
     1
100
AcDbLine
 10
82.874959
 20
235.374977
 30
0.0
 11
22.874979
 21
235.374977
 31
0.0
  0
LINE
  5
AD
330
1F
100
AcDbEntity
  8
ITTEN
  6
CENTER
 62
     1
100
AcDbLine
 10
37.874989
 20
240.874977
 30
0.0
 11
37.874989
 21
229.874977
 31
0.0
  0
LINE
  5
AE
330
1F
100
AcDbEntity
  8
ITTEN
  6
CENTER
 62
     1
100
AcDbLine
 10
67.874969
 20
240.874977
 30
0.0
 11
67.874969
 21
229.874977
 31
0.0
  0
LINE
  5
AF
330
1F
100
AcDbEntity
  8
ITTEN
  6
CENTER
 62
     1
100
AcDbLine
 10
52.874969
 20
256.874977
 30
0.0
 11
52.874969
 21
213.874977
 31
0.0
  0
LINE
  5
B0
330
1F
100
AcDbEntity
  8
JISSEN
  6
Continuous
 62
     7
100
AcDbLine
 10
25.874979
 20
253.874977
 30
0.0
 11
79.874959
 21
253.874977
 31
0.0
  0
LINE
  5
B1
330
1F
100
AcDbEntity
  8
JISSEN
  6
Continuous
 62
     7
100
AcDbLine
 10
25.874979
 20
216.874977
 30
0.0
 11
25.874979
 21
253.874977
 31
0.0
  0
LINE
  5
B2
330
1F
100
AcDbEntity
  8
JISSEN
  6
Continuous
 62
     7
100
AcDbLine
 10
79.874959
 20
216.874977
 30
0.0
 11
25.874979
 21
216.874977
 31
0.0
  0
LINE
  5
B3
330
1F
100
AcDbEntity
  8
ITTEN
  6
CENTER
 62
     1
100
AcDbLine
 10
169.874959
 20
169.374977
 30
0.0
 11
169.874959
 21
124.374997
 31
0.0
  0
LINE
  5
B4
330
1F
100
AcDbEntity
  8
JISSEN
  6
Continuous
 62
     7
100
AcDbLine
 10
183.887579
 20
162.612407
 30
0.0
 11
186.150119
 21
164.874972
 31
0.0
  0
LINE
  5
B5
330
1F
100
AcDbEntity
  8
JISSEN
  6
Continuous
 62
     7
100
AcDbLine
 10
183.887579
 20
160.137539
 30
0.0
 11
186.150119
 21
157.874974
 31
0.0
  0
LINE
  5
B6
330
1F
100
AcDbEntity
  8
JISSEN
  6
Continuous
 62
     7
100
AcDbLine
 10
186.150119
 20
157.874974
 30
0.0
 11
187.150119
 21
157.874974
 31
0.0
  0
LINE
  5
B7
330
1F
100
AcDbEntity
  8
JISSEN
  6
Continuous
 62
     7
100
AcDbLine
 10
187.150119
 20
158.624989
 30
0.0
 11
187.150119
 21
157.874974
 31
0.0
  0
LINE
  5
B8
330
1F
100
AcDbEntity
  8
JISSEN
  6
Continuous
 62
     7
100
AcDbLine
 10
186.150119
 20
164.874972
 30
0.0
 11
187.150119
 21
164.874972
 31
0.0
  0
LINE
  5
B9
330
1F
100
AcDbEntity
  8
JISSEN
  6
Continuous
 62
     7
100
AcDbLine
 10
187.150119
 20
164.874972
 30
0.0
 11
187.150119
 21
164.124982
 31
0.0
  0
LINE
  5
BA
330
1F
100
AcDbEntity
  8
SLD-0_1
  6
Continuous
 62
     7
370
     0
100
AcDbLine
 10
20.2604743903
 20
285.0
 30
0.0
 11
196.7604743903
 21
285.0
 31
0.0
  0
LINE
  5
BB
330
1F
100
AcDbEntity
  8
SLD-0_1
  6
Continuous
 62
     7
370
     0
100
AcDbLine
 10
20.2604743903
 20
285.0
 30
0.0
 11
20.2604743903
 21
10.0
 31
0.0
  0
LINE
  5
BC
330
1F
100
AcDbEntity
  8
SLD-0_1
  6
Continuous
 62
     7
370
     0
100
AcDbLine
 10
20.2604743903
 20
10.0
 30
0.0
 11
196.7604743903
 21
10.0
 31
0.0
  0
LINE
  5
BD
330
1F
100
AcDbEntity
  8
SLD-0_1
  6
Continuous
 62
     7
370
     0
100
AcDbLine
 10
196.7604743903
 20
285.0
 30
0.0
 11
196.7604743903
 21
10.0
 31
0.0
  0
LINE
  5
BE
330
1F
100
AcDbEntity
  8
SLD-0_1
  6
Continuous
 62
     7
370
     0
100
AcDbLine
 10
127.0104743903
 20
50.75
 30
0.0
 11
196.7604743903
 21
50.75
 31
0.0
  0
LINE
  5
BF
330
1F
100
AcDbEntity
  8
SLD-0_1
  6
Continuous
 62
     7
370
     0
100
AcDbLine
 10
127.0104743903
 20
50.75
 30
0.0
 11
127.0104743903
 21
10.0
 31
0.0
  0
LINE
  5
C0
330
1F
100
AcDbEntity
  8
SLD-0_1
  6
Continuous
 62
     7
370
     0
100
AcDbLine
 10
127.0104743903
 20
22.75
 30
0.0
 11
196.7604743903
 21
22.75
 31
0.0
  0
LINE
  5
C1
330
1F
100
AcDbEntity
  8
SLD-0_1
  6
Continuous
 62
     7
370
     0
100
AcDbLine
 10
127.0104743903
 20
36.75
 30
0.0
 11
196.7604743903
 21
36.75
 31
0.0
  0
LINE
  5
C2
330
1F
100
AcDbEntity
  8
SLD-0_1
  6
Continuous
 62
     7
370
     0
100
AcDbLine
 10
72.5591889893
 20
157.4544005693
 30
0.0
 11
69.9706875897
 21
155.7380583821
 31
0.0
  0
LINE
  5
C3
330
1F
100
AcDbEntity
  8
SLD-0_1
  6
Continuous
 62
     7
370
     0
100
AcDbLine
 10
69.9706875897
 20
155.7380583821
 30
0.0
 11
71.3542254644
 21
158.5187045208
 31
0.0
  0
LINE
  5
C4
330
1F
100
AcDbEntity
  8
SLD-0_1
  6
Continuous
 62
     7
370
     0
100
AcDbLine
 10
69.9706875897
 20
155.7380583821
 30
0.0
 11
71.9567072268
 21
157.9865525451
 31
0.0
  0
LINE
  5
C5
330
1F
100
AcDbEntity
  8
JISSEN
100
AcDbLine
 10
71.9567072268
 20
157.9865525451
 30
0.0
 11
82.6775050037
 21
170.1242226732
 31
0.0
  0
LINE
  5
C6
330
1F
100
AcDbEntity
  8
JISSEN
100
AcDbLine
 10
82.6775050037
 20
170.1242226732
 30
0.0
 11
111.693076772
 21
170.1242226732
 31
0.0
  0
LINE
  5
C7
330
1F
100
AcDbEntity
  8
SLD-0_1
  6
Continuous
 62
     7
370
     0
100
AcDbLine
 10
70.5491114373
 20
230.6890522576
 30
0.0
 11
69.7127956818
 21
233.6801634151
 31
0.0
  0
LINE
  5
C8
330
1F
100
AcDbEntity
  8
SLD-0_1
  6
Continuous
 62
     7
370
     0
100
AcDbLine
 10
69.7127956818
 20
233.6801634151
 30
0.0
 11
71.9326211704
 21
231.5079422478
 31
0.0
  0
LINE
  5
C9
330
1F
100
AcDbEntity
  8
SLD-0_1
  6
Continuous
 62
     7
370
     0
100
AcDbLine
 10
69.7127956818
 20
233.6801634151
 30
0.0
 11
71.2408663039
 21
231.0984972527
 31
0.0
  0
LINE
  5
CA
330
1F
100
AcDbEntity
  8
JISSEN
100
AcDbLine
 10
71.2408663039
 20
231.0984972527
 30
0.0
 11
82.6775050037
 21
211.7763646785
 31
0.0
  0
LINE
  5
CB
330
1F
100
AcDbEntity
  8
JISSEN
100
AcDbLine
 10
82.6775050037
 20
211.7763646785
 30
0.0
 11
111.693076772
 21
211.7763646785
 31
0.0
  0
LINE
  5
CC
330
1F
100
AcDbEntity
  8
SLD-0_1
  6
Continuous
 62
     7
370
     0
100
AcDbLine
 10
158.9201251425
 20
128.2248956511
 30
0.0
 11
161.5504507927
 21
129.8764273563
 31
0.0
  0
LINE
  5
CD
330
1F
100
AcDbEntity
  8
SLD-0_1
  6
Continuous
 62
     7
370
     0
100
AcDbLine
 10
161.5504507927
 20
129.8764273563
 30
0.0
 11
160.0982868262
 21
127.1309966408
 31
0.0
  0
LINE
  5
CE
330
1F
100
AcDbEntity
  8
SLD-0_1
  6
Continuous
 62
     7
370
     0
100
AcDbLine
 10
161.5504507927
 20
129.8764273563
 30
0.0
 11
159.5092059844
 21
127.6779461459
 31
0.0
  0
LINE
  5
CF
330
1F
100
AcDbEntity
  8
JISSEN
100
AcDbLine
 10
159.5092059844
 20
127.6779461459
 30
0.0
 11
149.0545701031
 21
116.4179931738
 31
0.0
  0
LINE
  5
D0
330
1F
100
AcDbEntity
  8
JISSEN
100
AcDbLine
 10
149.0545701031
 20
116.4179931738
 30
0.0
 11
124.1120689948
 21
116.4179931738
 31
0.0
  0
CIRCLE
  5
D1
330
1F
100
AcDbEntity
  8
SAISEN
  6
Continuous
 62
     4
100
AcDbCircle
 10
28.874969
 20
54.625
 30
0.0
 40
1.5
  0
CIRCLE
  5
D2
330
1F
100
AcDbEntity
  8
JISSEN
  6
Continuous
 62
     7
100
AcDbCircle
 10
28.874969
 20
54.625
 30
0.0
 40
1.299999999999997
  0
CIRCLE
  5
D3
330
1F
100
AcDbEntity
  8
JISSEN
  6
Continuous
 62
     7
100
AcDbCircle
 10
76.874969
 20
54.625
 30
0.0
 40
1.299999999999983
  0
CIRCLE
  5
D4
330
1F
100
AcDbEntity
  8
SAISEN
  6
Continuous
 62
     4
100
AcDbCircle
 10
76.874969
 20
54.625
 30
0.0
 40
1.500000000000028
  0
ARC
  5
D5
330
1F
100
AcDbEntity
  8
JISSEN
  6
Continuous
 62
     7
100
AcDbCircle
 10
52.874969
 20
58.375
 30
0.0
 40
4.0
100
AcDbArc
 50
172.819244
 51
270.0
  0
ARC
  5
D6
330
1F
100
AcDbEntity
  8
JISSEN
  6
Continuous
 62
     7
100
AcDbCircle
 10
52.874969
 20
58.375
 30
0.0
 40
4.0
100
AcDbArc
 50
352.819244
 51
90.0
  0
ARC
  5
D7
330
1F
100
AcDbEntity
  8
JISSEN
  6
Continuous
 62
     7
100
AcDbCircle
 10
47.374969
 20
68.375
 30
0.0
 40
2.500000000000028
100
AcDbArc
 50
90.0
 51
156.421822
  0
ARC
  5
D8
330
1F
100
AcDbEntity
  8
JISSEN
  6
Continuous
 62
     7
100
AcDbCircle
 10
58.374969
 20
68.375
 30
0.0
 40
2.500000000000028
100
AcDbArc
 50
0.0
 51
90.0
  0
ARC
  5
D9
330
1F
100
AcDbEntity
  8
JISSEN
  6
Continuous
 62
     7
100
AcDbCircle
 10
58.374969
 20
48.375
 30
0.0
 40
2.500000000000008
100
AcDbArc
 50
270.0
 51
336.421822
  0
ARC
  5
DA
330
1F
100
AcDbEntity
  8
JISSEN
  6
Continuous
 62
     7
100
AcDbCircle
 10
47.374969
 20
48.375
 30
0.0
 40
2.5
100
AcDbArc
 50
180.0
 51
270.0
  0
ARC
  5
DB
330
1F
100
AcDbEntity
  8
JISSEN
  6
Continuous
 62
     7
100
AcDbCircle
 10
72.874969
 20
46.875
 30
0.0
 40
2.000000000020219
100
AcDbArc
 50
209.9999999996
 51
60.0
  0
ARC
  5
DC
330
1F
100
AcDbEntity
  8
JISSEN
  6
Continuous
 62
     7
100
AcDbCircle
 10
72.8749689278
 20
69.8750000417
 30
0.0
 40
2.000000083286198
100
AcDbArc
 50
300.0
 51
150.0000027568
  0
ARC
  5
DD
330
1F
100
AcDbEntity
  8
JISSEN
  6
Continuous
 62
     7
100
AcDbCircle
 10
32.874969
 20
46.875
 30
0.0
 40
2.000000000020222
100
AcDbArc
 50
120.0
 51
330.0000000004
  0
ARC
  5
DE
330
1F
100
AcDbEntity
  8
JISSEN
  6
Continuous
 62
     7
100
AcDbCircle
 10
32.8749690722
 20
69.8750000417
 30
0.0
 40
2.000000083286198
100
AcDbArc
 50
29.9999972432
 51
240.0
  0
ARC
  5
DF
330
1F
100
AcDbEntity
  8
JISSEN
  6
Continuous
 62
     7
100
AcDbCircle
 10
186.874969
 20
164.874978
 30
0.0
 40
1.5
100
AcDbArc
 50
0.0
 51
90.0
  0
ARC
  5
E0
330
1F
100
AcDbEntity
  8
JISSEN
  6
Continuous
 62
     7
100
AcDbCircle
 10
151.874949
 20
151.62499
 30
0.0
 40
0.5
100
AcDbArc
 50
180.0
 51
270.0
  0
ARC
  5
E1
330
1F
100
AcDbEntity
  8
JISSEN
  6
Continuous
 62
     7
100
AcDbCircle
 10
151.874949
 20
145.124994
 30
0.0
 40
0.5
100
AcDbArc
 50
90.0
 51
180.0
  0
ARC
  5
E2
330
1F
100
AcDbEntity
  8
JISSEN
  6
Continuous
 62
     7
100
AcDbCircle
 10
150.093709
 20
148.374992
 30
0.0
 40
4.281233000000034
100
AcDbArc
 50
320.03372
 51
39.966156
  0
ARC
  5
E3
330
1F
100
AcDbEntity
  8
JISSEN
  6
Continuous
 62
     7
100
AcDbCircle
 10
153.374929
 20
164.37497
 30
0.0
 40
2.0
100
AcDbArc
 50
90.0
 51
180.0
  0
ARC
  5
E4
330
1F
100
AcDbEntity
  8
JISSEN
  6
Continuous
 62
     7
100
AcDbCircle
 10
153.374929
 20
139.374987
 30
0.0
 40
2.0
100
AcDbArc
 50
180.0
 51
270.0
  0
ARC
  5
E5
330
1F
100
AcDbEntity
  8
JISSEN
  6
Continuous
 62
     7
100
AcDbCircle
 10
186.374969
 20
139.374987
 30
0.0
 40
2.0
100
AcDbArc
 50
270.0
 51
0.0
  0
CIRCLE
  5
E6
330
1F
100
AcDbEntity
  8
JISSEN
  6
Continuous
 62
     7
100
AcDbCircle
 10
162.874959
 20
141.874995
 30
0.0
 40
2.5
  0
CIRCLE
  5
E7
330
1F
100
AcDbEntity
  8
JISSEN
  6
Continuous
 62
     7
100
AcDbCircle
 10
176.874959
 20
141.874995
 30
0.0
 40
2.5
  0
ARC
  5
E8
330
1F
100
AcDbEntity
  8
JISSEN
  6
Continuous
 62
     7
100
AcDbCircle
 10
178.624979
 20
154.874989
 30
0.0
 40
5.250000000000048
100
AcDbArc
 50
231.54862
 51
128.45137
  0
ARC
  5
E9
330
1F
100
AcDbEntity
  8
JISSEN
  6
Continuous
 62
     7
100
AcDbCircle
 10
174.304139
 20
157.135005
 30
0.0
 40
1.500000000000002
100
AcDbArc
 50
277.32218
 51
46.881286
  0
ARC
  5
EA
330
1F
100
AcDbEntity
  8
JISSEN
  6
Continuous
 62
     7
100
AcDbCircle
 10
175.6711697315
 20
158.5948757812
 30
0.0
 40
0.499998929741573
100
AcDbArc
 50
128.45129
 51
226.8801845556
  0
CIRCLE
  5
EB
330
1F
100
AcDbEntity
  8
JISSEN
  6
Continuous
 62
     7
100
AcDbCircle
 10
174.304139
 20
157.135005
 30
0.0
 40
0.75
  0
ARC
  5
EC
330
1F
100
AcDbEntity
  8
JISSEN
  6
Continuous
 62
     7
100
AcDbCircle
 10
174.304139
 20
152.614972
 30
0.0
 40
1.50000000000003
100
AcDbArc
 50
313.11871
 51
82.67781
  0
ARC
  5
ED
330
1F
100
AcDbEntity
  8
JISSEN
  6
Continuous
 62
     7
100
AcDbCircle
 10
175.6711697315
 20
151.1551012188
 30
0.0
 40
0.4999989297433263
100
AcDbArc
 50
133.1198274444
 51
231.5487
  0
CIRCLE
  5
EE
330
1F
100
AcDbEntity
  8
JISSEN
  6
Continuous
 62
     7
100
AcDbCircle
 10
174.304139
 20
152.614972
 30
0.0
 40
0.75
  0
CIRCLE
  5
EF
330
1F
100
AcDbEntity
  8
SAISEN
  6
Continuous
 62
     4
100
AcDbCircle
 10
28.874939
 20
141.874971
 30
0.0
 40
1.500000000000007
  0
CIRCLE
  5
F0
330
1F
100
AcDbEntity
  8
SAISEN
  6
Continuous
 62
     4
100
AcDbCircle
 10
76.874949
 20
141.874971
 30
0.0
 40
1.5
  0
CIRCLE
  5
F1
330
1F
100
AcDbEntity
  8
JISSEN
  6
Continuous
 62
     7
100
AcDbCircle
 10
28.874939
 20
141.874971
 30
0.0
 40
1.250000000000007
  0
CIRCLE
  5
F2
330
1F
100
AcDbEntity
  8
JISSEN
  6
Continuous
 62
     7
100
AcDbCircle
 10
76.874949
 20
141.874971
 30
0.0
 40
1.25
  0
CIRCLE
  5
F3
330
1F
100
AcDbEntity
  8
SAISEN
  6
Continuous
 62
     4
100
AcDbCircle
 10
37.874969
 20
154.374987
 30
0.0
 40
2.500000000000014
  0
CIRCLE
  5
F4
330
1F
100
AcDbEntity
  8
SAISEN
  6
Continuous
 62
     4
100
AcDbCircle
 10
67.874969
 20
154.374987
 30
0.0
 40
2.500000000000014
  0
CIRCLE
  5
F5
330
1F
100
AcDbEntity
  8
JISSEN
  6
Continuous
 62
     7
100
AcDbCircle
 10
37.874969
 20
154.374987
 30
0.0
 40
2.100000000000023
  0
CIRCLE
  5
F6
330
1F
100
AcDbEntity
  8
JISSEN
  6
Continuous
 62
     7
100
AcDbCircle
 10
67.874969
 20
154.374987
 30
0.0
 40
2.100000000000009
  0
ARC
  5
F7
330
1F
100
AcDbEntity
  8
JISSEN
  6
Continuous
 62
     7
100
AcDbCircle
 10
157.667869
 20
165.874975
 30
0.0
 40
0.500000000000004
100
AcDbArc
 50
45.0
 51
90.0
  0
ARC
  5
F8
330
1F
100
AcDbEntity
  8
JISSEN
  6
Continuous
 62
     7
100
AcDbCircle
 10
164.082049
 20
165.874975
 30
0.0
 40
0.500000000000004
100
AcDbArc
 50
90.0
 51
135.0
  0
ARC
  5
F9
330
1F
100
AcDbEntity
  8
JISSEN
  6
Continuous
 62
     7
100
AcDbCircle
 10
160.874959
 20
164.082101
 30
0.0
 40
0.500000000000004
100
AcDbArc
 50
225.0
 51
315.0
  0
CIRCLE
  5
FA
330
1F
100
AcDbEntity
  8
SAISEN
  6
Continuous
 62
     4
100
AcDbCircle
 10
162.874959
 20
131.374986
 30
0.0
 40
2.0
  0
CIRCLE
  5
FB
330
1F
100
AcDbEntity
  8
SAISEN
  6
Continuous
 62
     4
100
AcDbCircle
 10
176.874939
 20
131.374986
 30
0.0
 40
2.0
  0
CIRCLE
  5
FC
330
1F
100
AcDbEntity
  8
JISSEN
  6
Continuous
 62
     7
100
AcDbCircle
 10
162.874959
 20
131.374986
 30
0.0
 40
1.650000000000006
  0
CIRCLE
  5
FD
330
1F
100
AcDbEntity
  8
JISSEN
  6
Continuous
 62
     7
100
AcDbCircle
 10
176.874939
 20
131.374986
 30
0.0
 40
1.650000000000006
  0
ARC
  5
FE
330
1F
100
AcDbEntity
  8
JISSEN
  6
Continuous
 62
     7
100
AcDbCircle
 10
185.124979
 20
148.374967
 30
0.0
 40
1.750000000000022
100
AcDbArc
 50
134.99971
 51
225.00028
  0
CIRCLE
  5
FF
330
1F
100
AcDbEntity
  8
JISSEN
  6
Continuous
 62
     7
100
AcDbCircle
 10
178.874939
 20
154.874989
 30
0.0
 40
6.500000999999998
  0
CIRCLE
  5
100
330
1F
100
AcDbEntity
  8
SAISEN
  6
Continuous
 62
     4
100
AcDbCircle
 10
37.874989
 20
235.374977
 30
0.0
 40
2.5
  0
CIRCLE
  5
101
330
1F
100
AcDbEntity
  8
SAISEN
  6
Continuous
 62
     4
100
AcDbCircle
 10
67.874969
 20
235.374977
 30
0.0
 40
2.500000000000014
  0
CIRCLE
  5
102
330
1F
100
AcDbEntity
  8
JISSEN
  6
Continuous
 62
     7
100
AcDbCircle
 10
37.874989
 20
235.374977
 30
0.0
 40
2.100000000000009
  0
CIRCLE
  5
103
330
1F
100
AcDbEntity
  8
JISSEN
  6
Continuous
 62
     7
100
AcDbCircle
 10
67.874969
 20
235.374977
 30
0.0
 40
2.100000000000009
  0
CIRCLE
  5
104
330
1F
100
AcDbEntity
  8
JISSEN
  6
Continuous
 62
     7
100
AcDbCircle
 10
155.374939
 20
158.375
 30
0.0
 40
1.0
  0
CIRCLE
  5
105
330
1F
100
AcDbEntity
  8
JISSEN
  6
Continuous
 62
     7
100
AcDbCircle
 10
52.874969
 20
235.374977
 30
0.0
 40
1.500000000000014
  0
CIRCLE
  5
106
330
1F
100
AcDbEntity
  8
SAISEN
  6
Continuous
 62
     4
100
AcDbCircle
 10
155.374939
 20
158.375
 30
0.0
 40
2.5
  0
CIRCLE
  5
107
330
1F
100
AcDbEntity
  8
JISSEN
  6
Continuous
 62
     7
100
AcDbCircle
 10
155.374939
 20
158.375
 30
0.0
 40
2.099999999999994
  0
CIRCLE
  5
108
330
1F
100
AcDbEntity
  8
SAISEN
  6
Continuous
 62
     4
100
AcDbCircle
 10
168.874959
 20
158.374975
 30
0.0
 40
2.5
  0
CIRCLE
  5
109
330
1F
100
AcDbEntity
  8
JISSEN
  6
Continuous
 62
     7
100
AcDbCircle
 10
168.874959
 20
158.374975
 30
0.0
 40
2.099999999999994
  0
ARC
  5
10A
330
1F
100
AcDbEntity
  8
JISSEN
  6
Continuous
 62
     7
100
AcDbCircle
 10
185.124979
 20
161.374985
 30
0.0
 40
1.75000000000007
100
AcDbArc
 50
134.99971
 51
225.00028
  0
DIMENSION
  5
10B
330
1F
100
AcDbEntity
  8
JISSEN
100
AcDbDimension
  2
*D2
 10
31.874979
 20
117.9732691405
 30
0.0
 11
34.874964
 21
117.9732691405
 31
0.0
 70
   160
 71
     1
 42
5.99997
  3
SLDDIMSTYLE0
100
AcDbAlignedDimension
 13
37.874949
 23
127.374997
 33
0.0
 14
31.874979
 24
127.374997
 34
0.0
100
AcDbRotatedDimension
1001
ACAD
1000
DSTYLE
1002
{
1070
    77
1070
     3
1070
   143
1040
0.0393700787
1070
    41
1040
3.0
1070
    44
1040
1.0
1070
    42
1040
1.0
1070
   147
1040
1.524
1070
    73
1070
     0
1070
    74
1070
     0
1070
   140
1040
3.0
1070
   284
1070
    12
1070
    78
1070
     4
1002
}
  0
DIMENSION
  5
12B
330
1F
100
AcDbEntity
  8
JISSEN
100
AcDbDimension
  2
*D4
 10
25.874979
 20
180.5533010815
 30
0.0
 11
52.874969
 21
180.5533010815
 31
0.0
 70
   160
 71
     1
 42
53.99998
  3
SLDDIMSTYLE0
100
AcDbAlignedDimension
 13
79.874959
 23
137.374981
 33
0.0
 14
25.874979
 24
137.374981
 34
0.0
100
AcDbRotatedDimension
1001
ACAD
1000
DSTYLE
1002
{
1070
    77
1070
     3
1070
   143
1040
0.0393700787
1070
    41
1040
3.0
1070
    44
1040
1.0
1070
    42
1040
1.0
1070
   147
1040
1.524
1070
    73
1070
     0
1070
    74
1070
     0
1070
   140
1040
3.0
1070
   284
1070
    12
1070
    78
1070
     4
1002
}
  0
DIMENSION
  5
142
330
1F
100
AcDbEntity
  8
JISSEN
100
AcDbDimension
  2
*D5
 10
37.874949
 20
117.9732691405
 30
0.0
 11
52.874949
 21
117.9732691405
 31
0.0
 70
   160
  1
Max30/Min15
 71
     1
 42
30.0
  3
SLDDIMSTYLE1
100
AcDbAlignedDimension
 13
67.874949
 23
127.374997
 33
0.0
 14
37.874949
 24
127.374997
 34
0.0
100
AcDbRotatedDimension
1001
ACAD
1000
DSTYLE
1002
{
1070
    77
1070
     3
1070
   143
1040
0.0393700787
1070
    41
1040
3.0
1070
    44
1040
1.0
1070
    42
1040
1.0
1070
   147
1040
1.524
1070
    73
1070
     0
1070
    74
1070
     0
1070
   140
1040
3.0
1070
   284
1070
    12
1070
    78
1070
    12
1002
}
  0
DIMENSION
  5
15C
330
1F
100
AcDbEntity
  8
JISSEN
100
AcDbDimension
  2
*D6
 10
67.874949
 20
117.9732691405
 30
0.0
 11
70.874959
 21
117.9732691405
 31
0.0
 70
   160
 71
     1
 42
6.00002
  3
SLDDIMSTYLE0
100
AcDbAlignedDimension
 13
73.874969
 23
127.374997
 33
0.0
 14
67.874949
 24
127.374997
 34
0.0
100
AcDbRotatedDimension
1001
ACAD
1000
DSTYLE
1002
{
1070
    77
1070
     3
1070
   143
1040
0.0393700787
1070
    41
1040
3.0
1070
    44
1040
1.0
1070
    42
1040
1.0
1070
   147
1040
1.524
1070
    73
1070
     0
1070
    74
1070
     0
1070
   140
1040
3.0
1070
   284
1070
    12
1070
    78
1070
     4
1002
}
  0
DIMENSION
  5
176
330
1F
100
AcDbEntity
  8
JISSEN
100
AcDbDimension
  2
*D7
 10
93.0128859021
 20
127.374997
 30
0.0
 11
93.0128859021
 21
132.374989
 31
0.0
 70
   160
 71
     1
 42
9.999984
  3
SLDDIMSTYLE0
100
AcDbAlignedDimension
 13
79.874959
 23
137.374981
 33
0.0
 14
73.874969
 24
127.374997
 34
0.0
 50
90.0
100
AcDbRotatedDimension
1001
ACAD
1000
DSTYLE
1002
{
1070
    77
1070
     3
1070
   143
1040
0.0393700787
1070
    41
1040
3.0
1070
    44
1040
1.0
1070
    42
1040
1.0
1070
   147
1040
1.524
1070
    73
1070
     0
1070
    74
1070
     0
1070
   140
1040
3.0
1070
   284
1070
    12
1070
    78
1070
     4
1002
}
  0
DIMENSION
  5
18E
330
1F
100
AcDbEntity
  8
JISSEN
100
AcDbDimension
  2
*D8
 10
93.0128859021
 20
166.374977
 30
0.0
 11
93.0128859021
 21
151.874979
 31
0.0
 70
   160
 71
     1
 42
28.999996
  3
SLDDIMSTYLE0
100
AcDbAlignedDimension
 13
79.874959
 23
137.374981
 33
0.0
 14
79.874959
 24
166.374977
 34
0.0
 50
90.0
100
AcDbRotatedDimension
1001
ACAD
1000
DSTYLE
1002
{
1070
    77
1070
     3
1070
   143
1040
0.0393700787
1070
    41
1040
3.0
1070
    44
1040
1.0
1070
    42
1040
1.0
1070
   147
1040
1.524
1070
    73
1070
     0
1070
    74
1070
     0
1070
   140
1040
3.0
1070
   284
1070
    12
1070
    78
1070
     4
1002
}
  0
DIMENSION
  5
1A6
330
1F
100
AcDbEntity
  8
JISSEN
100
AcDbDimension
  2
*D9
 10
86.0193380376
 20
166.374977
 30
0.0
 11
86.0193380376
 21
160.374982
 31
0.0
 70
   160
 71
     1
 42
11.99999
  3
SLDDIMSTYLE0
100
AcDbAlignedDimension
 13
73.374969
 23
154.374987
 33
0.0
 14
79.874959
 24
166.374977
 34
0.0
 50
90.0
100
AcDbRotatedDimension
1001
ACAD
1000
DSTYLE
1002
{
1070
    77
1070
     3
1070
   143
1040
0.0393700787
1070
    41
1040
3.0
1070
    44
1040
1.0
1070
    42
1040
1.0
1070
   147
1040
1.524
1070
    73
1070
     0
1070
    74
1070
     0
1070
   140
1040
3.0
1070
   284
1070
    12
1070
    78
1070
     4
1002
}
  0
DIMENSION
  5
1BE
330
1F
100
AcDbEntity
  8
JISSEN
100
AcDbDimension
  2
*D10
 10
37.874969
 20
173.4234152179
 30
0.0
 11
52.874969
 21
173.4234152179
 31
0.0
 70
   160
 71
     1
 42
30.0
  3
SLDDIMSTYLE0
100
AcDbAlignedDimension
 13
67.874969
 23
159.874987
 33
0.0
 14
37.874969
 24
159.874987
 34
0.0
100
AcDbRotatedDimension
1001
ACAD
1000
DSTYLE
1002
{
1070
    77
1070
     3
1070
   143
1040
0.0393700787
1070
    41
1040
3.0
1070
    44
1040
1.0
1070
    42
1040
1.0
1070
   147
1040
1.524
1070
    73
1070
     0
1070
    74
1070
     0
1070
   140
1040
3.0
1070
   284
1070
    12
1070
    78
1070
     4
1002
}
  0
DIMENSION
  5
1D5
330
1F
100
AcDbEntity
  8
JISSEN
100
AcDbDimension
  2
*D11
 10
37.874989
 20
198.7172936739
 30
0.0
 11
52.874979
 21
198.7172936739
 31
0.0
 70
   160
 71
     1
 42
29.99998
  3
SLDDIMSTYLE0
100
AcDbAlignedDimension
 13
67.874969
 23
229.874977
 33
0.0
 14
37.874989
 24
229.874977
 34
0.0
100
AcDbRotatedDimension
1001
ACAD
1000
DSTYLE
1002
{
1070
    77
1070
     3
1070
   143
1040
0.0393700787
1070
    41
1040
3.0
1070
    44
1040
1.0
1070
    42
1040
1.0
1070
   147
1040
1.524
1070
    73
1070
     0
1070
    74
1070
     0
1070
   140
1040
3.0
1070
   284
1070
    12
1070
    78
1070
     4
1002
}
  0
DIMENSION
  5
1EC
330
1F
100
AcDbEntity
  8
JISSEN
100
AcDbDimension
  2
*D12
 10
162.874959
 20
118.0986631312
 30
0.0
 11
169.874949
 21
118.0986631312
 31
0.0
 70
   160
 71
     1
 42
13.99998
  3
SLDDIMSTYLE0
100
AcDbAlignedDimension
 13
176.874939
 23
126.374986
 33
0.0
 14
162.874959
 24
126.374986
 34
0.0
100
AcDbRotatedDimension
1001
ACAD
1000
DSTYLE
1002
{
1070
    77
1070
     3
1070
   143
1040
0.0393700787
1070
    41
1040
3.0
1070
    44
1040
1.0
1070
    42
1040
1.0
1070
   147
1040
1.524
1070
    73
1070
     0
1070
    74
1070
     0
1070
   140
1040
3.0
1070
   284
1070
    12
1070
    78
1070
     4
1002
}
  0
DIMENSION
  5
203
330
1F
100
AcDbEntity
  8
JISSEN
100
AcDbDimension
  2
*D13
 10
180.874949
 20
107.7172970836
 30
0.0
 11
169.874964
 21
107.7172970836
 31
0.0
 70
   160
 71
     1
 42
21.99997
  3
SLDDIMSTYLE0
100
AcDbAlignedDimension
 13
158.874979
 23
127.374997
 33
0.0
 14
180.874949
 24
127.374997
 34
0.0
100
AcDbRotatedDimension
1001
ACAD
1000
DSTYLE
1002
{
1070
    77
1070
     3
1070
   143
1040
0.0393700787
1070
    41
1040
3.0
1070
    44
1040
1.0
1070
    42
1040
1.0
1070
   147
1040
1.524
1070
    73
1070
     0
1070
    74
1070
     0
1070
   140
1040
3.0
1070
   284
1070
    12
1070
    78
1070
     4
1002
}
  0
DIMENSION
  5
21A
330
1F
100
AcDbEntity
  8
JISSEN
100
AcDbDimension
  2
*D14
 10
141.3481602793
 20
131.3749694924
 30
0.0
 11
141.348139897
 21
148.8749627424
 31
0.0
 70
   160
 71
     1
 42
34.9999865
  3
SLDDIMSTYLE0
100
AcDbAlignedDimension
 13
153.374929
 23
166.37497
 33
0.0
 14
157.874959
 24
131.3749887412
 34
0.0
 50
-89.9999332674
100
AcDbRotatedDimension
1001
ACAD
1000
DSTYLE
1002
{
1070
    77
1070
     3
1070
   143
1040
0.0393700787
1070
    41
1040
3.0
1070
    44
1040
1.0
1070
    42
1040
1.0
1070
   147
1040
1.524
1070
    73
1070
     0
1070
    74
1070
     0
1070
   140
1040
3.0
1070
   284
1070
    12
1070
    78
1070
     4
1002
}
  0
DIMENSION
  5
232
330
1F
100
AcDbEntity
  8
JISSEN
100
AcDbDimension
  2
*D15
 10
146.9987772419
 20
158.3749902442
 30
0.0
 11
146.9987725831
 21
162.3749764089
 31
0.0
 70
   160
 71
     1
 42
7.9999723294
  3
SLDDIMSTYLE0
100
AcDbAlignedDimension
 13
153.374929
 23
166.37497
 33
0.0
 14
149.874939
 24
158.3749935941
 34
0.0
 50
-89.9999332674
100
AcDbRotatedDimension
1001
ACAD
1000
DSTYLE
1002
{
1070
    77
1070
     3
1070
   143
1040
0.0393700787
1070
    41
1040
3.0
1070
    44
1040
1.0
1070
    42
1040
1.0
1070
   147
1040
1.524
1070
    73
1070
     0
1070
    74
1070
     0
1070
   140
1040
3.0
1070
   284
1070
    12
1070
    78
1070
     4
1002
}
  0
DIMENSION
  5
24A
330
1F
100
AcDbEntity
  8
JISSEN
100
AcDbDimension
  2
*D16
 10
151.374949
 20
171.319590337
 30
0.0
 11
144.624533623
 21
171.319590337
 31
0.0
 70
   160
 71
     1
 42
3.99999
  3
SLDDIMSTYLE0
100
AcDbAlignedDimension
 13
155.374939
 23
163.875
 33
0.0
 14
151.374949
 24
164.37497
 34
0.0
100
AcDbRotatedDimension
1001
ACAD
1000
DSTYLE
1002
{
1070
    77
1070
     3
1070
   143
1040
0.0393700787
1070
    41
1040
3.0
1070
    44
1040
1.0
1070
    42
1040
1.0
1070
   147
1040
1.524
1070
    73
1070
     0
1070
    74
1070
     0
1070
   140
1040
3.0
1070
   284
1070
    12
1070
    78
1070
     4
1002
}
  0
DIMENSION
  5
266
330
1F
100
AcDbEntity
  8
JISSEN
100
AcDbDimension
  2
*D17
 10
155.374939
 20
171.319590337
 30
0.0
 11
162.124949
 21
171.319590337
 31
0.0
 70
   160
 71
     1
 42
13.50002
  3
SLDDIMSTYLE2
100
AcDbAlignedDimension
 13
168.874959
 23
163.874975
 33
0.0
 14
155.374939
 24
163.875
 34
0.0
100
AcDbRotatedDimension
1001
ACAD
1000
DSTYLE
1002
{
1070
    77
1070
     3
1070
   143
1040
0.0393700787
1070
    41
1040
3.0
1070
    44
1040
1.0
1070
    42
1040
1.0
1070
   147
1040
1.524
1070
    73
1070
     0
1070
    74
1070
     0
1070
   140
1040
3.0
1070
   284
1070
    12
1070
    78
1070
    12
1002
}
  0
DIMENSION
  5
27E
330
1F
100
AcDbEntity
  8
JISSEN
100
AcDbDimension
  2
*D18
 10
188.374969
 20
176.050339422
 30
0.0
 11
169.874959
 21
176.050339422
 31
0.0
 70
   160
 71
     1
 42
37.00002
  3
SLDDIMSTYLE0
100
AcDbAlignedDimension
 13
151.374949
 23
164.37497
 33
0.0
 14
188.374969
 24
164.874978
 34
0.0
100
AcDbRotatedDimension
1001
ACAD
1000
DSTYLE
1002
{
1070
    77
1070
     3
1070
   143
1040
0.0393700787
1070
    41
1040
3.0
1070
    44
1040
1.0
1070
    42
1040
1.0
1070
   147
1040
1.524
1070
    73
1070
     0
1070
    74
1070
     0
1070
   140
1040
3.0
1070
   284
1070
    12
1070
    78
1070
     4
1002
}
  0
MTEXT
  5
295
330
1F
100
AcDbEntity
  8
JISSEN
100
AcDbMText
 10
83.1779663794
 20
174.1990606619
 30
0.0
 40
3.5
 41
0.0
 71
     1
 72
     1
  1
2-M5×0.8 深10
  7
SLDTEXTSTYLE0
 73
     1
 44
1.0
  0
MTEXT
  5
296
330
1F
100
AcDbEntity
  8
JISSEN
100
AcDbMText
 10
83.1779663794
 20
215.8496160055
 30
0.0
 40
3.5
 41
0.0
 71
     1
 72
     1
  1
2-M5×0.8 深10
  7
SLDTEXTSTYLE0
 73
     1
 44
1.0
  0
MTEXT
  5
297
330
1F
100
AcDbEntity
  8
JISSEN
100
AcDbMText
 10
124.1140637831
 20
120.492589963
 30
0.0
 40
3.5
 41
0.0
 71
     1
 72
     1
  1
2×2-M4×0.8
  7
SLDTEXTSTYLE0
 73
     1
 44
1.0
  0
MTEXT
  5
298
330
1F
100
AcDbEntity
  8
SLD-0_1
 62
     7
100
AcDbMText
 10
152.6769906748
 20
29.8867574891
 30
0.0
 40
4.2333333333
 41
0.0
 71
     1
 72
     1
  1
HLA-12AS
  7
SLDTEXTSTYLE0
 73
     1
 44
1.0
  0
MTEXT
  5
299
330
1F
100
AcDbEntity
  8
SLD-0_1
 62
     7
100
AcDbMText
 10
145.3564638853
 20
43.410571106
 30
0.0
 40
4.2333333333
 41
0.0
 71
     1
 72
     1
  1
薄型平行ハンド
  7
SLDTEXTSTYLE0
 73
     1
 44
1.0
  0
MTEXT
  5
29A
330
1F
100
AcDbEntity
  8
SLD-0_1
 62
     7
100
AcDbMText
 10
155.4568339356
 20
16.2924181598
 30
0.0
 40
4.2333333333
 41
0.0
 71
     1
 72
     1
  1
071996
  7
SLDTEXTSTYLE0
 73
     1
 44
1.0
  0
ENDSEC
  0
SECTION
  2
OBJECTS
  0
DICTIONARY
  5
C
330
0
100
AcDbDictionary
281
     1
  3
ACAD_GROUP
350
D
  3
ACAD_LAYOUT
350
1A
  3
ACAD_MLINESTYLE
350
17
  3
ACAD_PLOTSETTINGS
350
19
  3
ACAD_PLOTSTYLENAME
350
E
  0
DICTIONARY
  5
D
102
{ACAD_REACTORS
330
C
102
}
330
C
100
AcDbDictionary
281
     1
  0
DICTIONARY
  5
1A
102
{ACAD_REACTORS
330
C
102
}
330
C
100
AcDbDictionary
281
     1
  3
Layout1
350
1E
  3
Layout2
350
26
  3
Model
350
22
  0
DICTIONARY
  5
17
102
{ACAD_REACTORS
330
C
102
}
330
C
100
AcDbDictionary
281
     1
  3
Standard
350
18
  0
DICTIONARY
  5
19
102
{ACAD_REACTORS
330
C
102
}
330
C
100
AcDbDictionary
281
     1
  0
ACDBDICTIONARYWDFLT
  5
E
102
{ACAD_REACTORS
330
C
102
}
330
C
100
AcDbDictionary
281
     1
  3
Normal
350
F
100
AcDbDictionaryWithDefault
340
F
  0
LAYOUT
  5
1E
102
{ACAD_REACTORS
330
1A
102
}
330
1A
100
AcDbPlotSettings
  1

  2

  4

  6

 40
0.0
 41
0.0
 42
0.0
 43
0.0
 44
0.0
 45
0.0
 46
0.0
 47
0.0
 48
0.0
 49
0.0
140
0.0
141
0.0
142
1.0
143
1.0
 70
   688
 72
     0
 73
     0
 74
     5
  7

 75
    16
147
1.0
148
0.0
149
0.0
100
AcDbLayout
  1
Layout1
 70
     1
 71
     1
 10
0.0
 20
0.0
 11
0.0
 21
0.0
 12
0.0
 22
0.0
 32
0.0
 14
0.0
 24
0.0
 34
0.0
 15
0.0
 25
0.0
 35
0.0
146
0.0
 13
0.0
 23
0.0
 33
0.0
 16
1.0
 26
0.0
 36
0.0
 17
0.0
 27
1.0
 37
0.0
 76
     0
330
1B
  0
LAYOUT
  5
26
102
{ACAD_REACTORS
330
1A
102
}
330
1A
100
AcDbPlotSettings
  1

  2

  4

  6

 40
0.0
 41
0.0
 42
0.0
 43
0.0
 44
0.0
 45
0.0
 46
0.0
 47
0.0
 48
0.0
 49
0.0
140
0.0
141
0.0
142
1.0
143
1.0
 70
   688
 72
     0
 73
     0
 74
     5
  7

 75
    16
147
1.0
148
0.0
149
0.0
100
AcDbLayout
  1
Layout2
 70
     1
 71
     2
 10
0.0
 20
0.0
 11
0.0
 21
0.0
 12
0.0
 22
0.0
 32
0.0
 14
0.0
 24
0.0
 34
0.0
 15
0.0
 25
0.0
 35
0.0
146
0.0
 13
0.0
 23
0.0
 33
0.0
 16
1.0
 26
0.0
 36
0.0
 17
0.0
 27
1.0
 37
0.0
 76
     0
330
23
  0
LAYOUT
  5
22
102
{ACAD_REACTORS
330
1A
102
}
330
1A
100
AcDbPlotSettings
  1

  2

  4

  6

 40
0.0
 41
0.0
 42
0.0
 43
0.0
 44
0.0
 45
0.0
 46
0.0
 47
0.0
 48
0.0
 49
0.0
140
0.0
141
0.0
142
1.0
143
1.0
 70
  1712
 72
     0
 73
     0
 74
     0
  7

 75
     0
147
1.0
148
0.0
149
0.0
100
AcDbLayout
  1
Model
 70
     1
 71
     0
 10
0.0
 20
0.0
 11
0.0
 21
0.0
 12
0.0
 22
0.0
 32
0.0
 14
0.0
 24
0.0
 34
0.0
 15
210.0
 25
297.0
 35
0.0
146
0.0
 13
0.0
 23
0.0
 33
0.0
 16
1.0
 26
0.0
 36
0.0
 17
0.0
 27
1.0
 37
0.0
 76
     0
330
1F
  0
MLINESTYLE
  5
18
102
{ACAD_REACTORS
330
17
102
}
330
17
100
AcDbMlineStyle
  2
Standard
 70
     0
  3

 62
   256
 51
90.0
 52
90.0
 71
     2
 49
0.5
 62
   256
  6
BYLAYER
 49
-0.5
 62
   256
  6
BYLAYER
  0
ACDBPLACEHOLDER
  5
F
102
{ACAD_REACTORS
330
E
102
}
330
E
  0
ENDSEC
  0
EOF
