  0
SECTION
  2
HEADER
  9
$ACADVER
  1
AC1015
  9
$ACADMAINTVER
 70
     6
  9
$DWGCODEPAGE
  3
DOS932
  9
$INSBASE
 10
0.0
 20
0.0
 30
0.0
  9
$EXTMIN
 10
0.0
 20
0.0
 30
0.0
  9
$EXTMAX
 10
210.0
 20
297.0
 30
0.0
  9
$LIMMIN
 10
0.0
 20
0.0
  9
$LIMMAX
 10
0.0
 20
0.0
  9
$ORTHOMODE
 70
     0
  9
$REGENMODE
 70
     1
  9
$FILLMODE
 70
     1
  9
$QTEXTMODE
 70
     0
  9
$MIRRTEXT
 70
     1
  9
$LTSCALE
 40
1.0
  9
$ATTMODE
 70
     1
  9
$TEXTSIZE
 40
3.5
  9
$TRACEWID
 40
1.0
  9
$TEXTSTYLE
  7
Standard
  9
$CLAYER
  8
0
  9
$CELTYPE
  6
ByLayer
  9
$CECOLOR
 62
   256
  9
$CELTSCALE
 40
1.0
  9
$DISPSILH
 70
     0
  9
$DIMSCALE
 40
1.0
  9
$DIMASZ
 40
3.0
  9
$DIMEXO
 40
1.0
  9
$DIMDLI
 40
3.75
  9
$DIMRND
 40
0.0
  9
$DIMDLE
 40
0.0
  9
$DIMEXE
 40
1.0
  9
$DIMTP
 40
0.0
  9
$DIMTM
 40
0.0
  9
$DIMTXT
 40
3.0
  9
$DIMCEN
 40
2.5
  9
$DIMTSZ
 40
0.0
  9
$DIMTOL
 70
     0
  9
$DIMLIM
 70
     0
  9
$DIMTIH
 70
     1
  9
$DIMTOH
 70
     1
  9
$DIMSE1
 70
     0
  9
$DIMSE2
 70
     0
  9
$DIMTAD
 70
     1
  9
$DIMZIN
 70
     1
  9
$DIMBLK
  1

  9
$DIMASO
 70
     1
  9
$DIMSHO
 70
     1
  9
$DIMPOST
  1

  9
$DIMAPOST
  1

  9
$DIMALT
 70
     0
  9
$DIMALTD
 70
     3
  9
$DIMALTF
 40
0.0393700787
  9
$DIMLFAC
 40
1.0
  9
$DIMTOFL
 70
     1
  9
$DIMTVP
 40
0.0
  9
$DIMTIX
 70
     0
  9
$DIMSOXD
 70
     0
  9
$DIMSAH
 70
     0
  9
$DIMBLK1
  1

  9
$DIMBLK2
  1

  9
$DIMSTYLE
  2
ISO-25
  9
$DIMCLRD
 70
     0
  9
$DIMCLRE
 70
     0
  9
$DIMCLRT
 70
     0
  9
$DIMTFAC
 40
1.0
  9
$DIMGAP
 40
1.524
  9
$DIMJUST
 70
     0
  9
$DIMSD1
 70
     0
  9
$DIMSD2
 70
     0
  9
$DIMTOLJ
 70
     0
  9
$DIMTZIN
 70
     1
  9
$DIMALTZ
 70
     0
  9
$DIMALTTZ
 70
     0
  9
$DIMUPT
 70
     0
  9
$DIMDEC
 70
     2
  9
$DIMTDEC
 70
     2
  9
$DIMALTU
 70
     2
  9
$DIMALTTD
 70
     3
  9
$DIMTXSTY
  7
Standard
  9
$DIMAUNIT
 70
     0
  9
$DIMADEC
 70
     0
  9
$DIMALTRND
 40
0.0
  9
$DIMAZIN
 70
     0
  9
$DIMDSEP
 70
    44
  9
$DIMATFIT
 70
     3
  9
$DIMFRAC
 70
     0
  9
$DIMLDRBLK
  1

  9
$DIMLUNIT
 70
     2
  9
$DIMLWD
 70
    -2
  9
$DIMLWE
 70
    -2
  9
$DIMTMOVE
 70
     0
  9
$LUNITS
 70
     2
  9
$LUPREC
 70
     1
  9
$SKETCHINC
 40
1.0
  9
$FILLETRAD
 40
10.0
  9
$AUNITS
 70
     0
  9
$AUPREC
 70
     0
  9
$MENU
  1
.
  9
$ELEVATION
 40
0.0
  9
$PELEVATION
 40
0.0
  9
$THICKNESS
 40
0.0
  9
$LIMCHECK
 70
     0
  9
$CHAMFERA
 40
10.0
  9
$CHAMFERB
 40
10.0
  9
$CHAMFERC
 40
20.0
  9
$CHAMFERD
 40
0.0
  9
$SKPOLY
 70
     0
  9
$TDCREATE
 40
2454405.496795602
  9
$TDUCREATE
 40
2454405.121795602
  9
$TDUPDATE
 40
2454405.496795613
  9
$TDUUPDATE
 40
2454405.121795613
  9
$TDINDWG
 40
0.0000000116
  9
$TDUSRTIMER
 40
0.0000000116
  9
$USRTIMER
 70
     1
  9
$ANGBASE
 50
0.0
  9
$ANGDIR
 70
     0
  9
$PDMODE
 70
     0
  9
$PDSIZE
 40
-1.0
  9
$PLINEWID
 40
0.0
  9
$SPLFRAME
 70
     0
  9
$SPLINETYPE
 70
     6
  9
$SPLINESEGS
 70
     8
  9
$HANDSEED
  5
251
  9
$SURFTAB1
 70
     6
  9
$SURFTAB2
 70
     6
  9
$SURFTYPE
 70
     6
  9
$SURFU
 70
     6
  9
$SURFV
 70
     6
  9
$UCSBASE
  2

  9
$UCSNAME
  2

  9
$UCSORG
 10
0.0
 20
0.0
 30
0.0
  9
$UCSXDIR
 10
1.0
 20
0.0
 30
0.0
  9
$UCSYDIR
 10
0.0
 20
1.0
 30
0.0
  9
$UCSORTHOREF
  2

  9
$UCSORTHOVIEW
 70
     0
  9
$UCSORGTOP
 10
0.0
 20
0.0
 30
0.0
  9
$UCSORGBOTTOM
 10
0.0
 20
0.0
 30
0.0
  9
$UCSORGLEFT
 10
0.0
 20
0.0
 30
0.0
  9
$UCSORGRIGHT
 10
0.0
 20
0.0
 30
0.0
  9
$UCSORGFRONT
 10
0.0
 20
0.0
 30
0.0
  9
$UCSORGBACK
 10
0.0
 20
0.0
 30
0.0
  9
$PUCSBASE
  2

  9
$PUCSNAME
  2

  9
$PUCSORG
 10
0.0
 20
0.0
 30
0.0
  9
$PUCSXDIR
 10
1.0
 20
0.0
 30
0.0
  9
$PUCSYDIR
 10
0.0
 20
1.0
 30
0.0
  9
$PUCSORTHOREF
  2

  9
$PUCSORTHOVIEW
 70
     0
  9
$PUCSORGTOP
 10
0.0
 20
0.0
 30
0.0
  9
$PUCSORGBOTTOM
 10
0.0
 20
0.0
 30
0.0
  9
$PUCSORGLEFT
 10
0.0
 20
0.0
 30
0.0
  9
$PUCSORGRIGHT
 10
0.0
 20
0.0
 30
0.0
  9
$PUCSORGFRONT
 10
0.0
 20
0.0
 30
0.0
  9
$PUCSORGBACK
 10
0.0
 20
0.0
 30
0.0
  9
$USERI1
 70
     0
  9
$USERI2
 70
     0
  9
$USERI3
 70
     0
  9
$USERI4
 70
     0
  9
$USERI5
 70
     0
  9
$USERR1
 40
0.0
  9
$USERR2
 40
0.0
  9
$USERR3
 40
0.0
  9
$USERR4
 40
0.0
  9
$USERR5
 40
0.0
  9
$WORLDVIEW
 70
     1
  9
$SHADEDGE
 70
     3
  9
$SHADEDIF
 70
    70
  9
$TILEMODE
 70
     1
  9
$MAXACTVP
 70
    64
  9
$PINSBASE
 10
0.0
 20
0.0
 30
0.0
  9
$PLIMCHECK
 70
     0
  9
$PEXTMIN
 10
1.0000000000E+20
 20
1.0000000000E+20
 30
1.0000000000E+20
  9
$PEXTMAX
 10
-1.0000000000E+20
 20
-1.0000000000E+20
 30
-1.0000000000E+20
  9
$PLIMMIN
 10
0.0
 20
0.0
  9
$PLIMMAX
 10
420.0
 20
297.0
  9
$UNITMODE
 70
     0
  9
$VISRETAIN
 70
     1
  9
$PLINEGEN
 70
     0
  9
$PSLTSCALE
 70
     1
  9
$TREEDEPTH
 70
  3020
  9
$CMLSTYLE
  2
Standard
  9
$CMLJUST
 70
     0
  9
$CMLSCALE
 40
20.0
  9
$PROXYGRAPHICS
 70
     1
  9
$MEASUREMENT
 70
     1
  9
$CELWEIGHT
370
    -1
  9
$ENDCAPS
280
     0
  9
$JOINSTYLE
280
     0
  9
$LWDISPLAY
290
     1
  9
$INSUNITS
 70
     4
  9
$HYPERLINKBASE
  1

  9
$STYLESHEET
  1

  9
$XEDIT
290
     1
  9
$CEPSNTYPE
380
     0
  9
$PSTYLEMODE
290
     1
  9
$FINGERPRINTGUID
  2
{3C43FCC8-0ED4-4D59-BFFD-37CE02E93DC0}
  9
$VERSIONGUID
  2
{FAEB1C32-E019-11D5-929B-00C0DF256EC4}
  9
$EXTNAMES
290
     1
  9
$PSVPSCALE
 40
0.0
  9
$OLESTARTUP
290
     0
  0
ENDSEC
  0
SECTION
  2
CLASSES
  0
CLASS
  1
ACDBDICTIONARYWDFLT
  2
AcDbDictionaryWithDefault
  3
ObjectDBX Classes
 90
        0
280
     0
281
     0
  0
CLASS
  1
ACDBPLACEHOLDER
  2
AcDbPlaceHolder
  3
ObjectDBX Classes
 90
        0
280
     0
281
     0
  0
CLASS
  1
LAYOUT
  2
AcDbLayout
  3
ObjectDBX Classes
 90
        0
280
     0
281
     0
  0
ENDSEC
  0
SECTION
  2
TABLES
  0
TABLE
  2
VPORT
  5
8
330
0
100
AcDbSymbolTable
 70
     1
  0
VPORT
  5
29
330
8
100
AcDbSymbolTableRecord
100
AcDbViewportTableRecord
  2
*Active
 70
     0
 10
0.0
 20
0.0
 11
1.0
 21
1.0
 12
105.0
 22
148.5
 13
0.0
 23
0.0
 14
10.0
 24
10.0
 15
10.0
 25
10.0
 16
0.0
 26
0.0
 36
1.0
 17
0.0
 27
0.0
 37
0.0
 40
297.0
 41
1.9729729729
 42
50.0
 43
0.0
 44
0.0
 50
0.0
 51
0.0
 71
     0
 72
  2000
 73
     1
 74
     3
 75
     0
 76
     0
 77
     0
 78
     0
281
     0
 65
     1
110
0.0
120
0.0
130
0.0
111
1.0
121
0.0
131
0.0
112
0.0
122
1.0
132
0.0
 79
     0
146
0.0
  0
ENDTAB
  0
TABLE
  2
LTYPE
  5
5
330
0
100
AcDbSymbolTable
 70
     6
  0
LTYPE
  5
14
330
5
100
AcDbSymbolTableRecord
100
AcDbLinetypeTableRecord
  2
ByBlock
 70
     0
  3

 72
    65
 73
     0
 40
0.0
  0
LTYPE
  5
15
330
5
100
AcDbSymbolTableRecord
100
AcDbLinetypeTableRecord
  2
ByLayer
 70
     0
  3

 72
    65
 73
     0
 40
0.0
  0
LTYPE
  5
16
330
5
100
AcDbSymbolTableRecord
100
AcDbLinetypeTableRecord
  2
Continuous
 70
     0
  3
Solid line
 72
    65
 73
     0
 40
0.0
  0
LTYPE
  5
2A
330
5
100
AcDbSymbolTableRecord
100
AcDbLinetypeTableRecord
  2
HIDDEN
 70
     0
  3
Hidden __ __ __ __ __ __ __ __ __ __ __ __ __ __
 72
    65
 73
     2
 40
1.905
 49
1.27
 74
     0
 49
-0.635
 74
     0
  0
LTYPE
  5
2B
330
5
100
AcDbSymbolTableRecord
100
AcDbLinetypeTableRecord
  2
PHANTOM
 70
     0
  3
Phantom ______  __  __  ______  __  __  ______
 72
    65
 73
     6
 40
12.7
 49
6.35
 74
     0
 49
-1.27
 74
     0
 49
1.27
 74
     0
 49
-1.27
 74
     0
 49
1.27
 74
     0
 49
-1.27
 74
     0
  0
LTYPE
  5
2C
330
5
100
AcDbSymbolTableRecord
100
AcDbLinetypeTableRecord
  2
CENTER
 70
     0
  3
Center ____ _ ____ _ ____ _ ____ _ ____ _ ____
 72
    65
 73
     4
 40
10.16
 49
6.35
 74
     0
 49
-1.27
 74
     0
 49
1.27
 74
     0
 49
-1.27
 74
     0
  0
LTYPE
  5
2D
330
5
100
AcDbSymbolTableRecord
100
AcDbLinetypeTableRecord
  2
CENTERX2
 70
     0
  3
Center (2x) ________  __  ________  __  _____
 72
    65
 73
     4
 40
20.32
 49
12.7
 74
     0
 49
-2.54
 74
     0
 49
2.54
 74
     0
 49
-2.54
 74
     0
  0
LTYPE
  5
2E
330
5
100
AcDbSymbolTableRecord
100
AcDbLinetypeTableRecord
  2
DOT2
 70
     0
  3
Dot (.5x) ........................................
 72
    65
 73
     2
 40
0.635
 49
0.0
 74
     0
 49
-0.635
 74
     0
  0
ENDTAB
  0
TABLE
  2
LAYER
  5
2
330
0
100
AcDbSymbolTable
 70
    10
  0
LAYER
  5
10
330
2
100
AcDbSymbolTableRecord
100
AcDbLayerTableRecord
  2
0
 70
     0
 62
     7
  6
Continuous
370
    -3
390
F
  0
LAYER
  5
2F
330
2
100
AcDbSymbolTableRecord
100
AcDbLayerTableRecord
  2
SLD-0_0
 70
     0
 62
     7
  6
Continuous
370
     0
390
F
  0
LAYER
  5
30
330
2
100
AcDbSymbolTableRecord
100
AcDbLayerTableRecord
  2
SLD-0
 70
     0
 62
     7
  6
Continuous
370
     0
390
F
  0
LAYER
  5
31
330
2
100
AcDbSymbolTableRecord
100
AcDbLayerTableRecord
  2
HASEN
 70
     0
 62
     2
  6
HIDDEN
370
     0
390
F
  0
LAYER
  5
32
330
2
100
AcDbSymbolTableRecord
100
AcDbLayerTableRecord
  2
ITTEN
 70
     0
 62
     1
  6
CENTER
370
     0
390
F
  0
LAYER
  5
33
330
2
100
AcDbSymbolTableRecord
100
AcDbLayerTableRecord
  2
SUNPOU
 70
     0
 62
     3
  6
Continuous
370
     0
390
F
  0
LAYER
  5
34
330
2
100
AcDbSymbolTableRecord
100
AcDbLayerTableRecord
  2
TEXT
 70
     0
 62
     3
  6
Continuous
370
     0
390
F
  0
LAYER
  5
35
330
2
100
AcDbSymbolTableRecord
100
AcDbLayerTableRecord
  2
SAISEN
 70
     0
 62
     4
  6
Continuous
370
     0
390
F
  0
LAYER
  5
36
330
2
100
AcDbSymbolTableRecord
100
AcDbLayerTableRecord
  2
JISSEN
 70
     0
 62
     7
  6
Continuous
370
     0
390
F
  0
LAYER
  5
F9
330
2
100
AcDbSymbolTableRecord
100
AcDbLayerTableRecord
  2
Defpoints
 70
     0
 62
     7
  6
Continuous
290
     0
370
    -3
390
F
  0
ENDTAB
  0
TABLE
  2
STYLE
  5
3
330
0
100
AcDbSymbolTable
 70
     2
  0
STYLE
  5
11
330
3
100
AcDbSymbolTableRecord
100
AcDbTextStyleTableRecord
  2
Standard
 70
     0
 40
0.0
 41
1.0
 50
0.0
 71
     0
 42
2.5
  3
txt
  4
bigfont
  0
STYLE
  5
106
330
3
100
AcDbSymbolTableRecord
100
AcDbTextStyleTableRecord
  2
SLDTEXTSTYLE0
 70
     0
 40
0.0
 41
0.7
 50
0.0
 71
     0
 42
0.2
  3
TXT
  4
bigfont
  0
ENDTAB
  0
TABLE
  2
VIEW
  5
6
330
0
100
AcDbSymbolTable
 70
     0
  0
ENDTAB
  0
TABLE
  2
UCS
  5
7
330
0
100
AcDbSymbolTable
 70
     0
  0
ENDTAB
  0
TABLE
  2
APPID
  5
9
330
0
100
AcDbSymbolTable
 70
     1
  0
APPID
  5
12
330
9
100
AcDbSymbolTableRecord
100
AcDbRegAppTableRecord
  2
ACAD
 70
     0
  0
ENDTAB
  0
TABLE
  2
DIMSTYLE
  5
A
330
0
100
AcDbSymbolTable
 70
     4
100
AcDbDimStyleTable
  0
DIMSTYLE
105
27
330
A
100
AcDbSymbolTableRecord
100
AcDbDimStyleTableRecord
  2
ISO-25
 70
     0
 41
2.5
 42
0.625
 43
3.75
 44
1.25
 73
     0
 74
     0
 77
     1
 78
     8
140
2.5
141
2.5
143
0.0393700787
147
0.625
171
     3
172
     1
271
     2
272
     2
274
     3
278
    44
283
     0
284
     8
340
11
  0
DIMSTYLE
105
107
102
{ACAD_REACTORS
330
F8
330
114
330
129
330
152
330
166
330
17C
330
18F
330
1A2
330
1B6
330
1CB
330
1DE
330
1F2
330
207
330
21B
330
232
102
}
330
A
100
AcDbSymbolTableRecord
100
AcDbDimStyleTableRecord
  2
SLDDIMSTYLE0
 70
     0
 41
3.0
 44
0.0
 73
     0
 74
     0
 77
     3
 78
     4
140
3.0
147
0.75
173
     1
271
     1
272
     3
284
    12
340
106
341
108
343
108
344
108
  0
DIMSTYLE
105
14B
102
{ACAD_REACTORS
330
13E
102
}
330
A
100
AcDbSymbolTableRecord
100
AcDbDimStyleTableRecord
  2
SLDDIMSTYLE1
 70
     0
 41
3.0
 44
0.0
 73
     0
 74
     0
 77
     3
 78
    12
140
3.0
147
0.75
173
     1
271
     1
272
     3
284
    12
340
106
341
108
343
108
344
108
  0
DIMSTYLE
105
248
330
A
100
AcDbSymbolTableRecord
100
AcDbDimStyleTableRecord
  2
SLDDIMSTYLE2
 70
     0
 41
3.0
 44
0.0
140
3.0
147
0.75
173
     1
271
     0
272
     0
340
11
341
108
343
108
344
108
  0
ENDTAB
  0
TABLE
  2
BLOCK_RECORD
  5
1
330
0
100
AcDbSymbolTable
 70
    18
  0
BLOCK_RECORD
  5
1F
330
1
100
AcDbSymbolTableRecord
100
AcDbBlockTableRecord
  2
*Model_Space
340
22
  0
BLOCK_RECORD
  5
1B
330
1
100
AcDbSymbolTableRecord
100
AcDbBlockTableRecord
  2
*Paper_Space
340
1E
  0
BLOCK_RECORD
  5
23
330
1
100
AcDbSymbolTableRecord
100
AcDbBlockTableRecord
  2
*Paper_Space0
340
26
  0
BLOCK_RECORD
  5
FA
330
1
100
AcDbSymbolTableRecord
100
AcDbBlockTableRecord
  2
*D1
340
0
  0
BLOCK_RECORD
  5
108
330
1
100
AcDbSymbolTableRecord
100
AcDbBlockTableRecord
  2
_Open30
340
0
102
{BLKREFS
331
FF
331
FE
331
10E
331
10F
331
11A
331
119
331
121
331
122
331
12F
331
12E
331
136
331
137
331
144
331
143
331
14C
331
14D
331
158
331
157
331
160
331
161
331
16C
331
16B
331
174
331
175
331
182
331
181
331
189
331
18A
331
195
331
194
331
19C
331
19D
331
1A8
331
1A7
331
1B0
331
1B1
331
1BC
331
1BB
331
1C3
331
1C4
331
1D1
331
1D0
331
1D8
331
1D9
331
1E4
331
1E3
331
1EC
331
1ED
331
1FA
331
1F9
331
201
331
202
331
20D
331
20C
331
215
331
216
331
223
331
222
331
22A
331
22B
331
238
331
237
331
23F
331
240
102
}
  0
BLOCK_RECORD
  5
115
330
1
100
AcDbSymbolTableRecord
100
AcDbBlockTableRecord
  2
*D3
340
0
  0
BLOCK_RECORD
  5
12A
330
1
100
AcDbSymbolTableRecord
100
AcDbBlockTableRecord
  2
*D4
340
0
  0
BLOCK_RECORD
  5
13F
330
1
100
AcDbSymbolTableRecord
100
AcDbBlockTableRecord
  2
*D5
340
0
  0
BLOCK_RECORD
  5
153
330
1
100
AcDbSymbolTableRecord
100
AcDbBlockTableRecord
  2
*D6
340
0
  0
BLOCK_RECORD
  5
167
330
1
100
AcDbSymbolTableRecord
100
AcDbBlockTableRecord
  2
*D7
340
0
  0
BLOCK_RECORD
  5
17D
330
1
100
AcDbSymbolTableRecord
100
AcDbBlockTableRecord
  2
*D8
340
0
  0
BLOCK_RECORD
  5
190
330
1
100
AcDbSymbolTableRecord
100
AcDbBlockTableRecord
  2
*D9
340
0
  0
BLOCK_RECORD
  5
1A3
330
1
100
AcDbSymbolTableRecord
100
AcDbBlockTableRecord
  2
*D10
340
0
  0
BLOCK_RECORD
  5
1B7
330
1
100
AcDbSymbolTableRecord
100
AcDbBlockTableRecord
  2
*D11
340
0
  0
BLOCK_RECORD
  5
1CC
330
1
100
AcDbSymbolTableRecord
100
AcDbBlockTableRecord
  2
*D12
340
0
  0
BLOCK_RECORD
  5
1DF
330
1
100
AcDbSymbolTableRecord
100
AcDbBlockTableRecord
  2
*D13
340
0
  0
BLOCK_RECORD
  5
1F3
330
1
100
AcDbSymbolTableRecord
100
AcDbBlockTableRecord
  2
*D14
340
0
  0
BLOCK_RECORD
  5
208
330
1
100
AcDbSymbolTableRecord
100
AcDbBlockTableRecord
  2
*D15
340
0
  0
BLOCK_RECORD
  5
21C
330
1
100
AcDbSymbolTableRecord
100
AcDbBlockTableRecord
  2
*D16
340
0
  0
BLOCK_RECORD
  5
233
330
1
100
AcDbSymbolTableRecord
100
AcDbBlockTableRecord
  2
*D17
340
0
  0
ENDTAB
  0
ENDSEC
  0
SECTION
  2
BLOCKS
  0
BLOCK
  5
20
330
1F
100
AcDbEntity
  8
0
100
AcDbBlockBegin
  2
*Model_Space
 70
     0
 71
     0
 10
0.0
 20
0.0
 30
0.0
  3
*Model_Space
  1

  0
ENDBLK
  5
21
330
1F
100
AcDbEntity
  8
0
100
AcDbBlockEnd
  0
BLOCK
  5
1C
330
1B
100
AcDbEntity
 67
     1
  8
0
100
AcDbBlockBegin
  2
*Paper_Space
 70
     0
 71
     0
 10
0.0
 20
0.0
 30
0.0
  3
*Paper_Space
  1

  0
ENDBLK
  5
1D
330
1B
100
AcDbEntity
 67
     1
  8
0
100
AcDbBlockEnd
  0
BLOCK
  5
24
330
23
100
AcDbEntity
  8
0
100
AcDbBlockBegin
  2
*Paper_Space0
 70
     0
 71
     0
 10
0.0
 20
0.0
 30
0.0
  3
*Paper_Space0
  1

  0
ENDBLK
  5
25
330
23
100
AcDbEntity
  8
0
100
AcDbBlockEnd
  0
BLOCK
  5
104
330
FA
100
AcDbEntity
  8
0
100
AcDbBlockBegin
  2
*D1
 70
     1
 71
     0
 10
0.0
 20
0.0
 30
0.0
  3
*D1
  1

  0
INSERT
  5
10E
330
FA
100
AcDbEntity
  8
JISSEN
100
AcDbBlockReference
  2
_Open30
 10
30.0
 20
222.20839445
 30
0.1
 41
3.0
 42
3.0
 50
180.0
  0
INSERT
  5
10F
330
FA
100
AcDbEntity
  8
JISSEN
100
AcDbBlockReference
  2
_Open30
 10
89.999999
 20
222.20839445
 30
0.1
 41
3.0
 42
3.0
 50
0.0
  0
LINE
  5
110
330
FA
100
AcDbEntity
  8
JISSEN
100
AcDbLine
 10
30.0
 20
254.999965
 30
0.0
 11
30.0
 21
221.20839445
 31
0.0
  0
LINE
  5
111
330
FA
100
AcDbEntity
  8
JISSEN
100
AcDbLine
 10
89.999999
 20
254.999965
 30
0.0
 11
89.999999
 21
221.20839445
 31
0.0
  0
LINE
  5
112
330
FA
100
AcDbEntity
  8
JISSEN
100
AcDbLine
 10
30.0
 20
222.20839445
 30
0.0
 11
89.999999
 21
222.20839445
 31
0.0
  0
MTEXT
  5
113
330
FA
100
AcDbEntity
  8
JISSEN
100
AcDbMText
 10
56.5098375763
 20
225.6993034827
 30
0.0
 40
3.0
 41
0.0
 71
     1
 72
     1
  1
60.0
  7
SLDTEXTSTYLE0
 73
     1
 44
1.0
  0
ENDBLK
  5
105
330
FA
100
AcDbEntity
  8
0
100
AcDbBlockEnd
  0
BLOCK
  5
109
330
108
100
AcDbEntity
  8
0
100
AcDbBlockBegin
  2
_Open30
 70
     0
 71
     0
 10
0.0
 20
0.0
 30
0.0
  3
_Open30
  1

  0
LINE
  5
10B
330
108
100
AcDbEntity
  8
0
  6
ByBlock
 62
     0
370
    -2
100
AcDbLine
 10
-1.0
 20
0.267949
 30
0.0
 11
0.0
 21
0.0
 31
0.0
  0
LINE
  5
10C
330
108
100
AcDbEntity
  8
0
  6
ByBlock
 62
     0
370
    -2
100
AcDbLine
 10
0.0
 20
0.0
 30
0.0
 11
-1.0
 21
-0.267949
 31
0.0
  0
LINE
  5
10D
330
108
100
AcDbEntity
  8
0
  6
ByBlock
 62
     0
370
    -2
100
AcDbLine
 10
0.0
 20
0.0
 30
0.0
 11
-1.0
 21
0.0
 31
0.0
  0
ENDBLK
  5
10A
330
108
100
AcDbEntity
  8
0
100
AcDbBlockEnd
  0
BLOCK
  5
11F
330
115
100
AcDbEntity
  8
0
100
AcDbBlockBegin
  2
*D3
 70
     1
 71
     0
 10
0.0
 20
0.0
 30
0.0
  3
*D3
  1

  0
INSERT
  5
121
330
115
100
AcDbEntity
  8
JISSEN
100
AcDbBlockReference
  2
_Open30
 10
24.999987
 20
99.4111100099
 30
0.1
 41
3.0
 42
3.0
 50
0.0
  0
INSERT
  5
122
330
115
100
AcDbEntity
  8
JISSEN
100
AcDbBlockReference
  2
_Open30
 10
34.999995
 20
99.4111100099
 30
0.1
 41
3.0
 42
3.0
 50
180.0
  0
LINE
  5
123
330
115
100
AcDbEntity
  8
JISSEN
100
AcDbLine
 10
24.999987
 20
110.999995
 30
0.0
 11
24.999987
 21
98.4111100099
 31
0.0
  0
LINE
  5
124
330
115
100
AcDbEntity
  8
JISSEN
100
AcDbLine
 10
34.999995
 20
110.999995
 30
0.0
 11
34.999995
 21
98.4111100099
 31
0.0
  0
LINE
  5
125
330
115
100
AcDbEntity
  8
JISSEN
100
AcDbLine
 10
24.999987
 20
99.4111100099
 30
0.0
 11
19.999987
 21
99.4111100099
 31
0.0
  0
LINE
  5
126
330
115
100
AcDbEntity
  8
JISSEN
100
AcDbLine
 10
24.999987
 20
99.4111100099
 30
0.0
 11
34.999995
 21
99.4111100099
 31
0.0
  0
LINE
  5
127
330
115
100
AcDbEntity
  8
JISSEN
100
AcDbLine
 10
34.999995
 20
99.4111100099
 30
0.0
 11
39.999995
 21
99.4111100099
 31
0.0
  0
MTEXT
  5
128
330
115
100
AcDbEntity
  8
JISSEN
100
AcDbMText
 10
26.5098290763
 20
102.9020190426
 30
0.0
 40
3.0
 41
0.0
 71
     1
 72
     1
  1
10.0
  7
SLDTEXTSTYLE0
 73
     1
 44
1.0
  0
ENDBLK
  5
120
330
115
100
AcDbEntity
  8
0
100
AcDbBlockEnd
  0
BLOCK
  5
134
330
12A
100
AcDbEntity
  8
0
100
AcDbBlockBegin
  2
*D4
 70
     1
 71
     0
 10
0.0
 20
0.0
 30
0.0
  3
*D4
  1

  0
INSERT
  5
136
330
12A
100
AcDbEntity
  8
JISSEN
100
AcDbBlockReference
  2
_Open30
 10
84.999982
 20
99.4111100099
 30
0.1
 41
3.0
 42
3.0
 50
0.0
  0
INSERT
  5
137
330
12A
100
AcDbEntity
  8
JISSEN
100
AcDbBlockReference
  2
_Open30
 10
94.999992
 20
99.4111100099
 30
0.1
 41
3.0
 42
3.0
 50
180.0
  0
LINE
  5
138
330
12A
100
AcDbEntity
  8
JISSEN
100
AcDbLine
 10
84.999982
 20
110.999995
 30
0.0
 11
84.999982
 21
98.4111100099
 31
0.0
  0
LINE
  5
139
330
12A
100
AcDbEntity
  8
JISSEN
100
AcDbLine
 10
94.999992
 20
110.999995
 30
0.0
 11
94.999992
 21
98.4111100099
 31
0.0
  0
LINE
  5
13A
330
12A
100
AcDbEntity
  8
JISSEN
100
AcDbLine
 10
84.999982
 20
99.4111100099
 30
0.0
 11
79.999982
 21
99.4111100099
 31
0.0
  0
LINE
  5
13B
330
12A
100
AcDbEntity
  8
JISSEN
100
AcDbLine
 10
84.999982
 20
99.4111100099
 30
0.0
 11
94.999992
 21
99.4111100099
 31
0.0
  0
LINE
  5
13C
330
12A
100
AcDbEntity
  8
JISSEN
100
AcDbLine
 10
94.999992
 20
99.4111100099
 30
0.0
 11
99.999992
 21
99.4111100099
 31
0.0
  0
MTEXT
  5
13D
330
12A
100
AcDbEntity
  8
JISSEN
100
AcDbMText
 10
86.5098250763
 20
102.9020190426
 30
0.0
 40
3.0
 41
0.0
 71
     1
 72
     1
  1
10.0
  7
SLDTEXTSTYLE0
 73
     1
 44
1.0
  0
ENDBLK
  5
135
330
12A
100
AcDbEntity
  8
0
100
AcDbBlockEnd
  0
BLOCK
  5
149
330
13F
100
AcDbEntity
  8
0
100
AcDbBlockBegin
  2
*D5
 70
     1
 71
     0
 10
0.0
 20
0.0
 30
0.0
  3
*D5
  1

  0
INSERT
  5
14C
330
13F
100
AcDbEntity
  8
JISSEN
100
AcDbBlockReference
  2
_Open30
 10
34.999995
 20
99.4111100099
 30
0.1
 41
3.0
 42
3.0
 50
180.0
  0
INSERT
  5
14D
330
13F
100
AcDbEntity
  8
JISSEN
100
AcDbBlockReference
  2
_Open30
 10
84.999982
 20
99.4111100099
 30
0.1
 41
3.0
 42
3.0
 50
360.0
  0
LINE
  5
14E
330
13F
100
AcDbEntity
  8
JISSEN
100
AcDbLine
 10
34.999995
 20
110.999995
 30
0.0
 11
34.999995
 21
98.4111100099
 31
0.0
  0
LINE
  5
14F
330
13F
100
AcDbEntity
  8
JISSEN
100
AcDbLine
 10
84.999982
 20
110.999995
 30
0.0
 11
84.999982
 21
98.4111100099
 31
0.0
  0
LINE
  5
150
330
13F
100
AcDbEntity
  8
JISSEN
100
AcDbLine
 10
34.999995
 20
99.4111100099
 30
0.0
 11
84.999982
 21
99.4111100099
 31
0.0
  0
MTEXT
  5
151
330
13F
100
AcDbEntity
  8
JISSEN
100
AcDbMText
 10
50.3991119427
 20
102.9020190426
 30
0.0
 40
3.0
 41
0.0
 71
     1
 72
     1
  1
Max50/Min25
  7
SLDTEXTSTYLE0
 73
     1
 44
1.0
  0
ENDBLK
  5
14A
330
13F
100
AcDbEntity
  8
0
100
AcDbBlockEnd
  0
BLOCK
  5
15E
330
153
100
AcDbEntity
  8
0
100
AcDbBlockBegin
  2
*D6
 70
     1
 71
     0
 10
0.0
 20
0.0
 30
0.0
  3
*D6
  1

  0
INSERT
  5
160
330
153
100
AcDbEntity
  8
JISSEN
100
AcDbBlockReference
  2
_Open30
 10
113.7275024777
 20
169.999985
 30
0.1
 41
3.0
 42
3.0
 50
90.0
  0
INSERT
  5
161
330
153
100
AcDbEntity
  8
JISSEN
100
AcDbBlockReference
  2
_Open30
 10
113.7275024777
 20
126.999992
 30
0.1
 41
3.0
 42
3.0
 50
270.0
  0
LINE
  5
162
330
153
100
AcDbEntity
  8
JISSEN
100
AcDbLine
 10
101.999982
 20
169.999985
 30
0.0
 11
114.7275024777
 21
169.999985
 31
0.0
  0
LINE
  5
163
330
153
100
AcDbEntity
  8
JISSEN
100
AcDbLine
 10
101.999982
 20
126.999992
 30
0.0
 11
114.7275024777
 21
126.999992
 31
0.0
  0
LINE
  5
164
330
153
100
AcDbEntity
  8
JISSEN
100
AcDbLine
 10
113.7275024777
 20
169.999985
 30
0.0
 11
113.7275024777
 21
126.999992
 31
0.0
  0
MTEXT
  5
165
330
153
100
AcDbEntity
  8
JISSEN
100
AcDbMText
 10
110.236593445
 20
145.0098265763
 30
0.0
 40
3.0
 41
0.0
 71
     1
 72
     1
  1
43.0
  7
SLDTEXTSTYLE0
 11
-7.044197039909883E-15
 21
1.0
 31
0.0
 73
     1
 44
1.0
  0
ENDBLK
  5
15F
330
153
100
AcDbEntity
  8
0
100
AcDbBlockEnd
  0
BLOCK
  5
172
330
167
100
AcDbEntity
  8
0
100
AcDbBlockBegin
  2
*D7
 70
     1
 71
     0
 10
0.0
 20
0.0
 30
0.0
  3
*D7
  1

  0
INSERT
  5
174
330
167
100
AcDbEntity
  8
JISSEN
100
AcDbBlockReference
  2
_Open30
 10
113.7275024777
 20
111.999995
 30
0.1
 41
3.0
 42
3.0
 50
90.0
  0
INSERT
  5
175
330
167
100
AcDbEntity
  8
JISSEN
100
AcDbBlockReference
  2
_Open30
 10
113.7275024777
 20
126.999992
 30
0.1
 41
3.0
 42
3.0
 50
270.0
  0
LINE
  5
176
330
167
100
AcDbEntity
  8
JISSEN
100
AcDbLine
 10
95.999992
 20
111.999995
 30
0.0
 11
114.7275024777
 21
111.999995
 31
0.0
  0
LINE
  5
177
330
167
100
AcDbEntity
  8
JISSEN
100
AcDbLine
 10
95.999992
 20
126.999992
 30
0.0
 11
114.7275024777
 21
126.999992
 31
0.0
  0
LINE
  5
178
330
167
100
AcDbEntity
  8
JISSEN
100
AcDbLine
 10
113.7275024777
 20
111.999995
 30
0.0
 11
113.7275024777
 21
106.999995
 31
0.0
  0
LINE
  5
179
330
167
100
AcDbEntity
  8
JISSEN
100
AcDbLine
 10
113.7275024777
 20
111.999995
 30
0.0
 11
113.7275024777
 21
126.999992
 31
0.0
  0
LINE
  5
17A
330
167
100
AcDbEntity
  8
JISSEN
100
AcDbLine
 10
113.7275024777
 20
126.999992
 30
0.0
 11
113.7275024777
 21
131.999992
 31
0.0
  0
MTEXT
  5
17B
330
167
100
AcDbEntity
  8
JISSEN
100
AcDbMText
 10
110.236593445
 20
116.0098315763
 30
0.0
 40
3.0
 41
0.0
 71
     1
 72
     1
  1
15.0
  7
SLDTEXTSTYLE0
 11
6.123031769111886E-17
 21
1.0
 31
0.0
 73
     1
 44
1.0
  0
ENDBLK
  5
173
330
167
100
AcDbEntity
  8
0
100
AcDbBlockEnd
  0
BLOCK
  5
187
330
17D
100
AcDbEntity
  8
0
100
AcDbBlockBegin
  2
*D8
 70
     1
 71
     0
 10
0.0
 20
0.0
 30
0.0
  3
*D8
  1

  0
INSERT
  5
189
330
17D
100
AcDbEntity
  8
JISSEN
100
AcDbBlockReference
  2
_Open30
 10
19.000016
 20
185.0452753712
 30
0.1
 41
3.0
 42
3.0
 50
180.0
  0
INSERT
  5
18A
330
17D
100
AcDbEntity
  8
JISSEN
100
AcDbBlockReference
  2
_Open30
 10
100.999982
 20
185.0452753712
 30
0.1
 41
3.0
 42
3.0
 50
0.0
  0
LINE
  5
18B
330
17D
100
AcDbEntity
  8
JISSEN
100
AcDbLine
 10
19.000016
 20
170.999985
 30
0.0
 11
19.000016
 21
186.0452753712
 31
0.0
  0
LINE
  5
18C
330
17D
100
AcDbEntity
  8
JISSEN
100
AcDbLine
 10
100.999982
 20
170.999985
 30
0.0
 11
100.999982
 21
186.0452753712
 31
0.0
  0
LINE
  5
18D
330
17D
100
AcDbEntity
  8
JISSEN
100
AcDbLine
 10
19.000016
 20
185.0452753712
 30
0.0
 11
100.999982
 21
185.0452753712
 31
0.0
  0
MTEXT
  5
18E
330
17D
100
AcDbEntity
  8
JISSEN
100
AcDbMText
 10
56.5098370763
 20
188.5361844039
 30
0.0
 40
3.0
 41
0.0
 71
     1
 72
     1
  1
82.0
  7
SLDTEXTSTYLE0
 73
     1
 44
1.0
  0
ENDBLK
  5
188
330
17D
100
AcDbEntity
  8
0
100
AcDbBlockEnd
  0
BLOCK
  5
19A
330
190
100
AcDbEntity
  8
0
100
AcDbBlockBegin
  2
*D9
 70
     1
 71
     0
 10
0.0
 20
0.0
 30
0.0
  3
*D9
  1

  0
INSERT
  5
19C
330
190
100
AcDbEntity
  8
JISSEN
100
AcDbBlockReference
  2
_Open30
 10
30.000003
 20
176.5825185001
 30
0.1
 41
3.0
 42
3.0
 50
180.0
  0
INSERT
  5
19D
330
190
100
AcDbEntity
  8
JISSEN
100
AcDbBlockReference
  2
_Open30
 10
90.000002
 20
176.5825185001
 30
0.1
 41
3.0
 42
3.0
 50
0.0
  0
LINE
  5
19E
330
190
100
AcDbEntity
  8
JISSEN
100
AcDbLine
 10
30.000003
 20
161.499985
 30
0.0
 11
30.000003
 21
177.5825185001
 31
0.0
  0
LINE
  5
19F
330
190
100
AcDbEntity
  8
JISSEN
100
AcDbLine
 10
90.000002
 20
161.499985
 30
0.0
 11
90.000002
 21
177.5825185001
 31
0.0
  0
LINE
  5
1A0
330
190
100
AcDbEntity
  8
JISSEN
100
AcDbLine
 10
30.000003
 20
176.5825185001
 30
0.0
 11
90.000002
 21
176.5825185001
 31
0.0
  0
MTEXT
  5
1A1
330
190
100
AcDbEntity
  8
JISSEN
100
AcDbMText
 10
56.5098405763
 20
180.0734275328
 30
0.0
 40
3.0
 41
0.0
 71
     1
 72
     1
  1
60.0
  7
SLDTEXTSTYLE0
 73
     1
 44
1.0
  0
ENDBLK
  5
19B
330
190
100
AcDbEntity
  8
0
100
AcDbBlockEnd
  0
BLOCK
  5
1AE
330
1A3
100
AcDbEntity
  8
0
100
AcDbBlockBegin
  2
*D10
 70
     1
 71
     0
 10
0.0
 20
0.0
 30
0.0
  3
*D10
  1

  0
INSERT
  5
1B0
330
1A3
100
AcDbEntity
  8
JISSEN
100
AcDbBlockReference
  2
_Open30
 10
108.3084615092
 20
154.999985
 30
0.1
 41
3.0
 42
3.0
 50
270.0
  0
INSERT
  5
1B1
330
1A3
100
AcDbEntity
  8
JISSEN
100
AcDbBlockReference
  2
_Open30
 10
108.3084615092
 20
169.999985
 30
0.1
 41
3.0
 42
3.0
 50
90.0
  0
LINE
  5
1B2
330
1A3
100
AcDbEntity
  8
JISSEN
100
AcDbLine
 10
96.500002
 20
154.999985
 30
0.0
 11
109.3084615092
 21
154.999985
 31
0.0
  0
LINE
  5
1B3
330
1A3
100
AcDbEntity
  8
JISSEN
100
AcDbLine
 10
101.999982
 20
169.999985
 30
0.0
 11
109.3084615092
 21
169.999985
 31
0.0
  0
LINE
  5
1B4
330
1A3
100
AcDbEntity
  8
JISSEN
100
AcDbLine
 10
108.3084615092
 20
154.999985
 30
0.0
 11
108.3084615092
 21
169.999985
 31
0.0
  0
MTEXT
  5
1B5
330
1A3
100
AcDbEntity
  8
JISSEN
100
AcDbMText
 10
104.8175524765
 20
159.0098230763
 30
0.0
 40
3.0
 41
0.0
 71
     1
 72
     1
  1
15.0
  7
SLDTEXTSTYLE0
 11
6.123031769111886E-17
 21
1.0
 31
0.0
 73
     1
 44
1.0
  0
ENDBLK
  5
1AF
330
1A3
100
AcDbEntity
  8
0
100
AcDbBlockEnd
  0
BLOCK
  5
1C1
330
1B7
100
AcDbEntity
  8
0
100
AcDbBlockBegin
  2
*D11
 70
     1
 71
     0
 10
0.0
 20
0.0
 30
0.0
  3
*D11
  1

  0
INSERT
  5
1C3
330
1B7
100
AcDbEntity
  8
JISSEN
100
AcDbBlockReference
  2
_Open30
 10
161.0
 20
101.2931642676
 30
0.1
 41
3.0
 42
3.0
 50
0.0
  0
INSERT
  5
1C4
330
1B7
100
AcDbEntity
  8
JISSEN
100
AcDbBlockReference
  2
_Open30
 10
180.99999
 20
101.2931642676
 30
0.1
 41
3.0
 42
3.0
 50
180.0
  0
LINE
  5
1C5
330
1B7
100
AcDbEntity
  8
JISSEN
100
AcDbLine
 10
161.0
 20
111.499984
 30
0.0
 11
161.0
 21
100.2931642676
 31
0.0
  0
LINE
  5
1C6
330
1B7
100
AcDbEntity
  8
JISSEN
100
AcDbLine
 10
180.99999
 20
111.499984
 30
0.0
 11
180.99999
 21
100.2931642676
 31
0.0
  0
LINE
  5
1C7
330
1B7
100
AcDbEntity
  8
JISSEN
100
AcDbLine
 10
161.0
 20
101.2931642676
 30
0.0
 11
156.0
 21
101.2931642676
 31
0.0
  0
LINE
  5
1C8
330
1B7
100
AcDbEntity
  8
JISSEN
100
AcDbLine
 10
161.0
 20
101.2931642676
 30
0.0
 11
180.99999
 21
101.2931642676
 31
0.0
  0
LINE
  5
1C9
330
1B7
100
AcDbEntity
  8
JISSEN
100
AcDbLine
 10
180.99999
 20
101.2931642676
 30
0.0
 11
185.99999
 21
101.2931642676
 31
0.0
  0
MTEXT
  5
1CA
330
1B7
100
AcDbEntity
  8
JISSEN
100
AcDbMText
 10
167.5098330763
 20
104.7840733003
 30
0.0
 40
3.0
 41
0.0
 71
     1
 72
     1
  1
20.0
  7
SLDTEXTSTYLE0
 73
     1
 44
1.0
  0
ENDBLK
  5
1C2
330
1B7
100
AcDbEntity
  8
0
100
AcDbBlockEnd
  0
BLOCK
  5
1D6
330
1CC
100
AcDbEntity
  8
0
100
AcDbBlockBegin
  2
*D12
 70
     1
 71
     0
 10
0.0
 20
0.0
 30
0.0
  3
*D12
  1

  0
INSERT
  5
1D8
330
1CC
100
AcDbEntity
  8
JISSEN
100
AcDbBlockReference
  2
_Open30
 10
154.0
 20
90.7876729793
 30
0.1
 41
3.0
 42
3.0
 50
180.0
  0
INSERT
  5
1D9
330
1CC
100
AcDbEntity
  8
JISSEN
100
AcDbBlockReference
  2
_Open30
 10
187.99999
 20
90.7876729793
 30
0.1
 41
3.0
 42
3.0
 50
360.0
  0
LINE
  5
1DA
330
1CC
100
AcDbEntity
  8
JISSEN
100
AcDbLine
 10
154.0
 20
110.999995
 30
0.0
 11
154.0
 21
89.7876729793
 31
0.0
  0
LINE
  5
1DB
330
1CC
100
AcDbEntity
  8
JISSEN
100
AcDbLine
 10
187.99999
 20
110.999995
 30
0.0
 11
187.99999
 21
89.7876729793
 31
0.0
  0
LINE
  5
1DC
330
1CC
100
AcDbEntity
  8
JISSEN
100
AcDbLine
 10
154.0
 20
90.7876729793
 30
0.0
 11
187.99999
 21
90.7876729793
 31
0.0
  0
MTEXT
  5
1DD
330
1CC
100
AcDbEntity
  8
JISSEN
100
AcDbMText
 10
167.5098330763
 20
94.278582012
 30
0.0
 40
3.0
 41
0.0
 71
     1
 72
     1
  1
34.0
  7
SLDTEXTSTYLE0
 73
     1
 44
1.0
  0
ENDBLK
  5
1D7
330
1CC
100
AcDbEntity
  8
0
100
AcDbBlockEnd
  0
BLOCK
  5
1EA
330
1DF
100
AcDbEntity
  8
0
100
AcDbBlockBegin
  2
*D13
 70
     1
 71
     0
 10
0.0
 20
0.0
 30
0.0
  3
*D13
  1

  0
INSERT
  5
1EC
330
1DF
100
AcDbEntity
  8
JISSEN
100
AcDbBlockReference
  2
_Open30
 10
134.8639833751
 20
118.0000083575
 30
0.1
 41
3.0
 42
3.0
 50
269.9999558863
  0
INSERT
  5
1ED
330
1DF
100
AcDbEntity
  8
JISSEN
100
AcDbBlockReference
  2
_Open30
 10
134.8640234114
 20
169.9999926536
 30
0.1
 41
3.0
 42
3.0
 50
89.9999558863
  0
LINE
  5
1EE
330
1DF
100
AcDbEntity
  8
JISSEN
100
AcDbLine
 10
165.5
 20
117.9999847699
 30
0.0
 11
133.8639833751
 21
118.0000091274
 31
0.0
  0
LINE
  5
1EF
330
1DF
100
AcDbEntity
  8
JISSEN
100
AcDbLine
 10
148.99999
 20
169.9999817699
 30
0.0
 11
133.8640234114
 21
169.9999934236
 31
0.0
  0
LINE
  5
1F0
330
1DF
100
AcDbEntity
  8
JISSEN
100
AcDbLine
 10
134.8639833751
 20
118.0000083575
 30
0.0
 11
134.8640234114
 21
169.9999926536
 31
0.0
  0
MTEXT
  5
1F1
330
1DF
100
AcDbEntity
  8
JISSEN
100
AcDbMText
 10
131.3730916734
 20
140.5098412696
 30
0.0
 40
3.0
 41
0.0
 71
     1
 72
     1
  1
52.0
  7
SLDTEXTSTYLE0
 11
7.699296281139333E-7
 21
0.9999999999997036
 31
0.0
 73
     1
 44
1.0
  0
ENDBLK
  5
1EB
330
1DF
100
AcDbEntity
  8
0
100
AcDbBlockEnd
  0
BLOCK
  5
1FE
330
1F3
100
AcDbEntity
  8
0
100
AcDbBlockBegin
  2
*D14
 70
     1
 71
     0
 10
0.0
 20
0.0
 30
0.0
  3
*D14
  1

  0
INSERT
  5
201
330
1F3
100
AcDbEntity
  8
JISSEN
100
AcDbBlockReference
  2
_Open30
 10
140.4614483596
 20
161.000003344
 30
0.1
 41
3.0
 42
3.0
 50
269.9999558863
  0
INSERT
  5
202
330
1F3
100
AcDbEntity
  8
JISSEN
100
AcDbBlockReference
  2
_Open30
 10
140.4614552889
 20
169.999988344
 30
0.1
 41
3.0
 42
3.0
 50
89.9999558863
  0
LINE
  5
203
330
1F3
100
AcDbEntity
  8
JISSEN
100
AcDbLine
 10
145.5
 20
160.9999994647
 30
0.0
 11
139.4614483596
 21
161.0000041139
 31
0.0
  0
LINE
  5
204
330
1F3
100
AcDbEntity
  8
JISSEN
100
AcDbLine
 10
148.99999
 20
169.9999817699
 30
0.0
 11
139.4614552889
 21
169.9999891139
 31
0.0
  0
LINE
  5
205
330
1F3
100
AcDbEntity
  8
JISSEN
100
AcDbLine
 10
140.4614483596
 20
161.000003344
 30
0.0
 11
140.4614552889
 21
169.999988344
 31
0.0
  0
MTEXT
  5
206
330
1F3
100
AcDbEntity
  8
JISSEN
100
AcDbMText
 10
136.9705407754
 20
162.8814
 30
0.0
 40
3.0
 41
0.0
 71
     1
 72
     1
  1
9.0
  7
SLDTEXTSTYLE0
 11
7.699296276698441E-7
 21
0.9999999999997036
 31
0.0
 73
     1
 44
1.0
  0
ENDBLK
  5
1FF
330
1F3
100
AcDbEntity
  8
0
100
AcDbBlockEnd
  0
BLOCK
  5
213
330
208
100
AcDbEntity
  8
0
100
AcDbBlockBegin
  2
*D15
 70
     1
 71
     0
 10
0.0
 20
0.0
 30
0.0
  3
*D15
  1

  0
INSERT
  5
215
330
208
100
AcDbEntity
  8
JISSEN
100
AcDbBlockReference
  2
_Open30
 10
196.9999849232
 20
182.3555657576
 30
0.1
 41
3.0
 42
3.0
 50
0.0000416696
  0
INSERT
  5
216
330
208
100
AcDbEntity
  8
JISSEN
100
AcDbBlockReference
  2
_Open30
 10
144.9999773778
 20
182.3555279394
 30
0.1
 41
3.0
 42
3.0
 50
180.0000416696
  0
LINE
  5
217
330
208
100
AcDbEntity
  8
JISSEN
100
AcDbLine
 10
196.9999942727
 20
169.499988
 30
0.0
 11
196.9999841959
 21
183.3555657576
 31
0.0
  0
LINE
  5
218
330
208
100
AcDbEntity
  8
JISSEN
100
AcDbLine
 10
144.9999892727
 20
165.999981
 30
0.0
 11
144.9999766505
 21
183.3555279394
 31
0.0
  0
LINE
  5
219
330
208
100
AcDbEntity
  8
JISSEN
100
AcDbLine
 10
196.9999849232
 20
182.3555657576
 30
0.0
 11
144.9999773778
 21
182.3555279394
 31
0.0
  0
MTEXT
  5
21A
330
208
100
AcDbEntity
  8
JISSEN
100
AcDbMText
 10
167.5098166879
 20
185.8464533429
 30
0.0
 40
3.0
 41
0.0
 71
     1
 72
     1
  1
52.0
  7
SLDTEXTSTYLE0
 11
0.9999999999997355
 21
7.272723085981949E-7
 31
0.0
 73
     1
 44
1.0
  0
ENDBLK
  5
214
330
208
100
AcDbEntity
  8
0
100
AcDbBlockEnd
  0
BLOCK
  5
227
330
21C
100
AcDbEntity
  8
0
100
AcDbBlockBegin
  2
*D16
 70
     1
 71
     0
 10
0.0
 20
0.0
 30
0.0
  3
*D16
  1

  0
INSERT
  5
22A
330
21C
100
AcDbEntity
  8
JISSEN
100
AcDbBlockReference
  2
_Open30
 10
144.99999
 20
174.1264716242
 30
0.1
 41
3.0
 42
3.0
 50
360.0
  0
INSERT
  5
22B
330
21C
100
AcDbEntity
  8
JISSEN
100
AcDbBlockReference
  2
_Open30
 10
152.0
 20
174.1264716242
 30
0.1
 41
3.0
 42
3.0
 50
180.0
  0
LINE
  5
22C
330
21C
100
AcDbEntity
  8
JISSEN
100
AcDbLine
 10
144.99999
 20
165.999981
 30
0.0
 11
144.99999
 21
175.1264716242
 31
0.0
  0
LINE
  5
22D
330
21C
100
AcDbEntity
  8
JISSEN
100
AcDbLine
 10
152.0
 20
167.499993
 30
0.0
 11
152.0
 21
175.1264716242
 31
0.0
  0
LINE
  5
22E
330
21C
100
AcDbEntity
  8
JISSEN
100
AcDbLine
 10
144.99999
 20
174.1264716242
 30
0.0
 11
139.99999
 21
174.1264716242
 31
0.0
  0
LINE
  5
22F
330
21C
100
AcDbEntity
  8
JISSEN
100
AcDbLine
 10
144.99999
 20
174.1264716242
 30
0.0
 11
152.0
 21
174.1264716242
 31
0.0
  0
LINE
  5
230
330
21C
100
AcDbEntity
  8
JISSEN
100
AcDbLine
 10
152.0
 20
174.1264716242
 30
0.0
 11
157.0
 21
174.1264716242
 31
0.0
  0
MTEXT
  5
231
330
21C
100
AcDbEntity
  8
JISSEN
100
AcDbMText
 10
145.8813964682
 20
177.6173806569
 30
0.0
 40
3.0
 41
0.0
 71
     1
 72
     1
  1
7.0
  7
SLDTEXTSTYLE0
 73
     1
 44
1.0
  0
ENDBLK
  5
228
330
21C
100
AcDbEntity
  8
0
100
AcDbBlockEnd
  0
BLOCK
  5
23D
330
233
100
AcDbEntity
  8
0
100
AcDbBlockBegin
  2
*D17
 70
     1
 71
     0
 10
0.0
 20
0.0
 30
0.0
  3
*D17
  1

  0
INSERT
  5
23F
330
233
100
AcDbEntity
  8
JISSEN
100
AcDbBlockReference
  2
_Open30
 10
152.0
 20
174.1264716242
 30
0.1
 41
3.0
 42
3.0
 50
360.0
  0
INSERT
  5
240
330
233
100
AcDbEntity
  8
JISSEN
100
AcDbBlockReference
  2
_Open30
 10
170.0
 20
174.1264716242
 30
0.1
 41
3.0
 42
3.0
 50
180.0
  0
LINE
  5
241
330
233
100
AcDbEntity
  8
JISSEN
100
AcDbLine
 10
152.0
 20
167.499993
 30
0.0
 11
152.0
 21
175.1264716242
 31
0.0
  0
LINE
  5
242
330
233
100
AcDbEntity
  8
JISSEN
100
AcDbLine
 10
170.0
 20
167.499993
 30
0.0
 11
170.0
 21
175.1264716242
 31
0.0
  0
LINE
  5
243
330
233
100
AcDbEntity
  8
JISSEN
100
AcDbLine
 10
152.0
 20
174.1264716242
 30
0.0
 11
147.0
 21
174.1264716242
 31
0.0
  0
LINE
  5
244
330
233
100
AcDbEntity
  8
JISSEN
100
AcDbLine
 10
152.0
 20
174.1264716242
 30
0.0
 11
170.0
 21
174.1264716242
 31
0.0
  0
LINE
  5
245
330
233
100
AcDbEntity
  8
JISSEN
100
AcDbLine
 10
170.0
 20
174.1264716242
 30
0.0
 11
175.0
 21
174.1264716242
 31
0.0
  0
MTEXT
  5
246
330
233
100
AcDbEntity
  8
JISSEN
100
AcDbMText
 10
157.5098380763
 20
177.6173806569
 30
0.0
 40
3.0
 41
0.0
 71
     1
 72
     1
  1
18.0
  7
SLDTEXTSTYLE0
 73
     1
 44
1.0
  0
ENDBLK
  5
23E
330
233
100
AcDbEntity
  8
0
100
AcDbBlockEnd
  0
ENDSEC
  0
SECTION
  2
ENTITIES
  0
LINE
  5
37
330
1F
100
AcDbEntity
  8
ITTEN
  6
CENTER
 62
     1
100
AcDbLine
 10
58.999999
 20
37.5
 30
0.0
 11
60.999999
 21
35.5
 31
0.0
  0
LINE
  5
38
330
1F
100
AcDbEntity
  8
ITTEN
  6
CENTER
 62
     1
100
AcDbLine
 10
60.999999
 20
37.5
 30
0.0
 11
58.999999
 21
35.5
 31
0.0
  0
LINE
  5
39
330
1F
100
AcDbEntity
  8
ITTEN
  6
CENTER
 62
     1
100
AcDbLine
 10
58.999999
 20
262.49997
 30
0.0
 11
60.999999
 21
260.49997
 31
0.0
  0
LINE
  5
3A
330
1F
100
AcDbEntity
  8
ITTEN
  6
CENTER
 62
     1
100
AcDbLine
 10
60.999999
 20
262.49997
 30
0.0
 11
58.999999
 21
260.49997
 31
0.0
  0
LINE
  5
3B
330
1F
100
AcDbEntity
  8
ITTEN
  6
CENTER
 62
     1
100
AcDbLine
 10
60.999999
 20
162.499985
 30
0.0
 11
58.999999
 21
160.499985
 31
0.0
  0
LINE
  5
3C
330
1F
100
AcDbEntity
  8
ITTEN
  6
CENTER
 62
     1
100
AcDbLine
 10
58.999999
 20
162.499985
 30
0.0
 11
60.999999
 21
160.499985
 31
0.0
  0
LINE
  5
3D
330
1F
100
AcDbEntity
  8
ITTEN
  6
CENTER
 62
     1
100
AcDbLine
 10
169.999982
 20
170.999985
 30
0.0
 11
171.999982
 21
168.999985
 31
0.0
  0
LINE
  5
3E
330
1F
100
AcDbEntity
  8
ITTEN
  6
CENTER
 62
     1
100
AcDbLine
 10
171.999982
 20
170.999985
 30
0.0
 11
169.999982
 21
168.999985
 31
0.0
  0
LINE
  5
3F
330
1F
100
AcDbEntity
  8
ITTEN
  6
CENTER
 62
     1
100
AcDbLine
 10
59.999999
 20
65.5
 30
0.0
 11
59.999999
 21
7.5
 31
0.0
  0
LINE
  5
40
330
1F
100
AcDbEntity
  8
ITTEN
  6
CENTER
 62
     1
100
AcDbLine
 10
15.999999
 20
36.5
 30
0.0
 11
103.999999
 21
36.5
 31
0.0
  0
LINE
  5
41
330
1F
100
AcDbEntity
  8
JISSEN
  6
Continuous
 62
     7
100
AcDbLine
 10
73.999999
 20
49.5
 30
0.0
 11
73.999999
 21
52.4
 31
0.0
  0
LINE
  5
42
330
1F
100
AcDbEntity
  8
JISSEN
  6
Continuous
 62
     7
100
AcDbLine
 10
45.999999
 20
29.5
 30
0.0
 11
45.999999
 21
37.0
 31
0.0
  0
LINE
  5
43
330
1F
100
AcDbEntity
  8
ITTEN
  6
CENTER
 62
     1
100
AcDbLine
 10
56.999999
 20
46.5
 30
0.0
 11
87.999999
 21
46.5
 31
0.0
  0
LINE
  5
44
330
1F
100
AcDbEntity
  8
ITTEN
  6
CENTER
 62
     1
100
AcDbLine
 10
31.999999
 20
26.5
 30
0.0
 11
62.999999
 21
26.5
 31
0.0
  0
LINE
  5
45
330
1F
100
AcDbEntity
  8
JISSEN
  6
Continuous
 62
     7
100
AcDbLine
 10
34.999999
 20
23.5
 30
0.0
 11
59.999999
 21
23.5
 31
0.0
  0
LINE
  5
46
330
1F
100
AcDbEntity
  8
JISSEN
  6
Continuous
 62
     7
100
AcDbLine
 10
34.999999
 20
29.5
 30
0.0
 11
59.999999
 21
29.5
 31
0.0
  0
LINE
  5
47
330
1F
100
AcDbEntity
  8
JISSEN
  6
Continuous
 62
     7
100
AcDbLine
 10
59.999999
 20
43.5
 30
0.0
 11
84.999999
 21
43.5
 31
0.0
  0
LINE
  5
48
330
1F
100
AcDbEntity
  8
JISSEN
  6
Continuous
 62
     7
100
AcDbLine
 10
59.999999
 20
49.5
 30
0.0
 11
84.999999
 21
49.5
 31
0.0
  0
LINE
  5
49
330
1F
100
AcDbEntity
  8
JISSEN
  6
Continuous
 62
     7
100
AcDbLine
 10
65.1849579666
 20
42.5923060588
 30
0.0
 11
64.2368569666
 21
43.5000000588
 31
0.0
  0
LINE
  5
4A
330
1F
100
AcDbEntity
  8
JISSEN
  6
Continuous
 62
     7
100
AcDbLine
 10
68.3098178051
 20
35.999999967
 30
0.0
 11
67.8879668051
 21
37.834149967
 31
0.0
  0
LINE
  5
4B
330
1F
100
AcDbEntity
  8
JISSEN
  6
Continuous
 62
     7
100
AcDbLine
 10
54.8150398385
 20
30.4076939083
 30
0.0
 11
55.7631408385
 21
29.4999999083
 31
0.0
  0
LINE
  5
4C
330
1F
100
AcDbEntity
  8
JISSEN
  6
Continuous
 62
     7
100
AcDbLine
 10
52.112031
 20
35.16585
 30
0.0
 11
51.69018
 21
37.0
 31
0.0
  0
LINE
  5
4D
330
1F
100
AcDbEntity
  8
JISSEN
  6
Continuous
 62
     7
100
AcDbLine
 10
59.999999
 20
19.5
 30
0.0
 11
94.999999
 21
19.5
 31
0.0
  0
LINE
  5
4E
330
1F
100
AcDbEntity
  8
JISSEN
  6
Continuous
 62
     7
100
AcDbLine
 10
84.999999
 20
53.5
 30
0.0
 11
94.999999
 21
53.5
 31
0.0
  0
LINE
  5
4F
330
1F
100
AcDbEntity
  8
JISSEN
  6
Continuous
 62
     7
100
AcDbLine
 10
59.999999
 20
37.0
 30
0.0
 11
59.999999
 21
53.5
 31
0.0
  0
LINE
  5
50
330
1F
100
AcDbEntity
  8
JISSEN
  6
Continuous
 62
     7
100
AcDbLine
 10
59.999999
 20
36.0
 30
0.0
 11
59.999999
 21
19.5
 31
0.0
  0
LINE
  5
51
330
1F
100
AcDbEntity
  8
JISSEN
  6
Continuous
 62
     7
100
AcDbLine
 10
34.999999
 20
37.0
 30
0.0
 11
59.999999
 21
37.0
 31
0.0
  0
LINE
  5
52
330
1F
100
AcDbEntity
  8
JISSEN
  6
Continuous
 62
     7
100
AcDbLine
 10
59.999999
 20
36.0
 30
0.0
 11
84.999999
 21
36.0
 31
0.0
  0
LINE
  5
53
330
1F
100
AcDbEntity
  8
JISSEN
  6
Continuous
 62
     7
100
AcDbLine
 10
34.999999
 20
19.5
 30
0.0
 11
34.999999
 21
53.5
 31
0.0
  0
LINE
  5
54
330
1F
100
AcDbEntity
  8
JISSEN
  6
Continuous
 62
     7
100
AcDbLine
 10
84.999999
 20
19.5
 30
0.0
 11
84.999999
 21
53.5
 31
0.0
  0
LINE
  5
55
330
1F
100
AcDbEntity
  8
JISSEN
  6
Continuous
 62
     7
100
AcDbLine
 10
24.999999
 20
19.5
 30
0.0
 11
34.999999
 21
19.5
 31
0.0
  0
LINE
  5
56
330
1F
100
AcDbEntity
  8
JISSEN
  6
Continuous
 62
     7
100
AcDbLine
 10
24.999999
 20
53.5
 30
0.0
 11
59.999999
 21
53.5
 31
0.0
  0
LINE
  5
57
330
1F
100
AcDbEntity
  8
ITTEN
  6
CENTER
 62
     1
100
AcDbLine
 10
97.999999
 20
34.25
 30
0.0
 11
97.999999
 21
26.25
 31
0.0
  0
LINE
  5
58
330
1F
100
AcDbEntity
  8
ITTEN
  6
CENTER
 62
     1
100
AcDbLine
 10
101.999999
 20
30.25
 30
0.0
 11
93.999999
 21
30.25
 31
0.0
  0
LINE
  5
59
330
1F
100
AcDbEntity
  8
ITTEN
  6
CENTER
 62
     1
100
AcDbLine
 10
25.999999
 20
30.25
 30
0.0
 11
17.999999
 21
30.25
 31
0.0
  0
LINE
  5
5A
330
1F
100
AcDbEntity
  8
ITTEN
  6
CENTER
 62
     1
100
AcDbLine
 10
21.999999
 20
34.25
 30
0.0
 11
21.999999
 21
26.25
 31
0.0
  0
LINE
  5
5B
330
1F
100
AcDbEntity
  8
JISSEN
  6
Continuous
 62
     7
100
AcDbLine
 10
48.999999
 20
17.6
 30
0.0
 11
70.999999
 21
17.6
 31
0.0
  0
LINE
  5
5C
330
1F
100
AcDbEntity
  8
JISSEN
  6
Continuous
 62
     7
100
AcDbLine
 10
48.999999
 20
55.4
 30
0.0
 11
70.999999
 21
55.4
 31
0.0
  0
LINE
  5
5D
330
1F
100
AcDbEntity
  8
JISSEN
  6
Continuous
 62
     7
100
AcDbLine
 10
45.999999
 20
20.6
 30
0.0
 11
45.999999
 21
23.5
 31
0.0
  0
LINE
  5
5E
330
1F
100
AcDbEntity
  8
JISSEN
  6
Continuous
 62
     7
100
AcDbLine
 10
73.999999
 20
36.0
 30
0.0
 11
73.999999
 21
43.5
 31
0.0
  0
LINE
  5
5F
330
1F
100
AcDbEntity
  8
JISSEN
  6
Continuous
 62
     7
100
AcDbLine
 10
24.999999
 20
19.5
 30
0.0
 11
24.999999
 21
53.5
 31
0.0
  0
LINE
  5
60
330
1F
100
AcDbEntity
  8
JISSEN
  6
Continuous
 62
     7
100
AcDbLine
 10
92.2679481924
 20
17.5
 30
0.0
 11
27.7320498076
 21
17.5
 31
0.0
  0
LINE
  5
61
330
1F
100
AcDbEntity
  8
JISSEN
  6
Continuous
 62
     7
100
AcDbLine
 10
94.999999
 20
53.5
 30
0.0
 11
94.999999
 21
19.5
 31
0.0
  0
LINE
  5
62
330
1F
100
AcDbEntity
  8
JISSEN
  6
Continuous
 62
     7
100
AcDbLine
 10
27.7320498076
 20
55.5
 30
0.0
 11
92.2679481924
 21
55.5
 31
0.0
  0
LINE
  5
63
330
1F
100
AcDbEntity
  8
JISSEN
  6
Continuous
 62
     7
100
AcDbLine
 10
18.999999
 20
10.5
 30
0.0
 11
18.999999
 21
62.5
 31
0.0
  0
LINE
  5
64
330
1F
100
AcDbEntity
  8
JISSEN
  6
Continuous
 62
     7
100
AcDbLine
 10
100.999999
 20
10.5
 30
0.0
 11
18.999999
 21
10.5
 31
0.0
  0
LINE
  5
65
330
1F
100
AcDbEntity
  8
JISSEN
  6
Continuous
 62
     7
100
AcDbLine
 10
100.999999
 20
62.5
 30
0.0
 11
100.999999
 21
10.5
 31
0.0
  0
LINE
  5
66
330
1F
100
AcDbEntity
  8
JISSEN
  6
Continuous
 62
     7
100
AcDbLine
 10
18.999999
 20
62.5
 30
0.0
 11
100.999999
 21
62.5
 31
0.0
  0
LINE
  5
67
330
1F
100
AcDbEntity
  8
ITTEN
  6
CENTER
 62
     1
100
AcDbLine
 10
16.000013
 20
261.49997
 30
0.0
 11
103.999979
 21
261.49997
 31
0.0
  0
LINE
  5
68
330
1F
100
AcDbEntity
  8
ITTEN
  6
CENTER
 62
     1
100
AcDbLine
 10
164.5
 20
160.999993
 30
0.0
 11
175.5
 21
160.999993
 31
0.0
  0
LINE
  5
69
330
1F
100
AcDbEntity
  8
ITTEN
  6
CENTER
 62
     1
100
AcDbLine
 10
166.5
 20
117.999984
 30
0.0
 11
155.5
 21
117.999984
 31
0.0
  0
LINE
  5
6A
330
1F
100
AcDbEntity
  8
ITTEN
  6
CENTER
 62
     1
100
AcDbLine
 10
167.0
 20
133.999978
 30
0.0
 11
155.0
 21
133.999978
 31
0.0
  0
LINE
  5
6B
330
1F
100
AcDbEntity
  8
ITTEN
  6
CENTER
 62
     1
100
AcDbLine
 10
59.999999
 20
290.499955
 30
0.0
 11
59.999999
 21
232.499985
 31
0.0
  0
LINE
  5
6C
330
1F
100
AcDbEntity
  8
ITTEN
  6
CENTER
 62
     1
100
AcDbLine
 10
59.999999
 20
172.999985
 30
0.0
 11
59.999999
 21
123.999992
 31
0.0
  0
LINE
  5
6D
330
1F
100
AcDbEntity
  8
ITTEN
  6
CENTER
 62
     1
100
AcDbLine
 10
171.00001
 20
108.999995
 30
0.0
 11
170.999981
 21
172.999985
 31
0.0
  0
LINE
  5
6E
330
1F
100
AcDbEntity
  8
ITTEN
  6
CENTER
 62
     1
100
AcDbLine
 10
146.5
 20
160.9999986947
 30
0.0
 11
157.5
 21
160.9999902255
 31
0.0
  0
LINE
  5
6F
330
1F
100
AcDbEntity
  8
JISSEN
  6
Continuous
 62
     7
100
AcDbLine
 10
196.999995
 20
168.499988
 30
0.0
 11
196.999995
 21
167.749998
 31
0.0
  0
LINE
  5
70
330
1F
100
AcDbEntity
  8
JISSEN
  6
Continuous
 62
     7
100
AcDbLine
 10
164.207125
 20
169.99997
 30
0.0
 11
195.499995
 21
169.999988
 31
0.0
  0
LINE
  5
71
330
1F
100
AcDbEntity
  8
ITTEN
  6
CENTER
 62
     1
100
AcDbLine
 10
22.000002
 20
129.49999
 30
0.0
 11
22.000002
 21
138.49999
 31
0.0
  0
LINE
  5
72
330
1F
100
AcDbEntity
  8
ITTEN
  6
CENTER
 62
     1
100
AcDbLine
 10
98.000002
 20
129.49999
 30
0.0
 11
98.000002
 21
138.49999
 31
0.0
  0
LINE
  5
73
330
1F
100
AcDbEntity
  8
ITTEN
  6
CENTER
 62
     1
100
AcDbLine
 10
90.000002
 20
149.499985
 30
0.0
 11
90.000002
 21
160.499985
 31
0.0
  0
LINE
  5
74
330
1F
100
AcDbEntity
  8
ITTEN
  6
CENTER
 62
     1
100
AcDbLine
 10
84.500002
 20
154.999985
 30
0.0
 11
95.500002
 21
154.999985
 31
0.0
  0
LINE
  5
75
330
1F
100
AcDbEntity
  8
ITTEN
  6
CENTER
 62
     1
100
AcDbLine
 10
30.000003
 20
149.499985
 30
0.0
 11
30.000003
 21
160.499985
 31
0.0
  0
LINE
  5
76
330
1F
100
AcDbEntity
  8
ITTEN
  6
CENTER
 62
     1
100
AcDbLine
 10
24.500003
 20
154.999985
 30
0.0
 11
35.500003
 21
154.999985
 31
0.0
  0
LINE
  5
77
330
1F
100
AcDbEntity
  8
ITTEN
  6
CENTER
 62
     1
100
AcDbLine
 10
89.999999
 20
255.999965
 30
0.0
 11
89.999999
 21
266.999965
 31
0.0
  0
LINE
  5
78
330
1F
100
AcDbEntity
  8
ITTEN
  6
CENTER
 62
     1
100
AcDbLine
 10
30.0
 20
255.999965
 30
0.0
 11
30.0
 21
266.999965
 31
0.0
  0
LINE
  5
79
330
1F
100
AcDbEntity
  8
ITTEN
  6
CENTER
 62
     1
100
AcDbLine
 10
93.500002
 20
133.99999
 30
0.0
 11
102.500002
 21
133.99999
 31
0.0
  0
LINE
  5
7A
330
1F
100
AcDbEntity
  8
ITTEN
  6
CENTER
 62
     1
100
AcDbLine
 10
17.500002
 20
133.99999
 30
0.0
 11
26.500002
 21
133.99999
 31
0.0
  0
LINE
  5
7B
330
1F
100
AcDbEntity
  8
JISSEN
  6
Continuous
 62
     7
100
AcDbLine
 10
24.999987
 20
111.999995
 30
0.0
 11
24.999987
 21
126.999992
 31
0.0
  0
LINE
  5
7C
330
1F
100
AcDbEntity
  8
JISSEN
  6
Continuous
 62
     7
100
AcDbLine
 10
34.999995
 20
111.999995
 30
0.0
 11
34.999995
 21
126.999992
 31
0.0
  0
LINE
  5
7D
330
1F
100
AcDbEntity
  8
JISSEN
  6
Continuous
 62
     7
100
AcDbLine
 10
84.999982
 20
111.999995
 30
0.0
 11
84.999982
 21
126.999992
 31
0.0
  0
LINE
  5
7E
330
1F
100
AcDbEntity
  8
JISSEN
  6
Continuous
 62
     7
100
AcDbLine
 10
94.999992
 20
111.999995
 30
0.0
 11
94.999992
 21
126.999992
 31
0.0
  0
LINE
  5
7F
330
1F
100
AcDbEntity
  8
JISSEN
  6
Continuous
 62
     7
100
AcDbLine
 10
84.999982
 20
111.999995
 30
0.0
 11
94.999992
 21
111.999995
 31
0.0
  0
LINE
  5
80
330
1F
100
AcDbEntity
  8
JISSEN
  6
Continuous
 62
     7
100
AcDbLine
 10
24.999987
 20
111.999995
 30
0.0
 11
34.999995
 21
111.999995
 31
0.0
  0
LINE
  5
81
330
1F
100
AcDbEntity
  8
JISSEN
  6
Continuous
 62
     7
100
AcDbLine
 10
19.000016
 20
126.999992
 30
0.0
 11
100.999982
 21
126.999992
 31
0.0
  0
LINE
  5
82
330
1F
100
AcDbEntity
  8
JISSEN
  6
Continuous
 62
     7
100
AcDbLine
 10
19.000016
 20
145.24999
 30
0.0
 11
100.999982
 21
145.24999
 31
0.0
  0
LINE
  5
83
330
1F
100
AcDbEntity
  8
JISSEN
  6
Continuous
 62
     7
100
AcDbLine
 10
19.000016
 20
150.749984
 30
0.0
 11
100.999982
 21
150.749984
 31
0.0
  0
LINE
  5
84
330
1F
100
AcDbEntity
  8
JISSEN
  6
Continuous
 62
     7
100
AcDbLine
 10
19.000016
 20
126.999992
 30
0.0
 11
19.000016
 21
169.999985
 31
0.0
  0
LINE
  5
85
330
1F
100
AcDbEntity
  8
JISSEN
  6
Continuous
 62
     7
100
AcDbLine
 10
100.999982
 20
169.999985
 30
0.0
 11
100.999982
 21
126.999992
 31
0.0
  0
LINE
  5
86
330
1F
100
AcDbEntity
  8
JISSEN
  6
Continuous
 62
     7
100
AcDbLine
 10
19.000016
 20
169.999985
 30
0.0
 11
100.999982
 21
169.999985
 31
0.0
  0
LINE
  5
87
330
1F
100
AcDbEntity
  8
JISSEN
  6
Continuous
 62
     7
100
AcDbLine
 10
145.0
 20
151.249973
 30
0.0
 11
144.99999
 21
164.999981
 31
0.0
  0
LINE
  5
88
330
1F
100
AcDbEntity
  8
JISSEN
  6
Continuous
 62
     7
100
AcDbLine
 10
145.5
 20
150.749973
 30
0.0
 11
147.0
 21
150.749971
 31
0.0
  0
LINE
  5
89
330
1F
100
AcDbEntity
  8
JISSEN
  6
Continuous
 62
     7
100
AcDbLine
 10
145.0
 20
144.749976
 30
0.0
 11
144.99999
 21
131.999984
 31
0.0
  0
LINE
  5
8A
330
1F
100
AcDbEntity
  8
JISSEN
  6
Continuous
 62
     7
100
AcDbLine
 10
145.5
 20
145.249976
 30
0.0
 11
147.0
 21
145.249978
 31
0.0
  0
LINE
  5
8B
330
1F
100
AcDbEntity
  8
JISSEN
  6
Continuous
 62
     7
100
AcDbLine
 10
149.99999
 20
169.999981
 30
0.0
 11
157.79291
 21
169.999975
 31
0.0
  0
LINE
  5
8C
330
1F
100
AcDbEntity
  8
JISSEN
  6
Continuous
 62
     7
100
AcDbLine
 10
149.99999
 20
126.999984
 30
0.0
 11
192.0
 21
126.999984
 31
0.0
  0
LINE
  5
8D
330
1F
100
AcDbEntity
  8
JISSEN
  6
Continuous
 62
     7
100
AcDbLine
 10
196.999995
 20
131.999979
 30
0.0
 11
196.999995
 21
145.249973
 31
0.0
  0
LINE
  5
8E
330
1F
100
AcDbEntity
  8
JISSEN
  6
Continuous
 62
     7
100
AcDbLine
 10
100.999979
 20
254.707085
 30
0.0
 11
19.000013
 21
254.707085
 31
0.0
  0
LINE
  5
8F
330
1F
100
AcDbEntity
  8
JISSEN
  6
Continuous
 62
     7
100
AcDbLine
 10
100.999979
 20
248.292875
 30
0.0
 11
19.000013
 21
248.292875
 31
0.0
  0
LINE
  5
90
330
1F
100
AcDbEntity
  8
ITTEN
  6
CENTER
 62
     1
100
AcDbLine
 10
170.0
 20
156.49999
 30
0.0
 11
197.0
 21
156.49999
 31
0.0
  0
LINE
  5
91
330
1F
100
AcDbEntity
  8
JISSEN
  6
Continuous
 62
     7
100
AcDbLine
 10
176.76412
 20
157.687714
 30
0.0
 11
173.15952
 21
158.323301
 31
0.0
  0
LINE
  5
92
330
1F
100
AcDbEntity
  8
JISSEN
  6
Continuous
 62
     7
100
AcDbLine
 10
176.76412
 20
155.312267
 30
0.0
 11
173.15952
 21
154.67668
 31
0.0
  0
LINE
  5
93
330
1F
100
AcDbEntity
  8
JISSEN
  6
Continuous
 62
     7
100
AcDbLine
 10
163.85355
 20
169.853535
 30
0.0
 11
161.35357
 21
167.353542
 31
0.0
  0
LINE
  5
94
330
1F
100
AcDbEntity
  8
JISSEN
  6
Continuous
 62
     7
100
AcDbLine
 10
158.14645
 20
169.853535
 30
0.0
 11
160.64646
 21
167.353542
 31
0.0
  0
LINE
  5
95
330
1F
100
AcDbEntity
  8
ITTEN
  6
CENTER
 62
     1
100
AcDbLine
 10
180.99999
 20
127.999978
 30
0.0
 11
180.99999
 21
139.999978
 31
0.0
  0
LINE
  5
96
330
1F
100
AcDbEntity
  8
ITTEN
  6
CENTER
 62
     1
100
AcDbLine
 10
161.0
 20
127.999978
 30
0.0
 11
161.0
 21
139.999978
 31
0.0
  0
LINE
  5
97
330
1F
100
AcDbEntity
  8
ITTEN
  6
CENTER
 62
     1
100
AcDbLine
 10
186.99999
 20
133.999978
 30
0.0
 11
174.99999
 21
133.999978
 31
0.0
  0
LINE
  5
98
330
1F
100
AcDbEntity
  8
ITTEN
  6
CENTER
 62
     1
100
AcDbLine
 10
180.99999
 20
112.499984
 30
0.0
 11
180.99999
 21
123.499984
 31
0.0
  0
LINE
  5
99
330
1F
100
AcDbEntity
  8
ITTEN
  6
CENTER
 62
     1
100
AcDbLine
 10
161.0
 20
112.499984
 30
0.0
 11
161.0
 21
123.499984
 31
0.0
  0
LINE
  5
9A
330
1F
100
AcDbEntity
  8
ITTEN
  6
CENTER
 62
     1
100
AcDbLine
 10
186.49999
 20
117.999984
 30
0.0
 11
175.49999
 21
117.999984
 31
0.0
  0
LINE
  5
9B
330
1F
100
AcDbEntity
  8
JISSEN
  6
Continuous
 62
     7
100
AcDbLine
 10
187.99999
 20
111.999995
 30
0.0
 11
187.99999
 21
126.99998
 31
0.0
  0
LINE
  5
9C
330
1F
100
AcDbEntity
  8
JISSEN
  6
Continuous
 62
     7
100
AcDbLine
 10
154.0
 20
111.999995
 30
0.0
 11
154.0
 21
126.99998
 31
0.0
  0
LINE
  5
9D
330
1F
100
AcDbEntity
  8
JISSEN
  6
Continuous
 62
     7
100
AcDbLine
 10
154.0
 20
111.999995
 30
0.0
 11
187.99999
 21
111.999995
 31
0.0
  0
LINE
  5
9E
330
1F
100
AcDbEntity
  8
ITTEN
  6
CENTER
 62
     1
100
AcDbLine
 10
152.0
 20
155.499993
 30
0.0
 11
152.0
 21
166.499993
 31
0.0
  0
LINE
  5
9F
330
1F
100
AcDbEntity
  8
ITTEN
  6
CENTER
 62
     1
100
AcDbLine
 10
170.0
 20
155.499993
 30
0.0
 11
170.0
 21
166.499993
 31
0.0
  0
LINE
  5
A0
330
1F
100
AcDbEntity
  8
JISSEN
  6
Continuous
 62
     7
100
AcDbLine
 10
100.999979
 20
287.499955
 30
0.0
 11
100.999979
 21
235.499985
 31
0.0
  0
LINE
  5
A1
330
1F
100
AcDbEntity
  8
JISSEN
  6
Continuous
 62
     7
100
AcDbLine
 10
19.000013
 20
287.499955
 30
0.0
 11
100.999979
 21
287.499955
 31
0.0
  0
LINE
  5
A2
330
1F
100
AcDbEntity
  8
JISSEN
  6
Continuous
 62
     7
100
AcDbLine
 10
19.000013
 20
235.499985
 30
0.0
 11
19.000013
 21
287.499955
 31
0.0
  0
LINE
  5
A3
330
1F
100
AcDbEntity
  8
JISSEN
  6
Continuous
 62
     7
100
AcDbLine
 10
100.999979
 20
235.499985
 30
0.0
 11
19.000013
 21
235.499985
 31
0.0
  0
LINE
  5
A4
330
1F
100
AcDbEntity
  8
JISSEN
  6
Continuous
 62
     7
100
AcDbLine
 10
196.999995
 20
162.250004
 30
0.0
 11
196.999995
 21
150.749966
 31
0.0
  0
LINE
  5
A5
330
1F
100
AcDbEntity
  8
ITTEN
  6
CENTER
 62
     1
100
AcDbLine
 10
183.5
 20
142.99999
 30
0.0
 11
183.5
 21
169.99999
 31
0.0
  0
LINE
  5
A6
330
1F
100
AcDbEntity
  8
JISSEN
  6
Continuous
 62
     7
100
AcDbLine
 10
196.999995
 20
167.749998
 30
0.0
 11
195.775125
 21
167.749998
 31
0.0
  0
LINE
  5
A7
330
1F
100
AcDbEntity
  8
JISSEN
  6
Continuous
 62
     7
100
AcDbLine
 10
196.999995
 20
162.250004
 30
0.0
 11
195.775125
 21
162.250004
 31
0.0
  0
LINE
  5
A8
330
1F
100
AcDbEntity
  8
JISSEN
  6
Continuous
 62
     7
100
AcDbLine
 10
196.999995
 20
150.749966
 30
0.0
 11
195.775125
 21
150.749966
 31
0.0
  0
LINE
  5
A9
330
1F
100
AcDbEntity
  8
JISSEN
  6
Continuous
 62
     7
100
AcDbLine
 10
196.999995
 20
145.249973
 30
0.0
 11
195.775125
 21
145.249973
 31
0.0
  0
LINE
  5
AA
330
1F
100
AcDbEntity
  8
JISSEN
  6
Continuous
 62
     7
100
AcDbLine
 10
195.775125
 20
162.250004
 30
0.0
 11
195.775125
 21
161.500002
 31
0.0
  0
LINE
  5
AB
330
1F
100
AcDbEntity
  8
JISSEN
  6
Continuous
 62
     7
100
AcDbLine
 10
195.775125
 20
168.5
 30
0.0
 11
195.775125
 21
167.749998
 31
0.0
  0
LINE
  5
AC
330
1F
100
AcDbEntity
  8
JISSEN
  6
Continuous
 62
     7
100
AcDbLine
 10
194.775115
 20
161.500002
 30
0.0
 11
195.775125
 21
161.500002
 31
0.0
  0
LINE
  5
AD
330
1F
100
AcDbEntity
  8
JISSEN
  6
Continuous
 62
     7
100
AcDbLine
 10
194.775115
 20
168.5
 30
0.0
 11
195.775125
 21
168.5
 31
0.0
  0
LINE
  5
AE
330
1F
100
AcDbEntity
  8
JISSEN
  6
Continuous
 62
     7
100
AcDbLine
 10
192.5125664051
 20
163.7625658607
 30
0.0
 11
194.775115
 21
161.500002
 31
0.0
  0
LINE
  5
AF
330
1F
100
AcDbEntity
  8
JISSEN
  6
Continuous
 62
     7
100
AcDbLine
 10
192.5125666211
 20
166.2374363553
 30
0.0
 11
194.775115
 21
168.5
 31
0.0
  0
LINE
  5
B0
330
1F
100
AcDbEntity
  8
JISSEN
  6
Continuous
 62
     7
100
AcDbLine
 10
195.775125
 20
150.749966
 30
0.0
 11
195.775125
 21
151.499969
 31
0.0
  0
LINE
  5
B1
330
1F
100
AcDbEntity
  8
JISSEN
  6
Continuous
 62
     7
100
AcDbLine
 10
195.775125
 20
144.499971
 30
0.0
 11
195.775125
 21
145.249973
 31
0.0
  0
LINE
  5
B2
330
1F
100
AcDbEntity
  8
JISSEN
  6
Continuous
 62
     7
100
AcDbLine
 10
194.775115
 20
151.499969
 30
0.0
 11
195.775125
 21
151.499969
 31
0.0
  0
LINE
  5
B3
330
1F
100
AcDbEntity
  8
JISSEN
  6
Continuous
 62
     7
100
AcDbLine
 10
194.775115
 20
144.499971
 30
0.0
 11
195.775125
 21
144.499971
 31
0.0
  0
LINE
  5
B4
330
1F
100
AcDbEntity
  8
JISSEN
  6
Continuous
 62
     7
100
AcDbLine
 10
192.5125666211
 20
149.2374053553
 30
0.0
 11
194.775115
 21
151.499969
 31
0.0
  0
LINE
  5
B5
330
1F
100
AcDbEntity
  8
JISSEN
  6
Continuous
 62
     7
100
AcDbLine
 10
192.5125664051
 20
146.7625348607
 30
0.0
 11
194.775115
 21
144.499971
 31
0.0
  0
LINE
  5
B6
330
1F
100
AcDbEntity
  8
0
  6
Continuous
 62
     7
370
     0
100
AcDbLine
 10
20.2604743903
 20
-0.2678592666
 30
0.0
 11
209.9331318137
 21
-0.2678592666
 31
0.0
  0
LINE
  5
B7
330
1F
100
AcDbEntity
  8
0
  6
Continuous
 62
     7
370
     0
100
AcDbLine
 10
209.9331318137
 20
285.0
 30
0.0
 11
209.9331318137
 21
-0.2678592666
 31
0.0
  0
LINE
  5
B8
330
1F
100
AcDbEntity
  8
0
  6
Continuous
 62
     7
370
     0
100
AcDbLine
 10
127.0104743903
 20
50.75
 30
0.0
 11
209.9331318137
 21
50.75
 31
0.0
  0
LINE
  5
B9
330
1F
100
AcDbEntity
  8
0
  6
Continuous
 62
     7
370
     0
100
AcDbLine
 10
127.0104743903
 20
50.75
 30
0.0
 11
126.8761930808
 21
-0.2678592666
 31
0.0
  0
LINE
  5
BA
330
1F
100
AcDbEntity
  8
0
  6
Continuous
 62
     7
370
     0
100
AcDbLine
 10
126.9367771259
 20
22.75
 30
0.0
 11
209.9331318137
 21
22.75
 31
0.0
  0
LINE
  5
BB
330
1F
100
AcDbEntity
  8
0
  6
Continuous
 62
     7
370
     0
100
AcDbLine
 10
126.9736257581
 20
36.75
 30
0.0
 11
209.9331318137
 21
36.75
 31
0.0
  0
ARC
  5
BC
330
1F
100
AcDbEntity
  8
JISSEN
  6
Continuous
 62
     7
100
AcDbCircle
 10
59.9999989026
 20
36.4999999835
 30
0.0
 40
5.000000000000001
100
AcDbArc
 50
174.26083
 51
270.0
  0
ARC
  5
BD
330
1F
100
AcDbEntity
  8
JISSEN
  6
Continuous
 62
     7
100
AcDbCircle
 10
59.9999989026
 20
36.4999999835
 30
0.0
 40
7.999999613119877
100
AcDbArc
 50
9.6000005397
 51
49.5999990011
  0
ARC
  5
BE
330
1F
100
AcDbEntity
  8
JISSEN
  6
Continuous
 62
     7
100
AcDbCircle
 10
59.9999989026
 20
36.4999999835
 30
0.0
 40
7.999999613163502
100
AcDbArc
 50
189.6000005395
 51
229.5999990001
  0
ARC
  5
BF
330
1F
100
AcDbEntity
  8
JISSEN
  6
Continuous
 62
     7
100
AcDbCircle
 10
59.9999989026
 20
36.4999999835
 30
0.0
 40
4.999999999999987
100
AcDbArc
 50
354.26083
 51
90.0
  0
CIRCLE
  5
C0
330
1F
100
AcDbEntity
  8
SAISEN
  6
Continuous
 62
     4
100
AcDbCircle
 10
97.999999
 20
30.25
 30
0.0
 40
1.5
  0
CIRCLE
  5
C1
330
1F
100
AcDbEntity
  8
JISSEN
  6
Continuous
 62
     7
100
AcDbCircle
 10
97.999999
 20
30.25
 30
0.0
 40
1.299999999999983
  0
CIRCLE
  5
C2
330
1F
100
AcDbEntity
  8
JISSEN
  6
Continuous
 62
     7
100
AcDbCircle
 10
21.999999
 20
30.25
 30
0.0
 40
1.300000000000011
  0
CIRCLE
  5
C3
330
1F
100
AcDbEntity
  8
SAISEN
  6
Continuous
 62
     4
100
AcDbCircle
 10
21.999999
 20
30.25
 30
0.0
 40
1.5
  0
ARC
  5
C4
330
1F
100
AcDbEntity
  8
JISSEN
  6
Continuous
 62
     7
100
AcDbCircle
 10
70.999999
 20
52.4
 30
0.0
 40
3.000000000000014
100
AcDbArc
 50
0.0
 51
90.0
  0
ARC
  5
C5
330
1F
100
AcDbEntity
  8
JISSEN
  6
Continuous
 62
     7
100
AcDbCircle
 10
48.999999
 20
52.4
 30
0.0
 40
3.000000000000025
100
AcDbArc
 50
90.0
 51
158.489812
  0
ARC
  5
C6
330
1F
100
AcDbEntity
  8
JISSEN
  6
Continuous
 62
     7
100
AcDbCircle
 10
70.999999
 20
20.6
 30
0.0
 40
3.000000000000024
100
AcDbArc
 50
270.0
 51
338.489812
  0
ARC
  5
C7
330
1F
100
AcDbEntity
  8
JISSEN
  6
Continuous
 62
     7
100
AcDbCircle
 10
48.999999
 20
20.6
 30
0.0
 40
3.0
100
AcDbArc
 50
180.0
 51
270.0
  0
ARC
  5
C8
330
1F
100
AcDbEntity
  8
JISSEN
  6
Continuous
 62
     7
100
AcDbCircle
 10
93.999999
 20
18.5
 30
0.0
 40
2.000000000013486
100
AcDbArc
 50
209.9999999996
 51
60.0
  0
ARC
  5
C9
330
1F
100
AcDbEntity
  8
JISSEN
  6
Continuous
 62
     7
100
AcDbCircle
 10
93.999999
 20
54.5
 30
0.0
 40
2.000000000013488
100
AcDbArc
 50
300.0
 51
150.0000000004
  0
ARC
  5
CA
330
1F
100
AcDbEntity
  8
JISSEN
  6
Continuous
 62
     7
100
AcDbCircle
 10
25.999999
 20
54.5
 30
0.0
 40
2.000000000013476
100
AcDbArc
 50
29.9999999996
 51
240.0
  0
ARC
  5
CB
330
1F
100
AcDbEntity
  8
JISSEN
  6
Continuous
 62
     7
100
AcDbCircle
 10
25.999999
 20
18.5
 30
0.0
 40
2.000000000013472
100
AcDbArc
 50
120.0
 51
330.0000000004
  0
CIRCLE
  5
CC
330
1F
100
AcDbEntity
  8
JISSEN
  6
Continuous
 62
     7
100
AcDbCircle
 10
152.0
 20
160.999993
 30
0.0
 40
2.099999999999994
  0
ARC
  5
CD
330
1F
100
AcDbEntity
  8
SAISEN
  6
Continuous
 62
     4
100
AcDbCircle
 10
152.0
 20
160.999993
 30
0.0
 40
2.500000000000059
100
AcDbArc
 50
326.23348
 51
326.23318
  0
ARC
  5
CE
330
1F
100
AcDbEntity
  8
JISSEN
  6
Continuous
 62
     7
100
AcDbCircle
 10
195.499995
 20
168.499988
 30
0.0
 40
1.5
100
AcDbArc
 50
0.0
 51
90.0
  0
CIRCLE
  5
CF
330
1F
100
AcDbEntity
  8
SAISEN
  6
Continuous
 62
     4
100
AcDbCircle
 10
22.000002
 20
133.99999
 30
0.0
 40
1.5
  0
CIRCLE
  5
D0
330
1F
100
AcDbEntity
  8
SAISEN
  6
Continuous
 62
     4
100
AcDbCircle
 10
98.000002
 20
133.99999
 30
0.0
 40
1.5
  0
CIRCLE
  5
D1
330
1F
100
AcDbEntity
  8
JISSEN
  6
Continuous
 62
     7
100
AcDbCircle
 10
22.000002
 20
133.99999
 30
0.0
 40
1.25
  0
CIRCLE
  5
D2
330
1F
100
AcDbEntity
  8
JISSEN
  6
Continuous
 62
     7
100
AcDbCircle
 10
98.000002
 20
133.99999
 30
0.0
 40
1.25
  0
CIRCLE
  5
D3
330
1F
100
AcDbEntity
  8
SAISEN
  6
Continuous
 62
     4
100
AcDbCircle
 10
90.000002
 20
154.999985
 30
0.0
 40
2.5
  0
CIRCLE
  5
D4
330
1F
100
AcDbEntity
  8
SAISEN
  6
Continuous
 62
     4
100
AcDbCircle
 10
30.000003
 20
154.999985
 30
0.0
 40
2.5
  0
CIRCLE
  5
D5
330
1F
100
AcDbEntity
  8
JISSEN
  6
Continuous
 62
     7
100
AcDbCircle
 10
90.000002
 20
154.999985
 30
0.0
 40
2.099999999999994
  0
CIRCLE
  5
D6
330
1F
100
AcDbEntity
  8
JISSEN
  6
Continuous
 62
     7
100
AcDbCircle
 10
30.000003
 20
154.999985
 30
0.0
 40
2.099999999999994
  0
ARC
  5
D7
330
1F
100
AcDbEntity
  8
JISSEN
  6
Continuous
 62
     7
100
AcDbCircle
 10
145.5
 20
151.249973
 30
0.0
 40
0.5
100
AcDbArc
 50
180.0
 51
270.0
  0
ARC
  5
D8
330
1F
100
AcDbEntity
  8
JISSEN
  6
Continuous
 62
     7
100
AcDbCircle
 10
145.5
 20
144.749976
 30
0.0
 40
0.5
100
AcDbArc
 50
90.0
 51
180.0
  0
ARC
  5
D9
330
1F
100
AcDbEntity
  8
JISSEN
  6
Continuous
 62
     7
100
AcDbCircle
 10
143.71873
 20
147.999975
 30
0.0
 40
4.281250999999985
100
AcDbArc
 50
320.03387
 51
39.966125
  0
ARC
  5
DA
330
1F
100
AcDbEntity
  8
JISSEN
  6
Continuous
 62
     7
100
AcDbCircle
 10
149.99999
 20
164.999981
 30
0.0
 40
5.0
100
AcDbArc
 50
90.0
 51
180.0
  0
ARC
  5
DB
330
1F
100
AcDbEntity
  8
JISSEN
  6
Continuous
 62
     7
100
AcDbCircle
 10
149.99999
 20
131.999984
 30
0.0
 40
5.0
100
AcDbArc
 50
180.0
 51
270.0
  0
ARC
  5
DC
330
1F
100
AcDbEntity
  8
JISSEN
  6
Continuous
 62
     7
100
AcDbCircle
 10
192.0
 20
131.999979
 30
0.0
 40
4.999995000000041
100
AcDbArc
 50
270.0
 51
0.0
  0
ARC
  5
DD
330
1F
100
AcDbEntity
  8
JISSEN
  6
Continuous
 62
     7
100
AcDbCircle
 10
183.1155
 20
156.49999
 30
0.0
 40
8.074500000000043
100
AcDbArc
 50
231.54862
 51
128.45137
  0
ARC
  5
DE
330
1F
100
AcDbEntity
  8
JISSEN
  6
Continuous
 62
     7
100
AcDbCircle
 10
176.47009
 20
159.975889
 30
0.0
 40
2.307000000000017
100
AcDbArc
 50
277.32218
 51
46.881286
  0
ARC
  5
DF
330
1F
100
AcDbEntity
  8
JISSEN
  6
Continuous
 62
     7
100
AcDbCircle
 10
178.57256
 20
162.221182
 30
0.0
 40
0.7690000000000274
100
AcDbArc
 50
128.45129
 51
226.88157
  0
CIRCLE
  5
E0
330
1F
100
AcDbEntity
  8
JISSEN
  6
Continuous
 62
     7
100
AcDbCircle
 10
176.47009
 20
159.975889
 30
0.0
 40
1.153499999999951
  0
ARC
  5
E1
330
1F
100
AcDbEntity
  8
JISSEN
  6
Continuous
 62
     7
100
AcDbCircle
 10
176.47009
 20
153.024092
 30
0.0
 40
2.307000000000053
100
AcDbArc
 50
313.11871
 51
82.67781
  0
ARC
  5
E2
330
1F
100
AcDbEntity
  8
JISSEN
  6
Continuous
 62
     7
100
AcDbCircle
 10
178.57256
 20
150.778786
 30
0.0
 40
0.7689999999999896
100
AcDbArc
 50
133.11842
 51
231.5487
  0
CIRCLE
  5
E3
330
1F
100
AcDbEntity
  8
JISSEN
  6
Continuous
 62
     7
100
AcDbCircle
 10
176.47009
 20
153.024092
 30
0.0
 40
1.153499999999951
  0
ARC
  5
E4
330
1F
100
AcDbEntity
  8
JISSEN
  6
Continuous
 62
     7
100
AcDbCircle
 10
164.207125
 20
169.49997
 30
0.0
 40
0.5000000000000093
100
AcDbArc
 50
90.0
 51
135.00024
  0
ARC
  5
E5
330
1F
100
AcDbEntity
  8
JISSEN
  6
Continuous
 62
     7
100
AcDbCircle
 10
157.79291
 20
169.499975
 30
0.0
 40
0.5000000000000533
100
AcDbArc
 50
44.999755
 51
90.0
  0
ARC
  5
E6
330
1F
100
AcDbEntity
  8
JISSEN
  6
Continuous
 62
     7
100
AcDbCircle
 10
161.0
 20
167.707096
 30
0.0
 40
0.5000000000000294
100
AcDbArc
 50
224.99975
 51
315.00024
  0
CIRCLE
  5
E7
330
1F
100
AcDbEntity
  8
JISSEN
  6
Continuous
 62
     7
100
AcDbCircle
 10
59.999999
 20
261.499965
 30
0.0
 40
2.000000000000007
  0
CIRCLE
  5
E8
330
1F
100
AcDbEntity
  8
JISSEN
  6
Continuous
 62
     7
100
AcDbCircle
 10
161.0
 20
133.999978
 30
0.0
 40
3.0
  0
CIRCLE
  5
E9
330
1F
100
AcDbEntity
  8
JISSEN
  6
Continuous
 62
     7
100
AcDbCircle
 10
180.99999
 20
133.999978
 30
0.0
 40
3.0
  0
CIRCLE
  5
EA
330
1F
100
AcDbEntity
  8
SAISEN
  6
Continuous
 62
     4
100
AcDbCircle
 10
180.99999
 20
117.999984
 30
0.0
 40
2.5
  0
CIRCLE
  5
EB
330
1F
100
AcDbEntity
  8
SAISEN
  6
Continuous
 62
     4
100
AcDbCircle
 10
161.0
 20
117.999984
 30
0.0
 40
2.5
  0
CIRCLE
  5
EC
330
1F
100
AcDbEntity
  8
JISSEN
  6
Continuous
 62
     7
100
AcDbCircle
 10
180.99999
 20
117.999984
 30
0.0
 40
2.100000000000023
  0
CIRCLE
  5
ED
330
1F
100
AcDbEntity
  8
JISSEN
  6
Continuous
 62
     7
100
AcDbCircle
 10
160.99998
 20
117.999984
 30
0.0
 40
2.099999999999966
  0
CIRCLE
  5
EE
330
1F
100
AcDbEntity
  8
JISSEN
  6
Continuous
 62
     7
100
AcDbCircle
 10
152.0
 20
160.999993
 30
0.0
 40
0.9000000000000341
  0
CIRCLE
  5
EF
330
1F
100
AcDbEntity
  8
SAISEN
  6
Continuous
 62
     4
100
AcDbCircle
 10
170.0
 20
160.999993
 30
0.0
 40
2.500000000000028
  0
CIRCLE
  5
F0
330
1F
100
AcDbEntity
  8
JISSEN
  6
Continuous
 62
     7
100
AcDbCircle
 10
170.0
 20
160.999993
 30
0.0
 40
2.099999999999966
  0
CIRCLE
  5
F1
330
1F
100
AcDbEntity
  8
SAISEN
  6
Continuous
 62
     4
100
AcDbCircle
 10
89.999999
 20
261.499965
 30
0.0
 40
2.500000000000028
  0
CIRCLE
  5
F2
330
1F
100
AcDbEntity
  8
SAISEN
  6
Continuous
 62
     4
100
AcDbCircle
 10
30.0
 20
261.499965
 30
0.0
 40
2.5
  0
CIRCLE
  5
F3
330
1F
100
AcDbEntity
  8
JISSEN
  6
Continuous
 62
     7
100
AcDbCircle
 10
89.999999
 20
261.499965
 30
0.0
 40
2.09999999999998
  0
CIRCLE
  5
F4
330
1F
100
AcDbEntity
  8
JISSEN
  6
Continuous
 62
     7
100
AcDbCircle
 10
30.0
 20
261.499965
 30
0.0
 40
2.099999999999987
  0
CIRCLE
  5
F5
330
1F
100
AcDbEntity
  8
JISSEN
  6
Continuous
 62
     7
100
AcDbCircle
 10
183.5
 20
156.49999
 30
0.0
 40
10.49999899999995
  0
ARC
  5
F6
330
1F
100
AcDbEntity
  8
JISSEN
  6
Continuous
 62
     7
100
AcDbCircle
 10
193.750005
 20
165.000001
 30
0.0
 40
1.750000000034802
100
AcDbArc
 50
135.0000699993
 51
224.9999199994
  0
ARC
  5
F7
330
1F
100
AcDbEntity
  8
JISSEN
  6
Continuous
 62
     7
100
AcDbCircle
 10
193.750005
 20
147.99997
 30
0.0
 40
1.750000000034802
100
AcDbArc
 50
135.0000699993
 51
224.9999199994
  0
DIMENSION
  5
F8
330
1F
100
AcDbEntity
  8
JISSEN
100
AcDbDimension
  2
*D1
 10
89.999999
 20
222.20839445
 30
0.0
 11
59.9999995
 21
222.20839445
 31
0.0
 70
   160
 71
     1
 42
59.999999
  3
SLDDIMSTYLE0
100
AcDbAlignedDimension
 13
30.0
 23
255.999965
 33
0.0
 14
89.999999
 24
255.999965
 34
0.0
100
AcDbRotatedDimension
1001
ACAD
1000
DSTYLE
1002
{
1070
    77
1070
     3
1070
   143
1040
0.0393700787
1070
    41
1040
3.0
1070
    44
1040
1.0
1070
    42
1040
1.0
1070
   147
1040
1.524
1070
    73
1070
     0
1070
    74
1070
     0
1070
   140
1040
3.0
1070
   284
1070
    12
1070
    78
1070
     4
1002
}
  0
DIMENSION
  5
114
330
1F
100
AcDbEntity
  8
JISSEN
100
AcDbDimension
  2
*D3
 10
34.999995
 20
99.4111100099
 30
0.0
 11
29.999991
 21
99.4111100099
 31
0.0
 70
   160
 71
     1
 42
10.000008
  3
SLDDIMSTYLE0
100
AcDbAlignedDimension
 13
24.999987
 23
111.999995
 33
0.0
 14
34.999995
 24
111.999995
 34
0.0
100
AcDbRotatedDimension
1001
ACAD
1000
DSTYLE
1002
{
1070
    77
1070
     3
1070
   143
1040
0.0393700787
1070
    41
1040
3.0
1070
    44
1040
1.0
1070
    42
1040
1.0
1070
   147
1040
1.524
1070
    73
1070
     0
1070
    74
1070
     0
1070
   140
1040
3.0
1070
   284
1070
    12
1070
    78
1070
     4
1002
}
  0
DIMENSION
  5
129
330
1F
100
AcDbEntity
  8
JISSEN
100
AcDbDimension
  2
*D4
 10
94.999992
 20
99.4111100099
 30
0.0
 11
89.999987
 21
99.4111100099
 31
0.0
 70
   160
 71
     1
 42
10.00001
  3
SLDDIMSTYLE0
100
AcDbAlignedDimension
 13
84.999982
 23
111.999995
 33
0.0
 14
94.999992
 24
111.999995
 34
0.0
100
AcDbRotatedDimension
1001
ACAD
1000
DSTYLE
1002
{
1070
    77
1070
     3
1070
   143
1040
0.0393700787
1070
    41
1040
3.0
1070
    44
1040
1.0
1070
    42
1040
1.0
1070
   147
1040
1.524
1070
    73
1070
     0
1070
    74
1070
     0
1070
   140
1040
3.0
1070
   284
1070
    12
1070
    78
1070
     4
1002
}
  0
DIMENSION
  5
13E
330
1F
100
AcDbEntity
  8
JISSEN
100
AcDbDimension
  2
*D5
 10
84.999982
 20
99.4111100099
 30
0.0
 11
59.9999885
 21
99.4111100099
 31
0.0
 70
   160
  1
Max50/Min25
 71
     1
 42
49.999987
  3
SLDDIMSTYLE1
100
AcDbAlignedDimension
 13
34.999995
 23
111.999995
 33
0.0
 14
84.999982
 24
111.999995
 34
0.0
100
AcDbRotatedDimension
1001
ACAD
1000
DSTYLE
1002
{
1070
    77
1070
     3
1070
   143
1040
0.0393700787
1070
    41
1040
3.0
1070
    44
1040
1.0
1070
    42
1040
1.0
1070
   147
1040
1.524
1070
    73
1070
     0
1070
    74
1070
     0
1070
   140
1040
3.0
1070
   284
1070
    12
1070
    78
1070
    12
1002
}
  0
DIMENSION
  5
152
330
1F
100
AcDbEntity
  8
JISSEN
100
AcDbDimension
  2
*D6
 10
113.7275024777
 20
126.999992
 30
0.0
 11
113.7275024777
 21
148.4999885
 31
0.0
 70
   160
 71
     1
 42
42.999993
  3
SLDDIMSTYLE0
100
AcDbAlignedDimension
 13
100.999982
 23
169.999985
 33
0.0
 14
100.999982
 24
126.999992
 34
0.0
 50
90.0
100
AcDbRotatedDimension
1001
ACAD
1000
DSTYLE
1002
{
1070
    77
1070
     3
1070
   143
1040
0.0393700787
1070
    41
1040
3.0
1070
    44
1040
1.0
1070
    42
1040
1.0
1070
   147
1040
1.524
1070
    73
1070
     0
1070
    74
1070
     0
1070
   140
1040
3.0
1070
   284
1070
    12
1070
    78
1070
     4
1002
}
  0
DIMENSION
  5
166
330
1F
100
AcDbEntity
  8
JISSEN
100
AcDbDimension
  2
*D7
 10
113.7275024777
 20
126.999992
 30
0.0
 11
113.7275024777
 21
119.4999935
 31
0.0
 70
   160
 71
     1
 42
14.999997
  3
SLDDIMSTYLE0
100
AcDbAlignedDimension
 13
94.999992
 23
111.999995
 33
0.0
 14
94.999992
 24
126.999992
 34
0.0
 50
90.0
100
AcDbRotatedDimension
1001
ACAD
1000
DSTYLE
1002
{
1070
    77
1070
     3
1070
   143
1040
0.0393700787
1070
    41
1040
3.0
1070
    44
1040
1.0
1070
    42
1040
1.0
1070
   147
1040
1.524
1070
    73
1070
     0
1070
    74
1070
     0
1070
   140
1040
3.0
1070
   284
1070
    12
1070
    78
1070
     4
1002
}
  0
DIMENSION
  5
17C
330
1F
100
AcDbEntity
  8
JISSEN
100
AcDbDimension
  2
*D8
 10
100.999982
 20
185.0452753712
 30
0.0
 11
59.999999
 21
185.0452753712
 31
0.0
 70
   160
 71
     1
 42
81.999966
  3
SLDDIMSTYLE0
100
AcDbAlignedDimension
 13
19.000016
 23
169.999985
 33
0.0
 14
100.999982
 24
169.999985
 34
0.0
100
AcDbRotatedDimension
1001
ACAD
1000
DSTYLE
1002
{
1070
    77
1070
     3
1070
   143
1040
0.0393700787
1070
    41
1040
3.0
1070
    44
1040
1.0
1070
    42
1040
1.0
1070
   147
1040
1.524
1070
    73
1070
     0
1070
    74
1070
     0
1070
   140
1040
3.0
1070
   284
1070
    12
1070
    78
1070
     4
1002
}
  0
DIMENSION
  5
18F
330
1F
100
AcDbEntity
  8
JISSEN
100
AcDbDimension
  2
*D9
 10
90.000002
 20
176.5825185001
 30
0.0
 11
60.0000025
 21
176.5825185001
 31
0.0
 70
   160
 71
     1
 42
59.999999
  3
SLDDIMSTYLE0
100
AcDbAlignedDimension
 13
30.000003
 23
160.499985
 33
0.0
 14
90.000002
 24
160.499985
 34
0.0
100
AcDbRotatedDimension
1001
ACAD
1000
DSTYLE
1002
{
1070
    77
1070
     3
1070
   143
1040
0.0393700787
1070
    41
1040
3.0
1070
    44
1040
1.0
1070
    42
1040
1.0
1070
   147
1040
1.524
1070
    73
1070
     0
1070
    74
1070
     0
1070
   140
1040
3.0
1070
   284
1070
    12
1070
    78
1070
     4
1002
}
  0
DIMENSION
  5
1A2
330
1F
100
AcDbEntity
  8
JISSEN
100
AcDbDimension
  2
*D10
 10
108.3084615092
 20
169.999985
 30
0.0
 11
108.3084615092
 21
162.499985
 31
0.0
 70
   160
 71
     1
 42
15.0
  3
SLDDIMSTYLE0
100
AcDbAlignedDimension
 13
95.500002
 23
154.999985
 33
0.0
 14
100.999982
 24
169.999985
 34
0.0
 50
90.0
100
AcDbRotatedDimension
1001
ACAD
1000
DSTYLE
1002
{
1070
    77
1070
     3
1070
   143
1040
0.0393700787
1070
    41
1040
3.0
1070
    44
1040
1.0
1070
    42
1040
1.0
1070
   147
1040
1.524
1070
    73
1070
     0
1070
    74
1070
     0
1070
   140
1040
3.0
1070
   284
1070
    12
1070
    78
1070
     4
1002
}
  0
DIMENSION
  5
1B6
330
1F
100
AcDbEntity
  8
JISSEN
100
AcDbDimension
  2
*D11
 10
180.99999
 20
101.2931642676
 30
0.0
 11
170.999995
 21
101.2931642676
 31
0.0
 70
   160
 71
     1
 42
19.99999
  3
SLDDIMSTYLE0
100
AcDbAlignedDimension
 13
161.0
 23
112.499984
 33
0.0
 14
180.99999
 24
112.499984
 34
0.0
100
AcDbRotatedDimension
1001
ACAD
1000
DSTYLE
1002
{
1070
    77
1070
     3
1070
   143
1040
0.0393700787
1070
    41
1040
3.0
1070
    44
1040
1.0
1070
    42
1040
1.0
1070
   147
1040
1.524
1070
    73
1070
     0
1070
    74
1070
     0
1070
   140
1040
3.0
1070
   284
1070
    12
1070
    78
1070
     4
1002
}
  0
DIMENSION
  5
1CB
330
1F
100
AcDbEntity
  8
JISSEN
100
AcDbDimension
  2
*D12
 10
187.99999
 20
90.7876729793
 30
0.0
 11
170.999995
 21
90.7876729793
 31
0.0
 70
   160
 71
     1
 42
33.99999
  3
SLDDIMSTYLE0
100
AcDbAlignedDimension
 13
154.0
 23
111.999995
 33
0.0
 14
187.99999
 24
111.999995
 34
0.0
100
AcDbRotatedDimension
1001
ACAD
1000
DSTYLE
1002
{
1070
    77
1070
     3
1070
   143
1040
0.0393700787
1070
    41
1040
3.0
1070
    44
1040
1.0
1070
    42
1040
1.0
1070
   147
1040
1.524
1070
    73
1070
     0
1070
    74
1070
     0
1070
   140
1040
3.0
1070
   284
1070
    12
1070
    78
1070
     4
1002
}
  0
DIMENSION
  5
1DE
330
1F
100
AcDbEntity
  8
JISSEN
100
AcDbDimension
  2
*D13
 10
134.8640234114
 20
169.9999926536
 30
0.0
 11
134.8640033933
 21
144.0000005056
 31
0.0
 70
   160
 71
     1
 42
51.9999842961
  3
SLDDIMSTYLE0
100
AcDbAlignedDimension
 13
166.5
 23
117.999984
 33
0.0
 14
149.99999
 24
169.999981
 34
0.0
 50
89.9999558863
100
AcDbRotatedDimension
1001
ACAD
1000
DSTYLE
1002
{
1070
    77
1070
     3
1070
   143
1040
0.0393700787
1070
    41
1040
3.0
1070
    44
1040
1.0
1070
    42
1040
1.0
1070
   147
1040
1.524
1070
    73
1070
     0
1070
    74
1070
     0
1070
   140
1040
3.0
1070
   284
1070
    12
1070
    78
1070
     4
1002
}
  0
DIMENSION
  5
1F2
330
1F
100
AcDbEntity
  8
JISSEN
100
AcDbDimension
  2
*D14
 10
140.4614552889
 20
169.999988344
 30
0.0
 11
140.4614518242
 21
165.499995844
 31
0.0
 70
   160
 71
     1
 42
8.999985
  3
SLDDIMSTYLE0
100
AcDbAlignedDimension
 13
146.5
 23
160.9999986947
 33
0.0
 14
149.99999
 24
169.999981
 34
0.0
 50
89.9999558863
100
AcDbRotatedDimension
1001
ACAD
1000
DSTYLE
1002
{
1070
    77
1070
     3
1070
   143
1040
0.0393700787
1070
    41
1040
3.0
1070
    44
1040
1.0
1070
    42
1040
1.0
1070
   147
1040
1.524
1070
    73
1070
     0
1070
    74
1070
     0
1070
   140
1040
3.0
1070
   284
1070
    12
1070
    78
1070
     4
1002
}
  0
DIMENSION
  5
207
330
1F
100
AcDbEntity
  8
JISSEN
100
AcDbDimension
  2
*D15
 10
144.9999773778
 20
182.3555279394
 30
0.0
 11
170.9999811505
 21
182.3555468485
 31
0.0
 70
   160
 71
     1
 42
52.0000075454
  3
SLDDIMSTYLE0
100
AcDbAlignedDimension
 13
196.999995
 23
168.499988
 33
0.0
 14
144.99999
 24
164.999981
 34
0.0
 50
0.0000416696
100
AcDbRotatedDimension
1001
ACAD
1000
DSTYLE
1002
{
1070
    77
1070
     3
1070
   143
1040
0.0393700787
1070
    41
1040
3.0
1070
    44
1040
1.0
1070
    42
1040
1.0
1070
   147
1040
1.524
1070
    73
1070
     0
1070
    74
1070
     0
1070
   140
1040
3.0
1070
   284
1070
    12
1070
    78
1070
     4
1002
}
  0
DIMENSION
  5
21B
330
1F
100
AcDbEntity
  8
JISSEN
100
AcDbDimension
  2
*D16
 10
152.0
 20
174.1264716242
 30
0.0
 11
148.499995
 21
174.1264716242
 31
0.0
 70
   160
 71
     1
 42
7.00001
  3
SLDDIMSTYLE0
100
AcDbAlignedDimension
 13
144.99999
 23
164.999981
 33
0.0
 14
152.0
 24
166.499993
 34
0.0
100
AcDbRotatedDimension
1001
ACAD
1000
DSTYLE
1002
{
1070
    77
1070
     3
1070
   143
1040
0.0393700787
1070
    41
1040
3.0
1070
    44
1040
1.0
1070
    42
1040
1.0
1070
   147
1040
1.524
1070
    73
1070
     0
1070
    74
1070
     0
1070
   140
1040
3.0
1070
   284
1070
    12
1070
    78
1070
     4
1002
}
  0
DIMENSION
  5
232
330
1F
100
AcDbEntity
  8
JISSEN
100
AcDbDimension
  2
*D17
 10
170.0
 20
174.1264716242
 30
0.0
 11
161.0
 21
174.1264716242
 31
0.0
 70
   160
 71
     1
 42
18.0
  3
SLDDIMSTYLE0
100
AcDbAlignedDimension
 13
152.0
 23
166.499993
 33
0.0
 14
170.0
 24
166.499993
 34
0.0
100
AcDbRotatedDimension
1001
ACAD
1000
DSTYLE
1002
{
1070
    77
1070
     3
1070
   143
1040
0.0393700787
1070
    41
1040
3.0
1070
    44
1040
1.0
1070
    42
1040
1.0
1070
   147
1040
1.524
1070
    73
1070
     0
1070
    74
1070
     0
1070
   140
1040
3.0
1070
   284
1070
    12
1070
    78
1070
     4
1002
}
  0
MTEXT
  5
247
330
1F
100
AcDbEntity
  8
JISSEN
100
AcDbMText
 10
105.657502031
 20
274.5222271719
 30
0.0
 40
3.5
 41
0.0
 71
     1
 72
     1
  1
2-M5×0.8　深10
  7
SLDTEXTSTYLE0
 73
     1
 44
1.0
  0
LEADER
  5
249
330
1F
100
AcDbEntity
  8
JISSEN
100
AcDbLeader
  3
SLDDIMSTYLE2
 76
     3
 10
92.0227260236
 20
262.9691741029
 30
0.0
 10
105.1537618387
 20
270.4459412467
 30
0.0
 10
136.2092891844
 20
270.4459412467
 30
0.0
  0
MTEXT
  5
24A
330
1F
100
AcDbEntity
  8
JISSEN
100
AcDbMText
 10
106.8535079702
 20
181.5798181287
 30
0.0
 40
3.5
 41
0.0
 71
     1
 72
     1
  1
2-M5×0.8　深10
  7
SLDTEXTSTYLE0
 73
     1
 44
1.0
  0
LEADER
  5
24B
330
1F
100
AcDbEntity
  8
JISSEN
100
AcDbLeader
  3
SLDDIMSTYLE2
 76
     3
 10
91.8452385223
 20
156.6867280678
 30
0.0
 10
106.3497187801
 20
177.5052351477
 30
0.0
 10
137.4052461258
 20
177.5052351477
 30
0.0
  0
MTEXT
  5
24C
330
1F
100
AcDbEntity
  8
JISSEN
100
AcDbMText
 10
118.7185265462
 20
103.1418475312
 30
0.0
 40
3.5
 41
0.0
 71
     1
 72
     1
  1
2×2-M5×0.8
  7
SLDTEXTSTYLE0
 73
     1
 44
1.0
  0
LEADER
  5
24D
330
1F
100
AcDbEntity
  8
JISSEN
100
AcDbLeader
  3
SLDDIMSTYLE2
 76
     3
 10
159.0120929328
 20
116.483994062
 30
0.0
 10
143.6583461837
 20
99.0684382301
 30
0.0
 10
118.7154876496
 20
99.0684382301
 30
0.0
  0
MTEXT
  5
24E
330
1F
100
AcDbEntity
  8
0
  6
Continuous
 62
     7
370
     0
100
AcDbMText
 10
152.6162349153
 20
29.8861652342
 30
0.0
 40
4.2333333333
 41
0.0
 71
     1
 72
     1
  1
HLS-20AS
  7
SLDTEXTSTYLE0
 73
     1
 44
1.0
  0
MTEXT
  5
24F
330
1F
100
AcDbEntity
  8
0
  6
Continuous
 62
     7
370
     0
100
AcDbMText
 10
145.3564638853
 20
43.4099788511
 30
0.0
 40
4.2333333333
 41
0.0
 71
     1
 72
     1
  1
薄型平行ハンド
  7
SLDTEXTSTYLE0
 73
     1
 44
1.0
  0
MTEXT
  5
250
330
1F
100
AcDbEntity
  8
0
  6
Continuous
 62
     7
370
     0
100
AcDbMText
 10
155.4641839334
 20
16.2918259049
 30
0.0
 40
4.2333333333
 41
0.0
 71
     1
 72
     1
  1
071997
  7
SLDTEXTSTYLE0
 73
     1
 44
1.0
  0
ENDSEC
  0
SECTION
  2
OBJECTS
  0
DICTIONARY
  5
C
330
0
100
AcDbDictionary
281
     1
  3
ACAD_GROUP
350
D
  3
ACAD_LAYOUT
350
1A
  3
ACAD_MLINESTYLE
350
17
  3
ACAD_PLOTSETTINGS
350
19
  3
ACAD_PLOTSTYLENAME
350
E
  0
DICTIONARY
  5
D
102
{ACAD_REACTORS
330
C
102
}
330
C
100
AcDbDictionary
281
     1
  0
DICTIONARY
  5
1A
102
{ACAD_REACTORS
330
C
102
}
330
C
100
AcDbDictionary
281
     1
  3
Layout1
350
1E
  3
Layout2
350
26
  3
Model
350
22
  0
DICTIONARY
  5
17
102
{ACAD_REACTORS
330
C
102
}
330
C
100
AcDbDictionary
281
     1
  3
Standard
350
18
  0
DICTIONARY
  5
19
102
{ACAD_REACTORS
330
C
102
}
330
C
100
AcDbDictionary
281
     1
  0
ACDBDICTIONARYWDFLT
  5
E
102
{ACAD_REACTORS
330
C
102
}
330
C
100
AcDbDictionary
281
     1
  3
Normal
350
F
100
AcDbDictionaryWithDefault
340
F
  0
LAYOUT
  5
1E
102
{ACAD_REACTORS
330
1A
102
}
330
1A
100
AcDbPlotSettings
  1

  2

  4

  6

 40
0.0
 41
0.0
 42
0.0
 43
0.0
 44
0.0
 45
0.0
 46
0.0
 47
0.0
 48
0.0
 49
0.0
140
0.0
141
0.0
142
1.0
143
1.0
 70
   688
 72
     0
 73
     0
 74
     5
  7

 75
    16
147
1.0
148
0.0
149
0.0
100
AcDbLayout
  1
Layout1
 70
     1
 71
     1
 10
0.0
 20
0.0
 11
0.0
 21
0.0
 12
0.0
 22
0.0
 32
0.0
 14
0.0
 24
0.0
 34
0.0
 15
0.0
 25
0.0
 35
0.0
146
0.0
 13
0.0
 23
0.0
 33
0.0
 16
1.0
 26
0.0
 36
0.0
 17
0.0
 27
1.0
 37
0.0
 76
     0
330
1B
  0
LAYOUT
  5
26
102
{ACAD_REACTORS
330
1A
102
}
330
1A
100
AcDbPlotSettings
  1

  2

  4

  6

 40
0.0
 41
0.0
 42
0.0
 43
0.0
 44
0.0
 45
0.0
 46
0.0
 47
0.0
 48
0.0
 49
0.0
140
0.0
141
0.0
142
1.0
143
1.0
 70
   688
 72
     0
 73
     0
 74
     5
  7

 75
    16
147
1.0
148
0.0
149
0.0
100
AcDbLayout
  1
Layout2
 70
     1
 71
     2
 10
0.0
 20
0.0
 11
0.0
 21
0.0
 12
0.0
 22
0.0
 32
0.0
 14
0.0
 24
0.0
 34
0.0
 15
0.0
 25
0.0
 35
0.0
146
0.0
 13
0.0
 23
0.0
 33
0.0
 16
1.0
 26
0.0
 36
0.0
 17
0.0
 27
1.0
 37
0.0
 76
     0
330
23
  0
LAYOUT
  5
22
102
{ACAD_REACTORS
330
1A
102
}
330
1A
100
AcDbPlotSettings
  1

  2

  4

  6

 40
0.0
 41
0.0
 42
0.0
 43
0.0
 44
0.0
 45
0.0
 46
0.0
 47
0.0
 48
0.0
 49
0.0
140
0.0
141
0.0
142
1.0
143
1.0
 70
  1712
 72
     0
 73
     0
 74
     0
  7

 75
     0
147
1.0
148
0.0
149
0.0
100
AcDbLayout
  1
Model
 70
     1
 71
     0
 10
0.0
 20
0.0
 11
0.0
 21
0.0
 12
0.0
 22
0.0
 32
0.0
 14
0.0
 24
0.0
 34
0.0
 15
210.0
 25
297.0
 35
0.0
146
0.0
 13
0.0
 23
0.0
 33
0.0
 16
1.0
 26
0.0
 36
0.0
 17
0.0
 27
1.0
 37
0.0
 76
     0
330
1F
  0
MLINESTYLE
  5
18
102
{ACAD_REACTORS
330
17
102
}
330
17
100
AcDbMlineStyle
  2
Standard
 70
     0
  3

 62
   256
 51
90.0
 52
90.0
 71
     2
 49
0.5
 62
   256
  6
BYLAYER
 49
-0.5
 62
   256
  6
BYLAYER
  0
ACDBPLACEHOLDER
  5
F
102
{ACAD_REACTORS
330
E
102
}
330
E
  0
ENDSEC
  0
EOF
