  0
SECTION
  2
HEADER
  9
$ACADVER
  1
AC1015
  9
$ACADMAINTVER
 70
     6
  9
$DWGCODEPAGE
  3
DOS932
  9
$INSBASE
 10
0.0
 20
0.0
 30
0.0
  9
$EXTMIN
 10
0.0
 20
0.0
 30
0.0
  9
$EXTMAX
 10
210.0
 20
297.0
 30
0.0
  9
$LIMMIN
 10
0.0
 20
0.0
  9
$LIMMAX
 10
0.0
 20
0.0
  9
$ORTHOMODE
 70
     0
  9
$REGENMODE
 70
     1
  9
$FILLMODE
 70
     1
  9
$QTEXTMODE
 70
     0
  9
$MIRRTEXT
 70
     1
  9
$LTSCALE
 40
1.0
  9
$ATTMODE
 70
     1
  9
$TEXTSIZE
 40
3.5
  9
$TRACEWID
 40
1.0
  9
$TEXTSTYLE
  7
Standard
  9
$CLAYER
  8
0
  9
$CELTYPE
  6
ByLayer
  9
$CECOLOR
 62
   256
  9
$CELTSCALE
 40
1.0
  9
$DISPSILH
 70
     0
  9
$DIMSCALE
 40
1.0
  9
$DIMASZ
 40
3.0
  9
$DIMEXO
 40
1.0
  9
$DIMDLI
 40
3.75
  9
$DIMRND
 40
0.0
  9
$DIMDLE
 40
0.0
  9
$DIMEXE
 40
1.0
  9
$DIMTP
 40
0.0
  9
$DIMTM
 40
0.0
  9
$DIMTXT
 40
3.5
  9
$DIMCEN
 40
2.5
  9
$DIMTSZ
 40
0.0
  9
$DIMTOL
 70
     0
  9
$DIMLIM
 70
     0
  9
$DIMTIH
 70
     1
  9
$DIMTOH
 70
     1
  9
$DIMSE1
 70
     0
  9
$DIMSE2
 70
     0
  9
$DIMTAD
 70
     1
  9
$DIMZIN
 70
     0
  9
$DIMBLK
  1

  9
$DIMASO
 70
     1
  9
$DIMSHO
 70
     1
  9
$DIMPOST
  1

  9
$DIMAPOST
  1

  9
$DIMALT
 70
     0
  9
$DIMALTD
 70
     3
  9
$DIMALTF
 40
0.0393700787
  9
$DIMLFAC
 40
1.0
  9
$DIMTOFL
 70
     1
  9
$DIMTVP
 40
0.0
  9
$DIMTIX
 70
     0
  9
$DIMSOXD
 70
     0
  9
$DIMSAH
 70
     0
  9
$DIMBLK1
  1

  9
$DIMBLK2
  1

  9
$DIMSTYLE
  2
ISO-25
  9
$DIMCLRD
 70
     0
  9
$DIMCLRE
 70
     0
  9
$DIMCLRT
 70
     0
  9
$DIMTFAC
 40
1.0
  9
$DIMGAP
 40
1.524
  9
$DIMJUST
 70
     0
  9
$DIMSD1
 70
     0
  9
$DIMSD2
 70
     0
  9
$DIMTOLJ
 70
     0
  9
$DIMTZIN
 70
     0
  9
$DIMALTZ
 70
     0
  9
$DIMALTTZ
 70
     0
  9
$DIMUPT
 70
     0
  9
$DIMDEC
 70
     2
  9
$DIMTDEC
 70
     2
  9
$DIMALTU
 70
     2
  9
$DIMALTTD
 70
     3
  9
$DIMTXSTY
  7
Standard
  9
$DIMAUNIT
 70
     0
  9
$DIMADEC
 70
     0
  9
$DIMALTRND
 40
0.0
  9
$DIMAZIN
 70
     0
  9
$DIMDSEP
 70
    44
  9
$DIMATFIT
 70
     3
  9
$DIMFRAC
 70
     0
  9
$DIMLDRBLK
  1

  9
$DIMLUNIT
 70
     2
  9
$DIMLWD
 70
    -2
  9
$DIMLWE
 70
    -2
  9
$DIMTMOVE
 70
     0
  9
$LUNITS
 70
     2
  9
$LUPREC
 70
     1
  9
$SKETCHINC
 40
1.0
  9
$FILLETRAD
 40
10.0
  9
$AUNITS
 70
     0
  9
$AUPREC
 70
     0
  9
$MENU
  1
.
  9
$ELEVATION
 40
0.0
  9
$PELEVATION
 40
0.0
  9
$THICKNESS
 40
0.0
  9
$LIMCHECK
 70
     0
  9
$CHAMFERA
 40
10.0
  9
$CHAMFERB
 40
10.0
  9
$CHAMFERC
 40
20.0
  9
$CHAMFERD
 40
0.0
  9
$SKPOLY
 70
     0
  9
$TDCREATE
 40
2454427.410317743
  9
$TDUCREATE
 40
2454427.035317743
  9
$TDUPDATE
 40
2454427.410317755
  9
$TDUUPDATE
 40
2454427.035317755
  9
$TDINDWG
 40
0.0000000116
  9
$TDUSRTIMER
 40
0.0000000116
  9
$USRTIMER
 70
     1
  9
$ANGBASE
 50
0.0
  9
$ANGDIR
 70
     0
  9
$PDMODE
 70
     0
  9
$PDSIZE
 40
-1.0
  9
$PLINEWID
 40
0.0
  9
$SPLFRAME
 70
     0
  9
$SPLINETYPE
 70
     6
  9
$SPLINESEGS
 70
     8
  9
$HANDSEED
  5
4D8
  9
$SURFTAB1
 70
     6
  9
$SURFTAB2
 70
     6
  9
$SURFTYPE
 70
     6
  9
$SURFU
 70
     6
  9
$SURFV
 70
     6
  9
$UCSBASE
  2

  9
$UCSNAME
  2

  9
$UCSORG
 10
0.0
 20
0.0
 30
0.0
  9
$UCSXDIR
 10
1.0
 20
0.0
 30
0.0
  9
$UCSYDIR
 10
0.0
 20
1.0
 30
0.0
  9
$UCSORTHOREF
  2

  9
$UCSORTHOVIEW
 70
     0
  9
$UCSORGTOP
 10
0.0
 20
0.0
 30
0.0
  9
$UCSORGBOTTOM
 10
0.0
 20
0.0
 30
0.0
  9
$UCSORGLEFT
 10
0.0
 20
0.0
 30
0.0
  9
$UCSORGRIGHT
 10
0.0
 20
0.0
 30
0.0
  9
$UCSORGFRONT
 10
0.0
 20
0.0
 30
0.0
  9
$UCSORGBACK
 10
0.0
 20
0.0
 30
0.0
  9
$PUCSBASE
  2

  9
$PUCSNAME
  2

  9
$PUCSORG
 10
0.0
 20
0.0
 30
0.0
  9
$PUCSXDIR
 10
1.0
 20
0.0
 30
0.0
  9
$PUCSYDIR
 10
0.0
 20
1.0
 30
0.0
  9
$PUCSORTHOREF
  2

  9
$PUCSORTHOVIEW
 70
     0
  9
$PUCSORGTOP
 10
0.0
 20
0.0
 30
0.0
  9
$PUCSORGBOTTOM
 10
0.0
 20
0.0
 30
0.0
  9
$PUCSORGLEFT
 10
0.0
 20
0.0
 30
0.0
  9
$PUCSORGRIGHT
 10
0.0
 20
0.0
 30
0.0
  9
$PUCSORGFRONT
 10
0.0
 20
0.0
 30
0.0
  9
$PUCSORGBACK
 10
0.0
 20
0.0
 30
0.0
  9
$USERI1
 70
     0
  9
$USERI2
 70
     0
  9
$USERI3
 70
     0
  9
$USERI4
 70
     0
  9
$USERI5
 70
     0
  9
$USERR1
 40
0.0
  9
$USERR2
 40
0.0
  9
$USERR3
 40
0.0
  9
$USERR4
 40
0.0
  9
$USERR5
 40
0.0
  9
$WORLDVIEW
 70
     1
  9
$SHADEDGE
 70
     3
  9
$SHADEDIF
 70
    70
  9
$TILEMODE
 70
     1
  9
$MAXACTVP
 70
    64
  9
$PINSBASE
 10
0.0
 20
0.0
 30
0.0
  9
$PLIMCHECK
 70
     0
  9
$PEXTMIN
 10
1.0000000000E+20
 20
1.0000000000E+20
 30
1.0000000000E+20
  9
$PEXTMAX
 10
-1.0000000000E+20
 20
-1.0000000000E+20
 30
-1.0000000000E+20
  9
$PLIMMIN
 10
0.0
 20
0.0
  9
$PLIMMAX
 10
420.0
 20
297.0
  9
$UNITMODE
 70
     0
  9
$VISRETAIN
 70
     1
  9
$PLINEGEN
 70
     0
  9
$PSLTSCALE
 70
     1
  9
$TREEDEPTH
 70
  3020
  9
$CMLSTYLE
  2
Standard
  9
$CMLJUST
 70
     0
  9
$CMLSCALE
 40
20.0
  9
$PROXYGRAPHICS
 70
     1
  9
$MEASUREMENT
 70
     1
  9
$CELWEIGHT
370
    -1
  9
$ENDCAPS
280
     0
  9
$JOINSTYLE
280
     0
  9
$LWDISPLAY
290
     1
  9
$INSUNITS
 70
     4
  9
$HYPERLINKBASE
  1

  9
$STYLESHEET
  1

  9
$XEDIT
290
     1
  9
$CEPSNTYPE
380
     0
  9
$PSTYLEMODE
290
     1
  9
$FINGERPRINTGUID
  2
{8155F0E3-A948-4EAD-829F-8F56334F3500}
  9
$VERSIONGUID
  2
{FAEB1C32-E019-11D5-929B-00C0DF256EC4}
  9
$EXTNAMES
290
     1
  9
$PSVPSCALE
 40
0.0
  9
$OLESTARTUP
290
     0
  0
ENDSEC
  0
SECTION
  2
CLASSES
  0
CLASS
  1
ACDBDICTIONARYWDFLT
  2
AcDbDictionaryWithDefault
  3
ObjectDBX Classes
 90
        0
280
     0
281
     0
  0
CLASS
  1
ACDBPLACEHOLDER
  2
AcDbPlaceHolder
  3
ObjectDBX Classes
 90
        0
280
     0
281
     0
  0
CLASS
  1
LAYOUT
  2
AcDbLayout
  3
ObjectDBX Classes
 90
        0
280
     0
281
     0
  0
ENDSEC
  0
SECTION
  2
TABLES
  0
TABLE
  2
VPORT
  5
8
330
0
100
AcDbSymbolTable
 70
     1
  0
VPORT
  5
29
330
8
100
AcDbSymbolTableRecord
100
AcDbViewportTableRecord
  2
*Active
 70
     0
 10
0.0
 20
0.0
 11
1.0
 21
1.0
 12
105.0
 22
148.5
 13
0.0
 23
0.0
 14
10.0
 24
10.0
 15
10.0
 25
10.0
 16
0.0
 26
0.0
 36
1.0
 17
0.0
 27
0.0
 37
0.0
 40
297.0
 41
1.9729729729
 42
50.0
 43
0.0
 44
0.0
 50
0.0
 51
0.0
 71
     0
 72
  2000
 73
     1
 74
     3
 75
     0
 76
     0
 77
     0
 78
     0
281
     0
 65
     1
110
0.0
120
0.0
130
0.0
111
1.0
121
0.0
131
0.0
112
0.0
122
1.0
132
0.0
 79
     0
146
0.0
  0
ENDTAB
  0
TABLE
  2
LTYPE
  5
5
330
0
100
AcDbSymbolTable
 70
     6
  0
LTYPE
  5
14
330
5
100
AcDbSymbolTableRecord
100
AcDbLinetypeTableRecord
  2
ByBlock
 70
     0
  3

 72
    65
 73
     0
 40
0.0
  0
LTYPE
  5
15
330
5
100
AcDbSymbolTableRecord
100
AcDbLinetypeTableRecord
  2
ByLayer
 70
     0
  3

 72
    65
 73
     0
 40
0.0
  0
LTYPE
  5
16
330
5
100
AcDbSymbolTableRecord
100
AcDbLinetypeTableRecord
  2
Continuous
 70
     0
  3
Solid line
 72
    65
 73
     0
 40
0.0
  0
LTYPE
  5
2A
330
5
100
AcDbSymbolTableRecord
100
AcDbLinetypeTableRecord
  2
HIDDEN
 70
     0
  3
Hidden __ __ __ __ __ __ __ __ __ __ __ __ __ __
 72
    65
 73
     2
 40
1.905
 49
1.27
 74
     0
 49
-0.635
 74
     0
  0
LTYPE
  5
2B
330
5
100
AcDbSymbolTableRecord
100
AcDbLinetypeTableRecord
  2
PHANTOM
 70
     0
  3
Phantom ______  __  __  ______  __  __  ______
 72
    65
 73
     6
 40
12.7
 49
6.35
 74
     0
 49
-1.27
 74
     0
 49
1.27
 74
     0
 49
-1.27
 74
     0
 49
1.27
 74
     0
 49
-1.27
 74
     0
  0
LTYPE
  5
2C
330
5
100
AcDbSymbolTableRecord
100
AcDbLinetypeTableRecord
  2
CENTER
 70
     0
  3
Center ____ _ ____ _ ____ _ ____ _ ____ _ ____
 72
    65
 73
     4
 40
10.16
 49
6.35
 74
     0
 49
-1.27
 74
     0
 49
1.27
 74
     0
 49
-1.27
 74
     0
  0
LTYPE
  5
2D
330
5
100
AcDbSymbolTableRecord
100
AcDbLinetypeTableRecord
  2
CENTERX2
 70
     0
  3
Center (2x) ________  __  ________  __  _____
 72
    65
 73
     4
 40
20.32
 49
12.7
 74
     0
 49
-2.54
 74
     0
 49
2.54
 74
     0
 49
-2.54
 74
     0
  0
LTYPE
  5
2E
330
5
100
AcDbSymbolTableRecord
100
AcDbLinetypeTableRecord
  2
DOT2
 70
     0
  3
Dot (.5x) ........................................
 72
    65
 73
     2
 40
0.635
 49
0.0
 74
     0
 49
-0.635
 74
     0
  0
ENDTAB
  0
TABLE
  2
LAYER
  5
2
330
0
100
AcDbSymbolTable
 70
     2
  0
LAYER
  5
10
330
2
100
AcDbSymbolTableRecord
100
AcDbLayerTableRecord
  2
0
 70
     0
 62
     7
  6
Continuous
370
    -3
390
F
  0
LAYER
  5
143
330
2
100
AcDbSymbolTableRecord
100
AcDbLayerTableRecord
  2
Defpoints
 70
     0
 62
     7
  6
Continuous
290
     0
370
    -3
390
F
  0
ENDTAB
  0
TABLE
  2
STYLE
  5
3
330
0
100
AcDbSymbolTable
 70
     2
  0
STYLE
  5
11
330
3
100
AcDbSymbolTableRecord
100
AcDbTextStyleTableRecord
  2
Standard
 70
     0
 40
0.0
 41
1.0
 50
0.0
 71
     0
 42
2.5
  3
txt
  4
bigfont
  0
STYLE
  5
37
330
3
100
AcDbSymbolTableRecord
100
AcDbTextStyleTableRecord
  2
SLDTEXTSTYLE0
 70
     0
 40
0.0
 41
0.7
 50
0.0
 71
     0
 42
0.2
  3
TXT
  4
bigfont
  0
ENDTAB
  0
TABLE
  2
VIEW
  5
6
330
0
100
AcDbSymbolTable
 70
     0
  0
ENDTAB
  0
TABLE
  2
UCS
  5
7
330
0
100
AcDbSymbolTable
 70
     0
  0
ENDTAB
  0
TABLE
  2
APPID
  5
9
330
0
100
AcDbSymbolTable
 70
     1
  0
APPID
  5
12
330
9
100
AcDbSymbolTableRecord
100
AcDbRegAppTableRecord
  2
ACAD
 70
     0
  0
ENDTAB
  0
TABLE
  2
DIMSTYLE
  5
A
330
0
100
AcDbSymbolTable
 70
     3
100
AcDbDimStyleTable
  0
DIMSTYLE
105
27
330
A
100
AcDbSymbolTableRecord
100
AcDbDimStyleTableRecord
  2
ISO-25
 70
     0
 41
2.5
 42
0.625
 43
3.75
 44
1.25
 73
     0
 74
     0
 77
     1
 78
     8
140
2.5
141
2.5
143
0.0393700787
147
0.625
171
     3
172
     1
271
     2
272
     2
274
     3
278
    44
283
     0
284
     8
340
11
  0
DIMSTYLE
105
151
102
{ACAD_REACTORS
330
142
330
161
330
178
330
18B
330
19F
330
1B5
330
258
330
26D
330
282
330
299
330
2B0
330
2C4
330
2DB
330
475
330
488
330
49C
330
4AF
330
4C2
102
}
330
A
100
AcDbSymbolTableRecord
100
AcDbDimStyleTableRecord
  2
SLDDIMSTYLE0
 70
     0
 41
3.0
 44
0.0
 73
     0
 74
     0
 77
     3
 78
    12
140
3.5
147
0.875
173
     1
271
     1
272
     3
284
    12
340
37
341
152
343
152
344
152
  0
DIMSTYLE
105
2F2
330
A
100
AcDbSymbolTableRecord
100
AcDbDimStyleTableRecord
  2
SLDDIMSTYLE1
 70
     0
 41
3.0
 44
0.0
140
3.0
147
0.75
173
     1
271
     0
272
     0
340
11
341
152
343
152
344
152
  0
ENDTAB
  0
TABLE
  2
BLOCK_RECORD
  5
1
330
0
100
AcDbSymbolTable
 70
    20
  0
BLOCK_RECORD
  5
1F
330
1
100
AcDbSymbolTableRecord
100
AcDbBlockTableRecord
  2
*Model_Space
340
22
  0
BLOCK_RECORD
  5
1B
330
1
100
AcDbSymbolTableRecord
100
AcDbBlockTableRecord
  2
*Paper_Space
340
1E
  0
BLOCK_RECORD
  5
23
330
1
100
AcDbSymbolTableRecord
100
AcDbBlockTableRecord
  2
*Paper_Space0
340
26
  0
BLOCK_RECORD
  5
144
330
1
100
AcDbSymbolTableRecord
100
AcDbBlockTableRecord
  2
*D1
340
0
  0
BLOCK_RECORD
  5
152
330
1
100
AcDbSymbolTableRecord
100
AcDbBlockTableRecord
  2
_Open30
340
0
102
{BLKREFS
331
14B
331
14A
331
159
331
15A
331
169
331
168
331
170
331
171
331
17E
331
17D
331
185
331
186
331
191
331
190
331
199
331
19A
331
1A5
331
1A4
331
1AD
331
1AE
331
1BB
331
1BA
331
1C3
331
1C4
331
25E
331
25D
331
265
331
266
331
273
331
272
331
27A
331
27B
331
28A
331
289
331
291
331
292
331
2A1
331
2A0
331
2A8
331
2A9
331
2B6
331
2B5
331
2BE
331
2BF
331
2CC
331
2CB
331
2D3
331
2D4
331
2E2
331
2E1
331
2EA
331
2EB
331
47B
331
47A
331
482
331
483
331
48E
331
48D
331
496
331
497
331
4A2
331
4A1
331
4A9
331
4AA
331
4B5
331
4B4
331
4BC
331
4BD
331
4C8
331
4C7
331
4D0
331
4D1
102
}
  0
BLOCK_RECORD
  5
162
330
1
100
AcDbSymbolTableRecord
100
AcDbBlockTableRecord
  2
*D3
340
0
  0
BLOCK_RECORD
  5
179
330
1
100
AcDbSymbolTableRecord
100
AcDbBlockTableRecord
  2
*D4
340
0
  0
BLOCK_RECORD
  5
18C
330
1
100
AcDbSymbolTableRecord
100
AcDbBlockTableRecord
  2
*D5
340
0
  0
BLOCK_RECORD
  5
1A0
330
1
100
AcDbSymbolTableRecord
100
AcDbBlockTableRecord
  2
*D6
340
0
  0
BLOCK_RECORD
  5
1B6
330
1
100
AcDbSymbolTableRecord
100
AcDbBlockTableRecord
  2
*D7
340
0
  0
BLOCK_RECORD
  5
259
330
1
100
AcDbSymbolTableRecord
100
AcDbBlockTableRecord
  2
*D8
340
0
  0
BLOCK_RECORD
  5
26E
330
1
100
AcDbSymbolTableRecord
100
AcDbBlockTableRecord
  2
*D9
340
0
  0
BLOCK_RECORD
  5
283
330
1
100
AcDbSymbolTableRecord
100
AcDbBlockTableRecord
  2
*D10
340
0
  0
BLOCK_RECORD
  5
29A
330
1
100
AcDbSymbolTableRecord
100
AcDbBlockTableRecord
  2
*D11
340
0
  0
BLOCK_RECORD
  5
2B1
330
1
100
AcDbSymbolTableRecord
100
AcDbBlockTableRecord
  2
*D12
340
0
  0
BLOCK_RECORD
  5
2C5
330
1
100
AcDbSymbolTableRecord
100
AcDbBlockTableRecord
  2
*D13
340
0
  0
BLOCK_RECORD
  5
2DC
330
1
100
AcDbSymbolTableRecord
100
AcDbBlockTableRecord
  2
*D14
340
0
  0
BLOCK_RECORD
  5
476
330
1
100
AcDbSymbolTableRecord
100
AcDbBlockTableRecord
  2
*D15
340
0
  0
BLOCK_RECORD
  5
489
330
1
100
AcDbSymbolTableRecord
100
AcDbBlockTableRecord
  2
*D16
340
0
  0
BLOCK_RECORD
  5
49D
330
1
100
AcDbSymbolTableRecord
100
AcDbBlockTableRecord
  2
*D17
340
0
  0
BLOCK_RECORD
  5
4B0
330
1
100
AcDbSymbolTableRecord
100
AcDbBlockTableRecord
  2
*D18
340
0
  0
BLOCK_RECORD
  5
4C3
330
1
100
AcDbSymbolTableRecord
100
AcDbBlockTableRecord
  2
*D19
340
0
  0
ENDTAB
  0
ENDSEC
  0
SECTION
  2
BLOCKS
  0
BLOCK
  5
20
330
1F
100
AcDbEntity
  8
0
100
AcDbBlockBegin
  2
*Model_Space
 70
     0
 71
     0
 10
0.0
 20
0.0
 30
0.0
  3
*Model_Space
  1

  0
ENDBLK
  5
21
330
1F
100
AcDbEntity
  8
0
100
AcDbBlockEnd
  0
BLOCK
  5
1C
330
1B
100
AcDbEntity
 67
     1
  8
0
100
AcDbBlockBegin
  2
*Paper_Space
 70
     0
 71
     0
 10
0.0
 20
0.0
 30
0.0
  3
*Paper_Space
  1

  0
ENDBLK
  5
1D
330
1B
100
AcDbEntity
 67
     1
  8
0
100
AcDbBlockEnd
  0
BLOCK
  5
24
330
23
100
AcDbEntity
  8
0
100
AcDbBlockBegin
  2
*Paper_Space0
 70
     0
 71
     0
 10
0.0
 20
0.0
 30
0.0
  3
*Paper_Space0
  1

  0
ENDBLK
  5
25
330
23
100
AcDbEntity
  8
0
100
AcDbBlockEnd
  0
BLOCK
  5
14F
330
144
100
AcDbEntity
  8
0
100
AcDbBlockBegin
  2
*D1
 70
     1
 71
     0
 10
0.0
 20
0.0
 30
0.0
  3
*D1
  1

  0
INSERT
  5
159
330
144
100
AcDbEntity
  8
0
  6
Continuous
 62
     7
370
     0
100
AcDbBlockReference
  2
_Open30
 10
89.9474832472
 20
74.3974115311
 30
0.1
 41
3.0
 42
3.0
 50
180.0
  0
INSERT
  5
15A
330
144
100
AcDbEntity
  8
0
  6
Continuous
 62
     7
370
     0
100
AcDbBlockReference
  2
_Open30
 10
81.9474832472
 20
74.3974115311
 30
0.1
 41
3.0
 42
3.0
 50
360.0
  0
LINE
  5
15B
330
144
100
AcDbEntity
  8
0
  6
Continuous
 62
     7
370
     0
100
AcDbLine
 10
89.9474832472
 20
97.090369818
 30
0.0
 11
89.9474832472
 21
73.3974115311
 31
0.0
  0
LINE
  5
15C
330
144
100
AcDbEntity
  8
0
  6
Continuous
 62
     7
370
     0
100
AcDbLine
 10
81.9474832472
 20
97.090369818
 30
0.0
 11
81.9474832472
 21
73.3974115311
 31
0.0
  0
LINE
  5
15D
330
144
100
AcDbEntity
  8
0
  6
Continuous
 62
     7
370
     0
100
AcDbLine
 10
89.9474832472
 20
74.3974115311
 30
0.0
 11
94.9474832472
 21
74.3974115311
 31
0.0
  0
LINE
  5
15E
330
144
100
AcDbEntity
  8
0
  6
Continuous
 62
     7
370
     0
100
AcDbLine
 10
89.9474832472
 20
74.3974115311
 30
0.0
 11
81.9474832472
 21
74.3974115311
 31
0.0
  0
LINE
  5
15F
330
144
100
AcDbEntity
  8
0
  6
Continuous
 62
     7
370
     0
100
AcDbLine
 10
81.9474832472
 20
74.3974115311
 30
0.0
 11
76.9474832472
 21
74.3974115311
 31
0.0
  0
MTEXT
  5
160
330
144
100
AcDbEntity
  8
0
  6
Continuous
 62
     7
370
     0
100
AcDbMText
 10
84.9298597565
 20
78.470138571
 30
0.0
 40
3.5
 41
0.0
 71
     1
 72
     1
  1
8
  7
SLDTEXTSTYLE0
 73
     1
 44
1.0
  0
ENDBLK
  5
150
330
144
100
AcDbEntity
  8
0
100
AcDbBlockEnd
  0
BLOCK
  5
153
330
152
100
AcDbEntity
  8
0
100
AcDbBlockBegin
  2
_Open30
 70
     0
 71
     0
 10
0.0
 20
0.0
 30
0.0
  3
_Open30
  1

  0
LINE
  5
155
330
152
100
AcDbEntity
  8
0
  6
ByBlock
 62
     0
370
    -2
100
AcDbLine
 10
-1.0
 20
0.267949
 30
0.0
 11
0.0
 21
0.0
 31
0.0
  0
LINE
  5
156
330
152
100
AcDbEntity
  8
0
  6
ByBlock
 62
     0
370
    -2
100
AcDbLine
 10
0.0
 20
0.0
 30
0.0
 11
-1.0
 21
-0.267949
 31
0.0
  0
LINE
  5
157
330
152
100
AcDbEntity
  8
0
  6
ByBlock
 62
     0
370
    -2
100
AcDbLine
 10
0.0
 20
0.0
 30
0.0
 11
-1.0
 21
0.0
 31
0.0
  0
ENDBLK
  5
154
330
152
100
AcDbEntity
  8
0
100
AcDbBlockEnd
  0
BLOCK
  5
16D
330
162
100
AcDbEntity
  8
0
100
AcDbBlockBegin
  2
*D3
 70
     1
 71
     0
 10
0.0
 20
0.0
 30
0.0
  3
*D3
  1

  0
INSERT
  5
170
330
162
100
AcDbEntity
  8
0
  6
Continuous
 62
     7
370
     0
100
AcDbBlockReference
  2
_Open30
 10
102.9573546895
 20
148.0903703783
 30
0.1
 41
3.0
 42
3.0
 50
270.0
  0
INSERT
  5
171
330
162
100
AcDbEntity
  8
0
  6
Continuous
 62
     7
370
     0
100
AcDbBlockReference
  2
_Open30
 10
102.9573546895
 20
139.590369818
 30
0.1
 41
3.0
 42
3.0
 50
90.0
  0
LINE
  5
172
330
162
100
AcDbEntity
  8
0
  6
Continuous
 62
     7
370
     0
100
AcDbLine
 10
94.9474832472
 20
148.0903703783
 30
0.0
 11
103.9573546895
 21
148.0903703783
 31
0.0
  0
LINE
  5
173
330
162
100
AcDbEntity
  8
0
  6
Continuous
 62
     7
370
     0
100
AcDbLine
 10
96.4474832472
 20
139.590369818
 30
0.0
 11
103.9573546895
 21
139.590369818
 31
0.0
  0
LINE
  5
174
330
162
100
AcDbEntity
  8
0
  6
Continuous
 62
     7
370
     0
100
AcDbLine
 10
102.9573546895
 20
148.0903703783
 30
0.0
 11
102.9573546895
 21
153.0903703783
 31
0.0
  0
LINE
  5
175
330
162
100
AcDbEntity
  8
0
  6
Continuous
 62
     7
370
     0
100
AcDbLine
 10
102.9573546895
 20
148.0903703783
 30
0.0
 11
102.9573546895
 21
139.590369818
 31
0.0
  0
LINE
  5
176
330
162
100
AcDbEntity
  8
0
  6
Continuous
 62
     7
370
     0
100
AcDbLine
 10
102.9573546895
 20
139.590369818
 30
0.0
 11
102.9573546895
 21
134.590369818
 31
0.0
  0
MTEXT
  5
177
330
162
100
AcDbEntity
  8
0
  6
Continuous
 62
     7
370
     0
100
AcDbMText
 10
98.8846276496
 20
140.7860862603
 30
0.0
 40
3.5
 41
0.0
 71
     1
 72
     1
  1
8.5
  7
SLDTEXTSTYLE0
 11
-7.044197039909883E-15
 21
1.0
 31
0.0
 73
     1
 44
1.0
  0
ENDBLK
  5
16E
330
162
100
AcDbEntity
  8
0
100
AcDbBlockEnd
  0
BLOCK
  5
183
330
179
100
AcDbEntity
  8
0
100
AcDbBlockBegin
  2
*D4
 70
     1
 71
     0
 10
0.0
 20
0.0
 30
0.0
  3
*D4
  1

  0
INSERT
  5
185
330
179
100
AcDbEntity
  8
0
  6
Continuous
 62
     7
370
     0
100
AcDbBlockReference
  2
_Open30
 10
51.9474832472
 20
74.3974115311
 30
0.1
 41
3.0
 42
3.0
 50
180.0
  0
INSERT
  5
186
330
179
100
AcDbEntity
  8
0
  6
Continuous
 62
     7
370
     0
100
AcDbBlockReference
  2
_Open30
 10
81.9474832472
 20
74.3974115311
 30
0.1
 41
3.0
 42
3.0
 50
0.0
  0
LINE
  5
187
330
179
100
AcDbEntity
  8
0
  6
Continuous
 62
     7
370
     0
100
AcDbLine
 10
51.9474832472
 20
97.090369818
 30
0.0
 11
51.9474832472
 21
73.3974115311
 31
0.0
  0
LINE
  5
188
330
179
100
AcDbEntity
  8
0
  6
Continuous
 62
     7
370
     0
100
AcDbLine
 10
81.9474832472
 20
97.090369818
 30
0.0
 11
81.9474832472
 21
73.3974115311
 31
0.0
  0
LINE
  5
189
330
179
100
AcDbEntity
  8
0
  6
Continuous
 62
     7
370
     0
100
AcDbLine
 10
51.9474832472
 20
74.3974115311
 30
0.0
 11
81.9474832472
 21
74.3974115311
 31
0.0
  0
MTEXT
  5
18A
330
179
100
AcDbEntity
  8
0
  6
Continuous
 62
     7
370
     0
100
AcDbMText
 10
64.9108229
 20
78.470138571
 30
0.0
 40
3.5
 41
0.0
 71
     1
 72
     1
  1
30
  7
SLDTEXTSTYLE0
 73
     1
 44
1.0
  0
ENDBLK
  5
184
330
179
100
AcDbEntity
  8
0
100
AcDbBlockEnd
  0
BLOCK
  5
197
330
18C
100
AcDbEntity
  8
0
100
AcDbBlockBegin
  2
*D5
 70
     1
 71
     0
 10
0.0
 20
0.0
 30
0.0
  3
*D5
  1

  0
INSERT
  5
199
330
18C
100
AcDbEntity
  8
0
  6
Continuous
 62
     7
370
     0
100
AcDbBlockReference
  2
_Open30
 10
111.2584118081
 20
148.0903703783
 30
0.1
 41
3.0
 42
3.0
 50
90.0
  0
INSERT
  5
19A
330
18C
100
AcDbEntity
  8
0
  6
Continuous
 62
     7
370
     0
100
AcDbBlockReference
  2
_Open30
 10
111.2584118081
 20
108.090369818
 30
0.1
 41
3.0
 42
3.0
 50
270.0
  0
LINE
  5
19B
330
18C
100
AcDbEntity
  8
0
  6
Continuous
 62
     7
370
     0
100
AcDbLine
 10
94.9474832472
 20
148.0903703783
 30
0.0
 11
112.2584118081
 21
148.0903703783
 31
0.0
  0
LINE
  5
19C
330
18C
100
AcDbEntity
  8
0
  6
Continuous
 62
     7
370
     0
100
AcDbLine
 10
92.4474832472
 20
108.090369818
 30
0.0
 11
112.2584118081
 21
108.090369818
 31
0.0
  0
LINE
  5
19D
330
18C
100
AcDbEntity
  8
0
  6
Continuous
 62
     7
370
     0
100
AcDbLine
 10
111.2584118081
 20
148.0903703783
 30
0.0
 11
111.2584118081
 21
108.090369818
 31
0.0
  0
MTEXT
  5
19E
330
18C
100
AcDbEntity
  8
0
  6
Continuous
 62
     7
370
     0
100
AcDbMText
 10
107.1856847683
 20
126.053709751
 30
0.0
 40
3.5
 41
0.0
 71
     1
 72
     1
  1
40
  7
SLDTEXTSTYLE0
 11
-7.044197039909883E-15
 21
1.0
 31
0.0
 73
     1
 44
1.0
  0
ENDBLK
  5
198
330
18C
100
AcDbEntity
  8
0
100
AcDbBlockEnd
  0
BLOCK
  5
1AB
330
1A0
100
AcDbEntity
  8
0
100
AcDbBlockBegin
  2
*D6
 70
     1
 71
     0
 10
0.0
 20
0.0
 30
0.0
  3
*D6
  1

  0
INSERT
  5
1AD
330
1A0
100
AcDbEntity
  8
0
  6
Continuous
 62
     7
370
     0
100
AcDbBlockReference
  2
_Open30
 10
111.2584118081
 20
108.090369818
 30
0.1
 41
3.0
 42
3.0
 50
270.0
  0
INSERT
  5
1AE
330
1A0
100
AcDbEntity
  8
0
  6
Continuous
 62
     7
370
     0
100
AcDbBlockReference
  2
_Open30
 10
111.2584118081
 20
98.090369818
 30
0.1
 41
3.0
 42
3.0
 50
90.0
  0
LINE
  5
1AF
330
1A0
100
AcDbEntity
  8
0
  6
Continuous
 62
     7
370
     0
100
AcDbLine
 10
92.4474832472
 20
108.090369818
 30
0.0
 11
112.2584118081
 21
108.090369818
 31
0.0
  0
LINE
  5
1B0
330
1A0
100
AcDbEntity
  8
0
  6
Continuous
 62
     7
370
     0
100
AcDbLine
 10
90.9474832472
 20
98.090369818
 30
0.0
 11
112.2584118081
 21
98.090369818
 31
0.0
  0
LINE
  5
1B1
330
1A0
100
AcDbEntity
  8
0
  6
Continuous
 62
     7
370
     0
100
AcDbLine
 10
111.2584118081
 20
108.090369818
 30
0.0
 11
111.2584118081
 21
113.090369818
 31
0.0
  0
LINE
  5
1B2
330
1A0
100
AcDbEntity
  8
0
  6
Continuous
 62
     7
370
     0
100
AcDbLine
 10
111.2584118081
 20
108.090369818
 30
0.0
 11
111.2584118081
 21
98.090369818
 31
0.0
  0
LINE
  5
1B3
330
1A0
100
AcDbEntity
  8
0
  6
Continuous
 62
     7
370
     0
100
AcDbLine
 10
111.2584118081
 20
98.090369818
 30
0.0
 11
111.2584118081
 21
93.090369818
 31
0.0
  0
MTEXT
  5
1B4
330
1A0
100
AcDbEntity
  8
0
  6
Continuous
 62
     7
370
     0
100
AcDbMText
 10
107.1856847683
 20
101.0537094708
 30
0.0
 40
3.5
 41
0.0
 71
     1
 72
     1
  1
10
  7
SLDTEXTSTYLE0
 11
-7.044197039909883E-15
 21
1.0
 31
0.0
 73
     1
 44
1.0
  0
ENDBLK
  5
1AC
330
1A0
100
AcDbEntity
  8
0
100
AcDbBlockEnd
  0
BLOCK
  5
1C1
330
1B6
100
AcDbEntity
  8
0
100
AcDbBlockBegin
  2
*D7
 70
     1
 71
     0
 10
0.0
 20
0.0
 30
0.0
  3
*D7
  1

  0
INSERT
  5
1C3
330
1B6
100
AcDbEntity
  8
0
  6
Continuous
 62
     7
370
     0
100
AcDbBlockReference
  2
_Open30
 10
102.9573546895
 20
139.590369818
 30
0.1
 41
3.0
 42
3.0
 50
90.0
  0
INSERT
  5
1C4
330
1B6
100
AcDbEntity
  8
0
  6
Continuous
 62
     7
370
     0
100
AcDbBlockReference
  2
_Open30
 10
102.9573546895
 20
108.090369818
 30
0.1
 41
3.0
 42
3.0
 50
270.0
  0
LINE
  5
1C5
330
1B6
100
AcDbEntity
  8
0
  6
Continuous
 62
     7
370
     0
100
AcDbLine
 10
96.4474832472
 20
139.590369818
 30
0.0
 11
103.9573546895
 21
139.590369818
 31
0.0
  0
LINE
  5
1C6
330
1B6
100
AcDbEntity
  8
0
  6
Continuous
 62
     7
370
     0
100
AcDbLine
 10
92.4474832472
 20
108.090369818
 30
0.0
 11
103.9573546895
 21
108.090369818
 31
0.0
  0
LINE
  5
1C7
330
1B6
100
AcDbEntity
  8
0
  6
Continuous
 62
     7
370
     0
100
AcDbLine
 10
102.9573546895
 20
139.590369818
 30
0.0
 11
102.9573546895
 21
108.090369818
 31
0.0
  0
MTEXT
  5
1C8
330
1B6
100
AcDbEntity
  8
0
  6
Continuous
 62
     7
370
     0
100
AcDbMText
 10
98.8846276496
 20
119.7670491236
 30
0.0
 40
3.5
 41
0.0
 71
     1
 72
     1
  1
31.5
  7
SLDTEXTSTYLE0
 11
-7.044197039909883E-15
 21
1.0
 31
0.0
 73
     1
 44
1.0
  0
ENDBLK
  5
1C2
330
1B6
100
AcDbEntity
  8
0
100
AcDbBlockEnd
  0
BLOCK
  5
263
330
259
100
AcDbEntity
  8
0
100
AcDbBlockBegin
  2
*D8
 70
     1
 71
     0
 10
0.0
 20
0.0
 30
0.0
  3
*D8
  1

  0
INSERT
  5
265
330
259
100
AcDbEntity
  8
0
  6
Continuous
 62
     7
370
     0
100
AcDbBlockReference
  2
_Open30
 10
172.5082515337
 20
73.8072614458
 30
-46.3409895833
 41
3.0
 42
3.0
 50
180.0
  0
INSERT
  5
266
330
259
100
AcDbEntity
  8
0
  6
Continuous
 62
     7
370
     0
100
AcDbBlockReference
  2
_Open30
 10
155.5082515337
 20
73.8072614458
 30
-46.3409895833
 41
3.0
 42
3.0
 50
360.0
  0
LINE
  5
267
330
259
100
AcDbEntity
  8
0
  6
Continuous
 62
     7
370
     0
100
AcDbLine
 10
172.5082515337
 20
97.090369818
 30
0.0
 11
172.5082515337
 21
72.8072614458
 31
0.0
  0
LINE
  5
268
330
259
100
AcDbEntity
  8
0
  6
Continuous
 62
     7
370
     0
100
AcDbLine
 10
155.5082515337
 20
97.090369818
 30
0.0
 11
155.5082515337
 21
72.8072614458
 31
0.0
  0
LINE
  5
269
330
259
100
AcDbEntity
  8
0
  6
Continuous
 62
     7
370
     0
100
AcDbLine
 10
172.5082515337
 20
73.8072614458
 30
0.0
 11
177.5082515337
 21
73.8072614458
 31
0.0
  0
LINE
  5
26A
330
259
100
AcDbEntity
  8
0
  6
Continuous
 62
     7
370
     0
100
AcDbLine
 10
172.5082515337
 20
73.8072614458
 30
0.0
 11
155.5082515337
 21
73.8072614458
 31
0.0
  0
LINE
  5
26B
330
259
100
AcDbEntity
  8
0
  6
Continuous
 62
     7
370
     0
100
AcDbLine
 10
155.5082515337
 20
73.8072614458
 30
0.0
 11
150.5082515337
 21
73.8072614458
 31
0.0
  0
MTEXT
  5
26C
330
259
100
AcDbEntity
  8
0
  6
Continuous
 62
     7
370
     0
100
AcDbMText
 10
161.9715911865
 20
77.8799884857
 30
0.0
 40
3.5
 41
0.0
 71
     1
 72
     1
  1
17
  7
SLDTEXTSTYLE0
 73
     1
 44
1.0
  0
ENDBLK
  5
264
330
259
100
AcDbEntity
  8
0
100
AcDbBlockEnd
  0
BLOCK
  5
278
330
26E
100
AcDbEntity
  8
0
100
AcDbBlockBegin
  2
*D9
 70
     1
 71
     0
 10
0.0
 20
0.0
 30
0.0
  3
*D9
  1

  0
INSERT
  5
27A
330
26E
100
AcDbEntity
  8
0
  6
Continuous
 62
     7
370
     0
100
AcDbBlockReference
  2
_Open30
 10
159.0082515337
 20
83.796551529
 30
-46.3409895833
 41
3.0
 42
3.0
 50
0.0
  0
INSERT
  5
27B
330
26E
100
AcDbEntity
  8
0
  6
Continuous
 62
     7
370
     0
100
AcDbBlockReference
  2
_Open30
 10
169.0082515337
 20
83.796551529
 30
-46.3409895833
 41
3.0
 42
3.0
 50
180.0
  0
LINE
  5
27C
330
26E
100
AcDbEntity
  8
0
  6
Continuous
 62
     7
370
     0
100
AcDbLine
 10
159.0082515337
 20
101.090369818
 30
0.0
 11
159.0082515337
 21
82.796551529
 31
0.0
  0
LINE
  5
27D
330
26E
100
AcDbEntity
  8
0
  6
Continuous
 62
     7
370
     0
100
AcDbLine
 10
169.0082515337
 20
101.090369818
 30
0.0
 11
169.0082515337
 21
82.796551529
 31
0.0
  0
LINE
  5
27E
330
26E
100
AcDbEntity
  8
0
  6
Continuous
 62
     7
370
     0
100
AcDbLine
 10
159.0082515337
 20
83.796551529
 30
0.0
 11
154.0082515337
 21
83.796551529
 31
0.0
  0
LINE
  5
27F
330
26E
100
AcDbEntity
  8
0
  6
Continuous
 62
     7
370
     0
100
AcDbLine
 10
159.0082515337
 20
83.796551529
 30
0.0
 11
169.0082515337
 21
83.796551529
 31
0.0
  0
LINE
  5
280
330
26E
100
AcDbEntity
  8
0
  6
Continuous
 62
     7
370
     0
100
AcDbLine
 10
169.0082515337
 20
83.796551529
 30
0.0
 11
174.0082515337
 21
83.796551529
 31
0.0
  0
MTEXT
  5
281
330
26E
100
AcDbEntity
  8
0
  6
Continuous
 62
     7
370
     0
100
AcDbMText
 10
161.9715911865
 20
87.8692785689
 30
0.0
 40
3.5
 41
0.0
 71
     1
 72
     1
  1
10
  7
SLDTEXTSTYLE0
 73
     1
 44
1.0
  0
ENDBLK
  5
279
330
26E
100
AcDbEntity
  8
0
100
AcDbBlockEnd
  0
BLOCK
  5
28E
330
283
100
AcDbEntity
  8
0
100
AcDbBlockBegin
  2
*D10
 70
     1
 71
     0
 10
0.0
 20
0.0
 30
0.0
  3
*D10
  1

  0
INSERT
  5
291
330
283
100
AcDbEntity
  8
0
  6
Continuous
 62
     7
370
     0
100
AcDbBlockReference
  2
_Open30
 10
148.6332483501
 20
102.090369818
 30
-46.3409895833
 41
3.0
 42
3.0
 50
270.0
  0
INSERT
  5
292
330
283
100
AcDbEntity
  8
0
  6
Continuous
 62
     7
370
     0
100
AcDbBlockReference
  2
_Open30
 10
148.6332483501
 20
98.090369818
 30
-46.3409895833
 41
3.0
 42
3.0
 50
90.0
  0
LINE
  5
293
330
283
100
AcDbEntity
  8
0
  6
Continuous
 62
     7
370
     0
100
AcDbLine
 10
158.0082515337
 20
102.090369818
 30
0.0
 11
147.6332483501
 21
102.090369818
 31
0.0
  0
LINE
  5
294
330
283
100
AcDbEntity
  8
0
  6
Continuous
 62
     7
370
     0
100
AcDbLine
 10
154.5082515337
 20
98.090369818
 30
0.0
 11
147.6332483501
 21
98.090369818
 31
0.0
  0
LINE
  5
295
330
283
100
AcDbEntity
  8
0
  6
Continuous
 62
     7
370
     0
100
AcDbLine
 10
148.6332483501
 20
102.090369818
 30
0.0
 11
148.6332483501
 21
107.090369818
 31
0.0
  0
LINE
  5
296
330
283
100
AcDbEntity
  8
0
  6
Continuous
 62
     7
370
     0
100
AcDbLine
 10
148.6332483501
 20
102.090369818
 30
0.0
 11
148.6332483501
 21
98.090369818
 31
0.0
  0
LINE
  5
297
330
283
100
AcDbEntity
  8
0
  6
Continuous
 62
     7
370
     0
100
AcDbLine
 10
148.6332483501
 20
98.090369818
 30
0.0
 11
148.6332483501
 21
93.090369818
 31
0.0
  0
MTEXT
  5
298
330
283
100
AcDbEntity
  8
0
  6
Continuous
 62
     7
370
     0
100
AcDbMText
 10
144.5605213103
 20
99.0727463274
 30
0.0
 40
3.5
 41
0.0
 71
     1
 72
     1
  1
4
  7
SLDTEXTSTYLE0
 11
-7.044197039909883E-15
 21
1.0
 31
0.0
 73
     1
 44
1.0
  0
ENDBLK
  5
28F
330
283
100
AcDbEntity
  8
0
100
AcDbBlockEnd
  0
BLOCK
  5
2A5
330
29A
100
AcDbEntity
  8
0
100
AcDbBlockBegin
  2
*D11
 70
     1
 71
     0
 10
0.0
 20
0.0
 30
0.0
  3
*D11
  1

  0
INSERT
  5
2A8
330
29A
100
AcDbEntity
  8
0
  6
Continuous
 62
     7
370
     0
100
AcDbBlockReference
  2
_Open30
 10
141.973721628
 20
140.090369818
 30
-46.3409895833
 41
3.0
 42
3.0
 50
90.0
  0
INSERT
  5
2A9
330
29A
100
AcDbEntity
  8
0
  6
Continuous
 62
     7
370
     0
100
AcDbBlockReference
  2
_Open30
 10
141.973721628
 20
148.0903703783
 30
-46.3409895833
 41
3.0
 42
3.0
 50
270.0
  0
LINE
  5
2AA
330
29A
100
AcDbEntity
  8
0
  6
Continuous
 62
     7
370
     0
100
AcDbLine
 10
148.5082315337
 20
140.090369818
 30
0.0
 11
140.973721628
 21
140.090369818
 31
0.0
  0
LINE
  5
2AB
330
29A
100
AcDbEntity
  8
0
  6
Continuous
 62
     7
370
     0
100
AcDbLine
 10
146.5082315337
 20
148.0903703783
 30
0.0
 11
140.973721628
 21
148.0903703783
 31
0.0
  0
LINE
  5
2AC
330
29A
100
AcDbEntity
  8
0
  6
Continuous
 62
     7
370
     0
100
AcDbLine
 10
141.973721628
 20
140.090369818
 30
0.0
 11
141.973721628
 21
135.090369818
 31
0.0
  0
LINE
  5
2AD
330
29A
100
AcDbEntity
  8
0
  6
Continuous
 62
     7
370
     0
100
AcDbLine
 10
141.973721628
 20
140.090369818
 30
0.0
 11
141.973721628
 21
148.0903703783
 31
0.0
  0
LINE
  5
2AE
330
29A
100
AcDbEntity
  8
0
  6
Continuous
 62
     7
370
     0
100
AcDbLine
 10
141.973721628
 20
148.0903703783
 30
0.0
 11
141.973721628
 21
153.0903703783
 31
0.0
  0
MTEXT
  5
2AF
330
29A
100
AcDbEntity
  8
0
  6
Continuous
 62
     7
370
     0
100
AcDbMText
 10
137.9009945881
 20
143.0727466075
 30
0.0
 40
3.5
 41
0.0
 71
     1
 72
     1
  1
8
  7
SLDTEXTSTYLE0
 11
6.123031769111886E-17
 21
1.0
 31
0.0
 73
     1
 44
1.0
  0
ENDBLK
  5
2A6
330
29A
100
AcDbEntity
  8
0
100
AcDbBlockEnd
  0
BLOCK
  5
2BC
330
2B1
100
AcDbEntity
  8
0
100
AcDbBlockBegin
  2
*D12
 70
     1
 71
     0
 10
0.0
 20
0.0
 30
0.0
  3
*D12
  1

  0
INSERT
  5
2BE
330
2B1
100
AcDbEntity
  8
0
  6
Continuous
 62
     7
370
     0
100
AcDbBlockReference
  2
_Open30
 10
135.0203922564
 20
148.0903703783
 30
-46.3409895833
 41
3.0
 42
3.0
 50
90.0
  0
INSERT
  5
2BF
330
2B1
100
AcDbEntity
  8
0
  6
Continuous
 62
     7
370
     0
100
AcDbBlockReference
  2
_Open30
 10
135.0203922564
 20
98.090369818
 30
-46.3409895833
 41
3.0
 42
3.0
 50
270.0
  0
LINE
  5
2C0
330
2B1
100
AcDbEntity
  8
0
  6
Continuous
 62
     7
370
     0
100
AcDbLine
 10
146.5082315337
 20
148.0903703783
 30
0.0
 11
134.0203922564
 21
148.0903703783
 31
0.0
  0
LINE
  5
2C1
330
2B1
100
AcDbEntity
  8
0
  6
Continuous
 62
     7
370
     0
100
AcDbLine
 10
154.5082515337
 20
98.090369818
 30
0.0
 11
134.0203922564
 21
98.090369818
 31
0.0
  0
LINE
  5
2C2
330
2B1
100
AcDbEntity
  8
0
  6
Continuous
 62
     7
370
     0
100
AcDbLine
 10
135.0203922564
 20
148.0903703783
 30
0.0
 11
135.0203922564
 21
98.090369818
 31
0.0
  0
MTEXT
  5
2C3
330
2B1
100
AcDbEntity
  8
0
  6
Continuous
 62
     7
370
     0
100
AcDbMText
 10
130.9476652165
 20
121.053709751
 30
0.0
 40
3.5
 41
0.0
 71
     1
 72
     1
  1
50
  7
SLDTEXTSTYLE0
 11
-7.044197039909883E-15
 21
1.0
 31
0.0
 73
     1
 44
1.0
  0
ENDBLK
  5
2BD
330
2B1
100
AcDbEntity
  8
0
100
AcDbBlockEnd
  0
BLOCK
  5
2D0
330
2C5
100
AcDbEntity
  8
0
100
AcDbBlockBegin
  2
*D13
 70
     1
 71
     0
 10
0.0
 20
0.0
 30
0.0
  3
*D13
  1

  0
INSERT
  5
2D3
330
2C5
100
AcDbEntity
  8
0
  6
Continuous
 62
     7
370
     0
100
AcDbBlockReference
  2
_Open30
 10
145.5082315337
 20
163.4405744197
 30
-46.3409895833
 41
3.0
 42
3.0
 50
0.0
  0
INSERT
  5
2D4
330
2C5
100
AcDbEntity
  8
0
  6
Continuous
 62
     7
370
     0
100
AcDbBlockReference
  2
_Open30
 10
149.5082315337
 20
163.4405744197
 30
-46.3409895833
 41
3.0
 42
3.0
 50
180.0
  0
LINE
  5
2D5
330
2C5
100
AcDbEntity
  8
0
  6
Continuous
 62
     7
370
     0
100
AcDbLine
 10
145.5082315337
 20
147.0903703783
 30
0.0
 11
145.5082315337
 21
164.4405744197
 31
0.0
  0
LINE
  5
2D6
330
2C5
100
AcDbEntity
  8
0
  6
Continuous
 62
     7
370
     0
100
AcDbLine
 10
149.5082315337
 20
141.090369818
 30
0.0
 11
149.5082315337
 21
164.4405744197
 31
0.0
  0
LINE
  5
2D7
330
2C5
100
AcDbEntity
  8
0
  6
Continuous
 62
     7
370
     0
100
AcDbLine
 10
145.5082315337
 20
163.4405744197
 30
0.0
 11
140.5082315337
 21
163.4405744197
 31
0.0
  0
LINE
  5
2D8
330
2C5
100
AcDbEntity
  8
0
  6
Continuous
 62
     7
370
     0
100
AcDbLine
 10
145.5082315337
 20
163.4405744197
 30
0.0
 11
149.5082315337
 21
163.4405744197
 31
0.0
  0
LINE
  5
2D9
330
2C5
100
AcDbEntity
  8
0
  6
Continuous
 62
     7
370
     0
100
AcDbLine
 10
149.5082315337
 20
163.4405744197
 30
0.0
 11
154.5082315337
 21
163.4405744197
 31
0.0
  0
MTEXT
  5
2DA
330
2C5
100
AcDbEntity
  8
0
  6
Continuous
 62
     7
370
     0
100
AcDbMText
 10
146.4906080431
 20
167.5133014596
 30
0.0
 40
3.5
 41
0.0
 71
     1
 72
     1
  1
4
  7
SLDTEXTSTYLE0
 73
     1
 44
1.0
  0
ENDBLK
  5
2D1
330
2C5
100
AcDbEntity
  8
0
100
AcDbBlockEnd
  0
BLOCK
  5
2E8
330
2DC
100
AcDbEntity
  8
0
100
AcDbBlockBegin
  2
*D14
 70
     1
 71
     0
 10
0.0
 20
0.0
 30
0.0
  3
*D14
  1

  0
INSERT
  5
2EA
330
2DC
100
AcDbEntity
  8
0
  6
Continuous
 62
     7
370
     0
100
AcDbBlockReference
  2
_Open30
 10
149.5082315337
 20
163.4405744197
 30
-46.3409895833
 41
3.0
 42
3.0
 50
180.0
  0
INSERT
  5
2EB
330
2DC
100
AcDbEntity
  8
0
  6
Continuous
 62
     7
370
     0
100
AcDbBlockReference
  2
_Open30
 10
163.0082315337
 20
163.4405744197
 30
-46.3409895833
 41
3.0
 42
3.0
 50
0.0
  0
LINE
  5
2EC
330
2DC
100
AcDbEntity
  8
0
  6
Continuous
 62
     7
370
     0
100
AcDbLine
 10
149.5082315337
 20
141.090369818
 30
0.0
 11
149.5082315337
 21
164.4405744197
 31
0.0
  0
LINE
  5
2ED
330
2DC
100
AcDbEntity
  8
0
  6
Continuous
 62
     7
370
     0
100
AcDbLine
 10
163.0082315337
 20
141.090369818
 30
0.0
 11
163.0082315337
 21
164.4405744197
 31
0.0
  0
LINE
  5
2EE
330
2DC
100
AcDbEntity
  8
0
  6
Continuous
 62
     7
370
     0
100
AcDbLine
 10
149.5082315337
 20
163.4405744197
 30
0.0
 11
163.0082315337
 21
163.4405744197
 31
0.0
  0
LINE
  5
2EF
330
2DC
100
AcDbEntity
  8
0
  6
Continuous
 62
     7
370
     0
100
AcDbLine
 10
163.0082315337
 20
163.4405744197
 30
0.0
 11
173.2912348048
 21
163.4405744197
 31
0.0
  0
MTEXT
  5
2F0
330
2DC
100
AcDbEntity
  8
0
  6
Continuous
 62
     7
370
     0
100
AcDbMText
 10
163.557093416
 20
167.5133014596
 30
0.0
 40
3.5
 41
0.0
 71
     1
 72
     1
  1
13.5
  7
SLDTEXTSTYLE0
 73
     1
 44
1.0
  0
ENDBLK
  5
2E9
330
2DC
100
AcDbEntity
  8
0
100
AcDbBlockEnd
  0
BLOCK
  5
480
330
476
100
AcDbEntity
  8
0
100
AcDbBlockBegin
  2
*D15
 70
     1
 71
     0
 10
0.0
 20
0.0
 30
0.0
  3
*D15
  1

  0
INSERT
  5
482
330
476
100
AcDbEntity
  8
0
  6
Continuous
 62
     7
370
     0
100
AcDbBlockReference
  2
_Open30
 10
51.9474832472
 20
251.4537328297
 30
-19.3410399468
 41
3.0
 42
3.0
 50
180.0
  0
INSERT
  5
483
330
476
100
AcDbEntity
  8
0
  6
Continuous
 62
     7
370
     0
100
AcDbBlockReference
  2
_Open30
 10
81.9474832472
 20
251.4537328297
 30
-19.3410399468
 41
3.0
 42
3.0
 50
0.0
  0
LINE
  5
484
330
476
100
AcDbEntity
  8
0
  6
Continuous
 62
     7
370
     0
100
AcDbLine
 10
51.9474832472
 20
217.9557468712
 30
0.0
 11
51.9474832472
 21
252.4537328297
 31
0.0
  0
LINE
  5
485
330
476
100
AcDbEntity
  8
0
  6
Continuous
 62
     7
370
     0
100
AcDbLine
 10
81.9474832472
 20
217.9557468712
 30
0.0
 11
81.9474832472
 21
252.4537328297
 31
0.0
  0
LINE
  5
486
330
476
100
AcDbEntity
  8
0
  6
Continuous
 62
     7
370
     0
100
AcDbLine
 10
51.9474832472
 20
251.4537328297
 30
0.0
 11
81.9474832472
 21
251.4537328297
 31
0.0
  0
MTEXT
  5
487
330
476
100
AcDbEntity
  8
0
  6
Continuous
 62
     7
370
     0
100
AcDbMText
 10
64.9108229
 20
255.5264598696
 30
0.0
 40
3.5
 41
0.0
 71
     1
 72
     1
  1
30
  7
SLDTEXTSTYLE0
 73
     1
 44
1.0
  0
ENDBLK
  5
481
330
476
100
AcDbEntity
  8
0
100
AcDbBlockEnd
  0
BLOCK
  5
494
330
489
100
AcDbEntity
  8
0
100
AcDbBlockBegin
  2
*D16
 70
     1
 71
     0
 10
0.0
 20
0.0
 30
0.0
  3
*D16
  1

  0
INSERT
  5
496
330
489
100
AcDbEntity
  8
0
  6
Continuous
 62
     7
370
     0
100
AcDbBlockReference
  2
_Open30
 10
115.5329518174
 20
235.4557668712
 30
-19.3410399468
 41
3.0
 42
3.0
 50
90.0
  0
INSERT
  5
497
330
489
100
AcDbEntity
  8
0
  6
Continuous
 62
     7
370
     0
100
AcDbBlockReference
  2
_Open30
 10
115.5329518174
 20
198.4557468712
 30
-19.3410399468
 41
3.0
 42
3.0
 50
270.0
  0
LINE
  5
498
330
489
100
AcDbEntity
  8
0
  6
Continuous
 62
     7
370
     0
100
AcDbLine
 10
94.9474832472
 20
235.4557668712
 30
0.0
 11
116.5329518174
 21
235.4557668712
 31
0.0
  0
LINE
  5
499
330
489
100
AcDbEntity
  8
0
  6
Continuous
 62
     7
370
     0
100
AcDbLine
 10
94.9474832472
 20
198.4557468712
 30
0.0
 11
116.5329518174
 21
198.4557468712
 31
0.0
  0
LINE
  5
49A
330
489
100
AcDbEntity
  8
0
  6
Continuous
 62
     7
370
     0
100
AcDbLine
 10
115.5329518174
 20
235.4557668712
 30
0.0
 11
115.5329518174
 21
198.4557468712
 31
0.0
  0
MTEXT
  5
49B
330
489
100
AcDbEntity
  8
0
  6
Continuous
 62
     7
370
     0
100
AcDbMText
 10
111.4602247775
 20
214.919096524
 30
0.0
 40
3.5
 41
0.0
 71
     1
 72
     1
  1
37
  7
SLDTEXTSTYLE0
 11
-7.044197039909883E-15
 21
1.0
 31
0.0
 73
     1
 44
1.0
  0
ENDBLK
  5
495
330
489
100
AcDbEntity
  8
0
100
AcDbBlockEnd
  0
BLOCK
  5
4A7
330
49D
100
AcDbEntity
  8
0
100
AcDbBlockBegin
  2
*D17
 70
     1
 71
     0
 10
0.0
 20
0.0
 30
0.0
  3
*D17
  1

  0
INSERT
  5
4A9
330
49D
100
AcDbEntity
  8
0
  6
Continuous
 62
     7
370
     0
100
AcDbBlockReference
  2
_Open30
 10
93.9474832472
 20
260.8686824622
 30
-19.3410399468
 41
3.0
 42
3.0
 50
360.0
  0
INSERT
  5
4AA
330
49D
100
AcDbEntity
  8
0
  6
Continuous
 62
     7
370
     0
100
AcDbBlockReference
  2
_Open30
 10
39.9474832472
 20
260.8686824622
 30
-19.3410399468
 41
3.0
 42
3.0
 50
180.0
  0
LINE
  5
4AB
330
49D
100
AcDbEntity
  8
0
  6
Continuous
 62
     7
370
     0
100
AcDbLine
 10
93.9474832472
 20
236.4557668712
 30
0.0
 11
93.9474832472
 21
261.8686824622
 31
0.0
  0
LINE
  5
4AC
330
49D
100
AcDbEntity
  8
0
  6
Continuous
 62
     7
370
     0
100
AcDbLine
 10
39.9474832472
 20
236.4557668712
 30
0.0
 11
39.9474832472
 21
261.8686824622
 31
0.0
  0
LINE
  5
4AD
330
49D
100
AcDbEntity
  8
0
  6
Continuous
 62
     7
370
     0
100
AcDbLine
 10
93.9474832472
 20
260.8686824622
 30
0.0
 11
39.9474832472
 21
260.8686824622
 31
0.0
  0
MTEXT
  5
4AE
330
49D
100
AcDbEntity
  8
0
  6
Continuous
 62
     7
370
     0
100
AcDbMText
 10
64.9108229
 20
264.9414095021
 30
0.0
 40
3.5
 41
0.0
 71
     1
 72
     1
  1
54
  7
SLDTEXTSTYLE0
 73
     1
 44
1.0
  0
ENDBLK
  5
4A8
330
49D
100
AcDbEntity
  8
0
100
AcDbBlockEnd
  0
BLOCK
  5
4BA
330
4B0
100
AcDbEntity
  8
0
100
AcDbBlockBegin
  2
*D18
 70
     1
 71
     0
 10
0.0
 20
0.0
 30
0.0
  3
*D18
  1

  0
INSERT
  5
4BC
330
4B0
100
AcDbEntity
  8
0
  6
Continuous
 62
     7
370
     0
100
AcDbBlockReference
  2
_Open30
 10
97.4474832472
 20
268.288642214
 30
-19.3410399468
 41
3.0
 42
3.0
 50
360.0
  0
INSERT
  5
4BD
330
4B0
100
AcDbEntity
  8
0
  6
Continuous
 62
     7
370
     0
100
AcDbBlockReference
  2
_Open30
 10
36.4474832472
 20
268.288642214
 30
-19.3410399468
 41
3.0
 42
3.0
 50
180.0
  0
LINE
  5
4BE
330
4B0
100
AcDbEntity
  8
0
  6
Continuous
 62
     7
370
     0
100
AcDbLine
 10
97.4474832472
 20
239.8557668712
 30
0.0
 11
97.4474832472
 21
269.288642214
 31
0.0
  0
LINE
  5
4BF
330
4B0
100
AcDbEntity
  8
0
  6
Continuous
 62
     7
370
     0
100
AcDbLine
 10
36.4474832472
 20
239.8557668712
 30
0.0
 11
36.4474832472
 21
269.288642214
 31
0.0
  0
LINE
  5
4C0
330
4B0
100
AcDbEntity
  8
0
  6
Continuous
 62
     7
370
     0
100
AcDbLine
 10
97.4474832472
 20
268.288642214
 30
0.0
 11
36.4474832472
 21
268.288642214
 31
0.0
  0
MTEXT
  5
4C1
330
4B0
100
AcDbEntity
  8
0
  6
Continuous
 62
     7
370
     0
100
AcDbMText
 10
64.9108229
 20
272.3613692539
 30
0.0
 40
3.5
 41
0.0
 71
     1
 72
     1
  1
61
  7
SLDTEXTSTYLE0
 73
     1
 44
1.0
  0
ENDBLK
  5
4BB
330
4B0
100
AcDbEntity
  8
0
100
AcDbBlockEnd
  0
BLOCK
  5
4CE
330
4C3
100
AcDbEntity
  8
0
100
AcDbBlockBegin
  2
*D19
 70
     1
 71
     0
 10
0.0
 20
0.0
 30
0.0
  3
*D19
  1

  0
INSERT
  5
4D0
330
4C3
100
AcDbEntity
  8
0
  6
Continuous
 62
     7
370
     0
100
AcDbBlockReference
  2
_Open30
 10
142.694781952
 20
240.3557668712
 30
-19.3410399468
 41
3.0
 42
3.0
 50
90.0
  0
INSERT
  5
4D1
330
4C3
100
AcDbEntity
  8
0
  6
Continuous
 62
     7
370
     0
100
AcDbBlockReference
  2
_Open30
 10
142.694781952
 20
193.5557668712
 30
-19.3410399468
 41
3.0
 42
3.0
 50
270.0
  0
LINE
  5
4D2
330
4C3
100
AcDbEntity
  8
0
  6
Continuous
 62
     7
370
     0
100
AcDbLine
 10
92.6214343556
 20
240.3557668712
 30
0.0
 11
143.694781952
 21
240.3557668712
 31
0.0
  0
LINE
  5
4D3
330
4C3
100
AcDbEntity
  8
0
  6
Continuous
 62
     7
370
     0
100
AcDbLine
 10
96.7589679411
 20
193.5557668712
 30
0.0
 11
143.694781952
 21
193.5557668712
 31
0.0
  0
LINE
  5
4D4
330
4C3
100
AcDbEntity
  8
0
  6
Continuous
 62
     7
370
     0
100
AcDbLine
 10
142.694781952
 20
240.3557668712
 30
0.0
 11
142.694781952
 21
193.5557668712
 31
0.0
  0
MTEXT
  5
4D5
330
4C3
100
AcDbEntity
  8
0
  6
Continuous
 62
     7
370
     0
100
AcDbMText
 10
138.6220549121
 20
212.8824461768
 30
0.0
 40
3.5
 41
0.0
 71
     1
 72
     1
  1
46.8
  7
SLDTEXTSTYLE0
 11
-9.708732299010259E-15
 21
1.0
 31
0.0
 73
     1
 44
1.0
  0
ENDBLK
  5
4CF
330
4C3
100
AcDbEntity
  8
0
100
AcDbBlockEnd
  0
ENDSEC
  0
SECTION
  2
ENTITIES
  0
LINE
  5
2F
330
1F
100
AcDbEntity
  8
0
  6
Continuous
 62
     7
370
     0
100
AcDbLine
 10
20.2604743903
 20
285.0
 30
0.0
 11
196.7604743903
 21
285.0
 31
0.0
  0
LINE
  5
30
330
1F
100
AcDbEntity
  8
0
  6
Continuous
 62
     7
370
     0
100
AcDbLine
 10
20.2604743903
 20
285.0
 30
0.0
 11
20.2604743903
 21
10.0
 31
0.0
  0
LINE
  5
31
330
1F
100
AcDbEntity
  8
0
  6
Continuous
 62
     7
370
     0
100
AcDbLine
 10
20.2604743903
 20
10.0
 30
0.0
 11
196.7604743903
 21
10.0
 31
0.0
  0
LINE
  5
32
330
1F
100
AcDbEntity
  8
0
  6
Continuous
 62
     7
370
     0
100
AcDbLine
 10
196.7604743903
 20
285.0
 30
0.0
 11
196.7604743903
 21
10.0
 31
0.0
  0
LINE
  5
33
330
1F
100
AcDbEntity
  8
0
  6
Continuous
 62
     7
370
     0
100
AcDbLine
 10
127.0104743903
 20
50.75
 30
0.0
 11
196.7604743903
 21
50.75
 31
0.0
  0
LINE
  5
34
330
1F
100
AcDbEntity
  8
0
  6
Continuous
 62
     7
370
     0
100
AcDbLine
 10
127.0104743903
 20
50.75
 30
0.0
 11
127.0104743903
 21
10.0
 31
0.0
  0
LINE
  5
35
330
1F
100
AcDbEntity
  8
0
  6
Continuous
 62
     7
370
     0
100
AcDbLine
 10
127.0104743903
 20
22.75
 30
0.0
 11
196.7604743903
 21
22.75
 31
0.0
  0
LINE
  5
36
330
1F
100
AcDbEntity
  8
0
  6
Continuous
 62
     7
370
     0
100
AcDbLine
 10
127.0104743903
 20
36.75
 30
0.0
 11
196.7604743903
 21
36.75
 31
0.0
  0
MTEXT
  5
38
330
1F
100
AcDbEntity
  8
0
  6
Continuous
 62
     7
370
     0
100
AcDbMText
 10
155.5119524244
 20
29.8861654089
 30
0.0
 40
4.2333333333
 41
0.0
 71
     1
 72
     1
  1
071999
  7
SLDTEXTSTYLE0
 73
     1
 44
1.0
  0
MTEXT
  5
39
330
1F
100
AcDbEntity
  8
0
  6
Continuous
 62
     7
370
     0
100
AcDbMText
 10
145.3564638853
 20
43.4099788511
 30
0.0
 40
4.2333333333
 41
0.0
 71
     1
 72
     1
  1
薄型平行ハンド
  7
SLDTEXTSTYLE0
 73
     1
 44
1.0
  0
MTEXT
  5
3A
330
1F
100
AcDbEntity
  8
0
  6
Continuous
 62
     7
370
     0
100
AcDbMText
 10
155.4573238113
 20
16.2918259049
 30
0.0
 40
4.2333333333
 41
0.0
 71
     1
 72
     1
  1
071999
  7
SLDTEXTSTYLE0
 73
     1
 44
1.0
  0
LINE
  5
3B
330
1F
100
AcDbEntity
  8
0
  6
Continuous
 62
     7
370
     0
100
AcDbLine
 10
39.9474832472
 20
146.0903703783
 30
0.0
 11
93.9474832472
 21
146.0903703783
 31
0.0
  0
LINE
  5
3C
330
1F
100
AcDbEntity
  8
0
  6
Continuous
 62
     7
370
     0
100
AcDbLine
 10
39.9474832472
 20
146.0903703783
 30
0.0
 11
39.9474832472
 21
148.0903703783
 31
0.0
  0
LINE
  5
3D
330
1F
100
AcDbEntity
  8
0
  6
Continuous
 62
     7
370
     0
100
AcDbLine
 10
39.9474832472
 20
148.0903703783
 30
0.0
 11
93.9474832472
 21
148.0903703783
 31
0.0
  0
LINE
  5
3E
330
1F
100
AcDbEntity
  8
0
  6
Continuous
 62
     7
370
     0
100
AcDbLine
 10
93.9474832472
 20
146.0903703783
 30
0.0
 11
93.9474832472
 21
148.0903703783
 31
0.0
  0
LINE
  5
3F
330
1F
100
AcDbEntity
  8
0
  6
Continuous
 62
     7
370
     0
100
AcDbLine
 10
39.9474836052
 20
139.5903715104
 30
0.0
 11
39.9474832472
 21
146.0903703783
 31
0.0
  0
LINE
  5
40
330
1F
100
AcDbEntity
  8
0
  6
Continuous
 62
     7
370
     0
100
AcDbLine
 10
93.9474850059
 20
139.5903715104
 30
0.0
 11
93.9474832472
 21
146.0903703783
 31
0.0
  0
ARC
  5
41
330
1F
100
AcDbEntity
  8
0
  6
Continuous
 62
     7
370
     0
100
AcDbCircle
 10
81.9474832472
 20
135.790369818
 30
0.0
 40
2.099999999999999
100
AcDbArc
 50
252.247209838
 51
287.752790162
  0
LINE
  5
42
330
1F
100
AcDbEntity
  8
0
  6
Continuous
 62
     7
370
     0
100
AcDbLine
 10
66.9684595526
 20
132.5403527528
 30
0.0
 11
87.9265069127
 21
132.5403527528
 31
0.0
  0
LINE
  5
43
330
1F
100
AcDbEntity
  8
0
  6
Continuous
 62
     7
370
     0
100
AcDbLine
 10
89.9474843502
 20
98.0903698303
 30
0.0
 11
89.9474843502
 21
108.0903696068
 31
0.0
  0
LINE
  5
44
330
1F
100
AcDbEntity
  8
0
  6
Continuous
 62
     7
370
     0
100
AcDbLine
 10
89.9474843502
 20
98.0903698303
 30
0.0
 11
81.9474830389
 21
98.0903698303
 31
0.0
  0
LINE
  5
45
330
1F
100
AcDbEntity
  8
0
  6
Continuous
 62
     7
370
     0
100
AcDbLine
 10
81.9474830389
 20
98.0903698303
 30
0.0
 11
81.9474830389
 21
108.0903696068
 31
0.0
  0
LINE
  5
46
330
1F
100
AcDbEntity
  8
0
  6
Continuous
 62
     7
370
     0
100
AcDbLine
 10
51.9474818469
 20
98.0903698303
 30
0.0
 11
51.9474818469
 21
108.0903696068
 31
0.0
  0
LINE
  5
47
330
1F
100
AcDbEntity
  8
0
  6
Continuous
 62
     7
370
     0
100
AcDbLine
 10
51.9474818469
 20
98.0903698303
 30
0.0
 11
43.9474823982
 21
98.0903698303
 31
0.0
  0
LINE
  5
48
330
1F
100
AcDbEntity
  8
0
  6
Continuous
 62
     7
370
     0
100
AcDbLine
 10
43.9474823982
 20
98.0903698303
 30
0.0
 11
43.9474823982
 21
108.0903696068
 31
0.0
  0
LINE
  5
49
330
1F
100
AcDbEntity
  8
0
  6
Continuous
 62
     7
370
     0
100
AcDbLine
 10
97.4474846483
 20
116.5934867397
 30
0.0
 11
97.1310333815
 21
116.0794816295
 31
0.0
  0
ARC
  5
4A
330
1F
100
AcDbEntity
  8
0
  6
Continuous
 62
     7
370
     0
100
AcDbCircle
 10
134.1497537961
 20
187.9731309805
 30
0.0
 40
80.86459239282415
100
AcDbArc
 50
241.6904132508
 51
242.7556344775
  0
LINE
  5
4B
330
1F
100
AcDbEntity
  8
0
  6
Continuous
 62
     7
370
     0
100
AcDbLine
 10
95.8008926354
 20
116.7801038557
 30
0.0
 11
95.881849444
 21
116.9116023168
 31
0.0
  0
LWPOLYLINE
  5
4C
330
1F
100
AcDbEntity
  8
0
  6
Continuous
 62
     7
370
     0
100
AcDbPolyline
 90
        9
 70
   128
 43
0.0
 10
97.4474846483
 20
116.5934867397
 10
97.4173992038
 20
116.5995990098
 10
97.328305161
 20
116.617702058
 10
97.183629787
 20
116.6470983237
 10
96.9889163137
 20
116.6866609067
 10
96.7516674757
 20
116.7348661631
 10
96.4809953332
 20
116.7898644865
 10
96.1872934461
 20
116.8495408431
 10
95.881849444
 20
116.9116023168
  0
ARC
  5
4D
330
1F
100
AcDbEntity
  8
0
  6
Continuous
 62
     7
370
     0
100
AcDbCircle
 10
98.9762042172
 20
115.307895868
 30
0.0
 40
2.000000000000005
100
AcDbArc
 50
157.3070279101
 51
182.9799193836
  0
LWPOLYLINE
  5
4E
330
1F
100
AcDbEntity
  8
0
  6
Continuous
 62
     7
370
     0
100
AcDbPolyline
 90
        9
 70
   128
 43
0.0
 10
96.9789101839
 20
115.203923656
 10
96.9501285911
 20
115.202425158
 10
96.8648790479
 20
115.1979883373
 10
96.726454711
 20
115.1907817632
 10
96.5401603938
 20
115.1810848326
 10
96.3131635547
 20
115.1692682117
 10
96.0541888237
 20
115.1557863861
 10
95.7731752754
 20
115.1411581025
 10
95.480933702
 20
115.1259449482
  0
ARC
  5
4F
330
1F
100
AcDbEntity
  8
0
  6
Continuous
 62
     7
370
     0
100
AcDbCircle
 10
98.9762042172
 20
115.307895868
 30
0.0
 40
3.499999999976576
100
AcDbArc
 50
155.1255776802
 51
182.979919378
  0
ARC
  5
50
330
1F
100
AcDbEntity
  8
0
  6
Continuous
 62
     7
370
     0
100
AcDbCircle
 10
34.9187622772
 20
115.307895868
 30
0.0
 40
3.499999999976582
100
AcDbArc
 50
357.0200777896
 51
24.8744223198
  0
LWPOLYLINE
  5
51
330
1F
100
AcDbEntity
  8
0
  6
Continuous
 62
     7
370
     0
100
AcDbPolyline
 90
        9
 70
   128
 43
0.0
 10
38.4140293211
 20
115.1259449482
 10
38.1217896104
 20
115.1411581025
 10
37.8407797873
 20
115.1557863861
 10
37.5818013311
 20
115.1692672804
 10
37.354804492
 20
115.1810848326
 10
37.1685120374
 20
115.1907817632
 10
37.0300839752
 20
115.1979883373
 10
36.9448418826
 20
115.202425158
 10
36.9160584271
 20
115.203923656
  0
ARC
  5
52
330
1F
100
AcDbEntity
  8
0
  6
Continuous
 62
     7
370
     0
100
AcDbCircle
 10
34.9187622772
 20
115.307895868
 30
0.0
 40
2.000000000000012
100
AcDbArc
 50
357.0200806164
 51
22.6929720899
  0
ARC
  5
53
330
1F
100
AcDbEntity
  8
0
  6
Continuous
 62
     7
370
     0
100
AcDbCircle
 10
-0.122490882
 20
187.7217647174
 30
0.0
 40
80.58054965484163
100
AcDbArc
 50
297.2425553772
 51
298.3115292249
  0
LINE
  5
54
330
1F
100
AcDbEntity
  8
0
  6
Continuous
 62
     7
370
     0
100
AcDbLine
 10
38.0131154418
 20
116.9116023168
 30
0.0
 11
38.0940738589
 21
116.7801038557
 31
0.0
  0
LINE
  5
55
330
1F
100
AcDbEntity
  8
0
  6
Continuous
 62
     7
370
     0
100
AcDbLine
 10
36.7639331128
 20
116.0794816295
 30
0.0
 11
36.4474839628
 21
116.5934867397
 31
0.0
  0
LWPOLYLINE
  5
56
330
1F
100
AcDbEntity
  8
0
  6
Continuous
 62
     7
370
     0
100
AcDbPolyline
 90
        9
 70
   128
 43
0.0
 10
38.0131154418
 20
116.9116023168
 10
37.7076770276
 20
116.8495408431
 10
37.4139751405
 20
116.7898644865
 10
37.1432974101
 20
116.7348661631
 10
36.9060467095
 20
116.6866609067
 10
36.7113406867
 20
116.6470983237
 10
36.5666597248
 20
116.617702058
 10
36.477565682
 20
116.5995990098
 10
36.4474839628
 20
116.5934867397
  0
LINE
  5
57
330
1F
100
AcDbEntity
  8
0
  6
Continuous
 62
     7
370
     0
100
AcDbLine
 10
91.6214360953
 20
120.3025245279
 30
0.0
 11
94.6863516331
 21
116.856931819
 31
0.0
  0
LWPOLYLINE
  5
58
330
1F
100
AcDbEntity
  8
0
  6
Continuous
 62
     7
370
     0
100
AcDbPolyline
 90
        9
 70
   128
 43
0.0
 10
94.6863516331
 20
116.856931819
 10
94.4084375263
 20
116.7290593669
 10
94.141207552
 20
116.6061005726
 10
93.8949286104
 20
116.4927818984
 10
93.6790629387
 20
116.3934563458
 10
93.5019030333
 20
116.3119423375
 10
93.3702661753
 20
116.2513719112
 10
93.2891964078
 20
116.2140733734
 10
93.2618304253
 20
116.2014790982
  0
LINE
  5
59
330
1F
100
AcDbEntity
  8
0
  6
Continuous
 62
     7
370
     0
100
AcDbLine
 10
93.2618304253
 20
116.2014790982
 30
0.0
 11
87.0352372555
 21
123.2014418897
 31
0.0
  0
LWPOLYLINE
  5
5A
330
1F
100
AcDbEntity
  8
0
  6
Continuous
 62
     7
370
     0
100
AcDbPolyline
 90
       13
 70
   128
 43
0.0
 10
91.6214360953
 20
120.3025245279
 10
91.0228191972
 20
120.6809097141
 10
90.4344393969
 20
121.0528203458
 10
89.8663698793
 20
121.4118917644
 10
89.3283336521
 20
121.751982829
 10
88.8295321823
 20
122.0672727734
 10
88.3785038352
 20
122.3523692399
 10
87.9829599619
 20
122.6023902357
 10
87.6496731401
 20
122.81306099
 10
87.3843430639
 20
122.9807754219
 10
87.1915071369
 20
123.1026631951
 10
87.0744734168
 20
123.1766418725
 10
87.0352386594
 20
123.20144113
  0
ARC
  5
5B
330
1F
100
AcDbEntity
  8
0
  6
Continuous
 62
     7
370
     0
100
AcDbCircle
 10
95.6618506972
 20
109.727014598
 30
0.0
 40
1.600000000000009
100
AcDbArc
 50
186.309190226
 51
2.979919411
  0
LWPOLYLINE
  5
5C
330
1F
100
AcDbEntity
  8
0
  6
Continuous
 62
     7
370
     0
100
AcDbPolyline
 90
        9
 70
   128
 43
0.0
 10
94.0715446234
 20
109.5511844553
 10
94.1001921058
 20
109.5543518834
 10
94.1850318671
 20
109.5637321644
 10
94.3228080035
 20
109.578965342
 10
94.5082231522
 20
109.5994651489
 10
94.7341471076
 20
109.6244446173
 10
94.991907394
 20
109.6529435538
 10
95.271594739
 20
109.6838662572
 10
95.5624579549
 20
109.7160252914
  0
ARC
  5
5D
330
1F
100
AcDbEntity
  8
0
  6
Continuous
 62
     7
370
     0
100
AcDbCircle
 10
95.6618506972
 20
109.727014598
 30
0.0
 40
0.0999999999707209
100
AcDbArc
 50
186.3091839156
 51
2.9798199804
  0
LWPOLYLINE
  5
5E
330
1F
100
AcDbEntity
  8
0
  6
Continuous
 62
     7
370
     0
100
AcDbPolyline
 90
        9
 70
   128
 43
0.0
 10
97.2596853137
 20
109.8101922482
 10
97.2309037209
 20
109.8086937502
 10
97.1456616283
 20
109.8042564638
 10
97.0072298408
 20
109.7970503554
 10
96.8209429741
 20
109.7873524934
 10
96.5939461351
 20
109.7755358726
 10
96.3349639535
 20
109.7620545127
 10
96.0539578557
 20
109.7474257633
 10
95.7617162824
 20
109.7322130747
  0
LINE
  5
5F
330
1F
100
AcDbEntity
  8
0
  6
Continuous
 62
     7
370
     0
100
AcDbLine
 10
96.9789085857
 20
115.2039239475
 30
0.0
 11
97.2596872023
 21
109.8101921344
 31
0.0
  0
LINE
  5
60
330
1F
100
AcDbEntity
  8
0
  6
Continuous
 62
     7
370
     0
100
AcDbLine
 10
95.7617154877
 20
109.7322130208
 30
0.0
 11
95.480936862
 21
115.1259450071
 31
0.0
  0
LINE
  5
61
330
1F
100
AcDbEntity
  8
0
  6
Continuous
 62
     7
370
     0
100
AcDbLine
 10
94.0715413511
 20
109.5511846129
 30
0.0
 11
93.6557947755
 21
113.3114445195
 31
0.0
  0
LWPOLYLINE
  5
62
330
1F
100
AcDbEntity
  8
0
  6
Continuous
 62
     7
370
     0
100
AcDbPolyline
 90
        9
 70
   128
 43
0.0
 10
95.1446219445
 20
113.4951972574
 10
94.8541610599
 20
113.4593487889
 10
94.5748685956
 20
113.4248786777
 10
94.3174733878
 20
113.3931103334
 10
94.0918623567
 20
113.3652647197
 10
93.9067079783
 20
113.3424128577
 10
93.769125557
 20
113.3254320532
 10
93.684405005
 20
113.3149760947
 10
93.6557947755
 20
113.3114445195
  0
LINE
  5
63
330
1F
100
AcDbEntity
  8
0
  6
Continuous
 62
     7
370
     0
100
AcDbLine
 10
95.1446219445
 20
113.4951972574
 30
0.0
 11
95.5624563618
 21
109.7160252349
 31
0.0
  0
ARC
  5
64
330
1F
100
AcDbEntity
  8
0
  6
Continuous
 62
     7
370
     0
100
AcDbCircle
 10
87.595619277
 20
123.6999115379
 30
0.0
 40
0.7500000003720809
100
AcDbArc
 50
58.0242760055
 51
221.6536546874
  0
LWPOLYLINE
  5
65
330
1F
100
AcDbEntity
  8
0
  6
Continuous
 62
     7
370
     0
100
AcDbPolyline
 90
       13
 70
   128
 43
0.0
 10
91.6214360953
 20
120.3025245279
 10
91.1478026867
 20
120.8290142179
 10
90.6822755099
 20
121.3464942932
 10
90.2328117848
 20
121.8461134642
 10
89.8071154118
 20
122.319320327
 10
89.4124581576
 20
122.7580198258
 10
89.0555976987
 20
123.154703638
 10
88.7426360608
 20
123.5025880098
 10
88.4789376617
 20
123.7957180649
 10
88.2690026522
 20
124.0290776998
 10
88.1164296627
 20
124.1986752659
 10
88.0238338471
 20
124.3016087621
 10
87.9927872777
 20
124.3361161262
  0
ARC
  5
66
330
1F
100
AcDbEntity
  8
0
  6
Continuous
 62
     7
370
     0
100
AcDbCircle
 10
38.2331157972
 20
109.727014598
 30
0.0
 40
1.600000000000002
100
AcDbArc
 50
177.020080589
 51
353.690809774
  0
LWPOLYLINE
  5
67
330
1F
100
AcDbEntity
  8
0
  6
Continuous
 62
     7
370
     0
100
AcDbPolyline
 90
        9
 70
   128
 43
0.0
 10
36.6352795721
 20
109.8101922482
 10
36.6640630275
 20
109.8086937502
 10
36.7493051202
 20
109.8042564638
 10
36.8877331824
 20
109.7970503554
 10
37.074025637
 20
109.7873524934
 10
37.301022476
 20
109.7755358726
 10
37.5600027949
 20
109.7620545127
 10
37.8410107553
 20
109.7474257633
 10
38.133250466
 20
109.7322130747
  0
ARC
  5
68
330
1F
100
AcDbEntity
  8
0
  6
Continuous
 62
     7
370
     0
100
AcDbCircle
 10
38.2331157972
 20
109.727014598
 30
0.0
 40
0.0999999999707138
100
AcDbArc
 50
177.0201800196
 51
353.6908160844
  0
LWPOLYLINE
  5
69
330
1F
100
AcDbEntity
  8
0
  6
Continuous
 62
     7
370
     0
100
AcDbPolyline
 90
        9
 70
   128
 43
0.0
 10
39.8234258503
 20
109.5511844553
 10
39.7947783679
 20
109.5543518834
 10
39.709936744
 20
109.5637321644
 10
39.5721606076
 20
109.578965342
 10
39.3867454589
 20
109.5994651489
 10
39.1608177782
 20
109.6244446173
 10
38.9030593545
 20
109.6529435538
 10
38.6233738721
 20
109.6838662572
 10
38.3325106562
 20
109.7160252914
  0
LINE
  5
6A
330
1F
100
AcDbEntity
  8
0
  6
Continuous
 62
     7
370
     0
100
AcDbLine
 10
38.1359978676
 20
117.7195432767
 30
0.0
 11
38.0131154418
 21
116.9116023168
 31
0.0
  0
LINE
  5
6B
330
1F
100
AcDbEntity
  8
0
  6
Continuous
 62
     7
370
     0
100
AcDbLine
 10
42.2735325158
 20
120.3025245279
 30
0.0
 11
38.1359978676
 21
117.7195432767
 31
0.0
  0
LINE
  5
6C
330
1F
100
AcDbEntity
  8
0
  6
Continuous
 62
     7
370
     0
100
AcDbLine
 10
39.208616978
 20
116.856931819
 30
0.0
 11
42.2735325158
 21
120.3025245279
 31
0.0
  0
LINE
  5
6D
330
1F
100
AcDbEntity
  8
0
  6
Continuous
 62
     7
370
     0
100
AcDbLine
 10
38.7503485293
 20
113.4951972574
 30
0.0
 11
39.208616978
 21
116.856931819
 31
0.0
  0
LINE
  5
6E
330
1F
100
AcDbEntity
  8
0
  6
Continuous
 62
     7
370
     0
100
AcDbLine
 10
38.3325101325
 20
109.7160252349
 30
0.0
 11
38.7503485293
 21
113.4951972574
 31
0.0
  0
LINE
  5
6F
330
1F
100
AcDbEntity
  8
0
  6
Continuous
 62
     7
370
     0
100
AcDbLine
 10
38.4140296233
 20
115.1259448339
 30
0.0
 11
38.1332510066
 21
109.7322130208
 31
0.0
  0
LINE
  5
70
330
1F
100
AcDbEntity
  8
0
  6
Continuous
 62
     7
370
     0
100
AcDbLine
 10
61.8481250117
 20
112.1133406905
 30
0.0
 11
65.0814137519
 21
113.8400213033
 31
0.0
  0
LWPOLYLINE
  5
71
330
1F
100
AcDbEntity
  8
0
  6
Continuous
 62
     7
370
     0
100
AcDbPolyline
 90
        9
 70
   128
 43
0.0
 10
65.0814137519
 20
113.8400213033
 10
65.3897858322
 20
113.6729504153
 10
65.6863040388
 20
113.5123009965
 10
65.9595764339
 20
113.3642449215
 10
66.1991051495
 20
113.2344725713
 10
66.3956775427
 20
113.1279721096
 10
66.5417461753
 20
113.0488348365
 10
66.6316970349
 20
113.0001015201
 10
66.6620656014
 20
112.9836469129
  0
LINE
  5
72
330
1F
100
AcDbEntity
  8
0
  6
Continuous
 62
     7
370
     0
100
AcDbLine
 10
66.6620656014
 20
112.9836469129
 30
0.0
 11
62.5547270712
 21
110.7901953737
 31
0.0
  0
LWPOLYLINE
  5
73
330
1F
100
AcDbEntity
  8
0
  6
Continuous
 62
     7
370
     0
100
AcDbPolyline
 90
        9
 70
   128
 43
0.0
 10
62.5547281564
 20
110.7901955195
 10
62.5411494732
 20
110.8156192288
 10
62.5009386897
 20
110.890913865
 10
62.4356418014
 20
111.0131853431
 10
62.3477696538
 20
111.1777360722
 10
62.2406936348
 20
111.3782405093
 10
62.11853019
 20
111.6069947541
 10
61.9859769106
 20
111.8552080527
 10
61.8481262684
 20
112.1133408681
  0
LINE
  5
74
330
1F
100
AcDbEntity
  8
0
  6
Continuous
 62
     7
370
     0
100
AcDbLine
 10
65.0814137519
 20
113.8400213033
 30
0.0
 11
64.9518407047
 21
115.3210514396
 31
0.0
  0
LWPOLYLINE
  5
75
330
1F
100
AcDbEntity
  8
0
  6
Continuous
 62
     7
370
     0
100
AcDbPolyline
 90
        9
 70
   128
 43
0.0
 10
64.9518407047
 20
115.3210514396
 10
65.2415453554
 20
115.3673502788
 10
65.5201151133
 20
115.4118702918
 10
65.7768434942
 20
115.4528997079
 10
66.00187338
 20
115.4888627291
 10
66.186547196
 20
115.5183772728
 10
66.3237719894
 20
115.5403080568
 10
66.4082764745
 20
115.5538131654
 10
66.4368084729
 20
115.5583729208
  0
LINE
  5
76
330
1F
100
AcDbEntity
  8
0
  6
Continuous
 62
     7
370
     0
100
AcDbLine
 10
66.4368084729
 20
115.5583729208
 30
0.0
 11
66.6620656014
 21
112.9836469129
 31
0.0
  0
ARC
  5
77
330
1F
100
AcDbEntity
  8
0
  6
Continuous
 62
     7
370
     0
100
AcDbCircle
 10
61.8010182072
 20
112.201550378
 30
0.0
 40
1.600000000000008
100
AcDbArc
 50
241.9370823223
 51
298.1036476805
  0
LWPOLYLINE
  5
78
330
1F
100
AcDbEntity
  8
0
  6
Continuous
 62
     7
370
     0
100
AcDbPolyline
 90
        9
 70
   128
 43
0.0
 10
61.0483138919
 20
110.789660009
 10
61.0618702233
 20
110.8150934972
 10
61.1020288527
 20
110.8904165387
 10
61.1672400594
 20
111.012734583
 10
61.254996723
 20
111.1773477107
 10
61.361931181
 20
111.3779285163
 10
61.483930713
 20
111.606769374
 10
61.6163051784
 20
111.8550767362
 10
61.7539732814
 20
112.1133073404
  0
ARC
  5
79
330
1F
100
AcDbEntity
  8
0
  6
Continuous
 62
     7
370
     0
100
AcDbCircle
 10
61.8010182072
 20
112.201550378
 30
0.0
 40
0.100000000000001
100
AcDbArc
 50
241.9370823223
 51
298.1036480114
  0
LINE
  5
7A
330
1F
100
AcDbEntity
  8
0
  6
Continuous
 62
     7
370
     0
100
AcDbLine
 10
64.9518407047
 20
115.3210514396
 30
0.0
 11
63.1326303572
 21
123.101717448
 31
0.0
  0
LWPOLYLINE
  5
7B
330
1F
100
AcDbEntity
  8
0
  6
Continuous
 62
     7
370
     0
100
AcDbPolyline
 90
        9
 70
   128
 43
0.0
 10
63.1326287151
 20
123.1017169714
 10
63.4175798953
 20
123.1683419257
 10
63.691578722
 20
123.232405743
 10
63.9441012502
 20
123.2914478689
 10
64.165435648
 20
123.3431996018
 10
64.347080803
 20
123.3856697738
 10
64.4820555211
 20
123.4172285706
 10
64.5651704729
 20
123.4366634101
 10
64.59323681
 20
123.4432236463
  0
LINE
  5
7C
330
1F
100
AcDbEntity
  8
0
  6
Continuous
 62
     7
370
     0
100
AcDbLine
 10
64.5932373942
 20
123.4432245244
 30
0.0
 11
66.4368084729
 21
115.5583729208
 31
0.0
  0
LINE
  5
7D
330
1F
100
AcDbEntity
  8
0
  6
Continuous
 62
     7
370
     0
100
AcDbLine
 10
61.0483128272
 20
110.7896599393
 30
0.0
 11
56.9329335452
 21
112.9836469129
 31
0.0
  0
LWPOLYLINE
  5
7E
330
1F
100
AcDbEntity
  8
0
  6
Continuous
 62
     7
370
     0
100
AcDbPolyline
 90
        9
 70
   128
 43
0.0
 10
56.9329335452
 20
112.9836469129
 10
56.9666995764
 20
112.9983077928
 10
57.0666975439
 20
113.0417269826
 10
57.2290903986
 20
113.1122364834
 10
57.4476308287
 20
113.2071261466
 10
57.7139257551
 20
113.3227489129
 10
58.0177343548
 20
113.4546623737
 10
58.3473927439
 20
113.5977964088
 10
58.6902200342
 20
113.7466515586
  0
LINE
  5
7F
330
1F
100
AcDbEntity
  8
0
  6
Continuous
 62
     7
370
     0
100
AcDbLine
 10
58.6902200342
 20
113.7466515586
 30
0.0
 11
61.7539741209
 21
112.1133072256
 31
0.0
  0
LWPOLYLINE
  5
80
330
1F
100
AcDbEntity
  8
0
  6
Continuous
 62
     7
370
     0
100
AcDbPolyline
 90
        9
 70
   128
 43
0.0
 10
63.1326287151
 20
123.1017169714
 10
62.8715305686
 20
123.2338604689
 10
62.6204609037
 20
123.3609263957
 10
62.389079398
 20
123.4780290335
 10
62.1862671435
 20
123.5806719571
 10
62.0198248983
 20
123.6649082214
 10
61.8961489857
 20
123.7275024116
 10
61.8199891508
 20
123.7660461277
 10
61.7942697466
 20
123.779062292
  0
ARC
  5
81
330
1F
100
AcDbEntity
  8
0
  6
Continuous
 62
     7
370
     0
100
AcDbCircle
 10
63.1326303572
 20
123.101717448
 30
0.0
 40
1.499999999999999
100
AcDbArc
 50
13.1600150652
 51
153.1559983681
  0
LINE
  5
82
330
1F
100
AcDbEntity
  8
0
  6
Continuous
 62
     7
370
     0
100
AcDbLine
 10
56.9329335452
 20
112.9836469129
 30
0.0
 11
57.6101764203
 21
115.5117462561
 31
0.0
  0
LWPOLYLINE
  5
83
330
1F
100
AcDbEntity
  8
0
  6
Continuous
 62
     7
370
     0
100
AcDbPolyline
 90
       10
 70
   128
 43
0.0
 10
57.6101764203
 20
115.5117462561
 10
57.631578213
 20
115.5035655186
 10
57.6951279402
 20
115.4792719692
 10
57.7988996268
 20
115.4396032155
 10
57.9397379518
 20
115.3857662514
 10
58.1133588314
 20
115.3193946168
 10
58.3144947052
 20
115.2425064877
 10
58.5370323718
 20
115.1574376211
 10
58.7742067039
 20
115.0667724371
 10
59.0188167155
 20
114.9732667193
  0
LINE
  5
84
330
1F
100
AcDbEntity
  8
0
  6
Continuous
 62
     7
370
     0
100
AcDbLine
 10
59.0188167155
 20
114.9732667193
 30
0.0
 11
58.6902200342
 21
113.7466515586
 31
0.0
  0
LINE
  5
85
330
1F
100
AcDbEntity
  8
0
  6
Continuous
 62
     7
370
     0
100
AcDbLine
 10
63.1326303572
 20
123.101717448
 30
0.0
 11
59.0188167155
 21
114.9732667193
 31
0.0
  0
LINE
  5
86
330
1F
100
AcDbEntity
  8
0
  6
Continuous
 62
     7
370
     0
100
AcDbLine
 10
57.6101764203
 20
115.5117462561
 30
0.0
 11
61.7942714172
 21
123.7790617827
 31
0.0
  0
LINE
  5
87
330
1F
100
AcDbEntity
  8
0
  6
Continuous
 62
     7
370
     0
100
AcDbLine
 10
70.7623361372
 20
123.101717448
 30
0.0
 11
68.9431241811
 21
115.3210514396
 31
0.0
  0
LWPOLYLINE
  5
88
330
1F
100
AcDbEntity
  8
0
  6
Continuous
 62
     7
370
     0
100
AcDbPolyline
 90
        9
 70
   128
 43
0.0
 10
68.9431241811
 20
115.3210514396
 10
68.6534232557
 20
115.3673502788
 10
68.3748534978
 20
115.4118702918
 10
68.1181213916
 20
115.4528997079
 10
67.8930952311
 20
115.4888627291
 10
67.7084214151
 20
115.5183772728
 10
67.5711928964
 20
115.5403080568
 10
67.4866921366
 20
115.5538131654
 10
67.4581564129
 20
115.5583729208
  0
LINE
  5
89
330
1F
100
AcDbEntity
  8
0
  6
Continuous
 62
     7
370
     0
100
AcDbLine
 10
67.4581564129
 20
115.5583729208
 30
0.0
 11
69.3017291001
 21
123.4432245244
 31
0.0
  0
LWPOLYLINE
  5
8A
330
1F
100
AcDbEntity
  8
0
  6
Continuous
 62
     7
370
     0
100
AcDbPolyline
 90
        9
 70
   128
 43
0.0
 10
69.3017280758
 20
123.4432236463
 10
69.3297944129
 20
123.4366634101
 10
69.4129093647
 20
123.4172285706
 10
69.5478840828
 20
123.3856697738
 10
69.7295292378
 20
123.3431996018
 10
69.9508673609
 20
123.2914478689
 10
70.2033861638
 20
123.232405743
 10
70.4773849905
 20
123.1683419257
 10
70.7623361707
 20
123.1017169714
  0
LWPOLYLINE
  5
8B
330
1F
100
AcDbEntity
  8
0
  6
Continuous
 62
     7
370
     0
100
AcDbPolyline
 90
        9
 70
   128
 43
0.0
 10
72.1006951392
 20
123.779062292
 10
72.0749794603
 20
123.7660461277
 10
71.9988196254
 20
123.7275024116
 10
71.8751399875
 20
123.6649082214
 10
71.7086977423
 20
123.5806719571
 10
71.5058892131
 20
123.4780290335
 10
71.2745039821
 20
123.3609263957
 10
71.0234380424
 20
123.2338604689
 10
70.7623361707
 20
123.1017169714
  0
ARC
  5
8C
330
1F
100
AcDbEntity
  8
0
  6
Continuous
 62
     7
370
     0
100
AcDbCircle
 10
70.7623361372
 20
123.101717448
 30
0.0
 40
1.499999999999999
100
AcDbArc
 50
26.8440016319
 51
166.8399849348
  0
LINE
  5
8D
330
1F
100
AcDbEntity
  8
0
  6
Continuous
 62
     7
370
     0
100
AcDbLine
 10
95.7589670182
 20
117.7195432767
 30
0.0
 11
91.6214360953
 21
120.3025245279
 31
0.0
  0
LINE
  5
8E
330
1F
100
AcDbEntity
  8
0
  6
Continuous
 62
     7
370
     0
100
AcDbLine
 10
95.881849444
 20
116.9116023168
 30
0.0
 11
95.7589670182
 21
117.7195432767
 31
0.0
  0
LINE
  5
8F
330
1F
100
AcDbEntity
  8
0
  6
Continuous
 62
     7
370
     0
100
AcDbLine
 10
94.6863516331
 20
116.856931819
 30
0.0
 11
95.1446219445
 21
113.4951972574
 31
0.0
  0
LINE
  5
90
330
1F
100
AcDbEntity
  8
0
  6
Continuous
 62
     7
370
     0
100
AcDbLine
 10
68.8135511339
 20
113.8400213033
 30
0.0
 11
72.0468414832
 21
112.1133406902
 31
0.0
  0
LWPOLYLINE
  5
91
330
1F
100
AcDbEntity
  8
0
  6
Continuous
 62
     7
370
     0
100
AcDbPolyline
 90
        9
 70
   128
 43
0.0
 10
72.0468423427
 20
112.1133408681
 10
71.9089917005
 20
111.8552080527
 10
71.7764384211
 20
111.6069947541
 10
71.6542749763
 20
111.3782405093
 10
71.5471989572
 20
111.1777360722
 10
71.4593230844
 20
111.0131853431
 10
71.394026196
 20
110.890913865
 10
71.3538154126
 20
110.8156192288
 10
71.3402404547
 20
110.7901955195
  0
LINE
  5
92
330
1F
100
AcDbEntity
  8
0
  6
Continuous
 62
     7
370
     0
100
AcDbLine
 10
71.3402394231
 20
110.7901953737
 30
0.0
 11
67.2328992844
 21
112.9836469129
 31
0.0
  0
LWPOLYLINE
  5
93
330
1F
100
AcDbEntity
  8
0
  6
Continuous
 62
     7
370
     0
100
AcDbPolyline
 90
        9
 70
   128
 43
0.0
 10
68.8135511339
 20
113.8400213033
 10
68.5051827789
 20
113.6729504153
 10
68.208660847
 20
113.5123009965
 10
67.9353884519
 20
113.3642449215
 10
67.6958634615
 20
113.2344725713
 10
67.4992873431
 20
113.1279721096
 10
67.3532187105
 20
113.0488348365
 10
67.2632715762
 20
113.0001015201
 10
67.2328992844
 20
112.9836469129
  0
LINE
  5
94
330
1F
100
AcDbEntity
  8
0
  6
Continuous
 62
     7
370
     0
100
AcDbLine
 10
76.2847884655
 20
115.5117462561
 30
0.0
 11
76.9620350659
 21
112.9836469129
 31
0.0
  0
LWPOLYLINE
  5
95
330
1F
100
AcDbEntity
  8
0
  6
Continuous
 62
     7
370
     0
100
AcDbPolyline
 90
       10
 70
   128
 43
0.0
 10
76.9620350659
 20
112.9836469129
 10
76.9353359104
 20
112.9952381536
 10
76.8560580075
 20
113.0296616986
 10
76.7266004444
 20
113.08586981
 10
76.5509083033
 20
113.1621563047
 10
76.3343087495
 20
113.2562012583
 10
76.0833880961
 20
113.3651492357
 10
75.8057720125
 20
113.4856884539
 10
75.5098945558
 20
113.6141569525
 10
75.2047448516
 20
113.7466515586
  0
LINE
  5
96
330
1F
100
AcDbEntity
  8
0
  6
Continuous
 62
     7
370
     0
100
AcDbLine
 10
75.2047448516
 20
113.7466515586
 30
0.0
 11
74.8761518956
 21
114.9732667193
 31
0.0
  0
LWPOLYLINE
  5
97
330
1F
100
AcDbEntity
  8
0
  6
Continuous
 62
     7
370
     0
100
AcDbPolyline
 90
        9
 70
   128
 43
0.0
 10
76.2847884655
 20
115.5117462561
 10
76.2577242315
 20
115.5013992623
 10
76.1775634349
 20
115.4707568869
 10
76.047390616
 20
115.4209963217
 10
75.8722088397
 20
115.3540286407
 10
75.6587497056
 20
115.272429882
 10
75.4152125776
 20
115.1793339461
 10
75.1509628356
 20
115.0783189744
 10
74.8761518956
 20
114.9732667193
  0
ARC
  5
98
330
1F
100
AcDbEntity
  8
0
  6
Continuous
 62
     7
370
     0
100
AcDbCircle
 10
72.0939482872
 20
112.201550378
 30
0.0
 40
0.1000000000000029
100
AcDbArc
 50
241.8963523194
 51
298.0629174699
  0
LWPOLYLINE
  5
99
330
1F
100
AcDbEntity
  8
0
  6
Continuous
 62
     7
370
     0
100
AcDbPolyline
 90
        9
 70
   128
 43
0.0
 10
72.1409916044
 20
112.1133073404
 10
72.2786597073
 20
111.8550767362
 10
72.4110378981
 20
111.606769374
 10
72.5330374301
 20
111.3779285163
 10
72.6399718881
 20
111.1773477107
 10
72.7277285517
 20
111.012734583
 10
72.7929397583
 20
110.8904165387
 10
72.8330946625
 20
110.8150934972
 10
72.8466547192
 20
110.789660009
  0
ARC
  5
9A
330
1F
100
AcDbEntity
  8
0
  6
Continuous
 62
     7
370
     0
100
AcDbCircle
 10
72.0939482872
 20
112.201550378
 30
0.0
 40
1.600000000000012
100
AcDbArc
 50
241.8963523195
 51
298.0629176777
  0
LINE
  5
9B
330
1F
100
AcDbEntity
  8
0
  6
Continuous
 62
     7
370
     0
100
AcDbLine
 10
76.9620350659
 20
112.9836469129
 30
0.0
 11
72.8466536672
 21
110.7896599393
 31
0.0
  0
LINE
  5
9C
330
1F
100
AcDbEntity
  8
0
  6
Continuous
 62
     7
370
     0
100
AcDbLine
 10
72.1409923731
 20
112.1133072254
 30
0.0
 11
75.2047448516
 21
113.7466515586
 31
0.0
  0
LINE
  5
9D
330
1F
100
AcDbEntity
  8
0
  6
Continuous
 62
     7
370
     0
100
AcDbLine
 10
97.1382333994
 20
118.6267958194
 30
0.0
 11
97.4474846483
 21
116.5934867397
 31
0.0
  0
LWPOLYLINE
  5
9E
330
1F
100
AcDbEntity
  8
0
  6
Continuous
 62
     7
370
     0
100
AcDbPolyline
 90
       10
 70
   128
 43
0.0
 10
95.7589670182
 20
117.7195432767
 10
95.998473382
 20
117.8770858035
 10
96.2307005287
 20
118.0298422635
 10
96.4486002088
 20
118.1731700137
 10
96.6455414057
 20
118.3027141899
 10
96.8155413032
 20
118.4145390227
 10
96.9534440995
 20
118.5052470475
 10
97.0550551176
 20
118.5720815495
 10
97.1172749162
 20
118.6130122453
 10
97.1382333994
 20
118.6267958194
  0
LWPOLYLINE
  5
9F
330
1F
100
AcDbEntity
  8
0
  6
Continuous
 62
     7
370
     0
100
AcDbPolyline
 90
       13
 70
   128
 43
0.0
 10
42.2735325158
 20
120.3025245279
 10
42.7471659244
 20
120.8290142179
 10
43.2126949639
 20
121.3464942932
 10
43.6621549637
 20
121.8461134642
 10
44.0878550619
 20
122.319320327
 10
44.4825104535
 20
122.7580198258
 10
44.8393709124
 20
123.154703638
 10
45.1523306877
 20
123.5025880098
 10
45.4160309494
 20
123.7957180649
 10
45.6259622336
 20
124.0290776998
 10
45.7785333604
 20
124.1986752659
 10
45.8711329014
 20
124.3016087621
 10
45.9021776081
 20
124.3361161262
  0
ARC
  5
A0
330
1F
100
AcDbEntity
  8
0
  6
Continuous
 62
     7
370
     0
100
AcDbCircle
 10
46.2993472173
 20
123.6999115379
 30
0.0
 40
0.7500000003797752
100
AcDbArc
 50
318.3463453167
 51
121.9757239904
  0
LWPOLYLINE
  5
A1
330
1F
100
AcDbEntity
  8
0
  6
Continuous
 62
     7
370
     0
100
AcDbPolyline
 90
       13
 70
   128
 43
0.0
 10
46.8597299517
 20
123.20144113
 10
46.8204933316
 20
123.1766418725
 10
46.7034577489
 20
123.1026631951
 10
46.5106255472
 20
122.9807754219
 10
46.245295471
 20
122.81306099
 10
45.9120067865
 20
122.6023902357
 10
45.5164629132
 20
122.3523692399
 10
45.0654327035
 20
122.0672727734
 10
44.5666312337
 20
121.751982829
 10
44.0285931439
 20
121.4118917644
 10
43.4605273515
 20
121.0528203458
 10
42.8721512765
 20
120.6809097141
 10
42.2735325158
 20
120.3025245279
  0
LWPOLYLINE
  5
A2
330
1F
100
AcDbEntity
  8
0
  6
Continuous
 62
     7
370
     0
100
AcDbPolyline
 90
        9
 70
   128
 43
0.0
 10
38.1359978676
 20
117.7195432767
 10
37.8669182867
 20
117.8965392694
 10
37.608178249
 20
118.0667338133
 10
37.3697205544
 20
118.22358623
 10
37.1607112796
 20
118.3610680684
 10
36.9891821504
 20
118.4738959357
 10
36.8617250681
 20
118.5577354565
 10
36.7832369268
 20
118.6093633235
 10
36.7567352117
 20
118.6267958194
  0
LINE
  5
A3
330
1F
100
AcDbEntity
  8
0
  6
Continuous
 62
     7
370
     0
100
AcDbLine
 10
36.7567352117
 20
118.6267958194
 30
0.0
 11
45.9021772907
 21
124.3361159468
 31
0.0
  0
LINE
  5
A4
330
1F
100
AcDbEntity
  8
0
  6
Continuous
 62
     7
370
     0
100
AcDbLine
 10
46.8597292389
 20
123.2014418897
 30
0.0
 11
40.6331400484
 21
116.2014790982
 31
0.0
  0
LWPOLYLINE
  5
A5
330
1F
100
AcDbEntity
  8
0
  6
Continuous
 62
     7
370
     0
100
AcDbPolyline
 90
        9
 70
   128
 43
0.0
 10
40.6331400484
 20
116.2014790982
 10
40.6057666153
 20
116.2140733734
 10
40.5247042984
 20
116.2513719112
 10
40.3930637151
 20
116.3119423375
 10
40.2159056724
 20
116.3934563458
 10
40.0000400007
 20
116.4927818984
 10
39.7537573338
 20
116.6061005726
 10
39.4865273595
 20
116.7290593669
 10
39.208616978
 20
116.856931819
  0
LINE
  5
A6
330
1F
100
AcDbEntity
  8
0
  6
Continuous
 62
     7
370
     0
100
AcDbLine
 10
36.4474839628
 20
116.5934867397
 30
0.0
 11
36.7567352117
 21
118.6267958194
 31
0.0
  0
LINE
  5
A7
330
1F
100
AcDbEntity
  8
0
  6
Continuous
 62
     7
370
     0
100
AcDbLine
 10
40.6331400484
 20
116.2014790982
 30
0.0
 11
40.2391719729
 21
113.3114445195
 31
0.0
  0
LWPOLYLINE
  5
A8
330
1F
100
AcDbEntity
  8
0
  6
Continuous
 62
     7
370
     0
100
AcDbPolyline
 90
        9
 70
   128
 43
0.0
 10
40.2391719729
 20
113.3114445195
 10
40.2105654687
 20
113.3149760947
 10
40.1258430541
 20
113.3254320532
 10
39.9882606328
 20
113.3424128577
 10
39.8031062544
 20
113.3652647197
 10
39.5774952233
 20
113.3931103334
 10
39.3200962902
 20
113.4248786777
 10
39.0408038259
 20
113.4593487889
 10
38.7503485293
 20
113.4951972574
  0
LINE
  5
A9
330
1F
100
AcDbEntity
  8
0
  6
Continuous
 62
     7
370
     0
100
AcDbLine
 10
93.6557947755
 20
113.3114445195
 30
0.0
 11
93.2618304253
 21
116.2014790982
 31
0.0
  0
LINE
  5
AA
330
1F
100
AcDbEntity
  8
0
  6
Continuous
 62
     7
370
     0
100
AcDbLine
 10
40.2391719729
 20
113.3114445195
 30
0.0
 11
39.8234251433
 21
109.5511846129
 31
0.0
  0
LINE
  5
AB
330
1F
100
AcDbEntity
  8
0
  6
Continuous
 62
     7
370
     0
100
AcDbLine
 10
68.9431241811
 20
115.3210514396
 30
0.0
 11
68.8135511339
 21
113.8400213033
 31
0.0
  0
LINE
  5
AC
330
1F
100
AcDbEntity
  8
0
  6
Continuous
 62
     7
370
     0
100
AcDbLine
 10
67.2328992844
 20
112.9836469129
 30
0.0
 11
67.4581564129
 21
115.5583729208
 31
0.0
  0
LINE
  5
AD
330
1F
100
AcDbEntity
  8
0
  6
Continuous
 62
     7
370
     0
100
AcDbLine
 10
72.1006950772
 20
123.7790617827
 30
0.0
 11
76.2847884655
 21
115.5117462561
 31
0.0
  0
LINE
  5
AE
330
1F
100
AcDbEntity
  8
0
  6
Continuous
 62
     7
370
     0
100
AcDbLine
 10
74.8761518956
 20
114.9732667193
 30
0.0
 11
70.7623361372
 21
123.101717448
 31
0.0
  0
LINE
  5
AF
330
1F
100
AcDbEntity
  8
0
  6
Continuous
 62
     7
370
     0
100
AcDbLine
 10
36.635279292
 20
109.8101921344
 30
0.0
 11
36.9160579087
 21
115.2039239475
 31
0.0
  0
LINE
  5
B0
330
1F
100
AcDbEntity
  8
0
  6
Continuous
 62
     7
370
     0
100
AcDbLine
 10
87.9927892036
 20
124.3361159468
 30
0.0
 11
97.1382333994
 21
118.6267958194
 31
0.0
  0
LWPOLYLINE
  5
B1
330
1F
100
AcDbEntity
  8
0
  6
Continuous
 62
     7
370
     0
100
AcDbPolyline
 90
        9
 70
   128
 43
0.0
 10
67.8365043462
 20
117.176533787
 10
67.8271464169
 20
117.1787214637
 10
67.799441433
 20
117.1851997435
 10
67.7544511021
 20
117.195719032
 10
67.6939039588
 20
117.2098760664
 10
67.6201245845
 20
117.2271260232
 10
67.5359516502
 20
117.2468067318
 10
67.4446187079
 20
117.2681619585
 10
67.3496349812
 20
117.2903702766
  0
LINE
  5
B2
330
1F
100
AcDbEntity
  8
0
  6
Continuous
 62
     7
370
     0
100
AcDbLine
 10
67.349634304
 20
117.290369818
 30
0.0
 11
68.8148600877
 21
123.5570602165
 31
0.0
  0
LWPOLYLINE
  5
B3
330
1F
100
AcDbEntity
  8
0
  6
Continuous
 62
     7
370
     0
100
AcDbPolyline
 90
        9
 70
   128
 43
0.0
 10
69.3017280758
 20
123.4432236463
 10
69.2923738718
 20
123.4454122543
 10
69.2646688879
 20
123.4518905342
 10
69.219678557
 20
123.4624088913
 10
69.1591276884
 20
123.4765668571
 10
69.0853483141
 20
123.4938168138
 10
69.0011753798
 20
123.5134975225
 10
68.9098424375
 20
123.5348527491
 10
68.8148587108
 20
123.5570610672
  0
LINE
  5
B4
330
1F
100
AcDbEntity
  8
0
  6
Continuous
 62
     7
370
     0
100
AcDbLine
 10
82.4474832472
 20
124.1855603464
 30
0.0
 11
79.0438934087
 21
118.290369818
 31
0.0
  0
LWPOLYLINE
  5
B5
330
1F
100
AcDbEntity
  8
0
  6
Continuous
 62
     7
370
     0
100
AcDbPolyline
 90
        9
 70
   128
 43
0.0
 10
78.8706875503
 20
118.3903702706
 10
78.8740179599
 20
118.3884480208
 10
78.8838713527
 20
118.3827576399
 10
78.8998789251
 20
118.3735170573
 10
78.9214185536
 20
118.3610801756
 10
78.9476669491
 20
118.345926626
 10
78.9776108325
 20
118.3286384851
 10
79.0101028145
 20
118.3098788545
 10
79.0438949228
 20
118.2903695092
  0
LINE
  5
B6
330
1F
100
AcDbEntity
  8
0
  6
Continuous
 62
     7
370
     0
100
AcDbLine
 10
78.8706883279
 20
118.390369818
 30
0.0
 11
82.2742781664
 21
124.2855603464
 31
0.0
  0
LWPOLYLINE
  5
B7
330
1F
100
AcDbEntity
  8
0
  6
Continuous
 62
     7
370
     0
100
AcDbPolyline
 90
        9
 70
   128
 43
0.0
 10
82.4474840522
 20
124.1855603814
 10
82.4136919439
 20
124.2050697267
 10
82.3811999619
 20
124.223828426
 10
82.3512560785
 20
124.2411174983
 10
82.3250076831
 20
124.2562701166
 10
82.3034680546
 20
124.2687069982
 10
82.2874642075
 20
124.2779475808
 10
82.2776070893
 20
124.2836379617
 10
82.2742766798
 20
124.2855602115
  0
LWPOLYLINE
  5
B8
330
1F
100
AcDbEntity
  8
0
  6
Continuous
 62
     7
370
     0
100
AcDbPolyline
 90
        9
 70
   128
 43
0.0
 10
91.9976382614
 20
117.622682935
 10
91.9904633522
 20
117.6162977874
 10
91.9692068458
 20
117.5973872826
 10
91.9346808553
 20
117.566677852
 10
91.8882190347
 20
117.5253504127
 10
91.8316095233
 20
117.4749928698
 10
91.7670204401
 20
117.4175405115
 10
91.696940279
 20
117.3552005723
 10
91.6240512491
 20
117.2903702766
  0
LINE
  5
B9
330
1F
100
AcDbEntity
  8
0
  6
Continuous
 62
     7
370
     0
100
AcDbLine
 10
91.6240533081
 20
117.290369818
 30
0.0
 11
86.6616492412
 21
122.8691287909
 31
0.0
  0
LWPOLYLINE
  5
BA
330
1F
100
AcDbEntity
  8
0
  6
Continuous
 62
     7
370
     0
100
AcDbPolyline
 90
        9
 70
   128
 43
0.0
 10
87.0352386594
 20
123.20144113
 10
87.0280562997
 20
123.1950559825
 10
87.0067997933
 20
123.1761464089
 10
86.9722738028
 20
123.1454369783
 10
86.9258194328
 20
123.1041104704
 10
86.8692024708
 20
123.0537519962
 10
86.8046133876
 20
122.9962987065
 10
86.7345332265
 20
122.9339596987
 10
86.6616516471
 20
122.8691284716
  0
LWPOLYLINE
  5
BB
330
1F
100
AcDbEntity
  8
0
  6
Continuous
 62
     7
370
     0
100
AcDbPolyline
 90
        9
 70
   128
 43
0.0
 10
95.1827018619
 20
119.8475939393
 10
95.1877906084
 20
119.8557430118
 10
95.2028556824
 20
119.8798791677
 10
95.2273233891
 20
119.9190729469
 10
95.2602549553
 20
119.9718211949
 10
95.3003763318
 20
120.0360917658
 10
95.346152699
 20
120.10942038
 10
95.3958257199
 20
120.1889851302
 10
95.4474805952
 20
120.2717294157
  0
LWPOLYLINE
  5
BC
330
1F
100
AcDbEntity
  8
0
  6
Continuous
 62
     7
370
     0
100
AcDbPolyline
 90
        9
 70
   128
 43
0.0
 10
95.9474816084
 20
119.6474489927
 10
95.93787781
 20
119.6594444275
 10
95.9094240427
 20
119.6949706584
 10
95.8632155419
 20
119.752660504
 10
95.8010329962
 20
119.8302974165
 10
95.7252680421
 20
119.9248974383
 10
95.638826406
 20
120.0328284115
 10
95.5450310469
 20
120.1499384999
 10
95.4474805952
 20
120.2717294157
  0
ARC
  5
BD
330
1F
100
AcDbEntity
  8
0
  6
Continuous
 62
     7
370
     0
100
AcDbCircle
 10
96.4474832472
 20
119.6474495164
 30
0.0
 40
0.5000000000000048
100
AcDbArc
 50
180.0
 51
238.0242756717
  0
ARC
  5
BE
330
1F
100
AcDbEntity
  8
0
  6
Continuous
 62
     7
370
     0
100
AcDbCircle
 10
46.2993472172
 20
123.699911538
 30
0.0
 40
1.250000000189894
100
AcDbArc
 50
318.3463453283
 51
121.975723985
  0
LWPOLYLINE
  5
BF
330
1F
100
AcDbEntity
  8
0
  6
Continuous
 62
     7
370
     0
100
AcDbPolyline
 90
        9
 70
   128
 43
0.0
 10
47.233316964
 20
122.8691284716
 10
47.1604335219
 20
122.9339596987
 10
47.0903514982
 20
122.9962987065
 10
47.025762415
 20
123.0537519962
 10
46.969151041
 20
123.1041104704
 10
46.922691083
 20
123.1454369783
 10
46.8881669552
 20
123.1761464089
 10
46.8669067234
 20
123.1950559825
 10
46.8597299517
 20
123.20144113
  0
LWPOLYLINE
  5
C0
330
1F
100
AcDbEntity
  8
0
  6
Continuous
 62
     7
370
     0
100
AcDbPolyline
 90
        9
 70
   128
 43
0.0
 10
45.6373970122
 20
124.7602516025
 10
45.6890537501
 20
124.6775073171
 10
45.7387249083
 20
124.5979425669
 10
45.7845012755
 20
124.5246139526
 10
45.8246245146
 20
124.4603433818
 10
45.8575542182
 20
124.4075951338
 10
45.8820219249
 20
124.3684013546
 10
45.8970888615
 20
124.3442651987
 10
45.9021776081
 20
124.3361161262
  0
ARC
  5
C1
330
1F
100
AcDbEntity
  8
0
  6
Continuous
 62
     7
370
     0
100
AcDbCircle
 10
82.4474832472
 20
124.1855603464
 30
0.0
 40
0.2000000000000035
100
AcDbArc
 50
30.0
 51
150.0
  0
LWPOLYLINE
  5
C2
330
1F
100
AcDbEntity
  8
0
  6
Continuous
 62
     7
370
     0
100
AcDbPolyline
 90
        9
 70
   128
 43
0.0
 10
82.4474840522
 20
124.1855603814
 10
82.4812724352
 20
124.2050697267
 10
82.5137644172
 20
124.223828426
 10
82.5437120259
 20
124.2411174983
 10
82.5699566961
 20
124.2562701166
 10
82.5914963246
 20
124.2687069982
 10
82.607503897
 20
124.2779475808
 10
82.6173610151
 20
124.2836379617
 10
82.6206876994
 20
124.2855602115
  0
LWPOLYLINE
  5
C3
330
1F
100
AcDbEntity
  8
0
  6
Continuous
 62
     7
370
     0
100
AcDbPolyline
 90
        9
 70
   128
 43
0.0
 10
54.8510736883
 20
118.2903695092
 10
54.8848620713
 20
118.3098788545
 10
54.9173540533
 20
118.3286384851
 10
54.947301662
 20
118.345926626
 10
54.9735463322
 20
118.3610801756
 10
54.995089686
 20
118.3735170573
 10
55.0110935331
 20
118.3827576399
 10
55.0209506512
 20
118.3884480208
 10
55.0242773354
 20
118.3903702706
  0
ARC
  5
C4
330
1F
100
AcDbEntity
  8
0
  6
Continuous
 62
     7
370
     0
100
AcDbCircle
 10
54.8510730856
 20
118.290369818
 30
0.0
 40
0.2000000000000035
100
AcDbArc
 50
270.0
 51
30.0
  0
LINE
  5
C5
330
1F
100
AcDbEntity
  8
0
  6
Continuous
 62
     7
370
     0
100
AcDbLine
 10
54.8510730856
 20
118.090369818
 30
0.0
 11
54.8510730856
 21
118.290369818
 31
0.0
  0
ARC
  5
C6
330
1F
100
AcDbEntity
  8
0
  6
Continuous
 62
     7
370
     0
100
AcDbCircle
 10
70.7623361372
 20
123.101717448
 30
0.0
 40
2.000000000000014
100
AcDbArc
 50
26.8440019512
 51
166.8399849348
  0
LWPOLYLINE
  5
C7
330
1F
100
AcDbEntity
  8
0
  6
Continuous
 62
     7
370
     0
100
AcDbPolyline
 90
        9
 70
   128
 43
0.0
 10
72.1006951392
 20
123.779062292
 10
72.1092670322
 20
123.7834003925
 10
72.1346548856
 20
123.7962489188
 10
72.175878948
 20
123.8171124071
 10
72.2313596964
 20
123.8451917827
 10
72.2989625395
 20
123.8794067115
 10
72.3760909498
 20
123.9184403032
 10
72.4597795964
 20
123.9607949913
 10
72.5468135536
 20
124.0048428237
  0
LINE
  5
C8
330
1F
100
AcDbEntity
  8
0
  6
Continuous
 62
     7
370
     0
100
AcDbLine
 10
54.8510730856
 20
118.090369818
 30
0.0
 11
48.0438934087
 21
118.090369818
 31
0.0
  0
LINE
  5
C9
330
1F
100
AcDbEntity
  8
0
  6
Continuous
 62
     7
370
     0
100
AcDbLine
 10
48.0438934087
 20
118.090369818
 30
0.0
 11
48.0438934087
 21
118.290369818
 31
0.0
  0
LINE
  5
CA
330
1F
100
AcDbEntity
  8
0
  6
Continuous
 62
     7
370
     0
100
AcDbLine
 10
48.0438934087
 20
118.290369818
 30
0.0
 11
54.8510730856
 21
118.290369818
 31
0.0
  0
LINE
  5
CB
330
1F
100
AcDbEntity
  8
0
  6
Continuous
 62
     7
370
     0
100
AcDbLine
 10
54.8510730856
 20
118.290369818
 30
0.0
 11
51.4474832472
 21
124.1855603464
 31
0.0
  0
LWPOLYLINE
  5
CC
330
1F
100
AcDbEntity
  8
0
  6
Continuous
 62
     7
370
     0
100
AcDbPolyline
 90
        9
 70
   128
 43
0.0
 10
51.4474826962
 20
124.1855603814
 10
51.4812748045
 20
124.2050697267
 10
51.5137667865
 20
124.223828426
 10
51.5437106699
 20
124.2411174983
 10
51.5699572027
 20
124.2562701166
 10
51.5914986939
 20
124.2687069982
 10
51.6075044036
 20
124.2779475808
 10
51.6173596591
 20
124.2836379617
 10
51.620688206
 20
124.2855602115
  0
LINE
  5
CD
330
1F
100
AcDbEntity
  8
0
  6
Continuous
 62
     7
370
     0
100
AcDbLine
 10
51.6206883279
 20
124.2855603464
 30
0.0
 11
55.0242781664
 21
118.390369818
 31
0.0
  0
LWPOLYLINE
  5
CE
330
1F
100
AcDbEntity
  8
0
  6
Continuous
 62
     7
370
     0
100
AcDbPolyline
 90
        9
 70
   128
 43
0.0
 10
87.9927872777
 20
124.3361161262
 10
87.9978760243
 20
124.3442651987
 10
88.0129410983
 20
124.3684013546
 10
88.0374162555
 20
124.4075951338
 10
88.0703403712
 20
124.4603433818
 10
88.1104617477
 20
124.5246139526
 10
88.1562455655
 20
124.5979425669
 10
88.2059111357
 20
124.6775073171
 10
88.257566011
 20
124.7602516025
  0
LINE
  5
CF
330
1F
100
AcDbEntity
  8
0
  6
Continuous
 62
     7
370
     0
100
AcDbLine
 10
88.2575691571
 20
124.7602522177
 30
0.0
 11
95.4474832472
 21
120.271729899
 31
0.0
  0
LWPOLYLINE
  5
D0
330
1F
100
AcDbEntity
  8
0
  6
Continuous
 62
     7
370
     0
100
AcDbPolyline
 90
       10
 70
   128
 43
0.0
 10
57.9499526978
 20
117.2903702766
 10
57.8620693744
 20
117.2035458669
 10
57.7768570841
 20
117.1193598941
 10
57.6969011784
 20
117.0403697699
 10
57.6246379972
 20
116.968976444
 10
57.5622580111
 20
116.9073480353
 10
57.511657393
 20
116.8573574334
 10
57.4743746877
 20
116.8205236256
 10
57.4515386582
 20
116.7979660615
 10
57.443849659
 20
116.7903701946
  0
LWPOLYLINE
  5
D1
330
1F
100
AcDbEntity
  8
0
  6
Continuous
 62
     7
370
     0
100
AcDbPolyline
 90
        9
 70
   128
 43
0.0
 10
57.9499526978
 20
117.2903702766
 10
58.036986655
 20
117.2463224441
 10
58.1206753016
 20
117.2039668247
 10
58.1978037119
 20
117.1649323016
 10
58.265406555
 20
117.1307183042
 10
58.3208873034
 20
117.1026398599
 10
58.3621113658
 20
117.081774509
 10
58.3874992192
 20
117.068926914
 10
58.3960711122
 20
117.0645888135
  0
ARC
  5
D2
330
1F
100
AcDbEntity
  8
0
  6
Continuous
 62
     7
370
     0
100
AcDbCircle
 10
57.4438515175
 20
116.290369818
 30
0.0
 40
0.5000000000000023
100
AcDbArc
 50
333.1559970911
 51
90.0
  0
LINE
  5
D3
330
1F
100
AcDbEntity
  8
0
  6
Continuous
 62
     7
370
     0
100
AcDbLine
 10
79.0438934087
 20
118.290369818
 30
0.0
 11
85.8510730856
 21
118.290369818
 31
0.0
  0
LINE
  5
D4
330
1F
100
AcDbEntity
  8
0
  6
Continuous
 62
     7
370
     0
100
AcDbLine
 10
85.8510730856
 20
118.290369818
 30
0.0
 11
82.4474832472
 21
124.1855603464
 31
0.0
  0
LWPOLYLINE
  5
D5
330
1F
100
AcDbEntity
  8
0
  6
Continuous
 62
     7
370
     0
100
AcDbPolyline
 90
        9
 70
   128
 43
0.0
 10
51.4474826962
 20
124.1855603814
 10
51.4136924506
 20
124.2050697267
 10
51.3812004686
 20
124.223828426
 10
51.3512565852
 20
124.2411174983
 10
51.3250081897
 20
124.2562701166
 10
51.3034685612
 20
124.2687069982
 10
51.2874628514
 20
124.2779475808
 10
51.2776057333
 20
124.2836379617
 10
51.2742790491
 20
124.2855602115
  0
ARC
  5
D6
330
1F
100
AcDbEntity
  8
0
  6
Continuous
 62
     7
370
     0
100
AcDbCircle
 10
51.4474832472
 20
124.1855603464
 30
0.0
 40
0.2000000000000096
100
AcDbArc
 50
30.0
 51
150.0
  0
ARC
  5
D7
330
1F
100
AcDbEntity
  8
0
  6
Continuous
 62
     7
370
     0
100
AcDbCircle
 10
63.1326303572
 20
123.101717448
 30
0.0
 40
1.999999999999999
100
AcDbArc
 50
13.1600150652
 51
153.1559983681
  0
LWPOLYLINE
  5
D8
330
1F
100
AcDbEntity
  8
0
  6
Continuous
 62
     7
370
     0
100
AcDbPolyline
 90
        9
 70
   128
 43
0.0
 10
65.080106175
 20
123.5570610672
 10
64.9851224482
 20
123.5348527491
 10
64.893789506
 20
123.5134975225
 10
64.8096165717
 20
123.4938168138
 10
64.7358371973
 20
123.4765668571
 10
64.6752900541
 20
123.4624088913
 10
64.6302997232
 20
123.4518905342
 10
64.6025910139
 20
123.4454122543
 10
64.59323681
 20
123.4432236463
  0
LWPOLYLINE
  5
D9
330
1F
100
AcDbEntity
  8
0
  6
Continuous
 62
     7
370
     0
100
AcDbPolyline
 90
        9
 70
   128
 43
0.0
 10
61.3481513322
 20
124.0048428237
 10
61.4351852894
 20
123.9607949913
 10
61.518873936
 20
123.9184403032
 10
61.5960023463
 20
123.8794048488
 10
61.6636051894
 20
123.8451917827
 10
61.7190859378
 20
123.8171124071
 10
61.7603137255
 20
123.7962489188
 10
61.7856978536
 20
123.7834003925
 10
61.7942697466
 20
123.779062292
  0
LINE
  5
DA
330
1F
100
AcDbEntity
  8
0
  6
Continuous
 62
     7
370
     0
100
AcDbLine
 10
51.4474832472
 20
124.1855603464
 30
0.0
 11
48.0438934087
 21
118.290369818
 31
0.0
  0
LWPOLYLINE
  5
DB
330
1F
100
AcDbEntity
  8
0
  6
Continuous
 62
     7
370
     0
100
AcDbPolyline
 90
        9
 70
   128
 43
0.0
 10
47.870688057
 20
118.3903702706
 10
47.8740166039
 20
118.3884480208
 10
47.8838718594
 20
118.3827576399
 10
47.8998794318
 20
118.3735170573
 10
47.9214190603
 20
118.3610801756
 10
47.9476655931
 20
118.345926626
 10
47.9776113391
 20
118.3286384851
 10
48.0101033211
 20
118.3098788545
 10
48.0438935668
 20
118.2903695092
  0
LINE
  5
DC
330
1F
100
AcDbEntity
  8
0
  6
Continuous
 62
     7
370
     0
100
AcDbLine
 10
47.8706883279
 20
118.390369818
 30
0.0
 11
51.2742781664
 21
124.2855603464
 31
0.0
  0
LINE
  5
DD
330
1F
100
AcDbEntity
  8
0
  6
Continuous
 62
     7
370
     0
100
AcDbLine
 10
79.0438934087
 20
118.090369818
 30
0.0
 11
79.0438934087
 21
118.290369818
 31
0.0
  0
ARC
  5
DE
330
1F
100
AcDbEntity
  8
0
  6
Continuous
 62
     7
370
     0
100
AcDbCircle
 10
79.0438934087
 20
118.290369818
 30
0.0
 40
0.2000000000000158
100
AcDbArc
 50
150.0
 51
270.0
  0
LWPOLYLINE
  5
DF
330
1F
100
AcDbEntity
  8
0
  6
Continuous
 62
     7
370
     0
100
AcDbPolyline
 90
        9
 70
   128
 43
0.0
 10
75.4988937736
 20
117.0645888135
 10
75.5074656666
 20
117.068926914
 10
75.53285352
 20
117.081774509
 10
75.5740775824
 20
117.1026398599
 10
75.6295583308
 20
117.1307183042
 10
75.6971648992
 20
117.1649323016
 10
75.7742933095
 20
117.2039668247
 10
75.857981956
 20
117.2463224441
 10
75.9450159133
 20
117.2903702766
  0
LWPOLYLINE
  5
E0
330
1F
100
AcDbEntity
  8
0
  6
Continuous
 62
     7
370
     0
100
AcDbPolyline
 90
       10
 70
   128
 43
0.0
 10
76.4511152268
 20
116.7903701946
 10
76.4434262276
 20
116.7979660615
 10
76.4205939234
 20
116.8205236256
 10
76.3833112181
 20
116.8573574334
 10
76.3327105999
 20
116.9073480353
 10
76.2703306139
 20
116.968976444
 10
76.1980637074
 20
117.0403697699
 10
76.118111527
 20
117.1193598941
 10
76.0328992367
 20
117.2035458669
 10
75.9450159133
 20
117.2903702766
  0
ARC
  5
E1
330
1F
100
AcDbEntity
  8
0
  6
Continuous
 62
     7
370
     0
100
AcDbCircle
 10
76.4511149768
 20
116.290369818
 30
0.0
 40
0.5000000000000023
100
AcDbArc
 50
90.0
 51
206.8440029089
  0
LINE
  5
E2
330
1F
100
AcDbEntity
  8
0
  6
Continuous
 62
     7
370
     0
100
AcDbLine
 10
47.233317253
 20
122.8691287911
 30
0.0
 11
42.2709131862
 21
117.290369818
 31
0.0
  0
LWPOLYLINE
  5
E3
330
1F
100
AcDbEntity
  8
0
  6
Continuous
 62
     7
370
     0
100
AcDbPolyline
 90
        9
 70
   128
 43
0.0
 10
42.2709136367
 20
117.2903702766
 10
42.1980301947
 20
117.3552005723
 10
42.1279481709
 20
117.4175405115
 10
42.0633590877
 20
117.4749928698
 10
42.0067458511
 20
117.5253504127
 10
41.9602858931
 20
117.566677852
 10
41.9257636279
 20
117.5973872826
 10
41.9045033962
 20
117.6162977874
 10
41.8973247618
 20
117.622682935
  0
LINE
  5
E4
330
1F
100
AcDbEntity
  8
0
  6
Continuous
 62
     7
370
     0
100
AcDbLine
 10
85.8510730856
 20
118.090369818
 30
0.0
 11
79.0438934087
 21
118.090369818
 31
0.0
  0
LINE
  5
E5
330
1F
100
AcDbEntity
  8
0
  6
Continuous
 62
     7
370
     0
100
AcDbLine
 10
85.8510730856
 20
118.090369818
 30
0.0
 11
85.8510730856
 21
118.290369818
 31
0.0
  0
LWPOLYLINE
  5
E6
330
1F
100
AcDbEntity
  8
0
  6
Continuous
 62
     7
370
     0
100
AcDbPolyline
 90
        9
 70
   128
 43
0.0
 10
85.8510731817
 20
118.2903695092
 10
85.8848615647
 20
118.3098788545
 10
85.9173535467
 20
118.3286384851
 10
85.9472974301
 20
118.345926626
 10
85.9735458255
 20
118.3610801756
 10
85.995085454
 20
118.3735170573
 10
86.0110967517
 20
118.3827576399
 10
86.0209464193
 20
118.3884480208
 10
86.0242768288
 20
118.3903702706
  0
ARC
  5
E7
330
1F
100
AcDbEntity
  8
0
  6
Continuous
 62
     7
370
     0
100
AcDbCircle
 10
85.8510730856
 20
118.290369818
 30
0.0
 40
0.1999999999999911
100
AcDbArc
 50
270.0
 51
30.0
  0
ARC
  5
E8
330
1F
100
AcDbEntity
  8
0
  6
Continuous
 62
     7
370
     0
100
AcDbCircle
 10
48.0438934087
 20
118.290369818
 30
0.0
 40
0.2000000000000035
100
AcDbArc
 50
150.0
 51
270.0
  0
ARC
  5
E9
330
1F
100
AcDbEntity
  8
0
  6
Continuous
 62
     7
370
     0
100
AcDbCircle
 10
67.1158225644
 20
116.290369818
 30
0.0
 40
0.5000000000000019
100
AcDbArc
 50
346.8399850889
 51
90.0
  0
LWPOLYLINE
  5
EA
330
1F
100
AcDbEntity
  8
0
  6
Continuous
 62
     7
370
     0
100
AcDbPolyline
 90
        9
 70
   128
 43
0.0
 10
67.3496349812
 20
117.2903702766
 10
67.3040188015
 20
117.1928244814
 10
67.2601572335
 20
117.099028191
 10
67.2197341085
 20
117.0125846922
 10
67.1843028725
 20
116.9368160129
 10
67.1552269817
 20
116.8746353298
 10
67.1336202979
 20
116.828429623
 10
67.120313561
 20
116.799976787
 10
67.1158208609
 20
116.7903701946
  0
LWPOLYLINE
  5
EB
330
1F
100
AcDbEntity
  8
0
  6
Continuous
 62
     7
370
     0
100
AcDbPolyline
 90
       10
 70
   128
 43
0.0
 10
42.2709136367
 20
117.2903702766
 10
42.1164500624
 20
117.2035458669
 10
41.9666803539
 20
117.1193598941
 10
41.8261549533
 20
117.0403697699
 10
41.6991430432
 20
116.968976444
 10
41.5895040244
 20
116.9073480353
 10
41.5005683065
 20
116.8573574334
 10
41.4350404501
 20
116.8205236256
 10
41.3949097604
 20
116.7979660615
 10
41.3813962698
 20
116.7903701946
  0
ARC
  5
EC
330
1F
100
AcDbEntity
  8
0
  6
Continuous
 62
     7
370
     0
100
AcDbCircle
 10
41.3813956267
 20
116.290369818
 30
0.0
 40
0.5
100
AcDbArc
 50
90.0
 51
138.3463453283
  0
LWPOLYLINE
  5
ED
330
1F
100
AcDbEntity
  8
0
  6
Continuous
 62
     7
370
     0
100
AcDbPolyline
 90
        9
 70
   128
 43
0.0
 10
66.5453336299
 20
117.2903702766
 10
66.4503499031
 20
117.2681619585
 10
66.3590169609
 20
117.2468067318
 10
66.2748440266
 20
117.2271260232
 10
66.2010646522
 20
117.2098760664
 10
66.1405137837
 20
117.195719032
 10
66.0955234528
 20
117.1851997435
 10
66.0678184689
 20
117.1787214637
 10
66.0584642649
 20
117.176533787
  0
LWPOLYLINE
  5
EE
330
1F
100
AcDbEntity
  8
0
  6
Continuous
 62
     7
370
     0
100
AcDbPolyline
 90
       10
 70
   128
 43
0.0
 10
66.5453336299
 20
117.2903702766
 10
66.5859318436
 20
117.2035458669
 10
66.6253007114
 20
117.1193598941
 10
66.6622369647
 20
117.0403697699
 10
66.6956230164
 20
116.968976444
 10
66.7244418621
 20
116.9073480353
 10
66.7478180588
 20
116.8573574334
 10
66.7650438011
 20
116.8205236256
 10
66.7755900979
 20
116.7979660615
 10
66.7791440249
 20
116.7903701946
  0
ARC
  5
EF
330
1F
100
AcDbEntity
  8
0
  6
Continuous
 62
     7
370
     0
100
AcDbCircle
 10
66.7791439299
 20
116.290369818
 30
0.0
 40
0.5
100
AcDbArc
 50
90.0
 51
193.1600149111
  0
LINE
  5
F0
330
1F
100
AcDbEntity
  8
0
  6
Continuous
 62
     7
370
     0
100
AcDbLine
 10
82.6206883279
 20
124.2855603464
 30
0.0
 11
86.0242781664
 21
118.390369818
 31
0.0
  0
ARC
  5
F1
330
1F
100
AcDbEntity
  8
0
  6
Continuous
 62
     7
370
     0
100
AcDbCircle
 10
87.5956192772
 20
123.699911538
 30
0.0
 40
1.25000000037978
100
AcDbArc
 50
58.0242758799
 51
221.6536546717
  0
LINE
  5
F2
330
1F
100
AcDbEntity
  8
0
  6
Continuous
 62
     7
370
     0
100
AcDbLine
 10
57.9499521994
 20
117.290369818
 30
0.0
 11
61.3481517705
 21
124.0048432276
 31
0.0
  0
ARC
  5
F3
330
1F
100
AcDbEntity
  8
0
  6
Continuous
 62
     7
370
     0
100
AcDbCircle
 10
92.5135708677
 20
116.290369818
 30
0.0
 40
0.5
100
AcDbArc
 50
41.6536546717
 51
90.0
  0
LWPOLYLINE
  5
F4
330
1F
100
AcDbEntity
  8
0
  6
Continuous
 62
     7
370
     0
100
AcDbPolyline
 90
       10
 70
   128
 43
0.0
 10
92.513568616
 20
116.7903701946
 10
92.5000607133
 20
116.7979660615
 10
92.4599244357
 20
116.8205236256
 10
92.3943965793
 20
116.8573574334
 10
92.3054664493
 20
116.9073480353
 10
92.1958237052
 20
116.968976444
 10
92.0688136578
 20
117.0403697699
 10
91.9282882572
 20
117.1193598941
 10
91.778516686
 20
117.2035458669
 10
91.6240512491
 20
117.2903702766
  0
LINE
  5
F5
330
1F
100
AcDbEntity
  8
0
  6
Continuous
 62
     7
370
     0
100
AcDbLine
 10
72.5468147188
 20
124.0048432375
 30
0.0
 11
75.945014295
 21
117.290369818
 31
0.0
  0
LINE
  5
F6
330
1F
100
AcDbEntity
  8
0
  6
Continuous
 62
     7
370
     0
100
AcDbLine
 10
38.4474832472
 20
120.271729899
 30
0.0
 11
45.6373973399
 21
124.7602522191
 31
0.0
  0
LWPOLYLINE
  5
F7
330
1F
100
AcDbEntity
  8
0
  6
Continuous
 62
     7
370
     0
100
AcDbPolyline
 90
        9
 70
   128
 43
0.0
 10
38.447482428
 20
120.2717294157
 10
38.4991391659
 20
120.1889851302
 10
38.5488103241
 20
120.10942038
 10
38.5945866913
 20
120.0360917658
 10
38.6347117931
 20
119.9718211949
 10
38.6676396341
 20
119.9190729469
 10
38.6921073407
 20
119.8798791677
 10
38.70717614
 20
119.8557430118
 10
38.7122630239
 20
119.8475939393
  0
LINE
  5
F8
330
1F
100
AcDbEntity
  8
0
  6
Continuous
 62
     7
370
     0
100
AcDbLine
 10
65.0801064066
 20
123.5570602165
 30
0.0
 11
66.5453321903
 21
117.290369818
 31
0.0
  0
LWPOLYLINE
  5
F9
330
1F
100
AcDbEntity
  8
0
  6
Continuous
 62
     7
370
     0
100
AcDbPolyline
 90
        9
 70
   128
 43
0.0
 10
38.447482428
 20
120.2717294157
 10
38.3499375642
 20
120.1499384999
 10
38.256142205
 20
120.0328284115
 10
38.1696987063
 20
119.9248974383
 10
38.0939300269
 20
119.8302974165
 10
38.0317493439
 20
119.752660504
 10
37.9855427057
 20
119.6949706584
 10
37.957090801
 20
119.6594444275
 10
37.9474832774
 20
119.6474489927
  0
ARC
  5
FA
330
1F
100
AcDbEntity
  8
0
  6
Continuous
 62
     7
370
     0
100
AcDbCircle
 10
37.4474832472
 20
119.6474495164
 30
0.0
 40
0.500000000000001
100
AcDbArc
 50
301.9757243283
 51
0.0
  0
ARC
  5
FB
330
1F
100
AcDbEntity
  8
0
  6
Continuous
 62
     7
370
     0
100
AcDbCircle
 10
48.0438934087
 20
118.290369818
 30
0.0
 40
0.4000000000000131
100
AcDbArc
 50
150.0
 51
210.0
  0
LWPOLYLINE
  5
FC
330
1F
100
AcDbEntity
  8
0
  6
Continuous
 62
     7
370
     0
100
AcDbPolyline
 90
        9
 70
   128
 43
0.0
 10
47.870688057
 20
118.3903702706
 10
47.8673595101
 20
118.3922915891
 10
47.8575042546
 20
118.39798197
 10
47.8414985449
 20
118.4072225526
 10
47.8199570537
 20
118.4196594343
 10
47.7937105209
 20
118.4348129839
 10
47.7637666375
 20
118.4521011248
 10
47.7312746555
 20
118.4708607554
 10
47.6974825472
 20
118.4903701007
  0
LINE
  5
FD
330
1F
100
AcDbEntity
  8
0
  6
Continuous
 62
     7
370
     0
100
AcDbLine
 10
48.0438934087
 20
117.890369818
 30
0.0
 11
48.0438934087
 21
118.090369818
 31
0.0
  0
ARC
  5
FE
330
1F
100
AcDbEntity
  8
0
  6
Continuous
 62
     7
370
     0
100
AcDbCircle
 10
48.0438934087
 20
118.290369818
 30
0.0
 40
0.3999999999999989
100
AcDbArc
 50
210.0
 51
270.0
  0
LWPOLYLINE
  5
FF
330
1F
100
AcDbEntity
  8
0
  6
Continuous
 62
     7
370
     0
100
AcDbPolyline
 90
        9
 70
   128
 43
0.0
 10
82.6206876994
 20
124.2855602115
 10
82.6240181089
 20
124.2874824613
 10
82.6338715017
 20
124.2931728423
 10
82.6498790741
 20
124.3024134249
 10
82.6714187026
 20
124.3148503065
 10
82.6976670981
 20
124.3300029248
 10
82.7276109815
 20
124.3472919971
 10
82.7601029635
 20
124.3660506964
 10
82.7938950718
 20
124.3855600417
  0
LINE
  5
100
330
1F
100
AcDbEntity
  8
0
  6
Continuous
 62
     7
370
     0
100
AcDbLine
 10
82.7938934087
 20
124.3855603464
 30
0.0
 11
86.1974832472
 21
118.490369818
 31
0.0
  0
LWPOLYLINE
  5
101
330
1F
100
AcDbEntity
  8
0
  6
Continuous
 62
     7
370
     0
100
AcDbPolyline
 90
        9
 70
   128
 43
0.0
 10
86.0242768288
 20
118.3903702706
 10
86.0276072383
 20
118.3922915891
 10
86.0374643565
 20
118.39798197
 10
86.0534682036
 20
118.4072225526
 10
86.0750078321
 20
118.4196594343
 10
86.1012562275
 20
118.4348129839
 10
86.131200111
 20
118.4521011248
 10
86.1636920929
 20
118.4708607554
 10
86.1974804759
 20
118.4903701007
  0
LINE
  5
102
330
1F
100
AcDbEntity
  8
0
  6
Continuous
 62
     7
370
     0
100
AcDbLine
 10
85.8510730856
 20
117.890369818
 30
0.0
 11
79.0438934087
 21
117.890369818
 31
0.0
  0
LINE
  5
103
330
1F
100
AcDbEntity
  8
0
  6
Continuous
 62
     7
370
     0
100
AcDbLine
 10
79.0438934087
 20
117.890369818
 30
0.0
 11
79.0438934087
 21
118.090369818
 31
0.0
  0
LINE
  5
104
330
1F
100
AcDbEntity
  8
0
  6
Continuous
 62
     7
370
     0
100
AcDbLine
 10
85.8510730856
 20
117.890369818
 30
0.0
 11
85.8510730856
 21
118.090369818
 31
0.0
  0
ARC
  5
105
330
1F
100
AcDbEntity
  8
0
  6
Continuous
 62
     7
370
     0
100
AcDbCircle
 10
79.0438934087
 20
118.290369818
 30
0.0
 40
0.4000000000000069
100
AcDbArc
 50
150.0
 51
210.0
  0
LWPOLYLINE
  5
106
330
1F
100
AcDbEntity
  8
0
  6
Continuous
 62
     7
370
     0
100
AcDbPolyline
 90
        9
 70
   128
 43
0.0
 10
78.8706875503
 20
118.3903702706
 10
78.8673608661
 20
118.3922915891
 10
78.857503748
 20
118.39798197
 10
78.8414961756
 20
118.4072225526
 10
78.8199565471
 20
118.4196594343
 10
78.7937118769
 20
118.4348129839
 10
78.7637642682
 20
118.4521011248
 10
78.7312722862
 20
118.4708607554
 10
78.6974839032
 20
118.4903701007
  0
ARC
  5
107
330
1F
100
AcDbEntity
  8
0
  6
Continuous
 62
     7
370
     0
100
AcDbCircle
 10
79.0438934087
 20
118.290369818
 30
0.0
 40
0.3999999999999927
100
AcDbArc
 50
210.0
 51
270.0
  0
ARC
  5
108
330
1F
100
AcDbEntity
  8
0
  6
Continuous
 62
     7
370
     0
100
AcDbCircle
 10
82.4474832472
 20
124.1855603464
 30
0.0
 40
0.4000000000000057
100
AcDbArc
 50
30.0
 51
90.0
  0
LWPOLYLINE
  5
109
330
1F
100
AcDbEntity
  8
0
  6
Continuous
 62
     7
370
     0
100
AcDbPolyline
 90
        9
 70
   128
 43
0.0
 10
82.1010730327
 20
124.3855600417
 10
82.134865141
 20
124.3660506964
 10
82.1673571229
 20
124.3472919971
 10
82.1973010064
 20
124.3300029248
 10
82.2235494018
 20
124.3148503065
 10
82.2450890303
 20
124.3024134249
 10
82.2610928774
 20
124.2931728423
 10
82.2709499956
 20
124.2874824613
 10
82.2742766798
 20
124.2855602115
  0
ARC
  5
10A
330
1F
100
AcDbEntity
  8
0
  6
Continuous
 62
     7
370
     0
100
AcDbCircle
 10
82.4474832472
 20
124.1855603464
 30
0.0
 40
0.4000000000000121
100
AcDbArc
 50
90.0
 51
150.0
  0
LINE
  5
10B
330
1F
100
AcDbEntity
  8
0
  6
Continuous
 62
     7
370
     0
100
AcDbLine
 10
47.6974832472
 20
118.490369818
 30
0.0
 11
51.1010730856
 21
124.3855603464
 31
0.0
  0
LWPOLYLINE
  5
10C
330
1F
100
AcDbEntity
  8
0
  6
Continuous
 62
     7
370
     0
100
AcDbPolyline
 90
        9
 70
   128
 43
0.0
 10
51.1010735393
 20
124.3855600417
 10
51.134863785
 20
124.3660506964
 10
51.1673557669
 20
124.3472919971
 10
51.197301513
 20
124.3300029248
 10
51.2235480458
 20
124.3148503065
 10
51.2450876743
 20
124.3024134249
 10
51.2610933841
 20
124.2931728423
 10
51.2709505022
 20
124.2874824613
 10
51.2742790491
 20
124.2855602115
  0
LINE
  5
10D
330
1F
100
AcDbEntity
  8
0
  6
Continuous
 62
     7
370
     0
100
AcDbLine
 10
54.8510730856
 20
117.890369818
 30
0.0
 11
48.0438934087
 21
117.890369818
 31
0.0
  0
LINE
  5
10E
330
1F
100
AcDbEntity
  8
0
  6
Continuous
 62
     7
370
     0
100
AcDbLine
 10
54.8510730856
 20
117.890369818
 30
0.0
 11
54.8510730856
 21
118.090369818
 31
0.0
  0
LINE
  5
10F
330
1F
100
AcDbEntity
  8
0
  6
Continuous
 62
     7
370
     0
100
AcDbLine
 10
78.6974832472
 20
118.490369818
 30
0.0
 11
82.1010730856
 21
124.3855603464
 31
0.0
  0
ARC
  5
110
330
1F
100
AcDbEntity
  8
0
  6
Continuous
 62
     7
370
     0
100
AcDbCircle
 10
85.8510730856
 20
118.290369818
 30
0.0
 40
0.3999999999999946
100
AcDbArc
 50
330.0
 51
30.0
  0
ARC
  5
111
330
1F
100
AcDbEntity
  8
0
  6
Continuous
 62
     7
370
     0
100
AcDbCircle
 10
85.8510730856
 20
118.290369818
 30
0.0
 40
0.3999999999999915
100
AcDbArc
 50
270.0
 51
330.0
  0
ARC
  5
112
330
1F
100
AcDbEntity
  8
0
  6
Continuous
 62
     7
370
     0
100
AcDbCircle
 10
51.4474832472
 20
124.1855603464
 30
0.0
 40
0.4000000000000057
100
AcDbArc
 50
30.0
 51
90.0
  0
LWPOLYLINE
  5
113
330
1F
100
AcDbEntity
  8
0
  6
Continuous
 62
     7
370
     0
100
AcDbPolyline
 90
        9
 70
   128
 43
0.0
 10
51.620688206
 20
124.2855602115
 10
51.6240167529
 20
124.2874824613
 10
51.6338720084
 20
124.2931728423
 10
51.6498777181
 20
124.3024134249
 10
51.6714192093
 20
124.3148503065
 10
51.6976657421
 20
124.3300029248
 10
51.7276114881
 20
124.3472919971
 10
51.7601034701
 20
124.3660506964
 10
51.7938918531
 20
124.3855600417
  0
ARC
  5
114
330
1F
100
AcDbEntity
  8
0
  6
Continuous
 62
     7
370
     0
100
AcDbCircle
 10
51.4474832472
 20
124.1855603464
 30
0.0
 40
0.400000000000006
100
AcDbArc
 50
90.0
 51
150.0
  0
LINE
  5
115
330
1F
100
AcDbEntity
  8
0
  6
Continuous
 62
     7
370
     0
100
AcDbLine
 10
51.7938934087
 20
124.3855603464
 30
0.0
 11
55.1974832472
 21
118.490369818
 31
0.0
  0
LWPOLYLINE
  5
116
330
1F
100
AcDbEntity
  8
0
  6
Continuous
 62
     7
370
     0
100
AcDbPolyline
 90
        9
 70
   128
 43
0.0
 10
55.0242773354
 20
118.3903702706
 10
55.027607745
 20
118.3922915891
 10
55.0374611378
 20
118.39798197
 10
55.0534687102
 20
118.4072225526
 10
55.0750083387
 20
118.4196594343
 10
55.1012567342
 20
118.4348129839
 10
55.1312006176
 20
118.4521011248
 10
55.1636925996
 20
118.4708607554
 10
55.1974847079
 20
118.4903701007
  0
ARC
  5
117
330
1F
100
AcDbEntity
  8
0
  6
Continuous
 62
     7
370
     0
100
AcDbCircle
 10
54.8510730856
 20
118.290369818
 30
0.0
 40
0.4000000000000069
100
AcDbArc
 50
330.0
 51
30.0
  0
ARC
  5
118
330
1F
100
AcDbEntity
  8
0
  6
Continuous
 62
     7
370
     0
100
AcDbCircle
 10
54.8510730856
 20
118.290369818
 30
0.0
 40
0.3999999999999915
100
AcDbArc
 50
270.0
 51
330.0
  0
LINE
  5
119
330
1F
100
AcDbEntity
  8
0
  6
Continuous
 62
     7
370
     0
100
AcDbLine
 10
42.2709131862
 20
117.290369818
 30
0.0
 11
57.9499521994
 21
117.290369818
 31
0.0
  0
LINE
  5
11A
330
1F
100
AcDbEntity
  8
0
  6
Continuous
 62
     7
370
     0
100
AcDbLine
 10
38.4474832472
 20
139.090369818
 30
0.0
 11
38.4474832472
 21
120.271729899
 31
0.0
  0
LINE
  5
11B
330
1F
100
AcDbEntity
  8
0
  6
Continuous
 62
     7
370
     0
100
AcDbLine
 10
95.4474832472
 20
139.090369818
 30
0.0
 11
38.4474832472
 21
139.090369818
 31
0.0
  0
LINE
  5
11C
330
1F
100
AcDbEntity
  8
0
  6
Continuous
 62
     7
370
     0
100
AcDbLine
 10
95.4474832472
 20
120.271729899
 30
0.0
 11
95.4474832472
 21
139.090369818
 31
0.0
  0
LINE
  5
11D
330
1F
100
AcDbEntity
  8
0
  6
Continuous
 62
     7
370
     0
100
AcDbLine
 10
75.945014295
 20
117.290369818
 30
0.0
 11
91.6240533081
 21
117.290369818
 31
0.0
  0
LINE
  5
11E
330
1F
100
AcDbEntity
  8
0
  6
Continuous
 62
     7
370
     0
100
AcDbLine
 10
66.5453321903
 20
117.290369818
 30
0.0
 11
67.349634304
 21
117.290369818
 31
0.0
  0
ARC
  5
11F
330
1F
100
AcDbEntity
  8
0
  6
Continuous
 62
     7
370
     0
100
AcDbCircle
 10
68.4474832472
 20
132.290369818
 30
0.0
 40
1.5
100
AcDbArc
 50
90.0
 51
270.0
  0
LINE
  5
120
330
1F
100
AcDbEntity
  8
0
  6
Continuous
 62
     7
370
     0
100
AcDbLine
 10
68.4474832472
 20
130.790369818
 30
0.0
 11
86.4474832472
 21
130.790369818
 31
0.0
  0
ARC
  5
121
330
1F
100
AcDbEntity
  8
0
  6
Continuous
 62
     7
370
     0
100
AcDbCircle
 10
86.4474832472
 20
132.290369818
 30
0.0
 40
1.5
100
AcDbArc
 50
270.0
 51
90.0
  0
LINE
  5
122
330
1F
100
AcDbEntity
  8
0
  6
Continuous
 62
     7
370
     0
100
AcDbLine
 10
86.4474832472
 20
133.790369818
 30
0.0
 11
68.4474832472
 21
133.790369818
 31
0.0
  0
LINE
  5
123
330
1F
100
AcDbEntity
  8
0
  6
Continuous
 62
     7
370
     0
100
AcDbLine
 10
95.9474832472
 20
139.090369818
 30
0.0
 11
95.4474832472
 21
139.090369818
 31
0.0
  0
LINE
  5
124
330
1F
100
AcDbEntity
  8
0
  6
Continuous
 62
     7
370
     0
100
AcDbLine
 10
95.4474832472
 20
139.590369818
 30
0.0
 11
95.4474832472
 21
139.090369818
 31
0.0
  0
ARC
  5
125
330
1F
100
AcDbEntity
  8
0
  6
Continuous
 62
     7
370
     0
100
AcDbCircle
 10
95.4474832472
 20
139.090369818
 30
0.0
 40
0.5
100
AcDbArc
 50
0.0
 51
90.0
  0
LINE
  5
126
330
1F
100
AcDbEntity
  8
0
  6
Continuous
 62
     7
370
     0
100
AcDbLine
 10
38.4474832472
 20
139.090369818
 30
0.0
 11
37.9474832472
 21
139.090369818
 31
0.0
  0
ARC
  5
127
330
1F
100
AcDbEntity
  8
0
  6
Continuous
 62
     7
370
     0
100
AcDbCircle
 10
38.4474832472
 20
139.090369818
 30
0.0
 40
0.5
100
AcDbArc
 50
90.0
 51
180.0
  0
LINE
  5
128
330
1F
100
AcDbEntity
  8
0
  6
Continuous
 62
     7
370
     0
100
AcDbLine
 10
38.4474832472
 20
139.590369818
 30
0.0
 11
38.4474832472
 21
139.090369818
 31
0.0
  0
LINE
  5
129
330
1F
100
AcDbEntity
  8
0
  6
Continuous
 62
     7
370
     0
100
AcDbLine
 10
57.4438515175
 20
116.790369818
 30
0.0
 11
41.3813956267
 21
116.790369818
 31
0.0
  0
LINE
  5
12A
330
1F
100
AcDbEntity
  8
0
  6
Continuous
 62
     7
370
     0
100
AcDbLine
 10
92.5135708677
 20
116.790369818
 30
0.0
 11
76.4511149768
 21
116.790369818
 31
0.0
  0
LINE
  5
12B
330
1F
100
AcDbEntity
  8
0
  6
Continuous
 62
     7
370
     0
100
AcDbLine
 10
38.4474832472
 20
139.590369818
 30
0.0
 11
95.4474832472
 21
139.590369818
 31
0.0
  0
LINE
  5
12C
330
1F
100
AcDbEntity
  8
0
  6
Continuous
 62
     7
370
     0
100
AcDbLine
 10
95.9474832472
 20
139.090369818
 30
0.0
 11
95.9474832472
 21
119.6474495164
 31
0.0
  0
LINE
  5
12D
330
1F
100
AcDbEntity
  8
0
  6
Continuous
 62
     7
370
     0
100
AcDbLine
 10
67.1158225644
 20
116.790369818
 30
0.0
 11
66.7791439299
 21
116.790369818
 31
0.0
  0
LINE
  5
12E
330
1F
100
AcDbEntity
  8
0
  6
Continuous
 62
     7
370
     0
100
AcDbLine
 10
37.9474832472
 20
119.6474495164
 30
0.0
 11
37.9474832472
 21
139.090369818
 31
0.0
  0
LINE
  5
12F
330
1F
100
AcDbEntity
  8
0
  6
Continuous
 62
     7
370
     0
100
AcDbLine
 10
91.9474809528
 20
116.2903701127
 30
0.0
 11
79.9474827111
 21
116.2903701127
 31
0.0
  0
ARC
  5
130
330
1F
100
AcDbEntity
  8
0
  6
Continuous
 62
     7
370
     0
100
AcDbCircle
 10
79.4474832472
 20
116.290369818
 30
0.0
 40
0.5
100
AcDbArc
 50
0.0
 51
90.0
  0
ARC
  5
131
330
1F
100
AcDbEntity
  8
0
  6
Continuous
 62
     7
370
     0
100
AcDbCircle
 10
92.4474832472
 20
116.290369818
 30
0.0
 40
0.5
100
AcDbArc
 50
90.0
 51
180.0
  0
LINE
  5
132
330
1F
100
AcDbEntity
  8
0
  6
Continuous
 62
     7
370
     0
100
AcDbLine
 10
53.9474821747
 20
116.2903701127
 30
0.0
 11
41.947483933
 21
116.2903701127
 31
0.0
  0
ARC
  5
133
330
1F
100
AcDbEntity
  8
0
  6
Continuous
 62
     7
370
     0
100
AcDbCircle
 10
41.4474832472
 20
116.290369818
 30
0.0
 40
0.5
100
AcDbArc
 50
0.0
 51
90.0
  0
ARC
  5
134
330
1F
100
AcDbEntity
  8
0
  6
Continuous
 62
     7
370
     0
100
AcDbCircle
 10
54.4474832472
 20
116.290369818
 30
0.0
 40
0.5
100
AcDbArc
 50
90.0
 51
180.0
  0
LINE
  5
135
330
1F
100
AcDbEntity
  8
0
  6
Continuous
 62
     7
370
     0
100
AcDbLine
 10
79.9474827111
 20
108.5903696887
 30
0.0
 11
91.9474809528
 21
108.5903696887
 31
0.0
  0
LINE
  5
136
330
1F
100
AcDbEntity
  8
0
  6
Continuous
 62
     7
370
     0
100
AcDbLine
 10
79.9474827111
 20
108.5903696887
 30
0.0
 11
79.9474827111
 21
116.2903701127
 31
0.0
  0
LINE
  5
137
330
1F
100
AcDbEntity
  8
0
  6
Continuous
 62
     7
370
     0
100
AcDbLine
 10
91.9474809528
 20
108.5903696887
 30
0.0
 11
91.9474809528
 21
116.2903701127
 31
0.0
  0
LINE
  5
138
330
1F
100
AcDbEntity
  8
0
  6
Continuous
 62
     7
370
     0
100
AcDbLine
 10
91.4474799395
 20
108.0903696068
 30
0.0
 11
80.4474837244
 21
108.0903696068
 31
0.0
  0
ARC
  5
139
330
1F
100
AcDbEntity
  8
0
  6
Continuous
 62
     7
370
     0
100
AcDbCircle
 10
80.4474832472
 20
108.590369818
 30
0.0
 40
0.5
100
AcDbArc
 50
180.0
 51
270.0
  0
ARC
  5
13A
330
1F
100
AcDbEntity
  8
0
  6
Continuous
 62
     7
370
     0
100
AcDbCircle
 10
91.4474832472
 20
108.590369818
 30
0.0
 40
0.5
100
AcDbArc
 50
270.0
 51
0.0
  0
LINE
  5
13B
330
1F
100
AcDbEntity
  8
0
  6
Continuous
 62
     7
370
     0
100
AcDbLine
 10
41.947483933
 20
108.5903696887
 30
0.0
 11
53.9474821747
 21
108.5903696887
 31
0.0
  0
LINE
  5
13C
330
1F
100
AcDbEntity
  8
0
  6
Continuous
 62
     7
370
     0
100
AcDbLine
 10
41.947483933
 20
108.5903696887
 30
0.0
 11
41.947483933
 21
116.2903701127
 31
0.0
  0
LINE
  5
13D
330
1F
100
AcDbEntity
  8
0
  6
Continuous
 62
     7
370
     0
100
AcDbLine
 10
53.9474821747
 20
108.5903696887
 30
0.0
 11
53.9474821747
 21
116.2903701127
 31
0.0
  0
LINE
  5
13E
330
1F
100
AcDbEntity
  8
0
  6
Continuous
 62
     7
370
     0
100
AcDbLine
 10
53.4474848867
 20
108.0903696068
 30
0.0
 11
42.4474830836
 21
108.0903696068
 31
0.0
  0
ARC
  5
13F
330
1F
100
AcDbEntity
  8
0
  6
Continuous
 62
     7
370
     0
100
AcDbCircle
 10
42.4474832472
 20
108.590369818
 30
0.0
 40
0.5000000000000071
100
AcDbArc
 50
180.0
 51
270.0
  0
ARC
  5
140
330
1F
100
AcDbEntity
  8
0
  6
Continuous
 62
     7
370
     0
100
AcDbCircle
 10
53.4474832472
 20
108.590369818
 30
0.0
 40
0.5
100
AcDbArc
 50
270.0
 51
0.0
  0
LINE
  5
141
330
1F
100
AcDbEntity
  8
0
  6
Continuous
 62
     7
370
     0
100
AcDbLine
 10
67.1484357775
 20
133.0403519034
 30
0.0
 11
87.7465306879
 21
133.0403519034
 31
0.0
  0
DIMENSION
  5
142
330
1F
100
AcDbEntity
  8
0
  6
Continuous
 62
     7
370
     0
100
AcDbDimension
  2
*D1
 10
81.9474832472
 20
74.3974115311
 30
0.0
 11
85.9474832472
 21
74.3974115311
 31
0.0
 70
   160
 71
     1
 42
8.0
  3
SLDDIMSTYLE0
100
AcDbAlignedDimension
 13
89.9474832472
 23
98.090369818
 33
0.0
 14
81.9474832472
 24
98.090369818
 34
0.0
100
AcDbRotatedDimension
1001
ACAD
1000
DSTYLE
1002
{
1070
    77
1070
     3
1070
   143
1040
0.0393700787
1070
    41
1040
3.0
1070
    44
1040
1.0
1070
    42
1040
1.0
1070
   147
1040
1.524
1070
    73
1070
     0
1070
    74
1070
     0
1070
   140
1040
3.5
1070
   284
1070
    12
1070
    78
1070
    12
1002
}
  0
DIMENSION
  5
161
330
1F
100
AcDbEntity
  8
0
  6
Continuous
 62
     7
370
     0
100
AcDbDimension
  2
*D3
 10
102.9573546895
 20
139.590369818
 30
0.0
 11
102.9573546895
 21
143.8403700982
 31
0.0
 70
   160
 71
     1
 42
8.5000005603
  3
SLDDIMSTYLE0
100
AcDbAlignedDimension
 13
93.9474832472
 23
148.0903703783
 33
0.0
 14
95.4474832472
 24
139.590369818
 34
0.0
 50
90.0
100
AcDbRotatedDimension
1001
ACAD
1000
DSTYLE
1002
{
1070
    77
1070
     3
1070
   143
1040
0.0393700787
1070
    41
1040
3.0
1070
    44
1040
1.0
1070
    42
1040
1.0
1070
   147
1040
1.524
1070
    73
1070
     0
1070
    74
1070
     0
1070
   140
1040
3.5
1070
   284
1070
    12
1070
    78
1070
    12
1002
}
  0
DIMENSION
  5
178
330
1F
100
AcDbEntity
  8
0
  6
Continuous
 62
     7
370
     0
100
AcDbDimension
  2
*D4
 10
81.9474832472
 20
74.3974115311
 30
0.0
 11
66.9474832472
 21
74.3974115311
 31
0.0
 70
   160
 71
     1
 42
30.0
  3
SLDDIMSTYLE0
100
AcDbAlignedDimension
 13
51.9474832472
 23
98.090369818
 33
0.0
 14
81.9474832472
 24
98.090369818
 34
0.0
100
AcDbRotatedDimension
1001
ACAD
1000
DSTYLE
1002
{
1070
    77
1070
     3
1070
   143
1040
0.0393700787
1070
    41
1040
3.0
1070
    44
1040
1.0
1070
    42
1040
1.0
1070
   147
1040
1.524
1070
    73
1070
     0
1070
    74
1070
     0
1070
   140
1040
3.5
1070
   284
1070
    12
1070
    78
1070
    12
1002
}
  0
DIMENSION
  5
18B
330
1F
100
AcDbEntity
  8
0
  6
Continuous
 62
     7
370
     0
100
AcDbDimension
  2
*D5
 10
111.2584118081
 20
108.090369818
 30
0.0
 11
111.2584118081
 21
128.0903700982
 31
0.0
 70
   160
 71
     1
 42
40.0000005603
  3
SLDDIMSTYLE0
100
AcDbAlignedDimension
 13
93.9474832472
 23
148.0903703783
 33
0.0
 14
91.4474832472
 24
108.090369818
 34
0.0
 50
90.0
100
AcDbRotatedDimension
1001
ACAD
1000
DSTYLE
1002
{
1070
    77
1070
     3
1070
   143
1040
0.0393700787
1070
    41
1040
3.0
1070
    44
1040
1.0
1070
    42
1040
1.0
1070
   147
1040
1.524
1070
    73
1070
     0
1070
    74
1070
     0
1070
   140
1040
3.5
1070
   284
1070
    12
1070
    78
1070
    12
1002
}
  0
DIMENSION
  5
19F
330
1F
100
AcDbEntity
  8
0
  6
Continuous
 62
     7
370
     0
100
AcDbDimension
  2
*D6
 10
111.2584118081
 20
98.090369818
 30
0.0
 11
111.2584118081
 21
103.090369818
 31
0.0
 70
   160
 71
     1
 42
10.0
  3
SLDDIMSTYLE0
100
AcDbAlignedDimension
 13
91.4474832472
 23
108.090369818
 33
0.0
 14
89.9474832472
 24
98.090369818
 34
0.0
 50
90.0
100
AcDbRotatedDimension
1001
ACAD
1000
DSTYLE
1002
{
1070
    77
1070
     3
1070
   143
1040
0.0393700787
1070
    41
1040
3.0
1070
    44
1040
1.0
1070
    42
1040
1.0
1070
   147
1040
1.524
1070
    73
1070
     0
1070
    74
1070
     0
1070
   140
1040
3.5
1070
   284
1070
    12
1070
    78
1070
    12
1002
}
  0
DIMENSION
  5
1B5
330
1F
100
AcDbEntity
  8
0
  6
Continuous
 62
     7
370
     0
100
AcDbDimension
  2
*D7
 10
102.9573546895
 20
108.090369818
 30
0.0
 11
102.9573546895
 21
123.840369818
 31
0.0
 70
   160
 71
     1
 42
31.5
  3
SLDDIMSTYLE0
100
AcDbAlignedDimension
 13
95.4474832472
 23
139.590369818
 33
0.0
 14
91.4474832472
 24
108.090369818
 34
0.0
 50
90.0
100
AcDbRotatedDimension
1001
ACAD
1000
DSTYLE
1002
{
1070
    77
1070
     3
1070
   143
1040
0.0393700787
1070
    41
1040
3.0
1070
    44
1040
1.0
1070
    42
1040
1.0
1070
   147
1040
1.524
1070
    73
1070
     0
1070
    74
1070
     0
1070
   140
1040
3.5
1070
   284
1070
    12
1070
    78
1070
    12
1002
}
  0
LINE
  5
1C9
330
1F
100
AcDbEntity
  8
0
  6
Continuous
 62
     7
370
     0
100
AcDbLine
 10
142.1082515337
 20
108.127014598
 30
0.0
 11
185.9082515337
 21
108.127014598
 31
0.0
  0
ARC
  5
1CA
330
1F
100
AcDbEntity
  8
0
  6
Continuous
 62
     7
370
     0
100
AcDbCircle
 10
185.9082515337
 20
109.627014598
 30
0.0
 40
1.5
100
AcDbArc
 50
270.0
 51
0.0
  0
ARC
  5
1CB
330
1F
100
AcDbEntity
  8
0
  6
Continuous
 62
     7
370
     0
100
AcDbCircle
 10
142.1082515337
 20
109.627014598
 30
0.0
 40
1.5
100
AcDbArc
 50
180.0
 51
270.0
  0
LWPOLYLINE
  5
1CC
330
1F
100
AcDbEntity
  8
0
  6
Continuous
 62
     7
370
     0
100
AcDbPolyline
 90
       12
 70
   128
 43
0.0
 10
187.408250899
 20
120.3025245279
 10
187.3962424257
 20
120.9228449672
 10
187.3262665727
 20
121.8884737402
 10
187.2176967123
 20
122.6365921259
 10
187.0971463182
 20
123.1643446893
 10
186.9761153617
 20
123.5324685633
 10
186.8508878657
 20
123.8056720406
 10
186.7089375415
 20
124.0262483418
 10
186.5348919787
 20
124.2108849049
 10
186.3233774462
 20
124.3515034378
 10
186.0808629104
 20
124.433519429
 10
185.9082515844
 20
124.4499107063
  0
LWPOLYLINE
  5
1CD
330
1F
100
AcDbEntity
  8
0
  6
Continuous
 62
     7
370
     0
100
AcDbPolyline
 90
       12
 70
   128
 43
0.0
 10
142.1082514831
 20
124.4499107063
 10
141.8838250943
 20
124.4220567107
 10
141.6520710596
 20
124.329902342
 10
141.461505697
 20
124.1932661444
 10
141.3034062394
 20
124.0208224565
 10
141.1700687864
 20
123.8138490528
 10
141.0515225985
 20
123.5605721533
 10
140.9378174254
 20
123.2289617121
 10
140.8250994542
 20
122.7705628783
 10
140.719388754
 20
122.1319512636
 10
140.6384698608
 20
121.2810819209
 10
140.6082521685
 20
120.3025245279
  0
ARC
  5
1CE
330
1F
100
AcDbEntity
  8
0
  6
Continuous
 62
     7
370
     0
100
AcDbCircle
 10
143.0082515337
 20
124.9499115382
 30
0.0
 40
0.5
100
AcDbArc
 50
270.0
 51
0.0
  0
ARC
  5
1CF
330
1F
100
AcDbEntity
  8
0
  6
Continuous
 62
     7
370
     0
100
AcDbCircle
 10
185.0082515337
 20
124.9499115382
 30
0.0
 40
0.5
100
AcDbArc
 50
180.0
 51
270.0
  0
LINE
  5
1D0
330
1F
100
AcDbEntity
  8
0
  6
Continuous
 62
     7
370
     0
100
AcDbLine
 10
185.9082515337
 20
124.449911503
 30
0.0
 11
185.0082515337
 21
124.4499115382
 31
0.0
  0
LINE
  5
1D1
330
1F
100
AcDbEntity
  8
0
  6
Continuous
 62
     7
370
     0
100
AcDbLine
 10
143.0082515337
 20
124.4499115382
 30
0.0
 11
142.1082515337
 21
124.4499114354
 31
0.0
  0
ARC
  5
1D2
330
1F
100
AcDbEntity
  8
0
  6
Continuous
 62
     7
370
     0
100
AcDbCircle
 10
185.0082515337
 20
125.101717448
 30
0.0
 40
0.5
100
AcDbArc
 50
180.0
 51
270.0
  0
ARC
  5
1D3
330
1F
100
AcDbEntity
  8
0
  6
Continuous
 62
     7
370
     0
100
AcDbCircle
 10
143.0082515337
 20
125.101717448
 30
0.0
 40
0.5
100
AcDbArc
 50
270.0
 51
0.0
  0
ARC
  5
1D4
330
1F
100
AcDbEntity
  8
0
  6
Continuous
 62
     7
370
     0
100
AcDbCircle
 10
185.9082515337
 20
123.101717448
 30
0.0
 40
1.5
100
AcDbArc
 50
0.0
 51
90.0
  0
LINE
  5
1D5
330
1F
100
AcDbEntity
  8
0
  6
Continuous
 62
     7
370
     0
100
AcDbLine
 10
185.9082515337
 20
124.601717448
 30
0.0
 11
185.0082515337
 21
124.601717448
 31
0.0
  0
LINE
  5
1D6
330
1F
100
AcDbEntity
  8
0
  6
Continuous
 62
     7
370
     0
100
AcDbLine
 10
143.0082515337
 20
124.601717448
 30
0.0
 11
142.1082515337
 21
124.601717448
 31
0.0
  0
ARC
  5
1D7
330
1F
100
AcDbEntity
  8
0
  6
Continuous
 62
     7
370
     0
100
AcDbCircle
 10
142.1082515337
 20
123.101717448
 30
0.0
 40
1.500000000000028
100
AcDbArc
 50
90.0
 51
180.0
  0
ARC
  5
1D8
330
1F
100
AcDbEntity
  8
0
  6
Continuous
 62
     7
370
     0
100
AcDbCircle
 10
173.0082515337
 20
136.290369818
 30
0.0
 40
6.500000000000015
100
AcDbArc
 50
30.5102374061
 51
149.4897625939
  0
ARC
  5
1D9
330
1F
100
AcDbEntity
  8
0
  6
Continuous
 62
     7
370
     0
100
AcDbCircle
 10
149.5082315337
 20
140.090369818
 30
0.0
 40
2.100000000000014
100
AcDbArc
 50
0.0
 51
193.774146998
  0
ARC
  5
1DA
330
1F
100
AcDbEntity
  8
0
  6
Continuous
 62
     7
370
     0
100
AcDbCircle
 10
149.5082315337
 20
140.090369818
 30
0.0
 40
2.099999999999994
100
AcDbArc
 50
346.225853002
 51
0.0
  0
ARC
  5
1DB
330
1F
100
AcDbEntity
  8
0
  6
Continuous
 62
     7
370
     0
100
AcDbCircle
 10
163.0082315337
 20
140.090369818
 30
0.0
 40
2.100000000000023
100
AcDbArc
 50
0.0
 51
193.774146998
  0
ARC
  5
1DC
330
1F
100
AcDbEntity
  8
0
  6
Continuous
 62
     7
370
     0
100
AcDbCircle
 10
163.0082315337
 20
140.090369818
 30
0.0
 40
2.100000000000023
100
AcDbArc
 50
346.225853002
 51
0.0
  0
LINE
  5
1DD
330
1F
100
AcDbEntity
  8
0
  6
Continuous
 62
     7
370
     0
100
AcDbLine
 10
147.5082315337
 20
148.0903703783
 30
0.0
 11
151.8011516237
 21
148.0903703783
 31
0.0
  0
ARC
  5
1DE
330
1F
100
AcDbEntity
  8
0
  6
Continuous
 62
     7
370
     0
100
AcDbCircle
 10
151.8011516237
 20
147.5903703783
 30
0.0
 40
0.4999999999999836
100
AcDbArc
 50
45.0000228913
 51
90.0
  0
LINE
  5
1DF
330
1F
100
AcDbEntity
  8
0
  6
Continuous
 62
     7
370
     0
100
AcDbLine
 10
152.1547048731
 20
147.9439239102
 30
0.0
 11
154.6546882144
 21
145.4439425665
 31
0.0
  0
ARC
  5
1E0
330
1F
100
AcDbEntity
  8
0
  6
Continuous
 62
     7
370
     0
100
AcDbCircle
 10
155.0082414637
 20
145.7974960983
 30
0.0
 40
0.5000000000000064
100
AcDbArc
 50
225.0000228913
 51
314.9999670213
  0
LINE
  5
1E1
330
1F
100
AcDbEntity
  8
0
  6
Continuous
 62
     7
370
     0
100
AcDbLine
 10
155.3617946508
 20
145.4439425042
 30
0.0
 11
157.8617784366
 21
147.9439234121
 31
0.0
  0
ARC
  5
1E2
330
1F
100
AcDbEntity
  8
0
  6
Continuous
 62
     7
370
     0
100
AcDbCircle
 10
158.2153316237
 20
147.590369818
 30
0.0
 40
0.5
100
AcDbArc
 50
90.0
 51
134.9999670213
  0
LINE
  5
1E3
330
1F
100
AcDbEntity
  8
0
  6
Continuous
 62
     7
370
     0
100
AcDbLine
 10
158.2153316237
 20
148.090369818
 30
0.0
 11
181.0082515337
 21
148.090369818
 31
0.0
  0
LINE
  5
1E4
330
1F
100
AcDbEntity
  8
0
  6
Continuous
 62
     7
370
     0
100
AcDbLine
 10
181.2834023991
 20
145.8403730005
 30
0.0
 11
181.2834023991
 21
146.4480796069
 31
0.0
  0
LINE
  5
1E5
330
1F
100
AcDbEntity
  8
0
  6
Continuous
 62
     7
370
     0
100
AcDbLine
 10
181.2834023991
 20
146.4480796069
 30
0.0
 11
180.2834022351
 21
146.4480796069
 31
0.0
  0
LINE
  5
1E6
330
1F
100
AcDbEntity
  8
0
  6
Continuous
 62
     7
370
     0
100
AcDbLine
 10
180.2834022351
 20
146.4480796069
 30
0.0
 11
178.0208574565
 21
144.1855108959
 31
0.0
  0
ARC
  5
1E7
330
1F
100
AcDbEntity
  8
0
  6
Continuous
 62
     7
370
     0
100
AcDbCircle
 10
179.258301268
 20
142.9480809733
 30
0.0
 40
1.749999999999958
100
AcDbArc
 50
135.000321543
 51
224.999688453
  0
LINE
  5
1E8
330
1F
100
AcDbEntity
  8
0
  6
Continuous
 62
     7
370
     0
100
AcDbLine
 10
178.0208576723
 20
141.7106508348
 30
0.0
 11
180.1411147722
 21
139.5903715104
 31
0.0
  0
LINE
  5
1E9
330
1F
100
AcDbEntity
  8
0
  6
Continuous
 62
     7
370
     0
100
AcDbLine
 10
181.2834023991
 20
139.5903715104
 30
0.0
 11
181.2834023991
 21
140.3403804809
 31
0.0
  0
LINE
  5
1EA
330
1F
100
AcDbEntity
  8
0
  6
Continuous
 62
     7
370
     0
100
AcDbLine
 10
145.5082308062
 20
139.5903715104
 30
0.0
 11
145.5082315337
 21
146.0903703783
 31
0.0
  0
ARC
  5
1EB
330
1F
100
AcDbEntity
  8
0
  6
Continuous
 62
     7
370
     0
100
AcDbCircle
 10
147.5082315337
 20
146.0903703783
 30
0.0
 40
2.0
100
AcDbArc
 50
90.0
 51
180.0
  0
ARC
  5
1EC
330
1F
100
AcDbEntity
  8
0
  6
Continuous
 62
     7
370
     0
100
AcDbCircle
 10
181.0082515337
 20
146.590369818
 30
0.0
 40
1.5
100
AcDbArc
 50
0.0
 51
90.0
  0
LINE
  5
1ED
330
1F
100
AcDbEntity
  8
0
  6
Continuous
 62
     7
370
     0
100
AcDbLine
 10
182.5082515337
 20
146.590369818
 30
0.0
 11
182.5082517722
 21
145.8403730005
 31
0.0
  0
LINE
  5
1EE
330
1F
100
AcDbEntity
  8
0
  6
Continuous
 62
     7
370
     0
100
AcDbLine
 10
181.2834023991
 20
140.3403804809
 30
0.0
 11
182.5082517722
 21
140.3403804809
 31
0.0
  0
LINE
  5
1EF
330
1F
100
AcDbEntity
  8
0
  6
Continuous
 62
     7
370
     0
100
AcDbLine
 10
182.5082517722
 20
145.8403730005
 30
0.0
 11
181.2834023991
 21
145.8403730005
 31
0.0
  0
LINE
  5
1F0
330
1F
100
AcDbEntity
  8
0
  6
Continuous
 62
     7
370
     0
100
AcDbLine
 10
182.5082517722
 20
140.3403804809
 30
0.0
 11
182.5082517722
 21
139.5903715104
 31
0.0
  0
LINE
  5
1F1
330
1F
100
AcDbEntity
  8
0
  6
Continuous
 62
     7
370
     0
100
AcDbLine
 10
172.5082519957
 20
98.0903698303
 30
0.0
 11
172.5082519957
 21
108.0903696068
 31
0.0
  0
LINE
  5
1F2
330
1F
100
AcDbEntity
  8
0
  6
Continuous
 62
     7
370
     0
100
AcDbLine
 10
172.5082519957
 20
98.0903698303
 30
0.0
 11
155.5082510718
 21
98.0903698303
 31
0.0
  0
LINE
  5
1F3
330
1F
100
AcDbEntity
  8
0
  6
Continuous
 62
     7
370
     0
100
AcDbLine
 10
155.5082510718
 20
98.0903698303
 30
0.0
 11
155.5082510718
 21
108.0903696068
 31
0.0
  0
CIRCLE
  5
1F4
330
1F
100
AcDbEntity
  8
0
  6
Continuous
 62
     7
370
     0
100
AcDbCircle
 10
159.0082515337
 20
102.090369818
 30
0.0
 40
1.649999999999977
  0
CIRCLE
  5
1F5
330
1F
100
AcDbEntity
  8
0
  6
Continuous
 62
     7
370
     0
100
AcDbCircle
 10
169.0082515337
 20
102.090369818
 30
0.0
 40
1.650000000000006
  0
ARC
  5
1F6
330
1F
100
AcDbEntity
  8
0
  6
Continuous
 62
     7
370
     0
100
AcDbCircle
 10
157.3533558733
 20
140.1882442237
 30
0.0
 40
4.902715547021066
100
AcDbArc
 50
352.995502328
 51
20.4637458622
  0
ARC
  5
1F7
330
1F
100
AcDbEntity
  8
0
  6
Continuous
 62
     7
370
     0
100
AcDbCircle
 10
149.5082315337
 20
140.090369818
 30
0.0
 40
1.0
100
AcDbArc
 50
330.0
 51
0.0
  0
ARC
  5
1F8
330
1F
100
AcDbEntity
  8
0
  6
Continuous
 62
     7
370
     0
100
AcDbCircle
 10
149.5082315337
 20
140.090369818
 30
0.0
 40
1.0
100
AcDbArc
 50
0.0
 51
210.0
  0
CIRCLE
  5
1F9
330
1F
100
AcDbEntity
  8
0
  6
Continuous
 62
     7
370
     0
100
AcDbCircle
 10
171.0030892495
 20
140.9785687445
 30
0.0
 40
0.7500000000000214
  0
ARC
  5
1FA
330
1F
100
AcDbEntity
  8
0
  6
Continuous
 62
     7
370
     0
100
AcDbCircle
 10
169.4702311796
 20
139.6939135247
 30
0.0
 40
0.5000000000000384
100
AcDbArc
 50
39.9652330676
 51
138.3950903064
  0
ARC
  5
1FB
330
1F
100
AcDbEntity
  8
0
  6
Continuous
 62
     7
370
     0
100
AcDbCircle
 10
176.8987396089
 20
139.2846644472
 30
0.0
 40
0.5000000000000281
100
AcDbArc
 50
37.6915788209
 51
133.7281372592
  0
ARC
  5
1FC
330
1F
100
AcDbEntity
  8
0
  6
Continuous
 62
     7
370
     0
100
AcDbCircle
 10
175.5162648727
 20
140.7299199968
 30
0.0
 40
1.499999999999968
100
AcDbArc
 50
184.1683408522
 51
229.4377681874
  0
ARC
  5
1FD
330
1F
100
AcDbEntity
  8
0
  6
Continuous
 62
     7
370
     0
100
AcDbCircle
 10
175.5162648727
 20
140.7299199968
 30
0.0
 40
1.499999999999986
100
AcDbArc
 50
310.5622318126
 51
313.7281372592
  0
LINE
  5
1FE
330
1F
100
AcDbEntity
  8
0
  6
Continuous
 62
     7
370
     0
100
AcDbLine
 10
174.4873599642
 20
142.6198446363
 30
0.0
 11
174.0202326829
 21
140.6208893265
 31
0.0
  0
LINE
  5
1FF
330
1F
100
AcDbEntity
  8
0
  6
Continuous
 62
     7
370
     0
100
AcDbLine
 10
172.4781011471
 20
140.7058479578
 30
0.0
 11
172.2333851763
 21
142.7440197378
 31
0.0
  0
ARC
  5
200
330
1F
100
AcDbEntity
  8
0
  6
Continuous
 62
     7
370
     0
100
AcDbCircle
 10
171.0030998675
 20
140.9785588398
 30
0.0
 40
1.499999999999977
100
AcDbArc
 50
219.9652330676
 51
247.7377229517
  0
ARC
  5
201
330
1F
100
AcDbEntity
  8
0
  6
Continuous
 62
     7
370
     0
100
AcDbCircle
 10
171.0030998675
 20
140.9785588398
 30
0.0
 40
1.499999999999979
100
AcDbArc
 50
292.2622770483
 51
349.5249549936
  0
CIRCLE
  5
202
330
1F
100
AcDbEntity
  8
0
  6
Continuous
 62
     7
370
     0
100
AcDbCircle
 10
175.5162784612
 20
140.7299295272
 30
0.0
 40
0.7500000000000214
  0
ARC
  5
203
330
1F
100
AcDbEntity
  8
0
  6
Continuous
 62
     7
370
     0
100
AcDbCircle
 10
173.0220018592
 20
136.5399596506
 30
0.0
 40
5.250000000000028
100
AcDbArc
 50
138.3950903064
 51
144.4769442277
  0
LINE
  5
204
330
1F
100
AcDbEntity
  8
0
  6
Continuous
 62
     7
370
     0
100
AcDbLine
 10
185.9082515337
 20
116.0794816295
 30
0.0
 11
185.9082515844
 21
116.5934867397
 31
0.0
  0
LINE
  5
205
330
1F
100
AcDbEntity
  8
0
  6
Continuous
 62
     7
370
     0
100
AcDbLine
 10
142.1082515337
 20
116.0794816295
 30
0.0
 11
185.9082515337
 21
116.0794816295
 31
0.0
  0
LINE
  5
206
330
1F
100
AcDbEntity
  8
0
  6
Continuous
 62
     7
370
     0
100
AcDbLine
 10
142.1082514831
 20
116.5934867397
 30
0.0
 11
142.1082515337
 21
116.0794816295
 31
0.0
  0
LINE
  5
207
330
1F
100
AcDbEntity
  8
0
  6
Continuous
 62
     7
370
     0
100
AcDbLine
 10
142.1082514831
 20
116.5934867397
 30
0.0
 11
185.9082515844
 21
116.5934867397
 31
0.0
  0
LINE
  5
208
330
1F
100
AcDbEntity
  8
0
  6
Continuous
 62
     7
370
     0
100
AcDbLine
 10
187.408250899
 20
116.9116023168
 30
0.0
 11
187.4082515337
 21
116.7801038557
 31
0.0
  0
LWPOLYLINE
  5
209
330
1F
100
AcDbEntity
  8
0
  6
Continuous
 62
     7
370
     0
100
AcDbPolyline
 90
        7
 70
   128
 43
0.0
 10
187.408250899
 20
116.7801042259
 10
187.4080813982
 20
116.7694079861
 10
187.3709309407
 20
116.6228792802
 10
187.1783501961
 20
116.4043658584
 10
186.8433441528
 20
116.2300744265
 10
186.4037338206
 20
116.1180856809
 10
185.9082515844
 20
116.0794814289
  0
ELLIPSE
  5
20A
330
1F
100
AcDbEntity
  8
0
  6
Continuous
 62
     7
370
     0
100
AcDbEllipse
 10
185.9082515337
 20
116.9116019821
 30
0.0
 11
1.5
 21
0.0
 31
0.0
210
0.0
220
0.0
230
1.0
 40
0.2120768584
 41
4.712388980384692
 42
6.283185307179586
  0
LINE
  5
20B
330
1F
100
AcDbEntity
  8
0
  6
Continuous
 62
     7
370
     0
100
AcDbLine
 10
187.408250899
 20
117.7195432767
 30
0.0
 11
187.408250899
 21
116.9116023168
 31
0.0
  0
LINE
  5
20C
330
1F
100
AcDbEntity
  8
0
  6
Continuous
 62
     7
370
     0
100
AcDbLine
 10
185.9082515844
 20
116.5934867397
 30
0.0
 11
185.9082515844
 21
118.6267958194
 31
0.0
  0
ELLIPSE
  5
20D
330
1F
100
AcDbEntity
  8
0
  6
Continuous
 62
     7
370
     0
100
AcDbEllipse
 10
185.9082515337
 20
117.7195433092
 30
0.0
 11
1.5
 21
0.0
 31
0.0
210
0.0
220
0.0
230
1.0
 40
0.6048350659
 41
0.0
 42
1.570796326794897
  0
LINE
  5
20E
330
1F
100
AcDbEntity
  8
0
  6
Continuous
 62
     7
370
     0
100
AcDbLine
 10
142.1082514831
 20
118.6267958194
 30
0.0
 11
142.1082514831
 21
116.5934867397
 31
0.0
  0
LINE
  5
20F
330
1F
100
AcDbEntity
  8
0
  6
Continuous
 62
     7
370
     0
100
AcDbLine
 10
142.1082514831
 20
118.6267958194
 30
0.0
 11
185.9082515844
 21
118.6267958194
 31
0.0
  0
LWPOLYLINE
  5
210
330
1F
100
AcDbEntity
  8
0
  6
Continuous
 62
     7
370
     0
100
AcDbPolyline
 90
        7
 70
   128
 43
0.0
 10
142.1082514831
 20
116.0794814289
 10
141.6127692469
 20
116.1180856809
 10
141.1731589147
 20
116.2300744265
 10
140.8381528714
 20
116.4043658584
 10
140.6455721267
 20
116.6228792802
 10
140.6084216692
 20
116.7694079861
 10
140.6082521685
 20
116.7801042259
  0
LINE
  5
211
330
1F
100
AcDbEntity
  8
0
  6
Continuous
 62
     7
370
     0
100
AcDbLine
 10
140.6082515337
 20
116.7801038557
 30
0.0
 11
140.6082521685
 21
116.9116023168
 31
0.0
  0
ELLIPSE
  5
212
330
1F
100
AcDbEntity
  8
0
  6
Continuous
 62
     7
370
     0
100
AcDbEllipse
 10
142.1082515337
 20
116.9116019821
 30
0.0
 11
1.5
 21
0.0
 31
0.0
210
0.0
220
0.0
230
1.0
 40
0.2120768584
 41
3.141592653589793
 42
4.712388980384674
  0
LINE
  5
213
330
1F
100
AcDbEntity
  8
0
  6
Continuous
 62
     7
370
     0
100
AcDbLine
 10
140.6082521685
 20
116.9116023168
 30
0.0
 11
140.6082521685
 21
117.7195432767
 31
0.0
  0
ELLIPSE
  5
214
330
1F
100
AcDbEntity
  8
0
  6
Continuous
 62
     7
370
     0
100
AcDbEllipse
 10
142.1082515337
 20
117.7195433092
 30
0.0
 11
1.5
 21
0.0
 31
0.0
210
0.0
220
0.0
230
1.0
 40
0.6048350659
 41
1.570796326794915
 42
3.141592653589793
  0
LINE
  5
215
330
1F
100
AcDbEntity
  8
0
  6
Continuous
 62
     7
370
     0
100
AcDbLine
 10
142.1082515337
 20
109.8101921344
 30
0.0
 11
185.9082515337
 21
109.8101921344
 31
0.0
  0
ARC
  5
216
330
1F
100
AcDbEntity
  8
0
  6
Continuous
 62
     7
370
     0
100
AcDbCircle
 10
186.2822383055
 20
102.5382567201
 30
0.0
 40
7.281546016678665
100
AcDbArc
 50
81.104127221
 51
92.944057865
  0
LINE
  5
217
330
1F
100
AcDbEntity
  8
0
  6
Continuous
 62
     7
370
     0
100
AcDbLine
 10
187.4082515337
 20
109.7322130208
 30
0.0
 11
187.4082515337
 21
109.627014598
 31
0.0
  0
LINE
  5
218
330
1F
100
AcDbEntity
  8
0
  6
Continuous
 62
     7
370
     0
100
AcDbLine
 10
140.6082515337
 20
109.627014598
 30
0.0
 11
140.6082515337
 21
109.7322130208
 31
0.0
  0
ARC
  5
219
330
1F
100
AcDbEntity
  8
0
  6
Continuous
 62
     7
370
     0
100
AcDbCircle
 10
141.734264762
 20
102.5382567201
 30
0.0
 40
7.281546016678661
100
AcDbArc
 50
87.055942135
 51
98.895872779
  0
LINE
  5
21A
330
1F
100
AcDbEntity
  8
0
  6
Continuous
 62
     7
370
     0
100
AcDbLine
 10
187.4082515337
 20
115.1259448339
 30
0.0
 11
187.4082515337
 21
109.7322130208
 31
0.0
  0
LINE
  5
21B
330
1F
100
AcDbEntity
  8
0
  6
Continuous
 62
     7
370
     0
100
AcDbLine
 10
185.9082515337
 20
109.8101921344
 30
0.0
 11
185.9082515337
 21
115.2039239475
 31
0.0
  0
ARC
  5
21C
330
1F
100
AcDbEntity
  8
0
  6
Continuous
 62
     7
370
     0
100
AcDbCircle
 10
186.2822453194
 20
107.9320800875
 30
0.0
 40
7.281454538710194
100
AcDbArc
 50
81.1040704165
 51
92.9441501476
  0
LINE
  5
21D
330
1F
100
AcDbEntity
  8
0
  6
Continuous
 62
     7
370
     0
100
AcDbLine
 10
142.1082515337
 20
115.2039239475
 30
0.0
 11
142.1082515337
 21
109.8101921344
 31
0.0
  0
LINE
  5
21E
330
1F
100
AcDbEntity
  8
0
  6
Continuous
 62
     7
370
     0
100
AcDbLine
 10
142.1082515337
 20
115.2039239475
 30
0.0
 11
185.9082515337
 21
115.2039239475
 31
0.0
  0
LINE
  5
21F
330
1F
100
AcDbEntity
  8
0
  6
Continuous
 62
     7
370
     0
100
AcDbLine
 10
140.6082515337
 20
109.7322130208
 30
0.0
 11
140.6082515337
 21
115.1259450071
 31
0.0
  0
ARC
  5
220
330
1F
100
AcDbEntity
  8
0
  6
Continuous
 62
     7
370
     0
100
AcDbCircle
 10
141.7342577481
 20
107.9320800875
 30
0.0
 40
7.281454538708382
100
AcDbArc
 50
87.0558498524
 51
98.8959295835
  0
LINE
  5
221
330
1F
100
AcDbEntity
  8
0
  6
Continuous
 62
     7
370
     0
100
AcDbLine
 10
187.4082515337
 20
116.7801038557
 30
0.0
 11
187.4082515337
 21
115.1259448339
 31
0.0
  0
LINE
  5
222
330
1F
100
AcDbEntity
  8
0
  6
Continuous
 62
     7
370
     0
100
AcDbLine
 10
185.9082515337
 20
115.2039239475
 30
0.0
 11
185.9082515337
 21
116.0794816295
 31
0.0
  0
LINE
  5
223
330
1F
100
AcDbEntity
  8
0
  6
Continuous
 62
     7
370
     0
100
AcDbLine
 10
142.1082515337
 20
116.0794816295
 30
0.0
 11
142.1082515337
 21
115.2039239475
 31
0.0
  0
LINE
  5
224
330
1F
100
AcDbEntity
  8
0
  6
Continuous
 62
     7
370
     0
100
AcDbLine
 10
140.6082515337
 20
115.1259450071
 30
0.0
 11
140.6082515337
 21
116.7801038557
 31
0.0
  0
LINE
  5
225
330
1F
100
AcDbEntity
  8
0
  6
Continuous
 62
     7
370
     0
100
AcDbLine
 10
184.0082515337
 20
119.2233132456
 30
0.0
 11
144.0082515337
 21
119.2233132456
 31
0.0
  0
ELLIPSE
  5
226
330
1F
100
AcDbEntity
  8
0
  6
Continuous
 62
     7
370
     0
100
AcDbEllipse
 10
184.0082515337
 20
119.8475936281
 30
0.0
 11
1.0
 21
0.0
 31
0.0
210
0.0
220
0.0
230
1.0
 40
0.6242803825
 41
4.712388980384699
 42
6.283185307179586
  0
LINE
  5
227
330
1F
100
AcDbEntity
  8
0
  6
Continuous
 62
     7
370
     0
100
AcDbLine
 10
185.0082515337
 20
124.3361159468
 30
0.0
 11
185.0082515337
 21
119.8475936281
 31
0.0
  0
LINE
  5
228
330
1F
100
AcDbEntity
  8
0
  6
Continuous
 62
     7
370
     0
100
AcDbLine
 10
185.0082515337
 20
124.3361159468
 30
0.0
 11
185.9082515337
 21
124.3361159468
 31
0.0
  0
LINE
  5
229
330
1F
100
AcDbEntity
  8
0
  6
Continuous
 62
     7
370
     0
100
AcDbLine
 10
185.9082515844
 20
118.6267958194
 30
0.0
 11
185.9082515337
 21
124.3361159468
 31
0.0
  0
LINE
  5
22A
330
1F
100
AcDbEntity
  8
0
  6
Continuous
 62
     7
370
     0
100
AcDbLine
 10
142.1082515337
 20
124.3361159468
 30
0.0
 11
142.1082514831
 21
118.6267958194
 31
0.0
  0
LINE
  5
22B
330
1F
100
AcDbEntity
  8
0
  6
Continuous
 62
     7
370
     0
100
AcDbLine
 10
142.1082515337
 20
124.3361159468
 30
0.0
 11
143.0082515337
 21
124.3361159468
 31
0.0
  0
LINE
  5
22C
330
1F
100
AcDbEntity
  8
0
  6
Continuous
 62
     7
370
     0
100
AcDbLine
 10
143.0082515337
 20
119.8475936281
 30
0.0
 11
143.0082515337
 21
124.3361159468
 31
0.0
  0
ELLIPSE
  5
22D
330
1F
100
AcDbEntity
  8
0
  6
Continuous
 62
     7
370
     0
100
AcDbEllipse
 10
144.0082515337
 20
119.8475936281
 30
0.0
 11
1.0
 21
0.0
 31
0.0
210
0.0
220
0.0
230
1.0
 40
0.6242803825
 41
3.141592653589793
 42
4.712388980384699
  0
LINE
  5
22E
330
1F
100
AcDbEntity
  8
0
  6
Continuous
 62
     7
370
     0
100
AcDbLine
 10
187.408250899
 20
120.3025245279
 30
0.0
 11
187.408250899
 21
117.7195432767
 31
0.0
  0
ELLIPSE
  5
22F
330
1F
100
AcDbEntity
  8
0
  6
Continuous
 62
     7
370
     0
100
AcDbEllipse
 10
185.9082515337
 20
120.3025243587
 30
0.0
 11
0.0
 21
4.033591585674742
 31
0.0
210
0.0
220
0.0
230
1.0
 40
0.3718770153
 41
4.712388980384695
 42
6.283185307179586
  0
LINE
  5
230
330
1F
100
AcDbEntity
  8
0
  6
Continuous
 62
     7
370
     0
100
AcDbLine
 10
140.6082521685
 20
117.7195432767
 30
0.0
 11
140.6082521685
 21
120.3025245279
 31
0.0
  0
ELLIPSE
  5
231
330
1F
100
AcDbEntity
  8
0
  6
Continuous
 62
     7
370
     0
100
AcDbEllipse
 10
142.1082515337
 20
120.3025243587
 30
0.0
 11
2.842170943040401E-14
 21
4.033591585674756
 31
0.0
210
0.0
220
0.0
230
1.0
 40
0.3718770153
 41
0.0
 42
1.570796326794892
  0
LINE
  5
232
330
1F
100
AcDbEntity
  8
0
  6
Continuous
 62
     7
370
     0
100
AcDbLine
 10
144.0082515337
 20
119.2233132456
 30
0.0
 11
144.0082515337
 21
119.6474495164
 31
0.0
  0
LINE
  5
233
330
1F
100
AcDbEntity
  8
0
  6
Continuous
 62
     7
370
     0
100
AcDbLine
 10
144.0082515337
 20
119.6474495164
 30
0.0
 11
184.0082515337
 21
119.6474495164
 31
0.0
  0
LINE
  5
234
330
1F
100
AcDbEntity
  8
0
  6
Continuous
 62
     7
370
     0
100
AcDbLine
 10
184.0082515337
 20
119.6474495164
 30
0.0
 11
184.0082515337
 21
119.2233132456
 31
0.0
  0
ELLIPSE
  5
235
330
1F
100
AcDbEntity
  8
0
  6
Continuous
 62
     7
370
     0
100
AcDbEllipse
 10
184.0082515337
 20
120.271729899
 30
0.0
 11
0.0
 21
0.6242803825274166
 31
0.0
210
0.0
220
0.0
230
1.0
 40
0.8009221721
 41
3.141592653589793
 42
4.712388980384701
  0
ARC
  5
236
330
1F
100
AcDbEntity
  8
0
  6
Continuous
 62
     7
370
     0
100
AcDbCircle
 10
184.9731968812
 20
120.3130534034
 30
0.0
 40
0.4667775931964238
100
AcDbArc
 50
185.0790653348
 51
274.3068908082
  0
ARC
  5
237
330
1F
100
AcDbEntity
  8
0
  6
Continuous
 62
     7
370
     0
100
AcDbCircle
 10
143.0433061863
 20
120.3130534034
 30
0.0
 40
0.4667775931964238
100
AcDbArc
 50
265.6931091918
 51
354.9209346652
  0
ELLIPSE
  5
238
330
1F
100
AcDbEntity
  8
0
  6
Continuous
 62
     7
370
     0
100
AcDbEllipse
 10
144.0082515337
 20
120.271729899
 30
0.0
 11
0.0
 21
0.6242803825274166
 31
0.0
210
0.0
220
0.0
230
1.0
 40
0.8009221721
 41
1.570796326794897
 42
3.141592653589793
  0
LINE
  5
239
330
1F
100
AcDbEntity
  8
0
  6
Continuous
 62
     7
370
     0
100
AcDbLine
 10
184.5082515337
 20
139.090369818
 30
0.0
 11
184.5082515337
 21
120.271729899
 31
0.0
  0
LINE
  5
23A
330
1F
100
AcDbEntity
  8
0
  6
Continuous
 62
     7
370
     0
100
AcDbLine
 10
184.0082515337
 20
119.6474495164
 30
0.0
 11
184.0082515337
 21
139.090369818
 31
0.0
  0
LINE
  5
23B
330
1F
100
AcDbEntity
  8
0
  6
Continuous
 62
     7
370
     0
100
AcDbLine
 10
184.5082515337
 20
139.090369818
 30
0.0
 11
184.0082515337
 21
139.090369818
 31
0.0
  0
LINE
  5
23C
330
1F
100
AcDbEntity
  8
0
  6
Continuous
 62
     7
370
     0
100
AcDbLine
 10
184.0082515337
 20
139.590369818
 30
0.0
 11
184.0082515337
 21
139.090369818
 31
0.0
  0
ARC
  5
23D
330
1F
100
AcDbEntity
  8
0
  6
Continuous
 62
     7
370
     0
100
AcDbCircle
 10
184.0082515337
 20
139.090369818
 30
0.0
 40
0.5
100
AcDbArc
 50
0.0
 51
90.0
  0
LINE
  5
23E
330
1F
100
AcDbEntity
  8
0
  6
Continuous
 62
     7
370
     0
100
AcDbLine
 10
184.0082515337
 20
139.090369818
 30
0.0
 11
144.0082515337
 21
139.090369818
 31
0.0
  0
LINE
  5
23F
330
1F
100
AcDbEntity
  8
0
  6
Continuous
 62
     7
370
     0
100
AcDbLine
 10
144.0082515337
 20
139.090369818
 30
0.0
 11
144.0082515337
 21
139.590369818
 31
0.0
  0
LINE
  5
240
330
1F
100
AcDbEntity
  8
0
  6
Continuous
 62
     7
370
     0
100
AcDbLine
 10
144.0082515337
 20
139.590369818
 30
0.0
 11
184.0082515337
 21
139.590369818
 31
0.0
  0
LINE
  5
241
330
1F
100
AcDbEntity
  8
0
  6
Continuous
 62
     7
370
     0
100
AcDbLine
 10
144.0082515337
 20
139.090369818
 30
0.0
 11
144.0082515337
 21
119.6474495164
 31
0.0
  0
LINE
  5
242
330
1F
100
AcDbEntity
  8
0
  6
Continuous
 62
     7
370
     0
100
AcDbLine
 10
143.5082515337
 20
120.271729899
 30
0.0
 11
143.5082515337
 21
139.090369818
 31
0.0
  0
LINE
  5
243
330
1F
100
AcDbEntity
  8
0
  6
Continuous
 62
     7
370
     0
100
AcDbLine
 10
144.0082515337
 20
139.090369818
 30
0.0
 11
143.5082515337
 21
139.090369818
 31
0.0
  0
ARC
  5
244
330
1F
100
AcDbEntity
  8
0
  6
Continuous
 62
     7
370
     0
100
AcDbCircle
 10
144.0082515337
 20
139.090369818
 30
0.0
 40
0.5
100
AcDbArc
 50
90.0
 51
180.0
  0
ARC
  5
245
330
1F
100
AcDbEntity
  8
0
  6
Continuous
 62
     7
370
     0
100
AcDbCircle
 10
184.9731968812
 20
124.8015755903
 30
0.0
 40
0.4667775931964238
100
AcDbArc
 50
185.0790653348
 51
274.3068908082
  0
ARC
  5
246
330
1F
100
AcDbEntity
  8
0
  6
Continuous
 62
     7
370
     0
100
AcDbCircle
 10
143.0433061863
 20
124.8015755903
 30
0.0
 40
0.4667775931964238
100
AcDbArc
 50
265.6931091918
 51
354.9209346652
  0
ARC
  5
247
330
1F
100
AcDbEntity
  8
0
  6
Continuous
 62
     7
370
     0
100
AcDbCircle
 10
174.0082515337
 20
108.590369818
 30
0.0
 40
0.5
100
AcDbArc
 50
270.0
 51
292.072295517
  0
LINE
  5
248
330
1F
100
AcDbEntity
  8
0
  6
Continuous
 62
     7
370
     0
100
AcDbLine
 10
174.0082513102
 20
108.0903696068
 30
0.0
 11
154.0082517573
 21
108.0903696068
 31
0.0
  0
ARC
  5
249
330
1F
100
AcDbEntity
  8
0
  6
Continuous
 62
     7
370
     0
100
AcDbCircle
 10
154.0082515337
 20
108.590369818
 30
0.0
 40
0.5
100
AcDbArc
 50
247.927704483
 51
270.0
  0
LINE
  5
24A
330
1F
100
AcDbEntity
  8
0
  6
Continuous
 62
     7
370
     0
100
AcDbLine
 10
187.4082515337
 20
123.101717448
 30
0.0
 11
187.408250899
 21
120.3025245279
 31
0.0
  0
LINE
  5
24B
330
1F
100
AcDbEntity
  8
0
  6
Continuous
 62
     7
370
     0
100
AcDbLine
 10
140.6082521685
 20
120.3025245279
 30
0.0
 11
140.6082515337
 21
123.101717448
 31
0.0
  0
LINE
  5
24C
330
1F
100
AcDbEntity
  8
0
  6
Continuous
 62
     7
370
     0
100
AcDbLine
 10
185.9082515337
 20
108.127014598
 30
0.0
 11
185.9082515337
 21
109.8101921344
 31
0.0
  0
LINE
  5
24D
330
1F
100
AcDbEntity
  8
0
  6
Continuous
 62
     7
370
     0
100
AcDbLine
 10
142.1082515337
 20
109.8101921344
 30
0.0
 11
142.1082515337
 21
108.127014598
 31
0.0
  0
LINE
  5
24E
330
1F
100
AcDbEntity
  8
0
  6
Continuous
 62
     7
370
     0
100
AcDbLine
 10
185.9082515337
 20
124.3361159468
 30
0.0
 11
185.9082515337
 21
124.449911503
 31
0.0
  0
LINE
  5
24F
330
1F
100
AcDbEntity
  8
0
  6
Continuous
 62
     7
370
     0
100
AcDbLine
 10
142.1082515337
 20
124.4499114354
 30
0.0
 11
142.1082515337
 21
124.3361159468
 31
0.0
  0
LINE
  5
250
330
1F
100
AcDbEntity
  8
0
  6
Continuous
 62
     7
370
     0
100
AcDbLine
 10
143.0082515337
 20
124.3361159468
 30
0.0
 11
143.0082515337
 21
124.4499115382
 31
0.0
  0
LINE
  5
251
330
1F
100
AcDbEntity
  8
0
  6
Continuous
 62
     7
370
     0
100
AcDbLine
 10
185.0082515337
 20
124.4499115382
 30
0.0
 11
185.0082515337
 21
124.3361159468
 31
0.0
  0
ARC
  5
252
330
1F
100
AcDbEntity
  8
0
  6
Continuous
 62
     7
370
     0
100
AcDbCircle
 10
186.7348303888
 20
122.9275347498
 30
0.0
 40
0.6955822236030521
100
AcDbArc
 50
14.5019008562
 51
71.9320313264
  0
ARC
  5
253
330
1F
100
AcDbEntity
  8
0
  6
Continuous
 62
     7
370
     0
100
AcDbCircle
 10
141.2498721987
 20
122.955864066
 30
0.0
 40
0.6579888548646699
100
AcDbArc
 50
107.0007363914
 51
167.1931720345
  0
LINE
  5
254
330
1F
100
AcDbEntity
  8
0
  6
Continuous
 62
     7
370
     0
100
AcDbLine
 10
185.0082515337
 20
124.601717448
 30
0.0
 11
185.0082515337
 21
124.4499115382
 31
0.0
  0
LINE
  5
255
330
1F
100
AcDbEntity
  8
0
  6
Continuous
 62
     7
370
     0
100
AcDbLine
 10
143.0082515337
 20
124.4499115382
 30
0.0
 11
143.0082515337
 21
124.601717448
 31
0.0
  0
LINE
  5
256
330
1F
100
AcDbEntity
  8
0
  6
Continuous
 62
     7
370
     0
100
AcDbLine
 10
185.9082515337
 20
124.449911503
 30
0.0
 11
185.9082515337
 21
124.601717448
 31
0.0
  0
LINE
  5
257
330
1F
100
AcDbEntity
  8
0
  6
Continuous
 62
     7
370
     0
100
AcDbLine
 10
142.1082515337
 20
124.601717448
 30
0.0
 11
142.1082515337
 21
124.4499114354
 31
0.0
  0
DIMENSION
  5
258
330
1F
100
AcDbEntity
  8
0
  6
Continuous
 62
     7
370
     0
100
AcDbDimension
  2
*D8
 10
155.5082515337
 20
73.8072614458
 30
0.0
 11
164.0082515337
 21
73.8072614458
 31
0.0
 70
   160
 71
     1
 42
17.0
  3
SLDDIMSTYLE0
100
AcDbAlignedDimension
 13
172.5082515337
 23
98.090369818
 33
0.0
 14
155.5082515337
 24
98.090369818
 34
0.0
100
AcDbRotatedDimension
1001
ACAD
1000
DSTYLE
1002
{
1070
    77
1070
     3
1070
   143
1040
0.0393700787
1070
    41
1040
3.0
1070
    44
1040
1.0
1070
    42
1040
1.0
1070
   147
1040
1.524
1070
    73
1070
     0
1070
    74
1070
     0
1070
   140
1040
3.5
1070
   284
1070
    12
1070
    78
1070
    12
1002
}
  0
DIMENSION
  5
26D
330
1F
100
AcDbEntity
  8
0
  6
Continuous
 62
     7
370
     0
100
AcDbDimension
  2
*D9
 10
169.0082515337
 20
83.796551529
 30
0.0
 11
164.0082515337
 21
83.796551529
 31
0.0
 70
   160
 71
     1
 42
10.0
  3
SLDDIMSTYLE0
100
AcDbAlignedDimension
 13
159.0082515337
 23
102.090369818
 33
0.0
 14
169.0082515337
 24
102.090369818
 34
0.0
100
AcDbRotatedDimension
1001
ACAD
1000
DSTYLE
1002
{
1070
    77
1070
     3
1070
   143
1040
0.0393700787
1070
    41
1040
3.0
1070
    44
1040
1.0
1070
    42
1040
1.0
1070
   147
1040
1.524
1070
    73
1070
     0
1070
    74
1070
     0
1070
   140
1040
3.5
1070
   284
1070
    12
1070
    78
1070
    12
1002
}
  0
DIMENSION
  5
282
330
1F
100
AcDbEntity
  8
0
  6
Continuous
 62
     7
370
     0
100
AcDbDimension
  2
*D10
 10
148.6332483501
 20
98.090369818
 30
0.0
 11
148.6332483501
 21
100.090369818
 31
0.0
 70
   160
 71
     1
 42
4.0
  3
SLDDIMSTYLE0
100
AcDbAlignedDimension
 13
159.0082515337
 23
102.090369818
 33
0.0
 14
155.5082515337
 24
98.090369818
 34
0.0
 50
90.0
100
AcDbRotatedDimension
1001
ACAD
1000
DSTYLE
1002
{
1070
    77
1070
     3
1070
   143
1040
0.0393700787
1070
    41
1040
3.0
1070
    44
1040
1.0
1070
    42
1040
1.0
1070
   147
1040
1.524
1070
    73
1070
     0
1070
    74
1070
     0
1070
   140
1040
3.5
1070
   284
1070
    12
1070
    78
1070
    12
1002
}
  0
DIMENSION
  5
299
330
1F
100
AcDbEntity
  8
0
  6
Continuous
 62
     7
370
     0
100
AcDbDimension
  2
*D11
 10
141.973721628
 20
148.0903703783
 30
0.0
 11
141.973721628
 21
144.0903700982
 31
0.0
 70
   160
 71
     1
 42
8.0000005603
  3
SLDDIMSTYLE0
100
AcDbAlignedDimension
 13
149.5082315337
 23
140.090369818
 33
0.0
 14
147.5082315337
 24
148.0903703783
 34
0.0
 50
90.0
100
AcDbRotatedDimension
1001
ACAD
1000
DSTYLE
1002
{
1070
    77
1070
     3
1070
   143
1040
0.0393700787
1070
    41
1040
3.0
1070
    44
1040
1.0
1070
    42
1040
1.0
1070
   147
1040
1.524
1070
    73
1070
     0
1070
    74
1070
     0
1070
   140
1040
3.5
1070
   284
1070
    12
1070
    78
1070
    12
1002
}
  0
DIMENSION
  5
2B0
330
1F
100
AcDbEntity
  8
0
  6
Continuous
 62
     7
370
     0
100
AcDbDimension
  2
*D12
 10
135.0203922564
 20
98.090369818
 30
0.0
 11
135.0203922564
 21
123.0903700982
 31
0.0
 70
   160
 71
     1
 42
50.0000005603
  3
SLDDIMSTYLE0
100
AcDbAlignedDimension
 13
147.5082315337
 23
148.0903703783
 33
0.0
 14
155.5082515337
 24
98.090369818
 34
0.0
 50
90.0
100
AcDbRotatedDimension
1001
ACAD
1000
DSTYLE
1002
{
1070
    77
1070
     3
1070
   143
1040
0.0393700787
1070
    41
1040
3.0
1070
    44
1040
1.0
1070
    42
1040
1.0
1070
   147
1040
1.524
1070
    73
1070
     0
1070
    74
1070
     0
1070
   140
1040
3.5
1070
   284
1070
    12
1070
    78
1070
    12
1002
}
  0
DIMENSION
  5
2C4
330
1F
100
AcDbEntity
  8
0
  6
Continuous
 62
     7
370
     0
100
AcDbDimension
  2
*D13
 10
149.5082315337
 20
163.4405744197
 30
0.0
 11
147.5082315337
 21
163.4405744197
 31
0.0
 70
   160
 71
     1
 42
4.0
  3
SLDDIMSTYLE0
100
AcDbAlignedDimension
 13
145.5082315337
 23
146.0903703783
 33
0.0
 14
149.5082315337
 24
140.090369818
 34
0.0
100
AcDbRotatedDimension
1001
ACAD
1000
DSTYLE
1002
{
1070
    77
1070
     3
1070
   143
1040
0.0393700787
1070
    41
1040
3.0
1070
    44
1040
1.0
1070
    42
1040
1.0
1070
   147
1040
1.524
1070
    73
1070
     0
1070
    74
1070
     0
1070
   140
1040
3.5
1070
   284
1070
    12
1070
    78
1070
    12
1002
}
  0
DIMENSION
  5
2DB
330
1F
100
AcDbEntity
  8
0
  6
Continuous
 62
     7
370
     0
100
AcDbDimension
  2
*D14
 10
163.0082315337
 20
163.4405744197
 30
0.0
 11
167.6304141104
 21
163.4405744197
 31
0.0
 70
   160
 71
     1
 42
13.5
  3
SLDDIMSTYLE0
100
AcDbAlignedDimension
 13
149.5082315337
 23
140.090369818
 33
0.0
 14
163.0082315337
 24
140.090369818
 34
0.0
100
AcDbRotatedDimension
1001
ACAD
1000
DSTYLE
1002
{
1070
    77
1070
     3
1070
   143
1040
0.0393700787
1070
    41
1040
3.0
1070
    44
1040
1.0
1070
    42
1040
1.0
1070
   147
1040
1.524
1070
    73
1070
     0
1070
    74
1070
     0
1070
   140
1040
3.5
1070
   284
1070
    12
1070
    78
1070
    12
1002
}
  0
MTEXT
  5
2F1
330
1F
100
AcDbEntity
  8
0
  6
Continuous
 62
     7
370
     0
100
AcDbMText
 10
181.4457544193
 20
88.869665047
 30
0.0
 40
3.5
 41
0.0
 71
     1
 72
     1
  1
2*2-M4*0.7
  7
SLDTEXTSTYLE0
 73
     1
 44
1.0
  0
LEADER
  5
2F3
330
1F
100
AcDbEntity
  8
0
  6
Continuous
 62
     7
370
     0
100
AcDbLeader
  3
SLDDIMSTYLE1
 76
     3
 10
170.4581751153
 20
101.3028283222
 30
0.0
 10
180.9443410534
 20
84.7967805993
 30
0.0
 10
201.8137712572
 20
84.7967805993
 30
0.0
  0
ARC
  5
2F4
330
1F
100
AcDbEntity
  8
0
  6
Continuous
 62
     7
370
     0
100
AcDbCircle
 10
86.345619277
 20
237.9557668712
 30
0.0
 40
0.5
100
AcDbArc
 50
270.0
 51
0.0
  0
ARC
  5
2F5
330
1F
100
AcDbEntity
  8
0
  6
Continuous
 62
     7
370
     0
100
AcDbCircle
 10
47.5493472174
 20
237.9557668712
 30
0.0
 40
0.5
100
AcDbArc
 50
180.0
 51
270.0
  0
ARC
  5
2F6
330
1F
100
AcDbEntity
  8
0
  6
Continuous
 62
     7
370
     0
100
AcDbCircle
 10
86.345619277
 20
195.9557668712
 30
0.0
 40
0.5
100
AcDbArc
 50
0.0
 51
90.0
  0
ARC
  5
2F7
330
1F
100
AcDbEntity
  8
0
  6
Continuous
 62
     7
370
     0
100
AcDbCircle
 10
47.5493472174
 20
195.9557668712
 30
0.0
 40
0.5
100
AcDbArc
 50
90.0
 51
180.0
  0
LINE
  5
2F8
330
1F
100
AcDbEntity
  8
0
  6
Continuous
 62
     7
370
     0
100
AcDbLine
 10
47.0493472174
 20
237.9557668712
 30
0.0
 11
47.0493472174
 21
238.8557668712
 31
0.0
  0
LINE
  5
2F9
330
1F
100
AcDbEntity
  8
0
  6
Continuous
 62
     7
370
     0
100
AcDbLine
 10
86.845619277
 20
238.8557668712
 30
0.0
 11
86.845619277
 21
237.9557668712
 31
0.0
  0
LINE
  5
2FA
330
1F
100
AcDbEntity
  8
0
  6
Continuous
 62
     7
370
     0
100
AcDbLine
 10
47.0493472174
 20
195.0557668712
 30
0.0
 11
47.0493472174
 21
195.9557668712
 31
0.0
  0
LINE
  5
2FB
330
1F
100
AcDbEntity
  8
0
  6
Continuous
 62
     7
370
     0
100
AcDbLine
 10
86.845619277
 20
195.9557668712
 30
0.0
 11
86.845619277
 21
195.0557668712
 31
0.0
  0
LWPOLYLINE
  5
2FC
330
1F
100
AcDbEntity
  8
0
  6
Continuous
 62
     7
370
     0
100
AcDbPolyline
 90
       12
 70
   128
 43
0.0
 10
47.0493472279
 20
238.8557669218
 10
47.0119434506
 20
239.1114615347
 10
46.9131711036
 20
239.3321812596
 10
46.7724948287
 20
239.5123921778
 10
46.5950890541
 20
239.6623332496
 10
46.3762599141
 20
239.7910103645
 10
46.0981669933
 20
239.9078689959
 10
45.7196216196
 20
240.0223713811
 10
45.1778787286
 20
240.1378870453
 10
44.4086565733
 20
240.2464066144
 10
43.3833356113
 20
240.3277352895
 10
42.2735325158
 20
240.3557662364
  0
LWPOLYLINE
  5
2FD
330
1F
100
AcDbEntity
  8
0
  6
Continuous
 62
     7
370
     0
100
AcDbPolyline
 90
       12
 70
   128
 43
0.0
 10
86.8456213832
 20
195.0557668205
 10
86.8830232978
 20
194.8000722076
 10
86.9817956448
 20
194.5793524827
 10
87.1224700571
 20
194.3991415646
 10
87.2998758316
 20
194.2492004927
 10
87.5187068344
 20
194.1205233778
 10
87.7967997551
 20
194.0036647465
 10
88.1753488541
 20
193.8891623612
 10
88.7170880199
 20
193.773646697
 10
89.4863083125
 20
193.665127128
 10
90.5116274119
 20
193.5837984528
 10
91.6214360953
 20
193.555767506
  0
LWPOLYLINE
  5
2FE
330
1F
100
AcDbEntity
  8
0
  6
Continuous
 62
     7
370
     0
100
AcDbPolyline
 90
       12
 70
   128
 43
0.0
 10
91.6214360953
 20
240.3557662364
 10
90.896338141
 20
240.3439216759
 10
89.7535308361
 20
240.2735453542
 10
88.8623743415
 20
240.1624795492
 10
88.2390885711
 20
240.0383603271
 10
87.8191514969
 20
239.9157852377
 10
87.5191762209
 20
239.7912431951
 10
87.2833429933
 20
239.6505557444
 10
87.0914458394
 20
239.4791383739
 10
86.9480892182
 20
239.2724071141
 10
86.8634878755
 20
239.0333142575
 10
86.8456213832
 20
238.8557669218
  0
LWPOLYLINE
  5
2FF
330
1F
100
AcDbEntity
  8
0
  6
Continuous
 62
     7
370
     0
100
AcDbPolyline
 90
       12
 70
   128
 43
0.0
 10
42.2735325158
 20
193.555767506
 10
42.9986304701
 20
193.5676120665
 10
44.1414340496
 20
193.6379883881
 10
45.0325905443
 20
193.7490541931
 10
45.6558763147
 20
193.8731734153
 10
46.0758171142
 20
193.9957485046
 10
46.3757923901
 20
194.1202905472
 10
46.6116274804
 20
194.260977998
 10
46.8035227716
 20
194.4323953684
 10
46.9468793929
 20
194.6391266282
 10
47.0314807356
 20
194.8782194849
 10
47.0493472279
 20
195.0557668205
  0
ARC
  5
300
330
1F
100
AcDbEntity
  8
0
  6
Continuous
 62
     7
370
     0
100
AcDbCircle
 10
55.2510730856
 20
237.6557668711
 30
0.0
 40
0.1999999999999957
100
AcDbArc
 50
180.0
 51
270.0
  0
ARC
  5
301
330
1F
100
AcDbEntity
  8
0
  6
Continuous
 62
     7
370
     0
100
AcDbCircle
 10
86.2510730856
 20
237.6557668711
 30
0.0
 40
0.2000000000000028
100
AcDbArc
 50
180.0
 51
270.0
  0
ARC
  5
302
330
1F
100
AcDbEntity
  8
0
  6
Continuous
 62
     7
370
     0
100
AcDbCircle
 10
78.6438934087
 20
237.6557668711
 30
0.0
 40
0.1999999999999886
100
AcDbArc
 50
270.0
 51
0.0
  0
ARC
  5
303
330
1F
100
AcDbEntity
  8
0
  6
Continuous
 62
     7
370
     0
100
AcDbCircle
 10
47.6438934087
 20
237.6557668711
 30
0.0
 40
0.2000000000000028
100
AcDbArc
 50
270.0
 51
0.0
  0
ARC
  5
304
330
1F
100
AcDbEntity
  8
0
  6
Continuous
 62
     7
370
     0
100
AcDbCircle
 10
86.2510730856
 20
196.2557668712
 30
0.0
 40
0.2000000000000028
100
AcDbArc
 50
90.0
 51
180.0
  0
ARC
  5
305
330
1F
100
AcDbEntity
  8
0
  6
Continuous
 62
     7
370
     0
100
AcDbCircle
 10
55.2510730856
 20
196.2557668712
 30
0.0
 40
0.2000000000000028
100
AcDbArc
 50
90.0
 51
180.0
  0
ARC
  5
306
330
1F
100
AcDbEntity
  8
0
  6
Continuous
 62
     7
370
     0
100
AcDbCircle
 10
78.6438934087
 20
196.2557668712
 30
0.0
 40
0.2000000000000028
100
AcDbArc
 50
0.0
 51
90.0
  0
ARC
  5
307
330
1F
100
AcDbEntity
  8
0
  6
Continuous
 62
     7
370
     0
100
AcDbCircle
 10
47.6438934087
 20
196.2557668712
 30
0.0
 40
0.2000000000000028
100
AcDbArc
 50
0.0
 51
90.0
  0
LINE
  5
308
330
1F
100
AcDbEntity
  8
0
  6
Continuous
 62
     7
370
     0
100
AcDbLine
 10
86.0510730856
 20
237.6557668712
 30
0.0
 11
86.0510730856
 21
237.7557668712
 31
0.0
  0
ARC
  5
309
330
1F
100
AcDbEntity
  8
0
  6
Continuous
 62
     7
370
     0
100
AcDbCircle
 10
54.8510730856
 20
237.7557668712
 30
0.0
 40
0.2000000000000028
100
AcDbArc
 50
0.0
 51
90.0
  0
LINE
  5
30A
330
1F
100
AcDbEntity
  8
0
  6
Continuous
 62
     7
370
     0
100
AcDbLine
 10
78.8438934087
 20
237.7557668712
 30
0.0
 11
78.8438934087
 21
237.6557668711
 31
0.0
  0
ARC
  5
30B
330
1F
100
AcDbEntity
  8
0
  6
Continuous
 62
     7
370
     0
100
AcDbCircle
 10
79.0438934087
 20
237.7557668712
 30
0.0
 40
0.2000000000041666
100
AcDbArc
 50
90.0
 51
180.0
  0
LINE
  5
30C
330
1F
100
AcDbEntity
  8
0
  6
Continuous
 62
     7
370
     0
100
AcDbLine
 10
55.0510730856
 20
237.6557668712
 30
0.0
 11
55.0510730856
 21
237.7557668712
 31
0.0
  0
ARC
  5
30D
330
1F
100
AcDbEntity
  8
0
  6
Continuous
 62
     7
370
     0
100
AcDbCircle
 10
85.8510730856
 20
237.7557668712
 30
0.0
 40
0.1999999999999886
100
AcDbArc
 50
0.0
 51
90.0
  0
ARC
  5
30E
330
1F
100
AcDbEntity
  8
0
  6
Continuous
 62
     7
370
     0
100
AcDbCircle
 10
48.0438934087
 20
237.7557668712
 30
0.0
 40
0.2000000000041666
100
AcDbArc
 50
90.0
 51
180.0
  0
LINE
  5
30F
330
1F
100
AcDbEntity
  8
0
  6
Continuous
 62
     7
370
     0
100
AcDbLine
 10
47.8438934087
 20
237.7557668712
 30
0.0
 11
47.8438934087
 21
237.6557668711
 31
0.0
  0
LINE
  5
310
330
1F
100
AcDbEntity
  8
0
  6
Continuous
 62
     7
370
     0
100
AcDbLine
 10
55.0510730856
 20
196.1557668712
 30
0.0
 11
55.0510730856
 21
196.2557668712
 31
0.0
  0
ARC
  5
311
330
1F
100
AcDbEntity
  8
0
  6
Continuous
 62
     7
370
     0
100
AcDbCircle
 10
54.8510730856
 20
196.1557668712
 30
0.0
 40
0.2000000000000028
100
AcDbArc
 50
270.0
 51
0.0
  0
LINE
  5
312
330
1F
100
AcDbEntity
  8
0
  6
Continuous
 62
     7
370
     0
100
AcDbLine
 10
78.8438934087
 20
196.2557668712
 30
0.0
 11
78.8438934087
 21
196.1557668712
 31
0.0
  0
LINE
  5
313
330
1F
100
AcDbEntity
  8
0
  6
Continuous
 62
     7
370
     0
100
AcDbLine
 10
86.0510730856
 20
196.1557668712
 30
0.0
 11
86.0510730856
 21
196.2557668712
 31
0.0
  0
ARC
  5
314
330
1F
100
AcDbEntity
  8
0
  6
Continuous
 62
     7
370
     0
100
AcDbCircle
 10
85.8510730856
 20
196.1557668712
 30
0.0
 40
0.1999999999999886
100
AcDbArc
 50
270.0
 51
0.0
  0
ARC
  5
315
330
1F
100
AcDbEntity
  8
0
  6
Continuous
 62
     7
370
     0
100
AcDbCircle
 10
79.0438934087
 20
196.1557668712
 30
0.0
 40
0.2000000000000028
100
AcDbArc
 50
180.0
 51
270.0
  0
ARC
  5
316
330
1F
100
AcDbEntity
  8
0
  6
Continuous
 62
     7
370
     0
100
AcDbCircle
 10
48.0438934087
 20
196.1557668712
 30
0.0
 40
0.2000000000000028
100
AcDbArc
 50
180.0
 51
270.0
  0
LINE
  5
317
330
1F
100
AcDbEntity
  8
0
  6
Continuous
 62
     7
370
     0
100
AcDbLine
 10
47.8438934087
 20
196.2557668712
 30
0.0
 11
47.8438934087
 21
196.1557668712
 31
0.0
  0
LWPOLYLINE
  5
318
330
1F
100
AcDbEntity
  8
0
  6
Continuous
 62
     7
370
     0
100
AcDbPolyline
 90
        6
 70
   128
 43
0.0
 10
66.5453336299
 20
237.4557674374
 10
66.3641913891
 20
237.4945085939
 10
66.2570222378
 20
237.5644788589
 10
66.2093496979
 20
237.6181565668
 10
66.1971493721
 20
237.6380365785
 10
66.1977975727
 20
237.636401176
  0
ARC
  5
319
330
1F
100
AcDbEntity
  8
0
  6
Continuous
 62
     7
370
     0
100
AcDbCircle
 10
67.3647431997
 20
237.8507220147
 30
0.0
 40
0.395243439438176
100
AcDbArc
 50
267.809329609
 51
327.2134874775
  0
ARC
  5
31A
330
1F
100
AcDbEntity
  8
0
  6
Continuous
 62
     7
370
     0
100
AcDbCircle
 10
66.5302018525
 20
196.0608569617
 30
0.0
 40
0.3951991397095943
100
AcDbArc
 50
87.8056658737
 51
147.2171512128
  0
LWPOLYLINE
  5
31B
330
1F
100
AcDbEntity
  8
0
  6
Continuous
 62
     7
370
     0
100
AcDbPolyline
 90
        6
 70
   128
 43
0.0
 10
67.3496349812
 20
196.4557663049
 10
67.530777222
 20
196.4170251485
 10
67.6379463733
 20
196.3470548834
 10
67.6856189132
 20
196.2933771755
 10
67.6978192389
 20
196.2734971638
 10
67.6971673131
 20
196.2751325663
  0
LINE
  5
31C
330
1F
100
AcDbEntity
  8
0
  6
Continuous
 62
     7
370
     0
100
AcDbLine
 10
39.9474832472
 20
200.4557468712
 30
0.0
 11
93.9474832472
 21
200.4557468712
 31
0.0
  0
LINE
  5
31D
330
1F
100
AcDbEntity
  8
0
  6
Continuous
 62
     7
370
     0
100
AcDbLine
 10
39.9474832472
 20
204.7486669612
 30
0.0
 11
93.9474832472
 21
204.7486669612
 31
0.0
  0
LINE
  5
31E
330
1F
100
AcDbEntity
  8
0
  6
Continuous
 62
     7
370
     0
100
AcDbLine
 10
39.9474832472
 20
200.4557468712
 30
0.0
 11
39.9474832472
 21
204.7486669612
 31
0.0
  0
LINE
  5
31F
330
1F
100
AcDbEntity
  8
0
  6
Continuous
 62
     7
370
     0
100
AcDbLine
 10
93.9474832472
 20
200.4557468712
 30
0.0
 11
93.9474832472
 21
204.7486669612
 31
0.0
  0
LINE
  5
320
330
1F
100
AcDbEntity
  8
0
  6
Continuous
 62
     7
370
     0
100
AcDbLine
 10
39.9474832472
 20
205.1022202105
 30
0.0
 11
93.9474832472
 21
205.1022202105
 31
0.0
  0
LINE
  5
321
330
1F
100
AcDbEntity
  8
0
  6
Continuous
 62
     7
370
     0
100
AcDbLine
 10
39.9474832472
 20
204.7486669612
 30
0.0
 11
39.9474832472
 21
205.1022202105
 31
0.0
  0
LINE
  5
322
330
1F
100
AcDbEntity
  8
0
  6
Continuous
 62
     7
370
     0
100
AcDbLine
 10
93.9474832472
 20
204.7486669612
 30
0.0
 11
93.9474832472
 21
205.1022202105
 31
0.0
  0
LINE
  5
323
330
1F
100
AcDbEntity
  8
0
  6
Continuous
 62
     7
370
     0
100
AcDbLine
 10
39.9474832472
 20
198.4557468712
 30
0.0
 11
93.9474832472
 21
198.4557468712
 31
0.0
  0
LINE
  5
324
330
1F
100
AcDbEntity
  8
0
  6
Continuous
 62
     7
370
     0
100
AcDbLine
 10
39.9474832472
 20
198.4557468712
 30
0.0
 11
39.9474832472
 21
200.4557468712
 31
0.0
  0
LINE
  5
325
330
1F
100
AcDbEntity
  8
0
  6
Continuous
 62
     7
370
     0
100
AcDbLine
 10
93.9474832472
 20
198.4557468712
 30
0.0
 11
93.9474832472
 21
200.4557468712
 31
0.0
  0
LINE
  5
326
330
1F
100
AcDbEntity
  8
0
  6
Continuous
 62
     7
370
     0
100
AcDbLine
 10
39.9474832472
 20
211.1628469612
 30
0.0
 11
93.9474832472
 21
211.1628469612
 31
0.0
  0
LINE
  5
327
330
1F
100
AcDbEntity
  8
0
  6
Continuous
 62
     7
370
     0
100
AcDbLine
 10
39.9474832472
 20
233.9557668712
 30
0.0
 11
93.9474832472
 21
233.9557668712
 31
0.0
  0
CIRCLE
  5
328
330
1F
100
AcDbEntity
  8
0
  6
Continuous
 62
     7
370
     0
100
AcDbCircle
 10
81.9474832472
 20
216.9557468712
 30
0.0
 40
2.100000000000009
  0
CIRCLE
  5
329
330
1F
100
AcDbEntity
  8
0
  6
Continuous
 62
     7
370
     0
100
AcDbCircle
 10
51.9474832472
 20
216.9557468712
 30
0.0
 40
2.100000000000009
  0
CIRCLE
  5
32A
330
1F
100
AcDbEntity
  8
0
  6
Continuous
 62
     7
370
     0
100
AcDbCircle
 10
66.9474832472
 20
216.9557468712
 30
0.0
 40
1.5
  0
LINE
  5
32B
330
1F
100
AcDbEntity
  8
0
  6
Continuous
 62
     7
370
     0
100
AcDbLine
 10
39.9474832472
 20
211.1628469612
 30
0.0
 11
39.9474832472
 21
233.9557668712
 31
0.0
  0
LINE
  5
32C
330
1F
100
AcDbEntity
  8
0
  6
Continuous
 62
     7
370
     0
100
AcDbLine
 10
93.9474832472
 20
211.1628469612
 30
0.0
 11
93.9474832472
 21
233.9557668712
 31
0.0
  0
LINE
  5
32D
330
1F
100
AcDbEntity
  8
0
  6
Continuous
 62
     7
370
     0
100
AcDbLine
 10
39.9474832472
 20
235.4557668712
 30
0.0
 11
93.9474832472
 21
235.4557668712
 31
0.0
  0
LINE
  5
32E
330
1F
100
AcDbEntity
  8
0
  6
Continuous
 62
     7
370
     0
100
AcDbLine
 10
39.9474832472
 20
233.9557668712
 30
0.0
 11
39.9474832472
 21
235.4557668712
 31
0.0
  0
LINE
  5
32F
330
1F
100
AcDbEntity
  8
0
  6
Continuous
 62
     7
370
     0
100
AcDbLine
 10
93.9474832472
 20
233.9557668712
 30
0.0
 11
93.9474832472
 21
235.4557668712
 31
0.0
  0
LINE
  5
330
330
1F
100
AcDbEntity
  8
0
  6
Continuous
 62
     7
370
     0
100
AcDbLine
 10
39.9474832472
 20
210.8092937741
 30
0.0
 11
93.9474832472
 21
210.8092937741
 31
0.0
  0
LINE
  5
331
330
1F
100
AcDbEntity
  8
0
  6
Continuous
 62
     7
370
     0
100
AcDbLine
 10
39.9474832472
 20
210.8092937741
 30
0.0
 11
39.9474832472
 21
211.1628469612
 31
0.0
  0
LINE
  5
332
330
1F
100
AcDbEntity
  8
0
  6
Continuous
 62
     7
370
     0
100
AcDbLine
 10
93.9474832472
 20
210.8092937741
 30
0.0
 11
93.9474832472
 21
211.1628469612
 31
0.0
  0
LINE
  5
333
330
1F
100
AcDbEntity
  8
0
  6
Continuous
 62
     7
370
     0
100
AcDbLine
 10
39.9474832472
 20
207.6022035518
 30
0.0
 11
93.9474832472
 21
207.6022035518
 31
0.0
  0
LINE
  5
334
330
1F
100
AcDbEntity
  8
0
  6
Continuous
 62
     7
370
     0
100
AcDbLine
 10
39.9474832472
 20
205.1022202105
 30
0.0
 11
39.9474832472
 21
207.6022035518
 31
0.0
  0
LINE
  5
335
330
1F
100
AcDbEntity
  8
0
  6
Continuous
 62
     7
370
     0
100
AcDbLine
 10
93.9474832472
 20
205.1022202105
 30
0.0
 11
93.9474832472
 21
207.6022035518
 31
0.0
  0
LINE
  5
336
330
1F
100
AcDbEntity
  8
0
  6
Continuous
 62
     7
370
     0
100
AcDbLine
 10
39.9474832472
 20
208.3093099883
 30
0.0
 11
93.9474832472
 21
208.3093099883
 31
0.0
  0
LINE
  5
337
330
1F
100
AcDbEntity
  8
0
  6
Continuous
 62
     7
370
     0
100
AcDbLine
 10
39.9474832472
 20
208.3093099883
 30
0.0
 11
39.9474832472
 21
210.8092937741
 31
0.0
  0
LINE
  5
338
330
1F
100
AcDbEntity
  8
0
  6
Continuous
 62
     7
370
     0
100
AcDbLine
 10
93.9474832472
 20
208.3093099883
 30
0.0
 11
93.9474832472
 21
210.8092937741
 31
0.0
  0
LINE
  5
339
330
1F
100
AcDbEntity
  8
0
  6
Continuous
 62
     7
370
     0
100
AcDbLine
 10
39.9474832472
 20
207.6022035518
 30
0.0
 11
39.9474832472
 21
208.3093099883
 31
0.0
  0
LINE
  5
33A
330
1F
100
AcDbEntity
  8
0
  6
Continuous
 62
     7
370
     0
100
AcDbLine
 10
93.9474832472
 20
207.6022035518
 30
0.0
 11
93.9474832472
 21
208.3093099883
 31
0.0
  0
LINE
  5
33B
330
1F
100
AcDbEntity
  8
0
  6
Continuous
 62
     7
370
     0
100
AcDbLine
 10
95.9474832472
 20
236.9557668712
 30
0.0
 11
95.9474832472
 21
196.9557668712
 31
0.0
  0
LINE
  5
33C
330
1F
100
AcDbEntity
  8
0
  6
Continuous
 62
     7
370
     0
100
AcDbLine
 10
95.9474832472
 20
196.9557668712
 30
0.0
 11
95.4474832472
 21
196.9557668712
 31
0.0
  0
LINE
  5
33D
330
1F
100
AcDbEntity
  8
0
  6
Continuous
 62
     7
370
     0
100
AcDbLine
 10
95.4474832472
 20
196.9557668712
 30
0.0
 11
95.4474832472
 21
236.9557668712
 31
0.0
  0
LINE
  5
33E
330
1F
100
AcDbEntity
  8
0
  6
Continuous
 62
     7
370
     0
100
AcDbLine
 10
95.4474832472
 20
236.9557668712
 30
0.0
 11
95.9474832472
 21
236.9557668712
 31
0.0
  0
ARC
  5
33F
330
1F
100
AcDbEntity
  8
0
  6
Continuous
 62
     7
370
     0
100
AcDbCircle
 10
95.4474832472
 20
236.9557668712
 30
0.0
 40
0.5
100
AcDbArc
 50
0.0
 51
90.0
  0
LINE
  5
340
330
1F
100
AcDbEntity
  8
0
  6
Continuous
 62
     7
370
     0
100
AcDbLine
 10
95.4474832472
 20
237.4557668712
 30
0.0
 11
95.4474832472
 21
236.9557668712
 31
0.0
  0
LINE
  5
341
330
1F
100
AcDbEntity
  8
0
  6
Continuous
 62
     7
370
     0
100
AcDbLine
 10
37.9474832472
 20
196.9557668712
 30
0.0
 11
37.9474832472
 21
236.9557668712
 31
0.0
  0
LINE
  5
342
330
1F
100
AcDbEntity
  8
0
  6
Continuous
 62
     7
370
     0
100
AcDbLine
 10
37.9474832472
 20
236.9557668712
 30
0.0
 11
38.4474832472
 21
236.9557668712
 31
0.0
  0
LINE
  5
343
330
1F
100
AcDbEntity
  8
0
  6
Continuous
 62
     7
370
     0
100
AcDbLine
 10
38.4474832472
 20
236.9557668712
 30
0.0
 11
38.4474832472
 21
196.9557668712
 31
0.0
  0
LINE
  5
344
330
1F
100
AcDbEntity
  8
0
  6
Continuous
 62
     7
370
     0
100
AcDbLine
 10
38.4474832472
 20
196.9557668712
 30
0.0
 11
37.9474832472
 21
196.9557668712
 31
0.0
  0
LINE
  5
345
330
1F
100
AcDbEntity
  8
0
  6
Continuous
 62
     7
370
     0
100
AcDbLine
 10
95.4474832472
 20
236.9557668712
 30
0.0
 11
38.4474832472
 21
236.9557668712
 31
0.0
  0
LINE
  5
346
330
1F
100
AcDbEntity
  8
0
  6
Continuous
 62
     7
370
     0
100
AcDbLine
 10
38.4474832472
 20
196.9557668712
 30
0.0
 11
95.4474832472
 21
196.9557668712
 31
0.0
  0
LINE
  5
347
330
1F
100
AcDbEntity
  8
0
  6
Continuous
 62
     7
370
     0
100
AcDbLine
 10
38.4474832472
 20
237.4557668712
 30
0.0
 11
95.4474832472
 21
237.4557668712
 31
0.0
  0
LINE
  5
348
330
1F
100
AcDbEntity
  8
0
  6
Continuous
 62
     7
370
     0
100
AcDbLine
 10
38.4474832472
 20
237.4557668712
 30
0.0
 11
38.4474832472
 21
236.9557668712
 31
0.0
  0
ARC
  5
349
330
1F
100
AcDbEntity
  8
0
  6
Continuous
 62
     7
370
     0
100
AcDbCircle
 10
38.4474832472
 20
236.9557668712
 30
0.0
 40
0.5
100
AcDbArc
 50
90.0
 51
180.0
  0
ARC
  5
34A
330
1F
100
AcDbEntity
  8
0
  6
Continuous
 62
     7
370
     0
100
AcDbCircle
 10
95.4474832472
 20
196.9557668712
 30
0.0
 40
0.5
100
AcDbArc
 50
270.0
 51
0.0
  0
LINE
  5
34B
330
1F
100
AcDbEntity
  8
0
  6
Continuous
 62
     7
370
     0
100
AcDbLine
 10
95.4474832472
 20
196.9557668712
 30
0.0
 11
95.4474832472
 21
196.4557668712
 31
0.0
  0
ARC
  5
34C
330
1F
100
AcDbEntity
  8
0
  6
Continuous
 62
     7
370
     0
100
AcDbCircle
 10
38.4474832472
 20
196.9557668712
 30
0.0
 40
0.5
100
AcDbArc
 50
180.0
 51
270.0
  0
LINE
  5
34D
330
1F
100
AcDbEntity
  8
0
  6
Continuous
 62
     7
370
     0
100
AcDbLine
 10
38.4474832472
 20
196.9557668712
 30
0.0
 11
38.4474832472
 21
196.4557668712
 31
0.0
  0
LINE
  5
34E
330
1F
100
AcDbEntity
  8
0
  6
Continuous
 62
     7
370
     0
100
AcDbLine
 10
95.4474832472
 20
196.4557668712
 30
0.0
 11
38.4474832472
 21
196.4557668712
 31
0.0
  0
ARC
  5
34F
330
1F
100
AcDbEntity
  8
0
  6
Continuous
 62
     7
370
     0
100
AcDbCircle
 10
68.808207822
 20
237.9492854329
 30
0.0
 40
0.493562808802779
100
AcDbArc
 50
270.7720990793
 51
0.7523936163
  0
LINE
  5
350
330
1F
100
AcDbEntity
  8
0
  6
Continuous
 62
     7
370
     0
100
AcDbLine
 10
69.3017291001
 20
237.9557668712
 30
0.0
 11
72.1006950772
 21
237.9557668712
 31
0.0
  0
ARC
  5
351
330
1F
100
AcDbEntity
  8
0
  6
Continuous
 62
     7
370
     0
100
AcDbCircle
 10
72.5753805613
 20
237.9302775701
 30
0.0
 40
0.4753692669754514
100
AcDbArc
 50
176.9263603057
 51
266.5547715327
  0
LINE
  5
352
330
1F
100
AcDbEntity
  8
0
  6
Continuous
 62
     7
370
     0
100
AcDbLine
 10
61.7942714172
 20
237.9557668712
 30
0.0
 11
64.5932373942
 21
237.9557668712
 31
0.0
  0
ARC
  5
353
330
1F
100
AcDbEntity
  8
0
  6
Continuous
 62
     7
370
     0
100
AcDbCircle
 10
65.0867608913
 20
237.94928916
 30
0.0
 40
0.4935665871120291
100
AcDbArc
 50
179.2480448367
 51
269.2274624674
  0
ARC
  5
354
330
1F
100
AcDbEntity
  8
0
  6
Continuous
 62
     7
370
     0
100
AcDbCircle
 10
61.3195884664
 20
237.9302738745
 30
0.0
 40
0.4753653291561802
100
AcDbArc
 50
273.4447569082
 51
3.0741112533
  0
ARC
  5
355
330
1F
100
AcDbEntity
  8
0
  6
Continuous
 62
     7
370
     0
100
AcDbCircle
 10
65.0867608913
 20
195.9622445823
 30
0.0
 40
0.4935665871120006
100
AcDbArc
 50
90.7725375326
 51
180.7519551631
  0
LINE
  5
356
330
1F
100
AcDbEntity
  8
0
  6
Continuous
 62
     7
370
     0
100
AcDbLine
 10
64.5932373942
 20
195.9557668712
 30
0.0
 11
61.7942714172
 21
195.9557668712
 31
0.0
  0
ARC
  5
357
330
1F
100
AcDbEntity
  8
0
  6
Continuous
 62
     7
370
     0
100
AcDbCircle
 10
61.3195884664
 20
195.9812598678
 30
0.0
 40
0.4753653291561802
100
AcDbArc
 50
356.9258887467
 51
86.5552430918
  0
LINE
  5
358
330
1F
100
AcDbEntity
  8
0
  6
Continuous
 62
     7
370
     0
100
AcDbLine
 10
72.1006950772
 20
195.9557668712
 30
0.0
 11
69.3017291001
 21
195.9557668712
 31
0.0
  0
ARC
  5
359
330
1F
100
AcDbEntity
  8
0
  6
Continuous
 62
     7
370
     0
100
AcDbCircle
 10
68.808207822
 20
195.9622483094
 30
0.0
 40
0.4935628088027932
100
AcDbArc
 50
359.2476063837
 51
89.2279009207
  0
ARC
  5
35A
330
1F
100
AcDbEntity
  8
0
  6
Continuous
 62
     7
370
     0
100
AcDbCircle
 10
72.5753805613
 20
195.9812561722
 30
0.0
 40
0.4753692669754514
100
AcDbArc
 50
93.4452284673
 51
183.0736396943
  0
LWPOLYLINE
  5
35B
330
1F
100
AcDbEntity
  8
0
  6
Continuous
 62
     7
370
     0
100
AcDbPolyline
 90
        9
 70
   128
 43
0.0
 10
88.257566011
 20
237.4557674374
 10
88.2059111357
 20
237.4653749611
 10
88.1562455655
 20
237.4938268657
 10
88.1104617477
 20
237.5400316413
 10
88.0703403712
 20
237.602214187
 10
88.0374162555
 20
237.6779810037
 10
88.0129410983
 20
237.7644245024
 10
87.9978760243
 20
237.8582217242
 10
87.9927872777
 20
237.955766588
  0
LWPOLYLINE
  5
35C
330
1F
100
AcDbEntity
  8
0
  6
Continuous
 62
     7
370
     0
100
AcDbPolyline
 90
        9
 70
   128
 43
0.0
 10
45.9021776081
 20
237.955766588
 10
45.8970888615
 20
237.8582217242
 10
45.8820219249
 20
237.7644245024
 10
45.8575542182
 20
237.6779810037
 10
45.8246245146
 20
237.602214187
 10
45.7845012755
 20
237.5400316413
 10
45.7387249083
 20
237.4938268657
 10
45.6890537501
 20
237.4653749611
 10
45.6373970122
 20
237.4557674374
  0
LWPOLYLINE
  5
35D
330
1F
100
AcDbEntity
  8
0
  6
Continuous
 62
     7
370
     0
100
AcDbPolyline
 90
        9
 70
   128
 43
0.0
 10
87.9927872777
 20
195.9557671543
 10
87.9978760243
 20
196.0533120181
 10
88.0129410983
 20
196.1471092399
 10
88.0374162555
 20
196.2335527386
 10
88.0703403712
 20
196.3093195554
 10
88.1104617477
 20
196.371502101
 10
88.1562455655
 20
196.4177068766
 10
88.2059111357
 20
196.4461587812
 10
88.257566011
 20
196.4557663049
  0
LWPOLYLINE
  5
35E
330
1F
100
AcDbEntity
  8
0
  6
Continuous
 62
     7
370
     0
100
AcDbPolyline
 90
        9
 70
   128
 43
0.0
 10
45.6373970122
 20
196.4557663049
 10
45.6890537501
 20
196.4461587812
 10
45.7387249083
 20
196.4177068766
 10
45.7845012755
 20
196.371502101
 10
45.8246245146
 20
196.3093195554
 10
45.8575542182
 20
196.2335527386
 10
45.8820219249
 20
196.1471092399
 10
45.8970888615
 20
196.0533120181
 10
45.9021776081
 20
195.9557671543
  0
LINE
  5
35F
330
1F
100
AcDbEntity
  8
0
  6
Continuous
 62
     7
370
     0
100
AcDbLine
 10
87.9927892036
 20
237.9557668712
 30
0.0
 11
95.1827032937
 21
237.9557668712
 31
0.0
  0
LWPOLYLINE
  5
360
330
1F
100
AcDbEntity
  8
0
  6
Continuous
 62
     7
370
     0
100
AcDbPolyline
 90
        9
 70
   128
 43
0.0
 10
95.4474805952
 20
237.4557674374
 10
95.3958257199
 20
237.4653749611
 10
95.346152699
 20
237.4938268657
 10
95.3003763318
 20
237.5400316413
 10
95.2602549553
 20
237.602214187
 10
95.2273233891
 20
237.6779810037
 10
95.2028556824
 20
237.7644245024
 10
95.1877906084
 20
237.8582217242
 10
95.1827018619
 20
237.955766588
  0
LINE
  5
361
330
1F
100
AcDbEntity
  8
0
  6
Continuous
 62
     7
370
     0
100
AcDbLine
 10
45.9021772907
 20
195.9557668712
 30
0.0
 11
38.7122632006
 21
195.9557668712
 31
0.0
  0
LWPOLYLINE
  5
362
330
1F
100
AcDbEntity
  8
0
  6
Continuous
 62
     7
370
     0
100
AcDbPolyline
 90
        9
 70
   128
 43
0.0
 10
38.447482428
 20
196.4557663049
 10
38.4991391659
 20
196.4461587812
 10
38.5488103241
 20
196.4177068766
 10
38.5945866913
 20
196.371502101
 10
38.6347117931
 20
196.3093195554
 10
38.6676396341
 20
196.2335527386
 10
38.6921073407
 20
196.1471092399
 10
38.70717614
 20
196.0533120181
 10
38.7122630239
 20
195.9557671543
  0
LINE
  5
363
330
1F
100
AcDbEntity
  8
0
  6
Continuous
 62
     7
370
     0
100
AcDbLine
 10
38.7122632006
 20
237.9557668712
 30
0.0
 11
45.9021772907
 21
237.9557668712
 31
0.0
  0
LWPOLYLINE
  5
364
330
1F
100
AcDbEntity
  8
0
  6
Continuous
 62
     7
370
     0
100
AcDbPolyline
 90
        9
 70
   128
 43
0.0
 10
38.7122630239
 20
237.955766588
 10
38.70717614
 20
237.8582217242
 10
38.6921073407
 20
237.7644245024
 10
38.6676396341
 20
237.6779810037
 10
38.6347117931
 20
237.602214187
 10
38.5945866913
 20
237.5400316413
 10
38.5488103241
 20
237.4938268657
 10
38.4991391659
 20
237.4653749611
 10
38.447482428
 20
237.4557674374
  0
LINE
  5
365
330
1F
100
AcDbEntity
  8
0
  6
Continuous
 62
     7
370
     0
100
AcDbLine
 10
95.1827032937
 20
195.9557668712
 30
0.0
 11
87.9927892036
 21
195.9557668712
 31
0.0
  0
LWPOLYLINE
  5
366
330
1F
100
AcDbEntity
  8
0
  6
Continuous
 62
     7
370
     0
100
AcDbPolyline
 90
        9
 70
   128
 43
0.0
 10
95.1827018619
 20
195.9557671543
 10
95.1877906084
 20
196.0533120181
 10
95.2028556824
 20
196.1471092399
 10
95.2273233891
 20
196.2335527386
 10
95.2602549553
 20
196.3093195554
 10
95.3003763318
 20
196.371502101
 10
95.346152699
 20
196.4177068766
 10
95.3958257199
 20
196.4461587812
 10
95.4474805952
 20
196.4557663049
  0
ARC
  5
367
330
1F
100
AcDbEntity
  8
0
  6
Continuous
 62
     7
370
     0
100
AcDbCircle
 10
63.2183321142
 20
238.9322300866
 30
0.0
 40
1.426113684917185
100
AcDbArc
 50
93.4453098667
 51
183.0734705322
  0
ARC
  5
368
330
1F
100
AcDbEntity
  8
0
  6
Continuous
 62
     7
370
     0
100
AcDbCircle
 10
63.1126698259
 20
238.8752061662
 30
0.0
 40
1.480694593268157
100
AcDbArc
 50
359.2477728601
 51
89.2276633216
  0
LINE
  5
369
330
1F
100
AcDbEntity
  8
0
  6
Continuous
 62
     7
370
     0
100
AcDbLine
 10
64.5932373942
 20
238.8557668712
 30
0.0
 11
61.7942714172
 21
238.8557668712
 31
0.0
  0
ARC
  5
36A
330
1F
100
AcDbEntity
  8
0
  6
Continuous
 62
     7
370
     0
100
AcDbCircle
 10
70.6766369137
 20
238.9322337823
 30
0.0
 40
1.426109746993704
100
AcDbArc
 50
356.92637228
 51
86.5548473212
  0
LINE
  5
36B
330
1F
100
AcDbEntity
  8
0
  6
Continuous
 62
     7
370
     0
100
AcDbLine
 10
72.1006950772
 20
238.8557668712
 30
0.0
 11
69.3017291001
 21
238.8557668712
 31
0.0
  0
ARC
  5
36C
330
1F
100
AcDbEntity
  8
0
  6
Continuous
 62
     7
370
     0
100
AcDbCircle
 10
70.7822950599
 20
238.8752061662
 30
0.0
 40
1.480694593268158
100
AcDbArc
 50
90.7723366784
 51
180.7522271399
  0
LINE
  5
36D
330
1F
100
AcDbEntity
  8
0
  6
Continuous
 62
     7
370
     0
100
AcDbLine
 10
72.1006950772
 20
237.9557668712
 30
0.0
 11
72.1006950772
 21
238.8557668712
 31
0.0
  0
LINE
  5
36E
330
1F
100
AcDbEntity
  8
0
  6
Continuous
 62
     7
370
     0
100
AcDbLine
 10
69.3017291001
 20
237.9557668712
 30
0.0
 11
69.3017291001
 21
238.8557668712
 31
0.0
  0
LINE
  5
36F
330
1F
100
AcDbEntity
  8
0
  6
Continuous
 62
     7
370
     0
100
AcDbLine
 10
64.5932373942
 20
237.9557668712
 30
0.0
 11
64.5932373942
 21
238.8557668712
 31
0.0
  0
LINE
  5
370
330
1F
100
AcDbEntity
  8
0
  6
Continuous
 62
     7
370
     0
100
AcDbLine
 10
61.7942714172
 20
237.9557668712
 30
0.0
 11
61.7942714172
 21
238.8557668712
 31
0.0
  0
LINE
  5
371
330
1F
100
AcDbEntity
  8
0
  6
Continuous
 62
     7
370
     0
100
AcDbLine
 10
69.3017291001
 20
195.0557668712
 30
0.0
 11
72.1006950772
 21
195.0557668712
 31
0.0
  0
LINE
  5
372
330
1F
100
AcDbEntity
  8
0
  6
Continuous
 62
     7
370
     0
100
AcDbLine
 10
69.3017291001
 20
195.0557668712
 30
0.0
 11
69.3017291001
 21
195.9557668712
 31
0.0
  0
LINE
  5
373
330
1F
100
AcDbEntity
  8
0
  6
Continuous
 62
     7
370
     0
100
AcDbLine
 10
72.1006950772
 20
195.0557668712
 30
0.0
 11
72.1006950772
 21
195.9557668712
 31
0.0
  0
LINE
  5
374
330
1F
100
AcDbEntity
  8
0
  6
Continuous
 62
     7
370
     0
100
AcDbLine
 10
61.7942714172
 20
195.0557668712
 30
0.0
 11
64.5932373942
 21
195.0557668712
 31
0.0
  0
LINE
  5
375
330
1F
100
AcDbEntity
  8
0
  6
Continuous
 62
     7
370
     0
100
AcDbLine
 10
61.7942714172
 20
195.0557668712
 30
0.0
 11
61.7942714172
 21
195.9557668712
 31
0.0
  0
LINE
  5
376
330
1F
100
AcDbEntity
  8
0
  6
Continuous
 62
     7
370
     0
100
AcDbLine
 10
64.5932373942
 20
195.0557668712
 30
0.0
 11
64.5932373942
 21
195.9557668712
 31
0.0
  0
ARC
  5
377
330
1F
100
AcDbEntity
  8
0
  6
Continuous
 62
     7
370
     0
100
AcDbCircle
 10
70.6766369137
 20
194.97929996
 30
0.0
 40
1.426109746993704
100
AcDbArc
 50
273.4451526788
 51
3.07362772
  0
ARC
  5
378
330
1F
100
AcDbEntity
  8
0
  6
Continuous
 62
     7
370
     0
100
AcDbCircle
 10
70.7822950599
 20
195.0363275761
 30
0.0
 40
1.480694593268186
100
AcDbArc
 50
179.24777286
 51
269.2276633216
  0
ARC
  5
379
330
1F
100
AcDbEntity
  8
0
  6
Continuous
 62
     7
370
     0
100
AcDbCircle
 10
63.2183321142
 20
194.9793036557
 30
0.0
 40
1.426113684917166
100
AcDbArc
 50
176.9265294678
 51
266.5546901333
  0
ARC
  5
37A
330
1F
100
AcDbEntity
  8
0
  6
Continuous
 62
     7
370
     0
100
AcDbCircle
 10
63.1126698259
 20
195.0363275761
 30
0.0
 40
1.480694593268186
100
AcDbArc
 50
270.7723366784
 51
0.75222714
  0
ARC
  5
37B
330
1F
100
AcDbEntity
  8
0
  6
Continuous
 62
     7
370
     0
100
AcDbCircle
 10
51.0866390165
 20
237.6432684821
 30
0.0
 40
0.1880558353744012
100
AcDbArc
 50
274.4021579359
 51
3.8108159692
  0
LINE
  5
37C
330
1F
100
AcDbEntity
  8
0
  6
Continuous
 62
     7
370
     0
100
AcDbLine
 10
51.2742781664
 20
237.6557668712
 30
0.0
 11
51.6206883279
 21
237.6557668712
 31
0.0
  0
ARC
  5
37D
330
1F
100
AcDbEntity
  8
0
  6
Continuous
 62
     7
370
     0
100
AcDbCircle
 10
51.8083263667
 20
237.6432667266
 30
0.0
 40
0.1880540843232867
100
AcDbArc
 50
176.1886124414
 51
265.5978038134
  0
ARC
  5
37E
330
1F
100
AcDbEntity
  8
0
  6
Continuous
 62
     7
370
     0
100
AcDbCircle
 10
82.0866425936
 20
237.643263198
 30
0.0
 40
0.1880502534264006
100
AcDbArc
 50
274.4010409388
 51
3.8125428064
  0
LINE
  5
37F
330
1F
100
AcDbEntity
  8
0
  6
Continuous
 62
     7
370
     0
100
AcDbLine
 10
82.2742781664
 20
237.6557668712
 30
0.0
 11
82.6206883279
 21
237.6557668712
 31
0.0
  0
ARC
  5
380
330
1F
100
AcDbEntity
  8
0
  6
Continuous
 62
     7
370
     0
100
AcDbCircle
 10
82.8083253413
 20
237.6432665462
 30
0.0
 40
0.1880535787063062
100
AcDbArc
 50
176.1885470822
 51
265.599088847
  0
ARC
  5
381
330
1F
100
AcDbEntity
  8
0
  6
Continuous
 62
     7
370
     0
100
AcDbCircle
 10
51.8083263667
 20
196.2682670157
 30
0.0
 40
0.1880540843232867
100
AcDbArc
 50
94.4021961866
 51
183.8113875586
  0
LINE
  5
382
330
1F
100
AcDbEntity
  8
0
  6
Continuous
 62
     7
370
     0
100
AcDbLine
 10
51.6206883279
 20
196.2557668712
 30
0.0
 11
51.2742781664
 21
196.2557668712
 31
0.0
  0
ARC
  5
383
330
1F
100
AcDbEntity
  8
0
  6
Continuous
 62
     7
370
     0
100
AcDbCircle
 10
51.0866390165
 20
196.2682652602
 30
0.0
 40
0.1880558353744154
100
AcDbArc
 50
356.1891840308
 51
85.5978420641
  0
ARC
  5
384
330
1F
100
AcDbEntity
  8
0
  6
Continuous
 62
     7
370
     0
100
AcDbCircle
 10
82.8083253413
 20
196.2682671962
 30
0.0
 40
0.1880535787063045
100
AcDbArc
 50
94.400911153
 51
183.8114529178
  0
LINE
  5
385
330
1F
100
AcDbEntity
  8
0
  6
Continuous
 62
     7
370
     0
100
AcDbLine
 10
82.6206883279
 20
196.2557668712
 30
0.0
 11
82.2742781664
 21
196.2557668712
 31
0.0
  0
ARC
  5
386
330
1F
100
AcDbEntity
  8
0
  6
Continuous
 62
     7
370
     0
100
AcDbCircle
 10
82.0866425936
 20
196.2682705443
 30
0.0
 40
0.1880502534263916
100
AcDbArc
 50
356.1874571936
 51
85.5989590613
  0
LINE
  5
387
330
1F
100
AcDbEntity
  8
0
  6
Continuous
 62
     7
370
     0
100
AcDbLine
 10
45.9021772907
 20
237.9557668712
 30
0.0
 11
45.9021772907
 21
238.8557668712
 31
0.0
  0
LINE
  5
388
330
1F
100
AcDbEntity
  8
0
  6
Continuous
 62
     7
370
     0
100
AcDbLine
 10
87.9927892036
 20
237.9557668712
 30
0.0
 11
87.9927892036
 21
238.8557668712
 31
0.0
  0
LINE
  5
389
330
1F
100
AcDbEntity
  8
0
  6
Continuous
 62
     7
370
     0
100
AcDbLine
 10
45.9021772907
 20
195.0557668712
 30
0.0
 11
45.9021772907
 21
195.9557668712
 31
0.0
  0
LINE
  5
38A
330
1F
100
AcDbEntity
  8
0
  6
Continuous
 62
     7
370
     0
100
AcDbLine
 10
87.9927892036
 20
195.0557668712
 30
0.0
 11
87.9927892036
 21
195.9557668712
 31
0.0
  0
ELLIPSE
  5
38B
330
1F
100
AcDbEntity
  8
0
  6
Continuous
 62
     7
370
     0
100
AcDbEllipse
 10
42.2735321387
 20
238.8557668712
 30
0.0
 11
3.628645148316067
 21
-2.842170943040401E-14
 31
0.0
210
0.0
220
0.0
230
1.0
 40
0.4133774284
 41
0.0
 42
1.570796326794892
  0
ELLIPSE
  5
38C
330
1F
100
AcDbEntity
  8
0
  6
Continuous
 62
     7
370
     0
100
AcDbEllipse
 10
91.6214343556
 20
195.0557668712
 30
0.0
 11
3.628645148316067
 21
0.0
 31
0.0
210
0.0
220
0.0
230
1.0
 40
0.4133774284
 41
3.141592653589846
 42
4.712388980384688
  0
ELLIPSE
  5
38D
330
1F
100
AcDbEntity
  8
0
  6
Continuous
 62
     7
370
     0
100
AcDbEllipse
 10
91.6214343556
 20
238.8557668712
 30
0.0
 11
3.628645148316067
 21
2.842170943040401E-14
 31
0.0
210
0.0
220
0.0
230
1.0
 40
0.4133774284
 41
1.570796326794893
 42
3.141592653589775
  0
ELLIPSE
  5
38E
330
1F
100
AcDbEntity
  8
0
  6
Continuous
 62
     7
370
     0
100
AcDbEllipse
 10
42.2735321387
 20
195.0557668712
 30
0.0
 11
3.628645148316067
 21
-2.842170943040401E-14
 31
0.0
210
0.0
220
0.0
230
1.0
 40
0.4133774284
 41
4.712388980384699
 42
6.283185307179586
  0
LINE
  5
38F
330
1F
100
AcDbEntity
  8
0
  6
Continuous
 62
     7
370
     0
100
AcDbLine
 10
51.6206883279
 20
237.6557668712
 30
0.0
 11
55.0242781664
 21
237.6557668712
 31
0.0
  0
ARC
  5
390
330
1F
100
AcDbEntity
  8
0
  6
Continuous
 62
     7
370
     0
100
AcDbCircle
 10
55.2119149774
 20
237.6432665462
 30
0.0
 40
0.1880535787063051
100
AcDbArc
 50
176.1885470822
 51
265.599088847
  0
LINE
  5
391
330
1F
100
AcDbEntity
  8
0
  6
Continuous
 62
     7
370
     0
100
AcDbLine
 10
51.2742781664
 20
237.6557668712
 30
0.0
 11
51.2742781664
 21
237.7557668712
 31
0.0
  0
LINE
  5
392
330
1F
100
AcDbEntity
  8
0
  6
Continuous
 62
     7
370
     0
100
AcDbLine
 10
51.2742781664
 20
237.7557668712
 30
0.0
 11
51.6206883279
 21
237.7557668712
 31
0.0
  0
LINE
  5
393
330
1F
100
AcDbEntity
  8
0
  6
Continuous
 62
     7
370
     0
100
AcDbLine
 10
51.6206883279
 20
237.7557668712
 30
0.0
 11
51.6206883279
 21
237.6557668712
 31
0.0
  0
LINE
  5
394
330
1F
100
AcDbEntity
  8
0
  6
Continuous
 62
     7
370
     0
100
AcDbLine
 10
47.8706883279
 20
237.6557668712
 30
0.0
 11
51.2742781664
 21
237.6557668712
 31
0.0
  0
ARC
  5
395
330
1F
100
AcDbEntity
  8
0
  6
Continuous
 62
     7
370
     0
100
AcDbCircle
 10
47.6830510081
 20
237.6432658981
 30
0.0
 40
0.1880530300091196
100
AcDbArc
 50
274.4013119707
 51
3.8116619345
  0
LINE
  5
396
330
1F
100
AcDbEntity
  8
0
  6
Continuous
 62
     7
370
     0
100
AcDbLine
 10
78.8706883279
 20
237.6557668712
 30
0.0
 11
82.2742781664
 21
237.6557668712
 31
0.0
  0
ARC
  5
397
330
1F
100
AcDbEntity
  8
0
  6
Continuous
 62
     7
370
     0
100
AcDbCircle
 10
78.6830493896
 20
237.6432667266
 30
0.0
 40
0.1880540843232856
100
AcDbArc
 50
274.4021961866
 51
3.8113875586
  0
LINE
  5
398
330
1F
100
AcDbEntity
  8
0
  6
Continuous
 62
     7
370
     0
100
AcDbLine
 10
82.6206883279
 20
237.6557668712
 30
0.0
 11
86.0242781664
 21
237.6557668712
 31
0.0
  0
ARC
  5
399
330
1F
100
AcDbEntity
  8
0
  6
Continuous
 62
     7
370
     0
100
AcDbCircle
 10
86.2119192523
 20
237.6432704182
 30
0.0
 40
0.1880580922977627
100
AcDbArc
 50
176.1898210139
 51
265.5965952409
  0
ARC
  5
39A
330
1F
100
AcDbEntity
  8
0
  6
Continuous
 62
     7
370
     0
100
AcDbCircle
 10
82.4619185844
 20
237.7682637877
 30
0.0
 40
0.1880575865502495
100
AcDbArc
 50
94.4021197179
 51
183.8102443529
  0
ARC
  5
39B
330
1F
100
AcDbEntity
  8
0
  6
Continuous
 62
     7
370
     0
100
AcDbCircle
 10
82.4330495387
 20
237.7682672988
 30
0.0
 40
0.1880540843232867
100
AcDbArc
 50
356.1886124414
 51
85.5978038134
  0
LINE
  5
39C
330
1F
100
AcDbEntity
  8
0
  6
Continuous
 62
     7
370
     0
100
AcDbLine
 10
82.2742781664
 20
237.7557668712
 30
0.0
 11
82.6206883279
 21
237.7557668712
 31
0.0
  0
ARC
  5
39D
330
1F
100
AcDbEntity
  8
0
  6
Continuous
 62
     7
370
     0
100
AcDbCircle
 10
51.4619151725
 20
237.7682690632
 30
0.0
 40
0.1880521688260784
100
AcDbArc
 50
94.4016185567
 51
183.8119651885
  0
ARC
  5
39E
330
1F
100
AcDbEntity
  8
0
  6
Continuous
 62
     7
370
     0
100
AcDbCircle
 10
51.4330511571
 20
237.7682681273
 30
0.0
 40
0.1880530300091215
100
AcDbArc
 50
356.1883380655
 51
85.5986880293
  0
LINE
  5
39F
330
1F
100
AcDbEntity
  8
0
  6
Continuous
 62
     7
370
     0
100
AcDbLine
 10
82.2742781664
 20
237.6557668712
 30
0.0
 11
82.2742781664
 21
237.7557668712
 31
0.0
  0
LINE
  5
3A0
330
1F
100
AcDbEntity
  8
0
  6
Continuous
 62
     7
370
     0
100
AcDbLine
 10
82.6206883279
 20
237.7557668712
 30
0.0
 11
82.6206883279
 21
237.6557668712
 31
0.0
  0
LINE
  5
3A1
330
1F
100
AcDbEntity
  8
0
  6
Continuous
 62
     7
370
     0
100
AcDbLine
 10
51.2742781664
 20
196.2557668712
 30
0.0
 11
47.8706883279
 21
196.2557668712
 31
0.0
  0
ARC
  5
3A2
330
1F
100
AcDbEntity
  8
0
  6
Continuous
 62
     7
370
     0
100
AcDbCircle
 10
47.6830510081
 20
196.2682678442
 30
0.0
 40
0.1880530300091215
100
AcDbArc
 50
356.1883380655
 51
85.5986880293
  0
LINE
  5
3A3
330
1F
100
AcDbEntity
  8
0
  6
Continuous
 62
     7
370
     0
100
AcDbLine
 10
82.2742781664
 20
196.2557668712
 30
0.0
 11
78.8706883279
 21
196.2557668712
 31
0.0
  0
ARC
  5
3A4
330
1F
100
AcDbEntity
  8
0
  6
Continuous
 62
     7
370
     0
100
AcDbCircle
 10
78.6830493896
 20
196.2682670157
 30
0.0
 40
0.1880540843232789
100
AcDbArc
 50
356.1886124415
 51
85.5978038134
  0
LINE
  5
3A5
330
1F
100
AcDbEntity
  8
0
  6
Continuous
 62
     7
370
     0
100
AcDbLine
 10
51.6206883279
 20
196.2557668712
 30
0.0
 11
51.6206883279
 21
196.1557668712
 31
0.0
  0
LINE
  5
3A6
330
1F
100
AcDbEntity
  8
0
  6
Continuous
 62
     7
370
     0
100
AcDbLine
 10
51.6206883279
 20
196.1557668712
 30
0.0
 11
51.2742781664
 21
196.1557668712
 31
0.0
  0
LINE
  5
3A7
330
1F
100
AcDbEntity
  8
0
  6
Continuous
 62
     7
370
     0
100
AcDbLine
 10
51.2742781664
 20
196.1557668712
 30
0.0
 11
51.2742781664
 21
196.2557668712
 31
0.0
  0
LINE
  5
3A8
330
1F
100
AcDbEntity
  8
0
  6
Continuous
 62
     7
370
     0
100
AcDbLine
 10
55.0242781664
 20
196.2557668712
 30
0.0
 11
51.6206883279
 21
196.2557668712
 31
0.0
  0
ARC
  5
3A9
330
1F
100
AcDbEntity
  8
0
  6
Continuous
 62
     7
370
     0
100
AcDbCircle
 10
55.2119149774
 20
196.2682671962
 30
0.0
 40
0.1880535787062884
100
AcDbArc
 50
94.400911153
 51
183.8114529178
  0
ARC
  5
3AA
330
1F
100
AcDbEntity
  8
0
  6
Continuous
 62
     7
370
     0
100
AcDbCircle
 10
51.4619151725
 20
196.1432646791
 30
0.0
 40
0.1880521688260784
100
AcDbArc
 50
176.1880348115
 51
265.5983814433
  0
ARC
  5
3AB
330
1F
100
AcDbEntity
  8
0
  6
Continuous
 62
     7
370
     0
100
AcDbCircle
 10
51.4330511571
 20
196.143265615
 30
0.0
 40
0.1880530300091196
100
AcDbArc
 50
274.4013119707
 51
3.8116619345
  0
LINE
  5
3AC
330
1F
100
AcDbEntity
  8
0
  6
Continuous
 62
     7
370
     0
100
AcDbLine
 10
86.0242781664
 20
196.2557668712
 30
0.0
 11
82.6206883279
 21
196.2557668712
 31
0.0
  0
ARC
  5
3AD
330
1F
100
AcDbEntity
  8
0
  6
Continuous
 62
     7
370
     0
100
AcDbCircle
 10
86.2119192523
 20
196.2682633241
 30
0.0
 40
0.1880580922977627
100
AcDbArc
 50
94.4034047591
 51
183.8101789861
  0
LINE
  5
3AE
330
1F
100
AcDbEntity
  8
0
  6
Continuous
 62
     7
370
     0
100
AcDbLine
 10
82.6206883279
 20
196.2557668712
 30
0.0
 11
82.6206883279
 21
196.1557668712
 31
0.0
  0
LINE
  5
3AF
330
1F
100
AcDbEntity
  8
0
  6
Continuous
 62
     7
370
     0
100
AcDbLine
 10
82.6206883279
 20
196.1557668712
 30
0.0
 11
82.2742781664
 21
196.1557668712
 31
0.0
  0
LINE
  5
3B0
330
1F
100
AcDbEntity
  8
0
  6
Continuous
 62
     7
370
     0
100
AcDbLine
 10
82.2742781664
 20
196.1557668712
 30
0.0
 11
82.2742781664
 21
196.2557668712
 31
0.0
  0
ARC
  5
3B1
330
1F
100
AcDbEntity
  8
0
  6
Continuous
 62
     7
370
     0
100
AcDbCircle
 10
82.4619185844
 20
196.1432699546
 30
0.0
 40
0.1880575865502495
100
AcDbArc
 50
176.1897556471
 51
265.5978802821
  0
ARC
  5
3B2
330
1F
100
AcDbEntity
  8
0
  6
Continuous
 62
     7
370
     0
100
AcDbCircle
 10
82.4330495387
 20
196.1432664435
 30
0.0
 40
0.1880540843232856
100
AcDbArc
 50
274.4021961866
 51
3.8113875586
  0
LINE
  5
3B3
330
1F
100
AcDbEntity
  8
0
  6
Continuous
 62
     7
370
     0
100
AcDbLine
 10
91.6214360953
 20
240.3557662364
 30
0.0
 11
95.7589670182
 21
240.3557662364
 31
0.0
  0
ELLIPSE
  5
3B4
330
1F
100
AcDbEntity
  8
0
  6
Continuous
 62
     7
370
     0
100
AcDbEllipse
 10
95.7589679411
 20
238.8557668712
 30
0.0
 11
-1.421085471520200E-14
 21
1.5
 31
0.0
210
0.0
220
0.0
230
1.0
 40
0.9195088507
 41
4.712388980384675
 42
6.283185307179586
  0
LINE
  5
3B5
330
1F
100
AcDbEntity
  8
0
  6
Continuous
 62
     7
370
     0
100
AcDbLine
 10
97.1382333994
 20
238.8557669218
 30
0.0
 11
87.9927892036
 21
238.8557668712
 31
0.0
  0
LINE
  5
3B6
330
1F
100
AcDbEntity
  8
0
  6
Continuous
 62
     7
370
     0
100
AcDbLine
 10
38.1359978676
 20
240.3557662364
 30
0.0
 11
42.2735325158
 21
240.3557662364
 31
0.0
  0
LINE
  5
3B7
330
1F
100
AcDbEntity
  8
0
  6
Continuous
 62
     7
370
     0
100
AcDbLine
 10
45.9021772907
 20
238.8557668712
 30
0.0
 11
36.7567352117
 21
238.8557669218
 31
0.0
  0
ELLIPSE
  5
3B8
330
1F
100
AcDbEntity
  8
0
  6
Continuous
 62
     7
370
     0
100
AcDbEllipse
 10
38.1359985532
 20
238.8557668712
 30
0.0
 11
2.131628207280301E-14
 21
1.5
 31
0.0
210
0.0
220
0.0
230
1.0
 40
0.9195088507
 41
0.0
 42
1.570796326794929
  0
LINE
  5
3B9
330
1F
100
AcDbEntity
  8
0
  6
Continuous
 62
     7
370
     0
100
AcDbLine
 10
96.1827032937
 20
236.9557668712
 30
0.0
 11
96.1827032937
 21
196.9557668712
 31
0.0
  0
ARC
  5
3BA
330
1F
100
AcDbEntity
  8
0
  6
Continuous
 62
     7
370
     0
100
AcDbCircle
 10
95.1827032937
 20
236.9557668712
 30
0.0
 40
1.0
100
AcDbArc
 50
0.0
 51
90.0
  0
LINE
  5
3BB
330
1F
100
AcDbEntity
  8
0
  6
Continuous
 62
     7
370
     0
100
AcDbLine
 10
97.1382333994
 20
195.0557668205
 30
0.0
 11
97.1382333994
 21
238.8557669218
 31
0.0
  0
LINE
  5
3BC
330
1F
100
AcDbEntity
  8
0
  6
Continuous
 62
     7
370
     0
100
AcDbLine
 10
87.9927892036
 20
195.0557668712
 30
0.0
 11
97.1382333994
 21
195.0557668205
 31
0.0
  0
ARC
  5
3BD
330
1F
100
AcDbEntity
  8
0
  6
Continuous
 62
     7
370
     0
100
AcDbCircle
 10
95.1827032937
 20
196.9557668712
 30
0.0
 40
1.0
100
AcDbArc
 50
270.0
 51
0.0
  0
LINE
  5
3BE
330
1F
100
AcDbEntity
  8
0
  6
Continuous
 62
     7
370
     0
100
AcDbLine
 10
36.7567352117
 20
195.0557668205
 30
0.0
 11
45.9021772907
 21
195.0557668712
 31
0.0
  0
LINE
  5
3BF
330
1F
100
AcDbEntity
  8
0
  6
Continuous
 62
     7
370
     0
100
AcDbLine
 10
36.7567352117
 20
195.0557668205
 30
0.0
 11
36.7567352117
 21
238.8557669218
 31
0.0
  0
ARC
  5
3C0
330
1F
100
AcDbEntity
  8
0
  6
Continuous
 62
     7
370
     0
100
AcDbCircle
 10
38.7122632006
 20
236.9557668712
 30
0.0
 40
1.0
100
AcDbArc
 50
90.0
 51
180.0
  0
LINE
  5
3C1
330
1F
100
AcDbEntity
  8
0
  6
Continuous
 62
     7
370
     0
100
AcDbLine
 10
37.7122632006
 20
196.9557668712
 30
0.0
 11
37.7122632006
 21
236.9557668712
 31
0.0
  0
ARC
  5
3C2
330
1F
100
AcDbEntity
  8
0
  6
Continuous
 62
     7
370
     0
100
AcDbCircle
 10
38.7122632006
 20
196.9557668712
 30
0.0
 40
1.0
100
AcDbArc
 50
180.0
 51
270.0
  0
LINE
  5
3C3
330
1F
100
AcDbEntity
  8
0
  6
Continuous
 62
     7
370
     0
100
AcDbLine
 10
95.7589670182
 20
193.555767506
 30
0.0
 11
91.6214360953
 21
193.555767506
 31
0.0
  0
ELLIPSE
  5
3C4
330
1F
100
AcDbEntity
  8
0
  6
Continuous
 62
     7
370
     0
100
AcDbEllipse
 10
95.7589679411
 20
195.0557668712
 30
0.0
 11
-1.421085471520200E-14
 21
1.5
 31
0.0
210
0.0
220
0.0
230
1.0
 40
0.9195088507
 41
3.141592653589773
 42
4.712388980384693
  0
LINE
  5
3C5
330
1F
100
AcDbEntity
  8
0
  6
Continuous
 62
     7
370
     0
100
AcDbLine
 10
42.2735325158
 20
193.555767506
 30
0.0
 11
38.1359978676
 21
193.555767506
 31
0.0
  0
ELLIPSE
  5
3C6
330
1F
100
AcDbEntity
  8
0
  6
Continuous
 62
     7
370
     0
100
AcDbEllipse
 10
38.1359985532
 20
195.0557668712
 30
0.0
 11
1.421085471520200E-14
 21
1.5
 31
0.0
210
0.0
220
0.0
230
1.0
 40
0.9195088507
 41
1.570796326794905
 42
3.141592653589813
  0
LINE
  5
3C7
330
1F
100
AcDbEntity
  8
0
  6
Continuous
 62
     7
370
     0
100
AcDbLine
 10
55.0242781664
 20
237.7557668712
 30
0.0
 11
51.6206883279
 21
237.7557668712
 31
0.0
  0
LINE
  5
3C8
330
1F
100
AcDbEntity
  8
0
  6
Continuous
 62
     7
370
     0
100
AcDbLine
 10
51.4474832472
 20
237.9557668712
 30
0.0
 11
54.8510730856
 21
237.9557668712
 31
0.0
  0
ARC
  5
3C9
330
1F
100
AcDbEntity
  8
0
  6
Continuous
 62
     7
370
     0
100
AcDbCircle
 10
54.8366391747
 20
237.7682672988
 30
0.0
 40
0.1880540843232789
100
AcDbArc
 50
356.1886124415
 51
85.5978038134
  0
LINE
  5
3CA
330
1F
100
AcDbEntity
  8
0
  6
Continuous
 62
     7
370
     0
100
AcDbLine
 10
55.0242781664
 20
237.6557668712
 30
0.0
 11
55.0242781664
 21
237.7557668712
 31
0.0
  0
LINE
  5
3CB
330
1F
100
AcDbEntity
  8
0
  6
Continuous
 62
     7
370
     0
100
AcDbLine
 10
78.8706883279
 20
237.7557668712
 30
0.0
 11
78.8706883279
 21
237.6557668712
 31
0.0
  0
LINE
  5
3CC
330
1F
100
AcDbEntity
  8
0
  6
Continuous
 62
     7
370
     0
100
AcDbLine
 10
82.2742781664
 20
237.7557668712
 30
0.0
 11
78.8706883279
 21
237.7557668712
 31
0.0
  0
LINE
  5
3CD
330
1F
100
AcDbEntity
  8
0
  6
Continuous
 62
     7
370
     0
100
AcDbLine
 10
86.0242781664
 20
237.6557668712
 30
0.0
 11
86.0242781664
 21
237.7557668712
 31
0.0
  0
LINE
  5
3CE
330
1F
100
AcDbEntity
  8
0
  6
Continuous
 62
     7
370
     0
100
AcDbLine
 10
86.0242781664
 20
237.7557668712
 30
0.0
 11
82.6206883279
 21
237.7557668712
 31
0.0
  0
LINE
  5
3CF
330
1F
100
AcDbEntity
  8
0
  6
Continuous
 62
     7
370
     0
100
AcDbLine
 10
82.4474832472
 20
237.9557668712
 30
0.0
 11
85.8510730856
 21
237.9557668712
 31
0.0
  0
ARC
  5
3D0
330
1F
100
AcDbEntity
  8
0
  6
Continuous
 62
     7
370
     0
100
AcDbCircle
 10
85.8366429303
 20
237.76827099
 30
0.0
 40
0.1880500769129044
100
AcDbArc
 50
356.1874039623
 51
85.5990122925
  0
LINE
  5
3D1
330
1F
100
AcDbEntity
  8
0
  6
Continuous
 62
     7
370
     0
100
AcDbLine
 10
51.2742781664
 20
237.7557668712
 30
0.0
 11
47.8706883279
 21
237.7557668712
 31
0.0
  0
ARC
  5
3D2
330
1F
100
AcDbEntity
  8
0
  6
Continuous
 62
     7
370
     0
100
AcDbCircle
 10
48.0583259583
 20
237.7682673891
 30
0.0
 40
0.1880538314903257
100
AcDbArc
 50
94.4015536633
 51
183.8114202419
  0
LINE
  5
3D3
330
1F
100
AcDbEntity
  8
0
  6
Continuous
 62
     7
370
     0
100
AcDbLine
 10
48.0438934087
 20
237.9557668712
 30
0.0
 11
51.4474832472
 21
237.9557668712
 31
0.0
  0
ARC
  5
3D4
330
1F
100
AcDbEntity
  8
0
  6
Continuous
 62
     7
370
     0
100
AcDbCircle
 10
79.0583251923
 20
237.7682674793
 30
0.0
 40
0.1880535787063026
100
AcDbArc
 50
94.400911153
 51
183.8114529178
  0
LINE
  5
3D5
330
1F
100
AcDbEntity
  8
0
  6
Continuous
 62
     7
370
     0
100
AcDbLine
 10
79.0438934087
 20
237.9557668712
 30
0.0
 11
82.4474832472
 21
237.9557668712
 31
0.0
  0
LINE
  5
3D6
330
1F
100
AcDbEntity
  8
0
  6
Continuous
 62
     7
370
     0
100
AcDbLine
 10
47.8706883279
 20
237.7557668712
 30
0.0
 11
47.8706883279
 21
237.6557668712
 31
0.0
  0
LINE
  5
3D7
330
1F
100
AcDbEntity
  8
0
  6
Continuous
 62
     7
370
     0
100
AcDbLine
 10
55.0242781664
 20
196.1557668712
 30
0.0
 11
55.0242781664
 21
196.2557668712
 31
0.0
  0
LINE
  5
3D8
330
1F
100
AcDbEntity
  8
0
  6
Continuous
 62
     7
370
     0
100
AcDbLine
 10
51.6206883279
 20
196.1557668712
 30
0.0
 11
55.0242781664
 21
196.1557668712
 31
0.0
  0
LINE
  5
3D9
330
1F
100
AcDbEntity
  8
0
  6
Continuous
 62
     7
370
     0
100
AcDbLine
 10
54.8510730856
 20
195.9557668712
 30
0.0
 11
51.4474832472
 21
195.9557668712
 31
0.0
  0
ARC
  5
3DA
330
1F
100
AcDbEntity
  8
0
  6
Continuous
 62
     7
370
     0
100
AcDbCircle
 10
54.8366391747
 20
196.1432664435
 30
0.0
 40
0.1880540843232872
100
AcDbArc
 50
274.4021961866
 51
3.8113875586
  0
LINE
  5
3DB
330
1F
100
AcDbEntity
  8
0
  6
Continuous
 62
     7
370
     0
100
AcDbLine
 10
86.0242781664
 20
196.1557668712
 30
0.0
 11
86.0242781664
 21
196.2557668712
 31
0.0
  0
LINE
  5
3DC
330
1F
100
AcDbEntity
  8
0
  6
Continuous
 62
     7
370
     0
100
AcDbLine
 10
82.6206883279
 20
196.1557668712
 30
0.0
 11
86.0242781664
 21
196.1557668712
 31
0.0
  0
LINE
  5
3DD
330
1F
100
AcDbEntity
  8
0
  6
Continuous
 62
     7
370
     0
100
AcDbLine
 10
78.8706883279
 20
196.1557668712
 30
0.0
 11
82.2742781664
 21
196.1557668712
 31
0.0
  0
LINE
  5
3DE
330
1F
100
AcDbEntity
  8
0
  6
Continuous
 62
     7
370
     0
100
AcDbLine
 10
78.8706883279
 20
196.2557668712
 30
0.0
 11
78.8706883279
 21
196.1557668712
 31
0.0
  0
LINE
  5
3DF
330
1F
100
AcDbEntity
  8
0
  6
Continuous
 62
     7
370
     0
100
AcDbLine
 10
82.4474832472
 20
195.9557668712
 30
0.0
 11
79.0438934087
 21
195.9557668712
 31
0.0
  0
ARC
  5
3E0
330
1F
100
AcDbEntity
  8
0
  6
Continuous
 62
     7
370
     0
100
AcDbCircle
 10
79.0583251923
 20
196.143266263
 30
0.0
 40
0.1880535787063062
100
AcDbArc
 50
176.1885470822
 51
265.599088847
  0
LINE
  5
3E1
330
1F
100
AcDbEntity
  8
0
  6
Continuous
 62
     7
370
     0
100
AcDbLine
 10
85.8510730856
 20
195.9557668712
 30
0.0
 11
82.4474832472
 21
195.9557668712
 31
0.0
  0
ARC
  5
3E2
330
1F
100
AcDbEntity
  8
0
  6
Continuous
 62
     7
370
     0
100
AcDbCircle
 10
85.8366429303
 20
196.1432627523
 30
0.0
 40
0.1880500769128809
100
AcDbArc
 50
274.4009877075
 51
3.8125960376
  0
LINE
  5
3E3
330
1F
100
AcDbEntity
  8
0
  6
Continuous
 62
     7
370
     0
100
AcDbLine
 10
51.4474832472
 20
195.9557668712
 30
0.0
 11
48.0438934087
 21
195.9557668712
 31
0.0
  0
ARC
  5
3E4
330
1F
100
AcDbEntity
  8
0
  6
Continuous
 62
     7
370
     0
100
AcDbCircle
 10
48.0583259583
 20
196.1432663533
 30
0.0
 40
0.18805383149032
100
AcDbArc
 50
176.1885797581
 51
265.5984463367
  0
LINE
  5
3E5
330
1F
100
AcDbEntity
  8
0
  6
Continuous
 62
     7
370
     0
100
AcDbLine
 10
47.8706883279
 20
196.1557668712
 30
0.0
 11
51.2742781664
 21
196.1557668712
 31
0.0
  0
LINE
  5
3E6
330
1F
100
AcDbEntity
  8
0
  6
Continuous
 62
     7
370
     0
100
AcDbLine
 10
47.8706883279
 20
196.2557668712
 30
0.0
 11
47.8706883279
 21
196.1557668712
 31
0.0
  0
LINE
  5
3E7
330
1F
100
AcDbEntity
  8
0
  6
Continuous
 62
     7
370
     0
100
AcDbLine
 10
58.396071841
 20
237.9557668712
 30
0.0
 11
61.7942714172
 21
237.9557668712
 31
0.0
  0
ARC
  5
3E8
330
1F
100
AcDbEntity
  8
0
  6
Continuous
 62
     7
370
     0
100
AcDbCircle
 10
57.9213856901
 20
237.9302775701
 30
0.0
 40
0.4753692669754514
100
AcDbArc
 50
273.4452284673
 51
3.0736396943
  0
LINE
  5
3E9
330
1F
100
AcDbEntity
  8
0
  6
Continuous
 62
     7
370
     0
100
AcDbLine
 10
75.4988946533
 20
195.9557668712
 30
0.0
 11
72.1006950772
 21
195.9557668712
 31
0.0
  0
ARC
  5
3EA
330
1F
100
AcDbEntity
  8
0
  6
Continuous
 62
     7
370
     0
100
AcDbCircle
 10
75.9735804661
 20
195.9812548258
 30
0.0
 40
0.4753704633927685
100
AcDbArc
 50
93.4449233696
 51
183.0734694414
  0
LINE
  5
3EB
330
1F
100
AcDbEntity
  8
0
  6
Continuous
 62
     7
370
     0
100
AcDbLine
 10
72.1006950772
 20
237.9557668712
 30
0.0
 11
75.4988946533
 21
237.9557668712
 31
0.0
  0
ARC
  5
3EC
330
1F
100
AcDbEntity
  8
0
  6
Continuous
 62
     7
370
     0
100
AcDbCircle
 10
75.9735804661
 20
237.9302789165
 30
0.0
 40
0.4753704633927685
100
AcDbArc
 50
176.9265305586
 51
266.5550766304
  0
LINE
  5
3ED
330
1F
100
AcDbEntity
  8
0
  6
Continuous
 62
     7
370
     0
100
AcDbLine
 10
61.7942714172
 20
195.9557668712
 30
0.0
 11
58.396071841
 21
195.9557668712
 31
0.0
  0
ARC
  5
3EE
330
1F
100
AcDbEntity
  8
0
  6
Continuous
 62
     7
370
     0
100
AcDbCircle
 10
57.9213856901
 20
195.9812561722
 30
0.0
 40
0.4753692669754514
100
AcDbArc
 50
356.9263603057
 51
86.5547715327
  0
LINE
  5
3EF
330
1F
100
AcDbEntity
  8
0
  6
Continuous
 62
     7
370
     0
100
AcDbLine
 10
61.7942714172
 20
238.8557668712
 30
0.0
 11
57.6101764203
 21
238.8557669218
 31
0.0
  0
ELLIPSE
  5
3F0
330
1F
100
AcDbEntity
  8
0
  6
Continuous
 62
     7
370
     0
100
AcDbEllipse
 10
59.0188157389
 20
238.8557668712
 30
0.0
 11
1.421085471520200E-14
 21
1.5
 31
0.0
210
0.0
220
0.0
230
1.0
 40
0.9390922611
 41
0.0
 42
1.570796326794905
  0
LINE
  5
3F1
330
1F
100
AcDbEntity
  8
0
  6
Continuous
 62
     7
370
     0
100
AcDbLine
 10
59.0188167155
 20
240.3557662364
 30
0.0
 11
63.1326303572
 21
240.3557668712
 31
0.0
  0
LINE
  5
3F2
330
1F
100
AcDbEntity
  8
0
  6
Continuous
 62
     7
370
     0
100
AcDbLine
 10
70.7623361372
 20
240.3557668712
 30
0.0
 11
74.8761518956
 21
240.3557662364
 31
0.0
  0
ELLIPSE
  5
3F3
330
1F
100
AcDbEntity
  8
0
  6
Continuous
 62
     7
370
     0
100
AcDbEllipse
 10
74.8761507555
 20
238.8557668712
 30
0.0
 11
-1.421085471520200E-14
 21
1.5
 31
0.0
210
0.0
220
0.0
230
1.0
 40
0.9390922611
 41
4.712388980384693
 42
6.283185307179586
  0
LINE
  5
3F4
330
1F
100
AcDbEntity
  8
0
  6
Continuous
 62
     7
370
     0
100
AcDbLine
 10
76.2847884655
 20
238.8557669218
 30
0.0
 11
72.1006950772
 21
238.8557668712
 31
0.0
  0
LINE
  5
3F5
330
1F
100
AcDbEntity
  8
0
  6
Continuous
 62
     7
370
     0
100
AcDbLine
 10
76.2847884655
 20
195.0557668205
 30
0.0
 11
76.2847884655
 21
196.4557663049
 31
0.0
  0
LINE
  5
3F6
330
1F
100
AcDbEntity
  8
0
  6
Continuous
 62
     7
370
     0
100
AcDbLine
 10
76.2847884655
 20
237.4557674374
 30
0.0
 11
76.2847884655
 21
238.8557669218
 31
0.0
  0
LINE
  5
3F7
330
1F
100
AcDbEntity
  8
0
  6
Continuous
 62
     7
370
     0
100
AcDbLine
 10
72.1006950772
 20
195.0557668712
 30
0.0
 11
76.2847884655
 21
195.0557668205
 31
0.0
  0
LINE
  5
3F8
330
1F
100
AcDbEntity
  8
0
  6
Continuous
 62
     7
370
     0
100
AcDbLine
 10
57.6101764203
 20
195.0557668205
 30
0.0
 11
61.7942714172
 21
195.0557668712
 31
0.0
  0
LINE
  5
3F9
330
1F
100
AcDbEntity
  8
0
  6
Continuous
 62
     7
370
     0
100
AcDbLine
 10
57.6101764203
 20
195.0557668205
 30
0.0
 11
57.6101764203
 21
196.4557663049
 31
0.0
  0
LINE
  5
3FA
330
1F
100
AcDbEntity
  8
0
  6
Continuous
 62
     7
370
     0
100
AcDbLine
 10
57.6101764203
 20
237.4557674374
 30
0.0
 11
57.6101764203
 21
238.8557669218
 31
0.0
  0
LINE
  5
3FB
330
1F
100
AcDbEntity
  8
0
  6
Continuous
 62
     7
370
     0
100
AcDbLine
 10
63.1326303572
 20
193.5557668712
 30
0.0
 11
59.0188167155
 21
193.555767506
 31
0.0
  0
ELLIPSE
  5
3FC
330
1F
100
AcDbEntity
  8
0
  6
Continuous
 62
     7
370
     0
100
AcDbEllipse
 10
59.0188157389
 20
195.0557668712
 30
0.0
 11
1.421085471520200E-14
 21
1.5
 31
0.0
210
0.0
220
0.0
230
1.0
 40
0.9390922611
 41
1.570796326794905
 42
3.141592653589823
  0
ELLIPSE
  5
3FD
330
1F
100
AcDbEntity
  8
0
  6
Continuous
 62
     7
370
     0
100
AcDbEllipse
 10
74.8761507555
 20
195.0557668712
 30
0.0
 11
-2.842170943040401E-14
 21
1.5
 31
0.0
210
0.0
220
0.0
230
1.0
 40
0.9390922611
 41
3.141592653589773
 42
4.712388980384685
  0
LINE
  5
3FE
330
1F
100
AcDbEntity
  8
0
  6
Continuous
 62
     7
370
     0
100
AcDbLine
 10
74.8761518956
 20
193.555767506
 30
0.0
 11
70.7623361372
 21
193.5557668712
 31
0.0
  0
LINE
  5
3FF
330
1F
100
AcDbEntity
  8
0
  6
Continuous
 62
     7
370
     0
100
AcDbLine
 10
64.5932373942
 20
237.9557668712
 30
0.0
 11
66.0584631777
 21
237.9557668712
 31
0.0
  0
ARC
  5
400
330
1F
100
AcDbEntity
  8
0
  6
Continuous
 62
     7
370
     0
100
AcDbCircle
 10
66.5519845187
 20
237.9492854329
 30
0.0
 40
0.493562808802807
100
AcDbArc
 50
179.2476063837
 51
269.2279009207
  0
ARC
  5
401
330
1F
100
AcDbEntity
  8
0
  6
Continuous
 62
     7
370
     0
100
AcDbCircle
 10
66.5519845187
 20
195.9622483094
 30
0.0
 40
0.4935628088028078
100
AcDbArc
 50
90.7720990793
 51
180.7523936163
  0
LINE
  5
402
330
1F
100
AcDbEntity
  8
0
  6
Continuous
 62
     7
370
     0
100
AcDbLine
 10
66.0584631777
 20
195.9557668712
 30
0.0
 11
64.5932373942
 21
195.9557668712
 31
0.0
  0
LINE
  5
403
330
1F
100
AcDbEntity
  8
0
  6
Continuous
 62
     7
370
     0
100
AcDbLine
 10
69.3017291001
 20
195.9557668712
 30
0.0
 11
67.8365033167
 21
195.9557668712
 31
0.0
  0
ARC
  5
404
330
1F
100
AcDbEntity
  8
0
  6
Continuous
 62
     7
370
     0
100
AcDbCircle
 10
67.3429802649
 20
195.9622445823
 30
0.0
 40
0.4935665871120006
100
AcDbArc
 50
359.2480448369
 51
89.2274624674
  0
ARC
  5
405
330
1F
100
AcDbEntity
  8
0
  6
Continuous
 62
     7
370
     0
100
AcDbCircle
 10
67.3429802649
 20
237.94928916
 30
0.0
 40
0.4935665871120005
100
AcDbArc
 50
270.7725375326
 51
0.7519551632
  0
LINE
  5
406
330
1F
100
AcDbEntity
  8
0
  6
Continuous
 62
     7
370
     0
100
AcDbLine
 10
67.8365033167
 20
237.9557668712
 30
0.0
 11
69.3017291001
 21
237.9557668712
 31
0.0
  0
LINE
  5
407
330
1F
100
AcDbEntity
  8
0
  6
Continuous
 62
     7
370
     0
100
AcDbLine
 10
63.1326303572
 20
240.3557668712
 30
0.0
 11
64.9518407047
 21
240.3557662364
 31
0.0
  0
ELLIPSE
  5
408
330
1F
100
AcDbEntity
  8
0
  6
Continuous
 62
     7
370
     0
100
AcDbEllipse
 10
64.9518414371
 20
238.8557668712
 30
0.0
 11
-2.842170943040401E-14
 21
1.5
 31
0.0
210
0.0
220
0.0
230
1.0
 40
0.9899778821
 41
4.712388980384685
 42
6.283185307179586
  0
LINE
  5
409
330
1F
100
AcDbEntity
  8
0
  6
Continuous
 62
     7
370
     0
100
AcDbLine
 10
66.4368084729
 20
238.8557669218
 30
0.0
 11
64.5932373942
 21
238.8557668712
 31
0.0
  0
LINE
  5
40A
330
1F
100
AcDbEntity
  8
0
  6
Continuous
 62
     7
370
     0
100
AcDbLine
 10
68.9431241811
 20
240.3557662364
 30
0.0
 11
70.7623361372
 21
240.3557668712
 31
0.0
  0
LINE
  5
40B
330
1F
100
AcDbEntity
  8
0
  6
Continuous
 62
     7
370
     0
100
AcDbLine
 10
69.3017291001
 20
238.8557668712
 30
0.0
 11
67.4581564129
 21
238.8557669218
 31
0.0
  0
ELLIPSE
  5
40C
330
1F
100
AcDbEntity
  8
0
  6
Continuous
 62
     7
370
     0
100
AcDbEllipse
 10
68.9431250572
 20
238.8557668712
 30
0.0
 11
2.842170943040401E-14
 21
1.5
 31
0.0
210
0.0
220
0.0
230
1.0
 40
0.9899778821
 41
0.0
 42
1.570796326794915
  0
LINE
  5
40D
330
1F
100
AcDbEntity
  8
0
  6
Continuous
 62
     7
370
     0
100
AcDbLine
 10
66.4368084729
 20
195.0557668205
 30
0.0
 11
66.4368084729
 21
196.4337591525
 31
0.0
  0
LINE
  5
40E
330
1F
100
AcDbEntity
  8
0
  6
Continuous
 62
     7
370
     0
100
AcDbLine
 10
66.4368084729
 20
237.4789778586
 30
0.0
 11
66.4368084729
 21
238.8557669218
 31
0.0
  0
LINE
  5
40F
330
1F
100
AcDbEntity
  8
0
  6
Continuous
 62
     7
370
     0
100
AcDbLine
 10
64.5932373942
 20
195.0557668712
 30
0.0
 11
66.4368084729
 21
195.0557668205
 31
0.0
  0
LINE
  5
410
330
1F
100
AcDbEntity
  8
0
  6
Continuous
 62
     7
370
     0
100
AcDbLine
 10
67.4581564129
 20
195.0557668205
 30
0.0
 11
69.3017291001
 21
195.0557668712
 31
0.0
  0
LINE
  5
411
330
1F
100
AcDbEntity
  8
0
  6
Continuous
 62
     7
370
     0
100
AcDbLine
 10
67.4581564129
 20
195.0557668205
 30
0.0
 11
67.4581564129
 21
196.4325558837
 31
0.0
  0
LINE
  5
412
330
1F
100
AcDbEntity
  8
0
  6
Continuous
 62
     7
370
     0
100
AcDbLine
 10
67.4581564129
 20
237.4777745898
 30
0.0
 11
67.4581564129
 21
238.8557669218
 31
0.0
  0
LINE
  5
413
330
1F
100
AcDbEntity
  8
0
  6
Continuous
 62
     7
370
     0
100
AcDbLine
 10
64.9518407047
 20
193.555767506
 30
0.0
 11
63.1326303572
 21
193.5557668712
 31
0.0
  0
ELLIPSE
  5
414
330
1F
100
AcDbEntity
  8
0
  6
Continuous
 62
     7
370
     0
100
AcDbEllipse
 10
64.9518414371
 20
195.0557668712
 30
0.0
 11
-2.842170943040401E-14
 21
1.5
 31
0.0
210
0.0
220
0.0
230
1.0
 40
0.9899778821
 41
3.141592653589775
 42
4.712388980384685
  0
LINE
  5
415
330
1F
100
AcDbEntity
  8
0
  6
Continuous
 62
     7
370
     0
100
AcDbLine
 10
70.7623361372
 20
193.5557668712
 30
0.0
 11
68.9431241811
 21
193.555767506
 31
0.0
  0
ELLIPSE
  5
416
330
1F
100
AcDbEntity
  8
0
  6
Continuous
 62
     7
370
     0
100
AcDbEllipse
 10
68.9431250572
 20
195.0557668712
 30
0.0
 11
2.842170943040401E-14
 21
1.5
 31
0.0
210
0.0
220
0.0
230
1.0
 40
0.9899778821
 41
1.570796326794915
 42
3.141592653589826
  0
LINE
  5
417
330
1F
100
AcDbEntity
  8
0
  6
Continuous
 62
     7
370
     0
100
AcDbLine
 10
37.7122632006
 20
236.9557668712
 30
0.0
 11
37.9474832472
 21
236.9557668712
 31
0.0
  0
LINE
  5
418
330
1F
100
AcDbEntity
  8
0
  6
Continuous
 62
     7
370
     0
100
AcDbLine
 10
95.9474832472
 20
236.9557668712
 30
0.0
 11
96.1827032937
 21
236.9557668712
 31
0.0
  0
LINE
  5
419
330
1F
100
AcDbEntity
  8
0
  6
Continuous
 62
     7
370
     0
100
AcDbLine
 10
37.9474832472
 20
196.9557668712
 30
0.0
 11
37.7122632006
 21
196.9557668712
 31
0.0
  0
LINE
  5
41A
330
1F
100
AcDbEntity
  8
0
  6
Continuous
 62
     7
370
     0
100
AcDbLine
 10
96.1827032937
 20
196.9557668712
 30
0.0
 11
95.9474832472
 21
196.9557668712
 31
0.0
  0
ELLIPSE
  5
41B
330
1F
100
AcDbEntity
  8
0
  6
Continuous
 62
     7
370
     0
100
AcDbEllipse
 10
95.8818501342
 20
238.8557668712
 30
0.0
 11
1.565633112916586
 21
0.0
 31
0.0
210
0.0
220
0.0
230
1.0
 40
0.9580788677
 41
0.0
 42
1.570796326794897
  0
LINE
  5
41C
330
1F
100
AcDbEntity
  8
0
  6
Continuous
 62
     7
370
     0
100
AcDbLine
 10
97.4474846483
 20
238.8557669218
 30
0.0
 11
97.1382333994
 21
238.8557669218
 31
0.0
  0
LINE
  5
41D
330
1F
100
AcDbEntity
  8
0
  6
Continuous
 62
     7
370
     0
100
AcDbLine
 10
95.7589670182
 20
240.3557662364
 30
0.0
 11
95.881849444
 21
240.3557662364
 31
0.0
  0
LINE
  5
41E
330
1F
100
AcDbEntity
  8
0
  6
Continuous
 62
     7
370
     0
100
AcDbLine
 10
36.7567352117
 20
238.8557669218
 30
0.0
 11
36.4474839628
 21
238.8557669218
 31
0.0
  0
ELLIPSE
  5
41F
330
1F
100
AcDbEntity
  8
0
  6
Continuous
 62
     7
370
     0
100
AcDbEllipse
 10
38.0131163601
 20
238.8557668712
 30
0.0
 11
1.565633112916586
 21
-2.842170943040401E-14
 31
0.0
210
0.0
220
0.0
230
1.0
 40
0.9580788677
 41
1.570796326794914
 42
3.141592653589827
  0
LINE
  5
420
330
1F
100
AcDbEntity
  8
0
  6
Continuous
 62
     7
370
     0
100
AcDbLine
 10
38.0131154418
 20
240.3557662364
 30
0.0
 11
38.1359978676
 21
240.3557662364
 31
0.0
  0
LINE
  5
421
330
1F
100
AcDbEntity
  8
0
  6
Continuous
 62
     7
370
     0
100
AcDbLine
 10
97.4474846483
 20
195.0557668205
 30
0.0
 11
97.4474846483
 21
238.8557669218
 31
0.0
  0
LINE
  5
422
330
1F
100
AcDbEntity
  8
0
  6
Continuous
 62
     7
370
     0
100
AcDbLine
 10
97.1382333994
 20
195.0557668205
 30
0.0
 11
97.4474846483
 21
195.0557668205
 31
0.0
  0
LINE
  5
423
330
1F
100
AcDbEntity
  8
0
  6
Continuous
 62
     7
370
     0
100
AcDbLine
 10
36.4474839628
 20
195.0557668205
 30
0.0
 11
36.7567352117
 21
195.0557668205
 31
0.0
  0
LINE
  5
424
330
1F
100
AcDbEntity
  8
0
  6
Continuous
 62
     7
370
     0
100
AcDbLine
 10
36.4474839628
 20
195.0557668205
 30
0.0
 11
36.4474839628
 21
238.8557669218
 31
0.0
  0
ELLIPSE
  5
425
330
1F
100
AcDbEntity
  8
0
  6
Continuous
 62
     7
370
     0
100
AcDbEllipse
 10
38.0131163601
 20
195.0557668712
 30
0.0
 11
1.565633112916586
 21
0.0
 31
0.0
210
0.0
220
0.0
230
1.0
 40
0.9580788677
 41
3.141592653589793
 42
4.712388980384699
  0
LINE
  5
426
330
1F
100
AcDbEntity
  8
0
  6
Continuous
 62
     7
370
     0
100
AcDbLine
 10
38.1359978676
 20
193.555767506
 30
0.0
 11
38.0131154418
 21
193.555767506
 31
0.0
  0
ELLIPSE
  5
427
330
1F
100
AcDbEntity
  8
0
  6
Continuous
 62
     7
370
     0
100
AcDbEllipse
 10
95.8818501342
 20
195.0557668712
 30
0.0
 11
1.565633112916586
 21
0.0
 31
0.0
210
0.0
220
0.0
230
1.0
 40
0.9580788677
 41
4.712388980384703
 42
6.283185307179586
  0
LINE
  5
428
330
1F
100
AcDbEntity
  8
0
  6
Continuous
 62
     7
370
     0
100
AcDbLine
 10
95.881849444
 20
193.555767506
 30
0.0
 11
95.7589670182
 21
193.555767506
 31
0.0
  0
LINE
  5
429
330
1F
100
AcDbEntity
  8
0
  6
Continuous
 62
     7
370
     0
100
AcDbLine
 10
95.4762042172
 20
240.3557668712
 30
0.0
 11
95.480936871
 21
240.3557668712
 31
0.0
  0
LINE
  5
42A
330
1F
100
AcDbEntity
  8
0
  6
Continuous
 62
     7
370
     0
100
AcDbLine
 10
38.4140296323
 20
240.3557668712
 30
0.0
 11
38.4187622771
 21
240.3557668712
 31
0.0
  0
LINE
  5
42B
330
1F
100
AcDbEntity
  8
0
  6
Continuous
 62
     7
370
     0
100
AcDbLine
 10
38.4187622771
 20
193.5557668712
 30
0.0
 11
38.4140296233
 21
193.5557668712
 31
0.0
  0
LINE
  5
42C
330
1F
100
AcDbEntity
  8
0
  6
Continuous
 62
     7
370
     0
100
AcDbLine
 10
95.480936862
 20
193.5557668712
 30
0.0
 11
95.4762042172
 21
193.5557668712
 31
0.0
  0
LINE
  5
42D
330
1F
100
AcDbEntity
  8
0
  6
Continuous
 62
     7
370
     0
100
AcDbLine
 10
67.4581564129
 20
238.8557669218
 30
0.0
 11
67.2328992844
 21
238.8557669218
 31
0.0
  0
ELLIPSE
  5
42E
330
1F
100
AcDbEntity
  8
0
  6
Continuous
 62
     7
370
     0
100
AcDbEllipse
 10
68.8135519344
 20
238.8557668712
 30
0.0
 11
1.580652638558149
 21
-2.842170943040401E-14
 31
0.0
210
0.0
220
0.0
230
1.0
 40
0.9489751027
 41
1.570796326794914
 42
3.141592653589826
  0
LINE
  5
42F
330
1F
100
AcDbEntity
  8
0
  6
Continuous
 62
     7
370
     0
100
AcDbLine
 10
68.8135511339
 20
240.3557662364
 30
0.0
 11
68.9431241811
 21
240.3557662364
 31
0.0
  0
ELLIPSE
  5
430
330
1F
100
AcDbEntity
  8
0
  6
Continuous
 62
     7
370
     0
100
AcDbEllipse
 10
65.0814145599
 20
238.8557668712
 30
0.0
 11
1.580652638558149
 21
2.842170943040401E-14
 31
0.0
210
0.0
220
0.0
230
1.0
 40
0.9489751027
 41
0.0
 42
1.57079632679488
  0
LINE
  5
431
330
1F
100
AcDbEntity
  8
0
  6
Continuous
 62
     7
370
     0
100
AcDbLine
 10
66.6620656014
 20
238.8557669218
 30
0.0
 11
66.4368084729
 21
238.8557669218
 31
0.0
  0
LINE
  5
432
330
1F
100
AcDbEntity
  8
0
  6
Continuous
 62
     7
370
     0
100
AcDbLine
 10
64.9518407047
 20
240.3557662364
 30
0.0
 11
65.0814137519
 21
240.3557662364
 31
0.0
  0
LINE
  5
433
330
1F
100
AcDbEntity
  8
0
  6
Continuous
 62
     7
370
     0
100
AcDbLine
 10
67.2328992844
 20
195.0557668205
 30
0.0
 11
67.4581564129
 21
195.0557668205
 31
0.0
  0
LINE
  5
434
330
1F
100
AcDbEntity
  8
0
  6
Continuous
 62
     7
370
     0
100
AcDbLine
 10
67.2328992844
 20
195.0557668205
 30
0.0
 11
67.2328992844
 21
196.4557663049
 31
0.0
  0
LINE
  5
435
330
1F
100
AcDbEntity
  8
0
  6
Continuous
 62
     7
370
     0
100
AcDbLine
 10
67.2328992844
 20
237.4557674374
 30
0.0
 11
67.2328992844
 21
238.8557669218
 31
0.0
  0
LINE
  5
436
330
1F
100
AcDbEntity
  8
0
  6
Continuous
 62
     7
370
     0
100
AcDbLine
 10
66.6620656014
 20
195.0557668205
 30
0.0
 11
66.6620656014
 21
196.4557663049
 31
0.0
  0
LINE
  5
437
330
1F
100
AcDbEntity
  8
0
  6
Continuous
 62
     7
370
     0
100
AcDbLine
 10
66.6620656014
 20
237.4557674374
 30
0.0
 11
66.6620656014
 21
238.8557669218
 31
0.0
  0
LINE
  5
438
330
1F
100
AcDbEntity
  8
0
  6
Continuous
 62
     7
370
     0
100
AcDbLine
 10
66.4368084729
 20
195.0557668205
 30
0.0
 11
66.6620656014
 21
195.0557668205
 31
0.0
  0
ELLIPSE
  5
439
330
1F
100
AcDbEntity
  8
0
  6
Continuous
 62
     7
370
     0
100
AcDbEllipse
 10
65.0814145599
 20
195.0557668712
 30
0.0
 11
1.580652638558149
 21
2.842170943040401E-14
 31
0.0
210
0.0
220
0.0
230
1.0
 40
0.9489751027
 41
4.712388980384686
 42
6.283185307179586
  0
LINE
  5
43A
330
1F
100
AcDbEntity
  8
0
  6
Continuous
 62
     7
370
     0
100
AcDbLine
 10
65.0814137519
 20
193.555767506
 30
0.0
 11
64.9518407047
 21
193.555767506
 31
0.0
  0
ELLIPSE
  5
43B
330
1F
100
AcDbEntity
  8
0
  6
Continuous
 62
     7
370
     0
100
AcDbEllipse
 10
68.8135519344
 20
195.0557668712
 30
0.0
 11
1.580652638558149
 21
-2.842170943040401E-14
 31
0.0
210
0.0
220
0.0
230
1.0
 40
0.9489751027
 41
3.141592653589826
 42
4.71238898038472
  0
LINE
  5
43C
330
1F
100
AcDbEntity
  8
0
  6
Continuous
 62
     7
370
     0
100
AcDbLine
 10
68.9431241811
 20
193.555767506
 30
0.0
 11
68.8135511339
 21
193.555767506
 31
0.0
  0
LINE
  5
43D
330
1F
100
AcDbEntity
  8
0
  6
Continuous
 62
     7
370
     0
100
AcDbLine
 10
57.6101764203
 20
238.8557669218
 30
0.0
 11
56.9329335452
 21
238.8557669218
 31
0.0
  0
ELLIPSE
  5
43E
330
1F
100
AcDbEntity
  8
0
  6
Continuous
 62
     7
370
     0
100
AcDbEllipse
 10
58.6902214834
 20
238.8557668712
 30
0.0
 11
1.757289206238859
 21
0.0
 31
0.0
210
0.0
220
0.0
230
1.0
 40
0.8535874429
 41
1.570796326794897
 42
3.141592653589793
  0
LINE
  5
43F
330
1F
100
AcDbEntity
  8
0
  6
Continuous
 62
     7
370
     0
100
AcDbLine
 10
58.6902200342
 20
240.3557662364
 30
0.0
 11
59.0188167155
 21
240.3557662364
 31
0.0
  0
LINE
  5
440
330
1F
100
AcDbEntity
  8
0
  6
Continuous
 62
     7
370
     0
100
AcDbLine
 10
76.9620350659
 20
238.8557669218
 30
0.0
 11
76.2847884655
 21
238.8557669218
 31
0.0
  0
ELLIPSE
  5
441
330
1F
100
AcDbEntity
  8
0
  6
Continuous
 62
     7
370
     0
100
AcDbEllipse
 10
75.2047450109
 20
238.8557668712
 30
0.0
 11
1.757289206238852
 21
0.0
 31
0.0
210
0.0
220
0.0
230
1.0
 40
0.8535874429
 41
0.0
 42
1.570796326794897
  0
LINE
  5
442
330
1F
100
AcDbEntity
  8
0
  6
Continuous
 62
     7
370
     0
100
AcDbLine
 10
74.8761518956
 20
240.3557662364
 30
0.0
 11
75.2047448516
 21
240.3557662364
 31
0.0
  0
LINE
  5
443
330
1F
100
AcDbEntity
  8
0
  6
Continuous
 62
     7
370
     0
100
AcDbLine
 10
76.9620350659
 20
195.0557668205
 30
0.0
 11
76.9620350659
 21
196.4557663049
 31
0.0
  0
LINE
  5
444
330
1F
100
AcDbEntity
  8
0
  6
Continuous
 62
     7
370
     0
100
AcDbLine
 10
76.9620350659
 20
237.4557674374
 30
0.0
 11
76.9620350659
 21
238.8557669218
 31
0.0
  0
LINE
  5
445
330
1F
100
AcDbEntity
  8
0
  6
Continuous
 62
     7
370
     0
100
AcDbLine
 10
76.2847884655
 20
195.0557668205
 30
0.0
 11
76.9620350659
 21
195.0557668205
 31
0.0
  0
LINE
  5
446
330
1F
100
AcDbEntity
  8
0
  6
Continuous
 62
     7
370
     0
100
AcDbLine
 10
56.9329335452
 20
195.0557668205
 30
0.0
 11
57.6101764203
 21
195.0557668205
 31
0.0
  0
LINE
  5
447
330
1F
100
AcDbEntity
  8
0
  6
Continuous
 62
     7
370
     0
100
AcDbLine
 10
56.9329335452
 20
195.0557668205
 30
0.0
 11
56.9329335452
 21
196.4557663049
 31
0.0
  0
LINE
  5
448
330
1F
100
AcDbEntity
  8
0
  6
Continuous
 62
     7
370
     0
100
AcDbLine
 10
56.9329335452
 20
237.4557674374
 30
0.0
 11
56.9329335452
 21
238.8557669218
 31
0.0
  0
ELLIPSE
  5
449
330
1F
100
AcDbEntity
  8
0
  6
Continuous
 62
     7
370
     0
100
AcDbEllipse
 10
58.6902214834
 20
195.0557668712
 30
0.0
 11
1.757289206238859
 21
0.0
 31
0.0
210
0.0
220
0.0
230
1.0
 40
0.8535874429
 41
3.141592653589793
 42
4.712388980384701
  0
LINE
  5
44A
330
1F
100
AcDbEntity
  8
0
  6
Continuous
 62
     7
370
     0
100
AcDbLine
 10
59.0188167155
 20
193.555767506
 30
0.0
 11
58.6902200342
 21
193.555767506
 31
0.0
  0
ELLIPSE
  5
44B
330
1F
100
AcDbEntity
  8
0
  6
Continuous
 62
     7
370
     0
100
AcDbEllipse
 10
75.2047450109
 20
195.0557668712
 30
0.0
 11
1.757289206238852
 21
2.842170943040401E-14
 31
0.0
210
0.0
220
0.0
230
1.0
 40
0.8535874429
 41
4.712388980384688
 42
6.283185307179586
  0
LINE
  5
44C
330
1F
100
AcDbEntity
  8
0
  6
Continuous
 62
     7
370
     0
100
AcDbLine
 10
75.2047448516
 20
193.555767506
 30
0.0
 11
74.8761518956
 21
193.555767506
 31
0.0
  0
LINE
  5
44D
330
1F
100
AcDbEntity
  8
0
  6
Continuous
 62
     7
370
     0
100
AcDbLine
 10
38.1332510066
 20
240.3557668712
 30
0.0
 11
38.4140296323
 21
240.3557668712
 31
0.0
  0
LINE
  5
44E
330
1F
100
AcDbEntity
  8
0
  6
Continuous
 62
     7
370
     0
100
AcDbLine
 10
95.480936871
 20
240.3557668712
 30
0.0
 11
95.7617154877
 21
240.3557668712
 31
0.0
  0
LINE
  5
44F
330
1F
100
AcDbEntity
  8
0
  6
Continuous
 62
     7
370
     0
100
AcDbLine
 10
95.7617154877
 20
193.5557668712
 30
0.0
 11
95.480936862
 21
193.5557668712
 31
0.0
  0
LINE
  5
450
330
1F
100
AcDbEntity
  8
0
  6
Continuous
 62
     7
370
     0
100
AcDbLine
 10
38.4140296233
 20
193.5557668712
 30
0.0
 11
38.1332510066
 21
193.5557668712
 31
0.0
  0
LINE
  5
451
330
1F
100
AcDbEntity
  8
0
  6
Continuous
 62
     7
370
     0
100
AcDbLine
 10
95.7617154877
 20
240.3557668712
 30
0.0
 11
95.7618506971
 21
240.3557668712
 31
0.0
  0
LINE
  5
452
330
1F
100
AcDbEntity
  8
0
  6
Continuous
 62
     7
370
     0
100
AcDbLine
 10
38.1332510066
 20
193.5557668712
 30
0.0
 11
38.1331157972
 21
193.5557668712
 31
0.0
  0
LINE
  5
453
330
1F
100
AcDbEntity
  8
0
  6
Continuous
 62
     7
370
     0
100
AcDbLine
 10
38.1331157972
 20
240.3557668712
 30
0.0
 11
38.1332510066
 21
240.3557668712
 31
0.0
  0
LINE
  5
454
330
1F
100
AcDbEntity
  8
0
  6
Continuous
 62
     7
370
     0
100
AcDbLine
 10
95.7618506971
 20
193.5557668712
 30
0.0
 11
95.7617154877
 21
193.5557668712
 31
0.0
  0
LINE
  5
455
330
1F
100
AcDbEntity
  8
0
  6
Continuous
 62
     7
370
     0
100
AcDbLine
 10
86.845619277
 20
237.9557668712
 30
0.0
 11
87.9927892036
 21
237.9557668712
 31
0.0
  0
LINE
  5
456
330
1F
100
AcDbEntity
  8
0
  6
Continuous
 62
     7
370
     0
100
AcDbLine
 10
45.9021772907
 20
237.9557668712
 30
0.0
 11
47.0493472174
 21
237.9557668712
 31
0.0
  0
LINE
  5
457
330
1F
100
AcDbEntity
  8
0
  6
Continuous
 62
     7
370
     0
100
AcDbLine
 10
87.9927892036
 20
195.9557668712
 30
0.0
 11
86.845619277
 21
195.9557668712
 31
0.0
  0
LINE
  5
458
330
1F
100
AcDbEntity
  8
0
  6
Continuous
 62
     7
370
     0
100
AcDbLine
 10
47.0493472174
 20
195.9557668712
 30
0.0
 11
45.9021772907
 21
195.9557668712
 31
0.0
  0
LINE
  5
459
330
1F
100
AcDbEntity
  8
0
  6
Continuous
 62
     7
370
     0
100
AcDbLine
 10
47.0493472174
 20
238.8557668712
 30
0.0
 11
45.9021772907
 21
238.8557668712
 31
0.0
  0
LINE
  5
45A
330
1F
100
AcDbEntity
  8
0
  6
Continuous
 62
     7
370
     0
100
AcDbLine
 10
87.9927892036
 20
238.8557668712
 30
0.0
 11
86.845619277
 21
238.8557668712
 31
0.0
  0
LINE
  5
45B
330
1F
100
AcDbEntity
  8
0
  6
Continuous
 62
     7
370
     0
100
AcDbLine
 10
45.9021772907
 20
195.0557668712
 30
0.0
 11
47.0493472174
 21
195.0557668712
 31
0.0
  0
LINE
  5
45C
330
1F
100
AcDbEntity
  8
0
  6
Continuous
 62
     7
370
     0
100
AcDbLine
 10
86.845619277
 20
195.0557668712
 30
0.0
 11
87.9927892036
 21
195.0557668712
 31
0.0
  0
ELLIPSE
  5
45D
330
1F
100
AcDbEntity
  8
0
  6
Continuous
 62
     7
370
     0
100
AcDbEllipse
 10
75.4988946533
 20
236.9557668712
 30
0.0
 11
0.0
 21
1.0
 31
0.0
210
0.0
220
0.0
230
1.0
 40
0.5061006819
 41
5.248712611106643
 42
6.283185307179586
  0
ELLIPSE
  5
45E
330
1F
100
AcDbEntity
  8
0
  6
Continuous
 62
     7
370
     0
100
AcDbEllipse
 10
75.4988946533
 20
196.9557668712
 30
0.0
 11
0.0
 21
1.0
 31
0.0
210
0.0
220
0.0
230
1.0
 40
0.5061006819
 41
3.141592653589793
 42
4.176243626626938
  0
ELLIPSE
  5
45F
330
1F
100
AcDbEntity
  8
0
  6
Continuous
 62
     7
370
     0
100
AcDbEllipse
 10
58.396071841
 20
236.9557668712
 30
0.0
 11
0.0
 21
1.0
 31
0.0
210
0.0
220
0.0
230
1.0
 40
0.5061006819
 41
0.0
 42
1.034650973037118
  0
ELLIPSE
  5
460
330
1F
100
AcDbEntity
  8
0
  6
Continuous
 62
     7
370
     0
100
AcDbEllipse
 10
58.396071841
 20
196.9557668712
 30
0.0
 11
0.0
 21
1.0
 31
0.0
210
0.0
220
0.0
230
1.0
 40
0.5061006819
 41
2.107119957516852
 42
3.141592653589793
  0
ELLIPSE
  5
461
330
1F
100
AcDbEntity
  8
0
  6
Continuous
 62
     7
370
     0
100
AcDbEllipse
 10
66.0584631777
 20
236.9557668712
 30
0.0
 11
0.0
 21
1.0
 31
0.0
210
0.0
220
0.0
230
1.0
 40
0.2338117396
 41
5.503894507867633
 42
6.283185307179586
  0
ELLIPSE
  5
462
330
1F
100
AcDbEntity
  8
0
  6
Continuous
 62
     7
370
     0
100
AcDbEllipse
 10
66.0584631777
 20
196.9557668712
 30
0.0
 11
0.0
 21
1.0
 31
0.0
210
0.0
220
0.0
230
1.0
 40
0.2338117396
 41
3.141592653589793
 42
3.929251409160634
  0
ELLIPSE
  5
463
330
1F
100
AcDbEntity
  8
0
  6
Continuous
 62
     7
370
     0
100
AcDbEllipse
 10
67.8365033167
 20
236.9557668712
 30
0.0
 11
-1.421085471520200E-14
 21
1.0
 31
0.0
210
0.0
220
0.0
230
1.0
 40
0.2338117396
 41
0.0
 42
0.7876587555708006
  0
ELLIPSE
  5
464
330
1F
100
AcDbEntity
  8
0
  6
Continuous
 62
     7
370
     0
100
AcDbEllipse
 10
67.8365033167
 20
196.9557668712
 30
0.0
 11
-1.421085471520200E-14
 21
1.0
 31
0.0
210
0.0
220
0.0
230
1.0
 40
0.2338117396
 41
2.362301854277777
 42
3.141592653589732
  0
LINE
  5
465
330
1F
100
AcDbEntity
  8
0
  6
Continuous
 62
     7
370
     0
100
AcDbLine
 10
55.0242781664
 20
237.6557668712
 30
0.0
 11
55.0510730856
 21
237.6557668712
 31
0.0
  0
LINE
  5
466
330
1F
100
AcDbEntity
  8
0
  6
Continuous
 62
     7
370
     0
100
AcDbLine
 10
86.0242781664
 20
237.6557668712
 30
0.0
 11
86.0510730856
 21
237.6557668712
 31
0.0
  0
LINE
  5
467
330
1F
100
AcDbEntity
  8
0
  6
Continuous
 62
     7
370
     0
100
AcDbLine
 10
78.8438934087
 20
237.6557668711
 30
0.0
 11
78.8706883279
 21
237.6557668712
 31
0.0
  0
LINE
  5
468
330
1F
100
AcDbEntity
  8
0
  6
Continuous
 62
     7
370
     0
100
AcDbLine
 10
47.8438934087
 20
237.6557668711
 30
0.0
 11
47.8706883279
 21
237.6557668712
 31
0.0
  0
LINE
  5
469
330
1F
100
AcDbEntity
  8
0
  6
Continuous
 62
     7
370
     0
100
AcDbLine
 10
86.0510730856
 20
196.2557668712
 30
0.0
 11
86.0242781664
 21
196.2557668712
 31
0.0
  0
LINE
  5
46A
330
1F
100
AcDbEntity
  8
0
  6
Continuous
 62
     7
370
     0
100
AcDbLine
 10
55.0510730856
 20
196.2557668712
 30
0.0
 11
55.0242781664
 21
196.2557668712
 31
0.0
  0
LINE
  5
46B
330
1F
100
AcDbEntity
  8
0
  6
Continuous
 62
     7
370
     0
100
AcDbLine
 10
78.8706883279
 20
196.2557668712
 30
0.0
 11
78.8438934087
 21
196.2557668712
 31
0.0
  0
LINE
  5
46C
330
1F
100
AcDbEntity
  8
0
  6
Continuous
 62
     7
370
     0
100
AcDbLine
 10
47.8706883279
 20
196.2557668712
 30
0.0
 11
47.8438934087
 21
196.2557668712
 31
0.0
  0
LINE
  5
46D
330
1F
100
AcDbEntity
  8
0
  6
Continuous
 62
     7
370
     0
100
AcDbLine
 10
86.0242781664
 20
237.7557668712
 30
0.0
 11
86.0510730856
 21
237.7557668712
 31
0.0
  0
LINE
  5
46E
330
1F
100
AcDbEntity
  8
0
  6
Continuous
 62
     7
370
     0
100
AcDbLine
 10
55.0242781664
 20
237.7557668712
 30
0.0
 11
55.0510730856
 21
237.7557668712
 31
0.0
  0
LINE
  5
46F
330
1F
100
AcDbEntity
  8
0
  6
Continuous
 62
     7
370
     0
100
AcDbLine
 10
78.8438934087
 20
237.7557668712
 30
0.0
 11
78.8706883279
 21
237.7557668712
 31
0.0
  0
LINE
  5
470
330
1F
100
AcDbEntity
  8
0
  6
Continuous
 62
     7
370
     0
100
AcDbLine
 10
47.8438934087
 20
237.7557668712
 30
0.0
 11
47.8706883279
 21
237.7557668712
 31
0.0
  0
LINE
  5
471
330
1F
100
AcDbEntity
  8
0
  6
Continuous
 62
     7
370
     0
100
AcDbLine
 10
55.0510730856
 20
196.1557668712
 30
0.0
 11
55.0242781664
 21
196.1557668712
 31
0.0
  0
LINE
  5
472
330
1F
100
AcDbEntity
  8
0
  6
Continuous
 62
     7
370
     0
100
AcDbLine
 10
78.8706883279
 20
196.1557668712
 30
0.0
 11
78.8438934087
 21
196.1557668712
 31
0.0
  0
LINE
  5
473
330
1F
100
AcDbEntity
  8
0
  6
Continuous
 62
     7
370
     0
100
AcDbLine
 10
86.0510730856
 20
196.1557668712
 30
0.0
 11
86.0242781664
 21
196.1557668712
 31
0.0
  0
LINE
  5
474
330
1F
100
AcDbEntity
  8
0
  6
Continuous
 62
     7
370
     0
100
AcDbLine
 10
47.8706883279
 20
196.1557668712
 30
0.0
 11
47.8438934087
 21
196.1557668712
 31
0.0
  0
DIMENSION
  5
475
330
1F
100
AcDbEntity
  8
0
  6
Continuous
 62
     7
370
     0
100
AcDbDimension
  2
*D15
 10
81.9474832472
 20
251.4537328297
 30
0.0
 11
66.9474832472
 21
251.4537328297
 31
0.0
 70
   160
 71
     1
 42
30.0
  3
SLDDIMSTYLE0
100
AcDbAlignedDimension
 13
51.9474832472
 23
216.9557468712
 33
0.0
 14
81.9474832472
 24
216.9557468712
 34
0.0
100
AcDbRotatedDimension
1001
ACAD
1000
DSTYLE
1002
{
1070
    77
1070
     3
1070
   143
1040
0.0393700787
1070
    41
1040
3.0
1070
    44
1040
1.0
1070
    42
1040
1.0
1070
   147
1040
1.524
1070
    73
1070
     0
1070
    74
1070
     0
1070
   140
1040
3.5
1070
   284
1070
    12
1070
    78
1070
    12
1002
}
  0
DIMENSION
  5
488
330
1F
100
AcDbEntity
  8
0
  6
Continuous
 62
     7
370
     0
100
AcDbDimension
  2
*D16
 10
115.5329518174
 20
198.4557468712
 30
0.0
 11
115.5329518174
 21
216.9557568712
 31
0.0
 70
   160
 71
     1
 42
37.00002
  3
SLDDIMSTYLE0
100
AcDbAlignedDimension
 13
93.9474832472
 23
235.4557668712
 33
0.0
 14
93.9474832472
 24
198.4557468712
 34
0.0
 50
90.0
100
AcDbRotatedDimension
1001
ACAD
1000
DSTYLE
1002
{
1070
    77
1070
     3
1070
   143
1040
0.0393700787
1070
    41
1040
3.0
1070
    44
1040
1.0
1070
    42
1040
1.0
1070
   147
1040
1.524
1070
    73
1070
     0
1070
    74
1070
     0
1070
   140
1040
3.5
1070
   284
1070
    12
1070
    78
1070
    12
1002
}
  0
DIMENSION
  5
49C
330
1F
100
AcDbEntity
  8
0
  6
Continuous
 62
     7
370
     0
100
AcDbDimension
  2
*D17
 10
39.9474832472
 20
260.8686824622
 30
0.0
 11
66.9474832472
 21
260.8686824622
 31
0.0
 70
   160
 71
     1
 42
54.0
  3
SLDDIMSTYLE0
100
AcDbAlignedDimension
 13
93.9474832472
 23
235.4557668712
 33
0.0
 14
39.9474832472
 24
235.4557668712
 34
0.0
100
AcDbRotatedDimension
1001
ACAD
1000
DSTYLE
1002
{
1070
    77
1070
     3
1070
   143
1040
0.0393700787
1070
    41
1040
3.0
1070
    44
1040
1.0
1070
    42
1040
1.0
1070
   147
1040
1.524
1070
    73
1070
     0
1070
    74
1070
     0
1070
   140
1040
3.5
1070
   284
1070
    12
1070
    78
1070
    12
1002
}
  0
DIMENSION
  5
4AF
330
1F
100
AcDbEntity
  8
0
  6
Continuous
 62
     7
370
     0
100
AcDbDimension
  2
*D18
 10
36.4474832472
 20
268.288642214
 30
0.0
 11
66.9474832472
 21
268.288642214
 31
0.0
 70
   160
 71
     1
 42
61.0
  3
SLDDIMSTYLE0
100
AcDbAlignedDimension
 13
97.4474832472
 23
238.8557668712
 33
0.0
 14
36.4474832472
 24
238.8557668712
 34
0.0
100
AcDbRotatedDimension
1001
ACAD
1000
DSTYLE
1002
{
1070
    77
1070
     3
1070
   143
1040
0.0393700787
1070
    41
1040
3.0
1070
    44
1040
1.0
1070
    42
1040
1.0
1070
   147
1040
1.524
1070
    73
1070
     0
1070
    74
1070
     0
1070
   140
1040
3.5
1070
   284
1070
    12
1070
    78
1070
    12
1002
}
  0
DIMENSION
  5
4C2
330
1F
100
AcDbEntity
  8
0
  6
Continuous
 62
     7
370
     0
100
AcDbDimension
  2
*D19
 10
142.694781952
 20
193.5557668712
 30
0.0
 11
142.694781952
 21
216.9557668712
 31
0.0
 70
   160
 71
     1
 42
46.8
  3
SLDDIMSTYLE0
100
AcDbAlignedDimension
 13
91.6214343556
 23
240.3557668712
 33
0.0
 14
95.7589679411
 24
193.5557668712
 34
0.0
 50
90.0
100
AcDbRotatedDimension
1001
ACAD
1000
DSTYLE
1002
{
1070
    77
1070
     3
1070
   143
1040
0.0393700787
1070
    41
1040
3.0
1070
    44
1040
1.0
1070
    42
1040
1.0
1070
   147
1040
1.524
1070
    73
1070
     0
1070
    74
1070
     0
1070
   140
1040
3.5
1070
   284
1070
    12
1070
    78
1070
    12
1002
}
  0
MTEXT
  5
4D6
330
1F
100
AcDbEntity
  8
0
  6
Continuous
 62
     7
370
     0
100
AcDbMText
 10
119.8229985985
 20
258.1909069582
 30
0.0
 40
3.5
 41
0.0
 71
     1
 72
     1
  1
2-M5*0.8 深10
  7
SLDTEXTSTYLE0
 73
     1
 44
1.0
  0
LEADER
  5
4D7
330
1F
100
AcDbEntity
  8
0
  6
Continuous
 62
     7
370
     0
100
AcDbLeader
  3
SLDDIMSTYLE1
 76
     3
 10
83.5246614297
 20
218.342292572
 30
0.0
 10
119.3215852326
 20
254.1180225105
 30
0.0
 10
146.2995831121
 20
254.1180225105
 30
0.0
  0
ENDSEC
  0
SECTION
  2
OBJECTS
  0
DICTIONARY
  5
C
330
0
100
AcDbDictionary
281
     1
  3
ACAD_GROUP
350
D
  3
ACAD_LAYOUT
350
1A
  3
ACAD_MLINESTYLE
350
17
  3
ACAD_PLOTSETTINGS
350
19
  3
ACAD_PLOTSTYLENAME
350
E
  0
DICTIONARY
  5
D
102
{ACAD_REACTORS
330
C
102
}
330
C
100
AcDbDictionary
281
     1
  0
DICTIONARY
  5
1A
102
{ACAD_REACTORS
330
C
102
}
330
C
100
AcDbDictionary
281
     1
  3
Layout1
350
1E
  3
Layout2
350
26
  3
Model
350
22
  0
DICTIONARY
  5
17
102
{ACAD_REACTORS
330
C
102
}
330
C
100
AcDbDictionary
281
     1
  3
Standard
350
18
  0
DICTIONARY
  5
19
102
{ACAD_REACTORS
330
C
102
}
330
C
100
AcDbDictionary
281
     1
  0
ACDBDICTIONARYWDFLT
  5
E
102
{ACAD_REACTORS
330
C
102
}
330
C
100
AcDbDictionary
281
     1
  3
Normal
350
F
100
AcDbDictionaryWithDefault
340
F
  0
LAYOUT
  5
1E
102
{ACAD_REACTORS
330
1A
102
}
330
1A
100
AcDbPlotSettings
  1

  2

  4

  6

 40
0.0
 41
0.0
 42
0.0
 43
0.0
 44
0.0
 45
0.0
 46
0.0
 47
0.0
 48
0.0
 49
0.0
140
0.0
141
0.0
142
1.0
143
1.0
 70
   688
 72
     0
 73
     0
 74
     5
  7

 75
    16
147
1.0
148
0.0
149
0.0
100
AcDbLayout
  1
Layout1
 70
     1
 71
     1
 10
0.0
 20
0.0
 11
0.0
 21
0.0
 12
0.0
 22
0.0
 32
0.0
 14
0.0
 24
0.0
 34
0.0
 15
0.0
 25
0.0
 35
0.0
146
0.0
 13
0.0
 23
0.0
 33
0.0
 16
1.0
 26
0.0
 36
0.0
 17
0.0
 27
1.0
 37
0.0
 76
     0
330
1B
  0
LAYOUT
  5
26
102
{ACAD_REACTORS
330
1A
102
}
330
1A
100
AcDbPlotSettings
  1

  2

  4

  6

 40
0.0
 41
0.0
 42
0.0
 43
0.0
 44
0.0
 45
0.0
 46
0.0
 47
0.0
 48
0.0
 49
0.0
140
0.0
141
0.0
142
1.0
143
1.0
 70
   688
 72
     0
 73
     0
 74
     5
  7

 75
    16
147
1.0
148
0.0
149
0.0
100
AcDbLayout
  1
Layout2
 70
     1
 71
     2
 10
0.0
 20
0.0
 11
0.0
 21
0.0
 12
0.0
 22
0.0
 32
0.0
 14
0.0
 24
0.0
 34
0.0
 15
0.0
 25
0.0
 35
0.0
146
0.0
 13
0.0
 23
0.0
 33
0.0
 16
1.0
 26
0.0
 36
0.0
 17
0.0
 27
1.0
 37
0.0
 76
     0
330
23
  0
LAYOUT
  5
22
102
{ACAD_REACTORS
330
1A
102
}
330
1A
100
AcDbPlotSettings
  1

  2

  4

  6

 40
0.0
 41
0.0
 42
0.0
 43
0.0
 44
0.0
 45
0.0
 46
0.0
 47
0.0
 48
0.0
 49
0.0
140
0.0
141
0.0
142
1.0
143
1.0
 70
  1712
 72
     0
 73
     0
 74
     0
  7

 75
     0
147
1.0
148
0.0
149
0.0
100
AcDbLayout
  1
Model
 70
     1
 71
     0
 10
0.0
 20
0.0
 11
0.0
 21
0.0
 12
0.0
 22
0.0
 32
0.0
 14
0.0
 24
0.0
 34
0.0
 15
210.0
 25
297.0
 35
0.0
146
0.0
 13
0.0
 23
0.0
 33
0.0
 16
1.0
 26
0.0
 36
0.0
 17
0.0
 27
1.0
 37
0.0
 76
     0
330
1F
  0
MLINESTYLE
  5
18
102
{ACAD_REACTORS
330
17
102
}
330
17
100
AcDbMlineStyle
  2
Standard
 70
     0
  3

 62
   256
 51
90.0
 52
90.0
 71
     2
 49
0.5
 62
   256
  6
BYLAYER
 49
-0.5
 62
   256
  6
BYLAYER
  0
ACDBPLACEHOLDER
  5
F
102
{ACAD_REACTORS
330
E
102
}
330
E
  0
ENDSEC
  0
EOF
