  0
SECTION
  2
HEADER
  9
$ACADVER
  1
AC1015
  9
$ACADMAINTVER
 70
     6
  9
$DWGCODEPAGE
  3
DOS932
  9
$INSBASE
 10
0.0
 20
0.0
 30
0.0
  9
$EXTMIN
 10
0.0
 20
0.0
 30
0.0
  9
$EXTMAX
 10
210.0
 20
297.0
 30
0.0
  9
$LIMMIN
 10
0.0
 20
0.0
  9
$LIMMAX
 10
0.0
 20
0.0
  9
$ORTHOMODE
 70
     0
  9
$REGENMODE
 70
     1
  9
$FILLMODE
 70
     1
  9
$QTEXTMODE
 70
     0
  9
$MIRRTEXT
 70
     1
  9
$LTSCALE
 40
1.0
  9
$ATTMODE
 70
     1
  9
$TEXTSIZE
 40
3.5
  9
$TRACEWID
 40
1.0
  9
$TEXTSTYLE
  7
Standard
  9
$CLAYER
  8
0
  9
$CELTYPE
  6
ByLayer
  9
$CECOLOR
 62
   256
  9
$CELTSCALE
 40
1.0
  9
$DISPSILH
 70
     0
  9
$DIMSCALE
 40
1.0
  9
$DIMASZ
 40
3.0
  9
$DIMEXO
 40
1.0
  9
$DIMDLI
 40
3.75
  9
$DIMRND
 40
0.0
  9
$DIMDLE
 40
0.0
  9
$DIMEXE
 40
1.0
  9
$DIMTP
 40
0.0
  9
$DIMTM
 40
0.0
  9
$DIMTXT
 40
3.5
  9
$DIMCEN
 40
2.5
  9
$DIMTSZ
 40
0.0
  9
$DIMTOL
 70
     0
  9
$DIMLIM
 70
     0
  9
$DIMTIH
 70
     1
  9
$DIMTOH
 70
     1
  9
$DIMSE1
 70
     0
  9
$DIMSE2
 70
     0
  9
$DIMTAD
 70
     1
  9
$DIMZIN
 70
     0
  9
$DIMBLK
  1

  9
$DIMASO
 70
     1
  9
$DIMSHO
 70
     1
  9
$DIMPOST
  1

  9
$DIMAPOST
  1

  9
$DIMALT
 70
     0
  9
$DIMALTD
 70
     3
  9
$DIMALTF
 40
0.0393700787
  9
$DIMLFAC
 40
1.0
  9
$DIMTOFL
 70
     1
  9
$DIMTVP
 40
0.0
  9
$DIMTIX
 70
     0
  9
$DIMSOXD
 70
     0
  9
$DIMSAH
 70
     0
  9
$DIMBLK1
  1

  9
$DIMBLK2
  1

  9
$DIMSTYLE
  2
ISO-25
  9
$DIMCLRD
 70
     0
  9
$DIMCLRE
 70
     0
  9
$DIMCLRT
 70
     0
  9
$DIMTFAC
 40
1.0
  9
$DIMGAP
 40
1.524
  9
$DIMJUST
 70
     0
  9
$DIMSD1
 70
     0
  9
$DIMSD2
 70
     0
  9
$DIMTOLJ
 70
     0
  9
$DIMTZIN
 70
     0
  9
$DIMALTZ
 70
     0
  9
$DIMALTTZ
 70
     0
  9
$DIMUPT
 70
     0
  9
$DIMDEC
 70
     2
  9
$DIMTDEC
 70
     2
  9
$DIMALTU
 70
     2
  9
$DIMALTTD
 70
     3
  9
$DIMTXSTY
  7
Standard
  9
$DIMAUNIT
 70
     0
  9
$DIMADEC
 70
     0
  9
$DIMALTRND
 40
0.0
  9
$DIMAZIN
 70
     0
  9
$DIMDSEP
 70
    44
  9
$DIMATFIT
 70
     3
  9
$DIMFRAC
 70
     0
  9
$DIMLDRBLK
  1

  9
$DIMLUNIT
 70
     2
  9
$DIMLWD
 70
    -2
  9
$DIMLWE
 70
    -2
  9
$DIMTMOVE
 70
     0
  9
$LUNITS
 70
     2
  9
$LUPREC
 70
     1
  9
$SKETCHINC
 40
1.0
  9
$FILLETRAD
 40
10.0
  9
$AUNITS
 70
     0
  9
$AUPREC
 70
     0
  9
$MENU
  1
.
  9
$ELEVATION
 40
0.0
  9
$PELEVATION
 40
0.0
  9
$THICKNESS
 40
0.0
  9
$LIMCHECK
 70
     0
  9
$CHAMFERA
 40
10.0
  9
$CHAMFERB
 40
10.0
  9
$CHAMFERC
 40
20.0
  9
$CHAMFERD
 40
0.0
  9
$SKPOLY
 70
     0
  9
$TDCREATE
 40
2454427.573209086
  9
$TDUCREATE
 40
2454427.198209086
  9
$TDUPDATE
 40
2454427.573209097
  9
$TDUUPDATE
 40
2454427.198209097
  9
$TDINDWG
 40
0.0000000116
  9
$TDUSRTIMER
 40
0.0000000116
  9
$USRTIMER
 70
     1
  9
$ANGBASE
 50
0.0
  9
$ANGDIR
 70
     0
  9
$PDMODE
 70
     0
  9
$PDSIZE
 40
-1.0
  9
$PLINEWID
 40
0.0
  9
$SPLFRAME
 70
     0
  9
$SPLINETYPE
 70
     6
  9
$SPLINESEGS
 70
     8
  9
$HANDSEED
  5
468
  9
$SURFTAB1
 70
     6
  9
$SURFTAB2
 70
     6
  9
$SURFTYPE
 70
     6
  9
$SURFU
 70
     6
  9
$SURFV
 70
     6
  9
$UCSBASE
  2

  9
$UCSNAME
  2

  9
$UCSORG
 10
0.0
 20
0.0
 30
0.0
  9
$UCSXDIR
 10
1.0
 20
0.0
 30
0.0
  9
$UCSYDIR
 10
0.0
 20
1.0
 30
0.0
  9
$UCSORTHOREF
  2

  9
$UCSORTHOVIEW
 70
     0
  9
$UCSORGTOP
 10
0.0
 20
0.0
 30
0.0
  9
$UCSORGBOTTOM
 10
0.0
 20
0.0
 30
0.0
  9
$UCSORGLEFT
 10
0.0
 20
0.0
 30
0.0
  9
$UCSORGRIGHT
 10
0.0
 20
0.0
 30
0.0
  9
$UCSORGFRONT
 10
0.0
 20
0.0
 30
0.0
  9
$UCSORGBACK
 10
0.0
 20
0.0
 30
0.0
  9
$PUCSBASE
  2

  9
$PUCSNAME
  2

  9
$PUCSORG
 10
0.0
 20
0.0
 30
0.0
  9
$PUCSXDIR
 10
1.0
 20
0.0
 30
0.0
  9
$PUCSYDIR
 10
0.0
 20
1.0
 30
0.0
  9
$PUCSORTHOREF
  2

  9
$PUCSORTHOVIEW
 70
     0
  9
$PUCSORGTOP
 10
0.0
 20
0.0
 30
0.0
  9
$PUCSORGBOTTOM
 10
0.0
 20
0.0
 30
0.0
  9
$PUCSORGLEFT
 10
0.0
 20
0.0
 30
0.0
  9
$PUCSORGRIGHT
 10
0.0
 20
0.0
 30
0.0
  9
$PUCSORGFRONT
 10
0.0
 20
0.0
 30
0.0
  9
$PUCSORGBACK
 10
0.0
 20
0.0
 30
0.0
  9
$USERI1
 70
     0
  9
$USERI2
 70
     0
  9
$USERI3
 70
     0
  9
$USERI4
 70
     0
  9
$USERI5
 70
     0
  9
$USERR1
 40
0.0
  9
$USERR2
 40
0.0
  9
$USERR3
 40
0.0
  9
$USERR4
 40
0.0
  9
$USERR5
 40
0.0
  9
$WORLDVIEW
 70
     1
  9
$SHADEDGE
 70
     3
  9
$SHADEDIF
 70
    70
  9
$TILEMODE
 70
     1
  9
$MAXACTVP
 70
    64
  9
$PINSBASE
 10
0.0
 20
0.0
 30
0.0
  9
$PLIMCHECK
 70
     0
  9
$PEXTMIN
 10
1.0000000000E+20
 20
1.0000000000E+20
 30
1.0000000000E+20
  9
$PEXTMAX
 10
-1.0000000000E+20
 20
-1.0000000000E+20
 30
-1.0000000000E+20
  9
$PLIMMIN
 10
0.0
 20
0.0
  9
$PLIMMAX
 10
420.0
 20
297.0
  9
$UNITMODE
 70
     0
  9
$VISRETAIN
 70
     1
  9
$PLINEGEN
 70
     0
  9
$PSLTSCALE
 70
     1
  9
$TREEDEPTH
 70
  3020
  9
$CMLSTYLE
  2
Standard
  9
$CMLJUST
 70
     0
  9
$CMLSCALE
 40
20.0
  9
$PROXYGRAPHICS
 70
     1
  9
$MEASUREMENT
 70
     1
  9
$CELWEIGHT
370
    -1
  9
$ENDCAPS
280
     0
  9
$JOINSTYLE
280
     0
  9
$LWDISPLAY
290
     1
  9
$INSUNITS
 70
     4
  9
$HYPERLINKBASE
  1

  9
$STYLESHEET
  1

  9
$XEDIT
290
     1
  9
$CEPSNTYPE
380
     0
  9
$PSTYLEMODE
290
     1
  9
$FINGERPRINTGUID
  2
{0FC04876-3C0F-4F03-A739-F5A9197631DE}
  9
$VERSIONGUID
  2
{FAEB1C32-E019-11D5-929B-00C0DF256EC4}
  9
$EXTNAMES
290
     1
  9
$PSVPSCALE
 40
0.0
  9
$OLESTARTUP
290
     0
  0
ENDSEC
  0
SECTION
  2
CLASSES
  0
CLASS
  1
ACDBDICTIONARYWDFLT
  2
AcDbDictionaryWithDefault
  3
ObjectDBX Classes
 90
        0
280
     0
281
     0
  0
CLASS
  1
ACDBPLACEHOLDER
  2
AcDbPlaceHolder
  3
ObjectDBX Classes
 90
        0
280
     0
281
     0
  0
CLASS
  1
LAYOUT
  2
AcDbLayout
  3
ObjectDBX Classes
 90
        0
280
     0
281
     0
  0
ENDSEC
  0
SECTION
  2
TABLES
  0
TABLE
  2
VPORT
  5
8
330
0
100
AcDbSymbolTable
 70
     1
  0
VPORT
  5
29
330
8
100
AcDbSymbolTableRecord
100
AcDbViewportTableRecord
  2
*Active
 70
     0
 10
0.0
 20
0.0
 11
1.0
 21
1.0
 12
105.0
 22
148.5
 13
0.0
 23
0.0
 14
10.0
 24
10.0
 15
10.0
 25
10.0
 16
0.0
 26
0.0
 36
1.0
 17
0.0
 27
0.0
 37
0.0
 40
297.0
 41
1.9729729729
 42
50.0
 43
0.0
 44
0.0
 50
0.0
 51
0.0
 71
     0
 72
  2000
 73
     1
 74
     3
 75
     0
 76
     0
 77
     0
 78
     0
281
     0
 65
     1
110
0.0
120
0.0
130
0.0
111
1.0
121
0.0
131
0.0
112
0.0
122
1.0
132
0.0
 79
     0
146
0.0
  0
ENDTAB
  0
TABLE
  2
LTYPE
  5
5
330
0
100
AcDbSymbolTable
 70
     6
  0
LTYPE
  5
14
330
5
100
AcDbSymbolTableRecord
100
AcDbLinetypeTableRecord
  2
ByBlock
 70
     0
  3

 72
    65
 73
     0
 40
0.0
  0
LTYPE
  5
15
330
5
100
AcDbSymbolTableRecord
100
AcDbLinetypeTableRecord
  2
ByLayer
 70
     0
  3

 72
    65
 73
     0
 40
0.0
  0
LTYPE
  5
16
330
5
100
AcDbSymbolTableRecord
100
AcDbLinetypeTableRecord
  2
Continuous
 70
     0
  3
Solid line
 72
    65
 73
     0
 40
0.0
  0
LTYPE
  5
2A
330
5
100
AcDbSymbolTableRecord
100
AcDbLinetypeTableRecord
  2
HIDDEN
 70
     0
  3
Hidden __ __ __ __ __ __ __ __ __ __ __ __ __ __
 72
    65
 73
     2
 40
1.905
 49
1.27
 74
     0
 49
-0.635
 74
     0
  0
LTYPE
  5
2B
330
5
100
AcDbSymbolTableRecord
100
AcDbLinetypeTableRecord
  2
PHANTOM
 70
     0
  3
Phantom ______  __  __  ______  __  __  ______
 72
    65
 73
     6
 40
12.7
 49
6.35
 74
     0
 49
-1.27
 74
     0
 49
1.27
 74
     0
 49
-1.27
 74
     0
 49
1.27
 74
     0
 49
-1.27
 74
     0
  0
LTYPE
  5
2C
330
5
100
AcDbSymbolTableRecord
100
AcDbLinetypeTableRecord
  2
CENTER
 70
     0
  3
Center ____ _ ____ _ ____ _ ____ _ ____ _ ____
 72
    65
 73
     4
 40
10.16
 49
6.35
 74
     0
 49
-1.27
 74
     0
 49
1.27
 74
     0
 49
-1.27
 74
     0
  0
LTYPE
  5
2D
330
5
100
AcDbSymbolTableRecord
100
AcDbLinetypeTableRecord
  2
CENTERX2
 70
     0
  3
Center (2x) ________  __  ________  __  _____
 72
    65
 73
     4
 40
20.32
 49
12.7
 74
     0
 49
-2.54
 74
     0
 49
2.54
 74
     0
 49
-2.54
 74
     0
  0
LTYPE
  5
2E
330
5
100
AcDbSymbolTableRecord
100
AcDbLinetypeTableRecord
  2
DOT2
 70
     0
  3
Dot (.5x) ........................................
 72
    65
 73
     2
 40
0.635
 49
0.0
 74
     0
 49
-0.635
 74
     0
  0
ENDTAB
  0
TABLE
  2
LAYER
  5
2
330
0
100
AcDbSymbolTable
 70
     2
  0
LAYER
  5
10
330
2
100
AcDbSymbolTableRecord
100
AcDbLayerTableRecord
  2
0
 70
     0
 62
     7
  6
Continuous
370
    -3
390
F
  0
LAYER
  5
14B
330
2
100
AcDbSymbolTableRecord
100
AcDbLayerTableRecord
  2
Defpoints
 70
     0
 62
     7
  6
Continuous
290
     0
370
    -3
390
F
  0
ENDTAB
  0
TABLE
  2
STYLE
  5
3
330
0
100
AcDbSymbolTable
 70
     2
  0
STYLE
  5
11
330
3
100
AcDbSymbolTableRecord
100
AcDbTextStyleTableRecord
  2
Standard
 70
     0
 40
0.0
 41
1.0
 50
0.0
 71
     0
 42
2.5
  3
txt
  4
bigfont
  0
STYLE
  5
37
330
3
100
AcDbSymbolTableRecord
100
AcDbTextStyleTableRecord
  2
SLDTEXTSTYLE0
 70
     0
 40
0.0
 41
0.7
 50
0.0
 71
     0
 42
0.2
  3
TXT
  4
bigfont
  0
ENDTAB
  0
TABLE
  2
VIEW
  5
6
330
0
100
AcDbSymbolTable
 70
     0
  0
ENDTAB
  0
TABLE
  2
UCS
  5
7
330
0
100
AcDbSymbolTable
 70
     0
  0
ENDTAB
  0
TABLE
  2
APPID
  5
9
330
0
100
AcDbSymbolTable
 70
     1
  0
APPID
  5
12
330
9
100
AcDbSymbolTableRecord
100
AcDbRegAppTableRecord
  2
ACAD
 70
     0
  0
ENDTAB
  0
TABLE
  2
DIMSTYLE
  5
A
330
0
100
AcDbSymbolTable
 70
     3
100
AcDbDimStyleTable
  0
DIMSTYLE
105
27
330
A
100
AcDbSymbolTableRecord
100
AcDbDimStyleTableRecord
  2
ISO-25
 70
     0
 41
2.5
 42
0.625
 43
3.75
 44
1.25
 73
     0
 74
     0
 77
     1
 78
     8
140
2.5
141
2.5
143
0.0393700787
147
0.625
171
     3
172
     1
271
     2
272
     2
274
     3
278
    44
283
     0
284
     8
340
11
  0
DIMSTYLE
105
158
102
{ACAD_REACTORS
330
14A
330
167
330
17D
330
194
330
1A8
330
232
330
249
330
260
330
275
330
288
330
29D
330
405
330
418
330
42B
330
43F
330
452
102
}
330
A
100
AcDbSymbolTableRecord
100
AcDbDimStyleTableRecord
  2
SLDDIMSTYLE0
 70
     0
 41
3.0
 44
0.0
 73
     0
 74
     0
 77
     3
 78
    12
140
3.5
147
0.875
173
     1
271
     1
272
     3
284
    12
340
37
341
159
343
159
344
159
  0
DIMSTYLE
105
2B2
330
A
100
AcDbSymbolTableRecord
100
AcDbDimStyleTableRecord
  2
SLDDIMSTYLE1
 70
     0
 41
3.0
 44
0.0
140
3.0
147
0.75
173
     1
271
     0
272
     0
340
11
341
159
343
159
344
159
  0
ENDTAB
  0
TABLE
  2
BLOCK_RECORD
  5
1
330
0
100
AcDbSymbolTable
 70
    18
  0
BLOCK_RECORD
  5
1F
330
1
100
AcDbSymbolTableRecord
100
AcDbBlockTableRecord
  2
*Model_Space
340
22
  0
BLOCK_RECORD
  5
1B
330
1
100
AcDbSymbolTableRecord
100
AcDbBlockTableRecord
  2
*Paper_Space
340
1E
  0
BLOCK_RECORD
  5
23
330
1
100
AcDbSymbolTableRecord
100
AcDbBlockTableRecord
  2
*Paper_Space0
340
26
  0
BLOCK_RECORD
  5
14C
330
1
100
AcDbSymbolTableRecord
100
AcDbBlockTableRecord
  2
*D1
340
0
  0
BLOCK_RECORD
  5
159
330
1
100
AcDbSymbolTableRecord
100
AcDbBlockTableRecord
  2
_Open30
340
0
102
{BLKREFS
331
151
331
150
331
15F
331
160
331
16D
331
16C
331
175
331
176
331
185
331
184
331
18C
331
18D
331
19A
331
199
331
1A2
331
1A3
331
1AE
331
1AD
331
1B6
331
1B7
331
23A
331
239
331
241
331
242
331
251
331
250
331
258
331
259
331
266
331
265
331
26D
331
26E
331
27B
331
27A
331
282
331
283
331
28E
331
28D
331
295
331
296
331
2A3
331
2A2
331
2AB
331
2AC
331
40B
331
40A
331
412
331
413
331
41E
331
41D
331
425
331
426
331
431
331
430
331
439
331
43A
331
445
331
444
331
44C
331
44D
331
458
331
457
331
460
331
461
102
}
  0
BLOCK_RECORD
  5
168
330
1
100
AcDbSymbolTableRecord
100
AcDbBlockTableRecord
  2
*D3
340
0
  0
BLOCK_RECORD
  5
17E
330
1
100
AcDbSymbolTableRecord
100
AcDbBlockTableRecord
  2
*D4
340
0
  0
BLOCK_RECORD
  5
195
330
1
100
AcDbSymbolTableRecord
100
AcDbBlockTableRecord
  2
*D5
340
0
  0
BLOCK_RECORD
  5
1A9
330
1
100
AcDbSymbolTableRecord
100
AcDbBlockTableRecord
  2
*D6
340
0
  0
BLOCK_RECORD
  5
233
330
1
100
AcDbSymbolTableRecord
100
AcDbBlockTableRecord
  2
*D7
340
0
  0
BLOCK_RECORD
  5
24A
330
1
100
AcDbSymbolTableRecord
100
AcDbBlockTableRecord
  2
*D8
340
0
  0
BLOCK_RECORD
  5
261
330
1
100
AcDbSymbolTableRecord
100
AcDbBlockTableRecord
  2
*D9
340
0
  0
BLOCK_RECORD
  5
276
330
1
100
AcDbSymbolTableRecord
100
AcDbBlockTableRecord
  2
*D10
340
0
  0
BLOCK_RECORD
  5
289
330
1
100
AcDbSymbolTableRecord
100
AcDbBlockTableRecord
  2
*D11
340
0
  0
BLOCK_RECORD
  5
29E
330
1
100
AcDbSymbolTableRecord
100
AcDbBlockTableRecord
  2
*D12
340
0
  0
BLOCK_RECORD
  5
406
330
1
100
AcDbSymbolTableRecord
100
AcDbBlockTableRecord
  2
*D13
340
0
  0
BLOCK_RECORD
  5
419
330
1
100
AcDbSymbolTableRecord
100
AcDbBlockTableRecord
  2
*D14
340
0
  0
BLOCK_RECORD
  5
42C
330
1
100
AcDbSymbolTableRecord
100
AcDbBlockTableRecord
  2
*D15
340
0
  0
BLOCK_RECORD
  5
440
330
1
100
AcDbSymbolTableRecord
100
AcDbBlockTableRecord
  2
*D16
340
0
  0
BLOCK_RECORD
  5
453
330
1
100
AcDbSymbolTableRecord
100
AcDbBlockTableRecord
  2
*D17
340
0
  0
ENDTAB
  0
ENDSEC
  0
SECTION
  2
BLOCKS
  0
BLOCK
  5
20
330
1F
100
AcDbEntity
  8
0
100
AcDbBlockBegin
  2
*Model_Space
 70
     0
 71
     0
 10
0.0
 20
0.0
 30
0.0
  3
*Model_Space
  1

  0
ENDBLK
  5
21
330
1F
100
AcDbEntity
  8
0
100
AcDbBlockEnd
  0
BLOCK
  5
1C
330
1B
100
AcDbEntity
 67
     1
  8
0
100
AcDbBlockBegin
  2
*Paper_Space
 70
     0
 71
     0
 10
0.0
 20
0.0
 30
0.0
  3
*Paper_Space
  1

  0
ENDBLK
  5
1D
330
1B
100
AcDbEntity
 67
     1
  8
0
100
AcDbBlockEnd
  0
BLOCK
  5
24
330
23
100
AcDbEntity
  8
0
100
AcDbBlockBegin
  2
*Paper_Space0
 70
     0
 71
     0
 10
0.0
 20
0.0
 30
0.0
  3
*Paper_Space0
  1

  0
ENDBLK
  5
25
330
23
100
AcDbEntity
  8
0
100
AcDbBlockEnd
  0
BLOCK
  5
156
330
14C
100
AcDbEntity
  8
0
100
AcDbBlockBegin
  2
*D1
 70
     1
 71
     0
 10
0.0
 20
0.0
 30
0.0
  3
*D1
  1

  0
INSERT
  5
15F
330
14C
100
AcDbEntity
  8
0
  6
Continuous
 62
     7
370
     0
100
AcDbBlockReference
  2
_Open30
 10
99.2233435583
 20
68.3052279191
 30
0.1
 41
3.0
 42
3.0
 50
180.0
  0
INSERT
  5
160
330
14C
100
AcDbEntity
  8
0
  6
Continuous
 62
     7
370
     0
100
AcDbBlockReference
  2
_Open30
 10
89.2233435583
 20
68.3052279191
 30
0.1
 41
3.0
 42
3.0
 50
360.0
  0
LINE
  5
161
330
14C
100
AcDbEntity
  8
0
  6
Continuous
 62
     7
370
     0
100
AcDbLine
 10
99.2233435583
 20
92.8611042945
 30
0.0
 11
99.2233435583
 21
67.3052279191
 31
0.0
  0
LINE
  5
162
330
14C
100
AcDbEntity
  8
0
  6
Continuous
 62
     7
370
     0
100
AcDbLine
 10
89.2233435583
 20
92.8611042945
 30
0.0
 11
89.2233435583
 21
67.3052279191
 31
0.0
  0
LINE
  5
163
330
14C
100
AcDbEntity
  8
0
  6
Continuous
 62
     7
370
     0
100
AcDbLine
 10
99.2233435583
 20
68.3052279191
 30
0.0
 11
104.2233435583
 21
68.3052279191
 31
0.0
  0
LINE
  5
164
330
14C
100
AcDbEntity
  8
0
  6
Continuous
 62
     7
370
     0
100
AcDbLine
 10
99.2233435583
 20
68.3052279191
 30
0.0
 11
89.2233435583
 21
68.3052279191
 31
0.0
  0
LINE
  5
165
330
14C
100
AcDbEntity
  8
0
  6
Continuous
 62
     7
370
     0
100
AcDbLine
 10
89.2233435583
 20
68.3052279191
 30
0.0
 11
84.2233435583
 21
68.3052279191
 31
0.0
  0
MTEXT
  5
166
330
14C
100
AcDbEntity
  8
0
  6
Continuous
 62
     7
370
     0
100
AcDbMText
 10
92.1872936874
 20
72.377954959
 30
0.0
 40
3.5
 41
0.0
 71
     1
 72
     1
  1
10
  7
SLDTEXTSTYLE0
 73
     1
 44
1.0
  0
ENDBLK
  5
157
330
14C
100
AcDbEntity
  8
0
100
AcDbBlockEnd
  0
BLOCK
  5
15A
330
159
100
AcDbEntity
  8
0
100
AcDbBlockBegin
  2
_Open30
 70
     0
 71
     0
 10
0.0
 20
0.0
 30
0.0
  3
_Open30
  1

  0
LINE
  5
15C
330
159
100
AcDbEntity
  8
0
  6
ByBlock
 62
     0
370
    -2
100
AcDbLine
 10
-1.0
 20
0.267949
 30
0.0
 11
0.0
 21
0.0
 31
0.0
  0
LINE
  5
15D
330
159
100
AcDbEntity
  8
0
  6
ByBlock
 62
     0
370
    -2
100
AcDbLine
 10
0.0
 20
0.0
 30
0.0
 11
-1.0
 21
-0.267949
 31
0.0
  0
LINE
  5
15E
330
159
100
AcDbEntity
  8
0
  6
ByBlock
 62
     0
370
    -2
100
AcDbLine
 10
0.0
 20
0.0
 30
0.0
 11
-1.0
 21
0.0
 31
0.0
  0
ENDBLK
  5
15B
330
159
100
AcDbEntity
  8
0
100
AcDbBlockEnd
  0
BLOCK
  5
173
330
168
100
AcDbEntity
  8
0
100
AcDbBlockBegin
  2
*D3
 70
     1
 71
     0
 10
0.0
 20
0.0
 30
0.0
  3
*D3
  1

  0
INSERT
  5
175
330
168
100
AcDbEntity
  8
0
  6
Continuous
 62
     7
370
     0
100
AcDbBlockReference
  2
_Open30
 10
119.2188303113
 20
105.8611042945
 30
0.1
 41
3.0
 42
3.0
 50
270.0
  0
INSERT
  5
176
330
168
100
AcDbEntity
  8
0
  6
Continuous
 62
     7
370
     0
100
AcDbBlockReference
  2
_Open30
 10
119.2188303113
 20
93.8611042945
 30
0.1
 41
3.0
 42
3.0
 50
90.0
  0
LINE
  5
177
330
168
100
AcDbEntity
  8
0
  6
Continuous
 62
     7
370
     0
100
AcDbLine
 10
101.8761064626
 20
105.8611042945
 30
0.0
 11
120.2188303113
 21
105.8611042945
 31
0.0
  0
LINE
  5
178
330
168
100
AcDbEntity
  8
0
  6
Continuous
 62
     7
370
     0
100
AcDbLine
 10
100.2233435583
 20
93.8611042945
 30
0.0
 11
120.2188303113
 21
93.8611042945
 31
0.0
  0
LINE
  5
179
330
168
100
AcDbEntity
  8
0
  6
Continuous
 62
     7
370
     0
100
AcDbLine
 10
119.2188303113
 20
105.8611042945
 30
0.0
 11
119.2188303113
 21
110.8611042945
 31
0.0
  0
LINE
  5
17A
330
168
100
AcDbEntity
  8
0
  6
Continuous
 62
     7
370
     0
100
AcDbLine
 10
119.2188303113
 20
105.8611042945
 30
0.0
 11
119.2188303113
 21
93.8611042945
 31
0.0
  0
LINE
  5
17B
330
168
100
AcDbEntity
  8
0
  6
Continuous
 62
     7
370
     0
100
AcDbLine
 10
119.2188303113
 20
93.8611042945
 30
0.0
 11
119.2188303113
 21
88.8611042945
 31
0.0
  0
MTEXT
  5
17C
330
168
100
AcDbEntity
  8
0
  6
Continuous
 62
     7
370
     0
100
AcDbMText
 10
115.1461032714
 20
97.8250544236
 30
0.0
 40
3.5
 41
0.0
 71
     1
 72
     1
  1
12
  7
SLDTEXTSTYLE0
 11
-7.044197039909883E-15
 21
1.0
 31
0.0
 73
     1
 44
1.0
  0
ENDBLK
  5
174
330
168
100
AcDbEntity
  8
0
100
AcDbBlockEnd
  0
BLOCK
  5
189
330
17E
100
AcDbEntity
  8
0
100
AcDbBlockBegin
  2
*D4
 70
     1
 71
     0
 10
0.0
 20
0.0
 30
0.0
  3
*D4
  1

  0
INSERT
  5
18C
330
17E
100
AcDbEntity
  8
0
  6
Continuous
 62
     7
370
     0
100
AcDbBlockReference
  2
_Open30
 10
110.2513832011
 20
152.3611042945
 30
0.1
 41
3.0
 42
3.0
 50
270.0
  0
INSERT
  5
18D
330
17E
100
AcDbEntity
  8
0
  6
Continuous
 62
     7
370
     0
100
AcDbBlockReference
  2
_Open30
 10
110.2513832011
 20
143.8611042945
 30
0.1
 41
3.0
 42
3.0
 50
90.0
  0
LINE
  5
18E
330
17E
100
AcDbEntity
  8
0
  6
Continuous
 62
     7
370
     0
100
AcDbLine
 10
105.2233435583
 20
152.3611042945
 30
0.0
 11
111.2513832011
 21
152.3611042945
 31
0.0
  0
LINE
  5
18F
330
17E
100
AcDbEntity
  8
0
  6
Continuous
 62
     7
370
     0
100
AcDbLine
 10
106.7233435583
 20
143.8611042945
 30
0.0
 11
111.2513832011
 21
143.8611042945
 31
0.0
  0
LINE
  5
190
330
17E
100
AcDbEntity
  8
0
  6
Continuous
 62
     7
370
     0
100
AcDbLine
 10
110.2513832011
 20
152.3611042945
 30
0.0
 11
110.2513832011
 21
157.3611042945
 31
0.0
  0
LINE
  5
191
330
17E
100
AcDbEntity
  8
0
  6
Continuous
 62
     7
370
     0
100
AcDbLine
 10
110.2513832011
 20
152.3611042945
 30
0.0
 11
110.2513832011
 21
143.8611042945
 31
0.0
  0
LINE
  5
192
330
17E
100
AcDbEntity
  8
0
  6
Continuous
 62
     7
370
     0
100
AcDbLine
 10
110.2513832011
 20
143.8611042945
 30
0.0
 11
110.2513832011
 21
138.8611042945
 31
0.0
  0
MTEXT
  5
193
330
17E
100
AcDbEntity
  8
0
  6
Continuous
 62
     7
370
     0
100
AcDbMText
 10
106.1786561612
 20
145.056447427
 30
0.0
 40
3.5
 41
0.0
 71
     1
 72
     1
  1
8.5
  7
SLDTEXTSTYLE0
 11
-7.044197039909883E-15
 21
1.0
 31
0.0
 73
     1
 44
1.0
  0
ENDBLK
  5
18A
330
17E
100
AcDbEntity
  8
0
100
AcDbBlockEnd
  0
BLOCK
  5
1A0
330
195
100
AcDbEntity
  8
0
100
AcDbBlockBegin
  2
*D5
 70
     1
 71
     0
 10
0.0
 20
0.0
 30
0.0
  3
*D5
  1

  0
INSERT
  5
1A2
330
195
100
AcDbEntity
  8
0
  6
Continuous
 62
     7
370
     0
100
AcDbBlockReference
  2
_Open30
 10
119.066067407
 20
152.3611042945
 30
0.1
 41
3.0
 42
3.0
 50
90.0
  0
INSERT
  5
1A3
330
195
100
AcDbEntity
  8
0
  6
Continuous
 62
     7
370
     0
100
AcDbBlockReference
  2
_Open30
 10
119.066067407
 20
105.8611042945
 30
0.1
 41
3.0
 42
3.0
 50
270.0
  0
LINE
  5
1A4
330
195
100
AcDbEntity
  8
0
  6
Continuous
 62
     7
370
     0
100
AcDbLine
 10
105.2233435583
 20
152.3611042945
 30
0.0
 11
120.066067407
 21
152.3611042945
 31
0.0
  0
LINE
  5
1A5
330
195
100
AcDbEntity
  8
0
  6
Continuous
 62
     7
370
     0
100
AcDbLine
 10
101.8761064626
 20
105.8611042945
 30
0.0
 11
120.066067407
 21
105.8611042945
 31
0.0
  0
LINE
  5
1A6
330
195
100
AcDbEntity
  8
0
  6
Continuous
 62
     7
370
     0
100
AcDbLine
 10
119.066067407
 20
152.3611042945
 30
0.0
 11
119.066067407
 21
105.8611042945
 31
0.0
  0
MTEXT
  5
1A7
330
195
100
AcDbEntity
  8
0
  6
Continuous
 62
     7
370
     0
100
AcDbMText
 10
114.9933403671
 20
125.0378404304
 30
0.0
 40
3.5
 41
0.0
 71
     1
 72
     1
  1
46.5
  7
SLDTEXTSTYLE0
 11
-7.044197039909883E-15
 21
1.0
 31
0.0
 73
     1
 44
1.0
  0
ENDBLK
  5
1A1
330
195
100
AcDbEntity
  8
0
100
AcDbBlockEnd
  0
BLOCK
  5
1B4
330
1A9
100
AcDbEntity
  8
0
100
AcDbBlockBegin
  2
*D6
 70
     1
 71
     0
 10
0.0
 20
0.0
 30
0.0
  3
*D6
  1

  0
INSERT
  5
1B6
330
1A9
100
AcDbEntity
  8
0
  6
Continuous
 62
     7
370
     0
100
AcDbBlockReference
  2
_Open30
 10
114.1539495331
 20
143.8611042945
 30
0.1
 41
3.0
 42
3.0
 50
90.0
  0
INSERT
  5
1B7
330
1A9
100
AcDbEntity
  8
0
  6
Continuous
 62
     7
370
     0
100
AcDbBlockReference
  2
_Open30
 10
114.1539495331
 20
105.8611042945
 30
0.1
 41
3.0
 42
3.0
 50
270.0
  0
LINE
  5
1B8
330
1A9
100
AcDbEntity
  8
0
  6
Continuous
 62
     7
370
     0
100
AcDbLine
 10
106.7233435583
 20
143.8611042945
 30
0.0
 11
115.1539495331
 21
143.8611042945
 31
0.0
  0
LINE
  5
1B9
330
1A9
100
AcDbEntity
  8
0
  6
Continuous
 62
     7
370
     0
100
AcDbLine
 10
101.8761064626
 20
105.8611042945
 30
0.0
 11
115.1539495331
 21
105.8611042945
 31
0.0
  0
LINE
  5
1BA
330
1A9
100
AcDbEntity
  8
0
  6
Continuous
 62
     7
370
     0
100
AcDbLine
 10
114.1539495331
 20
143.8611042945
 30
0.0
 11
114.1539495331
 21
105.8611042945
 31
0.0
  0
MTEXT
  5
1BB
330
1A9
100
AcDbEntity
  8
0
  6
Continuous
 62
     7
370
     0
100
AcDbMText
 10
110.0812224932
 20
122.8250544236
 30
0.0
 40
3.5
 41
0.0
 71
     1
 72
     1
  1
38
  7
SLDTEXTSTYLE0
 11
-7.044197039909883E-15
 21
1.0
 31
0.0
 73
     1
 44
1.0
  0
ENDBLK
  5
1B5
330
1A9
100
AcDbEntity
  8
0
100
AcDbBlockEnd
  0
BLOCK
  5
23E
330
233
100
AcDbEntity
  8
0
100
AcDbBlockBegin
  2
*D7
 70
     1
 71
     0
 10
0.0
 20
0.0
 30
0.0
  3
*D7
  1

  0
INSERT
  5
241
330
233
100
AcDbEntity
  8
0
  6
Continuous
 62
     7
370
     0
100
AcDbBlockReference
  2
_Open30
 10
125.9494987825
 20
143.3611042945
 30
-86.8222395833
 41
3.0
 42
3.0
 50
90.0
  0
INSERT
  5
242
330
233
100
AcDbEntity
  8
0
  6
Continuous
 62
     7
370
     0
100
AcDbBlockReference
  2
_Open30
 10
125.9494987825
 20
152.3611042945
 30
-86.8222395833
 41
3.0
 42
3.0
 50
270.0
  0
LINE
  5
243
330
233
100
AcDbEntity
  8
0
  6
Continuous
 62
     7
370
     0
100
AcDbLine
 10
142.0521829141
 20
143.3611042945
 30
0.0
 11
124.9494987825
 21
143.3611042945
 31
0.0
  0
LINE
  5
244
330
233
100
AcDbEntity
  8
0
  6
Continuous
 62
     7
370
     0
100
AcDbLine
 10
139.5521827141
 20
152.3611042945
 30
0.0
 11
124.9494987825
 21
152.3611042945
 31
0.0
  0
LINE
  5
245
330
233
100
AcDbEntity
  8
0
  6
Continuous
 62
     7
370
     0
100
AcDbLine
 10
125.9494987825
 20
143.3611042945
 30
0.0
 11
125.9494987825
 21
138.3611042945
 31
0.0
  0
LINE
  5
246
330
233
100
AcDbEntity
  8
0
  6
Continuous
 62
     7
370
     0
100
AcDbLine
 10
125.9494987825
 20
143.3611042945
 30
0.0
 11
125.9494987825
 21
152.3611042945
 31
0.0
  0
LINE
  5
247
330
233
100
AcDbEntity
  8
0
  6
Continuous
 62
     7
370
     0
100
AcDbLine
 10
125.9494987825
 20
152.3611042945
 30
0.0
 11
125.9494987825
 21
157.3611042945
 31
0.0
  0
MTEXT
  5
248
330
233
100
AcDbEntity
  8
0
  6
Continuous
 62
     7
370
     0
100
AcDbMText
 10
121.8767717426
 20
146.8436614202
 30
0.0
 40
3.5
 41
0.0
 71
     1
 72
     1
  1
9
  7
SLDTEXTSTYLE0
 11
-3.269438756184351E-15
 21
1.0
 31
0.0
 73
     1
 44
1.0
  0
ENDBLK
  5
23F
330
233
100
AcDbEntity
  8
0
100
AcDbBlockEnd
  0
BLOCK
  5
255
330
24A
100
AcDbEntity
  8
0
100
AcDbBlockBegin
  2
*D8
 70
     1
 71
     0
 10
0.0
 20
0.0
 30
0.0
  3
*D8
  1

  0
INSERT
  5
258
330
24A
100
AcDbEntity
  8
0
  6
Continuous
 62
     7
370
     0
100
AcDbBlockReference
  2
_Open30
 10
137.5521829141
 20
159.5173044433
 30
-86.8222395833
 41
3.0
 42
3.0
 50
360.0
  0
INSERT
  5
259
330
24A
100
AcDbEntity
  8
0
  6
Continuous
 62
     7
370
     0
100
AcDbBlockReference
  2
_Open30
 10
143.0521829141
 20
159.5173044433
 30
-86.8222395833
 41
3.0
 42
3.0
 50
180.0
  0
LINE
  5
25A
330
24A
100
AcDbEntity
  8
0
  6
Continuous
 62
     7
370
     0
100
AcDbLine
 10
137.5521829141
 20
150.3611044945
 30
0.0
 11
137.5521829141
 21
160.5173044433
 31
0.0
  0
LINE
  5
25B
330
24A
100
AcDbEntity
  8
0
  6
Continuous
 62
     7
370
     0
100
AcDbLine
 10
143.0521829141
 20
144.3611042945
 30
0.0
 11
143.0521829141
 21
160.5173044433
 31
0.0
  0
LINE
  5
25C
330
24A
100
AcDbEntity
  8
0
  6
Continuous
 62
     7
370
     0
100
AcDbLine
 10
137.5521829141
 20
159.5173044433
 30
0.0
 11
132.5521829141
 21
159.5173044433
 31
0.0
  0
LINE
  5
25D
330
24A
100
AcDbEntity
  8
0
  6
Continuous
 62
     7
370
     0
100
AcDbLine
 10
137.5521829141
 20
159.5173044433
 30
0.0
 11
143.0521829141
 21
159.5173044433
 31
0.0
  0
LINE
  5
25E
330
24A
100
AcDbEntity
  8
0
  6
Continuous
 62
     7
370
     0
100
AcDbLine
 10
143.0521829141
 20
159.5173044433
 30
0.0
 11
148.0521829141
 21
159.5173044433
 31
0.0
  0
MTEXT
  5
25F
330
24A
100
AcDbEntity
  8
0
  6
Continuous
 62
     7
370
     0
100
AcDbMText
 10
137.2475260466
 20
163.5900314831
 30
0.0
 40
3.5
 41
0.0
 71
     1
 72
     1
  1
5.5
  7
SLDTEXTSTYLE0
 73
     1
 44
1.0
  0
ENDBLK
  5
256
330
24A
100
AcDbEntity
  8
0
100
AcDbBlockEnd
  0
BLOCK
  5
26B
330
261
100
AcDbEntity
  8
0
100
AcDbBlockBegin
  2
*D9
 70
     1
 71
     0
 10
0.0
 20
0.0
 30
0.0
  3
*D9
  1

  0
INSERT
  5
26D
330
261
100
AcDbEntity
  8
0
  6
Continuous
 62
     7
370
     0
100
AcDbBlockReference
  2
_Open30
 10
143.0521829141
 20
159.5173044433
 30
-86.8222395833
 41
3.0
 42
3.0
 50
0.0
  0
INSERT
  5
26E
330
261
100
AcDbEntity
  8
0
  6
Continuous
 62
     7
370
     0
100
AcDbBlockReference
  2
_Open30
 10
157.0521829141
 20
159.5173044433
 30
-86.8222395833
 41
3.0
 42
3.0
 50
180.0
  0
LINE
  5
26F
330
261
100
AcDbEntity
  8
0
  6
Continuous
 62
     7
370
     0
100
AcDbLine
 10
143.0521829141
 20
144.3611042945
 30
0.0
 11
143.0521829141
 21
160.5173044433
 31
0.0
  0
LINE
  5
270
330
261
100
AcDbEntity
  8
0
  6
Continuous
 62
     7
370
     0
100
AcDbLine
 10
157.0521829141
 20
144.3611042945
 30
0.0
 11
157.0521829141
 21
160.5173044433
 31
0.0
  0
LINE
  5
271
330
261
100
AcDbEntity
  8
0
  6
Continuous
 62
     7
370
     0
100
AcDbLine
 10
143.0521829141
 20
159.5173044433
 30
0.0
 11
138.0521829141
 21
159.5173044433
 31
0.0
  0
LINE
  5
272
330
261
100
AcDbEntity
  8
0
  6
Continuous
 62
     7
370
     0
100
AcDbLine
 10
143.0521829141
 20
159.5173044433
 30
0.0
 11
157.0521829141
 21
159.5173044433
 31
0.0
  0
LINE
  5
273
330
261
100
AcDbEntity
  8
0
  6
Continuous
 62
     7
370
     0
100
AcDbLine
 10
157.0521829141
 20
159.5173044433
 30
0.0
 11
162.0521829141
 21
159.5173044433
 31
0.0
  0
MTEXT
  5
274
330
261
100
AcDbEntity
  8
0
  6
Continuous
 62
     7
370
     0
100
AcDbMText
 10
148.0161330432
 20
163.5900314831
 30
0.0
 40
3.5
 41
0.0
 71
     1
 72
     1
  1
14
  7
SLDTEXTSTYLE0
 73
     1
 44
1.0
  0
ENDBLK
  5
26C
330
261
100
AcDbEntity
  8
0
100
AcDbBlockEnd
  0
BLOCK
  5
280
330
276
100
AcDbEntity
  8
0
100
AcDbBlockBegin
  2
*D10
 70
     1
 71
     0
 10
0.0
 20
0.0
 30
0.0
  3
*D10
  1

  0
INSERT
  5
282
330
276
100
AcDbEntity
  8
0
  6
Continuous
 62
     7
370
     0
100
AcDbBlockReference
  2
_Open30
 10
171.0521779141
 20
70.7344191564
 30
-86.8222395833
 41
3.0
 42
3.0
 50
360.0
  0
INSERT
  5
283
330
276
100
AcDbEntity
  8
0
  6
Continuous
 62
     7
370
     0
100
AcDbBlockReference
  2
_Open30
 10
147.0521779141
 20
70.7344191564
 30
-86.8222395833
 41
3.0
 42
3.0
 50
180.0
  0
LINE
  5
284
330
276
100
AcDbEntity
  8
0
  6
Continuous
 62
     7
370
     0
100
AcDbLine
 10
171.0521779141
 20
92.8611042945
 30
0.0
 11
171.0521779141
 21
69.7344191564
 31
0.0
  0
LINE
  5
285
330
276
100
AcDbEntity
  8
0
  6
Continuous
 62
     7
370
     0
100
AcDbLine
 10
147.0521779141
 20
92.8611042945
 30
0.0
 11
147.0521779141
 21
69.7344191564
 31
0.0
  0
LINE
  5
286
330
276
100
AcDbEntity
  8
0
  6
Continuous
 62
     7
370
     0
100
AcDbLine
 10
171.0521779141
 20
70.7344191564
 30
0.0
 11
147.0521779141
 21
70.7344191564
 31
0.0
  0
MTEXT
  5
287
330
276
100
AcDbEntity
  8
0
  6
Continuous
 62
     7
370
     0
100
AcDbMText
 10
157.0161280432
 20
74.8071461963
 30
0.0
 40
3.5
 41
0.0
 71
     1
 72
     1
  1
24
  7
SLDTEXTSTYLE0
 73
     1
 44
1.0
  0
ENDBLK
  5
281
330
276
100
AcDbEntity
  8
0
100
AcDbBlockEnd
  0
BLOCK
  5
293
330
289
100
AcDbEntity
  8
0
100
AcDbBlockBegin
  2
*D11
 70
     1
 71
     0
 10
0.0
 20
0.0
 30
0.0
  3
*D11
  1

  0
INSERT
  5
295
330
289
100
AcDbEntity
  8
0
  6
Continuous
 62
     7
370
     0
100
AcDbBlockReference
  2
_Open30
 10
152.0521779141
 20
81.1798102123
 30
-86.8222395833
 41
3.0
 42
3.0
 50
360.0
  0
INSERT
  5
296
330
289
100
AcDbEntity
  8
0
  6
Continuous
 62
     7
370
     0
100
AcDbBlockReference
  2
_Open30
 10
166.0521779141
 20
81.1798102123
 30
-86.8222395833
 41
3.0
 42
3.0
 50
180.0
  0
LINE
  5
297
330
289
100
AcDbEntity
  8
0
  6
Continuous
 62
     7
370
     0
100
AcDbLine
 10
152.0521779141
 20
97.8611042945
 30
0.0
 11
152.0521779141
 21
80.1798102123
 31
0.0
  0
LINE
  5
298
330
289
100
AcDbEntity
  8
0
  6
Continuous
 62
     7
370
     0
100
AcDbLine
 10
166.0521779141
 20
97.8611042945
 30
0.0
 11
166.0521779141
 21
80.1798102123
 31
0.0
  0
LINE
  5
299
330
289
100
AcDbEntity
  8
0
  6
Continuous
 62
     7
370
     0
100
AcDbLine
 10
152.0521779141
 20
81.1798102123
 30
0.0
 11
147.0521779141
 21
81.1798102123
 31
0.0
  0
LINE
  5
29A
330
289
100
AcDbEntity
  8
0
  6
Continuous
 62
     7
370
     0
100
AcDbLine
 10
152.0521779141
 20
81.1798102123
 30
0.0
 11
166.0521779141
 21
81.1798102123
 31
0.0
  0
LINE
  5
29B
330
289
100
AcDbEntity
  8
0
  6
Continuous
 62
     7
370
     0
100
AcDbLine
 10
166.0521779141
 20
81.1798102123
 30
0.0
 11
171.0521779141
 21
81.1798102123
 31
0.0
  0
MTEXT
  5
29C
330
289
100
AcDbEntity
  8
0
  6
Continuous
 62
     7
370
     0
100
AcDbMText
 10
157.0161280432
 20
85.2525372522
 30
0.0
 40
3.5
 41
0.0
 71
     1
 72
     1
  1
14
  7
SLDTEXTSTYLE0
 73
     1
 44
1.0
  0
ENDBLK
  5
294
330
289
100
AcDbEntity
  8
0
100
AcDbBlockEnd
  0
BLOCK
  5
2A9
330
29E
100
AcDbEntity
  8
0
100
AcDbBlockBegin
  2
*D12
 70
     1
 71
     0
 10
0.0
 20
0.0
 30
0.0
  3
*D12
  1

  0
INSERT
  5
2AB
330
29E
100
AcDbEntity
  8
0
  6
Continuous
 62
     7
370
     0
100
AcDbBlockReference
  2
_Open30
 10
204.9199531904
 20
152.3611042945
 30
-86.8222395833
 41
3.0
 42
3.0
 50
90.0
  0
INSERT
  5
2AC
330
29E
100
AcDbEntity
  8
0
  6
Continuous
 62
     7
370
     0
100
AcDbBlockReference
  2
_Open30
 10
204.9199531904
 20
93.8611042945
 30
-86.8222395833
 41
3.0
 42
3.0
 50
270.0
  0
LINE
  5
2AD
330
29E
100
AcDbEntity
  8
0
  6
Continuous
 62
     7
370
     0
100
AcDbLine
 10
180.0521730141
 20
152.3611042945
 30
0.0
 11
205.9199531904
 21
152.3611042945
 31
0.0
  0
LINE
  5
2AE
330
29E
100
AcDbEntity
  8
0
  6
Continuous
 62
     7
370
     0
100
AcDbLine
 10
172.0521779141
 20
93.8611042945
 30
0.0
 11
205.9199531904
 21
93.8611042945
 31
0.0
  0
LINE
  5
2AF
330
29E
100
AcDbEntity
  8
0
  6
Continuous
 62
     7
370
     0
100
AcDbLine
 10
204.9199531904
 20
152.3611042945
 30
0.0
 11
204.9199531904
 21
93.8611042945
 31
0.0
  0
MTEXT
  5
2B0
330
29E
100
AcDbEntity
  8
0
  6
Continuous
 62
     7
370
     0
100
AcDbMText
 10
200.8472261505
 20
119.0378404304
 30
0.0
 40
3.5
 41
0.0
 71
     1
 72
     1
  1
58.5
  7
SLDTEXTSTYLE0
 11
-7.044197039909883E-15
 21
1.0
 31
0.0
 73
     1
 44
1.0
  0
ENDBLK
  5
2AA
330
29E
100
AcDbEntity
  8
0
100
AcDbBlockEnd
  0
BLOCK
  5
410
330
406
100
AcDbEntity
  8
0
100
AcDbBlockBegin
  2
*D13
 70
     1
 71
     0
 10
0.0
 20
0.0
 30
0.0
  3
*D13
  1

  0
INSERT
  5
412
330
406
100
AcDbEntity
  8
0
  6
Continuous
 62
     7
370
     0
100
AcDbBlockReference
  2
_Open30
 10
49.2233435583
 20
261.4756590016
 30
-32.1071875
 41
3.0
 42
3.0
 50
180.0
  0
INSERT
  5
413
330
406
100
AcDbEntity
  8
0
  6
Continuous
 62
     7
370
     0
100
AcDbBlockReference
  2
_Open30
 10
89.2233435583
 20
261.4756590016
 30
-32.1071875
 41
3.0
 42
3.0
 50
0.0
  0
LINE
  5
414
330
406
100
AcDbEntity
  8
0
  6
Continuous
 62
     7
370
     0
100
AcDbLine
 10
49.2233435583
 20
217.0264980675
 30
0.0
 11
49.2233435583
 21
262.4756590016
 31
0.0
  0
LINE
  5
415
330
406
100
AcDbEntity
  8
0
  6
Continuous
 62
     7
370
     0
100
AcDbLine
 10
89.2233435583
 20
217.0264980675
 30
0.0
 11
89.2233435583
 21
262.4756590016
 31
0.0
  0
LINE
  5
416
330
406
100
AcDbEntity
  8
0
  6
Continuous
 62
     7
370
     0
100
AcDbLine
 10
49.2233435583
 20
261.4756590016
 30
0.0
 11
89.2233435583
 21
261.4756590016
 31
0.0
  0
MTEXT
  5
417
330
406
100
AcDbEntity
  8
0
  6
Continuous
 62
     7
370
     0
100
AcDbMText
 10
67.1872936874
 20
265.5483860415
 30
0.0
 40
3.5
 41
0.0
 71
     1
 72
     1
  1
40
  7
SLDTEXTSTYLE0
 73
     1
 44
1.0
  0
ENDBLK
  5
411
330
406
100
AcDbEntity
  8
0
100
AcDbBlockEnd
  0
BLOCK
  5
423
330
419
100
AcDbEntity
  8
0
100
AcDbBlockBegin
  2
*D14
 70
     1
 71
     0
 10
0.0
 20
0.0
 30
0.0
  3
*D14
  1

  0
INSERT
  5
425
330
419
100
AcDbEntity
  8
0
  6
Continuous
 62
     7
370
     0
100
AcDbBlockReference
  2
_Open30
 10
34.2233435583
 20
269.9504986669
 30
-32.1071875
 41
3.0
 42
3.0
 50
180.0
  0
INSERT
  5
426
330
419
100
AcDbEntity
  8
0
  6
Continuous
 62
     7
370
     0
100
AcDbBlockReference
  2
_Open30
 10
104.2233435583
 20
269.9504986669
 30
-32.1071875
 41
3.0
 42
3.0
 50
0.0
  0
LINE
  5
427
330
419
100
AcDbEntity
  8
0
  6
Continuous
 62
     7
370
     0
100
AcDbLine
 10
34.2233435583
 20
238.5264980675
 30
0.0
 11
34.2233435583
 21
270.9504986669
 31
0.0
  0
LINE
  5
428
330
419
100
AcDbEntity
  8
0
  6
Continuous
 62
     7
370
     0
100
AcDbLine
 10
104.2233435583
 20
238.5264980675
 30
0.0
 11
104.2233435583
 21
270.9504986669
 31
0.0
  0
LINE
  5
429
330
419
100
AcDbEntity
  8
0
  6
Continuous
 62
     7
370
     0
100
AcDbLine
 10
34.2233435583
 20
269.9504986669
 30
0.0
 11
104.2233435583
 21
269.9504986669
 31
0.0
  0
MTEXT
  5
42A
330
419
100
AcDbEntity
  8
0
  6
Continuous
 62
     7
370
     0
100
AcDbMText
 10
67.1872936874
 20
274.0232257068
 30
0.0
 40
3.5
 41
0.0
 71
     1
 72
     1
  1
70
  7
SLDTEXTSTYLE0
 73
     1
 44
1.0
  0
ENDBLK
  5
424
330
419
100
AcDbEntity
  8
0
100
AcDbBlockEnd
  0
BLOCK
  5
437
330
42C
100
AcDbEntity
  8
0
100
AcDbBlockBegin
  2
*D15
 70
     1
 71
     0
 10
0.0
 20
0.0
 30
0.0
  3
*D15
  1

  0
INSERT
  5
439
330
42C
100
AcDbEntity
  8
0
  6
Continuous
 62
     7
370
     0
100
AcDbBlockReference
  2
_Open30
 10
130.0330900109
 20
194.5265080675
 30
-32.1071875
 41
3.0
 42
3.0
 50
270.0
  0
INSERT
  5
43A
330
42C
100
AcDbEntity
  8
0
  6
Continuous
 62
     7
370
     0
100
AcDbBlockReference
  2
_Open30
 10
130.0330900109
 20
237.5264980675
 30
-32.1071875
 41
3.0
 42
3.0
 50
90.0
  0
LINE
  5
43B
330
42C
100
AcDbEntity
  8
0
  6
Continuous
 62
     7
370
     0
100
AcDbLine
 10
105.2233435583
 20
194.5265080675
 30
0.0
 11
131.0330900109
 21
194.5265080675
 31
0.0
  0
LINE
  5
43C
330
42C
100
AcDbEntity
  8
0
  6
Continuous
 62
     7
370
     0
100
AcDbLine
 10
105.2233435583
 20
237.5264980675
 30
0.0
 11
131.0330900109
 21
237.5264980675
 31
0.0
  0
LINE
  5
43D
330
42C
100
AcDbEntity
  8
0
  6
Continuous
 62
     7
370
     0
100
AcDbLine
 10
130.0330900109
 20
194.5265080675
 30
0.0
 11
130.0330900109
 21
237.5264980675
 31
0.0
  0
MTEXT
  5
43E
330
42C
100
AcDbEntity
  8
0
  6
Continuous
 62
     7
370
     0
100
AcDbMText
 10
125.960362971
 20
213.9904531966
 30
0.0
 40
3.5
 41
0.0
 71
     1
 72
     1
  1
43
  7
SLDTEXTSTYLE0
 11
6.123031769111886E-17
 21
1.0
 31
0.0
 73
     1
 44
1.0
  0
ENDBLK
  5
438
330
42C
100
AcDbEntity
  8
0
100
AcDbBlockEnd
  0
BLOCK
  5
44A
330
440
100
AcDbEntity
  8
0
100
AcDbBlockBegin
  2
*D16
 70
     1
 71
     0
 10
0.0
 20
0.0
 30
0.0
  3
*D16
  1

  0
INSERT
  5
44C
330
440
100
AcDbEntity
  8
0
  6
Continuous
 62
     7
370
     0
100
AcDbBlockReference
  2
_Open30
 10
28.6474035583
 20
169.9636121035
 30
-32.1071875
 41
3.0
 42
3.0
 50
180.0
  0
INSERT
  5
44D
330
440
100
AcDbEntity
  8
0
  6
Continuous
 62
     7
370
     0
100
AcDbBlockReference
  2
_Open30
 10
109.7992835583
 20
169.9636121035
 30
-32.1071875
 41
3.0
 42
3.0
 50
0.0
  0
LINE
  5
44E
330
440
100
AcDbEntity
  8
0
  6
Continuous
 62
     7
370
     0
100
AcDbLine
 10
28.6474035583
 20
188.0265030675
 30
0.0
 11
28.6474035583
 21
168.9636121035
 31
0.0
  0
LINE
  5
44F
330
440
100
AcDbEntity
  8
0
  6
Continuous
 62
     7
370
     0
100
AcDbLine
 10
109.7992835583
 20
188.0265030675
 30
0.0
 11
109.7992835583
 21
168.9636121035
 31
0.0
  0
LINE
  5
450
330
440
100
AcDbEntity
  8
0
  6
Continuous
 62
     7
370
     0
100
AcDbLine
 10
28.6474035583
 20
169.9636121035
 30
0.0
 11
109.7992835583
 21
169.9636121035
 31
0.0
  0
MTEXT
  5
451
330
440
100
AcDbEntity
  8
0
  6
Continuous
 62
     7
370
     0
100
AcDbMText
 10
65.1500796942
 20
174.0363391434
 30
0.0
 40
3.5
 41
0.0
 71
     1
 72
     1
  1
81.1
  7
SLDTEXTSTYLE0
 73
     1
 44
1.0
  0
ENDBLK
  5
44B
330
440
100
AcDbEntity
  8
0
100
AcDbBlockEnd
  0
BLOCK
  5
45E
330
453
100
AcDbEntity
  8
0
100
AcDbBlockBegin
  2
*D17
 70
     1
 71
     0
 10
0.0
 20
0.0
 30
0.0
  3
*D17
  1

  0
INSERT
  5
460
330
453
100
AcDbEntity
  8
0
  6
Continuous
 62
     7
370
     0
100
AcDbBlockReference
  2
_Open30
 10
140.2285175448
 20
244.5265030675
 30
-32.1071875
 41
3.0
 42
3.0
 50
90.0
  0
INSERT
  5
461
330
453
100
AcDbEntity
  8
0
  6
Continuous
 62
     7
370
     0
100
AcDbBlockReference
  2
_Open30
 10
140.2285175448
 20
187.5265030675
 30
-32.1071875
 41
3.0
 42
3.0
 50
270.0
  0
LINE
  5
462
330
453
100
AcDbEntity
  8
0
  6
Continuous
 62
     7
370
     0
100
AcDbLine
 10
108.1640795042
 20
244.5265030675
 30
0.0
 11
141.2285175448
 21
244.5265030675
 31
0.0
  0
LINE
  5
463
330
453
100
AcDbEntity
  8
0
  6
Continuous
 62
     7
370
     0
100
AcDbLine
 10
108.1640795042
 20
187.5265030675
 30
0.0
 11
141.2285175448
 21
187.5265030675
 31
0.0
  0
LINE
  5
464
330
453
100
AcDbEntity
  8
0
  6
Continuous
 62
     7
370
     0
100
AcDbLine
 10
140.2285175448
 20
244.5265030675
 30
0.0
 11
140.2285175448
 21
187.5265030675
 31
0.0
  0
MTEXT
  5
465
330
453
100
AcDbEntity
  8
0
  6
Continuous
 62
     7
370
     0
100
AcDbMText
 10
136.1557905049
 20
213.9904531966
 30
0.0
 40
3.5
 41
0.0
 71
     1
 72
     1
  1
57
  7
SLDTEXTSTYLE0
 11
-1.148508913841051E-14
 21
1.0
 31
0.0
 73
     1
 44
1.0
  0
ENDBLK
  5
45F
330
453
100
AcDbEntity
  8
0
100
AcDbBlockEnd
  0
ENDSEC
  0
SECTION
  2
ENTITIES
  0
LINE
  5
2F
330
1F
100
AcDbEntity
  8
0
  6
Continuous
 62
     7
370
     0
100
AcDbLine
 10
20.2604743903
 20
285.0
 30
0.0
 11
196.7604743903
 21
285.0
 31
0.0
  0
LINE
  5
30
330
1F
100
AcDbEntity
  8
0
  6
Continuous
 62
     7
370
     0
100
AcDbLine
 10
20.2604743903
 20
285.0
 30
0.0
 11
20.2604743903
 21
10.0
 31
0.0
  0
LINE
  5
31
330
1F
100
AcDbEntity
  8
0
  6
Continuous
 62
     7
370
     0
100
AcDbLine
 10
20.2604743903
 20
10.0
 30
0.0
 11
196.7604743903
 21
10.0
 31
0.0
  0
LINE
  5
32
330
1F
100
AcDbEntity
  8
0
  6
Continuous
 62
     7
370
     0
100
AcDbLine
 10
196.7604743903
 20
285.0
 30
0.0
 11
196.7604743903
 21
10.0
 31
0.0
  0
LINE
  5
33
330
1F
100
AcDbEntity
  8
0
  6
Continuous
 62
     7
370
     0
100
AcDbLine
 10
127.0104743903
 20
50.75
 30
0.0
 11
196.7604743903
 21
50.75
 31
0.0
  0
LINE
  5
34
330
1F
100
AcDbEntity
  8
0
  6
Continuous
 62
     7
370
     0
100
AcDbLine
 10
127.0104743903
 20
50.75
 30
0.0
 11
127.0104743903
 21
10.0
 31
0.0
  0
LINE
  5
35
330
1F
100
AcDbEntity
  8
0
  6
Continuous
 62
     7
370
     0
100
AcDbLine
 10
127.0104743903
 20
22.75
 30
0.0
 11
196.7604743903
 21
22.75
 31
0.0
  0
LINE
  5
36
330
1F
100
AcDbEntity
  8
0
  6
Continuous
 62
     7
370
     0
100
AcDbLine
 10
127.0104743903
 20
36.75
 30
0.0
 11
196.7604743903
 21
36.75
 31
0.0
  0
MTEXT
  5
38
330
1F
100
AcDbEntity
  8
0
  6
Continuous
 62
     7
370
     0
100
AcDbMText
 10
151.2977280188
 20
29.8861654089
 30
0.0
 40
4.2333333333
 41
0.0
 71
     1
 72
     1
  1
HLAG-15AS
  7
SLDTEXTSTYLE0
 73
     1
 44
1.0
  0
MTEXT
  5
39
330
1F
100
AcDbEntity
  8
0
  6
Continuous
 62
     7
370
     0
100
AcDbMText
 10
145.3564638853
 20
43.4099788511
 30
0.0
 40
4.2333333333
 41
0.0
 71
     1
 72
     1
  1
薄型平行ハンド
  7
SLDTEXTSTYLE0
 73
     1
 44
1.0
  0
MTEXT
  5
3A
330
1F
100
AcDbEntity
  8
0
  6
Continuous
 62
     7
370
     0
100
AcDbMText
 10
155.3470812955
 20
16.2918259049
 30
0.0
 40
4.2333333333
 41
0.0
 71
     1
 72
     1
  1
072000
  7
SLDTEXTSTYLE0
 73
     1
 44
1.0
  0
POINT
  5
3B
330
1F
100
AcDbEntity
  8
0
  6
Continuous
 62
     7
370
     0
100
AcDbPoint
 10
107.5522777612
 20
106.9865035057
 30
0.0
  0
LINE
  5
3C
330
1F
100
AcDbEntity
  8
0
  6
Continuous
 62
     7
370
     0
100
AcDbLine
 10
34.2233433381
 20
143.8611039404
 30
0.0
 11
34.2233435583
 21
149.3611044945
 31
0.0
  0
LINE
  5
3D
330
1F
100
AcDbEntity
  8
0
  6
Continuous
 62
     7
370
     0
100
AcDbLine
 10
34.2233435583
 20
149.3611044945
 30
0.0
 11
104.2233435583
 21
149.3611044945
 31
0.0
  0
LINE
  5
3E
330
1F
100
AcDbEntity
  8
0
  6
Continuous
 62
     7
370
     0
100
AcDbLine
 10
104.2233436362
 20
143.8611039404
 30
0.0
 11
104.2233435583
 21
149.3611044945
 31
0.0
  0
LINE
  5
3F
330
1F
100
AcDbEntity
  8
0
  6
Continuous
 62
     7
370
     0
100
AcDbLine
 10
34.2233435583
 20
152.3611042945
 30
0.0
 11
104.2233435583
 21
152.3611042945
 31
0.0
  0
LINE
  5
40
330
1F
100
AcDbEntity
  8
0
  6
Continuous
 62
     7
370
     0
100
AcDbLine
 10
34.2233435583
 20
149.3611044945
 30
0.0
 11
34.2233435583
 21
152.3611042945
 31
0.0
  0
LINE
  5
41
330
1F
100
AcDbEntity
  8
0
  6
Continuous
 62
     7
370
     0
100
AcDbLine
 10
104.2233435583
 20
149.3611044945
 30
0.0
 11
104.2233435583
 21
152.3611042945
 31
0.0
  0
LINE
  5
42
330
1F
100
AcDbEntity
  8
0
  6
Continuous
 62
     7
370
     0
100
AcDbLine
 10
89.2233430401
 20
93.8611041267
 30
0.0
 11
89.2233430401
 21
105.8611051623
 31
0.0
  0
LINE
  5
43
330
1F
100
AcDbEntity
  8
0
  6
Continuous
 62
     7
370
     0
100
AcDbLine
 10
99.223340954
 20
93.8611041267
 30
0.0
 11
99.223340954
 21
105.8611051623
 31
0.0
  0
LINE
  5
44
330
1F
100
AcDbEntity
  8
0
  6
Continuous
 62
     7
370
     0
100
AcDbLine
 10
99.223340954
 20
93.8611041267
 30
0.0
 11
89.2233430401
 21
93.8611041267
 31
0.0
  0
LINE
  5
45
330
1F
100
AcDbEntity
  8
0
  6
Continuous
 62
     7
370
     0
100
AcDbLine
 10
49.2233439342
 20
93.8611041267
 30
0.0
 11
49.2233439342
 21
105.8611051623
 31
0.0
  0
LINE
  5
46
330
1F
100
AcDbEntity
  8
0
  6
Continuous
 62
     7
370
     0
100
AcDbLine
 10
39.2233422951
 20
93.8611041267
 30
0.0
 11
39.2233422951
 21
105.8611051623
 31
0.0
  0
LINE
  5
47
330
1F
100
AcDbEntity
  8
0
  6
Continuous
 62
     7
370
     0
100
AcDbLine
 10
49.2233439342
 20
93.8611041267
 30
0.0
 11
39.2233422951
 21
93.8611041267
 31
0.0
  0
LINE
  5
48
330
1F
100
AcDbEntity
  8
0
  6
Continuous
 62
     7
370
     0
100
AcDbLine
 10
101.2899590095
 20
107.5754180015
 30
0.0
 11
102.4841918603
 21
112.076407436
 31
0.0
  0
ARC
  5
49
330
1F
100
AcDbEntity
  8
0
  6
Continuous
 62
     7
370
     0
100
AcDbCircle
 10
101.1933034583
 20
107.60106336
 30
0.0
 40
0.0999999000000308
100
AcDbArc
 50
180.0
 51
345.1402508486
  0
LINE
  5
4A
330
1F
100
AcDbEntity
  8
0
  6
Continuous
 62
     7
370
     0
100
AcDbLine
 10
101.0933025733
 20
112.397987533
 30
0.0
 11
101.0933035583
 21
107.60106336
 31
0.0
  0
LINE
  5
4B
330
1F
100
AcDbEntity
  8
0
  6
Continuous
 62
     7
370
     0
100
AcDbLine
 10
100.2149163739
 20
117.4074487273
 30
0.0
 11
101.0933025733
 21
112.397987533
 31
0.0
  0
LINE
  5
4C
330
1F
100
AcDbEntity
  8
0
  6
Continuous
 62
     7
370
     0
100
AcDbLine
 10
98.1500475661
 20
122.0863798146
 30
0.0
 11
100.2149163739
 21
117.4074487273
 31
0.0
  0
LINE
  5
4D
330
1F
100
AcDbEntity
  8
0
  6
Continuous
 62
     7
370
     0
100
AcDbLine
 10
101.3840763823
 20
118.2322019224
 30
0.0
 11
98.1500475661
 21
122.0863798146
 31
0.0
  0
LINE
  5
4E
330
1F
100
AcDbEntity
  8
0
  6
Continuous
 62
     7
370
     0
100
AcDbLine
 10
102.4841918603
 20
112.076407436
 30
0.0
 11
101.3840763823
 21
118.2322019224
 31
0.0
  0
LINE
  5
4F
330
1F
100
AcDbEntity
  8
0
  6
Continuous
 62
     7
370
     0
100
AcDbLine
 10
43.0884872083
 20
124.6973952315
 30
0.0
 11
39.6777234033
 21
116.9687138383
 31
0.0
  0
LWPOLYLINE
  5
50
330
1F
100
AcDbEntity
  8
0
  6
Continuous
 62
     7
370
     0
100
AcDbPolyline
 90
       10
 70
   128
 43
0.0
 10
39.6777234033
 20
116.9687138383
 10
39.6557553665
 20
116.9753802453
 10
39.590521808
 20
116.9951727126
 10
39.4840008572
 20
117.0274933313
 10
39.3394335166
 20
117.0713586245
 10
39.1612119035
 20
117.1254349385
 10
38.9547451393
 20
117.1880812828
 10
38.7263140634
 20
117.2573921714
 10
38.4828551666
 20
117.3312628154
 10
38.2317668752
 20
117.4074487273
  0
LINE
  5
51
330
1F
100
AcDbEntity
  8
0
  6
Continuous
 62
     7
370
     0
100
AcDbLine
 10
38.2317668752
 20
117.4074487273
 30
0.0
 11
40.2966394082
 21
122.0863798146
 31
0.0
  0
LWPOLYLINE
  5
52
330
1F
100
AcDbEntity
  8
0
  6
Continuous
 62
     7
370
     0
100
AcDbPolyline
 90
       10
 70
   128
 43
0.0
 10
43.0884874419
 20
124.6973948066
 10
43.0460712866
 20
124.6577279155
 10
42.9201192216
 20
124.5399305109
 10
42.7144496695
 20
124.3475863222
 10
42.4353173927
 20
124.0865328793
 10
42.0912048773
 20
123.7647087757
 10
41.6925615624
 20
123.3918854479
 10
41.2515058175
 20
122.9793989543
 10
40.7814375118
 20
122.5397774462
 10
40.2966394082
 20
122.0863798146
  0
LINE
  5
53
330
1F
100
AcDbEntity
  8
0
  6
Continuous
 62
     7
370
     0
100
AcDbLine
 10
37.353384401
 20
112.397987533
 30
0.0
 11
38.2317668752
 21
117.4074487273
 31
0.0
  0
LINE
  5
54
330
1F
100
AcDbEntity
  8
0
  6
Continuous
 62
     7
370
     0
100
AcDbLine
 10
39.6777234033
 20
116.9687138383
 30
0.0
 11
38.8533837155
 21
112.2674738501
 31
0.0
  0
LWPOLYLINE
  5
55
330
1F
100
AcDbEntity
  8
0
  6
Continuous
 62
     7
370
     0
100
AcDbPolyline
 90
        9
 70
   128
 43
0.0
 10
37.353384401
 20
112.397987533
 10
37.6460208551
 20
112.3725251738
 10
37.9274069325
 20
112.348042566
 10
38.1867392913
 20
112.3254784827
 10
38.4140453295
 20
112.3057009165
 10
38.6005892412
 20
112.2894698266
 10
38.7392035679
 20
112.2774091993
 10
38.8245611445
 20
112.2699828331
 10
38.8533837155
 20
112.2674738501
  0
LWPOLYLINE
  5
56
330
1F
100
AcDbEntity
  8
0
  6
Continuous
 62
     7
370
     0
100
AcDbPolyline
 90
        9
 70
   128
 43
0.0
 10
101.2899606482
 20
107.5754185651
 10
101.5728070394
 20
107.5003707294
 10
101.8447830335
 20
107.4282062684
 10
102.0954429165
 20
107.3617005233
 10
102.3151456372
 20
107.3034071807
 10
102.4954496876
 20
107.2555670027
 10
102.6294334785
 20
107.22001842
 10
102.7119337574
 20
107.1981286142
 10
102.7397914783
 20
107.1907376383
  0
ARC
  5
57
330
1F
100
AcDbEntity
  8
0
  6
Continuous
 62
     7
370
     0
100
AcDbCircle
 10
101.1933034583
 20
107.60106336
 30
0.0
 40
1.599999900000035
100
AcDbArc
 50
180.0
 51
345.1402508486
  0
LINE
  5
58
330
1F
100
AcDbEntity
  8
0
  6
Continuous
 62
     7
370
     0
100
AcDbLine
 10
99.5933035583
 20
107.60106336
 30
0.0
 11
101.0933035583
 21
107.60106336
 31
0.0
  0
LWPOLYLINE
  5
59
330
1F
100
AcDbEntity
  8
0
  6
Continuous
 62
     7
370
     0
100
AcDbPolyline
 90
        9
 70
   128
 43
0.0
 10
102.4841918603
 20
112.076407436
 10
102.783675398
 20
112.0640469227
 10
103.0716477887
 20
112.0521595214
 10
103.3370449201
 20
112.0412053053
 10
103.5696669475
 20
112.0316033695
 10
103.7605731741
 20
112.0237225179
 10
103.9024322287
 20
112.0178682242
 10
103.9897902862
 20
112.0142621432
 10
104.0192871348
 20
112.0130439733
  0
LINE
  5
5A
330
1F
100
AcDbEntity
  8
0
  6
Continuous
 62
     7
370
     0
100
AcDbLine
 10
104.0192871348
 20
112.0130439733
 30
0.0
 11
102.7397937283
 21
107.1907372399
 31
0.0
  0
LINE
  5
5B
330
1F
100
AcDbEntity
  8
0
  6
Continuous
 62
     7
370
     0
100
AcDbLine
 10
99.5933035583
 20
107.60106336
 30
0.0
 11
99.5933069841
 21
112.2674738501
 31
0.0
  0
LWPOLYLINE
  5
5C
330
1F
100
AcDbEntity
  8
0
  6
Continuous
 62
     7
370
     0
100
AcDbPolyline
 90
        9
 70
   128
 43
0.0
 10
99.5933069841
 20
112.2674738501
 10
99.6221258298
 20
112.2699828331
 10
99.7074871317
 20
112.2774091993
 10
99.8460977332
 20
112.2894698266
 10
100.0326453701
 20
112.3057009165
 10
100.259947683
 20
112.3254784827
 10
100.5192800418
 20
112.348042566
 10
100.8006661192
 20
112.3725251738
 10
101.0933025733
 20
112.397987533
  0
LWPOLYLINE
  5
5D
330
1F
100
AcDbEntity
  8
0
  6
Continuous
 62
     7
370
     0
100
AcDbPolyline
 90
        9
 70
   128
 43
0.0
 10
101.3840763823
 20
118.2322019224
 10
101.658421661
 20
118.3605158214
 10
101.9222169176
 20
118.4838974361
 10
102.1653368131
 20
118.5976081972
 10
102.3784308688
 20
118.6972746138
 10
102.5533108965
 20
118.7790689502
 10
102.6832639233
 20
118.8398489241
 10
102.7632831589
 20
118.8772769157
 10
102.7903064147
 20
118.8899149631
  0
LINE
  5
5E
330
1F
100
AcDbEntity
  8
0
  6
Continuous
 62
     7
370
     0
100
AcDbLine
 10
102.7903064147
 20
118.8899149631
 30
0.0
 11
104.0192871348
 21
112.0130439733
 31
0.0
  0
LINE
  5
5F
330
1F
100
AcDbEntity
  8
0
  6
Continuous
 62
     7
370
     0
100
AcDbLine
 10
99.5933069841
 20
112.2674738501
 30
0.0
 11
98.7689598457
 21
116.9687138383
 31
0.0
  0
LWPOLYLINE
  5
60
330
1F
100
AcDbEntity
  8
0
  6
Continuous
 62
     7
370
     0
100
AcDbPolyline
 90
       10
 70
   128
 43
0.0
 10
98.7689598457
 20
116.9687138383
 10
98.7909316079
 20
116.9753802453
 10
98.8561688916
 20
116.9951727126
 10
98.9626823918
 20
117.0274933313
 10
99.1072534577
 20
117.0713586245
 10
99.2854787961
 20
117.1254349385
 10
99.4919418351
 20
117.1880812828
 10
99.7203691856
 20
117.2573921714
 10
99.9638318077
 20
117.3312628154
 10
100.2149163739
 20
117.4074487273
  0
LWPOLYLINE
  5
61
330
1F
100
AcDbEntity
  8
0
  6
Continuous
 62
     7
370
     0
100
AcDbPolyline
 90
       10
 70
   128
 43
0.0
 10
98.1500475661
 20
122.0863798146
 10
97.9571371333
 20
122.7215045575
 10
97.7700903074
 20
123.3373322968
 10
97.5945844308
 20
123.9151508991
 10
97.4359541193
 20
124.4374030713
 10
97.2990273491
 20
124.8882228021
 10
97.1879540936
 20
125.2539084737
 10
97.1061169163
 20
125.5233475451
 10
97.0559968606
 20
125.6883592789
 10
97.039113845
 20
125.7439257089
  0
LINE
  5
62
330
1F
100
AcDbEntity
  8
0
  6
Continuous
 62
     7
370
     0
100
AcDbLine
 10
97.0391166804
 20
125.7439263326
 30
0.0
 11
102.7903064147
 21
118.8899149631
 31
0.0
  0
LINE
  5
63
330
1F
100
AcDbEntity
  8
0
  6
Continuous
 62
     7
370
     0
100
AcDbLine
 10
98.7689598457
 20
116.9687138383
 30
0.0
 11
95.3581999083
 21
124.6973952315
 31
0.0
  0
LWPOLYLINE
  5
64
330
1F
100
AcDbEntity
  8
0
  6
Continuous
 62
     7
370
     0
100
AcDbPolyline
 90
       10
 70
   128
 43
0.0
 10
95.3582032577
 20
124.6973948066
 10
95.4006119624
 20
124.6577279155
 10
95.526571478
 20
124.5399305109
 10
95.7322373048
 20
124.3475863222
 10
96.0113658563
 20
124.0865328793
 10
96.3554858223
 20
123.7647087757
 10
96.7541216866
 20
123.3918854479
 10
97.1951811568
 20
122.9793989543
 10
97.6652457372
 20
122.5397774462
 10
98.1500475661
 20
122.0863798146
  0
ARC
  5
65
330
1F
100
AcDbEntity
  8
0
  6
Continuous
 62
     7
370
     0
100
AcDbCircle
 10
96.2730716483
 20
125.1011395805
 30
0.0
 40
0.9999999000000014
100
AcDbArc
 50
39.999940671
 51
203.8124680222
  0
LINE
  5
66
330
1F
100
AcDbEntity
  8
0
  6
Continuous
 62
     7
370
     0
100
AcDbLine
 10
109.7992836491
 20
112.8730440025
 30
0.0
 11
108.5197937283
 21
108.0507372399
 31
0.0
  0
LWPOLYLINE
  5
67
330
1F
100
AcDbEntity
  8
0
  6
Continuous
 62
     7
370
     0
100
AcDbPolyline
 90
        9
 70
   128
 43
0.0
 10
108.5197954432
 20
108.0507376675
 10
108.4919302718
 20
108.0581286435
 10
108.4094374434
 20
108.0800184492
 10
108.2754462019
 20
108.1155670319
 10
108.0951421515
 20
108.1634072099
 10
107.8754394308
 20
108.2217005525
 10
107.6247869984
 20
108.2882062976
 10
107.3528110043
 20
108.3603707586
 10
107.0699571625
 20
108.4354185943
  0
LINE
  5
68
330
1F
100
AcDbEntity
  8
0
  6
Continuous
 62
     7
370
     0
100
AcDbLine
 10
107.0699590095
 20
108.4354180015
 30
0.0
 11
108.2641958252
 21
112.9364074652
 31
0.0
  0
LWPOLYLINE
  5
69
330
1F
100
AcDbEntity
  8
0
  6
Continuous
 62
     7
370
     0
100
AcDbPolyline
 90
        9
 70
   128
 43
0.0
 10
108.2641958252
 20
112.9364074652
 10
108.5636793629
 20
112.9240469519
 10
108.851644303
 20
112.9121595506
 10
109.117048885
 20
112.9012053345
 10
109.3496709124
 20
112.8916033987
 10
109.5405696884
 20
112.8837225471
 10
109.682428743
 20
112.8778682534
 10
109.7697942511
 20
112.8742621724
 10
109.7992836491
 20
112.8730440025
  0
LINE
  5
6A
330
1F
100
AcDbEntity
  8
0
  6
Continuous
 62
     7
370
     0
100
AcDbLine
 10
108.2641958252
 20
112.9364074652
 30
0.0
 11
107.1640803472
 21
119.0922019516
 31
0.0
  0
ARC
  5
6B
330
1F
100
AcDbEntity
  8
0
  6
Continuous
 62
     7
370
     0
100
AcDbCircle
 10
106.9733034583
 20
108.46106336
 30
0.0
 40
0.0999999000000481
100
AcDbArc
 50
180.0
 51
345.1402508486
  0
LINE
  5
6C
330
1F
100
AcDbEntity
  8
0
  6
Continuous
 62
     7
370
     0
100
AcDbLine
 10
106.8733065382
 20
113.2579875622
 30
0.0
 11
106.8733035583
 21
108.46106336
 31
0.0
  0
LINE
  5
6D
330
1F
100
AcDbEntity
  8
0
  6
Continuous
 62
     7
370
     0
100
AcDbLine
 10
105.9949203388
 20
118.2674487565
 30
0.0
 11
106.8733065382
 21
113.2579875622
 31
0.0
  0
LINE
  5
6E
330
1F
100
AcDbEntity
  8
0
  6
Continuous
 62
     7
370
     0
100
AcDbLine
 10
103.930051531
 20
122.9463779811
 30
0.0
 11
105.9949203388
 21
118.2674487565
 31
0.0
  0
LINE
  5
6F
330
1F
100
AcDbEntity
  8
0
  6
Continuous
 62
     7
370
     0
100
AcDbLine
 10
107.1640803472
 20
119.0922019516
 30
0.0
 11
103.930051531
 21
122.9463779811
 31
0.0
  0
LWPOLYLINE
  5
70
330
1F
100
AcDbEntity
  8
0
  6
Continuous
 62
     7
370
     0
100
AcDbPolyline
 90
        9
 70
   128
 43
0.0
 10
107.1640803472
 20
119.0922019516
 10
107.4384181754
 20
119.2205158506
 10
107.702213432
 20
119.3438974653
 10
107.945340778
 20
119.4576063637
 10
108.1584273831
 20
119.557274643
 10
108.3333074108
 20
119.6390689794
 10
108.4632604376
 20
119.6998489533
 10
108.5432796732
 20
119.7372769449
 10
108.5703103796
 20
119.7499149923
  0
LINE
  5
71
330
1F
100
AcDbEntity
  8
0
  6
Continuous
 62
     7
370
     0
100
AcDbLine
 10
108.5703103796
 20
119.7499149923
 30
0.0
 11
109.7992836491
 21
112.8730440025
 31
0.0
  0
LINE
  5
72
330
1F
100
AcDbEntity
  8
0
  6
Continuous
 62
     7
370
     0
100
AcDbLine
 10
105.3733035583
 20
108.46106336
 30
0.0
 11
105.3733034984
 21
113.1274738793
 31
0.0
  0
LWPOLYLINE
  5
73
330
1F
100
AcDbEntity
  8
0
  6
Continuous
 62
     7
370
     0
100
AcDbPolyline
 90
        9
 70
   128
 43
0.0
 10
105.3733034984
 20
113.1274738793
 10
105.4021223441
 20
113.1299828623
 10
105.487483646
 20
113.1374092285
 10
105.6261016981
 20
113.1494698558
 10
105.8126418845
 20
113.1657009457
 10
106.0399516479
 20
113.1854785119
 10
106.2992765561
 20
113.2080425952
 10
106.5806700841
 20
113.232525203
 10
106.8733065382
 20
113.2579875622
  0
LINE
  5
74
330
1F
100
AcDbEntity
  8
0
  6
Continuous
 62
     7
370
     0
100
AcDbLine
 10
105.3733035583
 20
108.46106336
 30
0.0
 11
106.8733035583
 21
108.46106336
 31
0.0
  0
LWPOLYLINE
  5
75
330
1F
100
AcDbEntity
  8
0
  6
Continuous
 62
     7
370
     0
100
AcDbPolyline
 90
       10
 70
   128
 43
0.0
 10
103.930051531
 20
122.9463779811
 10
103.7371336476
 20
123.5815064494
 10
103.5500868217
 20
124.1973341886
 10
103.3745809451
 20
124.775152791
 10
103.2159580842
 20
125.2974049632
 10
103.0790238634
 20
125.7482209687
 10
102.9679506079
 20
126.1139066402
 10
102.8861134306
 20
126.3833494369
 10
102.835993375
 20
126.5483611707
 10
102.8191178099
 20
126.6039276008
  0
LINE
  5
76
330
1F
100
AcDbEntity
  8
0
  6
Continuous
 62
     7
370
     0
100
AcDbLine
 10
102.8191166804
 20
126.6039263326
 30
0.0
 11
108.5703103796
 21
119.7499149923
 31
0.0
  0
LINE
  5
77
330
1F
100
AcDbEntity
  8
0
  6
Continuous
 62
     7
370
     0
100
AcDbLine
 10
34.5166391686
 20
122.9463779811
 30
0.0
 11
31.2826066271
 21
119.0922019516
 31
0.0
  0
LWPOLYLINE
  5
78
330
1F
100
AcDbEntity
  8
0
  6
Continuous
 62
     7
370
     0
100
AcDbPolyline
 90
        9
 70
   128
 43
0.0
 10
31.2826066271
 20
119.0922019516
 10
31.0082650737
 20
119.2205158506
 10
30.7444698171
 20
119.3438974653
 10
30.5013499216
 20
119.4576063637
 10
30.2882558659
 20
119.557274643
 10
30.1133758382
 20
119.6390689794
 10
29.9834265367
 20
119.6998489533
 10
29.9034035758
 20
119.7372769449
 10
29.8763840453
 20
119.7499149923
  0
LINE
  5
79
330
1F
100
AcDbEntity
  8
0
  6
Continuous
 62
     7
370
     0
100
AcDbLine
 10
29.8763840453
 20
119.7499149923
 30
0.0
 11
35.6275704362
 21
126.6039263326
 31
0.0
  0
LWPOLYLINE
  5
7A
330
1F
100
AcDbEntity
  8
0
  6
Continuous
 62
     7
370
     0
100
AcDbPolyline
 90
       10
 70
   128
 43
0.0
 10
35.6275691644
 20
126.6039276008
 10
35.6106935994
 20
126.5483611707
 10
35.5605735437
 20
126.3833494369
 10
35.4787326411
 20
126.1139066402
 10
35.3676631109
 20
125.7482209687
 10
35.2307326154
 20
125.2974049632
 10
35.0721060292
 20
124.775152791
 10
34.8966001526
 20
124.1973341886
 10
34.7095496014
 20
123.5815064494
 10
34.5166391686
 20
122.9463779811
  0
LINE
  5
7B
330
1F
100
AcDbEntity
  8
0
  6
Continuous
 62
     7
370
     0
100
AcDbLine
 10
31.2826066271
 20
119.0922019516
 30
0.0
 11
30.1824911491
 21
112.9364074652
 31
0.0
  0
LWPOLYLINE
  5
7C
330
1F
100
AcDbEntity
  8
0
  6
Continuous
 62
     7
370
     0
100
AcDbPolyline
 90
        9
 70
   128
 43
0.0
 10
30.1824911491
 20
112.9364074652
 10
29.8830113367
 20
112.9240469519
 10
29.595038946
 20
112.9121595506
 10
29.3296418146
 20
112.9012053345
 10
29.0970197872
 20
112.8916033987
 10
28.9061135606
 20
112.8837225471
 10
28.764254506
 20
112.8778682534
 10
28.6769001738
 20
112.8742621724
 10
28.6474033252
 20
112.8730440025
  0
LINE
  5
7D
330
1F
100
AcDbEntity
  8
0
  6
Continuous
 62
     7
370
     0
100
AcDbLine
 10
28.6474033252
 20
112.8730440025
 30
0.0
 11
29.8763840453
 21
119.7499149923
 31
0.0
  0
LWPOLYLINE
  5
7E
330
1F
100
AcDbEntity
  8
0
  6
Continuous
 62
     7
370
     0
100
AcDbPolyline
 90
       10
 70
   128
 43
0.0
 10
37.3084872023
 20
125.5573966984
 10
37.266071047
 20
125.5177298073
 10
37.140118982
 20
125.3999324028
 10
36.9344494299
 20
125.2075844888
 10
36.6553171531
 20
124.9465347711
 10
36.3112046377
 20
124.6247069423
 10
35.9125613228
 20
124.2518873398
 10
35.4715055779
 20
123.8393971209
 10
35.0014372722
 20
123.3997756128
 10
34.5166391686
 20
122.9463779811
  0
ARC
  5
7F
330
1F
100
AcDbEntity
  8
0
  6
Continuous
 62
     7
370
     0
100
AcDbCircle
 10
36.3936154683
 20
125.9611395805
 30
0.0
 40
0.9999999000000078
100
AcDbArc
 50
336.1875319778
 51
140.000059329
  0
LINE
  5
80
330
1F
100
AcDbEntity
  8
0
  6
Continuous
 62
     7
370
     0
100
AcDbLine
 10
30.1824911491
 20
112.9364074652
 30
0.0
 11
31.376728107
 21
108.4354180015
 31
0.0
  0
LWPOLYLINE
  5
81
330
1F
100
AcDbEntity
  8
0
  6
Continuous
 62
     7
370
     0
100
AcDbPolyline
 90
        9
 70
   128
 43
0.0
 10
31.3767298118
 20
108.4354185943
 10
31.0938796953
 20
108.3603707586
 10
30.8218999759
 20
108.2882062976
 10
30.5712438182
 20
108.2217005525
 10
30.3515410975
 20
108.1634072099
 10
30.1712333218
 20
108.1155670319
 10
30.0372569815
 20
108.0800184492
 10
29.9547529773
 20
108.0581286435
 10
29.9268915311
 20
108.0507376675
  0
LINE
  5
82
330
1F
100
AcDbEntity
  8
0
  6
Continuous
 62
     7
370
     0
100
AcDbLine
 10
29.9268933883
 20
108.0507372399
 30
0.0
 11
28.6474033252
 21
112.8730440025
 31
0.0
  0
LINE
  5
83
330
1F
100
AcDbEntity
  8
0
  6
Continuous
 62
     7
370
     0
100
AcDbLine
 10
37.3084872083
 20
125.5573952315
 30
0.0
 11
33.8977231637
 21
117.8287138675
 31
0.0
  0
LWPOLYLINE
  5
84
330
1F
100
AcDbEntity
  8
0
  6
Continuous
 62
     7
370
     0
100
AcDbPolyline
 90
        9
 70
   128
 43
0.0
 10
33.8977231637
 20
117.8287138675
 10
33.8699399487
 20
117.8371441994
 10
33.7876557366
 20
117.862111095
 10
33.6540370242
 20
117.9026534293
 10
33.4742135362
 20
117.9572158937
 10
33.2550994114
 20
118.0237011496
 10
33.0051100806
 20
118.0995517854
 10
32.7338605181
 20
118.1818564866
 10
32.4517703608
 20
118.2674487565
  0
LINE
  5
85
330
1F
100
AcDbEntity
  8
0
  6
Continuous
 62
     7
370
     0
100
AcDbLine
 10
32.4517703608
 20
118.2674487565
 30
0.0
 11
34.5166391686
 21
122.9463779811
 31
0.0
  0
ARC
  5
86
330
1F
100
AcDbEntity
  8
0
  6
Continuous
 62
     7
370
     0
100
AcDbCircle
 10
31.4733836583
 20
108.46106336
 30
0.0
 40
0.0999999000000287
100
AcDbArc
 50
194.8597491514
 51
0.0
  0
LINE
  5
87
330
1F
100
AcDbEntity
  8
0
  6
Continuous
 62
     7
370
     0
100
AcDbLine
 10
31.5733835583
 20
108.46106336
 30
0.0
 11
33.0733835583
 21
108.46106336
 31
0.0
  0
ARC
  5
88
330
1F
100
AcDbEntity
  8
0
  6
Continuous
 62
     7
370
     0
100
AcDbCircle
 10
31.4733836583
 20
108.46106336
 30
0.0
 40
1.599999900000029
100
AcDbArc
 50
194.8597491514
 51
0.0
  0
LINE
  5
89
330
1F
100
AcDbEntity
  8
0
  6
Continuous
 62
     7
370
     0
100
AcDbLine
 10
33.8977231637
 20
117.8287138675
 30
0.0
 11
33.0733834759
 21
113.1274738793
 31
0.0
  0
LWPOLYLINE
  5
8A
330
1F
100
AcDbEntity
  8
0
  6
Continuous
 62
     7
370
     0
100
AcDbPolyline
 90
       10
 70
   128
 43
0.0
 10
33.0733834759
 20
113.1274738793
 10
33.0505958752
 20
113.1294575964
 10
32.9829222516
 20
113.1353454177
 10
32.8724226908
 20
113.1449603919
 10
32.7224499539
 20
113.1580082212
 10
32.5375637964
 20
113.1740958874
 10
32.323381956
 20
113.1927316521
 10
32.0864125148
 20
113.2133492712
 10
31.833856459
 20
113.2353247587
 10
31.5733841614
 20
113.2579875622
  0
LINE
  5
8B
330
1F
100
AcDbEntity
  8
0
  6
Continuous
 62
     7
370
     0
100
AcDbLine
 10
31.5733841614
 20
113.2579875622
 30
0.0
 11
32.4517703608
 21
118.2674487565
 31
0.0
  0
LINE
  5
8C
330
1F
100
AcDbEntity
  8
0
  6
Continuous
 62
     7
370
     0
100
AcDbLine
 10
31.5733835583
 20
108.46106336
 30
0.0
 11
31.5733841614
 21
113.2579875622
 31
0.0
  0
LINE
  5
8D
330
1F
100
AcDbEntity
  8
0
  6
Continuous
 62
     7
370
     0
100
AcDbLine
 10
33.0733834759
 20
113.1274738793
 30
0.0
 11
33.0733835583
 21
108.46106336
 31
0.0
  0
LINE
  5
8E
330
1F
100
AcDbEntity
  8
0
  6
Continuous
 62
     7
370
     0
100
AcDbLine
 10
37.0626068667
 20
118.2322019224
 30
0.0
 11
35.9624913887
 21
112.076407436
 31
0.0
  0
LWPOLYLINE
  5
8F
330
1F
100
AcDbEntity
  8
0
  6
Continuous
 62
     7
370
     0
100
AcDbPolyline
 90
        9
 70
   128
 43
0.0
 10
35.9624913887
 20
112.076407436
 10
35.6630115763
 20
112.0640469227
 10
35.3750391857
 20
112.0521595214
 10
35.1096420542
 20
112.0412053053
 10
34.8770200268
 20
112.0316033695
 10
34.6861138002
 20
112.0237225179
 10
34.5442547456
 20
112.0178682242
 10
34.4569004134
 20
112.0142621432
 10
34.4274035648
 20
112.0130439733
  0
LINE
  5
90
330
1F
100
AcDbEntity
  8
0
  6
Continuous
 62
     7
370
     0
100
AcDbLine
 10
34.4274035648
 20
112.0130439733
 30
0.0
 11
35.6563842849
 21
118.8899149631
 31
0.0
  0
LWPOLYLINE
  5
91
330
1F
100
AcDbEntity
  8
0
  6
Continuous
 62
     7
370
     0
100
AcDbPolyline
 90
        9
 70
   128
 43
0.0
 10
35.6563842849
 20
118.8899149631
 10
35.6834038154
 20
118.8772769157
 10
35.7634267763
 20
118.8398489241
 10
35.8933760778
 20
118.7790689502
 10
36.0682561056
 20
118.6972746138
 10
36.2813501612
 20
118.5976081972
 10
36.5244700567
 20
118.4838974361
 10
36.7882653133
 20
118.3605158214
 10
37.0626068667
 20
118.2322019224
  0
LINE
  5
92
330
1F
100
AcDbEntity
  8
0
  6
Continuous
 62
     7
370
     0
100
AcDbLine
 10
35.9624913887
 20
112.076407436
 30
0.0
 11
37.156728107
 21
107.5754180015
 31
0.0
  0
LWPOLYLINE
  5
93
330
1F
100
AcDbEntity
  8
0
  6
Continuous
 62
     7
370
     0
100
AcDbPolyline
 90
        9
 70
   128
 43
0.0
 10
37.1567263261
 20
107.5754185651
 10
36.8738799349
 20
107.5003707294
 10
36.6019002155
 20
107.4282062684
 10
36.3512440578
 20
107.3617005233
 10
36.1315413371
 20
107.3034071807
 10
35.9512335614
 20
107.2555670027
 10
35.8172572211
 20
107.22001842
 10
35.7347532169
 20
107.1981286142
 10
35.7068917707
 20
107.1907376383
  0
LINE
  5
94
330
1F
100
AcDbEntity
  8
0
  6
Continuous
 62
     7
370
     0
100
AcDbLine
 10
35.7068933883
 20
107.1907372399
 30
0.0
 11
34.4274035648
 21
112.0130439733
 31
0.0
  0
LINE
  5
95
330
1F
100
AcDbEntity
  8
0
  6
Continuous
 62
     7
370
     0
100
AcDbLine
 10
35.6563842849
 20
118.8899149631
 30
0.0
 11
41.4075704362
 21
125.7439263326
 31
0.0
  0
LWPOLYLINE
  5
96
330
1F
100
AcDbEntity
  8
0
  6
Continuous
 62
     7
370
     0
100
AcDbPolyline
 90
       10
 70
   128
 43
0.0
 10
41.407569404
 20
125.7439257089
 10
41.390693839
 20
125.6883592789
 10
41.3405737833
 20
125.5233475451
 10
41.2587328807
 20
125.2539084737
 10
41.1476633505
 20
124.8882228021
 10
41.010732855
 20
124.4374030713
 10
40.8521062688
 20
123.9151508991
 10
40.6766003922
 20
123.3373322968
 10
40.4895498411
 20
122.7215045575
 10
40.2966394082
 20
122.0863798146
  0
LINE
  5
97
330
1F
100
AcDbEntity
  8
0
  6
Continuous
 62
     7
370
     0
100
AcDbLine
 10
40.2966394082
 20
122.0863798146
 30
0.0
 11
37.0626068667
 21
118.2322019224
 31
0.0
  0
ARC
  5
98
330
1F
100
AcDbEntity
  8
0
  6
Continuous
 62
     7
370
     0
100
AcDbCircle
 10
37.2533836583
 20
107.60106336
 30
0.0
 40
0.0999999000000287
100
AcDbArc
 50
194.8597491514
 51
0.0
  0
LINE
  5
99
330
1F
100
AcDbEntity
  8
0
  6
Continuous
 62
     7
370
     0
100
AcDbLine
 10
37.3533835583
 20
107.60106336
 30
0.0
 11
38.8533835583
 21
107.60106336
 31
0.0
  0
ARC
  5
9A
330
1F
100
AcDbEntity
  8
0
  6
Continuous
 62
     7
370
     0
100
AcDbCircle
 10
37.2533836583
 20
107.60106336
 30
0.0
 40
1.599999900000029
100
AcDbArc
 50
194.8597491514
 51
0.0
  0
ARC
  5
9B
330
1F
100
AcDbEntity
  8
0
  6
Continuous
 62
     7
370
     0
100
AcDbCircle
 10
42.1736154683
 20
125.1011395805
 30
0.0
 40
0.9999999000000014
100
AcDbArc
 50
336.1875319778
 51
140.000059329
  0
LINE
  5
9C
330
1F
100
AcDbEntity
  8
0
  6
Continuous
 62
     7
370
     0
100
AcDbLine
 10
37.3533835583
 20
107.60106336
 30
0.0
 11
37.353384401
 21
112.397987533
 31
0.0
  0
LINE
  5
9D
330
1F
100
AcDbEntity
  8
0
  6
Continuous
 62
     7
370
     0
100
AcDbLine
 10
38.8533837155
 20
112.2674738501
 30
0.0
 11
38.8533835583
 21
107.60106336
 31
0.0
  0
LWPOLYLINE
  5
9E
330
1F
100
AcDbEntity
  8
0
  6
Continuous
 62
     7
370
     0
100
AcDbPolyline
 90
       10
 70
   128
 43
0.0
 10
103.930051531
 20
122.9463779811
 10
103.4452497021
 20
123.3997756128
 10
102.9751776711
 20
123.8393971209
 10
102.5341256515
 20
124.2518873398
 10
102.1354823367
 20
124.6247069423
 10
101.7913698212
 20
124.9465347711
 10
101.5122338191
 20
125.2075844888
 10
101.3065679923
 20
125.3999324028
 10
101.1806159273
 20
125.5177298073
 10
101.138199772
 20
125.5573966984
  0
ARC
  5
9F
330
1F
100
AcDbEntity
  8
0
  6
Continuous
 62
     7
370
     0
100
AcDbCircle
 10
102.0530716483
 20
125.9611395805
 30
0.0
 40
0.9999999000000195
100
AcDbArc
 50
39.999940671
 51
203.8124680222
  0
LINE
  5
A0
330
1F
100
AcDbEntity
  8
0
  6
Continuous
 62
     7
370
     0
100
AcDbLine
 10
104.5489638106
 20
117.8287138675
 30
0.0
 11
101.1381999083
 21
125.5573952315
 31
0.0
  0
LWPOLYLINE
  5
A1
330
1F
100
AcDbEntity
  8
0
  6
Continuous
 62
     7
370
     0
100
AcDbPolyline
 90
       10
 70
   128
 43
0.0
 10
104.5489638106
 20
117.8287138675
 10
104.5709281222
 20
117.8353802745
 10
104.6361654059
 20
117.8551727418
 10
104.7426863567
 20
117.8874933605
 10
104.887249972
 20
117.9313586537
 10
105.0654753105
 20
117.9854349677
 10
105.2719383494
 20
118.048081312
 10
105.5003731505
 20
118.1173922006
 10
105.7438283221
 20
118.1912628446
 10
105.9949203388
 20
118.2674487565
  0
ARC
  5
A2
330
1F
100
AcDbEntity
  8
0
  6
Continuous
 62
     7
370
     0
100
AcDbCircle
 10
106.9733034583
 20
108.46106336
 30
0.0
 40
1.599999900000035
100
AcDbArc
 50
180.0
 51
345.1402508486
  0
LINE
  5
A3
330
1F
100
AcDbEntity
  8
0
  6
Continuous
 62
     7
370
     0
100
AcDbLine
 10
105.3733034984
 20
113.1274738793
 30
0.0
 11
104.5489638106
 21
117.8287138675
 31
0.0
  0
LINE
  5
A4
330
1F
100
AcDbEntity
  8
0
  6
Continuous
 62
     7
370
     0
100
AcDbLine
 10
77.5417043821
 20
116.6416147236
 30
0.0
 11
75.3202525949
 21
125.3857050044
 31
0.0
  0
LWPOLYLINE
  5
A5
330
1F
100
AcDbEntity
  8
0
  6
Continuous
 62
     7
370
     0
100
AcDbPolyline
 90
        9
 70
   128
 43
0.0
 10
75.3202541725
 20
125.3857055191
 10
75.603875424
 20
125.4577600841
 10
75.8766039268
 20
125.5270467584
 10
76.1279492632
 20
125.5909019594
 10
76.3482554809
 20
125.6468707208
 10
76.5290587202
 20
125.6928035502
 10
76.6634075896
 20
125.7269346599
 10
76.7461388365
 20
125.7479527478
 10
76.7740710632
 20
125.7550494258
  0
LINE
  5
A6
330
1F
100
AcDbEntity
  8
0
  6
Continuous
 62
     7
370
     0
100
AcDbLine
 10
76.7740698298
 20
125.7550496231
 30
0.0
 11
79.0335937396
 21
116.8610939268
 31
0.0
  0
LWPOLYLINE
  5
A7
330
1F
100
AcDbEntity
  8
0
  6
Continuous
 62
     7
370
     0
100
AcDbPolyline
 90
        9
 70
   128
 43
0.0
 10
77.5417043821
 20
116.6416147236
 10
77.8327538625
 20
116.6844332103
 10
78.1126274721
 20
116.7256051187
 10
78.3705516712
 20
116.7635509257
 10
78.5966320888
 20
116.7968103175
 10
78.7821664468
 20
116.8241055195
 10
78.9200319902
 20
116.8443878625
 10
79.0049239055
 20
116.8568768982
 10
79.0335937396
 20
116.8610939268
  0
LINE
  5
A8
330
1F
100
AcDbEntity
  8
0
  6
Continuous
 62
     7
370
     0
100
AcDbLine
 10
51.0543688194
 20
113.1219287847
 30
0.0
 11
52.9984362218
 21
108.9416622637
 31
0.0
  0
LINE
  5
A9
330
1F
100
AcDbEntity
  8
0
  6
Continuous
 62
     7
370
     0
100
AcDbLine
 10
51.4346911565
 20
116.0233450566
 30
0.0
 11
51.0543688194
 21
113.1219287847
 31
0.0
  0
LINE
  5
AA
330
1F
100
AcDbEntity
  8
0
  6
Continuous
 62
     7
370
     0
100
AcDbLine
 10
55.3812140016
 20
125.399892614
 30
0.0
 11
51.4346911565
 21
116.0233450566
 31
0.0
  0
ARC
  5
AB
330
1F
100
AcDbEntity
  8
0
  6
Continuous
 62
     7
370
     0
100
AcDbCircle
 10
55.4733827183
 20
125.3610994745
 30
0.0
 40
0.0999999000000085
100
AcDbArc
 50
3.5958358388
 51
157.1741300486
  0
LINE
  5
AC
330
1F
100
AcDbEntity
  8
0
  6
Continuous
 62
     7
370
     0
100
AcDbLine
 10
56.1106904403
 20
116.8140099828
 30
0.0
 11
55.5731857474
 21
125.3673712667
 31
0.0
  0
LINE
  5
AD
330
1F
100
AcDbEntity
  8
0
  6
Continuous
 62
     7
370
     0
100
AcDbLine
 10
56.1106904403
 20
113.0260603015
 30
0.0
 11
56.1106904403
 21
116.8140099828
 31
0.0
  0
LINE
  5
AE
330
1F
100
AcDbEntity
  8
0
  6
Continuous
 62
     7
370
     0
100
AcDbLine
 10
53.1703766523
 20
108.9255579054
 30
0.0
 11
56.1106904403
 21
113.0260603015
 31
0.0
  0
ARC
  5
AF
330
1F
100
AcDbEntity
  8
0
  6
Continuous
 62
     7
370
     0
100
AcDbCircle
 10
53.0891102495
 20
108.9838309945
 30
0.0
 40
0.0999999057094762
100
AcDbArc
 50
204.9411852972
 51
324.3571122072
  0
LINE
  5
B0
330
1F
100
AcDbEntity
  8
0
  6
Continuous
 62
     7
370
     0
100
AcDbLine
 10
70.2717631117
 20
116.8610939268
 30
0.0
 11
73.7282230857
 21
125.9308630488
 31
0.0
  0
LWPOLYLINE
  5
B1
330
1F
100
AcDbEntity
  8
0
  6
Continuous
 62
     7
370
     0
100
AcDbPolyline
 90
        9
 70
   128
 43
0.0
 10
75.1298843876
 20
125.3966951255
 10
74.8564331786
 20
125.5009063963
 10
74.5934947387
 20
125.6011129801
 10
74.3511646048
 20
125.6934629266
 10
74.1387634531
 20
125.7744097595
 10
73.9644496695
 20
125.8408391361
 10
73.8349213258
 20
125.8902029578
 10
73.7551554099
 20
125.9205976014
 10
73.7282215611
 20
125.9308645014
  0
LINE
  5
B2
330
1F
100
AcDbEntity
  8
0
  6
Continuous
 62
     7
370
     0
100
AcDbLine
 10
75.1298873518
 20
125.3966933332
 30
0.0
 11
71.7561124817
 21
116.5438910459
 31
0.0
  0
LWPOLYLINE
  5
B3
330
1F
100
AcDbEntity
  8
0
  6
Continuous
 62
     7
370
     0
100
AcDbPolyline
 90
       10
 70
   128
 43
0.0
 10
70.2717631117
 20
116.8610939268
 10
70.2943160192
 20
116.8562752638
 10
70.3612818376
 20
116.8419645612
 10
70.4706265584
 20
116.8185976778
 10
70.6190346733
 20
116.7868824188
 10
70.8019911305
 20
116.7477854971
 10
71.0139377967
 20
116.702491555
 10
71.2484373704
 20
116.6523808126
 10
71.498359646
 20
116.5989731882
 10
71.7561124817
 20
116.5438910459
  0
LINE
  5
B4
330
1F
100
AcDbEntity
  8
0
  6
Continuous
 62
     7
370
     0
100
AcDbLine
 10
60.9049825922
 20
116.6416147236
 30
0.0
 11
60.7480659143
 21
113.0236668025
 31
0.0
  0
LWPOLYLINE
  5
B5
330
1F
100
AcDbEntity
  8
0
  6
Continuous
 62
     7
370
     0
100
AcDbPolyline
 90
        9
 70
   128
 43
0.0
 10
60.7480659143
 20
113.0236668025
 10
60.451204981
 20
112.9326337461
 10
60.1657508866
 20
112.8451005999
 10
59.9026783363
 20
112.7644313012
 10
59.672097768
 20
112.693721566
 10
59.4828604714
 20
112.635692719
 10
59.3422456638
 20
112.5925724838
 10
59.2556550161
 20
112.5660204772
 10
59.2264114872
 20
112.5570537035
  0
LINE
  5
B6
330
1F
100
AcDbEntity
  8
0
  6
Continuous
 62
     7
370
     0
100
AcDbLine
 10
59.2264114872
 20
112.5570537035
 30
0.0
 11
59.4130932347
 21
116.8610939268
 31
0.0
  0
LWPOLYLINE
  5
B7
330
1F
100
AcDbEntity
  8
0
  6
Continuous
 62
     7
370
     0
100
AcDbPolyline
 90
        9
 70
   128
 43
0.0
 10
60.9049825922
 20
116.6416147236
 10
60.6139331118
 20
116.6844332103
 10
60.3340595023
 20
116.7256051187
 10
60.0761353032
 20
116.7635509257
 10
59.8500548855
 20
116.7968103175
 10
59.6645205275
 20
116.8241055195
 10
59.5266549841
 20
116.8443878625
 10
59.4417630688
 20
116.8568768982
 10
59.4130932347
 20
116.8610939268
  0
ARC
  5
B8
330
1F
100
AcDbEntity
  8
0
  6
Continuous
 62
     7
370
     0
100
AcDbCircle
 10
63.2233555738
 20
125.3610820545
 30
0.0
 40
1.599999900000011
100
AcDbArc
 50
20.8616818152
 51
165.7454804752
  0
LWPOLYLINE
  5
B9
330
1F
100
AcDbEntity
  8
0
  6
Continuous
 62
     7
370
     0
100
AcDbPolyline
 90
        9
 70
   128
 43
0.0
 10
64.7184654132
 20
125.9308645014
 10
64.6915315644
 20
125.9205976014
 10
64.6117656485
 20
125.8902029578
 10
64.4822373048
 20
125.8408391361
 10
64.3079235212
 20
125.7744097595
 10
64.0955223695
 20
125.6934629266
 10
63.8531922356
 20
125.6011129801
 10
63.5902537958
 20
125.5009063963
 10
63.3168025867
 20
125.3966951255
  0
ARC
  5
BA
330
1F
100
AcDbEntity
  8
0
  6
Continuous
 62
     7
370
     0
100
AcDbCircle
 10
63.2233555738
 20
125.3610820545
 30
0.0
 40
0.0999999000000072
100
AcDbArc
 50
20.8616818152
 51
165.7454804751
  0
LWPOLYLINE
  5
BB
330
1F
100
AcDbEntity
  8
0
  6
Continuous
 62
     7
370
     0
100
AcDbPolyline
 90
        9
 70
   128
 43
0.0
 10
61.6726159111
 20
125.7550494258
 10
61.7005555884
 20
125.7479527478
 10
61.7832793847
 20
125.7269346599
 10
61.9176282541
 20
125.6928035502
 10
62.0984314934
 20
125.6468707208
 10
62.3187377111
 20
125.5909019594
 10
62.5700830475
 20
125.5270467584
 10
62.8428115503
 20
125.4577600841
 10
63.1264328019
 20
125.3857055191
  0
LINE
  5
BC
330
1F
100
AcDbEntity
  8
0
  6
Continuous
 62
     7
370
     0
100
AcDbLine
 10
60.7480659143
 20
113.0236668025
 30
0.0
 11
63.7430708104
 21
108.9879026422
 31
0.0
  0
LWPOLYLINE
  5
BD
330
1F
100
AcDbEntity
  8
0
  6
Continuous
 62
     7
370
     0
100
AcDbPolyline
 90
        9
 70
   128
 43
0.0
 10
63.7430726544
 20
108.9879033599
 10
63.5080738918
 20
108.8135094826
 10
63.2821126834
 20
108.6458174024
 10
63.0738615052
 20
108.4912718717
 10
62.8913297311
 20
108.3558110033
 10
62.7415283576
 20
108.2446427528
 10
62.6302166835
 20
108.1620363031
 10
62.561671342
 20
108.1111674641
 10
62.5385298387
 20
108.0939920132
  0
LINE
  5
BE
330
1F
100
AcDbEntity
  8
0
  6
Continuous
 62
     7
370
     0
100
AcDbLine
 10
62.5385283871
 20
108.0939912649
 30
0.0
 11
59.2264114872
 21
112.5570537035
 31
0.0
  0
LINE
  5
BF
330
1F
100
AcDbEntity
  8
0
  6
Continuous
 62
     7
370
     0
100
AcDbLine
 10
87.0119958178
 20
116.0233450566
 30
0.0
 11
83.0654731149
 21
125.399892614
 31
0.0
  0
LINE
  5
C0
330
1F
100
AcDbEntity
  8
0
  6
Continuous
 62
     7
370
     0
100
AcDbLine
 10
87.3923181549
 20
113.1219287847
 30
0.0
 11
87.0119958178
 21
116.0233450566
 31
0.0
  0
LINE
  5
C1
330
1F
100
AcDbEntity
  8
0
  6
Continuous
 62
     7
370
     0
100
AcDbLine
 10
85.4482508947
 20
108.9416622637
 30
0.0
 11
87.3923181549
 21
113.1219287847
 31
0.0
  0
ARC
  5
C2
330
1F
100
AcDbEntity
  8
0
  6
Continuous
 62
     7
370
     0
100
AcDbCircle
 10
85.3575768671
 20
108.9838309945
 30
0.0
 40
0.0999999057094646
100
AcDbArc
 50
215.6428877928
 51
335.0588147028
  0
LINE
  5
C3
330
1F
100
AcDbEntity
  8
0
  6
Continuous
 62
     7
370
     0
100
AcDbLine
 10
82.335996534
 20
113.0260603015
 30
0.0
 11
85.2763104642
 21
108.9255579054
 31
0.0
  0
LINE
  5
C4
330
1F
100
AcDbEntity
  8
0
  6
Continuous
 62
     7
370
     0
100
AcDbLine
 10
82.335996534
 20
116.8140099828
 30
0.0
 11
82.335996534
 21
113.0260603015
 31
0.0
  0
LINE
  5
C5
330
1F
100
AcDbEntity
  8
0
  6
Continuous
 62
     7
370
     0
100
AcDbLine
 10
82.8735013692
 20
125.3673712667
 30
0.0
 11
82.335996534
 21
116.8140099828
 31
0.0
  0
ARC
  5
C6
330
1F
100
AcDbEntity
  8
0
  6
Continuous
 62
     7
370
     0
100
AcDbCircle
 10
82.9733043983
 20
125.3610994745
 30
0.0
 40
0.0999999000000019
100
AcDbArc
 50
22.8258699514
 51
176.4041641614
  0
LINE
  5
C7
330
1F
100
AcDbEntity
  8
0
  6
Continuous
 62
     7
370
     0
100
AcDbLine
 10
80.8359934942
 20
116.8610939268
 30
0.0
 11
81.3764544352
 21
125.4614482433
 31
0.0
  0
LWPOLYLINE
  5
C8
330
1F
100
AcDbEntity
  8
0
  6
Continuous
 62
     7
370
     0
100
AcDbPolyline
 90
        9
 70
   128
 43
0.0
 10
82.87350377
 20
125.3673696403
 10
82.5814410106
 20
125.3857241456
 10
82.3006062762
 20
125.403374571
 10
82.0417880074
 20
125.4196391885
 10
81.8149327294
 20
125.4338921491
 10
81.6287501708
 20
125.445593286
 10
81.4904077903
 20
125.4542881135
 10
81.4052178518
 20
125.4596413557
 10
81.3764511601
 20
125.4614481215
  0
LWPOLYLINE
  5
C9
330
1F
100
AcDbEntity
  8
0
  6
Continuous
 62
     7
370
     0
100
AcDbPolyline
 90
       10
 70
   128
 43
0.0
 10
80.8359934942
 20
116.8610939268
 10
80.8587848202
 20
116.8603786711
 10
80.9264509932
 20
116.8582552556
 10
81.0369580046
 20
116.8547851477
 10
81.1869232909
 20
116.8500782434
 10
81.3718094484
 20
116.8442742411
 10
81.5859912888
 20
116.8375519548
 10
81.8229644553
 20
116.8301125501
 10
82.0755242363
 20
116.8221851323
 10
82.335996534
 20
116.8140099828
  0
LINE
  5
CA
330
1F
100
AcDbEntity
  8
0
  6
Continuous
 62
     7
370
     0
100
AcDbLine
 10
68.1749238626
 20
116.8610939268
 30
0.0
 11
68.4203459874
 21
112.5570537035
 31
0.0
  0
LWPOLYLINE
  5
CB
330
1F
100
AcDbEntity
  8
0
  6
Continuous
 62
     7
370
     0
100
AcDbPolyline
 90
       10
 70
   128
 43
0.0
 10
68.4203459874
 20
112.5570537035
 10
68.3971225277
 20
112.5640032325
 10
68.3281599537
 20
112.5846357529
 10
68.2155593292
 20
112.618329141
 10
68.0627404705
 20
112.6640570794
 10
67.874337639
 20
112.7204281722
 10
67.6560877816
 20
112.7857343737
 10
67.4146144644
 20
112.8579882417
 10
67.1572490589
 20
112.9349937175
 10
66.8918295757
 20
113.014415044
  0
LINE
  5
CC
330
1F
100
AcDbEntity
  8
0
  6
Continuous
 62
     7
370
     0
100
AcDbLine
 10
66.8918295757
 20
113.014415044
 30
0.0
 11
66.6905744926
 21
116.5438910459
 31
0.0
  0
LWPOLYLINE
  5
CD
330
1F
100
AcDbEntity
  8
0
  6
Continuous
 62
     7
370
     0
100
AcDbPolyline
 90
        9
 70
   128
 43
0.0
 10
68.1749238626
 20
116.8610939268
 10
68.1464030401
 20
116.8549993519
 10
68.0619358078
 20
116.8369484578
 10
67.9247631685
 20
116.8076360111
 10
67.7401675836
 20
116.7681870494
 10
67.5152345554
 20
116.7201196287
 10
67.2586067573
 20
116.6652796302
 10
66.9801562086
 20
116.6057737057
 10
66.6905744926
 20
116.5438910459
  0
LINE
  5
CE
330
1F
100
AcDbEntity
  8
0
  6
Continuous
 62
     7
370
     0
100
AcDbLine
 10
63.1264345217
 20
125.3857050044
 30
0.0
 11
60.9049825922
 21
116.6416147236
 31
0.0
  0
LINE
  5
CF
330
1F
100
AcDbEntity
  8
0
  6
Continuous
 62
     7
370
     0
100
AcDbLine
 10
59.4130932347
 20
116.8610939268
 30
0.0
 11
61.6726172867
 21
125.7550496231
 31
0.0
  0
LINE
  5
D0
330
1F
100
AcDbEntity
  8
0
  6
Continuous
 62
     7
370
     0
100
AcDbLine
 10
77.6986285106
 20
113.0236668025
 30
0.0
 11
77.5417043821
 21
116.6416147236
 31
0.0
  0
LINE
  5
D1
330
1F
100
AcDbEntity
  8
0
  6
Continuous
 62
     7
370
     0
100
AcDbLine
 10
79.0335937396
 20
116.8610939268
 30
0.0
 11
79.2202754871
 21
112.5570537035
 31
0.0
  0
LWPOLYLINE
  5
D2
330
1F
100
AcDbEntity
  8
0
  6
Continuous
 62
     7
370
     0
100
AcDbPolyline
 90
        9
 70
   128
 43
0.0
 10
77.6986285106
 20
113.0236668025
 10
77.9954819933
 20
112.9326337461
 10
78.2809360877
 20
112.8451005999
 10
78.544008638
 20
112.7644313012
 10
78.7745966569
 20
112.693721566
 10
78.9638265029
 20
112.635692719
 10
79.1044413105
 20
112.5925724838
 10
79.1910319582
 20
112.5660204772
 10
79.2202754871
 20
112.5570537035
  0
LINE
  5
D3
330
1F
100
AcDbEntity
  8
0
  6
Continuous
 62
     7
370
     0
100
AcDbLine
 10
73.3384697647
 20
108.0939894086
 30
0.0
 11
70.0263409869
 21
112.5570537035
 31
0.0
  0
LWPOLYLINE
  5
D4
330
1F
100
AcDbEntity
  8
0
  6
Continuous
 62
     7
370
     0
100
AcDbPolyline
 90
        9
 70
   128
 43
0.0
 10
70.0263409869
 20
112.5570537035
 10
70.0557111756
 20
112.5658416633
 10
70.142696704
 20
112.591868404
 10
70.283944811
 20
112.6341336851
 10
70.4740389243
 20
112.6910114173
 10
70.7056625739
 20
112.7603185807
 10
70.9699197666
 20
112.8393897299
 10
71.2566628114
 20
112.9251868908
 10
71.5548573986
 20
113.014415044
  0
LINE
  5
D5
330
1F
100
AcDbEntity
  8
0
  6
Continuous
 62
     7
370
     0
100
AcDbLine
 10
71.5548573986
 20
113.014415044
 30
0.0
 11
74.5430108965
 21
108.9879025262
 31
0.0
  0
LWPOLYLINE
  5
D6
330
1F
100
AcDbEntity
  8
0
  6
Continuous
 62
     7
370
     0
100
AcDbPolyline
 90
        9
 70
   128
 43
0.0
 10
73.3384667889
 20
108.0939901505
 10
73.3616157428
 20
108.1111656014
 10
73.4301610843
 20
108.1620344405
 10
73.5414727584
 20
108.2446408902
 10
73.6912741319
 20
108.3558110033
 10
73.8738059059
 20
108.4912718717
 10
74.0820496336
 20
108.6458174024
 10
74.3080182926
 20
108.8135094826
 10
74.5430096046
 20
108.9879033599
  0
LWPOLYLINE
  5
D7
330
1F
100
AcDbEntity
  8
0
  6
Continuous
 62
     7
370
     0
100
AcDbPolyline
 90
        9
 70
   128
 43
0.0
 10
52.9984339134
 20
108.9416631941
 10
52.733088936
 20
108.8182610903
 10
52.4779438034
 20
108.6996031438
 10
52.2427960292
 20
108.590247247
 10
52.0366906182
 20
108.4943955277
 10
51.8675475375
 20
108.4157322977
 10
51.7418562428
 20
108.3572787676
 10
51.6644596115
 20
108.3212850128
 10
51.6383229748
 20
108.3091312532
  0
LINE
  5
D8
330
1F
100
AcDbEntity
  8
0
  6
Continuous
 62
     7
370
     0
100
AcDbLine
 10
51.6383245247
 20
108.3091307062
 30
0.0
 11
49.5104371563
 21
112.8846650456
 31
0.0
  0
LWPOLYLINE
  5
D9
330
1F
100
AcDbEntity
  8
0
  6
Continuous
 62
     7
370
     0
100
AcDbPolyline
 90
        9
 70
   128
 43
0.0
 10
51.0543688194
 20
113.1219287847
 10
50.7531641976
 20
113.0756420527
 10
50.4635303274
 20
113.0311322842
 10
50.196605827
 20
112.9901112501
 10
49.9626426951
 20
112.9541584734
 10
49.7706337825
 20
112.924650449
 10
49.6279551641
 20
112.9027252529
 10
49.5400979177
 20
112.8892229382
 10
49.5104371563
 20
112.8846650456
  0
LINE
  5
DA
330
1F
100
AcDbEntity
  8
0
  6
Continuous
 62
     7
370
     0
100
AcDbLine
 10
57.0702326814
 20
125.4614482433
 30
0.0
 11
57.6106934801
 21
116.8610939268
 31
0.0
  0
LWPOLYLINE
  5
DB
330
1F
100
AcDbEntity
  8
0
  6
Continuous
 62
     7
370
     0
100
AcDbPolyline
 90
        9
 70
   128
 43
0.0
 10
57.6106934801
 20
116.8610939268
 10
57.5818746344
 20
116.8601886813
 10
57.4965133325
 20
116.8575101976
 10
57.3578952805
 20
116.8531590585
 10
57.1713550941
 20
116.8473029022
 10
56.9440453307
 20
116.8401689712
 10
56.6847204224
 20
116.8320273493
 10
56.4033268944
 20
116.823194686
 10
56.1106904403
 20
116.8140099828
  0
LWPOLYLINE
  5
DC
330
1F
100
AcDbEntity
  8
0
  6
Continuous
 62
     7
370
     0
100
AcDbPolyline
 90
        9
 70
   128
 43
0.0
 10
57.0702358142
 20
125.4614481215
 10
57.0414691225
 20
125.4596413557
 10
56.956279184
 20
125.4542881135
 10
56.8179368035
 20
125.445593286
 10
56.6317542449
 20
125.4338921491
 10
56.4048989669
 20
125.4196391885
 10
56.1460806981
 20
125.403374571
 10
55.8652459637
 20
125.3857241456
 10
55.5731832043
 20
125.3673696403
  0
LWPOLYLINE
  5
DD
330
1F
100
AcDbEntity
  8
0
  6
Continuous
 62
     7
370
     0
100
AcDbPolyline
 90
        9
 70
   128
 43
0.0
 10
53.1703784124
 20
108.9255587642
 10
53.4081934944
 20
108.7550298755
 10
53.6368667141
 20
108.591055635
 10
53.8476138369
 20
108.4399355088
 10
54.0323360816
 20
108.3074772243
 10
54.183933045
 20
108.1987732534
 10
54.2965858237
 20
108.1179977838
 10
54.365950729
 20
108.0682558451
 10
54.3893753544
 20
108.0514603738
  0
ARC
  5
DE
330
1F
100
AcDbEntity
  8
0
  6
Continuous
 62
     7
370
     0
100
AcDbCircle
 10
53.0891102495
 20
108.9838309945
 30
0.0
 40
1.599999905709469
100
AcDbArc
 50
204.9411852972
 51
324.3571122072
  0
LINE
  5
DF
330
1F
100
AcDbEntity
  8
0
  6
Continuous
 62
     7
370
     0
100
AcDbLine
 10
57.6106934801
 20
116.8610939268
 30
0.0
 11
57.6106934801
 21
112.5438438241
 31
0.0
  0
LWPOLYLINE
  5
E0
330
1F
100
AcDbEntity
  8
0
  6
Continuous
 62
     7
370
     0
100
AcDbPolyline
 90
       10
 70
   128
 43
0.0
 10
57.6106934801
 20
112.5438438241
 10
57.5879021541
 20
112.5511696075
 10
57.5202359811
 20
112.5729253028
 10
57.4097289697
 20
112.6084496711
 10
57.2597636834
 20
112.6566623781
 10
57.0748775259
 20
112.7160975222
 10
56.8606956855
 20
112.7849520628
 10
56.6237225191
 20
112.8611323867
 10
56.371162738
 20
112.9423250888
 10
56.1106904403
 20
113.0260603015
  0
LINE
  5
E1
330
1F
100
AcDbEntity
  8
0
  6
Continuous
 62
     7
370
     0
100
AcDbLine
 10
57.6106934801
 20
112.5438438241
 30
0.0
 11
54.3893738447
 21
108.0514607455
 31
0.0
  0
LWPOLYLINE
  5
E2
330
1F
100
AcDbEntity
  8
0
  6
Continuous
 62
     7
370
     0
100
AcDbPolyline
 90
        9
 70
   128
 43
0.0
 10
87.0119958178
 20
116.0233450566
 10
87.2970177785
 20
116.1005014066
 10
87.5710873858
 20
116.1746924255
 10
87.8236769692
 20
116.2430682663
 10
88.0450709716
 20
116.302998874
 10
88.2267608301
 20
116.3521820192
 10
88.3617728011
 20
116.3887289796
 10
88.4449138299
 20
116.411235321
 10
88.472980167
 20
116.4188349132
  0
LINE
  5
E3
330
1F
100
AcDbEntity
  8
0
  6
Continuous
 62
     7
370
     0
100
AcDbLine
 10
88.472980167
 20
116.4188349132
 30
0.0
 11
88.9362572686
 21
112.8846650456
 31
0.0
  0
LWPOLYLINE
  5
E4
330
1F
100
AcDbEntity
  8
0
  6
Continuous
 62
     7
370
     0
100
AcDbPolyline
 90
        9
 70
   128
 43
0.0
 10
87.3923181549
 20
113.1219287847
 10
87.6935227767
 20
113.0756420527
 10
87.9831566469
 20
113.0311322842
 10
88.2500811473
 20
112.9901112501
 10
88.4840442792
 20
112.9541584734
 10
88.6760531918
 20
112.924650449
 10
88.8187318102
 20
112.9027252529
 10
88.9065890566
 20
112.8892229382
 10
88.9362572686
 20
112.8846650456
  0
LINE
  5
E5
330
1F
100
AcDbEntity
  8
0
  6
Continuous
 62
     7
370
     0
100
AcDbLine
 10
74.7036163062
 20
108.9879026422
 30
0.0
 11
77.6986285106
 21
113.0236668025
 31
0.0
  0
ARC
  5
E6
330
1F
100
AcDbEntity
  8
0
  6
Continuous
 62
     7
370
     0
100
AcDbCircle
 10
74.6233135583
 20
109.0474966745
 30
0.0
 40
0.0999999000000083
100
AcDbArc
 50
216.57981991
 51
323.42026287
  0
LINE
  5
E7
330
1F
100
AcDbEntity
  8
0
  6
Continuous
 62
     7
370
     0
100
AcDbLine
 10
71.7561124817
 20
116.5438910459
 30
0.0
 11
71.5548573986
 21
113.014415044
 31
0.0
  0
ARC
  5
E8
330
1F
100
AcDbEntity
  8
0
  6
Continuous
 62
     7
370
     0
100
AcDbCircle
 10
75.2233315428
 20
125.3610820545
 30
0.0
 40
0.0999999000000138
100
AcDbArc
 50
14.2545195249
 51
159.1383181848
  0
LINE
  5
E9
330
1F
100
AcDbEntity
  8
0
  6
Continuous
 62
     7
370
     0
100
AcDbLine
 10
66.6905744926
 20
116.5438910459
 30
0.0
 11
63.3167997647
 21
125.3966933332
 31
0.0
  0
LINE
  5
EA
330
1F
100
AcDbEntity
  8
0
  6
Continuous
 62
     7
370
     0
100
AcDbLine
 10
63.9036762201
 20
108.9879025262
 30
0.0
 11
66.8918295757
 21
113.014415044
 31
0.0
  0
ARC
  5
EB
330
1F
100
AcDbEntity
  8
0
  6
Continuous
 62
     7
370
     0
100
AcDbCircle
 10
63.8233735583
 20
109.0474966745
 30
0.0
 40
0.0999998999999999
100
AcDbArc
 50
216.57973713
 51
323.42018009
  0
LINE
  5
EC
330
1F
100
AcDbEntity
  8
0
  6
Continuous
 62
     7
370
     0
100
AcDbLine
 10
80.8359934942
 20
112.5438438241
 30
0.0
 11
80.8359934942
 21
116.8610939268
 31
0.0
  0
LWPOLYLINE
  5
ED
330
1F
100
AcDbEntity
  8
0
  6
Continuous
 62
     7
370
     0
100
AcDbPolyline
 90
        9
 70
   128
 43
0.0
 10
80.8359934942
 20
112.5438438241
 10
80.8648123399
 20
112.5531104837
 10
80.9501736418
 20
112.580550972
 10
81.0887916938
 20
112.6251128946
 10
81.2753318802
 20
112.6850826178
 10
81.5026416437
 20
112.7581560497
 10
81.7619665519
 20
112.8415243213
 10
82.0433600799
 20
112.9319855456
 10
82.335996534
 20
113.0260603015
  0
ARC
  5
EE
330
1F
100
AcDbEntity
  8
0
  6
Continuous
 62
     7
370
     0
100
AcDbCircle
 10
82.9733043983
 20
125.3610994745
 30
0.0
 40
1.599999900000009
100
AcDbArc
 50
22.8258699514
 51
176.4041641614
  0
LWPOLYLINE
  5
EF
330
1F
100
AcDbEntity
  8
0
  6
Continuous
 62
     7
370
     0
100
AcDbPolyline
 90
        9
 70
   128
 43
0.0
 10
83.0654754297
 20
125.3998914246
 10
83.3351938979
 20
125.5134159212
 10
83.5945486084
 20
125.6225743775
 10
83.833563234
 20
125.723175842
 10
84.0430735604
 20
125.8113571886
 10
84.2150031582
 20
125.883724678
 10
84.3427657143
 20
125.9374955181
 10
84.4214438454
 20
125.9706096236
 10
84.4480051652
 20
125.9817892198
  0
LINE
  5
F0
330
1F
100
AcDbEntity
  8
0
  6
Continuous
 62
     7
370
     0
100
AcDbLine
 10
64.7184640309
 20
125.9308630488
 30
0.0
 11
68.1749238626
 21
116.8610939268
 31
0.0
  0
LWPOLYLINE
  5
F1
330
1F
100
AcDbEntity
  8
0
  6
Continuous
 62
     7
370
     0
100
AcDbPolyline
 90
        9
 70
   128
 43
0.0
 10
63.9036773697
 20
108.9879033599
 10
64.1386686818
 20
108.8135094826
 10
64.3646373407
 20
108.6458174024
 10
64.5728810684
 20
108.4912718717
 10
64.7554128424
 20
108.3558110033
 10
64.9052142159
 20
108.2446408902
 10
65.01652589
 20
108.1620344405
 10
65.0850712315
 20
108.1111656014
 10
65.1082201854
 20
108.0939901505
  0
ARC
  5
F2
330
1F
100
AcDbEntity
  8
0
  6
Continuous
 62
     7
370
     0
100
AcDbCircle
 10
63.8233735583
 20
109.0474966745
 30
0.0
 40
1.599999899999994
100
AcDbArc
 50
216.57973713
 51
323.42018009
  0
LINE
  5
F3
330
1F
100
AcDbEntity
  8
0
  6
Continuous
 62
     7
370
     0
100
AcDbLine
 10
79.2202754871
 20
112.5570537035
 30
0.0
 11
75.9081587295
 21
108.0939912649
 31
0.0
  0
LWPOLYLINE
  5
F4
330
1F
100
AcDbEntity
  8
0
  6
Continuous
 62
     7
370
     0
100
AcDbPolyline
 90
        9
 70
   128
 43
0.0
 10
75.9081571356
 20
108.0939920132
 10
75.8850156323
 20
108.1111674641
 10
75.8164702908
 20
108.1620363031
 10
75.7051586167
 20
108.2446427528
 10
75.5553572432
 20
108.3558110033
 10
75.3728254691
 20
108.4912718717
 10
75.1645742909
 20
108.6458174024
 10
74.9386130825
 20
108.8135094826
 10
74.7036143199
 20
108.9879033599
  0
ARC
  5
F5
330
1F
100
AcDbEntity
  8
0
  6
Continuous
 62
     7
370
     0
100
AcDbCircle
 10
74.6233135583
 20
109.0474966745
 30
0.0
 40
1.599999899999994
100
AcDbArc
 50
216.57981991
 51
323.42026287
  0
LINE
  5
F6
330
1F
100
AcDbEntity
  8
0
  6
Continuous
 62
     7
370
     0
100
AcDbLine
 10
49.5104371563
 20
112.8846650456
 30
0.0
 11
49.9737068073
 21
116.4188349132
 31
0.0
  0
LWPOLYLINE
  5
F7
330
1F
100
AcDbEntity
  8
0
  6
Continuous
 62
     7
370
     0
100
AcDbPolyline
 90
        9
 70
   128
 43
0.0
 10
51.4346911565
 20
116.0233450566
 10
51.1496691958
 20
116.1005014066
 10
50.8755995885
 20
116.1746924255
 10
50.6230100051
 20
116.2430682663
 10
50.4016160027
 20
116.302998874
 10
50.2199261443
 20
116.3521820192
 10
50.0849141733
 20
116.3887289796
 10
50.0017731444
 20
116.411235321
 10
49.9737068073
 20
116.4188349132
  0
ARC
  5
F8
330
1F
100
AcDbEntity
  8
0
  6
Continuous
 62
     7
370
     0
100
AcDbCircle
 10
55.4733827183
 20
125.3610994745
 30
0.0
 40
1.599999900000008
100
AcDbArc
 50
3.5958358386
 51
157.1741300486
  0
LWPOLYLINE
  5
F9
330
1F
100
AcDbEntity
  8
0
  6
Continuous
 62
     7
370
     0
100
AcDbPolyline
 90
        9
 70
   128
 43
0.0
 10
53.9986818091
 20
125.9817892198
 10
54.0252431289
 20
125.9706096236
 10
54.10392126
 20
125.9374955181
 10
54.2316838161
 20
125.883724678
 10
54.4036134139
 20
125.8113571886
 10
54.6131237403
 20
125.723175842
 10
54.8521383659
 20
125.6225743775
 10
55.1114930765
 20
125.5134159212
 10
55.3812115446
 20
125.3998914246
  0
LINE
  5
FA
330
1F
100
AcDbEntity
  8
0
  6
Continuous
 62
     7
370
     0
100
AcDbLine
 10
70.0263409869
 20
112.5570537035
 30
0.0
 11
70.2717631117
 21
116.8610939268
 31
0.0
  0
ARC
  5
FB
330
1F
100
AcDbEntity
  8
0
  6
Continuous
 62
     7
370
     0
100
AcDbCircle
 10
75.2233315428
 20
125.3610820545
 30
0.0
 40
1.599999900000004
100
AcDbArc
 50
14.2545195248
 51
159.1383181848
  0
LINE
  5
FC
330
1F
100
AcDbEntity
  8
0
  6
Continuous
 62
     7
370
     0
100
AcDbLine
 10
88.9362572686
 20
112.8846650456
 30
0.0
 11
86.8083625919
 21
108.3091307062
 31
0.0
  0
LWPOLYLINE
  5
FD
330
1F
100
AcDbEntity
  8
0
  6
Continuous
 62
     7
370
     0
100
AcDbPolyline
 90
        9
 70
   128
 43
0.0
 10
86.8083639995
 20
108.3091312532
 10
86.7822273628
 20
108.3212850128
 10
86.7048307315
 20
108.3572787676
 10
86.5791394369
 20
108.4157322977
 10
86.4099963561
 20
108.4943955277
 10
86.2038909451
 20
108.590247247
 10
85.9687431709
 20
108.6996031438
 10
85.7135980383
 20
108.8182610903
 10
85.4482530609
 20
108.9416631941
  0
ARC
  5
FE
330
1F
100
AcDbEntity
  8
0
  6
Continuous
 62
     7
370
     0
100
AcDbCircle
 10
85.3575768671
 20
108.9838309945
 30
0.0
 40
1.599999905709475
100
AcDbArc
 50
215.6428877928
 51
335.0588147028
  0
LWPOLYLINE
  5
FF
330
1F
100
AcDbEntity
  8
0
  6
Continuous
 62
     7
370
     0
100
AcDbPolyline
 90
        9
 70
   128
 43
0.0
 10
84.0573116199
 20
108.0514603738
 10
84.0807362453
 20
108.0682558451
 10
84.1501011506
 20
108.1179977838
 10
84.2627539293
 20
108.1987732534
 10
84.4143508927
 20
108.3074772243
 10
84.5990731374
 20
108.4399355088
 10
84.8098202602
 20
108.591055635
 10
85.0384934799
 20
108.7550298755
 10
85.2763085619
 20
108.9255587642
  0
LINE
  5
100
330
1F
100
AcDbEntity
  8
0
  6
Continuous
 62
     7
370
     0
100
AcDbLine
 10
49.9737068073
 20
116.4188349132
 30
0.0
 11
53.9986818693
 21
125.9817902881
 31
0.0
  0
LINE
  5
101
330
1F
100
AcDbEntity
  8
0
  6
Continuous
 62
     7
370
     0
100
AcDbLine
 10
84.0573132718
 20
108.0514607455
 30
0.0
 11
80.8359934942
 21
112.5438438241
 31
0.0
  0
LINE
  5
102
330
1F
100
AcDbEntity
  8
0
  6
Continuous
 62
     7
370
     0
100
AcDbLine
 10
84.4480052472
 20
125.9817902881
 30
0.0
 11
88.472980167
 21
116.4188349132
 31
0.0
  0
LINE
  5
103
330
1F
100
AcDbEntity
  8
0
  6
Continuous
 62
     7
370
     0
100
AcDbLine
 10
68.4203459874
 20
112.5570537035
 30
0.0
 11
65.1082173518
 21
108.0939894086
 31
0.0
  0
LINE
  5
104
330
1F
100
AcDbEntity
  8
0
  6
Continuous
 62
     7
370
     0
100
AcDbLine
 10
42.8880634988
 20
119.2611546774
 30
0.0
 11
47.6271986486
 21
119.0956415984
 31
0.0
  0
LWPOLYLINE
  5
105
330
1F
100
AcDbEntity
  8
0
  6
Continuous
 62
     7
370
     0
100
AcDbPolyline
 90
        9
 70
   128
 43
0.0
 10
47.5783302442
 20
117.6964940016
 10
47.5792690173
 20
117.7233794217
 10
47.5820555345
 20
117.8029981886
 10
47.5865705863
 20
117.9322937016
 10
47.5926428095
 20
118.1062945608
 10
47.6000486866
 20
118.3183175955
 10
47.608497645
 20
118.5602118705
 10
47.6176693097
 20
118.8226809238
 10
47.6271986023
 20
119.0956422572
  0
LINE
  5
106
330
1F
100
AcDbEntity
  8
0
  6
Continuous
 62
     7
370
     0
100
AcDbLine
 10
47.5783337999
 20
117.6964946345
 30
0.0
 11
42.8315101412
 21
117.8622762327
 31
0.0
  0
ARC
  5
107
330
1F
100
AcDbEntity
  8
0
  6
Continuous
 62
     7
370
     0
100
AcDbCircle
 10
268.7576155037
 20
109.4291531905
 30
0.0
 40
226.0834424811033
100
AcDbArc
 50
177.5075135032
 51
177.8623179715
  0
ARC
  5
108
330
1F
100
AcDbEntity
  8
0
  6
Continuous
 62
     7
370
     0
100
AcDbCircle
 10
95.5524586883
 20
119.3609643645
 30
0.0
 40
1.4999999
100
AcDbArc
 50
272.3963608466
 51
42.8691227692
  0
ARC
  5
109
330
1F
100
AcDbEntity
  8
0
  6
Continuous
 62
     7
370
     0
100
AcDbCircle
 10
-124.4796708014
 20
109.6654845077
 30
0.0
 40
220.2474245421194
100
AcDbArc
 50
2.1328289744
 51
2.4970348852
  0
ARC
  5
10A
330
1F
100
AcDbEntity
  8
0
  6
Continuous
 62
     7
370
     0
100
AcDbCircle
 10
95.5524586883
 20
119.3609643645
 30
0.0
 40
0.0999999000063805
100
AcDbArc
 50
273.5344892489
 51
42.8691227732
  0
LWPOLYLINE
  5
10B
330
1F
100
AcDbEntity
  8
0
  6
Continuous
 62
     7
370
     0
100
AcDbPolyline
 90
        9
 70
   128
 43
0.0
 10
95.6257461563
 20
119.4289961342
 10
95.8259283558
 20
119.6148117517
 10
96.0184141055
 20
119.7934859876
 10
96.195804979
 20
119.958153132
 10
96.3512911455
 20
120.1024857793
 10
96.4788972393
 20
120.2209351097
 10
96.5737207786
 20
120.3089525436
 10
96.6321109787
 20
120.3631517921
 10
96.651825215
 20
120.3814541433
  0
ARC
  5
10C
330
1F
100
AcDbEntity
  8
0
  6
Continuous
 62
     7
370
     0
100
AcDbCircle
 10
42.8942284283
 20
119.3609643645
 30
0.0
 40
0.0999999000000121
100
AcDbArc
 50
137.1308772308
 51
266.465510751
  0
ARC
  5
10D
330
1F
100
AcDbEntity
  8
0
  6
Continuous
 62
     7
370
     0
100
AcDbCircle
 10
42.8942284283
 20
119.3609643645
 30
0.0
 40
1.4999999
100
AcDbArc
 50
137.1308772308
 51
267.6036391534
  0
LWPOLYLINE
  5
10E
330
1F
100
AcDbEntity
  8
0
  6
Continuous
 62
     7
370
     0
100
AcDbPolyline
 90
        9
 70
   128
 43
0.0
 10
42.8209370927
 20
119.4289961342
 10
42.6207623438
 20
119.6148117517
 10
42.4282765941
 20
119.7934859876
 10
42.2508819953
 20
119.958153132
 10
42.0953958289
 20
120.1024857793
 10
41.967789735
 20
120.2209351097
 10
41.872969921
 20
120.3089525436
 10
41.8145797209
 20
120.3631517921
 10
41.7948654846
 20
120.3814541433
  0
LINE
  5
10F
330
1F
100
AcDbEntity
  8
0
  6
Continuous
 62
     7
370
     0
100
AcDbLine
 10
95.6151769753
 20
117.8622762327
 30
0.0
 11
90.8683533167
 21
117.6964946345
 31
0.0
  0
LWPOLYLINE
  5
110
330
1F
100
AcDbEntity
  8
0
  6
Continuous
 62
     7
370
     0
100
AcDbPolyline
 90
        9
 70
   128
 43
0.0
 10
90.8683567301
 20
117.6964940016
 10
90.867417957
 20
117.7233794217
 10
90.8646314398
 20
117.8029981886
 10
90.860116388
 20
117.9322937016
 10
90.8540441648
 20
118.1062945608
 10
90.8466382877
 20
118.3183175955
 10
90.8381893293
 20
118.5602118705
 10
90.8290251151
 20
118.8226809238
 10
90.819488372
 20
119.0956422572
  0
LINE
  5
111
330
1F
100
AcDbEntity
  8
0
  6
Continuous
 62
     7
370
     0
100
AcDbLine
 10
90.819488468
 20
119.0956415984
 30
0.0
 11
95.5586236178
 21
119.2611546773
 31
0.0
  0
LINE
  5
112
330
1F
100
AcDbEntity
  8
0
  6
Continuous
 62
     7
370
     0
100
AcDbLine
 10
95.6257495789
 20
119.428996896
 30
0.0
 11
90.0560964489
 21
125.429138726
 31
0.0
  0
LWPOLYLINE
  5
113
330
1F
100
AcDbEntity
  8
0
  6
Continuous
 62
     7
370
     0
100
AcDbPolyline
 90
        9
 70
   128
 43
0.0
 10
90.0560944334
 20
125.4291386787
 10
90.2562766329
 20
125.6149524335
 10
90.4487549321
 20
125.7936285321
 10
90.6261532561
 20
125.9582938139
 10
90.7816394225
 20
126.1026264612
 10
90.9092455164
 20
126.2210757915
 10
91.0040616051
 20
126.3090932254
 10
91.0624518052
 20
126.363292474
 10
91.0821734921
 20
126.3815948252
  0
LINE
  5
114
330
1F
100
AcDbEntity
  8
0
  6
Continuous
 62
     7
370
     0
100
AcDbLine
 10
91.0821699438
 20
126.3815951203
 30
0.0
 11
96.6518230738
 21
120.3814532903
 31
0.0
  0
LINE
  5
115
330
1F
100
AcDbEntity
  8
0
  6
Continuous
 62
     7
370
     0
100
AcDbLine
 10
48.3905906677
 20
125.429138726
 30
0.0
 11
42.8209375377
 21
119.428996896
 31
0.0
  0
LINE
  5
116
330
1F
100
AcDbEntity
  8
0
  6
Continuous
 62
     7
370
     0
100
AcDbLine
 10
41.7948640427
 20
120.3814532903
 30
0.0
 11
47.3645171727
 21
126.3815951203
 31
0.0
  0
LWPOLYLINE
  5
117
330
1F
100
AcDbEntity
  8
0
  6
Continuous
 62
     7
370
     0
100
AcDbPolyline
 90
        9
 70
   128
 43
0.0
 10
48.3905925409
 20
125.4291386787
 10
48.1904103414
 20
125.6149524335
 10
47.9979320423
 20
125.7936285321
 10
47.8205337182
 20
125.9582938139
 10
47.6650475518
 20
126.1026264612
 10
47.5374414579
 20
126.2210757915
 10
47.4426253692
 20
126.3090932254
 10
47.3842351691
 20
126.363292474
 10
47.3645134822
 20
126.3815948252
  0
ARC
  5
118
330
1F
100
AcDbEntity
  8
0
  6
Continuous
 62
     7
370
     0
100
AcDbCircle
 10
90.8159981283
 20
119.1955804773
 30
0.0
 40
1.499999810000003
100
AcDbArc
 50
187.6961750165
 51
272.00022741
  0
LWPOLYLINE
  5
119
330
1F
100
AcDbEntity
  8
0
  6
Continuous
 62
     7
370
     0
100
AcDbPolyline
 90
        9
 70
   128
 43
0.0
 10
89.3295138136
 20
118.9946999286
 10
89.356171991
 20
118.9983022843
 10
89.435118343
 20
119.0089715157
 10
89.5633279339
 20
119.0262978409
 10
89.7358684794
 20
119.0496144329
 10
89.9461089627
 20
119.0780253593
 10
90.1859655038
 20
119.1104391102
 10
90.4462366358
 20
119.1456114386
 10
90.7169013277
 20
119.1821882014
  0
ARC
  5
11A
330
1F
100
AcDbEntity
  8
0
  6
Continuous
 62
     7
370
     0
100
AcDbCircle
 10
90.8159981283
 20
119.1955804773
 30
0.0
 40
0.0999998099999955
100
AcDbArc
 50
187.6961750165
 51
272.00022741
  0
ARC
  5
11B
330
1F
100
AcDbEntity
  8
0
  6
Continuous
 62
     7
370
     0
100
AcDbCircle
 10
89.9828055583
 20
125.3611061945
 30
0.0
 40
0.099999900000022
100
AcDbArc
 50
42.8691227692
 51
187.6961750166
  0
LWPOLYLINE
  5
11C
330
1F
100
AcDbEntity
  8
0
  6
Continuous
 62
     7
370
     0
100
AcDbPolyline
 90
        9
 70
   128
 43
0.0
 10
89.8837028996
 20
125.3477150087
 10
89.6130382077
 20
125.3111363832
 10
89.3527745262
 20
125.2759659175
 10
89.1129179851
 20
125.2435521666
 10
88.9026775018
 20
125.2151393775
 10
88.7301369563
 20
125.1918227856
 10
88.6019273654
 20
125.1744964604
 10
88.5229735628
 20
125.163827229
 10
88.4963153855
 20
125.1602248732
  0
ARC
  5
11D
330
1F
100
AcDbEntity
  8
0
  6
Continuous
 62
     7
370
     0
100
AcDbCircle
 10
89.9828055583
 20
125.3611061945
 30
0.0
 40
1.4999999
100
AcDbArc
 50
42.8691227692
 51
187.6961750165
  0
ARC
  5
11E
330
1F
100
AcDbEntity
  8
0
  6
Continuous
 62
     7
370
     0
100
AcDbCircle
 10
47.6306889883
 20
119.1955804773
 30
0.0
 40
1.499999809999997
100
AcDbArc
 50
267.99977259
 51
352.3038249835
  0
ARC
  5
11F
330
1F
100
AcDbEntity
  8
0
  6
Continuous
 62
     7
370
     0
100
AcDbCircle
 10
47.6306889883
 20
119.1955804773
 30
0.0
 40
0.0999998099999952
100
AcDbArc
 50
267.99977259
 51
352.3038249835
  0
LWPOLYLINE
  5
120
330
1F
100
AcDbEntity
  8
0
  6
Continuous
 62
     7
370
     0
100
AcDbPolyline
 90
        9
 70
   128
 43
0.0
 10
49.1171806113
 20
118.9946999286
 10
49.0905224339
 20
118.9983022843
 10
49.0115686313
 20
119.0089715157
 10
48.8833590404
 20
119.0262978409
 10
48.7108184949
 20
119.0496144329
 10
48.5005780116
 20
119.0780253593
 10
48.2607214705
 20
119.1104391102
 10
48.0004577891
 20
119.1456114386
 10
47.7297856466
 20
119.1821882014
  0
ARC
  5
121
330
1F
100
AcDbEntity
  8
0
  6
Continuous
 62
     7
370
     0
100
AcDbCircle
 10
48.4638815583
 20
125.3611061945
 30
0.0
 40
0.0999999000000116
100
AcDbArc
 50
352.3038249834
 51
137.1308772308
  0
ARC
  5
122
330
1F
100
AcDbEntity
  8
0
  6
Continuous
 62
     7
370
     0
100
AcDbCircle
 10
48.4638815583
 20
125.3611061945
 30
0.0
 40
1.4999999
100
AcDbArc
 50
352.3038249835
 51
137.1308772308
  0
LWPOLYLINE
  5
123
330
1F
100
AcDbEntity
  8
0
  6
Continuous
 62
     7
370
     0
100
AcDbPolyline
 90
        9
 70
   128
 43
0.0
 10
49.9503715888
 20
125.1602248732
 10
49.9237134115
 20
125.163827229
 10
49.8447596089
 20
125.1744964604
 10
49.716550018
 20
125.1918227856
 10
49.5440094725
 20
125.2151393775
 10
49.3337689892
 20
125.2435521666
 10
49.0939124481
 20
125.2759659175
 10
48.8336487666
 20
125.3111363832
 10
48.5629840747
 20
125.3477150087
  0
LINE
  5
124
330
1F
100
AcDbEntity
  8
0
  6
Continuous
 62
     7
370
     0
100
AcDbLine
 10
49.9503696725
 20
125.1602261651
 30
0.0
 11
49.1171770133
 21
118.99470046
 31
0.0
  0
LINE
  5
125
330
1F
100
AcDbEntity
  8
0
  6
Continuous
 62
     7
370
     0
100
AcDbLine
 10
47.7297880142
 20
119.1821884999
 30
0.0
 11
48.5629806734
 21
125.347714205
 31
0.0
  0
LINE
  5
126
330
1F
100
AcDbEntity
  8
0
  6
Continuous
 62
     7
370
     0
100
AcDbLine
 10
89.3295101032
 20
118.99470046
 30
0.0
 11
88.496317444
 21
125.1602261651
 31
0.0
  0
LINE
  5
127
330
1F
100
AcDbEntity
  8
0
  6
Continuous
 62
     7
370
     0
100
AcDbLine
 10
89.8837064432
 20
125.347714205
 30
0.0
 11
90.7168991023
 21
119.1821884999
 31
0.0
  0
LINE
  5
128
330
1F
100
AcDbEntity
  8
0
  6
Continuous
 62
     7
370
     0
100
AcDbLine
 10
105.7233435583
 20
143.3611042945
 30
0.0
 11
105.7233435583
 21
143.8611042945
 31
0.0
  0
ARC
  5
129
330
1F
100
AcDbEntity
  8
0
  6
Continuous
 62
     7
370
     0
100
AcDbCircle
 10
105.7233435583
 20
143.3611042945
 30
0.0
 40
0.5
100
AcDbArc
 50
0.0
 51
90.0
  0
LINE
  5
12A
330
1F
100
AcDbEntity
  8
0
  6
Continuous
 62
     7
370
     0
100
AcDbLine
 10
105.7233435583
 20
143.3611042945
 30
0.0
 11
106.2233435583
 21
143.3611042945
 31
0.0
  0
LINE
  5
12B
330
1F
100
AcDbEntity
  8
0
  6
Continuous
 62
     7
370
     0
100
AcDbLine
 10
32.7233435583
 20
143.8611042945
 30
0.0
 11
105.7233435583
 21
143.8611042945
 31
0.0
  0
LINE
  5
12C
330
1F
100
AcDbEntity
  8
0
  6
Continuous
 62
     7
370
     0
100
AcDbLine
 10
105.7233435583
 20
143.3611042945
 30
0.0
 11
32.7233435583
 21
143.3611042945
 31
0.0
  0
LINE
  5
12D
330
1F
100
AcDbEntity
  8
0
  6
Continuous
 62
     7
370
     0
100
AcDbLine
 10
32.7233435583
 20
143.8611042945
 30
0.0
 11
32.7233435583
 21
143.3611042945
 31
0.0
  0
LINE
  5
12E
330
1F
100
AcDbEntity
  8
0
  6
Continuous
 62
     7
370
     0
100
AcDbLine
 10
98.2233435583
 20
130.3611042945
 30
0.0
 11
74.2233435583
 21
130.3611042945
 31
0.0
  0
ARC
  5
12F
330
1F
100
AcDbEntity
  8
0
  6
Continuous
 62
     7
370
     0
100
AcDbCircle
 10
98.2233435583
 20
132.3611042945
 30
0.0
 40
2.0
100
AcDbArc
 50
270.0
 51
90.0
  0
LINE
  5
130
330
1F
100
AcDbEntity
  8
0
  6
Continuous
 62
     7
370
     0
100
AcDbLine
 10
88.8082562939
 20
113.861104611
 30
0.0
 11
99.3138655082
 21
113.861104611
 31
0.0
  0
LINE
  5
131
330
1F
100
AcDbEntity
  8
0
  6
Continuous
 62
     7
370
     0
100
AcDbLine
 10
68.3459891931
 20
113.861104611
 30
0.0
 11
70.1007052318
 21
113.861104611
 31
0.0
  0
LINE
  5
132
330
1F
100
AcDbEntity
  8
0
  6
Continuous
 62
     7
370
     0
100
AcDbLine
 10
57.6106934801
 20
113.861104611
 30
0.0
 11
59.2829762951
 21
113.861104611
 31
0.0
  0
LINE
  5
133
330
1F
100
AcDbEntity
  8
0
  6
Continuous
 62
     7
370
     0
100
AcDbLine
 10
39.1328177408
 20
113.861104611
 30
0.0
 11
49.6384306804
 21
113.861104611
 31
0.0
  0
LINE
  5
134
330
1F
100
AcDbEntity
  8
0
  6
Continuous
 62
     7
370
     0
100
AcDbLine
 10
33.2020214752
 20
113.861104611
 30
0.0
 11
34.7576729015
 21
113.861104611
 31
0.0
  0
LINE
  5
135
330
1F
100
AcDbEntity
  8
0
  6
Continuous
 62
     7
370
     0
100
AcDbLine
 10
32.7233435583
 20
143.3611042945
 30
0.0
 11
32.7233440236
 21
123.1427976374
 31
0.0
  0
LINE
  5
136
330
1F
100
AcDbEntity
  8
0
  6
Continuous
 62
     7
370
     0
100
AcDbLine
 10
105.723346676
 20
123.1427976374
 30
0.0
 11
105.7233435583
 21
143.3611042945
 31
0.0
  0
ARC
  5
137
330
1F
100
AcDbEntity
  8
0
  6
Continuous
 62
     7
370
     0
100
AcDbCircle
 10
74.2233435583
 20
132.3611042945
 30
0.0
 40
2.0
100
AcDbArc
 50
90.0
 51
270.0
  0
LINE
  5
138
330
1F
100
AcDbEntity
  8
0
  6
Continuous
 62
     7
370
     0
100
AcDbLine
 10
79.1637106792
 20
113.861104611
 30
0.0
 11
80.8359934942
 21
113.861104611
 31
0.0
  0
LINE
  5
139
330
1F
100
AcDbEntity
  8
0
  6
Continuous
 62
     7
370
     0
100
AcDbLine
 10
103.6890103475
 20
113.861104611
 30
0.0
 11
105.2446617738
 21
113.861104611
 31
0.0
  0
LINE
  5
13A
330
1F
100
AcDbEntity
  8
0
  6
Continuous
 62
     7
370
     0
100
AcDbLine
 10
74.2233435583
 20
134.3611042945
 30
0.0
 11
98.2233435583
 21
134.3611042945
 31
0.0
  0
LINE
  5
13B
330
1F
100
AcDbEntity
  8
0
  6
Continuous
 62
     7
370
     0
100
AcDbLine
 10
106.2233435583
 20
143.3611042945
 30
0.0
 11
106.2233402387
 21
122.5469188277
 31
0.0
  0
LINE
  5
13C
330
1F
100
AcDbEntity
  8
0
  6
Continuous
 62
     7
370
     0
100
AcDbLine
 10
32.2233430103
 20
122.5469188277
 30
0.0
 11
32.2233435583
 21
143.3611042945
 31
0.0
  0
LINE
  5
13D
330
1F
100
AcDbEntity
  8
0
  6
Continuous
 62
     7
370
     0
100
AcDbLine
 10
32.2233435583
 20
143.3611042945
 30
0.0
 11
32.7233435583
 21
143.3611042945
 31
0.0
  0
ARC
  5
13E
330
1F
100
AcDbEntity
  8
0
  6
Continuous
 62
     7
370
     0
100
AcDbCircle
 10
32.7233435583
 20
143.3611042945
 30
0.0
 40
0.5
100
AcDbArc
 50
90.0
 51
180.0
  0
LINE
  5
13F
330
1F
100
AcDbEntity
  8
0
  6
Continuous
 62
     7
370
     0
100
AcDbLine
 10
51.2233405367
 20
106.361104313
 30
0.0
 11
51.2233405367
 21
109.2014500384
 31
0.0
  0
LINE
  5
140
330
1F
100
AcDbEntity
  8
0
  6
Continuous
 62
     7
370
     0
100
AcDbLine
 10
38.2645717815
 20
106.361104313
 30
0.0
 11
51.2233405367
 21
106.361104313
 31
0.0
  0
LINE
  5
141
330
1F
100
AcDbEntity
  8
0
  6
Continuous
 62
     7
370
     0
100
AcDbLine
 10
87.2233464376
 20
106.361104313
 30
0.0
 11
100.1821189181
 21
106.361104313
 31
0.0
  0
LINE
  5
142
330
1F
100
AcDbEntity
  8
0
  6
Continuous
 62
     7
370
     0
100
AcDbLine
 10
87.2233464376
 20
106.361104313
 30
0.0
 11
87.2233464376
 21
109.2014500384
 31
0.0
  0
ARC
  5
143
330
1F
100
AcDbEntity
  8
0
  6
Continuous
 62
     7
370
     0
100
AcDbCircle
 10
100.8761064626
 20
106.3611042945
 30
0.0
 40
0.5000000000000159
100
AcDbArc
 50
270.0
 51
313.9853318477
  0
LINE
  5
144
330
1F
100
AcDbEntity
  8
0
  6
Continuous
 62
     7
370
     0
100
AcDbLine
 10
100.8761032478
 20
105.8611051623
 30
0.0
 11
100.7233439938
 21
105.8611051623
 31
0.0
  0
LINE
  5
145
330
1F
100
AcDbEntity
  8
0
  6
Continuous
 62
     7
370
     0
100
AcDbLine
 10
100.7233439938
 20
105.8611051623
 30
0.0
 11
87.7233400003
 21
105.8611051623
 31
0.0
  0
ARC
  5
146
330
1F
100
AcDbEntity
  8
0
  6
Continuous
 62
     7
370
     0
100
AcDbCircle
 10
87.7233435583
 20
106.3611042945
 30
0.0
 40
0.5
100
AcDbArc
 50
180.0
 51
270.0
  0
LINE
  5
147
330
1F
100
AcDbEntity
  8
0
  6
Continuous
 62
     7
370
     0
100
AcDbLine
 10
50.723346974
 20
105.8611051623
 30
0.0
 11
37.5705800012
 21
105.8611051623
 31
0.0
  0
ARC
  5
148
330
1F
100
AcDbEntity
  8
0
  6
Continuous
 62
     7
370
     0
100
AcDbCircle
 10
37.5705806539
 20
106.3611042945
 30
0.0
 40
0.5000000000000057
100
AcDbArc
 50
226.0146681523
 51
270.0
  0
ARC
  5
149
330
1F
100
AcDbEntity
  8
0
  6
Continuous
 62
     7
370
     0
100
AcDbCircle
 10
50.7233435583
 20
106.3611042945
 30
0.0
 40
0.5
100
AcDbArc
 50
270.0
 51
0.0
  0
DIMENSION
  5
14A
330
1F
100
AcDbEntity
  8
0
  6
Continuous
 62
     7
370
     0
100
AcDbDimension
  2
*D1
 10
89.2233435583
 20
68.3052279191
 30
0.0
 11
94.2233435583
 21
68.3052279191
 31
0.0
 70
   160
 71
     1
 42
10.0
  3
SLDDIMSTYLE0
100
AcDbAlignedDimension
 13
99.2233435583
 23
93.8611042945
 33
0.0
 14
89.2233435583
 24
93.8611042945
 34
0.0
100
AcDbRotatedDimension
1001
ACAD
1000
DSTYLE
1002
{
1070
    77
1070
     3
1070
   143
1040
0.0393700787
1070
    41
1040
3.0
1070
    44
1040
1.0
1070
    42
1040
1.0
1070
   147
1040
1.524
1070
    73
1070
     0
1070
    74
1070
     0
1070
   140
1040
3.5
1070
   284
1070
    12
1070
    78
1070
    12
1002
}
  0
DIMENSION
  5
167
330
1F
100
AcDbEntity
  8
0
  6
Continuous
 62
     7
370
     0
100
AcDbDimension
  2
*D3
 10
119.2188303113
 20
93.8611042945
 30
0.0
 11
119.2188303113
 21
99.8611042945
 31
0.0
 70
   160
 71
     1
 42
12.0
  3
SLDDIMSTYLE0
100
AcDbAlignedDimension
 13
100.8761064626
 23
105.8611042945
 33
0.0
 14
99.2233435583
 24
93.8611042945
 34
0.0
 50
90.0
100
AcDbRotatedDimension
1001
ACAD
1000
DSTYLE
1002
{
1070
    77
1070
     3
1070
   143
1040
0.0393700787
1070
    41
1040
3.0
1070
    44
1040
1.0
1070
    42
1040
1.0
1070
   147
1040
1.524
1070
    73
1070
     0
1070
    74
1070
     0
1070
   140
1040
3.5
1070
   284
1070
    12
1070
    78
1070
    12
1002
}
  0
DIMENSION
  5
17D
330
1F
100
AcDbEntity
  8
0
  6
Continuous
 62
     7
370
     0
100
AcDbDimension
  2
*D4
 10
110.2513832011
 20
143.8611042945
 30
0.0
 11
110.2513832011
 21
148.1111042945
 31
0.0
 70
   160
 71
     1
 42
8.5
  3
SLDDIMSTYLE0
100
AcDbAlignedDimension
 13
104.2233435583
 23
152.3611042945
 33
0.0
 14
105.7233435583
 24
143.8611042945
 34
0.0
 50
90.0
100
AcDbRotatedDimension
1001
ACAD
1000
DSTYLE
1002
{
1070
    77
1070
     3
1070
   143
1040
0.0393700787
1070
    41
1040
3.0
1070
    44
1040
1.0
1070
    42
1040
1.0
1070
   147
1040
1.524
1070
    73
1070
     0
1070
    74
1070
     0
1070
   140
1040
3.5
1070
   284
1070
    12
1070
    78
1070
    12
1002
}
  0
DIMENSION
  5
194
330
1F
100
AcDbEntity
  8
0
  6
Continuous
 62
     7
370
     0
100
AcDbDimension
  2
*D5
 10
119.066067407
 20
105.8611042945
 30
0.0
 11
119.066067407
 21
129.1111042945
 31
0.0
 70
   160
 71
     1
 42
46.5
  3
SLDDIMSTYLE0
100
AcDbAlignedDimension
 13
104.2233435583
 23
152.3611042945
 33
0.0
 14
100.8761064626
 24
105.8611042945
 34
0.0
 50
90.0
100
AcDbRotatedDimension
1001
ACAD
1000
DSTYLE
1002
{
1070
    77
1070
     3
1070
   143
1040
0.0393700787
1070
    41
1040
3.0
1070
    44
1040
1.0
1070
    42
1040
1.0
1070
   147
1040
1.524
1070
    73
1070
     0
1070
    74
1070
     0
1070
   140
1040
3.5
1070
   284
1070
    12
1070
    78
1070
    12
1002
}
  0
DIMENSION
  5
1A8
330
1F
100
AcDbEntity
  8
0
  6
Continuous
 62
     7
370
     0
100
AcDbDimension
  2
*D6
 10
114.1539495331
 20
105.8611042945
 30
0.0
 11
114.1539495331
 21
124.8611042945
 31
0.0
 70
   160
 71
     1
 42
38.0
  3
SLDDIMSTYLE0
100
AcDbAlignedDimension
 13
105.7233435583
 23
143.8611042945
 33
0.0
 14
100.8761064626
 24
105.8611042945
 34
0.0
 50
90.0
100
AcDbRotatedDimension
1001
ACAD
1000
DSTYLE
1002
{
1070
    77
1070
     3
1070
   143
1040
0.0393700787
1070
    41
1040
3.0
1070
    44
1040
1.0
1070
    42
1040
1.0
1070
   147
1040
1.524
1070
    73
1070
     0
1070
    74
1070
     0
1070
   140
1040
3.5
1070
   284
1070
    12
1070
    78
1070
    12
1002
}
  0
ARC
  5
1BC
330
1F
100
AcDbEntity
  8
0
  6
Continuous
 62
     7
370
     0
100
AcDbCircle
 10
186.0521779141
 20
108.36106346
 30
0.0
 40
1.5
100
AcDbArc
 50
270.0
 51
0.0
  0
LINE
  5
1BD
330
1F
100
AcDbEntity
  8
0
  6
Continuous
 62
     7
370
     0
100
AcDbLine
 10
132.0521779141
 20
106.86106346
 30
0.0
 11
186.0521779141
 21
106.86106346
 31
0.0
  0
ARC
  5
1BE
330
1F
100
AcDbEntity
  8
0
  6
Continuous
 62
     7
370
     0
100
AcDbCircle
 10
132.0521779141
 20
108.36106346
 30
0.0
 40
1.5
100
AcDbArc
 50
180.0
 51
270.0
  0
LWPOLYLINE
  5
1BF
330
1F
100
AcDbEntity
  8
0
  6
Continuous
 62
     7
370
     0
100
AcDbPolyline
 90
       11
 70
   128
 43
0.0
 10
187.5521779141
 20
122.9463780865
 10
187.5369843599
 20
123.7045309004
 10
187.4579757172
 20
124.7657312924
 10
187.3543808661
 20
125.4507920401
 10
187.2469681369
 20
125.8884809816
 10
187.1246423916
 20
126.2124331656
 10
186.9709868345
 20
126.4753556842
 10
186.7762698743
 20
126.6878686778
 10
186.5258211295
 20
126.8525616725
 10
186.2288678277
 20
126.9466353214
 10
186.0521779141
 20
126.9611394805
  0
LWPOLYLINE
  5
1C0
330
1F
100
AcDbEntity
  8
0
  6
Continuous
 62
     7
370
     0
100
AcDbPolyline
 90
       11
 70
   128
 43
0.0
 10
132.0521779141
 20
126.9611394805
 10
131.7106176916
 20
126.9059793264
 10
131.4506162761
 20
126.7802711741
 10
131.2465366776
 20
126.6105649534
 10
131.0862958092
 20
126.4066267901
 10
130.9569613141
 20
126.1620195452
 10
130.8465848583
 20
125.8524063228
 10
130.7452963041
 20
125.4268953723
 10
130.6493170879
 20
124.7912693906
 10
130.5738851104
 20
123.8499016127
 10
130.5521779141
 20
122.9463780865
  0
LINE
  5
1C1
330
1F
100
AcDbEntity
  8
0
  6
Continuous
 62
     7
370
     0
100
AcDbLine
 10
186.0521779141
 20
126.9611393551
 30
0.0
 11
182.5521779141
 21
126.9611394805
 31
0.0
  0
LINE
  5
1C2
330
1F
100
AcDbEntity
  8
0
  6
Continuous
 62
     7
370
     0
100
AcDbLine
 10
135.5521779141
 20
126.9611394805
 30
0.0
 11
132.0521779141
 21
126.9611394627
 31
0.0
  0
ARC
  5
1C3
330
1F
100
AcDbEntity
  8
0
  6
Continuous
 62
     7
370
     0
100
AcDbCircle
 10
186.0521779141
 20
107.50106346
 30
0.0
 40
1.5
100
AcDbArc
 50
270.0
 51
0.0
  0
LINE
  5
1C4
330
1F
100
AcDbEntity
  8
0
  6
Continuous
 62
     7
370
     0
100
AcDbLine
 10
172.9022614524
 20
106.00106346
 30
0.0
 11
186.0521779141
 21
106.00106346
 31
0.0
  0
LINE
  5
1C5
330
1F
100
AcDbEntity
  8
0
  6
Continuous
 62
     7
370
     0
100
AcDbLine
 10
132.0521779141
 20
106.00106346
 30
0.0
 11
145.2036559582
 21
106.00106346
 31
0.0
  0
ARC
  5
1C6
330
1F
100
AcDbEntity
  8
0
  6
Continuous
 62
     7
370
     0
100
AcDbCircle
 10
132.0521779141
 20
107.50106346
 30
0.0
 40
1.5
100
AcDbArc
 50
180.0
 51
270.0
  0
ARC
  5
1C7
330
1F
100
AcDbEntity
  8
0
  6
Continuous
 62
     7
370
     0
100
AcDbCircle
 10
187.0521779141
 20
108.8838310888
 30
0.0
 40
1.5
100
AcDbArc
 50
289.4577657013
 51
0.0
  0
LINE
  5
1C8
330
1F
100
AcDbEntity
  8
0
  6
Continuous
 62
     7
370
     0
100
AcDbLine
 10
187.0521779141
 20
126.9610993745
 30
0.0
 11
186.0521779141
 21
126.9611393551
 31
0.0
  0
ARC
  5
1C9
330
1F
100
AcDbEntity
  8
0
  6
Continuous
 62
     7
370
     0
100
AcDbCircle
 10
187.0521779141
 20
125.4610993745
 30
0.0
 40
1.5
100
AcDbArc
 50
0.0
 51
90.0
  0
LINE
  5
1CA
330
1F
100
AcDbEntity
  8
0
  6
Continuous
 62
     7
370
     0
100
AcDbLine
 10
172.90069987
 20
106.00106346
 30
0.0
 11
172.9022614524
 21
106.00106346
 31
0.0
  0
LINE
  5
1CB
330
1F
100
AcDbEntity
  8
0
  6
Continuous
 62
     7
370
     0
100
AcDbLine
 10
137.5521829141
 20
143.8611042945
 30
0.0
 11
137.5521829141
 21
149.3611044945
 31
0.0
  0
ARC
  5
1CC
330
1F
100
AcDbEntity
  8
0
  6
Continuous
 62
     7
370
     0
100
AcDbCircle
 10
140.5521827141
 20
149.3611044945
 30
0.0
 40
2.999999799999984
100
AcDbArc
 50
90.0
 51
180.0
  0
LINE
  5
1CD
330
1F
100
AcDbEntity
  8
0
  6
Continuous
 62
     7
370
     0
100
AcDbLine
 10
140.5521827141
 20
152.3611042945
 30
0.0
 11
144.8450661722
 21
152.3611042945
 31
0.0
  0
ARC
  5
1CE
330
1F
100
AcDbEntity
  8
0
  6
Continuous
 62
     7
370
     0
100
AcDbCircle
 10
144.8450661722
 20
151.8611043945
 30
0.0
 40
0.4999998999999976
100
AcDbArc
 50
44.9998510585
 51
90.0
  0
LINE
  5
1CF
330
1F
100
AcDbEntity
  8
0
  6
Continuous
 62
     7
370
     0
100
AcDbLine
 10
145.1986204112
 20
152.2146567953
 30
0.0
 11
147.6986206752
 21
149.7146435337
 31
0.0
  0
ARC
  5
1D0
330
1F
100
AcDbEntity
  8
0
  6
Continuous
 62
     7
370
     0
100
AcDbCircle
 10
148.0521749141
 20
150.0681959345
 30
0.0
 40
0.4999998999999805
100
AcDbArc
 50
224.9998510585
 51
315.0004583885
  0
LINE
  5
1D1
330
1F
100
AcDbEntity
  8
0
  6
Continuous
 62
     7
370
     0
100
AcDbLine
 10
148.4057310625
 20
149.7146454432
 30
0.0
 11
150.9057005074
 21
152.2146548898
 31
0.0
  0
ARC
  5
1D2
330
1F
100
AcDbEntity
  8
0
  6
Continuous
 62
     7
370
     0
100
AcDbCircle
 10
151.2592566462
 20
151.861104408
 30
0.0
 40
0.4999998864658153
100
AcDbArc
 50
90.0
 51
135.0004583885
  0
ARC
  5
1D3
330
1F
100
AcDbEntity
  8
0
  6
Continuous
 62
     7
370
     0
100
AcDbCircle
 10
179.0521730141
 20
150.8611043945
 30
0.0
 40
1.499999900000006
100
AcDbArc
 50
0.0
 51
90.0
  0
LINE
  5
1D4
330
1F
100
AcDbEntity
  8
0
  6
Continuous
 62
     7
370
     0
100
AcDbLine
 10
180.5521729141
 20
150.8611043945
 30
0.0
 11
180.5521729141
 21
149.6111342783
 31
0.0
  0
LINE
  5
1D5
330
1F
100
AcDbEntity
  8
0
  6
Continuous
 62
     7
370
     0
100
AcDbLine
 10
179.3272999141
 20
149.6111342783
 30
0.0
 11
179.3272999141
 21
150.3611242883
 31
0.0
  0
LINE
  5
1D6
330
1F
100
AcDbEntity
  8
0
  6
Continuous
 62
     7
370
     0
100
AcDbLine
 10
179.3272999141
 20
150.3611242883
 30
0.0
 11
178.3272779141
 21
150.3611242883
 31
0.0
  0
LINE
  5
1D7
330
1F
100
AcDbEntity
  8
0
  6
Continuous
 62
     7
370
     0
100
AcDbLine
 10
178.3272779141
 20
150.3611242883
 30
0.0
 11
176.0647376077
 21
148.0985494159
 31
0.0
  0
ARC
  5
1D8
330
1F
100
AcDbEntity
  8
0
  6
Continuous
 62
     7
370
     0
100
AcDbCircle
 10
177.3021878941
 20
146.8611180345
 30
0.0
 40
1.750005610000012
100
AcDbArc
 50
135.000437666
 51
224.999625636
  0
LINE
  5
1D9
330
1F
100
AcDbEntity
  8
0
  6
Continuous
 62
     7
370
     0
100
AcDbLine
 10
176.0647389749
 20
145.6236852859
 30
0.0
 11
177.8272969334
 21
143.8611042945
 31
0.0
  0
LINE
  5
1DA
330
1F
100
AcDbEntity
  8
0
  6
Continuous
 62
     7
370
     0
100
AcDbLine
 10
179.3272999141
 20
143.8611042945
 30
0.0
 11
179.3272999141
 21
144.1111067901
 31
0.0
  0
LINE
  5
1DB
330
1F
100
AcDbEntity
  8
0
  6
Continuous
 62
     7
370
     0
100
AcDbLine
 10
179.3272999141
 20
144.1111067901
 30
0.0
 11
180.5521729141
 21
144.1111067901
 31
0.0
  0
LINE
  5
1DC
330
1F
100
AcDbEntity
  8
0
  6
Continuous
 62
     7
370
     0
100
AcDbLine
 10
180.5521729141
 20
144.1111067901
 30
0.0
 11
180.5521729141
 21
143.8611042945
 31
0.0
  0
ARC
  5
1DD
330
1F
100
AcDbEntity
  8
0
  6
Continuous
 62
     7
370
     0
100
AcDbCircle
 10
169.0521779141
 20
139.8611042945
 30
0.0
 40
8.500000000000025
100
AcDbArc
 50
28.0724869359
 51
151.9275130641
  0
ARC
  5
1DE
330
1F
100
AcDbEntity
  8
0
  6
Continuous
 62
     7
370
     0
100
AcDbCircle
 10
143.0521829141
 20
143.3611042945
 30
0.0
 40
2.100000000000014
100
AcDbArc
 50
13.774146998
 51
166.225853002
  0
ARC
  5
1DF
330
1F
100
AcDbEntity
  8
0
  6
Continuous
 62
     7
370
     0
100
AcDbCircle
 10
157.0521829141
 20
143.3611042945
 30
0.0
 40
2.100000000000014
100
AcDbArc
 50
13.774146998
 51
166.225853002
  0
LINE
  5
1E0
330
1F
100
AcDbEntity
  8
0
  6
Continuous
 62
     7
370
     0
100
AcDbLine
 10
151.2592566462
 20
152.3611042945
 30
0.0
 11
179.0521730141
 21
152.3611042945
 31
0.0
  0
LINE
  5
1E1
330
1F
100
AcDbEntity
  8
0
  6
Continuous
 62
     7
370
     0
100
AcDbLine
 10
180.5521729141
 20
149.6111342783
 30
0.0
 11
179.3272999141
 21
149.6111342783
 31
0.0
  0
LINE
  5
1E2
330
1F
100
AcDbEntity
  8
0
  6
Continuous
 62
     7
370
     0
100
AcDbLine
 10
147.0521779141
 20
93.8611042945
 30
0.0
 11
147.0521779141
 21
105.8611042945
 31
0.0
  0
CIRCLE
  5
1E3
330
1F
100
AcDbEntity
  8
0
  6
Continuous
 62
     7
370
     0
100
AcDbCircle
 10
166.0521779141
 20
98.8611042945
 30
0.0
 40
2.099999999999994
  0
CIRCLE
  5
1E4
330
1F
100
AcDbEntity
  8
0
  6
Continuous
 62
     7
370
     0
100
AcDbCircle
 10
152.0521779141
 20
98.8611042945
 30
0.0
 40
2.099999999999994
  0
LINE
  5
1E5
330
1F
100
AcDbEntity
  8
0
  6
Continuous
 62
     7
370
     0
100
AcDbLine
 10
171.0521779141
 20
93.8611042945
 30
0.0
 11
171.0521779141
 21
105.8611042945
 31
0.0
  0
LINE
  5
1E6
330
1F
100
AcDbEntity
  8
0
  6
Continuous
 62
     7
370
     0
100
AcDbLine
 10
171.0521779141
 20
93.8611042945
 30
0.0
 11
147.0521779141
 21
93.8611042945
 31
0.0
  0
ARC
  5
1E7
330
1F
100
AcDbEntity
  8
0
  6
Continuous
 62
     7
370
     0
100
AcDbCircle
 10
168.7702231989
 20
139.7378188878
 30
0.0
 40
6.462749600000008
100
AcDbArc
 50
39.6434347256
 51
140.3565652744
  0
LINE
  5
1E8
330
1F
100
AcDbEntity
  8
0
  6
Continuous
 62
     7
370
     0
100
AcDbLine
 10
187.5521779141
 20
119.0922017684
 30
0.0
 11
187.5521779141
 21
112.936407613
 31
0.0
  0
ELLIPSE
  5
1E9
330
1F
100
AcDbEntity
  8
0
  6
Continuous
 62
     7
370
     0
100
AcDbEllipse
 10
186.0521779141
 20
112.936407613
 30
0.0
 11
1.5
 21
0.0
 31
0.0
210
0.0
220
0.0
230
1.0
 40
0.0422421648
 41
4.712388980384671
 42
6.283185307179586
  0
LINE
  5
1EA
330
1F
100
AcDbEntity
  8
0
  6
Continuous
 62
     7
370
     0
100
AcDbLine
 10
186.0521779141
 20
112.8730443658
 30
0.0
 11
186.0521779141
 21
119.7499142958
 31
0.0
  0
ELLIPSE
  5
1EB
330
1F
100
AcDbEntity
  8
0
  6
Continuous
 62
     7
370
     0
100
AcDbEllipse
 10
186.0521779141
 20
119.0922017684
 30
0.0
 11
1.5
 21
0.0
 31
0.0
210
0.0
220
0.0
230
1.0
 40
0.4384750183
 41
0.0
 42
1.570796326794916
  0
LINE
  5
1EC
330
1F
100
AcDbEntity
  8
0
  6
Continuous
 62
     7
370
     0
100
AcDbLine
 10
187.5521779141
 20
112.936407613
 30
0.0
 11
187.5521779141
 21
108.4354180015
 31
0.0
  0
ARC
  5
1ED
330
1F
100
AcDbEntity
  8
0
  6
Continuous
 62
     7
370
     0
100
AcDbCircle
 10
186.4025146994
 20
109.8014992574
 30
0.0
 40
1.785470107569978
100
AcDbArc
 50
258.6842656108
 51
310.0832098471
  0
LINE
  5
1EE
330
1F
100
AcDbEntity
  8
0
  6
Continuous
 62
     7
370
     0
100
AcDbLine
 10
186.0521779141
 20
108.0507372399
 30
0.0
 11
186.0521779141
 21
112.8730443658
 31
0.0
  0
LINE
  5
1EF
330
1F
100
AcDbEntity
  8
0
  6
Continuous
 62
     7
370
     0
100
AcDbLine
 10
132.0521779141
 20
112.8730443658
 30
0.0
 11
186.0521779141
 21
112.8730443658
 31
0.0
  0
LINE
  5
1F0
330
1F
100
AcDbEntity
  8
0
  6
Continuous
 62
     7
370
     0
100
AcDbLine
 10
132.0521779141
 20
119.7499142958
 30
0.0
 11
132.0521779141
 21
112.8730443658
 31
0.0
  0
LINE
  5
1F1
330
1F
100
AcDbEntity
  8
0
  6
Continuous
 62
     7
370
     0
100
AcDbLine
 10
132.0521779141
 20
119.7499142958
 30
0.0
 11
186.0521779141
 21
119.7499142958
 31
0.0
  0
LINE
  5
1F2
330
1F
100
AcDbEntity
  8
0
  6
Continuous
 62
     7
370
     0
100
AcDbLine
 10
132.0521779141
 20
108.0507372399
 30
0.0
 11
186.0521779141
 21
108.0507372399
 31
0.0
  0
LINE
  5
1F3
330
1F
100
AcDbEntity
  8
0
  6
Continuous
 62
     7
370
     0
100
AcDbLine
 10
132.0521779141
 20
112.8730443658
 30
0.0
 11
132.0521779141
 21
108.0507372399
 31
0.0
  0
ARC
  5
1F4
330
1F
100
AcDbEntity
  8
0
  6
Continuous
 62
     7
370
     0
100
AcDbCircle
 10
131.7018411288
 20
109.8014992574
 30
0.0
 40
1.785470107569898
100
AcDbArc
 50
229.9167901529
 51
281.3157343892
  0
LINE
  5
1F5
330
1F
100
AcDbEntity
  8
0
  6
Continuous
 62
     7
370
     0
100
AcDbLine
 10
130.5521779141
 20
108.4354180015
 30
0.0
 11
130.5521779141
 21
112.936407613
 31
0.0
  0
ELLIPSE
  5
1F6
330
1F
100
AcDbEntity
  8
0
  6
Continuous
 62
     7
370
     0
100
AcDbEllipse
 10
132.0521779141
 20
112.936407613
 30
0.0
 11
1.5
 21
0.0
 31
0.0
210
0.0
220
0.0
230
1.0
 40
0.0422421648
 41
3.14159265358957
 42
4.712388980384691
  0
LINE
  5
1F7
330
1F
100
AcDbEntity
  8
0
  6
Continuous
 62
     7
370
     0
100
AcDbLine
 10
130.5521779141
 20
112.936407613
 30
0.0
 11
130.5521779141
 21
119.0922017684
 31
0.0
  0
ELLIPSE
  5
1F8
330
1F
100
AcDbEntity
  8
0
  6
Continuous
 62
     7
370
     0
100
AcDbEllipse
 10
132.0521779141
 20
119.0922017684
 30
0.0
 11
1.5
 21
0.0
 31
0.0
210
0.0
220
0.0
230
1.0
 40
0.4384750183
 41
1.570796326794916
 42
3.141592653589772
  0
LINE
  5
1F9
330
1F
100
AcDbEntity
  8
0
  6
Continuous
 62
     7
370
     0
100
AcDbLine
 10
187.5521779141
 20
122.9463780865
 30
0.0
 11
187.5521779141
 21
119.0922017684
 31
0.0
  0
LINE
  5
1FA
330
1F
100
AcDbEntity
  8
0
  6
Continuous
 62
     7
370
     0
100
AcDbLine
 10
186.0521779141
 20
119.7499142958
 30
0.0
 11
186.0521779141
 21
126.6039263326
 31
0.0
  0
ELLIPSE
  5
1FB
330
1F
100
AcDbEntity
  8
0
  6
Continuous
 62
     7
370
     0
100
AcDbEllipse
 10
186.0521779141
 20
122.9463780865
 30
0.0
 11
0.0
 21
3.657548246106785
 31
0.0
210
0.0
220
0.0
230
1.0
 40
0.4101107898
 41
4.712388980384695
 42
6.283185307179586
  0
ELLIPSE
  5
1FC
330
1F
100
AcDbEntity
  8
0
  6
Continuous
 62
     7
370
     0
100
AcDbEllipse
 10
136.0521779141
 20
123.1427962387
 30
0.0
 11
0.0
 21
0.5958780493813976
 31
0.0
210
0.0
220
0.0
230
1.0
 40
0.8390978666
 41
1.570796326794897
 42
3.141592653589793
  0
LINE
  5
1FD
330
1F
100
AcDbEntity
  8
0
  6
Continuous
 62
     7
370
     0
100
AcDbLine
 10
136.0521779141
 20
122.5469181893
 30
0.0
 11
182.0521779141
 21
122.5469181893
 31
0.0
  0
ELLIPSE
  5
1FE
330
1F
100
AcDbEntity
  8
0
  6
Continuous
 62
     7
370
     0
100
AcDbEllipse
 10
182.0521779141
 20
123.1427962387
 30
0.0
 11
0.0
 21
0.5958780493813976
 31
0.0
210
0.0
220
0.0
230
1.0
 40
0.8390978666
 41
3.141592653589793
 42
4.712388980384701
  0
LINE
  5
1FF
330
1F
100
AcDbEntity
  8
0
  6
Continuous
 62
     7
370
     0
100
AcDbLine
 10
182.5521779141
 20
126.6039263326
 30
0.0
 11
186.0521779141
 21
126.6039263326
 31
0.0
  0
LINE
  5
200
330
1F
100
AcDbEntity
  8
0
  6
Continuous
 62
     7
370
     0
100
AcDbLine
 10
132.0521779141
 20
126.6039263326
 30
0.0
 11
132.0521779141
 21
119.7499142958
 31
0.0
  0
LINE
  5
201
330
1F
100
AcDbEntity
  8
0
  6
Continuous
 62
     7
370
     0
100
AcDbLine
 10
132.0521779141
 20
126.6039263326
 30
0.0
 11
135.5521779141
 21
126.6039263326
 31
0.0
  0
LINE
  5
202
330
1F
100
AcDbEntity
  8
0
  6
Continuous
 62
     7
370
     0
100
AcDbLine
 10
130.5521779141
 20
119.0922017684
 30
0.0
 11
130.5521779141
 21
122.9463780865
 31
0.0
  0
ELLIPSE
  5
203
330
1F
100
AcDbEntity
  8
0
  6
Continuous
 62
     7
370
     0
100
AcDbEllipse
 10
132.0521779141
 20
122.9463780865
 30
0.0
 11
0.0
 21
3.657548246106757
 31
0.0
210
0.0
220
0.0
230
1.0
 40
0.4101107898
 41
0.0
 42
1.570796326794889
  0
LINE
  5
204
330
1F
100
AcDbEntity
  8
0
  6
Continuous
 62
     7
370
     0
100
AcDbLine
 10
187.5521779141
 20
108.4354180015
 30
0.0
 11
187.5521779141
 21
108.36106346
 31
0.0
  0
LINE
  5
205
330
1F
100
AcDbEntity
  8
0
  6
Continuous
 62
     7
370
     0
100
AcDbLine
 10
130.5521779141
 20
108.36106346
 30
0.0
 11
130.5521779141
 21
108.4354180015
 31
0.0
  0
LINE
  5
206
330
1F
100
AcDbEntity
  8
0
  6
Continuous
 62
     7
370
     0
100
AcDbLine
 10
136.0521779141
 20
143.3611042945
 30
0.0
 11
136.0521779141
 21
122.5469181893
 31
0.0
  0
LINE
  5
207
330
1F
100
AcDbEntity
  8
0
  6
Continuous
 62
     7
370
     0
100
AcDbLine
 10
182.0521779141
 20
143.3611042945
 30
0.0
 11
136.0521779141
 21
143.3611042945
 31
0.0
  0
LINE
  5
208
330
1F
100
AcDbEntity
  8
0
  6
Continuous
 62
     7
370
     0
100
AcDbLine
 10
182.0521779141
 20
122.5469181893
 30
0.0
 11
182.0521779141
 21
143.3611042945
 31
0.0
  0
LINE
  5
209
330
1F
100
AcDbEntity
  8
0
  6
Continuous
 62
     7
370
     0
100
AcDbLine
 10
182.0521779141
 20
143.3611042945
 30
0.0
 11
182.0521779141
 21
143.8611042945
 31
0.0
  0
ARC
  5
20A
330
1F
100
AcDbEntity
  8
0
  6
Continuous
 62
     7
370
     0
100
AcDbCircle
 10
182.0521779141
 20
143.3611042945
 30
0.0
 40
0.5
100
AcDbArc
 50
0.0
 51
90.0
  0
LINE
  5
20B
330
1F
100
AcDbEntity
  8
0
  6
Continuous
 62
     7
370
     0
100
AcDbLine
 10
182.0521779141
 20
143.3611042945
 30
0.0
 11
182.5521779141
 21
143.3611042945
 31
0.0
  0
LINE
  5
20C
330
1F
100
AcDbEntity
  8
0
  6
Continuous
 62
     7
370
     0
100
AcDbLine
 10
136.0521779141
 20
143.3611042945
 30
0.0
 11
136.0521779141
 21
143.8611042945
 31
0.0
  0
LINE
  5
20D
330
1F
100
AcDbEntity
  8
0
  6
Continuous
 62
     7
370
     0
100
AcDbLine
 10
136.0521779141
 20
143.8611042945
 30
0.0
 11
182.0521779141
 21
143.8611042945
 31
0.0
  0
LINE
  5
20E
330
1F
100
AcDbEntity
  8
0
  6
Continuous
 62
     7
370
     0
100
AcDbLine
 10
182.5521779141
 20
143.3611042945
 30
0.0
 11
182.5521779141
 21
123.1427962387
 31
0.0
  0
ARC
  5
20F
330
1F
100
AcDbEntity
  8
0
  6
Continuous
 62
     7
370
     0
100
AcDbCircle
 10
136.0521779141
 20
143.3611042945
 30
0.0
 40
0.5
100
AcDbArc
 50
90.0
 51
180.0
  0
LINE
  5
210
330
1F
100
AcDbEntity
  8
0
  6
Continuous
 62
     7
370
     0
100
AcDbLine
 10
135.5521779141
 20
143.3611042945
 30
0.0
 11
136.0521779141
 21
143.3611042945
 31
0.0
  0
LINE
  5
211
330
1F
100
AcDbEntity
  8
0
  6
Continuous
 62
     7
370
     0
100
AcDbLine
 10
135.5521779141
 20
123.1427962387
 30
0.0
 11
135.5521779141
 21
143.3611042945
 31
0.0
  0
LINE
  5
212
330
1F
100
AcDbEntity
  8
0
  6
Continuous
 62
     7
370
     0
100
AcDbLine
 10
187.5521779141
 20
108.36106346
 30
0.0
 11
187.5521779141
 21
107.5754180015
 31
0.0
  0
LINE
  5
213
330
1F
100
AcDbEntity
  8
0
  6
Continuous
 62
     7
370
     0
100
AcDbLine
 10
130.5521779141
 20
107.5754180015
 30
0.0
 11
130.5521779141
 21
108.36106346
 31
0.0
  0
LINE
  5
214
330
1F
100
AcDbEntity
  8
0
  6
Continuous
 62
     7
370
     0
100
AcDbLine
 10
187.5521779141
 20
107.5754180015
 30
0.0
 11
187.5521779141
 21
107.50106346
 31
0.0
  0
LINE
  5
215
330
1F
100
AcDbEntity
  8
0
  6
Continuous
 62
     7
370
     0
100
AcDbLine
 10
145.2049408185
 20
106.0013454872
 30
0.0
 11
172.8994150097
 21
106.0013454872
 31
0.0
  0
LINE
  5
216
330
1F
100
AcDbEntity
  8
0
  6
Continuous
 62
     7
370
     0
100
AcDbLine
 10
130.5521779141
 20
107.50106346
 30
0.0
 11
130.5521779141
 21
107.5754180015
 31
0.0
  0
LINE
  5
217
330
1F
100
AcDbEntity
  8
0
  6
Continuous
 62
     7
370
     0
100
AcDbLine
 10
172.5521779141
 20
105.8611042945
 30
0.0
 11
145.5521779141
 21
105.8611042945
 31
0.0
  0
ARC
  5
218
330
1F
100
AcDbEntity
  8
0
  6
Continuous
 62
     7
370
     0
100
AcDbCircle
 10
145.5521779141
 20
106.3611042945
 30
0.0
 40
0.5000000000000159
100
AcDbArc
 50
226.0146681523
 51
270.0
  0
ARC
  5
219
330
1F
100
AcDbEntity
  8
0
  6
Continuous
 62
     7
370
     0
100
AcDbCircle
 10
172.5521779141
 20
106.3611042945
 30
0.0
 40
0.5
100
AcDbArc
 50
270.0
 51
313.9853318477
  0
LINE
  5
21A
330
1F
100
AcDbEntity
  8
0
  6
Continuous
 62
     7
370
     0
100
AcDbLine
 10
188.5521779141
 20
113.1219295597
 30
0.0
 11
188.5521779141
 21
108.9416622637
 31
0.0
  0
ELLIPSE
  5
21B
330
1F
100
AcDbEntity
  8
0
  6
Continuous
 62
     7
370
     0
100
AcDbEllipse
 10
187.0521779141
 20
113.1219295597
 30
0.0
 11
1.5
 21
0.0
 31
0.0
210
0.0
220
0.0
230
1.0
 40
0.1581768368
 41
5.052225889838775
 42
6.283185307179586
  0
LINE
  5
21C
330
1F
100
AcDbEntity
  8
0
  6
Continuous
 62
     7
370
     0
100
AcDbLine
 10
188.5521779141
 20
116.0233455987
 30
0.0
 11
188.5521779141
 21
113.1219295597
 31
0.0
  0
ELLIPSE
  5
21D
330
1F
100
AcDbEntity
  8
0
  6
Continuous
 62
     7
370
     0
100
AcDbEllipse
 10
187.0521779141
 20
116.0233455987
 30
0.0
 11
1.5
 21
-1.421085471520200E-14
 31
0.0
210
0.0
220
0.0
230
1.0
 40
0.2636591305
 41
0.0
 42
1.230959417340805
  0
LINE
  5
21E
330
1F
100
AcDbEntity
  8
0
  6
Continuous
 62
     7
370
     0
100
AcDbLine
 10
188.5521779141
 20
125.399892614
 30
0.0
 11
188.5521779141
 21
116.0233455987
 31
0.0
  0
LINE
  5
21F
330
1F
100
AcDbEntity
  8
0
  6
Continuous
 62
     7
370
     0
100
AcDbLine
 10
188.5521779141
 20
108.9416622637
 30
0.0
 11
188.5521779141
 21
108.8838310888
 31
0.0
  0
LINE
  5
220
330
1F
100
AcDbEntity
  8
0
  6
Continuous
 62
     7
370
     0
100
AcDbLine
 10
188.5521779141
 20
125.4610993745
 30
0.0
 11
188.5521779141
 21
125.399892614
 31
0.0
  0
LINE
  5
221
330
1F
100
AcDbEntity
  8
0
  6
Continuous
 62
     7
370
     0
100
AcDbLine
 10
186.0521779141
 20
106.86106346
 30
0.0
 11
186.0521779141
 21
108.0507372399
 31
0.0
  0
LINE
  5
222
330
1F
100
AcDbEntity
  8
0
  6
Continuous
 62
     7
370
     0
100
AcDbLine
 10
132.0521779141
 20
108.0507372399
 30
0.0
 11
132.0521779141
 21
106.86106346
 31
0.0
  0
LWPOLYLINE
  5
223
330
1F
100
AcDbEntity
  8
0
  6
Continuous
 62
     7
370
     0
100
AcDbPolyline
 90
        5
 70
   128
 43
0.0
 10
187.5521779141
 20
107.5754180015
 10
187.5233558347
 20
107.5003705078
 10
187.4379972129
 20
107.4282070473
 10
187.2993823326
 20
107.3617008211
 10
187.1168633056
 20
107.3044438419
  0
LWPOLYLINE
  5
224
330
1F
100
AcDbEntity
  8
0
  6
Continuous
 62
     7
370
     0
100
AcDbPolyline
 90
        5
 70
   128
 43
0.0
 10
130.5521779141
 20
107.5754180015
 10
130.5809999935
 20
107.5003705078
 10
130.6663586153
 20
107.4282070473
 10
130.8049734957
 20
107.3617008211
 10
130.9874925227
 20
107.3044438419
  0
LINE
  5
225
330
1F
100
AcDbEntity
  8
0
  6
Continuous
 62
     7
370
     0
100
AcDbLine
 10
186.0521779141
 20
126.6039263326
 30
0.0
 11
186.0521779141
 21
126.9611393551
 31
0.0
  0
LINE
  5
226
330
1F
100
AcDbEntity
  8
0
  6
Continuous
 62
     7
370
     0
100
AcDbLine
 10
132.0521779141
 20
126.9611394627
 30
0.0
 11
132.0521779141
 21
126.6039263326
 31
0.0
  0
LINE
  5
227
330
1F
100
AcDbEntity
  8
0
  6
Continuous
 62
     7
370
     0
100
AcDbLine
 10
186.0521779141
 20
106.00106346
 30
0.0
 11
186.0521779141
 21
106.86106346
 31
0.0
  0
LINE
  5
228
330
1F
100
AcDbEntity
  8
0
  6
Continuous
 62
     7
370
     0
100
AcDbLine
 10
132.0521779141
 20
106.86106346
 30
0.0
 11
132.0521779141
 21
106.00106346
 31
0.0
  0
LWPOLYLINE
  5
229
330
1F
100
AcDbEntity
  8
0
  6
Continuous
 62
     7
370
     0
100
AcDbPolyline
 90
        8
 70
   128
 43
0.0
 10
188.5521779141
 20
108.9416622637
 10
188.5233558347
 20
108.8182614785
 10
188.4379972129
 20
108.6996029162
 10
188.2993823326
 20
108.5902465589
 10
188.1128380859
 20
108.4943949101
 10
187.8855332636
 20
108.4157314948
 10
187.6262030627
 20
108.357279304
 10
187.5521779141
 20
108.3453057922
  0
LWPOLYLINE
  5
22A
330
1F
100
AcDbEntity
  8
0
  6
Continuous
 62
     7
370
     0
100
AcDbPolyline
 90
        9
 70
   128
 43
0.0
 10
187.2207525496
 20
125.9781039396
 10
187.3448133971
 20
125.9706092874
 10
187.6262030627
 20
125.9374959651
 10
187.8855332636
 20
125.8837228475
 10
188.1128380859
 20
125.8113564053
 10
188.2993823326
 20
125.7231776404
 10
188.4379972129
 20
125.6225752132
 10
188.5233558347
 20
125.5134152186
 10
188.5521779141
 20
125.399892614
  0
LINE
  5
22B
330
1F
100
AcDbEntity
  8
0
  6
Continuous
 62
     7
370
     0
100
AcDbLine
 10
187.0521779141
 20
126.3528088625
 30
0.0
 11
187.0521779141
 21
126.9610993745
 31
0.0
  0
ARC
  5
22C
330
1F
100
AcDbEntity
  8
0
  6
HIDDEN
 62
     7
370
     0
100
AcDbCircle
 10
143.0521829141
 20
143.3611042945
 30
0.0
 40
2.100000000000023
100
AcDbArc
 50
0.0
 51
13.774146998
  0
ARC
  5
22D
330
1F
100
AcDbEntity
  8
0
  6
HIDDEN
 62
     7
370
     0
100
AcDbCircle
 10
143.0521829141
 20
143.3611042945
 30
0.0
 40
2.100000000000023
100
AcDbArc
 50
166.225853002
 51
0.0
  0
ARC
  5
22E
330
1F
100
AcDbEntity
  8
0
  6
HIDDEN
 62
     7
370
     0
100
AcDbCircle
 10
157.0521829141
 20
143.3611042945
 30
0.0
 40
2.100000000000014
100
AcDbArc
 50
0.0
 51
13.774146998
  0
ARC
  5
22F
330
1F
100
AcDbEntity
  8
0
  6
HIDDEN
 62
     7
370
     0
100
AcDbCircle
 10
157.0521829141
 20
143.3611042945
 30
0.0
 40
2.099999999999994
100
AcDbArc
 50
166.225853002
 51
0.0
  0
CIRCLE
  5
230
330
1F
100
AcDbEntity
  8
0
  6
HIDDEN
 62
     7
370
     0
100
AcDbCircle
 10
157.0521829141
 20
143.3611042945
 30
0.0
 40
2.099999999999994
  0
CIRCLE
  5
231
330
1F
100
AcDbEntity
  8
0
  6
HIDDEN
 62
     7
370
     0
100
AcDbCircle
 10
143.0521829141
 20
143.3611042945
 30
0.0
 40
2.099999999999994
  0
DIMENSION
  5
232
330
1F
100
AcDbEntity
  8
0
  6
Continuous
 62
     7
370
     0
100
AcDbDimension
  2
*D7
 10
125.9494987825
 20
152.3611042945
 30
0.0
 11
125.9494987825
 21
147.8611042945
 31
0.0
 70
   160
 71
     1
 42
9.0
  3
SLDDIMSTYLE0
100
AcDbAlignedDimension
 13
143.0521829141
 23
143.3611042945
 33
0.0
 14
140.5521827141
 24
152.3611042945
 34
0.0
 50
90.0
100
AcDbRotatedDimension
1001
ACAD
1000
DSTYLE
1002
{
1070
    77
1070
     3
1070
   143
1040
0.0393700787
1070
    41
1040
3.0
1070
    44
1040
1.0
1070
    42
1040
1.0
1070
   147
1040
1.524
1070
    73
1070
     0
1070
    74
1070
     0
1070
   140
1040
3.5
1070
   284
1070
    12
1070
    78
1070
    12
1002
}
  0
DIMENSION
  5
249
330
1F
100
AcDbEntity
  8
0
  6
Continuous
 62
     7
370
     0
100
AcDbDimension
  2
*D8
 10
143.0521829141
 20
159.5173044433
 30
0.0
 11
140.3021829141
 21
159.5173044433
 31
0.0
 70
   160
 71
     1
 42
5.5
  3
SLDDIMSTYLE0
100
AcDbAlignedDimension
 13
137.5521829141
 23
149.3611044945
 33
0.0
 14
143.0521829141
 24
143.3611042945
 34
0.0
100
AcDbRotatedDimension
1001
ACAD
1000
DSTYLE
1002
{
1070
    77
1070
     3
1070
   143
1040
0.0393700787
1070
    41
1040
3.0
1070
    44
1040
1.0
1070
    42
1040
1.0
1070
   147
1040
1.524
1070
    73
1070
     0
1070
    74
1070
     0
1070
   140
1040
3.5
1070
   284
1070
    12
1070
    78
1070
    12
1002
}
  0
DIMENSION
  5
260
330
1F
100
AcDbEntity
  8
0
  6
Continuous
 62
     7
370
     0
100
AcDbDimension
  2
*D9
 10
157.0521829141
 20
159.5173044433
 30
0.0
 11
150.0521829141
 21
159.5173044433
 31
0.0
 70
   160
 71
     1
 42
14.0
  3
SLDDIMSTYLE0
100
AcDbAlignedDimension
 13
143.0521829141
 23
143.3611042945
 33
0.0
 14
157.0521829141
 24
143.3611042945
 34
0.0
100
AcDbRotatedDimension
1001
ACAD
1000
DSTYLE
1002
{
1070
    77
1070
     3
1070
   143
1040
0.0393700787
1070
    41
1040
3.0
1070
    44
1040
1.0
1070
    42
1040
1.0
1070
   147
1040
1.524
1070
    73
1070
     0
1070
    74
1070
     0
1070
   140
1040
3.5
1070
   284
1070
    12
1070
    78
1070
    12
1002
}
  0
DIMENSION
  5
275
330
1F
100
AcDbEntity
  8
0
  6
Continuous
 62
     7
370
     0
100
AcDbDimension
  2
*D10
 10
147.0521779141
 20
70.7344191564
 30
0.0
 11
159.0521779141
 21
70.7344191564
 31
0.0
 70
   160
 71
     1
 42
24.0
  3
SLDDIMSTYLE0
100
AcDbAlignedDimension
 13
171.0521779141
 23
93.8611042945
 33
0.0
 14
147.0521779141
 24
93.8611042945
 34
0.0
100
AcDbRotatedDimension
1001
ACAD
1000
DSTYLE
1002
{
1070
    77
1070
     3
1070
   143
1040
0.0393700787
1070
    41
1040
3.0
1070
    44
1040
1.0
1070
    42
1040
1.0
1070
   147
1040
1.524
1070
    73
1070
     0
1070
    74
1070
     0
1070
   140
1040
3.5
1070
   284
1070
    12
1070
    78
1070
    12
1002
}
  0
DIMENSION
  5
288
330
1F
100
AcDbEntity
  8
0
  6
Continuous
 62
     7
370
     0
100
AcDbDimension
  2
*D11
 10
166.0521779141
 20
81.1798102123
 30
0.0
 11
159.0521779141
 21
81.1798102123
 31
0.0
 70
   160
 71
     1
 42
14.0
  3
SLDDIMSTYLE0
100
AcDbAlignedDimension
 13
152.0521779141
 23
98.8611042945
 33
0.0
 14
166.0521779141
 24
98.8611042945
 34
0.0
100
AcDbRotatedDimension
1001
ACAD
1000
DSTYLE
1002
{
1070
    77
1070
     3
1070
   143
1040
0.0393700787
1070
    41
1040
3.0
1070
    44
1040
1.0
1070
    42
1040
1.0
1070
   147
1040
1.524
1070
    73
1070
     0
1070
    74
1070
     0
1070
   140
1040
3.5
1070
   284
1070
    12
1070
    78
1070
    12
1002
}
  0
DIMENSION
  5
29D
330
1F
100
AcDbEntity
  8
0
  6
Continuous
 62
     7
370
     0
100
AcDbDimension
  2
*D12
 10
204.9199531904
 20
93.8611042945
 30
0.0
 11
204.9199531904
 21
123.1111042945
 31
0.0
 70
   160
 71
     1
 42
58.5
  3
SLDDIMSTYLE0
100
AcDbAlignedDimension
 13
179.0521730141
 23
152.3611042945
 33
0.0
 14
171.0521779141
 24
93.8611042945
 34
0.0
 50
90.0
100
AcDbRotatedDimension
1001
ACAD
1000
DSTYLE
1002
{
1070
    77
1070
     3
1070
   143
1040
0.0393700787
1070
    41
1040
3.0
1070
    44
1040
1.0
1070
    42
1040
1.0
1070
   147
1040
1.524
1070
    73
1070
     0
1070
    74
1070
     0
1070
   140
1040
3.5
1070
   284
1070
    12
1070
    78
1070
    12
1002
}
  0
MTEXT
  5
2B1
330
1F
100
AcDbEntity
  8
0
  6
Continuous
 62
     7
370
     0
100
AcDbMText
 10
117.0362034877
 20
75.7743528179
 30
0.0
 40
3.5
 41
0.0
 71
     1
 72
     1
  1
2*2-M5*0.8
  7
SLDTEXTSTYLE0
 73
     1
 44
1.0
  0
LEADER
  5
2B3
330
1F
100
AcDbEntity
  8
0
  6
Continuous
 62
     7
370
     0
100
AcDbLeader
  3
SLDDIMSTYLE1
 76
     3
 10
150.395901416
 20
97.5700782832
 30
0.0
 10
137.9025228083
 20
71.7011288427
 30
0.0
 10
117.0350393654
 20
71.7011288427
 30
0.0
  0
LWPOLYLINE
  5
2B4
330
1F
100
AcDbEntity
  8
0
  6
Continuous
 62
     7
370
     0
100
AcDbPolyline
 90
       11
 70
   128
 43
0.0
 10
103.930051531
 20
244.5265030824
 10
103.4181668416
 20
244.5100112222
 10
102.7727751986
 20
244.4372153245
 10
102.3330344812
 20
244.3430381231
 10
102.0071237341
 20
244.2363830619
 10
101.7394169227
 20
244.1098219119
 10
101.4993517653
 20
243.9447468482
 10
101.2888430611
 20
243.7236583196
 10
101.1348768131
 20
243.4501586817
 10
101.0586946265
 20
243.1392645799
 10
101.0530694381
 20
243.0265037678
  0
LINE
  5
2B5
330
1F
100
AcDbEntity
  8
0
  6
Continuous
 62
     7
370
     0
100
AcDbLine
 10
101.0530718195
 20
243.0265030675
 30
0.0
 11
101.0530694381
 21
239.5265022628
 31
0.0
  0
LINE
  5
2B6
330
1F
100
AcDbEntity
  8
0
  6
Continuous
 62
     7
370
     0
100
AcDbLine
 10
37.3936138109
 20
239.5265022628
 30
0.0
 11
37.3936153683
 21
243.0265030675
 31
0.0
  0
LWPOLYLINE
  5
2B7
330
1F
100
AcDbEntity
  8
0
  6
Continuous
 62
     7
370
     0
100
AcDbPolyline
 90
       11
 70
   128
 43
0.0
 10
37.3936138109
 20
243.0265037678
 10
37.3702227131
 20
243.2556910776
 10
37.2658363537
 20
243.55112895
 10
37.1060400263
 20
243.7882902436
 10
36.9077949778
 20
243.9766949378
 10
36.6813196794
 20
244.1242313348
 10
36.4259771065
 20
244.2417009138
 10
36.1167519347
 20
244.3421999328
 10
35.708255227
 20
244.4313964211
 10
35.1469024078
 20
244.5013294332
 10
34.5166391686
 20
244.5265030824
  0
LINE
  5
2B8
330
1F
100
AcDbEntity
  8
0
  6
Continuous
 62
     7
370
     0
100
AcDbLine
 10
37.3936153683
 20
189.0265030675
 30
0.0
 11
37.3936138109
 21
192.5265038721
 31
0.0
  0
LINE
  5
2B9
330
1F
100
AcDbEntity
  8
0
  6
Continuous
 62
     7
370
     0
100
AcDbLine
 10
101.0530694381
 20
192.5265038721
 30
0.0
 11
101.0530717483
 21
189.0265030675
 31
0.0
  0
LWPOLYLINE
  5
2BA
330
1F
100
AcDbEntity
  8
0
  6
Continuous
 62
     7
370
     0
100
AcDbPolyline
 90
       11
 70
   128
 43
0.0
 10
34.5166391686
 20
187.5265030526
 10
35.0285201327
 20
187.5429949127
 10
35.6739117757
 20
187.6157908105
 10
36.1136524931
 20
187.7099680118
 10
36.4395669655
 20
187.8166230731
 10
36.7072737769
 20
187.943184223
 10
36.9473314837
 20
188.1082592868
 10
37.1578401879
 20
188.3293478154
 10
37.3118101612
 20
188.6028474532
 10
37.3879923478
 20
188.9137415551
 10
37.3936138109
 20
189.0265023671
  0
LWPOLYLINE
  5
2BB
330
1F
100
AcDbEntity
  8
0
  6
Continuous
 62
     7
370
     0
100
AcDbPolyline
 90
       11
 70
   128
 43
0.0
 10
101.0530694381
 20
189.0265023671
 10
101.0764642612
 20
188.7973150574
 10
101.1808543459
 20
188.501877185
 10
101.340646948
 20
188.2647158914
 10
101.5388919965
 20
188.0763111972
 10
101.7653672949
 20
187.9287748002
 10
102.0207061426
 20
187.8113052212
 10
102.3299350396
 20
187.7108062022
 10
102.7384354726
 20
187.6216097139
 10
103.2997845665
 20
187.5516767018
 10
103.930051531
 20
187.5265030526
  0
ARC
  5
2BC
330
1F
100
AcDbEntity
  8
0
  6
Continuous
 62
     7
370
     0
100
AcDbCircle
 10
89.8828056583
 20
241.6265030675
 30
0.0
 40
1.400000000000006
100
AcDbArc
 50
90.0
 51
180.0
  0
ARC
  5
2BD
330
1F
100
AcDbEntity
  8
0
  6
Continuous
 62
     7
370
     0
100
AcDbCircle
 10
48.5638814583
 20
241.6265030675
 30
0.0
 40
1.399999999999999
100
AcDbArc
 50
0.0
 51
90.0
  0
LINE
  5
2BE
330
1F
100
AcDbEntity
  8
0
  6
Continuous
 62
     7
370
     0
100
AcDbLine
 10
49.9638794915
 20
239.5265022628
 30
0.0
 11
49.9638814583
 21
241.6265030675
 31
0.0
  0
LINE
  5
2BF
330
1F
100
AcDbEntity
  8
0
  6
Continuous
 62
     7
370
     0
100
AcDbLine
 10
88.4828056583
 20
241.6265030675
 30
0.0
 11
88.4828074828
 21
239.5265022628
 31
0.0
  0
LINE
  5
2C0
330
1F
100
AcDbEntity
  8
0
  6
Continuous
 62
     7
370
     0
100
AcDbLine
 10
88.4828074828
 20
192.5265038721
 30
0.0
 11
88.4828056583
 21
190.4265030675
 31
0.0
  0
LINE
  5
2C1
330
1F
100
AcDbEntity
  8
0
  6
Continuous
 62
     7
370
     0
100
AcDbLine
 10
49.9638814583
 20
190.4265030675
 30
0.0
 11
49.9638794915
 21
192.5265038721
 31
0.0
  0
ARC
  5
2C2
330
1F
100
AcDbEntity
  8
0
  6
Continuous
 62
     7
370
     0
100
AcDbCircle
 10
48.5638814583
 20
190.4265030675
 30
0.0
 40
1.399999999999999
100
AcDbArc
 50
270.0
 51
0.0
  0
ARC
  5
2C3
330
1F
100
AcDbEntity
  8
0
  6
Continuous
 62
     7
370
     0
100
AcDbCircle
 10
89.8828056583
 20
190.4265030675
 30
0.0
 40
1.400000000000006
100
AcDbArc
 50
180.0
 51
270.0
  0
LINE
  5
2C4
330
1F
100
AcDbEntity
  8
0
  6
Continuous
 62
     7
370
     0
100
AcDbLine
 10
95.2730717483
 20
243.0265030675
 30
0.0
 11
95.2730729238
 21
239.5265022628
 31
0.0
  0
LWPOLYLINE
  5
2C5
330
1F
100
AcDbEntity
  8
0
  6
Continuous
 62
     7
370
     0
100
AcDbPolyline
 90
       11
 70
   128
 43
0.0
 10
98.1500475661
 20
244.5265030824
 10
97.6381703273
 20
244.5100112222
 10
96.9927786843
 20
244.4372153245
 10
96.5530379669
 20
244.3430381231
 10
96.2271197692
 20
244.2363830619
 10
95.9594129578
 20
244.1098219119
 10
95.719355251
 20
243.9447468482
 10
95.5088465468
 20
243.7236583196
 10
95.3548728482
 20
243.4501586817
 10
95.2786981121
 20
243.1392645799
 10
95.2730729238
 20
243.0265037678
  0
LWPOLYLINE
  5
2C6
330
1F
100
AcDbEntity
  8
0
  6
Continuous
 62
     7
370
     0
100
AcDbPolyline
 90
       11
 70
   128
 43
0.0
 10
43.1736140505
 20
243.0265037678
 10
43.1502229527
 20
243.2556910776
 10
43.0458365933
 20
243.55112895
 10
42.8860402659
 20
243.7882902436
 10
42.6877952174
 20
243.9766949378
 10
42.461319919
 20
244.1242313348
 10
42.2059773461
 20
244.2417009138
 10
41.8967521743
 20
244.3421999328
 10
41.4882554666
 20
244.4313964211
 10
40.9269026474
 20
244.5013294332
 10
40.2966394082
 20
244.5265030824
  0
LINE
  5
2C7
330
1F
100
AcDbEntity
  8
0
  6
Continuous
 62
     7
370
     0
100
AcDbLine
 10
43.1736140505
 20
239.5265022628
 30
0.0
 11
43.1736153523
 21
243.0265030675
 31
0.0
  0
LINE
  5
2C8
330
1F
100
AcDbEntity
  8
0
  6
Continuous
 62
     7
370
     0
100
AcDbLine
 10
43.1736153683
 20
189.0265030675
 30
0.0
 11
43.1736140505
 21
192.5265038721
 31
0.0
  0
LINE
  5
2C9
330
1F
100
AcDbEntity
  8
0
  6
Continuous
 62
     7
370
     0
100
AcDbLine
 10
95.2730729238
 20
192.5265038721
 30
0.0
 11
95.2730717483
 21
189.0265030675
 31
0.0
  0
LWPOLYLINE
  5
2CA
330
1F
100
AcDbEntity
  8
0
  6
Continuous
 62
     7
370
     0
100
AcDbPolyline
 90
       11
 70
   128
 43
0.0
 10
40.2966394082
 20
187.5265030526
 10
40.808516647
 20
187.5429949127
 10
41.4539120153
 20
187.6157908105
 10
41.8936527327
 20
187.7099680118
 10
42.2195672051
 20
187.8166230731
 10
42.4872740165
 20
187.943184223
 10
42.7273317233
 20
188.1082592868
 10
42.9378404275
 20
188.3293478154
 10
43.0918104009
 20
188.6028474532
 10
43.1679925875
 20
188.9137415551
 10
43.1736140505
 20
189.0265023671
  0
LWPOLYLINE
  5
2CB
330
1F
100
AcDbEntity
  8
0
  6
Continuous
 62
     7
370
     0
100
AcDbPolyline
 90
       11
 70
   128
 43
0.0
 10
95.2730729238
 20
189.0265023671
 10
95.2964602963
 20
188.7973150574
 10
95.400850381
 20
188.501877185
 10
95.5606504337
 20
188.2647158914
 10
95.7588954822
 20
188.0763111972
 10
95.98536333
 20
187.9287748002
 10
96.2407096282
 20
187.8113052212
 10
96.5499310747
 20
187.7108062022
 10
96.9584315077
 20
187.6216097139
 10
97.5197880522
 20
187.5516767018
 10
98.1500475661
 20
187.5265030526
  0
LINE
  5
2CC
330
1F
100
AcDbEntity
  8
0
  6
Continuous
 62
     7
370
     0
100
AcDbLine
 10
34.2233435583
 20
236.0264981675
 30
0.0
 11
104.2233435583
 21
236.0264981675
 31
0.0
  0
LINE
  5
2CD
330
1F
100
AcDbEntity
  8
0
  6
Continuous
 62
     7
370
     0
100
AcDbLine
 10
34.2233435583
 20
237.5264980675
 30
0.0
 11
104.2233435583
 21
237.5264980675
 31
0.0
  0
LINE
  5
2CE
330
1F
100
AcDbEntity
  8
0
  6
Continuous
 62
     7
370
     0
100
AcDbLine
 10
104.2233435583
 20
236.0264981675
 30
0.0
 11
104.2233435583
 21
237.5264980675
 31
0.0
  0
LINE
  5
2CF
330
1F
100
AcDbEntity
  8
0
  6
Continuous
 62
     7
370
     0
100
AcDbLine
 10
34.2233435583
 20
236.0264981675
 30
0.0
 11
34.2233435583
 21
237.5264980675
 31
0.0
  0
LINE
  5
2D0
330
1F
100
AcDbEntity
  8
0
  6
Continuous
 62
     7
370
     0
100
AcDbLine
 10
34.2233435583
 20
208.2335817996
 30
0.0
 11
104.2233435583
 21
208.2335817996
 31
0.0
  0
CIRCLE
  5
2D1
330
1F
100
AcDbEntity
  8
0
  6
Continuous
 62
     7
370
     0
100
AcDbCircle
 10
49.2233435583
 20
216.0264980675
 30
0.0
 40
2.099999999999966
  0
CIRCLE
  5
2D2
330
1F
100
AcDbEntity
  8
0
  6
Continuous
 62
     7
370
     0
100
AcDbCircle
 10
89.2233435583
 20
216.0264980675
 30
0.0
 40
2.099999999999966
  0
CIRCLE
  5
2D3
330
1F
100
AcDbEntity
  8
0
  6
Continuous
 62
     7
370
     0
100
AcDbCircle
 10
69.2233435583
 20
216.0264980675
 30
0.0
 40
1.999999999999972
  0
LINE
  5
2D4
330
1F
100
AcDbEntity
  8
0
  6
Continuous
 62
     7
370
     0
100
AcDbLine
 10
104.2233435583
 20
208.2335817996
 30
0.0
 11
104.2233435583
 21
236.0264981675
 31
0.0
  0
LINE
  5
2D5
330
1F
100
AcDbEntity
  8
0
  6
Continuous
 62
     7
370
     0
100
AcDbLine
 10
34.2233435583
 20
208.2335817996
 30
0.0
 11
34.2233435583
 21
236.0264981675
 31
0.0
  0
LINE
  5
2D6
330
1F
100
AcDbEntity
  8
0
  6
Continuous
 62
     7
370
     0
100
AcDbLine
 10
34.2233435583
 20
207.8800256607
 30
0.0
 11
104.2233435583
 21
207.8800256607
 31
0.0
  0
LINE
  5
2D7
330
1F
100
AcDbEntity
  8
0
  6
Continuous
 62
     7
370
     0
100
AcDbLine
 10
104.2233435583
 20
207.8800256607
 30
0.0
 11
104.2233435583
 21
208.2335817996
 31
0.0
  0
LINE
  5
2D8
330
1F
100
AcDbEntity
  8
0
  6
Continuous
 62
     7
370
     0
100
AcDbLine
 10
34.2233435583
 20
207.8800256607
 30
0.0
 11
34.2233435583
 21
208.2335817996
 31
0.0
  0
LINE
  5
2D9
330
1F
100
AcDbEntity
  8
0
  6
Continuous
 62
     7
370
     0
100
AcDbLine
 10
34.2233435583
 20
201.8193913256
 30
0.0
 11
104.2233435583
 21
201.8193913256
 31
0.0
  0
LINE
  5
2DA
330
1F
100
AcDbEntity
  8
0
  6
Continuous
 62
     7
370
     0
100
AcDbLine
 10
34.2233435583
 20
202.1729455645
 30
0.0
 11
104.2233435583
 21
202.1729455645
 31
0.0
  0
LINE
  5
2DB
330
1F
100
AcDbEntity
  8
0
  6
Continuous
 62
     7
370
     0
100
AcDbLine
 10
104.2233435583
 20
201.8193913256
 30
0.0
 11
104.2233435583
 21
202.1729455645
 31
0.0
  0
LINE
  5
2DC
330
1F
100
AcDbEntity
  8
0
  6
Continuous
 62
     7
370
     0
100
AcDbLine
 10
34.2233435583
 20
201.8193913256
 30
0.0
 11
34.2233435583
 21
202.1729455645
 31
0.0
  0
LINE
  5
2DD
330
1F
100
AcDbEntity
  8
0
  6
Continuous
 62
     7
370
     0
100
AcDbLine
 10
34.2233435583
 20
197.5265078675
 30
0.0
 11
104.2233435583
 21
197.5265078675
 31
0.0
  0
LINE
  5
2DE
330
1F
100
AcDbEntity
  8
0
  6
Continuous
 62
     7
370
     0
100
AcDbLine
 10
104.2233435583
 20
197.5265078675
 30
0.0
 11
104.2233435583
 21
201.8193913256
 31
0.0
  0
LINE
  5
2DF
330
1F
100
AcDbEntity
  8
0
  6
Continuous
 62
     7
370
     0
100
AcDbLine
 10
34.2233435583
 20
197.5265078675
 30
0.0
 11
34.2233435583
 21
201.8193913256
 31
0.0
  0
LINE
  5
2E0
330
1F
100
AcDbEntity
  8
0
  6
Continuous
 62
     7
370
     0
100
AcDbLine
 10
34.2233435583
 20
194.5265080675
 30
0.0
 11
104.2233435583
 21
194.5265080675
 31
0.0
  0
LINE
  5
2E1
330
1F
100
AcDbEntity
  8
0
  6
Continuous
 62
     7
370
     0
100
AcDbLine
 10
104.2233435583
 20
194.5265080675
 30
0.0
 11
104.2233435583
 21
197.5265078675
 31
0.0
  0
LINE
  5
2E2
330
1F
100
AcDbEntity
  8
0
  6
Continuous
 62
     7
370
     0
100
AcDbLine
 10
34.2233435583
 20
194.5265080675
 30
0.0
 11
34.2233435583
 21
197.5265078675
 31
0.0
  0
LINE
  5
2E3
330
1F
100
AcDbEntity
  8
0
  6
Continuous
 62
     7
370
     0
100
AcDbLine
 10
34.2233435583
 20
204.6729458285
 30
0.0
 11
104.2233435583
 21
204.6729458285
 31
0.0
  0
LINE
  5
2E4
330
1F
100
AcDbEntity
  8
0
  6
Continuous
 62
     7
370
     0
100
AcDbLine
 10
104.2233435583
 20
202.1729455645
 30
0.0
 11
104.2233435583
 21
204.6729458285
 31
0.0
  0
LINE
  5
2E5
330
1F
100
AcDbEntity
  8
0
  6
Continuous
 62
     7
370
     0
100
AcDbLine
 10
34.2233435583
 20
202.1729455645
 30
0.0
 11
34.2233435583
 21
204.6729458285
 31
0.0
  0
LINE
  5
2E6
330
1F
100
AcDbEntity
  8
0
  6
Continuous
 62
     7
370
     0
100
AcDbLine
 10
34.2233435583
 20
205.3800562159
 30
0.0
 11
104.2233435583
 21
205.3800562159
 31
0.0
  0
LINE
  5
2E7
330
1F
100
AcDbEntity
  8
0
  6
Continuous
 62
     7
370
     0
100
AcDbLine
 10
104.2233435583
 20
205.3800562159
 30
0.0
 11
104.2233435583
 21
207.8800256607
 31
0.0
  0
LINE
  5
2E8
330
1F
100
AcDbEntity
  8
0
  6
Continuous
 62
     7
370
     0
100
AcDbLine
 10
34.2233435583
 20
205.3800562159
 30
0.0
 11
34.2233435583
 21
207.8800256607
 31
0.0
  0
LINE
  5
2E9
330
1F
100
AcDbEntity
  8
0
  6
Continuous
 62
     7
370
     0
100
AcDbLine
 10
104.2233435583
 20
204.6729458285
 30
0.0
 11
104.2233435583
 21
205.3800562159
 31
0.0
  0
LINE
  5
2EA
330
1F
100
AcDbEntity
  8
0
  6
Continuous
 62
     7
370
     0
100
AcDbLine
 10
34.2233435583
 20
204.6729458285
 30
0.0
 11
34.2233435583
 21
205.3800562159
 31
0.0
  0
LINE
  5
2EB
330
1F
100
AcDbEntity
  8
0
  6
Continuous
 62
     7
370
     0
100
AcDbLine
 10
106.2233435583
 20
239.0265030675
 30
0.0
 11
105.7233435583
 21
239.0265030675
 31
0.0
  0
LINE
  5
2EC
330
1F
100
AcDbEntity
  8
0
  6
Continuous
 62
     7
370
     0
100
AcDbLine
 10
105.7233435583
 20
239.5265030675
 30
0.0
 11
105.7233435583
 21
239.0265030675
 31
0.0
  0
ARC
  5
2ED
330
1F
100
AcDbEntity
  8
0
  6
Continuous
 62
     7
370
     0
100
AcDbCircle
 10
105.7233435583
 20
239.0265030675
 30
0.0
 40
0.5
100
AcDbArc
 50
0.0
 51
90.0
  0
LINE
  5
2EE
330
1F
100
AcDbEntity
  8
0
  6
Continuous
 62
     7
370
     0
100
AcDbLine
 10
105.7233435583
 20
239.0265030675
 30
0.0
 11
32.7233435583
 21
239.0265030675
 31
0.0
  0
LINE
  5
2EF
330
1F
100
AcDbEntity
  8
0
  6
Continuous
 62
     7
370
     0
100
AcDbLine
 10
32.7233435583
 20
239.0265030675
 30
0.0
 11
32.7233435583
 21
239.5265030675
 31
0.0
  0
LINE
  5
2F0
330
1F
100
AcDbEntity
  8
0
  6
Continuous
 62
     7
370
     0
100
AcDbLine
 10
32.7233435583
 20
239.5265030675
 30
0.0
 11
105.7233435583
 21
239.5265030675
 31
0.0
  0
LINE
  5
2F1
330
1F
100
AcDbEntity
  8
0
  6
Continuous
 62
     7
370
     0
100
AcDbLine
 10
104.7233446494
 20
238.0265029483
 30
0.0
 11
104.7233446494
 21
194.0265031867
 31
0.0
  0
LINE
  5
2F2
330
1F
100
AcDbEntity
  8
0
  6
Continuous
 62
     7
370
     0
100
AcDbLine
 10
33.7233423249
 20
238.0265029483
 30
0.0
 11
104.7233446494
 21
238.0265029483
 31
0.0
  0
LINE
  5
2F3
330
1F
100
AcDbEntity
  8
0
  6
Continuous
 62
     7
370
     0
100
AcDbLine
 10
33.7233423249
 20
194.0265031867
 30
0.0
 11
33.7233423249
 21
238.0265029483
 31
0.0
  0
LINE
  5
2F4
330
1F
100
AcDbEntity
  8
0
  6
Continuous
 62
     7
370
     0
100
AcDbLine
 10
104.7233446494
 20
194.0265031867
 30
0.0
 11
33.7233423249
 21
194.0265031867
 31
0.0
  0
LINE
  5
2F5
330
1F
100
AcDbEntity
  8
0
  6
Continuous
 62
     7
370
     0
100
AcDbLine
 10
105.7233435583
 20
193.0265030675
 30
0.0
 11
105.7233435583
 21
239.0265030675
 31
0.0
  0
LINE
  5
2F6
330
1F
100
AcDbEntity
  8
0
  6
Continuous
 62
     7
370
     0
100
AcDbLine
 10
32.7233435583
 20
193.0265030675
 30
0.0
 11
105.7233435583
 21
193.0265030675
 31
0.0
  0
LINE
  5
2F7
330
1F
100
AcDbEntity
  8
0
  6
Continuous
 62
     7
370
     0
100
AcDbLine
 10
32.7233435583
 20
239.0265030675
 30
0.0
 11
32.7233435583
 21
193.0265030675
 31
0.0
  0
LINE
  5
2F8
330
1F
100
AcDbEntity
  8
0
  6
Continuous
 62
     7
370
     0
100
AcDbLine
 10
32.7233435583
 20
239.0265030675
 30
0.0
 11
32.2233435583
 21
239.0265030675
 31
0.0
  0
ARC
  5
2F9
330
1F
100
AcDbEntity
  8
0
  6
Continuous
 62
     7
370
     0
100
AcDbCircle
 10
32.7233435583
 20
239.0265030675
 30
0.0
 40
0.5
100
AcDbArc
 50
90.0
 51
180.0
  0
LINE
  5
2FA
330
1F
100
AcDbEntity
  8
0
  6
Continuous
 62
     7
370
     0
100
AcDbLine
 10
106.2233435583
 20
239.0265030675
 30
0.0
 11
106.2233435583
 21
193.0265030675
 31
0.0
  0
LINE
  5
2FB
330
1F
100
AcDbEntity
  8
0
  6
Continuous
 62
     7
370
     0
100
AcDbLine
 10
106.2233435583
 20
193.0265030675
 30
0.0
 11
105.7233435583
 21
193.0265030675
 31
0.0
  0
LINE
  5
2FC
330
1F
100
AcDbEntity
  8
0
  6
Continuous
 62
     7
370
     0
100
AcDbLine
 10
32.7233435583
 20
193.0265030675
 30
0.0
 11
32.2233435583
 21
193.0265030675
 31
0.0
  0
LINE
  5
2FD
330
1F
100
AcDbEntity
  8
0
  6
Continuous
 62
     7
370
     0
100
AcDbLine
 10
32.2233435583
 20
193.0265030675
 30
0.0
 11
32.2233435583
 21
239.0265030675
 31
0.0
  0
LWPOLYLINE
  5
2FE
330
1F
100
AcDbEntity
  8
0
  6
Continuous
 62
     7
370
     0
100
AcDbPolyline
 90
       10
 70
   128
 43
0.0
 10
33.7233423249
 20
194.0265031867
 10
33.8101676658
 20
194.113326665
 10
33.894351776
 20
194.1975126378
 10
33.9733428315
 20
194.2765036933
 10
34.0447380201
 20
194.3478970193
 10
34.1063654975
 20
194.4095244967
 10
34.156355168
 20
194.4595160298
 10
34.1931908385
 20
194.4963498377
 10
34.2157474712
 20
194.5189064704
 10
34.2233433381
 20
194.5265023373
  0
LWPOLYLINE
  5
2FF
330
1F
100
AcDbEntity
  8
0
  6
Continuous
 62
     7
370
     0
100
AcDbPolyline
 90
       10
 70
   128
 43
0.0
 10
34.2233433381
 20
237.5265037976
 10
34.2157474712
 20
237.5340996646
 10
34.1931908385
 20
237.5566562973
 10
34.156355168
 20
237.5934901051
 10
34.1063654975
 20
237.6434816383
 10
34.0447380201
 20
237.7051091157
 10
33.9733428315
 20
237.7765024416
 10
33.894351776
 20
237.8554934971
 10
33.8101676658
 20
237.9396794699
 10
33.7233423249
 20
238.0265029483
  0
LWPOLYLINE
  5
300
330
1F
100
AcDbEntity
  8
0
  6
Continuous
 62
     7
370
     0
100
AcDbPolyline
 90
       10
 70
   128
 43
0.0
 10
104.2233436362
 20
237.5265037976
 10
104.2309432284
 20
237.5340996646
 10
104.2534961358
 20
237.5566562973
 10
104.2903318063
 20
237.5934901051
 10
104.3403177515
 20
237.6434816383
 10
104.4019489542
 20
237.7051091157
 10
104.4733404175
 20
237.7765024416
 10
104.552331473
 20
237.8554934971
 10
104.6365230337
 20
237.9396794699
 10
104.7233446494
 20
238.0265029483
  0
LWPOLYLINE
  5
301
330
1F
100
AcDbEntity
  8
0
  6
Continuous
 62
     7
370
     0
100
AcDbPolyline
 90
       10
 70
   128
 43
0.0
 10
104.7233446494
 20
194.0265031867
 10
104.6365230337
 20
194.113326665
 10
104.552331473
 20
194.1975126378
 10
104.4733404175
 20
194.2765036933
 10
104.4019489542
 20
194.3478970193
 10
104.3403177515
 20
194.4095244967
 10
104.2903318063
 20
194.4595160298
 10
104.2534961358
 20
194.4963498377
 10
104.2309432284
 20
194.5189064704
 10
104.2233436362
 20
194.5265023373
  0
LINE
  5
302
330
1F
100
AcDbEntity
  8
0
  6
Continuous
 62
     7
370
     0
100
AcDbLine
 10
105.7233435583
 20
192.5265030675
 30
0.0
 11
105.7233435583
 21
193.0265030675
 31
0.0
  0
ARC
  5
303
330
1F
100
AcDbEntity
  8
0
  6
Continuous
 62
     7
370
     0
100
AcDbCircle
 10
105.7233435583
 20
193.0265030675
 30
0.0
 40
0.5
100
AcDbArc
 50
270.0
 51
0.0
  0
LINE
  5
304
330
1F
100
AcDbEntity
  8
0
  6
Continuous
 62
     7
370
     0
100
AcDbLine
 10
105.7233435583
 20
192.5265030675
 30
0.0
 11
32.7233435583
 21
192.5265030675
 31
0.0
  0
LINE
  5
305
330
1F
100
AcDbEntity
  8
0
  6
Continuous
 62
     7
370
     0
100
AcDbLine
 10
32.7233435583
 20
193.0265030675
 30
0.0
 11
32.7233435583
 21
192.5265030675
 31
0.0
  0
ARC
  5
306
330
1F
100
AcDbEntity
  8
0
  6
Continuous
 62
     7
370
     0
100
AcDbCircle
 10
32.7233435583
 20
193.0265030675
 30
0.0
 40
0.5
100
AcDbArc
 50
180.0
 51
270.0
  0
ELLIPSE
  5
307
330
1F
100
AcDbEntity
  8
0
  6
Continuous
 62
     7
370
     0
100
AcDbEllipse
 10
103.9300483781
 20
243.0265030675
 30
0.0
 11
2.842170943040401E-14
 21
1.5
 31
0.0
210
0.0
220
0.0
230
1.0
 40
0.7406211318
 41
0.0
 42
1.57079632679493
  0
LINE
  5
308
330
1F
100
AcDbEntity
  8
0
  6
Continuous
 62
     7
370
     0
100
AcDbLine
 10
102.8191178099
 20
239.5265022628
 30
0.0
 11
102.8191166804
 21
243.0265030675
 31
0.0
  0
LINE
  5
309
330
1F
100
AcDbEntity
  8
0
  6
Continuous
 62
     7
370
     0
100
AcDbLine
 10
35.6275691644
 20
239.5265022628
 30
0.0
 11
35.6275704362
 21
243.0265030675
 31
0.0
  0
ELLIPSE
  5
30A
330
1F
100
AcDbEntity
  8
0
  6
Continuous
 62
     7
370
     0
100
AcDbEllipse
 10
34.5166387385
 20
243.0265030675
 30
0.0
 11
-2.131628207280301E-14
 21
1.5
 31
0.0
210
0.0
220
0.0
230
1.0
 40
0.7406211318
 41
4.71238898038467
 42
6.283185307179586
  0
LINE
  5
30B
330
1F
100
AcDbEntity
  8
0
  6
Continuous
 62
     7
370
     0
100
AcDbLine
 10
35.6275704362
 20
189.0265030675
 30
0.0
 11
35.6275691644
 21
192.5265038721
 31
0.0
  0
LINE
  5
30C
330
1F
100
AcDbEntity
  8
0
  6
Continuous
 62
     7
370
     0
100
AcDbLine
 10
102.8191166804
 20
189.0265030675
 30
0.0
 11
102.8191178099
 21
192.5265038721
 31
0.0
  0
ELLIPSE
  5
30D
330
1F
100
AcDbEntity
  8
0
  6
Continuous
 62
     7
370
     0
100
AcDbEllipse
 10
34.5166387385
 20
189.0265030675
 30
0.0
 11
-2.131628207280301E-14
 21
1.5
 31
0.0
210
0.0
220
0.0
230
1.0
 40
0.7406211318
 41
3.141592653589774
 42
4.71238898038469
  0
ELLIPSE
  5
30E
330
1F
100
AcDbEntity
  8
0
  6
Continuous
 62
     7
370
     0
100
AcDbEllipse
 10
103.9300483781
 20
189.0265030675
 30
0.0
 11
1.421085471520200E-14
 21
1.5
 31
0.0
210
0.0
220
0.0
230
1.0
 40
0.7406211318
 41
1.570796326794904
 42
3.141592653589793
  0
LINE
  5
30F
330
1F
100
AcDbEntity
  8
0
  6
Continuous
 62
     7
370
     0
100
AcDbLine
 10
55.3812140016
 20
245.5265030675
 30
0.0
 11
55.5731857474
 21
245.5265030675
 31
0.0
  0
ARC
  5
310
330
1F
100
AcDbEntity
  8
0
  6
Continuous
 62
     7
370
     0
100
AcDbCircle
 10
55.5717053133
 20
244.0279727543
 30
0.0
 40
1.498531220751022
100
AcDbArc
 50
359.9438401109
 51
89.9434933832
  0
LINE
  5
311
330
1F
100
AcDbEntity
  8
0
  6
Continuous
 62
     7
370
     0
100
AcDbLine
 10
57.0702326814
 20
244.0265030675
 30
0.0
 11
53.9986818693
 21
244.0265030675
 31
0.0
  0
ARC
  5
312
330
1F
100
AcDbEntity
  8
0
  6
Continuous
 62
     7
370
     0
100
AcDbCircle
 10
55.4424402987
 20
244.0829400667
 30
0.0
 40
1.444861105366621
100
AcDbArc
 50
92.4287455879
 51
182.2385370632
  0
LINE
  5
313
330
1F
100
AcDbEntity
  8
0
  6
Continuous
 62
     7
370
     0
100
AcDbLine
 10
84.4480052472
 20
244.0265030675
 30
0.0
 11
81.3764544352
 21
244.0265030675
 31
0.0
  0
ARC
  5
314
330
1F
100
AcDbEntity
  8
0
  6
Continuous
 62
     7
370
     0
100
AcDbCircle
 10
82.874981661
 20
244.0279727543
 30
0.0
 40
1.498531220751022
100
AcDbArc
 50
90.0565066168
 51
180.0561598891
  0
LINE
  5
315
330
1F
100
AcDbEntity
  8
0
  6
Continuous
 62
     7
370
     0
100
AcDbLine
 10
82.8735013692
 20
245.5265030675
 30
0.0
 11
83.0654731149
 21
245.5265030675
 31
0.0
  0
ARC
  5
316
330
1F
100
AcDbEntity
  8
0
  6
Continuous
 62
     7
370
     0
100
AcDbCircle
 10
83.0042466756
 20
244.0829400667
 30
0.0
 40
1.444861105366613
100
AcDbArc
 50
357.7614629368
 51
87.5712544121
  0
LINE
  5
317
330
1F
100
AcDbEntity
  8
0
  6
Continuous
 62
     7
370
     0
100
AcDbLine
 10
53.9986818091
 20
239.5265022628
 30
0.0
 11
53.9986818693
 21
244.0265030675
 31
0.0
  0
LINE
  5
318
330
1F
100
AcDbEntity
  8
0
  6
Continuous
 62
     7
370
     0
100
AcDbLine
 10
57.0702358142
 20
239.5265022628
 30
0.0
 11
57.0702326814
 21
244.0265030675
 31
0.0
  0
LINE
  5
319
330
1F
100
AcDbEntity
  8
0
  6
Continuous
 62
     7
370
     0
100
AcDbLine
 10
81.3764511601
 20
239.5265022628
 30
0.0
 11
81.3764544352
 21
244.0265030675
 31
0.0
  0
LINE
  5
31A
330
1F
100
AcDbEntity
  8
0
  6
Continuous
 62
     7
370
     0
100
AcDbLine
 10
84.4480051652
 20
239.5265022628
 30
0.0
 11
84.4480052472
 21
244.0265030675
 31
0.0
  0
LINE
  5
31B
330
1F
100
AcDbEntity
  8
0
  6
Continuous
 62
     7
370
     0
100
AcDbLine
 10
84.4480052472
 20
190.0265030675
 30
0.0
 11
84.4480051652
 21
192.5265038721
 31
0.0
  0
LINE
  5
31C
330
1F
100
AcDbEntity
  8
0
  6
Continuous
 62
     7
370
     0
100
AcDbLine
 10
81.3764544352
 20
190.0265030675
 30
0.0
 11
84.4480052472
 21
190.0265030675
 31
0.0
  0
LINE
  5
31D
330
1F
100
AcDbEntity
  8
0
  6
Continuous
 62
     7
370
     0
100
AcDbLine
 10
81.3764544352
 20
190.0265030675
 30
0.0
 11
81.3764511601
 21
192.5265038721
 31
0.0
  0
LINE
  5
31E
330
1F
100
AcDbEntity
  8
0
  6
Continuous
 62
     7
370
     0
100
AcDbLine
 10
57.0702326814
 20
190.0265030675
 30
0.0
 11
57.0702358142
 21
192.5265038721
 31
0.0
  0
LINE
  5
31F
330
1F
100
AcDbEntity
  8
0
  6
Continuous
 62
     7
370
     0
100
AcDbLine
 10
53.9986818693
 20
190.0265030675
 30
0.0
 11
57.0702326814
 21
190.0265030675
 31
0.0
  0
LINE
  5
320
330
1F
100
AcDbEntity
  8
0
  6
Continuous
 62
     7
370
     0
100
AcDbLine
 10
53.9986818693
 20
190.0265030675
 30
0.0
 11
53.9986818091
 21
192.5265038721
 31
0.0
  0
LINE
  5
321
330
1F
100
AcDbEntity
  8
0
  6
Continuous
 62
     7
370
     0
100
AcDbLine
 10
83.0654731149
 20
188.5265030675
 30
0.0
 11
82.8735013692
 21
188.5265030675
 31
0.0
  0
ARC
  5
322
330
1F
100
AcDbEntity
  8
0
  6
Continuous
 62
     7
370
     0
100
AcDbCircle
 10
82.874981661
 20
190.0250337085
 30
0.0
 40
1.498531220751023
100
AcDbArc
 50
179.9438401108
 51
269.9434933832
  0
ARC
  5
323
330
1F
100
AcDbEntity
  8
0
  6
Continuous
 62
     7
370
     0
100
AcDbCircle
 10
83.0042466756
 20
189.9700663961
 30
0.0
 40
1.44486110536664
100
AcDbArc
 50
272.4287455879
 51
2.2385370632
  0
ARC
  5
324
330
1F
100
AcDbEntity
  8
0
  6
Continuous
 62
     7
370
     0
100
AcDbCircle
 10
55.5717053133
 20
190.0250337085
 30
0.0
 40
1.498531220751023
100
AcDbArc
 50
270.0565066168
 51
0.0561598892
  0
LINE
  5
325
330
1F
100
AcDbEntity
  8
0
  6
Continuous
 62
     7
370
     0
100
AcDbLine
 10
55.5731857474
 20
188.5265030675
 30
0.0
 11
55.3812140016
 21
188.5265030675
 31
0.0
  0
ARC
  5
326
330
1F
100
AcDbEntity
  8
0
  6
Continuous
 62
     7
370
     0
100
AcDbCircle
 10
55.4424402987
 20
189.9700663961
 30
0.0
 40
1.444861105366641
100
AcDbArc
 50
177.7614629368
 51
267.5712544121
  0
LINE
  5
327
330
1F
100
AcDbEntity
  8
0
  6
Continuous
 62
     7
370
     0
100
AcDbLine
 10
63.1264345217
 20
245.5265030675
 30
0.0
 11
63.3167997647
 21
245.5265030675
 31
0.0
  0
ARC
  5
328
330
1F
100
AcDbEntity
  8
0
  6
Continuous
 62
     7
370
     0
100
AcDbCircle
 10
63.2659005785
 20
244.0740520732
 30
0.0
 40
1.453342844869217
100
AcDbArc
 50
358.1251539712
 51
87.9928570595
  0
LINE
  5
329
330
1F
100
AcDbEntity
  8
0
  6
Continuous
 62
     7
370
     0
100
AcDbLine
 10
64.7184640309
 20
244.0265030675
 30
0.0
 11
61.6726172867
 21
244.0265030675
 31
0.0
  0
ARC
  5
32A
330
1F
100
AcDbEntity
  8
0
  6
Continuous
 62
     7
370
     0
100
AcDbCircle
 10
63.1498912686
 20
244.049239196
 30
0.0
 40
1.477450294967634
100
AcDbArc
 50
90.9097616513
 51
180.8817123017
  0
LINE
  5
32B
330
1F
100
AcDbEntity
  8
0
  6
Continuous
 62
     7
370
     0
100
AcDbLine
 10
76.7740698298
 20
244.0265030675
 30
0.0
 11
73.7282230857
 21
244.0265030675
 31
0.0
  0
ARC
  5
32C
330
1F
100
AcDbEntity
  8
0
  6
Continuous
 62
     7
370
     0
100
AcDbCircle
 10
75.1807863958
 20
244.0740520732
 30
0.0
 40
1.453342844869217
100
AcDbArc
 50
92.0071429405
 51
181.8748460288
  0
LINE
  5
32D
330
1F
100
AcDbEntity
  8
0
  6
Continuous
 62
     7
370
     0
100
AcDbLine
 10
75.1298873518
 20
245.5265030675
 30
0.0
 11
75.3202525949
 21
245.5265030675
 31
0.0
  0
ARC
  5
32E
330
1F
100
AcDbEntity
  8
0
  6
Continuous
 62
     7
370
     0
100
AcDbCircle
 10
75.2967957057
 20
244.049239196
 30
0.0
 40
1.477450294967641
100
AcDbArc
 50
359.1182876983
 51
89.0902383487
  0
LINE
  5
32F
330
1F
100
AcDbEntity
  8
0
  6
Continuous
 62
     7
370
     0
100
AcDbLine
 10
73.7282215611
 20
239.5265022628
 30
0.0
 11
73.7282230857
 21
244.0265030675
 31
0.0
  0
LINE
  5
330
330
1F
100
AcDbEntity
  8
0
  6
Continuous
 62
     7
370
     0
100
AcDbLine
 10
76.7740710632
 20
239.5265022628
 30
0.0
 11
76.7740698298
 21
244.0265030675
 31
0.0
  0
LINE
  5
331
330
1F
100
AcDbEntity
  8
0
  6
Continuous
 62
     7
370
     0
100
AcDbLine
 10
61.6726159111
 20
239.5265022628
 30
0.0
 11
61.6726172867
 21
244.0265030675
 31
0.0
  0
LINE
  5
332
330
1F
100
AcDbEntity
  8
0
  6
Continuous
 62
     7
370
     0
100
AcDbLine
 10
64.7184654132
 20
239.5265022628
 30
0.0
 11
64.7184640309
 21
244.0265030675
 31
0.0
  0
LINE
  5
333
330
1F
100
AcDbEntity
  8
0
  6
Continuous
 62
     7
370
     0
100
AcDbLine
 10
76.7740698298
 20
190.0265030675
 30
0.0
 11
76.7740710632
 21
192.5265038721
 31
0.0
  0
LINE
  5
334
330
1F
100
AcDbEntity
  8
0
  6
Continuous
 62
     7
370
     0
100
AcDbLine
 10
73.7282230857
 20
190.0265030675
 30
0.0
 11
76.7740698298
 21
190.0265030675
 31
0.0
  0
LINE
  5
335
330
1F
100
AcDbEntity
  8
0
  6
Continuous
 62
     7
370
     0
100
AcDbLine
 10
73.7282230857
 20
190.0265030675
 30
0.0
 11
73.7282215611
 21
192.5265038721
 31
0.0
  0
LINE
  5
336
330
1F
100
AcDbEntity
  8
0
  6
Continuous
 62
     7
370
     0
100
AcDbLine
 10
64.7184640309
 20
190.0265030675
 30
0.0
 11
64.7184654132
 21
192.5265038721
 31
0.0
  0
LINE
  5
337
330
1F
100
AcDbEntity
  8
0
  6
Continuous
 62
     7
370
     0
100
AcDbLine
 10
61.6726172867
 20
190.0265030675
 30
0.0
 11
64.7184640309
 21
190.0265030675
 31
0.0
  0
LINE
  5
338
330
1F
100
AcDbEntity
  8
0
  6
Continuous
 62
     7
370
     0
100
AcDbLine
 10
61.6726172867
 20
190.0265030675
 30
0.0
 11
61.6726159111
 21
192.5265038721
 31
0.0
  0
ARC
  5
339
330
1F
100
AcDbEntity
  8
0
  6
Continuous
 62
     7
370
     0
100
AcDbCircle
 10
63.2659005785
 20
189.9789543896
 30
0.0
 40
1.453342844869203
100
AcDbArc
 50
272.0071429405
 51
1.8748460288
  0
LINE
  5
33A
330
1F
100
AcDbEntity
  8
0
  6
Continuous
 62
     7
370
     0
100
AcDbLine
 10
63.3167997647
 20
188.5265030675
 30
0.0
 11
63.1264345217
 21
188.5265030675
 31
0.0
  0
ARC
  5
33B
330
1F
100
AcDbEntity
  8
0
  6
Continuous
 62
     7
370
     0
100
AcDbCircle
 10
63.1498912686
 20
190.0037672668
 30
0.0
 40
1.477450294967641
100
AcDbArc
 50
179.1182876983
 51
269.0902383487
  0
LINE
  5
33C
330
1F
100
AcDbEntity
  8
0
  6
Continuous
 62
     7
370
     0
100
AcDbLine
 10
75.3202525949
 20
188.5265030675
 30
0.0
 11
75.1298873518
 21
188.5265030675
 31
0.0
  0
ARC
  5
33D
330
1F
100
AcDbEntity
  8
0
  6
Continuous
 62
     7
370
     0
100
AcDbCircle
 10
75.1807863958
 20
189.9789543896
 30
0.0
 40
1.453342844869218
100
AcDbArc
 50
178.1251539712
 51
267.9928570595
  0
ARC
  5
33E
330
1F
100
AcDbEntity
  8
0
  6
Continuous
 62
     7
370
     0
100
AcDbCircle
 10
75.2967957057
 20
190.0037672668
 30
0.0
 40
1.477450294967641
100
AcDbArc
 50
270.9097616513
 51
0.8817123017
  0
LINE
  5
33F
330
1F
100
AcDbEntity
  8
0
  6
Continuous
 62
     7
370
     0
100
AcDbLine
 10
89.8828056583
 20
243.0265030675
 30
0.0
 11
90.0560964489
 21
243.0265030675
 31
0.0
  0
ARC
  5
340
330
1F
100
AcDbEntity
  8
0
  6
Continuous
 62
     7
370
     0
100
AcDbCircle
 10
89.8350543092
 20
241.7884866407
 30
0.0
 40
1.257594983965835
100
AcDbArc
 50
352.599470574
 51
79.8768695276
  0
LINE
  5
341
330
1F
100
AcDbEntity
  8
0
  6
Continuous
 62
     7
370
     0
100
AcDbLine
 10
48.3905906677
 20
243.0265030675
 30
0.0
 11
48.5638814583
 21
243.0265030675
 31
0.0
  0
ARC
  5
342
330
1F
100
AcDbEntity
  8
0
  6
Continuous
 62
     7
370
     0
100
AcDbCircle
 10
48.6116326651
 20
241.7884866407
 30
0.0
 40
1.257594983965829
100
AcDbArc
 50
100.1231304724
 51
187.400529426
  0
LINE
  5
343
330
1F
100
AcDbEntity
  8
0
  6
Continuous
 62
     7
370
     0
100
AcDbLine
 10
47.3645134822
 20
239.5265022628
 30
0.0
 11
47.3645171727
 21
241.6265030675
 31
0.0
  0
LINE
  5
344
330
1F
100
AcDbEntity
  8
0
  6
Continuous
 62
     7
370
     0
100
AcDbLine
 10
91.0821734921
 20
239.5265022628
 30
0.0
 11
91.0821699438
 21
241.6265030675
 31
0.0
  0
LINE
  5
345
330
1F
100
AcDbEntity
  8
0
  6
Continuous
 62
     7
370
     0
100
AcDbLine
 10
91.0821699438
 20
190.4265030675
 30
0.0
 11
91.0821734921
 21
192.5265038721
 31
0.0
  0
LINE
  5
346
330
1F
100
AcDbEntity
  8
0
  6
Continuous
 62
     7
370
     0
100
AcDbLine
 10
47.3645171727
 20
190.4265030675
 30
0.0
 11
47.3645134822
 21
192.5265038721
 31
0.0
  0
LINE
  5
347
330
1F
100
AcDbEntity
  8
0
  6
Continuous
 62
     7
370
     0
100
AcDbLine
 10
48.5638814583
 20
189.0265030675
 30
0.0
 11
48.3905906677
 21
189.0265030675
 31
0.0
  0
ARC
  5
348
330
1F
100
AcDbEntity
  8
0
  6
Continuous
 62
     7
370
     0
100
AcDbCircle
 10
48.6116326651
 20
190.2645194943
 30
0.0
 40
1.257594983965829
100
AcDbArc
 50
172.599470574
 51
259.8768695276
  0
LINE
  5
349
330
1F
100
AcDbEntity
  8
0
  6
Continuous
 62
     7
370
     0
100
AcDbLine
 10
90.0560964489
 20
189.0265030675
 30
0.0
 11
89.8828056583
 21
189.0265030675
 31
0.0
  0
ARC
  5
34A
330
1F
100
AcDbEntity
  8
0
  6
Continuous
 62
     7
370
     0
100
AcDbCircle
 10
89.8350543092
 20
190.2645194943
 30
0.0
 40
1.257594983965835
100
AcDbArc
 50
280.1231304724
 51
7.400529426
  0
LINE
  5
34B
330
1F
100
AcDbEntity
  8
0
  6
Continuous
 62
     7
370
     0
100
AcDbLine
 10
103.930051531
 20
244.5265030824
 30
0.0
 11
107.1640803472
 21
244.5265030824
 31
0.0
  0
ELLIPSE
  5
34C
330
1F
100
AcDbEntity
  8
0
  6
Continuous
 62
     7
370
     0
100
AcDbEllipse
 10
107.1640795042
 20
243.0265030675
 30
0.0
 11
-2.842170943040401E-14
 21
1.5
 31
0.0
210
0.0
220
0.0
230
1.0
 40
0.9374827027
 41
4.712388980384685
 42
6.283185307179586
  0
LINE
  5
34D
330
1F
100
AcDbEntity
  8
0
  6
Continuous
 62
     7
370
     0
100
AcDbLine
 10
108.5703103796
 20
243.0265037678
 30
0.0
 11
102.8191166804
 21
243.0265030675
 31
0.0
  0
LINE
  5
34E
330
1F
100
AcDbEntity
  8
0
  6
Continuous
 62
     7
370
     0
100
AcDbLine
 10
31.2826066271
 20
244.5265030824
 30
0.0
 11
34.5166391686
 21
244.5265030824
 31
0.0
  0
LINE
  5
34F
330
1F
100
AcDbEntity
  8
0
  6
Continuous
 62
     7
370
     0
100
AcDbLine
 10
35.6275704362
 20
243.0265030675
 30
0.0
 11
29.8763840453
 21
243.0265037678
 31
0.0
  0
ELLIPSE
  5
350
330
1F
100
AcDbEntity
  8
0
  6
Continuous
 62
     7
370
     0
100
AcDbEllipse
 10
31.2826076123
 20
243.0265030675
 30
0.0
 11
2.131628207280301E-14
 21
1.5
 31
0.0
210
0.0
220
0.0
230
1.0
 40
0.9374827027
 41
0.0
 42
1.57079632679491
  0
LINE
  5
351
330
1F
100
AcDbEntity
  8
0
  6
Continuous
 62
     7
370
     0
100
AcDbLine
 10
29.8763840453
 20
189.0265023671
 30
0.0
 11
35.6275704362
 21
189.0265030675
 31
0.0
  0
LINE
  5
352
330
1F
100
AcDbEntity
  8
0
  6
Continuous
 62
     7
370
     0
100
AcDbLine
 10
29.8763840453
 20
189.0265023671
 30
0.0
 11
29.8763840453
 21
243.0265037678
 31
0.0
  0
LINE
  5
353
330
1F
100
AcDbEntity
  8
0
  6
Continuous
 62
     7
370
     0
100
AcDbLine
 10
108.5703103796
 20
189.0265023671
 30
0.0
 11
108.5703103796
 21
243.0265037678
 31
0.0
  0
LINE
  5
354
330
1F
100
AcDbEntity
  8
0
  6
Continuous
 62
     7
370
     0
100
AcDbLine
 10
102.8191166804
 20
189.0265030675
 30
0.0
 11
108.5703103796
 21
189.0265023671
 31
0.0
  0
LINE
  5
355
330
1F
100
AcDbEntity
  8
0
  6
Continuous
 62
     7
370
     0
100
AcDbLine
 10
34.5166391686
 20
187.5265030526
 30
0.0
 11
31.2826066271
 21
187.5265030526
 31
0.0
  0
ELLIPSE
  5
356
330
1F
100
AcDbEntity
  8
0
  6
Continuous
 62
     7
370
     0
100
AcDbEllipse
 10
31.2826076123
 20
189.0265030675
 30
0.0
 11
2.131628207280301E-14
 21
1.5
 31
0.0
210
0.0
220
0.0
230
1.0
 40
0.9374827027
 41
1.57079632679491
 42
3.141592653589823
  0
LINE
  5
357
330
1F
100
AcDbEntity
  8
0
  6
Continuous
 62
     7
370
     0
100
AcDbLine
 10
107.1640803472
 20
187.5265030526
 30
0.0
 11
103.930051531
 21
187.5265030526
 31
0.0
  0
ELLIPSE
  5
358
330
1F
100
AcDbEntity
  8
0
  6
Continuous
 62
     7
370
     0
100
AcDbEllipse
 10
107.1640795042
 20
189.0265030675
 30
0.0
 11
-2.842170943040401E-14
 21
1.5
 31
0.0
210
0.0
220
0.0
230
1.0
 40
0.9374827027
 41
3.141592653589773
 42
4.712388980384685
  0
LINE
  5
359
330
1F
100
AcDbEntity
  8
0
  6
Continuous
 62
     7
370
     0
100
AcDbLine
 10
90.0560964489
 20
243.0265030675
 30
0.0
 11
95.2730717483
 21
243.0265030675
 31
0.0
  0
LINE
  5
35A
330
1F
100
AcDbEntity
  8
0
  6
Continuous
 62
     7
370
     0
100
AcDbLine
 10
43.1736153523
 20
243.0265030675
 30
0.0
 11
48.3905906677
 21
243.0265030675
 31
0.0
  0
LINE
  5
35B
330
1F
100
AcDbEntity
  8
0
  6
Continuous
 62
     7
370
     0
100
AcDbLine
 10
48.3905906677
 20
189.0265030675
 30
0.0
 11
43.1736153683
 21
189.0265030675
 31
0.0
  0
LINE
  5
35C
330
1F
100
AcDbEntity
  8
0
  6
Continuous
 62
     7
370
     0
100
AcDbLine
 10
95.2730717483
 20
189.0265030675
 30
0.0
 11
90.0560964489
 21
189.0265030675
 31
0.0
  0
LINE
  5
35D
330
1F
100
AcDbEntity
  8
0
  6
Continuous
 62
     7
370
     0
100
AcDbLine
 10
97.039113845
 20
239.5265022628
 30
0.0
 11
97.0391166804
 21
243.0265030675
 31
0.0
  0
ELLIPSE
  5
35E
330
1F
100
AcDbEntity
  8
0
  6
Continuous
 62
     7
370
     0
100
AcDbEllipse
 10
98.1500483781
 20
243.0265030675
 30
0.0
 11
2.842170943040401E-14
 21
1.5
 31
0.0
210
0.0
220
0.0
230
1.0
 40
0.7406211318
 41
0.0
 42
1.57079632679493
  0
ELLIPSE
  5
35F
330
1F
100
AcDbEntity
  8
0
  6
Continuous
 62
     7
370
     0
100
AcDbEllipse
 10
40.2966387385
 20
243.0265030675
 30
0.0
 11
-2.131628207280301E-14
 21
1.5
 31
0.0
210
0.0
220
0.0
230
1.0
 40
0.7406211318
 41
4.71238898038467
 42
6.283185307179586
  0
LINE
  5
360
330
1F
100
AcDbEntity
  8
0
  6
Continuous
 62
     7
370
     0
100
AcDbLine
 10
41.407569404
 20
239.5265022628
 30
0.0
 11
41.4075704362
 21
243.0265030675
 31
0.0
  0
LINE
  5
361
330
1F
100
AcDbEntity
  8
0
  6
Continuous
 62
     7
370
     0
100
AcDbLine
 10
41.4075704362
 20
189.0265030675
 30
0.0
 11
41.407569404
 21
192.5265038721
 31
0.0
  0
LINE
  5
362
330
1F
100
AcDbEntity
  8
0
  6
Continuous
 62
     7
370
     0
100
AcDbLine
 10
97.0391166804
 20
189.0265030675
 30
0.0
 11
97.039113845
 21
192.5265038721
 31
0.0
  0
ELLIPSE
  5
363
330
1F
100
AcDbEntity
  8
0
  6
Continuous
 62
     7
370
     0
100
AcDbEllipse
 10
40.2966387385
 20
189.0265030675
 30
0.0
 11
-2.131628207280301E-14
 21
1.5
 31
0.0
210
0.0
220
0.0
230
1.0
 40
0.7406211318
 41
3.141592653589774
 42
4.71238898038469
  0
ELLIPSE
  5
364
330
1F
100
AcDbEntity
  8
0
  6
Continuous
 62
     7
370
     0
100
AcDbEllipse
 10
98.1500483781
 20
189.0265030675
 30
0.0
 11
2.842170943040401E-14
 21
1.5
 31
0.0
210
0.0
220
0.0
230
1.0
 40
0.7406211318
 41
1.570796326794911
 42
3.141592653589793
  0
LINE
  5
365
330
1F
100
AcDbEntity
  8
0
  6
Continuous
 62
     7
370
     0
100
AcDbLine
 10
83.0654731149
 20
245.5265030675
 30
0.0
 11
87.0119958178
 21
245.5265032463
 31
0.0
  0
ELLIPSE
  5
366
330
1F
100
AcDbEntity
  8
0
  6
Continuous
 62
     7
370
     0
100
AcDbEllipse
 10
87.0119932514
 20
244.0265030675
 30
0.0
 11
-2.842170943040401E-14
 21
1.5
 31
0.0
210
0.0
220
0.0
230
1.0
 40
0.9739935396
 41
4.712388980384685
 42
6.283185307179586
  0
LINE
  5
367
330
1F
100
AcDbEntity
  8
0
  6
Continuous
 62
     7
370
     0
100
AcDbLine
 10
88.472980167
 20
244.0265039318
 30
0.0
 11
84.4480052472
 21
244.0265030675
 31
0.0
  0
LINE
  5
368
330
1F
100
AcDbEntity
  8
0
  6
Continuous
 62
     7
370
     0
100
AcDbLine
 10
51.4346911565
 20
245.5265032463
 30
0.0
 11
55.3812140016
 21
245.5265030675
 31
0.0
  0
LINE
  5
369
330
1F
100
AcDbEntity
  8
0
  6
Continuous
 62
     7
370
     0
100
AcDbLine
 10
53.9986818693
 20
244.0265030675
 30
0.0
 11
49.9737068073
 21
244.0265039318
 31
0.0
  0
ELLIPSE
  5
36A
330
1F
100
AcDbEntity
  8
0
  6
Continuous
 62
     7
370
     0
100
AcDbEllipse
 10
51.4346938652
 20
244.0265030675
 30
0.0
 11
2.842170943040401E-14
 21
1.5
 31
0.0
210
0.0
220
0.0
230
1.0
 40
0.9739935396
 41
0.0
 42
1.570796326794915
  0
LINE
  5
36B
330
1F
100
AcDbEntity
  8
0
  6
Continuous
 62
     7
370
     0
100
AcDbLine
 10
49.9737068073
 20
239.5265022628
 30
0.0
 11
49.9737068073
 21
244.0265039318
 31
0.0
  0
LINE
  5
36C
330
1F
100
AcDbEntity
  8
0
  6
Continuous
 62
     7
370
     0
100
AcDbLine
 10
88.472980167
 20
239.5265022628
 30
0.0
 11
88.472980167
 21
244.0265039318
 31
0.0
  0
LINE
  5
36D
330
1F
100
AcDbEntity
  8
0
  6
Continuous
 62
     7
370
     0
100
AcDbLine
 10
49.9737068073
 20
190.026502531
 30
0.0
 11
53.9986818693
 21
190.0265030675
 31
0.0
  0
LINE
  5
36E
330
1F
100
AcDbEntity
  8
0
  6
Continuous
 62
     7
370
     0
100
AcDbLine
 10
49.9737068073
 20
190.026502531
 30
0.0
 11
49.9737068073
 21
192.5265038721
 31
0.0
  0
LINE
  5
36F
330
1F
100
AcDbEntity
  8
0
  6
Continuous
 62
     7
370
     0
100
AcDbLine
 10
88.472980167
 20
190.026502531
 30
0.0
 11
88.472980167
 21
192.5265038721
 31
0.0
  0
LINE
  5
370
330
1F
100
AcDbEntity
  8
0
  6
Continuous
 62
     7
370
     0
100
AcDbLine
 10
84.4480052472
 20
190.0265030675
 30
0.0
 11
88.472980167
 21
190.026502531
 31
0.0
  0
LINE
  5
371
330
1F
100
AcDbEntity
  8
0
  6
Continuous
 62
     7
370
     0
100
AcDbLine
 10
55.3812140016
 20
188.5265030675
 30
0.0
 11
51.4346911565
 21
188.5265032165
 31
0.0
  0
ELLIPSE
  5
372
330
1F
100
AcDbEntity
  8
0
  6
Continuous
 62
     7
370
     0
100
AcDbEllipse
 10
51.4346938652
 20
190.0265030675
 30
0.0
 11
2.842170943040401E-14
 21
1.5
 31
0.0
210
0.0
220
0.0
230
1.0
 40
0.9739935396
 41
1.570796326794915
 42
3.141592653589826
  0
LINE
  5
373
330
1F
100
AcDbEntity
  8
0
  6
Continuous
 62
     7
370
     0
100
AcDbLine
 10
87.0119958178
 20
188.5265032165
 30
0.0
 11
83.0654731149
 21
188.5265030675
 31
0.0
  0
ELLIPSE
  5
374
330
1F
100
AcDbEntity
  8
0
  6
Continuous
 62
     7
370
     0
100
AcDbEllipse
 10
87.0119932514
 20
190.0265030675
 30
0.0
 11
-2.842170943040401E-14
 21
1.5
 31
0.0
210
0.0
220
0.0
230
1.0
 40
0.9739935396
 41
3.141592653589774
 42
4.712388980384685
  0
LINE
  5
375
330
1F
100
AcDbEntity
  8
0
  6
Continuous
 62
     7
370
     0
100
AcDbLine
 10
73.7282230857
 20
244.0265030675
 30
0.0
 11
70.2717631117
 21
244.0265039318
 31
0.0
  0
ELLIPSE
  5
376
330
1F
100
AcDbEntity
  8
0
  6
Continuous
 62
     7
370
     0
100
AcDbEllipse
 10
71.7561128993
 20
244.0265030675
 30
0.0
 11
5.684341886080802E-14
 21
1.5
 31
0.0
210
0.0
220
0.0
230
1.0
 40
0.9895662222
 41
0.0
 42
1.570796326794934
  0
LINE
  5
377
330
1F
100
AcDbEntity
  8
0
  6
Continuous
 62
     7
370
     0
100
AcDbLine
 10
71.7561124817
 20
245.5265032463
 30
0.0
 11
75.1298873518
 21
245.5265030675
 31
0.0
  0
LINE
  5
378
330
1F
100
AcDbEntity
  8
0
  6
Continuous
 62
     7
370
     0
100
AcDbLine
 10
68.1749238626
 20
244.0265039318
 30
0.0
 11
64.7184640309
 21
244.0265030675
 31
0.0
  0
LINE
  5
379
330
1F
100
AcDbEntity
  8
0
  6
Continuous
 62
     7
370
     0
100
AcDbLine
 10
63.3167997647
 20
245.5265030675
 30
0.0
 11
66.6905744926
 21
245.5265032463
 31
0.0
  0
ELLIPSE
  5
37A
330
1F
100
AcDbEntity
  8
0
  6
Continuous
 62
     7
370
     0
100
AcDbEllipse
 10
66.6905742172
 20
244.0265030675
 30
0.0
 11
-5.684341886080802E-14
 21
1.5
 31
0.0
210
0.0
220
0.0
230
1.0
 40
0.9895662222
 41
4.712388980384666
 42
6.283185307179586
  0
LINE
  5
37B
330
1F
100
AcDbEntity
  8
0
  6
Continuous
 62
     7
370
     0
100
AcDbLine
 10
68.1749238626
 20
239.5265022628
 30
0.0
 11
68.1749238626
 21
244.0265039318
 31
0.0
  0
LINE
  5
37C
330
1F
100
AcDbEntity
  8
0
  6
Continuous
 62
     7
370
     0
100
AcDbLine
 10
70.2717631117
 20
239.5265022628
 30
0.0
 11
70.2717631117
 21
244.0265039318
 31
0.0
  0
LINE
  5
37D
330
1F
100
AcDbEntity
  8
0
  6
Continuous
 62
     7
370
     0
100
AcDbLine
 10
70.2717631117
 20
190.026502531
 30
0.0
 11
73.7282230857
 21
190.0265030675
 31
0.0
  0
LINE
  5
37E
330
1F
100
AcDbEntity
  8
0
  6
Continuous
 62
     7
370
     0
100
AcDbLine
 10
70.2717631117
 20
190.026502531
 30
0.0
 11
70.2717631117
 21
192.5265038721
 31
0.0
  0
LINE
  5
37F
330
1F
100
AcDbEntity
  8
0
  6
Continuous
 62
     7
370
     0
100
AcDbLine
 10
68.1749238626
 20
190.026502531
 30
0.0
 11
68.1749238626
 21
192.5265038721
 31
0.0
  0
LINE
  5
380
330
1F
100
AcDbEntity
  8
0
  6
Continuous
 62
     7
370
     0
100
AcDbLine
 10
64.7184640309
 20
190.0265030675
 30
0.0
 11
68.1749238626
 21
190.026502531
 31
0.0
  0
LINE
  5
381
330
1F
100
AcDbEntity
  8
0
  6
Continuous
 62
     7
370
     0
100
AcDbLine
 10
75.1298873518
 20
188.5265030675
 30
0.0
 11
71.7561124817
 21
188.5265032165
 31
0.0
  0
ELLIPSE
  5
382
330
1F
100
AcDbEntity
  8
0
  6
Continuous
 62
     7
370
     0
100
AcDbEllipse
 10
71.7561128993
 20
190.0265030675
 30
0.0
 11
5.684341886080802E-14
 21
1.5
 31
0.0
210
0.0
220
0.0
230
1.0
 40
0.9895662222
 41
1.570796326794934
 42
3.141592653589846
  0
ELLIPSE
  5
383
330
1F
100
AcDbEntity
  8
0
  6
Continuous
 62
     7
370
     0
100
AcDbEllipse
 10
66.6905742172
 20
190.0265030675
 30
0.0
 11
-5.684341886080802E-14
 21
1.5
 31
0.0
210
0.0
220
0.0
230
1.0
 40
0.9895662222
 41
3.141592653589755
 42
4.712388980384666
  0
LINE
  5
384
330
1F
100
AcDbEntity
  8
0
  6
Continuous
 62
     7
370
     0
100
AcDbLine
 10
66.6905744926
 20
188.5265032165
 30
0.0
 11
63.3167997647
 21
188.5265030675
 31
0.0
  0
LINE
  5
385
330
1F
100
AcDbEntity
  8
0
  6
Continuous
 62
     7
370
     0
100
AcDbLine
 10
60.9049825922
 20
245.5265032463
 30
0.0
 11
63.1264345217
 21
245.5265030675
 31
0.0
  0
LINE
  5
386
330
1F
100
AcDbEntity
  8
0
  6
Continuous
 62
     7
370
     0
100
AcDbLine
 10
61.6726172867
 20
244.0265030675
 30
0.0
 11
59.4130932347
 21
244.0265039318
 31
0.0
  0
ELLIPSE
  5
387
330
1F
100
AcDbEntity
  8
0
  6
Continuous
 62
     7
370
     0
100
AcDbEllipse
 10
60.9049842974
 20
244.0265030675
 30
0.0
 11
7.105427357601002E-14
 21
1.5
 31
0.0
210
0.0
220
0.0
230
1.0
 40
0.9945938261
 41
0.0
 42
1.570796326794944
  0
LINE
  5
388
330
1F
100
AcDbEntity
  8
0
  6
Continuous
 62
     7
370
     0
100
AcDbLine
 10
75.3202525949
 20
245.5265030675
 30
0.0
 11
77.5417043821
 21
245.5265032463
 31
0.0
  0
ELLIPSE
  5
389
330
1F
100
AcDbEntity
  8
0
  6
Continuous
 62
     7
370
     0
100
AcDbEllipse
 10
77.5417028192
 20
244.0265030675
 30
0.0
 11
-7.105427357601002E-14
 21
1.5
 31
0.0
210
0.0
220
0.0
230
1.0
 40
0.9945938261
 41
4.712388980384657
 42
6.283185307179586
  0
LINE
  5
38A
330
1F
100
AcDbEntity
  8
0
  6
Continuous
 62
     7
370
     0
100
AcDbLine
 10
79.0335937396
 20
244.0265039318
 30
0.0
 11
76.7740698298
 21
244.0265030675
 31
0.0
  0
LINE
  5
38B
330
1F
100
AcDbEntity
  8
0
  6
Continuous
 62
     7
370
     0
100
AcDbLine
 10
59.4130932347
 20
239.5265022628
 30
0.0
 11
59.4130932347
 21
244.0265039318
 31
0.0
  0
LINE
  5
38C
330
1F
100
AcDbEntity
  8
0
  6
Continuous
 62
     7
370
     0
100
AcDbLine
 10
79.0335937396
 20
239.5265022628
 30
0.0
 11
79.0335937396
 21
244.0265039318
 31
0.0
  0
LINE
  5
38D
330
1F
100
AcDbEntity
  8
0
  6
Continuous
 62
     7
370
     0
100
AcDbLine
 10
59.4130932347
 20
190.026502531
 30
0.0
 11
61.6726172867
 21
190.0265030675
 31
0.0
  0
LINE
  5
38E
330
1F
100
AcDbEntity
  8
0
  6
Continuous
 62
     7
370
     0
100
AcDbLine
 10
59.4130932347
 20
190.026502531
 30
0.0
 11
59.4130932347
 21
192.5265038721
 31
0.0
  0
LINE
  5
38F
330
1F
100
AcDbEntity
  8
0
  6
Continuous
 62
     7
370
     0
100
AcDbLine
 10
79.0335937396
 20
190.026502531
 30
0.0
 11
79.0335937396
 21
192.5265038721
 31
0.0
  0
LINE
  5
390
330
1F
100
AcDbEntity
  8
0
  6
Continuous
 62
     7
370
     0
100
AcDbLine
 10
76.7740698298
 20
190.0265030675
 30
0.0
 11
79.0335937396
 21
190.026502531
 31
0.0
  0
LINE
  5
391
330
1F
100
AcDbEntity
  8
0
  6
Continuous
 62
     7
370
     0
100
AcDbLine
 10
63.1264345217
 20
188.5265030675
 30
0.0
 11
60.9049825922
 21
188.5265032165
 31
0.0
  0
ELLIPSE
  5
392
330
1F
100
AcDbEntity
  8
0
  6
Continuous
 62
     7
370
     0
100
AcDbEllipse
 10
60.9049842974
 20
190.0265030675
 30
0.0
 11
7.105427357601002E-14
 21
1.5
 31
0.0
210
0.0
220
0.0
230
1.0
 40
0.9945938261
 41
1.570796326794944
 42
3.141592653589854
  0
LINE
  5
393
330
1F
100
AcDbEntity
  8
0
  6
Continuous
 62
     7
370
     0
100
AcDbLine
 10
77.5417043821
 20
188.5265032165
 30
0.0
 11
75.3202525949
 21
188.5265030675
 31
0.0
  0
ELLIPSE
  5
394
330
1F
100
AcDbEntity
  8
0
  6
Continuous
 62
     7
370
     0
100
AcDbEllipse
 10
77.5417028192
 20
190.0265030675
 30
0.0
 11
-7.105427357601002E-14
 21
1.5
 31
0.0
210
0.0
220
0.0
230
1.0
 40
0.9945938261
 41
3.141592653589746
 42
4.712388980384657
  0
LINE
  5
395
330
1F
100
AcDbEntity
  8
0
  6
Continuous
 62
     7
370
     0
100
AcDbLine
 10
98.1500475661
 20
244.5265030824
 30
0.0
 11
101.3840763823
 21
244.5265030824
 31
0.0
  0
ELLIPSE
  5
396
330
1F
100
AcDbEntity
  8
0
  6
Continuous
 62
     7
370
     0
100
AcDbEllipse
 10
101.3840795042
 20
243.0265030675
 30
0.0
 11
-2.842170943040401E-14
 21
1.5
 31
0.0
210
0.0
220
0.0
230
1.0
 40
0.9374827027
 41
5.711559539157834
 42
6.283185307179586
  0
LINE
  5
397
330
1F
100
AcDbEntity
  8
0
  6
Continuous
 62
     7
370
     0
100
AcDbLine
 10
37.0626068667
 20
244.5265030824
 30
0.0
 11
40.2966394082
 21
244.5265030824
 31
0.0
  0
ELLIPSE
  5
398
330
1F
100
AcDbEntity
  8
0
  6
Continuous
 62
     7
370
     0
100
AcDbEllipse
 10
37.0626076123
 20
243.0265030675
 30
0.0
 11
2.131628207280301E-14
 21
1.5
 31
0.0
210
0.0
220
0.0
230
1.0
 40
0.9374827027
 41
0.0
 42
0.5711839705888792
  0
LINE
  5
399
330
1F
100
AcDbEntity
  8
0
  6
Continuous
 62
     7
370
     0
100
AcDbLine
 10
40.2966394082
 20
187.5265030526
 30
0.0
 11
37.0626068667
 21
187.5265030526
 31
0.0
  0
ELLIPSE
  5
39A
330
1F
100
AcDbEntity
  8
0
  6
Continuous
 62
     7
370
     0
100
AcDbEllipse
 10
37.0626076123
 20
189.0265030675
 30
0.0
 11
2.131628207280301E-14
 21
1.5
 31
0.0
210
0.0
220
0.0
230
1.0
 40
0.9374827027
 41
2.569966885568101
 42
3.141592653589823
  0
LINE
  5
39B
330
1F
100
AcDbEntity
  8
0
  6
Continuous
 62
     7
370
     0
100
AcDbLine
 10
101.3840763823
 20
187.5265030526
 30
0.0
 11
98.1500475661
 21
187.5265030526
 31
0.0
  0
ELLIPSE
  5
39C
330
1F
100
AcDbEntity
  8
0
  6
Continuous
 62
     7
370
     0
100
AcDbEllipse
 10
101.3840795042
 20
189.0265030675
 30
0.0
 11
-2.842170943040401E-14
 21
1.5
 31
0.0
210
0.0
220
0.0
230
1.0
 40
0.9374827027
 41
3.141592653589773
 42
3.712776624178626
  0
LINE
  5
39D
330
1F
100
AcDbEntity
  8
0
  6
Continuous
 62
     7
370
     0
100
AcDbLine
 10
81.3764544352
 20
244.0265030675
 30
0.0
 11
80.8359934942
 21
244.0265039318
 31
0.0
  0
ARC
  5
39E
330
1F
100
AcDbEntity
  8
0
  6
Continuous
 62
     7
370
     0
100
AcDbCircle
 10
82.3359935508
 20
244.0265030675
 30
0.0
 40
1.5
100
AcDbArc
 50
90.0
 51
180.0
  0
LINE
  5
39F
330
1F
100
AcDbEntity
  8
0
  6
Continuous
 62
     7
370
     0
100
AcDbLine
 10
82.335996534
 20
245.5265032463
 30
0.0
 11
82.8735013692
 21
245.5265030675
 31
0.0
  0
LINE
  5
3A0
330
1F
100
AcDbEntity
  8
0
  6
Continuous
 62
     7
370
     0
100
AcDbLine
 10
57.6106934801
 20
244.0265039318
 30
0.0
 11
57.0702326814
 21
244.0265030675
 31
0.0
  0
LINE
  5
3A1
330
1F
100
AcDbEntity
  8
0
  6
Continuous
 62
     7
370
     0
100
AcDbLine
 10
55.5731857474
 20
245.5265030675
 30
0.0
 11
56.1106904403
 21
245.5265032463
 31
0.0
  0
ARC
  5
3A2
330
1F
100
AcDbEntity
  8
0
  6
Continuous
 62
     7
370
     0
100
AcDbCircle
 10
56.1106935658
 20
244.0265030675
 30
0.0
 40
1.500000000000007
100
AcDbArc
 50
0.0
 51
90.0
  0
LINE
  5
3A3
330
1F
100
AcDbEntity
  8
0
  6
Continuous
 62
     7
370
     0
100
AcDbLine
 10
80.8359934942
 20
239.5265022628
 30
0.0
 11
80.8359934942
 21
244.0265039318
 31
0.0
  0
LINE
  5
3A4
330
1F
100
AcDbEntity
  8
0
  6
Continuous
 62
     7
370
     0
100
AcDbLine
 10
57.6106934801
 20
239.5265022628
 30
0.0
 11
57.6106934801
 21
244.0265039318
 31
0.0
  0
LINE
  5
3A5
330
1F
100
AcDbEntity
  8
0
  6
Continuous
 62
     7
370
     0
100
AcDbLine
 10
57.6106934801
 20
190.026502531
 30
0.0
 11
57.6106934801
 21
192.5265038721
 31
0.0
  0
LINE
  5
3A6
330
1F
100
AcDbEntity
  8
0
  6
Continuous
 62
     7
370
     0
100
AcDbLine
 10
57.0702326814
 20
190.0265030675
 30
0.0
 11
57.6106934801
 21
190.026502531
 31
0.0
  0
LINE
  5
3A7
330
1F
100
AcDbEntity
  8
0
  6
Continuous
 62
     7
370
     0
100
AcDbLine
 10
80.8359934942
 20
190.026502531
 30
0.0
 11
81.3764544352
 21
190.0265030675
 31
0.0
  0
LINE
  5
3A8
330
1F
100
AcDbEntity
  8
0
  6
Continuous
 62
     7
370
     0
100
AcDbLine
 10
80.8359934942
 20
190.026502531
 30
0.0
 11
80.8359934942
 21
192.5265038721
 31
0.0
  0
ARC
  5
3A9
330
1F
100
AcDbEntity
  8
0
  6
Continuous
 62
     7
370
     0
100
AcDbCircle
 10
56.1106935658
 20
190.0265030675
 30
0.0
 40
1.500000000000007
100
AcDbArc
 50
270.0
 51
0.0
  0
LINE
  5
3AA
330
1F
100
AcDbEntity
  8
0
  6
Continuous
 62
     7
370
     0
100
AcDbLine
 10
56.1106904403
 20
188.5265032165
 30
0.0
 11
55.5731857474
 21
188.5265030675
 31
0.0
  0
LINE
  5
3AB
330
1F
100
AcDbEntity
  8
0
  6
Continuous
 62
     7
370
     0
100
AcDbLine
 10
82.8735013692
 20
188.5265030675
 30
0.0
 11
82.335996534
 21
188.5265032165
 31
0.0
  0
ARC
  5
3AC
330
1F
100
AcDbEntity
  8
0
  6
Continuous
 62
     7
370
     0
100
AcDbCircle
 10
82.3359935508
 20
190.0265030675
 30
0.0
 40
1.5
100
AcDbArc
 50
180.0
 51
270.0
  0
ELLIPSE
  5
3AD
330
1F
100
AcDbEntity
  8
0
  6
Continuous
 62
     7
370
     0
100
AcDbEllipse
 10
108.2641945243
 20
243.0265030675
 30
0.0
 11
1.535089033979517
 21
0.0
 31
0.0
210
0.0
220
0.0
230
1.0
 40
0.9771420203
 41
0.0
 42
1.570796326794897
  0
LINE
  5
3AE
330
1F
100
AcDbEntity
  8
0
  6
Continuous
 62
     7
370
     0
100
AcDbLine
 10
109.7992836491
 20
243.0265037678
 30
0.0
 11
108.5703103796
 21
243.0265037678
 31
0.0
  0
LINE
  5
3AF
330
1F
100
AcDbEntity
  8
0
  6
Continuous
 62
     7
370
     0
100
AcDbLine
 10
107.1640803472
 20
244.5265030824
 30
0.0
 11
108.2641958252
 21
244.5265030824
 31
0.0
  0
LINE
  5
3B0
330
1F
100
AcDbEntity
  8
0
  6
Continuous
 62
     7
370
     0
100
AcDbLine
 10
29.8763840453
 20
243.0265037678
 30
0.0
 11
28.6474033252
 21
243.0265037678
 31
0.0
  0
ELLIPSE
  5
3B1
330
1F
100
AcDbEntity
  8
0
  6
Continuous
 62
     7
370
     0
100
AcDbEllipse
 10
30.1824925923
 20
243.0265030675
 30
0.0
 11
1.535089033979517
 21
0.0
 31
0.0
210
0.0
220
0.0
230
1.0
 40
0.9771420203
 41
1.570796326794897
 42
3.141592653589826
  0
LINE
  5
3B2
330
1F
100
AcDbEntity
  8
0
  6
Continuous
 62
     7
370
     0
100
AcDbLine
 10
30.1824911491
 20
244.5265030824
 30
0.0
 11
31.2826066271
 21
244.5265030824
 31
0.0
  0
LINE
  5
3B3
330
1F
100
AcDbEntity
  8
0
  6
Continuous
 62
     7
370
     0
100
AcDbLine
 10
109.7992836491
 20
189.0265023671
 30
0.0
 11
109.7992836491
 21
243.0265037678
 31
0.0
  0
LINE
  5
3B4
330
1F
100
AcDbEntity
  8
0
  6
Continuous
 62
     7
370
     0
100
AcDbLine
 10
108.5703103796
 20
189.0265023671
 30
0.0
 11
109.7992836491
 21
189.0265023671
 31
0.0
  0
LINE
  5
3B5
330
1F
100
AcDbEntity
  8
0
  6
Continuous
 62
     7
370
     0
100
AcDbLine
 10
28.6474033252
 20
189.0265023671
 30
0.0
 11
29.8763840453
 21
189.0265023671
 31
0.0
  0
LINE
  5
3B6
330
1F
100
AcDbEntity
  8
0
  6
Continuous
 62
     7
370
     0
100
AcDbLine
 10
28.6474033252
 20
189.0265023671
 30
0.0
 11
28.6474033252
 21
243.0265037678
 31
0.0
  0
ELLIPSE
  5
3B7
330
1F
100
AcDbEntity
  8
0
  6
Continuous
 62
     7
370
     0
100
AcDbEllipse
 10
108.2641945243
 20
189.0265030675
 30
0.0
 11
1.535089033979517
 21
2.842170943040401E-14
 31
0.0
210
0.0
220
0.0
230
1.0
 40
0.9771420203
 41
4.712388980384685
 42
6.283185307179586
  0
LINE
  5
3B8
330
1F
100
AcDbEntity
  8
0
  6
Continuous
 62
     7
370
     0
100
AcDbLine
 10
108.2641958252
 20
187.5265030526
 30
0.0
 11
107.1640803472
 21
187.5265030526
 31
0.0
  0
ELLIPSE
  5
3B9
330
1F
100
AcDbEntity
  8
0
  6
Continuous
 62
     7
370
     0
100
AcDbEllipse
 10
30.1824925923
 20
189.0265030675
 30
0.0
 11
1.535089033979517
 21
0.0
 31
0.0
210
0.0
220
0.0
230
1.0
 40
0.9771420203
 41
3.141592653589793
 42
4.712388980384703
  0
LINE
  5
3BA
330
1F
100
AcDbEntity
  8
0
  6
Continuous
 62
     7
370
     0
100
AcDbLine
 10
31.2826066271
 20
187.5265030526
 30
0.0
 11
30.1824911491
 21
187.5265030526
 31
0.0
  0
ELLIPSE
  5
3BB
330
1F
100
AcDbEntity
  8
0
  6
Continuous
 62
     7
370
     0
100
AcDbEllipse
 10
102.4841945243
 20
243.0265030675
 30
0.0
 11
1.535089033979517
 21
0.0
 31
0.0
210
0.0
220
0.0
230
1.0
 40
0.9771420203
 41
1.351718061679605
 42
1.570796326794897
  0
LINE
  5
3BC
330
1F
100
AcDbEntity
  8
0
  6
Continuous
 62
     7
370
     0
100
AcDbLine
 10
101.3840763823
 20
244.5265030824
 30
0.0
 11
102.4841918603
 21
244.5265030824
 31
0.0
  0
ELLIPSE
  5
3BD
330
1F
100
AcDbEntity
  8
0
  6
Continuous
 62
     7
370
     0
100
AcDbEllipse
 10
35.9624925923
 20
243.0265030675
 30
0.0
 11
1.535089033979517
 21
0.0
 31
0.0
210
0.0
220
0.0
230
1.0
 40
0.9771420203
 41
1.570796326794897
 42
1.791904953599272
  0
LINE
  5
3BE
330
1F
100
AcDbEntity
  8
0
  6
Continuous
 62
     7
370
     0
100
AcDbLine
 10
35.9624913887
 20
244.5265030824
 30
0.0
 11
37.0626068667
 21
244.5265030824
 31
0.0
  0
ELLIPSE
  5
3BF
330
1F
100
AcDbEntity
  8
0
  6
Continuous
 62
     7
370
     0
100
AcDbEllipse
 10
35.9624925923
 20
189.0265030675
 30
0.0
 11
1.535089033979517
 21
0.0
 31
0.0
210
0.0
220
0.0
230
1.0
 40
0.9771420203
 41
4.493310715269564
 42
4.712388980384703
  0
LINE
  5
3C0
330
1F
100
AcDbEntity
  8
0
  6
Continuous
 62
     7
370
     0
100
AcDbLine
 10
37.0626068667
 20
187.5265030526
 30
0.0
 11
35.9624913887
 21
187.5265030526
 31
0.0
  0
ELLIPSE
  5
3C1
330
1F
100
AcDbEntity
  8
0
  6
Continuous
 62
     7
370
     0
100
AcDbEllipse
 10
102.4841945243
 20
189.0265030675
 30
0.0
 11
1.535089033979517
 21
2.842170943040401E-14
 31
0.0
210
0.0
220
0.0
230
1.0
 40
0.9771420203
 41
4.712388980384685
 42
4.933497607188897
  0
LINE
  5
3C2
330
1F
100
AcDbEntity
  8
0
  6
Continuous
 62
     7
370
     0
100
AcDbLine
 10
102.4841918603
 20
187.5265030526
 30
0.0
 11
101.3840763823
 21
187.5265030526
 31
0.0
  0
LINE
  5
3C3
330
1F
100
AcDbEntity
  8
0
  6
Continuous
 62
     7
370
     0
100
AcDbLine
 10
70.2717631117
 20
244.0265039318
 30
0.0
 11
70.0263409869
 21
244.0265039318
 31
0.0
  0
ELLIPSE
  5
3C4
330
1F
100
AcDbEntity
  8
0
  6
Continuous
 62
     7
370
     0
100
AcDbEllipse
 10
71.5548591674
 20
244.0265030675
 30
0.0
 11
1.528515606855507
 21
-2.842170943040401E-14
 31
0.0
210
0.0
220
0.0
230
1.0
 40
0.9813442488
 41
1.570796326794915
 42
3.141592653589826
  0
LINE
  5
3C5
330
1F
100
AcDbEntity
  8
0
  6
Continuous
 62
     7
370
     0
100
AcDbLine
 10
71.5548573986
 20
245.5265032463
 30
0.0
 11
71.7561124817
 21
245.5265032463
 31
0.0
  0
LINE
  5
3C6
330
1F
100
AcDbEntity
  8
0
  6
Continuous
 62
     7
370
     0
100
AcDbLine
 10
68.4203459874
 20
244.0265039318
 30
0.0
 11
68.1749238626
 21
244.0265039318
 31
0.0
  0
ELLIPSE
  5
3C7
330
1F
100
AcDbEntity
  8
0
  6
Continuous
 62
     7
370
     0
100
AcDbEllipse
 10
66.8918279492
 20
244.0265030675
 30
0.0
 11
1.528515606855507
 21
5.684341886080802E-14
 31
0.0
210
0.0
220
0.0
230
1.0
 40
0.9813442488
 41
0.0
 42
1.57079632679486
  0
LINE
  5
3C8
330
1F
100
AcDbEntity
  8
0
  6
Continuous
 62
     7
370
     0
100
AcDbLine
 10
66.6905744926
 20
245.5265032463
 30
0.0
 11
66.8918295757
 21
245.5265032463
 31
0.0
  0
LINE
  5
3C9
330
1F
100
AcDbEntity
  8
0
  6
Continuous
 62
     7
370
     0
100
AcDbLine
 10
70.0263409869
 20
190.026502531
 30
0.0
 11
70.2717631117
 21
190.026502531
 31
0.0
  0
LINE
  5
3CA
330
1F
100
AcDbEntity
  8
0
  6
Continuous
 62
     7
370
     0
100
AcDbLine
 10
70.0263409869
 20
190.026502531
 30
0.0
 11
70.0263409869
 21
192.5265038721
 31
0.0
  0
LINE
  5
3CB
330
1F
100
AcDbEntity
  8
0
  6
Continuous
 62
     7
370
     0
100
AcDbLine
 10
70.0263409869
 20
239.5265022628
 30
0.0
 11
70.0263409869
 21
244.0265039318
 31
0.0
  0
LINE
  5
3CC
330
1F
100
AcDbEntity
  8
0
  6
Continuous
 62
     7
370
     0
100
AcDbLine
 10
68.4203459874
 20
190.026502531
 30
0.0
 11
68.4203459874
 21
192.5265038721
 31
0.0
  0
LINE
  5
3CD
330
1F
100
AcDbEntity
  8
0
  6
Continuous
 62
     7
370
     0
100
AcDbLine
 10
68.4203459874
 20
239.5265022628
 30
0.0
 11
68.4203459874
 21
244.0265039318
 31
0.0
  0
LINE
  5
3CE
330
1F
100
AcDbEntity
  8
0
  6
Continuous
 62
     7
370
     0
100
AcDbLine
 10
68.1749238626
 20
190.026502531
 30
0.0
 11
68.4203459874
 21
190.026502531
 31
0.0
  0
ELLIPSE
  5
3CF
330
1F
100
AcDbEntity
  8
0
  6
Continuous
 62
     7
370
     0
100
AcDbEllipse
 10
66.8918279492
 20
190.0265030675
 30
0.0
 11
1.528515606855507
 21
5.684341886080802E-14
 31
0.0
210
0.0
220
0.0
230
1.0
 40
0.9813442488
 41
4.712388980384667
 42
6.283185307179586
  0
LINE
  5
3D0
330
1F
100
AcDbEntity
  8
0
  6
Continuous
 62
     7
370
     0
100
AcDbLine
 10
66.8918295757
 20
188.5265032165
 30
0.0
 11
66.6905744926
 21
188.5265032165
 31
0.0
  0
ELLIPSE
  5
3D1
330
1F
100
AcDbEntity
  8
0
  6
Continuous
 62
     7
370
     0
100
AcDbEllipse
 10
71.5548591674
 20
190.0265030675
 30
0.0
 11
1.528515606855507
 21
-2.842170943040401E-14
 31
0.0
210
0.0
220
0.0
230
1.0
 40
0.9813442488
 41
3.141592653589826
 42
4.712388980384722
  0
LINE
  5
3D2
330
1F
100
AcDbEntity
  8
0
  6
Continuous
 62
     7
370
     0
100
AcDbLine
 10
71.7561124817
 20
188.5265032165
 30
0.0
 11
71.5548573986
 21
188.5265032165
 31
0.0
  0
LINE
  5
3D3
330
1F
100
AcDbEntity
  8
0
  6
Continuous
 62
     7
370
     0
100
AcDbLine
 10
59.4130932347
 20
244.0265039318
 30
0.0
 11
59.2264114872
 21
244.0265039318
 31
0.0
  0
ELLIPSE
  5
3D4
330
1F
100
AcDbEntity
  8
0
  6
Continuous
 62
     7
370
     0
100
AcDbEllipse
 10
60.7480622686
 20
244.0265030675
 30
0.0
 11
1.521648710311752
 21
-5.684341886080802E-14
 31
0.0
210
0.0
220
0.0
230
1.0
 40
0.9857728593
 41
1.570796326794934
 42
3.141592653589845
  0
LINE
  5
3D5
330
1F
100
AcDbEntity
  8
0
  6
Continuous
 62
     7
370
     0
100
AcDbLine
 10
60.7480659143
 20
245.5265032463
 30
0.0
 11
60.9049825922
 21
245.5265032463
 31
0.0
  0
ELLIPSE
  5
3D6
330
1F
100
AcDbEntity
  8
0
  6
Continuous
 62
     7
370
     0
100
AcDbEllipse
 10
77.698624848
 20
244.0265030675
 30
0.0
 11
1.521648710311752
 21
8.526512829121204E-14
 31
0.0
210
0.0
220
0.0
230
1.0
 40
0.9857728593
 41
0.0
 42
1.570796326794842
  0
LINE
  5
3D7
330
1F
100
AcDbEntity
  8
0
  6
Continuous
 62
     7
370
     0
100
AcDbLine
 10
79.2202754871
 20
244.0265039318
 30
0.0
 11
79.0335937396
 21
244.0265039318
 31
0.0
  0
LINE
  5
3D8
330
1F
100
AcDbEntity
  8
0
  6
Continuous
 62
     7
370
     0
100
AcDbLine
 10
77.5417043821
 20
245.5265032463
 30
0.0
 11
77.6986285106
 21
245.5265032463
 31
0.0
  0
LINE
  5
3D9
330
1F
100
AcDbEntity
  8
0
  6
Continuous
 62
     7
370
     0
100
AcDbLine
 10
79.2202754871
 20
190.026502531
 30
0.0
 11
79.2202754871
 21
192.5265038721
 31
0.0
  0
LINE
  5
3DA
330
1F
100
AcDbEntity
  8
0
  6
Continuous
 62
     7
370
     0
100
AcDbLine
 10
79.2202754871
 20
239.5265022628
 30
0.0
 11
79.2202754871
 21
244.0265039318
 31
0.0
  0
LINE
  5
3DB
330
1F
100
AcDbEntity
  8
0
  6
Continuous
 62
     7
370
     0
100
AcDbLine
 10
79.0335937396
 20
190.026502531
 30
0.0
 11
79.2202754871
 21
190.026502531
 31
0.0
  0
LINE
  5
3DC
330
1F
100
AcDbEntity
  8
0
  6
Continuous
 62
     7
370
     0
100
AcDbLine
 10
59.2264114872
 20
190.026502531
 30
0.0
 11
59.4130932347
 21
190.026502531
 31
0.0
  0
LINE
  5
3DD
330
1F
100
AcDbEntity
  8
0
  6
Continuous
 62
     7
370
     0
100
AcDbLine
 10
59.2264114872
 20
190.026502531
 30
0.0
 11
59.2264114872
 21
192.5265038721
 31
0.0
  0
LINE
  5
3DE
330
1F
100
AcDbEntity
  8
0
  6
Continuous
 62
     7
370
     0
100
AcDbLine
 10
59.2264114872
 20
239.5265022628
 30
0.0
 11
59.2264114872
 21
244.0265039318
 31
0.0
  0
ELLIPSE
  5
3DF
330
1F
100
AcDbEntity
  8
0
  6
Continuous
 62
     7
370
     0
100
AcDbEllipse
 10
60.7480622686
 20
190.0265030675
 30
0.0
 11
1.521648710311752
 21
-5.684341886080802E-14
 31
0.0
210
0.0
220
0.0
230
1.0
 40
0.9857728593
 41
3.141592653589845
 42
4.71238898038474
  0
LINE
  5
3E0
330
1F
100
AcDbEntity
  8
0
  6
Continuous
 62
     7
370
     0
100
AcDbLine
 10
60.9049825922
 20
188.5265032165
 30
0.0
 11
60.7480659143
 21
188.5265032165
 31
0.0
  0
ELLIPSE
  5
3E1
330
1F
100
AcDbEntity
  8
0
  6
Continuous
 62
     7
370
     0
100
AcDbEllipse
 10
77.698624848
 20
190.0265030675
 30
0.0
 11
1.521648710311752
 21
5.684341886080802E-14
 31
0.0
210
0.0
220
0.0
230
1.0
 40
0.9857728593
 41
4.712388980384667
 42
6.283185307179586
  0
LINE
  5
3E2
330
1F
100
AcDbEntity
  8
0
  6
Continuous
 62
     7
370
     0
100
AcDbLine
 10
77.6986285106
 20
188.5265032165
 30
0.0
 11
77.5417043821
 21
188.5265032165
 31
0.0
  0
LINE
  5
3E3
330
1F
100
AcDbEntity
  8
0
  6
Continuous
 62
     7
370
     0
100
AcDbLine
 10
49.9737068073
 20
244.0265039318
 30
0.0
 11
49.5104371563
 21
244.0265039318
 31
0.0
  0
ELLIPSE
  5
3E4
330
1F
100
AcDbEntity
  8
0
  6
Continuous
 62
     7
370
     0
100
AcDbEllipse
 10
51.0543672242
 20
244.0265030675
 30
0.0
 11
1.543933665887643
 21
0.0
 31
0.0
210
0.0
220
0.0
230
1.0
 40
0.9715443307
 41
1.570796326794897
 42
3.141592653589793
  0
LINE
  5
3E5
330
1F
100
AcDbEntity
  8
0
  6
Continuous
 62
     7
370
     0
100
AcDbLine
 10
51.0543688194
 20
245.5265032463
 30
0.0
 11
51.4346911565
 21
245.5265032463
 31
0.0
  0
ELLIPSE
  5
3E6
330
1F
100
AcDbEntity
  8
0
  6
Continuous
 62
     7
370
     0
100
AcDbEllipse
 10
87.3923198924
 20
244.0265030675
 30
0.0
 11
1.54393366588765
 21
2.842170943040401E-14
 31
0.0
210
0.0
220
0.0
230
1.0
 40
0.9715443307
 41
0.0
 42
1.570796326794879
  0
LINE
  5
3E7
330
1F
100
AcDbEntity
  8
0
  6
Continuous
 62
     7
370
     0
100
AcDbLine
 10
88.9362572686
 20
244.0265039318
 30
0.0
 11
88.472980167
 21
244.0265039318
 31
0.0
  0
LINE
  5
3E8
330
1F
100
AcDbEntity
  8
0
  6
Continuous
 62
     7
370
     0
100
AcDbLine
 10
87.0119958178
 20
245.5265032463
 30
0.0
 11
87.3923181549
 21
245.5265032463
 31
0.0
  0
LINE
  5
3E9
330
1F
100
AcDbEntity
  8
0
  6
Continuous
 62
     7
370
     0
100
AcDbLine
 10
88.9362572686
 20
242.6580259912
 30
0.0
 11
88.9362572686
 21
244.0265039318
 31
0.0
  0
LINE
  5
3EA
330
1F
100
AcDbEntity
  8
0
  6
Continuous
 62
     7
370
     0
100
AcDbLine
 10
49.5104371563
 20
242.6580259912
 30
0.0
 11
49.5104371563
 21
244.0265039318
 31
0.0
  0
ELLIPSE
  5
3EB
330
1F
100
AcDbEntity
  8
0
  6
Continuous
 62
     7
370
     0
100
AcDbEllipse
 10
87.3923198924
 20
190.0265030675
 30
0.0
 11
1.54393366588765
 21
2.842170943040401E-14
 31
0.0
210
0.0
220
0.0
230
1.0
 40
0.9715443307
 41
4.712388980384685
 42
5.921869060588779
  0
LINE
  5
3EC
330
1F
100
AcDbEntity
  8
0
  6
Continuous
 62
     7
370
     0
100
AcDbLine
 10
87.3923181549
 20
188.5265032165
 30
0.0
 11
87.0119958178
 21
188.5265032165
 31
0.0
  0
ELLIPSE
  5
3ED
330
1F
100
AcDbEntity
  8
0
  6
Continuous
 62
     7
370
     0
100
AcDbEllipse
 10
51.0543672242
 20
190.0265030675
 30
0.0
 11
1.543933665887643
 21
0.0
 31
0.0
210
0.0
220
0.0
230
1.0
 40
0.9715443307
 41
3.502908900151295
 42
4.712388980384703
  0
LINE
  5
3EE
330
1F
100
AcDbEntity
  8
0
  6
Continuous
 62
     7
370
     0
100
AcDbLine
 10
51.4346911565
 20
188.5265032165
 30
0.0
 11
51.0543688194
 21
188.5265032165
 31
0.0
  0
LINE
  5
3EF
330
1F
100
AcDbEntity
  8
0
  6
Continuous
 62
     7
370
     0
100
AcDbLine
 10
102.8191166804
 20
243.0265030675
 30
0.0
 11
101.0530718195
 21
243.0265030675
 31
0.0
  0
LINE
  5
3F0
330
1F
100
AcDbEntity
  8
0
  6
Continuous
 62
     7
370
     0
100
AcDbLine
 10
37.3936153683
 20
243.0265030675
 30
0.0
 11
35.6275704362
 21
243.0265030675
 31
0.0
  0
LINE
  5
3F1
330
1F
100
AcDbEntity
  8
0
  6
Continuous
 62
     7
370
     0
100
AcDbLine
 10
35.6275704362
 20
189.0265030675
 30
0.0
 11
37.3936153683
 21
189.0265030675
 31
0.0
  0
LINE
  5
3F2
330
1F
100
AcDbEntity
  8
0
  6
Continuous
 62
     7
370
     0
100
AcDbLine
 10
101.0530717483
 20
189.0265030675
 30
0.0
 11
102.8191166804
 21
189.0265030675
 31
0.0
  0
LINE
  5
3F3
330
1F
100
AcDbEntity
  8
0
  6
Continuous
 62
     7
370
     0
100
AcDbLine
 10
91.0821699438
 20
241.6265030675
 30
0.0
 11
88.4828056583
 21
241.6265030675
 31
0.0
  0
LINE
  5
3F4
330
1F
100
AcDbEntity
  8
0
  6
Continuous
 62
     7
370
     0
100
AcDbLine
 10
49.9638814583
 20
241.6265030675
 30
0.0
 11
47.3645171727
 21
241.6265030675
 31
0.0
  0
LINE
  5
3F5
330
1F
100
AcDbEntity
  8
0
  6
Continuous
 62
     7
370
     0
100
AcDbLine
 10
88.4828056583
 20
190.4265030675
 30
0.0
 11
91.0821699438
 21
190.4265030675
 31
0.0
  0
LINE
  5
3F6
330
1F
100
AcDbEntity
  8
0
  6
Continuous
 62
     7
370
     0
100
AcDbLine
 10
47.3645171727
 20
190.4265030675
 30
0.0
 11
49.9638814583
 21
190.4265030675
 31
0.0
  0
LINE
  5
3F7
330
1F
100
AcDbEntity
  8
0
  6
Continuous
 62
     7
370
     0
100
AcDbLine
 10
95.2730729238
 20
241.6265024208
 30
0.0
 11
91.0821699438
 21
241.6265030675
 31
0.0
  0
LINE
  5
3F8
330
1F
100
AcDbEntity
  8
0
  6
Continuous
 62
     7
370
     0
100
AcDbLine
 10
47.3645171727
 20
241.6265030675
 30
0.0
 11
43.1736140505
 21
241.6265024208
 31
0.0
  0
LINE
  5
3F9
330
1F
100
AcDbEntity
  8
0
  6
Continuous
 62
     7
370
     0
100
AcDbLine
 10
91.0821699438
 20
190.4265030675
 30
0.0
 11
95.2730729238
 21
190.4265037142
 31
0.0
  0
LINE
  5
3FA
330
1F
100
AcDbEntity
  8
0
  6
Continuous
 62
     7
370
     0
100
AcDbLine
 10
43.1736140505
 20
190.4265037142
 30
0.0
 11
47.3645171727
 21
190.4265030675
 31
0.0
  0
LINE
  5
3FB
330
1F
100
AcDbEntity
  8
0
  6
Continuous
 62
     7
370
     0
100
AcDbLine
 10
97.0391166804
 20
243.0265030675
 30
0.0
 11
95.2730717483
 21
243.0265030675
 31
0.0
  0
LINE
  5
3FC
330
1F
100
AcDbEntity
  8
0
  6
Continuous
 62
     7
370
     0
100
AcDbLine
 10
43.1736153523
 20
243.0265030675
 30
0.0
 11
41.4075704362
 21
243.0265030675
 31
0.0
  0
LINE
  5
3FD
330
1F
100
AcDbEntity
  8
0
  6
Continuous
 62
     7
370
     0
100
AcDbLine
 10
41.4075704362
 20
189.0265030675
 30
0.0
 11
43.1736153683
 21
189.0265030675
 31
0.0
  0
LINE
  5
3FE
330
1F
100
AcDbEntity
  8
0
  6
Continuous
 62
     7
370
     0
100
AcDbLine
 10
95.2730717483
 20
189.0265030675
 30
0.0
 11
97.0391166804
 21
189.0265030675
 31
0.0
  0
LINE
  5
3FF
330
1F
100
AcDbEntity
  8
0
  6
Continuous
 62
     7
370
     0
100
AcDbLine
 10
101.0530718195
 20
243.0265030675
 30
0.0
 11
97.0391166804
 21
243.0265030675
 31
0.0
  0
LINE
  5
400
330
1F
100
AcDbEntity
  8
0
  6
Continuous
 62
     7
370
     0
100
AcDbLine
 10
41.4075704362
 20
243.0265030675
 30
0.0
 11
37.3936153683
 21
243.0265030675
 31
0.0
  0
LINE
  5
401
330
1F
100
AcDbEntity
  8
0
  6
Continuous
 62
     7
370
     0
100
AcDbLine
 10
37.3936153683
 20
189.0265030675
 30
0.0
 11
41.4075704362
 21
189.0265030675
 31
0.0
  0
LINE
  5
402
330
1F
100
AcDbEntity
  8
0
  6
Continuous
 62
     7
370
     0
100
AcDbLine
 10
97.0391166804
 20
189.0265030675
 30
0.0
 11
101.0530717483
 21
189.0265030675
 31
0.0
  0
LINE
  5
403
330
1F
100
AcDbEntity
  8
0
  6
Continuous
 62
     7
370
     0
100
AcDbLine
 10
49.9055190936
 20
190.026502531
 30
0.0
 11
49.9737068073
 21
190.026502531
 31
0.0
  0
LINE
  5
404
330
1F
100
AcDbEntity
  8
0
  6
Continuous
 62
     7
370
     0
100
AcDbLine
 10
88.472980167
 20
190.026502531
 30
0.0
 11
88.5411678807
 21
190.026502531
 31
0.0
  0
DIMENSION
  5
405
330
1F
100
AcDbEntity
  8
0
  6
Continuous
 62
     7
370
     0
100
AcDbDimension
  2
*D13
 10
89.2233435583
 20
261.4756590016
 30
0.0
 11
69.2233435583
 21
261.4756590016
 31
0.0
 70
   160
 71
     1
 42
40.0
  3
SLDDIMSTYLE0
100
AcDbAlignedDimension
 13
49.2233435583
 23
216.0264980675
 33
0.0
 14
89.2233435583
 24
216.0264980675
 34
0.0
100
AcDbRotatedDimension
1001
ACAD
1000
DSTYLE
1002
{
1070
    77
1070
     3
1070
   143
1040
0.0393700787
1070
    41
1040
3.0
1070
    44
1040
1.0
1070
    42
1040
1.0
1070
   147
1040
1.524
1070
    73
1070
     0
1070
    74
1070
     0
1070
   140
1040
3.5
1070
   284
1070
    12
1070
    78
1070
    12
1002
}
  0
DIMENSION
  5
418
330
1F
100
AcDbEntity
  8
0
  6
Continuous
 62
     7
370
     0
100
AcDbDimension
  2
*D14
 10
104.2233435583
 20
269.9504986669
 30
0.0
 11
69.2233435583
 21
269.9504986669
 31
0.0
 70
   160
 71
     1
 42
70.0
  3
SLDDIMSTYLE0
100
AcDbAlignedDimension
 13
34.2233435583
 23
237.5264980675
 33
0.0
 14
104.2233435583
 24
237.5264980675
 34
0.0
100
AcDbRotatedDimension
1001
ACAD
1000
DSTYLE
1002
{
1070
    77
1070
     3
1070
   143
1040
0.0393700787
1070
    41
1040
3.0
1070
    44
1040
1.0
1070
    42
1040
1.0
1070
   147
1040
1.524
1070
    73
1070
     0
1070
    74
1070
     0
1070
   140
1040
3.5
1070
   284
1070
    12
1070
    78
1070
    12
1002
}
  0
DIMENSION
  5
42B
330
1F
100
AcDbEntity
  8
0
  6
Continuous
 62
     7
370
     0
100
AcDbDimension
  2
*D15
 10
130.0330900109
 20
237.5264980675
 30
0.0
 11
130.0330900109
 21
216.0265030675
 31
0.0
 70
   160
 71
     1
 42
42.99999
  3
SLDDIMSTYLE0
100
AcDbAlignedDimension
 13
104.2233435583
 23
194.5265080675
 33
0.0
 14
104.2233435583
 24
237.5264980675
 34
0.0
 50
90.0
100
AcDbRotatedDimension
1001
ACAD
1000
DSTYLE
1002
{
1070
    77
1070
     3
1070
   143
1040
0.0393700787
1070
    41
1040
3.0
1070
    44
1040
1.0
1070
    42
1040
1.0
1070
   147
1040
1.524
1070
    73
1070
     0
1070
    74
1070
     0
1070
   140
1040
3.5
1070
   284
1070
    12
1070
    78
1070
    12
1002
}
  0
DIMENSION
  5
43F
330
1F
100
AcDbEntity
  8
0
  6
Continuous
 62
     7
370
     0
100
AcDbDimension
  2
*D16
 10
109.7992835583
 20
169.9636121035
 30
0.0
 11
69.2233435583
 21
169.9636121035
 31
0.0
 70
   160
  1
81.1
 71
     1
 42
81.15188
  3
SLDDIMSTYLE0
100
AcDbAlignedDimension
 13
28.6474035583
 23
189.0265030675
 33
0.0
 14
109.7992835583
 24
189.0265030675
 34
0.0
100
AcDbRotatedDimension
1001
ACAD
1000
DSTYLE
1002
{
1070
    77
1070
     3
1070
   143
1040
0.0393700787
1070
    41
1040
3.0
1070
    44
1040
1.0
1070
    42
1040
1.0
1070
   147
1040
1.524
1070
    73
1070
     0
1070
    74
1070
     0
1070
   140
1040
3.5
1070
   284
1070
    12
1070
    78
1070
    12
1002
}
  0
DIMENSION
  5
452
330
1F
100
AcDbEntity
  8
0
  6
Continuous
 62
     7
370
     0
100
AcDbDimension
  2
*D17
 10
140.2285175448
 20
187.5265030675
 30
0.0
 11
140.2285175448
 21
216.0265030675
 31
0.0
 70
   160
 71
     1
 42
57.0
  3
SLDDIMSTYLE0
100
AcDbAlignedDimension
 13
107.1640795042
 23
244.5265030675
 33
0.0
 14
107.1640795042
 24
187.5265030675
 34
0.0
 50
90.0
100
AcDbRotatedDimension
1001
ACAD
1000
DSTYLE
1002
{
1070
    77
1070
     3
1070
   143
1040
0.0393700787
1070
    41
1040
3.0
1070
    44
1040
1.0
1070
    42
1040
1.0
1070
   147
1040
1.524
1070
    73
1070
     0
1070
    74
1070
     0
1070
   140
1040
3.5
1070
   284
1070
    12
1070
    78
1070
    12
1002
}
  0
MTEXT
  5
466
330
1F
100
AcDbEntity
  8
0
  6
Continuous
 62
     7
370
     0
100
AcDbMText
 10
128.4446018496
 20
253.4194130251
 30
0.0
 40
3.5
 41
0.0
 71
     1
 72
     1
  1
2-M5*0.8 深10
  7
SLDTEXTSTYLE0
 73
     1
 44
1.0
  0
LEADER
  5
467
330
1F
100
AcDbEntity
  8
0
  6
Continuous
 62
     7
370
     0
100
AcDbLeader
  3
SLDDIMSTYLE1
 76
     3
 10
90.9028515824
 20
217.2871537687
 30
0.0
 10
127.9434377273
 20
249.3461890499
 30
0.0
 10
154.9225631498
 20
249.3461890499
 30
0.0
  0
ENDSEC
  0
SECTION
  2
OBJECTS
  0
DICTIONARY
  5
C
330
0
100
AcDbDictionary
281
     1
  3
ACAD_GROUP
350
D
  3
ACAD_LAYOUT
350
1A
  3
ACAD_MLINESTYLE
350
17
  3
ACAD_PLOTSETTINGS
350
19
  3
ACAD_PLOTSTYLENAME
350
E
  0
DICTIONARY
  5
D
102
{ACAD_REACTORS
330
C
102
}
330
C
100
AcDbDictionary
281
     1
  0
DICTIONARY
  5
1A
102
{ACAD_REACTORS
330
C
102
}
330
C
100
AcDbDictionary
281
     1
  3
Layout1
350
1E
  3
Layout2
350
26
  3
Model
350
22
  0
DICTIONARY
  5
17
102
{ACAD_REACTORS
330
C
102
}
330
C
100
AcDbDictionary
281
     1
  3
Standard
350
18
  0
DICTIONARY
  5
19
102
{ACAD_REACTORS
330
C
102
}
330
C
100
AcDbDictionary
281
     1
  0
ACDBDICTIONARYWDFLT
  5
E
102
{ACAD_REACTORS
330
C
102
}
330
C
100
AcDbDictionary
281
     1
  3
Normal
350
F
100
AcDbDictionaryWithDefault
340
F
  0
LAYOUT
  5
1E
102
{ACAD_REACTORS
330
1A
102
}
330
1A
100
AcDbPlotSettings
  1

  2

  4

  6

 40
0.0
 41
0.0
 42
0.0
 43
0.0
 44
0.0
 45
0.0
 46
0.0
 47
0.0
 48
0.0
 49
0.0
140
0.0
141
0.0
142
1.0
143
1.0
 70
   688
 72
     0
 73
     0
 74
     5
  7

 75
    16
147
1.0
148
0.0
149
0.0
100
AcDbLayout
  1
Layout1
 70
     1
 71
     1
 10
0.0
 20
0.0
 11
0.0
 21
0.0
 12
0.0
 22
0.0
 32
0.0
 14
0.0
 24
0.0
 34
0.0
 15
0.0
 25
0.0
 35
0.0
146
0.0
 13
0.0
 23
0.0
 33
0.0
 16
1.0
 26
0.0
 36
0.0
 17
0.0
 27
1.0
 37
0.0
 76
     0
330
1B
  0
LAYOUT
  5
26
102
{ACAD_REACTORS
330
1A
102
}
330
1A
100
AcDbPlotSettings
  1

  2

  4

  6

 40
0.0
 41
0.0
 42
0.0
 43
0.0
 44
0.0
 45
0.0
 46
0.0
 47
0.0
 48
0.0
 49
0.0
140
0.0
141
0.0
142
1.0
143
1.0
 70
   688
 72
     0
 73
     0
 74
     5
  7

 75
    16
147
1.0
148
0.0
149
0.0
100
AcDbLayout
  1
Layout2
 70
     1
 71
     2
 10
0.0
 20
0.0
 11
0.0
 21
0.0
 12
0.0
 22
0.0
 32
0.0
 14
0.0
 24
0.0
 34
0.0
 15
0.0
 25
0.0
 35
0.0
146
0.0
 13
0.0
 23
0.0
 33
0.0
 16
1.0
 26
0.0
 36
0.0
 17
0.0
 27
1.0
 37
0.0
 76
     0
330
23
  0
LAYOUT
  5
22
102
{ACAD_REACTORS
330
1A
102
}
330
1A
100
AcDbPlotSettings
  1

  2

  4

  6

 40
0.0
 41
0.0
 42
0.0
 43
0.0
 44
0.0
 45
0.0
 46
0.0
 47
0.0
 48
0.0
 49
0.0
140
0.0
141
0.0
142
1.0
143
1.0
 70
  1712
 72
     0
 73
     0
 74
     0
  7

 75
     0
147
1.0
148
0.0
149
0.0
100
AcDbLayout
  1
Model
 70
     1
 71
     0
 10
0.0
 20
0.0
 11
0.0
 21
0.0
 12
0.0
 22
0.0
 32
0.0
 14
0.0
 24
0.0
 34
0.0
 15
210.0
 25
297.0
 35
0.0
146
0.0
 13
0.0
 23
0.0
 33
0.0
 16
1.0
 26
0.0
 36
0.0
 17
0.0
 27
1.0
 37
0.0
 76
     0
330
1F
  0
MLINESTYLE
  5
18
102
{ACAD_REACTORS
330
17
102
}
330
17
100
AcDbMlineStyle
  2
Standard
 70
     0
  3

 62
   256
 51
90.0
 52
90.0
 71
     2
 49
0.5
 62
   256
  6
BYLAYER
 49
-0.5
 62
   256
  6
BYLAYER
  0
ACDBPLACEHOLDER
  5
F
102
{ACAD_REACTORS
330
E
102
}
330
E
  0
ENDSEC
  0
EOF
