  0
SECTION
  2
HEADER
  9
$ACADVER
  1
AC1015
  9
$ACADMAINTVER
 70
     6
  9
$DWGCODEPAGE
  3
DOS932
  9
$INSBASE
 10
0.0
 20
0.0
 30
0.0
  9
$EXTMIN
 10
0.0
 20
0.0
 30
0.0
  9
$EXTMAX
 10
210.0
 20
297.0
 30
0.0
  9
$LIMMIN
 10
0.0
 20
0.0
  9
$LIMMAX
 10
210.0
 20
297.0
  9
$ORTHOMODE
 70
     0
  9
$REGENMODE
 70
     1
  9
$FILLMODE
 70
     1
  9
$QTEXTMODE
 70
     0
  9
$MIRRTEXT
 70
     1
  9
$LTSCALE
 40
1.0
  9
$ATTMODE
 70
     1
  9
$TEXTSIZE
 40
3.5
  9
$TRACEWID
 40
1.0
  9
$TEXTSTYLE
  7
Standard
  9
$CLAYER
  8
0
  9
$CELTYPE
  6
ByLayer
  9
$CECOLOR
 62
   256
  9
$CELTSCALE
 40
1.0
  9
$DISPSILH
 70
     0
  9
$DIMSCALE
 40
1.0
  9
$DIMASZ
 40
3.0
  9
$DIMEXO
 40
1.0
  9
$DIMDLI
 40
3.75
  9
$DIMRND
 40
0.0
  9
$DIMDLE
 40
0.0
  9
$DIMEXE
 40
1.0
  9
$DIMTP
 40
0.0
  9
$DIMTM
 40
0.0
  9
$DIMTXT
 40
3.5
  9
$DIMCEN
 40
2.5
  9
$DIMTSZ
 40
0.0
  9
$DIMTOL
 70
     0
  9
$DIMLIM
 70
     0
  9
$DIMTIH
 70
     1
  9
$DIMTOH
 70
     1
  9
$DIMSE1
 70
     0
  9
$DIMSE2
 70
     0
  9
$DIMTAD
 70
     1
  9
$DIMZIN
 70
     0
  9
$DIMBLK
  1

  9
$DIMASO
 70
     1
  9
$DIMSHO
 70
     1
  9
$DIMPOST
  1

  9
$DIMAPOST
  1

  9
$DIMALT
 70
     0
  9
$DIMALTD
 70
     3
  9
$DIMALTF
 40
0.0393700787
  9
$DIMLFAC
 40
1.0
  9
$DIMTOFL
 70
     1
  9
$DIMTVP
 40
0.0
  9
$DIMTIX
 70
     0
  9
$DIMSOXD
 70
     0
  9
$DIMSAH
 70
     0
  9
$DIMBLK1
  1

  9
$DIMBLK2
  1

  9
$DIMSTYLE
  2
ISO-25
  9
$DIMCLRD
 70
     0
  9
$DIMCLRE
 70
     0
  9
$DIMCLRT
 70
     0
  9
$DIMTFAC
 40
1.0
  9
$DIMGAP
 40
1.524
  9
$DIMJUST
 70
     0
  9
$DIMSD1
 70
     0
  9
$DIMSD2
 70
     0
  9
$DIMTOLJ
 70
     0
  9
$DIMTZIN
 70
     0
  9
$DIMALTZ
 70
     0
  9
$DIMALTTZ
 70
     0
  9
$DIMUPT
 70
     0
  9
$DIMDEC
 70
     1
  9
$DIMTDEC
 70
     3
  9
$DIMALTU
 70
     2
  9
$DIMALTTD
 70
     3
  9
$DIMTXSTY
  7
Standard
  9
$DIMAUNIT
 70
     0
  9
$DIMADEC
 70
     2
  9
$DIMALTRND
 40
0.0
  9
$DIMAZIN
 70
     0
  9
$DIMDSEP
 70
    44
  9
$DIMATFIT
 70
     3
  9
$DIMFRAC
 70
     0
  9
$DIMLDRBLK
  1

  9
$DIMLUNIT
 70
     2
  9
$DIMLWD
 70
    -2
  9
$DIMLWE
 70
    -2
  9
$DIMTMOVE
 70
     0
  9
$LUNITS
 70
     2
  9
$LUPREC
 70
     1
  9
$SKETCHINC
 40
1.0
  9
$FILLETRAD
 40
10.0
  9
$AUNITS
 70
     0
  9
$AUPREC
 70
     2
  9
$MENU
  1
.
  9
$ELEVATION
 40
0.0
  9
$PELEVATION
 40
0.0
  9
$THICKNESS
 40
0.0
  9
$LIMCHECK
 70
     0
  9
$CHAMFERA
 40
0.0
  9
$CHAMFERB
 40
0.0
  9
$CHAMFERC
 40
0.0
  9
$CHAMFERD
 40
0.0
  9
$SKPOLY
 70
     0
  9
$TDCREATE
 40
2460161.393534525
  9
$TDUCREATE
 40
2460161.018534525
  9
$TDUPDATE
 40
2460161.393538264
  9
$TDUUPDATE
 40
2460161.018538264
  9
$TDINDWG
 40
0.0000000116
  9
$TDUSRTIMER
 40
0.0000000116
  9
$USRTIMER
 70
     1
  9
$ANGBASE
 50
0.0
  9
$ANGDIR
 70
     0
  9
$PDMODE
 70
     0
  9
$PDSIZE
 40
-1.0
  9
$PLINEWID
 40
0.0
  9
$SPLFRAME
 70
     0
  9
$SPLINETYPE
 70
     6
  9
$SPLINESEGS
 70
     8
  9
$HANDSEED
  5
479
  9
$SURFTAB1
 70
     6
  9
$SURFTAB2
 70
     6
  9
$SURFTYPE
 70
     6
  9
$SURFU
 70
     6
  9
$SURFV
 70
     6
  9
$UCSBASE
  2

  9
$UCSNAME
  2

  9
$UCSORG
 10
0.0
 20
0.0
 30
0.0
  9
$UCSXDIR
 10
1.0
 20
0.0
 30
0.0
  9
$UCSYDIR
 10
0.0
 20
1.0
 30
0.0
  9
$UCSORTHOREF
  2

  9
$UCSORTHOVIEW
 70
     0
  9
$UCSORGTOP
 10
0.0
 20
0.0
 30
0.0
  9
$UCSORGBOTTOM
 10
0.0
 20
0.0
 30
0.0
  9
$UCSORGLEFT
 10
0.0
 20
0.0
 30
0.0
  9
$UCSORGRIGHT
 10
0.0
 20
0.0
 30
0.0
  9
$UCSORGFRONT
 10
0.0
 20
0.0
 30
0.0
  9
$UCSORGBACK
 10
0.0
 20
0.0
 30
0.0
  9
$PUCSBASE
  2

  9
$PUCSNAME
  2

  9
$PUCSORG
 10
0.0
 20
0.0
 30
0.0
  9
$PUCSXDIR
 10
1.0
 20
0.0
 30
0.0
  9
$PUCSYDIR
 10
0.0
 20
1.0
 30
0.0
  9
$PUCSORTHOREF
  2

  9
$PUCSORTHOVIEW
 70
     0
  9
$PUCSORGTOP
 10
0.0
 20
0.0
 30
0.0
  9
$PUCSORGBOTTOM
 10
0.0
 20
0.0
 30
0.0
  9
$PUCSORGLEFT
 10
0.0
 20
0.0
 30
0.0
  9
$PUCSORGRIGHT
 10
0.0
 20
0.0
 30
0.0
  9
$PUCSORGFRONT
 10
0.0
 20
0.0
 30
0.0
  9
$PUCSORGBACK
 10
0.0
 20
0.0
 30
0.0
  9
$USERI1
 70
     0
  9
$USERI2
 70
     0
  9
$USERI3
 70
     0
  9
$USERI4
 70
     0
  9
$USERI5
 70
     0
  9
$USERR1
 40
0.0
  9
$USERR2
 40
0.0
  9
$USERR3
 40
0.0
  9
$USERR4
 40
0.0
  9
$USERR5
 40
0.0
  9
$WORLDVIEW
 70
     1
  9
$SHADEDGE
 70
     3
  9
$SHADEDIF
 70
    70
  9
$TILEMODE
 70
     1
  9
$MAXACTVP
 70
    64
  9
$PINSBASE
 10
0.0
 20
0.0
 30
0.0
  9
$PLIMCHECK
 70
     0
  9
$PEXTMIN
 10
1.0000000000E+20
 20
1.0000000000E+20
 30
1.0000000000E+20
  9
$PEXTMAX
 10
-1.0000000000E+20
 20
-1.0000000000E+20
 30
-1.0000000000E+20
  9
$PLIMMIN
 10
0.0
 20
0.0
  9
$PLIMMAX
 10
420.0
 20
297.0
  9
$UNITMODE
 70
     0
  9
$VISRETAIN
 70
     1
  9
$PLINEGEN
 70
     0
  9
$PSLTSCALE
 70
     1
  9
$TREEDEPTH
 70
  3020
  9
$CMLSTYLE
  2
Standard
  9
$CMLJUST
 70
     0
  9
$CMLSCALE
 40
20.0
  9
$PROXYGRAPHICS
 70
     1
  9
$MEASUREMENT
 70
     1
  9
$CELWEIGHT
370
    -1
  9
$ENDCAPS
280
     0
  9
$JOINSTYLE
280
     0
  9
$LWDISPLAY
290
     1
  9
$INSUNITS
 70
     4
  9
$HYPERLINKBASE
  1

  9
$STYLESHEET
  1

  9
$XEDIT
290
     1
  9
$CEPSNTYPE
380
     0
  9
$PSTYLEMODE
290
     1
  9
$FINGERPRINTGUID
  2
{54cd49d3-8e53-477a-ac0a-865d2fd73e16}
  9
$VERSIONGUID
  2
{FAEB1C32-E019-11D5-929B-00C0DF256EC4}
  9
$EXTNAMES
290
     1
  9
$PSVPSCALE
 40
0.0
  9
$OLESTARTUP
290
     0
  0
ENDSEC
  0
SECTION
  2
CLASSES
  0
CLASS
  1
ACDBDICTIONARYWDFLT
  2
AcDbDictionaryWithDefault
  3
ObjectDBX Classes
 90
        0
280
     0
281
     0
  0
CLASS
  1
VISUALSTYLE
  2
AcDbVisualStyle
  3
ObjectDBX Classes
 90
     4095
280
     0
281
     0
  0
CLASS
  1
MATERIAL
  2
AcDbMaterial
  3
ObjectDBX Classes
 90
     1153
280
     0
281
     0
  0
CLASS
  1
SCALE
  2
AcDbScale
  3
ObjectDBX Classes
 90
     1153
280
     0
281
     0
  0
CLASS
  1
TABLESTYLE
  2
AcDbTableStyle
  3
ObjectDBX Classes
 90
     4095
280
     0
281
     0
  0
CLASS
  1
MLEADERSTYLE
  2
AcDbMLeaderStyle
  3
ACDB_MLEADERSTYLE_CLASS
 90
     4095
280
     0
281
     0
  0
CLASS
  1
SUN
  2
AcDbSun
  3
SCENEOE
 90
     1153
280
     0
281
     0
  0
CLASS
  1
ACDBPLACEHOLDER
  2
AcDbPlaceHolder
  3
ObjectDBX Classes
 90
        0
280
     0
281
     0
  0
CLASS
  1
LAYOUT
  2
AcDbLayout
  3
ObjectDBX Classes
 90
        0
280
     0
281
     0
  0
ENDSEC
  0
SECTION
  2
TABLES
  0
TABLE
  2
VPORT
  5
8
330
0
100
AcDbSymbolTable
 70
     1
  0
VPORT
  5
29
330
8
100
AcDbSymbolTableRecord
100
AcDbViewportTableRecord
  2
*Active
 70
     0
 10
0.0
 20
0.0
 11
1.0
 21
1.0
 12
105.0
 22
148.5
 13
0.0
 23
0.0
 14
10.0
 24
10.0
 15
10.0
 25
10.0
 16
0.0
 26
0.0
 36
1.0
 17
0.0
 27
0.0
 37
0.0
 40
297.0
 41
0.7070707071
 42
50.0
 43
0.0
 44
0.0
 50
0.0
 51
0.0
 71
     0
 72
  2000
 73
     1
 74
     3
 75
     0
 76
     0
 77
     0
 78
     0
281
     0
 65
     1
110
0.0
120
0.0
130
0.0
111
1.0
121
0.0
131
0.0
112
0.0
122
1.0
132
0.0
 79
     0
146
0.0
  0
ENDTAB
  0
TABLE
  2
LTYPE
  5
5
330
0
100
AcDbSymbolTable
 70
     6
  0
LTYPE
  5
14
330
5
100
AcDbSymbolTableRecord
100
AcDbLinetypeTableRecord
  2
ByBlock
 70
     0
  3

 72
    65
 73
     0
 40
0.0
  0
LTYPE
  5
15
330
5
100
AcDbSymbolTableRecord
100
AcDbLinetypeTableRecord
  2
ByLayer
 70
     0
  3

 72
    65
 73
     0
 40
0.0
  0
LTYPE
  5
16
330
5
100
AcDbSymbolTableRecord
100
AcDbLinetypeTableRecord
  2
Continuous
 70
     0
  3
Solid line
 72
    65
 73
     0
 40
0.0
  0
LTYPE
  5
6E
330
5
100
AcDbSymbolTableRecord
100
AcDbLinetypeTableRecord
  2
HIDDEN
 70
     0
  3
Hidden __ __ __ __ __ __ __ __ __ __ __ __ __ __
 72
    65
 73
     2
 40
1.905
 49
1.27
 74
     0
 49
-0.635
 74
     0
  0
LTYPE
  5
6F
330
5
100
AcDbSymbolTableRecord
100
AcDbLinetypeTableRecord
  2
PHANTOM
 70
     0
  3
Phantom ______  __  __  ______  __  __  ______
 72
    65
 73
     6
 40
12.7
 49
6.35
 74
     0
 49
-1.27
 74
     0
 49
1.27
 74
     0
 49
-1.27
 74
     0
 49
1.27
 74
     0
 49
-1.27
 74
     0
  0
LTYPE
  5
70
330
5
100
AcDbSymbolTableRecord
100
AcDbLinetypeTableRecord
  2
CENTER
 70
     0
  3
Center ____ _ ____ _ ____ _ ____ _ ____ _ ____
 72
    65
 73
     4
 40
10.16
 49
6.35
 74
     0
 49
-1.27
 74
     0
 49
1.27
 74
     0
 49
-1.27
 74
     0
  0
LTYPE
  5
71
330
5
100
AcDbSymbolTableRecord
100
AcDbLinetypeTableRecord
  2
CENTERX2
 70
     0
  3
Center (2x) ________  __  ________  __  _____
 72
    65
 73
     4
 40
20.32
 49
12.7
 74
     0
 49
-2.54
 74
     0
 49
2.54
 74
     0
 49
-2.54
 74
     0
  0
LTYPE
  5
72
330
5
100
AcDbSymbolTableRecord
100
AcDbLinetypeTableRecord
  2
DOT2
 70
     0
  3
Dot (.5x) ........................................
 72
    65
 73
     2
 40
0.635
 49
0.0
 74
     0
 49
-0.635
 74
     0
  0
ENDTAB
  0
TABLE
  2
LAYER
  5
2
330
0
100
AcDbSymbolTable
 70
     1
  0
LAYER
  5
10
330
2
100
AcDbSymbolTableRecord
100
AcDbLayerTableRecord
  2
0
 70
     0
 62
     7
  6
Continuous
370
    -3
390
F
  0
ENDTAB
  0
TABLE
  2
STYLE
  5
3
330
0
100
AcDbSymbolTable
 70
     2
  0
STYLE
  5
11
330
3
100
AcDbSymbolTableRecord
100
AcDbTextStyleTableRecord
  2
Standard
 70
     0
 40
0.0
 41
1.0
 50
0.0
 71
     0
 42
3.5
  3
txt
  4
bigfont
  0
STYLE
  5
7B
330
3
100
AcDbSymbolTableRecord
100
AcDbTextStyleTableRecord
  2
SLDTEXTSTYLE0
 70
     0
 40
0.0
 41
0.7
 50
0.0
 71
     0
 42
3.5
  3
TXT
  4
bigfont
  0
ENDTAB
  0
TABLE
  2
VIEW
  5
6
330
0
100
AcDbSymbolTable
 70
     0
  0
ENDTAB
  0
TABLE
  2
UCS
  5
7
330
0
100
AcDbSymbolTable
 70
     0
  0
ENDTAB
  0
TABLE
  2
APPID
  5
9
330
0
100
AcDbSymbolTable
 70
     1
  0
APPID
  5
12
330
9
100
AcDbSymbolTableRecord
100
AcDbRegAppTableRecord
  2
ACAD
 70
     0
  0
ENDTAB
  0
TABLE
  2
DIMSTYLE
  5
A
330
0
100
AcDbSymbolTable
 70
     8
100
AcDbDimStyleTable
  0
DIMSTYLE
105
27
330
A
100
AcDbSymbolTableRecord
100
AcDbDimStyleTableRecord
  2
ISO-25
 70
     0
 41
2.5
 42
0.625
 43
3.75
 44
1.25
 73
     0
 74
     0
 77
     1
 78
     8
140
2.5
141
2.5
143
0.0393700787
147
0.625
171
     3
172
     1
178
     0
271
     2
272
     2
274
     3
278
    44
283
     0
284
     8
340
11
  0
DIMSTYLE
105
197
102
{ACAD_REACTORS
330
196
102
}
330
A
100
AcDbSymbolTableRecord
100
AcDbDimStyleTableRecord
  2
SLDDIMSTYLE0
 70
     0
 41
1.5
 44
0.0
 45
0.000000001
 73
     0
 74
     0
 77
     3
 78
    12
 79
     3
140
3.5
147
0.875
172
     1
173
     1
178
     0
271
     1
272
     3
276
     2
284
    12
289
     0
340
7B
341
198
343
198
344
198
  0
DIMSTYLE
105
1AC
102
{ACAD_REACTORS
330
1AB
330
1CF
102
}
330
A
100
AcDbSymbolTableRecord
100
AcDbDimStyleTableRecord
  2
SLDDIMSTYLE1
 70
     0
 41
3.0
 44
0.0
 45
0.000000001
 73
     0
 74
     0
 77
     3
 78
    12
 79
     3
140
3.5
147
0.875
172
     1
173
     1
178
     0
271
     1
272
     3
276
     2
284
    12
289
     0
340
7B
344
198
  0
DIMSTYLE
105
1BB
102
{ACAD_REACTORS
330
1BA
330
1C5
330
1DB
330
1E5
330
1FC
330
213
330
2E9
330
2F3
330
319
330
323
330
43A
330
444
330
44E
102
}
330
A
100
AcDbSymbolTableRecord
100
AcDbDimStyleTableRecord
  2
SLDDIMSTYLE2
 70
     0
 41
3.0
 44
0.0
 45
0.000000001
 73
     0
 74
     0
 77
     3
 78
    12
 79
     3
140
3.5
147
0.875
173
     1
178
     0
271
     1
272
     3
276
     2
284
    12
340
7B
  0
DIMSTYLE
105
1F0
102
{ACAD_REACTORS
330
1EF
102
}
330
A
100
AcDbSymbolTableRecord
100
AcDbDimStyleTableRecord
  2
SLDDIMSTYLE3
 70
     0
 41
3.0
 44
0.0
 45
0.000000001
 73
     0
 74
     0
 77
     3
 78
    12
 79
     3
140
3.5
147
0.875
173
     1
178
     0
271
     0
272
     3
276
     2
284
    12
340
7B
  0
DIMSTYLE
105
207
102
{ACAD_REACTORS
330
206
330
2FD
330
30B
330
32D
102
}
330
A
100
AcDbSymbolTableRecord
100
AcDbDimStyleTableRecord
  2
SLDDIMSTYLE4
 70
     0
 41
3.0
 44
0.0
 45
0.000000001
 73
     0
 74
     0
 77
     3
 78
    12
 79
     3
140
3.5
147
0.875
172
     1
173
     1
178
     0
271
     1
272
     3
276
     2
284
    12
289
     0
340
7B
  0
DIMSTYLE
105
225
330
A
100
AcDbSymbolTableRecord
100
AcDbDimStyleTableRecord
  2
SLDDIMSTYLE5
 70
     0
 41
3.0
 44
0.0
 45
0.000000001
146
3.0
147
0.0
173
     1
178
     0
271
     0
272
     0
276
     2
340
11
  0
DIMSTYLE
105
432
102
{ACAD_REACTORS
330
431
102
}
330
A
100
AcDbSymbolTableRecord
100
AcDbDimStyleTableRecord
  2
SLDDIMSTYLE6
 70
     0
  3
<>
 41
3.0
 44
0.0
 45
0.000000001
 78
    12
 79
     3
140
3.5
141
0.0
147
0.875
173
     1
178
     0
271
     1
272
     3
276
     2
284
    12
340
7B
  0
ENDTAB
  0
TABLE
  2
BLOCK_RECORD
  5
1
330
0
100
AcDbSymbolTable
 70
    35
  0
BLOCK_RECORD
  5
1F
330
1
100
AcDbSymbolTableRecord
100
AcDbBlockTableRecord
  2
*Model_Space
340
22
  0
BLOCK_RECORD
  5
1B
330
1
100
AcDbSymbolTableRecord
100
AcDbBlockTableRecord
  2
*Paper_Space
340
1E
  0
BLOCK_RECORD
  5
23
330
1
100
AcDbSymbolTableRecord
100
AcDbBlockTableRecord
  2
*Paper_Space0
340
26
  0
BLOCK_RECORD
  5
198
330
1
100
AcDbSymbolTableRecord
100
AcDbBlockTableRecord
  2
_Dot
340
0
102
{BLKREFS
331
1A0
331
1A1
331
1B3
331
1D4
102
}
  0
BLOCK_RECORD
  5
19D
330
1
100
AcDbSymbolTableRecord
100
AcDbBlockTableRecord
  2
_D
340
0
  0
BLOCK_RECORD
  5
1AD
330
1
100
AcDbSymbolTableRecord
100
AcDbBlockTableRecord
  2
_D_1
340
0
  0
BLOCK_RECORD
  5
1BC
330
1
100
AcDbSymbolTableRecord
100
AcDbBlockTableRecord
  2
_D_2
340
0
  0
BLOCK_RECORD
  5
1C6
330
1
100
AcDbSymbolTableRecord
100
AcDbBlockTableRecord
  2
_D_3
340
0
  0
BLOCK_RECORD
  5
1D0
330
1
100
AcDbSymbolTableRecord
100
AcDbBlockTableRecord
  2
_D_4
340
0
  0
BLOCK_RECORD
  5
1DC
330
1
100
AcDbSymbolTableRecord
100
AcDbBlockTableRecord
  2
_D_5
340
0
  0
BLOCK_RECORD
  5
1E6
330
1
100
AcDbSymbolTableRecord
100
AcDbBlockTableRecord
  2
_D_6
340
0
  0
BLOCK_RECORD
  5
1F1
330
1
100
AcDbSymbolTableRecord
100
AcDbBlockTableRecord
  2
_D_7
340
0
  0
BLOCK_RECORD
  5
1FD
330
1
100
AcDbSymbolTableRecord
100
AcDbBlockTableRecord
  2
_D_8
340
0
  0
BLOCK_RECORD
  5
208
330
1
100
AcDbSymbolTableRecord
100
AcDbBlockTableRecord
  2
_D_9
340
0
  0
BLOCK_RECORD
  5
214
330
1
100
AcDbSymbolTableRecord
100
AcDbBlockTableRecord
  2
_D_10
340
0
  0
BLOCK_RECORD
  5
21F
330
1
100
AcDbSymbolTableRecord
100
AcDbBlockTableRecord
  2
SW_NOTE_0
340
0
102
{BLKREFS
331
224
102
}
  0
BLOCK_RECORD
  5
228
330
1
100
AcDbSymbolTableRecord
100
AcDbBlockTableRecord
  2
SW_NOTE_0_1
340
0
102
{BLKREFS
331
22D
102
}
  0
BLOCK_RECORD
  5
2EA
330
1
100
AcDbSymbolTableRecord
100
AcDbBlockTableRecord
  2
_D_11
340
0
  0
BLOCK_RECORD
  5
2F4
330
1
100
AcDbSymbolTableRecord
100
AcDbBlockTableRecord
  2
_D_12
340
0
  0
BLOCK_RECORD
  5
2FE
330
1
100
AcDbSymbolTableRecord
100
AcDbBlockTableRecord
  2
_D_13
340
0
  0
BLOCK_RECORD
  5
30C
330
1
100
AcDbSymbolTableRecord
100
AcDbBlockTableRecord
  2
_D_14
340
0
  0
BLOCK_RECORD
  5
31A
330
1
100
AcDbSymbolTableRecord
100
AcDbBlockTableRecord
  2
_D_15
340
0
  0
BLOCK_RECORD
  5
324
330
1
100
AcDbSymbolTableRecord
100
AcDbBlockTableRecord
  2
_D_16
340
0
  0
BLOCK_RECORD
  5
32E
330
1
100
AcDbSymbolTableRecord
100
AcDbBlockTableRecord
  2
_D_17
340
0
  0
BLOCK_RECORD
  5
33B
330
1
100
AcDbSymbolTableRecord
100
AcDbBlockTableRecord
  2
SW_CENTERMARKSYMBOL_0
340
0
102
{BLKREFS
331
346
102
}
  0
BLOCK_RECORD
  5
347
330
1
100
AcDbSymbolTableRecord
100
AcDbBlockTableRecord
  2
SW_CENTERMARKSYMBOL_1
340
0
102
{BLKREFS
331
352
102
}
  0
BLOCK_RECORD
  5
353
330
1
100
AcDbSymbolTableRecord
100
AcDbBlockTableRecord
  2
SW_CENTERMARKSYMBOL_2
340
0
102
{BLKREFS
331
35E
102
}
  0
BLOCK_RECORD
  5
35F
330
1
100
AcDbSymbolTableRecord
100
AcDbBlockTableRecord
  2
SW_CENTERMARKSYMBOL_3
340
0
102
{BLKREFS
331
36A
102
}
  0
BLOCK_RECORD
  5
36B
330
1
100
AcDbSymbolTableRecord
100
AcDbBlockTableRecord
  2
SW_CENTERMARKSYMBOL_4
340
0
102
{BLKREFS
331
376
102
}
  0
BLOCK_RECORD
  5
377
330
1
100
AcDbSymbolTableRecord
100
AcDbBlockTableRecord
  2
SW_CENTERMARKSYMBOL_5
340
0
102
{BLKREFS
331
382
102
}
  0
BLOCK_RECORD
  5
433
330
1
100
AcDbSymbolTableRecord
100
AcDbBlockTableRecord
  2
_D_18
340
0
  0
BLOCK_RECORD
  5
43B
330
1
100
AcDbSymbolTableRecord
100
AcDbBlockTableRecord
  2
_D_19
340
0
  0
BLOCK_RECORD
  5
445
330
1
100
AcDbSymbolTableRecord
100
AcDbBlockTableRecord
  2
_D_20
340
0
  0
BLOCK_RECORD
  5
44F
330
1
100
AcDbSymbolTableRecord
100
AcDbBlockTableRecord
  2
_D_21
340
0
  0
BLOCK_RECORD
  5
458
330
1
100
AcDbSymbolTableRecord
100
AcDbBlockTableRecord
  2
SW_NOTE_0_2
340
0
102
{BLKREFS
331
45D
102
}
  0
BLOCK_RECORD
  5
460
330
1
100
AcDbSymbolTableRecord
100
AcDbBlockTableRecord
  2
SW_CENTERMARKSYMBOL_6
340
0
102
{BLKREFS
331
46B
102
}
  0
BLOCK_RECORD
  5
46C
330
1
100
AcDbSymbolTableRecord
100
AcDbBlockTableRecord
  2
SW_CENTERMARKSYMBOL_7
340
0
102
{BLKREFS
331
477
102
}
  0
ENDTAB
  0
ENDSEC
  0
SECTION
  2
BLOCKS
  0
BLOCK
  5
20
330
1F
100
AcDbEntity
  8
0
100
AcDbBlockBegin
  2
*Model_Space
 70
     0
 10
0.0
 20
0.0
 30
0.0
  3
*Model_Space
  1

  0
ENDBLK
  5
21
330
1F
100
AcDbEntity
  8
0
100
AcDbBlockEnd
  0
BLOCK
  5
1C
330
1B
100
AcDbEntity
 67
     1
  8
0
100
AcDbBlockBegin
  2
*Paper_Space
 70
     0
 10
0.0
 20
0.0
 30
0.0
  3
*Paper_Space
  1

  0
ENDBLK
  5
1D
330
1B
100
AcDbEntity
 67
     1
  8
0
100
AcDbBlockEnd
  0
BLOCK
  5
24
330
23
100
AcDbEntity
  8
0
100
AcDbBlockBegin
  2
*Paper_Space0
 70
     0
 10
0.0
 20
0.0
 30
0.0
  3
*Paper_Space0
  1

  0
ENDBLK
  5
25
330
23
100
AcDbEntity
  8
0
100
AcDbBlockEnd
  0
BLOCK
  5
199
330
198
100
AcDbEntity
  8
0
100
AcDbBlockBegin
  2
_Dot
 70
     0
 10
0.0
 20
0.0
 30
0.0
  3
_Dot
  1

  0
LWPOLYLINE
  5
19B
330
198
100
AcDbEntity
  8
0
  6
ByBlock
 62
     0
100
AcDbPolyline
 90
        2
 70
     1
 43
0.5
 10
-0.25
 20
0.0
 42
1.0
 10
0.25
 20
0.0
 42
1.0
  0
LINE
  5
19C
330
198
100
AcDbEntity
  8
0
  6
ByBlock
 62
     0
370
    -2
100
AcDbLine
 10
-0.5
 20
0.0
 30
0.0
 11
-1.0
 21
0.0
 31
0.0
  0
ENDBLK
  5
19A
330
198
100
AcDbEntity
  8
0
100
AcDbBlockEnd
  0
BLOCK
  5
19E
330
19D
100
AcDbEntity
  8
0
100
AcDbBlockBegin
  2
_D
 70
     0
 10
0.0
 20
0.0
 30
0.0
  3
_D
  1

  0
INSERT
  5
1A0
330
19D
100
AcDbEntity
  8
0
  6
Continuous
 62
     7
370
    18
100
AcDbBlockReference
  2
_Dot
 10
174.0829709712
 20
230.5849391847
 30
0.0
 41
1.5
 42
1.5
 50
0.0
  0
INSERT
  5
1A1
330
19D
100
AcDbEntity
  8
0
  6
Continuous
 62
     7
370
    18
100
AcDbBlockReference
  2
_Dot
 10
176.0829709712
 20
230.5849391847
 30
0.0
 41
1.5
 42
1.5
 50
180.0
  0
LINE
  5
1A2
330
19D
100
AcDbEntity
  8
0
  6
Continuous
 62
     7
370
     0
100
AcDbLine
 10
174.0829709712
 20
220.5349391847
 30
0.0
 11
174.0829709712
 21
231.5849391847
 31
0.0
  0
LINE
  5
1A3
330
19D
100
AcDbEntity
  8
0
  6
Continuous
 62
     7
370
     0
100
AcDbLine
 10
176.0829709712
 20
220.5415137366
 30
0.0
 11
176.0829709712
 21
231.5849391847
 31
0.0
  0
LINE
  5
1A4
330
19D
100
AcDbEntity
  8
0
  6
Continuous
 62
     7
370
     0
100
AcDbLine
 10
174.0829709712
 20
230.5849391847
 30
0.0
 11
169.0829709712
 21
230.5849391847
 31
0.0
  0
LINE
  5
1A5
330
19D
100
AcDbEntity
  8
0
  6
Continuous
 62
     7
370
     0
100
AcDbLine
 10
174.0829709712
 20
230.5849391847
 30
0.0
 11
176.0829709712
 21
230.5849391847
 31
0.0
  0
LINE
  5
1A6
330
19D
100
AcDbEntity
  8
0
  6
Continuous
 62
     7
370
     0
100
AcDbLine
 10
176.0829709712
 20
230.5849391847
 30
0.0
 11
181.0829709712
 21
230.5849391847
 31
0.0
  0
LINE
  5
1A7
330
19D
100
AcDbEntity
  8
0
  6
Continuous
 62
     7
370
     0
100
AcDbLine
 10
175.0829709712
 20
230.5849391847
 30
0.0
 11
171.9019863032
 21
237.7006994096
 31
0.0
  0
LINE
  5
1A8
330
19D
100
AcDbEntity
  8
0
  6
Continuous
 62
     7
370
     0
100
AcDbLine
 10
171.9019863032
 20
237.7006994096
 30
0.0
 11
143.3867107354
 21
237.7006994096
 31
0.0
  0
MTEXT
  5
1A9
330
19D
100
AcDbEntity
  8
0
  6
Continuous
 62
     7
370
    18
100
AcDbMText
 10
143.3867107354
 20
242.2124362659
 30
0.0
 40
3.5
 41
0.0
 71
     1
 72
     1
  1
Maxストローク
  7
SLDTEXTSTYLE0
 73
     1
 44
1.0
  0
MTEXT
  5
1AA
330
19D
100
AcDbEntity
  8
0
  6
Continuous
 62
     7
370
    18
100
AcDbMText
 10
169.8651819698
 20
242.2124362659
 30
0.0
 40
3.5
 41
0.0
 71
     1
 72
     1
  1
2
  7
SLDTEXTSTYLE0
 73
     1
 44
1.0
  0
ENDBLK
  5
19F
330
19D
100
AcDbEntity
  8
0
100
AcDbBlockEnd
  0
BLOCK
  5
1AE
330
1AD
100
AcDbEntity
  8
0
100
AcDbBlockBegin
  2
_D_1
 70
     0
 10
0.0
 20
0.0
 30
0.0
  3
_D_1
  1

  0
ARC
  5
1B0
330
1AD
100
AcDbEntity
  8
0
  6
Continuous
 62
     7
370
    18
100
AcDbCircle
 10
151.1322745643
 20
232.6217446822
 30
0.0
 40
4.554435549315966
100
AcDbArc
 50
153.4349488229
 51
206.5650511771
  0
ARC
  5
1B1
330
1AD
100
AcDbEntity
  8
0
  6
Continuous
 62
     7
370
    18
100
AcDbCircle
 10
151.1322745643
 20
232.6217446822
 30
0.0
 40
4.554435549315966
100
AcDbArc
 50
333.4349488229
 51
26.5650511771
  0
SOLID
  5
1B2
330
1AD
100
AcDbEntity
  8
0
  6
Continuous
 62
     7
370
    18
100
AcDbTrace
 10
160.2829709712
 20
230.5849391847
 30
0.0
 11
157.2829709712
 21
231.3349391847
 31
0.0
 12
157.2829709712
 22
229.8349391847
 32
0.0
 13
157.2829709712
 23
229.8349391847
 33
0.0
  0
INSERT
  5
1B3
330
1AD
100
AcDbEntity
  8
0
  6
Continuous
 62
     7
370
    18
100
AcDbBlockReference
  2
_Dot
 10
174.0829709712
 20
230.5849391847
 30
0.0
 41
1.5
 42
1.5
 50
180.0
  0
LINE
  5
1B4
330
1AD
100
AcDbEntity
  8
0
  6
Continuous
 62
     7
370
     0
100
AcDbLine
 10
160.2829709712
 20
176.1101276281
 30
0.0
 11
160.2829709712
 21
231.5849391847
 31
0.0
  0
LINE
  5
1B5
330
1AD
100
AcDbEntity
  8
0
  6
Continuous
 62
     7
370
     0
100
AcDbLine
 10
174.0829709712
 20
220.5349391847
 30
0.0
 11
174.0829709712
 21
231.5849391847
 31
0.0
  0
LINE
  5
1B6
330
1AD
100
AcDbEntity
  8
0
  6
Continuous
 62
     7
370
     0
100
AcDbLine
 10
160.2829709712
 20
230.5849391847
 30
0.0
 11
146.5778390118
 21
230.5849391847
 31
0.0
  0
LINE
  5
1B7
330
1AD
100
AcDbEntity
  8
0
  6
Continuous
 62
     7
370
     0
100
AcDbLine
 10
160.2829709712
 20
230.5849391847
 30
0.0
 11
174.0829709712
 21
230.5849391847
 31
0.0
  0
LINE
  5
1B8
330
1AD
100
AcDbEntity
  8
0
  6
Continuous
 62
     7
370
     0
100
AcDbLine
 10
174.0829709712
 20
230.5849391847
 30
0.0
 11
179.0829709712
 21
230.5849391847
 31
0.0
  0
MTEXT
  5
1B9
330
1AD
100
AcDbEntity
  8
0
  6
Continuous
 62
     7
370
    18
100
AcDbMText
 10
147.0586635694
 20
235.0966760411
 30
0.0
 40
3.5
 41
0.0
 71
     1
 72
     1
  1
13.8
  7
SLDTEXTSTYLE0
 73
     1
 44
1.0
  0
ENDBLK
  5
1AF
330
1AD
100
AcDbEntity
  8
0
100
AcDbBlockEnd
  0
BLOCK
  5
1BD
330
1BC
100
AcDbEntity
  8
0
100
AcDbBlockBegin
  2
_D_2
 70
     0
 10
0.0
 20
0.0
 30
0.0
  3
_D_2
  1

  0
SOLID
  5
1BF
330
1BC
100
AcDbEntity
  8
0
  6
Continuous
 62
     7
370
    18
100
AcDbTrace
 10
98.1547807346
 20
168.6101276281
 30
0.0
 11
98.9047807346
 21
171.6101276281
 31
0.0
 12
97.4047807346
 22
171.6101276281
 32
0.0
 13
97.4047807346
 23
171.6101276281
 33
0.0
  0
SOLID
  5
1C0
330
1BC
100
AcDbEntity
  8
0
  6
Continuous
 62
     7
370
    18
100
AcDbTrace
 10
98.1547807346
 20
186.6101276281
 30
0.0
 11
97.4047807346
 21
183.6101276281
 31
0.0
 12
98.9047807346
 22
183.6101276281
 32
0.0
 13
98.9047807346
 23
183.6101276281
 33
0.0
  0
LINE
  5
1C1
330
1BC
100
AcDbEntity
  8
0
  6
Continuous
 62
     7
370
     0
100
AcDbLine
 10
120.2829709712
 20
168.6101276281
 30
0.0
 11
97.1547807346
 21
168.6101276281
 31
0.0
  0
LINE
  5
1C2
330
1BC
100
AcDbEntity
  8
0
  6
Continuous
 62
     7
370
     0
100
AcDbLine
 10
104.3117251533
 20
186.6101276281
 30
0.0
 11
97.1547807346
 21
186.6101276281
 31
0.0
  0
LINE
  5
1C3
330
1BC
100
AcDbEntity
  8
0
  6
Continuous
 62
     7
370
     0
100
AcDbLine
 10
98.1547807346
 20
168.6101276281
 30
0.0
 11
98.1547807346
 21
186.6101276281
 31
0.0
  0
MTEXT
  5
1C4
330
1BC
100
AcDbEntity
  8
0
  6
Continuous
 62
     7
370
    18
100
AcDbMText
 10
93.6430438782
 20
175.5733221306
 30
0.0
 40
3.5
 41
0.0
 71
     1
 72
     1
  1
18
  7
SLDTEXTSTYLE0
 11
-1.608122649676637E-16
 21
1.0
 31
0.0
 73
     1
 44
1.0
  0
ENDBLK
  5
1BE
330
1BC
100
AcDbEntity
  8
0
100
AcDbBlockEnd
  0
BLOCK
  5
1C7
330
1C6
100
AcDbEntity
  8
0
100
AcDbBlockBegin
  2
_D_3
 70
     0
 10
0.0
 20
0.0
 30
0.0
  3
_D_3
  1

  0
SOLID
  5
1C9
330
1C6
100
AcDbEntity
  8
0
  6
Continuous
 62
     7
370
    18
100
AcDbTrace
 10
90.1792856169
 20
168.6101276281
 30
0.0
 11
90.9292856169
 21
171.6101276281
 31
0.0
 12
89.4292856169
 22
171.6101276281
 32
0.0
 13
89.4292856169
 23
171.6101276281
 33
0.0
  0
SOLID
  5
1CA
330
1C6
100
AcDbEntity
  8
0
  6
Continuous
 62
     7
370
    18
100
AcDbTrace
 10
90.1792856169
 20
197.6101276281
 30
0.0
 11
89.4292856169
 21
194.6101276281
 31
0.0
 12
90.9292856169
 22
194.6101276281
 32
0.0
 13
90.9292856169
 23
194.6101276281
 33
0.0
  0
LINE
  5
1CB
330
1C6
100
AcDbEntity
  8
0
  6
Continuous
 62
     7
370
     0
100
AcDbLine
 10
120.2829709712
 20
168.6101276281
 30
0.0
 11
89.1792856169
 21
168.6101276281
 31
0.0
  0
LINE
  5
1CC
330
1C6
100
AcDbEntity
  8
0
  6
Continuous
 62
     7
370
     0
100
AcDbLine
 10
117.712488116
 20
197.6101276281
 30
0.0
 11
89.1792856169
 21
197.6101276281
 31
0.0
  0
LINE
  5
1CD
330
1C6
100
AcDbEntity
  8
0
  6
Continuous
 62
     7
370
     0
100
AcDbLine
 10
90.1792856169
 20
168.6101276281
 30
0.0
 11
90.1792856169
 21
197.6101276281
 31
0.0
  0
MTEXT
  5
1CE
330
1C6
100
AcDbEntity
  8
0
  6
Continuous
 62
     7
370
    18
100
AcDbMText
 10
85.6675487606
 20
181.0733221306
 30
0.0
 40
3.5
 41
0.0
 71
     1
 72
     1
  1
29
  7
SLDTEXTSTYLE0
 11
-1.608122649676637E-16
 21
1.0
 31
0.0
 73
     1
 44
1.0
  0
ENDBLK
  5
1C8
330
1C6
100
AcDbEntity
  8
0
100
AcDbBlockEnd
  0
BLOCK
  5
1D1
330
1D0
100
AcDbEntity
  8
0
100
AcDbBlockBegin
  2
_D_4
 70
     0
 10
0.0
 20
0.0
 30
0.0
  3
_D_4
  1

  0
SOLID
  5
1D3
330
1D0
100
AcDbEntity
  8
0
  6
Continuous
 62
     7
370
    18
100
AcDbTrace
 10
182.7829709712
 20
230.5849391847
 30
0.0
 11
185.7829709712
 21
229.8349391847
 31
0.0
 12
185.7829709712
 22
231.3349391847
 32
0.0
 13
185.7829709712
 23
231.3349391847
 33
0.0
  0
INSERT
  5
1D4
330
1D0
100
AcDbEntity
  8
0
  6
Continuous
 62
     7
370
    18
100
AcDbBlockReference
  2
_Dot
 10
176.0829709712
 20
230.5849391847
 30
-0.1248386035
 41
1.5
 42
1.5
 50
0.0
  0
LINE
  5
1D5
330
1D0
100
AcDbEntity
  8
0
  6
Continuous
 62
     7
370
     0
100
AcDbLine
 10
182.7829709712
 20
210.6101276318
 30
0.0
 11
182.7829709712
 21
231.5849391847
 31
0.0
  0
LINE
  5
1D6
330
1D0
100
AcDbEntity
  8
0
  6
Continuous
 62
     7
370
     0
100
AcDbLine
 10
176.0829709712
 20
220.5349391847
 30
0.0
 11
176.0829709712
 21
231.5849391847
 31
0.0
  0
LINE
  5
1D7
330
1D0
100
AcDbEntity
  8
0
  6
Continuous
 62
     7
370
     0
100
AcDbLine
 10
182.7829709712
 20
230.5849391847
 30
0.0
 11
193.5249573243
 21
230.5849391847
 31
0.0
  0
LINE
  5
1D8
330
1D0
100
AcDbEntity
  8
0
  6
Continuous
 62
     7
370
     0
100
AcDbLine
 10
182.7829709712
 20
230.5849391847
 30
0.0
 11
176.0829709712
 21
230.5849391847
 31
0.0
  0
LINE
  5
1D9
330
1D0
100
AcDbEntity
  8
0
  6
Continuous
 62
     7
370
     0
100
AcDbLine
 10
176.0829709712
 20
230.5849391847
 30
0.0
 11
171.0829709712
 21
230.5849391847
 31
0.0
  0
MTEXT
  5
1DA
330
1D0
100
AcDbEntity
  8
0
  6
Continuous
 62
     7
370
    18
100
AcDbMText
 10
187.414540599
 20
235.0966760411
 30
0.0
 40
3.5
 41
0.0
 71
     1
 72
     1
  1
6.7
  7
SLDTEXTSTYLE0
 73
     1
 44
1.0
  0
ENDBLK
  5
1D2
330
1D0
100
AcDbEntity
  8
0
100
AcDbBlockEnd
  0
BLOCK
  5
1DD
330
1DC
100
AcDbEntity
  8
0
100
AcDbBlockBegin
  2
_D_5
 70
     0
 10
0.0
 20
0.0
 30
0.0
  3
_D_5
  1

  0
SOLID
  5
1DF
330
1DC
100
AcDbEntity
  8
0
  6
Continuous
 62
     7
370
    18
100
AcDbTrace
 10
160.2829709712
 20
160.4897008888
 30
0.0
 11
157.2829709712
 21
161.2397008888
 31
0.0
 12
157.2829709712
 22
159.7397008888
 32
0.0
 13
157.2829709712
 23
159.7397008888
 33
0.0
  0
SOLID
  5
1E0
330
1DC
100
AcDbEntity
  8
0
  6
Continuous
 62
     7
370
    18
100
AcDbTrace
 10
140.2829709712
 20
160.4897008888
 30
0.0
 11
143.2829709712
 21
159.7397008888
 31
0.0
 12
143.2829709712
 22
161.2397008888
 32
0.0
 13
143.2829709712
 23
161.2397008888
 33
0.0
  0
LINE
  5
1E1
330
1DC
100
AcDbEntity
  8
0
  6
Continuous
 62
     7
370
     0
100
AcDbLine
 10
160.2829709712
 20
165.6101276281
 30
0.0
 11
160.2829709712
 21
159.4897008888
 31
0.0
  0
LINE
  5
1E2
330
1DC
100
AcDbEntity
  8
0
  6
Continuous
 62
     7
370
     0
100
AcDbLine
 10
140.2829709712
 20
165.6101276281
 30
0.0
 11
140.2829709712
 21
159.4897008888
 31
0.0
  0
LINE
  5
1E3
330
1DC
100
AcDbEntity
  8
0
  6
Continuous
 62
     7
370
     0
100
AcDbLine
 10
160.2829709712
 20
160.4897008888
 30
0.0
 11
140.2829709712
 21
160.4897008888
 31
0.0
  0
MTEXT
  5
1E4
330
1DC
100
AcDbEntity
  8
0
  6
Continuous
 62
     7
370
    18
100
AcDbMText
 10
148.2461654737
 20
165.0014377451
 30
0.0
 40
3.5
 41
0.0
 71
     1
 72
     1
  1
20
  7
SLDTEXTSTYLE0
 73
     1
 44
1.0
  0
ENDBLK
  5
1DE
330
1DC
100
AcDbEntity
  8
0
100
AcDbBlockEnd
  0
BLOCK
  5
1E7
330
1E6
100
AcDbEntity
  8
0
100
AcDbBlockBegin
  2
_D_6
 70
     0
 10
0.0
 20
0.0
 30
0.0
  3
_D_6
  1

  0
SOLID
  5
1E9
330
1E6
100
AcDbEntity
  8
0
  6
Continuous
 62
     7
370
    18
100
AcDbTrace
 10
175.7829709712
 20
160.4897008888
 30
0.0
 11
172.7829709712
 21
161.2397008888
 31
0.0
 12
172.7829709712
 22
159.7397008888
 32
0.0
 13
172.7829709712
 23
159.7397008888
 33
0.0
  0
SOLID
  5
1EA
330
1E6
100
AcDbEntity
  8
0
  6
Continuous
 62
     7
370
    18
100
AcDbTrace
 10
160.2829709712
 20
160.4897008888
 30
0.0
 11
163.2829709712
 21
159.7397008888
 31
0.0
 12
163.2829709712
 22
161.2397008888
 32
0.0
 13
163.2829709712
 23
161.2397008888
 33
0.0
  0
LINE
  5
1EB
330
1E6
100
AcDbEntity
  8
0
  6
Continuous
 62
     7
370
     0
100
AcDbLine
 10
175.7829709712
 20
172.6101276281
 30
0.0
 11
175.7829709712
 21
159.4897008888
 31
0.0
  0
LINE
  5
1EC
330
1E6
100
AcDbEntity
  8
0
  6
Continuous
 62
     7
370
     0
100
AcDbLine
 10
160.2829709712
 20
165.6101276281
 30
0.0
 11
160.2829709712
 21
159.4897008888
 31
0.0
  0
LINE
  5
1ED
330
1E6
100
AcDbEntity
  8
0
  6
Continuous
 62
     7
370
     0
100
AcDbLine
 10
175.7829709712
 20
160.4897008888
 30
0.0
 11
160.2829709712
 21
160.4897008888
 31
0.0
  0
MTEXT
  5
1EE
330
1E6
100
AcDbEntity
  8
0
  6
Continuous
 62
     7
370
    18
100
AcDbMText
 10
163.9593599762
 20
165.0014377451
 30
0.0
 40
3.5
 41
0.0
 71
     1
 72
     1
  1
15.5
  7
SLDTEXTSTYLE0
 73
     1
 44
1.0
  0
ENDBLK
  5
1E8
330
1E6
100
AcDbEntity
  8
0
100
AcDbBlockEnd
  0
BLOCK
  5
1F2
330
1F1
100
AcDbEntity
  8
0
100
AcDbBlockBegin
  2
_D_7
 70
     0
 10
0.0
 20
0.0
 30
0.0
  3
_D_7
  1

  0
ARC
  5
1F4
330
1F1
100
AcDbEntity
  8
0
  6
Continuous
 62
     7
370
    18
100
AcDbCircle
 10
143.0197764105
 20
145.4097226228
 30
0.0
 40
4.554435549315966
100
AcDbArc
 50
153.4349488229
 51
206.5650511771
  0
ARC
  5
1F5
330
1F1
100
AcDbEntity
  8
0
  6
Continuous
 62
     7
370
    18
100
AcDbCircle
 10
138.9461654155
 20
145.4097226228
 30
0.0
 40
4.554435549315966
100
AcDbArc
 50
333.4349488229
 51
26.5650511771
  0
SOLID
  5
1F6
330
1F1
100
AcDbEntity
  8
0
  6
Continuous
 62
     7
370
    18
100
AcDbTrace
 10
106.1829709712
 20
143.3729171253
 30
0.0
 11
109.1829709712
 21
142.6229171253
 31
0.0
 12
109.1829709712
 22
144.1229171253
 32
0.0
 13
109.1829709712
 23
144.1229171253
 33
0.0
  0
SOLID
  5
1F7
330
1F1
100
AcDbEntity
  8
0
  6
Continuous
 62
     7
370
    18
100
AcDbTrace
 10
175.7829709712
 20
143.3729171253
 30
0.0
 11
172.7829709712
 21
144.1229171253
 31
0.0
 12
172.7829709712
 22
142.6229171253
 32
0.0
 13
172.7829709712
 23
142.6229171253
 33
0.0
  0
LINE
  5
1F8
330
1F1
100
AcDbEntity
  8
0
  6
Continuous
 62
     7
370
     0
100
AcDbLine
 10
106.1829709712
 20
182.1597586799
 30
0.0
 11
106.1829709712
 21
142.3729171253
 31
0.0
  0
LINE
  5
1F9
330
1F1
100
AcDbEntity
  8
0
  6
Continuous
 62
     7
370
     0
100
AcDbLine
 10
175.7829709712
 20
172.6101276281
 30
0.0
 11
175.7829709712
 21
142.3729171253
 31
0.0
  0
LINE
  5
1FA
330
1F1
100
AcDbEntity
  8
0
  6
Continuous
 62
     7
370
     0
100
AcDbLine
 10
106.1829709712
 20
143.3729171253
 30
0.0
 11
175.7829709712
 21
143.3729171253
 31
0.0
  0
MTEXT
  5
1FB
330
1F1
100
AcDbEntity
  8
0
  6
Continuous
 62
     7
370
    18
100
AcDbMText
 10
138.9461654155
 20
147.8846539817
 30
0.0
 40
3.5
 41
0.0
 71
     1
 72
     1
  1
70
  7
SLDTEXTSTYLE0
 73
     1
 44
1.0
  0
ENDBLK
  5
1F3
330
1F1
100
AcDbEntity
  8
0
100
AcDbBlockEnd
  0
BLOCK
  5
1FE
330
1FD
100
AcDbEntity
  8
0
100
AcDbBlockBegin
  2
_D_8
 70
     0
 10
0.0
 20
0.0
 30
0.0
  3
_D_8
  1

  0
SOLID
  5
200
330
1FD
100
AcDbEntity
  8
0
  6
Continuous
 62
     7
370
    18
100
AcDbTrace
 10
175.7829709712
 20
152.6100245504
 30
0.0
 11
172.7829709712
 21
153.3600245504
 31
0.0
 12
172.7829709712
 22
151.8600245504
 32
0.0
 13
172.7829709712
 23
151.8600245504
 33
0.0
  0
SOLID
  5
201
330
1FD
100
AcDbEntity
  8
0
  6
Continuous
 62
     7
370
    18
100
AcDbTrace
 10
121.2829709712
 20
152.6100245504
 30
0.0
 11
124.2829709712
 21
151.8600245504
 31
0.0
 12
124.2829709712
 22
153.3600245504
 32
0.0
 13
124.2829709712
 23
153.3600245504
 33
0.0
  0
LINE
  5
202
330
1FD
100
AcDbEntity
  8
0
  6
Continuous
 62
     7
370
     0
100
AcDbLine
 10
175.7829709712
 20
172.6101276281
 30
0.0
 11
175.7829709712
 21
151.6100245504
 31
0.0
  0
LINE
  5
203
330
1FD
100
AcDbEntity
  8
0
  6
Continuous
 62
     7
370
     0
100
AcDbLine
 10
121.2829709712
 20
167.6101276281
 30
0.0
 11
121.2829709712
 21
151.6100245504
 31
0.0
  0
LINE
  5
204
330
1FD
100
AcDbEntity
  8
0
  6
Continuous
 62
     7
370
     0
100
AcDbLine
 10
175.7829709712
 20
152.6100245504
 30
0.0
 11
121.2829709712
 21
152.6100245504
 31
0.0
  0
MTEXT
  5
205
330
1FD
100
AcDbEntity
  8
0
  6
Continuous
 62
     7
370
    18
100
AcDbMText
 10
144.4593599762
 20
157.1217614068
 30
0.0
 40
3.5
 41
0.0
 71
     1
 72
     1
  1
54.5
  7
SLDTEXTSTYLE0
 73
     1
 44
1.0
  0
ENDBLK
  5
1FF
330
1FD
100
AcDbEntity
  8
0
100
AcDbBlockEnd
  0
BLOCK
  5
209
330
208
100
AcDbEntity
  8
0
100
AcDbBlockBegin
  2
_D_9
 70
     0
 10
0.0
 20
0.0
 30
0.0
  3
_D_9
  1

  0
SOLID
  5
20B
330
208
100
AcDbEntity
  8
0
  6
Continuous
 62
     7
370
    18
100
AcDbTrace
 10
175.7829709712
 20
143.3729171253
 30
0.0
 11
172.7829709712
 21
144.1229171253
 31
0.0
 12
172.7829709712
 22
142.6229171253
 32
0.0
 13
172.7829709712
 23
142.6229171253
 33
0.0
  0
SOLID
  5
20C
330
208
100
AcDbEntity
  8
0
  6
Continuous
 62
     7
370
    18
100
AcDbTrace
 10
182.7829709712
 20
143.3729171253
 30
0.0
 11
185.7829709712
 21
142.6229171253
 31
0.0
 12
185.7829709712
 22
144.1229171253
 32
0.0
 13
185.7829709712
 23
144.1229171253
 33
0.0
  0
LINE
  5
20D
330
208
100
AcDbEntity
  8
0
  6
Continuous
 62
     7
370
     0
100
AcDbLine
 10
175.7829709712
 20
172.6101276281
 30
0.0
 11
175.7829709712
 21
142.3729171253
 31
0.0
  0
LINE
  5
20E
330
208
100
AcDbEntity
  8
0
  6
Continuous
 62
     7
370
     0
100
AcDbLine
 10
182.7829709712
 20
181.7101276281
 30
0.0
 11
182.7829709712
 21
142.3729171253
 31
0.0
  0
LINE
  5
20F
330
208
100
AcDbEntity
  8
0
  6
Continuous
 62
     7
370
     0
100
AcDbLine
 10
175.7829709712
 20
143.3729171253
 30
0.0
 11
170.7829709712
 21
143.3729171253
 31
0.0
  0
LINE
  5
210
330
208
100
AcDbEntity
  8
0
  6
Continuous
 62
     7
370
     0
100
AcDbLine
 10
175.7829709712
 20
143.3729171253
 30
0.0
 11
182.7829709712
 21
143.3729171253
 31
0.0
  0
LINE
  5
211
330
208
100
AcDbEntity
  8
0
  6
Continuous
 62
     7
370
     0
100
AcDbLine
 10
182.7829709712
 20
143.3729171253
 30
0.0
 11
190.4670257097
 21
143.3729171253
 31
0.0
  0
MTEXT
  5
212
330
208
100
AcDbEntity
  8
0
  6
Continuous
 62
     7
370
    18
100
AcDbMText
 10
188.4302202122
 20
147.8846539817
 30
0.0
 40
3.5
 41
0.0
 71
     1
 72
     1
  1
7
  7
SLDTEXTSTYLE0
 73
     1
 44
1.0
  0
ENDBLK
  5
20A
330
208
100
AcDbEntity
  8
0
100
AcDbBlockEnd
  0
BLOCK
  5
215
330
214
100
AcDbEntity
  8
0
100
AcDbBlockBegin
  2
_D_10
 70
     0
 10
0.0
 20
0.0
 30
0.0
  3
_D_10
  1

  0
ARC
  5
217
330
214
100
AcDbEntity
  8
0
  6
Continuous
 62
     7
370
    18
100
AcDbCircle
 10
188.4329434641
 20
194.0725333482
 30
0.0
 40
4.554435549315966
100
AcDbArc
 50
243.4349488229
 51
296.5650511771
  0
ARC
  5
218
330
214
100
AcDbEntity
  8
0
  6
Continuous
 62
     7
370
    18
100
AcDbCircle
 10
188.4329434641
 20
194.0725333482
 30
0.0
 40
4.554435549315966
100
AcDbArc
 50
63.4349488229
 51
116.5650511771
  0
SOLID
  5
219
330
214
100
AcDbEntity
  8
0
  6
Continuous
 62
     7
370
    18
100
AcDbTrace
 10
190.4697489616
 20
168.6101276281
 30
0.0
 11
191.2197489616
 21
171.6101276281
 31
0.0
 12
189.7197489616
 22
171.6101276281
 32
0.0
 13
189.7197489616
 23
171.6101276281
 33
0.0
  0
SOLID
  5
21A
330
214
100
AcDbEntity
  8
0
  6
Continuous
 62
     7
370
    18
100
AcDbTrace
 10
190.4697489616
 20
219.5349391847
 30
0.0
 11
189.7197489616
 21
216.5349391847
 31
0.0
 12
191.2197489616
 22
216.5349391847
 32
0.0
 13
191.2197489616
 23
216.5349391847
 33
0.0
  0
LINE
  5
21B
330
214
100
AcDbEntity
  8
0
  6
Continuous
 62
     7
370
     0
100
AcDbLine
 10
174.7829709712
 20
168.6101276281
 30
0.0
 11
191.4697489616
 21
168.6101276281
 31
0.0
  0
LINE
  5
21C
330
214
100
AcDbEntity
  8
0
  6
Continuous
 62
     7
370
     0
100
AcDbLine
 10
177.2829709712
 20
219.5349391847
 30
0.0
 11
191.4697489616
 21
219.5349391847
 31
0.0
  0
LINE
  5
21D
330
214
100
AcDbEntity
  8
0
  6
Continuous
 62
     7
370
     0
100
AcDbLine
 10
190.4697489616
 20
168.6101276281
 30
0.0
 11
190.4697489616
 21
219.5349391847
 31
0.0
  0
MTEXT
  5
21E
330
214
100
AcDbEntity
  8
0
  6
Continuous
 62
     7
370
    18
100
AcDbMText
 10
185.9580121052
 20
189.9989223532
 30
0.0
 40
3.5
 41
0.0
 71
     1
 72
     1
  1
50.9
  7
SLDTEXTSTYLE0
 11
-1.608122649676637E-16
 21
1.0
 31
0.0
 73
     1
 44
1.0
  0
ENDBLK
  5
216
330
214
100
AcDbEntity
  8
0
100
AcDbBlockEnd
  0
BLOCK
  5
220
330
21F
100
AcDbEntity
  8
0
100
AcDbBlockBegin
  2
SW_NOTE_0
 70
     0
 10
0.0
 20
0.0
 30
0.0
  3
SW_NOTE_0
  1

  0
LINE
  5
222
330
21F
100
AcDbEntity
  8
0
  6
Continuous
 62
     0
370
     0
100
AcDbLine
 10
-20.4930545092
 20
0.0
 30
0.0
 11
0.0
 21
0.0
 31
0.0
  0
MTEXT
  5
223
330
21F
100
AcDbEntity
  8
0
  6
Continuous
 62
     0
370
     0
100
AcDbMText
 10
-20.9007737746
 20
4.597137067
 30
0.0
 40
3.5
 41
0.0
 71
     1
 72
     1
  1
カット配管
  7
SLDTEXTSTYLE0
 73
     1
 44
1.0
  0
ENDBLK
  5
221
330
21F
100
AcDbEntity
  8
0
100
AcDbBlockEnd
  0
BLOCK
  5
229
330
228
100
AcDbEntity
  8
0
100
AcDbBlockBegin
  2
SW_NOTE_0_1
 70
     0
 10
0.0
 20
0.0
 30
0.0
  3
SW_NOTE_0_1
  1

  0
LINE
  5
22B
330
228
100
AcDbEntity
  8
0
  6
Continuous
 62
     0
370
     0
100
AcDbLine
 10
-20.4930545092
 20
0.0
 30
0.0
 11
0.0
 21
0.0
 31
0.0
  0
MTEXT
  5
22C
330
228
100
AcDbEntity
  8
0
  6
Continuous
 62
     0
370
     0
100
AcDbMText
 10
-20.9885127977
 20
4.6253448321
 30
0.0
 40
3.5
 41
0.0
 71
     1
 72
     1
  1
プル配管　
  7
SLDTEXTSTYLE0
 73
     1
 44
1.0
  0
ENDBLK
  5
22A
330
228
100
AcDbEntity
  8
0
100
AcDbBlockEnd
  0
BLOCK
  5
2EB
330
2EA
100
AcDbEntity
  8
0
100
AcDbBlockBegin
  2
_D_11
 70
     0
 10
0.0
 20
0.0
 30
0.0
  3
_D_11
  1

  0
SOLID
  5
2ED
330
2EA
100
AcDbEntity
  8
0
  6
Continuous
 62
     7
370
    18
100
AcDbTrace
 10
39.107272751
 20
158.6100245504
 30
0.0
 11
42.107272751
 21
157.8600245504
 31
0.0
 12
42.107272751
 22
159.3600245504
 32
0.0
 13
42.107272751
 23
159.3600245504
 33
0.0
  0
SOLID
  5
2EE
330
2EA
100
AcDbEntity
  8
0
  6
Continuous
 62
     7
370
    18
100
AcDbTrace
 10
59.107272751
 20
158.6100245504
 30
0.0
 11
56.107272751
 21
159.3600245504
 31
0.0
 12
56.107272751
 22
157.8600245504
 32
0.0
 13
56.107272751
 23
157.8600245504
 33
0.0
  0
LINE
  5
2EF
330
2EA
100
AcDbEntity
  8
0
  6
Continuous
 62
     7
370
     0
100
AcDbLine
 10
39.107272751
 20
167.6101276281
 30
0.0
 11
39.107272751
 21
157.6100245504
 31
0.0
  0
LINE
  5
2F0
330
2EA
100
AcDbEntity
  8
0
  6
Continuous
 62
     7
370
     0
100
AcDbLine
 10
59.107272751
 20
167.6101276281
 30
0.0
 11
59.107272751
 21
157.6100245504
 31
0.0
  0
LINE
  5
2F1
330
2EA
100
AcDbEntity
  8
0
  6
Continuous
 62
     7
370
     0
100
AcDbLine
 10
39.107272751
 20
158.6100245504
 30
0.0
 11
59.107272751
 21
158.6100245504
 31
0.0
  0
MTEXT
  5
2F2
330
2EA
100
AcDbEntity
  8
0
  6
Continuous
 62
     7
370
    18
100
AcDbMText
 10
47.0704672535
 20
163.1217614068
 30
0.0
 40
3.5
 41
0.0
 71
     1
 72
     1
  1
20
  7
SLDTEXTSTYLE0
 73
     1
 44
1.0
  0
ENDBLK
  5
2EC
330
2EA
100
AcDbEntity
  8
0
100
AcDbBlockEnd
  0
BLOCK
  5
2F5
330
2F4
100
AcDbEntity
  8
0
100
AcDbBlockBegin
  2
_D_12
 70
     0
 10
0.0
 20
0.0
 30
0.0
  3
_D_12
  1

  0
SOLID
  5
2F7
330
2F4
100
AcDbEntity
  8
0
  6
Continuous
 62
     7
370
    18
100
AcDbTrace
 10
69.3573758286
 20
201.6101276281
 30
0.0
 11
68.6073758286
 21
198.6101276281
 31
0.0
 12
70.1073758286
 22
198.6101276281
 32
0.0
 13
70.1073758286
 23
198.6101276281
 33
0.0
  0
SOLID
  5
2F8
330
2F4
100
AcDbEntity
  8
0
  6
Continuous
 62
     7
370
    18
100
AcDbTrace
 10
69.3573758286
 20
168.6101276281
 30
0.0
 11
70.1073758286
 21
171.6101276281
 31
0.0
 12
68.6073758286
 22
171.6101276281
 32
0.0
 13
68.6073758286
 23
171.6101276281
 33
0.0
  0
LINE
  5
2F9
330
2F4
100
AcDbEntity
  8
0
  6
Continuous
 62
     7
370
     0
100
AcDbLine
 10
57.107272751
 20
201.6101276281
 30
0.0
 11
70.3573758286
 21
201.6101276281
 31
0.0
  0
LINE
  5
2FA
330
2F4
100
AcDbEntity
  8
0
  6
Continuous
 62
     7
370
     0
100
AcDbLine
 10
60.107272751
 20
168.6101276281
 30
0.0
 11
70.3573758286
 21
168.6101276281
 31
0.0
  0
LINE
  5
2FB
330
2F4
100
AcDbEntity
  8
0
  6
Continuous
 62
     7
370
     0
100
AcDbLine
 10
69.3573758286
 20
201.6101276281
 30
0.0
 11
69.3573758286
 21
168.6101276281
 31
0.0
  0
MTEXT
  5
2FC
330
2F4
100
AcDbEntity
  8
0
  6
Continuous
 62
     7
370
    18
100
AcDbMText
 10
64.8456389722
 20
183.0733221306
 30
0.0
 40
3.5
 41
0.0
 71
     1
 72
     1
  1
33
  7
SLDTEXTSTYLE0
 11
-7.044195017643634E-15
 21
1.0
 31
0.0
 73
     1
 44
1.0
  0
ENDBLK
  5
2F6
330
2F4
100
AcDbEntity
  8
0
100
AcDbBlockEnd
  0
BLOCK
  5
2FF
330
2FE
100
AcDbEntity
  8
0
100
AcDbBlockBegin
  2
_D_13
 70
     0
 10
0.0
 20
0.0
 30
0.0
  3
_D_13
  1

  0
ARC
  5
301
330
2FE
100
AcDbEntity
  8
0
  6
Continuous
 62
     7
370
    18
100
AcDbCircle
 10
63.1585753302
 20
228.5034601783
 30
0.0
 40
4.554435549315966
100
AcDbArc
 50
153.4349488229
 51
206.5650511771
  0
ARC
  5
302
330
2FE
100
AcDbEntity
  8
0
  6
Continuous
 62
     7
370
    18
100
AcDbCircle
 10
57.0481588377
 20
228.5034601783
 30
0.0
 40
4.554435549315966
100
AcDbArc
 50
333.4349488229
 51
26.5650511771
  0
SOLID
  5
303
330
2FE
100
AcDbEntity
  8
0
  6
Continuous
 62
     7
370
    18
100
AcDbTrace
 10
47.607272751
 20
226.4666546808
 30
0.0
 11
44.607272751
 21
227.2166546808
 31
0.0
 12
44.607272751
 22
225.7166546808
 32
0.0
 13
44.607272751
 23
225.7166546808
 33
0.0
  0
SOLID
  5
304
330
2FE
100
AcDbEntity
  8
0
  6
Continuous
 62
     7
370
    18
100
AcDbTrace
 10
50.607272751
 20
226.4666546808
 30
0.0
 11
53.607272751
 21
225.7166546808
 31
0.0
 12
53.607272751
 22
227.2166546808
 32
0.0
 13
53.607272751
 23
227.2166546808
 33
0.0
  0
LINE
  5
305
330
2FE
100
AcDbEntity
  8
0
  6
Continuous
 62
     7
370
     0
100
AcDbLine
 10
47.607272751
 20
220.5349391847
 30
0.0
 11
47.607272751
 21
227.4666546808
 31
0.0
  0
LINE
  5
306
330
2FE
100
AcDbEntity
  8
0
  6
Continuous
 62
     7
370
     0
100
AcDbLine
 10
50.607272751
 20
220.5349391847
 30
0.0
 11
50.607272751
 21
227.4666546808
 31
0.0
  0
LINE
  5
307
330
2FE
100
AcDbEntity
  8
0
  6
Continuous
 62
     7
370
     0
100
AcDbLine
 10
47.607272751
 20
226.4666546808
 30
0.0
 11
42.607272751
 21
226.4666546808
 31
0.0
  0
LINE
  5
308
330
2FE
100
AcDbEntity
  8
0
  6
Continuous
 62
     7
370
     0
100
AcDbLine
 10
47.607272751
 20
226.4666546808
 30
0.0
 11
50.607272751
 21
226.4666546808
 31
0.0
  0
LINE
  5
309
330
2FE
100
AcDbEntity
  8
0
  6
Continuous
 62
     7
370
     0
100
AcDbLine
 10
50.607272751
 20
226.4666546808
 30
0.0
 11
61.6025942739
 21
226.4666546808
 31
0.0
  0
MTEXT
  5
30A
330
2FE
100
AcDbEntity
  8
0
  6
Continuous
 62
     7
370
    18
100
AcDbMText
 10
59.0849643352
 20
230.9783915372
 30
0.0
 40
3.5
 41
0.0
 71
     1
 72
     1
  1
3
  7
SLDTEXTSTYLE0
 73
     1
 44
1.0
  0
ENDBLK
  5
300
330
2FE
100
AcDbEntity
  8
0
100
AcDbBlockEnd
  0
BLOCK
  5
30D
330
30C
100
AcDbEntity
  8
0
100
AcDbBlockBegin
  2
_D_14
 70
     0
 10
0.0
 20
0.0
 30
0.0
  3
_D_14
  1

  0
ARC
  5
30F
330
30C
100
AcDbEntity
  8
0
  6
Continuous
 62
     7
370
    18
100
AcDbCircle
 10
49.1072726928
 20
237.1685070011
 30
0.0
 40
4.554435549315966
100
AcDbArc
 50
153.4349488229
 51
206.5650511771
  0
ARC
  5
310
330
30C
100
AcDbEntity
  8
0
  6
Continuous
 62
     7
370
    18
100
AcDbCircle
 10
49.1072726928
 20
237.1685070011
 30
0.0
 40
4.554435549315966
100
AcDbArc
 50
333.4349488229
 51
26.5650511771
  0
SOLID
  5
311
330
30C
100
AcDbEntity
  8
0
  6
Continuous
 62
     7
370
    18
100
AcDbTrace
 10
43.3243250564
 20
235.1317015036
 30
0.0
 11
40.3243250564
 21
235.8817015036
 31
0.0
 12
40.3243250564
 22
234.3817015036
 32
0.0
 13
40.3243250564
 23
234.3817015036
 33
0.0
  0
SOLID
  5
312
330
30C
100
AcDbEntity
  8
0
  6
Continuous
 62
     7
370
    18
100
AcDbTrace
 10
54.8902204456
 20
235.1317015036
 30
0.0
 11
57.8902204456
 21
234.3817015036
 31
0.0
 12
57.8902204456
 22
235.8817015036
 32
0.0
 13
57.8902204456
 23
235.8817015036
 33
0.0
  0
LINE
  5
313
330
30C
100
AcDbEntity
  8
0
  6
Continuous
 62
     7
370
     0
100
AcDbLine
 10
43.3243250564
 20
209.2524945202
 30
0.0
 11
43.3243250564
 21
236.1317015036
 31
0.0
  0
LINE
  5
314
330
30C
100
AcDbEntity
  8
0
  6
Continuous
 62
     7
370
     0
100
AcDbLine
 10
54.8902204456
 20
209.2524945202
 30
0.0
 11
54.8902204456
 21
236.1317015036
 31
0.0
  0
LINE
  5
315
330
30C
100
AcDbEntity
  8
0
  6
Continuous
 62
     7
370
     0
100
AcDbLine
 10
43.3243250564
 20
235.1317015036
 30
0.0
 11
38.3243250564
 21
235.1317015036
 31
0.0
  0
LINE
  5
316
330
30C
100
AcDbEntity
  8
0
  6
Continuous
 62
     7
370
     0
100
AcDbLine
 10
43.3243250564
 20
235.1317015036
 30
0.0
 11
54.8902204456
 21
235.1317015036
 31
0.0
  0
LINE
  5
317
330
30C
100
AcDbEntity
  8
0
  6
Continuous
 62
     7
370
     0
100
AcDbLine
 10
54.8902204456
 20
235.1317015036
 30
0.0
 11
59.8902204456
 21
235.1317015036
 31
0.0
  0
MTEXT
  5
318
330
30C
100
AcDbEntity
  8
0
  6
Continuous
 62
     7
370
    18
100
AcDbMText
 10
45.0336616978
 20
239.64343836
 30
0.0
 40
3.5
 41
0.0
 71
     1
 72
     1
  1
11.6
  7
SLDTEXTSTYLE0
 73
     1
 44
1.0
  0
ENDBLK
  5
30E
330
30C
100
AcDbEntity
  8
0
100
AcDbBlockEnd
  0
BLOCK
  5
31B
330
31A
100
AcDbEntity
  8
0
100
AcDbBlockBegin
  2
_D_15
 70
     0
 10
0.0
 20
0.0
 30
0.0
  3
_D_15
  1

  0
SOLID
  5
31D
330
31A
100
AcDbEntity
  8
0
  6
Continuous
 62
     7
370
    18
100
AcDbTrace
 10
30.3129485392
 20
204.6101276281
 30
0.0
 11
29.5629485392
 21
201.6101276281
 31
0.0
 12
31.0629485392
 22
201.6101276281
 32
0.0
 13
31.0629485392
 23
201.6101276281
 33
0.0
  0
SOLID
  5
31E
330
31A
100
AcDbEntity
  8
0
  6
Continuous
 62
     7
370
    18
100
AcDbTrace
 10
30.3129485392
 20
168.6101276281
 30
0.0
 11
31.0629485392
 21
171.6101276281
 31
0.0
 12
29.5629485392
 22
171.6101276281
 32
0.0
 13
29.5629485392
 23
171.6101276281
 33
0.0
  0
LINE
  5
31F
330
31A
100
AcDbEntity
  8
0
  6
Continuous
 62
     7
370
     0
100
AcDbLine
 10
43.357272751
 20
204.6101276281
 30
0.0
 11
29.3129485392
 21
204.6101276281
 31
0.0
  0
LINE
  5
320
330
31A
100
AcDbEntity
  8
0
  6
Continuous
 62
     7
370
     0
100
AcDbLine
 10
38.107272751
 20
168.6101276281
 30
0.0
 11
29.3129485392
 21
168.6101276281
 31
0.0
  0
LINE
  5
321
330
31A
100
AcDbEntity
  8
0
  6
Continuous
 62
     7
370
     0
100
AcDbLine
 10
30.3129485392
 20
204.6101276281
 30
0.0
 11
30.3129485392
 21
168.6101276281
 31
0.0
  0
MTEXT
  5
322
330
31A
100
AcDbEntity
  8
0
  6
Continuous
 62
     7
370
    18
100
AcDbMText
 10
25.8012116828
 20
184.5733221306
 30
0.0
 40
3.5
 41
0.0
 71
     1
 72
     1
  1
36
  7
SLDTEXTSTYLE0
 11
-7.044195017643634E-15
 21
1.0
 31
0.0
 73
     1
 44
1.0
  0
ENDBLK
  5
31C
330
31A
100
AcDbEntity
  8
0
100
AcDbBlockEnd
  0
BLOCK
  5
325
330
324
100
AcDbEntity
  8
0
100
AcDbBlockBegin
  2
_D_16
 70
     0
 10
0.0
 20
0.0
 30
0.0
  3
_D_16
  1

  0
SOLID
  5
327
330
324
100
AcDbEntity
  8
0
  6
Continuous
 62
     7
370
    18
100
AcDbTrace
 10
77.6716355009
 20
168.6101276281
 30
0.0
 11
78.4216355009
 21
171.6101276281
 31
0.0
 12
76.9216355009
 22
171.6101276281
 32
0.0
 13
76.9216355009
 23
171.6101276281
 33
0.0
  0
SOLID
  5
328
330
324
100
AcDbEntity
  8
0
  6
Continuous
 62
     7
370
    18
100
AcDbTrace
 10
77.6716355009
 20
209.6101276318
 30
0.0
 11
76.9216355009
 21
206.6101276318
 31
0.0
 12
78.4216355009
 22
206.6101276318
 32
0.0
 13
78.4216355009
 23
206.6101276318
 33
0.0
  0
LINE
  5
329
330
324
100
AcDbEntity
  8
0
  6
Continuous
 62
     7
370
     0
100
AcDbLine
 10
60.107272751
 20
168.6101276281
 30
0.0
 11
78.6716355009
 21
168.6101276281
 31
0.0
  0
LINE
  5
32A
330
324
100
AcDbEntity
  8
0
  6
Continuous
 62
     7
370
     0
100
AcDbLine
 10
57.2779840092
 20
209.6101276318
 30
0.0
 11
78.6716355009
 21
209.6101276318
 31
0.0
  0
LINE
  5
32B
330
324
100
AcDbEntity
  8
0
  6
Continuous
 62
     7
370
     0
100
AcDbLine
 10
77.6716355009
 20
168.6101276281
 30
0.0
 11
77.6716355009
 21
209.6101276318
 31
0.0
  0
MTEXT
  5
32C
330
324
100
AcDbEntity
  8
0
  6
Continuous
 62
     7
370
    18
100
AcDbMText
 10
73.1598986445
 20
187.0733221324
 30
0.0
 40
3.5
 41
0.0
 71
     1
 72
     1
  1
41
  7
SLDTEXTSTYLE0
 11
6.123233995736766E-17
 21
1.0
 31
0.0
 73
     1
 44
1.0
  0
ENDBLK
  5
326
330
324
100
AcDbEntity
  8
0
100
AcDbBlockEnd
  0
BLOCK
  5
32F
330
32E
100
AcDbEntity
  8
0
100
AcDbBlockBegin
  2
_D_17
 70
     0
 10
0.0
 20
0.0
 30
0.0
  3
_D_17
  1

  0
ARC
  5
331
330
32E
100
AcDbEntity
  8
0
  6
Continuous
 62
     7
370
    18
100
AcDbCircle
 10
75.6348300034
 20
215.5909359823
 30
0.0
 40
4.554435549315953
100
AcDbArc
 50
243.4349488229
 51
296.5650511771
  0
ARC
  5
332
330
32E
100
AcDbEntity
  8
0
  6
Continuous
 62
     7
370
    18
100
AcDbCircle
 10
75.6348300034
 20
213.5541307177
 30
0.0
 40
4.554435549315978
100
AcDbArc
 50
63.4349488229
 51
116.5650511771
  0
SOLID
  5
333
330
32E
100
AcDbEntity
  8
0
  6
Continuous
 62
     7
370
    18
100
AcDbTrace
 10
77.6716355009
 20
219.5349391847
 30
0.0
 11
78.4216355009
 21
222.5349391847
 31
0.0
 12
76.9216355009
 22
222.5349391847
 32
0.0
 13
76.9216355009
 23
222.5349391847
 33
0.0
  0
SOLID
  5
334
330
32E
100
AcDbEntity
  8
0
  6
Continuous
 62
     7
370
    18
100
AcDbTrace
 10
77.6716355009
 20
209.6101276318
 30
0.0
 11
76.9216355009
 21
206.6101276318
 31
0.0
 12
78.4216355009
 22
206.6101276318
 32
0.0
 13
78.4216355009
 23
206.6101276318
 33
0.0
  0
LINE
  5
335
330
32E
100
AcDbEntity
  8
0
  6
Continuous
 62
     7
370
     0
100
AcDbLine
 10
51.607272751
 20
219.5349391847
 30
0.0
 11
78.6716355009
 21
219.5349391847
 31
0.0
  0
LINE
  5
336
330
32E
100
AcDbEntity
  8
0
  6
Continuous
 62
     7
370
     0
100
AcDbLine
 10
57.2779840092
 20
209.6101276318
 30
0.0
 11
78.6716355009
 21
209.6101276318
 31
0.0
  0
LINE
  5
337
330
32E
100
AcDbEntity
  8
0
  6
Continuous
 62
     7
370
     0
100
AcDbLine
 10
77.6716355009
 20
219.5349391847
 30
0.0
 11
77.6716355009
 21
224.5349391847
 31
0.0
  0
LINE
  5
338
330
32E
100
AcDbEntity
  8
0
  6
Continuous
 62
     7
370
     0
100
AcDbLine
 10
77.6716355009
 20
219.5349391847
 30
0.0
 11
77.6716355009
 21
209.6101276318
 31
0.0
  0
LINE
  5
339
330
32E
100
AcDbEntity
  8
0
  6
Continuous
 62
     7
370
     0
100
AcDbLine
 10
77.6716355009
 20
209.6101276318
 30
0.0
 11
77.6716355009
 21
204.6101276318
 31
0.0
  0
MTEXT
  5
33A
330
32E
100
AcDbEntity
  8
0
  6
Continuous
 62
     7
370
    18
100
AcDbMText
 10
73.1598986445
 20
211.5173249874
 30
0.0
 40
3.5
 41
0.0
 71
     1
 72
     1
  1
9.9
  7
SLDTEXTSTYLE0
 11
-7.932373437343760E-15
 21
1.0
 31
0.0
 73
     1
 44
1.0
  0
ENDBLK
  5
330
330
32E
100
AcDbEntity
  8
0
100
AcDbBlockEnd
  0
BLOCK
  5
33C
330
33B
100
AcDbEntity
  8
0
100
AcDbBlockBegin
  2
SW_CENTERMARKSYMBOL_0
 70
     0
 10
0.0
 20
0.0
 30
0.0
  3
SW_CENTERMARKSYMBOL_0
  1

  0
LINE
  5
33E
330
33B
100
AcDbEntity
  8
0
  6
Continuous
 62
     0
370
    18
100
AcDbLine
 10
0.0
 20
0.0
 30
0.0
 11
0.0
 21
2.5
 31
0.0
  0
LINE
  5
33F
330
33B
100
AcDbEntity
  8
0
  6
Continuous
 62
     0
370
    18
100
AcDbLine
 10
0.0
 20
0.0
 30
0.0
 11
-2.5
 21
0.0
 31
0.0
  0
LINE
  5
340
330
33B
100
AcDbEntity
  8
0
  6
Continuous
 62
     0
370
    18
100
AcDbLine
 10
0.0
 20
0.0
 30
0.0
 11
0.0
 21
-2.5
 31
0.0
  0
LINE
  5
341
330
33B
100
AcDbEntity
  8
0
  6
Continuous
 62
     0
370
    18
100
AcDbLine
 10
0.0
 20
0.0
 30
0.0
 11
2.5
 21
0.0
 31
0.0
  0
LINE
  5
342
330
33B
100
AcDbEntity
  8
0
  6
Continuous
 62
     0
370
    18
100
AcDbLine
 10
0.0
 20
5.0
 30
0.0
 11
0.0
 21
6.5
 31
0.0
  0
LINE
  5
343
330
33B
100
AcDbEntity
  8
0
  6
Continuous
 62
     0
370
    18
100
AcDbLine
 10
-5.0
 20
0.0
 30
0.0
 11
-6.5
 21
0.0
 31
0.0
  0
LINE
  5
344
330
33B
100
AcDbEntity
  8
0
  6
Continuous
 62
     0
370
    18
100
AcDbLine
 10
0.0
 20
-5.0
 30
0.0
 11
0.0
 21
-6.5
 31
0.0
  0
LINE
  5
345
330
33B
100
AcDbEntity
  8
0
  6
Continuous
 62
     0
370
    18
100
AcDbLine
 10
5.0
 20
0.0
 30
0.0
 11
6.5
 21
0.0
 31
0.0
  0
ENDBLK
  5
33D
330
33B
100
AcDbEntity
  8
0
100
AcDbBlockEnd
  0
BLOCK
  5
348
330
347
100
AcDbEntity
  8
0
100
AcDbBlockBegin
  2
SW_CENTERMARKSYMBOL_1
 70
     0
 10
0.0
 20
0.0
 30
0.0
  3
SW_CENTERMARKSYMBOL_1
  1

  0
LINE
  5
34A
330
347
100
AcDbEntity
  8
0
  6
Continuous
 62
     0
370
    18
100
AcDbLine
 10
0.0
 20
0.0
 30
0.0
 11
0.0
 21
2.5
 31
0.0
  0
LINE
  5
34B
330
347
100
AcDbEntity
  8
0
  6
Continuous
 62
     0
370
    18
100
AcDbLine
 10
0.0
 20
0.0
 30
0.0
 11
-2.5
 21
0.0
 31
0.0
  0
LINE
  5
34C
330
347
100
AcDbEntity
  8
0
  6
Continuous
 62
     0
370
    18
100
AcDbLine
 10
0.0
 20
0.0
 30
0.0
 11
0.0
 21
-2.5
 31
0.0
  0
LINE
  5
34D
330
347
100
AcDbEntity
  8
0
  6
Continuous
 62
     0
370
    18
100
AcDbLine
 10
0.0
 20
0.0
 30
0.0
 11
2.5
 21
0.0
 31
0.0
  0
LINE
  5
34E
330
347
100
AcDbEntity
  8
0
  6
Continuous
 62
     0
370
    18
100
AcDbLine
 10
0.0
 20
5.0
 30
0.0
 11
0.0
 21
5.25
 31
0.0
  0
LINE
  5
34F
330
347
100
AcDbEntity
  8
0
  6
Continuous
 62
     0
370
    18
100
AcDbLine
 10
-5.0
 20
0.0
 30
0.0
 11
-5.25
 21
0.0
 31
0.0
  0
LINE
  5
350
330
347
100
AcDbEntity
  8
0
  6
Continuous
 62
     0
370
    18
100
AcDbLine
 10
0.0
 20
-5.0
 30
0.0
 11
0.0
 21
-5.25
 31
0.0
  0
LINE
  5
351
330
347
100
AcDbEntity
  8
0
  6
Continuous
 62
     0
370
    18
100
AcDbLine
 10
5.0
 20
0.0
 30
0.0
 11
5.25
 21
0.0
 31
0.0
  0
ENDBLK
  5
349
330
347
100
AcDbEntity
  8
0
100
AcDbBlockEnd
  0
BLOCK
  5
354
330
353
100
AcDbEntity
  8
0
100
AcDbBlockBegin
  2
SW_CENTERMARKSYMBOL_2
 70
     0
 10
0.0
 20
0.0
 30
0.0
  3
SW_CENTERMARKSYMBOL_2
  1

  0
LINE
  5
356
330
353
100
AcDbEntity
  8
0
  6
Continuous
 62
     0
370
    18
100
AcDbLine
 10
0.0
 20
0.0
 30
0.0
 11
0.0
 21
2.5
 31
0.0
  0
LINE
  5
357
330
353
100
AcDbEntity
  8
0
  6
Continuous
 62
     0
370
    18
100
AcDbLine
 10
0.0
 20
0.0
 30
0.0
 11
-2.5
 21
0.0
 31
0.0
  0
LINE
  5
358
330
353
100
AcDbEntity
  8
0
  6
Continuous
 62
     0
370
    18
100
AcDbLine
 10
0.0
 20
0.0
 30
0.0
 11
0.0
 21
-2.5
 31
0.0
  0
LINE
  5
359
330
353
100
AcDbEntity
  8
0
  6
Continuous
 62
     0
370
    18
100
AcDbLine
 10
0.0
 20
0.0
 30
0.0
 11
2.5
 21
0.0
 31
0.0
  0
LINE
  5
35A
330
353
100
AcDbEntity
  8
0
  6
Continuous
 62
     0
370
    18
100
AcDbLine
 10
0.0
 20
5.0
 30
0.0
 11
0.0
 21
6.45
 31
0.0
  0
LINE
  5
35B
330
353
100
AcDbEntity
  8
0
  6
Continuous
 62
     0
370
    18
100
AcDbLine
 10
-5.0
 20
0.0
 30
0.0
 11
-6.45
 21
0.0
 31
0.0
  0
LINE
  5
35C
330
353
100
AcDbEntity
  8
0
  6
Continuous
 62
     0
370
    18
100
AcDbLine
 10
0.0
 20
-5.0
 30
0.0
 11
0.0
 21
-6.45
 31
0.0
  0
LINE
  5
35D
330
353
100
AcDbEntity
  8
0
  6
Continuous
 62
     0
370
    18
100
AcDbLine
 10
5.0
 20
0.0
 30
0.0
 11
6.45
 21
0.0
 31
0.0
  0
ENDBLK
  5
355
330
353
100
AcDbEntity
  8
0
100
AcDbBlockEnd
  0
BLOCK
  5
360
330
35F
100
AcDbEntity
  8
0
100
AcDbBlockBegin
  2
SW_CENTERMARKSYMBOL_3
 70
     0
 10
0.0
 20
0.0
 30
0.0
  3
SW_CENTERMARKSYMBOL_3
  1

  0
LINE
  5
362
330
35F
100
AcDbEntity
  8
0
  6
Continuous
 62
     0
370
    18
100
AcDbLine
 10
0.0
 20
0.0
 30
0.0
 11
0.0
 21
2.5
 31
0.0
  0
LINE
  5
363
330
35F
100
AcDbEntity
  8
0
  6
Continuous
 62
     0
370
    18
100
AcDbLine
 10
0.0
 20
0.0
 30
0.0
 11
-2.5
 21
0.0
 31
0.0
  0
LINE
  5
364
330
35F
100
AcDbEntity
  8
0
  6
Continuous
 62
     0
370
    18
100
AcDbLine
 10
0.0
 20
0.0
 30
0.0
 11
0.0
 21
-2.5
 31
0.0
  0
LINE
  5
365
330
35F
100
AcDbEntity
  8
0
  6
Continuous
 62
     0
370
    18
100
AcDbLine
 10
0.0
 20
0.0
 30
0.0
 11
2.5
 21
0.0
 31
0.0
  0
LINE
  5
366
330
35F
100
AcDbEntity
  8
0
  6
Continuous
 62
     0
370
    18
100
AcDbLine
 10
0.0
 20
2.5
 30
0.0
 11
0.0
 21
4.75
 31
0.0
  0
LINE
  5
367
330
35F
100
AcDbEntity
  8
0
  6
Continuous
 62
     0
370
    18
100
AcDbLine
 10
-2.5
 20
0.0
 30
0.0
 11
-4.75
 21
0.0
 31
0.0
  0
LINE
  5
368
330
35F
100
AcDbEntity
  8
0
  6
Continuous
 62
     0
370
    18
100
AcDbLine
 10
0.0
 20
-2.5
 30
0.0
 11
0.0
 21
-4.75
 31
0.0
  0
LINE
  5
369
330
35F
100
AcDbEntity
  8
0
  6
Continuous
 62
     0
370
    18
100
AcDbLine
 10
2.5
 20
0.0
 30
0.0
 11
4.75
 21
0.0
 31
0.0
  0
ENDBLK
  5
361
330
35F
100
AcDbEntity
  8
0
100
AcDbBlockEnd
  0
BLOCK
  5
36C
330
36B
100
AcDbEntity
  8
0
100
AcDbBlockBegin
  2
SW_CENTERMARKSYMBOL_4
 70
     0
 10
0.0
 20
0.0
 30
0.0
  3
SW_CENTERMARKSYMBOL_4
  1

  0
LINE
  5
36E
330
36B
100
AcDbEntity
  8
0
  6
Continuous
 62
     0
370
    18
100
AcDbLine
 10
0.0
 20
0.0
 30
0.0
 11
0.0
 21
2.5
 31
0.0
  0
LINE
  5
36F
330
36B
100
AcDbEntity
  8
0
  6
Continuous
 62
     0
370
    18
100
AcDbLine
 10
0.0
 20
0.0
 30
0.0
 11
-2.5
 21
0.0
 31
0.0
  0
LINE
  5
370
330
36B
100
AcDbEntity
  8
0
  6
Continuous
 62
     0
370
    18
100
AcDbLine
 10
0.0
 20
0.0
 30
0.0
 11
0.0
 21
-2.5
 31
0.0
  0
LINE
  5
371
330
36B
100
AcDbEntity
  8
0
  6
Continuous
 62
     0
370
    18
100
AcDbLine
 10
0.0
 20
0.0
 30
0.0
 11
2.5
 21
0.0
 31
0.0
  0
LINE
  5
372
330
36B
100
AcDbEntity
  8
0
  6
Continuous
 62
     0
370
    18
100
AcDbLine
 10
0.0
 20
2.5
 30
0.0
 11
0.0
 21
4.75
 31
0.0
  0
LINE
  5
373
330
36B
100
AcDbEntity
  8
0
  6
Continuous
 62
     0
370
    18
100
AcDbLine
 10
-2.5
 20
0.0
 30
0.0
 11
-4.75
 21
0.0
 31
0.0
  0
LINE
  5
374
330
36B
100
AcDbEntity
  8
0
  6
Continuous
 62
     0
370
    18
100
AcDbLine
 10
0.0
 20
-2.5
 30
0.0
 11
0.0
 21
-4.75
 31
0.0
  0
LINE
  5
375
330
36B
100
AcDbEntity
  8
0
  6
Continuous
 62
     0
370
    18
100
AcDbLine
 10
2.5
 20
0.0
 30
0.0
 11
4.75
 21
0.0
 31
0.0
  0
ENDBLK
  5
36D
330
36B
100
AcDbEntity
  8
0
100
AcDbBlockEnd
  0
BLOCK
  5
378
330
377
100
AcDbEntity
  8
0
100
AcDbBlockBegin
  2
SW_CENTERMARKSYMBOL_5
 70
     0
 10
0.0
 20
0.0
 30
0.0
  3
SW_CENTERMARKSYMBOL_5
  1

  0
LINE
  5
37A
330
377
100
AcDbEntity
  8
0
  6
Continuous
 62
     0
370
    18
100
AcDbLine
 10
0.0
 20
0.0
 30
0.0
 11
0.0
 21
2.5
 31
0.0
  0
LINE
  5
37B
330
377
100
AcDbEntity
  8
0
  6
Continuous
 62
     0
370
    18
100
AcDbLine
 10
0.0
 20
0.0
 30
0.0
 11
-2.5
 21
0.0
 31
0.0
  0
LINE
  5
37C
330
377
100
AcDbEntity
  8
0
  6
Continuous
 62
     0
370
    18
100
AcDbLine
 10
0.0
 20
0.0
 30
0.0
 11
0.0
 21
-2.5
 31
0.0
  0
LINE
  5
37D
330
377
100
AcDbEntity
  8
0
  6
Continuous
 62
     0
370
    18
100
AcDbLine
 10
0.0
 20
0.0
 30
0.0
 11
2.5
 21
0.0
 31
0.0
  0
LINE
  5
37E
330
377
100
AcDbEntity
  8
0
  6
Continuous
 62
     0
370
    18
100
AcDbLine
 10
0.0
 20
2.5
 30
0.0
 11
0.0
 21
4.75
 31
0.0
  0
LINE
  5
37F
330
377
100
AcDbEntity
  8
0
  6
Continuous
 62
     0
370
    18
100
AcDbLine
 10
-2.5
 20
0.0
 30
0.0
 11
-4.75
 21
0.0
 31
0.0
  0
LINE
  5
380
330
377
100
AcDbEntity
  8
0
  6
Continuous
 62
     0
370
    18
100
AcDbLine
 10
0.0
 20
-2.5
 30
0.0
 11
0.0
 21
-4.75
 31
0.0
  0
LINE
  5
381
330
377
100
AcDbEntity
  8
0
  6
Continuous
 62
     0
370
    18
100
AcDbLine
 10
2.5
 20
0.0
 30
0.0
 11
4.75
 21
0.0
 31
0.0
  0
ENDBLK
  5
379
330
377
100
AcDbEntity
  8
0
100
AcDbBlockEnd
  0
BLOCK
  5
434
330
433
100
AcDbEntity
  8
0
100
AcDbBlockBegin
  2
_D_18
 70
     0
 10
0.0
 20
0.0
 30
0.0
  3
_D_18
  1

  0
SOLID
  5
436
330
433
100
AcDbEntity
  8
0
  6
Continuous
 62
     7
370
    18
100
AcDbTrace
 10
141.4496971602
 20
102.423216097
 30
0.0
 11
144.1013475896
 21
104.0142063546
 31
0.0
 12
143.0406874178
 22
105.0748665264
 32
0.0
 13
143.0406874178
 23
105.0748665264
 33
0.0
  0
LINE
  5
437
330
433
100
AcDbEntity
  8
0
  6
Continuous
 62
     7
370
     0
100
AcDbLine
 10
141.4496971602
 20
102.423216097
 30
0.0
 11
155.5519548172
 21
116.525473754
 31
0.0
  0
LINE
  5
438
330
433
100
AcDbEntity
  8
0
  6
Continuous
 62
     7
370
     0
100
AcDbLine
 10
155.5519548172
 20
116.525473754
 30
0.0
 11
179.5443136597
 21
116.525473754
 31
0.0
  0
MTEXT
  5
439
330
433
100
AcDbEntity
  8
0
  6
Continuous
 62
     7
370
    18
100
AcDbMText
 10
157.1394548172
 20
121.0372106104
 30
0.0
 40
3.5
 41
0.0
 71
     1
 72
     1
  1
2-M4 取付用
  7
SLDTEXTSTYLE0
 73
     1
 44
1.0
  0
ENDBLK
  5
435
330
433
100
AcDbEntity
  8
0
100
AcDbBlockEnd
  0
BLOCK
  5
43C
330
43B
100
AcDbEntity
  8
0
100
AcDbBlockBegin
  2
_D_19
 70
     0
 10
0.0
 20
0.0
 30
0.0
  3
_D_19
  1

  0
SOLID
  5
43E
330
43B
100
AcDbEntity
  8
0
  6
Continuous
 62
     7
370
    18
100
AcDbTrace
 10
182.7829709712
 20
82.1511147942
 30
0.0
 11
179.7829709712
 21
82.9011147942
 31
0.0
 12
179.7829709712
 22
81.4011147942
 32
0.0
 13
179.7829709712
 23
81.4011147942
 33
0.0
  0
SOLID
  5
43F
330
43B
100
AcDbEntity
  8
0
  6
Continuous
 62
     7
370
    18
100
AcDbTrace
 10
160.2829709712
 20
82.1511147942
 30
0.0
 11
163.2829709712
 21
81.4011147942
 31
0.0
 12
163.2829709712
 22
82.9011147942
 32
0.0
 13
163.2829709712
 23
82.9011147942
 33
0.0
  0
LINE
  5
440
330
43B
100
AcDbEntity
  8
0
  6
Continuous
 62
     7
370
     0
100
AcDbLine
 10
182.7829709712
 20
90.756489908
 30
0.0
 11
182.7829709712
 21
81.1511147942
 31
0.0
  0
LINE
  5
441
330
43B
100
AcDbEntity
  8
0
  6
Continuous
 62
     7
370
     0
100
AcDbLine
 10
160.2829709712
 20
96.106489908
 30
0.0
 11
160.2829709712
 21
81.1511147942
 31
0.0
  0
LINE
  5
442
330
43B
100
AcDbEntity
  8
0
  6
Continuous
 62
     7
370
     0
100
AcDbLine
 10
182.7829709712
 20
82.1511147942
 30
0.0
 11
160.2829709712
 21
82.1511147942
 31
0.0
  0
MTEXT
  5
443
330
43B
100
AcDbEntity
  8
0
  6
Continuous
 62
     7
370
    18
100
AcDbMText
 10
167.4593599762
 20
86.6628516506
 30
0.0
 40
3.5
 41
0.0
 71
     1
 72
     1
  1
22.5
  7
SLDTEXTSTYLE0
 73
     1
 44
1.0
  0
ENDBLK
  5
43D
330
43B
100
AcDbEntity
  8
0
100
AcDbBlockEnd
  0
BLOCK
  5
446
330
445
100
AcDbEntity
  8
0
100
AcDbBlockBegin
  2
_D_20
 70
     0
 10
0.0
 20
0.0
 30
0.0
  3
_D_20
  1

  0
SOLID
  5
448
330
445
100
AcDbEntity
  8
0
  6
Continuous
 62
     7
370
    18
100
AcDbTrace
 10
160.2829709712
 20
82.1511147942
 30
0.0
 11
157.2829709712
 21
82.9011147942
 31
0.0
 12
157.2829709712
 22
81.4011147942
 32
0.0
 13
157.2829709712
 23
81.4011147942
 33
0.0
  0
SOLID
  5
449
330
445
100
AcDbEntity
  8
0
  6
Continuous
 62
     7
370
    18
100
AcDbTrace
 10
140.2829709712
 20
82.1511147942
 30
0.0
 11
143.2829709712
 21
81.4011147942
 31
0.0
 12
143.2829709712
 22
82.9011147942
 32
0.0
 13
143.2829709712
 23
82.9011147942
 33
0.0
  0
LINE
  5
44A
330
445
100
AcDbEntity
  8
0
  6
Continuous
 62
     7
370
     0
100
AcDbLine
 10
160.2829709712
 20
96.106489908
 30
0.0
 11
160.2829709712
 21
81.1511147942
 31
0.0
  0
LINE
  5
44B
330
445
100
AcDbEntity
  8
0
  6
Continuous
 62
     7
370
     0
100
AcDbLine
 10
140.2829709712
 20
96.106489908
 30
0.0
 11
140.2829709712
 21
81.1511147942
 31
0.0
  0
LINE
  5
44C
330
445
100
AcDbEntity
  8
0
  6
Continuous
 62
     7
370
     0
100
AcDbLine
 10
160.2829709712
 20
82.1511147942
 30
0.0
 11
140.2829709712
 21
82.1511147942
 31
0.0
  0
MTEXT
  5
44D
330
445
100
AcDbEntity
  8
0
  6
Continuous
 62
     7
370
    18
100
AcDbMText
 10
148.2461654737
 20
86.6628516506
 30
0.0
 40
3.5
 41
0.0
 71
     1
 72
     1
  1
20
  7
SLDTEXTSTYLE0
 73
     1
 44
1.0
  0
ENDBLK
  5
447
330
445
100
AcDbEntity
  8
0
100
AcDbBlockEnd
  0
BLOCK
  5
450
330
44F
100
AcDbEntity
  8
0
100
AcDbBlockBegin
  2
_D_21
 70
     0
 10
0.0
 20
0.0
 30
0.0
  3
_D_21
  1

  0
SOLID
  5
452
330
44F
100
AcDbEntity
  8
0
  6
Continuous
 62
     7
370
    18
100
AcDbTrace
 10
121.2829709712
 20
82.1511147942
 30
0.0
 11
124.2829709712
 21
81.4011147942
 31
0.0
 12
124.2829709712
 22
82.9011147942
 32
0.0
 13
124.2829709712
 23
82.9011147942
 33
0.0
  0
SOLID
  5
453
330
44F
100
AcDbEntity
  8
0
  6
Continuous
 62
     7
370
    18
100
AcDbTrace
 10
140.2829709712
 20
82.1511147942
 30
0.0
 11
137.2829709712
 21
82.9011147942
 31
0.0
 12
137.2829709712
 22
81.4011147942
 32
0.0
 13
137.2829709712
 23
81.4011147942
 33
0.0
  0
LINE
  5
454
330
44F
100
AcDbEntity
  8
0
  6
Continuous
 62
     7
370
     0
100
AcDbLine
 10
121.2829709712
 20
90.256489908
 30
0.0
 11
121.2829709712
 21
81.1511147942
 31
0.0
  0
LINE
  5
455
330
44F
100
AcDbEntity
  8
0
  6
Continuous
 62
     7
370
     0
100
AcDbLine
 10
140.2829709712
 20
96.106489908
 30
0.0
 11
140.2829709712
 21
81.1511147942
 31
0.0
  0
LINE
  5
456
330
44F
100
AcDbEntity
  8
0
  6
Continuous
 62
     7
370
     0
100
AcDbLine
 10
121.2829709712
 20
82.1511147942
 30
0.0
 11
140.2829709712
 21
82.1511147942
 31
0.0
  0
MTEXT
  5
457
330
44F
100
AcDbEntity
  8
0
  6
Continuous
 62
     7
370
    18
100
AcDbMText
 10
128.7461654737
 20
86.6628516506
 30
0.0
 40
3.5
 41
0.0
 71
     1
 72
     1
  1
19
  7
SLDTEXTSTYLE0
 73
     1
 44
1.0
  0
ENDBLK
  5
451
330
44F
100
AcDbEntity
  8
0
100
AcDbBlockEnd
  0
BLOCK
  5
459
330
458
100
AcDbEntity
  8
0
100
AcDbBlockBegin
  2
SW_NOTE_0_2
 70
     0
 10
0.0
 20
0.0
 30
0.0
  3
SW_NOTE_0_2
  1

  0
LINE
  5
45B
330
458
100
AcDbEntity
  8
0
  6
Continuous
 62
     0
370
     0
100
AcDbLine
 10
-28.6402755678
 20
0.0
 30
0.0
 11
0.0
 21
0.0
 31
0.0
  0
MTEXT
  5
45C
330
458
100
AcDbEntity
  8
0
  6
Continuous
 62
     0
370
     0
100
AcDbMText
 10
-29.082790611
 20
4.6187012076
 30
0.0
 40
3.5
 41
0.0
 71
     1
 72
     1
  1
ストローク調整
  7
SLDTEXTSTYLE0
 73
     1
 44
1.0
  0
ENDBLK
  5
45A
330
458
100
AcDbEntity
  8
0
100
AcDbBlockEnd
  0
BLOCK
  5
461
330
460
100
AcDbEntity
  8
0
100
AcDbBlockBegin
  2
SW_CENTERMARKSYMBOL_6
 70
     0
 10
0.0
 20
0.0
 30
0.0
  3
SW_CENTERMARKSYMBOL_6
  1

  0
LINE
  5
463
330
460
100
AcDbEntity
  8
0
  6
Continuous
 62
     0
370
    18
100
AcDbLine
 10
0.0
 20
0.0
 30
0.0
 11
0.0
 21
2.5
 31
0.0
  0
LINE
  5
464
330
460
100
AcDbEntity
  8
0
  6
Continuous
 62
     0
370
    18
100
AcDbLine
 10
0.0
 20
0.0
 30
0.0
 11
-2.5
 21
0.0
 31
0.0
  0
LINE
  5
465
330
460
100
AcDbEntity
  8
0
  6
Continuous
 62
     0
370
    18
100
AcDbLine
 10
0.0
 20
0.0
 30
0.0
 11
0.0
 21
-2.5
 31
0.0
  0
LINE
  5
466
330
460
100
AcDbEntity
  8
0
  6
Continuous
 62
     0
370
    18
100
AcDbLine
 10
0.0
 20
0.0
 30
0.0
 11
2.5
 21
0.0
 31
0.0
  0
LINE
  5
467
330
460
100
AcDbEntity
  8
0
  6
Continuous
 62
     0
370
    18
100
AcDbLine
 10
0.0
 20
2.5
 30
0.0
 11
0.0
 21
4.15
 31
0.0
  0
LINE
  5
468
330
460
100
AcDbEntity
  8
0
  6
Continuous
 62
     0
370
    18
100
AcDbLine
 10
-2.5
 20
0.0
 30
0.0
 11
-4.15
 21
0.0
 31
0.0
  0
LINE
  5
469
330
460
100
AcDbEntity
  8
0
  6
Continuous
 62
     0
370
    18
100
AcDbLine
 10
0.0
 20
-2.5
 30
0.0
 11
0.0
 21
-4.15
 31
0.0
  0
LINE
  5
46A
330
460
100
AcDbEntity
  8
0
  6
Continuous
 62
     0
370
    18
100
AcDbLine
 10
2.5
 20
0.0
 30
0.0
 11
4.15
 21
0.0
 31
0.0
  0
ENDBLK
  5
462
330
460
100
AcDbEntity
  8
0
100
AcDbBlockEnd
  0
BLOCK
  5
46D
330
46C
100
AcDbEntity
  8
0
100
AcDbBlockBegin
  2
SW_CENTERMARKSYMBOL_7
 70
     0
 10
0.0
 20
0.0
 30
0.0
  3
SW_CENTERMARKSYMBOL_7
  1

  0
LINE
  5
46F
330
46C
100
AcDbEntity
  8
0
  6
Continuous
 62
     0
370
    18
100
AcDbLine
 10
0.0
 20
0.0
 30
0.0
 11
0.0
 21
2.5
 31
0.0
  0
LINE
  5
470
330
46C
100
AcDbEntity
  8
0
  6
Continuous
 62
     0
370
    18
100
AcDbLine
 10
0.0
 20
0.0
 30
0.0
 11
-2.5
 21
0.0
 31
0.0
  0
LINE
  5
471
330
46C
100
AcDbEntity
  8
0
  6
Continuous
 62
     0
370
    18
100
AcDbLine
 10
0.0
 20
0.0
 30
0.0
 11
0.0
 21
-2.5
 31
0.0
  0
LINE
  5
472
330
46C
100
AcDbEntity
  8
0
  6
Continuous
 62
     0
370
    18
100
AcDbLine
 10
0.0
 20
0.0
 30
0.0
 11
2.5
 21
0.0
 31
0.0
  0
LINE
  5
473
330
46C
100
AcDbEntity
  8
0
  6
Continuous
 62
     0
370
    18
100
AcDbLine
 10
0.0
 20
2.5
 30
0.0
 11
0.0
 21
4.15
 31
0.0
  0
LINE
  5
474
330
46C
100
AcDbEntity
  8
0
  6
Continuous
 62
     0
370
    18
100
AcDbLine
 10
-2.5
 20
0.0
 30
0.0
 11
-4.15
 21
0.0
 31
0.0
  0
LINE
  5
475
330
46C
100
AcDbEntity
  8
0
  6
Continuous
 62
     0
370
    18
100
AcDbLine
 10
0.0
 20
-2.5
 30
0.0
 11
0.0
 21
-4.15
 31
0.0
  0
LINE
  5
476
330
46C
100
AcDbEntity
  8
0
  6
Continuous
 62
     0
370
    18
100
AcDbLine
 10
2.5
 20
0.0
 30
0.0
 11
4.15
 21
0.0
 31
0.0
  0
ENDBLK
  5
46E
330
46C
100
AcDbEntity
  8
0
100
AcDbBlockEnd
  0
ENDSEC
  0
SECTION
  2
ENTITIES
  0
LINE
  5
73
330
1F
100
AcDbEntity
  8
0
  6
Continuous
 62
     7
370
    18
100
AcDbLine
 10
20.2604743903
 20
285.0
 30
0.0
 11
196.7604743903
 21
285.0
 31
0.0
  0
LINE
  5
74
330
1F
100
AcDbEntity
  8
0
  6
Continuous
 62
     7
370
    18
100
AcDbLine
 10
20.2604743903
 20
285.0
 30
0.0
 11
20.2604743903
 21
10.0
 31
0.0
  0
LINE
  5
75
330
1F
100
AcDbEntity
  8
0
  6
Continuous
 62
     7
370
    18
100
AcDbLine
 10
20.2604743903
 20
10.0
 30
0.0
 11
196.7604743903
 21
10.0
 31
0.0
  0
LINE
  5
76
330
1F
100
AcDbEntity
  8
0
  6
Continuous
 62
     7
370
    18
100
AcDbLine
 10
196.7604743903
 20
285.0
 30
0.0
 11
196.7604743903
 21
10.0
 31
0.0
  0
LINE
  5
77
330
1F
100
AcDbEntity
  8
0
  6
Continuous
 62
     7
370
    18
100
AcDbLine
 10
127.0104743903
 20
50.75
 30
0.0
 11
196.7604743903
 21
50.75
 31
0.0
  0
LINE
  5
78
330
1F
100
AcDbEntity
  8
0
  6
Continuous
 62
     7
370
    18
100
AcDbLine
 10
127.0104743903
 20
50.75
 30
0.0
 11
127.0104743903
 21
10.0
 31
0.0
  0
LINE
  5
79
330
1F
100
AcDbEntity
  8
0
  6
Continuous
 62
     7
370
    18
100
AcDbLine
 10
127.0104743903
 20
22.75
 30
0.0
 11
196.7604743903
 21
22.75
 31
0.0
  0
LINE
  5
7A
330
1F
100
AcDbEntity
  8
0
  6
Continuous
 62
     7
370
    18
100
AcDbLine
 10
127.0104743903
 20
36.75
 30
0.0
 11
196.7604743903
 21
36.75
 31
0.0
  0
MTEXT
  5
7C
330
1F
100
AcDbEntity
  8
0
  6
Continuous
 62
     7
370
     0
100
AcDbMText
 10
162.9864321012
 20
30.4171582345
 30
0.0
 40
4.2333333333
 41
0.0
 71
     2
 72
     1
  1
HNW-10
  7
SLDTEXTSTYLE0
 73
     1
 44
1.0
  0
MTEXT
  5
7D
330
1F
100
AcDbEntity
  8
0
  6
Continuous
 62
     7
370
     0
100
AcDbMText
 10
160.1005512465
 20
43.9643957194
 30
0.0
 40
3.7041666667
 41
0.0
 71
     2
 72
     1
  1
ミニエアニッパー・本体・正刃付
  7
SLDTEXTSTYLE0
 73
     1
 44
1.0
  0
MTEXT
  5
7E
330
1F
100
AcDbEntity
  8
0
  6
Continuous
 62
     7
370
     0
100
AcDbMText
 10
162.9778601833
 20
16.8228189052
 30
0.0
 40
4.2333333333
 41
0.0
 71
     2
 72
     1
  1
073301
  7
SLDTEXTSTYLE0
 73
     1
 44
1.0
  0
ARC
  5
7F
330
1F
100
AcDbEntity
  8
0
  6
Continuous
 62
     7
370
    18
100
AcDbCircle
 10
179.3579709712
 20
176.9851276281
 30
0.0
 40
0.125
100
AcDbArc
 50
270.0
 51
0.0
  0
LINE
  5
80
330
1F
100
AcDbEntity
  8
0
  6
Continuous
 62
     7
370
    18
100
AcDbLine
 10
176.9829709712
 20
176.8601276281
 30
0.0
 11
179.3579709712
 21
176.8601276281
 31
0.0
  0
ARC
  5
81
330
1F
100
AcDbEntity
  8
0
  6
Continuous
 62
     7
370
    18
100
AcDbCircle
 10
179.3579709712
 20
181.2351276281
 30
0.0
 40
0.125
100
AcDbArc
 50
0.0
 51
90.0
  0
LINE
  5
82
330
1F
100
AcDbEntity
  8
0
  6
Continuous
 62
     7
370
    18
100
AcDbLine
 10
179.3579709712
 20
181.3601276281
 30
0.0
 11
176.9829709712
 21
181.3601276281
 31
0.0
  0
ARC
  5
83
330
1F
100
AcDbEntity
  8
0
  6
Continuous
 62
     7
370
    18
100
AcDbCircle
 10
134.7079709712
 20
177.4851276281
 30
0.0
 40
0.1250000000000284
100
AcDbArc
 50
180.0
 51
270.0
  0
ARC
  5
84
330
1F
100
AcDbEntity
  8
0
  6
Continuous
 62
     7
370
    18
100
AcDbCircle
 10
134.7079709712
 20
200.7351276281
 30
0.0
 40
0.1250000000000284
100
AcDbArc
 50
90.0
 51
180.0
  0
LINE
  5
85
330
1F
100
AcDbEntity
  8
0
  6
Continuous
 62
     7
370
    18
100
AcDbLine
 10
134.7079709712
 20
177.3601276281
 30
0.0
 11
137.0829709712
 21
177.3601276281
 31
0.0
  0
LINE
  5
86
330
1F
100
AcDbEntity
  8
0
  6
Continuous
 62
     7
370
    18
100
AcDbLine
 10
137.0829709712
 20
200.8601276281
 30
0.0
 11
134.7079709712
 21
200.8601276281
 31
0.0
  0
LINE
  5
87
330
1F
100
AcDbEntity
  8
0
  6
Continuous
 62
     7
370
    18
100
AcDbLine
 10
134.0829709712
 20
188.1101276281
 30
0.0
 11
133.2829709712
 21
188.1101276281
 31
0.0
  0
LINE
  5
88
330
1F
100
AcDbEntity
  8
0
  6
Continuous
 62
     7
370
    18
100
AcDbLine
 10
133.2829709712
 20
185.1101276281
 30
0.0
 11
134.0829709712
 21
185.1101276281
 31
0.0
  0
ARC
  5
89
330
1F
100
AcDbEntity
  8
0
  6
Continuous
 62
     7
370
    18
100
AcDbCircle
 10
134.7079709712
 20
196.4851276281
 30
0.0
 40
0.1250000000000284
100
AcDbArc
 50
180.0
 51
270.0
  0
LINE
  5
8A
330
1F
100
AcDbEntity
  8
0
  6
Continuous
 62
     7
370
    18
100
AcDbLine
 10
134.7079709712
 20
196.3601276281
 30
0.0
 11
137.0829709712
 21
196.3601276281
 31
0.0
  0
ARC
  5
8B
330
1F
100
AcDbEntity
  8
0
  6
Continuous
 62
     7
370
    18
100
AcDbCircle
 10
134.7079709712
 20
181.7351276281
 30
0.0
 40
0.1250000000000284
100
AcDbArc
 50
90.0
 51
180.0
  0
LINE
  5
8C
330
1F
100
AcDbEntity
  8
0
  6
Continuous
 62
     7
370
    18
100
AcDbLine
 10
137.0829709712
 20
181.8601276281
 30
0.0
 11
134.7079709712
 21
181.8601276281
 31
0.0
  0
ARC
  5
8D
330
1F
100
AcDbEntity
  8
0
  6
Continuous
 62
     7
370
    18
100
AcDbCircle
 10
127.3829709712
 20
181.4101276281
 30
0.0
 40
0.3000000000000114
100
AcDbArc
 50
180.0
 51
270.0
  0
ARC
  5
8E
330
1F
100
AcDbEntity
  8
0
  6
Continuous
 62
     7
370
    18
100
AcDbCircle
 10
127.3829709712
 20
191.8101276281
 30
0.0
 40
0.3000000000000398
100
AcDbArc
 50
90.0
 51
180.0
  0
LINE
  5
8F
330
1F
100
AcDbEntity
  8
0
  6
Continuous
 62
     7
370
    18
100
AcDbLine
 10
134.0829709712
 20
192.1101276281
 30
0.0
 11
127.3829709712
 21
192.1101276281
 31
0.0
  0
LINE
  5
90
330
1F
100
AcDbEntity
  8
0
  6
Continuous
 62
     7
370
    18
100
AcDbLine
 10
127.3829709712
 20
181.1101276281
 30
0.0
 11
134.0829709712
 21
181.1101276281
 31
0.0
  0
LINE
  5
91
330
1F
100
AcDbEntity
  8
0
  6
Continuous
 62
     7
370
    18
100
AcDbLine
 10
130.9013531118
 20
200.6101276281
 30
0.0
 11
130.5373828775
 21
201.6101276281
 31
0.0
  0
LINE
  5
92
330
1F
100
AcDbEntity
  8
0
  6
Continuous
 62
     7
370
    18
100
AcDbLine
 10
130.5373828775
 20
201.6101276281
 30
0.0
 11
121.5829709712
 21
201.6101276281
 31
0.0
  0
LINE
  5
93
330
1F
100
AcDbEntity
  8
0
  6
Continuous
 62
     7
370
    18
100
AcDbLine
 10
108.2829709712
 20
182.6101276281
 30
0.0
 11
117.2373828775
 21
182.6101276281
 31
0.0
  0
LINE
  5
94
330
1F
100
AcDbEntity
  8
0
  6
Continuous
 62
     7
370
    18
100
AcDbLine
 10
117.2373828775
 20
182.6101276281
 30
0.0
 11
117.6013531118
 21
183.6101276281
 31
0.0
  0
ARC
  5
95
330
1F
100
AcDbEntity
  8
0
  6
Continuous
 62
     7
370
    18
100
AcDbCircle
 10
106.6829709712
 20
183.1601276281
 30
0.0
 40
0.5
100
AcDbArc
 50
180.0
 51
270.0
  0
ARC
  5
96
330
1F
100
AcDbEntity
  8
0
  6
Continuous
 62
     7
370
    18
100
AcDbCircle
 10
119.9829709712
 20
201.0601276281
 30
0.0
 40
0.5000000000000284
100
AcDbArc
 50
90.0
 51
180.0
  0
LINE
  5
97
330
1F
100
AcDbEntity
  8
0
  6
Continuous
 62
     7
370
    18
100
AcDbLine
 10
120.9829709712
 20
201.5601276281
 30
0.0
 11
119.9829709712
 21
201.5601276281
 31
0.0
  0
LINE
  5
98
330
1F
100
AcDbEntity
  8
0
  6
Continuous
 62
     7
370
    18
100
AcDbLine
 10
106.6829709712
 20
182.6601276281
 30
0.0
 11
107.6829709712
 21
182.6601276281
 31
0.0
  0
LINE
  5
99
330
1F
100
AcDbEntity
  8
0
  6
Continuous
 62
     7
370
    18
100
AcDbLine
 10
121.5829709712
 20
193.6101276281
 30
0.0
 11
130.5373828775
 21
193.6101276281
 31
0.0
  0
LINE
  5
9A
330
1F
100
AcDbEntity
  8
0
  6
Continuous
 62
     7
370
    18
100
AcDbLine
 10
130.5373828775
 20
193.6101276281
 30
0.0
 11
130.9013531118
 21
194.6101276281
 31
0.0
  0
ARC
  5
9B
330
1F
100
AcDbEntity
  8
0
  6
Continuous
 62
     7
370
    18
100
AcDbCircle
 10
119.9829709712
 20
194.1601276281
 30
0.0
 40
0.5
100
AcDbArc
 50
180.0
 51
270.0
  0
LINE
  5
9C
330
1F
100
AcDbEntity
  8
0
  6
Continuous
 62
     7
370
    18
100
AcDbLine
 10
119.9829709712
 20
193.6601276281
 30
0.0
 11
120.9829709712
 21
193.6601276281
 31
0.0
  0
LINE
  5
9D
330
1F
100
AcDbEntity
  8
0
  6
Continuous
 62
     7
370
    18
100
AcDbLine
 10
121.2829709712
 20
190.1101276281
 30
0.0
 11
120.7829709712
 21
190.1101276281
 31
0.0
  0
LINE
  5
9E
330
1F
100
AcDbEntity
  8
0
  6
Continuous
 62
     7
370
    18
100
AcDbLine
 10
120.7829709712
 20
183.1101276281
 30
0.0
 11
121.2829709712
 21
183.1101276281
 31
0.0
  0
LINE
  5
9F
330
1F
100
AcDbEntity
  8
0
  6
Continuous
 62
     7
370
    18
100
AcDbLine
 10
123.4829709712
 20
183.1101276281
 30
0.0
 11
127.0829709712
 21
183.1101276281
 31
0.0
  0
LINE
  5
A0
330
1F
100
AcDbEntity
  8
0
  6
Continuous
 62
     7
370
    18
100
AcDbLine
 10
127.0829709712
 20
190.1101276281
 30
0.0
 11
123.4829709712
 21
190.1101276281
 31
0.0
  0
LINE
  5
A1
330
1F
100
AcDbEntity
  8
0
  6
Continuous
 62
     7
370
    18
100
AcDbLine
 10
133.0829709712
 20
200.6101276281
 30
0.0
 11
130.9013531118
 21
200.6101276281
 31
0.0
  0
LINE
  5
A2
330
1F
100
AcDbEntity
  8
0
  6
Continuous
 62
     7
370
    18
100
AcDbLine
 10
117.6013531118
 20
183.6101276281
 30
0.0
 11
119.0273085385
 21
183.6101276281
 31
0.0
  0
LINE
  5
A3
330
1F
100
AcDbEntity
  8
0
  6
Continuous
 62
     7
370
    18
100
AcDbLine
 10
123.2829709712
 20
183.3101276281
 30
0.0
 11
123.4829709712
 21
183.1101276281
 31
0.0
  0
LINE
  5
A4
330
1F
100
AcDbEntity
  8
0
  6
Continuous
 62
     7
370
    18
100
AcDbLine
 10
123.4829709712
 20
190.1101276281
 30
0.0
 11
123.2829709712
 21
189.9101276281
 31
0.0
  0
LINE
  5
A5
330
1F
100
AcDbEntity
  8
0
  6
Continuous
 62
     7
370
    18
100
AcDbLine
 10
130.9013531118
 20
194.6101276281
 30
0.0
 11
133.0829709712
 21
194.6101276281
 31
0.0
  0
LINE
  5
A6
330
1F
100
AcDbEntity
  8
0
  6
Continuous
 62
     7
370
    18
100
AcDbLine
 10
133.5829709712
 20
200.3601276281
 30
0.0
 11
133.0829709712
 21
200.3601276281
 31
0.0
  0
LINE
  5
A7
330
1F
100
AcDbEntity
  8
0
  6
Continuous
 62
     7
370
    18
100
AcDbLine
 10
133.0829709712
 20
194.8601276281
 30
0.0
 11
133.5829709712
 21
194.8601276281
 31
0.0
  0
LINE
  5
A8
330
1F
100
AcDbEntity
  8
0
  6
Continuous
 62
     7
370
    18
100
AcDbLine
 10
134.0829709712
 20
200.1101276281
 30
0.0
 11
133.5829709712
 21
200.1101276281
 31
0.0
  0
LINE
  5
A9
330
1F
100
AcDbEntity
  8
0
  6
Continuous
 62
     7
370
    18
100
AcDbLine
 10
133.5829709712
 20
195.1101276281
 30
0.0
 11
134.0829709712
 21
195.1101276281
 31
0.0
  0
LINE
  5
AA
330
1F
100
AcDbEntity
  8
0
  6
Continuous
 62
     7
370
    18
100
AcDbLine
 10
121.5829709712
 20
199.8101276281
 30
0.0
 11
120.9829709712
 21
199.8101276281
 31
0.0
  0
LINE
  5
AB
330
1F
100
AcDbEntity
  8
0
  6
Continuous
 62
     7
370
    18
100
AcDbLine
 10
107.6829709712
 20
184.4101276281
 30
0.0
 11
108.2829709712
 21
184.4101276281
 31
0.0
  0
LINE
  5
AC
330
1F
100
AcDbEntity
  8
0
  6
Continuous
 62
     7
370
    18
100
AcDbLine
 10
120.9829709712
 20
195.4101276281
 30
0.0
 11
121.5829709712
 21
195.4101276281
 31
0.0
  0
LINE
  5
AD
330
1F
100
AcDbEntity
  8
0
  6
Continuous
 62
     7
370
    18
100
AcDbLine
 10
117.6013531118
 20
189.6101276281
 30
0.0
 11
117.2373828775
 21
190.610127628
 31
0.0
  0
LINE
  5
AE
330
1F
100
AcDbEntity
  8
0
  6
Continuous
 62
     7
370
    18
100
AcDbLine
 10
117.2373828775
 20
190.6101276281
 30
0.0
 11
108.2829709712
 21
190.6101276281
 31
0.0
  0
ARC
  5
AF
330
1F
100
AcDbEntity
  8
0
  6
Continuous
 62
     7
370
    18
100
AcDbCircle
 10
106.6829709712
 20
190.0601276281
 30
0.0
 40
0.5
100
AcDbArc
 50
90.0
 51
180.0
  0
LINE
  5
B0
330
1F
100
AcDbEntity
  8
0
  6
Continuous
 62
     7
370
    18
100
AcDbLine
 10
107.6829709712
 20
190.5601276281
 30
0.0
 11
106.6829709712
 21
190.5601276281
 31
0.0
  0
LINE
  5
B1
330
1F
100
AcDbEntity
  8
0
  6
Continuous
 62
     7
370
    18
100
AcDbLine
 10
119.0273085385
 20
189.6101276281
 30
0.0
 11
117.6013531118
 21
189.6101276281
 31
0.0
  0
LINE
  5
B2
330
1F
100
AcDbEntity
  8
0
  6
Continuous
 62
     7
370
    18
100
AcDbLine
 10
108.2829709712
 20
188.8101276281
 30
0.0
 11
107.6829709712
 21
188.8101276281
 31
0.0
  0
LINE
  5
B3
330
1F
100
AcDbEntity
  8
0
  6
Continuous
 62
     7
370
    18
100
AcDbLine
 10
130.7829709712
 20
185.1101276281
 30
0.0
 11
131.2829709711
 21
185.610127628
 31
0.0
  0
LINE
  5
B4
330
1F
100
AcDbEntity
  8
0
  6
Continuous
 62
     7
370
    18
100
AcDbLine
 10
115.4449177217
 20
185.1101276281
 30
0.0
 11
118.8829709712
 21
185.1101276281
 31
0.0
  0
LINE
  5
B5
330
1F
100
AcDbEntity
  8
0
  6
Continuous
 62
     7
370
    18
100
AcDbLine
 10
123.2829709712
 20
185.1101276281
 30
0.0
 11
130.7829709711
 21
185.1101276281
 31
0.0
  0
LINE
  5
B6
330
1F
100
AcDbEntity
  8
0
  6
Continuous
 62
     7
370
    18
100
AcDbLine
 10
115.2829709711
 20
185.3906276282
 30
0.0
 11
115.4449177217
 21
185.110127628
 31
0.0
  0
LINE
  5
B7
330
1F
100
AcDbEntity
  8
0
  6
Continuous
 62
     7
370
    18
100
AcDbLine
 10
130.7829709712
 20
188.1101276281
 30
0.0
 11
123.2829709712
 21
188.1101276281
 31
0.0
  0
LINE
  5
B8
330
1F
100
AcDbEntity
  8
0
  6
Continuous
 62
     7
370
    18
100
AcDbLine
 10
118.8829709712
 20
188.1101276281
 30
0.0
 11
115.4449177217
 21
188.1101276281
 31
0.0
  0
LINE
  5
B9
330
1F
100
AcDbEntity
  8
0
  6
Continuous
 62
     7
370
    18
100
AcDbLine
 10
131.2829709711
 20
187.6101276281
 30
0.0
 11
130.7829709712
 21
188.110127628
 31
0.0
  0
LINE
  5
BA
330
1F
100
AcDbEntity
  8
0
  6
Continuous
 62
     7
370
    18
100
AcDbLine
 10
115.4449177217
 20
188.1101276281
 30
0.0
 11
115.2829709712
 21
187.8296276281
 31
0.0
  0
LINE
  5
BB
330
1F
100
AcDbEntity
  8
0
  6
Continuous
 62
     7
370
    18
100
AcDbLine
 10
118.8829709712
 20
183.8601276281
 30
0.0
 11
119.1285910739
 21
183.4347011309
 31
0.0
  0
LINE
  5
BC
330
1F
100
AcDbEntity
  8
0
  6
Continuous
 62
     7
370
    18
100
AcDbLine
 10
119.1285910739
 20
189.7855541253
 30
0.0
 11
118.8829709712
 21
189.3601276281
 31
0.0
  0
LINE
  5
BD
330
1F
100
AcDbEntity
  8
0
  6
Continuous
 62
     7
370
    18
100
AcDbLine
 10
176.9829709712
 20
182.2101276281
 30
0.0
 11
182.2829709712
 21
182.2101276281
 31
0.0
  0
LINE
  5
BE
330
1F
100
AcDbEntity
  8
0
  6
Continuous
 62
     7
370
    18
100
AcDbLine
 10
182.2829709712
 20
182.7101276281
 30
0.0
 11
176.9829709712
 21
182.7101276281
 31
0.0
  0
LINE
  5
BF
330
1F
100
AcDbEntity
  8
0
  6
Continuous
 62
     7
370
    18
100
AcDbLine
 10
182.2829709712
 20
182.2101276281
 30
0.0
 11
182.2829709712
 21
182.7101276281
 31
0.0
  0
LINE
  5
C0
330
1F
100
AcDbEntity
  8
0
  6
Continuous
 62
     7
370
    18
100
AcDbLine
 10
182.2829709712
 20
198.1101276281
 30
0.0
 11
182.2829709712
 21
182.7101276281
 31
0.0
  0
LINE
  5
C1
330
1F
100
AcDbEntity
  8
0
  6
Continuous
 62
     7
370
    18
100
AcDbLine
 10
182.7829709712
 20
198.1101276281
 30
0.0
 11
182.2829709712
 21
198.1101276281
 31
0.0
  0
LINE
  5
C2
330
1F
100
AcDbEntity
  8
0
  6
Continuous
 62
     7
370
    18
100
AcDbLine
 10
182.7829709712
 20
182.7101276281
 30
0.0
 11
182.7829709712
 21
198.1101276281
 31
0.0
  0
LINE
  5
C3
330
1F
100
AcDbEntity
  8
0
  6
Continuous
 62
     7
370
    18
100
AcDbLine
 10
182.2829709712
 20
182.7101276281
 30
0.0
 11
182.7829709712
 21
182.7101276281
 31
0.0
  0
LINE
  5
C4
330
1F
100
AcDbEntity
  8
0
  6
Continuous
 62
     7
370
    18
100
AcDbLine
 10
175.7829709712
 20
202.6401276281
 30
0.0
 11
182.2829709712
 21
202.6401276281
 31
0.0
  0
LINE
  5
C5
330
1F
100
AcDbEntity
  8
0
  6
Continuous
 62
     7
370
    18
100
AcDbLine
 10
182.2829709712
 20
198.1101276281
 30
0.0
 11
182.2829709712
 21
202.6401276281
 31
0.0
  0
LINE
  5
C6
330
1F
100
AcDbEntity
  8
0
  6
Continuous
 62
     7
370
    18
100
AcDbLine
 10
176.9829709712
 20
182.7101276281
 30
0.0
 11
176.9829709712
 21
178.1101276281
 31
0.0
  0
LINE
  5
C7
330
1F
100
AcDbEntity
  8
0
  6
Continuous
 62
     7
370
    18
100
AcDbLine
 10
176.9829709712
 20
178.1101276281
 30
0.0
 11
175.7829709712
 21
178.1101276281
 31
0.0
  0
LINE
  5
C8
330
1F
100
AcDbEntity
  8
0
  6
Continuous
 62
     7
370
    18
100
AcDbLine
 10
175.7829709712
 20
178.1101276281
 30
0.0
 11
175.7829709712
 21
202.6401276281
 31
0.0
  0
ARC
  5
C9
330
1F
100
AcDbEntity
  8
0
  6
Continuous
 62
     7
370
    18
100
AcDbCircle
 10
182.2829709712
 20
182.7101276281
 30
0.0
 40
0.5
100
AcDbArc
 50
270.0000000004
 51
0.0
  0
LINE
  5
CA
330
1F
100
AcDbEntity
  8
0
  6
Continuous
 62
     7
370
    18
100
AcDbLine
 10
176.9829709712
 20
176.6101276281
 30
0.0
 11
175.7829709712
 21
176.6101276281
 31
0.0
  0
LINE
  5
CB
330
1F
100
AcDbEntity
  8
0
  6
Continuous
 62
     7
370
    18
100
AcDbLine
 10
176.9829709712
 20
176.6101276281
 30
0.0
 11
176.9829709712
 21
178.1101276281
 31
0.0
  0
LINE
  5
CC
330
1F
100
AcDbEntity
  8
0
  6
Continuous
 62
     7
370
    18
100
AcDbLine
 10
182.2829709712
 20
202.6401276281
 30
0.0
 11
182.2829709712
 21
209.6101276318
 31
0.0
  0
SPLINE
  5
CD
330
1F
100
AcDbEntity
  8
0
  6
Continuous
 62
     7
370
    18
100
AcDbSpline
210
0.0
220
0.0
230
1.0
 70
     8
 71
     3
 72
    12
 73
     8
 74
     0
 42
0.00000001
 43
0.00000001
 40
0.0
 40
0.0
 40
0.0
 40
0.0
 40
0.139264241370886
 40
0.2779297032399432
 40
0.4701106068068214
 40
0.737515129351821
 40
0.9999999999999999
 40
0.9999999999999999
 40
0.9999999999999999
 40
0.9999999999999999
 10
182.2829709711968
 20
209.6101276317703
 30
0.0
 10
182.3277544694205
 20
209.6101276317692
 30
0.0
 10
182.4171289150704
 20
209.6101276317668
 30
0.0
 10
182.5486824806839
 20
209.6101276317441
 30
0.0
 10
182.6749871251788
 20
209.6101276317175
 30
0.0
 10
182.7660804086654
 20
209.6101276316008
 30
0.0
 10
182.7773757401001
 20
209.6101276317142
 30
0.0
 10
182.7829709711968
 20
209.6101276317703
 30
0.0
  0
LINE
  5
CE
330
1F
100
AcDbEntity
  8
0
  6
Continuous
 62
     7
370
    18
100
AcDbLine
 10
182.7829709712
 20
209.6101276318
 30
0.0
 11
182.7829709712
 21
202.6401276281
 31
0.0
  0
LINE
  5
CF
330
1F
100
AcDbEntity
  8
0
  6
Continuous
 62
     7
370
    18
100
AcDbLine
 10
182.2829709712
 20
202.6401276281
 30
0.0
 11
182.7829709712
 21
202.6401276281
 31
0.0
  0
LINE
  5
D0
330
1F
100
AcDbEntity
  8
0
  6
Continuous
 62
     7
370
    18
100
AcDbLine
 10
181.5829709712
 20
209.6101276318
 30
0.0
 11
175.7829709712
 21
209.6101276318
 31
0.0
  0
LINE
  5
D1
330
1F
100
AcDbEntity
  8
0
  6
Continuous
 62
     7
370
    18
100
AcDbLine
 10
182.2829709712
 20
209.6101276318
 30
0.0
 11
181.5829709712
 21
209.6101276318
 31
0.0
  0
LINE
  5
D2
330
1F
100
AcDbEntity
  8
0
  6
Continuous
 62
     7
370
    18
100
AcDbLine
 10
175.7829709712
 20
209.6101276318
 30
0.0
 11
175.7829709712
 21
202.6401276281
 31
0.0
  0
LINE
  5
D3
330
1F
100
AcDbEntity
  8
0
  6
Continuous
 62
     7
370
    18
100
AcDbLine
 10
182.7829709712
 20
202.6401276281
 30
0.0
 11
182.7829709712
 21
198.1101276281
 31
0.0
  0
ARC
  5
D4
330
1F
100
AcDbEntity
  8
0
  6
Continuous
 62
     7
370
    18
100
AcDbCircle
 10
179.3673086028
 20
180.878397019
 30
0.0
 40
0.11619866663541
100
AcDbArc
 50
5.5069031482
 51
94.6092127343
  0
SPLINE
  5
D5
330
1F
100
AcDbEntity
  8
0
  6
Continuous
 62
     7
370
    18
100
AcDbSpline
210
0.0
220
0.0
230
1.0
 70
    24
 71
     3
 72
    18
 73
    14
 74
     0
 42
0.00000001
 43
0.00000001
 40
0.0
 40
0.0
 40
0.0
 40
0.0
 40
0.0011660596653978
 40
0.0809393163693389
 40
0.1608112300911357
 40
0.2405844423771701
 40
0.3872928479494676
 40
0.534001253521765
 40
0.6138732117155522
 40
0.6936464684198459
 40
0.773518382142274
 40
0.8532915944277025
 40
1.0
 40
1.0
 40
1.0
 40
1.0
 10
179.4829709711967
 20
176.9853009577015
 30
0.0
 10
179.4829709711967
 20
176.9850868787491
 30
0.0
 10
179.4829709711968
 20
176.9702270867761
 30
0.0
 10
179.4829709711967
 20
177.0231744638137
 30
0.0
 10
179.4829709711967
 20
177.1463186829809
 30
0.0
 10
179.4829709711968
 20
177.423827453938
 30
0.0
 10
179.4829709711967
 20
177.9200157431583
 30
0.0
 10
179.4829709711968
 20
178.5614867956849
 30
0.0
 10
179.4829709711968
 20
179.116156390687
 30
0.0
 10
179.4829709711968
 20
179.5504581615915
 30
0.0
 10
179.4829709711967
 20
179.9648899429291
 30
0.0
 10
179.4829709711967
 20
180.4572061705521
 30
0.0
 10
179.4829709711967
 20
180.7195859079371
 30
0.0
 10
179.4829709711967
 20
180.8895481030607
 30
0.0
  0
LINE
  5
D6
330
1F
100
AcDbEntity
  8
0
  6
Continuous
 62
     7
370
    18
100
AcDbLine
 10
176.9829709712
 20
180.9942198957
 30
0.0
 11
179.3579709712
 21
180.9942198957
 31
0.0
  0
LINE
  5
D7
330
1F
100
AcDbEntity
  8
0
  6
Continuous
 62
     7
370
    18
100
AcDbLine
 10
179.4829709712
 20
180.8895481031
 30
0.0
 11
179.4829709712
 21
181.1421231965
 31
0.0
  0
LINE
  5
D8
330
1F
100
AcDbEntity
  8
0
  6
Continuous
 62
     7
370
    18
100
AcDbLine
 10
138.0829709712
 20
201.6101276281
 30
0.0
 11
138.0829709712
 21
198.6101276281
 31
0.0
  0
LINE
  5
D9
330
1F
100
AcDbEntity
  8
0
  6
Continuous
 62
     7
370
    18
100
AcDbLine
 10
137.0829709712
 20
198.6101276281
 30
0.0
 11
138.0829709712
 21
198.6101276281
 31
0.0
  0
ARC
  5
DA
330
1F
100
AcDbEntity
  8
0
  6
Continuous
 62
     7
370
    18
100
AcDbCircle
 10
138.0829709712
 20
200.6101276281
 30
0.0
 40
1.0
100
AcDbArc
 50
90.0
 51
180.0
  0
LINE
  5
DB
330
1F
100
AcDbEntity
  8
0
  6
Continuous
 62
     7
370
    18
100
AcDbLine
 10
138.0829709712
 20
179.6101276281
 30
0.0
 11
137.0829709712
 21
179.6101276281
 31
0.0
  0
LINE
  5
DC
330
1F
100
AcDbEntity
  8
0
  6
Continuous
 62
     7
370
    18
100
AcDbLine
 10
138.0829709712
 20
179.6101276281
 30
0.0
 11
138.0829709712
 21
176.6101276281
 31
0.0
  0
ARC
  5
DD
330
1F
100
AcDbEntity
  8
0
  6
Continuous
 62
     7
370
    18
100
AcDbCircle
 10
138.0829709712
 20
177.6101276281
 30
0.0
 40
1.0
100
AcDbArc
 50
180.0
 51
270.0
  0
LINE
  5
DE
330
1F
100
AcDbEntity
  8
0
  6
Continuous
 62
     7
370
    18
100
AcDbLine
 10
147.0829709712
 20
179.6101276281
 30
0.0
 11
138.0829709712
 21
179.6101276281
 31
0.0
  0
LINE
  5
DF
330
1F
100
AcDbEntity
  8
0
  6
Continuous
 62
     7
370
    18
100
AcDbLine
 10
147.0829709712
 20
179.6101276281
 30
0.0
 11
147.0829709712
 21
176.6101276281
 31
0.0
  0
LINE
  5
E0
330
1F
100
AcDbEntity
  8
0
  6
Continuous
 62
     7
370
    18
100
AcDbLine
 10
138.0829709712
 20
176.6101276281
 30
0.0
 11
147.0829709712
 21
176.6101276281
 31
0.0
  0
LINE
  5
E1
330
1F
100
AcDbEntity
  8
0
  6
Continuous
 62
     7
370
    18
100
AcDbLine
 10
137.0829709712
 20
182.6101276281
 30
0.0
 11
137.0829709712
 21
180.6409040345
 31
0.0
  0
LINE
  5
E2
330
1F
100
AcDbEntity
  8
0
  6
Continuous
 62
     7
370
    18
100
AcDbLine
 10
137.0829709712
 20
182.6101276281
 30
0.0
 11
138.0829709712
 21
183.6101276281
 31
0.0
  0
LINE
  5
E3
330
1F
100
AcDbEntity
  8
0
  6
Continuous
 62
     7
370
    18
100
AcDbLine
 10
138.0829709712
 20
179.6101276281
 30
0.0
 11
138.0829709712
 21
183.6101276281
 31
0.0
  0
LINE
  5
E4
330
1F
100
AcDbEntity
  8
0
  6
Continuous
 62
     7
370
    18
100
AcDbLine
 10
138.0829709712
 20
183.6101276281
 30
0.0
 11
134.0829709712
 21
183.6101276281
 31
0.0
  0
LINE
  5
E5
330
1F
100
AcDbEntity
  8
0
  6
Continuous
 62
     7
370
    18
100
AcDbLine
 10
134.0829709712
 20
183.6101276281
 30
0.0
 11
134.0829709712
 21
194.6101276281
 31
0.0
  0
LINE
  5
E6
330
1F
100
AcDbEntity
  8
0
  6
Continuous
 62
     7
370
    18
100
AcDbLine
 10
134.0829709712
 20
194.6101276281
 30
0.0
 11
138.0829709712
 21
194.6101276281
 31
0.0
  0
LINE
  5
E7
330
1F
100
AcDbEntity
  8
0
  6
Continuous
 62
     7
370
    18
100
AcDbLine
 10
138.0829709712
 20
194.6101276281
 30
0.0
 11
138.0829709712
 21
198.6101276281
 31
0.0
  0
LINE
  5
E8
330
1F
100
AcDbEntity
  8
0
  6
Continuous
 62
     7
370
    18
100
AcDbLine
 10
138.0829709712
 20
198.6101276281
 30
0.0
 11
147.0829709712
 21
198.6101276281
 31
0.0
  0
LINE
  5
E9
330
1F
100
AcDbEntity
  8
0
  6
Continuous
 62
     7
370
    18
100
AcDbLine
 10
147.0829709712
 20
198.6101276281
 30
0.0
 11
147.0829709712
 21
179.6101276281
 31
0.0
  0
LINE
  5
EA
330
1F
100
AcDbEntity
  8
0
  6
Continuous
 62
     7
370
    18
100
AcDbLine
 10
173.7829709712
 20
168.6101276281
 30
0.0
 11
173.7829709712
 21
173.1101276281
 31
0.0
  0
LINE
  5
EB
330
1F
100
AcDbEntity
  8
0
  6
Continuous
 62
     7
370
    18
100
AcDbLine
 10
171.7829709712
 20
168.6101276281
 30
0.0
 11
173.7829709712
 21
168.6101276281
 31
0.0
  0
LINE
  5
EC
330
1F
100
AcDbEntity
  8
0
  6
Continuous
 62
     7
370
    18
100
AcDbLine
 10
171.7829709712
 20
173.1101276281
 30
0.0
 11
171.7829709712
 21
168.6101276281
 31
0.0
  0
LINE
  5
ED
330
1F
100
AcDbEntity
  8
0
  6
Continuous
 62
     7
370
    18
100
AcDbLine
 10
173.7829709712
 20
173.1101276281
 30
0.0
 11
171.7829709712
 21
173.1101276281
 31
0.0
  0
LINE
  5
EE
330
1F
100
AcDbEntity
  8
0
  6
Continuous
 62
     7
370
    18
100
AcDbLine
 10
123.2829709712
 20
174.1101276281
 30
0.0
 11
123.2829709712
 21
185.6101276281
 31
0.0
  0
ARC
  5
EF
330
1F
100
AcDbEntity
  8
0
  6
Continuous
 62
     7
370
    18
100
AcDbCircle
 10
124.2829709712
 20
174.1101276281
 30
0.0
 40
1.000000000000014
100
AcDbArc
 50
180.0
 51
270.0
  0
LINE
  5
F0
330
1F
100
AcDbEntity
  8
0
  6
Continuous
 62
     7
370
    18
100
AcDbLine
 10
121.2829709712
 20
168.6101276281
 30
0.0
 11
171.7829709712
 21
168.6101276281
 31
0.0
  0
LINE
  5
F1
330
1F
100
AcDbEntity
  8
0
  6
Continuous
 62
     7
370
    18
100
AcDbLine
 10
121.2829709712
 20
184.8780768205
 30
0.0
 11
121.2829709712
 21
168.6101276281
 31
0.0
  0
LINE
  5
F2
330
1F
100
AcDbEntity
  8
0
  6
Continuous
 62
     7
370
    18
100
AcDbLine
 10
123.2829709712
 20
185.6101276281
 30
0.0
 11
121.2829709712
 21
185.6101276281
 31
0.0
  0
LINE
  5
F3
330
1F
100
AcDbEntity
  8
0
  6
Continuous
 62
     7
370
    18
100
AcDbLine
 10
171.7829709712
 20
173.1101276281
 30
0.0
 11
124.2829709712
 21
173.1101276281
 31
0.0
  0
LINE
  5
F4
330
1F
100
AcDbEntity
  8
0
  6
Continuous
 62
     7
370
    18
100
AcDbLine
 10
137.0829709712
 20
195.6101276281
 30
0.0
 11
138.0829709712
 21
194.6101276281
 31
0.0
  0
LINE
  5
F5
330
1F
100
AcDbEntity
  8
0
  6
Continuous
 62
     7
370
    18
100
AcDbLine
 10
137.0829709712
 20
197.5793512217
 30
0.0
 11
137.0829709712
 21
195.6101276281
 31
0.0
  0
LINE
  5
F6
330
1F
100
AcDbEntity
  8
0
  6
Continuous
 62
     7
370
    18
100
AcDbLine
 10
147.0829709712
 20
201.6101276281
 30
0.0
 11
138.0829709712
 21
201.6101276281
 31
0.0
  0
LINE
  5
F7
330
1F
100
AcDbEntity
  8
0
  6
Continuous
 62
     7
370
    18
100
AcDbLine
 10
147.0829709712
 20
201.6101276281
 30
0.0
 11
147.0829709712
 21
198.6101276281
 31
0.0
  0
LINE
  5
F8
330
1F
100
AcDbEntity
  8
0
  6
Continuous
 62
     7
370
    18
100
AcDbLine
 10
175.7829709712
 20
174.6101276281
 30
0.0
 11
147.5829709712
 21
174.6101276281
 31
0.0
  0
LINE
  5
F9
330
1F
100
AcDbEntity
  8
0
  6
Continuous
 62
     7
370
    18
100
AcDbLine
 10
147.5829709712
 20
174.6101276281
 30
0.0
 11
147.5829709712
 21
198.6101276281
 31
0.0
  0
LINE
  5
FA
330
1F
100
AcDbEntity
  8
0
  6
Continuous
 62
     7
370
    18
100
AcDbLine
 10
147.5829709712
 20
198.6101276281
 30
0.0
 11
175.7829709712
 21
198.6101276281
 31
0.0
  0
LINE
  5
FB
330
1F
100
AcDbEntity
  8
0
  6
Continuous
 62
     7
370
    18
100
AcDbLine
 10
175.7829709712
 20
174.6101276281
 30
0.0
 11
175.7829709712
 21
198.6101276281
 31
0.0
  0
LINE
  5
FC
330
1F
100
AcDbEntity
  8
0
  6
Continuous
 62
     7
370
    18
100
AcDbLine
 10
147.5829709712
 20
173.6101276281
 30
0.0
 11
175.7829709712
 21
173.6101276281
 31
0.0
  0
LINE
  5
FD
330
1F
100
AcDbEntity
  8
0
  6
Continuous
 62
     7
370
    18
100
AcDbLine
 10
147.5829709712
 20
174.6101276281
 30
0.0
 11
147.5829709712
 21
173.6101276281
 31
0.0
  0
LINE
  5
FE
330
1F
100
AcDbEntity
  8
0
  6
Continuous
 62
     7
370
    18
100
AcDbLine
 10
175.7829709712
 20
173.6101276281
 30
0.0
 11
175.7829709712
 21
174.6101276281
 31
0.0
  0
LINE
  5
FF
330
1F
100
AcDbEntity
  8
0
  6
Continuous
 62
     7
370
    18
100
AcDbLine
 10
175.7829709712
 20
201.6101276281
 30
0.0
 11
147.5829709712
 21
201.6101276281
 31
0.0
  0
LINE
  5
100
330
1F
100
AcDbEntity
  8
0
  6
Continuous
 62
     7
370
    18
100
AcDbLine
 10
147.5829709712
 20
198.6101276281
 30
0.0
 11
147.5829709712
 21
201.6101276281
 31
0.0
  0
LINE
  5
101
330
1F
100
AcDbEntity
  8
0
  6
Continuous
 62
     7
370
    18
100
AcDbLine
 10
123.2829709712
 20
192.6101276281
 30
0.0
 11
121.2829709712
 21
192.6101276281
 31
0.0
  0
LINE
  5
102
330
1F
100
AcDbEntity
  8
0
  6
Continuous
 62
     7
370
    18
100
AcDbLine
 10
123.2829709712
 20
185.6101276281
 30
0.0
 11
123.2829709712
 21
192.6101276281
 31
0.0
  0
LINE
  5
103
330
1F
100
AcDbEntity
  8
0
  6
Continuous
 62
     7
370
    18
100
AcDbLine
 10
121.2829709712
 20
192.6101276281
 30
0.0
 11
121.2829709712
 21
188.7804283485
 31
0.0
  0
LINE
  5
104
330
1F
100
AcDbEntity
  8
0
  6
Continuous
 62
     7
370
    18
100
AcDbLine
 10
134.0829709712
 20
182.6101276281
 30
0.0
 11
137.0829709712
 21
182.6101276281
 31
0.0
  0
LINE
  5
105
330
1F
100
AcDbEntity
  8
0
  6
Continuous
 62
     7
370
    18
100
AcDbLine
 10
134.0829709712
 20
182.6101276281
 30
0.0
 11
134.0829709712
 21
183.6101276281
 31
0.0
  0
LINE
  5
106
330
1F
100
AcDbEntity
  8
0
  6
Continuous
 62
     7
370
    18
100
AcDbLine
 10
137.0829709712
 20
195.6101276281
 30
0.0
 11
134.0829709712
 21
195.6101276281
 31
0.0
  0
LINE
  5
107
330
1F
100
AcDbEntity
  8
0
  6
Continuous
 62
     7
370
    18
100
AcDbLine
 10
134.0829709712
 20
194.6101276281
 30
0.0
 11
134.0829709712
 21
195.6101276281
 31
0.0
  0
LINE
  5
108
330
1F
100
AcDbEntity
  8
0
  6
Continuous
 62
     7
370
    18
100
AcDbLine
 10
147.0829709712
 20
198.1101276281
 30
0.0
 11
147.5829709712
 21
198.1101276281
 31
0.0
  0
LINE
  5
109
330
1F
100
AcDbEntity
  8
0
  6
Continuous
 62
     7
370
    18
100
AcDbLine
 10
147.5829709712
 20
201.1101276281
 30
0.0
 11
147.0829709712
 21
201.1101276281
 31
0.0
  0
LINE
  5
10A
330
1F
100
AcDbEntity
  8
0
  6
Continuous
 62
     7
370
    18
100
AcDbLine
 10
147.5829709712
 20
180.1101276281
 30
0.0
 11
147.0829709712
 21
180.1101276281
 31
0.0
  0
LINE
  5
10B
330
1F
100
AcDbEntity
  8
0
  6
Continuous
 62
     7
370
    18
100
AcDbLine
 10
147.0829709712
 20
177.1101276281
 30
0.0
 11
147.5829709712
 21
177.1101276281
 31
0.0
  0
ARC
  5
10C
330
1F
100
AcDbEntity
  8
0
  6
Continuous
 62
     7
370
    18
100
AcDbCircle
 10
134.7077547413
 20
181.727546067
 30
0.0
 40
0.1247839587236425
100
AcDbArc
 50
89.9007158568
 51
179.9003705723
  0
SPLINE
  5
10D
330
1F
100
AcDbEntity
  8
0
  6
Continuous
 62
     7
370
    18
100
AcDbSpline
210
0.0
220
0.0
230
1.0
 70
    24
 71
     3
 72
    19
 73
    15
 74
     0
 42
0.00000001
 43
0.00000001
 40
0.0
 40
0.0
 40
0.0
 40
0.0
 40
0.1229567780719564
 40
0.1898977185009581
 40
0.2567559368992897
 40
0.3236968400561875
 40
0.39055502122743
 40
0.5135117992993863
 40
0.6364685773713425
 40
0.7034095178004981
 40
0.7702677361986613
 40
0.8372086393552712
 40
0.9040668205267973
 40
1.0
 40
1.0
 40
1.0
 40
1.0
 10
134.5829709711967
 20
181.7277630489041
 30
0.0
 10
134.5829709711967
 20
181.6770925283644
 30
0.0
 10
134.5829709711967
 20
181.5988356286909
 30
0.0
 10
134.5829709711967
 20
181.2939226619283
 30
0.0
 10
134.5829709711967
 20
180.9920942437382
 30
0.0
 10
134.5829709711967
 20
180.6322082292706
 30
0.0
 10
134.5829709711968
 20
180.1173878674205
 30
0.0
 10
134.5829709711967
 20
179.4290846431188
 30
0.0
 10
134.5829709711967
 20
178.7623785547617
 30
0.0
 10
134.5829709711967
 20
178.2902947881637
 30
0.0
 10
134.5829709711967
 20
177.9759882280007
 30
0.0
 10
134.5829709711967
 20
177.731633872576
 30
0.0
 10
134.5829709711967
 20
177.5277164070451
 30
0.0
 10
134.5829709711967
 20
177.5171163364845
 30
0.0
 10
134.5829709711967
 20
177.5108696998848
 30
0.0
  0
ARC
  5
10E
330
1F
100
AcDbEntity
  8
0
  6
Continuous
 62
     7
370
    18
100
AcDbCircle
 10
134.6985753796
 20
196.8442972324
 30
0.0
 40
0.1161490778141532
100
AcDbArc
 50
185.5509342344
 51
274.6398696199
  0
SPLINE
  5
10F
330
1F
100
AcDbEntity
  8
0
  6
Continuous
 62
     7
370
    18
100
AcDbSpline
210
0.0
220
0.0
230
1.0
 70
    24
 71
     3
 72
    18
 73
    14
 74
     0
 42
0.00000001
 43
0.00000001
 40
0.0
 40
0.0
 40
0.0
 40
0.0
 40
0.0003779460888038
 40
0.0802141465755737
 40
0.1601490819244917
 40
0.2399852379578002
 40
0.3868094013969162
 40
0.533633564836032
 40
0.6135685446914747
 40
0.6934047451786456
 40
0.7733396805273876
 40
0.8531758365608835
 40
1.0
 40
1.0
 40
1.0
 40
1.0
 10
134.5829709711967
 20
200.7353870110501
 30
0.0
 10
134.5829709711967
 20
200.7354570946464
 30
0.0
 10
134.5829709711967
 20
200.7503314273546
 30
0.0
 10
134.5829709711967
 20
200.6978454301845
 30
0.0
 10
134.5829709711967
 20
200.5756970585312
 30
0.0
 10
134.5829709711968
 20
200.2991223469739
 30
0.0
 10
134.5829709711967
 20
199.8039320498123
 30
0.0
 10
134.5829709711967
 20
199.1629857454854
 30
0.0
 10
134.5829709711967
 20
198.6084318882878
 30
0.0
 10
134.5829709711967
 20
198.1740364050078
 30
0.0
 10
134.5829709711968
 20
197.7593370522803
 30
0.0
 10
134.5829709711967
 20
197.2664748783797
 30
0.0
 10
134.5829709711967
 20
197.0034452436735
 30
0.0
 10
134.5829709711967
 20
196.8330620633917
 30
0.0
  0
LINE
  5
110
330
1F
100
AcDbEntity
  8
0
  6
Continuous
 62
     7
370
    18
100
AcDbLine
 10
134.7079709712
 20
181.8523298384
 30
0.0
 11
137.0829709712
 21
181.8523298384
 31
0.0
  0
LINE
  5
111
330
1F
100
AcDbEntity
  8
0
  6
Continuous
 62
     7
370
    18
100
AcDbLine
 10
137.0829709712
 20
180.6409040345
 30
0.0
 11
137.0829709712
 21
177.3601276281
 31
0.0
  0
LINE
  5
112
330
1F
100
AcDbEntity
  8
0
  6
Continuous
 62
     7
370
    18
100
AcDbLine
 10
137.0829709712
 20
200.8601276281
 30
0.0
 11
137.0829709712
 21
197.5793512217
 31
0.0
  0
LINE
  5
113
330
1F
100
AcDbEntity
  8
0
  6
Continuous
 62
     7
370
    18
100
AcDbLine
 10
134.7079709712
 20
196.7285287949
 30
0.0
 11
137.0829709712
 21
196.7285287949
 31
0.0
  0
LINE
  5
114
330
1F
100
AcDbEntity
  8
0
  6
Continuous
 62
     7
370
    18
100
AcDbLine
 10
134.0829709712
 20
186.0970673024
 30
0.0
 11
133.2829709712
 21
186.0970673024
 31
0.0
  0
LINE
  5
115
330
1F
100
AcDbEntity
  8
0
  6
Continuous
 62
     7
370
    18
100
AcDbLine
 10
133.2829709712
 20
188.1101276281
 30
0.0
 11
133.2829709712
 21
186.0970673024
 31
0.0
  0
LINE
  5
116
330
1F
100
AcDbEntity
  8
0
  6
Continuous
 62
     7
370
    18
100
AcDbLine
 10
133.2829709712
 20
186.0970673024
 30
0.0
 11
133.2829709712
 21
185.1101276281
 31
0.0
  0
LINE
  5
117
330
1F
100
AcDbEntity
  8
0
  6
Continuous
 62
     7
370
    18
100
AcDbLine
 10
134.5829709712
 20
196.8330620634
 30
0.0
 11
134.5829709712
 21
196.578543361
 31
0.0
  0
LINE
  5
118
330
1F
100
AcDbEntity
  8
0
  6
Continuous
 62
     7
370
    18
100
AcDbLine
 10
134.0829709712
 20
179.6101276281
 30
0.0
 11
134.0829709712
 21
182.6101276281
 31
0.0
  0
LINE
  5
119
330
1F
100
AcDbEntity
  8
0
  6
Continuous
 62
     7
370
    18
100
AcDbLine
 10
134.0829709712
 20
195.6101276281
 30
0.0
 11
134.0829709712
 21
198.6101276281
 31
0.0
  0
SPLINE
  5
11A
330
1F
100
AcDbEntity
  8
0
  6
Continuous
 62
     7
370
    18
100
AcDbSpline
210
0.0
220
0.0
230
1.0
 70
    24
 71
     3
 72
    15
 73
    11
 74
     0
 42
0.00000001
 43
0.00000001
 40
0.0
 40
0.0
 40
0.0
 40
0.0
 40
0.1433180705337991
 40
0.2952208375797949
 40
0.4534388019429663
 40
0.6150143785147452
 40
0.7765899550865238
 40
0.8557607965717628
 40
0.9350110603213619
 40
1.0
 40
1.0
 40
1.0
 40
1.0
 10
127.0829709711968
 20
181.4101276280818
 30
0.0
 10
127.0829709711968
 20
181.4269975855634
 30
0.0
 10
127.0829709711968
 20
181.4617480043981
 30
0.0
 10
127.0829709711968
 20
181.7510607863595
 30
0.0
 10
127.0829709711968
 20
182.2307805542757
 30
0.0
 10
127.0829709711968
 20
182.9071895859314
 30
0.0
 10
127.0829709711968
 20
183.6019172438474
 30
0.0
 10
127.0829709711968
 20
184.2147537869242
 30
0.0
 10
127.0829709711968
 20
184.6610819988864
 30
0.0
 10
127.0829709711968
 20
184.9706483072056
 30
0.0
 10
127.0829709711968
 20
185.1101276280818
 30
0.0
  0
SPLINE
  5
11B
330
1F
100
AcDbEntity
  8
0
  6
Continuous
 62
     7
370
    18
100
AcDbSpline
210
0.0
220
0.0
230
1.0
 70
    24
 71
     3
 72
    15
 73
    11
 74
     0
 42
0.00000001
 43
0.00000001
 40
0.0
 40
0.0
 40
0.0
 40
0.0
 40
0.0649889396786318
 40
0.2232069040418041
 40
0.3847824806135833
 40
0.5463580571853627
 40
0.6255288986706661
 40
0.7047791624202044
 40
0.8566819294662006
 40
1.0
 40
1.0
 40
1.0
 40
1.0
 10
127.0829709711968
 20
188.1101276280818
 30
0.0
 10
127.0829709711968
 20
188.2493431143953
 30
0.0
 10
127.0829709711968
 20
188.7274838233895
 30
0.0
 10
127.0829709711968
 20
189.4794722980557
 30
0.0
 10
127.0829709711968
 20
190.3138851440424
 30
0.0
 10
127.0829709711968
 20
190.8778016275681
 30
0.0
 10
127.0829709711968
 20
191.2354379225438
 30
0.0
 10
127.0829709711968
 20
191.518745285908
 30
0.0
 10
127.0829709711968
 20
191.7587508571227
 30
0.0
 10
127.0829709711968
 20
191.7933372828059
 30
0.0
 10
127.0829709711968
 20
191.8101276280817
 30
0.0
  0
LINE
  5
11C
330
1F
100
AcDbEntity
  8
0
  6
Continuous
 62
     7
370
    18
100
AcDbLine
 10
170.2829709712
 20
173.6101276281
 30
0.0
 11
170.2829709712
 21
173.3801276281
 31
0.0
  0
LINE
  5
11D
330
1F
100
AcDbEntity
  8
0
  6
Continuous
 62
     7
370
    18
100
AcDbLine
 10
170.2829709712
 20
173.3801276281
 30
0.0
 11
150.2829709712
 21
173.3801276281
 31
0.0
  0
LINE
  5
11E
330
1F
100
AcDbEntity
  8
0
  6
Continuous
 62
     7
370
    18
100
AcDbLine
 10
150.2829709712
 20
173.3801276281
 30
0.0
 11
150.2829709712
 21
173.6101276281
 31
0.0
  0
LINE
  5
11F
330
1F
100
AcDbEntity
  8
0
  6
Continuous
 62
     7
370
    18
100
AcDbLine
 10
130.9013531118
 20
200.6101276281
 30
0.0
 11
130.9013531118
 21
196.9044317706
 31
0.0
  0
LINE
  5
120
330
1F
100
AcDbEntity
  8
0
  6
Continuous
 62
     7
370
    18
100
AcDbLine
 10
130.9013531118
 20
196.9044317706
 30
0.0
 11
130.5373828775
 21
196.6691998181
 31
0.0
  0
LINE
  5
121
330
1F
100
AcDbEntity
  8
0
  6
Continuous
 62
     7
370
    18
100
AcDbLine
 10
130.5373828775
 20
201.6101276281
 30
0.0
 11
130.5373828775
 21
196.669199818
 31
0.0
  0
LINE
  5
122
330
1F
100
AcDbEntity
  8
0
  6
Continuous
 62
     7
370
    18
100
AcDbLine
 10
130.5373828775
 20
196.669199818
 30
0.0
 11
121.5829709712
 21
196.669199818
 31
0.0
  0
LINE
  5
123
330
1F
100
AcDbEntity
  8
0
  6
Continuous
 62
     7
370
    18
100
AcDbLine
 10
121.5829709712
 20
201.6101276281
 30
0.0
 11
121.5829709712
 21
196.669199818
 31
0.0
  0
LINE
  5
124
330
1F
100
AcDbEntity
  8
0
  6
Continuous
 62
     7
370
    18
100
AcDbLine
 10
117.2373828775
 20
190.4741134243
 30
0.0
 11
117.2373828775
 21
188.1101276281
 31
0.0
  0
LINE
  5
125
330
1F
100
AcDbEntity
  8
0
  6
Continuous
 62
     7
370
    18
100
AcDbLine
 10
117.2373828775
 20
185.1101276281
 30
0.0
 11
117.2373828775
 21
182.6101276281
 31
0.0
  0
LINE
  5
126
330
1F
100
AcDbEntity
  8
0
  6
Continuous
 62
     7
370
    18
100
AcDbLine
 10
108.2829709712
 20
190.4741134244
 30
0.0
 11
108.2829709712
 21
182.6101276281
 31
0.0
  0
LINE
  5
127
330
1F
100
AcDbEntity
  8
0
  6
Continuous
 62
     7
370
    18
100
AcDbLine
 10
117.2373828775
 20
190.4741134244
 30
0.0
 11
108.2829709712
 21
190.4741134244
 31
0.0
  0
LINE
  5
128
330
1F
100
AcDbEntity
  8
0
  6
Continuous
 62
     7
370
    18
100
AcDbLine
 10
117.6013531118
 20
189.5081169753
 30
0.0
 11
117.6013531118
 21
188.1101276281
 31
0.0
  0
LINE
  5
129
330
1F
100
AcDbEntity
  8
0
  6
Continuous
 62
     7
370
    18
100
AcDbLine
 10
117.6013531118
 20
185.1101276281
 30
0.0
 11
117.6013531118
 21
183.6101276281
 31
0.0
  0
LINE
  5
12A
330
1F
100
AcDbEntity
  8
0
  6
Continuous
 62
     7
370
    18
100
AcDbLine
 10
117.6013531118
 20
189.5081169751
 30
0.0
 11
117.2373828775
 21
190.4741134243
 31
0.0
  0
LINE
  5
12B
330
1F
100
AcDbEntity
  8
0
  6
Continuous
 62
     7
370
    18
100
AcDbLine
 10
134.0829709712
 20
177.6101276281
 30
0.0
 11
134.0829709712
 21
179.6101276281
 31
0.0
  0
LINE
  5
12C
330
1F
100
AcDbEntity
  8
0
  6
Continuous
 62
     7
370
    18
100
AcDbLine
 10
134.0829709712
 20
198.6101276281
 30
0.0
 11
134.0829709712
 21
200.6101276281
 31
0.0
  0
LINE
  5
12D
330
1F
100
AcDbEntity
  8
0
  6
Continuous
 62
     7
370
    18
100
AcDbLine
 10
134.0829709712
 20
176.6101276281
 30
0.0
 11
138.0829709712
 21
176.6101276281
 31
0.0
  0
LINE
  5
12E
330
1F
100
AcDbEntity
  8
0
  6
Continuous
 62
     7
370
    18
100
AcDbLine
 10
134.0829709712
 20
176.6101276281
 30
0.0
 11
134.0829709712
 21
177.6101276281
 31
0.0
  0
LINE
  5
12F
330
1F
100
AcDbEntity
  8
0
  6
Continuous
 62
     7
370
    18
100
AcDbLine
 10
138.0829709712
 20
201.6101276281
 30
0.0
 11
134.0829709712
 21
201.6101276281
 31
0.0
  0
LINE
  5
130
330
1F
100
AcDbEntity
  8
0
  6
Continuous
 62
     7
370
    18
100
AcDbLine
 10
134.0829709712
 20
201.6101276281
 30
0.0
 11
134.0829709712
 21
200.6101276281
 31
0.0
  0
SPLINE
  5
131
330
1F
100
AcDbEntity
  8
0
  6
Continuous
 62
     7
370
    18
100
AcDbSpline
210
0.0
220
0.0
230
1.0
 70
    24
 71
     3
 72
    24
 73
    20
 74
     0
 42
0.00000001
 43
0.00000001
 40
0.0
 40
0.0
 40
0.0
 40
0.0
 40
0.0654518893712234
 40
0.1308774216424586
 40
0.1665753922838535
 40
0.201884466246931
 40
0.2727446705401603
 40
0.3436588395347605
 40
0.4145190195259158
 40
0.479984220697364
 40
0.5453959739464606
 40
0.6108611634534791
 40
0.6762729022945132
 40
0.7119708729358946
 40
0.7472799468989675
 40
0.818140151192214
 40
0.8890543201869495
 40
0.9599145001779769
 40
0.9999999999999999
 40
0.9999999999999999
 40
0.9999999999999999
 40
0.9999999999999999
 10
106.1829709711968
 20
189.9428153773895
 30
0.0
 10
106.1829709711968
 20
189.8756788675886
 30
0.0
 10
106.1829709711968
 20
189.7414328834739
 30
0.0
 10
106.1829709711968
 20
189.4469932897356
 30
0.0
 10
106.1829709711968
 20
189.1608031780818
 30
0.0
 10
106.1829709711968
 20
188.8265740109541
 30
0.0
 10
106.1829709711968
 20
188.3474413534296
 30
0.0
 10
106.1829709711968
 20
187.7022094076305
 30
0.0
 10
106.1829709711968
 20
187.0276632961903
 30
0.0
 10
106.1829709711968
 20
186.3566947953097
 30
0.0
 10
106.1829709711968
 20
185.7127657547924
 30
0.0
 10
106.1829709711968
 20
185.1000575068305
 30
0.0
 10
106.1829709711968
 20
184.6264333087006
 30
0.0
 10
106.1829709711968
 20
184.2773951518422
 30
0.0
 10
106.1829709711968
 20
183.9468543593129
 30
0.0
 10
106.1829709711967
 20
183.6014517984993
 30
0.0
 10
106.1829709711968
 20
183.3143113074431
 30
0.0
 10
106.1829709711968
 20
183.1704709327119
 30
0.0
 10
106.1829709711968
 20
183.1733168648437
 30
0.0
 10
106.1829709711968
 20
183.1743451213036
 30
0.0
  0
ARC
  5
132
330
1F
100
AcDbEntity
  8
0
  6
Continuous
 62
     7
370
    18
100
AcDbCircle
 10
106.6746146136
 20
189.9341648719
 30
0.0
 40
0.4917197396984722
100
AcDbArc
 50
89.0262602262
 51
178.9919806298
  0
ARC
  5
133
330
1F
100
AcDbEntity
  8
0
  6
Continuous
 62
     7
370
    18
100
AcDbCircle
 10
119.8648877301
 20
197.3005637922
 30
0.0
 40
0.630754117539507
100
AcDbArc
 50
232.7357245407
 51
280.7899856253
  0
SPLINE
  5
134
330
1F
100
AcDbEntity
  8
0
  6
Continuous
 62
     7
370
    18
100
AcDbSpline
210
0.0
220
0.0
230
1.0
 70
    24
 71
     3
 72
    18
 73
    14
 74
     0
 42
0.00000001
 43
0.00000001
 40
0.0
 40
0.0
 40
0.0
 40
0.0
 40
0.0271038102894717
 40
0.1312919947664337
 40
0.2355652927973434
 40
0.3397534543251891
 40
0.3966133696452119
 40
0.4528538482912642
 40
0.5657203542370425
 40
0.6786728154432176
 40
0.7915392826807709
 40
0.8957906469325564
 40
1.0
 40
1.0
 40
1.0
 40
1.0
 10
119.4829709711968
 20
201.0487521377778
 30
0.0
 10
119.4829709711967
 20
201.0523269261854
 30
0.0
 10
119.4829709711968
 20
201.0696433512892
 30
0.0
 10
119.4829709711967
 20
200.9765876698345
 30
0.0
 10
119.4829709711968
 20
200.773207642162
 30
0.0
 10
119.4829709711968
 20
200.4943802122339
 30
0.0
 10
119.4829709711968
 20
200.2161108970779
 30
0.0
 10
119.4829709711968
 20
199.8900830297436
 30
0.0
 10
119.4829709711968
 20
199.4193324816095
 30
0.0
 10
119.4829709711968
 20
198.7812046126625
 30
0.0
 10
119.4829709711968
 20
198.1108988144244
 30
0.0
 10
119.4829709711967
 20
197.4388850614376
 30
0.0
 10
119.4829709711968
 20
197.0119846039449
 30
0.0
 10
119.4829709711968
 20
196.7985773919214
 30
0.0
  0
LINE
  5
135
330
1F
100
AcDbEntity
  8
0
  6
Continuous
 62
     7
370
    18
100
AcDbLine
 10
120.9829709712
 20
201.5601276281
 30
0.0
 11
120.9829709712
 21
196.6809614157
 31
0.0
  0
LINE
  5
136
330
1F
100
AcDbEntity
  8
0
  6
Continuous
 62
     7
370
    18
100
AcDbLine
 10
120.9829709712
 20
196.6809614157
 30
0.0
 11
119.9829709712
 21
196.6809614157
 31
0.0
  0
LINE
  5
137
330
1F
100
AcDbEntity
  8
0
  6
Continuous
 62
     7
370
    18
100
AcDbLine
 10
107.6829709712
 20
190.4258136019
 30
0.0
 11
107.6829709712
 21
182.6601276281
 31
0.0
  0
LINE
  5
138
330
1F
100
AcDbEntity
  8
0
  6
Continuous
 62
     7
370
    18
100
AcDbLine
 10
107.6829709712
 20
190.4258136019
 30
0.0
 11
106.6829709712
 21
190.4258136019
 31
0.0
  0
LINE
  5
139
330
1F
100
AcDbEntity
  8
0
  6
Continuous
 62
     7
370
    18
100
AcDbLine
 10
130.5373828775
 20
196.669199818
 30
0.0
 11
130.5373828775
 21
193.6101276281
 31
0.0
  0
LINE
  5
13A
330
1F
100
AcDbEntity
  8
0
  6
Continuous
 62
     7
370
    18
100
AcDbLine
 10
121.5829709712
 20
196.669199818
 30
0.0
 11
121.5829709712
 21
193.6101276281
 31
0.0
  0
LINE
  5
13B
330
1F
100
AcDbEntity
  8
0
  6
Continuous
 62
     7
370
    18
100
AcDbLine
 10
130.9013531118
 20
196.9044317706
 30
0.0
 11
130.9013531118
 21
194.6101276281
 31
0.0
  0
SPLINE
  5
13C
330
1F
100
AcDbEntity
  8
0
  6
Continuous
 62
     7
370
    18
100
AcDbSpline
210
0.0
220
0.0
230
1.0
 70
    24
 71
     3
 72
    15
 73
    11
 74
     0
 42
0.00000001
 43
0.00000001
 40
0.0
 40
0.0
 40
0.0
 40
0.0
 40
0.1413745974297692
 40
0.2826922641210022
 40
0.3597990715323876
 40
0.4360658709341051
 40
0.5891223060045218
 40
0.7422953036061344
 40
0.8953516861840947
 40
1.0
 40
1.0
 40
1.0
 40
1.0
 10
119.4829709711968
 20
196.7985773919214
 30
0.0
 10
119.4829709711968
 20
196.5905124487395
 30
0.0
 10
119.4829709711967
 20
196.1744663489335
 30
0.0
 10
119.4829709711968
 20
195.6955105503068
 30
0.0
 10
119.4829709711967
 20
195.3394248690555
 30
0.0
 10
119.4829709711968
 20
195.0009647434745
 30
0.0
 10
119.4829709711968
 20
194.6443345970608
 30
0.0
 10
119.4829709711967
 20
194.3407946036967
 30
0.0
 10
119.4829709711968
 20
194.1786747813478
 30
0.0
 10
119.4829709711968
 20
194.1735743097794
 30
0.0
 10
119.4829709711968
 20
194.1715031183857
 30
0.0
  0
LINE
  5
13D
330
1F
100
AcDbEntity
  8
0
  6
Continuous
 62
     7
370
    18
100
AcDbLine
 10
120.9829709712
 20
196.6809614157
 30
0.0
 11
120.9829709712
 21
193.6601276281
 31
0.0
  0
LINE
  5
13E
330
1F
100
AcDbEntity
  8
0
  6
Continuous
 62
     7
370
    18
100
AcDbLine
 10
120.7829709712
 20
190.1101276281
 30
0.0
 11
120.7829709712
 21
189.7855541086
 31
0.0
  0
LINE
  5
13F
330
1F
100
AcDbEntity
  8
0
  6
Continuous
 62
     7
370
    18
100
AcDbLine
 10
120.7829709712
 20
183.4347011475
 30
0.0
 11
120.7829709712
 21
183.1101276281
 31
0.0
  0
LINE
  5
140
330
1F
100
AcDbEntity
  8
0
  6
Continuous
 62
     7
370
    18
100
AcDbLine
 10
127.0829709712
 20
184.4450641186
 30
0.0
 11
123.4829709712
 21
184.4450641186
 31
0.0
  0
LINE
  5
141
330
1F
100
AcDbEntity
  8
0
  6
Continuous
 62
     7
370
    18
100
AcDbLine
 10
123.4829709712
 20
183.1101276281
 30
0.0
 11
123.4829709712
 21
184.4450641186
 31
0.0
  0
LINE
  5
142
330
1F
100
AcDbEntity
  8
0
  6
Continuous
 62
     7
370
    18
100
AcDbLine
 10
123.4829709712
 20
188.7751911376
 30
0.0
 11
127.0829709712
 21
188.7751911375
 31
0.0
  0
LINE
  5
143
330
1F
100
AcDbEntity
  8
0
  6
Continuous
 62
     7
370
    18
100
AcDbLine
 10
123.4829709712
 20
188.7751911376
 30
0.0
 11
123.4829709712
 21
190.1101276281
 31
0.0
  0
LINE
  5
144
330
1F
100
AcDbEntity
  8
0
  6
Continuous
 62
     7
370
    18
100
AcDbLine
 10
133.0829709712
 20
196.9044317706
 30
0.0
 11
130.9013531118
 21
196.9044317706
 31
0.0
  0
LINE
  5
145
330
1F
100
AcDbEntity
  8
0
  6
Continuous
 62
     7
370
    18
100
AcDbLine
 10
133.0829709712
 20
200.6101276281
 30
0.0
 11
133.0829709712
 21
196.9044317706
 31
0.0
  0
LINE
  5
146
330
1F
100
AcDbEntity
  8
0
  6
Continuous
 62
     7
370
    18
100
AcDbLine
 10
156.2829659712
 20
173.1101276281
 30
0.0
 11
156.2829659712
 21
173.3801276281
 31
0.0
  0
LINE
  5
147
330
1F
100
AcDbEntity
  8
0
  6
Continuous
 62
     7
370
    18
100
AcDbLine
 10
150.2829747212
 20
173.1101276281
 30
0.0
 11
150.2829747212
 21
173.3801276281
 31
0.0
  0
LINE
  5
148
330
1F
100
AcDbEntity
  8
0
  6
Continuous
 62
     7
370
    18
100
AcDbLine
 10
170.2829703962
 20
173.3801276281
 30
0.0
 11
170.2829697212
 21
173.1101276281
 31
0.0
  0
LINE
  5
149
330
1F
100
AcDbEntity
  8
0
  6
Continuous
 62
     7
370
    18
100
AcDbLine
 10
164.2829759712
 20
173.3801276281
 30
0.0
 11
164.2829759712
 21
173.1101276281
 31
0.0
  0
SPLINE
  5
14A
330
1F
100
AcDbEntity
  8
0
  6
Continuous
 62
     7
370
    18
100
AcDbSpline
210
0.0
220
0.0
230
1.0
 70
     8
 71
     3
 72
     9
 73
     5
 74
     0
 42
0.00000001
 43
0.00000001
 40
0.0
 40
0.0
 40
0.0
 40
0.0
 40
0.5085554047286667
 40
1.0
 40
1.0
 40
1.0
 40
1.0
 10
123.482970971167
 20
188.7751911375613
 30
0.0
 10
123.4480121494525
 20
188.7180176144884
 30
0.0
 10
123.3792707273982
 20
188.6055942235632
 30
0.0
 10
123.3147026190634
 20
188.490723740725
 30
0.0
 10
123.2829709711955
 20
188.4342712627779
 30
0.0
  0
SPLINE
  5
14B
330
1F
100
AcDbEntity
  8
0
  6
Continuous
 62
     7
370
    18
100
AcDbSpline
210
0.0
220
0.0
230
1.0
 70
     8
 71
     3
 72
     9
 73
     5
 74
     0
 42
0.00000001
 43
0.00000001
 40
0.0
 40
0.0
 40
0.0
 40
0.0
 40
0.4914445955072089
 40
0.9999999999999999
 40
0.9999999999999999
 40
0.9999999999999999
 40
0.9999999999999999
 10
123.2829709712184
 20
184.7859839933729
 30
0.0
 10
123.3147026190971
 20
184.7295315154002
 30
0.0
 10
123.3792707274227
 20
184.6146610325649
 30
0.0
 10
123.4480121494723
 20
184.5022376416452
 30
0.0
 10
123.4829709711682
 20
184.4450641186016
 30
0.0
  0
LINE
  5
14C
330
1F
100
AcDbEntity
  8
0
  6
Continuous
 62
     7
370
    18
100
AcDbLine
 10
133.0829709712
 20
196.9044317706
 30
0.0
 11
133.0829709712
 21
194.6101276281
 31
0.0
  0
LINE
  5
14D
330
1F
100
AcDbEntity
  8
0
  6
Continuous
 62
     7
370
    18
100
AcDbLine
 10
133.0829709712
 20
196.9632397587
 30
0.0
 11
133.5829709712
 21
196.9632397587
 31
0.0
  0
LINE
  5
14E
330
1F
100
AcDbEntity
  8
0
  6
Continuous
 62
     7
370
    18
100
AcDbLine
 10
133.5829709712
 20
196.9632397587
 30
0.0
 11
133.5829709712
 21
200.3601276281
 31
0.0
  0
LINE
  5
14F
330
1F
100
AcDbEntity
  8
0
  6
Continuous
 62
     7
370
    18
100
AcDbLine
 10
133.5829709712
 20
194.8601276281
 30
0.0
 11
133.5829709712
 21
196.9632397587
 31
0.0
  0
LINE
  5
150
330
1F
100
AcDbEntity
  8
0
  6
Continuous
 62
     7
370
    18
100
AcDbLine
 10
134.0829709712
 20
197.0220477468
 30
0.0
 11
133.5829709712
 21
197.0220477468
 31
0.0
  0
LINE
  5
151
330
1F
100
AcDbEntity
  8
0
  6
Continuous
 62
     7
370
    18
100
AcDbLine
 10
120.9829709712
 20
197.0926173326
 30
0.0
 11
121.5829709712
 21
197.0926173326
 31
0.0
  0
LINE
  5
152
330
1F
100
AcDbEntity
  8
0
  6
Continuous
 62
     7
370
    18
100
AcDbLine
 10
107.6829709712
 20
188.735319816
 30
0.0
 11
108.2829709712
 21
188.735319816
 31
0.0
  0
LINE
  5
153
330
1F
100
AcDbEntity
  8
0
  6
Continuous
 62
     7
370
    18
100
AcDbLine
 10
117.6013531118
 20
189.6101276281
 30
0.0
 11
117.6013531118
 21
189.5081169753
 31
0.0
  0
LINE
  5
154
330
1F
100
AcDbEntity
  8
0
  6
Continuous
 62
     7
370
    18
100
AcDbLine
 10
117.2373828775
 20
190.610127628
 30
0.0
 11
117.2373828775
 21
190.4741134243
 31
0.0
  0
LINE
  5
155
330
1F
100
AcDbEntity
  8
0
  6
Continuous
 62
     7
370
    18
100
AcDbLine
 10
108.2829709712
 20
190.6101276281
 30
0.0
 11
108.2829709712
 21
190.4741134244
 31
0.0
  0
SPLINE
  5
156
330
1F
100
AcDbEntity
  8
0
  6
Continuous
 62
     7
370
    18
100
AcDbSpline
210
0.0
220
0.0
230
1.0
 70
    24
 71
     3
 72
     9
 73
     5
 74
     0
 42
0.00000001
 43
0.00000001
 40
0.0
 40
0.0
 40
0.0
 40
0.0
 40
0.2140743533993043
 40
1.0
 40
1.0
 40
1.0
 40
1.0
 10
106.1829709711968
 20
190.0475556209084
 30
0.0
 10
106.1829709711968
 20
190.0500454586892
 30
0.0
 10
106.1829709711968
 20
190.0616761736313
 30
0.0
 10
106.1829709711968
 20
189.9951220052268
 30
0.0
 10
106.1829709711968
 20
189.9428153773895
 30
0.0
  0
LINE
  5
157
330
1F
100
AcDbEntity
  8
0
  6
Continuous
 62
     7
370
    18
100
AcDbLine
 10
107.6829709712
 20
190.5601276281
 30
0.0
 11
107.6829709712
 21
190.4258136019
 31
0.0
  0
LINE
  5
158
330
1F
100
AcDbEntity
  8
0
  6
Continuous
 62
     7
370
    18
100
AcDbLine
 10
131.2829709711
 20
187.3628891096
 30
0.0
 11
130.7829709712
 21
187.7392698503
 31
0.0
  0
LINE
  5
159
330
1F
100
AcDbEntity
  8
0
  6
Continuous
 62
     7
370
    18
100
AcDbLine
 10
131.2829709711
 20
185.610127628
 30
0.0
 11
131.2829709711
 21
187.3628891096
 31
0.0
  0
LINE
  5
15A
330
1F
100
AcDbEntity
  8
0
  6
Continuous
 62
     7
370
    18
100
AcDbLine
 10
130.7829709712
 20
185.1101276281
 30
0.0
 11
130.7829709712
 21
187.7392698503
 31
0.0
  0
LINE
  5
15B
330
1F
100
AcDbEntity
  8
0
  6
Continuous
 62
     7
370
    18
100
AcDbLine
 10
115.4449177217
 20
187.7392698503
 30
0.0
 11
115.4449177217
 21
185.1101276281
 31
0.0
  0
LINE
  5
15C
330
1F
100
AcDbEntity
  8
0
  6
Continuous
 62
     7
370
    18
100
AcDbLine
 10
115.2829709711
 20
187.5281202547
 30
0.0
 11
115.2829709711
 21
185.3906276282
 31
0.0
  0
LINE
  5
15D
330
1F
100
AcDbEntity
  8
0
  6
Continuous
 62
     7
370
    18
100
AcDbLine
 10
115.4449177217
 20
187.7392698503
 30
0.0
 11
115.2829709711
 21
187.5281202547
 31
0.0
  0
LINE
  5
15E
330
1F
100
AcDbEntity
  8
0
  6
Continuous
 62
     7
370
    18
100
AcDbLine
 10
130.7829709712
 20
187.7392698503
 30
0.0
 11
130.7829709712
 21
188.1101276281
 31
0.0
  0
LINE
  5
15F
330
1F
100
AcDbEntity
  8
0
  6
Continuous
 62
     7
370
    18
100
AcDbLine
 10
115.4449177217
 20
188.1101276281
 30
0.0
 11
115.4449177217
 21
187.7392698503
 31
0.0
  0
LINE
  5
160
330
1F
100
AcDbEntity
  8
0
  6
Continuous
 62
     7
370
    18
100
AcDbLine
 10
131.2829709711
 20
187.3628891096
 30
0.0
 11
131.2829709711
 21
187.6101276281
 31
0.0
  0
LINE
  5
161
330
1F
100
AcDbEntity
  8
0
  6
Continuous
 62
     7
370
    18
100
AcDbLine
 10
115.2829709712
 20
187.8296276281
 30
0.0
 11
115.2829709711
 21
187.5281202547
 31
0.0
  0
SPLINE
  5
162
330
1F
100
AcDbEntity
  8
0
  6
Continuous
 62
     7
370
    18
100
AcDbSpline
210
0.0
220
0.0
230
1.0
 70
     8
 71
     3
 72
     8
 73
     4
 74
     0
 42
0.00000001
 43
0.00000001
 40
0.0
 40
0.0
 40
0.0
 40
0.0
 40
1.0
 40
1.0
 40
1.0
 40
1.0
 10
119.1285911061824
 20
183.4347011499726
 30
0.0
 10
118.978844419983
 20
183.6940700087389
 30
0.0
 10
118.882970971241
 20
183.9576059608838
 30
0.0
 10
118.882970971241
 20
184.2285577676745
 30
0.0
  0
SPLINE
  5
163
330
1F
100
AcDbEntity
  8
0
  6
Continuous
 62
     7
370
    18
100
AcDbSpline
210
0.0
220
0.0
230
1.0
 70
     8
 71
     3
 72
     8
 73
     4
 74
     0
 42
0.00000001
 43
0.00000001
 40
0.0
 40
0.0
 40
0.0
 40
0.0
 40
1.0
 40
1.0
 40
1.0
 40
1.0
 10
118.882970971241
 20
184.2285577676745
 30
0.0
 10
118.882970971241
 20
184.4995095524434
 30
0.0
 10
118.9788443754991
 20
184.7630455039357
 30
0.0
 10
119.1285910392797
 20
185.0224143444989
 30
0.0
  0
LINE
  5
164
330
1F
100
AcDbEntity
  8
0
  6
Continuous
 62
     7
370
    18
100
AcDbLine
 10
121.2829709712
 20
185.0224143878
 30
0.0
 11
119.1285910566
 21
185.0224143495
 31
0.0
  0
LINE
  5
165
330
1F
100
AcDbEntity
  8
0
  6
Continuous
 62
     7
370
    18
100
AcDbLine
 10
121.2829709712
 20
185.0224143878
 30
0.0
 11
121.2829709712
 21
184.8780768205
 31
0.0
  0
LINE
  5
166
330
1F
100
AcDbEntity
  8
0
  6
Continuous
 62
     7
370
    18
100
AcDbLine
 10
119.1285910739
 20
183.4347011309
 30
0.0
 11
121.2829709712
 21
183.4347011475
 31
0.0
  0
SPLINE
  5
167
330
1F
100
AcDbEntity
  8
0
  6
Continuous
 62
     7
370
    18
100
AcDbSpline
210
0.0
220
0.0
230
1.0
 70
     8
 71
     3
 72
     8
 73
     4
 74
     0
 42
0.00000001
 43
0.00000001
 40
0.0
 40
0.0
 40
0.0
 40
0.0
 40
1.0
 40
1.0
 40
1.0
 40
1.0
 10
118.8829709712358
 20
186.6101276280818
 30
0.0
 10
118.8829709712358
 20
186.0682240182835
 30
0.0
 10
118.9788443898198
 20
185.5411520781711
 30
0.0
 10
119.1285910720063
 20
185.0224143610644
 30
0.0
  0
SPLINE
  5
168
330
1F
100
AcDbEntity
  8
0
  6
Continuous
 62
     7
370
    18
100
AcDbSpline
210
0.0
220
0.0
230
1.0
 70
     8
 71
     3
 72
     8
 73
     4
 74
     0
 42
0.00000001
 43
0.00000001
 40
0.0
 40
0.0
 40
0.0
 40
0.0
 40
1.0
 40
1.0
 40
1.0
 40
1.0
 10
118.882970971241
 20
186.6101276280818
 30
0.0
 10
118.882970971241
 20
187.1520312363466
 30
0.0
 10
118.9788443977314
 20
187.6791032135736
 30
0.0
 10
119.1285910816368
 20
188.1978409284599
 30
0.0
  0
LINE
  5
169
330
1F
100
AcDbEntity
  8
0
  6
Continuous
 62
     7
370
    18
100
AcDbLine
 10
119.1285910499
 20
188.1978408932
 30
0.0
 11
121.2829709712
 21
188.1978408684
 31
0.0
  0
LINE
  5
16A
330
1F
100
AcDbEntity
  8
0
  6
Continuous
 62
     7
370
    18
100
AcDbLine
 10
121.2829709712
 20
188.1978408684
 30
0.0
 11
121.2829709712
 21
185.0224143878
 31
0.0
  0
SPLINE
  5
16B
330
1F
100
AcDbEntity
  8
0
  6
Continuous
 62
     7
370
    18
100
AcDbSpline
210
0.0
220
0.0
230
1.0
 70
     8
 71
     3
 72
     8
 73
     4
 74
     0
 42
0.00000001
 43
0.00000001
 40
0.0
 40
0.0
 40
0.0
 40
0.0
 40
1.0
 40
1.0
 40
1.0
 40
1.0
 10
119.1285910355671
 20
188.1978409180948
 30
0.0
 10
118.9788443738739
 20
188.4572097566184
 30
0.0
 10
118.8829709712402
 20
188.7207457060061
 30
0.0
 10
118.882970971241
 20
188.9916974884926
 30
0.0
  0
SPLINE
  5
16C
330
1F
100
AcDbEntity
  8
0
  6
Continuous
 62
     7
370
    18
100
AcDbSpline
210
0.0
220
0.0
230
1.0
 70
     8
 71
     3
 72
     8
 73
     4
 74
     0
 42
0.00000001
 43
0.00000001
 40
0.0
 40
0.0
 40
0.0
 40
0.0
 40
1.0
 40
1.0
 40
1.0
 40
1.0
 10
118.882970971241
 20
188.9916974884926
 30
0.0
 10
118.8829709712418
 20
189.2626492709827
 30
0.0
 10
118.9788443738796
 20
189.5261852203737
 30
0.0
 10
119.1285910355771
 20
189.7855540589004
 30
0.0
  0
LINE
  5
16D
330
1F
100
AcDbEntity
  8
0
  6
Continuous
 62
     7
370
    18
100
AcDbLine
 10
121.2829709712
 20
189.7855541086
 30
0.0
 11
119.1285910739
 21
189.7855541253
 31
0.0
  0
LINE
  5
16E
330
1F
100
AcDbEntity
  8
0
  6
Continuous
 62
     7
370
    18
100
AcDbLine
 10
121.2829709712
 20
188.7804283485
 30
0.0
 11
121.2829709712
 21
188.1978408684
 31
0.0
  0
LINE
  5
16F
330
1F
100
AcDbEntity
  8
0
  6
Continuous
 62
     7
370
    18
100
AcDbLine
 10
118.8829709712
 20
186.6101276281
 30
0.0
 11
118.8829709712
 21
184.2285577677
 31
0.0
  0
LINE
  5
170
330
1F
100
AcDbEntity
  8
0
  6
Continuous
 62
     7
370
    18
100
AcDbLine
 10
118.8829709712
 20
188.9916974885
 30
0.0
 11
118.8829709712
 21
186.6101276281
 31
0.0
  0
LINE
  5
171
330
1F
100
AcDbEntity
  8
0
  6
Continuous
 62
     7
370
    18
100
AcDbLine
 10
118.8829709712
 20
184.2285577677
 30
0.0
 11
118.8829709712
 21
183.8601276281
 31
0.0
  0
LINE
  5
172
330
1F
100
AcDbEntity
  8
0
  6
Continuous
 62
     7
370
    18
100
AcDbLine
 10
118.8829709712
 20
189.3601276281
 30
0.0
 11
118.8829709712
 21
188.9916974885
 31
0.0
  0
LINE
  5
173
330
1F
100
AcDbEntity
  8
0
  6
Continuous
 62
     7
370
    18
100
AcDbLine
 10
181.5829709712
 20
209.6101276318
 30
0.0
 11
181.5829709712
 21
210.5740102003
 31
0.0
  0
LINE
  5
174
330
1F
100
AcDbEntity
  8
0
  6
Continuous
 62
     7
370
    18
100
AcDbLine
 10
176.0829709712
 20
209.6101276318
 30
0.0
 11
176.0829709712
 21
219.4099391847
 31
0.0
  0
LINE
  5
175
330
1F
100
AcDbEntity
  8
0
  6
Continuous
 62
     7
370
    18
100
AcDbLine
 10
177.2595780043
 20
219.4099391847
 30
0.0
 11
176.0829709712
 21
219.4099391847
 31
0.0
  0
ELLIPSE
  5
176
330
1F
100
AcDbEntity
  8
0
  6
Continuous
 62
     7
370
    18
100
AcDbEllipse
 10
163.3917581338
 20
208.2524945202
 30
0.0
 11
-4.201735195039817
 21
21.76340952662548
 31
0.0
210
0.0
220
0.0
230
1.0
 40
0.7658179172
 41
4.67132066943136
 42
5.097482784519112
  0
LINE
  5
177
330
1F
100
AcDbEntity
  8
0
  6
Continuous
 62
     7
370
    18
100
AcDbLine
 10
181.5829709712
 20
210.5740102003
 30
0.0
 11
180.2170235587
 21
210.5740102003
 31
0.0
  0
LINE
  5
178
330
1F
100
AcDbEntity
  8
0
  6
Continuous
 62
     7
370
    18
100
AcDbLine
 10
180.1404725099
 20
211.0275459693
 30
0.0
 11
181.5829709712
 21
211.0275459693
 31
0.0
  0
LINE
  5
179
330
1F
100
AcDbEntity
  8
0
  6
Continuous
 62
     7
370
    18
100
AcDbLine
 10
181.5829709712
 20
210.5740102003
 30
0.0
 11
181.5829709712
 21
211.0275459693
 31
0.0
  0
LINE
  5
17A
330
1F
100
AcDbEntity
  8
0
  6
Continuous
 62
     7
370
    18
100
AcDbLine
 10
176.2829709712
 20
219.5349391847
 30
0.0
 11
176.0829709712
 21
219.5349391847
 31
0.0
  0
LINE
  5
17B
330
1F
100
AcDbEntity
  8
0
  6
Continuous
 62
     7
370
    18
100
AcDbLine
 10
176.2829709712
 20
219.5349391847
 30
0.0
 11
177.2595780043
 21
219.4099391847
 31
0.0
  0
LINE
  5
17C
330
1F
100
AcDbEntity
  8
0
  6
Continuous
 62
     7
370
    18
100
AcDbLine
 10
176.0829709712
 20
219.4099391847
 30
0.0
 11
176.0829709712
 21
219.5349391847
 31
0.0
  0
LINE
  5
17D
330
1F
100
AcDbEntity
  8
0
  6
Continuous
 62
     8
370
    18
100
AcDbLine
 10
179.3579709712
 20
176.8601276281
 30
0.0
 11
179.3579709712
 21
180.9942198957
 31
0.0
  0
LINE
  5
17E
330
1F
100
AcDbEntity
  8
0
  6
Continuous
 62
     8
370
    18
100
AcDbLine
 10
179.3579709712
 20
180.9942198957
 30
0.0
 11
179.3579709712
 21
181.3601276281
 31
0.0
  0
LINE
  5
17F
330
1F
100
AcDbEntity
  8
0
  6
Continuous
 62
     8
370
    18
100
AcDbLine
 10
134.7079709712
 20
181.8523298384
 30
0.0
 11
134.7079709712
 21
177.3601276281
 31
0.0
  0
LINE
  5
180
330
1F
100
AcDbEntity
  8
0
  6
Continuous
 62
     8
370
    18
100
AcDbLine
 10
134.7079709712
 20
200.8601276281
 30
0.0
 11
134.7079709712
 21
196.7285287949
 31
0.0
  0
LINE
  5
181
330
1F
100
AcDbEntity
  8
0
  6
Continuous
 62
     8
370
    18
100
AcDbLine
 10
134.7079709712
 20
196.7285287949
 30
0.0
 11
134.7079709712
 21
196.3601276281
 31
0.0
  0
LINE
  5
182
330
1F
100
AcDbEntity
  8
0
  6
Continuous
 62
     8
370
    18
100
AcDbLine
 10
134.7079709712
 20
181.8601276281
 30
0.0
 11
134.7079709712
 21
181.8523298384
 31
0.0
  0
LINE
  5
183
330
1F
100
AcDbEntity
  8
0
  6
Continuous
 62
     8
370
    18
100
AcDbLine
 10
134.5829709712
 20
179.6101276281
 30
0.0
 11
134.0829709712
 21
179.6101276281
 31
0.0
  0
LINE
  5
184
330
1F
100
AcDbEntity
  8
0
  6
Continuous
 62
     8
370
    18
100
AcDbLine
 10
134.5829709712
 20
198.6101276281
 30
0.0
 11
134.0829709712
 21
198.6101276281
 31
0.0
  0
LINE
  5
185
330
1F
100
AcDbEntity
  8
0
  6
Continuous
 62
     8
370
    18
100
AcDbLine
 10
127.3829709712
 20
181.1101276281
 30
0.0
 11
127.3829709712
 21
185.1101276281
 31
0.0
  0
LINE
  5
186
330
1F
100
AcDbEntity
  8
0
  6
Continuous
 62
     8
370
    18
100
AcDbLine
 10
127.3829709712
 20
188.1101276281
 30
0.0
 11
127.3829709712
 21
192.1101276281
 31
0.0
  0
LINE
  5
187
330
1F
100
AcDbEntity
  8
0
  6
Continuous
 62
     8
370
    18
100
AcDbLine
 10
133.2829709712
 20
186.6101276281
 30
0.0
 11
131.2829709711
 21
186.6101276281
 31
0.0
  0
LINE
  5
188
330
1F
100
AcDbEntity
  8
0
  6
Continuous
 62
     8
370
    18
100
AcDbLine
 10
134.5829709712
 20
177.6101276281
 30
0.0
 11
134.0829709712
 21
177.6101276281
 31
0.0
  0
LINE
  5
189
330
1F
100
AcDbEntity
  8
0
  6
Continuous
 62
     8
370
    18
100
AcDbLine
 10
134.0829709712
 20
200.6101276281
 30
0.0
 11
134.5829709712
 21
200.6101276281
 31
0.0
  0
LINE
  5
18A
330
1F
100
AcDbEntity
  8
0
  6
Continuous
 62
     8
370
    18
100
AcDbLine
 10
106.6829709712
 20
190.4258136019
 30
0.0
 11
106.6829709712
 21
182.6601276281
 31
0.0
  0
LINE
  5
18B
330
1F
100
AcDbEntity
  8
0
  6
Continuous
 62
     8
370
    18
100
AcDbLine
 10
119.9829709712
 20
201.5601276281
 30
0.0
 11
119.9829709712
 21
196.6809614157
 31
0.0
  0
LINE
  5
18C
330
1F
100
AcDbEntity
  8
0
  6
Continuous
 62
     8
370
    18
100
AcDbLine
 10
119.9829709712
 20
196.6809614157
 30
0.0
 11
119.9829709712
 21
193.6601276281
 31
0.0
  0
LINE
  5
18D
330
1F
100
AcDbEntity
  8
0
  6
Continuous
 62
     8
370
    18
100
AcDbLine
 10
118.9684126607
 20
189.5081169753
 30
0.0
 11
117.6013531118
 21
189.5081169753
 31
0.0
  0
LINE
  5
18E
330
1F
100
AcDbEntity
  8
0
  6
Continuous
 62
     8
370
    18
100
AcDbLine
 10
106.6829709712
 20
190.5601276281
 30
0.0
 11
106.6829709712
 21
190.4258136019
 31
0.0
  0
LINE
  5
18F
330
1F
100
AcDbEntity
  8
0
  6
Continuous
 62
     8
370
    18
100
AcDbLine
 10
130.7829709712
 20
187.7392698503
 30
0.0
 11
123.2829709712
 21
187.7392698503
 31
0.0
  0
LINE
  5
190
330
1F
100
AcDbEntity
  8
0
  6
Continuous
 62
     8
370
    18
100
AcDbLine
 10
118.8829709712
 20
187.7392698503
 30
0.0
 11
115.4449177217
 21
187.7392698503
 31
0.0
  0
LINE
  5
191
330
1F
100
AcDbEntity
  8
0
  6
Continuous
 62
     7
370
    18
100
AcDbLine
 10
175.7829709712
 20
178.6101276281
 30
0.0
 11
175.7829709712
 21
198.6101276281
 31
0.0
  0
LINE
  5
192
330
1F
100
AcDbEntity
  8
0
  6
CENTER
 62
     7
370
    18
100
AcDbLine
 10
174.0829709712
 20
219.5349391847
 30
0.0
 11
174.0829709712
 21
210.1101276318
 31
0.0
  0
LINE
  5
193
330
1F
100
AcDbEntity
  8
0
  6
Continuous
 62
     7
370
    18
100
AcDbLine
 10
174.0829709712
 20
219.5349391847
 30
0.0
 11
174.2829709712
 21
219.5349391847
 31
0.0
  0
LINE
  5
194
330
1F
100
AcDbEntity
  8
0
  6
Continuous
 62
     7
370
    18
100
AcDbLine
 10
174.2829709712
 20
219.5349391847
 30
0.0
 11
175.5294849465
 21
219.4099391847
 31
0.0
  0
SPLINE
  5
195
330
1F
100
AcDbEntity
  8
0
  6
Continuous
 62
     7
370
    18
100
AcDbSpline
210
0.0
220
0.0
230
1.0
 70
     8
 71
     3
 72
     8
 73
     4
 74
     0
 42
0.00000001
 43
0.00000001
 40
0.8546749282641695
 40
0.8546749282641695
 40
0.8546749282641695
 40
0.8546749282641695
 40
0.9923146983843908
 40
0.9923146983843908
 40
0.9923146983843908
 40
0.9923146983843908
 10
176.0829709711968
 20
218.3059115976997
 30
0.0
 10
175.9067279516945
 20
218.6804264956073
 30
0.0
 10
175.7221085782193
 20
219.0486983490488
 30
0.0
 10
175.5294849464601
 20
219.409939184681
 30
0.0
  0
DIMENSION
  5
196
330
1F
100
AcDbEntity
  8
0
  6
Continuous
 62
     7
370
    18
100
AcDbDimension
  2
_D
 10
176.0829709712
 20
230.5849391847
 30
0.0
 11
175.0829709712
 21
230.5849391847
 31
0.0
 70
   160
  1
Maxストローク<>
 71
     2
 42
-1.0
  3
SLDDIMSTYLE0
100
AcDbAlignedDimension
 13
174.0829709712
 23
219.5349391847
 33
0.0
 14
176.0829709712
 24
219.5349391847
 34
0.0
100
AcDbRotatedDimension
  0
DIMENSION
  5
1AB
330
1F
100
AcDbEntity
  8
0
  6
Continuous
 62
     7
370
    18
100
AcDbDimension
  2
_D_1
 10
174.0829709712
 20
230.5849391847
 30
0.0
 11
151.1322746225
 21
230.5849391847
 31
0.0
 70
   160
  1
(<>)
 71
     2
 42
-1.0
  3
SLDDIMSTYLE1
100
AcDbAlignedDimension
 13
160.2829709712
 23
175.1101276281
 33
0.0
 14
174.0829709712
 24
219.5349391847
 34
0.0
100
AcDbRotatedDimension
  0
DIMENSION
  5
1BA
330
1F
100
AcDbEntity
  8
0
  6
Continuous
 62
     7
370
    18
100
AcDbDimension
  2
_D_2
 10
98.1547807346
 20
186.6101276281
 30
0.0
 11
98.1547807346
 21
177.6101276281
 31
0.0
 70
   160
  1
<>
 71
     2
 42
-1.0
  3
SLDDIMSTYLE2
100
AcDbAlignedDimension
 13
121.2829709712
 23
168.6101276281
 33
0.0
 14
105.3117251533
 24
186.6101276281
 34
0.0
 50
90.0
100
AcDbRotatedDimension
  0
DIMENSION
  5
1C5
330
1F
100
AcDbEntity
  8
0
  6
Continuous
 62
     7
370
    18
100
AcDbDimension
  2
_D_3
 10
90.1792856169
 20
197.6101276281
 30
0.0
 11
90.1792856169
 21
183.1101276281
 31
0.0
 70
   160
  1
<>
 71
     2
 42
-1.0
  3
SLDDIMSTYLE2
100
AcDbAlignedDimension
 13
121.2829709712
 23
168.6101276281
 33
0.0
 14
118.712488116
 24
197.6101276281
 34
0.0
 50
90.0
100
AcDbRotatedDimension
  0
DIMENSION
  5
1CF
330
1F
100
AcDbEntity
  8
0
  6
Continuous
 62
     7
370
    18
100
AcDbDimension
  2
_D_4
 10
176.0829709712
 20
230.5849391847
 30
0.0
 11
190.4697489616
 21
230.5849391847
 31
0.0
 70
   160
  1
<>
 71
     2
 42
-1.0
  3
SLDDIMSTYLE1
100
AcDbAlignedDimension
 13
182.7829709712
 23
209.6101276318
 33
0.0
 14
176.0829709712
 24
219.5349391847
 34
0.0
100
AcDbRotatedDimension
  0
DIMENSION
  5
1DB
330
1F
100
AcDbEntity
  8
0
  6
Continuous
 62
     7
370
    18
100
AcDbDimension
  2
_D_5
 10
140.2829709712
 20
160.4897008888
 30
0.0
 11
150.2829709712
 21
160.4897008888
 31
0.0
 70
   160
  1
<>
 71
     2
 42
-1.0
  3
SLDDIMSTYLE2
100
AcDbAlignedDimension
 13
160.2829709712
 23
166.6101276281
 33
0.0
 14
140.2829709712
 24
166.6101276281
 34
0.0
100
AcDbRotatedDimension
  0
DIMENSION
  5
1E5
330
1F
100
AcDbEntity
  8
0
  6
Continuous
 62
     7
370
    18
100
AcDbDimension
  2
_D_6
 10
160.2829709712
 20
160.4897008888
 30
0.0
 11
168.0329709712
 21
160.4897008888
 31
0.0
 70
   160
  1
<>
 71
     2
 42
-1.0
  3
SLDDIMSTYLE2
100
AcDbAlignedDimension
 13
175.7829709712
 23
173.6101276281
 33
0.0
 14
160.2829709712
 24
166.6101276281
 34
0.0
100
AcDbRotatedDimension
  0
DIMENSION
  5
1EF
330
1F
100
AcDbEntity
  8
0
  6
Continuous
 62
     7
370
    18
100
AcDbDimension
  2
_D_7
 10
175.7829709712
 20
143.3729171253
 30
0.0
 11
140.9829709712
 21
143.3729171253
 31
0.0
 70
   160
  1
(<>)
 71
     2
 42
-1.0
  3
SLDDIMSTYLE3
100
AcDbAlignedDimension
 13
106.1829709712
 23
183.1597586799
 33
0.0
 14
175.7829709712
 24
173.6101276281
 34
0.0
100
AcDbRotatedDimension
  0
DIMENSION
  5
1FC
330
1F
100
AcDbEntity
  8
0
  6
Continuous
 62
     7
370
    18
100
AcDbDimension
  2
_D_8
 10
121.2829709712
 20
152.6100245504
 30
0.0
 11
148.5329709712
 21
152.6100245504
 31
0.0
 70
   160
  1
<>
 71
     2
 42
-1.0
  3
SLDDIMSTYLE2
100
AcDbAlignedDimension
 13
175.7829709712
 23
173.6101276281
 33
0.0
 14
121.2829709712
 24
168.6101276281
 34
0.0
100
AcDbRotatedDimension
  0
DIMENSION
  5
206
330
1F
100
AcDbEntity
  8
0
  6
Continuous
 62
     7
370
    18
100
AcDbDimension
  2
_D_9
 10
182.7829709712
 20
143.3729171253
 30
0.0
 11
189.448622961
 21
143.3729171253
 31
0.0
 70
   160
  1
<>
 71
     2
 42
-1.0
  3
SLDDIMSTYLE4
100
AcDbAlignedDimension
 13
175.7829709712
 23
173.6101276281
 33
0.0
 14
182.7829709712
 24
182.7101276281
 34
0.0
100
AcDbRotatedDimension
  0
DIMENSION
  5
213
330
1F
100
AcDbEntity
  8
0
  6
Continuous
 62
     7
370
    18
100
AcDbDimension
  2
_D_10
 10
190.4697489616
 20
219.5349391847
 30
0.0
 11
190.4697489616
 21
194.0725334064
 31
0.0
 70
   160
  1
(<>)
 71
     2
 42
-1.0
  3
SLDDIMSTYLE2
100
AcDbAlignedDimension
 13
173.7829709712
 23
168.6101276281
 33
0.0
 14
176.2829709712
 24
219.5349391847
 34
0.0
 50
90.0
100
AcDbRotatedDimension
  0
INSERT
  5
224
330
1F
100
AcDbEntity
  8
0
  6
Continuous
 62
     7
370
     0
100
AcDbBlockReference
  2
SW_NOTE_0
 10
119.0555545092
 20
215.3750001937
 30
0.0
  0
LEADER
  5
226
330
1F
100
AcDbEntity
  8
0
  6
Continuous
 62
     7
370
     0
100
AcDbLeader
  3
SLDDIMSTYLE5
 76
     2
 10
125.9738484017
 20
201.6101276281
 30
0.0
 10
119.0555545092
 20
215.3750001937
 30
0.0
  0
MTEXT
  5
227
330
1F
100
AcDbEntity
  8
0
  6
Continuous
 62
     7
370
     0
100
AcDbMText
 10
98.5960194649
 20
215.2526056787
 30
0.0
 40
3.5
 41
0.0
 71
     1
 72
     1
  1
KQ2S04-M3G
  7
SLDTEXTSTYLE0
 73
     1
 44
1.0
  0
INSERT
  5
22D
330
1F
100
AcDbEntity
  8
0
  6
Continuous
 62
     7
370
     0
100
AcDbBlockReference
  2
SW_NOTE_0_1
 10
98.6805545092
 20
158.2500001937
 30
0.0
  0
LEADER
  5
22E
330
1F
100
AcDbEntity
  8
0
  6
Continuous
 62
     7
370
     0
100
AcDbLeader
  3
SLDDIMSTYLE5
 76
     2
 10
112.8874058395
 20
182.6101276281
 30
0.0
 10
98.6805545092
 20
158.2500001937
 30
0.0
  0
MTEXT
  5
22F
330
1F
100
AcDbEntity
  8
0
  6
Continuous
 62
     7
370
     0
100
AcDbMText
 10
78.2505659304
 20
158.2486534648
 30
0.0
 40
3.5
 41
0.0
 71
     1
 72
     1
  1
KQ2S04-M3G
  7
SLDTEXTSTYLE0
 73
     1
 44
1.0
  0
LINE
  5
230
330
1F
100
AcDbEntity
  8
0
  6
CENTERX2
 62
     7
370
    18
100
AcDbLine
 10
126.6026569632
 20
186.6101276281
 30
0.0
 11
105.3117251533
 21
186.6101276281
 31
0.0
  0
LINE
  5
231
330
1F
100
AcDbEntity
  8
0
  6
CENTERX2
 62
     7
370
    18
100
AcDbLine
 10
138.4066000401
 20
197.6101276281
 30
0.0
 11
118.712488116
 21
197.6101276281
 31
0.0
  0
LINE
  5
232
330
1F
100
AcDbEntity
  8
0
  6
CENTERX2
 62
     7
370
    18
100
AcDbLine
 10
160.2829709712
 20
175.1101276281
 30
0.0
 11
160.2829709712
 21
166.6101276281
 31
0.0
  0
LINE
  5
233
330
1F
100
AcDbEntity
  8
0
  6
CENTERX2
 62
     7
370
    18
100
AcDbLine
 10
140.2829709712
 20
175.1101276281
 30
0.0
 11
140.2829709712
 21
166.6101276281
 31
0.0
  0
LINE
  5
234
330
1F
100
AcDbEntity
  8
0
  6
Continuous
 62
     7
370
    18
100
AcDbLine
 10
41.9365614928
 20
209.6101276318
 30
0.0
 11
41.9365614928
 21
207.7411961486
 31
0.0
  0
ARC
  5
235
330
1F
100
AcDbEntity
  8
0
  6
Continuous
 62
     7
370
    18
100
AcDbCircle
 10
49.107272751
 20
202.6401276281
 30
0.0
 40
8.799999999999994
100
AcDbArc
 50
144.5728840236
 51
180.0
  0
LINE
  5
236
330
1F
100
AcDbEntity
  8
0
  6
Continuous
 62
     7
370
    18
100
AcDbLine
 10
40.307272751
 20
202.6401276281
 30
0.0
 11
40.307272751
 21
201.0101276281
 31
0.0
  0
LINE
  5
237
330
1F
100
AcDbEntity
  8
0
  6
Continuous
 62
     7
370
    18
100
AcDbLine
 10
57.907272751
 20
201.0101276281
 30
0.0
 11
57.907272751
 21
202.6401276281
 31
0.0
  0
ARC
  5
238
330
1F
100
AcDbEntity
  8
0
  6
Continuous
 62
     7
370
    18
100
AcDbCircle
 10
49.107272751
 20
202.6401276281
 30
0.0
 40
8.79999999999999
100
AcDbArc
 50
0.0
 51
35.4271159764
  0
LINE
  5
239
330
1F
100
AcDbEntity
  8
0
  6
Continuous
 62
     7
370
    18
100
AcDbLine
 10
56.2779840092
 20
207.7411961486
 30
0.0
 11
56.2779840092
 21
209.6101276318
 31
0.0
  0
ARC
  5
23A
330
1F
100
AcDbEntity
  8
0
  6
Continuous
 62
     7
370
    18
100
AcDbCircle
 10
49.107272751
 20
202.6401276281
 30
0.0
 40
10.0
100
AcDbArc
 50
0.0
 51
44.1868064211
  0
LINE
  5
23B
330
1F
100
AcDbEntity
  8
0
  6
Continuous
 62
     7
370
    18
100
AcDbLine
 10
59.107272751
 20
198.6101276281
 30
0.0
 11
59.107272751
 21
202.6401276281
 31
0.0
  0
LINE
  5
23C
330
1F
100
AcDbEntity
  8
0
  6
Continuous
 62
     7
370
    18
100
AcDbLine
 10
39.107272751
 20
202.6401276281
 30
0.0
 11
39.107272751
 21
198.6101276281
 31
0.0
  0
ARC
  5
23D
330
1F
100
AcDbEntity
  8
0
  6
Continuous
 62
     7
370
    18
100
AcDbCircle
 10
49.107272751
 20
202.6401276281
 30
0.0
 40
10.00000000000001
100
AcDbArc
 50
135.8131935789
 51
180.0
  0
LINE
  5
23E
330
1F
100
AcDbEntity
  8
0
  6
Continuous
 62
     7
370
    18
100
AcDbLine
 10
41.9365614928
 20
209.6101276318
 30
0.0
 11
43.366255188
 21
209.6101276284
 31
0.0
  0
LINE
  5
23F
330
1F
100
AcDbEntity
  8
0
  6
Continuous
 62
     7
370
    18
100
AcDbLine
 10
54.8482903137
 20
209.6101276314
 30
0.0
 11
56.2779840092
 21
209.6101276318
 31
0.0
  0
SPLINE
  5
240
330
1F
100
AcDbEntity
  8
0
  6
Continuous
 62
     7
370
    18
100
AcDbSpline
210
0.0
220
0.0
230
1.0
 70
     8
 71
     3
 72
    28
 73
    24
 74
     0
 42
0.00000001
 43
0.00000001
 40
0.0
 40
0.0
 40
0.0
 40
0.0
 40
0.0201456005670741
 40
0.0401354407850529
 40
0.0600488055410589
 40
0.0799658930315616
 40
0.0999668566717496
 40
0.1201308496592779
 40
0.1850779540058563
 40
0.2500933558535388
 40
0.3150404909386283
 40
0.3800559235563812
 40
0.4400086149456007
 40
0.5000289243169648
 40
0.5599816346080847
 40
0.6200019580901375
 40
0.6849490624367403
 40
0.7499644642843947
 40
0.8149115993693878
 40
0.8799270319872354
 40
0.9200435693953852
 40
0.9598539322787297
 40
1.0
 40
1.0
 40
1.0
 40
1.0
 10
48.46088441773578
 20
184.195136505395
 30
0.0
 10
48.41023265897208
 20
184.2096557837783
 30
0.0
 10
48.30932076717957
 20
184.2385820814013
 30
0.0
 10
48.16213074681113
 20
184.2936815193027
 30
0.0
 10
48.01906306888308
 20
184.3571048661663
 30
0.0
 10
47.88035207937386
 20
184.429683084526
 30
0.0
 10
47.74593267729162
 20
184.5112098798561
 30
0.0
 10
47.52022102998685
 20
184.6681722732569
 30
0.0
 10
47.22730220155256
 20
184.9341819670691
 30
0.0
 10
46.92802354371864
 20
185.3509113692606
 30
0.0
 10
46.71635431776091
 20
185.8186180090692
 30
0.0
 10
46.60990406956775
 20
186.307259439845
 30
0.0
 10
46.59833476654637
 20
186.7936204605888
 30
0.0
 10
46.67827079449482
 20
187.260083556086
 30
0.0
 10
46.84204297133534
 20
187.704285975576
 30
0.0
 10
47.09488462003246
 20
188.1197221951939
 30
0.0
 10
47.43127002753386
 20
188.4900095965429
 30
0.0
 10
47.84808933335393
 20
188.7894120781714
 30
0.0
 10
48.31568884467395
 20
189.0009936392821
 30
0.0
 10
48.75358858792959
 20
189.0965235082284
 30
0.0
 10
49.13266772556557
 20
189.1165842194686
 30
0.0
 10
49.44723809544054
 20
189.0956798382242
 30
0.0
 10
49.65123458825791
 20
189.0487048562615
 30
0.0
 10
49.75366108420852
 20
189.0251187507685
 30
0.0
  0
SPLINE
  5
241
330
1F
100
AcDbEntity
  8
0
  6
Continuous
 62
     7
370
    18
100
AcDbSpline
210
0.0
220
0.0
230
1.0
 70
     8
 71
     3
 72
    28
 73
    24
 74
     0
 42
0.00000001
 43
0.00000001
 40
0.0
 40
0.0
 40
0.0
 40
0.0
 40
0.0201456005670596
 40
0.0401354407850298
 40
0.0600488055410329
 40
0.0799658930315385
 40
0.0999668566717347
 40
0.1201308496592767
 40
0.1850779540058025
 40
0.2500933558535373
 40
0.3150404909385633
 40
0.3800559235563795
 40
0.4400086149454889
 40
0.5000289243169614
 40
0.5599816346078884
 40
0.6200019580901323
 40
0.684949062436647
 40
0.7499644642843959
 40
0.8149115993694136
 40
0.8799270319872354
 40
0.9200435693953825
 40
0.959853932278727
 40
1.0
 40
1.0
 40
1.0
 40
1.0
 10
49.75366108420852
 20
189.0251187507685
 30
0.0
 10
49.80431284297219
 20
189.0105994723851
 30
0.0
 10
49.90522473476464
 20
188.9816731747621
 30
0.0
 10
50.05241475513301
 20
188.9265737368608
 30
0.0
 10
50.19548243306104
 20
188.8631503899972
 30
0.0
 10
50.33419342257029
 20
188.7905721716375
 30
0.0
 10
50.4686128246526
 20
188.7090453763074
 30
0.0
 10
50.69432447195734
 20
188.5520829829067
 30
0.0
 10
50.98724330039165
 20
188.2860732890945
 30
0.0
 10
51.28652195822553
 20
187.8693438869032
 30
0.0
 10
51.49819118418331
 20
187.4016372470944
 30
0.0
 10
51.60464143237653
 20
186.9129958163189
 30
0.0
 10
51.61621073539786
 20
186.426634795575
 30
0.0
 10
51.53627470744971
 20
185.9601717000782
 30
0.0
 10
51.3725025306091
 20
185.515969280588
 30
0.0
 10
51.11966088191226
 20
185.1005330609701
 30
0.0
 10
50.7832754744109
 20
184.7302456596204
 30
0.0
 10
50.3664561685905
 20
184.4308431779922
 30
0.0
 10
49.89885665727028
 20
184.2192616168814
 30
0.0
 10
49.46095691401466
 20
184.1237317479351
 30
0.0
 10
49.08187777637875
 20
184.1036710366948
 30
0.0
 10
48.76730740650378
 20
184.1245754179393
 30
0.0
 10
48.56331091368639
 20
184.171550399902
 30
0.0
 10
48.46088441773578
 20
184.195136505395
 30
0.0
  0
SPLINE
  5
242
330
1F
100
AcDbEntity
  8
0
  6
Continuous
 62
     7
370
    18
100
AcDbSpline
210
0.0
220
0.0
230
1.0
 70
     8
 71
     3
 72
    10
 73
     6
 74
     0
 42
0.00000001
 43
0.00000001
 40
0.0
 40
0.0
 40
0.0
 40
0.0
 40
0.5
 40
0.5
 40
1.0
 40
1.0
 40
1.0
 40
1.0
 10
48.21525685110597
 20
183.277439878774
 30
0.0
 10
50.05461724333574
 20
182.7851229145478
 30
0.0
 10
51.94764353605369
 20
183.8787513359858
 30
0.0
 10
52.93227746450611
 20
187.5574721204453
 30
0.0
 10
51.83864904306812
 20
189.4504984131632
 30
0.0
 10
49.99928865083834
 20
189.9428153773895
 30
0.0
  0
SPLINE
  5
243
330
1F
100
AcDbEntity
  8
0
  6
Continuous
 62
     7
370
    18
100
AcDbSpline
210
0.0
220
0.0
230
1.0
 70
     8
 71
     3
 72
    10
 73
     6
 74
     0
 42
0.00000001
 43
0.00000001
 40
0.0
 40
0.0
 40
0.0
 40
0.0
 40
0.5
 40
0.5
 40
1.0
 40
1.0
 40
1.0
 40
1.0
 10
49.99928865083834
 20
189.9428153773895
 30
0.0
 10
48.15992825860856
 20
190.4351323416157
 30
0.0
 10
46.26690196589063
 20
189.3415039201777
 30
0.0
 10
45.2822680374382
 20
185.6627831357181
 30
0.0
 10
46.37589645887618
 20
183.7697568430002
 30
0.0
 10
48.21525685110597
 20
183.277439878774
 30
0.0
  0
LINE
  5
244
330
1F
100
AcDbEntity
  8
0
  6
Continuous
 62
     7
370
    18
100
AcDbLine
 10
48.2152568511
 20
183.2774398788
 30
0.0
 11
48.0859791845
 21
182.7944416542
 31
0.0
  0
ARC
  5
245
330
1F
100
AcDbEntity
  8
0
  6
Continuous
 62
     7
370
    18
100
AcDbCircle
 10
49.107272751
 20
186.6101276281
 30
0.0
 40
3.949999999999997
100
AcDbArc
 50
75.0156420097
 51
255.0156420097
  0
LINE
  5
246
330
1F
100
AcDbEntity
  8
0
  6
Continuous
 62
     7
370
    18
100
AcDbLine
 10
50.1285663175
 20
190.4258136019
 30
0.0
 11
49.9992886508
 21
189.9428153774
 31
0.0
  0
ARC
  5
247
330
1F
100
AcDbEntity
  8
0
  6
Continuous
 62
     7
370
    18
100
AcDbCircle
 10
49.107272751
 20
186.6101276281
 30
0.0
 40
3.949999999999997
100
AcDbArc
 50
255.0156420097
 51
75.0156420097
  0
LINE
  5
248
330
1F
100
AcDbEntity
  8
0
  6
Continuous
 62
     7
370
    18
100
AcDbLine
 10
48.4608844177
 20
184.1951365054
 30
0.0
 11
48.5901620844
 21
184.6781347299
 31
0.0
  0
LINE
  5
249
330
1F
100
AcDbEntity
  8
0
  6
Continuous
 62
     7
370
    18
100
AcDbLine
 10
49.6243834176
 20
188.5421205262
 30
0.0
 11
49.7536610842
 21
189.0251187508
 31
0.0
  0
ARC
  5
24A
330
1F
100
AcDbEntity
  8
0
  6
Continuous
 62
     7
370
    18
100
AcDbCircle
 10
49.107272751
 20
186.6101276281
 30
0.0
 40
2.000000000000001
100
AcDbArc
 50
75.0156420097
 51
255.0156420097
  0
ARC
  5
24B
330
1F
100
AcDbEntity
  8
0
  6
Continuous
 62
     7
370
    18
100
AcDbCircle
 10
49.107272751
 20
186.6101276281
 30
0.0
 40
2.000000000000001
100
AcDbArc
 50
255.0156420097
 51
75.0156420097
  0
ARC
  5
24C
330
1F
100
AcDbEntity
  8
0
  6
Continuous
 62
     7
370
    18
100
AcDbCircle
 10
49.107272751
 20
186.6101276281
 30
0.0
 40
4.000000000000003
100
AcDbArc
 50
255.0156420097
 51
75.0156420097
  0
ARC
  5
24D
330
1F
100
AcDbEntity
  8
0
  6
Continuous
 62
     7
370
    18
100
AcDbCircle
 10
49.107272751
 20
186.6101276281
 30
0.0
 40
4.000000000000003
100
AcDbArc
 50
75.0156420097
 51
255.0156420097
  0
LINE
  5
24E
330
1F
100
AcDbEntity
  8
0
  6
Continuous
 62
     7
370
    18
100
AcDbLine
 10
50.3316832158
 20
187.8352068148
 30
0.0
 11
50.7804276807
 21
186.1622966542
 31
0.0
  0
LINE
  5
24F
330
1F
100
AcDbEntity
  8
0
  6
Continuous
 62
     7
370
    18
100
AcDbLine
 10
48.658528286
 20
188.2830377886
 30
0.0
 11
50.3316832158
 21
187.8352068148
 31
0.0
  0
LINE
  5
250
330
1F
100
AcDbEntity
  8
0
  6
Continuous
 62
     7
370
    18
100
AcDbLine
 10
47.4341178212
 20
187.0579586019
 30
0.0
 11
48.658528286
 21
188.2830377886
 31
0.0
  0
LINE
  5
251
330
1F
100
AcDbEntity
  8
0
  6
Continuous
 62
     7
370
    18
100
AcDbLine
 10
47.8828622862
 20
185.3850484414
 30
0.0
 11
47.4341178212
 21
187.0579586019
 31
0.0
  0
LINE
  5
252
330
1F
100
AcDbEntity
  8
0
  6
Continuous
 62
     7
370
    18
100
AcDbLine
 10
49.5560172159
 20
184.9372174676
 30
0.0
 11
47.8828622862
 21
185.3850484414
 31
0.0
  0
LINE
  5
253
330
1F
100
AcDbEntity
  8
0
  6
Continuous
 62
     7
370
    18
100
AcDbLine
 10
50.7804276807
 20
186.1622966542
 30
0.0
 11
49.5560172159
 21
184.9372174676
 31
0.0
  0
ARC
  5
254
330
1F
100
AcDbEntity
  8
0
  6
Continuous
 62
     7
370
    18
100
AcDbCircle
 10
49.107272751
 20
186.6101276281
 30
0.0
 40
0.7499999999999952
100
AcDbArc
 50
75.0156420097
 51
255.0156420097
  0
ARC
  5
255
330
1F
100
AcDbEntity
  8
0
  6
Continuous
 62
     7
370
    18
100
AcDbCircle
 10
49.107272751
 20
186.6101276281
 30
0.0
 40
0.7499999999999952
100
AcDbArc
 50
255.0156420097
 51
75.0156420097
  0
SPLINE
  5
256
330
1F
100
AcDbEntity
  8
0
  6
Continuous
 62
     7
370
    18
100
AcDbSpline
210
0.0
220
0.0
230
1.0
 70
     8
 71
     3
 72
    28
 73
    24
 74
     0
 42
0.00000001
 43
0.00000001
 40
0.0
 40
0.0
 40
0.0
 40
0.0
 40
0.0201456005670517
 40
0.0401354407850173
 40
0.0600488055410187
 40
0.079965893031526
 40
0.0999668566717268
 40
0.1201308496592762
 40
0.1850779540057165
 40
0.2500933558535346
 40
0.3150404909385626
 40
0.3800559235563826
 40
0.4400086149456101
 40
0.5000289243169642
 40
0.5599816346081545
 40
0.6200019580901414
 40
0.6849490624368468
 40
0.7499644642843952
 40
0.8149115993694772
 40
0.8799270319872389
 40
0.9200435693954534
 40
0.9598539322787979
 40
1.0
 40
1.0
 40
1.0
 40
1.0
 10
46.67742459661378
 20
198.1982075093574
 30
0.0
 10
46.69072064128298
 20
198.2491940301916
 30
0.0
 10
46.71720992919077
 20
198.3507728578351
 30
0.0
 10
46.76875100763547
 20
198.4992463146745
 30
0.0
 10
46.828712795827
 20
198.6437989533636
 30
0.0
 10
46.89793165558127
 20
198.7842164944516
 30
0.0
 10
46.9761997853498
 20
198.920559055215
 30
0.0
 10
47.12768454670257
 20
199.1499829156761
 30
0.0
 10
47.38656755799884
 20
199.4492189157089
 30
0.0
 10
47.79597356087454
 20
199.758440251478
 30
0.0
 10
48.25845051884621
 20
199.9813043927935
 30
0.0
 10
48.74438849329528
 20
200.0994838673202
 30
0.0
 10
49.23033020360347
 20
200.1227549965205
 30
0.0
 10
49.69858199704701
 20
200.0540684187771
 30
0.0
 10
50.14659723418603
 20
199.901034230835
 30
0.0
 10
50.56799822506458
 20
199.6582640580929
 30
0.0
 10
50.94627410998584
 20
199.3308877350876
 30
0.0
 10
51.25562139738137
 20
198.921394834672
 30
0.0
 10
51.4783953209961
 20
198.459022864343
 30
0.0
 10
51.58443638682031
 20
198.0235490610399
 30
0.0
 10
51.61361452784152
 20
197.6450625212359
 30
0.0
 10
51.60028691909012
 20
197.3300801636293
 30
0.0
 10
51.55823509613774
 20
197.1250122183075
 30
0.0
 10
51.53712090533054
 20
197.0220477468061
 30
0.0
  0
SPLINE
  5
257
330
1F
100
AcDbEntity
  8
0
  6
Continuous
 62
     7
370
    18
100
AcDbSpline
210
0.0
220
0.0
230
1.0
 70
     8
 71
     3
 72
    28
 73
    24
 74
     0
 42
0.00000001
 43
0.00000001
 40
0.0
 40
0.0
 40
0.0
 40
0.0
 40
0.0201456005670415
 40
0.0401354407850009
 40
0.0600488055410005
 40
0.0799658930315095
 40
0.0999668566717163
 40
0.1201308496592752
 40
0.1850779540058458
 40
0.2500933558535405
 40
0.315040490938653
 40
0.3800559235563801
 40
0.4400086149454188
 40
0.5000289243169586
 40
0.559981634607844
 40
0.6200019580901338
 40
0.6849490624368375
 40
0.7499644642844024
 40
0.8149115993695865
 40
0.8799270319872363
 40
0.9200435693954019
 40
0.9598539322787464
 40
1.0
 40
1.0
 40
1.0
 40
1.0
 10
51.53712090533054
 20
197.0220477468061
 30
0.0
 10
51.52382486066134
 20
196.9710612259719
 30
0.0
 10
51.49733557275356
 20
196.8694823983284
 30
0.0
 10
51.44579449430886
 20
196.7210089414891
 30
0.0
 10
51.38583270611733
 20
196.5764563028
 30
0.0
 10
51.31661384636307
 20
196.4360387617119
 30
0.0
 10
51.23834571659452
 20
196.2996962009485
 30
0.0
 10
51.08686095524157
 20
196.0702723404871
 30
0.0
 10
50.82797794394552
 20
195.7710363404541
 30
0.0
 10
50.41857194106928
 20
195.4618150046851
 30
0.0
 10
49.95609498309771
 20
195.2389508633704
 30
0.0
 10
49.47015700864931
 20
195.1207713888432
 30
0.0
 10
48.98421529834135
 20
195.0975002596432
 30
0.0
 10
48.51596350489855
 20
195.166186837386
 30
0.0
 10
48.06794826775904
 20
195.3192210253282
 30
0.0
 10
47.64654727688047
 20
195.5619911980701
 30
0.0
 10
47.26827139195783
 20
195.8893675210752
 30
0.0
 10
46.95892410456285
 20
196.2988604214918
 30
0.0
 10
46.73615018094863
 20
196.7612323918209
 30
0.0
 10
46.63010911512399
 20
197.1967061951237
 30
0.0
 10
46.60093097410267
 20
197.5751927349272
 30
0.0
 10
46.61425858285411
 20
197.8901750925339
 30
0.0
 10
46.65631040580654
 20
198.0952430378558
 30
0.0
 10
46.67742459661378
 20
198.1982075093574
 30
0.0
  0
SPLINE
  5
258
330
1F
100
AcDbEntity
  8
0
  6
Continuous
 62
     7
370
    18
100
AcDbSpline
210
0.0
220
0.0
230
1.0
 70
     8
 71
     3
 72
    14
 73
    10
 74
     0
 42
0.00000001
 43
0.00000001
 40
0.0
 40
0.0
 40
0.0
 40
0.0
 40
0.25
 40
0.25
 40
0.5
 40
0.5
 40
0.75
 40
0.75
 40
1.0
 40
1.0
 40
1.0
 40
1.0
 10
45.75408229795759
 20
198.4216778642421
 30
0.0
 10
45.53885188436053
 20
197.5323816310396
 30
0.0
 10
45.68571985576394
 20
196.5939348773609
 30
0.0
 10
46.6389928797821
 20
195.0318983134545
 30
0.0
 10
47.40642628160929
 20
194.4721675886642
 30
0.0
 10
49.18501874801428
 20
194.0417067614701
 30
0.0
 10
50.12346550169301
 20
194.1885747328735
 30
0.0
 10
51.6855020655994
 20
195.1418477568917
 30
0.0
 10
52.24523279038967
 20
195.9092811587189
 30
0.0
 10
52.46046320398672
 20
196.7985773919214
 30
0.0
  0
SPLINE
  5
259
330
1F
100
AcDbEntity
  8
0
  6
Continuous
 62
     7
370
    18
100
AcDbSpline
210
0.0
220
0.0
230
1.0
 70
     8
 71
     3
 72
    10
 73
     6
 74
     0
 42
0.00000001
 43
0.00000001
 40
0.0
 40
0.0
 40
0.0
 40
0.0
 40
0.4999999999999999
 40
0.4999999999999999
 40
1.0
 40
1.0
 40
1.0
 40
1.0
 10
52.46046320398673
 20
196.7985773919214
 30
0.0
 10
52.90836996063027
 20
198.649253534071
 30
0.0
 10
51.76949912928211
 20
200.5154113244527
 30
0.0
 10
48.06814684498294
 20
201.4112248377398
 30
0.0
 10
46.20198905460113
 20
200.2723540063917
 30
0.0
 10
45.75408229795758
 20
198.4216778642421
 30
0.0
  0
LINE
  5
25A
330
1F
100
AcDbEntity
  8
0
  6
Continuous
 62
     7
370
    18
100
AcDbLine
 10
45.754082298
 20
198.4216778642
 30
0.0
 11
45.2681126671
 21
198.5392938405
 31
0.0
  0
ARC
  5
25B
330
1F
100
AcDbEntity
  8
0
  6
Continuous
 62
     7
370
    18
100
AcDbCircle
 10
49.107272751
 20
197.6101276281
 30
0.0
 40
3.95
100
AcDbArc
 50
346.3947040298
 51
166.3947040298
  0
LINE
  5
25C
330
1F
100
AcDbEntity
  8
0
  6
Continuous
 62
     7
370
    18
100
AcDbLine
 10
52.9464328349
 20
196.6809614157
 30
0.0
 11
52.460463204
 21
196.7985773919
 31
0.0
  0
ARC
  5
25D
330
1F
100
AcDbEntity
  8
0
  6
Continuous
 62
     7
370
    18
100
AcDbCircle
 10
49.107272751
 20
197.6101276281
 30
0.0
 40
3.95
100
AcDbArc
 50
166.3947040298
 51
346.3947040298
  0
LINE
  5
25E
330
1F
100
AcDbEntity
  8
0
  6
Continuous
 62
     7
370
    18
100
AcDbLine
 10
46.6774245966
 20
198.1982075094
 30
0.0
 11
47.1633942275
 21
198.0805915331
 31
0.0
  0
LINE
  5
25F
330
1F
100
AcDbEntity
  8
0
  6
Continuous
 62
     7
370
    18
100
AcDbLine
 10
51.0511512745
 20
197.1396637231
 30
0.0
 11
51.5371209053
 21
197.0220477468
 31
0.0
  0
ARC
  5
260
330
1F
100
AcDbEntity
  8
0
  6
Continuous
 62
     7
370
    18
100
AcDbCircle
 10
49.107272751
 20
197.6101276281
 30
0.0
 40
2.000000000000008
100
AcDbArc
 50
346.3947040298
 51
166.3947040298
  0
ARC
  5
261
330
1F
100
AcDbEntity
  8
0
  6
Continuous
 62
     7
370
    18
100
AcDbCircle
 10
49.107272751
 20
197.6101276281
 30
0.0
 40
2.000000000000008
100
AcDbArc
 50
166.3947040298
 51
346.3947040298
  0
LINE
  5
262
330
1F
100
AcDbEntity
  8
0
  6
Continuous
 62
     7
370
    18
100
AcDbLine
 10
59.107272751
 20
184.8780768099
 30
0.0
 11
59.107272751
 21
168.6101276281
 31
0.0
  0
LINE
  5
263
330
1F
100
AcDbEntity
  8
0
  6
Continuous
 62
     7
370
    18
100
AcDbLine
 10
39.107272751
 20
168.6101276281
 30
0.0
 11
59.107272751
 21
168.6101276281
 31
0.0
  0
LINE
  5
264
330
1F
100
AcDbEntity
  8
0
  6
Continuous
 62
     7
370
    18
100
AcDbLine
 10
39.107272751
 20
185.6101276281
 30
0.0
 11
39.107272751
 21
168.6101276281
 31
0.0
  0
ARC
  5
265
330
1F
100
AcDbEntity
  8
0
  6
Continuous
 62
     7
370
    18
100
AcDbCircle
 10
46.107272751
 20
185.6101276281
 30
0.0
 40
7.000000000000028
100
AcDbArc
 50
90.0
 51
180.0
  0
LINE
  5
266
330
1F
100
AcDbEntity
  8
0
  6
Continuous
 62
     7
370
    18
100
AcDbLine
 10
46.107272751
 20
192.6101276281
 30
0.0
 11
52.107272751
 21
192.6101276281
 31
0.0
  0
ARC
  5
267
330
1F
100
AcDbEntity
  8
0
  6
Continuous
 62
     7
370
    18
100
AcDbCircle
 10
52.107272751
 20
185.6101276281
 30
0.0
 40
7.000000000000028
100
AcDbArc
 50
27.4504305429
 51
90.0
  0
ARC
  5
268
330
1F
100
AcDbEntity
  8
0
  6
Continuous
 62
     7
370
    18
100
AcDbCircle
 10
49.107272751
 20
197.6101276281
 30
0.0
 40
4.000000000000008
100
AcDbArc
 50
166.3947040298
 51
346.3947040298
  0
ARC
  5
269
330
1F
100
AcDbEntity
  8
0
  6
Continuous
 62
     7
370
    18
100
AcDbCircle
 10
49.107272751
 20
197.6101276281
 30
0.0
 40
4.000000000000008
100
AcDbArc
 50
346.3947040298
 51
166.3947040298
  0
LINE
  5
26A
330
1F
100
AcDbEntity
  8
0
  6
Continuous
 62
     7
370
    18
100
AcDbLine
 10
50.3614647969
 20
196.4155556077
 30
0.0
 11
48.6998390577
 21
195.9266794449
 31
0.0
  0
LINE
  5
26B
330
1F
100
AcDbEntity
  8
0
  6
Continuous
 62
     7
370
    18
100
AcDbLine
 10
50.7688984902
 20
198.0990037909
 30
0.0
 11
50.3614647969
 21
196.4155556077
 31
0.0
  0
LINE
  5
26C
330
1F
100
AcDbEntity
  8
0
  6
Continuous
 62
     7
370
    18
100
AcDbLine
 10
49.5147064443
 20
199.2935758113
 30
0.0
 11
50.7688984902
 21
198.0990037909
 31
0.0
  0
LINE
  5
26D
330
1F
100
AcDbEntity
  8
0
  6
Continuous
 62
     7
370
    18
100
AcDbLine
 10
47.853080705
 20
198.8046996485
 30
0.0
 11
49.5147064443
 21
199.2935758113
 31
0.0
  0
LINE
  5
26E
330
1F
100
AcDbEntity
  8
0
  6
Continuous
 62
     7
370
    18
100
AcDbLine
 10
48.6998390577
 20
195.9266794449
 30
0.0
 11
47.4456470117
 21
197.1212514652
 31
0.0
  0
LINE
  5
26F
330
1F
100
AcDbEntity
  8
0
  6
Continuous
 62
     7
370
    18
100
AcDbLine
 10
47.4456470117
 20
197.1212514652
 30
0.0
 11
47.853080705
 21
198.8046996485
 31
0.0
  0
ARC
  5
270
330
1F
100
AcDbEntity
  8
0
  6
Continuous
 62
     7
370
    18
100
AcDbCircle
 10
49.107272751
 20
197.6101276281
 30
0.0
 40
0.7500000000000012
100
AcDbArc
 50
166.3947040298
 51
346.3947040298
  0
ARC
  5
271
330
1F
100
AcDbEntity
  8
0
  6
Continuous
 62
     7
370
    18
100
AcDbCircle
 10
49.107272751
 20
197.6101276281
 30
0.0
 40
0.7500000000000012
100
AcDbArc
 50
346.3947040298
 51
166.3947040298
  0
ARC
  5
272
330
1F
100
AcDbEntity
  8
0
  6
Continuous
 62
     7
370
    18
100
AcDbCircle
 10
42.107272751
 20
198.6101276281
 30
0.0
 40
3.000000000000007
100
AcDbArc
 50
270.0
 51
0.0
  0
LINE
  5
273
330
1F
100
AcDbEntity
  8
0
  6
Continuous
 62
     7
370
    18
100
AcDbLine
 10
45.107272751
 20
200.6101276281
 30
0.0
 11
45.107272751
 21
198.6101276281
 31
0.0
  0
ARC
  5
274
330
1F
100
AcDbEntity
  8
0
  6
Continuous
 62
     7
370
    18
100
AcDbCircle
 10
46.107272751
 20
200.6101276281
 30
0.0
 40
1.0
100
AcDbArc
 50
90.0
 51
180.0
  0
LINE
  5
275
330
1F
100
AcDbEntity
  8
0
  6
Continuous
 62
     7
370
    18
100
AcDbLine
 10
52.107272751
 20
201.6101276281
 30
0.0
 11
46.107272751
 21
201.6101276281
 31
0.0
  0
ARC
  5
276
330
1F
100
AcDbEntity
  8
0
  6
Continuous
 62
     7
370
    18
100
AcDbCircle
 10
52.107272751
 20
200.6101276281
 30
0.0
 40
1.0
100
AcDbArc
 50
0.0
 51
90.0
  0
LINE
  5
277
330
1F
100
AcDbEntity
  8
0
  6
Continuous
 62
     7
370
    18
100
AcDbLine
 10
53.107272751
 20
198.6101276281
 30
0.0
 11
53.107272751
 21
200.6101276281
 31
0.0
  0
ARC
  5
278
330
1F
100
AcDbEntity
  8
0
  6
Continuous
 62
     7
370
    18
100
AcDbCircle
 10
56.107272751
 20
198.6101276281
 30
0.0
 40
3.0
100
AcDbArc
 50
180.0
 51
270.0
  0
LINE
  5
279
330
1F
100
AcDbEntity
  8
0
  6
Continuous
 62
     7
370
    18
100
AcDbLine
 10
58.107272751
 20
195.6101276281
 30
0.0
 11
56.107272751
 21
195.6101276281
 31
0.0
  0
ARC
  5
27A
330
1F
100
AcDbEntity
  8
0
  6
Continuous
 62
     7
370
    18
100
AcDbCircle
 10
58.107272751
 20
194.6101276281
 30
0.0
 40
1.0
100
AcDbArc
 50
0.0
 51
90.0
  0
LINE
  5
27B
330
1F
100
AcDbEntity
  8
0
  6
Continuous
 62
     7
370
    18
100
AcDbLine
 10
59.107272751
 20
188.3421784357
 30
0.0
 11
59.107272751
 21
194.6101276281
 31
0.0
  0
ARC
  5
27C
330
1F
100
AcDbEntity
  8
0
  6
Continuous
 62
     7
370
    18
100
AcDbCircle
 10
40.107272751
 20
194.6101276281
 30
0.0
 40
1.0
100
AcDbArc
 50
90.0
 51
180.0
  0
LINE
  5
27D
330
1F
100
AcDbEntity
  8
0
  6
Continuous
 62
     7
370
    18
100
AcDbLine
 10
42.107272751
 20
195.6101276281
 30
0.0
 11
40.107272751
 21
195.6101276281
 31
0.0
  0
LINE
  5
27E
330
1F
100
AcDbEntity
  8
0
  6
Continuous
 62
     7
370
    18
100
AcDbLine
 10
39.107272751
 20
194.6101276281
 30
0.0
 11
39.107272751
 21
185.6101276281
 31
0.0
  0
LINE
  5
27F
330
1F
100
AcDbEntity
  8
0
  6
Continuous
 62
     7
370
    18
100
AcDbLine
 10
57.0946365543
 20
199.2575232207
 30
0.0
 11
57.1616156821
 21
198.078743288
 31
0.0
  0
LINE
  5
280
330
1F
100
AcDbEntity
  8
0
  6
Continuous
 62
     7
370
    18
100
AcDbLine
 10
56.0402936231
 20
199.7889075608
 30
0.0
 11
57.0946365543
 21
199.2575232207
 31
0.0
  0
LINE
  5
281
330
1F
100
AcDbEntity
  8
0
  6
Continuous
 62
     7
370
    18
100
AcDbLine
 10
55.0529298199
 20
199.1415119682
 30
0.0
 11
56.0402936231
 21
199.7889075608
 31
0.0
  0
LINE
  5
282
330
1F
100
AcDbEntity
  8
0
  6
Continuous
 62
     7
370
    18
100
AcDbLine
 10
55.1199089477
 20
197.9627320355
 30
0.0
 11
55.0529298199
 21
199.1415119682
 31
0.0
  0
LINE
  5
283
330
1F
100
AcDbEntity
  8
0
  6
Continuous
 62
     7
370
    18
100
AcDbLine
 10
56.1742518788
 20
197.4313476954
 30
0.0
 11
55.1199089477
 21
197.9627320355
 31
0.0
  0
LINE
  5
284
330
1F
100
AcDbEntity
  8
0
  6
Continuous
 62
     7
370
    18
100
AcDbLine
 10
57.1616156821
 20
198.078743288
 30
0.0
 11
56.1742518788
 21
197.4313476954
 31
0.0
  0
SPLINE
  5
285
330
1F
100
AcDbEntity
  8
0
  6
Continuous
 62
     7
370
    18
100
AcDbSpline
210
0.0
220
0.0
230
1.0
 70
     8
 71
     3
 72
    10
 73
     6
 74
     0
 42
0.00000001
 43
0.00000001
 40
0.0
 40
0.0
 40
0.0
 40
0.0
 40
0.5
 40
0.5
 40
1.0
 40
1.0
 40
1.0
 40
1.0
 10
57.27246070954051
 20
196.8330620633916
 30
0.0
 10
58.25324986831045
 20
197.4761467871072
 30
0.0
 10
58.52742303937779
 20
198.7945264278802
 30
0.0
 10
57.24125359194674
 20
200.75610474542
 30
0.0
 10
55.92287395117376
 20
201.0302779164874
 30
0.0
 10
54.94208479240383
 20
200.3871931927718
 30
0.0
  0
SPLINE
  5
286
330
1F
100
AcDbEntity
  8
0
  6
Continuous
 62
     7
370
    18
100
AcDbSpline
210
0.0
220
0.0
230
1.0
 70
     8
 71
     3
 72
    10
 73
     6
 74
     0
 42
0.00000001
 43
0.00000001
 40
0.0
 40
0.0
 40
0.0
 40
0.0
 40
0.5
 40
0.5
 40
1.0
 40
1.0
 40
1.0
 40
1.0
 10
54.94208479240383
 20
200.3871931927718
 30
0.0
 10
53.9612956336339
 20
199.7441084690563
 30
0.0
 10
53.68712246256654
 20
198.4257288282833
 30
0.0
 10
54.97329190999759
 20
196.4641505107435
 30
0.0
 10
56.29167155077057
 20
196.1899773396761
 30
0.0
 10
57.27246070954051
 20
196.8330620633916
 30
0.0
  0
LINE
  5
287
330
1F
100
AcDbEntity
  8
0
  6
Continuous
 62
     7
370
    18
100
AcDbLine
 10
43.0946365543
 20
199.2575232207
 30
0.0
 11
43.1616156821
 21
198.078743288
 31
0.0
  0
LINE
  5
288
330
1F
100
AcDbEntity
  8
0
  6
Continuous
 62
     7
370
    18
100
AcDbLine
 10
42.0402936231
 20
199.7889075608
 30
0.0
 11
43.0946365543
 21
199.2575232207
 31
0.0
  0
LINE
  5
289
330
1F
100
AcDbEntity
  8
0
  6
Continuous
 62
     7
370
    18
100
AcDbLine
 10
41.0529298199
 20
199.1415119682
 30
0.0
 11
42.0402936231
 21
199.7889075608
 31
0.0
  0
LINE
  5
28A
330
1F
100
AcDbEntity
  8
0
  6
Continuous
 62
     7
370
    18
100
AcDbLine
 10
41.1199089477
 20
197.9627320355
 30
0.0
 11
41.0529298199
 21
199.1415119682
 31
0.0
  0
LINE
  5
28B
330
1F
100
AcDbEntity
  8
0
  6
Continuous
 62
     7
370
    18
100
AcDbLine
 10
42.1742518788
 20
197.4313476954
 30
0.0
 11
41.1199089477
 21
197.9627320355
 31
0.0
  0
LINE
  5
28C
330
1F
100
AcDbEntity
  8
0
  6
Continuous
 62
     7
370
    18
100
AcDbLine
 10
43.1616156821
 20
198.078743288
 30
0.0
 11
42.1742518788
 21
197.4313476954
 31
0.0
  0
SPLINE
  5
28D
330
1F
100
AcDbEntity
  8
0
  6
Continuous
 62
     7
370
    18
100
AcDbSpline
210
0.0
220
0.0
230
1.0
 70
     8
 71
     3
 72
    10
 73
     6
 74
     0
 42
0.00000001
 43
0.00000001
 40
0.0
 40
0.0
 40
0.0
 40
0.0
 40
0.5
 40
0.5
 40
1.0
 40
1.0
 40
1.0
 40
1.0
 10
43.2724607095405
 20
196.8330620633917
 30
0.0
 10
44.25324986831043
 20
197.4761467871072
 30
0.0
 10
44.52742303937777
 20
198.7945264278802
 30
0.0
 10
43.24125359194674
 20
200.75610474542
 30
0.0
 10
41.92287395117376
 20
201.0302779164874
 30
0.0
 10
40.94208479240382
 20
200.3871931927718
 30
0.0
  0
SPLINE
  5
28E
330
1F
100
AcDbEntity
  8
0
  6
Continuous
 62
     7
370
    18
100
AcDbSpline
210
0.0
220
0.0
230
1.0
 70
     8
 71
     3
 72
    14
 73
    10
 74
     0
 42
0.00000001
 43
0.00000001
 40
0.0
 40
0.0
 40
0.0
 40
0.0
 40
0.2499999999999998
 40
0.2499999999999998
 40
0.4999999999999998
 40
0.4999999999999998
 40
0.7499999999999998
 40
0.7499999999999998
 40
0.9999999999999999
 40
0.9999999999999999
 40
0.9999999999999999
 40
0.9999999999999999
 10
40.94208479240382
 20
200.3871931927718
 30
0.0
 10
40.47079103949097
 20
200.0781748781109
 30
0.0
 10
40.14153139551404
 20
199.5945543870498
 30
0.0
 10
39.91203926989817
 20
198.4910264782035
 30
0.0
 10
40.02118887162111
 20
197.9162334224262
 30
0.0
 10
40.639225500943
 20
196.9736459166006
 30
0.0
 10
41.12284599200414
 20
196.6443862726236
 30
0.0
 10
42.22637390085038
 20
196.4148941470077
 30
0.0
 10
42.80116695662764
 20
196.5240437487307
 30
0.0
 10
43.2724607095405
 20
196.8330620633917
 30
0.0
  0
LINE
  5
28F
330
1F
100
AcDbEntity
  8
0
  6
Continuous
 62
     7
370
    18
100
AcDbLine
 10
57.2724607095
 20
196.8330620634
 30
0.0
 11
57.3410011777
 21
196.7285287949
 31
0.0
  0
ARC
  5
290
330
1F
100
AcDbEntity
  8
0
  6
Continuous
 62
     7
370
    18
100
AcDbCircle
 10
56.107272751
 20
198.6101276281
 30
0.0
 40
2.250000000000001
100
AcDbArc
 50
123.2520907211
 51
303.2520907211
  0
LINE
  5
291
330
1F
100
AcDbEntity
  8
0
  6
Continuous
 62
     7
370
    18
100
AcDbLine
 10
54.8735443243
 20
200.4917264613
 30
0.0
 11
54.9420847924
 21
200.3871931928
 31
0.0
  0
ARC
  5
292
330
1F
100
AcDbEntity
  8
0
  6
Continuous
 62
     7
370
    18
100
AcDbCircle
 10
56.107272751
 20
198.6101276281
 30
0.0
 40
2.250000000000001
100
AcDbArc
 50
303.2520907211
 51
123.2520907211
  0
LINE
  5
293
330
1F
100
AcDbEntity
  8
0
  6
Continuous
 62
     7
370
    18
100
AcDbLine
 10
43.2724607095
 20
196.8330620634
 30
0.0
 11
43.3410011777
 21
196.7285287949
 31
0.0
  0
ARC
  5
294
330
1F
100
AcDbEntity
  8
0
  6
Continuous
 62
     7
370
    18
100
AcDbCircle
 10
42.107272751
 20
198.6101276281
 30
0.0
 40
2.250000000000025
100
AcDbArc
 50
123.2520907211
 51
303.2520907211
  0
LINE
  5
295
330
1F
100
AcDbEntity
  8
0
  6
Continuous
 62
     7
370
    18
100
AcDbLine
 10
40.8735443243
 20
200.4917264613
 30
0.0
 11
40.9420847924
 21
200.3871931928
 31
0.0
  0
ARC
  5
296
330
1F
100
AcDbEntity
  8
0
  6
Continuous
 62
     7
370
    18
100
AcDbCircle
 10
42.107272751
 20
198.6101276281
 30
0.0
 40
2.250000000000025
100
AcDbArc
 50
303.2520907211
 51
123.2520907211
  0
ARC
  5
297
330
1F
100
AcDbEntity
  8
0
  6
Continuous
 62
     7
370
    18
100
AcDbCircle
 10
42.107272751
 20
198.6101276281
 30
0.0
 40
1.022499999996654
100
AcDbArc
 50
123.2520907197
 51
183.2520907211
  0
ARC
  5
298
330
1F
100
AcDbEntity
  8
0
  6
Continuous
 62
     7
370
    18
100
AcDbCircle
 10
42.107272751
 20
198.6101276281
 30
0.0
 40
1.022499999996657
100
AcDbArc
 50
63.2520907211
 51
123.2520907197
  0
ARC
  5
299
330
1F
100
AcDbEntity
  8
0
  6
Continuous
 62
     7
370
    18
100
AcDbCircle
 10
42.107272751
 20
198.6101276281
 30
0.0
 40
1.022499999996682
100
AcDbArc
 50
243.2520907211
 51
303.2520907211
  0
ARC
  5
29A
330
1F
100
AcDbEntity
  8
0
  6
Continuous
 62
     7
370
    18
100
AcDbCircle
 10
42.107272751
 20
198.6101276281
 30
0.0
 40
1.022499999996668
100
AcDbArc
 50
3.2520907211
 51
63.2520907211
  0
ARC
  5
29B
330
1F
100
AcDbEntity
  8
0
  6
Continuous
 62
     7
370
    18
100
AcDbCircle
 10
42.107272751
 20
198.6101276281
 30
0.0
 40
1.022499999996676
100
AcDbArc
 50
183.2520907211
 51
243.2520907211
  0
ARC
  5
29C
330
1F
100
AcDbEntity
  8
0
  6
Continuous
 62
     7
370
    18
100
AcDbCircle
 10
42.107272751
 20
198.6101276281
 30
0.0
 40
1.022499999996682
100
AcDbArc
 50
303.2520907211
 51
3.2520907211
  0
ARC
  5
29D
330
1F
100
AcDbEntity
  8
0
  6
Continuous
 62
     7
370
    18
100
AcDbCircle
 10
56.107272751
 20
198.6101276281
 30
0.0
 40
1.02249999999394
100
AcDbArc
 50
243.2520907211
 51
303.2520907211
  0
ARC
  5
29E
330
1F
100
AcDbEntity
  8
0
  6
Continuous
 62
     7
370
    18
100
AcDbCircle
 10
56.107272751
 20
198.6101276281
 30
0.0
 40
1.022499999993927
100
AcDbArc
 50
123.2520907195
 51
183.2520907211
  0
ARC
  5
29F
330
1F
100
AcDbEntity
  8
0
  6
Continuous
 62
     7
370
    18
100
AcDbCircle
 10
56.107272751
 20
198.6101276281
 30
0.0
 40
1.022499999993918
100
AcDbArc
 50
63.2520907211
 51
123.2520907195
  0
ARC
  5
2A0
330
1F
100
AcDbEntity
  8
0
  6
Continuous
 62
     7
370
    18
100
AcDbCircle
 10
56.107272751
 20
198.6101276281
 30
0.0
 40
1.022499999993936
100
AcDbArc
 50
3.2520907211
 51
63.2520907211
  0
ARC
  5
2A1
330
1F
100
AcDbEntity
  8
0
  6
Continuous
 62
     7
370
    18
100
AcDbCircle
 10
56.107272751
 20
198.6101276281
 30
0.0
 40
1.02249999999394
100
AcDbArc
 50
183.2520907211
 51
243.2520907211
  0
ARC
  5
2A2
330
1F
100
AcDbEntity
  8
0
  6
Continuous
 62
     7
370
    18
100
AcDbCircle
 10
56.107272751
 20
198.6101276281
 30
0.0
 40
1.022499999993936
100
AcDbArc
 50
303.2520907211
 51
3.2520907211
  0
LINE
  5
2A3
330
1F
100
AcDbEntity
  8
0
  6
Continuous
 62
     7
370
    18
100
AcDbLine
 10
42.107272751
 20
198.6101276281
 30
0.0
 11
42.6679337804
 21
197.7550454917
 31
0.0
  0
LINE
  5
2A4
330
1F
100
AcDbEntity
  8
0
  6
Continuous
 62
     7
370
    18
100
AcDbLine
 10
41.5466117215
 20
199.4652097645
 30
0.0
 11
42.107272751
 21
198.6101276281
 31
0.0
  0
LINE
  5
2A5
330
1F
100
AcDbEntity
  8
0
  6
Continuous
 62
     7
370
    18
100
AcDbLine
 10
56.107272751
 20
198.6101276281
 30
0.0
 11
56.6679337804
 21
197.7550454917
 31
0.0
  0
LINE
  5
2A6
330
1F
100
AcDbEntity
  8
0
  6
Continuous
 62
     7
370
    18
100
AcDbLine
 10
55.5466117215
 20
199.4652097645
 30
0.0
 11
56.107272751
 21
198.6101276281
 31
0.0
  0
LINE
  5
2A7
330
1F
100
AcDbEntity
  8
0
  6
Continuous
 62
     7
370
    18
100
AcDbLine
 10
53.107272751
 20
200.6101276281
 30
0.0
 11
55.0764963446
 21
200.6101276281
 31
0.0
  0
LINE
  5
2A8
330
1F
100
AcDbEntity
  8
0
  6
Continuous
 62
     7
370
    18
100
AcDbLine
 10
56.107272751
 20
201.6101276281
 30
0.0
 11
52.107272751
 21
201.6101276281
 31
0.0
  0
LINE
  5
2A9
330
1F
100
AcDbEntity
  8
0
  6
Continuous
 62
     7
370
    18
100
AcDbLine
 10
58.107272751
 20
197.5793512217
 30
0.0
 11
58.107272751
 21
195.6101276281
 31
0.0
  0
LINE
  5
2AA
330
1F
100
AcDbEntity
  8
0
  6
Continuous
 62
     7
370
    18
100
AcDbLine
 10
59.107272751
 20
194.6101276281
 30
0.0
 11
59.107272751
 21
198.6101276281
 31
0.0
  0
LINE
  5
2AB
330
1F
100
AcDbEntity
  8
0
  6
Continuous
 62
     7
370
    18
100
AcDbLine
 10
40.107272751
 20
195.6101276281
 30
0.0
 11
40.107272751
 21
197.5793512217
 31
0.0
  0
LINE
  5
2AC
330
1F
100
AcDbEntity
  8
0
  6
Continuous
 62
     7
370
    18
100
AcDbLine
 10
39.107272751
 20
198.6101276281
 30
0.0
 11
39.107272751
 21
194.6101276281
 31
0.0
  0
LINE
  5
2AD
330
1F
100
AcDbEntity
  8
0
  6
Continuous
 62
     7
370
    18
100
AcDbLine
 10
43.1380491574
 20
200.6101276281
 30
0.0
 11
45.107272751
 21
200.6101276281
 31
0.0
  0
LINE
  5
2AE
330
1F
100
AcDbEntity
  8
0
  6
Continuous
 62
     7
370
    18
100
AcDbLine
 10
46.107272751
 20
201.6101276281
 30
0.0
 11
42.107272751
 21
201.6101276281
 31
0.0
  0
ARC
  5
2AF
330
1F
100
AcDbEntity
  8
0
  6
Continuous
 62
     7
370
    18
100
AcDbCircle
 10
56.107272751
 20
198.6101276281
 30
0.0
 40
3.000000000000007
100
AcDbArc
 50
0.0
 51
90.0
  0
ARC
  5
2B0
330
1F
100
AcDbEntity
  8
0
  6
Continuous
 62
     7
370
    18
100
AcDbCircle
 10
42.107272751
 20
198.6101276281
 30
0.0
 40
3.0
100
AcDbArc
 50
90.0
 51
180.0
  0
ARC
  5
2B1
330
1F
100
AcDbEntity
  8
0
  6
Continuous
 62
     7
370
    18
100
AcDbCircle
 10
56.607272751
 20
186.6101276281
 30
0.0
 40
1.219499999988561
100
AcDbArc
 50
228.8301555147
 51
48.8301555147
  0
ARC
  5
2B2
330
1F
100
AcDbEntity
  8
0
  6
Continuous
 62
     7
370
    18
100
AcDbCircle
 10
56.607272751
 20
186.6101276281
 30
0.0
 40
1.219499999988561
100
AcDbArc
 50
48.8301555147
 51
228.8301555147
  0
LINE
  5
2B3
330
1F
100
AcDbEntity
  8
0
  6
Continuous
 62
     7
370
    18
100
AcDbLine
 10
56.3277510277
 20
187.4298029334
 30
0.0
 11
55.757652252
 21
186.7778923675
 31
0.0
  0
LINE
  5
2B4
330
1F
100
AcDbEntity
  8
0
  6
Continuous
 62
     7
370
    18
100
AcDbLine
 10
56.0371739753
 20
185.9582170621
 30
0.0
 11
55.757652252
 21
186.7778923675
 31
0.0
  0
LINE
  5
2B5
330
1F
100
AcDbEntity
  8
0
  6
Continuous
 62
     7
370
    18
100
AcDbLine
 10
56.0371739753
 20
185.9582170621
 30
0.0
 11
56.8867944743
 21
185.7904523227
 31
0.0
  0
LINE
  5
2B6
330
1F
100
AcDbEntity
  8
0
  6
Continuous
 62
     7
370
    18
100
AcDbLine
 10
57.4568932499
 20
186.4423628887
 30
0.0
 11
56.8867944743
 21
185.7904523227
 31
0.0
  0
LINE
  5
2B7
330
1F
100
AcDbEntity
  8
0
  6
Continuous
 62
     7
370
    18
100
AcDbLine
 10
57.1773715266
 20
187.2620381941
 30
0.0
 11
57.4568932499
 21
186.4423628887
 31
0.0
  0
LINE
  5
2B8
330
1F
100
AcDbEntity
  8
0
  6
Continuous
 62
     7
370
    18
100
AcDbLine
 10
57.1773715266
 20
187.2620381941
 30
0.0
 11
56.3277510277
 21
187.4298029334
 31
0.0
  0
LINE
  5
2B9
330
1F
100
AcDbEntity
  8
0
  6
Continuous
 62
     7
370
    18
100
AcDbLine
 10
55.8044839946
 20
185.6921350014
 30
0.0
 11
55.6198327063
 21
185.4809854058
 31
0.0
  0
ARC
  5
2BA
330
1F
100
AcDbEntity
  8
0
  6
Continuous
 62
     7
370
    18
100
AcDbCircle
 10
56.607272751
 20
186.6101276281
 30
0.0
 40
1.499999999974734
100
AcDbArc
 50
48.8301555147
 51
228.8301555147
  0
LINE
  5
2BB
330
1F
100
AcDbEntity
  8
0
  6
Continuous
 62
     7
370
    18
100
AcDbLine
 10
57.5947127956
 20
187.7392698503
 30
0.0
 11
57.4100615073
 21
187.5281202547
 31
0.0
  0
ARC
  5
2BC
330
1F
100
AcDbEntity
  8
0
  6
Continuous
 62
     7
370
    18
100
AcDbCircle
 10
56.607272751
 20
186.6101276281
 30
0.0
 40
1.499999999974734
100
AcDbArc
 50
228.8301555147
 51
48.8301555147
  0
SPLINE
  5
2BD
330
1F
100
AcDbEntity
  8
0
  6
Continuous
 62
     7
370
    18
100
AcDbSpline
210
0.0
220
0.0
230
1.0
 70
    24
 71
     3
 72
     8
 73
     4
 74
     0
 42
0.00000001
 43
0.00000001
 40
0.0
 40
0.0
 40
0.0
 40
0.0
 40
1.0
 40
1.0
 40
1.0
 40
1.0
 10
59.35727266481722
 20
188.1978409180948
 30
0.0
 10
58.90803265859422
 20
188.4572097566184
 30
0.0
 10
58.45157500463384
 20
188.7207457060061
 30
0.0
 10
57.9822727509659
 20
188.9916974884926
 30
0.0
  0
SPLINE
  5
2BE
330
1F
100
AcDbEntity
  8
0
  6
Continuous
 62
     7
370
    18
100
AcDbSpline
210
0.0
220
0.0
230
1.0
 70
    24
 71
     3
 72
     8
 73
     4
 74
     0
 42
0.00000001
 43
0.00000001
 40
0.0
 40
0.0
 40
0.0
 40
0.0
 40
1.0
 40
1.0
 40
1.0
 40
1.0
 10
59.35727275097216
 20
186.6101276280818
 30
0.0
 10
59.35727275097216
 20
187.1520312363466
 30
0.0
 10
59.35727275097216
 20
187.6791032135735
 30
0.0
 10
59.35727275097216
 20
188.1978409284598
 30
0.0
  0
ARC
  5
2BF
330
1F
100
AcDbEntity
  8
0
  6
Continuous
 62
     7
370
    18
100
AcDbCircle
 10
56.607272751
 20
186.6101276281
 30
0.0
 40
2.750000000001641
100
AcDbArc
 50
0.0
 51
60.0000000002
  0
ARC
  5
2C0
330
1F
100
AcDbEntity
  8
0
  6
Continuous
 62
     7
370
    18
100
AcDbCircle
 10
56.607272751
 20
186.6101276281
 30
0.0
 40
2.750000000001654
100
AcDbArc
 50
240.0
 51
300.0
  0
SPLINE
  5
2C1
330
1F
100
AcDbEntity
  8
0
  6
Continuous
 62
     7
370
    18
100
AcDbSpline
210
0.0
220
0.0
230
1.0
 70
    24
 71
     3
 72
     8
 73
     4
 74
     0
 42
0.00000001
 43
0.00000001
 40
0.0
 40
0.0
 40
0.0
 40
0.0
 40
1.0
 40
1.0
 40
1.0
 40
1.0
 10
55.23227275097215
 20
184.2285577676745
 30
0.0
 10
55.70157500465166
 20
183.9576059851814
 30
0.0
 10
56.15803265862249
 20
183.6940700357877
 30
0.0
 10
56.60727266485571
 20
183.4347011972582
 30
0.0
  0
SPLINE
  5
2C2
330
1F
100
AcDbEntity
  8
0
  6
Continuous
 62
     7
370
    18
100
AcDbSpline
210
0.0
220
0.0
230
1.0
 70
     8
 71
     3
 72
     8
 73
     4
 74
     0
 42
0.00000001
 43
0.00000001
 40
0.0
 40
0.0
 40
0.0
 40
0.0
 40
1.0
 40
1.0
 40
1.0
 40
1.0
 10
56.60727268018605
 20
183.4347011499725
 30
0.0
 10
57.05651272147058
 20
183.6940700087389
 30
0.0
 10
57.51297045520793
 20
183.9576059608838
 30
0.0
 10
57.98227275097213
 20
184.2285577676745
 30
0.0
  0
ARC
  5
2C3
330
1F
100
AcDbEntity
  8
0
  6
Continuous
 62
     7
370
    18
100
AcDbCircle
 10
56.607272751
 20
186.6101276281
 30
0.0
 40
2.750000000001654
100
AcDbArc
 50
300.0
 51
0.0
  0
SPLINE
  5
2C4
330
1F
100
AcDbEntity
  8
0
  6
Continuous
 62
     7
370
    18
100
AcDbSpline
210
0.0
220
0.0
230
1.0
 70
    24
 71
     3
 72
     8
 73
     4
 74
     0
 42
0.00000001
 43
0.00000001
 40
0.0
 40
0.0
 40
0.0
 40
0.0
 40
1.0
 40
1.0
 40
1.0
 40
1.0
 10
59.35727275098115
 20
186.6101276280818
 30
0.0
 10
59.35727275098115
 20
186.0682240182835
 30
0.0
 10
59.35727275097216
 20
185.5411520781711
 30
0.0
 10
59.35727275097216
 20
185.0224143610643
 30
0.0
  0
SPLINE
  5
2C5
330
1F
100
AcDbEntity
  8
0
  6
Continuous
 62
     7
370
    18
100
AcDbSpline
210
0.0
220
0.0
230
1.0
 70
    24
 71
     3
 72
     8
 73
     4
 74
     0
 42
0.00000001
 43
0.00000001
 40
0.0
 40
0.0
 40
0.0
 40
0.0
 40
1.0
 40
1.0
 40
1.0
 40
1.0
 10
57.98227275097213
 20
184.2285577676745
 30
0.0
 10
58.45157500859322
 20
184.4995095524434
 30
0.0
 10
58.90803266619894
 20
184.7630455039357
 30
0.0
 10
59.35727267595474
 20
185.0224143444989
 30
0.0
  0
SPLINE
  5
2C6
330
1F
100
AcDbEntity
  8
0
  6
Continuous
 62
     7
370
    18
100
AcDbSpline
210
0.0
220
0.0
230
1.0
 70
    24
 71
     3
 72
     8
 73
     4
 74
     0
 42
0.00000001
 43
0.00000001
 40
0.0
 40
0.0
 40
0.0
 40
0.0
 40
1.0
 40
1.0
 40
1.0
 40
1.0
 10
53.85727275097213
 20
186.6101276280818
 30
0.0
 10
53.85727275097213
 20
186.0682240198167
 30
0.0
 10
53.85727275097212
 20
185.541152042588
 30
0.0
 10
53.85727275097212
 20
185.0224143277016
 30
0.0
  0
ARC
  5
2C7
330
1F
100
AcDbEntity
  8
0
  6
Continuous
 62
     7
370
    18
100
AcDbCircle
 10
56.607272751
 20
186.6101276281
 30
0.0
 40
2.750000000001648
100
AcDbArc
 50
180.0
 51
240.0
  0
SPLINE
  5
2C8
330
1F
100
AcDbEntity
  8
0
  6
Continuous
 62
     7
370
    18
100
AcDbSpline
210
0.0
220
0.0
230
1.0
 70
    24
 71
     3
 72
     8
 73
     4
 74
     0
 42
0.00000001
 43
0.00000001
 40
0.0
 40
0.0
 40
0.0
 40
0.0
 40
1.0
 40
1.0
 40
1.0
 40
1.0
 10
53.857272837129
 20
185.0224143380676
 30
0.0
 10
54.3065128433494
 20
184.7630454995455
 30
0.0
 10
54.76297049730699
 20
184.4995095501594
 30
0.0
 10
55.23227275097215
 20
184.2285577676745
 30
0.0
  0
ARC
  5
2C9
330
1F
100
AcDbEntity
  8
0
  6
Continuous
 62
     7
370
    18
100
AcDbCircle
 10
56.607272751
 20
186.6101276281
 30
0.0
 40
2.75000000000164
100
AcDbArc
 50
60.0000000002
 51
120.0
  0
SPLINE
  5
2CA
330
1F
100
AcDbEntity
  8
0
  6
Continuous
 62
     7
370
    18
100
AcDbSpline
210
0.0
220
0.0
230
1.0
 70
     8
 71
     3
 72
     8
 73
     4
 74
     0
 42
0.00000001
 43
0.00000001
 40
0.0
 40
0.0
 40
0.0
 40
0.0
 40
1.0
 40
1.0
 40
1.0
 40
1.0
 10
56.60727282175164
 20
189.785554106179
 30
0.0
 10
56.15803278046866
 20
189.5261852474135
 30
0.0
 10
55.70157504673492
 20
189.2626492952789
 30
0.0
 10
55.23227275097217
 20
188.991697488489
 30
0.0
  0
SPLINE
  5
2CB
330
1F
100
AcDbEntity
  8
0
  6
Continuous
 62
     7
370
    18
100
AcDbSpline
210
0.0
220
0.0
230
1.0
 70
    24
 71
     3
 72
     8
 73
     4
 74
     0
 42
0.00000001
 43
0.00000001
 40
0.0
 40
0.0
 40
0.0
 40
0.0
 40
1.0
 40
1.0
 40
1.0
 40
1.0
 10
57.9822727509659
 20
188.9916974884926
 30
0.0
 10
57.51297049729163
 20
189.2626492709827
 30
0.0
 10
57.0565128433256
 20
189.5261852203737
 30
0.0
 10
56.60727283709718
 20
189.7855540589004
 30
0.0
  0
ARC
  5
2CC
330
1F
100
AcDbEntity
  8
0
  6
Continuous
 62
     7
370
    18
100
AcDbCircle
 10
56.607272751
 20
186.6101276281
 30
0.0
 40
2.750000000001648
100
AcDbArc
 50
120.0
 51
180.0
  0
SPLINE
  5
2CD
330
1F
100
AcDbEntity
  8
0
  6
Continuous
 62
     7
370
    18
100
AcDbSpline
210
0.0
220
0.0
230
1.0
 70
     8
 71
     3
 72
     8
 73
     4
 74
     0
 42
0.00000001
 43
0.00000001
 40
0.0
 40
0.0
 40
0.0
 40
0.0
 40
1.0
 40
1.0
 40
1.0
 40
1.0
 10
53.85727278847883
 20
188.1978409284239
 30
0.0
 10
53.85727278847883
 20
187.6791032108934
 30
0.0
 10
53.85727275097213
 20
187.152031241661
 30
0.0
 10
53.85727275097213
 20
186.6101276280818
 30
0.0
  0
SPLINE
  5
2CE
330
1F
100
AcDbEntity
  8
0
  6
Continuous
 62
     7
370
    18
100
AcDbSpline
210
0.0
220
0.0
230
1.0
 70
    24
 71
     3
 72
     8
 73
     4
 74
     0
 42
0.00000001
 43
0.00000001
 40
0.0
 40
0.0
 40
0.0
 40
0.0
 40
1.0
 40
1.0
 40
1.0
 40
1.0
 10
55.23227275097217
 20
188.991697488489
 30
0.0
 10
54.76297049729463
 20
188.720745705997
 30
0.0
 10
54.30651284332561
 20
188.4572097566043
 30
0.0
 10
53.85727283709414
 20
188.1978409180758
 30
0.0
  0
LINE
  5
2CF
330
1F
100
AcDbEntity
  8
0
  6
Continuous
 62
     7
370
    18
100
AcDbLine
 10
50.3047664695
 20
211.5250396878
 30
0.0
 11
50.2047664695
 21
210.5300522507
 31
0.0
  0
ARC
  5
2D0
330
1F
100
AcDbEntity
  8
0
  6
Continuous
 62
     7
370
    18
100
AcDbCircle
 10
49.807272751
 20
211.5750396878
 30
0.0
 40
0.5000000000000189
100
AcDbArc
 50
354.2608295227
 51
84.2608295227
  0
LINE
  5
2D1
330
1F
100
AcDbEntity
  8
0
  6
Continuous
 62
     7
370
    18
100
AcDbLine
 10
50.607272751
 20
219.5349391847
 30
0.0
 11
49.857272751
 21
212.0725334064
 31
0.0
  0
LINE
  5
2D2
330
1F
100
AcDbEntity
  8
0
  6
Continuous
 62
     7
370
    18
100
AcDbLine
 10
51.8510070474
 20
219.4099391847
 30
0.0
 11
50.607272751
 21
219.5349391847
 31
0.0
  0
ARC
  5
2D3
330
1F
100
AcDbEntity
  8
0
  6
Continuous
 62
     7
370
    18
100
AcDbCircle
 10
32.8902204456
 20
208.2524945202
 30
0.0
 40
22.00000000000001
100
AcDbArc
 50
355.3130549489
 51
30.4746155901
  0
ARC
  5
2D4
330
1F
100
AcDbEntity
  8
0
  6
Continuous
 62
     7
370
    18
100
AcDbCircle
 10
49.107272751
 20
204.6101276281
 30
0.0
 40
6.000000000000014
100
AcDbArc
 50
17.9057795482
 51
79.4847985962
  0
ARC
  5
2D5
330
1F
100
AcDbEntity
  8
0
  6
Continuous
 62
     7
370
    18
100
AcDbCircle
 10
49.707272751
 20
210.5800522507
 30
0.0
 40
0.5000000000000083
100
AcDbArc
 50
351.8728140595
 51
354.2608295227
  0
LINE
  5
2D6
330
1F
100
AcDbEntity
  8
0
  6
Continuous
 62
     7
370
    18
100
AcDbLine
 10
54.7799440619
 20
206.0524945202
 30
0.0
 11
54.5797036551
 21
204.0601276281
 31
0.0
  0
ARC
  5
2D7
330
1F
100
AcDbEntity
  8
0
  6
Continuous
 62
     7
370
    18
100
AcDbCircle
 10
32.8902204456
 20
208.2524945202
 30
0.0
 40
22.00000000000001
100
AcDbArc
 50
354.2608295227
 51
355.3130549489
  0
ARC
  5
2D8
330
1F
100
AcDbEntity
  8
0
  6
Continuous
 62
     7
370
    18
100
AcDbCircle
 10
49.707272751
 20
210.5800522507
 30
0.0
 40
0.5000000000000083
100
AcDbArc
 50
264.2608295227
 51
351.8728140595
  0
LINE
  5
2D9
330
1F
100
AcDbEntity
  8
0
  6
Continuous
 62
     7
370
    18
100
AcDbLine
 10
44.0238019715
 20
201.6101276281
 30
0.0
 11
43.6789599333
 21
203.7250174916
 31
0.0
  0
ARC
  5
2DA
330
1F
100
AcDbEntity
  8
0
  6
Continuous
 62
     7
370
    18
100
AcDbCircle
 10
48.407272751
 20
211.5750396878
 30
0.0
 40
0.5000000000000189
100
AcDbArc
 50
95.7391704773
 51
185.7391704773
  0
LINE
  5
2DB
330
1F
100
AcDbEntity
  8
0
  6
Continuous
 62
     7
370
    18
100
AcDbLine
 10
48.0097790324
 20
210.5300522507
 30
0.0
 11
47.9097790324
 21
211.5250396878
 31
0.0
  0
ARC
  5
2DC
330
1F
100
AcDbEntity
  8
0
  6
Continuous
 62
     7
370
    18
100
AcDbCircle
 10
48.507272751
 20
210.5800522507
 30
0.0
 40
0.4999999999999962
100
AcDbArc
 50
185.7391704773
 51
275.7391704773
  0
ARC
  5
2DD
330
1F
100
AcDbEntity
  8
0
  6
Continuous
 62
     7
370
    18
100
AcDbCircle
 10
49.107272751
 20
204.6101276281
 30
0.0
 40
5.500000000000013
100
AcDbArc
 50
350.7391704773
 51
95.7391704773
  0
LINE
  5
2DE
330
1F
100
AcDbEntity
  8
0
  6
Continuous
 62
     7
370
    18
100
AcDbLine
 10
54.1907435305
 20
201.6101276281
 30
0.0
 11
54.5355855686
 21
203.7250174916
 31
0.0
  0
ARC
  5
2DF
330
1F
100
AcDbEntity
  8
0
  6
Continuous
 62
     7
370
    18
100
AcDbCircle
 10
49.107272751
 20
204.6101276281
 30
0.0
 40
5.500000000000002
100
AcDbArc
 50
185.7391704773
 51
213.0557311509
  0
LINE
  5
2E0
330
1F
100
AcDbEntity
  8
0
  6
Continuous
 62
     7
370
    18
100
AcDbLine
 10
43.43460144
 20
206.0524945202
 30
0.0
 11
43.6348418469
 21
204.0601276281
 31
0.0
  0
LINE
  5
2E1
330
1F
100
AcDbEntity
  8
0
  6
Continuous
 62
     7
370
    18
100
AcDbLine
 10
47.607272751
 20
219.5349391847
 30
0.0
 11
46.3635384546
 21
219.4099391847
 31
0.0
  0
LINE
  5
2E2
330
1F
100
AcDbEntity
  8
0
  6
Continuous
 62
     7
370
    18
100
AcDbLine
 10
48.357272751
 20
212.0725334064
 30
0.0
 11
47.607272751
 21
219.5349391847
 31
0.0
  0
CIRCLE
  5
2E3
330
1F
100
AcDbEntity
  8
0
  6
Continuous
 62
     7
370
    18
100
AcDbCircle
 10
49.107272751
 20
204.6101276281
 30
0.0
 40
2.250000000000001
  0
ARC
  5
2E4
330
1F
100
AcDbEntity
  8
0
  6
Continuous
 62
     7
370
    18
100
AcDbCircle
 10
65.3243250564
 20
208.2524945202
 30
0.0
 40
22.0
100
AcDbArc
 50
149.5253844099
 51
185.7391704773
  0
LINE
  5
2E5
330
1F
100
AcDbEntity
  8
0
  6
Continuous
 62
     8
370
    18
100
AcDbLine
 10
56.107272751
 20
201.6101276281
 30
0.0
 11
56.107272751
 21
200.8601276281
 31
0.0
  0
LINE
  5
2E6
330
1F
100
AcDbEntity
  8
0
  6
Continuous
 62
     8
370
    18
100
AcDbLine
 10
58.357272751
 20
198.6101276281
 30
0.0
 11
59.107272751
 21
198.6101276281
 31
0.0
  0
LINE
  5
2E7
330
1F
100
AcDbEntity
  8
0
  6
Continuous
 62
     8
370
    18
100
AcDbLine
 10
39.107272751
 20
198.6101276281
 30
0.0
 11
39.857272751
 21
198.6101276281
 31
0.0
  0
LINE
  5
2E8
330
1F
100
AcDbEntity
  8
0
  6
Continuous
 62
     8
370
    18
100
AcDbLine
 10
42.107272751
 20
201.6101276281
 30
0.0
 11
42.107272751
 21
200.8601276281
 31
0.0
  0
DIMENSION
  5
2E9
330
1F
100
AcDbEntity
  8
0
  6
Continuous
 62
     7
370
    18
100
AcDbDimension
  2
_D_11
 10
59.107272751
 20
158.6100245504
 30
0.0
 11
49.107272751
 21
158.6100245504
 31
0.0
 70
   160
  1
<>
 71
     2
 42
-1.0
  3
SLDDIMSTYLE2
100
AcDbAlignedDimension
 13
39.107272751
 23
168.6101276281
 33
0.0
 14
59.107272751
 24
168.6101276281
 34
0.0
100
AcDbRotatedDimension
  0
DIMENSION
  5
2F3
330
1F
100
AcDbEntity
  8
0
  6
Continuous
 62
     7
370
    18
100
AcDbDimension
  2
_D_12
 10
69.3573758286
 20
168.6101276281
 30
0.0
 11
69.3573758286
 21
185.1101276281
 31
0.0
 70
   160
  1
<>
 71
     2
 42
-1.0
  3
SLDDIMSTYLE2
100
AcDbAlignedDimension
 13
56.107272751
 23
201.6101276281
 33
0.0
 14
59.107272751
 24
168.6101276281
 34
0.0
 50
90.0
100
AcDbRotatedDimension
  0
DIMENSION
  5
2FD
330
1F
100
AcDbEntity
  8
0
  6
Continuous
 62
     7
370
    18
100
AcDbDimension
  2
_D_13
 10
50.607272751
 20
226.4666546808
 30
0.0
 11
60.1033670258
 21
226.4666546808
 31
0.0
 70
   160
  1
(<>)
 71
     2
 42
-1.0
  3
SLDDIMSTYLE4
100
AcDbAlignedDimension
 13
47.607272751
 23
219.5349391847
 33
0.0
 14
50.607272751
 24
219.5349391847
 34
0.0
100
AcDbRotatedDimension
  0
DIMENSION
  5
30B
330
1F
100
AcDbEntity
  8
0
  6
Continuous
 62
     7
370
    18
100
AcDbDimension
  2
_D_14
 10
54.8902204456
 20
235.1317015036
 30
0.0
 11
49.107272751
 21
235.1317015036
 31
0.0
 70
   160
  1
(<>)
 71
     2
 42
-1.0
  3
SLDDIMSTYLE4
100
AcDbAlignedDimension
 13
43.3243250564
 23
208.2524945202
 33
0.0
 14
54.8902204456
 24
208.2524945202
 34
0.0
100
AcDbRotatedDimension
  0
DIMENSION
  5
319
330
1F
100
AcDbEntity
  8
0
  6
Continuous
 62
     7
370
    18
100
AcDbDimension
  2
_D_15
 10
30.3129485392
 20
168.6101276281
 30
0.0
 11
30.3129485392
 21
186.6101276281
 31
0.0
 70
   160
  1
<>
 71
     2
 42
-1.0
  3
SLDDIMSTYLE2
100
AcDbAlignedDimension
 13
44.357272751
 23
204.6101276281
 33
0.0
 14
39.107272751
 24
168.6101276281
 34
0.0
 50
90.0
100
AcDbRotatedDimension
  0
DIMENSION
  5
323
330
1F
100
AcDbEntity
  8
0
  6
Continuous
 62
     7
370
    18
100
AcDbDimension
  2
_D_16
 10
77.6716355009
 20
209.6101276318
 30
0.0
 11
77.6716355009
 21
189.1101276299
 31
0.0
 70
   160
  1
<>
 71
     2
 42
-1.0
  3
SLDDIMSTYLE2
100
AcDbAlignedDimension
 13
59.107272751
 23
168.6101276281
 33
0.0
 14
56.2779840092
 24
209.6101276318
 34
0.0
 50
90.0
100
AcDbRotatedDimension
  0
DIMENSION
  5
32D
330
1F
100
AcDbEntity
  8
0
  6
Continuous
 62
     7
370
    18
100
AcDbDimension
  2
_D_17
 10
77.6716355009
 20
209.6101276318
 30
0.0
 11
77.6716355009
 21
214.5725334082
 31
0.0
 70
   160
  1
(<>)
 71
     2
 42
-1.0
  3
SLDDIMSTYLE4
100
AcDbAlignedDimension
 13
50.607272751
 23
219.5349391847
 33
0.0
 14
56.2779840092
 24
209.6101276318
 34
0.0
 50
90.0
100
AcDbRotatedDimension
  0
INSERT
  5
346
330
1F
100
AcDbEntity
  8
0
  6
Continuous
 62
     7
370
    18
100
AcDbBlockReference
  2
SW_CENTERMARKSYMBOL_0
 10
49.107272751
 20
186.6101276281
 30
0.0
  0
INSERT
  5
352
330
1F
100
AcDbEntity
  8
0
  6
Continuous
 62
     7
370
    18
100
AcDbBlockReference
  2
SW_CENTERMARKSYMBOL_1
 10
56.607272751
 20
186.6101276281
 30
0.0
  0
INSERT
  5
35E
330
1F
100
AcDbEntity
  8
0
  6
Continuous
 62
     7
370
    18
100
AcDbBlockReference
  2
SW_CENTERMARKSYMBOL_2
 10
49.107272751
 20
197.6101276281
 30
0.0
  0
INSERT
  5
36A
330
1F
100
AcDbEntity
  8
0
  6
Continuous
 62
     7
370
    18
100
AcDbBlockReference
  2
SW_CENTERMARKSYMBOL_3
 10
56.107272751
 20
198.6101276281
 30
0.0
  0
INSERT
  5
376
330
1F
100
AcDbEntity
  8
0
  6
Continuous
 62
     7
370
    18
100
AcDbBlockReference
  2
SW_CENTERMARKSYMBOL_4
 10
42.107272751
 20
198.6101276281
 30
0.0
  0
INSERT
  5
382
330
1F
100
AcDbEntity
  8
0
  6
Continuous
 62
     7
370
    18
100
AcDbBlockReference
  2
SW_CENTERMARKSYMBOL_5
 10
49.107272751
 20
204.6101276281
 30
0.0
  0
ARC
  5
383
330
1F
100
AcDbEntity
  8
0
  6
Continuous
 62
     7
370
    18
100
AcDbCircle
 10
179.3579709712
 20
96.381489908
 30
0.0
 40
0.125
100
AcDbArc
 50
0.0
 51
90.0
  0
ARC
  5
384
330
1F
100
AcDbEntity
  8
0
  6
Continuous
 62
     7
370
    18
100
AcDbCircle
 10
179.3579709712
 20
110.381489908
 30
0.0
 40
0.125
100
AcDbArc
 50
0.0
 51
90.0
  0
LINE
  5
385
330
1F
100
AcDbEntity
  8
0
  6
Continuous
 62
     7
370
    18
100
AcDbLine
 10
179.3579709712
 20
96.506489908
 30
0.0
 11
176.9829709712
 21
96.506489908
 31
0.0
  0
LINE
  5
386
330
1F
100
AcDbEntity
  8
0
  6
Continuous
 62
     7
370
    18
100
AcDbLine
 10
179.3579709712
 20
110.506489908
 30
0.0
 11
176.9829709712
 21
110.506489908
 31
0.0
  0
ARC
  5
387
330
1F
100
AcDbEntity
  8
0
  6
Continuous
 62
     7
370
    18
100
AcDbCircle
 10
179.3579709712
 20
106.131489908
 30
0.0
 40
0.125
100
AcDbArc
 50
270.0
 51
0.0
  0
LINE
  5
388
330
1F
100
AcDbEntity
  8
0
  6
Continuous
 62
     7
370
    18
100
AcDbLine
 10
176.9829709712
 20
106.006489908
 30
0.0
 11
179.3579709712
 21
106.006489908
 31
0.0
  0
ARC
  5
389
330
1F
100
AcDbEntity
  8
0
  6
Continuous
 62
     7
370
    18
100
AcDbCircle
 10
179.3579709712
 20
92.131489908
 30
0.0
 40
0.125
100
AcDbArc
 50
270.0
 51
0.0
  0
LINE
  5
38A
330
1F
100
AcDbEntity
  8
0
  6
Continuous
 62
     7
370
    18
100
AcDbLine
 10
176.9829709712
 20
92.006489908
 30
0.0
 11
179.3579709712
 21
92.006489908
 31
0.0
  0
LINE
  5
38B
330
1F
100
AcDbEntity
  8
0
  6
Continuous
 62
     7
370
    18
100
AcDbLine
 10
117.6013531118
 20
104.256489908
 30
0.0
 11
117.2373828775
 21
105.2564899079
 31
0.0
  0
LINE
  5
38C
330
1F
100
AcDbEntity
  8
0
  6
Continuous
 62
     7
370
    18
100
AcDbLine
 10
117.2373828775
 20
105.256489908
 30
0.0
 11
108.2829709712
 21
105.256489908
 31
0.0
  0
ARC
  5
38D
330
1F
100
AcDbEntity
  8
0
  6
Continuous
 62
     7
370
    18
100
AcDbCircle
 10
106.6829709712
 20
104.706489908
 30
0.0
 40
0.5
100
AcDbArc
 50
90.0
 51
180.0
  0
LINE
  5
38E
330
1F
100
AcDbEntity
  8
0
  6
Continuous
 62
     7
370
    18
100
AcDbLine
 10
107.6829709712
 20
105.206489908
 30
0.0
 11
106.6829709712
 21
105.206489908
 31
0.0
  0
LINE
  5
38F
330
1F
100
AcDbEntity
  8
0
  6
Continuous
 62
     7
370
    18
100
AcDbLine
 10
108.2829709712
 20
97.256489908
 30
0.0
 11
117.2373828775
 21
97.256489908
 31
0.0
  0
LINE
  5
390
330
1F
100
AcDbEntity
  8
0
  6
Continuous
 62
     7
370
    18
100
AcDbLine
 10
117.2373828775
 20
97.2564899081
 30
0.0
 11
117.6013531118
 21
98.256489908
 31
0.0
  0
ARC
  5
391
330
1F
100
AcDbEntity
  8
0
  6
Continuous
 62
     7
370
    18
100
AcDbCircle
 10
106.6829709712
 20
97.806489908
 30
0.0
 40
0.5
100
AcDbArc
 50
180.0
 51
270.0
  0
LINE
  5
392
330
1F
100
AcDbEntity
  8
0
  6
Continuous
 62
     7
370
    18
100
AcDbLine
 10
106.6829709712
 20
97.306489908
 30
0.0
 11
107.6829709712
 21
97.306489908
 31
0.0
  0
LINE
  5
393
330
1F
100
AcDbEntity
  8
0
  6
Continuous
 62
     7
370
    18
100
AcDbLine
 10
120.7829709712
 20
97.756489908
 30
0.0
 11
121.2829709712
 21
97.756489908
 31
0.0
  0
LINE
  5
394
330
1F
100
AcDbEntity
  8
0
  6
Continuous
 62
     7
370
    18
100
AcDbLine
 10
119.7829709712
 20
104.256489908
 30
0.0
 11
117.6013531118
 21
104.256489908
 31
0.0
  0
LINE
  5
395
330
1F
100
AcDbEntity
  8
0
  6
Continuous
 62
     7
370
    18
100
AcDbLine
 10
117.6013531118
 20
98.256489908
 30
0.0
 11
119.7829709712
 21
98.256489908
 31
0.0
  0
LINE
  5
396
330
1F
100
AcDbEntity
  8
0
  6
Continuous
 62
     7
370
    18
100
AcDbLine
 10
120.2829709712
 20
104.006489908
 30
0.0
 11
119.7829709712
 21
104.006489908
 31
0.0
  0
LINE
  5
397
330
1F
100
AcDbEntity
  8
0
  6
Continuous
 62
     7
370
    18
100
AcDbLine
 10
119.7829709712
 20
98.506489908
 30
0.0
 11
120.2829709712
 21
98.506489908
 31
0.0
  0
LINE
  5
398
330
1F
100
AcDbEntity
  8
0
  6
Continuous
 62
     7
370
    18
100
AcDbLine
 10
120.7829709712
 20
103.756489908
 30
0.0
 11
120.2829709712
 21
103.756489908
 31
0.0
  0
LINE
  5
399
330
1F
100
AcDbEntity
  8
0
  6
Continuous
 62
     7
370
    18
100
AcDbLine
 10
120.2829709712
 20
98.756489908
 30
0.0
 11
120.7829709712
 21
98.756489908
 31
0.0
  0
LINE
  5
39A
330
1F
100
AcDbEntity
  8
0
  6
Continuous
 62
     7
370
    18
100
AcDbLine
 10
108.2829709712
 20
103.456489908
 30
0.0
 11
107.6829709712
 21
103.456489908
 31
0.0
  0
LINE
  5
39B
330
1F
100
AcDbEntity
  8
0
  6
Continuous
 62
     7
370
    18
100
AcDbLine
 10
107.6829709712
 20
99.056489908
 30
0.0
 11
108.2829709712
 21
99.056489908
 31
0.0
  0
LINE
  5
39C
330
1F
100
AcDbEntity
  8
0
  6
Continuous
 62
     7
370
    18
100
AcDbLine
 10
121.2829709712
 20
104.756489908
 30
0.0
 11
120.7829709712
 21
104.756489908
 31
0.0
  0
ARC
  5
39D
330
1F
100
AcDbEntity
  8
0
  6
Continuous
 62
     7
370
    18
100
AcDbCircle
 10
119.9829709712
 20
97.806489908
 30
0.0
 40
0.5
100
AcDbArc
 50
180.0
 51
270.0
  0
LINE
  5
39E
330
1F
100
AcDbEntity
  8
0
  6
Continuous
 62
     7
370
    18
100
AcDbLine
 10
119.9829709712
 20
97.306489908
 30
0.0
 11
120.9829709712
 21
97.306489908
 31
0.0
  0
ARC
  5
39F
330
1F
100
AcDbEntity
  8
0
  6
Continuous
 62
     7
370
    18
100
AcDbCircle
 10
119.9829709712
 20
104.706489908
 30
0.0
 40
0.5
100
AcDbArc
 50
90.0
 51
180.0
  0
LINE
  5
3A0
330
1F
100
AcDbEntity
  8
0
  6
Continuous
 62
     7
370
    18
100
AcDbLine
 10
120.9829709712
 20
105.206489908
 30
0.0
 11
119.9829709712
 21
105.206489908
 31
0.0
  0
LINE
  5
3A1
330
1F
100
AcDbEntity
  8
0
  6
Continuous
 62
     7
370
    18
100
AcDbLine
 10
118.8829709712
 20
110.256489908
 30
0.0
 11
115.4449177217
 21
110.256489908
 31
0.0
  0
LINE
  5
3A2
330
1F
100
AcDbEntity
  8
0
  6
Continuous
 62
     7
370
    18
100
AcDbLine
 10
115.4449177217
 20
110.256489908
 30
0.0
 11
115.2829709711
 21
109.9759899079
 31
0.0
  0
LINE
  5
3A3
330
1F
100
AcDbEntity
  8
0
  6
Continuous
 62
     7
370
    18
100
AcDbLine
 10
115.4449177217
 20
107.256489908
 30
0.0
 11
118.8829709712
 21
107.256489908
 31
0.0
  0
LINE
  5
3A4
330
1F
100
AcDbEntity
  8
0
  6
Continuous
 62
     7
370
    18
100
AcDbLine
 10
115.2829709712
 20
107.536989908
 30
0.0
 11
115.4449177217
 21
107.256489908
 31
0.0
  0
LINE
  5
3A5
330
1F
100
AcDbEntity
  8
0
  6
Continuous
 62
     7
370
    18
100
AcDbLine
 10
175.7829709712
 20
91.256489908
 30
0.0
 11
176.9829709712
 21
91.256489908
 31
0.0
  0
LINE
  5
3A6
330
1F
100
AcDbEntity
  8
0
  6
Continuous
 62
     7
370
    18
100
AcDbLine
 10
176.9829709712
 20
92.756489908
 30
0.0
 11
175.7829709712
 21
92.756489908
 31
0.0
  0
LINE
  5
3A7
330
1F
100
AcDbEntity
  8
0
  6
Continuous
 62
     7
370
    18
100
AcDbLine
 10
176.9829709712
 20
91.256489908
 30
0.0
 11
176.9829709712
 21
92.756489908
 31
0.0
  0
LINE
  5
3A8
330
1F
100
AcDbEntity
  8
0
  6
Continuous
 62
     7
370
    18
100
AcDbLine
 10
176.9829709712
 20
109.756489908
 30
0.0
 11
175.7829709712
 21
109.756489908
 31
0.0
  0
LINE
  5
3A9
330
1F
100
AcDbEntity
  8
0
  6
Continuous
 62
     7
370
    18
100
AcDbLine
 10
176.9829709712
 20
92.756489908
 30
0.0
 11
176.9829709712
 21
109.756489908
 31
0.0
  0
LINE
  5
3AA
330
1F
100
AcDbEntity
  8
0
  6
Continuous
 62
     7
370
    18
100
AcDbLine
 10
176.9829709712
 20
111.256489908
 30
0.0
 11
175.7829709712
 21
111.256489908
 31
0.0
  0
LINE
  5
3AB
330
1F
100
AcDbEntity
  8
0
  6
Continuous
 62
     7
370
    18
100
AcDbLine
 10
176.9829709712
 20
109.756489908
 30
0.0
 11
176.9829709712
 21
111.256489908
 31
0.0
  0
SPLINE
  5
3AC
330
1F
100
AcDbEntity
  8
0
  6
Continuous
 62
     7
370
    18
100
AcDbSpline
210
0.0
220
0.0
230
1.0
 70
    24
 71
     3
 72
    18
 73
    14
 74
     0
 42
0.00000001
 43
0.00000001
 40
0.0
 40
0.0
 40
0.0
 40
0.0
 40
0.1443263842399426
 40
0.2229015066628977
 40
0.3013795301559264
 40
0.3799546088289992
 40
0.4584325886249388
 40
0.6027589728648813
 40
0.7470853571048242
 40
0.8256604795278774
 40
0.9041385030208035
 40
0.9827135816937671
 40
0.9999999999999999
 40
0.9999999999999999
 40
0.9999999999999999
 40
0.9999999999999999
 10
179.4829709711968
 20
92.42954882808861
 30
0.0
 10
179.4829709711968
 20
92.59055977634422
 30
0.0
 10
179.4829709711968
 20
92.8392293674547
 30
0.0
 10
179.4829709711968
 20
93.31973424274379
 30
0.0
 10
179.4829709711968
 20
93.72836868903826
 30
0.0
 10
179.4829709711968
 20
94.16014806428458
 30
0.0
 10
179.4829709711968
 20
94.71669562121465
 30
0.0
 10
179.4829709711968
 20
95.36838450201235
 30
0.0
 10
179.4829709711968
 20
95.88499235972273
 30
0.0
 10
179.4829709711968
 20
96.18190552235394
 30
0.0
 10
179.4829709711968
 20
96.3251029219262
 30
0.0
 10
179.4829709711968
 20
96.38980958656369
 30
0.0
 10
179.4829709711968
 20
96.37664022386113
 30
0.0
 10
179.4829709711968
 20
96.37426543189903
 30
0.0
  0
ARC
  5
3AD
330
1F
100
AcDbEntity
  8
0
  6
Continuous
 62
     7
370
    18
100
AcDbCircle
 10
179.3661226064
 20
92.4390303735
 30
0.0
 40
0.1172324189534595
100
AcDbArc
 50
266.0127796908
 51
355.3609543067
  0
SPLINE
  5
3AE
330
1F
100
AcDbEntity
  8
0
  6
Continuous
 62
     7
370
    18
100
AcDbSpline
210
0.0
220
0.0
230
1.0
 70
    24
 71
     3
 72
    15
 73
    11
 74
     0
 42
0.00000001
 43
0.00000001
 40
0.0
 40
0.0
 40
0.0
 40
0.0
 40
0.175044326207747
 40
0.2703431132843598
 40
0.3655241352214953
 40
0.4608228692361962
 40
0.5560038381763509
 40
0.7310481643840981
 40
0.9060924905918453
 40
1.0
 40
1.0
 40
1.0
 40
1.0
 10
179.4829709711967
 20
107.0949014381829
 30
0.0
 10
179.4829709711967
 20
107.3342560696105
 30
0.0
 10
179.4829709711967
 20
107.7039217288241
 30
0.0
 10
179.4829709711967
 20
108.2633634607897
 30
0.0
 10
179.4829709711967
 20
108.6963235049358
 30
0.0
 10
179.4829709711968
 20
109.1123954858459
 30
0.0
 10
179.4829709711967
 20
109.5980405970888
 30
0.0
 10
179.4829709711967
 20
110.0763156376451
 30
0.0
 10
179.4829709711968
 20
110.3482487083257
 30
0.0
 10
179.4829709711967
 20
110.3727586581859
 30
0.0
 10
179.4829709711968
 20
110.3813165783868
 30
0.0
  0
LWPOLYLINE
  5
3AF
330
1F
100
AcDbEntity
  8
0
  6
Continuous
 62
     7
370
    18
100
AcDbPolyline
 90
        9
 70
   128
 43
0.0
 10
179.4829709712
 20
107.0949014382
 10
179.4805691312
 20
107.0815711636
 10
179.4734559128
 20
107.0687531639
 10
179.4619046727
 20
107.0569400278
 10
179.4463593188
 20
107.0465857274
 10
179.4274172503
 20
107.0380881726
 10
179.4058064002
 20
107.0317739198
 10
179.3823572614
 20
107.0278856221
 10
179.3579709712
 20
107.0265727047
  0
LINE
  5
3B0
330
1F
100
AcDbEntity
  8
0
  6
Continuous
 62
     7
370
    18
100
AcDbLine
 10
179.3579709712
 20
92.3220817057
 30
0.0
 11
176.9829709712
 21
92.3220817057
 31
0.0
  0
LINE
  5
3B1
330
1F
100
AcDbEntity
  8
0
  6
Continuous
 62
     7
370
    18
100
AcDbLine
 10
179.3579709712
 20
107.0265727047
 30
0.0
 11
176.9829709712
 21
107.0265727047
 31
0.0
  0
SPLINE
  5
3B2
330
1F
100
AcDbEntity
  8
0
  6
Continuous
 62
     7
370
    18
100
AcDbSpline
210
0.0
220
0.0
230
1.0
 70
    24
 71
     3
 72
    11
 73
     7
 74
     0
 42
0.00000001
 43
0.00000001
 40
0.0
 40
0.0
 40
0.0
 40
0.0
 40
0.2065986073081388
 40
0.4134527188217985
 40
0.6200512110949332
 40
1.0
 40
1.0
 40
1.0
 40
1.0
 10
179.4829709711967
 20
106.1310296159983
 30
0.0
 10
179.4829709711967
 20
106.1401975221285
 30
0.0
 10
179.4829709711967
 20
106.1585446725029
 30
0.0
 10
179.4829709711967
 20
106.2962684267815
 30
0.0
 10
179.4829709711967
 20
106.5648838493735
 30
0.0
 10
179.4829709711967
 20
106.8865410038262
 30
0.0
 10
179.4829709711967
 20
107.0949014381829
 30
0.0
  0
LINE
  5
3B3
330
1F
100
AcDbEntity
  8
0
  6
Continuous
 62
     7
370
    18
100
AcDbLine
 10
179.4829709712
 20
92.252803522
 30
0.0
 11
179.4829709712
 21
92.4295488281
 31
0.0
  0
LINE
  5
3B4
330
1F
100
AcDbEntity
  8
0
  6
Continuous
 62
     7
370
    18
100
AcDbLine
 10
182.7829709712
 20
91.756489908
 30
0.0
 11
182.7829709712
 21
110.756489908
 31
0.0
  0
LINE
  5
3B5
330
1F
100
AcDbEntity
  8
0
  6
Continuous
 62
     7
370
    18
100
AcDbLine
 10
182.2829709712
 20
91.756489908
 30
0.0
 11
182.7829709712
 21
91.756489908
 31
0.0
  0
LINE
  5
3B6
330
1F
100
AcDbEntity
  8
0
  6
Continuous
 62
     7
370
    18
100
AcDbLine
 10
182.2829709712
 20
110.756489908
 30
0.0
 11
182.2829709712
 21
91.756489908
 31
0.0
  0
LINE
  5
3B7
330
1F
100
AcDbEntity
  8
0
  6
Continuous
 62
     7
370
    18
100
AcDbLine
 10
182.2829709712
 20
110.756489908
 30
0.0
 11
182.7829709712
 21
110.756489908
 31
0.0
  0
LINE
  5
3B8
330
1F
100
AcDbEntity
  8
0
  6
Continuous
 62
     7
370
    18
100
AcDbLine
 10
182.2829709712
 20
91.756489908
 30
0.0
 11
176.9829709712
 21
91.756489908
 31
0.0
  0
LINE
  5
3B9
330
1F
100
AcDbEntity
  8
0
  6
Continuous
 62
     7
370
    18
100
AcDbLine
 10
176.9829709712
 20
110.756489908
 30
0.0
 11
182.2829709712
 21
110.756489908
 31
0.0
  0
LINE
  5
3BA
330
1F
100
AcDbEntity
  8
0
  6
Continuous
 62
     7
370
    18
100
AcDbLine
 10
182.2829709712
 20
110.756489908
 30
0.0
 11
182.2829709712
 21
111.256489908
 31
0.0
  0
LINE
  5
3BB
330
1F
100
AcDbEntity
  8
0
  6
Continuous
 62
     7
370
    18
100
AcDbLine
 10
182.2829709712
 20
111.256489908
 30
0.0
 11
176.9829709712
 21
111.256489908
 31
0.0
  0
LINE
  5
3BC
330
1F
100
AcDbEntity
  8
0
  6
Continuous
 62
     7
370
    18
100
AcDbLine
 10
182.2829709712
 20
91.256489908
 30
0.0
 11
182.2829709712
 21
91.756489908
 31
0.0
  0
LINE
  5
3BD
330
1F
100
AcDbEntity
  8
0
  6
Continuous
 62
     7
370
    18
100
AcDbLine
 10
176.9829709712
 20
91.256489908
 30
0.0
 11
182.2829709712
 21
91.256489908
 31
0.0
  0
ARC
  5
3BE
330
1F
100
AcDbEntity
  8
0
  6
Continuous
 62
     7
370
    18
100
AcDbCircle
 10
182.2829709712
 20
110.756489908
 30
0.0
 40
0.5
100
AcDbArc
 50
0.0
 51
90.0
  0
ARC
  5
3BF
330
1F
100
AcDbEntity
  8
0
  6
Continuous
 62
     7
370
    18
100
AcDbCircle
 10
182.2829709712
 20
91.756489908
 30
0.0
 40
0.5
100
AcDbArc
 50
270.0
 51
0.0
  0
ARC
  5
3C0
330
1F
100
AcDbEntity
  8
0
  6
Continuous
 62
     7
370
    18
100
AcDbCircle
 10
153.2829709712
 20
101.256489908
 30
0.0
 40
3.349999999983311
100
AcDbArc
 50
270.0
 51
90.0
  0
ARC
  5
3C1
330
1F
100
AcDbEntity
  8
0
  6
Continuous
 62
     7
370
    18
100
AcDbCircle
 10
153.2829709712
 20
101.256489908
 30
0.0
 40
3.349999999983311
100
AcDbArc
 50
90.0
 51
270.0
  0
ARC
  5
3C2
330
1F
100
AcDbEntity
  8
0
  6
Continuous
 62
     7
370
    18
100
AcDbCircle
 10
167.2829709712
 20
101.256489908
 30
0.0
 40
3.349999999983311
100
AcDbArc
 50
270.0
 51
90.0
  0
ARC
  5
3C3
330
1F
100
AcDbEntity
  8
0
  6
Continuous
 62
     7
370
    18
100
AcDbCircle
 10
167.2829709712
 20
101.256489908
 30
0.0
 40
3.349999999983311
100
AcDbArc
 50
90.0
 51
270.0
  0
ARC
  5
3C4
330
1F
100
AcDbEntity
  8
0
  6
Continuous
 62
     7
370
    18
100
AcDbCircle
 10
140.2829709712
 20
101.256489908
 30
0.0
 40
1.650000000000006
100
AcDbArc
 50
270.0
 51
90.0
  0
ARC
  5
3C5
330
1F
100
AcDbEntity
  8
0
  6
Continuous
 62
     7
370
    18
100
AcDbCircle
 10
140.2829709712
 20
101.256489908
 30
0.0
 40
1.650000000000006
100
AcDbArc
 50
90.0
 51
270.0
  0
ARC
  5
3C6
330
1F
100
AcDbEntity
  8
0
  6
Continuous
 62
     7
370
    18
100
AcDbCircle
 10
160.2829709712
 20
101.256489908
 30
0.0
 40
1.650000000000006
100
AcDbArc
 50
270.0
 51
90.0
  0
ARC
  5
3C7
330
1F
100
AcDbEntity
  8
0
  6
Continuous
 62
     7
370
    18
100
AcDbCircle
 10
160.2829709712
 20
101.256489908
 30
0.0
 40
1.650000000000006
100
AcDbArc
 50
90.0
 51
270.0
  0
LINE
  5
3C8
330
1F
100
AcDbEntity
  8
0
  6
Continuous
 62
     7
370
    18
100
AcDbLine
 10
171.7829709712
 20
91.256489908
 30
0.0
 11
121.2829709712
 21
91.256489908
 31
0.0
  0
LINE
  5
3C9
330
1F
100
AcDbEntity
  8
0
  6
Continuous
 62
     7
370
    18
100
AcDbLine
 10
121.2829709712
 20
91.256489908
 30
0.0
 11
121.2829709712
 21
111.256489908
 31
0.0
  0
LINE
  5
3CA
330
1F
100
AcDbEntity
  8
0
  6
Continuous
 62
     7
370
    18
100
AcDbLine
 10
121.2829709712
 20
111.256489908
 30
0.0
 11
171.7829709712
 21
111.256489908
 31
0.0
  0
LINE
  5
3CB
330
1F
100
AcDbEntity
  8
0
  6
Continuous
 62
     7
370
    18
100
AcDbLine
 10
171.7829709712
 20
111.256489908
 30
0.0
 11
173.7829709712
 21
109.256489908
 31
0.0
  0
LINE
  5
3CC
330
1F
100
AcDbEntity
  8
0
  6
Continuous
 62
     7
370
    18
100
AcDbLine
 10
173.7829709712
 20
109.256489908
 30
0.0
 11
173.7829709712
 21
93.256489908
 31
0.0
  0
LINE
  5
3CD
330
1F
100
AcDbEntity
  8
0
  6
Continuous
 62
     7
370
    18
100
AcDbLine
 10
173.7829709712
 20
93.256489908
 30
0.0
 11
171.7829709712
 21
91.256489908
 31
0.0
  0
LINE
  5
3CE
330
1F
100
AcDbEntity
  8
0
  6
Continuous
 62
     7
370
    18
100
AcDbLine
 10
171.7829709712
 20
91.256489908
 30
0.0
 11
175.7829709712
 21
91.256489908
 31
0.0
  0
LINE
  5
3CF
330
1F
100
AcDbEntity
  8
0
  6
Continuous
 62
     7
370
    18
100
AcDbLine
 10
175.7829709712
 20
91.256489908
 30
0.0
 11
175.7829709712
 21
92.256489908
 31
0.0
  0
LINE
  5
3D0
330
1F
100
AcDbEntity
  8
0
  6
Continuous
 62
     7
370
    18
100
AcDbLine
 10
175.7829709712
 20
110.256489908
 30
0.0
 11
175.7829709712
 21
92.256489908
 31
0.0
  0
LINE
  5
3D1
330
1F
100
AcDbEntity
  8
0
  6
Continuous
 62
     7
370
    18
100
AcDbLine
 10
175.7829709712
 20
111.256489908
 30
0.0
 11
171.7829709712
 21
111.256489908
 31
0.0
  0
LINE
  5
3D2
330
1F
100
AcDbEntity
  8
0
  6
Continuous
 62
     7
370
    18
100
AcDbLine
 10
175.7829709712
 20
110.256489908
 30
0.0
 11
175.7829709712
 21
111.256489908
 31
0.0
  0
LINE
  5
3D3
330
1F
100
AcDbEntity
  8
0
  6
Continuous
 62
     7
370
    18
100
AcDbLine
 10
117.6013531118
 20
104.256489908
 30
0.0
 11
117.6013531118
 21
100.4808239081
 31
0.0
  0
LINE
  5
3D4
330
1F
100
AcDbEntity
  8
0
  6
Continuous
 62
     7
370
    18
100
AcDbLine
 10
117.2373828775
 20
100.2222685748
 30
0.0
 11
117.6013531118
 21
100.4808239081
 31
0.0
  0
LINE
  5
3D5
330
1F
100
AcDbEntity
  8
0
  6
Continuous
 62
     7
370
    18
100
AcDbLine
 10
117.2373828775
 20
105.2564899079
 30
0.0
 11
117.2373828775
 21
100.2222685748
 31
0.0
  0
LINE
  5
3D6
330
1F
100
AcDbEntity
  8
0
  6
Continuous
 62
     7
370
    18
100
AcDbLine
 10
108.2829709712
 20
100.2222685748
 30
0.0
 11
117.2373828775
 21
100.2222685748
 31
0.0
  0
LINE
  5
3D7
330
1F
100
AcDbEntity
  8
0
  6
Continuous
 62
     7
370
    18
100
AcDbLine
 10
108.2829709712
 20
105.256489908
 30
0.0
 11
108.2829709712
 21
100.2222685748
 31
0.0
  0
ARC
  5
3D8
330
1F
100
AcDbEntity
  8
0
  6
Continuous
 62
     7
370
    18
100
AcDbCircle
 10
106.5663273287
 20
100.8156100995
 30
0.0
 40
0.5920184707976787
100
AcDbArc
 50
229.6435247753
 51
281.363161575
  0
SPLINE
  5
3D9
330
1F
100
AcDbEntity
  8
0
  6
Continuous
 62
     7
370
    18
100
AcDbSpline
210
0.0
220
0.0
230
1.0
 70
    24
 71
     3
 72
    18
 73
    14
 74
     0
 42
0.00000001
 43
0.00000001
 40
0.0
 40
0.0
 40
0.0
 40
0.0
 40
0.039893453440227
 40
0.1427119854162993
 40
0.245614512046557
 40
0.3484330213750811
 40
0.4045454591795584
 40
0.4600466033927792
 40
0.5714293720706208
 40
0.6828969660452939
 40
0.7942796965232956
 40
0.8971605777154206
 40
1.0
 40
1.0
 40
1.0
 40
1.0
 10
106.1829709711968
 20
104.692280255091
 30
0.0
 10
106.1829709711968
 20
104.6960890733221
 30
0.0
 10
106.1829709711968
 20
104.7097144670891
 30
0.0
 10
106.1829709711967
 20
104.6035148388531
 30
0.0
 10
106.1829709711968
 20
104.3838077535263
 30
0.0
 10
106.1829709711968
 20
104.093867129681
 30
0.0
 10
106.1829709711968
 20
103.8070625445309
 30
0.0
 10
106.1829709711968
 20
103.4729922928245
 30
0.0
 10
106.1829709711968
 20
102.993814023357
 30
0.0
 10
106.1829709711968
 20
102.3484648455686
 30
0.0
 10
106.1829709711968
 20
101.6744737086415
 30
0.0
 10
106.1829709711968
 20
101.0017234038471
 30
0.0
 10
106.1829709711968
 20
100.5768619325328
 30
0.0
 10
106.1829709711968
 20
100.3644740081397
 30
0.0
  0
LINE
  5
3DA
330
1F
100
AcDbEntity
  8
0
  6
Continuous
 62
     7
370
    18
100
AcDbLine
 10
107.6829709712
 20
105.206489908
 30
0.0
 11
107.6829709712
 21
100.2351963415
 31
0.0
  0
LINE
  5
3DB
330
1F
100
AcDbEntity
  8
0
  6
Continuous
 62
     7
370
    18
100
AcDbLine
 10
106.6829709712
 20
100.2351963415
 30
0.0
 11
107.6829709712
 21
100.2351963415
 31
0.0
  0
LINE
  5
3DC
330
1F
100
AcDbEntity
  8
0
  6
Continuous
 62
     7
370
    18
100
AcDbLine
 10
117.2373828775
 20
100.2222685748
 30
0.0
 11
117.2373828775
 21
97.2564899081
 31
0.0
  0
LINE
  5
3DD
330
1F
100
AcDbEntity
  8
0
  6
Continuous
 62
     7
370
    18
100
AcDbLine
 10
108.2829709712
 20
100.2222685748
 30
0.0
 11
108.2829709712
 21
97.256489908
 31
0.0
  0
LINE
  5
3DE
330
1F
100
AcDbEntity
  8
0
  6
Continuous
 62
     7
370
    18
100
AcDbLine
 10
117.6013531118
 20
100.4808239081
 30
0.0
 11
117.6013531118
 21
98.256489908
 31
0.0
  0
SPLINE
  5
3DF
330
1F
100
AcDbEntity
  8
0
  6
Continuous
 62
     7
370
    18
100
AcDbSpline
210
0.0
220
0.0
230
1.0
 70
    24
 71
     3
 72
    15
 73
    11
 74
     0
 42
0.00000001
 43
0.00000001
 40
0.0
 40
0.0
 40
0.0
 40
0.0
 40
0.1439754391386609
 40
0.2878929001946715
 40
0.3664182269471992
 40
0.4440880922214746
 40
0.5999602775561705
 40
0.755951169801314
 40
0.9118233016782867
 40
1.0
 40
1.0
 40
1.0
 40
1.0
 10
106.1829709711968
 20
100.3644740081397
 30
0.0
 10
106.1829709711968
 20
100.1579647570511
 30
0.0
 10
106.1829709711968
 20
99.7450294149635
 30
0.0
 10
106.1829709711968
 20
99.27302640460475
 30
0.0
 10
106.1829709711968
 20
98.92371998415034
 30
0.0
 10
106.1829709711968
 20
98.5932382086058
 30
0.0
 10
106.1829709711968
 20
98.24780707100832
 30
0.0
 10
106.1829709711968
 20
97.96067428501023
 30
0.0
 10
106.1829709711968
 20
97.81683689096921
 30
0.0
 10
106.1829709711968
 20
97.81967436130854
 30
0.0
 10
106.1829709711968
 20
97.82069956092086
 30
0.0
  0
LINE
  5
3E0
330
1F
100
AcDbEntity
  8
0
  6
Continuous
 62
     7
370
    18
100
AcDbLine
 10
107.6829709712
 20
100.2351963415
 30
0.0
 11
107.6829709712
 21
97.306489908
 31
0.0
  0
LINE
  5
3E1
330
1F
100
AcDbEntity
  8
0
  6
Continuous
 62
     7
370
    18
100
AcDbLine
 10
120.7829709712
 20
104.6374774798
 30
0.0
 11
120.7829709712
 21
97.756489908
 31
0.0
  0
LINE
  5
3E2
330
1F
100
AcDbEntity
  8
0
  6
Continuous
 62
     7
370
    18
100
AcDbLine
 10
121.2829709712
 20
104.6374774798
 30
0.0
 11
120.7829709712
 21
104.6374774798
 31
0.0
  0
LINE
  5
3E3
330
1F
100
AcDbEntity
  8
0
  6
Continuous
 62
     7
370
    18
100
AcDbLine
 10
119.7829709712
 20
104.256489908
 30
0.0
 11
119.7829709712
 21
100.4808239081
 31
0.0
  0
LINE
  5
3E4
330
1F
100
AcDbEntity
  8
0
  6
Continuous
 62
     7
370
    18
100
AcDbLine
 10
117.6013531118
 20
100.4808239081
 30
0.0
 11
119.7829709712
 21
100.4808239081
 31
0.0
  0
LINE
  5
3E5
330
1F
100
AcDbEntity
  8
0
  6
Continuous
 62
     7
370
    18
100
AcDbLine
 10
119.7829709712
 20
100.4808239081
 30
0.0
 11
119.7829709712
 21
98.256489908
 31
0.0
  0
LINE
  5
3E6
330
1F
100
AcDbEntity
  8
0
  6
Continuous
 62
     7
370
    18
100
AcDbLine
 10
120.2829709712
 20
100.5454627414
 30
0.0
 11
119.7829709712
 21
100.5454627414
 31
0.0
  0
LINE
  5
3E7
330
1F
100
AcDbEntity
  8
0
  6
Continuous
 62
     7
370
    18
100
AcDbLine
 10
120.2829709712
 20
100.5454627414
 30
0.0
 11
120.2829709712
 21
104.006489908
 31
0.0
  0
LINE
  5
3E8
330
1F
100
AcDbEntity
  8
0
  6
Continuous
 62
     7
370
    18
100
AcDbLine
 10
120.2829709712
 20
98.506489908
 30
0.0
 11
120.2829709712
 21
100.5454627414
 31
0.0
  0
LINE
  5
3E9
330
1F
100
AcDbEntity
  8
0
  6
Continuous
 62
     7
370
    18
100
AcDbLine
 10
120.7829709712
 20
100.6101015748
 30
0.0
 11
120.2829709712
 21
100.6101015748
 31
0.0
  0
LINE
  5
3EA
330
1F
100
AcDbEntity
  8
0
  6
Continuous
 62
     7
370
    18
100
AcDbLine
 10
108.2829709712
 20
100.6876681748
 30
0.0
 11
107.6829709712
 21
100.6876681748
 31
0.0
  0
LINE
  5
3EB
330
1F
100
AcDbEntity
  8
0
  6
Continuous
 62
     7
370
    18
100
AcDbLine
 10
120.7829709712
 20
104.756489908
 30
0.0
 11
120.7829709712
 21
104.6374774798
 31
0.0
  0
SPLINE
  5
3EC
330
1F
100
AcDbEntity
  8
0
  6
Continuous
 62
     7
370
    18
100
AcDbSpline
210
0.0
220
0.0
230
1.0
 70
    24
 71
     3
 72
     9
 73
     5
 74
     0
 42
0.00000001
 43
0.00000001
 40
0.0
 40
0.0
 40
0.0
 40
0.0
 40
0.6945056121371417
 40
0.9999999999999999
 40
0.9999999999999999
 40
0.9999999999999999
 40
0.9999999999999999
 10
119.4829709711968
 20
104.6096803610205
 30
0.0
 10
119.4829709711968
 20
104.5523613986647
 30
0.0
 10
119.4829709711968
 20
104.469829362416
 30
0.0
 10
119.4829709711968
 20
104.3064127622425
 30
0.0
 10
119.4829709711968
 20
104.2564899080059
 30
0.0
  0
SPLINE
  5
3ED
330
1F
100
AcDbEntity
  8
0
  6
Continuous
 62
     7
370
    18
100
AcDbSpline
210
0.0
220
0.0
230
1.0
 70
    24
 71
     3
 72
    10
 73
     6
 74
     0
 42
0.00000001
 43
0.00000001
 40
0.0
 40
0.0
 40
0.0
 40
0.0
 40
0.3273727019327511
 40
0.7268606508213014
 40
1.0
 40
1.0
 40
1.0
 40
1.0
 10
119.4829709711968
 20
98.2564899080059
 30
0.0
 10
119.4829709711968
 20
98.16704087876451
 30
0.0
 10
119.4829709711967
 20
97.96843855417886
 30
0.0
 10
119.4829709711968
 20
97.82638380228173
 30
0.0
 10
119.4829709711967
 20
97.82033226676943
 30
0.0
 10
119.4829709711968
 20
97.81787486952119
 30
0.0
  0
ARC
  5
3EE
330
1F
100
AcDbEntity
  8
0
  6
Continuous
 62
     7
370
    18
100
AcDbCircle
 10
119.9760542123
 20
104.6025639092
 30
0.0
 40
0.4931345926880137
100
AcDbArc
 50
89.1963368701
 51
179.1731328229
  0
LINE
  5
3EF
330
1F
100
AcDbEntity
  8
0
  6
Continuous
 62
     7
370
    18
100
AcDbLine
 10
120.9829709712
 20
105.0956499919
 30
0.0
 11
120.9829709712
 21
104.756489908
 31
0.0
  0
LINE
  5
3F0
330
1F
100
AcDbEntity
  8
0
  6
Continuous
 62
     7
370
    18
100
AcDbLine
 10
120.9829709712
 20
97.756489908
 30
0.0
 11
120.9829709712
 21
97.306489908
 31
0.0
  0
LINE
  5
3F1
330
1F
100
AcDbEntity
  8
0
  6
Continuous
 62
     7
370
    18
100
AcDbLine
 10
120.9829709712
 20
105.0956499919
 30
0.0
 11
119.9829709712
 21
105.0956499919
 31
0.0
  0
LINE
  5
3F2
330
1F
100
AcDbEntity
  8
0
  6
Continuous
 62
     7
370
    18
100
AcDbLine
 10
120.9829709712
 20
105.206489908
 30
0.0
 11
120.9829709712
 21
105.0956499919
 31
0.0
  0
LINE
  5
3F3
330
1F
100
AcDbEntity
  8
0
  6
Continuous
 62
     7
370
    18
100
AcDbLine
 10
152.1282704328
 20
101.256489908
 30
0.0
 11
152.705620702
 21
102.256489908
 31
0.0
  0
LINE
  5
3F4
330
1F
100
AcDbEntity
  8
0
  6
Continuous
 62
     7
370
    18
100
AcDbLine
 10
152.705620702
 20
100.256489908
 30
0.0
 11
152.1282704328
 21
101.256489908
 31
0.0
  0
LINE
  5
3F5
330
1F
100
AcDbEntity
  8
0
  6
Continuous
 62
     7
370
    18
100
AcDbLine
 10
153.8603212404
 20
100.256489908
 30
0.0
 11
152.705620702
 21
100.256489908
 31
0.0
  0
LINE
  5
3F6
330
1F
100
AcDbEntity
  8
0
  6
Continuous
 62
     7
370
    18
100
AcDbLine
 10
154.4376715096
 20
101.256489908
 30
0.0
 11
153.8603212404
 21
100.256489908
 31
0.0
  0
LINE
  5
3F7
330
1F
100
AcDbEntity
  8
0
  6
Continuous
 62
     7
370
    18
100
AcDbLine
 10
153.8603212404
 20
102.256489908
 30
0.0
 11
154.4376715096
 21
101.256489908
 31
0.0
  0
LINE
  5
3F8
330
1F
100
AcDbEntity
  8
0
  6
Continuous
 62
     7
370
    18
100
AcDbLine
 10
152.705620702
 20
102.256489908
 30
0.0
 11
153.8603212404
 21
102.256489908
 31
0.0
  0
ARC
  5
3F9
330
1F
100
AcDbEntity
  8
0
  6
Continuous
 62
     7
370
    18
100
AcDbCircle
 10
153.2829709712
 20
101.256489908
 30
0.0
 40
3.0
100
AcDbArc
 50
0.0
 51
180.0
  0
ARC
  5
3FA
330
1F
100
AcDbEntity
  8
0
  6
Continuous
 62
     7
370
    18
100
AcDbCircle
 10
153.2829709712
 20
101.256489908
 30
0.0
 40
3.0
100
AcDbArc
 50
180.0
 51
0.0
  0
SPLINE
  5
3FB
330
1F
100
AcDbEntity
  8
0
  6
Continuous
 62
     7
370
    18
100
AcDbSpline
210
0.0
220
0.0
230
1.0
 70
    24
 71
     3
 72
     8
 73
     4
 74
     0
 42
0.00000001
 43
0.00000001
 40
0.0
 40
0.0
 40
0.0
 40
0.0
 40
1.0
 40
1.0
 40
1.0
 40
1.0
 10
153.8603212403846
 20
100.2564899080065
 30
0.0
 10
153.8410762314116
 20
100.2898232413398
 30
0.0
 10
153.6486261416817
 20
100.6231565746731
 30
0.0
 10
153.2829709711949
 20
101.2564899080065
 30
0.0
  0
SPLINE
  5
3FC
330
1F
100
AcDbEntity
  8
0
  6
Continuous
 62
     7
370
    18
100
AcDbSpline
210
0.0
220
0.0
230
1.0
 70
    24
 71
     3
 72
     8
 73
     4
 74
     0
 42
0.00000001
 43
0.00000001
 40
0.0
 40
0.0
 40
0.0
 40
0.0
 40
1.0
 40
1.0
 40
1.0
 40
1.0
 10
154.4376715095742
 20
101.2564899080065
 30
0.0
 10
154.3991814916282
 20
101.2564899080065
 30
0.0
 10
154.0142813121685
 20
101.2564899080065
 30
0.0
 10
153.2829709711949
 20
101.2564899080065
 30
0.0
  0
SPLINE
  5
3FD
330
1F
100
AcDbEntity
  8
0
  6
Continuous
 62
     7
370
    18
100
AcDbSpline
210
0.0
220
0.0
230
1.0
 70
    24
 71
     3
 72
     8
 73
     4
 74
     0
 42
0.00000001
 43
0.00000001
 40
0.0
 40
0.0
 40
0.0
 40
0.0
 40
1.0
 40
1.0
 40
1.0
 40
1.0
 10
152.7056207020053
 20
100.2564899080065
 30
0.0
 10
152.7248657109783
 20
100.2898232413398
 30
0.0
 10
152.9173158007082
 20
100.6231565746731
 30
0.0
 10
153.2829709711949
 20
101.2564899080065
 30
0.0
  0
SPLINE
  5
3FE
330
1F
100
AcDbEntity
  8
0
  6
Continuous
 62
     7
370
    18
100
AcDbSpline
210
0.0
220
0.0
230
1.0
 70
    24
 71
     3
 72
     8
 73
     4
 74
     0
 42
0.00000001
 43
0.00000001
 40
0.0
 40
0.0
 40
0.0
 40
0.0
 40
1.0
 40
1.0
 40
1.0
 40
1.0
 10
153.8603212403846
 20
102.2564899080065
 30
0.0
 10
153.8410762314116
 20
102.2231565746731
 30
0.0
 10
153.6486261416817
 20
101.8898232413398
 30
0.0
 10
153.2829709711949
 20
101.2564899080065
 30
0.0
  0
SPLINE
  5
3FF
330
1F
100
AcDbEntity
  8
0
  6
Continuous
 62
     7
370
    18
100
AcDbSpline
210
0.0
220
0.0
230
1.0
 70
    24
 71
     3
 72
     8
 73
     4
 74
     0
 42
0.00000001
 43
0.00000001
 40
0.0
 40
0.0
 40
0.0
 40
0.0
 40
1.0
 40
1.0
 40
1.0
 40
1.0
 10
152.7056207020053
 20
102.2564899080065
 30
0.0
 10
152.7248657109783
 20
102.2231565746731
 30
0.0
 10
152.9173158007082
 20
101.8898232413398
 30
0.0
 10
153.2829709711949
 20
101.2564899080065
 30
0.0
  0
SPLINE
  5
400
330
1F
100
AcDbEntity
  8
0
  6
Continuous
 62
     7
370
    18
100
AcDbSpline
210
0.0
220
0.0
230
1.0
 70
    24
 71
     3
 72
     8
 73
     4
 74
     0
 42
0.00000001
 43
0.00000001
 40
0.0
 40
0.0
 40
0.0
 40
0.0
 40
1.0
 40
1.0
 40
1.0
 40
1.0
 10
152.1282704328157
 20
101.2564899080065
 30
0.0
 10
152.1667604507617
 20
101.2564899080065
 30
0.0
 10
152.5516606302214
 20
101.2564899080065
 30
0.0
 10
153.2829709711949
 20
101.2564899080065
 30
0.0
  0
LINE
  5
401
330
1F
100
AcDbEntity
  8
0
  6
Continuous
 62
     7
370
    18
100
AcDbLine
 10
115.4449177217
 20
110.256489908
 30
0.0
 11
115.4449177217
 21
107.7690498633
 31
0.0
  0
LINE
  5
402
330
1F
100
AcDbEntity
  8
0
  6
Continuous
 62
     7
370
    18
100
AcDbLine
 10
115.2829709712
 20
107.9537011517
 30
0.0
 11
115.4449177217
 21
107.7690498633
 31
0.0
  0
LINE
  5
403
330
1F
100
AcDbEntity
  8
0
  6
Continuous
 62
     7
370
    18
100
AcDbLine
 10
115.2829709711
 20
109.9759899079
 30
0.0
 11
115.2829709712
 21
107.9537011517
 31
0.0
  0
LINE
  5
404
330
1F
100
AcDbEntity
  8
0
  6
Continuous
 62
     7
370
    18
100
AcDbLine
 10
115.4449177217
 20
107.7690498633
 30
0.0
 11
115.4449177217
 21
107.256489908
 31
0.0
  0
LINE
  5
405
330
1F
100
AcDbEntity
  8
0
  6
Continuous
 62
     7
370
    18
100
AcDbLine
 10
115.2829709712
 20
107.9537011517
 30
0.0
 11
115.2829709712
 21
107.536989908
 31
0.0
  0
SPLINE
  5
406
330
1F
100
AcDbEntity
  8
0
  6
Continuous
 62
     7
370
    18
100
AcDbSpline
210
0.0
220
0.0
230
1.0
 70
     8
 71
     3
 72
     8
 73
     4
 74
     0
 42
0.00000001
 43
0.00000001
 40
0.0
 40
0.0
 40
0.0
 40
0.0
 40
1.0
 40
1.0
 40
1.0
 40
1.0
 10
119.1285910355665
 20
106.0064899941627
 30
0.0
 10
118.9788443738743
 20
106.4557300003831
 30
0.0
 10
118.882970971241
 20
106.9121876543407
 30
0.0
 10
118.882970971241
 20
107.3814899080059
 30
0.0
  0
SPLINE
  5
407
330
1F
100
AcDbEntity
  8
0
  6
Continuous
 62
     7
370
    18
100
AcDbSpline
210
0.0
220
0.0
230
1.0
 70
     8
 71
     3
 72
     8
 73
     4
 74
     0
 42
0.00000001
 43
0.00000001
 40
0.0
 40
0.0
 40
0.0
 40
0.0
 40
1.0
 40
1.0
 40
1.0
 40
1.0
 10
118.882970971241
 20
107.3814899080059
 30
0.0
 10
118.882970971241
 20
107.8507921616854
 30
0.0
 10
118.9788443738802
 20
108.3072498156562
 30
0.0
 10
119.12859103558
 20
108.7564898218894
 30
0.0
  0
LINE
  5
408
330
1F
100
AcDbEntity
  8
0
  6
Continuous
 62
     7
370
    18
100
AcDbLine
 10
119.1285910739
 20
108.7564898792
 30
0.0
 11
121.2829709712
 21
108.756489908
 31
0.0
  0
LINE
  5
409
330
1F
100
AcDbEntity
  8
0
  6
Continuous
 62
     7
370
    18
100
AcDbLine
 10
121.2829709712
 20
106.006489908
 30
0.0
 11
119.1285910499
 21
106.0064899511
 31
0.0
  0
SPLINE
  5
40A
330
1F
100
AcDbEntity
  8
0
  6
Continuous
 62
     7
370
    18
100
AcDbSpline
210
0.0
220
0.0
230
1.0
 70
     8
 71
     3
 72
     8
 73
     4
 74
     0
 42
0.00000001
 43
0.00000001
 40
0.0
 40
0.0
 40
0.0
 40
0.0
 40
1.0
 40
1.0
 40
1.0
 40
1.0
 10
119.1285911061824
 20
108.7564898372198
 30
0.0
 10
118.978844419983
 20
109.2057298785043
 30
0.0
 10
118.882970971241
 20
109.6621876122417
 30
0.0
 10
118.882970971241
 20
110.1314899080058
 30
0.0
  0
SPLINE
  5
40B
330
1F
100
AcDbEntity
  8
0
  6
Continuous
 62
     7
370
    18
100
AcDbSpline
210
0.0
220
0.0
230
1.0
 70
     8
 71
     3
 72
     8
 73
     4
 74
     0
 42
0.00000001
 43
0.00000001
 40
0.0
 40
0.0
 40
0.0
 40
0.0
 40
1.0
 40
1.0
 40
1.0
 40
1.0
 10
118.882970971241
 20
110.1314899080058
 30
0.0
 10
118.882970971241
 20
110.6007921656269
 30
0.0
 10
118.9788443754991
 20
111.0572498232327
 30
0.0
 10
119.1285910392797
 20
111.5064898329884
 30
0.0
  0
LINE
  5
40C
330
1F
100
AcDbEntity
  8
0
  6
Continuous
 62
     7
370
    18
100
AcDbLine
 10
121.2829709712
 20
111.506489908
 30
0.0
 11
119.1285910566
 21
111.5064898705
 31
0.0
  0
LINE
  5
40D
330
1F
100
AcDbEntity
  8
0
  6
Continuous
 62
     7
370
    18
100
AcDbLine
 10
121.2829709712
 20
111.506489908
 30
0.0
 11
121.2829709712
 21
111.256489908
 31
0.0
  0
LINE
  5
40E
330
1F
100
AcDbEntity
  8
0
  6
Continuous
 62
     7
370
    18
100
AcDbLine
 10
118.8829709712
 20
110.131489908
 30
0.0
 11
118.8829709712
 21
107.381489908
 31
0.0
  0
SPLINE
  5
40F
330
1F
100
AcDbEntity
  8
0
  6
Continuous
 62
     7
370
    18
100
AcDbSpline
210
0.0
220
0.0
230
1.0
 70
    24
 71
     3
 72
     8
 73
     4
 74
     0
 42
0.00000001
 43
0.00000001
 40
0.0
 40
0.0
 40
0.0
 40
0.0
 40
1.0
 40
1.0
 40
1.0
 40
1.0
 10
118.8829709712358
 20
111.5064899080149
 30
0.0
 10
118.8829709712358
 20
111.5064899080149
 30
0.0
 10
118.9788443898198
 20
111.5064899080059
 30
0.0
 10
119.1285910720063
 20
111.5064899080059
 30
0.0
  0
LINE
  5
410
330
1F
100
AcDbEntity
  8
0
  6
Continuous
 62
     7
370
    18
100
AcDbLine
 10
118.8829709712
 20
111.506489908
 30
0.0
 11
118.8829709712
 21
110.131489908
 31
0.0
  0
SPLINE
  5
411
330
1F
100
AcDbEntity
  8
0
  6
Continuous
 62
     7
370
    18
100
AcDbSpline
210
0.0
220
0.0
230
1.0
 70
    24
 71
     3
 72
     8
 73
     4
 74
     0
 42
0.00000001
 43
0.00000001
 40
0.0
 40
0.0
 40
0.0
 40
0.0
 40
1.0
 40
1.0
 40
1.0
 40
1.0
 10
118.882970971241
 20
106.0064899080058
 30
0.0
 10
118.882970971241
 20
106.0064899080058
 30
0.0
 10
118.9788443977318
 20
106.0064899080058
 30
0.0
 10
119.1285910816374
 20
106.0064899080058
 30
0.0
  0
LINE
  5
412
330
1F
100
AcDbEntity
  8
0
  6
Continuous
 62
     7
370
    18
100
AcDbLine
 10
118.8829709712
 20
107.381489908
 30
0.0
 11
118.8829709712
 21
106.006489908
 31
0.0
  0
LINE
  5
413
330
1F
100
AcDbEntity
  8
0
  6
Continuous
 62
     7
370
    18
100
AcDbLine
 10
166.1282704328
 20
101.256489908
 30
0.0
 11
166.705620702
 21
102.256489908
 31
0.0
  0
LINE
  5
414
330
1F
100
AcDbEntity
  8
0
  6
Continuous
 62
     7
370
    18
100
AcDbLine
 10
166.705620702
 20
100.256489908
 30
0.0
 11
166.1282704328
 21
101.256489908
 31
0.0
  0
LINE
  5
415
330
1F
100
AcDbEntity
  8
0
  6
Continuous
 62
     7
370
    18
100
AcDbLine
 10
167.8603212404
 20
100.256489908
 30
0.0
 11
166.705620702
 21
100.256489908
 31
0.0
  0
LINE
  5
416
330
1F
100
AcDbEntity
  8
0
  6
Continuous
 62
     7
370
    18
100
AcDbLine
 10
168.4376715096
 20
101.256489908
 30
0.0
 11
167.8603212404
 21
100.256489908
 31
0.0
  0
LINE
  5
417
330
1F
100
AcDbEntity
  8
0
  6
Continuous
 62
     7
370
    18
100
AcDbLine
 10
167.8603212404
 20
102.256489908
 30
0.0
 11
168.4376715096
 21
101.256489908
 31
0.0
  0
LINE
  5
418
330
1F
100
AcDbEntity
  8
0
  6
Continuous
 62
     7
370
    18
100
AcDbLine
 10
166.705620702
 20
102.256489908
 30
0.0
 11
167.8603212404
 21
102.256489908
 31
0.0
  0
ARC
  5
419
330
1F
100
AcDbEntity
  8
0
  6
Continuous
 62
     7
370
    18
100
AcDbCircle
 10
167.2829709712
 20
101.256489908
 30
0.0
 40
3.0
100
AcDbArc
 50
0.0
 51
180.0
  0
ARC
  5
41A
330
1F
100
AcDbEntity
  8
0
  6
Continuous
 62
     7
370
    18
100
AcDbCircle
 10
167.2829709712
 20
101.256489908
 30
0.0
 40
3.0
100
AcDbArc
 50
180.0
 51
0.0
  0
SPLINE
  5
41B
330
1F
100
AcDbEntity
  8
0
  6
Continuous
 62
     7
370
    18
100
AcDbSpline
210
0.0
220
0.0
230
1.0
 70
    24
 71
     3
 72
     8
 73
     4
 74
     0
 42
0.00000001
 43
0.00000001
 40
0.0
 40
0.0
 40
0.0
 40
0.0
 40
1.0
 40
1.0
 40
1.0
 40
1.0
 10
167.8603212403846
 20
100.2564899080062
 30
0.0
 10
167.8410762314116
 20
100.2898232413395
 30
0.0
 10
167.6486261416817
 20
100.6231565746729
 30
0.0
 10
167.2829709711949
 20
101.2564899080062
 30
0.0
  0
SPLINE
  5
41C
330
1F
100
AcDbEntity
  8
0
  6
Continuous
 62
     7
370
    18
100
AcDbSpline
210
0.0
220
0.0
230
1.0
 70
    24
 71
     3
 72
     8
 73
     4
 74
     0
 42
0.00000001
 43
0.00000001
 40
0.0
 40
0.0
 40
0.0
 40
0.0
 40
1.0
 40
1.0
 40
1.0
 40
1.0
 10
168.4376715095742
 20
101.2564899080062
 30
0.0
 10
168.3991814916282
 20
101.2564899080062
 30
0.0
 10
168.0142813121684
 20
101.2564899080062
 30
0.0
 10
167.2829709711949
 20
101.2564899080062
 30
0.0
  0
SPLINE
  5
41D
330
1F
100
AcDbEntity
  8
0
  6
Continuous
 62
     7
370
    18
100
AcDbSpline
210
0.0
220
0.0
230
1.0
 70
    24
 71
     3
 72
     8
 73
     4
 74
     0
 42
0.00000001
 43
0.00000001
 40
0.0
 40
0.0
 40
0.0
 40
0.0
 40
1.0
 40
1.0
 40
1.0
 40
1.0
 10
166.7056207020053
 20
100.2564899080062
 30
0.0
 10
166.7248657109783
 20
100.2898232413395
 30
0.0
 10
166.9173158007082
 20
100.6231565746729
 30
0.0
 10
167.2829709711949
 20
101.2564899080062
 30
0.0
  0
SPLINE
  5
41E
330
1F
100
AcDbEntity
  8
0
  6
Continuous
 62
     7
370
    18
100
AcDbSpline
210
0.0
220
0.0
230
1.0
 70
    24
 71
     3
 72
     8
 73
     4
 74
     0
 42
0.00000001
 43
0.00000001
 40
0.0
 40
0.0
 40
0.0
 40
0.0
 40
1.0
 40
1.0
 40
1.0
 40
1.0
 10
167.8603212403846
 20
102.2564899080062
 30
0.0
 10
167.8410762314116
 20
102.2231565746729
 30
0.0
 10
167.6486261416817
 20
101.8898232413395
 30
0.0
 10
167.2829709711949
 20
101.2564899080062
 30
0.0
  0
SPLINE
  5
41F
330
1F
100
AcDbEntity
  8
0
  6
Continuous
 62
     7
370
    18
100
AcDbSpline
210
0.0
220
0.0
230
1.0
 70
    24
 71
     3
 72
     8
 73
     4
 74
     0
 42
0.00000001
 43
0.00000001
 40
0.0
 40
0.0
 40
0.0
 40
0.0
 40
1.0
 40
1.0
 40
1.0
 40
1.0
 10
166.7056207020053
 20
102.2564899080062
 30
0.0
 10
166.7248657109783
 20
102.2231565746729
 30
0.0
 10
166.9173158007082
 20
101.8898232413395
 30
0.0
 10
167.2829709711949
 20
101.2564899080062
 30
0.0
  0
SPLINE
  5
420
330
1F
100
AcDbEntity
  8
0
  6
Continuous
 62
     7
370
    18
100
AcDbSpline
210
0.0
220
0.0
230
1.0
 70
    24
 71
     3
 72
     8
 73
     4
 74
     0
 42
0.00000001
 43
0.00000001
 40
0.0
 40
0.0
 40
0.0
 40
0.0
 40
1.0
 40
1.0
 40
1.0
 40
1.0
 10
166.1282704328157
 20
101.2564899080062
 30
0.0
 10
166.1667604507616
 20
101.2564899080062
 30
0.0
 10
166.5516606302214
 20
101.2564899080062
 30
0.0
 10
167.2829709711949
 20
101.2564899080062
 30
0.0
  0
LINE
  5
421
330
1F
100
AcDbEntity
  8
0
  6
Continuous
 62
     8
370
    18
100
AcDbLine
 10
179.3579709712
 20
92.3220817057
 30
0.0
 11
179.3579709712
 21
96.506489908
 31
0.0
  0
LINE
  5
422
330
1F
100
AcDbEntity
  8
0
  6
Continuous
 62
     8
370
    18
100
AcDbLine
 10
179.3579709712
 20
107.0265727047
 30
0.0
 11
179.3579709712
 21
110.506489908
 31
0.0
  0
LINE
  5
423
330
1F
100
AcDbEntity
  8
0
  6
Continuous
 62
     8
370
    18
100
AcDbLine
 10
179.3579709712
 20
106.006489908
 30
0.0
 11
179.3579709712
 21
107.0265727047
 31
0.0
  0
LINE
  5
424
330
1F
100
AcDbEntity
  8
0
  6
Continuous
 62
     8
370
    18
100
AcDbLine
 10
179.3579709712
 20
92.006489908
 30
0.0
 11
179.3579709712
 21
92.3220817057
 31
0.0
  0
LINE
  5
425
330
1F
100
AcDbEntity
  8
0
  6
Continuous
 62
     8
370
    18
100
AcDbLine
 10
153.2829709712
 20
97.906489908
 30
0.0
 11
153.2829709712
 21
98.2564899079
 31
0.0
  0
LINE
  5
426
330
1F
100
AcDbEntity
  8
0
  6
Continuous
 62
     8
370
    18
100
AcDbLine
 10
153.2829709712
 20
104.256489908
 30
0.0
 11
153.2829709712
 21
104.606489908
 31
0.0
  0
LINE
  5
427
330
1F
100
AcDbEntity
  8
0
  6
Continuous
 62
     8
370
    18
100
AcDbLine
 10
167.2829709712
 20
97.906489908
 30
0.0
 11
167.2829709712
 21
98.2564899079
 31
0.0
  0
LINE
  5
428
330
1F
100
AcDbEntity
  8
0
  6
Continuous
 62
     8
370
    18
100
AcDbLine
 10
167.2829709712
 20
104.256489908
 30
0.0
 11
167.2829709712
 21
104.606489908
 31
0.0
  0
LINE
  5
429
330
1F
100
AcDbEntity
  8
0
  6
Continuous
 62
     8
370
    18
100
AcDbLine
 10
175.7829709712
 20
92.256489908
 30
0.0
 11
172.7829709712
 21
92.256489908
 31
0.0
  0
LINE
  5
42A
330
1F
100
AcDbEntity
  8
0
  6
Continuous
 62
     8
370
    18
100
AcDbLine
 10
172.7829709712
 20
110.256489908
 30
0.0
 11
175.7829709712
 21
110.256489908
 31
0.0
  0
LINE
  5
42B
330
1F
100
AcDbEntity
  8
0
  6
Continuous
 62
     8
370
    18
100
AcDbLine
 10
106.6829709712
 20
105.206489908
 30
0.0
 11
106.6829709712
 21
100.2351963415
 31
0.0
  0
LINE
  5
42C
330
1F
100
AcDbEntity
  8
0
  6
Continuous
 62
     8
370
    18
100
AcDbLine
 10
106.6829709712
 20
100.2351963415
 30
0.0
 11
106.6829709712
 21
97.306489908
 31
0.0
  0
LINE
  5
42D
330
1F
100
AcDbEntity
  8
0
  6
Continuous
 62
     8
370
    18
100
AcDbLine
 10
119.9829709712
 20
105.0956499919
 30
0.0
 11
119.9829709712
 21
104.006489908
 31
0.0
  0
LINE
  5
42E
330
1F
100
AcDbEntity
  8
0
  6
Continuous
 62
     8
370
    18
100
AcDbLine
 10
119.9829709712
 20
98.506489908
 30
0.0
 11
119.9829709712
 21
97.306489908
 31
0.0
  0
LINE
  5
42F
330
1F
100
AcDbEntity
  8
0
  6
Continuous
 62
     8
370
    18
100
AcDbLine
 10
119.9829709712
 20
105.206489908
 30
0.0
 11
119.9829709712
 21
105.0956499919
 31
0.0
  0
LINE
  5
430
330
1F
100
AcDbEntity
  8
0
  6
Continuous
 62
     8
370
    18
100
AcDbLine
 10
115.4449177217
 20
107.7690498633
 30
0.0
 11
118.8829709712
 21
107.7690498633
 31
0.0
  0
DIMENSION
  5
431
330
1F
100
AcDbEntity
  8
0
  6
Continuous
 62
     7
370
    18
100
AcDbDimension
  2
_D_18
 10
139.1162447822
 20
100.089763719
 30
0.0
 11
168.3418842384
 21
118.5622792515
 31
0.0
 70
   163
  1
2-M4 取付用
 71
     1
 42
-1.0
  3
SLDDIMSTYLE6
100
AcDbDiametricDimension
 15
141.4496971602
 25
102.423216097
 35
0.0
 40
0.0
  0
DIMENSION
  5
43A
330
1F
100
AcDbEntity
  8
0
  6
Continuous
 62
     7
370
    18
100
AcDbDimension
  2
_D_19
 10
160.2829709712
 20
82.1511147942
 30
0.0
 11
171.5329709712
 21
82.1511147942
 31
0.0
 70
   160
  1
<>
 71
     2
 42
-1.0
  3
SLDDIMSTYLE2
100
AcDbAlignedDimension
 13
182.7829709712
 23
91.756489908
 33
0.0
 14
160.2829709712
 24
97.106489908
 34
0.0
100
AcDbRotatedDimension
  0
DIMENSION
  5
444
330
1F
100
AcDbEntity
  8
0
  6
Continuous
 62
     7
370
    18
100
AcDbDimension
  2
_D_20
 10
140.2829709712
 20
82.1511147942
 30
0.0
 11
150.2829709712
 21
82.1511147942
 31
0.0
 70
   160
  1
<>
 71
     2
 42
-1.0
  3
SLDDIMSTYLE2
100
AcDbAlignedDimension
 13
160.2829709712
 23
97.106489908
 33
0.0
 14
140.2829709712
 24
97.106489908
 34
0.0
100
AcDbRotatedDimension
  0
DIMENSION
  5
44E
330
1F
100
AcDbEntity
  8
0
  6
Continuous
 62
     7
370
    18
100
AcDbDimension
  2
_D_21
 10
140.2829709712
 20
82.1511147942
 30
0.0
 11
130.7829709712
 21
82.1511147942
 31
0.0
 70
   160
  1
<>
 71
     2
 42
-1.0
  3
SLDDIMSTYLE2
100
AcDbAlignedDimension
 13
121.2829709712
 23
91.256489908
 33
0.0
 14
140.2829709712
 24
97.106489908
 34
0.0
100
AcDbRotatedDimension
  0
INSERT
  5
45D
330
1F
100
AcDbEntity
  8
0
  6
Continuous
 62
     7
370
     0
100
AcDbBlockReference
  2
SW_NOTE_0_2
 10
104.2027755678
 20
116.7500001937
 30
0.0
  0
LEADER
  5
45E
330
1F
100
AcDbEntity
  8
0
  6
Continuous
 62
     7
370
     0
100
AcDbLeader
  3
SLDDIMSTYLE5
 76
     2
 10
115.2829709712
 20
108.8511948349
 30
0.0
 10
104.2027755678
 20
116.7500001937
 30
0.0
  0
MTEXT
  5
45F
330
1F
100
AcDbEntity
  8
0
  6
Continuous
 62
     7
370
     0
100
AcDbMText
 10
75.1199849567
 20
116.5872168454
 30
0.0
 40
3.5
 41
0.0
 71
     1
 72
     1
  1
ストッパーネジ
  7
SLDTEXTSTYLE0
 73
     1
 44
1.0
  0
INSERT
  5
46B
330
1F
100
AcDbEntity
  8
0
  6
Continuous
 62
     7
370
    18
100
AcDbBlockReference
  2
SW_CENTERMARKSYMBOL_6
 10
140.2829709712
 20
101.256489908
 30
0.0
  0
INSERT
  5
477
330
1F
100
AcDbEntity
  8
0
  6
Continuous
 62
     7
370
    18
100
AcDbBlockReference
  2
SW_CENTERMARKSYMBOL_7
 10
160.2829709712
 20
101.256489908
 30
0.0
  0
ENDSEC
  0
SECTION
  2
OBJECTS
  0
DICTIONARY
  5
C
330
0
100
AcDbDictionary
281
     1
  3
ACAD_GROUP
350
D
  3
ACAD_LAYOUT
350
1A
  3
ACAD_MLINESTYLE
350
17
  3
ACAD_PLOTSETTINGS
350
19
  3
ACAD_PLOTSTYLENAME
350
E
  3
ACAD_SCALELIST
350
47
  3
DWGPROPS
350
478
  0
DICTIONARY
  5
D
102
{ACAD_REACTORS
330
C
102
}
330
C
100
AcDbDictionary
281
     1
  0
DICTIONARY
  5
1A
102
{ACAD_REACTORS
330
C
102
}
330
C
100
AcDbDictionary
281
     1
  3
Layout1
350
1E
  3
Layout2
350
26
  3
Model
350
22
  0
DICTIONARY
  5
17
102
{ACAD_REACTORS
330
C
102
}
330
C
100
AcDbDictionary
281
     1
  3
Standard
350
18
  0
DICTIONARY
  5
19
102
{ACAD_REACTORS
330
C
102
}
330
C
100
AcDbDictionary
281
     1
  0
ACDBDICTIONARYWDFLT
  5
E
102
{ACAD_REACTORS
330
C
102
}
330
C
100
AcDbDictionary
281
     1
  3
Normal
350
F
100
AcDbDictionaryWithDefault
340
F
  0
DICTIONARY
  5
47
102
{ACAD_REACTORS
330
C
102
}
330
C
100
AcDbDictionary
281
     1
  3
A0
350
48
  3
A1
350
49
  3
A2
350
4A
  3
A3
350
4B
  3
A4
350
4C
  3
A5
350
4D
  3
A6
350
4E
  3
A7
350
4F
  3
A8
350
50
  3
A9
350
51
  3
B0
350
52
  3
B1
350
53
  3
B2
350
54
  3
B3
350
55
  3
B4
350
56
  3
B5
350
57
  3
B6
350
58
  3
B7
350
59
  3
B8
350
5A
  3
B9
350
5B
  3
C0
350
5C
  3
C1
350
5D
  3
C2
350
5E
  3
C3
350
5F
  3
C4
350
60
  3
C5
350
61
  3
C6
350
62
  3
C7
350
63
  3
C8
350
64
  3
C9
350
65
  3
D0
350
66
  3
D1
350
67
  3
D2
350
68
  0
XRECORD
  5
478
102
{ACAD_REACTORS
330
C
102
}
330
C
100
AcDbXrecord
280
     1
  1
DWGPROPS COOKIE
  2

  3

  4

  6

  7

  8
STAR050C
  9

300
=
301
=
302
=
303
=
304
=
305
=
306
=
307
=
308
=
309
=
 40
0.0
 41
2460161.018534525
 42
2460161.018538264
  1

 90
        0
  0
LAYOUT
  5
1E
102
{ACAD_REACTORS
330
1A
102
}
330
1A
100
AcDbPlotSettings
  1

  2
none_device
  4

  6

 40
0.0
 41
0.0
 42
0.0
 43
0.0
 44
0.0
 45
0.0
 46
0.0
 47
0.0
 48
0.0
 49
0.0
140
0.0
141
0.0
142
1.0
143
1.0
 70
   688
 72
     1
 73
     0
 74
     5
  7

 75
    16
147
1.0
148
0.0
149
0.0
100
AcDbLayout
  1
Layout1
 70
     1
 71
     1
 10
0.0
 20
0.0
 11
420.0
 21
297.0
 12
0.0
 22
0.0
 32
0.0
 14
1.0000000000E+20
 24
1.0000000000E+20
 34
1.0000000000E+20
 15
-1.0000000000E+20
 25
-1.0000000000E+20
 35
-1.0000000000E+20
146
0.0
 13
0.0
 23
0.0
 33
0.0
 16
1.0
 26
0.0
 36
0.0
 17
0.0
 27
1.0
 37
0.0
 76
     0
330
1B
  0
LAYOUT
  5
26
102
{ACAD_REACTORS
330
1A
102
}
330
1A
100
AcDbPlotSettings
  1

  2
none_device
  4

  6

 40
0.0
 41
0.0
 42
0.0
 43
0.0
 44
0.0
 45
0.0
 46
0.0
 47
0.0
 48
0.0
 49
0.0
140
0.0
141
0.0
142
1.0
143
1.0
 70
   688
 72
     1
 73
     0
 74
     5
  7

 75
    16
147
1.0
148
0.0
149
0.0
100
AcDbLayout
  1
Layout2
 70
     1
 71
     2
 10
0.0
 20
0.0
 11
0.0
 21
0.0
 12
0.0
 22
0.0
 32
0.0
 14
0.0
 24
0.0
 34
0.0
 15
0.0
 25
0.0
 35
0.0
146
0.0
 13
0.0
 23
0.0
 33
0.0
 16
1.0
 26
0.0
 36
0.0
 17
0.0
 27
1.0
 37
0.0
 76
     0
330
23
  0
LAYOUT
  5
22
102
{ACAD_REACTORS
330
1A
102
}
330
1A
100
AcDbPlotSettings
  1

  2
none_device
  4
Letter_(8.50_x_11.00_Inches)
  6

 40
6.35
 41
6.35
 42
6.35000508
 43
6.35000508
 44
215.9
 45
279.4
 46
0.0
 47
0.0
 48
0.0
 49
0.0
140
0.0
141
0.0
142
1.0
143
1.0
 70
  1712
 72
     1
 73
     0
 74
     0
  7

 75
     0
147
1.0
148
0.0
149
0.0
100
AcDbLayout
  1
Model
 70
     1
 71
     0
 10
0.0
 20
0.0
 11
210.0
 21
297.0
 12
0.0
 22
0.0
 32
0.0
 14
0.0
 24
0.0
 34
0.0
 15
210.0
 25
297.0
 35
0.0
146
0.0
 13
0.0
 23
0.0
 33
0.0
 16
1.0
 26
0.0
 36
0.0
 17
0.0
 27
1.0
 37
0.0
 76
     0
330
1F
331
29
  0
MLINESTYLE
  5
18
102
{ACAD_REACTORS
330
17
102
}
330
17
100
AcDbMlineStyle
  2
Standard
 70
     0
  3

 62
   256
 51
90.0
 52
90.0
 71
     2
 49
0.5
 62
   256
  6
BYLAYER
 49
-0.5
 62
   256
  6
BYLAYER
  0
ACDBPLACEHOLDER
  5
F
102
{ACAD_REACTORS
330
E
102
}
330
E
  0
SCALE
  5
48
102
{ACAD_REACTORS
330
47
102
}
330
47
100
AcDbScale
 70
     0
300
1:1
140
1.0
141
1.0
290
     1
  0
SCALE
  5
49
102
{ACAD_REACTORS
330
47
102
}
330
47
100
AcDbScale
 70
     0
300
1:2
140
1.0
141
2.0
290
     0
  0
SCALE
  5
4A
102
{ACAD_REACTORS
330
47
102
}
330
47
100
AcDbScale
 70
     0
300
1:4
140
1.0
141
4.0
290
     0
  0
SCALE
  5
4B
102
{ACAD_REACTORS
330
47
102
}
330
47
100
AcDbScale
 70
     0
300
1:5
140
1.0
141
5.0
290
     0
  0
SCALE
  5
4C
102
{ACAD_REACTORS
330
47
102
}
330
47
100
AcDbScale
 70
     0
300
1:8
140
1.0
141
8.0
290
     0
  0
SCALE
  5
4D
102
{ACAD_REACTORS
330
47
102
}
330
47
100
AcDbScale
 70
     0
300
1:10
140
1.0
141
10.0
290
     0
  0
SCALE
  5
4E
102
{ACAD_REACTORS
330
47
102
}
330
47
100
AcDbScale
 70
     0
300
1:16
140
1.0
141
16.0
290
     0
  0
SCALE
  5
4F
102
{ACAD_REACTORS
330
47
102
}
330
47
100
AcDbScale
 70
     0
300
1:20
140
1.0
141
20.0
290
     0
  0
SCALE
  5
50
102
{ACAD_REACTORS
330
47
102
}
330
47
100
AcDbScale
 70
     0
300
1:30
140
1.0
141
30.0
290
     0
  0
SCALE
  5
51
102
{ACAD_REACTORS
330
47
102
}
330
47
100
AcDbScale
 70
     0
300
1:40
140
1.0
141
40.0
290
     0
  0
SCALE
  5
52
102
{ACAD_REACTORS
330
47
102
}
330
47
100
AcDbScale
 70
     0
300
1:50
140
1.0
141
50.0
290
     0
  0
SCALE
  5
53
102
{ACAD_REACTORS
330
47
102
}
330
47
100
AcDbScale
 70
     0
300
1:100
140
1.0
141
100.0
290
     0
  0
SCALE
  5
54
102
{ACAD_REACTORS
330
47
102
}
330
47
100
AcDbScale
 70
     0
300
2:1
140
2.0
141
1.0
290
     0
  0
SCALE
  5
55
102
{ACAD_REACTORS
330
47
102
}
330
47
100
AcDbScale
 70
     0
300
4:1
140
4.0
141
1.0
290
     0
  0
SCALE
  5
56
102
{ACAD_REACTORS
330
47
102
}
330
47
100
AcDbScale
 70
     0
300
8:1
140
8.0
141
1.0
290
     0
  0
SCALE
  5
57
102
{ACAD_REACTORS
330
47
102
}
330
47
100
AcDbScale
 70
     0
300
10:1
140
10.0
141
1.0
290
     0
  0
SCALE
  5
58
102
{ACAD_REACTORS
330
47
102
}
330
47
100
AcDbScale
 70
     0
300
100:1
140
100.0
141
1.0
290
     0
  0
SCALE
  5
59
102
{ACAD_REACTORS
330
47
102
}
330
47
100
AcDbScale
 70
     0
300
1/128" = 1'-0"
140
0.0078125
141
12.0
290
     0
  0
SCALE
  5
5A
102
{ACAD_REACTORS
330
47
102
}
330
47
100
AcDbScale
 70
     0
300
1/64" = 1'-0"
140
0.015625
141
12.0
290
     0
  0
SCALE
  5
5B
102
{ACAD_REACTORS
330
47
102
}
330
47
100
AcDbScale
 70
     0
300
1/32" = 1'-0"
140
0.03125
141
12.0
290
     0
  0
SCALE
  5
5C
102
{ACAD_REACTORS
330
47
102
}
330
47
100
AcDbScale
 70
     0
300
1/16" = 1'-0"
140
0.0625
141
12.0
290
     0
  0
SCALE
  5
5D
102
{ACAD_REACTORS
330
47
102
}
330
47
100
AcDbScale
 70
     0
300
3/32" = 1'-0"
140
0.09375
141
12.0
290
     0
  0
SCALE
  5
5E
102
{ACAD_REACTORS
330
47
102
}
330
47
100
AcDbScale
 70
     0
300
1/8" = 1'-0"
140
0.125
141
12.0
290
     0
  0
SCALE
  5
5F
102
{ACAD_REACTORS
330
47
102
}
330
47
100
AcDbScale
 70
     0
300
3/16" = 1'-0"
140
0.1875
141
12.0
290
     0
  0
SCALE
  5
60
102
{ACAD_REACTORS
330
47
102
}
330
47
100
AcDbScale
 70
     0
300
1/4" = 1'-0"
140
0.25
141
12.0
290
     0
  0
SCALE
  5
61
102
{ACAD_REACTORS
330
47
102
}
330
47
100
AcDbScale
 70
     0
300
3/8" = 1'-0"
140
0.375
141
12.0
290
     0
  0
SCALE
  5
62
102
{ACAD_REACTORS
330
47
102
}
330
47
100
AcDbScale
 70
     0
300
1/2" = 1'-0"
140
0.5
141
12.0
290
     0
  0
SCALE
  5
63
102
{ACAD_REACTORS
330
47
102
}
330
47
100
AcDbScale
 70
     0
300
3/4" = 1'-0"
140
0.75
141
12.0
290
     0
  0
SCALE
  5
64
102
{ACAD_REACTORS
330
47
102
}
330
47
100
AcDbScale
 70
     0
300
1" = 1'-0"
140
1.0
141
12.0
290
     0
  0
SCALE
  5
65
102
{ACAD_REACTORS
330
47
102
}
330
47
100
AcDbScale
 70
     0
300
1-1/2" = 1'-0"
140
1.5
141
12.0
290
     0
  0
SCALE
  5
66
102
{ACAD_REACTORS
330
47
102
}
330
47
100
AcDbScale
 70
     0
300
3" = 1'-0"
140
3.0
141
12.0
290
     0
  0
SCALE
  5
67
102
{ACAD_REACTORS
330
47
102
}
330
47
100
AcDbScale
 70
     0
300
6" = 1'-0"
140
6.0
141
12.0
290
     0
  0
SCALE
  5
68
102
{ACAD_REACTORS
330
47
102
}
330
47
100
AcDbScale
 70
     0
300
1'-0" = 1'-0"
140
12.0
141
12.0
290
     0
  0
ENDSEC
  0
EOF
