  0
SECTION
  2
HEADER
  9
$ACADVER
  1
AC1015
  9
$ACADMAINTVER
 70
     6
  9
$DWGCODEPAGE
  3
DOS932
  9
$INSBASE
 10
0.0
 20
0.0
 30
0.0
  9
$EXTMIN
 10
0.0
 20
0.0
 30
0.0
  9
$EXTMAX
 10
210.0
 20
297.0
 30
0.0
  9
$LIMMIN
 10
0.0
 20
0.0
  9
$LIMMAX
 10
210.0
 20
297.0
  9
$ORTHOMODE
 70
     0
  9
$REGENMODE
 70
     1
  9
$FILLMODE
 70
     1
  9
$QTEXTMODE
 70
     0
  9
$MIRRTEXT
 70
     1
  9
$LTSCALE
 40
1.0
  9
$ATTMODE
 70
     1
  9
$TEXTSIZE
 40
3.5
  9
$TRACEWID
 40
1.0
  9
$TEXTSTYLE
  7
Standard
  9
$CLAYER
  8
0
  9
$CELTYPE
  6
ByLayer
  9
$CECOLOR
 62
   256
  9
$CELTSCALE
 40
1.0
  9
$DISPSILH
 70
     0
  9
$DIMSCALE
 40
1.0
  9
$DIMASZ
 40
3.0
  9
$DIMEXO
 40
1.0
  9
$DIMDLI
 40
3.75
  9
$DIMRND
 40
0.0
  9
$DIMDLE
 40
0.0
  9
$DIMEXE
 40
1.0
  9
$DIMTP
 40
0.0
  9
$DIMTM
 40
0.0
  9
$DIMTXT
 40
3.5
  9
$DIMCEN
 40
2.5
  9
$DIMTSZ
 40
0.0
  9
$DIMTOL
 70
     0
  9
$DIMLIM
 70
     0
  9
$DIMTIH
 70
     1
  9
$DIMTOH
 70
     1
  9
$DIMSE1
 70
     0
  9
$DIMSE2
 70
     0
  9
$DIMTAD
 70
     1
  9
$DIMZIN
 70
     0
  9
$DIMBLK
  1

  9
$DIMASO
 70
     1
  9
$DIMSHO
 70
     1
  9
$DIMPOST
  1

  9
$DIMAPOST
  1

  9
$DIMALT
 70
     0
  9
$DIMALTD
 70
     3
  9
$DIMALTF
 40
0.0393700787
  9
$DIMLFAC
 40
1.0
  9
$DIMTOFL
 70
     1
  9
$DIMTVP
 40
0.0
  9
$DIMTIX
 70
     0
  9
$DIMSOXD
 70
     0
  9
$DIMSAH
 70
     0
  9
$DIMBLK1
  1

  9
$DIMBLK2
  1

  9
$DIMSTYLE
  2
ISO-25
  9
$DIMCLRD
 70
     0
  9
$DIMCLRE
 70
     0
  9
$DIMCLRT
 70
     0
  9
$DIMTFAC
 40
1.0
  9
$DIMGAP
 40
1.524
  9
$DIMJUST
 70
     0
  9
$DIMSD1
 70
     0
  9
$DIMSD2
 70
     0
  9
$DIMTOLJ
 70
     0
  9
$DIMTZIN
 70
     0
  9
$DIMALTZ
 70
     0
  9
$DIMALTTZ
 70
     0
  9
$DIMUPT
 70
     0
  9
$DIMDEC
 70
     1
  9
$DIMTDEC
 70
     3
  9
$DIMALTU
 70
     2
  9
$DIMALTTD
 70
     3
  9
$DIMTXSTY
  7
Standard
  9
$DIMAUNIT
 70
     0
  9
$DIMADEC
 70
     2
  9
$DIMALTRND
 40
0.0
  9
$DIMAZIN
 70
     0
  9
$DIMDSEP
 70
    44
  9
$DIMATFIT
 70
     3
  9
$DIMFRAC
 70
     0
  9
$DIMLDRBLK
  1

  9
$DIMLUNIT
 70
     2
  9
$DIMLWD
 70
    -2
  9
$DIMLWE
 70
    -2
  9
$DIMTMOVE
 70
     0
  9
$LUNITS
 70
     2
  9
$LUPREC
 70
     1
  9
$SKETCHINC
 40
1.0
  9
$FILLETRAD
 40
10.0
  9
$AUNITS
 70
     0
  9
$AUPREC
 70
     2
  9
$MENU
  1
.
  9
$ELEVATION
 40
0.0
  9
$PELEVATION
 40
0.0
  9
$THICKNESS
 40
0.0
  9
$LIMCHECK
 70
     0
  9
$CHAMFERA
 40
0.0
  9
$CHAMFERB
 40
0.0
  9
$CHAMFERC
 40
0.0
  9
$CHAMFERD
 40
0.0
  9
$SKPOLY
 70
     0
  9
$TDCREATE
 40
2460161.40886265
  9
$TDUCREATE
 40
2460161.03386265
  9
$TDUPDATE
 40
2460161.408865972
  9
$TDUUPDATE
 40
2460161.033865972
  9
$TDINDWG
 40
0.0000000116
  9
$TDUSRTIMER
 40
0.0000000116
  9
$USRTIMER
 70
     1
  9
$ANGBASE
 50
0.0
  9
$ANGDIR
 70
     0
  9
$PDMODE
 70
     0
  9
$PDSIZE
 40
-1.0
  9
$PLINEWID
 40
0.0
  9
$SPLFRAME
 70
     0
  9
$SPLINETYPE
 70
     6
  9
$SPLINESEGS
 70
     8
  9
$HANDSEED
  5
47B
  9
$SURFTAB1
 70
     6
  9
$SURFTAB2
 70
     6
  9
$SURFTYPE
 70
     6
  9
$SURFU
 70
     6
  9
$SURFV
 70
     6
  9
$UCSBASE
  2

  9
$UCSNAME
  2

  9
$UCSORG
 10
0.0
 20
0.0
 30
0.0
  9
$UCSXDIR
 10
1.0
 20
0.0
 30
0.0
  9
$UCSYDIR
 10
0.0
 20
1.0
 30
0.0
  9
$UCSORTHOREF
  2

  9
$UCSORTHOVIEW
 70
     0
  9
$UCSORGTOP
 10
0.0
 20
0.0
 30
0.0
  9
$UCSORGBOTTOM
 10
0.0
 20
0.0
 30
0.0
  9
$UCSORGLEFT
 10
0.0
 20
0.0
 30
0.0
  9
$UCSORGRIGHT
 10
0.0
 20
0.0
 30
0.0
  9
$UCSORGFRONT
 10
0.0
 20
0.0
 30
0.0
  9
$UCSORGBACK
 10
0.0
 20
0.0
 30
0.0
  9
$PUCSBASE
  2

  9
$PUCSNAME
  2

  9
$PUCSORG
 10
0.0
 20
0.0
 30
0.0
  9
$PUCSXDIR
 10
1.0
 20
0.0
 30
0.0
  9
$PUCSYDIR
 10
0.0
 20
1.0
 30
0.0
  9
$PUCSORTHOREF
  2

  9
$PUCSORTHOVIEW
 70
     0
  9
$PUCSORGTOP
 10
0.0
 20
0.0
 30
0.0
  9
$PUCSORGBOTTOM
 10
0.0
 20
0.0
 30
0.0
  9
$PUCSORGLEFT
 10
0.0
 20
0.0
 30
0.0
  9
$PUCSORGRIGHT
 10
0.0
 20
0.0
 30
0.0
  9
$PUCSORGFRONT
 10
0.0
 20
0.0
 30
0.0
  9
$PUCSORGBACK
 10
0.0
 20
0.0
 30
0.0
  9
$USERI1
 70
     0
  9
$USERI2
 70
     0
  9
$USERI3
 70
     0
  9
$USERI4
 70
     0
  9
$USERI5
 70
     0
  9
$USERR1
 40
0.0
  9
$USERR2
 40
0.0
  9
$USERR3
 40
0.0
  9
$USERR4
 40
0.0
  9
$USERR5
 40
0.0
  9
$WORLDVIEW
 70
     1
  9
$SHADEDGE
 70
     3
  9
$SHADEDIF
 70
    70
  9
$TILEMODE
 70
     1
  9
$MAXACTVP
 70
    64
  9
$PINSBASE
 10
0.0
 20
0.0
 30
0.0
  9
$PLIMCHECK
 70
     0
  9
$PEXTMIN
 10
1.0000000000E+20
 20
1.0000000000E+20
 30
1.0000000000E+20
  9
$PEXTMAX
 10
-1.0000000000E+20
 20
-1.0000000000E+20
 30
-1.0000000000E+20
  9
$PLIMMIN
 10
0.0
 20
0.0
  9
$PLIMMAX
 10
420.0
 20
297.0
  9
$UNITMODE
 70
     0
  9
$VISRETAIN
 70
     1
  9
$PLINEGEN
 70
     0
  9
$PSLTSCALE
 70
     1
  9
$TREEDEPTH
 70
  3020
  9
$CMLSTYLE
  2
Standard
  9
$CMLJUST
 70
     0
  9
$CMLSCALE
 40
20.0
  9
$PROXYGRAPHICS
 70
     1
  9
$MEASUREMENT
 70
     1
  9
$CELWEIGHT
370
    -1
  9
$ENDCAPS
280
     0
  9
$JOINSTYLE
280
     0
  9
$LWDISPLAY
290
     1
  9
$INSUNITS
 70
     4
  9
$HYPERLINKBASE
  1

  9
$STYLESHEET
  1

  9
$XEDIT
290
     1
  9
$CEPSNTYPE
380
     0
  9
$PSTYLEMODE
290
     1
  9
$FINGERPRINTGUID
  2
{b132a0ce-8a54-4893-b1e3-b978b677ddda}
  9
$VERSIONGUID
  2
{FAEB1C32-E019-11D5-929B-00C0DF256EC4}
  9
$EXTNAMES
290
     1
  9
$PSVPSCALE
 40
0.0
  9
$OLESTARTUP
290
     0
  0
ENDSEC
  0
SECTION
  2
CLASSES
  0
CLASS
  1
ACDBDICTIONARYWDFLT
  2
AcDbDictionaryWithDefault
  3
ObjectDBX Classes
 90
        0
280
     0
281
     0
  0
CLASS
  1
VISUALSTYLE
  2
AcDbVisualStyle
  3
ObjectDBX Classes
 90
     4095
280
     0
281
     0
  0
CLASS
  1
MATERIAL
  2
AcDbMaterial
  3
ObjectDBX Classes
 90
     1153
280
     0
281
     0
  0
CLASS
  1
SCALE
  2
AcDbScale
  3
ObjectDBX Classes
 90
     1153
280
     0
281
     0
  0
CLASS
  1
TABLESTYLE
  2
AcDbTableStyle
  3
ObjectDBX Classes
 90
     4095
280
     0
281
     0
  0
CLASS
  1
MLEADERSTYLE
  2
AcDbMLeaderStyle
  3
ACDB_MLEADERSTYLE_CLASS
 90
     4095
280
     0
281
     0
  0
CLASS
  1
SUN
  2
AcDbSun
  3
SCENEOE
 90
     1153
280
     0
281
     0
  0
CLASS
  1
ACDBPLACEHOLDER
  2
AcDbPlaceHolder
  3
ObjectDBX Classes
 90
        0
280
     0
281
     0
  0
CLASS
  1
LAYOUT
  2
AcDbLayout
  3
ObjectDBX Classes
 90
        0
280
     0
281
     0
  0
ENDSEC
  0
SECTION
  2
TABLES
  0
TABLE
  2
VPORT
  5
8
330
0
100
AcDbSymbolTable
 70
     1
  0
VPORT
  5
29
330
8
100
AcDbSymbolTableRecord
100
AcDbViewportTableRecord
  2
*Active
 70
     0
 10
0.0
 20
0.0
 11
1.0
 21
1.0
 12
105.0
 22
148.5
 13
0.0
 23
0.0
 14
10.0
 24
10.0
 15
10.0
 25
10.0
 16
0.0
 26
0.0
 36
1.0
 17
0.0
 27
0.0
 37
0.0
 40
297.0
 41
0.7070707071
 42
50.0
 43
0.0
 44
0.0
 50
0.0
 51
0.0
 71
     0
 72
  2000
 73
     1
 74
     3
 75
     0
 76
     0
 77
     0
 78
     0
281
     0
 65
     1
110
0.0
120
0.0
130
0.0
111
1.0
121
0.0
131
0.0
112
0.0
122
1.0
132
0.0
 79
     0
146
0.0
  0
ENDTAB
  0
TABLE
  2
LTYPE
  5
5
330
0
100
AcDbSymbolTable
 70
     6
  0
LTYPE
  5
14
330
5
100
AcDbSymbolTableRecord
100
AcDbLinetypeTableRecord
  2
ByBlock
 70
     0
  3

 72
    65
 73
     0
 40
0.0
  0
LTYPE
  5
15
330
5
100
AcDbSymbolTableRecord
100
AcDbLinetypeTableRecord
  2
ByLayer
 70
     0
  3

 72
    65
 73
     0
 40
0.0
  0
LTYPE
  5
16
330
5
100
AcDbSymbolTableRecord
100
AcDbLinetypeTableRecord
  2
Continuous
 70
     0
  3
Solid line
 72
    65
 73
     0
 40
0.0
  0
LTYPE
  5
6E
330
5
100
AcDbSymbolTableRecord
100
AcDbLinetypeTableRecord
  2
HIDDEN
 70
     0
  3
Hidden __ __ __ __ __ __ __ __ __ __ __ __ __ __
 72
    65
 73
     2
 40
1.905
 49
1.27
 74
     0
 49
-0.635
 74
     0
  0
LTYPE
  5
6F
330
5
100
AcDbSymbolTableRecord
100
AcDbLinetypeTableRecord
  2
PHANTOM
 70
     0
  3
Phantom ______  __  __  ______  __  __  ______
 72
    65
 73
     6
 40
12.7
 49
6.35
 74
     0
 49
-1.27
 74
     0
 49
1.27
 74
     0
 49
-1.27
 74
     0
 49
1.27
 74
     0
 49
-1.27
 74
     0
  0
LTYPE
  5
70
330
5
100
AcDbSymbolTableRecord
100
AcDbLinetypeTableRecord
  2
CENTER
 70
     0
  3
Center ____ _ ____ _ ____ _ ____ _ ____ _ ____
 72
    65
 73
     4
 40
10.16
 49
6.35
 74
     0
 49
-1.27
 74
     0
 49
1.27
 74
     0
 49
-1.27
 74
     0
  0
LTYPE
  5
71
330
5
100
AcDbSymbolTableRecord
100
AcDbLinetypeTableRecord
  2
CENTERX2
 70
     0
  3
Center (2x) ________  __  ________  __  _____
 72
    65
 73
     4
 40
20.32
 49
12.7
 74
     0
 49
-2.54
 74
     0
 49
2.54
 74
     0
 49
-2.54
 74
     0
  0
LTYPE
  5
72
330
5
100
AcDbSymbolTableRecord
100
AcDbLinetypeTableRecord
  2
DOT2
 70
     0
  3
Dot (.5x) ........................................
 72
    65
 73
     2
 40
0.635
 49
0.0
 74
     0
 49
-0.635
 74
     0
  0
ENDTAB
  0
TABLE
  2
LAYER
  5
2
330
0
100
AcDbSymbolTable
 70
     1
  0
LAYER
  5
10
330
2
100
AcDbSymbolTableRecord
100
AcDbLayerTableRecord
  2
0
 70
     0
 62
     7
  6
Continuous
370
    -3
390
F
  0
ENDTAB
  0
TABLE
  2
STYLE
  5
3
330
0
100
AcDbSymbolTable
 70
     2
  0
STYLE
  5
11
330
3
100
AcDbSymbolTableRecord
100
AcDbTextStyleTableRecord
  2
Standard
 70
     0
 40
0.0
 41
1.0
 50
0.0
 71
     0
 42
3.5
  3
txt
  4
bigfont
  0
STYLE
  5
7B
330
3
100
AcDbSymbolTableRecord
100
AcDbTextStyleTableRecord
  2
SLDTEXTSTYLE0
 70
     0
 40
0.0
 41
0.7
 50
0.0
 71
     0
 42
3.5
  3
TXT
  4
bigfont
  0
ENDTAB
  0
TABLE
  2
VIEW
  5
6
330
0
100
AcDbSymbolTable
 70
     0
  0
ENDTAB
  0
TABLE
  2
UCS
  5
7
330
0
100
AcDbSymbolTable
 70
     0
  0
ENDTAB
  0
TABLE
  2
APPID
  5
9
330
0
100
AcDbSymbolTable
 70
     1
  0
APPID
  5
12
330
9
100
AcDbSymbolTableRecord
100
AcDbRegAppTableRecord
  2
ACAD
 70
     0
  0
ENDTAB
  0
TABLE
  2
DIMSTYLE
  5
A
330
0
100
AcDbSymbolTable
 70
    10
100
AcDbDimStyleTable
  0
DIMSTYLE
105
27
330
A
100
AcDbSymbolTableRecord
100
AcDbDimStyleTableRecord
  2
ISO-25
 70
     0
 41
2.5
 42
0.625
 43
3.75
 44
1.25
 73
     0
 74
     0
 77
     1
 78
     8
140
2.5
141
2.5
143
0.0393700787
147
0.625
171
     3
172
     1
178
     0
271
     2
272
     2
274
     3
278
    44
283
     0
284
     8
340
11
  0
DIMSTYLE
105
190
102
{ACAD_REACTORS
330
18F
102
}
330
A
100
AcDbSymbolTableRecord
100
AcDbDimStyleTableRecord
  2
SLDDIMSTYLE0
 70
     0
 41
1.5
 44
0.0
 45
0.000000001
 73
     0
 74
     0
 77
     3
 78
    12
 79
     3
140
3.5
147
0.875
172
     1
173
     1
178
     0
271
     1
272
     3
276
     2
284
    12
289
     0
340
7B
341
191
343
191
  0
DIMSTYLE
105
1A4
102
{ACAD_REACTORS
330
1A3
102
}
330
A
100
AcDbSymbolTableRecord
100
AcDbDimStyleTableRecord
  2
SLDDIMSTYLE1
 70
     0
 41
1.5
 44
0.0
 45
0.000000001
 73
     0
 74
     0
 77
     3
 78
    12
 79
     3
140
3.5
147
0.875
172
     1
173
     1
178
     0
271
     1
272
     3
276
     2
284
    12
289
     0
340
7B
341
191
343
191
344
191
  0
DIMSTYLE
105
1B4
102
{ACAD_REACTORS
330
1B3
330
1BE
330
1C8
330
1EE
330
1F8
330
202
330
2EA
330
2F4
330
2FE
330
308
330
433
330
43D
330
447
102
}
330
A
100
AcDbSymbolTableRecord
100
AcDbDimStyleTableRecord
  2
SLDDIMSTYLE2
 70
     0
 41
3.0
 44
0.0
 45
0.000000001
 73
     0
 74
     0
 77
     3
 78
    12
 79
     3
140
3.5
147
0.875
173
     1
178
     0
271
     1
272
     3
276
     2
284
    12
340
7B
  0
DIMSTYLE
105
1D5
102
{ACAD_REACTORS
330
1D4
330
312
330
32F
102
}
330
A
100
AcDbSymbolTableRecord
100
AcDbDimStyleTableRecord
  2
SLDDIMSTYLE3
 70
     0
 41
3.0
 44
0.0
 45
0.000000001
 73
     0
 74
     0
 77
     3
 78
    12
 79
     3
140
3.5
147
0.875
172
     1
173
     1
178
     0
271
     1
272
     3
276
     2
284
    12
289
     0
340
7B
  0
DIMSTYLE
105
1E2
102
{ACAD_REACTORS
330
1E1
102
}
330
A
100
AcDbSymbolTableRecord
100
AcDbDimStyleTableRecord
  2
SLDDIMSTYLE4
 70
     0
 41
3.0
 44
0.0
 45
0.000000001
 73
     0
 74
     0
 77
     3
 78
    12
 79
     3
140
3.5
147
0.875
173
     1
178
     0
271
     0
272
     3
276
     2
284
    12
340
7B
  0
DIMSTYLE
105
20D
102
{ACAD_REACTORS
330
20C
102
}
330
A
100
AcDbSymbolTableRecord
100
AcDbDimStyleTableRecord
  2
SLDDIMSTYLE5
 70
     0
 41
3.0
 44
0.0
 45
0.000000001
 73
     0
 74
     0
 77
     3
 78
    12
 79
     3
140
3.5
147
0.875
172
     1
173
     1
178
     0
271
     1
272
     3
276
     2
284
    12
289
     0
340
7B
344
191
  0
DIMSTYLE
105
21F
330
A
100
AcDbSymbolTableRecord
100
AcDbDimStyleTableRecord
  2
SLDDIMSTYLE6
 70
     0
 41
3.0
 44
0.0
 45
0.000000001
146
3.0
147
0.0
173
     1
178
     0
271
     0
272
     0
276
     2
340
11
  0
DIMSTYLE
105
321
102
{ACAD_REACTORS
330
320
102
}
330
A
100
AcDbSymbolTableRecord
100
AcDbDimStyleTableRecord
  2
SLDDIMSTYLE7
 70
     0
 41
3.0
 44
0.0
 45
0.000000001
 73
     0
 74
     0
 77
     3
 78
    12
 79
     3
140
3.5
147
0.875
172
     1
173
     1
178
     0
271
     0
272
     3
276
     2
284
    12
289
     0
340
7B
  0
DIMSTYLE
105
452
102
{ACAD_REACTORS
330
451
102
}
330
A
100
AcDbSymbolTableRecord
100
AcDbDimStyleTableRecord
  2
SLDDIMSTYLE8
 70
     0
  3
<>
 41
3.0
 44
0.0
 45
0.000000001
 78
    12
 79
     3
140
3.5
141
0.0
147
0.875
173
     1
178
     0
271
     1
272
     3
276
     2
284
    12
340
7B
  0
ENDTAB
  0
TABLE
  2
BLOCK_RECORD
  5
1
330
0
100
AcDbSymbolTable
 70
    35
  0
BLOCK_RECORD
  5
1F
330
1
100
AcDbSymbolTableRecord
100
AcDbBlockTableRecord
  2
*Model_Space
340
22
  0
BLOCK_RECORD
  5
1B
330
1
100
AcDbSymbolTableRecord
100
AcDbBlockTableRecord
  2
*Paper_Space
340
1E
  0
BLOCK_RECORD
  5
23
330
1
100
AcDbSymbolTableRecord
100
AcDbBlockTableRecord
  2
*Paper_Space0
340
26
  0
BLOCK_RECORD
  5
191
330
1
100
AcDbSymbolTableRecord
100
AcDbBlockTableRecord
  2
_Dot
340
0
102
{BLKREFS
331
19B
331
1A8
331
1A9
331
212
102
}
  0
BLOCK_RECORD
  5
196
330
1
100
AcDbSymbolTableRecord
100
AcDbBlockTableRecord
  2
_D
340
0
  0
BLOCK_RECORD
  5
1A5
330
1
100
AcDbSymbolTableRecord
100
AcDbBlockTableRecord
  2
_D_1
340
0
  0
BLOCK_RECORD
  5
1B5
330
1
100
AcDbSymbolTableRecord
100
AcDbBlockTableRecord
  2
_D_2
340
0
  0
BLOCK_RECORD
  5
1BF
330
1
100
AcDbSymbolTableRecord
100
AcDbBlockTableRecord
  2
_D_3
340
0
  0
BLOCK_RECORD
  5
1C9
330
1
100
AcDbSymbolTableRecord
100
AcDbBlockTableRecord
  2
_D_4
340
0
  0
BLOCK_RECORD
  5
1D6
330
1
100
AcDbSymbolTableRecord
100
AcDbBlockTableRecord
  2
_D_5
340
0
  0
BLOCK_RECORD
  5
1E3
330
1
100
AcDbSymbolTableRecord
100
AcDbBlockTableRecord
  2
_D_6
340
0
  0
BLOCK_RECORD
  5
1EF
330
1
100
AcDbSymbolTableRecord
100
AcDbBlockTableRecord
  2
_D_7
340
0
  0
BLOCK_RECORD
  5
1F9
330
1
100
AcDbSymbolTableRecord
100
AcDbBlockTableRecord
  2
_D_8
340
0
  0
BLOCK_RECORD
  5
203
330
1
100
AcDbSymbolTableRecord
100
AcDbBlockTableRecord
  2
_D_9
340
0
  0
BLOCK_RECORD
  5
20E
330
1
100
AcDbSymbolTableRecord
100
AcDbBlockTableRecord
  2
_D_10
340
0
  0
BLOCK_RECORD
  5
219
330
1
100
AcDbSymbolTableRecord
100
AcDbBlockTableRecord
  2
SW_NOTE_0
340
0
102
{BLKREFS
331
21E
102
}
  0
BLOCK_RECORD
  5
222
330
1
100
AcDbSymbolTableRecord
100
AcDbBlockTableRecord
  2
SW_NOTE_0_1
340
0
102
{BLKREFS
331
227
102
}
  0
BLOCK_RECORD
  5
2EB
330
1
100
AcDbSymbolTableRecord
100
AcDbBlockTableRecord
  2
_D_11
340
0
  0
BLOCK_RECORD
  5
2F5
330
1
100
AcDbSymbolTableRecord
100
AcDbBlockTableRecord
  2
_D_12
340
0
  0
BLOCK_RECORD
  5
2FF
330
1
100
AcDbSymbolTableRecord
100
AcDbBlockTableRecord
  2
_D_13
340
0
  0
BLOCK_RECORD
  5
309
330
1
100
AcDbSymbolTableRecord
100
AcDbBlockTableRecord
  2
_D_14
340
0
  0
BLOCK_RECORD
  5
313
330
1
100
AcDbSymbolTableRecord
100
AcDbBlockTableRecord
  2
_D_15
340
0
  0
BLOCK_RECORD
  5
322
330
1
100
AcDbSymbolTableRecord
100
AcDbBlockTableRecord
  2
_D_16
340
0
  0
BLOCK_RECORD
  5
330
330
1
100
AcDbSymbolTableRecord
100
AcDbBlockTableRecord
  2
_D_17
340
0
  0
BLOCK_RECORD
  5
33D
330
1
100
AcDbSymbolTableRecord
100
AcDbBlockTableRecord
  2
SW_CENTERMARKSYMBOL_0
340
0
102
{BLKREFS
331
348
102
}
  0
BLOCK_RECORD
  5
349
330
1
100
AcDbSymbolTableRecord
100
AcDbBlockTableRecord
  2
SW_CENTERMARKSYMBOL_1
340
0
102
{BLKREFS
331
354
102
}
  0
BLOCK_RECORD
  5
355
330
1
100
AcDbSymbolTableRecord
100
AcDbBlockTableRecord
  2
SW_CENTERMARKSYMBOL_2
340
0
102
{BLKREFS
331
360
102
}
  0
BLOCK_RECORD
  5
361
330
1
100
AcDbSymbolTableRecord
100
AcDbBlockTableRecord
  2
SW_CENTERMARKSYMBOL_3
340
0
102
{BLKREFS
331
36C
102
}
  0
BLOCK_RECORD
  5
36D
330
1
100
AcDbSymbolTableRecord
100
AcDbBlockTableRecord
  2
SW_CENTERMARKSYMBOL_4
340
0
102
{BLKREFS
331
378
102
}
  0
BLOCK_RECORD
  5
379
330
1
100
AcDbSymbolTableRecord
100
AcDbBlockTableRecord
  2
SW_CENTERMARKSYMBOL_5
340
0
102
{BLKREFS
331
384
102
}
  0
BLOCK_RECORD
  5
434
330
1
100
AcDbSymbolTableRecord
100
AcDbBlockTableRecord
  2
_D_18
340
0
  0
BLOCK_RECORD
  5
43E
330
1
100
AcDbSymbolTableRecord
100
AcDbBlockTableRecord
  2
_D_19
340
0
  0
BLOCK_RECORD
  5
448
330
1
100
AcDbSymbolTableRecord
100
AcDbBlockTableRecord
  2
_D_20
340
0
  0
BLOCK_RECORD
  5
453
330
1
100
AcDbSymbolTableRecord
100
AcDbBlockTableRecord
  2
_D_21
340
0
  0
BLOCK_RECORD
  5
45A
330
1
100
AcDbSymbolTableRecord
100
AcDbBlockTableRecord
  2
SW_NOTE_0_2
340
0
102
{BLKREFS
331
45F
102
}
  0
BLOCK_RECORD
  5
462
330
1
100
AcDbSymbolTableRecord
100
AcDbBlockTableRecord
  2
SW_CENTERMARKSYMBOL_6
340
0
102
{BLKREFS
331
46D
102
}
  0
BLOCK_RECORD
  5
46E
330
1
100
AcDbSymbolTableRecord
100
AcDbBlockTableRecord
  2
SW_CENTERMARKSYMBOL_7
340
0
102
{BLKREFS
331
479
102
}
  0
ENDTAB
  0
ENDSEC
  0
SECTION
  2
BLOCKS
  0
BLOCK
  5
20
330
1F
100
AcDbEntity
  8
0
100
AcDbBlockBegin
  2
*Model_Space
 70
     0
 10
0.0
 20
0.0
 30
0.0
  3
*Model_Space
  1

  0
ENDBLK
  5
21
330
1F
100
AcDbEntity
  8
0
100
AcDbBlockEnd
  0
BLOCK
  5
1C
330
1B
100
AcDbEntity
 67
     1
  8
0
100
AcDbBlockBegin
  2
*Paper_Space
 70
     0
 10
0.0
 20
0.0
 30
0.0
  3
*Paper_Space
  1

  0
ENDBLK
  5
1D
330
1B
100
AcDbEntity
 67
     1
  8
0
100
AcDbBlockEnd
  0
BLOCK
  5
24
330
23
100
AcDbEntity
  8
0
100
AcDbBlockBegin
  2
*Paper_Space0
 70
     0
 10
0.0
 20
0.0
 30
0.0
  3
*Paper_Space0
  1

  0
ENDBLK
  5
25
330
23
100
AcDbEntity
  8
0
100
AcDbBlockEnd
  0
BLOCK
  5
192
330
191
100
AcDbEntity
  8
0
100
AcDbBlockBegin
  2
_Dot
 70
     0
 10
0.0
 20
0.0
 30
0.0
  3
_Dot
  1

  0
LWPOLYLINE
  5
194
330
191
100
AcDbEntity
  8
0
  6
ByBlock
 62
     0
100
AcDbPolyline
 90
        2
 70
     1
 43
0.5
 10
-0.25
 20
0.0
 42
1.0
 10
0.25
 20
0.0
 42
1.0
  0
LINE
  5
195
330
191
100
AcDbEntity
  8
0
  6
ByBlock
 62
     0
370
    -2
100
AcDbLine
 10
-0.5
 20
0.0
 30
0.0
 11
-1.0
 21
0.0
 31
0.0
  0
ENDBLK
  5
193
330
191
100
AcDbEntity
  8
0
100
AcDbBlockEnd
  0
BLOCK
  5
197
330
196
100
AcDbEntity
  8
0
100
AcDbBlockBegin
  2
_D
 70
     0
 10
0.0
 20
0.0
 30
0.0
  3
_D
  1

  0
ARC
  5
199
330
196
100
AcDbEntity
  8
0
  6
Continuous
 62
     7
370
    18
100
AcDbCircle
 10
149.1446781921
 20
230.6284145855
 30
0.0
 40
4.554435549315953
100
AcDbArc
 50
153.4349488229
 51
206.5650511771
  0
ARC
  5
19A
330
196
100
AcDbEntity
  8
0
  6
Continuous
 62
     7
370
    18
100
AcDbCircle
 10
149.1446781921
 20
230.6284145855
 30
0.0
 40
4.554435549315978
100
AcDbArc
 50
333.4349488229
 51
26.5650511771
  0
INSERT
  5
19B
330
196
100
AcDbEntity
  8
0
  6
Continuous
 62
     7
370
    18
100
AcDbBlockReference
  2
_Dot
 10
172.6056130724
 20
228.591609088
 30
0.0
 41
1.5
 42
1.5
 50
180.0
  0
SOLID
  5
19C
330
196
100
AcDbEntity
  8
0
  6
Continuous
 62
     7
370
    18
100
AcDbTrace
 10
158.8056130724
 20
228.591609088
 30
0.0
 11
155.8056130724
 21
229.341609088
 31
0.0
 12
155.8056130724
 22
227.841609088
 32
0.0
 13
155.8056130724
 23
227.841609088
 33
0.0
  0
LINE
  5
19D
330
196
100
AcDbEntity
  8
0
  6
Continuous
 62
     7
370
     0
100
AcDbLine
 10
172.6056130724
 20
221.2143893913
 30
0.0
 11
172.6056130724
 21
229.591609088
 31
0.0
  0
LINE
  5
19E
330
196
100
AcDbEntity
  8
0
  6
Continuous
 62
     7
370
     0
100
AcDbLine
 10
158.8056130724
 20
176.7836720824
 30
0.0
 11
158.8056130724
 21
229.591609088
 31
0.0
  0
LINE
  5
19F
330
196
100
AcDbEntity
  8
0
  6
Continuous
 62
     7
370
     0
100
AcDbLine
 10
172.6056130724
 20
228.591609088
 30
0.0
 11
177.6056130724
 21
228.591609088
 31
0.0
  0
LINE
  5
1A0
330
196
100
AcDbEntity
  8
0
  6
Continuous
 62
     7
370
     0
100
AcDbLine
 10
172.6056130724
 20
228.591609088
 30
0.0
 11
158.8056130724
 21
228.591609088
 31
0.0
  0
LINE
  5
1A1
330
196
100
AcDbEntity
  8
0
  6
Continuous
 62
     7
370
     0
100
AcDbLine
 10
158.8056130724
 20
228.591609088
 30
0.0
 11
144.5902426395
 21
228.591609088
 31
0.0
  0
MTEXT
  5
1A2
330
196
100
AcDbEntity
  8
0
  6
Continuous
 62
     7
370
    18
100
AcDbMText
 10
145.0710671971
 20
233.1033459444
 30
0.0
 40
3.5
 41
0.0
 71
     1
 72
     1
  1
13.8
  7
SLDTEXTSTYLE0
 73
     1
 44
1.0
  0
ENDBLK
  5
198
330
196
100
AcDbEntity
  8
0
100
AcDbBlockEnd
  0
BLOCK
  5
1A6
330
1A5
100
AcDbEntity
  8
0
100
AcDbBlockBegin
  2
_D_1
 70
     0
 10
0.0
 20
0.0
 30
0.0
  3
_D_1
  1

  0
INSERT
  5
1A8
330
1A5
100
AcDbEntity
  8
0
  6
Continuous
 62
     7
370
    18
100
AcDbBlockReference
  2
_Dot
 10
174.6056130724
 20
228.591609088
 30
0.0
 41
1.5
 42
1.5
 50
180.0
  0
INSERT
  5
1A9
330
1A5
100
AcDbEntity
  8
0
  6
Continuous
 62
     7
370
    18
100
AcDbBlockReference
  2
_Dot
 10
172.6056130724
 20
228.591609088
 30
0.0
 41
1.5
 42
1.5
 50
0.0
  0
LINE
  5
1AA
330
1A5
100
AcDbEntity
  8
0
  6
Continuous
 62
     7
370
     0
100
AcDbLine
 10
174.6056130724
 20
221.2132675217
 30
0.0
 11
174.6056130724
 21
229.591609088
 31
0.0
  0
LINE
  5
1AB
330
1A5
100
AcDbEntity
  8
0
  6
Continuous
 62
     7
370
     0
100
AcDbLine
 10
172.6056130724
 20
221.2143893913
 30
0.0
 11
172.6056130724
 21
229.591609088
 31
0.0
  0
LINE
  5
1AC
330
1A5
100
AcDbEntity
  8
0
  6
Continuous
 62
     7
370
     0
100
AcDbLine
 10
174.6056130724
 20
228.591609088
 30
0.0
 11
179.6056130724
 21
228.591609088
 31
0.0
  0
LINE
  5
1AD
330
1A5
100
AcDbEntity
  8
0
  6
Continuous
 62
     7
370
     0
100
AcDbLine
 10
174.6056130724
 20
228.591609088
 30
0.0
 11
172.6056130724
 21
228.591609088
 31
0.0
  0
LINE
  5
1AE
330
1A5
100
AcDbEntity
  8
0
  6
Continuous
 62
     7
370
     0
100
AcDbLine
 10
172.6056130724
 20
228.591609088
 30
0.0
 11
167.6056130724
 21
228.591609088
 31
0.0
  0
LINE
  5
1AF
330
1A5
100
AcDbEntity
  8
0
  6
Continuous
 62
     7
370
     0
100
AcDbLine
 10
173.6056130724
 20
228.591609088
 30
0.0
 11
172.0990926822
 21
235.0485100406
 31
0.0
  0
LINE
  5
1B0
330
1A5
100
AcDbEntity
  8
0
  6
Continuous
 62
     7
370
     0
100
AcDbLine
 10
172.0990926822
 20
235.0485100406
 30
0.0
 11
143.5838171144
 21
235.0485100406
 31
0.0
  0
MTEXT
  5
1B1
330
1A5
100
AcDbEntity
  8
0
  6
Continuous
 62
     7
370
    18
100
AcDbMText
 10
143.5838171144
 20
239.560246897
 30
0.0
 40
3.5
 41
0.0
 71
     1
 72
     1
  1
Maxストローク
  7
SLDTEXTSTYLE0
 73
     1
 44
1.0
  0
MTEXT
  5
1B2
330
1A5
100
AcDbEntity
  8
0
  6
Continuous
 62
     7
370
    18
100
AcDbMText
 10
170.0622883488
 20
239.560246897
 30
0.0
 40
3.5
 41
0.0
 71
     1
 72
     1
  1
2
  7
SLDTEXTSTYLE0
 73
     1
 44
1.0
  0
ENDBLK
  5
1A7
330
1A5
100
AcDbEntity
  8
0
100
AcDbBlockEnd
  0
BLOCK
  5
1B6
330
1B5
100
AcDbEntity
  8
0
100
AcDbBlockBegin
  2
_D_2
 70
     0
 10
0.0
 20
0.0
 30
0.0
  3
_D_2
  1

  0
SOLID
  5
1B8
330
1B5
100
AcDbEntity
  8
0
  6
Continuous
 62
     7
370
    18
100
AcDbTrace
 10
97.9115337935
 20
169.2836720824
 30
0.0
 11
98.6615337935
 21
172.2836720824
 31
0.0
 12
97.1615337935
 22
172.2836720824
 32
0.0
 13
97.1615337935
 23
172.2836720824
 33
0.0
  0
SOLID
  5
1B9
330
1B5
100
AcDbEntity
  8
0
  6
Continuous
 62
     7
370
    18
100
AcDbTrace
 10
97.9115337935
 20
187.2836720824
 30
0.0
 11
97.1615337935
 21
184.2836720824
 31
0.0
 12
98.6615337935
 22
184.2836720824
 32
0.0
 13
98.6615337935
 23
184.2836720824
 33
0.0
  0
LINE
  5
1BA
330
1B5
100
AcDbEntity
  8
0
  6
Continuous
 62
     7
370
     0
100
AcDbLine
 10
118.8056130724
 20
169.2836720824
 30
0.0
 11
96.9115337935
 21
169.2836720824
 31
0.0
  0
LINE
  5
1BB
330
1B5
100
AcDbEntity
  8
0
  6
Continuous
 62
     7
370
     0
100
AcDbLine
 10
102.9123446288
 20
187.2836720824
 30
0.0
 11
96.9115337935
 21
187.2836720824
 31
0.0
  0
LINE
  5
1BC
330
1B5
100
AcDbEntity
  8
0
  6
Continuous
 62
     7
370
     0
100
AcDbLine
 10
97.9115337935
 20
169.2836720824
 30
0.0
 11
97.9115337935
 21
187.2836720824
 31
0.0
  0
MTEXT
  5
1BD
330
1B5
100
AcDbEntity
  8
0
  6
Continuous
 62
     7
370
    18
100
AcDbMText
 10
93.3997969371
 20
176.246866585
 30
0.0
 40
3.5
 41
0.0
 71
     1
 72
     1
  1
18
  7
SLDTEXTSTYLE0
 11
-1.608122649676637E-16
 21
1.0
 31
0.0
 73
     1
 44
1.0
  0
ENDBLK
  5
1B7
330
1B5
100
AcDbEntity
  8
0
100
AcDbBlockEnd
  0
BLOCK
  5
1C0
330
1BF
100
AcDbEntity
  8
0
100
AcDbBlockBegin
  2
_D_3
 70
     0
 10
0.0
 20
0.0
 30
0.0
  3
_D_3
  1

  0
SOLID
  5
1C2
330
1BF
100
AcDbEntity
  8
0
  6
Continuous
 62
     7
370
    18
100
AcDbTrace
 10
88.7019277182
 20
198.2836720824
 30
0.0
 11
87.9519277182
 21
195.2836720824
 31
0.0
 12
89.4519277182
 22
195.2836720824
 32
0.0
 13
89.4519277182
 23
195.2836720824
 33
0.0
  0
SOLID
  5
1C3
330
1BF
100
AcDbEntity
  8
0
  6
Continuous
 62
     7
370
    18
100
AcDbTrace
 10
88.7019277182
 20
169.2836720824
 30
0.0
 11
89.4519277182
 21
172.2836720824
 31
0.0
 12
87.9519277182
 22
172.2836720824
 32
0.0
 13
87.9519277182
 23
172.2836720824
 33
0.0
  0
LINE
  5
1C4
330
1BF
100
AcDbEntity
  8
0
  6
Continuous
 62
     7
370
     0
100
AcDbLine
 10
116.1840970631
 20
198.2836720824
 30
0.0
 11
87.7019277182
 21
198.2836720824
 31
0.0
  0
LINE
  5
1C5
330
1BF
100
AcDbEntity
  8
0
  6
Continuous
 62
     7
370
     0
100
AcDbLine
 10
118.8056130724
 20
169.2836720824
 30
0.0
 11
87.7019277182
 21
169.2836720824
 31
0.0
  0
LINE
  5
1C6
330
1BF
100
AcDbEntity
  8
0
  6
Continuous
 62
     7
370
     0
100
AcDbLine
 10
88.7019277182
 20
198.2836720824
 30
0.0
 11
88.7019277182
 21
169.2836720824
 31
0.0
  0
MTEXT
  5
1C7
330
1BF
100
AcDbEntity
  8
0
  6
Continuous
 62
     7
370
    18
100
AcDbMText
 10
84.1901908618
 20
181.746866585
 30
0.0
 40
3.5
 41
0.0
 71
     1
 72
     1
  1
29
  7
SLDTEXTSTYLE0
 11
-7.044195017643634E-15
 21
1.0
 31
0.0
 73
     1
 44
1.0
  0
ENDBLK
  5
1C1
330
1BF
100
AcDbEntity
  8
0
100
AcDbBlockEnd
  0
BLOCK
  5
1CA
330
1C9
100
AcDbEntity
  8
0
100
AcDbBlockBegin
  2
_D_4
 70
     0
 10
0.0
 20
0.0
 30
0.0
  3
_D_4
  1

  0
ARC
  5
1CC
330
1C9
100
AcDbEntity
  8
0
  6
Continuous
 62
     7
370
    18
100
AcDbCircle
 10
189.3309229995
 20
194.7484697439
 30
0.0
 40
4.554435549315966
100
AcDbArc
 50
243.4349488229
 51
296.5650511771
  0
ARC
  5
1CD
330
1C9
100
AcDbEntity
  8
0
  6
Continuous
 62
     7
370
    18
100
AcDbCircle
 10
189.3309229995
 20
194.7484697439
 30
0.0
 40
4.554435549315966
100
AcDbArc
 50
63.4349488229
 51
116.5650511771
  0
SOLID
  5
1CE
330
1C9
100
AcDbEntity
  8
0
  6
Continuous
 62
     7
370
    18
100
AcDbTrace
 10
191.3677284969
 20
169.2836720824
 30
0.0
 11
192.1177284969
 21
172.2836720824
 31
0.0
 12
190.6177284969
 22
172.2836720824
 32
0.0
 13
190.6177284969
 23
172.2836720824
 33
0.0
  0
SOLID
  5
1CF
330
1C9
100
AcDbEntity
  8
0
  6
Continuous
 62
     7
370
    18
100
AcDbTrace
 10
191.3677284969
 20
220.2132675217
 30
0.0
 11
190.6177284969
 21
217.2132675217
 31
0.0
 12
192.1177284969
 22
217.2132675217
 32
0.0
 13
192.1177284969
 23
217.2132675217
 33
0.0
  0
LINE
  5
1D0
330
1C9
100
AcDbEntity
  8
0
  6
Continuous
 62
     7
370
     0
100
AcDbLine
 10
173.3056130724
 20
169.2836720824
 30
0.0
 11
192.3677284969
 21
169.2836720824
 31
0.0
  0
LINE
  5
1D1
330
1C9
100
AcDbEntity
  8
0
  6
Continuous
 62
     7
370
     0
100
AcDbLine
 10
175.8056130724
 20
220.2132675217
 30
0.0
 11
192.3677284969
 21
220.2132675217
 31
0.0
  0
LINE
  5
1D2
330
1C9
100
AcDbEntity
  8
0
  6
Continuous
 62
     7
370
     0
100
AcDbLine
 10
191.3677284969
 20
169.2836720824
 30
0.0
 11
191.3677284969
 21
220.2132675217
 31
0.0
  0
MTEXT
  5
1D3
330
1C9
100
AcDbEntity
  8
0
  6
Continuous
 62
     7
370
    18
100
AcDbMText
 10
186.8559916406
 20
190.6748587489
 30
0.0
 40
3.5
 41
0.0
 71
     1
 72
     1
  1
50.9
  7
SLDTEXTSTYLE0
 11
-1.608122649676637E-16
 21
1.0
 31
0.0
 73
     1
 44
1.0
  0
ENDBLK
  5
1CB
330
1C9
100
AcDbEntity
  8
0
100
AcDbBlockEnd
  0
BLOCK
  5
1D7
330
1D6
100
AcDbEntity
  8
0
100
AcDbBlockBegin
  2
_D_5
 70
     0
 10
0.0
 20
0.0
 30
0.0
  3
_D_5
  1

  0
SOLID
  5
1D9
330
1D6
100
AcDbEntity
  8
0
  6
Continuous
 62
     7
370
    18
100
AcDbTrace
 10
174.3056130724
 20
142.7075919251
 30
0.0
 11
171.3056130724
 21
143.4575919251
 31
0.0
 12
171.3056130724
 22
141.9575919251
 32
0.0
 13
171.3056130724
 23
141.9575919251
 33
0.0
  0
SOLID
  5
1DA
330
1D6
100
AcDbEntity
  8
0
  6
Continuous
 62
     7
370
    18
100
AcDbTrace
 10
181.3056130724
 20
142.7075919251
 30
0.0
 11
184.3056130724
 21
141.9575919251
 31
0.0
 12
184.3056130724
 22
143.4575919251
 32
0.0
 13
184.3056130724
 23
143.4575919251
 33
0.0
  0
LINE
  5
1DB
330
1D6
100
AcDbEntity
  8
0
  6
Continuous
 62
     7
370
     0
100
AcDbLine
 10
174.3056130724
 20
173.2836720824
 30
0.0
 11
174.3056130724
 21
141.7075919251
 31
0.0
  0
LINE
  5
1DC
330
1D6
100
AcDbEntity
  8
0
  6
Continuous
 62
     7
370
     0
100
AcDbLine
 10
181.3056130724
 20
182.3836720824
 30
0.0
 11
181.3056130724
 21
141.7075919251
 31
0.0
  0
LINE
  5
1DD
330
1D6
100
AcDbEntity
  8
0
  6
Continuous
 62
     7
370
     0
100
AcDbLine
 10
174.3056130724
 20
142.7075919251
 30
0.0
 11
169.3056130724
 21
142.7075919251
 31
0.0
  0
LINE
  5
1DE
330
1D6
100
AcDbEntity
  8
0
  6
Continuous
 62
     7
370
     0
100
AcDbLine
 10
174.3056130724
 20
142.7075919251
 30
0.0
 11
181.3056130724
 21
142.7075919251
 31
0.0
  0
LINE
  5
1DF
330
1D6
100
AcDbEntity
  8
0
  6
Continuous
 62
     7
370
     0
100
AcDbLine
 10
181.3056130724
 20
142.7075919251
 30
0.0
 11
187.7078501514
 21
142.7075919251
 31
0.0
  0
MTEXT
  5
1E0
330
1D6
100
AcDbEntity
  8
0
  6
Continuous
 62
     7
370
    18
100
AcDbMText
 10
185.6710446539
 20
147.2193287815
 30
0.0
 40
3.5
 41
0.0
 71
     1
 72
     1
  1
7
  7
SLDTEXTSTYLE0
 73
     1
 44
1.0
  0
ENDBLK
  5
1D8
330
1D6
100
AcDbEntity
  8
0
100
AcDbBlockEnd
  0
BLOCK
  5
1E4
330
1E3
100
AcDbEntity
  8
0
100
AcDbBlockBegin
  2
_D_6
 70
     0
 10
0.0
 20
0.0
 30
0.0
  3
_D_6
  1

  0
ARC
  5
1E6
330
1E3
100
AcDbEntity
  8
0
  6
Continuous
 62
     7
370
    18
100
AcDbCircle
 10
141.5424185117
 20
144.7443974226
 30
0.0
 40
4.554435549315978
100
AcDbArc
 50
153.4349488229
 51
206.5650511771
  0
ARC
  5
1E7
330
1E3
100
AcDbEntity
  8
0
  6
Continuous
 62
     7
370
    18
100
AcDbCircle
 10
137.4688075167
 20
144.7443974226
 30
0.0
 40
4.554435549315953
100
AcDbArc
 50
333.4349488229
 51
26.5650511771
  0
SOLID
  5
1E8
330
1E3
100
AcDbEntity
  8
0
  6
Continuous
 62
     7
370
    18
100
AcDbTrace
 10
174.3056130724
 20
142.7075919251
 30
0.0
 11
171.3056130724
 21
143.4575919251
 31
0.0
 12
171.3056130724
 22
141.9575919251
 32
0.0
 13
171.3056130724
 23
141.9575919251
 33
0.0
  0
SOLID
  5
1E9
330
1E3
100
AcDbEntity
  8
0
  6
Continuous
 62
     7
370
    18
100
AcDbTrace
 10
104.7056130724
 20
142.7075919251
 30
0.0
 11
107.7056130724
 21
141.9575919251
 31
0.0
 12
107.7056130724
 22
143.4575919251
 32
0.0
 13
107.7056130724
 23
143.4575919251
 33
0.0
  0
LINE
  5
1EA
330
1E3
100
AcDbEntity
  8
0
  6
Continuous
 62
     7
370
     0
100
AcDbLine
 10
174.3056130724
 20
173.2836720824
 30
0.0
 11
174.3056130724
 21
141.7075919251
 31
0.0
  0
LINE
  5
1EB
330
1E3
100
AcDbEntity
  8
0
  6
Continuous
 62
     7
370
     0
100
AcDbLine
 10
104.7056130724
 20
182.8333031342
 30
0.0
 11
104.7056130724
 21
141.7075919251
 31
0.0
  0
LINE
  5
1EC
330
1E3
100
AcDbEntity
  8
0
  6
Continuous
 62
     7
370
     0
100
AcDbLine
 10
174.3056130724
 20
142.7075919251
 30
0.0
 11
104.7056130724
 21
142.7075919251
 31
0.0
  0
MTEXT
  5
1ED
330
1E3
100
AcDbEntity
  8
0
  6
Continuous
 62
     7
370
    18
100
AcDbMText
 10
137.4688075167
 20
147.2193287815
 30
0.0
 40
3.5
 41
0.0
 71
     1
 72
     1
  1
70
  7
SLDTEXTSTYLE0
 73
     1
 44
1.0
  0
ENDBLK
  5
1E5
330
1E3
100
AcDbEntity
  8
0
100
AcDbBlockEnd
  0
BLOCK
  5
1F0
330
1EF
100
AcDbEntity
  8
0
100
AcDbBlockBegin
  2
_D_7
 70
     0
 10
0.0
 20
0.0
 30
0.0
  3
_D_7
  1

  0
SOLID
  5
1F2
330
1EF
100
AcDbEntity
  8
0
  6
Continuous
 62
     7
370
    18
100
AcDbTrace
 10
119.8056130724
 20
151.7983361651
 30
0.0
 11
122.8056130724
 21
151.0483361651
 31
0.0
 12
122.8056130724
 22
152.5483361651
 32
0.0
 13
122.8056130724
 23
152.5483361651
 33
0.0
  0
SOLID
  5
1F3
330
1EF
100
AcDbEntity
  8
0
  6
Continuous
 62
     7
370
    18
100
AcDbTrace
 10
174.3056130724
 20
151.7983361651
 30
0.0
 11
171.3056130724
 21
152.5483361651
 31
0.0
 12
171.3056130724
 22
151.0483361651
 32
0.0
 13
171.3056130724
 23
151.0483361651
 33
0.0
  0
LINE
  5
1F4
330
1EF
100
AcDbEntity
  8
0
  6
Continuous
 62
     7
370
     0
100
AcDbLine
 10
119.8056130724
 20
168.2836720824
 30
0.0
 11
119.8056130724
 21
150.7983361651
 31
0.0
  0
LINE
  5
1F5
330
1EF
100
AcDbEntity
  8
0
  6
Continuous
 62
     7
370
     0
100
AcDbLine
 10
174.3056130724
 20
173.2836720824
 30
0.0
 11
174.3056130724
 21
150.7983361651
 31
0.0
  0
LINE
  5
1F6
330
1EF
100
AcDbEntity
  8
0
  6
Continuous
 62
     7
370
     0
100
AcDbLine
 10
119.8056130724
 20
151.7983361651
 30
0.0
 11
174.3056130724
 21
151.7983361651
 31
0.0
  0
MTEXT
  5
1F7
330
1EF
100
AcDbEntity
  8
0
  6
Continuous
 62
     7
370
    18
100
AcDbMText
 10
142.9820020775
 20
156.3100730215
 30
0.0
 40
3.5
 41
0.0
 71
     1
 72
     1
  1
54.5
  7
SLDTEXTSTYLE0
 73
     1
 44
1.0
  0
ENDBLK
  5
1F1
330
1EF
100
AcDbEntity
  8
0
100
AcDbBlockEnd
  0
BLOCK
  5
1FA
330
1F9
100
AcDbEntity
  8
0
100
AcDbBlockBegin
  2
_D_8
 70
     0
 10
0.0
 20
0.0
 30
0.0
  3
_D_8
  1

  0
SOLID
  5
1FC
330
1F9
100
AcDbEntity
  8
0
  6
Continuous
 62
     7
370
    18
100
AcDbTrace
 10
174.3056130724
 20
160.9374948992
 30
0.0
 11
171.3056130724
 21
161.6874948992
 31
0.0
 12
171.3056130724
 22
160.1874948992
 32
0.0
 13
171.3056130724
 23
160.1874948992
 33
0.0
  0
SOLID
  5
1FD
330
1F9
100
AcDbEntity
  8
0
  6
Continuous
 62
     7
370
    18
100
AcDbTrace
 10
158.8056130724
 20
160.9374948992
 30
0.0
 11
161.8056130724
 21
160.1874948992
 31
0.0
 12
161.8056130724
 22
161.6874948992
 32
0.0
 13
161.8056130724
 23
161.6874948992
 33
0.0
  0
LINE
  5
1FE
330
1F9
100
AcDbEntity
  8
0
  6
Continuous
 62
     7
370
     0
100
AcDbLine
 10
174.3056130724
 20
173.2836720824
 30
0.0
 11
174.3056130724
 21
159.9374948992
 31
0.0
  0
LINE
  5
1FF
330
1F9
100
AcDbEntity
  8
0
  6
Continuous
 62
     7
370
     0
100
AcDbLine
 10
158.8056130724
 20
166.2836720824
 30
0.0
 11
158.8056130724
 21
159.9374948992
 31
0.0
  0
LINE
  5
200
330
1F9
100
AcDbEntity
  8
0
  6
Continuous
 62
     7
370
     0
100
AcDbLine
 10
174.3056130724
 20
160.9374948992
 30
0.0
 11
158.8056130724
 21
160.9374948992
 31
0.0
  0
MTEXT
  5
201
330
1F9
100
AcDbEntity
  8
0
  6
Continuous
 62
     7
370
    18
100
AcDbMText
 10
162.4820020775
 20
165.4492317556
 30
0.0
 40
3.5
 41
0.0
 71
     1
 72
     1
  1
15.5
  7
SLDTEXTSTYLE0
 73
     1
 44
1.0
  0
ENDBLK
  5
1FB
330
1F9
100
AcDbEntity
  8
0
100
AcDbBlockEnd
  0
BLOCK
  5
204
330
203
100
AcDbEntity
  8
0
100
AcDbBlockBegin
  2
_D_9
 70
     0
 10
0.0
 20
0.0
 30
0.0
  3
_D_9
  1

  0
SOLID
  5
206
330
203
100
AcDbEntity
  8
0
  6
Continuous
 62
     7
370
    18
100
AcDbTrace
 10
158.8056130724
 20
160.9374948992
 30
0.0
 11
155.8056130724
 21
161.6874948992
 31
0.0
 12
155.8056130724
 22
160.1874948992
 32
0.0
 13
155.8056130724
 23
160.1874948992
 33
0.0
  0
SOLID
  5
207
330
203
100
AcDbEntity
  8
0
  6
Continuous
 62
     7
370
    18
100
AcDbTrace
 10
138.8056130724
 20
160.9374948992
 30
0.0
 11
141.8056130724
 21
160.1874948992
 31
0.0
 12
141.8056130724
 22
161.6874948992
 32
0.0
 13
141.8056130724
 23
161.6874948992
 33
0.0
  0
LINE
  5
208
330
203
100
AcDbEntity
  8
0
  6
Continuous
 62
     7
370
     0
100
AcDbLine
 10
158.8056130724
 20
166.2836720824
 30
0.0
 11
158.8056130724
 21
159.9374948992
 31
0.0
  0
LINE
  5
209
330
203
100
AcDbEntity
  8
0
  6
Continuous
 62
     7
370
     0
100
AcDbLine
 10
138.8056130724
 20
166.2836720824
 30
0.0
 11
138.8056130724
 21
159.9374948992
 31
0.0
  0
LINE
  5
20A
330
203
100
AcDbEntity
  8
0
  6
Continuous
 62
     7
370
     0
100
AcDbLine
 10
158.8056130724
 20
160.9374948992
 30
0.0
 11
138.8056130724
 21
160.9374948992
 31
0.0
  0
MTEXT
  5
20B
330
203
100
AcDbEntity
  8
0
  6
Continuous
 62
     7
370
    18
100
AcDbMText
 10
146.7688075749
 20
165.4492317556
 30
0.0
 40
3.5
 41
0.0
 71
     1
 72
     1
  1
20
  7
SLDTEXTSTYLE0
 73
     1
 44
1.0
  0
ENDBLK
  5
205
330
203
100
AcDbEntity
  8
0
100
AcDbBlockEnd
  0
BLOCK
  5
20F
330
20E
100
AcDbEntity
  8
0
100
AcDbBlockBegin
  2
_D_10
 70
     0
 10
0.0
 20
0.0
 30
0.0
  3
_D_10
  1

  0
SOLID
  5
211
330
20E
100
AcDbEntity
  8
0
  6
Continuous
 62
     7
370
    18
100
AcDbTrace
 10
181.3056130724
 20
228.591609088
 30
0.0
 11
184.3056130724
 21
227.841609088
 31
0.0
 12
184.3056130724
 22
229.341609088
 32
0.0
 13
184.3056130724
 23
229.341609088
 33
0.0
  0
INSERT
  5
212
330
20E
100
AcDbEntity
  8
0
  6
Continuous
 62
     7
370
    18
100
AcDbBlockReference
  2
_Dot
 10
174.6056130724
 20
228.591609088
 30
-0.1247273125
 41
1.5
 42
1.5
 50
0.0
  0
LINE
  5
213
330
20E
100
AcDbEntity
  8
0
  6
Continuous
 62
     7
370
     0
100
AcDbLine
 10
181.3056130724
 20
211.2836720859
 30
0.0
 11
181.3056130724
 21
229.591609088
 31
0.0
  0
LINE
  5
214
330
20E
100
AcDbEntity
  8
0
  6
Continuous
 62
     7
370
     0
100
AcDbLine
 10
174.6056130724
 20
221.2132675217
 30
0.0
 11
174.6056130724
 21
229.591609088
 31
0.0
  0
LINE
  5
215
330
20E
100
AcDbEntity
  8
0
  6
Continuous
 62
     7
370
     0
100
AcDbLine
 10
181.3056130724
 20
228.591609088
 30
0.0
 11
192.0177238482
 21
228.591609088
 31
0.0
  0
LINE
  5
216
330
20E
100
AcDbEntity
  8
0
  6
Continuous
 62
     7
370
     0
100
AcDbLine
 10
181.3056130724
 20
228.591609088
 30
0.0
 11
174.6056130724
 21
228.591609088
 31
0.0
  0
LINE
  5
217
330
20E
100
AcDbEntity
  8
0
  6
Continuous
 62
     7
370
     0
100
AcDbLine
 10
174.6056130724
 20
228.591609088
 30
0.0
 11
169.6056130724
 21
228.591609088
 31
0.0
  0
MTEXT
  5
218
330
20E
100
AcDbEntity
  8
0
  6
Continuous
 62
     7
370
    18
100
AcDbMText
 10
185.907307123
 20
233.1033459444
 30
0.0
 40
3.5
 41
0.0
 71
     1
 72
     1
  1
6.7
  7
SLDTEXTSTYLE0
 73
     1
 44
1.0
  0
ENDBLK
  5
210
330
20E
100
AcDbEntity
  8
0
100
AcDbBlockEnd
  0
BLOCK
  5
21A
330
219
100
AcDbEntity
  8
0
100
AcDbBlockBegin
  2
SW_NOTE_0
 70
     0
 10
0.0
 20
0.0
 30
0.0
  3
SW_NOTE_0
  1

  0
LINE
  5
21C
330
219
100
AcDbEntity
  8
0
  6
Continuous
 62
     0
370
     0
100
AcDbLine
 10
-20.4930545092
 20
0.0
 30
0.0
 11
0.0
 21
0.0
 31
0.0
  0
MTEXT
  5
21D
330
219
100
AcDbEntity
  8
0
  6
Continuous
 62
     0
370
     0
100
AcDbMText
 10
-20.8781316733
 20
4.5206815213
 30
0.0
 40
3.5
 41
0.0
 71
     1
 72
     1
  1
カット配管
  7
SLDTEXTSTYLE0
 73
     1
 44
1.0
  0
ENDBLK
  5
21B
330
219
100
AcDbEntity
  8
0
100
AcDbBlockEnd
  0
BLOCK
  5
223
330
222
100
AcDbEntity
  8
0
100
AcDbBlockBegin
  2
SW_NOTE_0_1
 70
     0
 10
0.0
 20
0.0
 30
0.0
  3
SW_NOTE_0_1
  1

  0
LINE
  5
225
330
222
100
AcDbEntity
  8
0
  6
Continuous
 62
     0
370
     0
100
AcDbLine
 10
-20.4930545092
 20
0.0
 30
0.0
 11
0.0
 21
0.0
 31
0.0
  0
MTEXT
  5
226
330
222
100
AcDbEntity
  8
0
  6
Continuous
 62
     0
370
     0
100
AcDbMText
 10
-20.9658706965
 20
4.5488892865
 30
0.0
 40
3.5
 41
0.0
 71
     1
 72
     1
  1
プル配管　
  7
SLDTEXTSTYLE0
 73
     1
 44
1.0
  0
ENDBLK
  5
224
330
222
100
AcDbEntity
  8
0
100
AcDbBlockEnd
  0
BLOCK
  5
2EC
330
2EB
100
AcDbEntity
  8
0
100
AcDbBlockBegin
  2
_D_11
 70
     0
 10
0.0
 20
0.0
 30
0.0
  3
_D_11
  1

  0
SOLID
  5
2EE
330
2EB
100
AcDbEntity
  8
0
  6
Continuous
 62
     7
370
    18
100
AcDbTrace
 10
39.1073840421
 20
158.4890681886
 30
0.0
 11
42.1073840421
 21
157.7390681886
 31
0.0
 12
42.1073840421
 22
159.2390681886
 32
0.0
 13
42.1073840421
 23
159.2390681886
 33
0.0
  0
SOLID
  5
2EF
330
2EB
100
AcDbEntity
  8
0
  6
Continuous
 62
     7
370
    18
100
AcDbTrace
 10
59.1073840421
 20
158.4890681886
 30
0.0
 11
56.1073840421
 21
159.2390681886
 31
0.0
 12
56.1073840421
 22
157.7390681886
 32
0.0
 13
56.1073840421
 23
157.7390681886
 33
0.0
  0
LINE
  5
2F0
330
2EB
100
AcDbEntity
  8
0
  6
Continuous
 62
     7
370
     0
100
AcDbLine
 10
39.1073840421
 20
168.2836720824
 30
0.0
 11
39.1073840421
 21
157.4890681886
 31
0.0
  0
LINE
  5
2F1
330
2EB
100
AcDbEntity
  8
0
  6
Continuous
 62
     7
370
     0
100
AcDbLine
 10
59.1073840421
 20
168.2836720824
 30
0.0
 11
59.1073840421
 21
157.4890681886
 31
0.0
  0
LINE
  5
2F2
330
2EB
100
AcDbEntity
  8
0
  6
Continuous
 62
     7
370
     0
100
AcDbLine
 10
39.1073840421
 20
158.4890681886
 30
0.0
 11
59.1073840421
 21
158.4890681886
 31
0.0
  0
MTEXT
  5
2F3
330
2EB
100
AcDbEntity
  8
0
  6
Continuous
 62
     7
370
    18
100
AcDbMText
 10
47.0705785446
 20
163.000805045
 30
0.0
 40
3.5
 41
0.0
 71
     1
 72
     1
  1
20
  7
SLDTEXTSTYLE0
 73
     1
 44
1.0
  0
ENDBLK
  5
2ED
330
2EB
100
AcDbEntity
  8
0
100
AcDbBlockEnd
  0
BLOCK
  5
2F6
330
2F5
100
AcDbEntity
  8
0
100
AcDbBlockBegin
  2
_D_12
 70
     0
 10
0.0
 20
0.0
 30
0.0
  3
_D_12
  1

  0
SOLID
  5
2F8
330
2F5
100
AcDbEntity
  8
0
  6
Continuous
 62
     7
370
    18
100
AcDbTrace
 10
32.4332905122
 20
205.2836720824
 30
0.0
 11
31.6832905122
 21
202.2836720824
 31
0.0
 12
33.1832905122
 22
202.2836720824
 32
0.0
 13
33.1832905122
 23
202.2836720824
 33
0.0
  0
SOLID
  5
2F9
330
2F5
100
AcDbEntity
  8
0
  6
Continuous
 62
     7
370
    18
100
AcDbTrace
 10
32.4332905122
 20
169.2836720824
 30
0.0
 11
33.1832905122
 21
172.2836720824
 31
0.0
 12
31.6832905122
 22
172.2836720824
 32
0.0
 13
31.6832905122
 23
172.2836720824
 33
0.0
  0
LINE
  5
2FA
330
2F5
100
AcDbEntity
  8
0
  6
Continuous
 62
     7
370
     0
100
AcDbLine
 10
42.1073840421
 20
205.2836720824
 30
0.0
 11
31.4332905122
 21
205.2836720824
 31
0.0
  0
LINE
  5
2FB
330
2F5
100
AcDbEntity
  8
0
  6
Continuous
 62
     7
370
     0
100
AcDbLine
 10
38.1073840421
 20
169.2836720824
 30
0.0
 11
31.4332905122
 21
169.2836720824
 31
0.0
  0
LINE
  5
2FC
330
2F5
100
AcDbEntity
  8
0
  6
Continuous
 62
     7
370
     0
100
AcDbLine
 10
32.4332905122
 20
205.2836720824
 30
0.0
 11
32.4332905122
 21
169.2836720824
 31
0.0
  0
MTEXT
  5
2FD
330
2F5
100
AcDbEntity
  8
0
  6
Continuous
 62
     7
370
    18
100
AcDbMText
 10
27.9215536558
 20
185.246866585
 30
0.0
 40
3.5
 41
0.0
 71
     1
 72
     1
  1
36
  7
SLDTEXTSTYLE0
 11
-7.044195017643634E-15
 21
1.0
 31
0.0
 73
     1
 44
1.0
  0
ENDBLK
  5
2F7
330
2F5
100
AcDbEntity
  8
0
100
AcDbBlockEnd
  0
BLOCK
  5
300
330
2FF
100
AcDbEntity
  8
0
100
AcDbBlockBegin
  2
_D_13
 70
     0
 10
0.0
 20
0.0
 30
0.0
  3
_D_13
  1

  0
SOLID
  5
302
330
2FF
100
AcDbEntity
  8
0
  6
Continuous
 62
     7
370
    18
100
AcDbTrace
 10
69.3574871197
 20
202.2836720824
 30
0.0
 11
68.6074871197
 21
199.2836720824
 31
0.0
 12
70.1074871197
 22
199.2836720824
 32
0.0
 13
70.1074871197
 23
199.2836720824
 33
0.0
  0
SOLID
  5
303
330
2FF
100
AcDbEntity
  8
0
  6
Continuous
 62
     7
370
    18
100
AcDbTrace
 10
69.3574871197
 20
169.2836720824
 30
0.0
 11
70.1074871197
 21
172.2836720824
 31
0.0
 12
68.6074871197
 22
172.2836720824
 32
0.0
 13
68.6074871197
 23
172.2836720824
 33
0.0
  0
LINE
  5
304
330
2FF
100
AcDbEntity
  8
0
  6
Continuous
 62
     7
370
     0
100
AcDbLine
 10
57.1073840421
 20
202.2836720824
 30
0.0
 11
70.3574871197
 21
202.2836720824
 31
0.0
  0
LINE
  5
305
330
2FF
100
AcDbEntity
  8
0
  6
Continuous
 62
     7
370
     0
100
AcDbLine
 10
60.1073840421
 20
169.2836720824
 30
0.0
 11
70.3574871197
 21
169.2836720824
 31
0.0
  0
LINE
  5
306
330
2FF
100
AcDbEntity
  8
0
  6
Continuous
 62
     7
370
     0
100
AcDbLine
 10
69.3574871197
 20
202.2836720824
 30
0.0
 11
69.3574871197
 21
169.2836720824
 31
0.0
  0
MTEXT
  5
307
330
2FF
100
AcDbEntity
  8
0
  6
Continuous
 62
     7
370
    18
100
AcDbMText
 10
64.8457502633
 20
183.746866585
 30
0.0
 40
3.5
 41
0.0
 71
     1
 72
     1
  1
33
  7
SLDTEXTSTYLE0
 11
-7.044195017643634E-15
 21
1.0
 31
0.0
 73
     1
 44
1.0
  0
ENDBLK
  5
301
330
2FF
100
AcDbEntity
  8
0
100
AcDbBlockEnd
  0
BLOCK
  5
30A
330
309
100
AcDbEntity
  8
0
100
AcDbBlockBegin
  2
_D_14
 70
     0
 10
0.0
 20
0.0
 30
0.0
  3
_D_14
  1

  0
SOLID
  5
30C
330
309
100
AcDbEntity
  8
0
  6
Continuous
 62
     7
370
    18
100
AcDbTrace
 10
76.5906293756
 20
210.2836720861
 30
0.0
 11
75.8406293756
 21
207.2836720861
 31
0.0
 12
77.3406293756
 22
207.2836720861
 32
0.0
 13
77.3406293756
 23
207.2836720861
 33
0.0
  0
SOLID
  5
30D
330
309
100
AcDbEntity
  8
0
  6
Continuous
 62
     7
370
    18
100
AcDbTrace
 10
76.5906293756
 20
169.2836720824
 30
0.0
 11
77.3406293756
 21
172.2836720824
 31
0.0
 12
75.8406293756
 22
172.2836720824
 32
0.0
 13
75.8406293756
 23
172.2836720824
 33
0.0
  0
LINE
  5
30E
330
309
100
AcDbEntity
  8
0
  6
Continuous
 62
     7
370
     0
100
AcDbLine
 10
57.2780953003
 20
210.2836720861
 30
0.0
 11
77.5906293756
 21
210.2836720861
 31
0.0
  0
LINE
  5
30F
330
309
100
AcDbEntity
  8
0
  6
Continuous
 62
     7
370
     0
100
AcDbLine
 10
60.1073840421
 20
169.2836720824
 30
0.0
 11
77.5906293756
 21
169.2836720824
 31
0.0
  0
LINE
  5
310
330
309
100
AcDbEntity
  8
0
  6
Continuous
 62
     7
370
     0
100
AcDbLine
 10
76.5906293756
 20
210.2836720861
 30
0.0
 11
76.5906293756
 21
169.2836720824
 31
0.0
  0
MTEXT
  5
311
330
309
100
AcDbEntity
  8
0
  6
Continuous
 62
     7
370
    18
100
AcDbMText
 10
72.0788925193
 20
187.7468665885
 30
0.0
 40
3.5
 41
0.0
 71
     1
 72
     1
  1
41
  7
SLDTEXTSTYLE0
 11
-7.044195017643634E-15
 21
1.0
 31
0.0
 73
     1
 44
1.0
  0
ENDBLK
  5
30B
330
309
100
AcDbEntity
  8
0
100
AcDbBlockEnd
  0
BLOCK
  5
314
330
313
100
AcDbEntity
  8
0
100
AcDbBlockBegin
  2
_D_15
 70
     0
 10
0.0
 20
0.0
 30
0.0
  3
_D_15
  1

  0
ARC
  5
316
330
313
100
AcDbEntity
  8
0
  6
Continuous
 62
     7
370
    18
100
AcDbCircle
 10
74.5538238792
 20
216.2668723835
 30
0.0
 40
4.554435549315998
100
AcDbArc
 50
243.4349488377
 51
296.5650511918
  0
ARC
  5
317
330
313
100
AcDbEntity
  8
0
  6
Continuous
 62
     7
370
    18
100
AcDbCircle
 10
74.5538238797
 20
214.2300671188
 30
0.0
 40
4.55443554931594
100
AcDbArc
 50
63.4349488377
 51
116.5650511918
  0
SOLID
  5
318
330
313
100
AcDbEntity
  8
0
  6
Continuous
 62
     7
370
    18
100
AcDbTrace
 10
76.5906293756
 20
220.2132675284
 30
0.0
 11
77.3406293749
 21
223.2132675286
 31
0.0
 12
75.8406293749
 22
223.2132675282
 32
0.0
 13
75.8406293749
 23
223.2132675282
 33
0.0
  0
SOLID
  5
319
330
313
100
AcDbEntity
  8
0
  6
Continuous
 62
     7
370
    18
100
AcDbTrace
 10
76.5906293782
 20
210.2836720914
 30
0.0
 11
75.840629379
 21
207.2836720912
 31
0.0
 12
77.340629379
 22
207.2836720915
 32
0.0
 13
77.340629379
 23
207.2836720915
 33
0.0
  0
LINE
  5
31A
330
313
100
AcDbEntity
  8
0
  6
Continuous
 62
     7
370
     0
100
AcDbLine
 10
51.5589969451
 20
220.2132675219
 30
0.0
 11
77.5906293756
 21
220.2132675286
 31
0.0
  0
LINE
  5
31B
330
313
100
AcDbEntity
  8
0
  6
Continuous
 62
     7
370
     0
100
AcDbLine
 10
57.2780953003
 20
210.2836720864
 30
0.0
 11
77.5906293782
 21
210.2836720916
 31
0.0
  0
LINE
  5
31C
330
313
100
AcDbEntity
  8
0
  6
Continuous
 62
     7
370
     0
100
AcDbLine
 10
76.5906293756
 20
220.2132675284
 30
0.0
 11
76.5906293744
 21
225.2132675284
 31
0.0
  0
LINE
  5
31D
330
313
100
AcDbEntity
  8
0
  6
Continuous
 62
     7
370
     0
100
AcDbLine
 10
76.5906293756
 20
220.2132675284
 30
0.0
 11
76.5906293782
 21
210.2836720914
 31
0.0
  0
LINE
  5
31E
330
313
100
AcDbEntity
  8
0
  6
Continuous
 62
     7
370
     0
100
AcDbLine
 10
76.5906293782
 20
210.2836720914
 30
0.0
 11
76.5906293795
 21
205.2836720914
 31
0.0
  0
MTEXT
  5
31F
330
313
100
AcDbEntity
  8
0
  6
Continuous
 62
     7
370
    18
100
AcDbMText
 10
72.0788925213
 20
212.1932613879
 30
0.0
 40
3.5
 41
0.0
 71
     1
 72
     1
  1
9.9
  7
SLDTEXTSTYLE0
 11
-2.572030864365208E-10
 21
1.0
 31
0.0
 73
     1
 44
1.0
  0
ENDBLK
  5
315
330
313
100
AcDbEntity
  8
0
100
AcDbBlockEnd
  0
BLOCK
  5
323
330
322
100
AcDbEntity
  8
0
100
AcDbBlockBegin
  2
_D_16
 70
     0
 10
0.0
 20
0.0
 30
0.0
  3
_D_16
  1

  0
ARC
  5
325
330
322
100
AcDbEntity
  8
0
  6
Continuous
 62
     7
370
    18
100
AcDbCircle
 10
62.0335223023
 20
229.7965235126
 30
0.0
 40
4.554435549315966
100
AcDbArc
 50
153.4349488229
 51
206.5650511771
  0
ARC
  5
326
330
322
100
AcDbEntity
  8
0
  6
Continuous
 62
     7
370
    18
100
AcDbCircle
 10
55.9231058099
 20
229.7965235126
 30
0.0
 40
4.554435549315966
100
AcDbArc
 50
333.4349488229
 51
26.5650511771
  0
SOLID
  5
327
330
322
100
AcDbEntity
  8
0
  6
Continuous
 62
     7
370
    18
100
AcDbTrace
 10
47.655771139
 20
227.7597180151
 30
0.0
 11
44.655771139
 21
228.5097180151
 31
0.0
 12
44.655771139
 22
227.0097180151
 32
0.0
 13
44.655771139
 23
227.0097180151
 33
0.0
  0
SOLID
  5
328
330
322
100
AcDbEntity
  8
0
  6
Continuous
 62
     7
370
    18
100
AcDbTrace
 10
50.5589969451
 20
227.7597180151
 30
0.0
 11
53.5589969451
 21
227.0097180151
 31
0.0
 12
53.5589969451
 22
228.5097180151
 32
0.0
 13
53.5589969451
 23
228.5097180151
 33
0.0
  0
LINE
  5
329
330
322
100
AcDbEntity
  8
0
  6
Continuous
 62
     7
370
     0
100
AcDbLine
 10
47.655771139
 20
221.2132675217
 30
0.0
 11
47.655771139
 21
228.7597180151
 31
0.0
  0
LINE
  5
32A
330
322
100
AcDbEntity
  8
0
  6
Continuous
 62
     7
370
     0
100
AcDbLine
 10
50.5589969451
 20
221.2132675217
 30
0.0
 11
50.5589969451
 21
228.7597180151
 31
0.0
  0
LINE
  5
32B
330
322
100
AcDbEntity
  8
0
  6
Continuous
 62
     7
370
     0
100
AcDbLine
 10
47.655771139
 20
227.7597180151
 30
0.0
 11
42.655771139
 21
227.7597180151
 31
0.0
  0
LINE
  5
32C
330
322
100
AcDbEntity
  8
0
  6
Continuous
 62
     7
370
     0
100
AcDbLine
 10
47.655771139
 20
227.7597180151
 30
0.0
 11
50.5589969451
 21
227.7597180151
 31
0.0
  0
LINE
  5
32D
330
322
100
AcDbEntity
  8
0
  6
Continuous
 62
     7
370
     0
100
AcDbLine
 10
50.5589969451
 20
227.7597180151
 30
0.0
 11
60.477541246
 21
227.7597180151
 31
0.0
  0
MTEXT
  5
32E
330
322
100
AcDbEntity
  8
0
  6
Continuous
 62
     7
370
    18
100
AcDbMText
 10
57.9599113074
 20
232.2714548715
 30
0.0
 40
3.5
 41
0.0
 71
     1
 72
     1
  1
3
  7
SLDTEXTSTYLE0
 73
     1
 44
1.0
  0
ENDBLK
  5
324
330
322
100
AcDbEntity
  8
0
100
AcDbBlockEnd
  0
BLOCK
  5
331
330
330
100
AcDbEntity
  8
0
100
AcDbBlockBegin
  2
_D_17
 70
     0
 10
0.0
 20
0.0
 30
0.0
  3
_D_17
  1

  0
ARC
  5
333
330
330
100
AcDbEntity
  8
0
  6
Continuous
 62
     7
370
    18
100
AcDbCircle
 10
49.1073839839
 20
238.2500730192
 30
0.0
 40
4.554435549315966
100
AcDbArc
 50
153.4349488229
 51
206.5650511771
  0
ARC
  5
334
330
330
100
AcDbEntity
  8
0
  6
Continuous
 62
     7
370
    18
100
AcDbCircle
 10
49.1073839839
 20
238.2500730192
 30
0.0
 40
4.554435549315966
100
AcDbArc
 50
333.4349488229
 51
26.5650511771
  0
SOLID
  5
335
330
330
100
AcDbEntity
  8
0
  6
Continuous
 62
     7
370
    18
100
AcDbTrace
 10
43.3260776273
 20
236.2132675217
 30
0.0
 11
40.3260776273
 21
236.9632675217
 31
0.0
 12
40.3260776273
 22
235.4632675217
 32
0.0
 13
40.3260776273
 23
235.4632675217
 33
0.0
  0
SOLID
  5
336
330
330
100
AcDbEntity
  8
0
  6
Continuous
 62
     7
370
    18
100
AcDbTrace
 10
54.8886904568
 20
236.2132675217
 30
0.0
 11
57.8886904568
 21
235.4632675217
 31
0.0
 12
57.8886904568
 22
236.9632675217
 32
0.0
 13
57.8886904568
 23
236.9632675217
 33
0.0
  0
LINE
  5
337
330
330
100
AcDbEntity
  8
0
  6
Continuous
 62
     7
370
     0
100
AcDbLine
 10
43.3260776273
 20
209.8564651151
 30
0.0
 11
43.3260776273
 21
237.2132675217
 31
0.0
  0
LINE
  5
338
330
330
100
AcDbEntity
  8
0
  6
Continuous
 62
     7
370
     0
100
AcDbLine
 10
54.8886904568
 20
209.8564651151
 30
0.0
 11
54.8886904568
 21
237.2132675217
 31
0.0
  0
LINE
  5
339
330
330
100
AcDbEntity
  8
0
  6
Continuous
 62
     7
370
     0
100
AcDbLine
 10
43.3260776273
 20
236.2132675217
 30
0.0
 11
38.3260776273
 21
236.2132675217
 31
0.0
  0
LINE
  5
33A
330
330
100
AcDbEntity
  8
0
  6
Continuous
 62
     7
370
     0
100
AcDbLine
 10
43.3260776273
 20
236.2132675217
 30
0.0
 11
54.8886904568
 21
236.2132675217
 31
0.0
  0
LINE
  5
33B
330
330
100
AcDbEntity
  8
0
  6
Continuous
 62
     7
370
     0
100
AcDbLine
 10
54.8886904568
 20
236.2132675217
 30
0.0
 11
59.8886904568
 21
236.2132675217
 31
0.0
  0
MTEXT
  5
33C
330
330
100
AcDbEntity
  8
0
  6
Continuous
 62
     7
370
    18
100
AcDbMText
 10
45.0337729889
 20
240.7250043781
 30
0.0
 40
3.5
 41
0.0
 71
     1
 72
     1
  1
11.6
  7
SLDTEXTSTYLE0
 73
     1
 44
1.0
  0
ENDBLK
  5
332
330
330
100
AcDbEntity
  8
0
100
AcDbBlockEnd
  0
BLOCK
  5
33E
330
33D
100
AcDbEntity
  8
0
100
AcDbBlockBegin
  2
SW_CENTERMARKSYMBOL_0
 70
     0
 10
0.0
 20
0.0
 30
0.0
  3
SW_CENTERMARKSYMBOL_0
  1

  0
LINE
  5
340
330
33D
100
AcDbEntity
  8
0
  6
Continuous
 62
     0
370
    18
100
AcDbLine
 10
0.0
 20
0.0
 30
0.0
 11
0.0
 21
2.5
 31
0.0
  0
LINE
  5
341
330
33D
100
AcDbEntity
  8
0
  6
Continuous
 62
     0
370
    18
100
AcDbLine
 10
0.0
 20
0.0
 30
0.0
 11
-2.5
 21
0.0
 31
0.0
  0
LINE
  5
342
330
33D
100
AcDbEntity
  8
0
  6
Continuous
 62
     0
370
    18
100
AcDbLine
 10
0.0
 20
0.0
 30
0.0
 11
0.0
 21
-2.5
 31
0.0
  0
LINE
  5
343
330
33D
100
AcDbEntity
  8
0
  6
Continuous
 62
     0
370
    18
100
AcDbLine
 10
0.0
 20
0.0
 30
0.0
 11
2.5
 21
0.0
 31
0.0
  0
LINE
  5
344
330
33D
100
AcDbEntity
  8
0
  6
Continuous
 62
     0
370
    18
100
AcDbLine
 10
0.0
 20
5.0
 30
0.0
 11
0.0
 21
6.0
 31
0.0
  0
LINE
  5
345
330
33D
100
AcDbEntity
  8
0
  6
Continuous
 62
     0
370
    18
100
AcDbLine
 10
-5.0
 20
0.0
 30
0.0
 11
-6.0
 21
0.0
 31
0.0
  0
LINE
  5
346
330
33D
100
AcDbEntity
  8
0
  6
Continuous
 62
     0
370
    18
100
AcDbLine
 10
0.0
 20
-5.0
 30
0.0
 11
0.0
 21
-6.0
 31
0.0
  0
LINE
  5
347
330
33D
100
AcDbEntity
  8
0
  6
Continuous
 62
     0
370
    18
100
AcDbLine
 10
5.0
 20
0.0
 30
0.0
 11
6.0
 21
0.0
 31
0.0
  0
ENDBLK
  5
33F
330
33D
100
AcDbEntity
  8
0
100
AcDbBlockEnd
  0
BLOCK
  5
34A
330
349
100
AcDbEntity
  8
0
100
AcDbBlockBegin
  2
SW_CENTERMARKSYMBOL_1
 70
     0
 10
0.0
 20
0.0
 30
0.0
  3
SW_CENTERMARKSYMBOL_1
  1

  0
LINE
  5
34C
330
349
100
AcDbEntity
  8
0
  6
Continuous
 62
     0
370
    18
100
AcDbLine
 10
0.0
 20
0.0
 30
0.0
 11
0.0
 21
2.5
 31
0.0
  0
LINE
  5
34D
330
349
100
AcDbEntity
  8
0
  6
Continuous
 62
     0
370
    18
100
AcDbLine
 10
0.0
 20
0.0
 30
0.0
 11
-2.5
 21
0.0
 31
0.0
  0
LINE
  5
34E
330
349
100
AcDbEntity
  8
0
  6
Continuous
 62
     0
370
    18
100
AcDbLine
 10
0.0
 20
0.0
 30
0.0
 11
0.0
 21
-2.5
 31
0.0
  0
LINE
  5
34F
330
349
100
AcDbEntity
  8
0
  6
Continuous
 62
     0
370
    18
100
AcDbLine
 10
0.0
 20
0.0
 30
0.0
 11
2.5
 21
0.0
 31
0.0
  0
LINE
  5
350
330
349
100
AcDbEntity
  8
0
  6
Continuous
 62
     0
370
    18
100
AcDbLine
 10
0.0
 20
2.5
 30
0.0
 11
0.0
 21
4.75
 31
0.0
  0
LINE
  5
351
330
349
100
AcDbEntity
  8
0
  6
Continuous
 62
     0
370
    18
100
AcDbLine
 10
-2.5
 20
0.0
 30
0.0
 11
-4.75
 21
0.0
 31
0.0
  0
LINE
  5
352
330
349
100
AcDbEntity
  8
0
  6
Continuous
 62
     0
370
    18
100
AcDbLine
 10
0.0
 20
-2.5
 30
0.0
 11
0.0
 21
-4.75
 31
0.0
  0
LINE
  5
353
330
349
100
AcDbEntity
  8
0
  6
Continuous
 62
     0
370
    18
100
AcDbLine
 10
2.5
 20
0.0
 30
0.0
 11
4.75
 21
0.0
 31
0.0
  0
ENDBLK
  5
34B
330
349
100
AcDbEntity
  8
0
100
AcDbBlockEnd
  0
BLOCK
  5
356
330
355
100
AcDbEntity
  8
0
100
AcDbBlockBegin
  2
SW_CENTERMARKSYMBOL_2
 70
     0
 10
0.0
 20
0.0
 30
0.0
  3
SW_CENTERMARKSYMBOL_2
  1

  0
LINE
  5
358
330
355
100
AcDbEntity
  8
0
  6
Continuous
 62
     0
370
    18
100
AcDbLine
 10
0.0
 20
0.0
 30
0.0
 11
0.0
 21
2.5
 31
0.0
  0
LINE
  5
359
330
355
100
AcDbEntity
  8
0
  6
Continuous
 62
     0
370
    18
100
AcDbLine
 10
0.0
 20
0.0
 30
0.0
 11
-2.5
 21
0.0
 31
0.0
  0
LINE
  5
35A
330
355
100
AcDbEntity
  8
0
  6
Continuous
 62
     0
370
    18
100
AcDbLine
 10
0.0
 20
0.0
 30
0.0
 11
0.0
 21
-2.5
 31
0.0
  0
LINE
  5
35B
330
355
100
AcDbEntity
  8
0
  6
Continuous
 62
     0
370
    18
100
AcDbLine
 10
0.0
 20
0.0
 30
0.0
 11
2.5
 21
0.0
 31
0.0
  0
LINE
  5
35C
330
355
100
AcDbEntity
  8
0
  6
Continuous
 62
     0
370
    18
100
AcDbLine
 10
0.0
 20
5.0
 30
0.0
 11
0.0
 21
6.5
 31
0.0
  0
LINE
  5
35D
330
355
100
AcDbEntity
  8
0
  6
Continuous
 62
     0
370
    18
100
AcDbLine
 10
-5.0
 20
0.0
 30
0.0
 11
-6.5
 21
0.0
 31
0.0
  0
LINE
  5
35E
330
355
100
AcDbEntity
  8
0
  6
Continuous
 62
     0
370
    18
100
AcDbLine
 10
0.0
 20
-5.0
 30
0.0
 11
0.0
 21
-6.5
 31
0.0
  0
LINE
  5
35F
330
355
100
AcDbEntity
  8
0
  6
Continuous
 62
     0
370
    18
100
AcDbLine
 10
5.0
 20
0.0
 30
0.0
 11
6.5
 21
0.0
 31
0.0
  0
ENDBLK
  5
357
330
355
100
AcDbEntity
  8
0
100
AcDbBlockEnd
  0
BLOCK
  5
362
330
361
100
AcDbEntity
  8
0
100
AcDbBlockBegin
  2
SW_CENTERMARKSYMBOL_3
 70
     0
 10
0.0
 20
0.0
 30
0.0
  3
SW_CENTERMARKSYMBOL_3
  1

  0
LINE
  5
364
330
361
100
AcDbEntity
  8
0
  6
Continuous
 62
     0
370
    18
100
AcDbLine
 10
0.0
 20
0.0
 30
0.0
 11
0.0
 21
2.5
 31
0.0
  0
LINE
  5
365
330
361
100
AcDbEntity
  8
0
  6
Continuous
 62
     0
370
    18
100
AcDbLine
 10
0.0
 20
0.0
 30
0.0
 11
-2.5
 21
0.0
 31
0.0
  0
LINE
  5
366
330
361
100
AcDbEntity
  8
0
  6
Continuous
 62
     0
370
    18
100
AcDbLine
 10
0.0
 20
0.0
 30
0.0
 11
0.0
 21
-2.5
 31
0.0
  0
LINE
  5
367
330
361
100
AcDbEntity
  8
0
  6
Continuous
 62
     0
370
    18
100
AcDbLine
 10
0.0
 20
0.0
 30
0.0
 11
2.5
 21
0.0
 31
0.0
  0
LINE
  5
368
330
361
100
AcDbEntity
  8
0
  6
Continuous
 62
     0
370
    18
100
AcDbLine
 10
0.0
 20
2.5
 30
0.0
 11
0.0
 21
4.75
 31
0.0
  0
LINE
  5
369
330
361
100
AcDbEntity
  8
0
  6
Continuous
 62
     0
370
    18
100
AcDbLine
 10
-2.5
 20
0.0
 30
0.0
 11
-4.75
 21
0.0
 31
0.0
  0
LINE
  5
36A
330
361
100
AcDbEntity
  8
0
  6
Continuous
 62
     0
370
    18
100
AcDbLine
 10
0.0
 20
-2.5
 30
0.0
 11
0.0
 21
-4.75
 31
0.0
  0
LINE
  5
36B
330
361
100
AcDbEntity
  8
0
  6
Continuous
 62
     0
370
    18
100
AcDbLine
 10
2.5
 20
0.0
 30
0.0
 11
4.75
 21
0.0
 31
0.0
  0
ENDBLK
  5
363
330
361
100
AcDbEntity
  8
0
100
AcDbBlockEnd
  0
BLOCK
  5
36E
330
36D
100
AcDbEntity
  8
0
100
AcDbBlockBegin
  2
SW_CENTERMARKSYMBOL_4
 70
     0
 10
0.0
 20
0.0
 30
0.0
  3
SW_CENTERMARKSYMBOL_4
  1

  0
LINE
  5
370
330
36D
100
AcDbEntity
  8
0
  6
Continuous
 62
     0
370
    18
100
AcDbLine
 10
0.0
 20
0.0
 30
0.0
 11
0.0
 21
2.5
 31
0.0
  0
LINE
  5
371
330
36D
100
AcDbEntity
  8
0
  6
Continuous
 62
     0
370
    18
100
AcDbLine
 10
0.0
 20
0.0
 30
0.0
 11
-2.5
 21
0.0
 31
0.0
  0
LINE
  5
372
330
36D
100
AcDbEntity
  8
0
  6
Continuous
 62
     0
370
    18
100
AcDbLine
 10
0.0
 20
0.0
 30
0.0
 11
0.0
 21
-2.5
 31
0.0
  0
LINE
  5
373
330
36D
100
AcDbEntity
  8
0
  6
Continuous
 62
     0
370
    18
100
AcDbLine
 10
0.0
 20
0.0
 30
0.0
 11
2.5
 21
0.0
 31
0.0
  0
LINE
  5
374
330
36D
100
AcDbEntity
  8
0
  6
Continuous
 62
     0
370
    18
100
AcDbLine
 10
0.0
 20
5.0
 30
0.0
 11
0.0
 21
6.5
 31
0.0
  0
LINE
  5
375
330
36D
100
AcDbEntity
  8
0
  6
Continuous
 62
     0
370
    18
100
AcDbLine
 10
-5.0
 20
0.0
 30
0.0
 11
-6.5
 21
0.0
 31
0.0
  0
LINE
  5
376
330
36D
100
AcDbEntity
  8
0
  6
Continuous
 62
     0
370
    18
100
AcDbLine
 10
0.0
 20
-5.0
 30
0.0
 11
0.0
 21
-6.5
 31
0.0
  0
LINE
  5
377
330
36D
100
AcDbEntity
  8
0
  6
Continuous
 62
     0
370
    18
100
AcDbLine
 10
5.0
 20
0.0
 30
0.0
 11
6.5
 21
0.0
 31
0.0
  0
ENDBLK
  5
36F
330
36D
100
AcDbEntity
  8
0
100
AcDbBlockEnd
  0
BLOCK
  5
37A
330
379
100
AcDbEntity
  8
0
100
AcDbBlockBegin
  2
SW_CENTERMARKSYMBOL_5
 70
     0
 10
0.0
 20
0.0
 30
0.0
  3
SW_CENTERMARKSYMBOL_5
  1

  0
LINE
  5
37C
330
379
100
AcDbEntity
  8
0
  6
Continuous
 62
     0
370
    18
100
AcDbLine
 10
0.0
 20
0.0
 30
0.0
 11
0.0
 21
2.5
 31
0.0
  0
LINE
  5
37D
330
379
100
AcDbEntity
  8
0
  6
Continuous
 62
     0
370
    18
100
AcDbLine
 10
0.0
 20
0.0
 30
0.0
 11
-2.5
 21
0.0
 31
0.0
  0
LINE
  5
37E
330
379
100
AcDbEntity
  8
0
  6
Continuous
 62
     0
370
    18
100
AcDbLine
 10
0.0
 20
0.0
 30
0.0
 11
0.0
 21
-2.5
 31
0.0
  0
LINE
  5
37F
330
379
100
AcDbEntity
  8
0
  6
Continuous
 62
     0
370
    18
100
AcDbLine
 10
0.0
 20
0.0
 30
0.0
 11
2.5
 21
0.0
 31
0.0
  0
LINE
  5
380
330
379
100
AcDbEntity
  8
0
  6
Continuous
 62
     0
370
    18
100
AcDbLine
 10
0.0
 20
5.0
 30
0.0
 11
0.0
 21
5.25
 31
0.0
  0
LINE
  5
381
330
379
100
AcDbEntity
  8
0
  6
Continuous
 62
     0
370
    18
100
AcDbLine
 10
-5.0
 20
0.0
 30
0.0
 11
-5.25
 21
0.0
 31
0.0
  0
LINE
  5
382
330
379
100
AcDbEntity
  8
0
  6
Continuous
 62
     0
370
    18
100
AcDbLine
 10
0.0
 20
-5.0
 30
0.0
 11
0.0
 21
-5.25
 31
0.0
  0
LINE
  5
383
330
379
100
AcDbEntity
  8
0
  6
Continuous
 62
     0
370
    18
100
AcDbLine
 10
5.0
 20
0.0
 30
0.0
 11
5.25
 21
0.0
 31
0.0
  0
ENDBLK
  5
37B
330
379
100
AcDbEntity
  8
0
100
AcDbBlockEnd
  0
BLOCK
  5
435
330
434
100
AcDbEntity
  8
0
100
AcDbBlockBegin
  2
_D_18
 70
     0
 10
0.0
 20
0.0
 30
0.0
  3
_D_18
  1

  0
SOLID
  5
437
330
434
100
AcDbEntity
  8
0
  6
Continuous
 62
     7
370
    18
100
AcDbTrace
 10
119.8056130724
 20
81.2559527464
 30
0.0
 11
122.8056130724
 21
80.5059527464
 31
0.0
 12
122.8056130724
 22
82.0059527464
 32
0.0
 13
122.8056130724
 23
82.0059527464
 33
0.0
  0
SOLID
  5
438
330
434
100
AcDbEntity
  8
0
  6
Continuous
 62
     7
370
    18
100
AcDbTrace
 10
138.8056130724
 20
81.2559527464
 30
0.0
 11
135.8056130724
 21
82.0059527464
 31
0.0
 12
135.8056130724
 22
80.5059527464
 32
0.0
 13
135.8056130724
 23
80.5059527464
 33
0.0
  0
LINE
  5
439
330
434
100
AcDbEntity
  8
0
  6
Continuous
 62
     7
370
     0
100
AcDbLine
 10
119.8056130724
 20
90.2566011991
 30
0.0
 11
119.8056130724
 21
80.2559527464
 31
0.0
  0
LINE
  5
43A
330
434
100
AcDbEntity
  8
0
  6
Continuous
 62
     7
370
     0
100
AcDbLine
 10
138.8056130724
 20
96.1066011991
 30
0.0
 11
138.8056130724
 21
80.2559527464
 31
0.0
  0
LINE
  5
43B
330
434
100
AcDbEntity
  8
0
  6
Continuous
 62
     7
370
     0
100
AcDbLine
 10
119.8056130724
 20
81.2559527464
 30
0.0
 11
138.8056130724
 21
81.2559527464
 31
0.0
  0
MTEXT
  5
43C
330
434
100
AcDbEntity
  8
0
  6
Continuous
 62
     7
370
    18
100
AcDbMText
 10
127.2688075749
 20
85.7676896027
 30
0.0
 40
3.5
 41
0.0
 71
     1
 72
     1
  1
19
  7
SLDTEXTSTYLE0
 73
     1
 44
1.0
  0
ENDBLK
  5
436
330
434
100
AcDbEntity
  8
0
100
AcDbBlockEnd
  0
BLOCK
  5
43F
330
43E
100
AcDbEntity
  8
0
100
AcDbBlockBegin
  2
_D_19
 70
     0
 10
0.0
 20
0.0
 30
0.0
  3
_D_19
  1

  0
SOLID
  5
441
330
43E
100
AcDbEntity
  8
0
  6
Continuous
 62
     7
370
    18
100
AcDbTrace
 10
138.8056130724
 20
81.2559527464
 30
0.0
 11
141.8056130724
 21
80.5059527464
 31
0.0
 12
141.8056130724
 22
82.0059527464
 32
0.0
 13
141.8056130724
 23
82.0059527464
 33
0.0
  0
SOLID
  5
442
330
43E
100
AcDbEntity
  8
0
  6
Continuous
 62
     7
370
    18
100
AcDbTrace
 10
158.8056130724
 20
81.2559527464
 30
0.0
 11
155.8056130724
 21
82.0059527464
 31
0.0
 12
155.8056130724
 22
80.5059527464
 32
0.0
 13
155.8056130724
 23
80.5059527464
 33
0.0
  0
LINE
  5
443
330
43E
100
AcDbEntity
  8
0
  6
Continuous
 62
     7
370
     0
100
AcDbLine
 10
138.8056130724
 20
96.1066011991
 30
0.0
 11
138.8056130724
 21
80.2559527464
 31
0.0
  0
LINE
  5
444
330
43E
100
AcDbEntity
  8
0
  6
Continuous
 62
     7
370
     0
100
AcDbLine
 10
158.8056130724
 20
96.1066011991
 30
0.0
 11
158.8056130724
 21
80.2559527464
 31
0.0
  0
LINE
  5
445
330
43E
100
AcDbEntity
  8
0
  6
Continuous
 62
     7
370
     0
100
AcDbLine
 10
138.8056130724
 20
81.2559527464
 30
0.0
 11
158.8056130724
 21
81.2559527464
 31
0.0
  0
MTEXT
  5
446
330
43E
100
AcDbEntity
  8
0
  6
Continuous
 62
     7
370
    18
100
AcDbMText
 10
146.7688075749
 20
85.7676896027
 30
0.0
 40
3.5
 41
0.0
 71
     1
 72
     1
  1
20
  7
SLDTEXTSTYLE0
 73
     1
 44
1.0
  0
ENDBLK
  5
440
330
43E
100
AcDbEntity
  8
0
100
AcDbBlockEnd
  0
BLOCK
  5
449
330
448
100
AcDbEntity
  8
0
100
AcDbBlockBegin
  2
_D_20
 70
     0
 10
0.0
 20
0.0
 30
0.0
  3
_D_20
  1

  0
SOLID
  5
44B
330
448
100
AcDbEntity
  8
0
  6
Continuous
 62
     7
370
    18
100
AcDbTrace
 10
158.8056130724
 20
81.2559527464
 30
0.0
 11
161.8056130724
 21
80.5059527464
 31
0.0
 12
161.8056130724
 22
82.0059527464
 32
0.0
 13
161.8056130724
 23
82.0059527464
 33
0.0
  0
SOLID
  5
44C
330
448
100
AcDbEntity
  8
0
  6
Continuous
 62
     7
370
    18
100
AcDbTrace
 10
181.3056130724
 20
81.2559527464
 30
0.0
 11
178.3056130724
 21
82.0059527464
 31
0.0
 12
178.3056130724
 22
80.5059527464
 32
0.0
 13
178.3056130724
 23
80.5059527464
 33
0.0
  0
LINE
  5
44D
330
448
100
AcDbEntity
  8
0
  6
Continuous
 62
     7
370
     0
100
AcDbLine
 10
158.8056130724
 20
96.1066011991
 30
0.0
 11
158.8056130724
 21
80.2559527464
 31
0.0
  0
LINE
  5
44E
330
448
100
AcDbEntity
  8
0
  6
Continuous
 62
     7
370
     0
100
AcDbLine
 10
181.3056130724
 20
90.7566011991
 30
0.0
 11
181.3056130724
 21
80.2559527464
 31
0.0
  0
LINE
  5
44F
330
448
100
AcDbEntity
  8
0
  6
Continuous
 62
     7
370
     0
100
AcDbLine
 10
158.8056130724
 20
81.2559527464
 30
0.0
 11
181.3056130724
 21
81.2559527464
 31
0.0
  0
MTEXT
  5
450
330
448
100
AcDbEntity
  8
0
  6
Continuous
 62
     7
370
    18
100
AcDbMText
 10
165.9820020775
 20
85.7676896027
 30
0.0
 40
3.5
 41
0.0
 71
     1
 72
     1
  1
22.5
  7
SLDTEXTSTYLE0
 73
     1
 44
1.0
  0
ENDBLK
  5
44A
330
448
100
AcDbEntity
  8
0
100
AcDbBlockEnd
  0
BLOCK
  5
454
330
453
100
AcDbEntity
  8
0
100
AcDbBlockBegin
  2
_D_21
 70
     0
 10
0.0
 20
0.0
 30
0.0
  3
_D_21
  1

  0
SOLID
  5
456
330
453
100
AcDbEntity
  8
0
  6
Continuous
 62
     7
370
    18
100
AcDbTrace
 10
139.9723392614
 20
102.4233273881
 30
0.0
 11
142.6239896908
 21
104.0143176457
 31
0.0
 12
141.5633295191
 22
105.0749778175
 32
0.0
 13
141.5633295191
 23
105.0749778175
 33
0.0
  0
LINE
  5
457
330
453
100
AcDbEntity
  8
0
  6
Continuous
 62
     7
370
     0
100
AcDbLine
 10
139.9723392614
 20
102.4233273881
 30
0.0
 11
153.9223819157
 21
116.3733700424
 31
0.0
  0
LINE
  5
458
330
453
100
AcDbEntity
  8
0
  6
Continuous
 62
     7
370
     0
100
AcDbLine
 10
153.9223819157
 20
116.3733700424
 30
0.0
 11
177.9147407582
 21
116.3733700424
 31
0.0
  0
MTEXT
  5
459
330
453
100
AcDbEntity
  8
0
  6
Continuous
 62
     7
370
    18
100
AcDbMText
 10
155.5098819157
 20
120.8851068987
 30
0.0
 40
3.5
 41
0.0
 71
     1
 72
     1
  1
2-M4 取付用
  7
SLDTEXTSTYLE0
 73
     1
 44
1.0
  0
ENDBLK
  5
455
330
453
100
AcDbEntity
  8
0
100
AcDbBlockEnd
  0
BLOCK
  5
45B
330
45A
100
AcDbEntity
  8
0
100
AcDbBlockBegin
  2
SW_NOTE_0_2
 70
     0
 10
0.0
 20
0.0
 30
0.0
  3
SW_NOTE_0_2
  1

  0
LINE
  5
45D
330
45A
100
AcDbEntity
  8
0
  6
Continuous
 62
     0
370
     0
100
AcDbLine
 10
-28.6402755678
 20
0.0
 30
0.0
 11
0.0
 21
0.0
 31
0.0
  0
MTEXT
  5
45E
330
45A
100
AcDbEntity
  8
0
  6
Continuous
 62
     0
370
     0
100
AcDbMText
 10
-29.0521181184
 20
4.6315419044
 30
0.0
 40
3.5
 41
0.0
 71
     1
 72
     1
  1
ストローク調整
  7
SLDTEXTSTYLE0
 73
     1
 44
1.0
  0
ENDBLK
  5
45C
330
45A
100
AcDbEntity
  8
0
100
AcDbBlockEnd
  0
BLOCK
  5
463
330
462
100
AcDbEntity
  8
0
100
AcDbBlockBegin
  2
SW_CENTERMARKSYMBOL_6
 70
     0
 10
0.0
 20
0.0
 30
0.0
  3
SW_CENTERMARKSYMBOL_6
  1

  0
LINE
  5
465
330
462
100
AcDbEntity
  8
0
  6
Continuous
 62
     0
370
    18
100
AcDbLine
 10
0.0
 20
0.0
 30
0.0
 11
0.0
 21
2.5
 31
0.0
  0
LINE
  5
466
330
462
100
AcDbEntity
  8
0
  6
Continuous
 62
     0
370
    18
100
AcDbLine
 10
0.0
 20
0.0
 30
0.0
 11
-2.5
 21
0.0
 31
0.0
  0
LINE
  5
467
330
462
100
AcDbEntity
  8
0
  6
Continuous
 62
     0
370
    18
100
AcDbLine
 10
0.0
 20
0.0
 30
0.0
 11
0.0
 21
-2.5
 31
0.0
  0
LINE
  5
468
330
462
100
AcDbEntity
  8
0
  6
Continuous
 62
     0
370
    18
100
AcDbLine
 10
0.0
 20
0.0
 30
0.0
 11
2.5
 21
0.0
 31
0.0
  0
LINE
  5
469
330
462
100
AcDbEntity
  8
0
  6
Continuous
 62
     0
370
    18
100
AcDbLine
 10
0.0
 20
2.5
 30
0.0
 11
0.0
 21
4.15
 31
0.0
  0
LINE
  5
46A
330
462
100
AcDbEntity
  8
0
  6
Continuous
 62
     0
370
    18
100
AcDbLine
 10
-2.5
 20
0.0
 30
0.0
 11
-4.15
 21
0.0
 31
0.0
  0
LINE
  5
46B
330
462
100
AcDbEntity
  8
0
  6
Continuous
 62
     0
370
    18
100
AcDbLine
 10
0.0
 20
-2.5
 30
0.0
 11
0.0
 21
-4.15
 31
0.0
  0
LINE
  5
46C
330
462
100
AcDbEntity
  8
0
  6
Continuous
 62
     0
370
    18
100
AcDbLine
 10
2.5
 20
0.0
 30
0.0
 11
4.15
 21
0.0
 31
0.0
  0
ENDBLK
  5
464
330
462
100
AcDbEntity
  8
0
100
AcDbBlockEnd
  0
BLOCK
  5
46F
330
46E
100
AcDbEntity
  8
0
100
AcDbBlockBegin
  2
SW_CENTERMARKSYMBOL_7
 70
     0
 10
0.0
 20
0.0
 30
0.0
  3
SW_CENTERMARKSYMBOL_7
  1

  0
LINE
  5
471
330
46E
100
AcDbEntity
  8
0
  6
Continuous
 62
     0
370
    18
100
AcDbLine
 10
0.0
 20
0.0
 30
0.0
 11
0.0
 21
2.5
 31
0.0
  0
LINE
  5
472
330
46E
100
AcDbEntity
  8
0
  6
Continuous
 62
     0
370
    18
100
AcDbLine
 10
0.0
 20
0.0
 30
0.0
 11
-2.5
 21
0.0
 31
0.0
  0
LINE
  5
473
330
46E
100
AcDbEntity
  8
0
  6
Continuous
 62
     0
370
    18
100
AcDbLine
 10
0.0
 20
0.0
 30
0.0
 11
0.0
 21
-2.5
 31
0.0
  0
LINE
  5
474
330
46E
100
AcDbEntity
  8
0
  6
Continuous
 62
     0
370
    18
100
AcDbLine
 10
0.0
 20
0.0
 30
0.0
 11
2.5
 21
0.0
 31
0.0
  0
LINE
  5
475
330
46E
100
AcDbEntity
  8
0
  6
Continuous
 62
     0
370
    18
100
AcDbLine
 10
0.0
 20
2.5
 30
0.0
 11
0.0
 21
4.15
 31
0.0
  0
LINE
  5
476
330
46E
100
AcDbEntity
  8
0
  6
Continuous
 62
     0
370
    18
100
AcDbLine
 10
-2.5
 20
0.0
 30
0.0
 11
-4.15
 21
0.0
 31
0.0
  0
LINE
  5
477
330
46E
100
AcDbEntity
  8
0
  6
Continuous
 62
     0
370
    18
100
AcDbLine
 10
0.0
 20
-2.5
 30
0.0
 11
0.0
 21
-4.15
 31
0.0
  0
LINE
  5
478
330
46E
100
AcDbEntity
  8
0
  6
Continuous
 62
     0
370
    18
100
AcDbLine
 10
2.5
 20
0.0
 30
0.0
 11
4.15
 21
0.0
 31
0.0
  0
ENDBLK
  5
470
330
46E
100
AcDbEntity
  8
0
100
AcDbBlockEnd
  0
ENDSEC
  0
SECTION
  2
ENTITIES
  0
LINE
  5
73
330
1F
100
AcDbEntity
  8
0
  6
Continuous
 62
     7
370
    18
100
AcDbLine
 10
20.2604743903
 20
285.0
 30
0.0
 11
196.7604743903
 21
285.0
 31
0.0
  0
LINE
  5
74
330
1F
100
AcDbEntity
  8
0
  6
Continuous
 62
     7
370
    18
100
AcDbLine
 10
20.2604743903
 20
285.0
 30
0.0
 11
20.2604743903
 21
10.0
 31
0.0
  0
LINE
  5
75
330
1F
100
AcDbEntity
  8
0
  6
Continuous
 62
     7
370
    18
100
AcDbLine
 10
20.2604743903
 20
10.0
 30
0.0
 11
196.7604743903
 21
10.0
 31
0.0
  0
LINE
  5
76
330
1F
100
AcDbEntity
  8
0
  6
Continuous
 62
     7
370
    18
100
AcDbLine
 10
196.7604743903
 20
285.0
 30
0.0
 11
196.7604743903
 21
10.0
 31
0.0
  0
LINE
  5
77
330
1F
100
AcDbEntity
  8
0
  6
Continuous
 62
     7
370
    18
100
AcDbLine
 10
127.0104743903
 20
50.75
 30
0.0
 11
196.7604743903
 21
50.75
 31
0.0
  0
LINE
  5
78
330
1F
100
AcDbEntity
  8
0
  6
Continuous
 62
     7
370
    18
100
AcDbLine
 10
127.0104743903
 20
50.75
 30
0.0
 11
127.0104743903
 21
10.0
 31
0.0
  0
LINE
  5
79
330
1F
100
AcDbEntity
  8
0
  6
Continuous
 62
     7
370
    18
100
AcDbLine
 10
127.0104743903
 20
22.75
 30
0.0
 11
196.7604743903
 21
22.75
 31
0.0
  0
LINE
  5
7A
330
1F
100
AcDbEntity
  8
0
  6
Continuous
 62
     7
370
    18
100
AcDbLine
 10
127.0104743903
 20
36.75
 30
0.0
 11
196.7604743903
 21
36.75
 31
0.0
  0
MTEXT
  5
7C
330
1F
100
AcDbEntity
  8
0
  6
Continuous
 62
     7
370
     0
100
AcDbMText
 10
162.9354751655
 20
30.4171582345
 30
0.0
 40
4.2333333333
 41
0.0
 71
     2
 72
     1
  1
HNW-101
  7
SLDTEXTSTYLE0
 73
     1
 44
1.0
  0
MTEXT
  5
7D
330
1F
100
AcDbEntity
  8
0
  6
Continuous
 62
     7
370
     0
100
AcDbMText
 10
160.0816863765
 20
43.9643957194
 30
0.0
 40
3.7041666667
 41
0.0
 71
     2
 72
     1
  1
ミニエアニッパー・本体・薄刃付
  7
SLDTEXTSTYLE0
 73
     1
 44
1.0
  0
MTEXT
  5
7E
330
1F
100
AcDbEntity
  8
0
  6
Continuous
 62
     7
370
     0
100
AcDbMText
 10
161.4991332077
 20
16.8228189052
 30
0.0
 40
4.2333333333
 41
0.0
 71
     2
 72
     1
  1
073302
  7
SLDTEXTSTYLE0
 73
     1
 44
1.0
  0
ARC
  5
7F
330
1F
100
AcDbEntity
  8
0
  6
Continuous
 62
     7
370
    18
100
AcDbCircle
 10
133.2306130724
 20
178.1586720824
 30
0.0
 40
0.1250000000000284
100
AcDbArc
 50
180.0
 51
270.0
  0
ARC
  5
80
330
1F
100
AcDbEntity
  8
0
  6
Continuous
 62
     7
370
    18
100
AcDbCircle
 10
133.2306130724
 20
201.4086720824
 30
0.0
 40
0.1250000000000284
100
AcDbArc
 50
90.0
 51
180.0
  0
LINE
  5
81
330
1F
100
AcDbEntity
  8
0
  6
Continuous
 62
     7
370
    18
100
AcDbLine
 10
133.2306130724
 20
178.0336720824
 30
0.0
 11
135.6056130724
 21
178.0336720824
 31
0.0
  0
LINE
  5
82
330
1F
100
AcDbEntity
  8
0
  6
Continuous
 62
     7
370
    18
100
AcDbLine
 10
135.6056130724
 20
201.5336720824
 30
0.0
 11
133.2306130724
 21
201.5336720824
 31
0.0
  0
LINE
  5
83
330
1F
100
AcDbEntity
  8
0
  6
Continuous
 62
     7
370
    18
100
AcDbLine
 10
132.6056130724
 20
188.7836720824
 30
0.0
 11
131.8056130724
 21
188.7836720824
 31
0.0
  0
LINE
  5
84
330
1F
100
AcDbEntity
  8
0
  6
Continuous
 62
     7
370
    18
100
AcDbLine
 10
131.8056130724
 20
185.7836720824
 30
0.0
 11
132.6056130724
 21
185.7836720824
 31
0.0
  0
ARC
  5
85
330
1F
100
AcDbEntity
  8
0
  6
Continuous
 62
     7
370
    18
100
AcDbCircle
 10
133.2306130724
 20
197.1586720824
 30
0.0
 40
0.1250000000000284
100
AcDbArc
 50
180.0
 51
270.0
  0
LINE
  5
86
330
1F
100
AcDbEntity
  8
0
  6
Continuous
 62
     7
370
    18
100
AcDbLine
 10
133.2306130724
 20
197.0336720824
 30
0.0
 11
135.6056130724
 21
197.0336720824
 31
0.0
  0
ARC
  5
87
330
1F
100
AcDbEntity
  8
0
  6
Continuous
 62
     7
370
    18
100
AcDbCircle
 10
133.2306130724
 20
182.4086720824
 30
0.0
 40
0.1250000000000284
100
AcDbArc
 50
90.0
 51
180.0
  0
LINE
  5
88
330
1F
100
AcDbEntity
  8
0
  6
Continuous
 62
     7
370
    18
100
AcDbLine
 10
135.6056130724
 20
182.5336720824
 30
0.0
 11
133.2306130724
 21
182.5336720824
 31
0.0
  0
LINE
  5
89
330
1F
100
AcDbEntity
  8
0
  6
Continuous
 62
     7
370
    18
100
AcDbLine
 10
132.6056130724
 20
192.7836720824
 30
0.0
 11
125.6056130724
 21
192.7836720824
 31
0.0
  0
LINE
  5
8A
330
1F
100
AcDbEntity
  8
0
  6
Continuous
 62
     7
370
    18
100
AcDbLine
 10
125.6056130724
 20
181.7836720824
 30
0.0
 11
132.6056130724
 21
181.7836720824
 31
0.0
  0
LINE
  5
8B
330
1F
100
AcDbEntity
  8
0
  6
Continuous
 62
     7
370
    18
100
AcDbLine
 10
129.423995213
 20
201.2836720824
 30
0.0
 11
129.0600249787
 21
202.2836720824
 31
0.0
  0
LINE
  5
8C
330
1F
100
AcDbEntity
  8
0
  6
Continuous
 62
     7
370
    18
100
AcDbLine
 10
129.0600249787
 20
202.2836720824
 30
0.0
 11
120.1056130724
 21
202.2836720824
 31
0.0
  0
LINE
  5
8D
330
1F
100
AcDbEntity
  8
0
  6
Continuous
 62
     7
370
    18
100
AcDbLine
 10
106.8056130724
 20
183.2836720824
 30
0.0
 11
115.7600249787
 21
183.2836720824
 31
0.0
  0
LINE
  5
8E
330
1F
100
AcDbEntity
  8
0
  6
Continuous
 62
     7
370
    18
100
AcDbLine
 10
115.7600249787
 20
183.2836720825
 30
0.0
 11
116.123995213
 21
184.2836720824
 31
0.0
  0
ARC
  5
8F
330
1F
100
AcDbEntity
  8
0
  6
Continuous
 62
     7
370
    18
100
AcDbCircle
 10
105.2056130724
 20
183.8336720824
 30
0.0
 40
0.5
100
AcDbArc
 50
180.0
 51
270.0
  0
ARC
  5
90
330
1F
100
AcDbEntity
  8
0
  6
Continuous
 62
     7
370
    18
100
AcDbCircle
 10
118.5056130724
 20
201.7336720824
 30
0.0
 40
0.5
100
AcDbArc
 50
90.0
 51
180.0
  0
LINE
  5
91
330
1F
100
AcDbEntity
  8
0
  6
Continuous
 62
     7
370
    18
100
AcDbLine
 10
119.5056130724
 20
202.2336720824
 30
0.0
 11
118.5056130724
 21
202.2336720824
 31
0.0
  0
LINE
  5
92
330
1F
100
AcDbEntity
  8
0
  6
Continuous
 62
     7
370
    18
100
AcDbLine
 10
105.2056130724
 20
183.3336720824
 30
0.0
 11
106.2056130724
 21
183.3336720824
 31
0.0
  0
LINE
  5
93
330
1F
100
AcDbEntity
  8
0
  6
Continuous
 62
     7
370
    18
100
AcDbLine
 10
129.0600249787
 20
194.2836720825
 30
0.0
 11
129.423995213
 21
195.2836720825
 31
0.0
  0
LINE
  5
94
330
1F
100
AcDbEntity
  8
0
  6
Continuous
 62
     7
370
    18
100
AcDbLine
 10
120.1056130724
 20
194.2836720824
 30
0.0
 11
129.0600249787
 21
194.2836720824
 31
0.0
  0
ARC
  5
95
330
1F
100
AcDbEntity
  8
0
  6
Continuous
 62
     7
370
    18
100
AcDbCircle
 10
118.5056130724
 20
194.8336720824
 30
0.0
 40
0.5
100
AcDbArc
 50
180.0
 51
270.0
  0
LINE
  5
96
330
1F
100
AcDbEntity
  8
0
  6
Continuous
 62
     7
370
    18
100
AcDbLine
 10
118.5056130724
 20
194.3336720824
 30
0.0
 11
119.5056130724
 21
194.3336720824
 31
0.0
  0
LINE
  5
97
330
1F
100
AcDbEntity
  8
0
  6
Continuous
 62
     7
370
    18
100
AcDbLine
 10
125.6056130724
 20
190.7836720824
 30
0.0
 11
121.8056130724
 21
190.7836720824
 31
0.0
  0
LINE
  5
98
330
1F
100
AcDbEntity
  8
0
  6
Continuous
 62
     7
370
    18
100
AcDbLine
 10
121.8056130724
 20
183.7836720824
 30
0.0
 11
125.6056130724
 21
183.7836720824
 31
0.0
  0
LINE
  5
99
330
1F
100
AcDbEntity
  8
0
  6
Continuous
 62
     7
370
    18
100
AcDbLine
 10
131.6056130724
 20
201.2836720824
 30
0.0
 11
129.423995213
 21
201.2836720824
 31
0.0
  0
LINE
  5
9A
330
1F
100
AcDbEntity
  8
0
  6
Continuous
 62
     7
370
    18
100
AcDbLine
 10
116.123995213
 20
184.2836720824
 30
0.0
 11
117.5499506398
 21
184.2836720824
 31
0.0
  0
LINE
  5
9B
330
1F
100
AcDbEntity
  8
0
  6
Continuous
 62
     7
370
    18
100
AcDbLine
 10
129.423995213
 20
195.2836720824
 30
0.0
 11
131.6056130724
 21
195.2836720824
 31
0.0
  0
LINE
  5
9C
330
1F
100
AcDbEntity
  8
0
  6
Continuous
 62
     7
370
    18
100
AcDbLine
 10
132.1056130724
 20
201.0336720824
 30
0.0
 11
131.6056130724
 21
201.0336720824
 31
0.0
  0
LINE
  5
9D
330
1F
100
AcDbEntity
  8
0
  6
Continuous
 62
     7
370
    18
100
AcDbLine
 10
131.6056130724
 20
195.5336720824
 30
0.0
 11
132.1056130724
 21
195.5336720824
 31
0.0
  0
LINE
  5
9E
330
1F
100
AcDbEntity
  8
0
  6
Continuous
 62
     7
370
    18
100
AcDbLine
 10
132.6056130724
 20
200.7836720824
 30
0.0
 11
132.1056130724
 21
200.7836720824
 31
0.0
  0
LINE
  5
9F
330
1F
100
AcDbEntity
  8
0
  6
Continuous
 62
     7
370
    18
100
AcDbLine
 10
132.1056130724
 20
195.7836720824
 30
0.0
 11
132.6056130724
 21
195.7836720824
 31
0.0
  0
LINE
  5
A0
330
1F
100
AcDbEntity
  8
0
  6
Continuous
 62
     7
370
    18
100
AcDbLine
 10
120.1056130724
 20
200.4836720824
 30
0.0
 11
119.5056130724
 21
200.4836720824
 31
0.0
  0
LINE
  5
A1
330
1F
100
AcDbEntity
  8
0
  6
Continuous
 62
     7
370
    18
100
AcDbLine
 10
106.2056130724
 20
185.0836720824
 30
0.0
 11
106.8056130724
 21
185.0836720824
 31
0.0
  0
LINE
  5
A2
330
1F
100
AcDbEntity
  8
0
  6
Continuous
 62
     7
370
    18
100
AcDbLine
 10
119.5056130724
 20
196.0836720824
 30
0.0
 11
120.1056130724
 21
196.0836720824
 31
0.0
  0
LINE
  5
A3
330
1F
100
AcDbEntity
  8
0
  6
Continuous
 62
     7
370
    18
100
AcDbLine
 10
115.7600249787
 20
191.2836720824
 30
0.0
 11
106.8056130724
 21
191.2836720824
 31
0.0
  0
LINE
  5
A4
330
1F
100
AcDbEntity
  8
0
  6
Continuous
 62
     7
370
    18
100
AcDbLine
 10
116.123995213
 20
190.2836720825
 30
0.0
 11
115.7600249787
 21
191.2836720824
 31
0.0
  0
ARC
  5
A5
330
1F
100
AcDbEntity
  8
0
  6
Continuous
 62
     7
370
    18
100
AcDbCircle
 10
105.2056130724
 20
190.7336720824
 30
0.0
 40
0.5
100
AcDbArc
 50
90.0
 51
180.0
  0
LINE
  5
A6
330
1F
100
AcDbEntity
  8
0
  6
Continuous
 62
     7
370
    18
100
AcDbLine
 10
106.2056130724
 20
191.2336720824
 30
0.0
 11
105.2056130724
 21
191.2336720824
 31
0.0
  0
LINE
  5
A7
330
1F
100
AcDbEntity
  8
0
  6
Continuous
 62
     7
370
    18
100
AcDbLine
 10
117.5499506398
 20
190.2836720824
 30
0.0
 11
116.123995213
 21
190.2836720824
 31
0.0
  0
LINE
  5
A8
330
1F
100
AcDbEntity
  8
0
  6
Continuous
 62
     7
370
    18
100
AcDbLine
 10
106.8056130724
 20
189.4836720824
 30
0.0
 11
106.2056130724
 21
189.4836720824
 31
0.0
  0
ARC
  5
A9
330
1F
100
AcDbEntity
  8
0
  6
Continuous
 62
     7
370
    18
100
AcDbCircle
 10
177.8806130724
 20
181.9086720824
 30
0.0
 40
0.1250000000000284
100
AcDbArc
 50
0.0
 51
90.0
  0
LINE
  5
AA
330
1F
100
AcDbEntity
  8
0
  6
Continuous
 62
     7
370
    18
100
AcDbLine
 10
177.8806130724
 20
182.0336720824
 30
0.0
 11
175.5056130724
 21
182.0336720824
 31
0.0
  0
ARC
  5
AB
330
1F
100
AcDbEntity
  8
0
  6
Continuous
 62
     7
370
    18
100
AcDbCircle
 10
177.8806130724
 20
177.6586720824
 30
0.0
 40
0.1250000000000284
100
AcDbArc
 50
270.0
 51
0.0
  0
LINE
  5
AC
330
1F
100
AcDbEntity
  8
0
  6
Continuous
 62
     7
370
    18
100
AcDbLine
 10
175.5056130724
 20
177.5336720824
 30
0.0
 11
177.8806130724
 21
177.5336720824
 31
0.0
  0
LINE
  5
AD
330
1F
100
AcDbEntity
  8
0
  6
Continuous
 62
     7
370
    18
100
AcDbLine
 10
113.8056130723
 20
186.0641720825
 30
0.0
 11
113.9675598229
 21
185.7836720824
 31
0.0
  0
LINE
  5
AE
330
1F
100
AcDbEntity
  8
0
  6
Continuous
 62
     7
370
    18
100
AcDbLine
 10
129.3056130724
 20
185.7836720825
 30
0.0
 11
129.8056130723
 21
186.2836720824
 31
0.0
  0
LINE
  5
AF
330
1F
100
AcDbEntity
  8
0
  6
Continuous
 62
     7
370
    18
100
AcDbLine
 10
113.9675598229
 20
185.7836720824
 30
0.0
 11
117.4056130725
 21
185.7836720824
 31
0.0
  0
LINE
  5
B0
330
1F
100
AcDbEntity
  8
0
  6
Continuous
 62
     7
370
    18
100
AcDbLine
 10
121.8056130724
 20
185.7836720824
 30
0.0
 11
129.3056130724
 21
185.7836720824
 31
0.0
  0
LINE
  5
B1
330
1F
100
AcDbEntity
  8
0
  6
Continuous
 62
     7
370
    18
100
AcDbLine
 10
129.8056130724
 20
188.2836720825
 30
0.0
 11
129.3056130724
 21
188.7836720824
 31
0.0
  0
LINE
  5
B2
330
1F
100
AcDbEntity
  8
0
  6
Continuous
 62
     7
370
    18
100
AcDbLine
 10
129.3056130724
 20
188.7836720824
 30
0.0
 11
121.8056130724
 21
188.7836720824
 31
0.0
  0
LINE
  5
B3
330
1F
100
AcDbEntity
  8
0
  6
Continuous
 62
     7
370
    18
100
AcDbLine
 10
117.4056130725
 20
188.7836720824
 30
0.0
 11
113.9675598229
 21
188.7836720824
 31
0.0
  0
LINE
  5
B4
330
1F
100
AcDbEntity
  8
0
  6
Continuous
 62
     7
370
    18
100
AcDbLine
 10
113.9675598229
 20
188.7836720825
 30
0.0
 11
113.8056130724
 21
188.5031720824
 31
0.0
  0
LINE
  5
B5
330
1F
100
AcDbEntity
  8
0
  6
Continuous
 62
     7
370
    18
100
AcDbLine
 10
119.8056130724
 20
190.7836720824
 30
0.0
 11
119.3056130724
 21
190.7836720824
 31
0.0
  0
LINE
  5
B6
330
1F
100
AcDbEntity
  8
0
  6
Continuous
 62
     7
370
    18
100
AcDbLine
 10
119.3056130724
 20
183.7836720824
 30
0.0
 11
119.8056130724
 21
183.7836720824
 31
0.0
  0
LINE
  5
B7
330
1F
100
AcDbEntity
  8
0
  6
Continuous
 62
     7
370
    18
100
AcDbLine
 10
117.4056130725
 20
184.5336720824
 30
0.0
 11
117.6512331751
 21
184.1082455852
 31
0.0
  0
LINE
  5
B8
330
1F
100
AcDbEntity
  8
0
  6
Continuous
 62
     7
370
    18
100
AcDbLine
 10
117.6512331751
 20
190.4590985796
 30
0.0
 11
117.4056130725
 21
190.0336720824
 31
0.0
  0
LINE
  5
B9
330
1F
100
AcDbEntity
  8
0
  6
Continuous
 62
     7
370
    18
100
AcDbLine
 10
136.6056130724
 20
202.2836720824
 30
0.0
 11
136.6056130724
 21
199.2836720824
 31
0.0
  0
LINE
  5
BA
330
1F
100
AcDbEntity
  8
0
  6
Continuous
 62
     7
370
    18
100
AcDbLine
 10
136.6056130724
 20
199.2836720824
 30
0.0
 11
135.6056130724
 21
199.2836720824
 31
0.0
  0
ARC
  5
BB
330
1F
100
AcDbEntity
  8
0
  6
Continuous
 62
     7
370
    18
100
AcDbCircle
 10
136.6056130724
 20
201.2836720824
 30
0.0
 40
1.0
100
AcDbArc
 50
90.0
 51
180.0
  0
LINE
  5
BC
330
1F
100
AcDbEntity
  8
0
  6
Continuous
 62
     7
370
    18
100
AcDbLine
 10
135.6056130724
 20
180.2836720824
 30
0.0
 11
136.6056130724
 21
180.2836720824
 31
0.0
  0
LINE
  5
BD
330
1F
100
AcDbEntity
  8
0
  6
Continuous
 62
     7
370
    18
100
AcDbLine
 10
136.6056130724
 20
180.2836720824
 30
0.0
 11
136.6056130724
 21
177.2836720824
 31
0.0
  0
ARC
  5
BE
330
1F
100
AcDbEntity
  8
0
  6
Continuous
 62
     7
370
    18
100
AcDbCircle
 10
136.6056130724
 20
178.2836720824
 30
0.0
 40
1.0
100
AcDbArc
 50
180.0
 51
270.0
  0
LINE
  5
BF
330
1F
100
AcDbEntity
  8
0
  6
Continuous
 62
     7
370
    18
100
AcDbLine
 10
135.6056130724
 20
183.2836720824
 30
0.0
 11
135.6056130724
 21
181.3144484888
 31
0.0
  0
LINE
  5
C0
330
1F
100
AcDbEntity
  8
0
  6
Continuous
 62
     7
370
    18
100
AcDbLine
 10
135.6056130724
 20
183.2836720824
 30
0.0
 11
136.6056130724
 21
184.2836720824
 31
0.0
  0
LINE
  5
C1
330
1F
100
AcDbEntity
  8
0
  6
Continuous
 62
     7
370
    18
100
AcDbLine
 10
136.6056130724
 20
180.2836720824
 30
0.0
 11
136.6056130724
 21
184.2836720824
 31
0.0
  0
LINE
  5
C2
330
1F
100
AcDbEntity
  8
0
  6
Continuous
 62
     7
370
    18
100
AcDbLine
 10
145.6056130724
 20
180.2836720824
 30
0.0
 11
136.6056130724
 21
180.2836720824
 31
0.0
  0
LINE
  5
C3
330
1F
100
AcDbEntity
  8
0
  6
Continuous
 62
     7
370
    18
100
AcDbLine
 10
145.6056130724
 20
180.2836720824
 30
0.0
 11
145.6056130724
 21
177.2836720824
 31
0.0
  0
LINE
  5
C4
330
1F
100
AcDbEntity
  8
0
  6
Continuous
 62
     7
370
    18
100
AcDbLine
 10
136.6056130724
 20
177.2836720824
 30
0.0
 11
145.6056130724
 21
177.2836720824
 31
0.0
  0
LINE
  5
C5
330
1F
100
AcDbEntity
  8
0
  6
Continuous
 62
     7
370
    18
100
AcDbLine
 10
136.6056130724
 20
184.2836720824
 30
0.0
 11
132.6056130724
 21
184.2836720824
 31
0.0
  0
LINE
  5
C6
330
1F
100
AcDbEntity
  8
0
  6
Continuous
 62
     7
370
    18
100
AcDbLine
 10
132.6056130724
 20
184.2836720824
 30
0.0
 11
132.6056130724
 21
195.2836720824
 31
0.0
  0
LINE
  5
C7
330
1F
100
AcDbEntity
  8
0
  6
Continuous
 62
     7
370
    18
100
AcDbLine
 10
132.6056130724
 20
195.2836720824
 30
0.0
 11
136.6056130724
 21
195.2836720824
 31
0.0
  0
LINE
  5
C8
330
1F
100
AcDbEntity
  8
0
  6
Continuous
 62
     7
370
    18
100
AcDbLine
 10
136.6056130724
 20
195.2836720824
 30
0.0
 11
136.6056130724
 21
199.2836720824
 31
0.0
  0
LINE
  5
C9
330
1F
100
AcDbEntity
  8
0
  6
Continuous
 62
     7
370
    18
100
AcDbLine
 10
136.6056130724
 20
199.2836720824
 30
0.0
 11
145.6056130724
 21
199.2836720824
 31
0.0
  0
LINE
  5
CA
330
1F
100
AcDbEntity
  8
0
  6
Continuous
 62
     7
370
    18
100
AcDbLine
 10
145.6056130724
 20
199.2836720824
 30
0.0
 11
145.6056130724
 21
180.2836720824
 31
0.0
  0
LINE
  5
CB
330
1F
100
AcDbEntity
  8
0
  6
Continuous
 62
     7
370
    18
100
AcDbLine
 10
121.8056130724
 20
174.7836720824
 30
0.0
 11
121.8056130724
 21
186.2836720824
 31
0.0
  0
ARC
  5
CC
330
1F
100
AcDbEntity
  8
0
  6
Continuous
 62
     7
370
    18
100
AcDbCircle
 10
122.8056130724
 20
174.7836720824
 30
0.0
 40
1.0
100
AcDbArc
 50
180.0
 51
270.0
  0
LINE
  5
CD
330
1F
100
AcDbEntity
  8
0
  6
Continuous
 62
     7
370
    18
100
AcDbLine
 10
170.3056130724
 20
173.7836720824
 30
0.0
 11
170.3056130724
 21
169.2836720824
 31
0.0
  0
LINE
  5
CE
330
1F
100
AcDbEntity
  8
0
  6
Continuous
 62
     7
370
    18
100
AcDbLine
 10
119.8056130724
 20
169.2836720824
 30
0.0
 11
170.3056130724
 21
169.2836720824
 31
0.0
  0
LINE
  5
CF
330
1F
100
AcDbEntity
  8
0
  6
Continuous
 62
     7
370
    18
100
AcDbLine
 10
119.8056130724
 20
185.5516212749
 30
0.0
 11
119.8056130724
 21
169.2836720824
 31
0.0
  0
LINE
  5
D0
330
1F
100
AcDbEntity
  8
0
  6
Continuous
 62
     7
370
    18
100
AcDbLine
 10
121.8056130724
 20
186.2836720824
 30
0.0
 11
119.8056130724
 21
186.2836720824
 31
0.0
  0
LINE
  5
D1
330
1F
100
AcDbEntity
  8
0
  6
Continuous
 62
     7
370
    18
100
AcDbLine
 10
170.3056130724
 20
173.7836720824
 30
0.0
 11
122.8056130724
 21
173.7836720824
 31
0.0
  0
LINE
  5
D2
330
1F
100
AcDbEntity
  8
0
  6
Continuous
 62
     7
370
    18
100
AcDbLine
 10
172.3056130724
 20
169.2836720824
 30
0.0
 11
172.3056130724
 21
173.7836720824
 31
0.0
  0
LINE
  5
D3
330
1F
100
AcDbEntity
  8
0
  6
Continuous
 62
     7
370
    18
100
AcDbLine
 10
170.3056130724
 20
169.2836720824
 30
0.0
 11
172.3056130724
 21
169.2836720824
 31
0.0
  0
LINE
  5
D4
330
1F
100
AcDbEntity
  8
0
  6
Continuous
 62
     7
370
    18
100
AcDbLine
 10
172.3056130724
 20
173.7836720824
 30
0.0
 11
170.3056130724
 21
173.7836720824
 31
0.0
  0
LINE
  5
D5
330
1F
100
AcDbEntity
  8
0
  6
Continuous
 62
     7
370
    18
100
AcDbLine
 10
136.6056130724
 20
195.2836720824
 30
0.0
 11
135.6056130724
 21
196.2836720824
 31
0.0
  0
LINE
  5
D6
330
1F
100
AcDbEntity
  8
0
  6
Continuous
 62
     7
370
    18
100
AcDbLine
 10
135.6056130724
 20
198.252895676
 30
0.0
 11
135.6056130724
 21
196.2836720824
 31
0.0
  0
LINE
  5
D7
330
1F
100
AcDbEntity
  8
0
  6
Continuous
 62
     7
370
    18
100
AcDbLine
 10
145.6056130724
 20
202.2836720824
 30
0.0
 11
136.6056130724
 21
202.2836720824
 31
0.0
  0
LINE
  5
D8
330
1F
100
AcDbEntity
  8
0
  6
Continuous
 62
     7
370
    18
100
AcDbLine
 10
145.6056130724
 20
202.2836720824
 30
0.0
 11
145.6056130724
 21
199.2836720824
 31
0.0
  0
LINE
  5
D9
330
1F
100
AcDbEntity
  8
0
  6
Continuous
 62
     7
370
    18
100
AcDbLine
 10
146.1056130724
 20
199.2836720824
 30
0.0
 11
174.3056130724
 21
199.2836720824
 31
0.0
  0
LINE
  5
DA
330
1F
100
AcDbEntity
  8
0
  6
Continuous
 62
     7
370
    18
100
AcDbLine
 10
146.1056130724
 20
202.2836720824
 30
0.0
 11
146.1056130724
 21
199.2836720824
 31
0.0
  0
LINE
  5
DB
330
1F
100
AcDbEntity
  8
0
  6
Continuous
 62
     7
370
    18
100
AcDbLine
 10
174.3056130724
 20
202.2836720824
 30
0.0
 11
146.1056130724
 21
202.2836720824
 31
0.0
  0
LINE
  5
DC
330
1F
100
AcDbEntity
  8
0
  6
Continuous
 62
     7
370
    18
100
AcDbLine
 10
174.3056130724
 20
175.2836720824
 30
0.0
 11
146.1056130724
 21
175.2836720824
 31
0.0
  0
LINE
  5
DD
330
1F
100
AcDbEntity
  8
0
  6
Continuous
 62
     7
370
    18
100
AcDbLine
 10
146.1056130724
 20
199.2836720824
 30
0.0
 11
146.1056130724
 21
175.2836720824
 31
0.0
  0
LINE
  5
DE
330
1F
100
AcDbEntity
  8
0
  6
Continuous
 62
     7
370
    18
100
AcDbLine
 10
174.3056130724
 20
175.2836720824
 30
0.0
 11
174.3056130724
 21
199.2836720824
 31
0.0
  0
LINE
  5
DF
330
1F
100
AcDbEntity
  8
0
  6
Continuous
 62
     7
370
    18
100
AcDbLine
 10
146.1056130724
 20
174.2836720824
 30
0.0
 11
174.3056130724
 21
174.2836720824
 31
0.0
  0
LINE
  5
E0
330
1F
100
AcDbEntity
  8
0
  6
Continuous
 62
     7
370
    18
100
AcDbLine
 10
146.1056130724
 20
175.2836720824
 30
0.0
 11
146.1056130724
 21
174.2836720824
 31
0.0
  0
LINE
  5
E1
330
1F
100
AcDbEntity
  8
0
  6
Continuous
 62
     7
370
    18
100
AcDbLine
 10
174.3056130724
 20
174.2836720824
 30
0.0
 11
174.3056130724
 21
175.2836720824
 31
0.0
  0
LINE
  5
E2
330
1F
100
AcDbEntity
  8
0
  6
Continuous
 62
     7
370
    18
100
AcDbLine
 10
121.8056130724
 20
193.2836720824
 30
0.0
 11
119.8056130724
 21
193.2836720824
 31
0.0
  0
LINE
  5
E3
330
1F
100
AcDbEntity
  8
0
  6
Continuous
 62
     7
370
    18
100
AcDbLine
 10
121.8056130724
 20
186.2836720824
 30
0.0
 11
121.8056130724
 21
193.2836720824
 31
0.0
  0
LINE
  5
E4
330
1F
100
AcDbEntity
  8
0
  6
Continuous
 62
     7
370
    18
100
AcDbLine
 10
119.8056130724
 20
193.2836720824
 30
0.0
 11
119.8056130724
 21
189.4539728028
 31
0.0
  0
LINE
  5
E5
330
1F
100
AcDbEntity
  8
0
  6
Continuous
 62
     7
370
    18
100
AcDbLine
 10
132.6056130724
 20
183.2836720824
 30
0.0
 11
135.6056130724
 21
183.2836720824
 31
0.0
  0
LINE
  5
E6
330
1F
100
AcDbEntity
  8
0
  6
Continuous
 62
     7
370
    18
100
AcDbLine
 10
132.6056130724
 20
184.2836720824
 30
0.0
 11
132.6056130724
 21
183.2836720824
 31
0.0
  0
LINE
  5
E7
330
1F
100
AcDbEntity
  8
0
  6
Continuous
 62
     7
370
    18
100
AcDbLine
 10
135.6056130724
 20
196.2836720824
 30
0.0
 11
132.6056130724
 21
196.2836720824
 31
0.0
  0
LINE
  5
E8
330
1F
100
AcDbEntity
  8
0
  6
Continuous
 62
     7
370
    18
100
AcDbLine
 10
132.6056130724
 20
196.2836720824
 30
0.0
 11
132.6056130724
 21
195.2836720824
 31
0.0
  0
LINE
  5
E9
330
1F
100
AcDbEntity
  8
0
  6
Continuous
 62
     7
370
    18
100
AcDbLine
 10
145.6056130724
 20
177.7836720824
 30
0.0
 11
146.1056130724
 21
177.7836720824
 31
0.0
  0
LINE
  5
EA
330
1F
100
AcDbEntity
  8
0
  6
Continuous
 62
     7
370
    18
100
AcDbLine
 10
146.1056130724
 20
180.7836720824
 30
0.0
 11
145.6056130724
 21
180.7836720824
 31
0.0
  0
LINE
  5
EB
330
1F
100
AcDbEntity
  8
0
  6
Continuous
 62
     7
370
    18
100
AcDbLine
 10
145.6056130724
 20
198.7836720824
 30
0.0
 11
146.1056130724
 21
198.7836720824
 31
0.0
  0
LINE
  5
EC
330
1F
100
AcDbEntity
  8
0
  6
Continuous
 62
     7
370
    18
100
AcDbLine
 10
146.1056130724
 20
201.7836720824
 30
0.0
 11
145.6056130724
 21
201.7836720824
 31
0.0
  0
ARC
  5
ED
330
1F
100
AcDbEntity
  8
0
  6
Continuous
 62
     7
370
    18
100
AcDbCircle
 10
133.2303968425
 20
182.4010905213
 30
0.0
 40
0.1247839587236994
100
AcDbArc
 50
89.9007158568
 51
179.9003705722
  0
SPLINE
  5
EE
330
1F
100
AcDbEntity
  8
0
  6
Continuous
 62
     7
370
    18
100
AcDbSpline
210
0.0
220
0.0
230
1.0
 70
    24
 71
     3
 72
    19
 73
    15
 74
     0
 42
0.00000001
 43
0.00000001
 40
0.0
 40
0.0
 40
0.0
 40
0.0
 40
0.1229567780719564
 40
0.1898977185009581
 40
0.2567559368992897
 40
0.3236968400561875
 40
0.39055502122743
 40
0.5135117992993863
 40
0.6364685773713425
 40
0.7034095178004981
 40
0.7702677361986613
 40
0.8372086393552712
 40
0.9040668205267973
 40
1.0
 40
1.0
 40
1.0
 40
1.0
 10
133.1056130724243
 20
182.401307503263
 30
0.0
 10
133.1056130724243
 20
182.3506369827233
 30
0.0
 10
133.1056130724244
 20
182.2723800830499
 30
0.0
 10
133.1056130724243
 20
181.9674671162873
 30
0.0
 10
133.1056130724243
 20
181.6656386980972
 30
0.0
 10
133.1056130724243
 20
181.3057526836296
 30
0.0
 10
133.1056130724244
 20
180.7909323217795
 30
0.0
 10
133.1056130724243
 20
180.1026290974778
 30
0.0
 10
133.1056130724244
 20
179.4359230091207
 30
0.0
 10
133.1056130724243
 20
178.9638392425226
 30
0.0
 10
133.1056130724243
 20
178.6495326823597
 30
0.0
 10
133.1056130724244
 20
178.405178326935
 30
0.0
 10
133.1056130724244
 20
178.2012608614041
 30
0.0
 10
133.1056130724244
 20
178.1906607908435
 30
0.0
 10
133.1056130724243
 20
178.1844141542437
 30
0.0
  0
ARC
  5
EF
330
1F
100
AcDbEntity
  8
0
  6
Continuous
 62
     7
370
    18
100
AcDbCircle
 10
133.2212174809
 20
197.5178416868
 30
0.0
 40
0.1161490778141166
100
AcDbArc
 50
185.5509342343
 51
274.6398696199
  0
SPLINE
  5
F0
330
1F
100
AcDbEntity
  8
0
  6
Continuous
 62
     7
370
    18
100
AcDbSpline
210
0.0
220
0.0
230
1.0
 70
    24
 71
     3
 72
    18
 73
    14
 74
     0
 42
0.00000001
 43
0.00000001
 40
0.0
 40
0.0
 40
0.0
 40
0.0
 40
0.0003779460888038
 40
0.0802141465755737
 40
0.1601490819244917
 40
0.2399852379578002
 40
0.3868094013969162
 40
0.533633564836032
 40
0.6135685446914747
 40
0.6934047451786456
 40
0.7733396805273876
 40
0.8531758365608835
 40
1.0
 40
1.0
 40
1.0
 40
1.0
 10
133.1056130724243
 20
201.4089314654091
 30
0.0
 10
133.1056130724243
 20
201.4090015490054
 30
0.0
 10
133.1056130724243
 20
201.4238758817135
 30
0.0
 10
133.1056130724244
 20
201.3713898845435
 30
0.0
 10
133.1056130724243
 20
201.2492415128902
 30
0.0
 10
133.1056130724244
 20
200.9726668013329
 30
0.0
 10
133.1056130724243
 20
200.4774765041713
 30
0.0
 10
133.1056130724244
 20
199.8365301998444
 30
0.0
 10
133.1056130724244
 20
199.2819763426468
 30
0.0
 10
133.1056130724243
 20
198.8475808593668
 30
0.0
 10
133.1056130724244
 20
198.4328815066393
 30
0.0
 10
133.1056130724243
 20
197.9400193327386
 30
0.0
 10
133.1056130724243
 20
197.6769896980324
 30
0.0
 10
133.1056130724243
 20
197.5066065177506
 30
0.0
  0
LINE
  5
F1
330
1F
100
AcDbEntity
  8
0
  6
Continuous
 62
     7
370
    18
100
AcDbLine
 10
133.2306130724
 20
182.5258742927
 30
0.0
 11
135.6056130724
 21
182.5258742927
 31
0.0
  0
LINE
  5
F2
330
1F
100
AcDbEntity
  8
0
  6
Continuous
 62
     7
370
    18
100
AcDbLine
 10
135.6056130724
 20
178.0336720824
 30
0.0
 11
135.6056130724
 21
181.3144484888
 31
0.0
  0
LINE
  5
F3
330
1F
100
AcDbEntity
  8
0
  6
Continuous
 62
     7
370
    18
100
AcDbLine
 10
135.6056130724
 20
201.5336720824
 30
0.0
 11
135.6056130724
 21
198.252895676
 31
0.0
  0
LINE
  5
F4
330
1F
100
AcDbEntity
  8
0
  6
Continuous
 62
     7
370
    18
100
AcDbLine
 10
135.6056130724
 20
197.4020732492
 30
0.0
 11
133.2306130724
 21
197.4020732492
 31
0.0
  0
LINE
  5
F5
330
1F
100
AcDbEntity
  8
0
  6
Continuous
 62
     7
370
    18
100
AcDbLine
 10
132.6056130724
 20
186.7706117567
 30
0.0
 11
131.8056130724
 21
186.7706117567
 31
0.0
  0
LINE
  5
F6
330
1F
100
AcDbEntity
  8
0
  6
Continuous
 62
     7
370
    18
100
AcDbLine
 10
131.8056130724
 20
188.7836720824
 30
0.0
 11
131.8056130724
 21
186.7706117567
 31
0.0
  0
LINE
  5
F7
330
1F
100
AcDbEntity
  8
0
  6
Continuous
 62
     7
370
    18
100
AcDbLine
 10
131.8056130724
 20
186.7706117567
 30
0.0
 11
131.8056130724
 21
185.7836720824
 31
0.0
  0
LINE
  5
F8
330
1F
100
AcDbEntity
  8
0
  6
Continuous
 62
     7
370
    18
100
AcDbLine
 10
133.1056130724
 20
197.5066065178
 30
0.0
 11
133.1056130724
 21
197.2520878154
 31
0.0
  0
LINE
  5
F9
330
1F
100
AcDbEntity
  8
0
  6
Continuous
 62
     7
370
    18
100
AcDbLine
 10
132.6056130724
 20
180.2836720824
 30
0.0
 11
132.6056130724
 21
183.2836720824
 31
0.0
  0
LINE
  5
FA
330
1F
100
AcDbEntity
  8
0
  6
Continuous
 62
     7
370
    18
100
AcDbLine
 10
132.6056130724
 20
196.2836720824
 30
0.0
 11
132.6056130724
 21
199.2836720824
 31
0.0
  0
LINE
  5
FB
330
1F
100
AcDbEntity
  8
0
  6
Continuous
 62
     7
370
    18
100
AcDbLine
 10
125.6056130724
 20
188.7836720824
 30
0.0
 11
125.6056130724
 21
192.7836720824
 31
0.0
  0
LINE
  5
FC
330
1F
100
AcDbEntity
  8
0
  6
Continuous
 62
     7
370
    18
100
AcDbLine
 10
125.6056130724
 20
181.7836720824
 30
0.0
 11
125.6056130724
 21
185.7836720824
 31
0.0
  0
LINE
  5
FD
330
1F
100
AcDbEntity
  8
0
  6
Continuous
 62
     7
370
    18
100
AcDbLine
 10
168.8056130724
 20
174.2836720824
 30
0.0
 11
168.8056130724
 21
174.0536720824
 31
0.0
  0
LINE
  5
FE
330
1F
100
AcDbEntity
  8
0
  6
Continuous
 62
     7
370
    18
100
AcDbLine
 10
168.8056130724
 20
174.0536720824
 30
0.0
 11
148.8056130724
 21
174.0536720824
 31
0.0
  0
LINE
  5
FF
330
1F
100
AcDbEntity
  8
0
  6
Continuous
 62
     7
370
    18
100
AcDbLine
 10
148.8056130724
 20
174.0536720824
 30
0.0
 11
148.8056130724
 21
174.2836720824
 31
0.0
  0
LINE
  5
100
330
1F
100
AcDbEntity
  8
0
  6
Continuous
 62
     7
370
    18
100
AcDbLine
 10
129.423995213
 20
201.2836720824
 30
0.0
 11
129.423995213
 21
197.5779762249
 31
0.0
  0
LINE
  5
101
330
1F
100
AcDbEntity
  8
0
  6
Continuous
 62
     7
370
    18
100
AcDbLine
 10
129.423995213
 20
197.5779762249
 30
0.0
 11
129.0600249787
 21
197.3427442724
 31
0.0
  0
LINE
  5
102
330
1F
100
AcDbEntity
  8
0
  6
Continuous
 62
     7
370
    18
100
AcDbLine
 10
129.0600249787
 20
202.2836720824
 30
0.0
 11
129.0600249787
 21
197.3427442724
 31
0.0
  0
LINE
  5
103
330
1F
100
AcDbEntity
  8
0
  6
Continuous
 62
     7
370
    18
100
AcDbLine
 10
129.0600249787
 20
197.3427442724
 30
0.0
 11
120.1056130724
 21
197.3427442724
 31
0.0
  0
LINE
  5
104
330
1F
100
AcDbEntity
  8
0
  6
Continuous
 62
     7
370
    18
100
AcDbLine
 10
120.1056130724
 20
202.2836720824
 30
0.0
 11
120.1056130724
 21
197.3427442724
 31
0.0
  0
LINE
  5
105
330
1F
100
AcDbEntity
  8
0
  6
Continuous
 62
     7
370
    18
100
AcDbLine
 10
115.7600249787
 20
191.1476578787
 30
0.0
 11
115.7600249787
 21
188.7836720824
 31
0.0
  0
LINE
  5
106
330
1F
100
AcDbEntity
  8
0
  6
Continuous
 62
     7
370
    18
100
AcDbLine
 10
115.7600249787
 20
185.7836720824
 30
0.0
 11
115.7600249787
 21
183.2836720825
 31
0.0
  0
LINE
  5
107
330
1F
100
AcDbEntity
  8
0
  6
Continuous
 62
     7
370
    18
100
AcDbLine
 10
106.8056130724
 20
191.1476578787
 30
0.0
 11
106.8056130724
 21
183.2836720824
 31
0.0
  0
LINE
  5
108
330
1F
100
AcDbEntity
  8
0
  6
Continuous
 62
     7
370
    18
100
AcDbLine
 10
115.7600249787
 20
191.1476578787
 30
0.0
 11
106.8056130724
 21
191.1476578787
 31
0.0
  0
LINE
  5
109
330
1F
100
AcDbEntity
  8
0
  6
Continuous
 62
     7
370
    18
100
AcDbLine
 10
116.123995213
 20
190.1816614297
 30
0.0
 11
116.123995213
 21
188.7836720824
 31
0.0
  0
LINE
  5
10A
330
1F
100
AcDbEntity
  8
0
  6
Continuous
 62
     7
370
    18
100
AcDbLine
 10
116.123995213
 20
185.7836720824
 30
0.0
 11
116.123995213
 21
184.2836720824
 31
0.0
  0
LINE
  5
10B
330
1F
100
AcDbEntity
  8
0
  6
Continuous
 62
     7
370
    18
100
AcDbLine
 10
116.1239952131
 20
190.1816614295
 30
0.0
 11
115.7600249787
 21
191.1476578787
 31
0.0
  0
LINE
  5
10C
330
1F
100
AcDbEntity
  8
0
  6
Continuous
 62
     7
370
    18
100
AcDbLine
 10
132.6056130724
 20
177.2836720824
 30
0.0
 11
136.6056130724
 21
177.2836720824
 31
0.0
  0
LINE
  5
10D
330
1F
100
AcDbEntity
  8
0
  6
Continuous
 62
     7
370
    18
100
AcDbLine
 10
132.6056130724
 20
178.2836720824
 30
0.0
 11
132.6056130724
 21
177.2836720824
 31
0.0
  0
LINE
  5
10E
330
1F
100
AcDbEntity
  8
0
  6
Continuous
 62
     7
370
    18
100
AcDbLine
 10
132.6056130724
 20
178.2836720824
 30
0.0
 11
132.6056130724
 21
180.2836720824
 31
0.0
  0
LINE
  5
10F
330
1F
100
AcDbEntity
  8
0
  6
Continuous
 62
     7
370
    18
100
AcDbLine
 10
132.6056130724
 20
199.2836720824
 30
0.0
 11
132.6056130724
 21
201.2836720824
 31
0.0
  0
LINE
  5
110
330
1F
100
AcDbEntity
  8
0
  6
Continuous
 62
     7
370
    18
100
AcDbLine
 10
136.6056130724
 20
202.2836720824
 30
0.0
 11
132.6056130724
 21
202.2836720824
 31
0.0
  0
LINE
  5
111
330
1F
100
AcDbEntity
  8
0
  6
Continuous
 62
     7
370
    18
100
AcDbLine
 10
132.6056130724
 20
202.2836720824
 30
0.0
 11
132.6056130724
 21
201.2836720824
 31
0.0
  0
SPLINE
  5
112
330
1F
100
AcDbEntity
  8
0
  6
Continuous
 62
     7
370
    18
100
AcDbSpline
210
0.0
220
0.0
230
1.0
 70
    24
 71
     3
 72
    24
 73
    20
 74
     0
 42
0.00000001
 43
0.00000001
 40
0.0
 40
0.0
 40
0.0
 40
0.0
 40
0.0654518893712234
 40
0.1308774216424586
 40
0.1665753922838535
 40
0.201884466246931
 40
0.2727446705401603
 40
0.3436588395347605
 40
0.4145190195259158
 40
0.479984220697364
 40
0.5453959739464606
 40
0.6108611634534791
 40
0.6762729022945132
 40
0.7119708729358946
 40
0.7472799468989675
 40
0.818140151192214
 40
0.8890543201869495
 40
0.9599145001779769
 40
0.9999999999999999
 40
0.9999999999999999
 40
0.9999999999999999
 40
0.9999999999999999
 10
104.7056130724244
 20
190.6163598317485
 30
0.0
 10
104.7056130724244
 20
190.5492233219476
 30
0.0
 10
104.7056130724244
 20
190.4149773378329
 30
0.0
 10
104.7056130724244
 20
190.1205377440945
 30
0.0
 10
104.7056130724243
 20
189.8343476324408
 30
0.0
 10
104.7056130724244
 20
189.500118465313
 30
0.0
 10
104.7056130724243
 20
189.0209858077885
 30
0.0
 10
104.7056130724244
 20
188.3757538619895
 30
0.0
 10
104.7056130724244
 20
187.7012077505492
 30
0.0
 10
104.7056130724243
 20
187.0302392496687
 30
0.0
 10
104.7056130724244
 20
186.3863102091514
 30
0.0
 10
104.7056130724244
 20
185.7736019611895
 30
0.0
 10
104.7056130724243
 20
185.2999777630596
 30
0.0
 10
104.7056130724244
 20
184.9509396062012
 30
0.0
 10
104.7056130724243
 20
184.6203988136719
 30
0.0
 10
104.7056130724243
 20
184.2749962528583
 30
0.0
 10
104.7056130724244
 20
183.9878557618022
 30
0.0
 10
104.7056130724244
 20
183.8440153870709
 30
0.0
 10
104.7056130724244
 20
183.8468613192027
 30
0.0
 10
104.7056130724244
 20
183.8478895756625
 30
0.0
  0
ARC
  5
113
330
1F
100
AcDbEntity
  8
0
  6
Continuous
 62
     7
370
    18
100
AcDbCircle
 10
105.1972567149
 20
190.6077093263
 30
0.0
 40
0.4917197396984619
100
AcDbArc
 50
89.0262602262
 51
178.9919806298
  0
ARC
  5
114
330
1F
100
AcDbEntity
  8
0
  6
Continuous
 62
     7
370
    18
100
AcDbCircle
 10
118.3875298314
 20
197.9741082465
 30
0.0
 40
0.6307541175397781
100
AcDbArc
 50
232.7357245407
 51
280.7899856253
  0
SPLINE
  5
115
330
1F
100
AcDbEntity
  8
0
  6
Continuous
 62
     7
370
    18
100
AcDbSpline
210
0.0
220
0.0
230
1.0
 70
    24
 71
     3
 72
    18
 73
    14
 74
     0
 42
0.00000001
 43
0.00000001
 40
0.0
 40
0.0
 40
0.0
 40
0.0
 40
0.0271038102894717
 40
0.1312919947664337
 40
0.2355652927973434
 40
0.3397534543251891
 40
0.3966133696452119
 40
0.4528538482912642
 40
0.5657203542370425
 40
0.6786728154432176
 40
0.7915392826807709
 40
0.8957906469325564
 40
1.0
 40
1.0
 40
1.0
 40
1.0
 10
118.0056130724244
 20
201.7222965921368
 30
0.0
 10
118.0056130724244
 20
201.7258713805444
 30
0.0
 10
118.0056130724244
 20
201.7431878056482
 30
0.0
 10
118.0056130724244
 20
201.6501321241935
 30
0.0
 10
118.0056130724244
 20
201.446752096521
 30
0.0
 10
118.0056130724244
 20
201.1679246665929
 30
0.0
 10
118.0056130724244
 20
200.8896553514369
 30
0.0
 10
118.0056130724244
 20
200.5636274841026
 30
0.0
 10
118.0056130724244
 20
200.0928769359684
 30
0.0
 10
118.0056130724244
 20
199.4547490670215
 30
0.0
 10
118.0056130724244
 20
198.7844432687834
 30
0.0
 10
118.0056130724244
 20
198.1124295157966
 30
0.0
 10
118.0056130724244
 20
197.6855290583039
 30
0.0
 10
118.0056130724244
 20
197.4721218462803
 30
0.0
  0
LINE
  5
116
330
1F
100
AcDbEntity
  8
0
  6
Continuous
 62
     7
370
    18
100
AcDbLine
 10
119.5056130724
 20
202.2336720824
 30
0.0
 11
119.5056130724
 21
197.35450587
 31
0.0
  0
LINE
  5
117
330
1F
100
AcDbEntity
  8
0
  6
Continuous
 62
     7
370
    18
100
AcDbLine
 10
119.5056130724
 20
197.35450587
 30
0.0
 11
118.5056130724
 21
197.35450587
 31
0.0
  0
LINE
  5
118
330
1F
100
AcDbEntity
  8
0
  6
Continuous
 62
     7
370
    18
100
AcDbLine
 10
106.2056130724
 20
191.0993580563
 30
0.0
 11
106.2056130724
 21
183.3336720824
 31
0.0
  0
LINE
  5
119
330
1F
100
AcDbEntity
  8
0
  6
Continuous
 62
     7
370
    18
100
AcDbLine
 10
106.2056130724
 20
191.0993580563
 30
0.0
 11
105.2056130724
 21
191.0993580563
 31
0.0
  0
LINE
  5
11A
330
1F
100
AcDbEntity
  8
0
  6
Continuous
 62
     7
370
    18
100
AcDbLine
 10
129.423995213
 20
197.5779762249
 30
0.0
 11
129.423995213
 21
195.2836720825
 31
0.0
  0
LINE
  5
11B
330
1F
100
AcDbEntity
  8
0
  6
Continuous
 62
     7
370
    18
100
AcDbLine
 10
129.0600249787
 20
197.3427442724
 30
0.0
 11
129.0600249787
 21
194.2836720825
 31
0.0
  0
LINE
  5
11C
330
1F
100
AcDbEntity
  8
0
  6
Continuous
 62
     7
370
    18
100
AcDbLine
 10
120.1056130724
 20
197.3427442724
 30
0.0
 11
120.1056130724
 21
194.2836720824
 31
0.0
  0
SPLINE
  5
11D
330
1F
100
AcDbEntity
  8
0
  6
Continuous
 62
     7
370
    18
100
AcDbSpline
210
0.0
220
0.0
230
1.0
 70
    24
 71
     3
 72
    15
 73
    11
 74
     0
 42
0.00000001
 43
0.00000001
 40
0.0
 40
0.0
 40
0.0
 40
0.0
 40
0.1413745974297692
 40
0.2826922641210022
 40
0.3597990715323876
 40
0.4360658709341051
 40
0.5891223060045218
 40
0.7422953036061344
 40
0.8953516861840947
 40
1.0
 40
1.0
 40
1.0
 40
1.0
 10
118.0056130724244
 20
197.4721218462803
 30
0.0
 10
118.0056130724244
 20
197.2640569030985
 30
0.0
 10
118.0056130724244
 20
196.8480108032925
 30
0.0
 10
118.0056130724244
 20
196.3690550046658
 30
0.0
 10
118.0056130724244
 20
196.0129693234145
 30
0.0
 10
118.0056130724244
 20
195.6745091978335
 30
0.0
 10
118.0056130724244
 20
195.3178790514198
 30
0.0
 10
118.0056130724244
 20
195.0143390580557
 30
0.0
 10
118.0056130724244
 20
194.8522192357067
 30
0.0
 10
118.0056130724244
 20
194.8471187641384
 30
0.0
 10
118.0056130724244
 20
194.8450475727446
 30
0.0
  0
LINE
  5
11E
330
1F
100
AcDbEntity
  8
0
  6
Continuous
 62
     7
370
    18
100
AcDbLine
 10
119.5056130724
 20
197.35450587
 30
0.0
 11
119.5056130724
 21
194.3336720824
 31
0.0
  0
LINE
  5
11F
330
1F
100
AcDbEntity
  8
0
  6
Continuous
 62
     7
370
    18
100
AcDbLine
 10
131.6056130724
 20
197.5779762249
 30
0.0
 11
129.423995213
 21
197.5779762249
 31
0.0
  0
LINE
  5
120
330
1F
100
AcDbEntity
  8
0
  6
Continuous
 62
     7
370
    18
100
AcDbLine
 10
131.6056130724
 20
201.2836720824
 30
0.0
 11
131.6056130724
 21
197.5779762249
 31
0.0
  0
LINE
  5
121
330
1F
100
AcDbEntity
  8
0
  6
Continuous
 62
     7
370
    18
100
AcDbLine
 10
148.8056168224
 20
173.7836720824
 30
0.0
 11
148.8056168224
 21
174.0536720824
 31
0.0
  0
LINE
  5
122
330
1F
100
AcDbEntity
  8
0
  6
Continuous
 62
     7
370
    18
100
AcDbLine
 10
154.8056080724
 20
173.7836720824
 30
0.0
 11
154.8056080724
 21
174.0536720824
 31
0.0
  0
LINE
  5
123
330
1F
100
AcDbEntity
  8
0
  6
Continuous
 62
     7
370
    18
100
AcDbLine
 10
162.8056180724
 20
174.0536720824
 30
0.0
 11
162.8056180724
 21
173.7836720824
 31
0.0
  0
LINE
  5
124
330
1F
100
AcDbEntity
  8
0
  6
Continuous
 62
     7
370
    18
100
AcDbLine
 10
168.8056124974
 20
174.0536720824
 30
0.0
 11
168.8056118224
 21
173.7836720824
 31
0.0
  0
LINE
  5
125
330
1F
100
AcDbEntity
  8
0
  6
Continuous
 62
     7
370
    18
100
AcDbLine
 10
131.6056130724
 20
197.5779762249
 30
0.0
 11
131.6056130724
 21
195.2836720824
 31
0.0
  0
LINE
  5
126
330
1F
100
AcDbEntity
  8
0
  6
Continuous
 62
     7
370
    18
100
AcDbLine
 10
131.6056130724
 20
197.636784213
 30
0.0
 11
132.1056130724
 21
197.636784213
 31
0.0
  0
LINE
  5
127
330
1F
100
AcDbEntity
  8
0
  6
Continuous
 62
     7
370
    18
100
AcDbLine
 10
132.1056130724
 20
197.636784213
 30
0.0
 11
132.1056130724
 21
201.0336720824
 31
0.0
  0
LINE
  5
128
330
1F
100
AcDbEntity
  8
0
  6
Continuous
 62
     7
370
    18
100
AcDbLine
 10
132.1056130724
 20
195.5336720824
 30
0.0
 11
132.1056130724
 21
197.636784213
 31
0.0
  0
LINE
  5
129
330
1F
100
AcDbEntity
  8
0
  6
Continuous
 62
     7
370
    18
100
AcDbLine
 10
132.6056130724
 20
197.6955922012
 30
0.0
 11
132.1056130724
 21
197.6955922012
 31
0.0
  0
LINE
  5
12A
330
1F
100
AcDbEntity
  8
0
  6
Continuous
 62
     7
370
    18
100
AcDbLine
 10
119.5056130724
 20
197.7661617869
 30
0.0
 11
120.1056130724
 21
197.7661617869
 31
0.0
  0
LINE
  5
12B
330
1F
100
AcDbEntity
  8
0
  6
Continuous
 62
     7
370
    18
100
AcDbLine
 10
106.2056130724
 20
189.4088642704
 30
0.0
 11
106.8056130724
 21
189.4088642704
 31
0.0
  0
LINE
  5
12C
330
1F
100
AcDbEntity
  8
0
  6
Continuous
 62
     7
370
    18
100
AcDbLine
 10
115.7600249787
 20
191.2836720824
 30
0.0
 11
115.7600249787
 21
191.1476578787
 31
0.0
  0
LINE
  5
12D
330
1F
100
AcDbEntity
  8
0
  6
Continuous
 62
     7
370
    18
100
AcDbLine
 10
106.8056130724
 20
191.2836720824
 30
0.0
 11
106.8056130724
 21
191.1476578787
 31
0.0
  0
LINE
  5
12E
330
1F
100
AcDbEntity
  8
0
  6
Continuous
 62
     7
370
    18
100
AcDbLine
 10
116.123995213
 20
190.2836720825
 30
0.0
 11
116.123995213
 21
190.1816614297
 31
0.0
  0
SPLINE
  5
12F
330
1F
100
AcDbEntity
  8
0
  6
Continuous
 62
     7
370
    18
100
AcDbSpline
210
0.0
220
0.0
230
1.0
 70
    24
 71
     3
 72
     9
 73
     5
 74
     0
 42
0.00000001
 43
0.00000001
 40
0.0
 40
0.0
 40
0.0
 40
0.0
 40
0.2139731887467919
 40
1.0
 40
1.0
 40
1.0
 40
1.0
 10
104.7056130724244
 20
190.7211024118551
 30
0.0
 10
104.7056130724244
 20
190.7235901886474
 30
0.0
 10
104.7056130724243
 20
190.735216770496
 30
0.0
 10
104.7056130724243
 20
190.6686685316909
 30
0.0
 10
104.7056130724244
 20
190.6163598317485
 30
0.0
  0
LINE
  5
130
330
1F
100
AcDbEntity
  8
0
  6
Continuous
 62
     7
370
    18
100
AcDbLine
 10
106.2056130724
 20
191.2336720824
 30
0.0
 11
106.2056130724
 21
191.0993580563
 31
0.0
  0
SPLINE
  5
131
330
1F
100
AcDbEntity
  8
0
  6
Continuous
 62
     7
370
    18
100
AcDbSpline
210
0.0
220
0.0
230
1.0
 70
    24
 71
     3
 72
    17
 73
    13
 74
     0
 42
0.00000001
 43
0.00000001
 40
0.0
 40
0.0
 40
0.0
 40
0.0
 40
0.1468651567745481
 40
0.2268224544924978
 40
0.3066809452622606
 40
0.3866381984609488
 40
0.4664966447647735
 40
0.6133618015393213
 40
0.7602269583138694
 40
0.8401842560318353
 40
0.9200427468015824
 40
1.0
 40
1.0
 40
1.0
 40
1.0
 10
178.0056130724244
 20
178.0157054809827
 30
0.0
 10
178.0056130724244
 20
178.1876981204806
 30
0.0
 10
178.0056130724244
 20
178.4533281276405
 30
0.0
 10
178.0056130724244
 20
178.9483141884471
 30
0.0
 10
178.0056130724244
 20
179.3642087826993
 30
0.0
 10
178.0056130724244
 20
179.7987659393196
 30
0.0
 10
178.0056130724244
 20
180.3529226392715
 30
0.0
 10
178.0056130724244
 20
180.9910603702107
 30
0.0
 10
178.0056130724244
 20
181.4846400338602
 30
0.0
 10
178.0056130724244
 20
181.7530031853791
 30
0.0
 10
178.0056130724244
 20
181.8857036132988
 30
0.0
 10
178.0056130724244
 20
181.901288858687
 30
0.0
 10
178.0056130724244
 20
181.9090862970414
 30
0.0
  0
ARC
  5
132
330
1F
100
AcDbEntity
  8
0
  6
Continuous
 62
     7
370
    18
100
AcDbCircle
 10
177.8902318897
 20
178.0272667778
 30
0.0
 40
0.1159589621898356
100
AcDbArc
 50
265.2418372514
 51
354.2780110712
  0
LINE
  5
133
330
1F
100
AcDbEntity
  8
0
  6
Continuous
 62
     7
370
    18
100
AcDbLine
 10
175.5056130724
 20
177.9117074456
 30
0.0
 11
177.8806130724
 21
177.9117074456
 31
0.0
  0
LINE
  5
134
330
1F
100
AcDbEntity
  8
0
  6
Continuous
 62
     7
370
    18
100
AcDbLine
 10
178.0056130724
 20
177.7891485725
 30
0.0
 11
178.0056130724
 21
178.015705481
 31
0.0
  0
SPLINE
  5
135
330
1F
100
AcDbEntity
  8
0
  6
Continuous
 62
     7
370
    18
100
AcDbSpline
210
0.0
220
0.0
230
1.0
 70
    24
 71
     3
 72
    15
 73
    11
 74
     0
 42
0.00000001
 43
0.00000001
 40
0.0
 40
0.0
 40
0.0
 40
0.0
 40
0.1236449489590997
 40
0.2473232965329529
 40
0.3736279822749432
 40
0.4999998235802883
 40
0.6263045113097677
 40
0.7526763546020142
 40
0.8763214866792244
 40
1.0
 40
1.0
 40
1.0
 40
1.0
 10
181.3056130724244
 20
203.3136720824408
 30
0.0
 10
181.3056130724244
 20
203.6362023197745
 30
0.0
 10
181.3056130724244
 20
204.2813499153737
 30
0.0
 10
181.3056130724244
 20
205.2457753236059
 30
0.0
 10
181.3056130724244
 20
206.1969891032151
 30
0.0
 10
181.3056130724244
 20
207.1232866752034
 30
0.0
 10
181.3056130724244
 20
208.0092340456363
 30
0.0
 10
181.3056130724244
 20
208.8365452049201
 30
0.0
 10
181.3056130724244
 20
209.6053588295554
 30
0.0
 10
181.3056130724244
 20
210.0575473232059
 30
0.0
 10
181.3056130724244
 20
210.2836720859453
 30
0.0
  0
LINE
  5
136
330
1F
100
AcDbEntity
  8
0
  6
Continuous
 62
     7
370
    18
100
AcDbLine
 10
180.8056130724
 20
203.3136720824
 30
0.0
 11
181.3056130724
 21
203.3136720824
 31
0.0
  0
LINE
  5
137
330
1F
100
AcDbEntity
  8
0
  6
Continuous
 62
     7
370
    18
100
AcDbLine
 10
180.8056130724
 20
203.3136720824
 30
0.0
 11
180.8056130724
 21
210.2836720861
 31
0.0
  0
SPLINE
  5
138
330
1F
100
AcDbEntity
  8
0
  6
Continuous
 62
     7
370
    18
100
AcDbSpline
210
0.0
220
0.0
230
1.0
 70
    24
 71
     3
 72
    12
 73
     8
 74
     0
 42
0.00000001
 43
0.00000001
 40
0.0
 40
0.0
 40
0.0
 40
0.0
 40
0.3560945237972624
 40
0.5847225032870255
 40
0.7596633212589277
 40
0.8998972382370782
 40
0.9999999999999999
 40
0.9999999999999999
 40
0.9999999999999999
 40
0.9999999999999999
 10
181.3056130724244
 20
210.2836720859453
 30
0.0
 10
181.2956747106515
 20
210.2836720859748
 30
0.0
 10
181.2793554937412
 20
210.2836720860232
 30
0.0
 10
181.1624501282737
 20
210.2836720860797
 30
0.0
 10
181.0371374986473
 20
210.2836720861115
 30
0.0
 10
180.9147957924735
 20
210.283672086127
 30
0.0
 10
180.8377171429678
 20
210.2836720861287
 30
0.0
 10
180.8056130724244
 20
210.2836720861293
 30
0.0
  0
LINE
  5
139
330
1F
100
AcDbEntity
  8
0
  6
Continuous
 62
     7
370
    18
100
AcDbLine
 10
180.8056130724
 20
183.3836720824
 30
0.0
 11
181.3056130724
 21
183.3836720824
 31
0.0
  0
LINE
  5
13A
330
1F
100
AcDbEntity
  8
0
  6
Continuous
 62
     7
370
    18
100
AcDbLine
 10
180.8056130724
 20
203.3136720824
 30
0.0
 11
180.8056130724
 21
183.3836720824
 31
0.0
  0
LINE
  5
13B
330
1F
100
AcDbEntity
  8
0
  6
Continuous
 62
     7
370
    18
100
AcDbLine
 10
181.3056130724
 20
199.9293160062
 30
0.0
 11
181.3056130724
 21
203.3136720824
 31
0.0
  0
SPLINE
  5
13C
330
1F
100
AcDbEntity
  8
0
  6
Continuous
 62
     7
370
    18
100
AcDbSpline
210
0.0
220
0.0
230
1.0
 70
     8
 71
     3
 72
    10
 73
     6
 74
     0
 42
0.00000001
 43
0.00000001
 40
0.0
 40
0.0
 40
0.0
 40
0.0
 40
0.4277607722096951
 40
0.8661562462906688
 40
1.0
 40
1.0
 40
1.0
 40
1.0
 10
181.261331986305
 20
198.7836720824408
 30
0.0
 10
181.2640517926137
 20
198.9506623026953
 30
0.0
 10
181.2695590232344
 20
199.2887943422362
 30
0.0
 10
181.3010321598017
 20
199.6745818607062
 30
0.0
 10
181.3047447232885
 20
199.8810290836373
 30
0.0
 10
181.3056130724138
 20
199.9293160061655
 30
0.0
  0
SPLINE
  5
13D
330
1F
100
AcDbEntity
  8
0
  6
Continuous
 62
     7
370
    18
100
AcDbSpline
210
0.0
220
0.0
230
1.0
 70
     8
 71
     3
 72
     9
 73
     5
 74
     0
 42
0.00000001
 43
0.00000001
 40
0.0
 40
0.0
 40
0.0
 40
0.0
 40
0.5827156271287578
 40
1.0
 40
1.0
 40
1.0
 40
1.0
 10
181.3056130724163
 20
197.6380281587099
 30
0.0
 10
181.2938136823246
 20
197.8553978825858
 30
0.0
 10
181.2735647143162
 20
198.2284267044604
 30
0.0
 10
181.2649336108867
 20
198.6201937969427
 30
0.0
 10
181.261331986305
 20
198.7836720824408
 30
0.0
  0
LINE
  5
13E
330
1F
100
AcDbEntity
  8
0
  6
Continuous
 62
     7
370
    18
100
AcDbLine
 10
181.3056130724
 20
183.3836720824
 30
0.0
 11
181.3056130724
 21
197.6380281587
 31
0.0
  0
LINE
  5
13F
330
1F
100
AcDbEntity
  8
0
  6
Continuous
 62
     7
370
    18
100
AcDbLine
 10
180.1056130724
 20
210.2836720861
 30
0.0
 11
180.8056130724
 21
210.2836720861
 31
0.0
  0
LINE
  5
140
330
1F
100
AcDbEntity
  8
0
  6
Continuous
 62
     7
370
    18
100
AcDbLine
 10
174.3056130724
 20
203.3136720824
 30
0.0
 11
180.8056130724
 21
203.3136720824
 31
0.0
  0
LINE
  5
141
330
1F
100
AcDbEntity
  8
0
  6
Continuous
 62
     7
370
    18
100
AcDbLine
 10
174.3056130724
 20
210.2836720861
 30
0.0
 11
174.3056130724
 21
203.3136720824
 31
0.0
  0
LINE
  5
142
330
1F
100
AcDbEntity
  8
0
  6
Continuous
 62
     7
370
    18
100
AcDbLine
 10
180.1056130724
 20
210.2836720861
 30
0.0
 11
174.3056130724
 21
210.2836720861
 31
0.0
  0
LINE
  5
143
330
1F
100
AcDbEntity
  8
0
  6
Continuous
 62
     7
370
    18
100
AcDbLine
 10
180.8056130724
 20
183.3836720824
 30
0.0
 11
175.5056130724
 21
183.3836720824
 31
0.0
  0
LINE
  5
144
330
1F
100
AcDbEntity
  8
0
  6
Continuous
 62
     7
370
    18
100
AcDbLine
 10
175.5056130724
 20
183.3836720824
 30
0.0
 11
175.5056130724
 21
178.7836720824
 31
0.0
  0
LINE
  5
145
330
1F
100
AcDbEntity
  8
0
  6
Continuous
 62
     7
370
    18
100
AcDbLine
 10
175.5056130724
 20
178.7836720824
 30
0.0
 11
174.3056130724
 21
178.7836720824
 31
0.0
  0
LINE
  5
146
330
1F
100
AcDbEntity
  8
0
  6
Continuous
 62
     7
370
    18
100
AcDbLine
 10
174.3056130724
 20
178.7836720824
 30
0.0
 11
174.3056130724
 21
203.3136720824
 31
0.0
  0
LINE
  5
147
330
1F
100
AcDbEntity
  8
0
  6
Continuous
 62
     7
370
    18
100
AcDbLine
 10
175.5056130724
 20
182.8836720824
 30
0.0
 11
180.8056130724
 21
182.8836720824
 31
0.0
  0
LINE
  5
148
330
1F
100
AcDbEntity
  8
0
  6
Continuous
 62
     7
370
    18
100
AcDbLine
 10
180.8056130724
 20
182.8836720824
 30
0.0
 11
180.8056130724
 21
183.3836720824
 31
0.0
  0
ARC
  5
149
330
1F
100
AcDbEntity
  8
0
  6
Continuous
 62
     7
370
    18
100
AcDbCircle
 10
180.8056130724
 20
183.3836720824
 30
0.0
 40
0.5
100
AcDbArc
 50
270.0
 51
0.0
  0
LINE
  5
14A
330
1F
100
AcDbEntity
  8
0
  6
Continuous
 62
     7
370
    18
100
AcDbLine
 10
174.3056130724
 20
177.2836720824
 30
0.0
 11
175.5056130724
 21
177.2836720824
 31
0.0
  0
LINE
  5
14B
330
1F
100
AcDbEntity
  8
0
  6
Continuous
 62
     7
370
    18
100
AcDbLine
 10
175.5056130724
 20
177.2836720824
 30
0.0
 11
175.5056130724
 21
178.7836720824
 31
0.0
  0
LINE
  5
14C
330
1F
100
AcDbEntity
  8
0
  6
Continuous
 62
     7
370
    18
100
AcDbLine
 10
181.3056130724
 20
198.7836720824
 30
0.0
 11
181.3056130724
 21
199.9293160062
 31
0.0
  0
LINE
  5
14D
330
1F
100
AcDbEntity
  8
0
  6
Continuous
 62
     7
370
    18
100
AcDbLine
 10
181.3056130724
 20
197.630043453
 30
0.0
 11
181.3056130724
 21
198.7836720824
 31
0.0
  0
LINE
  5
14E
330
1F
100
AcDbEntity
  8
0
  6
Continuous
 62
     7
370
    18
100
AcDbLine
 10
176.6056130724
 20
211.2650633227
 30
0.0
 11
176.6056130724
 21
218.4219353543
 31
0.0
  0
LINE
  5
14F
330
1F
100
AcDbEntity
  8
0
  6
Continuous
 62
     7
370
    18
100
AcDbLine
 10
180.1056130724
 20
211.2650633227
 30
0.0
 11
176.6056130724
 21
211.2650633227
 31
0.0
  0
LINE
  5
150
330
1F
100
AcDbEntity
  8
0
  6
Continuous
 62
     7
370
    18
100
AcDbLine
 10
180.1056130724
 20
210.2836720858
 30
0.0
 11
180.1056130724
 21
211.2650633227
 31
0.0
  0
LINE
  5
151
330
1F
100
AcDbEntity
  8
0
  6
Continuous
 62
     7
370
    18
100
AcDbLine
 10
174.6056130724
 20
220.0922997798
 30
0.0
 11
174.6056130724
 21
210.2836720861
 31
0.0
  0
LINE
  5
152
330
1F
100
AcDbEntity
  8
0
  6
Continuous
 62
     7
370
    18
100
AcDbLine
 10
175.7818979548
 20
220.0922997798
 30
0.0
 11
174.6056130724
 21
220.0922997798
 31
0.0
  0
ELLIPSE
  5
153
330
1F
100
AcDbEntity
  8
0
  6
Continuous
 62
     7
370
    18
100
AcDbEllipse
 10
161.9277726227
 20
208.8564651151
 30
0.0
 11
-4.072944049533049
 21
21.77735056609137
 31
0.0
210
0.0
220
0.0
230
1.0
 40
0.7665263533
 41
5.019807974816569
 42
5.106020107512941
  0
LINE
  5
154
330
1F
100
AcDbEntity
  8
0
  6
Continuous
 62
     7
370
    18
100
AcDbLine
 10
180.1056130724
 20
211.7047763445
 30
0.0
 11
176.6056130724
 21
211.7047763445
 31
0.0
  0
LINE
  5
155
330
1F
100
AcDbEntity
  8
0
  6
Continuous
 62
     7
370
    18
100
AcDbLine
 10
180.1056130724
 20
211.2650633227
 30
0.0
 11
180.1056130724
 21
211.7047763445
 31
0.0
  0
LINE
  5
156
330
1F
100
AcDbEntity
  8
0
  6
Continuous
 62
     7
370
    18
100
AcDbLine
 10
174.8056130724
 20
220.2132675217
 30
0.0
 11
174.6056130724
 21
220.2132675217
 31
0.0
  0
LINE
  5
157
330
1F
100
AcDbEntity
  8
0
  6
Continuous
 62
     7
370
    18
100
AcDbLine
 10
175.7818979548
 20
220.0922997798
 30
0.0
 11
174.8056130724
 21
220.2132675217
 31
0.0
  0
LINE
  5
158
330
1F
100
AcDbEntity
  8
0
  6
Continuous
 62
     7
370
    18
100
AcDbLine
 10
174.6056130724
 20
220.2132675217
 30
0.0
 11
174.6056130724
 21
220.0922997798
 31
0.0
  0
ELLIPSE
  5
159
330
1F
100
AcDbEntity
  8
0
  6
Continuous
 62
     7
370
    18
100
AcDbEllipse
 10
161.9147422985
 20
208.8564651151
 30
0.0
 11
-4.088456631925396
 21
21.77521698425721
 31
0.0
210
0.0
220
0.0
230
1.0
 40
0.7672493075
 41
5.019329837591092
 42
5.105338330508753
  0
LINE
  5
15A
330
1F
100
AcDbEntity
  8
0
  6
Continuous
 62
     7
370
    18
100
AcDbLine
 10
176.6056130724
 20
218.4259695975
 30
0.0
 11
176.6056130724
 21
218.4219353543
 31
0.0
  0
LINE
  5
15B
330
1F
100
AcDbEntity
  8
0
  6
Continuous
 62
     7
370
    18
100
AcDbLine
 10
174.8056130724
 20
220.2132675217
 30
0.0
 11
175.7828857997
 21
220.0922997798
 31
0.0
  0
LINE
  5
15C
330
1F
100
AcDbEntity
  8
0
  6
Continuous
 62
     7
370
    18
100
AcDbLine
 10
113.8056130724
 20
188.2016647091
 30
0.0
 11
113.8056130723
 21
186.0641720825
 31
0.0
  0
LINE
  5
15D
330
1F
100
AcDbEntity
  8
0
  6
Continuous
 62
     7
370
    18
100
AcDbLine
 10
113.9675598229
 20
188.4128143046
 30
0.0
 11
113.8056130724
 21
188.2016647091
 31
0.0
  0
LINE
  5
15E
330
1F
100
AcDbEntity
  8
0
  6
Continuous
 62
     7
370
    18
100
AcDbLine
 10
113.9675598229
 20
188.4128143046
 30
0.0
 11
113.9675598229
 21
185.7836720824
 31
0.0
  0
LINE
  5
15F
330
1F
100
AcDbEntity
  8
0
  6
Continuous
 62
     7
370
    18
100
AcDbLine
 10
129.8056130724
 20
188.036433564
 30
0.0
 11
129.3056130724
 21
188.4128143047
 31
0.0
  0
LINE
  5
160
330
1F
100
AcDbEntity
  8
0
  6
Continuous
 62
     7
370
    18
100
AcDbLine
 10
129.8056130723
 20
186.2836720824
 30
0.0
 11
129.8056130724
 21
188.036433564
 31
0.0
  0
LINE
  5
161
330
1F
100
AcDbEntity
  8
0
  6
Continuous
 62
     7
370
    18
100
AcDbLine
 10
129.3056130724
 20
185.7836720825
 30
0.0
 11
129.3056130724
 21
188.4128143047
 31
0.0
  0
LINE
  5
162
330
1F
100
AcDbEntity
  8
0
  6
Continuous
 62
     7
370
    18
100
AcDbLine
 10
129.3056130724
 20
188.4128143047
 30
0.0
 11
129.3056130724
 21
188.7836720824
 31
0.0
  0
LINE
  5
163
330
1F
100
AcDbEntity
  8
0
  6
Continuous
 62
     7
370
    18
100
AcDbLine
 10
129.8056130724
 20
188.036433564
 30
0.0
 11
129.8056130724
 21
188.2836720825
 31
0.0
  0
LINE
  5
164
330
1F
100
AcDbEntity
  8
0
  6
Continuous
 62
     7
370
    18
100
AcDbLine
 10
113.9675598229
 20
188.7836720824
 30
0.0
 11
113.9675598229
 21
188.4128143046
 31
0.0
  0
LINE
  5
165
330
1F
100
AcDbEntity
  8
0
  6
Continuous
 62
     7
370
    18
100
AcDbLine
 10
113.8056130724
 20
188.5031720824
 30
0.0
 11
113.8056130724
 21
188.2016647091
 31
0.0
  0
LINE
  5
166
330
1F
100
AcDbEntity
  8
0
  6
Continuous
 62
     7
370
    18
100
AcDbLine
 10
119.3056130724
 20
190.7836720824
 30
0.0
 11
119.3056130724
 21
190.459098563
 31
0.0
  0
LINE
  5
167
330
1F
100
AcDbEntity
  8
0
  6
Continuous
 62
     7
370
    18
100
AcDbLine
 10
119.3056130724
 20
184.1082456019
 30
0.0
 11
119.3056130724
 21
183.7836720824
 31
0.0
  0
SPLINE
  5
168
330
1F
100
AcDbEntity
  8
0
  6
Continuous
 62
     7
370
    18
100
AcDbSpline
210
0.0
220
0.0
230
1.0
 70
     8
 71
     3
 72
     8
 73
     4
 74
     0
 42
0.00000001
 43
0.00000001
 40
0.0
 40
0.0
 40
0.0
 40
0.0
 40
1.0
 40
1.0
 40
1.0
 40
1.0
 10
117.65123320741
 20
184.1082456043315
 30
0.0
 10
117.5014865212106
 20
184.3676144630979
 30
0.0
 10
117.4056130724686
 20
184.6311504152428
 30
0.0
 10
117.4056130724686
 20
184.9021022220335
 30
0.0
  0
SPLINE
  5
169
330
1F
100
AcDbEntity
  8
0
  6
Continuous
 62
     7
370
    18
100
AcDbSpline
210
0.0
220
0.0
230
1.0
 70
     8
 71
     3
 72
     8
 73
     4
 74
     0
 42
0.00000001
 43
0.00000001
 40
0.0
 40
0.0
 40
0.0
 40
0.0
 40
1.0
 40
1.0
 40
1.0
 40
1.0
 10
117.4056130724686
 20
184.9021022220335
 30
0.0
 10
117.4056130724686
 20
185.1730540068024
 30
0.0
 10
117.5014864767267
 20
185.4365899582947
 30
0.0
 10
117.6512331405073
 20
185.695958798858
 30
0.0
  0
LINE
  5
16A
330
1F
100
AcDbEntity
  8
0
  6
Continuous
 62
     7
370
    18
100
AcDbLine
 10
119.8056130724
 20
185.6959588422
 30
0.0
 11
117.6512331578
 21
185.6959588039
 31
0.0
  0
LINE
  5
16B
330
1F
100
AcDbEntity
  8
0
  6
Continuous
 62
     7
370
    18
100
AcDbLine
 10
117.6512331751
 20
184.1082455852
 30
0.0
 11
119.8056130724
 21
184.1082456019
 31
0.0
  0
LINE
  5
16C
330
1F
100
AcDbEntity
  8
0
  6
Continuous
 62
     7
370
    18
100
AcDbLine
 10
119.8056130724
 20
185.6959588422
 30
0.0
 11
119.8056130724
 21
185.5516212749
 31
0.0
  0
SPLINE
  5
16D
330
1F
100
AcDbEntity
  8
0
  6
Continuous
 62
     7
370
    18
100
AcDbSpline
210
0.0
220
0.0
230
1.0
 70
     8
 71
     3
 72
     8
 73
     4
 74
     0
 42
0.00000001
 43
0.00000001
 40
0.0
 40
0.0
 40
0.0
 40
0.0
 40
1.0
 40
1.0
 40
1.0
 40
1.0
 10
117.4056130724634
 20
187.2836720824408
 30
0.0
 10
117.4056130724634
 20
186.7417684726425
 30
0.0
 10
117.5014864910474
 20
186.2146965325301
 30
0.0
 10
117.651233173234
 20
185.6959588154233
 30
0.0
  0
SPLINE
  5
16E
330
1F
100
AcDbEntity
  8
0
  6
Continuous
 62
     7
370
    18
100
AcDbSpline
210
0.0
220
0.0
230
1.0
 70
     8
 71
     3
 72
     8
 73
     4
 74
     0
 42
0.00000001
 43
0.00000001
 40
0.0
 40
0.0
 40
0.0
 40
0.0
 40
1.0
 40
1.0
 40
1.0
 40
1.0
 10
117.4056130724686
 20
187.2836720824408
 30
0.0
 10
117.4056130724686
 20
187.8255756907056
 30
0.0
 10
117.501486498959
 20
188.3526476679325
 30
0.0
 10
117.6512331828644
 20
188.8713853828189
 30
0.0
  0
LINE
  5
16F
330
1F
100
AcDbEntity
  8
0
  6
Continuous
 62
     7
370
    18
100
AcDbLine
 10
117.6512331512
 20
188.8713853476
 30
0.0
 11
119.8056130724
 21
188.8713853227
 31
0.0
  0
LINE
  5
170
330
1F
100
AcDbEntity
  8
0
  6
Continuous
 62
     7
370
    18
100
AcDbLine
 10
119.8056130724
 20
188.8713853227
 30
0.0
 11
119.8056130724
 21
185.6959588422
 31
0.0
  0
SPLINE
  5
171
330
1F
100
AcDbEntity
  8
0
  6
Continuous
 62
     7
370
    18
100
AcDbSpline
210
0.0
220
0.0
230
1.0
 70
     8
 71
     3
 72
     8
 73
     4
 74
     0
 42
0.00000001
 43
0.00000001
 40
0.0
 40
0.0
 40
0.0
 40
0.0
 40
1.0
 40
1.0
 40
1.0
 40
1.0
 10
117.6512331367947
 20
188.8713853724538
 30
0.0
 10
117.5014864751015
 20
189.1307542109774
 30
0.0
 10
117.4056130724678
 20
189.3942901603651
 30
0.0
 10
117.4056130724686
 20
189.6652419428516
 30
0.0
  0
SPLINE
  5
172
330
1F
100
AcDbEntity
  8
0
  6
Continuous
 62
     7
370
    18
100
AcDbSpline
210
0.0
220
0.0
230
1.0
 70
     8
 71
     3
 72
     8
 73
     4
 74
     0
 42
0.00000001
 43
0.00000001
 40
0.0
 40
0.0
 40
0.0
 40
0.0
 40
1.0
 40
1.0
 40
1.0
 40
1.0
 10
117.4056130724686
 20
189.6652419428516
 30
0.0
 10
117.4056130724694
 20
189.9361937253417
 30
0.0
 10
117.5014864751072
 20
190.1997296747327
 30
0.0
 10
117.6512331368047
 20
190.4590985132594
 30
0.0
  0
LINE
  5
173
330
1F
100
AcDbEntity
  8
0
  6
Continuous
 62
     7
370
    18
100
AcDbLine
 10
119.8056130724
 20
190.459098563
 30
0.0
 11
117.6512331751
 21
190.4590985796
 31
0.0
  0
LINE
  5
174
330
1F
100
AcDbEntity
  8
0
  6
Continuous
 62
     7
370
    18
100
AcDbLine
 10
119.8056130724
 20
189.4539728028
 30
0.0
 11
119.8056130724
 21
188.8713853227
 31
0.0
  0
LINE
  5
175
330
1F
100
AcDbEntity
  8
0
  6
Continuous
 62
     7
370
    18
100
AcDbLine
 10
117.4056130725
 20
187.2836720824
 30
0.0
 11
117.4056130725
 21
184.902102222
 31
0.0
  0
LINE
  5
176
330
1F
100
AcDbEntity
  8
0
  6
Continuous
 62
     7
370
    18
100
AcDbLine
 10
117.4056130725
 20
189.6652419429
 30
0.0
 11
117.4056130725
 21
187.2836720824
 31
0.0
  0
LINE
  5
177
330
1F
100
AcDbEntity
  8
0
  6
Continuous
 62
     7
370
    18
100
AcDbLine
 10
117.4056130725
 20
184.902102222
 30
0.0
 11
117.4056130725
 21
184.5336720824
 31
0.0
  0
LINE
  5
178
330
1F
100
AcDbEntity
  8
0
  6
Continuous
 62
     7
370
    18
100
AcDbLine
 10
117.4056130725
 20
190.0336720824
 30
0.0
 11
117.4056130725
 21
189.6652419429
 31
0.0
  0
LINE
  5
179
330
1F
100
AcDbEntity
  8
0
  6
Continuous
 62
     8
370
    18
100
AcDbLine
 10
133.2306130724
 20
182.5258742927
 30
0.0
 11
133.2306130724
 21
178.0336720824
 31
0.0
  0
LINE
  5
17A
330
1F
100
AcDbEntity
  8
0
  6
Continuous
 62
     8
370
    18
100
AcDbLine
 10
133.2306130724
 20
201.5336720824
 30
0.0
 11
133.2306130724
 21
197.4020732492
 31
0.0
  0
LINE
  5
17B
330
1F
100
AcDbEntity
  8
0
  6
Continuous
 62
     8
370
    18
100
AcDbLine
 10
133.2306130724
 20
197.4020732492
 30
0.0
 11
133.2306130724
 21
197.0336720824
 31
0.0
  0
LINE
  5
17C
330
1F
100
AcDbEntity
  8
0
  6
Continuous
 62
     8
370
    18
100
AcDbLine
 10
133.2306130724
 20
182.5336720824
 30
0.0
 11
133.2306130724
 21
182.5258742927
 31
0.0
  0
LINE
  5
17D
330
1F
100
AcDbEntity
  8
0
  6
Continuous
 62
     8
370
    18
100
AcDbLine
 10
133.1056130724
 20
180.2836720824
 30
0.0
 11
132.6056130724
 21
180.2836720824
 31
0.0
  0
LINE
  5
17E
330
1F
100
AcDbEntity
  8
0
  6
Continuous
 62
     8
370
    18
100
AcDbLine
 10
133.1056130724
 20
199.2836720824
 30
0.0
 11
132.6056130724
 21
199.2836720824
 31
0.0
  0
LINE
  5
17F
330
1F
100
AcDbEntity
  8
0
  6
Continuous
 62
     8
370
    18
100
AcDbLine
 10
129.8056130723
 20
187.2836720824
 30
0.0
 11
131.8056130724
 21
187.2836720824
 31
0.0
  0
LINE
  5
180
330
1F
100
AcDbEntity
  8
0
  6
Continuous
 62
     8
370
    18
100
AcDbLine
 10
133.1056130724
 20
178.2836720824
 30
0.0
 11
132.6056130724
 21
178.2836720824
 31
0.0
  0
LINE
  5
181
330
1F
100
AcDbEntity
  8
0
  6
Continuous
 62
     8
370
    18
100
AcDbLine
 10
132.6056130724
 20
201.2836720824
 30
0.0
 11
133.1056130724
 21
201.2836720824
 31
0.0
  0
LINE
  5
182
330
1F
100
AcDbEntity
  8
0
  6
Continuous
 62
     8
370
    18
100
AcDbLine
 10
105.2056130724
 20
191.0993580563
 30
0.0
 11
105.2056130724
 21
183.3336720824
 31
0.0
  0
LINE
  5
183
330
1F
100
AcDbEntity
  8
0
  6
Continuous
 62
     8
370
    18
100
AcDbLine
 10
118.5056130724
 20
202.2336720824
 30
0.0
 11
118.5056130724
 21
197.35450587
 31
0.0
  0
LINE
  5
184
330
1F
100
AcDbEntity
  8
0
  6
Continuous
 62
     8
370
    18
100
AcDbLine
 10
118.5056130724
 20
197.35450587
 30
0.0
 11
118.5056130724
 21
194.3336720824
 31
0.0
  0
LINE
  5
185
330
1F
100
AcDbEntity
  8
0
  6
Continuous
 62
     8
370
    18
100
AcDbLine
 10
117.4910547619
 20
190.1816614297
 30
0.0
 11
116.123995213
 21
190.1816614297
 31
0.0
  0
LINE
  5
186
330
1F
100
AcDbEntity
  8
0
  6
Continuous
 62
     8
370
    18
100
AcDbLine
 10
105.2056130724
 20
191.2336720824
 30
0.0
 11
105.2056130724
 21
191.0993580563
 31
0.0
  0
LINE
  5
187
330
1F
100
AcDbEntity
  8
0
  6
Continuous
 62
     8
370
    18
100
AcDbLine
 10
177.8806130724
 20
177.9117074456
 30
0.0
 11
177.8806130724
 21
182.0336720824
 31
0.0
  0
LINE
  5
188
330
1F
100
AcDbEntity
  8
0
  6
Continuous
 62
     8
370
    18
100
AcDbLine
 10
177.8806130724
 20
177.5336720824
 30
0.0
 11
177.8806130724
 21
177.9117074456
 31
0.0
  0
LINE
  5
189
330
1F
100
AcDbEntity
  8
0
  6
Continuous
 62
     8
370
    18
100
AcDbLine
 10
129.3056130724
 20
188.4128143047
 30
0.0
 11
121.8056130724
 21
188.4128143047
 31
0.0
  0
LINE
  5
18A
330
1F
100
AcDbEntity
  8
0
  6
Continuous
 62
     8
370
    18
100
AcDbLine
 10
117.4056130725
 20
188.4128143047
 30
0.0
 11
113.9675598229
 21
188.4128143046
 31
0.0
  0
LINE
  5
18B
330
1F
100
AcDbEntity
  8
0
  6
CENTER
 62
     7
370
    18
100
AcDbLine
 10
172.6056130724
 20
220.2143893913
 30
0.0
 11
172.6056130724
 21
210.2847939556
 31
0.0
  0
LINE
  5
18C
330
1F
100
AcDbEntity
  8
0
  6
Continuous
 62
     7
370
    18
100
AcDbLine
 10
172.6056130724
 20
220.2143893913
 30
0.0
 11
172.8056130724
 21
220.2143893913
 31
0.0
  0
LINE
  5
18D
330
1F
100
AcDbEntity
  8
0
  6
Continuous
 62
     7
370
    18
100
AcDbLine
 10
172.8056130724
 20
220.2143893913
 30
0.0
 11
173.7729256288
 21
220.0934216494
 31
0.0
  0
SPLINE
  5
18E
330
1F
100
AcDbEntity
  8
0
  6
Continuous
 62
     7
370
    18
100
AcDbSpline
210
0.0
220
0.0
230
1.0
 70
     8
 71
     3
 72
     9
 73
     5
 74
     0
 42
0.00000001
 43
0.00000001
 40
0.2431324451769726
 40
0.2431324451769726
 40
0.2431324451769726
 40
0.2431324451769726
 40
0.5
 40
1.29975602649095
 40
1.29975602649095
 40
1.29975602649095
 40
1.29975602649095
 10
174.6056130724245
 20
218.4807992740455
 30
0.0
 10
174.5424568804823
 20
218.6149734466846
 30
0.0
 10
174.2782358694517
 20
219.1635978229867
 30
0.0
 10
173.9961146788739
 20
219.6980489257438
 30
0.0
 10
173.7729256288527
 20
220.0934216493623
 30
0.0
  0
DIMENSION
  5
18F
330
1F
100
AcDbEntity
  8
0
  6
Continuous
 62
     7
370
    18
100
AcDbDimension
  2
_D
 10
158.8056130724
 20
228.591609088
 30
0.0
 11
149.1446782503
 21
228.591609088
 31
0.0
 70
   160
  1
(<>)
 71
     2
 42
-1.0
  3
SLDDIMSTYLE0
100
AcDbAlignedDimension
 13
172.6056130724
 23
220.2143893913
 33
0.0
 14
158.8056130724
 24
175.7836720824
 34
0.0
100
AcDbRotatedDimension
  0
DIMENSION
  5
1A3
330
1F
100
AcDbEntity
  8
0
  6
Continuous
 62
     7
370
    18
100
AcDbDimension
  2
_D_1
 10
172.6056130724
 20
228.591609088
 30
0.0
 11
173.6056130724
 21
228.591609088
 31
0.0
 70
   160
  1
Maxストローク<>
 71
     2
 42
-1.0
  3
SLDDIMSTYLE1
100
AcDbAlignedDimension
 13
174.6056130724
 23
220.2132675217
 33
0.0
 14
172.6056130724
 24
220.2143893913
 34
0.0
100
AcDbRotatedDimension
  0
DIMENSION
  5
1B3
330
1F
100
AcDbEntity
  8
0
  6
Continuous
 62
     7
370
    18
100
AcDbDimension
  2
_D_2
 10
97.9115337935
 20
187.2836720824
 30
0.0
 11
97.9115337935
 21
178.2836720824
 31
0.0
 70
   160
  1
<>
 71
     2
 42
-1.0
  3
SLDDIMSTYLE2
100
AcDbAlignedDimension
 13
119.8056130724
 23
169.2836720824
 33
0.0
 14
103.9123446288
 24
187.2836720824
 34
0.0
 50
90.0
100
AcDbRotatedDimension
  0
DIMENSION
  5
1BE
330
1F
100
AcDbEntity
  8
0
  6
Continuous
 62
     7
370
    18
100
AcDbDimension
  2
_D_3
 10
88.7019277182
 20
169.2836720824
 30
0.0
 11
88.7019277182
 21
183.7836720824
 31
0.0
 70
   160
  1
<>
 71
     2
 42
-1.0
  3
SLDDIMSTYLE2
100
AcDbAlignedDimension
 13
117.1840970631
 23
198.2836720824
 33
0.0
 14
119.8056130724
 24
169.2836720824
 34
0.0
 50
90.0
100
AcDbRotatedDimension
  0
DIMENSION
  5
1C8
330
1F
100
AcDbEntity
  8
0
  6
Continuous
 62
     7
370
    18
100
AcDbDimension
  2
_D_4
 10
191.3677284969
 20
220.2132675217
 30
0.0
 11
191.3677284969
 21
194.7484698021
 31
0.0
 70
   160
  1
(<>)
 71
     2
 42
-1.0
  3
SLDDIMSTYLE2
100
AcDbAlignedDimension
 13
172.3056130724
 23
169.2836720824
 33
0.0
 14
174.8056130724
 24
220.2132675217
 34
0.0
 50
90.0
100
AcDbRotatedDimension
  0
DIMENSION
  5
1D4
330
1F
100
AcDbEntity
  8
0
  6
Continuous
 62
     7
370
    18
100
AcDbDimension
  2
_D_5
 10
181.3056130724
 20
142.7075919251
 30
0.0
 11
186.6894474026
 21
142.7075919251
 31
0.0
 70
   160
  1
<>
 71
     2
 42
-1.0
  3
SLDDIMSTYLE3
100
AcDbAlignedDimension
 13
174.3056130724
 23
174.2836720824
 33
0.0
 14
181.3056130724
 24
183.3836720824
 34
0.0
100
AcDbRotatedDimension
  0
DIMENSION
  5
1E1
330
1F
100
AcDbEntity
  8
0
  6
Continuous
 62
     7
370
    18
100
AcDbDimension
  2
_D_6
 10
104.7056130724
 20
142.7075919251
 30
0.0
 11
139.5056130724
 21
142.7075919251
 31
0.0
 70
   160
  1
(<>)
 71
     2
 42
-1.0
  3
SLDDIMSTYLE4
100
AcDbAlignedDimension
 13
174.3056130724
 23
174.2836720824
 33
0.0
 14
104.7056130724
 24
183.8333031342
 34
0.0
100
AcDbRotatedDimension
  0
DIMENSION
  5
1EE
330
1F
100
AcDbEntity
  8
0
  6
Continuous
 62
     7
370
    18
100
AcDbDimension
  2
_D_7
 10
174.3056130724
 20
151.7983361651
 30
0.0
 11
147.0556130724
 21
151.7983361651
 31
0.0
 70
   160
  1
<>
 71
     2
 42
-1.0
  3
SLDDIMSTYLE2
100
AcDbAlignedDimension
 13
119.8056130724
 23
169.2836720824
 33
0.0
 14
174.3056130724
 24
174.2836720824
 34
0.0
100
AcDbRotatedDimension
  0
DIMENSION
  5
1F8
330
1F
100
AcDbEntity
  8
0
  6
Continuous
 62
     7
370
    18
100
AcDbDimension
  2
_D_8
 10
158.8056130724
 20
160.9374948992
 30
0.0
 11
166.5556130724
 21
160.9374948992
 31
0.0
 70
   160
  1
<>
 71
     2
 42
-1.0
  3
SLDDIMSTYLE2
100
AcDbAlignedDimension
 13
174.3056130724
 23
174.2836720824
 33
0.0
 14
158.8056130724
 24
167.2836720824
 34
0.0
100
AcDbRotatedDimension
  0
DIMENSION
  5
202
330
1F
100
AcDbEntity
  8
0
  6
Continuous
 62
     7
370
    18
100
AcDbDimension
  2
_D_9
 10
138.8056130724
 20
160.9374948992
 30
0.0
 11
148.8056130724
 21
160.9374948992
 31
0.0
 70
   160
  1
<>
 71
     2
 42
-1.0
  3
SLDDIMSTYLE2
100
AcDbAlignedDimension
 13
158.8056130724
 23
167.2836720824
 33
0.0
 14
138.8056130724
 24
167.2836720824
 34
0.0
100
AcDbRotatedDimension
  0
DIMENSION
  5
20C
330
1F
100
AcDbEntity
  8
0
  6
Continuous
 62
     7
370
    18
100
AcDbDimension
  2
_D_10
 10
174.6056130724
 20
228.591609088
 30
0.0
 11
188.9625154856
 21
228.591609088
 31
0.0
 70
   160
  1
<>
 71
     2
 42
-1.0
  3
SLDDIMSTYLE5
100
AcDbAlignedDimension
 13
181.3056130724
 23
210.2836720859
 33
0.0
 14
174.6056130724
 24
220.2132675217
 34
0.0
100
AcDbRotatedDimension
  0
INSERT
  5
21E
330
1F
100
AcDbEntity
  8
0
  6
Continuous
 62
     7
370
     0
100
AcDbBlockReference
  2
SW_NOTE_0
 10
117.5555545092
 20
216.1250001937
 30
0.0
  0
LEADER
  5
220
330
1F
100
AcDbEntity
  8
0
  6
Continuous
 62
     7
370
     0
100
AcDbLeader
  3
SLDDIMSTYLE6
 76
     2
 10
124.4964905029
 20
202.2836720824
 30
0.0
 10
117.5555545092
 20
216.1250001937
 30
0.0
  0
MTEXT
  5
221
330
1F
100
AcDbEntity
  8
0
  6
Continuous
 62
     7
370
     0
100
AcDbMText
 10
96.6774219045
 20
215.4272720026
 30
0.0
 40
3.5
 41
0.0
 71
     1
 72
     1
  1
KQ2S04-M3G
  7
SLDTEXTSTYLE0
 73
     1
 44
1.0
  0
INSERT
  5
227
330
1F
100
AcDbEntity
  8
0
  6
Continuous
 62
     7
370
     0
100
AcDbBlockReference
  2
SW_NOTE_0_1
 10
97.1805545092
 20
159.0000001937
 30
0.0
  0
LEADER
  5
228
330
1F
100
AcDbEntity
  8
0
  6
Continuous
 62
     7
370
     0
100
AcDbLeader
  3
SLDDIMSTYLE6
 76
     2
 10
111.4100479407
 20
183.2836720824
 30
0.0
 10
97.1805545092
 20
159.0000001937
 30
0.0
  0
MTEXT
  5
229
330
1F
100
AcDbEntity
  8
0
  6
Continuous
 62
     7
370
     0
100
AcDbMText
 10
76.2146828814
 20
158.2129366933
 30
0.0
 40
3.5
 41
0.0
 71
     1
 72
     1
  1
KQ2S04-M3G
  7
SLDTEXTSTYLE0
 73
     1
 44
1.0
  0
LINE
  5
22A
330
1F
100
AcDbEntity
  8
0
  6
CENTERX2
 62
     7
370
    18
100
AcDbLine
 10
103.9123446288
 20
187.2836720824
 30
0.0
 11
130.7205283209
 21
187.2836720824
 31
0.0
  0
LINE
  5
22B
330
1F
100
AcDbEntity
  8
0
  6
CENTERX2
 62
     7
370
    18
100
AcDbLine
 10
117.1840970631
 20
198.2836720824
 30
0.0
 11
137.2618763868
 21
198.2836720824
 31
0.0
  0
LINE
  5
22C
330
1F
100
AcDbEntity
  8
0
  6
CENTERX2
 62
     7
370
    18
100
AcDbLine
 10
158.8056130724
 20
175.7836720824
 30
0.0
 11
158.8056130724
 21
167.2836720824
 31
0.0
  0
LINE
  5
22D
330
1F
100
AcDbEntity
  8
0
  6
CENTERX2
 62
     7
370
    18
100
AcDbLine
 10
138.8056130724
 20
175.7836720824
 30
0.0
 11
138.8056130724
 21
167.2836720824
 31
0.0
  0
SPLINE
  5
22E
330
1F
100
AcDbEntity
  8
0
  6
Continuous
 62
     7
370
    18
100
AcDbSpline
210
0.0
220
0.0
230
1.0
 70
     8
 71
     3
 72
    28
 73
    24
 74
     0
 42
0.00000001
 43
0.00000001
 40
0.0
 40
0.0
 40
0.0
 40
0.0
 40
0.0201456005670741
 40
0.0401354407850529
 40
0.0600488055410589
 40
0.0799658930315616
 40
0.0999668566717496
 40
0.1201308496592779
 40
0.1850779540058563
 40
0.2500933558535388
 40
0.3150404909386283
 40
0.3800559235563812
 40
0.4400086149456007
 40
0.5000289243169648
 40
0.5599816346080847
 40
0.6200019580901375
 40
0.6849490624367403
 40
0.7499644642843947
 40
0.8149115993693878
 40
0.8799270319872354
 40
0.9200435693953852
 40
0.9598539322787297
 40
1.0
 40
1.0
 40
1.0
 40
1.0
 10
48.46099570882572
 20
184.8686809597539
 30
0.0
 10
48.41034395006201
 20
184.8832002381373
 30
0.0
 10
48.30943205826951
 20
184.9121265357603
 30
0.0
 10
48.16224203790107
 20
184.9672259736617
 30
0.0
 10
48.01917435997301
 20
185.0306493205253
 30
0.0
 10
47.88046337046378
 20
185.103227538885
 30
0.0
 10
47.74604396838155
 20
185.1847543342151
 30
0.0
 10
47.52033232107678
 20
185.3417167276158
 30
0.0
 10
47.22741349264249
 20
185.6077264214281
 30
0.0
 10
46.92813483480857
 20
186.0244558236195
 30
0.0
 10
46.71646560885085
 20
186.4921624634281
 30
0.0
 10
46.61001536065768
 20
186.9808038942039
 30
0.0
 10
46.5984460576363
 20
187.4671649149477
 30
0.0
 10
46.67838208558476
 20
187.933628010445
 30
0.0
 10
46.84215426242528
 20
188.377830429935
 30
0.0
 10
47.0949959111224
 20
188.7932666495529
 30
0.0
 10
47.43138131862379
 20
189.1635540509019
 30
0.0
 10
47.84820062444386
 20
189.4629565325303
 30
0.0
 10
48.31580013576389
 20
189.6745380936411
 30
0.0
 10
48.75369987901953
 20
189.7700679625873
 30
0.0
 10
49.1327790166555
 20
189.7901286738276
 30
0.0
 10
49.44734938653048
 20
189.7692242925831
 30
0.0
 10
49.65134587934785
 20
189.7222493106204
 30
0.0
 10
49.75377237529845
 20
189.6986632051275
 30
0.0
  0
SPLINE
  5
22F
330
1F
100
AcDbEntity
  8
0
  6
Continuous
 62
     7
370
    18
100
AcDbSpline
210
0.0
220
0.0
230
1.0
 70
     8
 71
     3
 72
    28
 73
    24
 74
     0
 42
0.00000001
 43
0.00000001
 40
0.0
 40
0.0
 40
0.0
 40
0.0
 40
0.0201456005670596
 40
0.0401354407850298
 40
0.0600488055410329
 40
0.0799658930315385
 40
0.0999668566717347
 40
0.1201308496592767
 40
0.1850779540058025
 40
0.2500933558535373
 40
0.3150404909385633
 40
0.3800559235563795
 40
0.4400086149454889
 40
0.5000289243169614
 40
0.5599816346078884
 40
0.6200019580901323
 40
0.684949062436647
 40
0.7499644642843959
 40
0.8149115993694136
 40
0.8799270319872354
 40
0.9200435693953825
 40
0.959853932278727
 40
1.0
 40
1.0
 40
1.0
 40
1.0
 10
49.75377237529845
 20
189.6986632051275
 30
0.0
 10
49.80442413406213
 20
189.6841439267441
 30
0.0
 10
49.90533602585457
 20
189.6552176291211
 30
0.0
 10
50.05252604622295
 20
189.6001181912198
 30
0.0
 10
50.19559372415098
 20
189.5366948443561
 30
0.0
 10
50.33430471366022
 20
189.4641166259965
 30
0.0
 10
50.46872411574252
 20
189.3825898306664
 30
0.0
 10
50.69443576304728
 20
189.2256274372657
 30
0.0
 10
50.98735459148157
 20
188.9596177434534
 30
0.0
 10
51.28663324931546
 20
188.5428883412621
 30
0.0
 10
51.49830247527324
 20
188.0751817014534
 30
0.0
 10
51.60475272346646
 20
187.5865402706779
 30
0.0
 10
51.6163220264878
 20
187.1001792499339
 30
0.0
 10
51.53638599853965
 20
186.6337161544372
 30
0.0
 10
51.37261382169903
 20
186.1895137349469
 30
0.0
 10
51.1197721730022
 20
185.7740775153291
 30
0.0
 10
50.78338676550084
 20
185.4037901139794
 30
0.0
 10
50.36656745968043
 20
185.1043876323512
 30
0.0
 10
49.89896794836021
 20
184.8928060712404
 30
0.0
 10
49.46106820510459
 20
184.797276202294
 30
0.0
 10
49.08198906746869
 20
184.7772154910538
 30
0.0
 10
48.76741869759372
 20
184.7981198722983
 30
0.0
 10
48.56342220477633
 20
184.845094854261
 30
0.0
 10
48.46099570882572
 20
184.8686809597539
 30
0.0
  0
SPLINE
  5
230
330
1F
100
AcDbEntity
  8
0
  6
Continuous
 62
     7
370
    18
100
AcDbSpline
210
0.0
220
0.0
230
1.0
 70
     8
 71
     3
 72
    10
 73
     6
 74
     0
 42
0.00000001
 43
0.00000001
 40
0.0
 40
0.0
 40
0.0
 40
0.0
 40
0.5
 40
0.5
 40
1.0
 40
1.0
 40
1.0
 40
1.0
 10
48.2153681421959
 20
183.9509843331329
 30
0.0
 10
50.05472853442568
 20
183.4586673689068
 30
0.0
 10
51.94775482714362
 20
184.5522957903447
 30
0.0
 10
52.93238875559604
 20
188.2310165748043
 30
0.0
 10
51.83876033415805
 20
190.1240428675222
 30
0.0
 10
49.99939994192828
 20
190.6163598317484
 30
0.0
  0
SPLINE
  5
231
330
1F
100
AcDbEntity
  8
0
  6
Continuous
 62
     7
370
    18
100
AcDbSpline
210
0.0
220
0.0
230
1.0
 70
     8
 71
     3
 72
    10
 73
     6
 74
     0
 42
0.00000001
 43
0.00000001
 40
0.0
 40
0.0
 40
0.0
 40
0.0
 40
0.5
 40
0.5
 40
1.0
 40
1.0
 40
1.0
 40
1.0
 10
49.99939994192828
 20
190.6163598317484
 30
0.0
 10
48.1600395496985
 20
191.1086767959746
 30
0.0
 10
46.26701325698055
 20
190.0150483745367
 30
0.0
 10
45.28237932852813
 20
186.3363275900771
 30
0.0
 10
46.37600774996612
 20
184.4433012973592
 30
0.0
 10
48.2153681421959
 20
183.9509843331329
 30
0.0
  0
LINE
  5
232
330
1F
100
AcDbEntity
  8
0
  6
Continuous
 62
     7
370
    18
100
AcDbLine
 10
48.2153681422
 20
183.9509843331
 30
0.0
 11
48.0860904755
 21
183.4679861086
 31
0.0
  0
ARC
  5
233
330
1F
100
AcDbEntity
  8
0
  6
Continuous
 62
     7
370
    18
100
AcDbCircle
 10
49.1073840421
 20
187.2836720824
 30
0.0
 40
3.950000000000022
100
AcDbArc
 50
75.0156420097
 51
255.0156420097
  0
LINE
  5
234
330
1F
100
AcDbEntity
  8
0
  6
Continuous
 62
     7
370
    18
100
AcDbLine
 10
50.1286776086
 20
191.0993580563
 30
0.0
 11
49.9993999419
 21
190.6163598317
 31
0.0
  0
ARC
  5
235
330
1F
100
AcDbEntity
  8
0
  6
Continuous
 62
     7
370
    18
100
AcDbCircle
 10
49.1073840421
 20
187.2836720824
 30
0.0
 40
3.950000000000022
100
AcDbArc
 50
255.0156420097
 51
75.0156420097
  0
LINE
  5
236
330
1F
100
AcDbEntity
  8
0
  6
Continuous
 62
     7
370
    18
100
AcDbLine
 10
48.4609957088
 20
184.8686809598
 30
0.0
 11
48.5902733755
 21
185.3516791843
 31
0.0
  0
LINE
  5
237
330
1F
100
AcDbEntity
  8
0
  6
Continuous
 62
     7
370
    18
100
AcDbLine
 10
49.6244947087
 20
189.2156649806
 30
0.0
 11
49.7537723753
 21
189.6986632051
 31
0.0
  0
ARC
  5
238
330
1F
100
AcDbEntity
  8
0
  6
Continuous
 62
     7
370
    18
100
AcDbCircle
 10
49.1073840421
 20
187.2836720824
 30
0.0
 40
1.999999999999999
100
AcDbArc
 50
75.0156420097
 51
255.0156420097
  0
ARC
  5
239
330
1F
100
AcDbEntity
  8
0
  6
Continuous
 62
     7
370
    18
100
AcDbCircle
 10
49.1073840421
 20
187.2836720824
 30
0.0
 40
1.999999999999999
100
AcDbArc
 50
255.0156420097
 51
75.0156420097
  0
ARC
  5
23A
330
1F
100
AcDbEntity
  8
0
  6
Continuous
 62
     7
370
    18
100
AcDbCircle
 10
49.1073840421
 20
187.2836720824
 30
0.0
 40
4.000000000000028
100
AcDbArc
 50
255.0156420097
 51
75.0156420097
  0
ARC
  5
23B
330
1F
100
AcDbEntity
  8
0
  6
Continuous
 62
     7
370
    18
100
AcDbCircle
 10
49.1073840421
 20
187.2836720824
 30
0.0
 40
4.000000000000028
100
AcDbArc
 50
75.0156420097
 51
255.0156420097
  0
LINE
  5
23C
330
1F
100
AcDbEntity
  8
0
  6
Continuous
 62
     7
370
    18
100
AcDbLine
 10
50.3317945069
 20
188.5087512691
 30
0.0
 11
50.7805389718
 21
186.8358411086
 31
0.0
  0
LINE
  5
23D
330
1F
100
AcDbEntity
  8
0
  6
Continuous
 62
     7
370
    18
100
AcDbLine
 10
48.6586395771
 20
188.956582243
 30
0.0
 11
50.3317945069
 21
188.5087512691
 31
0.0
  0
LINE
  5
23E
330
1F
100
AcDbEntity
  8
0
  6
Continuous
 62
     7
370
    18
100
AcDbLine
 10
47.4342291123
 20
187.7315030563
 30
0.0
 11
48.6586395771
 21
188.956582243
 31
0.0
  0
LINE
  5
23F
330
1F
100
AcDbEntity
  8
0
  6
Continuous
 62
     7
370
    18
100
AcDbLine
 10
47.8829735773
 20
186.0585928957
 30
0.0
 11
47.4342291123
 21
187.7315030563
 31
0.0
  0
LINE
  5
240
330
1F
100
AcDbEntity
  8
0
  6
Continuous
 62
     7
370
    18
100
AcDbLine
 10
49.556128507
 20
185.6107619219
 30
0.0
 11
47.8829735773
 21
186.0585928957
 31
0.0
  0
LINE
  5
241
330
1F
100
AcDbEntity
  8
0
  6
Continuous
 62
     7
370
    18
100
AcDbLine
 10
50.7805389718
 20
186.8358411086
 30
0.0
 11
49.556128507
 21
185.6107619219
 31
0.0
  0
ARC
  5
242
330
1F
100
AcDbEntity
  8
0
  6
Continuous
 62
     7
370
    18
100
AcDbCircle
 10
49.1073840421
 20
187.2836720824
 30
0.0
 40
0.7499999999999952
100
AcDbArc
 50
75.0156420097
 51
255.0156420097
  0
ARC
  5
243
330
1F
100
AcDbEntity
  8
0
  6
Continuous
 62
     7
370
    18
100
AcDbCircle
 10
49.1073840421
 20
187.2836720824
 30
0.0
 40
0.7499999999999952
100
AcDbArc
 50
255.0156420097
 51
75.0156420097
  0
SPLINE
  5
244
330
1F
100
AcDbEntity
  8
0
  6
Continuous
 62
     7
370
    18
100
AcDbSpline
210
0.0
220
0.0
230
1.0
 70
     8
 71
     3
 72
    28
 73
    24
 74
     0
 42
0.00000001
 43
0.00000001
 40
0.0
 40
0.0
 40
0.0
 40
0.0
 40
0.0201456005670517
 40
0.0401354407850173
 40
0.0600488055410187
 40
0.079965893031526
 40
0.0999668566717268
 40
0.1201308496592762
 40
0.1850779540057165
 40
0.2500933558535346
 40
0.3150404909385626
 40
0.3800559235563826
 40
0.4400086149456101
 40
0.5000289243169642
 40
0.5599816346081545
 40
0.6200019580901414
 40
0.6849490624368468
 40
0.7499644642843952
 40
0.8149115993694772
 40
0.8799270319872389
 40
0.9200435693954534
 40
0.9598539322787979
 40
1.0
 40
1.0
 40
1.0
 40
1.0
 10
46.6775358877037
 20
198.8717519637163
 30
0.0
 10
46.69083193237291
 20
198.9227384845506
 30
0.0
 10
46.7173212202807
 20
199.0243173121941
 30
0.0
 10
46.76886229872541
 20
199.1727907690335
 30
0.0
 10
46.82882408691694
 20
199.3173434077225
 30
0.0
 10
46.8980429466712
 20
199.4577609488106
 30
0.0
 10
46.97631107643974
 20
199.594103509574
 30
0.0
 10
47.1277958377925
 20
199.8235273700351
 30
0.0
 10
47.38667884908877
 20
200.1227633700678
 30
0.0
 10
47.79608485196447
 20
200.431984705837
 30
0.0
 10
48.25856180993615
 20
200.6548488471525
 30
0.0
 10
48.74449978438521
 20
200.7730283216792
 30
0.0
 10
49.2304414946934
 20
200.7962994508794
 30
0.0
 10
49.69869328813694
 20
200.7276128731361
 30
0.0
 10
50.14670852527597
 20
200.574578685194
 30
0.0
 10
50.56810951615451
 20
200.3318085124519
 30
0.0
 10
50.94638540107578
 20
200.0044321894466
 30
0.0
 10
51.2557326884713
 20
199.5949392890309
 30
0.0
 10
51.47850661208604
 20
199.132567318702
 30
0.0
 10
51.58454767791024
 20
198.6970935153989
 30
0.0
 10
51.61372581893146
 20
198.3186069755949
 30
0.0
 10
51.60039821018006
 20
198.0036246179883
 30
0.0
 10
51.55834638722767
 20
197.7985566726665
 30
0.0
 10
51.53723219642048
 20
197.6955922011651
 30
0.0
  0
SPLINE
  5
245
330
1F
100
AcDbEntity
  8
0
  6
Continuous
 62
     7
370
    18
100
AcDbSpline
210
0.0
220
0.0
230
1.0
 70
     8
 71
     3
 72
    28
 73
    24
 74
     0
 42
0.00000001
 43
0.00000001
 40
0.0
 40
0.0
 40
0.0
 40
0.0
 40
0.0201456005670415
 40
0.0401354407850009
 40
0.0600488055410005
 40
0.0799658930315095
 40
0.0999668566717163
 40
0.1201308496592752
 40
0.1850779540058458
 40
0.2500933558535405
 40
0.315040490938653
 40
0.3800559235563801
 40
0.4400086149454188
 40
0.5000289243169586
 40
0.559981634607844
 40
0.6200019580901338
 40
0.6849490624368375
 40
0.7499644642844024
 40
0.8149115993695865
 40
0.8799270319872363
 40
0.9200435693954019
 40
0.9598539322787464
 40
1.0
 40
1.0
 40
1.0
 40
1.0
 10
51.53723219642048
 20
197.6955922011651
 30
0.0
 10
51.52393615175127
 20
197.6446056803309
 30
0.0
 10
51.49744686384349
 20
197.5430268526874
 30
0.0
 10
51.4459057853988
 20
197.394553395848
 30
0.0
 10
51.38594399720727
 20
197.250000757159
 30
0.0
 10
51.316725137453
 20
197.1095832160709
 30
0.0
 10
51.23845700768446
 20
196.9732406553075
 30
0.0
 10
51.08697224633151
 20
196.7438167948461
 30
0.0
 10
50.82808923503546
 20
196.444580794813
 30
0.0
 10
50.41868323215922
 20
196.1353594590441
 30
0.0
 10
49.95620627418764
 20
195.9124953177293
 30
0.0
 10
49.47026829973925
 20
195.7943158432022
 30
0.0
 10
48.98432658943128
 20
195.7710447140022
 30
0.0
 10
48.51607479598848
 20
195.839731291745
 30
0.0
 10
48.06805955884897
 20
195.9927654796872
 30
0.0
 10
47.6466585679704
 20
196.2355356524291
 30
0.0
 10
47.26838268304777
 20
196.5629119754342
 30
0.0
 10
46.95903539565278
 20
196.9724048758507
 30
0.0
 10
46.73626147203857
 20
197.4347768461798
 30
0.0
 10
46.63022040621392
 20
197.8702506494827
 30
0.0
 10
46.6010422651926
 20
198.2487371892862
 30
0.0
 10
46.61436987394404
 20
198.5637195468929
 30
0.0
 10
46.65642169689647
 20
198.7687874922148
 30
0.0
 10
46.6775358877037
 20
198.8717519637163
 30
0.0
  0
SPLINE
  5
246
330
1F
100
AcDbEntity
  8
0
  6
Continuous
 62
     7
370
    18
100
AcDbSpline
210
0.0
220
0.0
230
1.0
 70
     8
 71
     3
 72
    14
 73
    10
 74
     0
 42
0.00000001
 43
0.00000001
 40
0.0
 40
0.0
 40
0.0
 40
0.0
 40
0.25
 40
0.25
 40
0.5
 40
0.5
 40
0.75
 40
0.75
 40
1.0
 40
1.0
 40
1.0
 40
1.0
 10
45.75419358904752
 20
199.0952223186011
 30
0.0
 10
45.53896317545047
 20
198.2059260853986
 30
0.0
 10
45.68583114685388
 20
197.2674793317198
 30
0.0
 10
46.63910417087203
 20
195.7054427678135
 30
0.0
 10
47.40653757269923
 20
195.1457120430232
 30
0.0
 10
49.18513003910422
 20
194.7152512158291
 30
0.0
 10
50.12357679278295
 20
194.8621191872325
 30
0.0
 10
51.68561335668934
 20
195.8153922112506
 30
0.0
 10
52.24534408147961
 20
196.5828256130778
 30
0.0
 10
52.46057449507666
 20
197.4721218462803
 30
0.0
  0
SPLINE
  5
247
330
1F
100
AcDbEntity
  8
0
  6
Continuous
 62
     7
370
    18
100
AcDbSpline
210
0.0
220
0.0
230
1.0
 70
     8
 71
     3
 72
    10
 73
     6
 74
     0
 42
0.00000001
 43
0.00000001
 40
0.0
 40
0.0
 40
0.0
 40
0.0
 40
0.4999999999999999
 40
0.4999999999999999
 40
1.0
 40
1.0
 40
1.0
 40
1.0
 10
52.46057449507666
 20
197.4721218462803
 30
0.0
 10
52.9084812517202
 20
199.3227979884299
 30
0.0
 10
51.76961042037204
 20
201.1889557788117
 30
0.0
 10
48.06825813607288
 20
202.0847692920988
 30
0.0
 10
46.20210034569106
 20
200.9458984607506
 30
0.0
 10
45.75419358904752
 20
199.0952223186011
 30
0.0
  0
LINE
  5
248
330
1F
100
AcDbEntity
  8
0
  6
Continuous
 62
     7
370
    18
100
AcDbLine
 10
45.754193589
 20
199.0952223186
 30
0.0
 11
45.2682239582
 21
199.2128382949
 31
0.0
  0
ARC
  5
249
330
1F
100
AcDbEntity
  8
0
  6
Continuous
 62
     7
370
    18
100
AcDbCircle
 10
49.1073840421
 20
198.2836720824
 30
0.0
 40
3.950000000000007
100
AcDbArc
 50
346.3947040298
 51
166.3947040298
  0
LINE
  5
24A
330
1F
100
AcDbEntity
  8
0
  6
Continuous
 62
     7
370
    18
100
AcDbLine
 10
52.9465441259
 20
197.35450587
 30
0.0
 11
52.4605744951
 21
197.4721218463
 31
0.0
  0
ARC
  5
24B
330
1F
100
AcDbEntity
  8
0
  6
Continuous
 62
     7
370
    18
100
AcDbCircle
 10
49.1073840421
 20
198.2836720824
 30
0.0
 40
3.950000000000007
100
AcDbArc
 50
166.3947040298
 51
346.3947040298
  0
LINE
  5
24C
330
1F
100
AcDbEntity
  8
0
  6
Continuous
 62
     7
370
    18
100
AcDbLine
 10
46.6775358877
 20
198.8717519637
 30
0.0
 11
47.1635055186
 21
198.7541359875
 31
0.0
  0
ARC
  5
24D
330
1F
100
AcDbEntity
  8
0
  6
Continuous
 62
     7
370
    18
100
AcDbCircle
 10
49.1073840421
 20
198.2836720824
 30
0.0
 40
2.000000000000001
100
AcDbArc
 50
166.3947040298
 51
346.3947040298
  0
LINE
  5
24E
330
1F
100
AcDbEntity
  8
0
  6
Continuous
 62
     7
370
    18
100
AcDbLine
 10
51.0512625655
 20
197.8132081774
 30
0.0
 11
51.5372321964
 21
197.6955922012
 31
0.0
  0
ARC
  5
24F
330
1F
100
AcDbEntity
  8
0
  6
Continuous
 62
     7
370
    18
100
AcDbCircle
 10
49.1073840421
 20
198.2836720824
 30
0.0
 40
2.000000000000001
100
AcDbArc
 50
346.3947040298
 51
166.3947040298
  0
LINE
  5
250
330
1F
100
AcDbEntity
  8
0
  6
Continuous
 62
     7
370
    18
100
AcDbLine
 10
59.1073840421
 20
185.5516212643
 30
0.0
 11
59.1073840421
 21
169.2836720824
 31
0.0
  0
LINE
  5
251
330
1F
100
AcDbEntity
  8
0
  6
Continuous
 62
     7
370
    18
100
AcDbLine
 10
39.1073840421
 20
169.2836720824
 30
0.0
 11
59.1073840421
 21
169.2836720824
 31
0.0
  0
ARC
  5
252
330
1F
100
AcDbEntity
  8
0
  6
Continuous
 62
     7
370
    18
100
AcDbCircle
 10
46.1073840421
 20
186.2836720824
 30
0.0
 40
7.0
100
AcDbArc
 50
90.0
 51
180.0
  0
LINE
  5
253
330
1F
100
AcDbEntity
  8
0
  6
Continuous
 62
     7
370
    18
100
AcDbLine
 10
46.1073840421
 20
193.2836720824
 30
0.0
 11
52.1073840421
 21
193.2836720824
 31
0.0
  0
ARC
  5
254
330
1F
100
AcDbEntity
  8
0
  6
Continuous
 62
     7
370
    18
100
AcDbCircle
 10
52.1073840421
 20
186.2836720824
 30
0.0
 40
7.000000000000005
100
AcDbArc
 50
27.4412377009
 51
90.0
  0
LINE
  5
255
330
1F
100
AcDbEntity
  8
0
  6
Continuous
 62
     7
370
    18
100
AcDbLine
 10
39.1073840421
 20
186.2836720824
 30
0.0
 11
39.1073840421
 21
169.2836720824
 31
0.0
  0
ARC
  5
256
330
1F
100
AcDbEntity
  8
0
  6
Continuous
 62
     7
370
    18
100
AcDbCircle
 10
49.1073840421
 20
198.2836720824
 30
0.0
 40
4.000000000000008
100
AcDbArc
 50
166.3947040298
 51
346.3947040298
  0
ARC
  5
257
330
1F
100
AcDbEntity
  8
0
  6
Continuous
 62
     7
370
    18
100
AcDbCircle
 10
49.1073840421
 20
198.2836720824
 30
0.0
 40
4.000000000000008
100
AcDbArc
 50
346.3947040298
 51
166.3947040298
  0
LINE
  5
258
330
1F
100
AcDbEntity
  8
0
  6
Continuous
 62
     7
370
    18
100
AcDbLine
 10
50.361576088
 20
197.0891000621
 30
0.0
 11
48.6999503488
 21
196.6002238992
 31
0.0
  0
LINE
  5
259
330
1F
100
AcDbEntity
  8
0
  6
Continuous
 62
     7
370
    18
100
AcDbLine
 10
50.7690097813
 20
198.7725482453
 30
0.0
 11
50.361576088
 21
197.0891000621
 31
0.0
  0
LINE
  5
25A
330
1F
100
AcDbEntity
  8
0
  6
Continuous
 62
     7
370
    18
100
AcDbLine
 10
49.5148177354
 20
199.9671202657
 30
0.0
 11
50.7690097813
 21
198.7725482453
 31
0.0
  0
LINE
  5
25B
330
1F
100
AcDbEntity
  8
0
  6
Continuous
 62
     7
370
    18
100
AcDbLine
 10
47.8531919961
 20
199.4782441028
 30
0.0
 11
49.5148177354
 21
199.9671202657
 31
0.0
  0
LINE
  5
25C
330
1F
100
AcDbEntity
  8
0
  6
Continuous
 62
     7
370
    18
100
AcDbLine
 10
47.4457583028
 20
197.7947959196
 30
0.0
 11
47.8531919961
 21
199.4782441028
 31
0.0
  0
LINE
  5
25D
330
1F
100
AcDbEntity
  8
0
  6
Continuous
 62
     7
370
    18
100
AcDbLine
 10
48.6999503488
 20
196.6002238992
 30
0.0
 11
47.4457583028
 21
197.7947959196
 31
0.0
  0
ARC
  5
25E
330
1F
100
AcDbEntity
  8
0
  6
Continuous
 62
     7
370
    18
100
AcDbCircle
 10
49.1073840421
 20
198.2836720824
 30
0.0
 40
0.750000000000008
100
AcDbArc
 50
166.3947040298
 51
346.3947040298
  0
ARC
  5
25F
330
1F
100
AcDbEntity
  8
0
  6
Continuous
 62
     7
370
    18
100
AcDbCircle
 10
49.1073840421
 20
198.2836720824
 30
0.0
 40
0.750000000000008
100
AcDbArc
 50
346.3947040298
 51
166.3947040298
  0
LINE
  5
260
330
1F
100
AcDbEntity
  8
0
  6
Continuous
 62
     7
370
    18
100
AcDbLine
 10
39.1073840421
 20
195.2836720824
 30
0.0
 11
39.1073840421
 21
186.2836720824
 31
0.0
  0
ARC
  5
261
330
1F
100
AcDbEntity
  8
0
  6
Continuous
 62
     7
370
    18
100
AcDbCircle
 10
42.1073840421
 20
199.2836720824
 30
0.0
 40
3.0
100
AcDbArc
 50
270.0
 51
0.0
  0
LINE
  5
262
330
1F
100
AcDbEntity
  8
0
  6
Continuous
 62
     7
370
    18
100
AcDbLine
 10
45.1073840421
 20
201.2836720824
 30
0.0
 11
45.1073840421
 21
199.2836720824
 31
0.0
  0
ARC
  5
263
330
1F
100
AcDbEntity
  8
0
  6
Continuous
 62
     7
370
    18
100
AcDbCircle
 10
46.1073840421
 20
201.2836720824
 30
0.0
 40
1.000000000000007
100
AcDbArc
 50
90.0
 51
180.0
  0
LINE
  5
264
330
1F
100
AcDbEntity
  8
0
  6
Continuous
 62
     7
370
    18
100
AcDbLine
 10
52.1073840421
 20
202.2836720824
 30
0.0
 11
46.1073840421
 21
202.2836720824
 31
0.0
  0
ARC
  5
265
330
1F
100
AcDbEntity
  8
0
  6
Continuous
 62
     7
370
    18
100
AcDbCircle
 10
52.1073840421
 20
201.2836720824
 30
0.0
 40
1.000000000000007
100
AcDbArc
 50
0.0
 51
90.0
  0
LINE
  5
266
330
1F
100
AcDbEntity
  8
0
  6
Continuous
 62
     7
370
    18
100
AcDbLine
 10
53.1073840421
 20
199.2836720824
 30
0.0
 11
53.1073840421
 21
201.2836720824
 31
0.0
  0
ARC
  5
267
330
1F
100
AcDbEntity
  8
0
  6
Continuous
 62
     7
370
    18
100
AcDbCircle
 10
56.1073840421
 20
199.2836720824
 30
0.0
 40
3.0
100
AcDbArc
 50
180.0
 51
270.0
  0
LINE
  5
268
330
1F
100
AcDbEntity
  8
0
  6
Continuous
 62
     7
370
    18
100
AcDbLine
 10
58.1073840421
 20
196.2836720824
 30
0.0
 11
56.1073840421
 21
196.2836720824
 31
0.0
  0
ARC
  5
269
330
1F
100
AcDbEntity
  8
0
  6
Continuous
 62
     7
370
    18
100
AcDbCircle
 10
58.1073840421
 20
195.2836720824
 30
0.0
 40
1.0
100
AcDbArc
 50
0.0
 51
90.0
  0
LINE
  5
26A
330
1F
100
AcDbEntity
  8
0
  6
Continuous
 62
     7
370
    18
100
AcDbLine
 10
59.1073840421
 20
189.01572289
 30
0.0
 11
59.1073840421
 21
195.2836720824
 31
0.0
  0
ARC
  5
26B
330
1F
100
AcDbEntity
  8
0
  6
Continuous
 62
     7
370
    18
100
AcDbCircle
 10
40.1073840421
 20
195.2836720824
 30
0.0
 40
1.0
100
AcDbArc
 50
90.0
 51
180.0
  0
LINE
  5
26C
330
1F
100
AcDbEntity
  8
0
  6
Continuous
 62
     7
370
    18
100
AcDbLine
 10
42.1073840421
 20
196.2836720824
 30
0.0
 11
40.1073840421
 21
196.2836720824
 31
0.0
  0
LINE
  5
26D
330
1F
100
AcDbEntity
  8
0
  6
Continuous
 62
     7
370
    18
100
AcDbLine
 10
57.0947478453
 20
199.931067675
 30
0.0
 11
57.1617269732
 21
198.7522877423
 31
0.0
  0
LINE
  5
26E
330
1F
100
AcDbEntity
  8
0
  6
Continuous
 62
     7
370
    18
100
AcDbLine
 10
56.0404049142
 20
200.4624520152
 30
0.0
 11
57.0947478453
 21
199.931067675
 31
0.0
  0
LINE
  5
26F
330
1F
100
AcDbEntity
  8
0
  6
Continuous
 62
     7
370
    18
100
AcDbLine
 10
55.0530411109
 20
199.8150564226
 30
0.0
 11
56.0404049142
 21
200.4624520152
 31
0.0
  0
LINE
  5
270
330
1F
100
AcDbEntity
  8
0
  6
Continuous
 62
     7
370
    18
100
AcDbLine
 10
55.1200202388
 20
198.6362764899
 30
0.0
 11
55.0530411109
 21
199.8150564226
 31
0.0
  0
LINE
  5
271
330
1F
100
AcDbEntity
  8
0
  6
Continuous
 62
     7
370
    18
100
AcDbLine
 10
56.1743631699
 20
198.1048921497
 30
0.0
 11
55.1200202388
 21
198.6362764899
 31
0.0
  0
LINE
  5
272
330
1F
100
AcDbEntity
  8
0
  6
Continuous
 62
     7
370
    18
100
AcDbLine
 10
57.1617269732
 20
198.7522877423
 30
0.0
 11
56.1743631699
 21
198.1048921497
 31
0.0
  0
SPLINE
  5
273
330
1F
100
AcDbEntity
  8
0
  6
Continuous
 62
     7
370
    18
100
AcDbSpline
210
0.0
220
0.0
230
1.0
 70
     8
 71
     3
 72
    10
 73
     6
 74
     0
 42
0.00000001
 43
0.00000001
 40
0.0
 40
0.0
 40
0.0
 40
0.0
 40
0.5
 40
0.5
 40
1.0
 40
1.0
 40
1.0
 40
1.0
 10
57.27257200063044
 20
197.5066065177506
 30
0.0
 10
58.25336115940038
 20
198.1496912414661
 30
0.0
 10
58.52753433046772
 20
199.4680708822391
 30
0.0
 10
57.24136488303668
 20
201.429649199779
 30
0.0
 10
55.92298524226371
 20
201.7038223708463
 30
0.0
 10
54.94219608349377
 20
201.0607376471308
 30
0.0
  0
SPLINE
  5
274
330
1F
100
AcDbEntity
  8
0
  6
Continuous
 62
     7
370
    18
100
AcDbSpline
210
0.0
220
0.0
230
1.0
 70
     8
 71
     3
 72
    10
 73
     6
 74
     0
 42
0.00000001
 43
0.00000001
 40
0.0
 40
0.0
 40
0.0
 40
0.0
 40
0.5
 40
0.5
 40
1.0
 40
1.0
 40
1.0
 40
1.0
 10
54.94219608349377
 20
201.0607376471308
 30
0.0
 10
53.96140692472383
 20
200.4176529234153
 30
0.0
 10
53.68723375365649
 20
199.0992732826423
 30
0.0
 10
54.97340320108753
 20
197.1376949651024
 30
0.0
 10
56.2917828418605
 20
196.8635217940351
 30
0.0
 10
57.27257200063044
 20
197.5066065177506
 30
0.0
  0
LINE
  5
275
330
1F
100
AcDbEntity
  8
0
  6
Continuous
 62
     7
370
    18
100
AcDbLine
 10
43.0947478453
 20
199.931067675
 30
0.0
 11
43.1617269732
 21
198.7522877423
 31
0.0
  0
LINE
  5
276
330
1F
100
AcDbEntity
  8
0
  6
Continuous
 62
     7
370
    18
100
AcDbLine
 10
42.0404049142
 20
200.4624520152
 30
0.0
 11
43.0947478453
 21
199.931067675
 31
0.0
  0
LINE
  5
277
330
1F
100
AcDbEntity
  8
0
  6
Continuous
 62
     7
370
    18
100
AcDbLine
 10
41.0530411109
 20
199.8150564226
 30
0.0
 11
42.0404049142
 21
200.4624520152
 31
0.0
  0
LINE
  5
278
330
1F
100
AcDbEntity
  8
0
  6
Continuous
 62
     7
370
    18
100
AcDbLine
 10
41.1200202388
 20
198.6362764899
 30
0.0
 11
41.0530411109
 21
199.8150564226
 31
0.0
  0
LINE
  5
279
330
1F
100
AcDbEntity
  8
0
  6
Continuous
 62
     7
370
    18
100
AcDbLine
 10
42.1743631699
 20
198.1048921497
 30
0.0
 11
41.1200202388
 21
198.6362764899
 31
0.0
  0
LINE
  5
27A
330
1F
100
AcDbEntity
  8
0
  6
Continuous
 62
     7
370
    18
100
AcDbLine
 10
43.1617269732
 20
198.7522877423
 30
0.0
 11
42.1743631699
 21
198.1048921497
 31
0.0
  0
SPLINE
  5
27B
330
1F
100
AcDbEntity
  8
0
  6
Continuous
 62
     7
370
    18
100
AcDbSpline
210
0.0
220
0.0
230
1.0
 70
     8
 71
     3
 72
    10
 73
     6
 74
     0
 42
0.00000001
 43
0.00000001
 40
0.0
 40
0.0
 40
0.0
 40
0.0
 40
0.5
 40
0.5
 40
1.0
 40
1.0
 40
1.0
 40
1.0
 10
43.27257200063042
 20
197.5066065177506
 30
0.0
 10
44.25336115940036
 20
198.1496912414661
 30
0.0
 10
44.52753433046771
 20
199.4680708822391
 30
0.0
 10
43.24136488303667
 20
201.429649199779
 30
0.0
 10
41.92298524226369
 20
201.7038223708463
 30
0.0
 10
40.94219608349376
 20
201.0607376471308
 30
0.0
  0
SPLINE
  5
27C
330
1F
100
AcDbEntity
  8
0
  6
Continuous
 62
     7
370
    18
100
AcDbSpline
210
0.0
220
0.0
230
1.0
 70
     8
 71
     3
 72
    14
 73
    10
 74
     0
 42
0.00000001
 43
0.00000001
 40
0.0
 40
0.0
 40
0.0
 40
0.0
 40
0.2499999999999998
 40
0.2499999999999998
 40
0.4999999999999998
 40
0.4999999999999998
 40
0.7499999999999998
 40
0.7499999999999998
 40
0.9999999999999999
 40
0.9999999999999999
 40
0.9999999999999999
 40
0.9999999999999999
 10
40.94219608349376
 20
201.0607376471308
 30
0.0
 10
40.4709023305809
 20
200.7517193324699
 30
0.0
 10
40.14164268660397
 20
200.2680988414087
 30
0.0
 10
39.9121505609881
 20
199.1645709325625
 30
0.0
 10
40.02130016271105
 20
198.5897778767852
 30
0.0
 10
40.63933679203293
 20
197.6471903709595
 30
0.0
 10
41.12295728309408
 20
197.3179307269826
 30
0.0
 10
42.22648519194032
 20
197.0884386013667
 30
0.0
 10
42.80127824771758
 20
197.1975882030897
 30
0.0
 10
43.27257200063043
 20
197.5066065177506
 30
0.0
  0
LINE
  5
27D
330
1F
100
AcDbEntity
  8
0
  6
Continuous
 62
     7
370
    18
100
AcDbLine
 10
43.3411124688
 20
197.4020732492
 30
0.0
 11
43.2725720006
 21
197.5066065178
 31
0.0
  0
ARC
  5
27E
330
1F
100
AcDbEntity
  8
0
  6
Continuous
 62
     7
370
    18
100
AcDbCircle
 10
42.1073840421
 20
199.2836720824
 30
0.0
 40
2.250000000000017
100
AcDbArc
 50
123.2520907211
 51
303.2520907211
  0
LINE
  5
27F
330
1F
100
AcDbEntity
  8
0
  6
Continuous
 62
     7
370
    18
100
AcDbLine
 10
40.9421960835
 20
201.0607376471
 30
0.0
 11
40.8736556153
 21
201.1652709156
 31
0.0
  0
ARC
  5
280
330
1F
100
AcDbEntity
  8
0
  6
Continuous
 62
     7
370
    18
100
AcDbCircle
 10
42.1073840421
 20
199.2836720824
 30
0.0
 40
2.250000000000017
100
AcDbArc
 50
303.2520907211
 51
123.2520907211
  0
LINE
  5
281
330
1F
100
AcDbEntity
  8
0
  6
Continuous
 62
     7
370
    18
100
AcDbLine
 10
57.3411124688
 20
197.4020732492
 30
0.0
 11
57.2725720006
 21
197.5066065178
 31
0.0
  0
ARC
  5
282
330
1F
100
AcDbEntity
  8
0
  6
Continuous
 62
     7
370
    18
100
AcDbCircle
 10
56.1073840421
 20
199.2836720824
 30
0.0
 40
2.250000000000021
100
AcDbArc
 50
123.2520907211
 51
303.2520907211
  0
LINE
  5
283
330
1F
100
AcDbEntity
  8
0
  6
Continuous
 62
     7
370
    18
100
AcDbLine
 10
54.9421960835
 20
201.0607376471
 30
0.0
 11
54.8736556153
 21
201.1652709156
 31
0.0
  0
ARC
  5
284
330
1F
100
AcDbEntity
  8
0
  6
Continuous
 62
     7
370
    18
100
AcDbCircle
 10
56.1073840421
 20
199.2836720824
 30
0.0
 40
2.250000000000021
100
AcDbArc
 50
303.2520907211
 51
123.2520907211
  0
ARC
  5
285
330
1F
100
AcDbEntity
  8
0
  6
Continuous
 62
     7
370
    18
100
AcDbCircle
 10
42.1073840421
 20
199.2836720824
 30
0.0
 40
1.022499999996661
100
AcDbArc
 50
123.2520907197
 51
183.2520907211
  0
ARC
  5
286
330
1F
100
AcDbEntity
  8
0
  6
Continuous
 62
     7
370
    18
100
AcDbCircle
 10
42.1073840421
 20
199.2836720824
 30
0.0
 40
1.022499999996654
100
AcDbArc
 50
63.2520907211
 51
123.2520907197
  0
ARC
  5
287
330
1F
100
AcDbEntity
  8
0
  6
Continuous
 62
     7
370
    18
100
AcDbCircle
 10
42.1073840421
 20
199.2836720824
 30
0.0
 40
1.022499999996682
100
AcDbArc
 50
243.2520907211
 51
303.2520907211
  0
ARC
  5
288
330
1F
100
AcDbEntity
  8
0
  6
Continuous
 62
     7
370
    18
100
AcDbCircle
 10
42.1073840421
 20
199.2836720824
 30
0.0
 40
1.022499999996668
100
AcDbArc
 50
3.2520907211
 51
63.2520907211
  0
ARC
  5
289
330
1F
100
AcDbEntity
  8
0
  6
Continuous
 62
     7
370
    18
100
AcDbCircle
 10
42.1073840421
 20
199.2836720824
 30
0.0
 40
1.022499999996676
100
AcDbArc
 50
183.2520907211
 51
243.2520907211
  0
ARC
  5
28A
330
1F
100
AcDbEntity
  8
0
  6
Continuous
 62
     7
370
    18
100
AcDbCircle
 10
42.1073840421
 20
199.2836720824
 30
0.0
 40
1.022499999996682
100
AcDbArc
 50
303.2520907211
 51
3.2520907211
  0
ARC
  5
28B
330
1F
100
AcDbEntity
  8
0
  6
Continuous
 62
     7
370
    18
100
AcDbCircle
 10
56.1073840421
 20
199.2836720824
 30
0.0
 40
1.022499999993929
100
AcDbArc
 50
123.2520907195
 51
183.2520907211
  0
ARC
  5
28C
330
1F
100
AcDbEntity
  8
0
  6
Continuous
 62
     7
370
    18
100
AcDbCircle
 10
56.1073840421
 20
199.2836720824
 30
0.0
 40
1.022499999993943
100
AcDbArc
 50
63.2520907211
 51
123.2520907195
  0
ARC
  5
28D
330
1F
100
AcDbEntity
  8
0
  6
Continuous
 62
     7
370
    18
100
AcDbCircle
 10
56.1073840421
 20
199.2836720824
 30
0.0
 40
1.02249999999394
100
AcDbArc
 50
243.2520907211
 51
303.2520907211
  0
ARC
  5
28E
330
1F
100
AcDbEntity
  8
0
  6
Continuous
 62
     7
370
    18
100
AcDbCircle
 10
56.1073840421
 20
199.2836720824
 30
0.0
 40
1.022499999993943
100
AcDbArc
 50
3.2520907211
 51
63.2520907211
  0
ARC
  5
28F
330
1F
100
AcDbEntity
  8
0
  6
Continuous
 62
     7
370
    18
100
AcDbCircle
 10
56.1073840421
 20
199.2836720824
 30
0.0
 40
1.022499999993934
100
AcDbArc
 50
303.2520907211
 51
3.2520907211
  0
ARC
  5
290
330
1F
100
AcDbEntity
  8
0
  6
Continuous
 62
     7
370
    18
100
AcDbCircle
 10
56.1073840421
 20
199.2836720824
 30
0.0
 40
1.02249999999394
100
AcDbArc
 50
183.2520907211
 51
243.2520907211
  0
LINE
  5
291
330
1F
100
AcDbEntity
  8
0
  6
Continuous
 62
     7
370
    18
100
AcDbLine
 10
42.1073840421
 20
199.2836720824
 30
0.0
 11
42.6680450715
 21
198.428589946
 31
0.0
  0
LINE
  5
292
330
1F
100
AcDbEntity
  8
0
  6
Continuous
 62
     7
370
    18
100
AcDbLine
 10
41.5467230126
 20
200.1387542188
 30
0.0
 11
42.1073840421
 21
199.2836720825
 31
0.0
  0
LINE
  5
293
330
1F
100
AcDbEntity
  8
0
  6
Continuous
 62
     7
370
    18
100
AcDbLine
 10
56.1073840421
 20
199.2836720824
 30
0.0
 11
56.6680450715
 21
198.428589946
 31
0.0
  0
LINE
  5
294
330
1F
100
AcDbEntity
  8
0
  6
Continuous
 62
     7
370
    18
100
AcDbLine
 10
55.5467230126
 20
200.1387542188
 30
0.0
 11
56.1073840421
 21
199.2836720825
 31
0.0
  0
LINE
  5
295
330
1F
100
AcDbEntity
  8
0
  6
Continuous
 62
     7
370
    18
100
AcDbLine
 10
53.1073840421
 20
201.2836720824
 30
0.0
 11
55.0766076357
 21
201.2836720824
 31
0.0
  0
LINE
  5
296
330
1F
100
AcDbEntity
  8
0
  6
Continuous
 62
     7
370
    18
100
AcDbLine
 10
56.1073840421
 20
202.2836720824
 30
0.0
 11
52.1073840421
 21
202.2836720824
 31
0.0
  0
LINE
  5
297
330
1F
100
AcDbEntity
  8
0
  6
Continuous
 62
     7
370
    18
100
AcDbLine
 10
58.1073840421
 20
198.252895676
 30
0.0
 11
58.1073840421
 21
196.2836720824
 31
0.0
  0
LINE
  5
298
330
1F
100
AcDbEntity
  8
0
  6
Continuous
 62
     7
370
    18
100
AcDbLine
 10
59.1073840421
 20
195.2836720824
 30
0.0
 11
59.1073840421
 21
199.2836720824
 31
0.0
  0
LINE
  5
299
330
1F
100
AcDbEntity
  8
0
  6
Continuous
 62
     7
370
    18
100
AcDbLine
 10
40.1073840421
 20
196.2836720824
 30
0.0
 11
40.1073840421
 21
198.252895676
 31
0.0
  0
LINE
  5
29A
330
1F
100
AcDbEntity
  8
0
  6
Continuous
 62
     7
370
    18
100
AcDbLine
 10
39.1073840421
 20
199.2836720824
 30
0.0
 11
39.1073840421
 21
195.2836720824
 31
0.0
  0
LINE
  5
29B
330
1F
100
AcDbEntity
  8
0
  6
Continuous
 62
     7
370
    18
100
AcDbLine
 10
45.1073840421
 20
201.2836720824
 30
0.0
 11
43.1381604485
 21
201.2836720824
 31
0.0
  0
LINE
  5
29C
330
1F
100
AcDbEntity
  8
0
  6
Continuous
 62
     7
370
    18
100
AcDbLine
 10
46.1073840421
 20
202.2836720824
 30
0.0
 11
42.1073840421
 21
202.2836720824
 31
0.0
  0
ARC
  5
29D
330
1F
100
AcDbEntity
  8
0
  6
Continuous
 62
     7
370
    18
100
AcDbCircle
 10
56.1073840421
 20
199.2836720824
 30
0.0
 40
3.0
100
AcDbArc
 50
0.0
 51
90.0
  0
ARC
  5
29E
330
1F
100
AcDbEntity
  8
0
  6
Continuous
 62
     7
370
    18
100
AcDbCircle
 10
42.1073840421
 20
199.2836720824
 30
0.0
 40
3.0
100
AcDbArc
 50
90.0
 51
180.0
  0
ARC
  5
29F
330
1F
100
AcDbEntity
  8
0
  6
Continuous
 62
     7
370
    18
100
AcDbCircle
 10
49.1073840421
 20
203.3136720824
 30
0.0
 40
10.00000000000001
100
AcDbArc
 50
0.0
 51
44.1868064211
  0
LINE
  5
2A0
330
1F
100
AcDbEntity
  8
0
  6
Continuous
 62
     7
370
    18
100
AcDbLine
 10
59.1073840421
 20
199.2836720824
 30
0.0
 11
59.1073840421
 21
203.3136720824
 31
0.0
  0
LINE
  5
2A1
330
1F
100
AcDbEntity
  8
0
  6
Continuous
 62
     7
370
    18
100
AcDbLine
 10
39.1073840421
 20
203.3136720824
 30
0.0
 11
39.1073840421
 21
199.2836720824
 31
0.0
  0
ARC
  5
2A2
330
1F
100
AcDbEntity
  8
0
  6
Continuous
 62
     7
370
    18
100
AcDbCircle
 10
49.1073840421
 20
203.3136720824
 30
0.0
 40
9.999999999999993
100
AcDbArc
 50
135.8131936084
 51
180.0
  0
LINE
  5
2A3
330
1F
100
AcDbEntity
  8
0
  6
Continuous
 62
     7
370
    18
100
AcDbLine
 10
41.9366727803
 20
208.414740598
 30
0.0
 11
41.9366727803
 21
210.2836720824
 31
0.0
  0
ARC
  5
2A4
330
1F
100
AcDbEntity
  8
0
  6
Continuous
 62
     7
370
    18
100
AcDbCircle
 10
49.1073840421
 20
203.3136720824
 30
0.0
 40
8.799999999999997
100
AcDbArc
 50
144.5728840639
 51
180.0
  0
LINE
  5
2A5
330
1F
100
AcDbEntity
  8
0
  6
Continuous
 62
     7
370
    18
100
AcDbLine
 10
40.3073840421
 20
203.3136720824
 30
0.0
 11
40.3073840421
 21
201.6836720824
 31
0.0
  0
LINE
  5
2A6
330
1F
100
AcDbEntity
  8
0
  6
Continuous
 62
     7
370
    18
100
AcDbLine
 10
57.9073840421
 20
203.3136720824
 30
0.0
 11
57.9073840421
 21
201.6836720824
 31
0.0
  0
ARC
  5
2A7
330
1F
100
AcDbEntity
  8
0
  6
Continuous
 62
     7
370
    18
100
AcDbCircle
 10
49.1073840421
 20
203.3136720824
 30
0.0
 40
8.799999999999997
100
AcDbArc
 50
0.0
 51
35.4271159764
  0
LINE
  5
2A8
330
1F
100
AcDbEntity
  8
0
  6
Continuous
 62
     7
370
    18
100
AcDbLine
 10
56.2780953003
 20
210.2836720861
 30
0.0
 11
56.2780953003
 21
208.414740603
 31
0.0
  0
ARC
  5
2A9
330
1F
100
AcDbEntity
  8
0
  6
Continuous
 62
     7
370
    18
100
AcDbCircle
 10
49.1073840421
 20
205.2836720824
 30
0.0
 40
3.500000000000004
100
AcDbArc
 50
301.0027191339
 51
0.0
  0
ARC
  5
2AA
330
1F
100
AcDbEntity
  8
0
  6
Continuous
 62
     7
370
    18
100
AcDbCircle
 10
49.1073840421
 20
205.2836720824
 30
0.0
 40
3.500000000000004
100
AcDbArc
 50
180.0
 51
238.9972808661
  0
ARC
  5
2AB
330
1F
100
AcDbEntity
  8
0
  6
Continuous
 62
     7
370
    18
100
AcDbCircle
 10
49.1073840421
 20
205.2836720824
 30
0.0
 40
3.5
100
AcDbArc
 50
0.0
 51
180.0
  0
LINE
  5
2AC
330
1F
100
AcDbEntity
  8
0
  6
Continuous
 62
     7
370
    18
100
AcDbLine
 10
48.3815775904
 20
212.7484698039
 30
0.0
 11
47.655771139
 21
220.2132675217
 31
0.0
  0
ARC
  5
2AD
330
1F
100
AcDbEntity
  8
0
  6
Continuous
 62
     7
370
    18
100
AcDbCircle
 10
48.4299646872
 20
212.2508166226
 30
0.0
 40
0.5000000000000003
100
AcDbArc
 50
95.5534441957
 51
185.5534441957
  0
LINE
  5
2AE
330
1F
100
AcDbEntity
  8
0
  6
Continuous
 62
     7
370
    18
100
AcDbLine
 10
48.0290856995
 20
211.2071231632
 30
0.0
 11
47.9323115059
 21
212.2024295258
 31
0.0
  0
ARC
  5
2AF
330
1F
100
AcDbEntity
  8
0
  6
Continuous
 62
     7
370
    18
100
AcDbCircle
 10
48.5267388808
 20
211.25551026
 30
0.0
 40
0.5000000000000073
100
AcDbArc
 50
185.5534441957
 51
275.5534441957
  0
ARC
  5
2B0
330
1F
100
AcDbEntity
  8
0
  6
Continuous
 62
     7
370
    18
100
AcDbCircle
 10
49.1073840421
 20
205.2836720843
 30
0.0
 40
5.500000000000008
100
AcDbArc
 50
336.6828398789
 51
95.5534441957
  0
LINE
  5
2B1
330
1F
100
AcDbEntity
  8
0
  6
Continuous
 62
     7
370
    18
100
AcDbLine
 10
53.7852982851
 20
202.2836720824
 30
0.0
 11
54.1581873492
 21
203.1066590039
 31
0.0
  0
ARC
  5
2B2
330
1F
100
AcDbEntity
  8
0
  6
Continuous
 62
     7
370
    18
100
AcDbCircle
 10
49.1073840421
 20
205.2836720843
 30
0.0
 40
5.500000000000004
100
AcDbArc
 50
185.5534441957
 51
213.0557311738
  0
LINE
  5
2B3
330
1F
100
AcDbEntity
  8
0
  6
Continuous
 62
     7
370
    18
100
AcDbLine
 10
43.4396506606
 20
206.742026745
 30
0.0
 11
43.6331990477
 21
204.7514140198
 31
0.0
  0
ARC
  5
2B4
330
1F
100
AcDbEntity
  8
0
  6
Continuous
 62
     7
370
    18
100
AcDbCircle
 10
65.2829670339
 20
209.3630055346
 30
0.0
 40
22.0
100
AcDbArc
 50
185.5534441957
 51
186.842206669
  0
LWPOLYLINE
  5
2B5
330
1F
100
AcDbEntity
  8
0
  6
Continuous
 62
     7
370
    18
100
AcDbPolyline
 90
        9
 70
   128
 43
0.0
 10
43.3852321675
 20
207.2442304821
 10
43.3853562659
 20
207.2429483059
 10
43.3854804393
 20
207.241666137
 10
43.3856046878
 20
207.2403839754
 10
43.3857290114
 20
207.2391018211
 10
43.38585341
 20
207.237819674
 10
43.3859778837
 20
207.2365375342
 10
43.3861024325
 20
207.2352554017
 10
43.3862270563
 20
207.2339732766
  0
ARC
  5
2B6
330
1F
100
AcDbEntity
  8
0
  6
Continuous
 62
     7
370
    18
100
AcDbCircle
 10
65.3260776273
 20
208.8564651151
 30
0.0
 40
21.99999999999999
100
AcDbArc
 50
149.2882156733
 51
184.2025964761
  0
LINE
  5
2B7
330
1F
100
AcDbEntity
  8
0
  6
Continuous
 62
     7
370
    18
100
AcDbLine
 10
46.4116381857
 20
220.0922997798
 30
0.0
 11
47.655771139
 21
220.2132675217
 31
0.0
  0
ARC
  5
2B8
330
1F
100
AcDbEntity
  8
0
  6
Continuous
 62
     7
370
    18
100
AcDbCircle
 10
49.1073840421
 20
205.2836720843
 30
0.0
 40
3.0
100
AcDbArc
 50
270.0
 51
90.0
  0
ARC
  5
2B9
330
1F
100
AcDbEntity
  8
0
  6
Continuous
 62
     7
370
    18
100
AcDbCircle
 10
49.1073840421
 20
205.2836720843
 30
0.0
 40
3.0
100
AcDbArc
 50
90.0
 51
270.0
  0
ARC
  5
2BA
330
1F
100
AcDbEntity
  8
0
  6
Continuous
 62
     7
370
    18
100
AcDbCircle
 10
49.1073840421
 20
205.2836720843
 30
0.0
 40
6.000000000000002
100
AcDbArc
 50
17.8761855697
 51
79.6705248778
  0
ARC
  5
2BB
330
1F
100
AcDbEntity
  8
0
  6
Continuous
 62
     7
370
    18
100
AcDbCircle
 10
49.6880292034
 20
211.25551026
 30
0.0
 40
0.5000000000000009
100
AcDbArc
 50
352.0585403411
 51
354.4465558043
  0
LINE
  5
2BC
330
1F
100
AcDbEntity
  8
0
  6
Continuous
 62
     7
370
    18
100
AcDbLine
 10
50.1856823847
 20
211.2071231632
 30
0.0
 11
50.2824565782
 21
212.2024295258
 31
0.0
  0
ARC
  5
2BD
330
1F
100
AcDbEntity
  8
0
  6
Continuous
 62
     7
370
    18
100
AcDbCircle
 10
49.7848033969
 20
212.2508166226
 30
0.0
 40
0.5000000000000003
100
AcDbArc
 50
354.4465558043
 51
84.4465558043
  0
LINE
  5
2BE
330
1F
100
AcDbEntity
  8
0
  6
Continuous
 62
     7
370
    18
100
AcDbLine
 10
49.8331904937
 20
212.7484698039
 30
0.0
 11
50.5589969451
 21
220.2132675217
 31
0.0
  0
LINE
  5
2BF
330
1F
100
AcDbEntity
  8
0
  6
Continuous
 62
     7
370
    18
100
AcDbLine
 10
50.5589969451
 20
220.2132675217
 30
0.0
 11
51.8031298984
 21
220.0922997798
 31
0.0
  0
ARC
  5
2C0
330
1F
100
AcDbEntity
  8
0
  6
Continuous
 62
     7
370
    18
100
AcDbCircle
 10
32.8886904568
 20
208.8564651151
 30
0.0
 40
21.99999999999999
100
AcDbArc
 50
355.7974035239
 51
30.7117843267
  0
ARC
  5
2C1
330
1F
100
AcDbEntity
  8
0
  6
Continuous
 62
     7
370
    18
100
AcDbCircle
 10
32.9318010502
 20
209.3630055346
 30
0.0
 40
21.99999999999999
100
AcDbArc
 50
354.1624902782
 51
354.4733945586
  0
LINE
  5
2C2
330
1F
100
AcDbEntity
  8
0
  6
Continuous
 62
     7
370
    18
100
AcDbLine
 10
44.1403859765
 20
202.9216961706
 30
0.0
 11
44.429469799
 21
202.2836720824
 31
0.0
  0
LINE
  5
2C3
330
1F
100
AcDbEntity
  8
0
  6
Continuous
 62
     7
370
    18
100
AcDbLine
 10
54.5815690364
 20
204.7514140198
 30
0.0
 11
54.7751174235
 21
206.742026745
 31
0.0
  0
ARC
  5
2C4
330
1F
100
AcDbEntity
  8
0
  6
Continuous
 62
     7
370
    18
100
AcDbCircle
 10
32.9318010502
 20
209.3630055346
 30
0.0
 40
22.0
100
AcDbArc
 50
353.157793331
 51
354.1624902782
  0
ARC
  5
2C5
330
1F
100
AcDbEntity
  8
0
  6
Continuous
 62
     7
370
    18
100
AcDbCircle
 10
49.6880292034
 20
211.25551026
 30
0.0
 40
0.5000000000000009
100
AcDbArc
 50
264.4465558043
 51
352.0585403411
  0
LINE
  5
2C6
330
1F
100
AcDbEntity
  8
0
  6
Continuous
 62
     7
370
    18
100
AcDbLine
 10
41.9366727803
 20
210.2836720824
 30
0.0
 11
43.3724200671
 21
210.2836720828
 31
0.0
  0
LINE
  5
2C7
330
1F
100
AcDbEntity
  8
0
  6
Continuous
 62
     7
370
    18
100
AcDbLine
 10
54.8423480169
 20
210.2836720858
 30
0.0
 11
56.2780953003
 21
210.2836720861
 31
0.0
  0
LINE
  5
2C8
330
1F
100
AcDbEntity
  8
0
  6
Continuous
 62
     7
370
    18
100
AcDbLine
 10
55.8045952857
 20
186.3656794558
 30
0.0
 11
55.6199439974
 21
186.1545298602
 31
0.0
  0
ARC
  5
2C9
330
1F
100
AcDbEntity
  8
0
  6
Continuous
 62
     7
370
    18
100
AcDbCircle
 10
56.6073840421
 20
187.2836720824
 30
0.0
 40
1.219499999988561
100
AcDbArc
 50
228.8301555147
 51
48.8301555147
  0
LINE
  5
2CA
330
1F
100
AcDbEntity
  8
0
  6
Continuous
 62
     7
370
    18
100
AcDbLine
 10
57.5948240867
 20
188.4128143046
 30
0.0
 11
57.4101727984
 21
188.2016647091
 31
0.0
  0
ARC
  5
2CB
330
1F
100
AcDbEntity
  8
0
  6
Continuous
 62
     7
370
    18
100
AcDbCircle
 10
56.6073840421
 20
187.2836720824
 30
0.0
 40
1.499999999974734
100
AcDbArc
 50
228.8301555147
 51
48.8301555147
  0
ARC
  5
2CC
330
1F
100
AcDbEntity
  8
0
  6
Continuous
 62
     7
370
    18
100
AcDbCircle
 10
56.6073840421
 20
187.2836720824
 30
0.0
 40
1.219499999988561
100
AcDbArc
 50
48.8301555147
 51
228.8301555147
  0
LINE
  5
2CD
330
1F
100
AcDbEntity
  8
0
  6
Continuous
 62
     7
370
    18
100
AcDbLine
 10
56.3278623187
 20
188.1033473878
 30
0.0
 11
55.7577635431
 21
187.4514368218
 31
0.0
  0
LINE
  5
2CE
330
1F
100
AcDbEntity
  8
0
  6
Continuous
 62
     7
370
    18
100
AcDbLine
 10
56.0372852664
 20
186.6317615165
 30
0.0
 11
55.7577635431
 21
187.4514368218
 31
0.0
  0
LINE
  5
2CF
330
1F
100
AcDbEntity
  8
0
  6
Continuous
 62
     7
370
    18
100
AcDbLine
 10
56.0372852664
 20
186.6317615165
 30
0.0
 11
56.8869057654
 21
186.4639967771
 31
0.0
  0
LINE
  5
2D0
330
1F
100
AcDbEntity
  8
0
  6
Continuous
 62
     7
370
    18
100
AcDbLine
 10
57.457004541
 20
187.1159073431
 30
0.0
 11
56.8869057654
 21
186.4639967771
 31
0.0
  0
LINE
  5
2D1
330
1F
100
AcDbEntity
  8
0
  6
Continuous
 62
     7
370
    18
100
AcDbLine
 10
57.1774828177
 20
187.9355826484
 30
0.0
 11
57.457004541
 21
187.1159073431
 31
0.0
  0
LINE
  5
2D2
330
1F
100
AcDbEntity
  8
0
  6
Continuous
 62
     7
370
    18
100
AcDbLine
 10
57.1774828177
 20
187.9355826484
 30
0.0
 11
56.3278623187
 21
188.1033473878
 31
0.0
  0
ARC
  5
2D3
330
1F
100
AcDbEntity
  8
0
  6
Continuous
 62
     7
370
    18
100
AcDbCircle
 10
56.6073840421
 20
187.2836720824
 30
0.0
 40
1.499999999974734
100
AcDbArc
 50
48.8301555147
 51
228.8301555147
  0
SPLINE
  5
2D4
330
1F
100
AcDbEntity
  8
0
  6
Continuous
 62
     7
370
    18
100
AcDbSpline
210
0.0
220
0.0
230
1.0
 70
    24
 71
     3
 72
     8
 73
     4
 74
     0
 42
0.00000001
 43
0.00000001
 40
0.0
 40
0.0
 40
0.0
 40
0.0
 40
1.0
 40
1.0
 40
1.0
 40
1.0
 10
59.35738395590716
 20
188.8713853724538
 30
0.0
 10
58.90814394968415
 20
189.1307542109774
 30
0.0
 10
58.45168629572377
 20
189.3942901603651
 30
0.0
 10
57.98238404205583
 20
189.6652419428516
 30
0.0
  0
SPLINE
  5
2D5
330
1F
100
AcDbEntity
  8
0
  6
Continuous
 62
     7
370
    18
100
AcDbSpline
210
0.0
220
0.0
230
1.0
 70
    24
 71
     3
 72
     8
 73
     4
 74
     0
 42
0.00000001
 43
0.00000001
 40
0.0
 40
0.0
 40
0.0
 40
0.0
 40
1.0
 40
1.0
 40
1.0
 40
1.0
 10
59.35738404206209
 20
187.2836720824407
 30
0.0
 10
59.35738404206209
 20
187.8255756907056
 30
0.0
 10
59.35738404206209
 20
188.3526476679325
 30
0.0
 10
59.35738404206209
 20
188.8713853828188
 30
0.0
  0
ARC
  5
2D6
330
1F
100
AcDbEntity
  8
0
  6
Continuous
 62
     7
370
    18
100
AcDbCircle
 10
56.6073840421
 20
187.2836720824
 30
0.0
 40
2.750000000001641
100
AcDbArc
 50
0.0
 51
60.0000000002
  0
SPLINE
  5
2D7
330
1F
100
AcDbEntity
  8
0
  6
Continuous
 62
     7
370
    18
100
AcDbSpline
210
0.0
220
0.0
230
1.0
 70
    24
 71
     3
 72
     8
 73
     4
 74
     0
 42
0.00000001
 43
0.00000001
 40
0.0
 40
0.0
 40
0.0
 40
0.0
 40
1.0
 40
1.0
 40
1.0
 40
1.0
 10
53.85738412821895
 20
185.6959587924266
 30
0.0
 10
54.30662413443934
 20
185.4365899539045
 30
0.0
 10
54.76308178839693
 20
185.1730540045184
 30
0.0
 10
55.23238404206209
 20
184.9021022220335
 30
0.0
  0
SPLINE
  5
2D8
330
1F
100
AcDbEntity
  8
0
  6
Continuous
 62
     7
370
    18
100
AcDbSpline
210
0.0
220
0.0
230
1.0
 70
    24
 71
     3
 72
     8
 73
     4
 74
     0
 42
0.00000001
 43
0.00000001
 40
0.0
 40
0.0
 40
0.0
 40
0.0
 40
1.0
 40
1.0
 40
1.0
 40
1.0
 10
53.85738404206207
 20
187.2836720824407
 30
0.0
 10
53.85738404206207
 20
186.7417684741757
 30
0.0
 10
53.85738404206206
 20
186.214696496947
 30
0.0
 10
53.85738404206206
 20
185.6959587820606
 30
0.0
  0
ARC
  5
2D9
330
1F
100
AcDbEntity
  8
0
  6
Continuous
 62
     7
370
    18
100
AcDbCircle
 10
56.6073840421
 20
187.2836720824
 30
0.0
 40
2.750000000001656
100
AcDbArc
 50
180.0
 51
240.0
  0
ARC
  5
2DA
330
1F
100
AcDbEntity
  8
0
  6
Continuous
 62
     7
370
    18
100
AcDbCircle
 10
56.6073840421
 20
187.2836720824
 30
0.0
 40
2.75000000000165
100
AcDbArc
 50
240.0
 51
300.0
  0
SPLINE
  5
2DB
330
1F
100
AcDbEntity
  8
0
  6
Continuous
 62
     7
370
    18
100
AcDbSpline
210
0.0
220
0.0
230
1.0
 70
     8
 71
     3
 72
     8
 73
     4
 74
     0
 42
0.00000001
 43
0.00000001
 40
0.0
 40
0.0
 40
0.0
 40
0.0
 40
1.0
 40
1.0
 40
1.0
 40
1.0
 10
56.60738397127598
 20
184.1082456043315
 30
0.0
 10
57.0566240125605
 20
184.3676144630979
 30
0.0
 10
57.51308174629786
 20
184.6311504152428
 30
0.0
 10
57.98238404206206
 20
184.9021022220335
 30
0.0
  0
SPLINE
  5
2DC
330
1F
100
AcDbEntity
  8
0
  6
Continuous
 62
     7
370
    18
100
AcDbSpline
210
0.0
220
0.0
230
1.0
 70
    24
 71
     3
 72
     8
 73
     4
 74
     0
 42
0.00000001
 43
0.00000001
 40
0.0
 40
0.0
 40
0.0
 40
0.0
 40
1.0
 40
1.0
 40
1.0
 40
1.0
 10
55.23238404206209
 20
184.9021022220335
 30
0.0
 10
55.70168629574159
 20
184.6311504395404
 30
0.0
 10
56.15814394971242
 20
184.3676144901466
 30
0.0
 10
56.60738395594564
 20
184.1082456516171
 30
0.0
  0
ARC
  5
2DD
330
1F
100
AcDbEntity
  8
0
  6
Continuous
 62
     7
370
    18
100
AcDbCircle
 10
56.6073840421
 20
187.2836720824
 30
0.0
 40
2.75000000000165
100
AcDbArc
 50
300.0
 51
0.0
  0
SPLINE
  5
2DE
330
1F
100
AcDbEntity
  8
0
  6
Continuous
 62
     7
370
    18
100
AcDbSpline
210
0.0
220
0.0
230
1.0
 70
    24
 71
     3
 72
     8
 73
     4
 74
     0
 42
0.00000001
 43
0.00000001
 40
0.0
 40
0.0
 40
0.0
 40
0.0
 40
1.0
 40
1.0
 40
1.0
 40
1.0
 10
59.35738404207108
 20
187.2836720824407
 30
0.0
 10
59.35738404207108
 20
186.7417684726424
 30
0.0
 10
59.35738404206209
 20
186.21469653253
 30
0.0
 10
59.35738404206209
 20
185.6959588154233
 30
0.0
  0
SPLINE
  5
2DF
330
1F
100
AcDbEntity
  8
0
  6
Continuous
 62
     7
370
    18
100
AcDbSpline
210
0.0
220
0.0
230
1.0
 70
    24
 71
     3
 72
     8
 73
     4
 74
     0
 42
0.00000001
 43
0.00000001
 40
0.0
 40
0.0
 40
0.0
 40
0.0
 40
1.0
 40
1.0
 40
1.0
 40
1.0
 10
57.98238404206206
 20
184.9021022220335
 30
0.0
 10
58.45168629968315
 20
185.1730540068023
 30
0.0
 10
58.90814395728889
 20
185.4365899582947
 30
0.0
 10
59.35738396704468
 20
185.6959587988579
 30
0.0
  0
ARC
  5
2E0
330
1F
100
AcDbEntity
  8
0
  6
Continuous
 62
     7
370
    18
100
AcDbCircle
 10
56.6073840421
 20
187.2836720824
 30
0.0
 40
2.750000000001661
100
AcDbArc
 50
120.0
 51
180.0
  0
SPLINE
  5
2E1
330
1F
100
AcDbEntity
  8
0
  6
Continuous
 62
     7
370
    18
100
AcDbSpline
210
0.0
220
0.0
230
1.0
 70
     8
 71
     3
 72
     8
 73
     4
 74
     0
 42
0.00000001
 43
0.00000001
 40
0.0
 40
0.0
 40
0.0
 40
0.0
 40
1.0
 40
1.0
 40
1.0
 40
1.0
 10
53.85738407956876
 20
188.8713853827829
 30
0.0
 10
53.85738407956876
 20
188.3526476652524
 30
0.0
 10
53.85738404206207
 20
187.82557569602
 30
0.0
 10
53.85738404206207
 20
187.2836720824407
 30
0.0
  0
SPLINE
  5
2E2
330
1F
100
AcDbEntity
  8
0
  6
Continuous
 62
     7
370
    18
100
AcDbSpline
210
0.0
220
0.0
230
1.0
 70
    24
 71
     3
 72
     8
 73
     4
 74
     0
 42
0.00000001
 43
0.00000001
 40
0.0
 40
0.0
 40
0.0
 40
0.0
 40
1.0
 40
1.0
 40
1.0
 40
1.0
 10
55.23238404206211
 20
189.665241942848
 30
0.0
 10
54.76308178838456
 20
189.394290160356
 30
0.0
 10
54.30662413441554
 20
189.1307542109633
 30
0.0
 10
53.85738412818407
 20
188.8713853724348
 30
0.0
  0
ARC
  5
2E3
330
1F
100
AcDbEntity
  8
0
  6
Continuous
 62
     7
370
    18
100
AcDbCircle
 10
56.6073840421
 20
187.2836720824
 30
0.0
 40
2.750000000001661
100
AcDbArc
 50
60.0000000002
 51
120.0
  0
SPLINE
  5
2E4
330
1F
100
AcDbEntity
  8
0
  6
Continuous
 62
     7
370
    18
100
AcDbSpline
210
0.0
220
0.0
230
1.0
 70
    24
 71
     3
 72
     8
 73
     4
 74
     0
 42
0.00000001
 43
0.00000001
 40
0.0
 40
0.0
 40
0.0
 40
0.0
 40
1.0
 40
1.0
 40
1.0
 40
1.0
 10
57.98238404205583
 20
189.6652419428516
 30
0.0
 10
57.51308178838156
 20
189.9361937253417
 30
0.0
 10
57.05662413441554
 20
190.1997296747327
 30
0.0
 10
56.60738412818711
 20
190.4590985132594
 30
0.0
  0
SPLINE
  5
2E5
330
1F
100
AcDbEntity
  8
0
  6
Continuous
 62
     7
370
    18
100
AcDbSpline
210
0.0
220
0.0
230
1.0
 70
     8
 71
     3
 72
     8
 73
     4
 74
     0
 42
0.00000001
 43
0.00000001
 40
0.0
 40
0.0
 40
0.0
 40
0.0
 40
1.0
 40
1.0
 40
1.0
 40
1.0
 10
56.60738411284157
 20
190.459098560538
 30
0.0
 10
56.1581440715586
 20
190.1997297017725
 30
0.0
 10
55.70168633782485
 20
189.9361937496379
 30
0.0
 10
55.23238404206211
 20
189.665241942848
 30
0.0
  0
LINE
  5
2E6
330
1F
100
AcDbEntity
  8
0
  6
Continuous
 62
     8
370
    18
100
AcDbLine
 10
56.1073840421
 20
201.5336720824
 30
0.0
 11
56.1073840421
 21
202.2836720824
 31
0.0
  0
LINE
  5
2E7
330
1F
100
AcDbEntity
  8
0
  6
Continuous
 62
     8
370
    18
100
AcDbLine
 10
59.1073840421
 20
199.2836720824
 30
0.0
 11
58.3573840421
 21
199.2836720824
 31
0.0
  0
LINE
  5
2E8
330
1F
100
AcDbEntity
  8
0
  6
Continuous
 62
     8
370
    18
100
AcDbLine
 10
39.8573840421
 20
199.2836720824
 30
0.0
 11
39.1073840421
 21
199.2836720824
 31
0.0
  0
LINE
  5
2E9
330
1F
100
AcDbEntity
  8
0
  6
Continuous
 62
     8
370
    18
100
AcDbLine
 10
42.1073840421
 20
202.2836720824
 30
0.0
 11
42.1073840421
 21
201.5336720824
 31
0.0
  0
DIMENSION
  5
2EA
330
1F
100
AcDbEntity
  8
0
  6
Continuous
 62
     7
370
    18
100
AcDbDimension
  2
_D_11
 10
59.1073840421
 20
158.4890681886
 30
0.0
 11
49.1073840421
 21
158.4890681886
 31
0.0
 70
   160
  1
<>
 71
     2
 42
-1.0
  3
SLDDIMSTYLE2
100
AcDbAlignedDimension
 13
39.1073840421
 23
169.2836720824
 33
0.0
 14
59.1073840421
 24
169.2836720824
 34
0.0
100
AcDbRotatedDimension
  0
DIMENSION
  5
2F4
330
1F
100
AcDbEntity
  8
0
  6
Continuous
 62
     7
370
    18
100
AcDbDimension
  2
_D_12
 10
32.4332905122
 20
169.2836720824
 30
0.0
 11
32.4332905122
 21
187.2836720824
 31
0.0
 70
   160
  1
<>
 71
     2
 42
-1.0
  3
SLDDIMSTYLE2
100
AcDbAlignedDimension
 13
43.1073840421
 23
205.2836720824
 33
0.0
 14
39.1073840421
 24
169.2836720824
 34
0.0
 50
90.0
100
AcDbRotatedDimension
  0
DIMENSION
  5
2FE
330
1F
100
AcDbEntity
  8
0
  6
Continuous
 62
     7
370
    18
100
AcDbDimension
  2
_D_13
 10
69.3574871197
 20
169.2836720824
 30
0.0
 11
69.3574871197
 21
185.7836720824
 31
0.0
 70
   160
  1
<>
 71
     2
 42
-1.0
  3
SLDDIMSTYLE2
100
AcDbAlignedDimension
 13
56.1073840421
 23
202.2836720824
 33
0.0
 14
59.1073840421
 24
169.2836720824
 34
0.0
 50
90.0
100
AcDbRotatedDimension
  0
DIMENSION
  5
308
330
1F
100
AcDbEntity
  8
0
  6
Continuous
 62
     7
370
    18
100
AcDbDimension
  2
_D_14
 10
76.5906293756
 20
169.2836720824
 30
0.0
 11
76.5906293756
 21
189.7836720859
 31
0.0
 70
   160
  1
<>
 71
     2
 42
-1.0
  3
SLDDIMSTYLE2
100
AcDbAlignedDimension
 13
56.2780953003
 23
210.2836720861
 33
0.0
 14
59.1073840421
 24
169.2836720824
 34
0.0
 50
90.0
100
AcDbRotatedDimension
  0
DIMENSION
  5
312
330
1F
100
AcDbEntity
  8
0
  6
Continuous
 62
     7
370
    18
100
AcDbDimension
  2
_D_15
 10
76.5906293782
 20
210.2836720914
 30
0.0
 11
76.5906293769
 21
215.2484698099
 31
0.0
 70
   160
  1
(<>)
 71
     2
 42
-1.0
  3
SLDDIMSTYLE3
100
AcDbAlignedDimension
 13
50.5589969451
 23
220.2132675217
 33
0.0
 14
56.2780953003
 24
210.2836720861
 34
0.0
 50
90.0
100
AcDbRotatedDimension
  0
DIMENSION
  5
320
330
1F
100
AcDbEntity
  8
0
  6
Continuous
 62
     7
370
    18
100
AcDbDimension
  2
_D_16
 10
50.5589969451
 20
227.7597180151
 30
0.0
 11
58.9783139979
 21
227.7597180151
 31
0.0
 70
   160
  1
(<>)
 71
     2
 42
-1.0
  3
SLDDIMSTYLE7
100
AcDbAlignedDimension
 13
47.655771139
 23
220.2132675217
 33
0.0
 14
50.5589969451
 24
220.2132675217
 34
0.0
100
AcDbRotatedDimension
  0
DIMENSION
  5
32F
330
1F
100
AcDbEntity
  8
0
  6
Continuous
 62
     7
370
    18
100
AcDbDimension
  2
_D_17
 10
54.8886904568
 20
236.2132675217
 30
0.0
 11
49.1073840421
 21
236.2132675217
 31
0.0
 70
   160
  1
(<>)
 71
     2
 42
-1.0
  3
SLDDIMSTYLE3
100
AcDbAlignedDimension
 13
43.3260776273
 23
208.8564651151
 33
0.0
 14
54.8886904568
 24
208.8564651151
 34
0.0
100
AcDbRotatedDimension
  0
INSERT
  5
348
330
1F
100
AcDbEntity
  8
0
  6
Continuous
 62
     7
370
    18
100
AcDbBlockReference
  2
SW_CENTERMARKSYMBOL_0
 10
49.1073840421
 20
205.2836720824
 30
0.0
  0
INSERT
  5
354
330
1F
100
AcDbEntity
  8
0
  6
Continuous
 62
     7
370
    18
100
AcDbBlockReference
  2
SW_CENTERMARKSYMBOL_1
 10
42.1073840421
 20
199.2836720824
 30
0.0
  0
INSERT
  5
360
330
1F
100
AcDbEntity
  8
0
  6
Continuous
 62
     7
370
    18
100
AcDbBlockReference
  2
SW_CENTERMARKSYMBOL_2
 10
49.1073840421
 20
198.2836720824
 30
0.0
  0
INSERT
  5
36C
330
1F
100
AcDbEntity
  8
0
  6
Continuous
 62
     7
370
    18
100
AcDbBlockReference
  2
SW_CENTERMARKSYMBOL_3
 10
56.1073840421
 20
199.2836720824
 30
0.0
  0
INSERT
  5
378
330
1F
100
AcDbEntity
  8
0
  6
Continuous
 62
     7
370
    18
100
AcDbBlockReference
  2
SW_CENTERMARKSYMBOL_4
 10
49.1073840421
 20
187.2836720824
 30
0.0
  0
INSERT
  5
384
330
1F
100
AcDbEntity
  8
0
  6
Continuous
 62
     7
370
    18
100
AcDbBlockReference
  2
SW_CENTERMARKSYMBOL_5
 10
56.6073840421
 20
187.2836720824
 30
0.0
  0
LINE
  5
385
330
1F
100
AcDbEntity
  8
0
  6
Continuous
 62
     7
370
    18
100
AcDbLine
 10
116.123995213
 20
104.2566011991
 30
0.0
 11
115.7600249787
 21
105.256601199
 31
0.0
  0
LINE
  5
386
330
1F
100
AcDbEntity
  8
0
  6
Continuous
 62
     7
370
    18
100
AcDbLine
 10
115.7600249787
 20
105.2566011991
 30
0.0
 11
106.8056130724
 21
105.2566011991
 31
0.0
  0
ARC
  5
387
330
1F
100
AcDbEntity
  8
0
  6
Continuous
 62
     7
370
    18
100
AcDbCircle
 10
105.2056130724
 20
104.7066011991
 30
0.0
 40
0.5
100
AcDbArc
 50
90.0
 51
180.0
  0
LINE
  5
388
330
1F
100
AcDbEntity
  8
0
  6
Continuous
 62
     7
370
    18
100
AcDbLine
 10
106.2056130724
 20
105.2066011991
 30
0.0
 11
105.2056130724
 21
105.2066011991
 31
0.0
  0
LINE
  5
389
330
1F
100
AcDbEntity
  8
0
  6
Continuous
 62
     7
370
    18
100
AcDbLine
 10
106.8056130724
 20
97.2566011991
 30
0.0
 11
115.7600249787
 21
97.2566011991
 31
0.0
  0
LINE
  5
38A
330
1F
100
AcDbEntity
  8
0
  6
Continuous
 62
     7
370
    18
100
AcDbLine
 10
115.7600249787
 20
97.2566011992
 30
0.0
 11
116.123995213
 21
98.2566011991
 31
0.0
  0
ARC
  5
38B
330
1F
100
AcDbEntity
  8
0
  6
Continuous
 62
     7
370
    18
100
AcDbCircle
 10
105.2056130724
 20
97.8066011991
 30
0.0
 40
0.5000000000000142
100
AcDbArc
 50
180.0
 51
270.0
  0
LINE
  5
38C
330
1F
100
AcDbEntity
  8
0
  6
Continuous
 62
     7
370
    18
100
AcDbLine
 10
105.2056130724
 20
97.3066011991
 30
0.0
 11
106.2056130724
 21
97.3066011991
 31
0.0
  0
LINE
  5
38D
330
1F
100
AcDbEntity
  8
0
  6
Continuous
 62
     7
370
    18
100
AcDbLine
 10
118.3056130724
 20
104.2566011991
 30
0.0
 11
116.123995213
 21
104.2566011991
 31
0.0
  0
LINE
  5
38E
330
1F
100
AcDbEntity
  8
0
  6
Continuous
 62
     7
370
    18
100
AcDbLine
 10
116.123995213
 20
98.2566011991
 30
0.0
 11
118.3056130724
 21
98.2566011991
 31
0.0
  0
LINE
  5
38F
330
1F
100
AcDbEntity
  8
0
  6
Continuous
 62
     7
370
    18
100
AcDbLine
 10
118.8056130724
 20
104.0066011991
 30
0.0
 11
118.3056130724
 21
104.0066011991
 31
0.0
  0
LINE
  5
390
330
1F
100
AcDbEntity
  8
0
  6
Continuous
 62
     7
370
    18
100
AcDbLine
 10
118.3056130724
 20
98.5066011991
 30
0.0
 11
118.8056130724
 21
98.5066011991
 31
0.0
  0
LINE
  5
391
330
1F
100
AcDbEntity
  8
0
  6
Continuous
 62
     7
370
    18
100
AcDbLine
 10
119.3056130724
 20
103.7566011991
 30
0.0
 11
118.8056130724
 21
103.7566011991
 31
0.0
  0
LINE
  5
392
330
1F
100
AcDbEntity
  8
0
  6
Continuous
 62
     7
370
    18
100
AcDbLine
 10
118.8056130724
 20
98.7566011991
 30
0.0
 11
119.3056130724
 21
98.7566011991
 31
0.0
  0
LINE
  5
393
330
1F
100
AcDbEntity
  8
0
  6
Continuous
 62
     7
370
    18
100
AcDbLine
 10
106.8056130724
 20
103.4566011991
 30
0.0
 11
106.2056130724
 21
103.4566011991
 31
0.0
  0
LINE
  5
394
330
1F
100
AcDbEntity
  8
0
  6
Continuous
 62
     7
370
    18
100
AcDbLine
 10
106.2056130724
 20
99.0566011991
 30
0.0
 11
106.8056130724
 21
99.0566011991
 31
0.0
  0
ARC
  5
395
330
1F
100
AcDbEntity
  8
0
  6
Continuous
 62
     7
370
    18
100
AcDbCircle
 10
118.5056130724
 20
97.8066011991
 30
0.0
 40
0.5000000000000142
100
AcDbArc
 50
180.0
 51
270.0
  0
LINE
  5
396
330
1F
100
AcDbEntity
  8
0
  6
Continuous
 62
     7
370
    18
100
AcDbLine
 10
118.5056130724
 20
97.3066011991
 30
0.0
 11
119.5056130724
 21
97.3066011991
 31
0.0
  0
ARC
  5
397
330
1F
100
AcDbEntity
  8
0
  6
Continuous
 62
     7
370
    18
100
AcDbCircle
 10
118.5056130724
 20
104.7066011991
 30
0.0
 40
0.5
100
AcDbArc
 50
90.0
 51
180.0
  0
LINE
  5
398
330
1F
100
AcDbEntity
  8
0
  6
Continuous
 62
     7
370
    18
100
AcDbLine
 10
119.5056130724
 20
105.2066011991
 30
0.0
 11
118.5056130724
 21
105.2066011991
 31
0.0
  0
ARC
  5
399
330
1F
100
AcDbEntity
  8
0
  6
Continuous
 62
     7
370
    18
100
AcDbCircle
 10
177.8806130724
 20
106.1316011991
 30
0.0
 40
0.1250000000000284
100
AcDbArc
 50
270.0
 51
0.0
  0
LINE
  5
39A
330
1F
100
AcDbEntity
  8
0
  6
Continuous
 62
     7
370
    18
100
AcDbLine
 10
175.5056130724
 20
106.0066011991
 30
0.0
 11
177.8806130724
 21
106.0066011991
 31
0.0
  0
ARC
  5
39B
330
1F
100
AcDbEntity
  8
0
  6
Continuous
 62
     7
370
    18
100
AcDbCircle
 10
177.8806130724
 20
110.3816011991
 30
0.0
 40
0.1250000000000284
100
AcDbArc
 50
0.0
 51
90.0
  0
LINE
  5
39C
330
1F
100
AcDbEntity
  8
0
  6
Continuous
 62
     7
370
    18
100
AcDbLine
 10
177.8806130724
 20
110.5066011991
 30
0.0
 11
175.5056130724
 21
110.5066011991
 31
0.0
  0
ARC
  5
39D
330
1F
100
AcDbEntity
  8
0
  6
Continuous
 62
     7
370
    18
100
AcDbCircle
 10
177.8806130724
 20
92.1316011991
 30
0.0
 40
0.1250000000000284
100
AcDbArc
 50
270.0
 51
0.0
  0
LINE
  5
39E
330
1F
100
AcDbEntity
  8
0
  6
Continuous
 62
     7
370
    18
100
AcDbLine
 10
175.5056130724
 20
92.0066011991
 30
0.0
 11
177.8806130724
 21
92.0066011991
 31
0.0
  0
ARC
  5
39F
330
1F
100
AcDbEntity
  8
0
  6
Continuous
 62
     7
370
    18
100
AcDbCircle
 10
177.8806130724
 20
96.3816011991
 30
0.0
 40
0.1250000000000284
100
AcDbArc
 50
0.0
 51
90.0
  0
LINE
  5
3A0
330
1F
100
AcDbEntity
  8
0
  6
Continuous
 62
     7
370
    18
100
AcDbLine
 10
177.8806130724
 20
96.5066011991
 30
0.0
 11
175.5056130724
 21
96.5066011991
 31
0.0
  0
LINE
  5
3A1
330
1F
100
AcDbEntity
  8
0
  6
Continuous
 62
     7
370
    18
100
AcDbLine
 10
117.4056130725
 20
110.2566011991
 30
0.0
 11
113.9675598229
 21
110.2566011991
 31
0.0
  0
LINE
  5
3A2
330
1F
100
AcDbEntity
  8
0
  6
Continuous
 62
     7
370
    18
100
AcDbLine
 10
113.9675598229
 20
110.2566011991
 30
0.0
 11
113.8056130723
 21
109.976101199
 31
0.0
  0
LINE
  5
3A3
330
1F
100
AcDbEntity
  8
0
  6
Continuous
 62
     7
370
    18
100
AcDbLine
 10
113.9675598229
 20
107.2566011991
 30
0.0
 11
117.4056130725
 21
107.2566011991
 31
0.0
  0
LINE
  5
3A4
330
1F
100
AcDbEntity
  8
0
  6
Continuous
 62
     7
370
    18
100
AcDbLine
 10
113.8056130724
 20
107.5371011991
 30
0.0
 11
113.9675598229
 21
107.2566011991
 31
0.0
  0
LINE
  5
3A5
330
1F
100
AcDbEntity
  8
0
  6
Continuous
 62
     7
370
    18
100
AcDbLine
 10
119.3056130724
 20
97.7566011991
 30
0.0
 11
119.8056130724
 21
97.7566011991
 31
0.0
  0
LINE
  5
3A6
330
1F
100
AcDbEntity
  8
0
  6
Continuous
 62
     7
370
    18
100
AcDbLine
 10
119.8056130724
 20
104.7566011991
 30
0.0
 11
119.3056130724
 21
104.7566011991
 31
0.0
  0
ARC
  5
3A7
330
1F
100
AcDbEntity
  8
0
  6
Continuous
 62
     7
370
    18
100
AcDbCircle
 10
151.8056130724
 20
101.2566011991
 30
0.0
 40
3.349999999983311
100
AcDbArc
 50
270.0
 51
90.0
  0
ARC
  5
3A8
330
1F
100
AcDbEntity
  8
0
  6
Continuous
 62
     7
370
    18
100
AcDbCircle
 10
151.8056130724
 20
101.2566011991
 30
0.0
 40
3.349999999983311
100
AcDbArc
 50
90.0
 51
270.0
  0
ARC
  5
3A9
330
1F
100
AcDbEntity
  8
0
  6
Continuous
 62
     7
370
    18
100
AcDbCircle
 10
165.8056130724
 20
101.2566011991
 30
0.0
 40
3.349999999983311
100
AcDbArc
 50
270.0
 51
90.0
  0
ARC
  5
3AA
330
1F
100
AcDbEntity
  8
0
  6
Continuous
 62
     7
370
    18
100
AcDbCircle
 10
165.8056130724
 20
101.2566011991
 30
0.0
 40
3.349999999983311
100
AcDbArc
 50
90.0
 51
270.0
  0
ARC
  5
3AB
330
1F
100
AcDbEntity
  8
0
  6
Continuous
 62
     7
370
    18
100
AcDbCircle
 10
138.8056130724
 20
101.2566011991
 30
0.0
 40
1.650000000000006
100
AcDbArc
 50
270.0
 51
90.0
  0
ARC
  5
3AC
330
1F
100
AcDbEntity
  8
0
  6
Continuous
 62
     7
370
    18
100
AcDbCircle
 10
138.8056130724
 20
101.2566011991
 30
0.0
 40
1.650000000000006
100
AcDbArc
 50
90.0
 51
270.0
  0
ARC
  5
3AD
330
1F
100
AcDbEntity
  8
0
  6
Continuous
 62
     7
370
    18
100
AcDbCircle
 10
158.8056130724
 20
101.2566011991
 30
0.0
 40
1.650000000000006
100
AcDbArc
 50
270.0
 51
90.0
  0
ARC
  5
3AE
330
1F
100
AcDbEntity
  8
0
  6
Continuous
 62
     7
370
    18
100
AcDbCircle
 10
158.8056130724
 20
101.2566011991
 30
0.0
 40
1.650000000000006
100
AcDbArc
 50
90.0
 51
270.0
  0
LINE
  5
3AF
330
1F
100
AcDbEntity
  8
0
  6
Continuous
 62
     7
370
    18
100
AcDbLine
 10
170.3056130724
 20
91.2566011991
 30
0.0
 11
119.8056130724
 21
91.2566011991
 31
0.0
  0
LINE
  5
3B0
330
1F
100
AcDbEntity
  8
0
  6
Continuous
 62
     7
370
    18
100
AcDbLine
 10
119.8056130724
 20
91.2566011991
 30
0.0
 11
119.8056130724
 21
111.2566011991
 31
0.0
  0
LINE
  5
3B1
330
1F
100
AcDbEntity
  8
0
  6
Continuous
 62
     7
370
    18
100
AcDbLine
 10
119.8056130724
 20
111.2566011991
 30
0.0
 11
170.3056130724
 21
111.2566011991
 31
0.0
  0
LINE
  5
3B2
330
1F
100
AcDbEntity
  8
0
  6
Continuous
 62
     7
370
    18
100
AcDbLine
 10
170.3056130724
 20
111.2566011991
 30
0.0
 11
172.3056130724
 21
109.2566011991
 31
0.0
  0
LINE
  5
3B3
330
1F
100
AcDbEntity
  8
0
  6
Continuous
 62
     7
370
    18
100
AcDbLine
 10
172.3056130724
 20
109.2566011991
 30
0.0
 11
172.3056130724
 21
93.2566011991
 31
0.0
  0
LINE
  5
3B4
330
1F
100
AcDbEntity
  8
0
  6
Continuous
 62
     7
370
    18
100
AcDbLine
 10
172.3056130724
 20
93.2566011991
 30
0.0
 11
170.3056130724
 21
91.2566011991
 31
0.0
  0
LINE
  5
3B5
330
1F
100
AcDbEntity
  8
0
  6
Continuous
 62
     7
370
    18
100
AcDbLine
 10
151.8056130724
 20
104.256601199
 30
0.0
 11
151.8056130724
 21
104.6066011991
 31
0.0
  0
LINE
  5
3B6
330
1F
100
AcDbEntity
  8
0
  6
Continuous
 62
     7
370
    18
100
AcDbLine
 10
151.8056130724
 20
97.9066011991
 30
0.0
 11
151.8056130724
 21
98.256601199
 31
0.0
  0
LINE
  5
3B7
330
1F
100
AcDbEntity
  8
0
  6
Continuous
 62
     7
370
    18
100
AcDbLine
 10
165.8056130724
 20
104.256601199
 30
0.0
 11
165.8056130724
 21
104.6066011991
 31
0.0
  0
LINE
  5
3B8
330
1F
100
AcDbEntity
  8
0
  6
Continuous
 62
     7
370
    18
100
AcDbLine
 10
165.8056130724
 20
97.9066011991
 30
0.0
 11
165.8056130724
 21
98.256601199
 31
0.0
  0
LINE
  5
3B9
330
1F
100
AcDbEntity
  8
0
  6
Continuous
 62
     7
370
    18
100
AcDbLine
 10
164.650912534
 20
101.2566011991
 30
0.0
 11
165.2282628032
 21
102.2566011991
 31
0.0
  0
LINE
  5
3BA
330
1F
100
AcDbEntity
  8
0
  6
Continuous
 62
     7
370
    18
100
AcDbLine
 10
165.2282628032
 20
100.2566011991
 30
0.0
 11
164.650912534
 21
101.2566011991
 31
0.0
  0
LINE
  5
3BB
330
1F
100
AcDbEntity
  8
0
  6
Continuous
 62
     7
370
    18
100
AcDbLine
 10
166.3829633416
 20
100.2566011991
 30
0.0
 11
165.2282628032
 21
100.2566011991
 31
0.0
  0
LINE
  5
3BC
330
1F
100
AcDbEntity
  8
0
  6
Continuous
 62
     7
370
    18
100
AcDbLine
 10
166.9603136108
 20
101.2566011991
 30
0.0
 11
166.3829633416
 21
100.2566011991
 31
0.0
  0
LINE
  5
3BD
330
1F
100
AcDbEntity
  8
0
  6
Continuous
 62
     7
370
    18
100
AcDbLine
 10
166.3829633416
 20
102.2566011991
 30
0.0
 11
166.9603136108
 21
101.2566011991
 31
0.0
  0
LINE
  5
3BE
330
1F
100
AcDbEntity
  8
0
  6
Continuous
 62
     7
370
    18
100
AcDbLine
 10
165.2282628032
 20
102.2566011991
 30
0.0
 11
166.3829633416
 21
102.2566011991
 31
0.0
  0
ARC
  5
3BF
330
1F
100
AcDbEntity
  8
0
  6
Continuous
 62
     7
370
    18
100
AcDbCircle
 10
165.8056130724
 20
101.2566011991
 30
0.0
 40
3.0
100
AcDbArc
 50
0.0
 51
180.0
  0
ARC
  5
3C0
330
1F
100
AcDbEntity
  8
0
  6
Continuous
 62
     7
370
    18
100
AcDbCircle
 10
165.8056130724
 20
101.2566011991
 30
0.0
 40
3.0
100
AcDbArc
 50
180.0
 51
0.0
  0
LINE
  5
3C1
330
1F
100
AcDbEntity
  8
0
  6
Continuous
 62
     7
370
    18
100
AcDbLine
 10
150.650912534
 20
101.2566011991
 30
0.0
 11
151.2282628032
 21
102.2566011991
 31
0.0
  0
LINE
  5
3C2
330
1F
100
AcDbEntity
  8
0
  6
Continuous
 62
     7
370
    18
100
AcDbLine
 10
151.2282628032
 20
100.2566011991
 30
0.0
 11
150.650912534
 21
101.2566011991
 31
0.0
  0
LINE
  5
3C3
330
1F
100
AcDbEntity
  8
0
  6
Continuous
 62
     7
370
    18
100
AcDbLine
 10
152.3829633416
 20
100.2566011991
 30
0.0
 11
151.2282628032
 21
100.2566011991
 31
0.0
  0
LINE
  5
3C4
330
1F
100
AcDbEntity
  8
0
  6
Continuous
 62
     7
370
    18
100
AcDbLine
 10
152.9603136108
 20
101.2566011991
 30
0.0
 11
152.3829633416
 21
100.2566011991
 31
0.0
  0
LINE
  5
3C5
330
1F
100
AcDbEntity
  8
0
  6
Continuous
 62
     7
370
    18
100
AcDbLine
 10
152.3829633416
 20
102.2566011991
 30
0.0
 11
152.9603136108
 21
101.2566011991
 31
0.0
  0
LINE
  5
3C6
330
1F
100
AcDbEntity
  8
0
  6
Continuous
 62
     7
370
    18
100
AcDbLine
 10
151.2282628032
 20
102.2566011991
 30
0.0
 11
152.3829633416
 21
102.2566011991
 31
0.0
  0
ARC
  5
3C7
330
1F
100
AcDbEntity
  8
0
  6
Continuous
 62
     7
370
    18
100
AcDbCircle
 10
151.8056130724
 20
101.2566011991
 30
0.0
 40
3.0
100
AcDbArc
 50
0.0
 51
180.0
  0
ARC
  5
3C8
330
1F
100
AcDbEntity
  8
0
  6
Continuous
 62
     7
370
    18
100
AcDbCircle
 10
151.8056130724
 20
101.2566011991
 30
0.0
 40
3.0
100
AcDbArc
 50
180.0
 51
0.0
  0
SPLINE
  5
3C9
330
1F
100
AcDbEntity
  8
0
  6
Continuous
 62
     7
370
    18
100
AcDbSpline
210
0.0
220
0.0
230
1.0
 70
    24
 71
     3
 72
     8
 73
     4
 74
     0
 42
0.00000001
 43
0.00000001
 40
0.0
 40
0.0
 40
0.0
 40
0.0
 40
1.0
 40
1.0
 40
1.0
 40
1.0
 10
166.3829633416139
 20
100.2566011990958
 30
0.0
 10
166.3637183326409
 20
100.2899345324292
 30
0.0
 10
166.171268242911
 20
100.6232678657625
 30
0.0
 10
165.8056130724243
 20
101.2566011990958
 30
0.0
  0
SPLINE
  5
3CA
330
1F
100
AcDbEntity
  8
0
  6
Continuous
 62
     7
370
    18
100
AcDbSpline
210
0.0
220
0.0
230
1.0
 70
    24
 71
     3
 72
     8
 73
     4
 74
     0
 42
0.00000001
 43
0.00000001
 40
0.0
 40
0.0
 40
0.0
 40
0.0
 40
1.0
 40
1.0
 40
1.0
 40
1.0
 10
166.9603136108035
 20
101.2566011990958
 30
0.0
 10
166.9218235928575
 20
101.2566011990958
 30
0.0
 10
166.5369234133978
 20
101.2566011990958
 30
0.0
 10
165.8056130724243
 20
101.2566011990958
 30
0.0
  0
SPLINE
  5
3CB
330
1F
100
AcDbEntity
  8
0
  6
Continuous
 62
     7
370
    18
100
AcDbSpline
210
0.0
220
0.0
230
1.0
 70
    24
 71
     3
 72
     8
 73
     4
 74
     0
 42
0.00000001
 43
0.00000001
 40
0.0
 40
0.0
 40
0.0
 40
0.0
 40
1.0
 40
1.0
 40
1.0
 40
1.0
 10
166.3829633416139
 20
102.2566011990958
 30
0.0
 10
166.3637183326409
 20
102.2232678657625
 30
0.0
 10
166.171268242911
 20
101.8899345324292
 30
0.0
 10
165.8056130724243
 20
101.2566011990958
 30
0.0
  0
SPLINE
  5
3CC
330
1F
100
AcDbEntity
  8
0
  6
Continuous
 62
     7
370
    18
100
AcDbSpline
210
0.0
220
0.0
230
1.0
 70
    24
 71
     3
 72
     8
 73
     4
 74
     0
 42
0.00000001
 43
0.00000001
 40
0.0
 40
0.0
 40
0.0
 40
0.0
 40
1.0
 40
1.0
 40
1.0
 40
1.0
 10
165.2282628032346
 20
100.2566011990958
 30
0.0
 10
165.2475078122076
 20
100.2899345324292
 30
0.0
 10
165.4399579019375
 20
100.6232678657625
 30
0.0
 10
165.8056130724243
 20
101.2566011990958
 30
0.0
  0
SPLINE
  5
3CD
330
1F
100
AcDbEntity
  8
0
  6
Continuous
 62
     7
370
    18
100
AcDbSpline
210
0.0
220
0.0
230
1.0
 70
    24
 71
     3
 72
     8
 73
     4
 74
     0
 42
0.00000001
 43
0.00000001
 40
0.0
 40
0.0
 40
0.0
 40
0.0
 40
1.0
 40
1.0
 40
1.0
 40
1.0
 10
165.2282628032346
 20
102.2566011990958
 30
0.0
 10
165.2475078122076
 20
102.2232678657625
 30
0.0
 10
165.4399579019375
 20
101.8899345324292
 30
0.0
 10
165.8056130724243
 20
101.2566011990958
 30
0.0
  0
SPLINE
  5
3CE
330
1F
100
AcDbEntity
  8
0
  6
Continuous
 62
     7
370
    18
100
AcDbSpline
210
0.0
220
0.0
230
1.0
 70
    24
 71
     3
 72
     8
 73
     4
 74
     0
 42
0.00000001
 43
0.00000001
 40
0.0
 40
0.0
 40
0.0
 40
0.0
 40
1.0
 40
1.0
 40
1.0
 40
1.0
 10
164.650912534045
 20
101.2566011990958
 30
0.0
 10
164.689402551991
 20
101.2566011990958
 30
0.0
 10
165.0743027314507
 20
101.2566011990958
 30
0.0
 10
165.8056130724243
 20
101.2566011990958
 30
0.0
  0
SPLINE
  5
3CF
330
1F
100
AcDbEntity
  8
0
  6
Continuous
 62
     7
370
    18
100
AcDbSpline
210
0.0
220
0.0
230
1.0
 70
    24
 71
     3
 72
     8
 73
     4
 74
     0
 42
0.00000001
 43
0.00000001
 40
0.0
 40
0.0
 40
0.0
 40
0.0
 40
1.0
 40
1.0
 40
1.0
 40
1.0
 10
152.3829633416139
 20
100.2566011990959
 30
0.0
 10
152.3637183326409
 20
100.2899345324292
 30
0.0
 10
152.171268242911
 20
100.6232678657625
 30
0.0
 10
151.8056130724243
 20
101.2566011990959
 30
0.0
  0
SPLINE
  5
3D0
330
1F
100
AcDbEntity
  8
0
  6
Continuous
 62
     7
370
    18
100
AcDbSpline
210
0.0
220
0.0
230
1.0
 70
    24
 71
     3
 72
     8
 73
     4
 74
     0
 42
0.00000001
 43
0.00000001
 40
0.0
 40
0.0
 40
0.0
 40
0.0
 40
1.0
 40
1.0
 40
1.0
 40
1.0
 10
152.9603136108035
 20
101.2566011990959
 30
0.0
 10
152.9218235928575
 20
101.2566011990959
 30
0.0
 10
152.5369234133978
 20
101.2566011990959
 30
0.0
 10
151.8056130724243
 20
101.2566011990959
 30
0.0
  0
SPLINE
  5
3D1
330
1F
100
AcDbEntity
  8
0
  6
Continuous
 62
     7
370
    18
100
AcDbSpline
210
0.0
220
0.0
230
1.0
 70
    24
 71
     3
 72
     8
 73
     4
 74
     0
 42
0.00000001
 43
0.00000001
 40
0.0
 40
0.0
 40
0.0
 40
0.0
 40
1.0
 40
1.0
 40
1.0
 40
1.0
 10
152.3829633416139
 20
102.2566011990959
 30
0.0
 10
152.3637183326409
 20
102.2232678657625
 30
0.0
 10
152.171268242911
 20
101.8899345324292
 30
0.0
 10
151.8056130724243
 20
101.2566011990959
 30
0.0
  0
SPLINE
  5
3D2
330
1F
100
AcDbEntity
  8
0
  6
Continuous
 62
     7
370
    18
100
AcDbSpline
210
0.0
220
0.0
230
1.0
 70
    24
 71
     3
 72
     8
 73
     4
 74
     0
 42
0.00000001
 43
0.00000001
 40
0.0
 40
0.0
 40
0.0
 40
0.0
 40
1.0
 40
1.0
 40
1.0
 40
1.0
 10
151.2282628032346
 20
100.2566011990959
 30
0.0
 10
151.2475078122076
 20
100.2899345324292
 30
0.0
 10
151.4399579019375
 20
100.6232678657625
 30
0.0
 10
151.8056130724243
 20
101.2566011990959
 30
0.0
  0
SPLINE
  5
3D3
330
1F
100
AcDbEntity
  8
0
  6
Continuous
 62
     7
370
    18
100
AcDbSpline
210
0.0
220
0.0
230
1.0
 70
    24
 71
     3
 72
     8
 73
     4
 74
     0
 42
0.00000001
 43
0.00000001
 40
0.0
 40
0.0
 40
0.0
 40
0.0
 40
1.0
 40
1.0
 40
1.0
 40
1.0
 10
151.2282628032346
 20
102.2566011990959
 30
0.0
 10
151.2475078122076
 20
102.2232678657625
 30
0.0
 10
151.4399579019375
 20
101.8899345324292
 30
0.0
 10
151.8056130724243
 20
101.2566011990959
 30
0.0
  0
SPLINE
  5
3D4
330
1F
100
AcDbEntity
  8
0
  6
Continuous
 62
     7
370
    18
100
AcDbSpline
210
0.0
220
0.0
230
1.0
 70
    24
 71
     3
 72
     8
 73
     4
 74
     0
 42
0.00000001
 43
0.00000001
 40
0.0
 40
0.0
 40
0.0
 40
0.0
 40
1.0
 40
1.0
 40
1.0
 40
1.0
 10
150.650912534045
 20
101.2566011990959
 30
0.0
 10
150.689402551991
 20
101.2566011990959
 30
0.0
 10
151.0743027314507
 20
101.2566011990959
 30
0.0
 10
151.8056130724243
 20
101.2566011990959
 30
0.0
  0
LINE
  5
3D5
330
1F
100
AcDbEntity
  8
0
  6
Continuous
 62
     7
370
    18
100
AcDbLine
 10
174.3056130724
 20
91.2566011991
 30
0.0
 11
174.3056130724
 21
92.2566011991
 31
0.0
  0
LINE
  5
3D6
330
1F
100
AcDbEntity
  8
0
  6
Continuous
 62
     7
370
    18
100
AcDbLine
 10
170.3056130724
 20
91.2566011991
 30
0.0
 11
174.3056130724
 21
91.2566011991
 31
0.0
  0
LINE
  5
3D7
330
1F
100
AcDbEntity
  8
0
  6
Continuous
 62
     7
370
    18
100
AcDbLine
 10
174.3056130724
 20
110.2566011991
 30
0.0
 11
174.3056130724
 21
92.2566011991
 31
0.0
  0
LINE
  5
3D8
330
1F
100
AcDbEntity
  8
0
  6
Continuous
 62
     7
370
    18
100
AcDbLine
 10
174.3056130724
 20
111.2566011991
 30
0.0
 11
170.3056130724
 21
111.2566011991
 31
0.0
  0
LINE
  5
3D9
330
1F
100
AcDbEntity
  8
0
  6
Continuous
 62
     7
370
    18
100
AcDbLine
 10
174.3056130724
 20
110.2566011991
 30
0.0
 11
174.3056130724
 21
111.2566011991
 31
0.0
  0
LINE
  5
3DA
330
1F
100
AcDbEntity
  8
0
  6
Continuous
 62
     7
370
    18
100
AcDbLine
 10
116.123995213
 20
104.2566011991
 30
0.0
 11
116.123995213
 21
100.4809351992
 31
0.0
  0
LINE
  5
3DB
330
1F
100
AcDbEntity
  8
0
  6
Continuous
 62
     7
370
    18
100
AcDbLine
 10
115.7600249787
 20
100.2223798659
 30
0.0
 11
116.123995213
 21
100.4809351992
 31
0.0
  0
LINE
  5
3DC
330
1F
100
AcDbEntity
  8
0
  6
Continuous
 62
     7
370
    18
100
AcDbLine
 10
115.7600249787
 20
105.256601199
 30
0.0
 11
115.7600249787
 21
100.2223798659
 31
0.0
  0
LINE
  5
3DD
330
1F
100
AcDbEntity
  8
0
  6
Continuous
 62
     7
370
    18
100
AcDbLine
 10
106.8056130724
 20
100.2223798659
 30
0.0
 11
115.7600249787
 21
100.2223798659
 31
0.0
  0
LINE
  5
3DE
330
1F
100
AcDbEntity
  8
0
  6
Continuous
 62
     7
370
    18
100
AcDbLine
 10
106.8056130724
 20
105.2566011991
 30
0.0
 11
106.8056130724
 21
100.2223798659
 31
0.0
  0
ARC
  5
3DF
330
1F
100
AcDbEntity
  8
0
  6
Continuous
 62
     7
370
    18
100
AcDbCircle
 10
105.08896943
 20
100.8157213906
 30
0.0
 40
0.5920184707976005
100
AcDbArc
 50
229.6435247753
 51
281.363161575
  0
SPLINE
  5
3E0
330
1F
100
AcDbEntity
  8
0
  6
Continuous
 62
     7
370
    18
100
AcDbSpline
210
0.0
220
0.0
230
1.0
 70
    24
 71
     3
 72
    18
 73
    14
 74
     0
 42
0.00000001
 43
0.00000001
 40
0.0
 40
0.0
 40
0.0
 40
0.0
 40
0.039893453440227
 40
0.1427119854162993
 40
0.245614512046557
 40
0.3484330213750811
 40
0.4045454591795584
 40
0.4600466033927792
 40
0.5714293720706208
 40
0.6828969660452939
 40
0.7942796965232956
 40
0.8971605777154206
 40
1.0
 40
1.0
 40
1.0
 40
1.0
 10
104.7056130724244
 20
104.6923915461809
 30
0.0
 10
104.7056130724243
 20
104.696200364412
 30
0.0
 10
104.7056130724244
 20
104.709825758179
 30
0.0
 10
104.7056130724243
 20
104.6036261299431
 30
0.0
 10
104.7056130724244
 20
104.3839190446162
 30
0.0
 10
104.7056130724244
 20
104.093978420771
 30
0.0
 10
104.7056130724244
 20
103.8071738356208
 30
0.0
 10
104.7056130724243
 20
103.4731035839144
 30
0.0
 10
104.7056130724244
 20
102.9939253144469
 30
0.0
 10
104.7056130724243
 20
102.3485761366586
 30
0.0
 10
104.7056130724243
 20
101.6745849997314
 30
0.0
 10
104.7056130724244
 20
101.001834694937
 30
0.0
 10
104.7056130724243
 20
100.5769732236227
 30
0.0
 10
104.7056130724243
 20
100.3645852992296
 30
0.0
  0
LINE
  5
3E1
330
1F
100
AcDbEntity
  8
0
  6
Continuous
 62
     7
370
    18
100
AcDbLine
 10
106.2056130724
 20
105.2066011991
 30
0.0
 11
106.2056130724
 21
100.2353076326
 31
0.0
  0
LINE
  5
3E2
330
1F
100
AcDbEntity
  8
0
  6
Continuous
 62
     7
370
    18
100
AcDbLine
 10
105.2056130724
 20
100.2353076326
 30
0.0
 11
106.2056130724
 21
100.2353076326
 31
0.0
  0
LINE
  5
3E3
330
1F
100
AcDbEntity
  8
0
  6
Continuous
 62
     7
370
    18
100
AcDbLine
 10
115.7600249787
 20
100.2223798659
 30
0.0
 11
115.7600249787
 21
97.2566011992
 31
0.0
  0
LINE
  5
3E4
330
1F
100
AcDbEntity
  8
0
  6
Continuous
 62
     7
370
    18
100
AcDbLine
 10
106.8056130724
 20
100.2223798659
 30
0.0
 11
106.8056130724
 21
97.2566011991
 31
0.0
  0
LINE
  5
3E5
330
1F
100
AcDbEntity
  8
0
  6
Continuous
 62
     7
370
    18
100
AcDbLine
 10
116.123995213
 20
100.4809351992
 30
0.0
 11
116.123995213
 21
98.2566011991
 31
0.0
  0
SPLINE
  5
3E6
330
1F
100
AcDbEntity
  8
0
  6
Continuous
 62
     7
370
    18
100
AcDbSpline
210
0.0
220
0.0
230
1.0
 70
    24
 71
     3
 72
    15
 73
    11
 74
     0
 42
0.00000001
 43
0.00000001
 40
0.0
 40
0.0
 40
0.0
 40
0.0
 40
0.1439754391386609
 40
0.2878929001946715
 40
0.3664182269471992
 40
0.4440880922214746
 40
0.5999602775561705
 40
0.755951169801314
 40
0.9118233016782867
 40
1.0
 40
1.0
 40
1.0
 40
1.0
 10
104.7056130724244
 20
100.3645852992296
 30
0.0
 10
104.7056130724243
 20
100.158076048141
 30
0.0
 10
104.7056130724244
 20
99.74514070605343
 30
0.0
 10
104.7056130724244
 20
99.2731376956947
 30
0.0
 10
104.7056130724244
 20
98.92383127524027
 30
0.0
 10
104.7056130724244
 20
98.59334949969573
 30
0.0
 10
104.7056130724244
 20
98.24791836209826
 30
0.0
 10
104.7056130724243
 20
97.96078557610016
 30
0.0
 10
104.7056130724244
 20
97.81694818205916
 30
0.0
 10
104.7056130724244
 20
97.8197856523985
 30
0.0
 10
104.7056130724244
 20
97.82081085201081
 30
0.0
  0
LINE
  5
3E7
330
1F
100
AcDbEntity
  8
0
  6
Continuous
 62
     7
370
    18
100
AcDbLine
 10
106.2056130724
 20
100.2353076326
 30
0.0
 11
106.2056130724
 21
97.3066011991
 31
0.0
  0
LINE
  5
3E8
330
1F
100
AcDbEntity
  8
0
  6
Continuous
 62
     7
370
    18
100
AcDbLine
 10
118.3056130724
 20
104.2566011991
 30
0.0
 11
118.3056130724
 21
100.4809351992
 31
0.0
  0
LINE
  5
3E9
330
1F
100
AcDbEntity
  8
0
  6
Continuous
 62
     7
370
    18
100
AcDbLine
 10
116.123995213
 20
100.4809351992
 30
0.0
 11
118.3056130724
 21
100.4809351992
 31
0.0
  0
LINE
  5
3EA
330
1F
100
AcDbEntity
  8
0
  6
Continuous
 62
     7
370
    18
100
AcDbLine
 10
118.3056130724
 20
100.4809351992
 30
0.0
 11
118.3056130724
 21
98.2566011991
 31
0.0
  0
LINE
  5
3EB
330
1F
100
AcDbEntity
  8
0
  6
Continuous
 62
     7
370
    18
100
AcDbLine
 10
118.8056130724
 20
100.5455740325
 30
0.0
 11
118.3056130724
 21
100.5455740325
 31
0.0
  0
LINE
  5
3EC
330
1F
100
AcDbEntity
  8
0
  6
Continuous
 62
     7
370
    18
100
AcDbLine
 10
118.8056130724
 20
100.5455740325
 30
0.0
 11
118.8056130724
 21
104.0066011991
 31
0.0
  0
LINE
  5
3ED
330
1F
100
AcDbEntity
  8
0
  6
Continuous
 62
     7
370
    18
100
AcDbLine
 10
118.8056130724
 20
98.5066011991
 30
0.0
 11
118.8056130724
 21
100.5455740325
 31
0.0
  0
LINE
  5
3EE
330
1F
100
AcDbEntity
  8
0
  6
Continuous
 62
     7
370
    18
100
AcDbLine
 10
118.8056130724
 20
100.6102128659
 30
0.0
 11
119.3056130724
 21
100.6102128659
 31
0.0
  0
LINE
  5
3EF
330
1F
100
AcDbEntity
  8
0
  6
Continuous
 62
     7
370
    18
100
AcDbLine
 10
106.8056130724
 20
100.6877794658
 30
0.0
 11
106.2056130724
 21
100.6877794658
 31
0.0
  0
SPLINE
  5
3F0
330
1F
100
AcDbEntity
  8
0
  6
Continuous
 62
     7
370
    18
100
AcDbSpline
210
0.0
220
0.0
230
1.0
 70
    24
 71
     3
 72
     9
 73
     5
 74
     0
 42
0.00000001
 43
0.00000001
 40
0.0
 40
0.0
 40
0.0
 40
0.0
 40
0.6945056121371417
 40
0.9999999999999999
 40
0.9999999999999999
 40
0.9999999999999999
 40
0.9999999999999999
 10
118.0056130724244
 20
104.6097916521104
 30
0.0
 10
118.0056130724244
 20
104.5524726897546
 30
0.0
 10
118.0056130724244
 20
104.469940653506
 30
0.0
 10
118.0056130724244
 20
104.3065240533325
 30
0.0
 10
118.0056130724244
 20
104.2566011990958
 30
0.0
  0
SPLINE
  5
3F1
330
1F
100
AcDbEntity
  8
0
  6
Continuous
 62
     7
370
    18
100
AcDbSpline
210
0.0
220
0.0
230
1.0
 70
    24
 71
     3
 72
    10
 73
     6
 74
     0
 42
0.00000001
 43
0.00000001
 40
0.0
 40
0.0
 40
0.0
 40
0.0
 40
0.3273727019327511
 40
0.7268606508213014
 40
1.0
 40
1.0
 40
1.0
 40
1.0
 10
118.0056130724244
 20
98.25660119909585
 30
0.0
 10
118.0056130724244
 20
98.16715216985446
 30
0.0
 10
118.0056130724244
 20
97.9685498452688
 30
0.0
 10
118.0056130724244
 20
97.82649509337168
 30
0.0
 10
118.0056130724244
 20
97.82044355785936
 30
0.0
 10
118.0056130724244
 20
97.81798616061111
 30
0.0
  0
ARC
  5
3F2
330
1F
100
AcDbEntity
  8
0
  6
Continuous
 62
     7
370
    18
100
AcDbCircle
 10
118.4986963135
 20
104.6026752003
 30
0.0
 40
0.4931345926880133
100
AcDbArc
 50
89.1963368701
 51
179.1731328229
  0
LINE
  5
3F3
330
1F
100
AcDbEntity
  8
0
  6
Continuous
 62
     7
370
    18
100
AcDbLine
 10
119.5056130724
 20
105.095761283
 30
0.0
 11
119.5056130724
 21
104.7566011991
 31
0.0
  0
LINE
  5
3F4
330
1F
100
AcDbEntity
  8
0
  6
Continuous
 62
     7
370
    18
100
AcDbLine
 10
119.5056130724
 20
97.7566011991
 30
0.0
 11
119.5056130724
 21
97.3066011991
 31
0.0
  0
LINE
  5
3F5
330
1F
100
AcDbEntity
  8
0
  6
Continuous
 62
     7
370
    18
100
AcDbLine
 10
119.5056130724
 20
105.095761283
 30
0.0
 11
118.5056130724
 21
105.095761283
 31
0.0
  0
LINE
  5
3F6
330
1F
100
AcDbEntity
  8
0
  6
Continuous
 62
     7
370
    18
100
AcDbLine
 10
119.5056130724
 20
105.2066011991
 30
0.0
 11
119.5056130724
 21
105.095761283
 31
0.0
  0
LWPOLYLINE
  5
3F7
330
1F
100
AcDbEntity
  8
0
  6
Continuous
 62
     7
370
    18
100
AcDbPolyline
 90
        9
 70
   128
 43
0.0
 10
177.8806130724
 20
109.5048994
 10
177.9049993627
 20
109.5035668611
 10
177.9284485015
 20
109.4996204532
 10
177.9500593516
 20
109.4932118345
 10
177.9690014201
 20
109.4845872846
 10
177.984546774
 20
109.4740782401
 10
177.996098014
 20
109.4620885578
 10
178.0032112325
 20
109.4490789943
 10
178.0056130724
 20
109.4355495
  0
SPLINE
  5
3F8
330
1F
100
AcDbEntity
  8
0
  6
Continuous
 62
     7
370
    18
100
AcDbSpline
210
0.0
220
0.0
230
1.0
 70
    24
 71
     3
 72
    15
 73
    11
 74
     0
 42
0.00000001
 43
0.00000001
 40
0.0
 40
0.0
 40
0.0
 40
0.0
 40
0.0950599139861166
 40
0.2698816118364226
 40
0.4447033096867292
 40
0.5398808919644401
 40
0.6349408588802115
 40
0.7301183881637289
 40
0.8251783021496938
 40
1.0
 40
1.0
 40
1.0
 40
1.0
 10
178.0056130724244
 20
106.1311869844952
 30
0.0
 10
178.0056130724244
 20
106.1412475853108
 30
0.0
 10
178.0056130724244
 20
106.1698103206459
 30
0.0
 10
178.0056130724244
 20
106.4484140390011
 30
0.0
 10
178.0056130724244
 20
106.9317679941632
 30
0.0
 10
178.0056130724244
 20
107.420105899612
 30
0.0
 10
178.0056130724244
 20
107.8376329957956
 30
0.0
 10
178.0056130724244
 20
108.2708523797116
 30
0.0
 10
178.0056130724244
 20
108.8297618054981
 30
0.0
 10
178.0056130724244
 20
109.1974023331327
 30
0.0
 10
178.0056130724244
 20
109.4355494999677
 30
0.0
  0
LINE
  5
3F9
330
1F
100
AcDbEntity
  8
0
  6
Continuous
 62
     7
370
    18
100
AcDbLine
 10
175.5056130724
 20
109.5048994
 30
0.0
 11
177.8806130724
 21
109.5048994
 31
0.0
  0
SPLINE
  5
3FA
330
1F
100
AcDbEntity
  8
0
  6
Continuous
 62
     7
370
    18
100
AcDbSpline
210
0.0
220
0.0
230
1.0
 70
    24
 71
     3
 72
    11
 73
     7
 74
     0
 42
0.00000001
 43
0.00000001
 40
0.0
 40
0.0
 40
0.0
 40
0.0
 40
0.3825885618460415
 40
0.5908799511370075
 40
0.7989139450794958
 40
1.0
 40
1.0
 40
1.0
 40
1.0
 10
178.0056130724244
 20
109.4355494999677
 30
0.0
 10
178.0056130724244
 20
109.6422526925234
 30
0.0
 10
178.0056130724244
 20
109.961490601069
 30
0.0
 10
178.0056130724244
 20
110.2250789028516
 30
0.0
 10
178.0056130724244
 20
110.3576237386613
 30
0.0
 10
178.0056130724244
 20
110.373011905503
 30
0.0
 10
178.0056130724244
 20
110.3805753230654
 30
0.0
  0
LWPOLYLINE
  5
3FB
330
1F
100
AcDbEntity
  8
0
  6
Continuous
 62
     7
370
    18
100
AcDbPolyline
 90
        9
 70
   128
 43
0.0
 10
177.8806130724
 20
95.3864663617
 10
177.9049993627
 20
95.3852602482
 10
177.9284485015
 20
95.3816882581
 10
177.9500593516
 20
95.3758876609
 10
177.9690014201
 20
95.3680813703
 10
177.984546774
 20
95.3585693778
 10
177.996098014
 20
95.3477172237
 10
178.0032112325
 20
95.3359419504
 10
178.0056130724
 20
95.3236960749
  0
SPLINE
  5
3FC
330
1F
100
AcDbEntity
  8
0
  6
Continuous
 62
     7
370
    18
100
AcDbSpline
210
0.0
220
0.0
230
1.0
 70
    24
 71
     3
 72
    15
 73
    11
 74
     0
 42
0.00000001
 43
0.00000001
 40
0.0
 40
0.0
 40
0.0
 40
0.0
 40
0.0713117544727497
 40
0.2507212627550535
 40
0.430130771037357
 40
0.5278060793426674
 40
0.6253606857294033
 40
0.7230359396497469
 40
0.8205904917176966
 40
1.0
 40
1.0
 40
1.0
 40
1.0
 10
178.0056130724244
 20
92.13995057280651
 30
0.0
 10
178.0056130724244
 20
92.14153699356719
 30
0.0
 10
178.0056130724244
 20
92.14711460723437
 30
0.0
 10
178.0056130724244
 20
92.37892743797309
 30
0.0
 10
178.0056130724244
 20
92.82865679967549
 30
0.0
 10
178.0056130724244
 20
93.29963634407812
 30
0.0
 10
178.0056130724244
 20
93.70836360494452
 30
0.0
 10
178.0056130724244
 20
94.13821915846921
 30
0.0
 10
178.0056130724244
 20
94.69944098480651
 30
0.0
 10
178.0056130724244
 20
95.07828900828031
 30
0.0
 10
178.0056130724244
 20
95.32369607488383
 30
0.0
  0
LINE
  5
3FD
330
1F
100
AcDbEntity
  8
0
  6
Continuous
 62
     7
370
    18
100
AcDbLine
 10
175.5056130724
 20
95.3864663617
 30
0.0
 11
177.8806130724
 21
95.3864663617
 31
0.0
  0
SPLINE
  5
3FE
330
1F
100
AcDbEntity
  8
0
  6
Continuous
 62
     7
370
    18
100
AcDbSpline
210
0.0
220
0.0
230
1.0
 70
    24
 71
     3
 72
    12
 73
     8
 74
     0
 42
0.00000001
 43
0.00000001
 40
0.0
 40
0.0
 40
0.0
 40
0.0
 40
0.3598572230129845
 40
0.5557730668277481
 40
0.7514468083296831
 40
0.9473625430602286
 40
1.0
 40
1.0
 40
1.0
 40
1.0
 10
178.0056130724244
 20
95.32369607488383
 30
0.0
 10
178.0056130724244
 20
95.54021136580246
 30
0.0
 10
178.0056130724244
 20
95.87460334004557
 30
0.0
 10
178.0056130724244
 20
96.17179025703061
 30
0.0
 10
178.0056130724244
 20
96.32043323792712
 30
0.0
 10
178.0056130724244
 20
96.38825320488597
 30
0.0
 10
178.0056130724244
 20
96.37587353515956
 30
0.0
 10
178.0056130724244
 20
96.3732518253848
 30
0.0
  0
LINE
  5
3FF
330
1F
100
AcDbEntity
  8
0
  6
Continuous
 62
     7
370
    18
100
AcDbLine
 10
174.3056130724
 20
91.2566011991
 30
0.0
 11
175.5056130724
 21
91.2566011991
 31
0.0
  0
LINE
  5
400
330
1F
100
AcDbEntity
  8
0
  6
Continuous
 62
     7
370
    18
100
AcDbLine
 10
175.5056130724
 20
92.7566011991
 30
0.0
 11
174.3056130724
 21
92.7566011991
 31
0.0
  0
LINE
  5
401
330
1F
100
AcDbEntity
  8
0
  6
Continuous
 62
     7
370
    18
100
AcDbLine
 10
175.5056130724
 20
91.2566011991
 30
0.0
 11
175.5056130724
 21
92.7566011991
 31
0.0
  0
LINE
  5
402
330
1F
100
AcDbEntity
  8
0
  6
Continuous
 62
     7
370
    18
100
AcDbLine
 10
174.3056130724
 20
109.7566011991
 30
0.0
 11
175.5056130724
 21
109.7566011991
 31
0.0
  0
LINE
  5
403
330
1F
100
AcDbEntity
  8
0
  6
Continuous
 62
     7
370
    18
100
AcDbLine
 10
175.5056130724
 20
92.7566011991
 30
0.0
 11
175.5056130724
 21
109.7566011991
 31
0.0
  0
LINE
  5
404
330
1F
100
AcDbEntity
  8
0
  6
Continuous
 62
     7
370
    18
100
AcDbLine
 10
175.5056130724
 20
111.2566011991
 30
0.0
 11
174.3056130724
 21
111.2566011991
 31
0.0
  0
LINE
  5
405
330
1F
100
AcDbEntity
  8
0
  6
Continuous
 62
     7
370
    18
100
AcDbLine
 10
175.5056130724
 20
109.7566011991
 30
0.0
 11
175.5056130724
 21
111.2566011991
 31
0.0
  0
LINE
  5
406
330
1F
100
AcDbEntity
  8
0
  6
Continuous
 62
     7
370
    18
100
AcDbLine
 10
175.5056130724
 20
110.7566011991
 30
0.0
 11
180.8056130724
 21
110.7566011991
 31
0.0
  0
LINE
  5
407
330
1F
100
AcDbEntity
  8
0
  6
Continuous
 62
     7
370
    18
100
AcDbLine
 10
180.8056130724
 20
110.7566011991
 30
0.0
 11
180.8056130724
 21
91.7566011991
 31
0.0
  0
LINE
  5
408
330
1F
100
AcDbEntity
  8
0
  6
Continuous
 62
     7
370
    18
100
AcDbLine
 10
180.8056130724
 20
91.7566011991
 30
0.0
 11
175.5056130724
 21
91.7566011991
 31
0.0
  0
LINE
  5
409
330
1F
100
AcDbEntity
  8
0
  6
Continuous
 62
     7
370
    18
100
AcDbLine
 10
181.3056130724
 20
91.7566011991
 30
0.0
 11
181.3056130724
 21
110.7566011991
 31
0.0
  0
LINE
  5
40A
330
1F
100
AcDbEntity
  8
0
  6
Continuous
 62
     7
370
    18
100
AcDbLine
 10
181.3056130724
 20
91.7566011991
 30
0.0
 11
180.8056130724
 21
91.7566011991
 31
0.0
  0
LINE
  5
40B
330
1F
100
AcDbEntity
  8
0
  6
Continuous
 62
     7
370
    18
100
AcDbLine
 10
180.8056130724
 20
110.7566011991
 30
0.0
 11
181.3056130724
 21
110.7566011991
 31
0.0
  0
LINE
  5
40C
330
1F
100
AcDbEntity
  8
0
  6
Continuous
 62
     7
370
    18
100
AcDbLine
 10
180.8056130724
 20
91.2566011991
 30
0.0
 11
180.8056130724
 21
91.7566011991
 31
0.0
  0
LINE
  5
40D
330
1F
100
AcDbEntity
  8
0
  6
Continuous
 62
     7
370
    18
100
AcDbLine
 10
175.5056130724
 20
91.2566011991
 30
0.0
 11
180.8056130724
 21
91.2566011991
 31
0.0
  0
LINE
  5
40E
330
1F
100
AcDbEntity
  8
0
  6
Continuous
 62
     7
370
    18
100
AcDbLine
 10
180.8056130724
 20
110.7566011991
 30
0.0
 11
180.8056130724
 21
111.2566011991
 31
0.0
  0
LINE
  5
40F
330
1F
100
AcDbEntity
  8
0
  6
Continuous
 62
     7
370
    18
100
AcDbLine
 10
180.8056130724
 20
111.2566011991
 30
0.0
 11
175.5056130724
 21
111.2566011991
 31
0.0
  0
ARC
  5
410
330
1F
100
AcDbEntity
  8
0
  6
Continuous
 62
     7
370
    18
100
AcDbCircle
 10
180.8056130724
 20
91.7566011991
 30
0.0
 40
0.5
100
AcDbArc
 50
270.0
 51
0.0
  0
ARC
  5
411
330
1F
100
AcDbEntity
  8
0
  6
Continuous
 62
     7
370
    18
100
AcDbCircle
 10
180.8056130724
 20
110.7566011991
 30
0.0
 40
0.5
100
AcDbArc
 50
0.0
 51
90.0
  0
LINE
  5
412
330
1F
100
AcDbEntity
  8
0
  6
Continuous
 62
     7
370
    18
100
AcDbLine
 10
113.9675598229
 20
110.2566011991
 30
0.0
 11
113.9675598229
 21
107.7691611544
 31
0.0
  0
LINE
  5
413
330
1F
100
AcDbEntity
  8
0
  6
Continuous
 62
     7
370
    18
100
AcDbLine
 10
113.8056130724
 20
107.9538124427
 30
0.0
 11
113.9675598229
 21
107.7691611544
 31
0.0
  0
LINE
  5
414
330
1F
100
AcDbEntity
  8
0
  6
Continuous
 62
     7
370
    18
100
AcDbLine
 10
113.8056130723
 20
109.976101199
 30
0.0
 11
113.8056130724
 21
107.9538124427
 31
0.0
  0
LINE
  5
415
330
1F
100
AcDbEntity
  8
0
  6
Continuous
 62
     7
370
    18
100
AcDbLine
 10
113.9675598229
 20
107.7691611544
 30
0.0
 11
113.9675598229
 21
107.2566011991
 31
0.0
  0
LINE
  5
416
330
1F
100
AcDbEntity
  8
0
  6
Continuous
 62
     7
370
    18
100
AcDbLine
 10
113.8056130724
 20
107.9538124427
 30
0.0
 11
113.8056130724
 21
107.5371011991
 31
0.0
  0
LINE
  5
417
330
1F
100
AcDbEntity
  8
0
  6
Continuous
 62
     7
370
    18
100
AcDbLine
 10
119.3056130724
 20
104.6375887709
 30
0.0
 11
119.3056130724
 21
97.7566011991
 31
0.0
  0
LINE
  5
418
330
1F
100
AcDbEntity
  8
0
  6
Continuous
 62
     7
370
    18
100
AcDbLine
 10
119.3056130724
 20
104.6375887709
 30
0.0
 11
119.8056130724
 21
104.6375887709
 31
0.0
  0
LINE
  5
419
330
1F
100
AcDbEntity
  8
0
  6
Continuous
 62
     7
370
    18
100
AcDbLine
 10
119.3056130724
 20
104.7566011991
 30
0.0
 11
119.3056130724
 21
104.6375887709
 31
0.0
  0
SPLINE
  5
41A
330
1F
100
AcDbEntity
  8
0
  6
Continuous
 62
     7
370
    18
100
AcDbSpline
210
0.0
220
0.0
230
1.0
 70
     8
 71
     3
 72
     8
 73
     4
 74
     0
 42
0.00000001
 43
0.00000001
 40
0.0
 40
0.0
 40
0.0
 40
0.0
 40
1.0
 40
1.0
 40
1.0
 40
1.0
 10
117.6512331367941
 20
106.0066012852527
 30
0.0
 10
117.5014864751019
 20
106.4558412914731
 30
0.0
 10
117.4056130724686
 20
106.9122989454306
 30
0.0
 10
117.4056130724686
 20
107.3816011990958
 30
0.0
  0
SPLINE
  5
41B
330
1F
100
AcDbEntity
  8
0
  6
Continuous
 62
     7
370
    18
100
AcDbSpline
210
0.0
220
0.0
230
1.0
 70
     8
 71
     3
 72
     8
 73
     4
 74
     0
 42
0.00000001
 43
0.00000001
 40
0.0
 40
0.0
 40
0.0
 40
0.0
 40
1.0
 40
1.0
 40
1.0
 40
1.0
 10
117.4056130724686
 20
107.3816011990958
 30
0.0
 10
117.4056130724686
 20
107.8509034527753
 30
0.0
 10
117.5014864751078
 20
108.3073611067461
 30
0.0
 10
117.6512331368076
 20
108.7566011129794
 30
0.0
  0
LINE
  5
41C
330
1F
100
AcDbEntity
  8
0
  6
Continuous
 62
     7
370
    18
100
AcDbLine
 10
117.6512331751
 20
108.7566011702
 30
0.0
 11
119.8056130724
 21
108.7566011991
 31
0.0
  0
LINE
  5
41D
330
1F
100
AcDbEntity
  8
0
  6
Continuous
 62
     7
370
    18
100
AcDbLine
 10
119.8056130724
 20
106.0066011991
 30
0.0
 11
117.6512331512
 21
106.0066012422
 31
0.0
  0
SPLINE
  5
41E
330
1F
100
AcDbEntity
  8
0
  6
Continuous
 62
     7
370
    18
100
AcDbSpline
210
0.0
220
0.0
230
1.0
 70
     8
 71
     3
 72
     8
 73
     4
 74
     0
 42
0.00000001
 43
0.00000001
 40
0.0
 40
0.0
 40
0.0
 40
0.0
 40
1.0
 40
1.0
 40
1.0
 40
1.0
 10
117.65123320741
 20
108.7566011283097
 30
0.0
 10
117.5014865212106
 20
109.2058411695942
 30
0.0
 10
117.4056130724686
 20
109.6622989033316
 30
0.0
 10
117.4056130724686
 20
110.1316011990958
 30
0.0
  0
SPLINE
  5
41F
330
1F
100
AcDbEntity
  8
0
  6
Continuous
 62
     7
370
    18
100
AcDbSpline
210
0.0
220
0.0
230
1.0
 70
     8
 71
     3
 72
     8
 73
     4
 74
     0
 42
0.00000001
 43
0.00000001
 40
0.0
 40
0.0
 40
0.0
 40
0.0
 40
1.0
 40
1.0
 40
1.0
 40
1.0
 10
117.4056130724686
 20
110.1316011990958
 30
0.0
 10
117.4056130724686
 20
110.6009034567169
 30
0.0
 10
117.5014864767267
 20
111.0573611143226
 30
0.0
 10
117.6512331405073
 20
111.5066011240784
 30
0.0
  0
LINE
  5
420
330
1F
100
AcDbEntity
  8
0
  6
Continuous
 62
     7
370
    18
100
AcDbLine
 10
119.8056130724
 20
111.5066011991
 30
0.0
 11
117.6512331578
 21
111.5066011616
 31
0.0
  0
LINE
  5
421
330
1F
100
AcDbEntity
  8
0
  6
Continuous
 62
     7
370
    18
100
AcDbLine
 10
119.8056130724
 20
111.5066011991
 30
0.0
 11
119.8056130724
 21
111.2566011991
 31
0.0
  0
LINE
  5
422
330
1F
100
AcDbEntity
  8
0
  6
Continuous
 62
     7
370
    18
100
AcDbLine
 10
117.4056130725
 20
110.1316011991
 30
0.0
 11
117.4056130725
 21
107.3816011991
 31
0.0
  0
SPLINE
  5
423
330
1F
100
AcDbEntity
  8
0
  6
Continuous
 62
     7
370
    18
100
AcDbSpline
210
0.0
220
0.0
230
1.0
 70
    24
 71
     3
 72
     8
 73
     4
 74
     0
 42
0.00000001
 43
0.00000001
 40
0.0
 40
0.0
 40
0.0
 40
0.0
 40
1.0
 40
1.0
 40
1.0
 40
1.0
 10
117.4056130724634
 20
111.5066011991048
 30
0.0
 10
117.4056130724634
 20
111.5066011991048
 30
0.0
 10
117.5014864910474
 20
111.5066011990958
 30
0.0
 10
117.651233173234
 20
111.5066011990958
 30
0.0
  0
LINE
  5
424
330
1F
100
AcDbEntity
  8
0
  6
Continuous
 62
     7
370
    18
100
AcDbLine
 10
117.4056130725
 20
111.5066011991
 30
0.0
 11
117.4056130725
 21
110.1316011991
 31
0.0
  0
SPLINE
  5
425
330
1F
100
AcDbEntity
  8
0
  6
Continuous
 62
     7
370
    18
100
AcDbSpline
210
0.0
220
0.0
230
1.0
 70
    24
 71
     3
 72
     8
 73
     4
 74
     0
 42
0.00000001
 43
0.00000001
 40
0.0
 40
0.0
 40
0.0
 40
0.0
 40
1.0
 40
1.0
 40
1.0
 40
1.0
 10
117.4056130724686
 20
106.0066011990958
 30
0.0
 10
117.4056130724686
 20
106.0066011990958
 30
0.0
 10
117.5014864989594
 20
106.0066011990958
 30
0.0
 10
117.651233182865
 20
106.0066011990958
 30
0.0
  0
LINE
  5
426
330
1F
100
AcDbEntity
  8
0
  6
Continuous
 62
     7
370
    18
100
AcDbLine
 10
117.4056130725
 20
107.3816011991
 30
0.0
 11
117.4056130725
 21
106.0066011991
 31
0.0
  0
LINE
  5
427
330
1F
100
AcDbEntity
  8
0
  6
Continuous
 62
     8
370
    18
100
AcDbLine
 10
174.3056130724
 20
92.2566011991
 30
0.0
 11
171.3056130724
 21
92.2566011991
 31
0.0
  0
LINE
  5
428
330
1F
100
AcDbEntity
  8
0
  6
Continuous
 62
     8
370
    18
100
AcDbLine
 10
171.3056130724
 20
110.2566011991
 30
0.0
 11
174.3056130724
 21
110.2566011991
 31
0.0
  0
LINE
  5
429
330
1F
100
AcDbEntity
  8
0
  6
Continuous
 62
     8
370
    18
100
AcDbLine
 10
105.2056130724
 20
105.2066011991
 30
0.0
 11
105.2056130724
 21
100.2353076326
 31
0.0
  0
LINE
  5
42A
330
1F
100
AcDbEntity
  8
0
  6
Continuous
 62
     8
370
    18
100
AcDbLine
 10
105.2056130724
 20
100.2353076326
 30
0.0
 11
105.2056130724
 21
97.3066011991
 31
0.0
  0
LINE
  5
42B
330
1F
100
AcDbEntity
  8
0
  6
Continuous
 62
     8
370
    18
100
AcDbLine
 10
118.5056130724
 20
105.095761283
 30
0.0
 11
118.5056130724
 21
104.0066011991
 31
0.0
  0
LINE
  5
42C
330
1F
100
AcDbEntity
  8
0
  6
Continuous
 62
     8
370
    18
100
AcDbLine
 10
118.5056130724
 20
98.5066011991
 30
0.0
 11
118.5056130724
 21
97.3066011991
 31
0.0
  0
LINE
  5
42D
330
1F
100
AcDbEntity
  8
0
  6
Continuous
 62
     8
370
    18
100
AcDbLine
 10
118.5056130724
 20
105.2066011991
 30
0.0
 11
118.5056130724
 21
105.095761283
 31
0.0
  0
LINE
  5
42E
330
1F
100
AcDbEntity
  8
0
  6
Continuous
 62
     8
370
    18
100
AcDbLine
 10
177.8806130724
 20
106.0066011991
 30
0.0
 11
177.8806130724
 21
109.5048994
 31
0.0
  0
LINE
  5
42F
330
1F
100
AcDbEntity
  8
0
  6
Continuous
 62
     8
370
    18
100
AcDbLine
 10
177.8806130724
 20
109.5048994
 30
0.0
 11
177.8806130724
 21
110.5066011991
 31
0.0
  0
LINE
  5
430
330
1F
100
AcDbEntity
  8
0
  6
Continuous
 62
     8
370
    18
100
AcDbLine
 10
177.8806130724
 20
92.0066011991
 30
0.0
 11
177.8806130724
 21
95.3864663617
 31
0.0
  0
LINE
  5
431
330
1F
100
AcDbEntity
  8
0
  6
Continuous
 62
     8
370
    18
100
AcDbLine
 10
177.8806130724
 20
95.3864663617
 30
0.0
 11
177.8806130724
 21
96.5066011991
 31
0.0
  0
LINE
  5
432
330
1F
100
AcDbEntity
  8
0
  6
Continuous
 62
     8
370
    18
100
AcDbLine
 10
113.9675598229
 20
107.7691611544
 30
0.0
 11
117.4056130725
 21
107.7691611544
 31
0.0
  0
DIMENSION
  5
433
330
1F
100
AcDbEntity
  8
0
  6
Continuous
 62
     7
370
    18
100
AcDbDimension
  2
_D_18
 10
138.8056130724
 20
81.2559527464
 30
0.0
 11
129.3056130724
 21
81.2559527464
 31
0.0
 70
   160
  1
<>
 71
     2
 42
-1.0
  3
SLDDIMSTYLE2
100
AcDbAlignedDimension
 13
119.8056130724
 23
91.2566011991
 33
0.0
 14
138.8056130724
 24
97.1066011991
 34
0.0
100
AcDbRotatedDimension
  0
DIMENSION
  5
43D
330
1F
100
AcDbEntity
  8
0
  6
Continuous
 62
     7
370
    18
100
AcDbDimension
  2
_D_19
 10
158.8056130724
 20
81.2559527464
 30
0.0
 11
148.8056130724
 21
81.2559527464
 31
0.0
 70
   160
  1
<>
 71
     2
 42
-1.0
  3
SLDDIMSTYLE2
100
AcDbAlignedDimension
 13
138.8056130724
 23
97.1066011991
 33
0.0
 14
158.8056130724
 24
97.1066011991
 34
0.0
100
AcDbRotatedDimension
  0
DIMENSION
  5
447
330
1F
100
AcDbEntity
  8
0
  6
Continuous
 62
     7
370
    18
100
AcDbDimension
  2
_D_20
 10
181.3056130724
 20
81.2559527464
 30
0.0
 11
170.0556130724
 21
81.2559527464
 31
0.0
 70
   160
  1
<>
 71
     2
 42
-1.0
  3
SLDDIMSTYLE2
100
AcDbAlignedDimension
 13
158.8056130724
 23
97.1066011991
 33
0.0
 14
181.3056130724
 24
91.7566011991
 34
0.0
100
AcDbRotatedDimension
  0
DIMENSION
  5
451
330
1F
100
AcDbEntity
  8
0
  6
Continuous
 62
     7
370
    18
100
AcDbDimension
  2
_D_21
 10
138.8056130724
 20
101.2566011991
 30
0.0
 11
166.712311337
 21
118.4101755399
 31
0.0
 70
   164
  1
2-M4 取付用
 71
     1
 42
-1.0
  3
SLDDIMSTYLE8
100
AcDbRadialDimension
 15
139.9723392614
 25
102.4233273881
 35
0.0
 40
0.0
  0
INSERT
  5
45F
330
1F
100
AcDbEntity
  8
0
  6
Continuous
 62
     7
370
     0
100
AcDbBlockReference
  2
SW_NOTE_0_2
 10
101.2027755678
 20
116.7500001937
 30
0.0
  0
LEADER
  5
460
330
1F
100
AcDbEntity
  8
0
  6
Continuous
 62
     7
370
     0
100
AcDbLeader
  3
SLDDIMSTYLE6
 76
     2
 10
113.8056130724
 20
108.8775683788
 30
0.0
 10
101.2027755678
 20
116.7500001937
 30
0.0
  0
MTEXT
  5
461
330
1F
100
AcDbEntity
  8
0
  6
Continuous
 62
     7
370
     0
100
AcDbMText
 10
72.1506574494
 20
116.5872168454
 30
0.0
 40
3.5
 41
0.0
 71
     1
 72
     1
  1
ストッパーネジ
  7
SLDTEXTSTYLE0
 73
     1
 44
1.0
  0
INSERT
  5
46D
330
1F
100
AcDbEntity
  8
0
  6
Continuous
 62
     7
370
    18
100
AcDbBlockReference
  2
SW_CENTERMARKSYMBOL_6
 10
138.8056130724
 20
101.2566011991
 30
0.0
  0
INSERT
  5
479
330
1F
100
AcDbEntity
  8
0
  6
Continuous
 62
     7
370
    18
100
AcDbBlockReference
  2
SW_CENTERMARKSYMBOL_7
 10
158.8056130724
 20
101.2566011991
 30
0.0
  0
ENDSEC
  0
SECTION
  2
OBJECTS
  0
DICTIONARY
  5
C
330
0
100
AcDbDictionary
281
     1
  3
ACAD_GROUP
350
D
  3
ACAD_LAYOUT
350
1A
  3
ACAD_MLINESTYLE
350
17
  3
ACAD_PLOTSETTINGS
350
19
  3
ACAD_PLOTSTYLENAME
350
E
  3
ACAD_SCALELIST
350
47
  3
DWGPROPS
350
47A
  0
DICTIONARY
  5
D
102
{ACAD_REACTORS
330
C
102
}
330
C
100
AcDbDictionary
281
     1
  0
DICTIONARY
  5
1A
102
{ACAD_REACTORS
330
C
102
}
330
C
100
AcDbDictionary
281
     1
  3
Layout1
350
1E
  3
Layout2
350
26
  3
Model
350
22
  0
DICTIONARY
  5
17
102
{ACAD_REACTORS
330
C
102
}
330
C
100
AcDbDictionary
281
     1
  3
Standard
350
18
  0
DICTIONARY
  5
19
102
{ACAD_REACTORS
330
C
102
}
330
C
100
AcDbDictionary
281
     1
  0
ACDBDICTIONARYWDFLT
  5
E
102
{ACAD_REACTORS
330
C
102
}
330
C
100
AcDbDictionary
281
     1
  3
Normal
350
F
100
AcDbDictionaryWithDefault
340
F
  0
DICTIONARY
  5
47
102
{ACAD_REACTORS
330
C
102
}
330
C
100
AcDbDictionary
281
     1
  3
A0
350
48
  3
A1
350
49
  3
A2
350
4A
  3
A3
350
4B
  3
A4
350
4C
  3
A5
350
4D
  3
A6
350
4E
  3
A7
350
4F
  3
A8
350
50
  3
A9
350
51
  3
B0
350
52
  3
B1
350
53
  3
B2
350
54
  3
B3
350
55
  3
B4
350
56
  3
B5
350
57
  3
B6
350
58
  3
B7
350
59
  3
B8
350
5A
  3
B9
350
5B
  3
C0
350
5C
  3
C1
350
5D
  3
C2
350
5E
  3
C3
350
5F
  3
C4
350
60
  3
C5
350
61
  3
C6
350
62
  3
C7
350
63
  3
C8
350
64
  3
C9
350
65
  3
D0
350
66
  3
D1
350
67
  3
D2
350
68
  0
XRECORD
  5
47A
102
{ACAD_REACTORS
330
C
102
}
330
C
100
AcDbXrecord
280
     1
  1
DWGPROPS COOKIE
  2

  3

  4

  6

  7

  8
STAR050C
  9

300
=
301
=
302
=
303
=
304
=
305
=
306
=
307
=
308
=
309
=
 40
0.0
 41
2460161.03386265
 42
2460161.033865972
  1

 90
        0
  0
LAYOUT
  5
1E
102
{ACAD_REACTORS
330
1A
102
}
330
1A
100
AcDbPlotSettings
  1

  2
none_device
  4

  6

 40
0.0
 41
0.0
 42
0.0
 43
0.0
 44
0.0
 45
0.0
 46
0.0
 47
0.0
 48
0.0
 49
0.0
140
0.0
141
0.0
142
1.0
143
1.0
 70
   688
 72
     1
 73
     0
 74
     5
  7

 75
    16
147
1.0
148
0.0
149
0.0
100
AcDbLayout
  1
Layout1
 70
     1
 71
     1
 10
0.0
 20
0.0
 11
420.0
 21
297.0
 12
0.0
 22
0.0
 32
0.0
 14
1.0000000000E+20
 24
1.0000000000E+20
 34
1.0000000000E+20
 15
-1.0000000000E+20
 25
-1.0000000000E+20
 35
-1.0000000000E+20
146
0.0
 13
0.0
 23
0.0
 33
0.0
 16
1.0
 26
0.0
 36
0.0
 17
0.0
 27
1.0
 37
0.0
 76
     0
330
1B
  0
LAYOUT
  5
26
102
{ACAD_REACTORS
330
1A
102
}
330
1A
100
AcDbPlotSettings
  1

  2
none_device
  4

  6

 40
0.0
 41
0.0
 42
0.0
 43
0.0
 44
0.0
 45
0.0
 46
0.0
 47
0.0
 48
0.0
 49
0.0
140
0.0
141
0.0
142
1.0
143
1.0
 70
   688
 72
     1
 73
     0
 74
     5
  7

 75
    16
147
1.0
148
0.0
149
0.0
100
AcDbLayout
  1
Layout2
 70
     1
 71
     2
 10
0.0
 20
0.0
 11
0.0
 21
0.0
 12
0.0
 22
0.0
 32
0.0
 14
0.0
 24
0.0
 34
0.0
 15
0.0
 25
0.0
 35
0.0
146
0.0
 13
0.0
 23
0.0
 33
0.0
 16
1.0
 26
0.0
 36
0.0
 17
0.0
 27
1.0
 37
0.0
 76
     0
330
23
  0
LAYOUT
  5
22
102
{ACAD_REACTORS
330
1A
102
}
330
1A
100
AcDbPlotSettings
  1

  2
none_device
  4
Letter_(8.50_x_11.00_Inches)
  6

 40
6.35
 41
6.35
 42
6.35000508
 43
6.35000508
 44
215.9
 45
279.4
 46
0.0
 47
0.0
 48
0.0
 49
0.0
140
0.0
141
0.0
142
1.0
143
1.0
 70
  1712
 72
     1
 73
     0
 74
     0
  7

 75
     0
147
1.0
148
0.0
149
0.0
100
AcDbLayout
  1
Model
 70
     1
 71
     0
 10
0.0
 20
0.0
 11
210.0
 21
297.0
 12
0.0
 22
0.0
 32
0.0
 14
0.0
 24
0.0
 34
0.0
 15
210.0
 25
297.0
 35
0.0
146
0.0
 13
0.0
 23
0.0
 33
0.0
 16
1.0
 26
0.0
 36
0.0
 17
0.0
 27
1.0
 37
0.0
 76
     0
330
1F
331
29
  0
MLINESTYLE
  5
18
102
{ACAD_REACTORS
330
17
102
}
330
17
100
AcDbMlineStyle
  2
Standard
 70
     0
  3

 62
   256
 51
90.0
 52
90.0
 71
     2
 49
0.5
 62
   256
  6
BYLAYER
 49
-0.5
 62
   256
  6
BYLAYER
  0
ACDBPLACEHOLDER
  5
F
102
{ACAD_REACTORS
330
E
102
}
330
E
  0
SCALE
  5
48
102
{ACAD_REACTORS
330
47
102
}
330
47
100
AcDbScale
 70
     0
300
1:1
140
1.0
141
1.0
290
     1
  0
SCALE
  5
49
102
{ACAD_REACTORS
330
47
102
}
330
47
100
AcDbScale
 70
     0
300
1:2
140
1.0
141
2.0
290
     0
  0
SCALE
  5
4A
102
{ACAD_REACTORS
330
47
102
}
330
47
100
AcDbScale
 70
     0
300
1:4
140
1.0
141
4.0
290
     0
  0
SCALE
  5
4B
102
{ACAD_REACTORS
330
47
102
}
330
47
100
AcDbScale
 70
     0
300
1:5
140
1.0
141
5.0
290
     0
  0
SCALE
  5
4C
102
{ACAD_REACTORS
330
47
102
}
330
47
100
AcDbScale
 70
     0
300
1:8
140
1.0
141
8.0
290
     0
  0
SCALE
  5
4D
102
{ACAD_REACTORS
330
47
102
}
330
47
100
AcDbScale
 70
     0
300
1:10
140
1.0
141
10.0
290
     0
  0
SCALE
  5
4E
102
{ACAD_REACTORS
330
47
102
}
330
47
100
AcDbScale
 70
     0
300
1:16
140
1.0
141
16.0
290
     0
  0
SCALE
  5
4F
102
{ACAD_REACTORS
330
47
102
}
330
47
100
AcDbScale
 70
     0
300
1:20
140
1.0
141
20.0
290
     0
  0
SCALE
  5
50
102
{ACAD_REACTORS
330
47
102
}
330
47
100
AcDbScale
 70
     0
300
1:30
140
1.0
141
30.0
290
     0
  0
SCALE
  5
51
102
{ACAD_REACTORS
330
47
102
}
330
47
100
AcDbScale
 70
     0
300
1:40
140
1.0
141
40.0
290
     0
  0
SCALE
  5
52
102
{ACAD_REACTORS
330
47
102
}
330
47
100
AcDbScale
 70
     0
300
1:50
140
1.0
141
50.0
290
     0
  0
SCALE
  5
53
102
{ACAD_REACTORS
330
47
102
}
330
47
100
AcDbScale
 70
     0
300
1:100
140
1.0
141
100.0
290
     0
  0
SCALE
  5
54
102
{ACAD_REACTORS
330
47
102
}
330
47
100
AcDbScale
 70
     0
300
2:1
140
2.0
141
1.0
290
     0
  0
SCALE
  5
55
102
{ACAD_REACTORS
330
47
102
}
330
47
100
AcDbScale
 70
     0
300
4:1
140
4.0
141
1.0
290
     0
  0
SCALE
  5
56
102
{ACAD_REACTORS
330
47
102
}
330
47
100
AcDbScale
 70
     0
300
8:1
140
8.0
141
1.0
290
     0
  0
SCALE
  5
57
102
{ACAD_REACTORS
330
47
102
}
330
47
100
AcDbScale
 70
     0
300
10:1
140
10.0
141
1.0
290
     0
  0
SCALE
  5
58
102
{ACAD_REACTORS
330
47
102
}
330
47
100
AcDbScale
 70
     0
300
100:1
140
100.0
141
1.0
290
     0
  0
SCALE
  5
59
102
{ACAD_REACTORS
330
47
102
}
330
47
100
AcDbScale
 70
     0
300
1/128" = 1'-0"
140
0.0078125
141
12.0
290
     0
  0
SCALE
  5
5A
102
{ACAD_REACTORS
330
47
102
}
330
47
100
AcDbScale
 70
     0
300
1/64" = 1'-0"
140
0.015625
141
12.0
290
     0
  0
SCALE
  5
5B
102
{ACAD_REACTORS
330
47
102
}
330
47
100
AcDbScale
 70
     0
300
1/32" = 1'-0"
140
0.03125
141
12.0
290
     0
  0
SCALE
  5
5C
102
{ACAD_REACTORS
330
47
102
}
330
47
100
AcDbScale
 70
     0
300
1/16" = 1'-0"
140
0.0625
141
12.0
290
     0
  0
SCALE
  5
5D
102
{ACAD_REACTORS
330
47
102
}
330
47
100
AcDbScale
 70
     0
300
3/32" = 1'-0"
140
0.09375
141
12.0
290
     0
  0
SCALE
  5
5E
102
{ACAD_REACTORS
330
47
102
}
330
47
100
AcDbScale
 70
     0
300
1/8" = 1'-0"
140
0.125
141
12.0
290
     0
  0
SCALE
  5
5F
102
{ACAD_REACTORS
330
47
102
}
330
47
100
AcDbScale
 70
     0
300
3/16" = 1'-0"
140
0.1875
141
12.0
290
     0
  0
SCALE
  5
60
102
{ACAD_REACTORS
330
47
102
}
330
47
100
AcDbScale
 70
     0
300
1/4" = 1'-0"
140
0.25
141
12.0
290
     0
  0
SCALE
  5
61
102
{ACAD_REACTORS
330
47
102
}
330
47
100
AcDbScale
 70
     0
300
3/8" = 1'-0"
140
0.375
141
12.0
290
     0
  0
SCALE
  5
62
102
{ACAD_REACTORS
330
47
102
}
330
47
100
AcDbScale
 70
     0
300
1/2" = 1'-0"
140
0.5
141
12.0
290
     0
  0
SCALE
  5
63
102
{ACAD_REACTORS
330
47
102
}
330
47
100
AcDbScale
 70
     0
300
3/4" = 1'-0"
140
0.75
141
12.0
290
     0
  0
SCALE
  5
64
102
{ACAD_REACTORS
330
47
102
}
330
47
100
AcDbScale
 70
     0
300
1" = 1'-0"
140
1.0
141
12.0
290
     0
  0
SCALE
  5
65
102
{ACAD_REACTORS
330
47
102
}
330
47
100
AcDbScale
 70
     0
300
1-1/2" = 1'-0"
140
1.5
141
12.0
290
     0
  0
SCALE
  5
66
102
{ACAD_REACTORS
330
47
102
}
330
47
100
AcDbScale
 70
     0
300
3" = 1'-0"
140
3.0
141
12.0
290
     0
  0
SCALE
  5
67
102
{ACAD_REACTORS
330
47
102
}
330
47
100
AcDbScale
 70
     0
300
6" = 1'-0"
140
6.0
141
12.0
290
     0
  0
SCALE
  5
68
102
{ACAD_REACTORS
330
47
102
}
330
47
100
AcDbScale
 70
     0
300
1'-0" = 1'-0"
140
12.0
141
12.0
290
     0
  0
ENDSEC
  0
EOF
