  0
SECTION
  2
HEADER
  9
$ACADVER
  1
AC1015
  9
$ACADMAINTVER
 70
     6
  9
$DWGCODEPAGE
  3
DOS932
  9
$INSBASE
 10
0.0
 20
0.0
 30
0.0
  9
$EXTMIN
 10
0.0
 20
0.0
 30
0.0
  9
$EXTMAX
 10
210.0
 20
297.0
 30
0.0
  9
$LIMMIN
 10
0.0
 20
0.0
  9
$LIMMAX
 10
0.0
 20
0.0
  9
$ORTHOMODE
 70
     0
  9
$REGENMODE
 70
     1
  9
$FILLMODE
 70
     1
  9
$QTEXTMODE
 70
     0
  9
$MIRRTEXT
 70
     1
  9
$LTSCALE
 40
1.0
  9
$ATTMODE
 70
     1
  9
$TEXTSIZE
 40
3.5
  9
$TRACEWID
 40
1.0
  9
$TEXTSTYLE
  7
Standard
  9
$CLAYER
  8
0
  9
$CELTYPE
  6
ByLayer
  9
$CECOLOR
 62
   256
  9
$CELTSCALE
 40
1.0
  9
$DISPSILH
 70
     0
  9
$DIMSCALE
 40
1.0
  9
$DIMASZ
 40
3.0
  9
$DIMEXO
 40
1.0
  9
$DIMDLI
 40
3.75
  9
$DIMRND
 40
0.0
  9
$DIMDLE
 40
0.0
  9
$DIMEXE
 40
1.0
  9
$DIMTP
 40
0.0
  9
$DIMTM
 40
0.0
  9
$DIMTXT
 40
3.5
  9
$DIMCEN
 40
2.5
  9
$DIMTSZ
 40
0.0
  9
$DIMTOL
 70
     0
  9
$DIMLIM
 70
     0
  9
$DIMTIH
 70
     1
  9
$DIMTOH
 70
     1
  9
$DIMSE1
 70
     0
  9
$DIMSE2
 70
     0
  9
$DIMTAD
 70
     1
  9
$DIMZIN
 70
     0
  9
$DIMBLK
  1

  9
$DIMASO
 70
     1
  9
$DIMSHO
 70
     1
  9
$DIMPOST
  1

  9
$DIMAPOST
  1

  9
$DIMALT
 70
     0
  9
$DIMALTD
 70
     3
  9
$DIMALTF
 40
0.0393700787
  9
$DIMLFAC
 40
1.0
  9
$DIMTOFL
 70
     1
  9
$DIMTVP
 40
0.0
  9
$DIMTIX
 70
     0
  9
$DIMSOXD
 70
     0
  9
$DIMSAH
 70
     0
  9
$DIMBLK1
  1

  9
$DIMBLK2
  1

  9
$DIMSTYLE
  2
ISO-25
  9
$DIMCLRD
 70
     0
  9
$DIMCLRE
 70
     0
  9
$DIMCLRT
 70
     0
  9
$DIMTFAC
 40
1.0
  9
$DIMGAP
 40
1.524
  9
$DIMJUST
 70
     0
  9
$DIMSD1
 70
     0
  9
$DIMSD2
 70
     0
  9
$DIMTOLJ
 70
     0
  9
$DIMTZIN
 70
     0
  9
$DIMALTZ
 70
     0
  9
$DIMALTTZ
 70
     0
  9
$DIMUPT
 70
     0
  9
$DIMDEC
 70
     2
  9
$DIMTDEC
 70
     2
  9
$DIMALTU
 70
     2
  9
$DIMALTTD
 70
     3
  9
$DIMTXSTY
  7
Standard
  9
$DIMAUNIT
 70
     0
  9
$DIMADEC
 70
     0
  9
$DIMALTRND
 40
0.0
  9
$DIMAZIN
 70
     0
  9
$DIMDSEP
 70
    44
  9
$DIMATFIT
 70
     3
  9
$DIMFRAC
 70
     0
  9
$DIMLDRBLK
  1

  9
$DIMLUNIT
 70
     2
  9
$DIMLWD
 70
    -2
  9
$DIMLWE
 70
    -2
  9
$DIMTMOVE
 70
     0
  9
$LUNITS
 70
     2
  9
$LUPREC
 70
     1
  9
$SKETCHINC
 40
1.0
  9
$FILLETRAD
 40
10.0
  9
$AUNITS
 70
     0
  9
$AUPREC
 70
     0
  9
$MENU
  1
.
  9
$ELEVATION
 40
0.0
  9
$PELEVATION
 40
0.0
  9
$THICKNESS
 40
0.0
  9
$LIMCHECK
 70
     0
  9
$CHAMFERA
 40
10.0
  9
$CHAMFERB
 40
10.0
  9
$CHAMFERC
 40
20.0
  9
$CHAMFERD
 40
0.0
  9
$SKPOLY
 70
     0
  9
$TDCREATE
 40
2454336.399886609
  9
$TDUCREATE
 40
2454336.024886609
  9
$TDUPDATE
 40
2454336.39988662
  9
$TDUUPDATE
 40
2454336.02488662
  9
$TDINDWG
 40
0.0000000116
  9
$TDUSRTIMER
 40
0.0000000116
  9
$USRTIMER
 70
     1
  9
$ANGBASE
 50
0.0
  9
$ANGDIR
 70
     0
  9
$PDMODE
 70
     0
  9
$PDSIZE
 40
-1.0
  9
$PLINEWID
 40
0.0
  9
$SPLFRAME
 70
     0
  9
$SPLINETYPE
 70
     6
  9
$SPLINESEGS
 70
     8
  9
$HANDSEED
  5
5B5
  9
$SURFTAB1
 70
     6
  9
$SURFTAB2
 70
     6
  9
$SURFTYPE
 70
     6
  9
$SURFU
 70
     6
  9
$SURFV
 70
     6
  9
$UCSBASE
  2

  9
$UCSNAME
  2

  9
$UCSORG
 10
0.0
 20
0.0
 30
0.0
  9
$UCSXDIR
 10
1.0
 20
0.0
 30
0.0
  9
$UCSYDIR
 10
0.0
 20
1.0
 30
0.0
  9
$UCSORTHOREF
  2

  9
$UCSORTHOVIEW
 70
     0
  9
$UCSORGTOP
 10
0.0
 20
0.0
 30
0.0
  9
$UCSORGBOTTOM
 10
0.0
 20
0.0
 30
0.0
  9
$UCSORGLEFT
 10
0.0
 20
0.0
 30
0.0
  9
$UCSORGRIGHT
 10
0.0
 20
0.0
 30
0.0
  9
$UCSORGFRONT
 10
0.0
 20
0.0
 30
0.0
  9
$UCSORGBACK
 10
0.0
 20
0.0
 30
0.0
  9
$PUCSBASE
  2

  9
$PUCSNAME
  2

  9
$PUCSORG
 10
0.0
 20
0.0
 30
0.0
  9
$PUCSXDIR
 10
1.0
 20
0.0
 30
0.0
  9
$PUCSYDIR
 10
0.0
 20
1.0
 30
0.0
  9
$PUCSORTHOREF
  2

  9
$PUCSORTHOVIEW
 70
     0
  9
$PUCSORGTOP
 10
0.0
 20
0.0
 30
0.0
  9
$PUCSORGBOTTOM
 10
0.0
 20
0.0
 30
0.0
  9
$PUCSORGLEFT
 10
0.0
 20
0.0
 30
0.0
  9
$PUCSORGRIGHT
 10
0.0
 20
0.0
 30
0.0
  9
$PUCSORGFRONT
 10
0.0
 20
0.0
 30
0.0
  9
$PUCSORGBACK
 10
0.0
 20
0.0
 30
0.0
  9
$USERI1
 70
     0
  9
$USERI2
 70
     0
  9
$USERI3
 70
     0
  9
$USERI4
 70
     0
  9
$USERI5
 70
     0
  9
$USERR1
 40
0.0
  9
$USERR2
 40
0.0
  9
$USERR3
 40
0.0
  9
$USERR4
 40
0.0
  9
$USERR5
 40
0.0
  9
$WORLDVIEW
 70
     1
  9
$SHADEDGE
 70
     3
  9
$SHADEDIF
 70
    70
  9
$TILEMODE
 70
     1
  9
$MAXACTVP
 70
    64
  9
$PINSBASE
 10
0.0
 20
0.0
 30
0.0
  9
$PLIMCHECK
 70
     0
  9
$PEXTMIN
 10
1.0000000000E+20
 20
1.0000000000E+20
 30
1.0000000000E+20
  9
$PEXTMAX
 10
-1.0000000000E+20
 20
-1.0000000000E+20
 30
-1.0000000000E+20
  9
$PLIMMIN
 10
0.0
 20
0.0
  9
$PLIMMAX
 10
420.0
 20
297.0
  9
$UNITMODE
 70
     0
  9
$VISRETAIN
 70
     1
  9
$PLINEGEN
 70
     0
  9
$PSLTSCALE
 70
     1
  9
$TREEDEPTH
 70
  3020
  9
$CMLSTYLE
  2
Standard
  9
$CMLJUST
 70
     0
  9
$CMLSCALE
 40
20.0
  9
$PROXYGRAPHICS
 70
     1
  9
$MEASUREMENT
 70
     1
  9
$CELWEIGHT
370
    -1
  9
$ENDCAPS
280
     0
  9
$JOINSTYLE
280
     0
  9
$LWDISPLAY
290
     1
  9
$INSUNITS
 70
     4
  9
$HYPERLINKBASE
  1

  9
$STYLESHEET
  1

  9
$XEDIT
290
     1
  9
$CEPSNTYPE
380
     0
  9
$PSTYLEMODE
290
     1
  9
$FINGERPRINTGUID
  2
{D52C5A71-9B8A-4EF2-9DB7-469993DA98FE}
  9
$VERSIONGUID
  2
{FAEB1C32-E019-11D5-929B-00C0DF256EC4}
  9
$EXTNAMES
290
     1
  9
$PSVPSCALE
 40
0.0
  9
$OLESTARTUP
290
     0
  0
ENDSEC
  0
SECTION
  2
CLASSES
  0
CLASS
  1
ACDBDICTIONARYWDFLT
  2
AcDbDictionaryWithDefault
  3
ObjectDBX Classes
 90
        0
280
     0
281
     0
  0
CLASS
  1
ACDBPLACEHOLDER
  2
AcDbPlaceHolder
  3
ObjectDBX Classes
 90
        0
280
     0
281
     0
  0
CLASS
  1
LAYOUT
  2
AcDbLayout
  3
ObjectDBX Classes
 90
        0
280
     0
281
     0
  0
ENDSEC
  0
SECTION
  2
TABLES
  0
TABLE
  2
VPORT
  5
8
330
0
100
AcDbSymbolTable
 70
     1
  0
VPORT
  5
29
330
8
100
AcDbSymbolTableRecord
100
AcDbViewportTableRecord
  2
*Active
 70
     0
 10
0.0
 20
0.0
 11
1.0
 21
1.0
 12
105.0
 22
148.5
 13
0.0
 23
0.0
 14
10.0
 24
10.0
 15
10.0
 25
10.0
 16
0.0
 26
0.0
 36
1.0
 17
0.0
 27
0.0
 37
0.0
 40
297.0
 41
1.9729729729
 42
50.0
 43
0.0
 44
0.0
 50
0.0
 51
0.0
 71
     0
 72
  2000
 73
     1
 74
     3
 75
     0
 76
     0
 77
     0
 78
     0
281
     0
 65
     1
110
0.0
120
0.0
130
0.0
111
1.0
121
0.0
131
0.0
112
0.0
122
1.0
132
0.0
 79
     0
146
0.0
  0
ENDTAB
  0
TABLE
  2
LTYPE
  5
5
330
0
100
AcDbSymbolTable
 70
     6
  0
LTYPE
  5
14
330
5
100
AcDbSymbolTableRecord
100
AcDbLinetypeTableRecord
  2
ByBlock
 70
     0
  3

 72
    65
 73
     0
 40
0.0
  0
LTYPE
  5
15
330
5
100
AcDbSymbolTableRecord
100
AcDbLinetypeTableRecord
  2
ByLayer
 70
     0
  3

 72
    65
 73
     0
 40
0.0
  0
LTYPE
  5
16
330
5
100
AcDbSymbolTableRecord
100
AcDbLinetypeTableRecord
  2
Continuous
 70
     0
  3
Solid line
 72
    65
 73
     0
 40
0.0
  0
LTYPE
  5
2A
330
5
100
AcDbSymbolTableRecord
100
AcDbLinetypeTableRecord
  2
HIDDEN
 70
     0
  3
Hidden __ __ __ __ __ __ __ __ __ __ __ __ __ __
 72
    65
 73
     2
 40
1.905
 49
1.27
 74
     0
 49
-0.635
 74
     0
  0
LTYPE
  5
2B
330
5
100
AcDbSymbolTableRecord
100
AcDbLinetypeTableRecord
  2
PHANTOM
 70
     0
  3
Phantom ______  __  __  ______  __  __  ______
 72
    65
 73
     6
 40
12.7
 49
6.35
 74
     0
 49
-1.27
 74
     0
 49
1.27
 74
     0
 49
-1.27
 74
     0
 49
1.27
 74
     0
 49
-1.27
 74
     0
  0
LTYPE
  5
2C
330
5
100
AcDbSymbolTableRecord
100
AcDbLinetypeTableRecord
  2
CENTER
 70
     0
  3
Center ____ _ ____ _ ____ _ ____ _ ____ _ ____
 72
    65
 73
     4
 40
10.16
 49
6.35
 74
     0
 49
-1.27
 74
     0
 49
1.27
 74
     0
 49
-1.27
 74
     0
  0
LTYPE
  5
2D
330
5
100
AcDbSymbolTableRecord
100
AcDbLinetypeTableRecord
  2
CENTERX2
 70
     0
  3
Center (2x) ________  __  ________  __  _____
 72
    65
 73
     4
 40
20.32
 49
12.7
 74
     0
 49
-2.54
 74
     0
 49
2.54
 74
     0
 49
-2.54
 74
     0
  0
LTYPE
  5
2E
330
5
100
AcDbSymbolTableRecord
100
AcDbLinetypeTableRecord
  2
DOT2
 70
     0
  3
Dot (.5x) ........................................
 72
    65
 73
     2
 40
0.635
 49
0.0
 74
     0
 49
-0.635
 74
     0
  0
ENDTAB
  0
TABLE
  2
LAYER
  5
2
330
0
100
AcDbSymbolTable
 70
     2
  0
LAYER
  5
10
330
2
100
AcDbSymbolTableRecord
100
AcDbLayerTableRecord
  2
0
 70
     0
 62
     7
  6
Continuous
370
    -3
390
F
  0
LAYER
  5
13F
330
2
100
AcDbSymbolTableRecord
100
AcDbLayerTableRecord
  2
Defpoints
 70
     0
 62
     7
  6
Continuous
290
     0
370
    -3
390
F
  0
ENDTAB
  0
TABLE
  2
STYLE
  5
3
330
0
100
AcDbSymbolTable
 70
     2
  0
STYLE
  5
11
330
3
100
AcDbSymbolTableRecord
100
AcDbTextStyleTableRecord
  2
Standard
 70
     0
 40
0.0
 41
1.0
 50
0.0
 71
     0
 42
2.5
  3
txt
  4
bigfont
  0
STYLE
  5
37
330
3
100
AcDbSymbolTableRecord
100
AcDbTextStyleTableRecord
  2
SLDTEXTSTYLE0
 70
     0
 40
0.0
 41
0.7
 50
0.0
 71
     0
 42
0.2
  3
TXT
  4
bigfont
  0
ENDTAB
  0
TABLE
  2
VIEW
  5
6
330
0
100
AcDbSymbolTable
 70
     0
  0
ENDTAB
  0
TABLE
  2
UCS
  5
7
330
0
100
AcDbSymbolTable
 70
     0
  0
ENDTAB
  0
TABLE
  2
APPID
  5
9
330
0
100
AcDbSymbolTable
 70
     1
  0
APPID
  5
12
330
9
100
AcDbSymbolTableRecord
100
AcDbRegAppTableRecord
  2
ACAD
 70
     0
  0
ENDTAB
  0
TABLE
  2
DIMSTYLE
  5
A
330
0
100
AcDbSymbolTable
 70
     2
100
AcDbDimStyleTable
  0
DIMSTYLE
105
27
330
A
100
AcDbSymbolTableRecord
100
AcDbDimStyleTableRecord
  2
ISO-25
 70
     0
 41
2.5
 42
0.625
 43
3.75
 44
1.25
 73
     0
 74
     0
 77
     1
 78
     8
140
2.5
141
2.5
143
0.0393700787
147
0.625
171
     3
172
     1
271
     2
272
     2
274
     3
278
    44
283
     0
284
     8
340
11
  0
DIMSTYLE
105
14C
102
{ACAD_REACTORS
330
13E
330
159
330
16C
330
17F
330
195
330
1A9
330
1BD
330
1D1
330
1E5
330
1F9
330
20C
330
222
330
238
330
24F
330
263
330
45D
330
472
330
48A
330
49F
330
4B6
330
4CB
330
4E2
330
4F9
330
511
330
524
330
53A
330
54E
330
562
330
576
330
58A
102
}
330
A
100
AcDbSymbolTableRecord
100
AcDbDimStyleTableRecord
  2
SLDDIMSTYLE0
 70
     0
 41
3.0
 44
0.0
 73
     0
 74
     0
 77
     3
 78
    12
140
3.5
147
0.875
173
     1
271
     1
272
     3
284
    12
340
37
341
14D
343
14D
344
14D
  0
ENDTAB
  0
TABLE
  2
BLOCK_RECORD
  5
1
330
0
100
AcDbSymbolTable
 70
    42
  0
BLOCK_RECORD
  5
1F
330
1
100
AcDbSymbolTableRecord
100
AcDbBlockTableRecord
  2
*Model_Space
340
22
  0
BLOCK_RECORD
  5
1B
330
1
100
AcDbSymbolTableRecord
100
AcDbBlockTableRecord
  2
*Paper_Space
340
1E
  0
BLOCK_RECORD
  5
23
330
1
100
AcDbSymbolTableRecord
100
AcDbBlockTableRecord
  2
*Paper_Space0
340
26
  0
BLOCK_RECORD
  5
140
330
1
100
AcDbSymbolTableRecord
100
AcDbBlockTableRecord
  2
*D1
340
0
  0
BLOCK_RECORD
  5
14D
330
1
100
AcDbSymbolTableRecord
100
AcDbBlockTableRecord
  2
_Open30
340
0
102
{BLKREFS
331
145
331
144
331
153
331
154
331
15F
331
15E
331
166
331
167
331
172
331
171
331
179
331
17A
331
185
331
184
331
18D
331
18E
331
19B
331
19A
331
1A3
331
1A4
331
1AF
331
1AE
331
1B7
331
1B8
331
1C3
331
1C2
331
1CB
331
1CC
331
1D7
331
1D6
331
1DF
331
1E0
331
1EB
331
1EA
331
1F3
331
1F4
331
1FF
331
1FE
331
206
331
207
331
212
331
211
331
21A
331
21B
331
228
331
227
331
230
331
231
331
240
331
23F
331
247
331
248
331
255
331
254
331
25D
331
25E
331
269
331
268
331
270
331
271
331
463
331
462
331
46A
331
46B
331
479
331
478
331
482
331
483
331
490
331
48F
331
497
331
498
331
4A7
331
4A6
331
4AE
331
4AF
331
4BC
331
4BB
331
4C3
331
4C4
331
4D3
331
4D2
331
4DA
331
4DB
331
4EA
331
4E9
331
4F1
331
4F2
331
500
331
4FF
331
509
331
50A
331
517
331
516
331
51E
331
51F
331
52A
331
529
331
532
331
533
331
540
331
53F
331
548
331
549
331
554
331
553
331
55C
331
55D
331
568
331
567
331
570
331
571
331
57C
331
57B
331
584
331
585
331
590
331
58F
331
598
331
599
102
}
  0
BLOCK_RECORD
  5
15A
330
1
100
AcDbSymbolTableRecord
100
AcDbBlockTableRecord
  2
*D3
340
0
  0
BLOCK_RECORD
  5
16D
330
1
100
AcDbSymbolTableRecord
100
AcDbBlockTableRecord
  2
*D4
340
0
  0
BLOCK_RECORD
  5
180
330
1
100
AcDbSymbolTableRecord
100
AcDbBlockTableRecord
  2
*D5
340
0
  0
BLOCK_RECORD
  5
196
330
1
100
AcDbSymbolTableRecord
100
AcDbBlockTableRecord
  2
*D6
340
0
  0
BLOCK_RECORD
  5
1AA
330
1
100
AcDbSymbolTableRecord
100
AcDbBlockTableRecord
  2
*D7
340
0
  0
BLOCK_RECORD
  5
1BE
330
1
100
AcDbSymbolTableRecord
100
AcDbBlockTableRecord
  2
*D8
340
0
  0
BLOCK_RECORD
  5
1D2
330
1
100
AcDbSymbolTableRecord
100
AcDbBlockTableRecord
  2
*D9
340
0
  0
BLOCK_RECORD
  5
1E6
330
1
100
AcDbSymbolTableRecord
100
AcDbBlockTableRecord
  2
*D10
340
0
  0
BLOCK_RECORD
  5
1FA
330
1
100
AcDbSymbolTableRecord
100
AcDbBlockTableRecord
  2
*D11
340
0
  0
BLOCK_RECORD
  5
20D
330
1
100
AcDbSymbolTableRecord
100
AcDbBlockTableRecord
  2
*D12
340
0
  0
BLOCK_RECORD
  5
223
330
1
100
AcDbSymbolTableRecord
100
AcDbBlockTableRecord
  2
*D13
340
0
  0
BLOCK_RECORD
  5
239
330
1
100
AcDbSymbolTableRecord
100
AcDbBlockTableRecord
  2
*D14
340
0
  0
BLOCK_RECORD
  5
250
330
1
100
AcDbSymbolTableRecord
100
AcDbBlockTableRecord
  2
*D15
340
0
  0
BLOCK_RECORD
  5
264
330
1
100
AcDbSymbolTableRecord
100
AcDbBlockTableRecord
  2
*D16
340
0
  0
BLOCK_RECORD
  5
276
330
1
100
AcDbSymbolTableRecord
100
AcDbBlockTableRecord
  2
SW_CENTERMARKSYMBOL_0
340
0
102
{BLKREFS
331
281
102
}
  0
BLOCK_RECORD
  5
282
330
1
100
AcDbSymbolTableRecord
100
AcDbBlockTableRecord
  2
SW_CENTERMARKSYMBOL_1
340
0
102
{BLKREFS
331
28D
102
}
  0
BLOCK_RECORD
  5
28E
330
1
100
AcDbSymbolTableRecord
100
AcDbBlockTableRecord
  2
SW_CENTERMARKSYMBOL_2
340
0
102
{BLKREFS
331
299
102
}
  0
BLOCK_RECORD
  5
29A
330
1
100
AcDbSymbolTableRecord
100
AcDbBlockTableRecord
  2
SW_CENTERMARKSYMBOL_3
340
0
102
{BLKREFS
331
2A5
102
}
  0
BLOCK_RECORD
  5
2A6
330
1
100
AcDbSymbolTableRecord
100
AcDbBlockTableRecord
  2
SW_CENTERMARKSYMBOL_4
340
0
102
{BLKREFS
331
2B1
102
}
  0
BLOCK_RECORD
  5
2B2
330
1
100
AcDbSymbolTableRecord
100
AcDbBlockTableRecord
  2
SW_CENTERMARKSYMBOL_5
340
0
102
{BLKREFS
331
2BD
102
}
  0
BLOCK_RECORD
  5
2BE
330
1
100
AcDbSymbolTableRecord
100
AcDbBlockTableRecord
  2
SW_CENTERMARKSYMBOL_6
340
0
102
{BLKREFS
331
2C9
102
}
  0
BLOCK_RECORD
  5
2CA
330
1
100
AcDbSymbolTableRecord
100
AcDbBlockTableRecord
  2
SW_CENTERMARKSYMBOL_7
340
0
102
{BLKREFS
331
2D5
102
}
  0
BLOCK_RECORD
  5
2D6
330
1
100
AcDbSymbolTableRecord
100
AcDbBlockTableRecord
  2
SW_CENTERMARKSYMBOL_8
340
0
102
{BLKREFS
331
2E1
102
}
  0
BLOCK_RECORD
  5
45E
330
1
100
AcDbSymbolTableRecord
100
AcDbBlockTableRecord
  2
*D26
340
0
  0
BLOCK_RECORD
  5
473
330
1
100
AcDbSymbolTableRecord
100
AcDbBlockTableRecord
  2
*D27
340
0
  0
BLOCK_RECORD
  5
48B
330
1
100
AcDbSymbolTableRecord
100
AcDbBlockTableRecord
  2
*D28
340
0
  0
BLOCK_RECORD
  5
4A0
330
1
100
AcDbSymbolTableRecord
100
AcDbBlockTableRecord
  2
*D29
340
0
  0
BLOCK_RECORD
  5
4B7
330
1
100
AcDbSymbolTableRecord
100
AcDbBlockTableRecord
  2
*D30
340
0
  0
BLOCK_RECORD
  5
4CC
330
1
100
AcDbSymbolTableRecord
100
AcDbBlockTableRecord
  2
*D31
340
0
  0
BLOCK_RECORD
  5
4E3
330
1
100
AcDbSymbolTableRecord
100
AcDbBlockTableRecord
  2
*D32
340
0
  0
BLOCK_RECORD
  5
4FA
330
1
100
AcDbSymbolTableRecord
100
AcDbBlockTableRecord
  2
*D33
340
0
  0
BLOCK_RECORD
  5
512
330
1
100
AcDbSymbolTableRecord
100
AcDbBlockTableRecord
  2
*D34
340
0
  0
BLOCK_RECORD
  5
525
330
1
100
AcDbSymbolTableRecord
100
AcDbBlockTableRecord
  2
*D35
340
0
  0
BLOCK_RECORD
  5
53B
330
1
100
AcDbSymbolTableRecord
100
AcDbBlockTableRecord
  2
*D36
340
0
  0
BLOCK_RECORD
  5
54F
330
1
100
AcDbSymbolTableRecord
100
AcDbBlockTableRecord
  2
*D37
340
0
  0
BLOCK_RECORD
  5
563
330
1
100
AcDbSymbolTableRecord
100
AcDbBlockTableRecord
  2
*D38
340
0
  0
BLOCK_RECORD
  5
577
330
1
100
AcDbSymbolTableRecord
100
AcDbBlockTableRecord
  2
*D39
340
0
  0
BLOCK_RECORD
  5
58B
330
1
100
AcDbSymbolTableRecord
100
AcDbBlockTableRecord
  2
*D40
340
0
  0
BLOCK_RECORD
  5
59F
330
1
100
AcDbSymbolTableRecord
100
AcDbBlockTableRecord
  2
SW_CENTERMARKSYMBOL_9
340
0
102
{BLKREFS
331
5AA
102
}
  0
ENDTAB
  0
ENDSEC
  0
SECTION
  2
BLOCKS
  0
BLOCK
  5
20
330
1F
100
AcDbEntity
  8
0
100
AcDbBlockBegin
  2
*Model_Space
 70
     0
 71
     0
 10
0.0
 20
0.0
 30
0.0
  3
*Model_Space
  1

  0
ENDBLK
  5
21
330
1F
100
AcDbEntity
  8
0
100
AcDbBlockEnd
  0
BLOCK
  5
1C
330
1B
100
AcDbEntity
 67
     1
  8
0
100
AcDbBlockBegin
  2
*Paper_Space
 70
     0
 71
     0
 10
0.0
 20
0.0
 30
0.0
  3
*Paper_Space
  1

  0
ENDBLK
  5
1D
330
1B
100
AcDbEntity
 67
     1
  8
0
100
AcDbBlockEnd
  0
BLOCK
  5
24
330
23
100
AcDbEntity
  8
0
100
AcDbBlockBegin
  2
*Paper_Space0
 70
     0
 71
     0
 10
0.0
 20
0.0
 30
0.0
  3
*Paper_Space0
  1

  0
ENDBLK
  5
25
330
23
100
AcDbEntity
  8
0
100
AcDbBlockEnd
  0
BLOCK
  5
14A
330
140
100
AcDbEntity
  8
0
100
AcDbBlockBegin
  2
*D1
 70
     1
 71
     0
 10
0.0
 20
0.0
 30
0.0
  3
*D1
  1

  0
INSERT
  5
153
330
140
100
AcDbEntity
  8
0
  6
Continuous
 62
     7
370
     0
100
AcDbBlockReference
  2
_Open30
 10
125.1370362694
 20
250.2184138841
 30
-6.3000515398
 41
3.0
 42
3.0
 50
180.0
  0
INSERT
  5
154
330
140
100
AcDbEntity
  8
0
  6
Continuous
 62
     7
370
     0
100
AcDbBlockReference
  2
_Open30
 10
145.1370362694
 20
250.2184138841
 30
-6.3000515398
 41
3.0
 42
3.0
 50
0.0
  0
LINE
  5
155
330
140
100
AcDbEntity
  8
0
  6
Continuous
 62
     7
370
     0
100
AcDbLine
 10
125.1370362694
 20
235.1764455959
 30
0.0
 11
125.1370362694
 21
251.2184138841
 31
0.0
  0
LINE
  5
156
330
140
100
AcDbEntity
  8
0
  6
Continuous
 62
     7
370
     0
100
AcDbLine
 10
145.1370362694
 20
234.6264455959
 30
0.0
 11
145.1370362694
 21
251.2184138841
 31
0.0
  0
LINE
  5
157
330
140
100
AcDbEntity
  8
0
  6
Continuous
 62
     7
370
     0
100
AcDbLine
 10
125.1370362694
 20
250.2184138841
 30
0.0
 11
145.1370362694
 21
250.2184138841
 31
0.0
  0
MTEXT
  5
158
330
140
100
AcDbEntity
  8
0
  6
Continuous
 62
     7
370
     0
100
AcDbMText
 10
133.1012166839
 20
254.291140924
 30
0.0
 40
3.5
 41
0.0
 71
     1
 72
     1
  1
20
  7
SLDTEXTSTYLE0
 73
     1
 44
1.0
  0
ENDBLK
  5
14B
330
140
100
AcDbEntity
  8
0
100
AcDbBlockEnd
  0
BLOCK
  5
14E
330
14D
100
AcDbEntity
  8
0
100
AcDbBlockBegin
  2
_Open30
 70
     0
 71
     0
 10
0.0
 20
0.0
 30
0.0
  3
_Open30
  1

  0
LINE
  5
150
330
14D
100
AcDbEntity
  8
0
  6
ByBlock
 62
     0
370
    -2
100
AcDbLine
 10
-1.0
 20
0.267949
 30
0.0
 11
0.0
 21
0.0
 31
0.0
  0
LINE
  5
151
330
14D
100
AcDbEntity
  8
0
  6
ByBlock
 62
     0
370
    -2
100
AcDbLine
 10
0.0
 20
0.0
 30
0.0
 11
-1.0
 21
-0.267949
 31
0.0
  0
LINE
  5
152
330
14D
100
AcDbEntity
  8
0
  6
ByBlock
 62
     0
370
    -2
100
AcDbLine
 10
0.0
 20
0.0
 30
0.0
 11
-1.0
 21
0.0
 31
0.0
  0
ENDBLK
  5
14F
330
14D
100
AcDbEntity
  8
0
100
AcDbBlockEnd
  0
BLOCK
  5
164
330
15A
100
AcDbEntity
  8
0
100
AcDbBlockBegin
  2
*D3
 70
     1
 71
     0
 10
0.0
 20
0.0
 30
0.0
  3
*D3
  1

  0
INSERT
  5
166
330
15A
100
AcDbEntity
  8
0
  6
Continuous
 62
     7
370
     0
100
AcDbBlockReference
  2
_Open30
 10
120.1370362694
 20
255.9269557339
 30
-6.3000515398
 41
3.0
 42
3.0
 50
180.0
  0
INSERT
  5
167
330
15A
100
AcDbEntity
  8
0
  6
Continuous
 62
     7
370
     0
100
AcDbBlockReference
  2
_Open30
 10
150.1370362694
 20
255.9269557339
 30
-6.3000515398
 41
3.0
 42
3.0
 50
0.0
  0
LINE
  5
168
330
15A
100
AcDbEntity
  8
0
  6
Continuous
 62
     7
370
     0
100
AcDbLine
 10
120.1370362694
 20
220.9264455959
 30
0.0
 11
120.1370362694
 21
256.9269557339
 31
0.0
  0
LINE
  5
169
330
15A
100
AcDbEntity
  8
0
  6
Continuous
 62
     7
370
     0
100
AcDbLine
 10
150.1370362694
 20
220.9264455959
 30
0.0
 11
150.1370362694
 21
256.9269557339
 31
0.0
  0
LINE
  5
16A
330
15A
100
AcDbEntity
  8
0
  6
Continuous
 62
     7
370
     0
100
AcDbLine
 10
120.1370362694
 20
255.9269557339
 30
0.0
 11
150.1370362694
 21
255.9269557339
 31
0.0
  0
MTEXT
  5
16B
330
15A
100
AcDbEntity
  8
0
  6
Continuous
 62
     7
370
     0
100
AcDbMText
 10
133.1012166839
 20
259.9996827738
 30
0.0
 40
3.5
 41
0.0
 71
     1
 72
     1
  1
30
  7
SLDTEXTSTYLE0
 73
     1
 44
1.0
  0
ENDBLK
  5
165
330
15A
100
AcDbEntity
  8
0
100
AcDbBlockEnd
  0
BLOCK
  5
177
330
16D
100
AcDbEntity
  8
0
100
AcDbBlockBegin
  2
*D4
 70
     1
 71
     0
 10
0.0
 20
0.0
 30
0.0
  3
*D4
  1

  0
INSERT
  5
179
330
16D
100
AcDbEntity
  8
0
  6
Continuous
 62
     7
370
     0
100
AcDbBlockReference
  2
_Open30
 10
125.1370362694
 20
138.0455665363
 30
-6.3000515398
 41
3.0
 42
3.0
 50
180.0
  0
INSERT
  5
17A
330
16D
100
AcDbEntity
  8
0
  6
Continuous
 62
     7
370
     0
100
AcDbBlockReference
  2
_Open30
 10
145.1370362694
 20
138.0455665363
 30
-6.3000515398
 41
3.0
 42
3.0
 50
0.0
  0
LINE
  5
17B
330
16D
100
AcDbEntity
  8
0
  6
Continuous
 62
     7
370
     0
100
AcDbLine
 10
125.1370362694
 20
155.4264455959
 30
0.0
 11
125.1370362694
 21
137.0455665363
 31
0.0
  0
LINE
  5
17C
330
16D
100
AcDbEntity
  8
0
  6
Continuous
 62
     7
370
     0
100
AcDbLine
 10
145.1370362694
 20
155.4264455959
 30
0.0
 11
145.1370362694
 21
137.0455665363
 31
0.0
  0
LINE
  5
17D
330
16D
100
AcDbEntity
  8
0
  6
Continuous
 62
     7
370
     0
100
AcDbLine
 10
125.1370362694
 20
138.0455665363
 30
0.0
 11
145.1370362694
 21
138.0455665363
 31
0.0
  0
MTEXT
  5
17E
330
16D
100
AcDbEntity
  8
0
  6
Continuous
 62
     7
370
     0
100
AcDbMText
 10
133.1012166839
 20
142.1182935762
 30
0.0
 40
3.5
 41
0.0
 71
     1
 72
     1
  1
20
  7
SLDTEXTSTYLE0
 73
     1
 44
1.0
  0
ENDBLK
  5
178
330
16D
100
AcDbEntity
  8
0
100
AcDbBlockEnd
  0
BLOCK
  5
18B
330
180
100
AcDbEntity
  8
0
100
AcDbBlockBegin
  2
*D5
 70
     1
 71
     0
 10
0.0
 20
0.0
 30
0.0
  3
*D5
  1

  0
INSERT
  5
18D
330
180
100
AcDbEntity
  8
0
  6
Continuous
 62
     7
370
     0
100
AcDbBlockReference
  2
_Open30
 10
171.2804897102
 20
228.1764455959
 30
-6.3000515398
 41
3.0
 42
3.0
 50
270.0
  0
INSERT
  5
18E
330
180
100
AcDbEntity
  8
0
  6
Continuous
 62
     7
370
     0
100
AcDbBlockReference
  2
_Open30
 10
171.2804897102
 20
216.1764455959
 30
-6.3000515398
 41
3.0
 42
3.0
 50
90.0
  0
LINE
  5
18F
330
180
100
AcDbEntity
  8
0
  6
Continuous
 62
     7
370
     0
100
AcDbLine
 10
151.5870362694
 20
228.1764455959
 30
0.0
 11
172.2804897102
 21
228.1764455959
 31
0.0
  0
LINE
  5
190
330
180
100
AcDbEntity
  8
0
  6
Continuous
 62
     7
370
     0
100
AcDbLine
 10
154.8870362694
 20
216.1764455959
 30
0.0
 11
172.2804897102
 21
216.1764455959
 31
0.0
  0
LINE
  5
191
330
180
100
AcDbEntity
  8
0
  6
Continuous
 62
     7
370
     0
100
AcDbLine
 10
171.2804897102
 20
228.1764455959
 30
0.0
 11
171.2804897102
 21
233.1764455959
 31
0.0
  0
LINE
  5
192
330
180
100
AcDbEntity
  8
0
  6
Continuous
 62
     7
370
     0
100
AcDbLine
 10
171.2804897102
 20
228.1764455959
 30
0.0
 11
171.2804897102
 21
216.1764455959
 31
0.0
  0
LINE
  5
193
330
180
100
AcDbEntity
  8
0
  6
Continuous
 62
     7
370
     0
100
AcDbLine
 10
171.2804897102
 20
216.1764455959
 30
0.0
 11
171.2804897102
 21
211.1764455959
 31
0.0
  0
MTEXT
  5
194
330
180
100
AcDbEntity
  8
0
  6
Continuous
 62
     7
370
     0
100
AcDbMText
 10
167.2077626703
 20
220.1406260104
 30
0.0
 40
3.5
 41
0.0
 71
     1
 72
     1
  1
12
  7
SLDTEXTSTYLE0
 11
-9.708732299010259E-15
 21
1.0
 31
0.0
 73
     1
 44
1.0
  0
ENDBLK
  5
18C
330
180
100
AcDbEntity
  8
0
100
AcDbBlockEnd
  0
BLOCK
  5
1A1
330
196
100
AcDbEntity
  8
0
100
AcDbBlockBegin
  2
*D6
 70
     1
 71
     0
 10
0.0
 20
0.0
 30
0.0
  3
*D6
  1

  0
INSERT
  5
1A3
330
196
100
AcDbEntity
  8
0
  6
Continuous
 62
     7
370
     0
100
AcDbBlockReference
  2
_Open30
 10
171.2804897102
 20
186.6764455959
 30
-6.3000515398
 41
3.0
 42
3.0
 50
270.0
  0
INSERT
  5
1A4
330
196
100
AcDbEntity
  8
0
  6
Continuous
 62
     7
370
     0
100
AcDbBlockReference
  2
_Open30
 10
171.2804897102
 20
216.1764455959
 30
-6.3000515398
 41
3.0
 42
3.0
 50
90.0
  0
LINE
  5
1A5
330
196
100
AcDbEntity
  8
0
  6
Continuous
 62
     7
370
     0
100
AcDbLine
 10
152.1370362694
 20
186.6764455959
 30
0.0
 11
172.2804897102
 21
186.6764455959
 31
0.0
  0
LINE
  5
1A6
330
196
100
AcDbEntity
  8
0
  6
Continuous
 62
     7
370
     0
100
AcDbLine
 10
154.8870362694
 20
216.1764455959
 30
0.0
 11
172.2804897102
 21
216.1764455959
 31
0.0
  0
LINE
  5
1A7
330
196
100
AcDbEntity
  8
0
  6
Continuous
 62
     7
370
     0
100
AcDbLine
 10
171.2804897102
 20
186.6764455959
 30
0.0
 11
171.2804897102
 21
216.1764455959
 31
0.0
  0
MTEXT
  5
1A8
330
196
100
AcDbEntity
  8
0
  6
Continuous
 62
     7
370
     0
100
AcDbMText
 10
167.2077626703
 20
197.3532367876
 30
0.0
 40
3.5
 41
0.0
 71
     1
 72
     1
  1
29.5
  7
SLDTEXTSTYLE0
 11
-3.491483361109382E-15
 21
1.0
 31
0.0
 73
     1
 44
1.0
  0
ENDBLK
  5
1A2
330
196
100
AcDbEntity
  8
0
100
AcDbBlockEnd
  0
BLOCK
  5
1B5
330
1AA
100
AcDbEntity
  8
0
100
AcDbBlockBegin
  2
*D7
 70
     1
 71
     0
 10
0.0
 20
0.0
 30
0.0
  3
*D7
  1

  0
INSERT
  5
1B7
330
1AA
100
AcDbEntity
  8
0
  6
Continuous
 62
     7
370
     0
100
AcDbBlockReference
  2
_Open30
 10
171.2804897102
 20
186.6764455959
 30
-6.3000515398
 41
3.0
 42
3.0
 50
90.0
  0
INSERT
  5
1B8
330
1AA
100
AcDbEntity
  8
0
  6
Continuous
 62
     7
370
     0
100
AcDbBlockReference
  2
_Open30
 10
171.2804897102
 20
161.1764455959
 30
-6.3000515398
 41
3.0
 42
3.0
 50
270.0
  0
LINE
  5
1B9
330
1AA
100
AcDbEntity
  8
0
  6
Continuous
 62
     7
370
     0
100
AcDbLine
 10
152.1370362694
 20
186.6764455959
 30
0.0
 11
172.2804897102
 21
186.6764455959
 31
0.0
  0
LINE
  5
1BA
330
1AA
100
AcDbEntity
  8
0
  6
Continuous
 62
     7
370
     0
100
AcDbLine
 10
150.8870362694
 20
161.1764455959
 30
0.0
 11
172.2804897102
 21
161.1764455959
 31
0.0
  0
LINE
  5
1BB
330
1AA
100
AcDbEntity
  8
0
  6
Continuous
 62
     7
370
     0
100
AcDbLine
 10
171.2804897102
 20
186.6764455959
 30
0.0
 11
171.2804897102
 21
161.1764455959
 31
0.0
  0
MTEXT
  5
1BC
330
1AA
100
AcDbEntity
  8
0
  6
Continuous
 62
     7
370
     0
100
AcDbMText
 10
167.2077626703
 20
169.8532367876
 30
0.0
 40
3.5
 41
0.0
 71
     1
 72
     1
  1
25.5
  7
SLDTEXTSTYLE0
 11
-1.059691071871038E-14
 21
1.0
 31
0.0
 73
     1
 44
1.0
  0
ENDBLK
  5
1B6
330
1AA
100
AcDbEntity
  8
0
100
AcDbBlockEnd
  0
BLOCK
  5
1C9
330
1BE
100
AcDbEntity
  8
0
100
AcDbBlockBegin
  2
*D8
 70
     1
 71
     0
 10
0.0
 20
0.0
 30
0.0
  3
*D8
  1

  0
INSERT
  5
1CB
330
1BE
100
AcDbEntity
  8
0
  6
Continuous
 62
     7
370
     0
100
AcDbBlockReference
  2
_Open30
 10
178.5930951876
 20
235.1764455959
 30
-6.3000515398
 41
3.0
 42
3.0
 50
90.0
  0
INSERT
  5
1CC
330
1BE
100
AcDbEntity
  8
0
  6
Continuous
 62
     7
370
     0
100
AcDbBlockReference
  2
_Open30
 10
178.5930951876
 20
216.1764455959
 30
-6.3000515398
 41
3.0
 42
3.0
 50
270.0
  0
LINE
  5
1CD
330
1BE
100
AcDbEntity
  8
0
  6
Continuous
 62
     7
370
     0
100
AcDbLine
 10
153.1370362694
 20
235.1764455959
 30
0.0
 11
179.5930951876
 21
235.1764455959
 31
0.0
  0
LINE
  5
1CE
330
1BE
100
AcDbEntity
  8
0
  6
Continuous
 62
     7
370
     0
100
AcDbLine
 10
154.8870362694
 20
216.1764455959
 30
0.0
 11
179.5930951876
 21
216.1764455959
 31
0.0
  0
LINE
  5
1CF
330
1BE
100
AcDbEntity
  8
0
  6
Continuous
 62
     7
370
     0
100
AcDbLine
 10
178.5930951876
 20
235.1764455959
 30
0.0
 11
178.5930951876
 21
216.1764455959
 31
0.0
  0
MTEXT
  5
1D0
330
1BE
100
AcDbEntity
  8
0
  6
Continuous
 62
     7
370
     0
100
AcDbMText
 10
174.5203681477
 20
223.6406260104
 30
0.0
 40
3.5
 41
0.0
 71
     1
 72
     1
  1
19
  7
SLDTEXTSTYLE0
 11
-1.414962439751089E-14
 21
1.0
 31
0.0
 73
     1
 44
1.0
  0
ENDBLK
  5
1CA
330
1BE
100
AcDbEntity
  8
0
100
AcDbBlockEnd
  0
BLOCK
  5
1DD
330
1D2
100
AcDbEntity
  8
0
100
AcDbBlockBegin
  2
*D9
 70
     1
 71
     0
 10
0.0
 20
0.0
 30
0.0
  3
*D9
  1

  0
INSERT
  5
1DF
330
1D2
100
AcDbEntity
  8
0
  6
Continuous
 62
     7
370
     0
100
AcDbBlockReference
  2
_Open30
 10
178.4305928437
 20
216.1764455959
 30
-6.3000515398
 41
3.0
 42
3.0
 50
90.0
  0
INSERT
  5
1E0
330
1D2
100
AcDbEntity
  8
0
  6
Continuous
 62
     7
370
     0
100
AcDbBlockReference
  2
_Open30
 10
178.4305928437
 20
161.1764455959
 30
-6.3000515398
 41
3.0
 42
3.0
 50
270.0
  0
LINE
  5
1E1
330
1D2
100
AcDbEntity
  8
0
  6
Continuous
 62
     7
370
     0
100
AcDbLine
 10
154.8870362694
 20
216.1764455959
 30
0.0
 11
179.4305928437
 21
216.1764455959
 31
0.0
  0
LINE
  5
1E2
330
1D2
100
AcDbEntity
  8
0
  6
Continuous
 62
     7
370
     0
100
AcDbLine
 10
150.8870362694
 20
161.1764455959
 30
0.0
 11
179.4305928437
 21
161.1764455959
 31
0.0
  0
LINE
  5
1E3
330
1D2
100
AcDbEntity
  8
0
  6
Continuous
 62
     7
370
     0
100
AcDbLine
 10
178.4305928437
 20
216.1764455959
 30
0.0
 11
178.4305928437
 21
161.1764455959
 31
0.0
  0
MTEXT
  5
1E4
330
1D2
100
AcDbEntity
  8
0
  6
Continuous
 62
     7
370
     0
100
AcDbMText
 10
174.3578658038
 20
186.6406260104
 30
0.0
 40
3.5
 41
0.0
 71
     1
 72
     1
  1
55
  7
SLDTEXTSTYLE0
 11
-1.148508913841051E-14
 21
1.0
 31
0.0
 73
     1
 44
1.0
  0
ENDBLK
  5
1DE
330
1D2
100
AcDbEntity
  8
0
100
AcDbBlockEnd
  0
BLOCK
  5
1F1
330
1E6
100
AcDbEntity
  8
0
100
AcDbBlockBegin
  2
*D10
 70
     1
 71
     0
 10
0.0
 20
0.0
 30
0.0
  3
*D10
  1

  0
INSERT
  5
1F3
330
1E6
100
AcDbEntity
  8
0
  6
Continuous
 62
     7
370
     0
100
AcDbBlockReference
  2
_Open30
 10
184.4431795695
 20
235.1764455959
 30
-6.3000515398
 41
3.0
 42
3.0
 50
90.0
  0
INSERT
  5
1F4
330
1E6
100
AcDbEntity
  8
0
  6
Continuous
 62
     7
370
     0
100
AcDbBlockReference
  2
_Open30
 10
184.4431795695
 20
153.1764455959
 30
-6.3000515398
 41
3.0
 42
3.0
 50
270.0
  0
LINE
  5
1F5
330
1E6
100
AcDbEntity
  8
0
  6
Continuous
 62
     7
370
     0
100
AcDbLine
 10
153.1370362694
 20
235.1764455959
 30
0.0
 11
185.4431795695
 21
235.1764455959
 31
0.0
  0
LINE
  5
1F6
330
1E6
100
AcDbEntity
  8
0
  6
Continuous
 62
     7
370
     0
100
AcDbLine
 10
149.1370362694
 20
153.1764455959
 30
0.0
 11
185.4431795695
 21
153.1764455959
 31
0.0
  0
LINE
  5
1F7
330
1E6
100
AcDbEntity
  8
0
  6
Continuous
 62
     7
370
     0
100
AcDbLine
 10
184.4431795695
 20
235.1764455959
 30
0.0
 11
184.4431795695
 21
153.1764455959
 31
0.0
  0
MTEXT
  5
1F8
330
1E6
100
AcDbEntity
  8
0
  6
Continuous
 62
     7
370
     0
100
AcDbMText
 10
180.3704525296
 20
192.1406260104
 30
0.0
 40
3.5
 41
0.0
 71
     1
 72
     1
  1
82
  7
SLDTEXTSTYLE0
 11
-1.414962439751089E-14
 21
1.0
 31
0.0
 73
     1
 44
1.0
  0
ENDBLK
  5
1F2
330
1E6
100
AcDbEntity
  8
0
100
AcDbBlockEnd
  0
BLOCK
  5
204
330
1FA
100
AcDbEntity
  8
0
100
AcDbBlockBegin
  2
*D11
 70
     1
 71
     0
 10
0.0
 20
0.0
 30
0.0
  3
*D11
  1

  0
INSERT
  5
206
330
1FA
100
AcDbEntity
  8
0
  6
Continuous
 62
     7
370
     0
100
AcDbBlockReference
  2
_Open30
 10
116.1370362694
 20
261.4895354105
 30
-6.3000515398
 41
3.0
 42
3.0
 50
180.0
  0
INSERT
  5
207
330
1FA
100
AcDbEntity
  8
0
  6
Continuous
 62
     7
370
     0
100
AcDbBlockReference
  2
_Open30
 10
154.1370362694
 20
261.4895354105
 30
-6.3000515398
 41
3.0
 42
3.0
 50
0.0
  0
LINE
  5
208
330
1FA
100
AcDbEntity
  8
0
  6
Continuous
 62
     7
370
     0
100
AcDbLine
 10
116.1370362694
 20
234.1764455959
 30
0.0
 11
116.1370362694
 21
262.4895354105
 31
0.0
  0
LINE
  5
209
330
1FA
100
AcDbEntity
  8
0
  6
Continuous
 62
     7
370
     0
100
AcDbLine
 10
154.1370362694
 20
234.1764455959
 30
0.0
 11
154.1370362694
 21
262.4895354105
 31
0.0
  0
LINE
  5
20A
330
1FA
100
AcDbEntity
  8
0
  6
Continuous
 62
     7
370
     0
100
AcDbLine
 10
116.1370362694
 20
261.4895354105
 30
0.0
 11
154.1370362694
 21
261.4895354105
 31
0.0
  0
MTEXT
  5
20B
330
1FA
100
AcDbEntity
  8
0
  6
Continuous
 62
     7
370
     0
100
AcDbMText
 10
133.1012166839
 20
265.5622624504
 30
0.0
 40
3.5
 41
0.0
 71
     1
 72
     1
  1
38
  7
SLDTEXTSTYLE0
 73
     1
 44
1.0
  0
ENDBLK
  5
205
330
1FA
100
AcDbEntity
  8
0
100
AcDbBlockEnd
  0
BLOCK
  5
218
330
20D
100
AcDbEntity
  8
0
100
AcDbBlockBegin
  2
*D12
 70
     1
 71
     0
 10
0.0
 20
0.0
 30
0.0
  3
*D12
  1

  0
INSERT
  5
21A
330
20D
100
AcDbEntity
  8
0
  6
Continuous
 62
     7
370
     0
100
AcDbBlockReference
  2
_Open30
 10
110.6671154198
 20
233.1764455959
 30
-6.3000515398
 41
3.0
 42
3.0
 50
270.0
  0
INSERT
  5
21B
330
20D
100
AcDbEntity
  8
0
  6
Continuous
 62
     7
370
     0
100
AcDbBlockReference
  2
_Open30
 10
110.6671154198
 20
221.1764455959
 30
-6.3000515398
 41
3.0
 42
3.0
 50
90.0
  0
LINE
  5
21C
330
20D
100
AcDbEntity
  8
0
  6
Continuous
 62
     7
370
     0
100
AcDbLine
 10
120.1370362694
 20
233.1764455959
 30
0.0
 11
109.6671154198
 21
233.1764455959
 31
0.0
  0
LINE
  5
21D
330
20D
100
AcDbEntity
  8
0
  6
Continuous
 62
     7
370
     0
100
AcDbLine
 10
120.1370362694
 20
221.1764455959
 30
0.0
 11
109.6671154198
 21
221.1764455959
 31
0.0
  0
LINE
  5
21E
330
20D
100
AcDbEntity
  8
0
  6
Continuous
 62
     7
370
     0
100
AcDbLine
 10
110.6671154198
 20
233.1764455959
 30
0.0
 11
110.6671154198
 21
238.1764455959
 31
0.0
  0
LINE
  5
21F
330
20D
100
AcDbEntity
  8
0
  6
Continuous
 62
     7
370
     0
100
AcDbLine
 10
110.6671154198
 20
233.1764455959
 30
0.0
 11
110.6671154198
 21
221.1764455959
 31
0.0
  0
LINE
  5
220
330
20D
100
AcDbEntity
  8
0
  6
Continuous
 62
     7
370
     0
100
AcDbLine
 10
110.6671154198
 20
221.1764455959
 30
0.0
 11
110.6671154198
 21
216.1764455959
 31
0.0
  0
MTEXT
  5
221
330
20D
100
AcDbEntity
  8
0
  6
Continuous
 62
     7
370
     0
100
AcDbMText
 10
106.5943883799
 20
225.1406260104
 30
0.0
 40
3.5
 41
0.0
 71
     1
 72
     1
  1
12
  7
SLDTEXTSTYLE0
 11
-1.414962439751089E-14
 21
1.0
 31
0.0
 73
     1
 44
1.0
  0
ENDBLK
  5
219
330
20D
100
AcDbEntity
  8
0
100
AcDbBlockEnd
  0
BLOCK
  5
22E
330
223
100
AcDbEntity
  8
0
100
AcDbBlockBegin
  2
*D13
 70
     1
 71
     0
 10
0.0
 20
0.0
 30
0.0
  3
*D13
  1

  0
INSERT
  5
230
330
223
100
AcDbEntity
  8
0
  6
Continuous
 62
     7
370
     0
100
AcDbBlockReference
  2
_Open30
 10
110.6671154198
 20
221.1764455959
 30
-6.3000515398
 41
3.0
 42
3.0
 50
270.0
  0
INSERT
  5
231
330
223
100
AcDbEntity
  8
0
  6
Continuous
 62
     7
370
     0
100
AcDbBlockReference
  2
_Open30
 10
110.6671154198
 20
210.6764455959
 30
-6.3000515398
 41
3.0
 42
3.0
 50
90.0
  0
LINE
  5
232
330
223
100
AcDbEntity
  8
0
  6
Continuous
 62
     7
370
     0
100
AcDbLine
 10
120.1370362694
 20
221.1764455959
 30
0.0
 11
109.6671154198
 21
221.1764455959
 31
0.0
  0
LINE
  5
233
330
223
100
AcDbEntity
  8
0
  6
Continuous
 62
     7
370
     0
100
AcDbLine
 10
124.1370362694
 20
210.6764455959
 30
0.0
 11
109.6671154198
 21
210.6764455959
 31
0.0
  0
LINE
  5
234
330
223
100
AcDbEntity
  8
0
  6
Continuous
 62
     7
370
     0
100
AcDbLine
 10
110.6671154198
 20
221.1764455959
 30
0.0
 11
110.6671154198
 21
226.1764455959
 31
0.0
  0
LINE
  5
235
330
223
100
AcDbEntity
  8
0
  6
Continuous
 62
     7
370
     0
100
AcDbLine
 10
110.6671154198
 20
221.1764455959
 30
0.0
 11
110.6671154198
 21
210.6764455959
 31
0.0
  0
LINE
  5
236
330
223
100
AcDbEntity
  8
0
  6
Continuous
 62
     7
370
     0
100
AcDbLine
 10
110.6671154198
 20
210.6764455959
 30
0.0
 11
110.6671154198
 21
205.6764455959
 31
0.0
  0
MTEXT
  5
237
330
223
100
AcDbEntity
  8
0
  6
Continuous
 62
     7
370
     0
100
AcDbMText
 10
106.5943883799
 20
211.8532367876
 30
0.0
 40
3.5
 41
0.0
 71
     1
 72
     1
  1
10.5
  7
SLDTEXTSTYLE0
 11
-1.414962439751089E-14
 21
1.0
 31
0.0
 73
     1
 44
1.0
  0
ENDBLK
  5
22F
330
223
100
AcDbEntity
  8
0
100
AcDbBlockEnd
  0
BLOCK
  5
244
330
239
100
AcDbEntity
  8
0
100
AcDbBlockBegin
  2
*D14
 70
     1
 71
     0
 10
0.0
 20
0.0
 30
0.0
  3
*D14
  1

  0
INSERT
  5
247
330
239
100
AcDbEntity
  8
0
  6
Continuous
 62
     7
370
     0
100
AcDbBlockReference
  2
_Open30
 10
110.6671154198
 20
203.6764455959
 30
-6.3000515398
 41
3.0
 42
3.0
 50
90.0
  0
INSERT
  5
248
330
239
100
AcDbEntity
  8
0
  6
Continuous
 62
     7
370
     0
100
AcDbBlockReference
  2
_Open30
 10
110.6671154198
 20
210.6764455959
 30
-6.3000515398
 41
3.0
 42
3.0
 50
270.0
  0
LINE
  5
249
330
239
100
AcDbEntity
  8
0
  6
Continuous
 62
     7
370
     0
100
AcDbLine
 10
124.1370362694
 20
203.6764455959
 30
0.0
 11
109.6671154198
 21
203.6764455959
 31
0.0
  0
LINE
  5
24A
330
239
100
AcDbEntity
  8
0
  6
Continuous
 62
     7
370
     0
100
AcDbLine
 10
124.1370362694
 20
210.6764455959
 30
0.0
 11
109.6671154198
 21
210.6764455959
 31
0.0
  0
LINE
  5
24B
330
239
100
AcDbEntity
  8
0
  6
Continuous
 62
     7
370
     0
100
AcDbLine
 10
110.6671154198
 20
203.6764455959
 30
0.0
 11
110.6671154198
 21
198.6764455959
 31
0.0
  0
LINE
  5
24C
330
239
100
AcDbEntity
  8
0
  6
Continuous
 62
     7
370
     0
100
AcDbLine
 10
110.6671154198
 20
203.6764455959
 30
0.0
 11
110.6671154198
 21
210.6764455959
 31
0.0
  0
LINE
  5
24D
330
239
100
AcDbEntity
  8
0
  6
Continuous
 62
     7
370
     0
100
AcDbLine
 10
110.6671154198
 20
210.6764455959
 30
0.0
 11
110.6671154198
 21
215.6764455959
 31
0.0
  0
MTEXT
  5
24E
330
239
100
AcDbEntity
  8
0
  6
Continuous
 62
     7
370
     0
100
AcDbMText
 10
106.5943883799
 20
206.1593206218
 30
0.0
 40
3.5
 41
0.0
 71
     1
 72
     1
  1
7
  7
SLDTEXTSTYLE0
 11
-8.820553879310134E-15
 21
1.0
 31
0.0
 73
     1
 44
1.0
  0
ENDBLK
  5
245
330
239
100
AcDbEntity
  8
0
100
AcDbBlockEnd
  0
BLOCK
  5
25B
330
250
100
AcDbEntity
  8
0
100
AcDbBlockBegin
  2
*D15
 70
     1
 71
     0
 10
0.0
 20
0.0
 30
0.0
  3
*D15
  1

  0
INSERT
  5
25D
330
250
100
AcDbEntity
  8
0
  6
Continuous
 62
     7
370
     0
100
AcDbBlockReference
  2
_Open30
 10
110.6671154198
 20
203.6764455959
 30
-6.3000515398
 41
3.0
 42
3.0
 50
90.0
  0
INSERT
  5
25E
330
250
100
AcDbEntity
  8
0
  6
Continuous
 62
     7
370
     0
100
AcDbBlockReference
  2
_Open30
 10
110.6671154198
 20
171.4764455959
 30
-6.3000515398
 41
3.0
 42
3.0
 50
270.0
  0
LINE
  5
25F
330
250
100
AcDbEntity
  8
0
  6
Continuous
 62
     7
370
     0
100
AcDbLine
 10
124.1370362694
 20
203.6764455959
 30
0.0
 11
109.6671154198
 21
203.6764455959
 31
0.0
  0
LINE
  5
260
330
250
100
AcDbEntity
  8
0
  6
Continuous
 62
     7
370
     0
100
AcDbLine
 10
127.6370362694
 20
171.4764455959
 30
0.0
 11
109.6671154198
 21
171.4764455959
 31
0.0
  0
LINE
  5
261
330
250
100
AcDbEntity
  8
0
  6
Continuous
 62
     7
370
     0
100
AcDbLine
 10
110.6671154198
 20
203.6764455959
 30
0.0
 11
110.6671154198
 21
171.4764455959
 31
0.0
  0
MTEXT
  5
262
330
250
100
AcDbEntity
  8
0
  6
Continuous
 62
     7
370
     0
100
AcDbMText
 10
106.59438838
 20
183.5032367876
 30
0.0
 40
3.5
 41
0.0
 71
     1
 72
     1
  1
32.2
  7
SLDTEXTSTYLE0
 11
-1.011911095281232E-13
 21
1.0
 31
0.0
 73
     1
 44
1.0
  0
ENDBLK
  5
25C
330
250
100
AcDbEntity
  8
0
100
AcDbBlockEnd
  0
BLOCK
  5
26E
330
264
100
AcDbEntity
  8
0
100
AcDbBlockBegin
  2
*D16
 70
     1
 71
     0
 10
0.0
 20
0.0
 30
0.0
  3
*D16
  1

  0
INSERT
  5
270
330
264
100
AcDbEntity
  8
0
  6
Continuous
 62
     7
370
     0
100
AcDbBlockReference
  2
_Open30
 10
120.1370362694
 20
130.8376508811
 30
-6.3000515398
 41
3.0
 42
3.0
 50
180.0
  0
INSERT
  5
271
330
264
100
AcDbEntity
  8
0
  6
Continuous
 62
     7
370
     0
100
AcDbBlockReference
  2
_Open30
 10
150.1370362694
 20
130.8376508811
 30
-6.3000515398
 41
3.0
 42
3.0
 50
0.0
  0
LINE
  5
272
330
264
100
AcDbEntity
  8
0
  6
Continuous
 62
     7
370
     0
100
AcDbLine
 10
120.1370362694
 20
154.1764455959
 30
0.0
 11
120.1370362694
 21
129.8376508811
 31
0.0
  0
LINE
  5
273
330
264
100
AcDbEntity
  8
0
  6
Continuous
 62
     7
370
     0
100
AcDbLine
 10
150.1370362694
 20
154.1764455959
 30
0.0
 11
150.1370362694
 21
129.8376508811
 31
0.0
  0
LINE
  5
274
330
264
100
AcDbEntity
  8
0
  6
Continuous
 62
     7
370
     0
100
AcDbLine
 10
120.1370362694
 20
130.8376508811
 30
0.0
 11
150.1370362694
 21
130.8376508811
 31
0.0
  0
MTEXT
  5
275
330
264
100
AcDbEntity
  8
0
  6
Continuous
 62
     7
370
     0
100
AcDbMText
 10
133.1012166839
 20
134.910377921
 30
0.0
 40
3.5
 41
0.0
 71
     1
 72
     1
  1
30
  7
SLDTEXTSTYLE0
 73
     1
 44
1.0
  0
ENDBLK
  5
26F
330
264
100
AcDbEntity
  8
0
100
AcDbBlockEnd
  0
BLOCK
  5
277
330
276
100
AcDbEntity
  8
0
100
AcDbBlockBegin
  2
SW_CENTERMARKSYMBOL_0
 70
     0
 71
     0
 10
0.0
 20
0.0
 30
0.0
  3
SW_CENTERMARKSYMBOL_0
  1

  0
LINE
  5
279
330
276
100
AcDbEntity
  8
0
  6
Continuous
 62
     7
370
     0
100
AcDbLine
 10
0.0
 20
0.0
 30
0.0
 11
-2.5
 21
0.0
 31
0.0
  0
LINE
  5
27A
330
276
100
AcDbEntity
  8
0
  6
Continuous
 62
     7
370
     0
100
AcDbLine
 10
0.0
 20
0.0
 30
0.0
 11
0.0
 21
-2.5
 31
0.0
  0
LINE
  5
27B
330
276
100
AcDbEntity
  8
0
  6
Continuous
 62
     7
370
     0
100
AcDbLine
 10
0.0
 20
0.0
 30
0.0
 11
2.5
 21
0.0
 31
0.0
  0
LINE
  5
27C
330
276
100
AcDbEntity
  8
0
  6
Continuous
 62
     7
370
     0
100
AcDbLine
 10
0.0
 20
0.0
 30
0.0
 11
0.0
 21
2.5
 31
0.0
  0
LINE
  5
27D
330
276
100
AcDbEntity
  8
0
  6
Continuous
 62
     7
370
     0
100
AcDbLine
 10
-5.0
 20
0.0
 30
0.0
 11
-7.5
 21
0.0
 31
0.0
  0
LINE
  5
27E
330
276
100
AcDbEntity
  8
0
  6
Continuous
 62
     7
370
     0
100
AcDbLine
 10
0.0
 20
-5.0
 30
0.0
 11
0.0
 21
-66.8565089063
 31
0.0
  0
LINE
  5
27F
330
276
100
AcDbEntity
  8
0
  6
Continuous
 62
     7
370
     0
100
AcDbLine
 10
5.0
 20
0.0
 30
0.0
 11
7.5
 21
0.0
 31
0.0
  0
LINE
  5
280
330
276
100
AcDbEntity
  8
0
  6
Continuous
 62
     7
370
     0
100
AcDbLine
 10
0.0
 20
5.0
 30
0.0
 11
0.0
 21
25.7645826061
 31
0.0
  0
ENDBLK
  5
278
330
276
100
AcDbEntity
  8
0
100
AcDbBlockEnd
  0
BLOCK
  5
283
330
282
100
AcDbEntity
  8
0
100
AcDbBlockBegin
  2
SW_CENTERMARKSYMBOL_1
 70
     0
 71
     0
 10
0.0
 20
0.0
 30
0.0
  3
SW_CENTERMARKSYMBOL_1
  1

  0
LINE
  5
285
330
282
100
AcDbEntity
  8
0
  6
Continuous
 62
     7
370
     0
100
AcDbLine
 10
0.0
 20
0.0
 30
0.0
 11
-2.5
 21
0.0
 31
0.0
  0
LINE
  5
286
330
282
100
AcDbEntity
  8
0
  6
Continuous
 62
     7
370
     0
100
AcDbLine
 10
0.0
 20
0.0
 30
0.0
 11
0.0
 21
-2.5
 31
0.0
  0
LINE
  5
287
330
282
100
AcDbEntity
  8
0
  6
Continuous
 62
     7
370
     0
100
AcDbLine
 10
0.0
 20
0.0
 30
0.0
 11
2.5
 21
0.0
 31
0.0
  0
LINE
  5
288
330
282
100
AcDbEntity
  8
0
  6
Continuous
 62
     7
370
     0
100
AcDbLine
 10
0.0
 20
0.0
 30
0.0
 11
0.0
 21
2.5
 31
0.0
  0
LINE
  5
289
330
282
100
AcDbEntity
  8
0
  6
Continuous
 62
     7
370
     0
100
AcDbLine
 10
-2.5
 20
0.0
 30
0.0
 11
-4.75
 21
0.0
 31
0.0
  0
LINE
  5
28A
330
282
100
AcDbEntity
  8
0
  6
Continuous
 62
     7
370
     0
100
AcDbLine
 10
0.0
 20
-2.5
 30
0.0
 11
0.0
 21
-4.75
 31
0.0
  0
LINE
  5
28B
330
282
100
AcDbEntity
  8
0
  6
Continuous
 62
     7
370
     0
100
AcDbLine
 10
2.5
 20
0.0
 30
0.0
 11
4.75
 21
0.0
 31
0.0
  0
LINE
  5
28C
330
282
100
AcDbEntity
  8
0
  6
Continuous
 62
     7
370
     0
100
AcDbLine
 10
0.0
 20
2.5
 30
0.0
 11
0.0
 21
4.75
 31
0.0
  0
ENDBLK
  5
284
330
282
100
AcDbEntity
  8
0
100
AcDbBlockEnd
  0
BLOCK
  5
28F
330
28E
100
AcDbEntity
  8
0
100
AcDbBlockBegin
  2
SW_CENTERMARKSYMBOL_2
 70
     0
 71
     0
 10
0.0
 20
0.0
 30
0.0
  3
SW_CENTERMARKSYMBOL_2
  1

  0
LINE
  5
291
330
28E
100
AcDbEntity
  8
0
  6
Continuous
 62
     7
370
     0
100
AcDbLine
 10
0.0
 20
0.0
 30
0.0
 11
-2.5
 21
0.0
 31
0.0
  0
LINE
  5
292
330
28E
100
AcDbEntity
  8
0
  6
Continuous
 62
     7
370
     0
100
AcDbLine
 10
0.0
 20
0.0
 30
0.0
 11
0.0
 21
-2.5
 31
0.0
  0
LINE
  5
293
330
28E
100
AcDbEntity
  8
0
  6
Continuous
 62
     7
370
     0
100
AcDbLine
 10
0.0
 20
0.0
 30
0.0
 11
2.5
 21
0.0
 31
0.0
  0
LINE
  5
294
330
28E
100
AcDbEntity
  8
0
  6
Continuous
 62
     7
370
     0
100
AcDbLine
 10
0.0
 20
0.0
 30
0.0
 11
0.0
 21
2.5
 31
0.0
  0
LINE
  5
295
330
28E
100
AcDbEntity
  8
0
  6
Continuous
 62
     7
370
     0
100
AcDbLine
 10
-2.5
 20
0.0
 30
0.0
 11
-4.75
 21
0.0
 31
0.0
  0
LINE
  5
296
330
28E
100
AcDbEntity
  8
0
  6
Continuous
 62
     7
370
     0
100
AcDbLine
 10
0.0
 20
-2.5
 30
0.0
 11
0.0
 21
-4.75
 31
0.0
  0
LINE
  5
297
330
28E
100
AcDbEntity
  8
0
  6
Continuous
 62
     7
370
     0
100
AcDbLine
 10
2.5
 20
0.0
 30
0.0
 11
4.75
 21
0.0
 31
0.0
  0
LINE
  5
298
330
28E
100
AcDbEntity
  8
0
  6
Continuous
 62
     7
370
     0
100
AcDbLine
 10
0.0
 20
2.5
 30
0.0
 11
0.0
 21
4.75
 31
0.0
  0
ENDBLK
  5
290
330
28E
100
AcDbEntity
  8
0
100
AcDbBlockEnd
  0
BLOCK
  5
29B
330
29A
100
AcDbEntity
  8
0
100
AcDbBlockBegin
  2
SW_CENTERMARKSYMBOL_3
 70
     0
 71
     0
 10
0.0
 20
0.0
 30
0.0
  3
SW_CENTERMARKSYMBOL_3
  1

  0
LINE
  5
29D
330
29A
100
AcDbEntity
  8
0
  6
Continuous
 62
     7
370
     0
100
AcDbLine
 10
0.0
 20
0.0
 30
0.0
 11
-2.5
 21
0.0
 31
0.0
  0
LINE
  5
29E
330
29A
100
AcDbEntity
  8
0
  6
Continuous
 62
     7
370
     0
100
AcDbLine
 10
0.0
 20
0.0
 30
0.0
 11
0.0
 21
-2.5
 31
0.0
  0
LINE
  5
29F
330
29A
100
AcDbEntity
  8
0
  6
Continuous
 62
     7
370
     0
100
AcDbLine
 10
0.0
 20
0.0
 30
0.0
 11
2.5
 21
0.0
 31
0.0
  0
LINE
  5
2A0
330
29A
100
AcDbEntity
  8
0
  6
Continuous
 62
     7
370
     0
100
AcDbLine
 10
0.0
 20
0.0
 30
0.0
 11
0.0
 21
2.5
 31
0.0
  0
LINE
  5
2A1
330
29A
100
AcDbEntity
  8
0
  6
Continuous
 62
     7
370
     0
100
AcDbLine
 10
-5.0
 20
0.0
 30
0.0
 11
-5.45
 21
0.0
 31
0.0
  0
LINE
  5
2A2
330
29A
100
AcDbEntity
  8
0
  6
Continuous
 62
     7
370
     0
100
AcDbLine
 10
0.0
 20
-5.0
 30
0.0
 11
0.0
 21
-5.45
 31
0.0
  0
LINE
  5
2A3
330
29A
100
AcDbEntity
  8
0
  6
Continuous
 62
     7
370
     0
100
AcDbLine
 10
5.0
 20
0.0
 30
0.0
 11
5.45
 21
0.0
 31
0.0
  0
LINE
  5
2A4
330
29A
100
AcDbEntity
  8
0
  6
Continuous
 62
     7
370
     0
100
AcDbLine
 10
0.0
 20
5.0
 30
0.0
 11
0.0
 21
5.45
 31
0.0
  0
ENDBLK
  5
29C
330
29A
100
AcDbEntity
  8
0
100
AcDbBlockEnd
  0
BLOCK
  5
2A7
330
2A6
100
AcDbEntity
  8
0
100
AcDbBlockBegin
  2
SW_CENTERMARKSYMBOL_4
 70
     0
 71
     0
 10
0.0
 20
0.0
 30
0.0
  3
SW_CENTERMARKSYMBOL_4
  1

  0
LINE
  5
2A9
330
2A6
100
AcDbEntity
  8
0
  6
Continuous
 62
     7
370
     0
100
AcDbLine
 10
0.0
 20
0.0
 30
0.0
 11
-2.5
 21
0.0
 31
0.0
  0
LINE
  5
2AA
330
2A6
100
AcDbEntity
  8
0
  6
Continuous
 62
     7
370
     0
100
AcDbLine
 10
0.0
 20
0.0
 30
0.0
 11
0.0
 21
-2.5
 31
0.0
  0
LINE
  5
2AB
330
2A6
100
AcDbEntity
  8
0
  6
Continuous
 62
     7
370
     0
100
AcDbLine
 10
0.0
 20
0.0
 30
0.0
 11
2.5
 21
0.0
 31
0.0
  0
LINE
  5
2AC
330
2A6
100
AcDbEntity
  8
0
  6
Continuous
 62
     7
370
     0
100
AcDbLine
 10
0.0
 20
0.0
 30
0.0
 11
0.0
 21
2.5
 31
0.0
  0
LINE
  5
2AD
330
2A6
100
AcDbEntity
  8
0
  6
Continuous
 62
     7
370
     0
100
AcDbLine
 10
-5.0
 20
0.0
 30
0.0
 11
-6.0
 21
0.0
 31
0.0
  0
LINE
  5
2AE
330
2A6
100
AcDbEntity
  8
0
  6
Continuous
 62
     7
370
     0
100
AcDbLine
 10
0.0
 20
-5.0
 30
0.0
 11
0.0
 21
-6.0
 31
0.0
  0
LINE
  5
2AF
330
2A6
100
AcDbEntity
  8
0
  6
Continuous
 62
     7
370
     0
100
AcDbLine
 10
5.0
 20
0.0
 30
0.0
 11
6.0
 21
0.0
 31
0.0
  0
LINE
  5
2B0
330
2A6
100
AcDbEntity
  8
0
  6
Continuous
 62
     7
370
     0
100
AcDbLine
 10
0.0
 20
5.0
 30
0.0
 11
0.0
 21
6.0
 31
0.0
  0
ENDBLK
  5
2A8
330
2A6
100
AcDbEntity
  8
0
100
AcDbBlockEnd
  0
BLOCK
  5
2B3
330
2B2
100
AcDbEntity
  8
0
100
AcDbBlockBegin
  2
SW_CENTERMARKSYMBOL_5
 70
     0
 71
     0
 10
0.0
 20
0.0
 30
0.0
  3
SW_CENTERMARKSYMBOL_5
  1

  0
LINE
  5
2B5
330
2B2
100
AcDbEntity
  8
0
  6
Continuous
 62
     7
370
     0
100
AcDbLine
 10
0.0
 20
0.0
 30
0.0
 11
-2.5
 21
0.0
 31
0.0
  0
LINE
  5
2B6
330
2B2
100
AcDbEntity
  8
0
  6
Continuous
 62
     7
370
     0
100
AcDbLine
 10
0.0
 20
0.0
 30
0.0
 11
0.0
 21
-2.5
 31
0.0
  0
LINE
  5
2B7
330
2B2
100
AcDbEntity
  8
0
  6
Continuous
 62
     7
370
     0
100
AcDbLine
 10
0.0
 20
0.0
 30
0.0
 11
2.5
 21
0.0
 31
0.0
  0
LINE
  5
2B8
330
2B2
100
AcDbEntity
  8
0
  6
Continuous
 62
     7
370
     0
100
AcDbLine
 10
0.0
 20
0.0
 30
0.0
 11
0.0
 21
2.5
 31
0.0
  0
LINE
  5
2B9
330
2B2
100
AcDbEntity
  8
0
  6
Continuous
 62
     7
370
     0
100
AcDbLine
 10
-2.5
 20
0.0
 30
0.0
 11
-3.75
 21
0.0
 31
0.0
  0
LINE
  5
2BA
330
2B2
100
AcDbEntity
  8
0
  6
Continuous
 62
     7
370
     0
100
AcDbLine
 10
0.0
 20
-2.5
 30
0.0
 11
0.0
 21
-3.75
 31
0.0
  0
LINE
  5
2BB
330
2B2
100
AcDbEntity
  8
0
  6
Continuous
 62
     7
370
     0
100
AcDbLine
 10
2.5
 20
0.0
 30
0.0
 11
3.75
 21
0.0
 31
0.0
  0
LINE
  5
2BC
330
2B2
100
AcDbEntity
  8
0
  6
Continuous
 62
     7
370
     0
100
AcDbLine
 10
0.0
 20
2.5
 30
0.0
 11
0.0
 21
3.75
 31
0.0
  0
ENDBLK
  5
2B4
330
2B2
100
AcDbEntity
  8
0
100
AcDbBlockEnd
  0
BLOCK
  5
2BF
330
2BE
100
AcDbEntity
  8
0
100
AcDbBlockBegin
  2
SW_CENTERMARKSYMBOL_6
 70
     0
 71
     0
 10
0.0
 20
0.0
 30
0.0
  3
SW_CENTERMARKSYMBOL_6
  1

  0
LINE
  5
2C1
330
2BE
100
AcDbEntity
  8
0
  6
Continuous
 62
     7
370
     0
100
AcDbLine
 10
0.0
 20
0.0
 30
0.0
 11
-2.5
 21
0.0
 31
0.0
  0
LINE
  5
2C2
330
2BE
100
AcDbEntity
  8
0
  6
Continuous
 62
     7
370
     0
100
AcDbLine
 10
0.0
 20
0.0
 30
0.0
 11
0.0
 21
-2.5
 31
0.0
  0
LINE
  5
2C3
330
2BE
100
AcDbEntity
  8
0
  6
Continuous
 62
     7
370
     0
100
AcDbLine
 10
0.0
 20
0.0
 30
0.0
 11
2.5
 21
0.0
 31
0.0
  0
LINE
  5
2C4
330
2BE
100
AcDbEntity
  8
0
  6
Continuous
 62
     7
370
     0
100
AcDbLine
 10
0.0
 20
0.0
 30
0.0
 11
0.0
 21
2.5
 31
0.0
  0
LINE
  5
2C5
330
2BE
100
AcDbEntity
  8
0
  6
Continuous
 62
     7
370
     0
100
AcDbLine
 10
-2.5
 20
0.0
 30
0.0
 11
-3.75
 21
0.0
 31
0.0
  0
LINE
  5
2C6
330
2BE
100
AcDbEntity
  8
0
  6
Continuous
 62
     7
370
     0
100
AcDbLine
 10
0.0
 20
-2.5
 30
0.0
 11
0.0
 21
-3.75
 31
0.0
  0
LINE
  5
2C7
330
2BE
100
AcDbEntity
  8
0
  6
Continuous
 62
     7
370
     0
100
AcDbLine
 10
2.5
 20
0.0
 30
0.0
 11
3.75
 21
0.0
 31
0.0
  0
LINE
  5
2C8
330
2BE
100
AcDbEntity
  8
0
  6
Continuous
 62
     7
370
     0
100
AcDbLine
 10
0.0
 20
2.5
 30
0.0
 11
0.0
 21
3.75
 31
0.0
  0
ENDBLK
  5
2C0
330
2BE
100
AcDbEntity
  8
0
100
AcDbBlockEnd
  0
BLOCK
  5
2CB
330
2CA
100
AcDbEntity
  8
0
100
AcDbBlockBegin
  2
SW_CENTERMARKSYMBOL_7
 70
     0
 71
     0
 10
0.0
 20
0.0
 30
0.0
  3
SW_CENTERMARKSYMBOL_7
  1

  0
LINE
  5
2CD
330
2CA
100
AcDbEntity
  8
0
  6
Continuous
 62
     7
370
     0
100
AcDbLine
 10
0.0
 20
0.0
 30
0.0
 11
-2.5
 21
0.0
 31
0.0
  0
LINE
  5
2CE
330
2CA
100
AcDbEntity
  8
0
  6
Continuous
 62
     7
370
     0
100
AcDbLine
 10
0.0
 20
0.0
 30
0.0
 11
0.0
 21
-2.5
 31
0.0
  0
LINE
  5
2CF
330
2CA
100
AcDbEntity
  8
0
  6
Continuous
 62
     7
370
     0
100
AcDbLine
 10
0.0
 20
0.0
 30
0.0
 11
2.5
 21
0.0
 31
0.0
  0
LINE
  5
2D0
330
2CA
100
AcDbEntity
  8
0
  6
Continuous
 62
     7
370
     0
100
AcDbLine
 10
0.0
 20
0.0
 30
0.0
 11
0.0
 21
2.5
 31
0.0
  0
LINE
  5
2D1
330
2CA
100
AcDbEntity
  8
0
  6
Continuous
 62
     7
370
     0
100
AcDbLine
 10
-5.0
 20
0.0
 30
0.0
 11
-6.0
 21
0.0
 31
0.0
  0
LINE
  5
2D2
330
2CA
100
AcDbEntity
  8
0
  6
Continuous
 62
     7
370
     0
100
AcDbLine
 10
0.0
 20
-5.0
 30
0.0
 11
0.0
 21
-6.0
 31
0.0
  0
LINE
  5
2D3
330
2CA
100
AcDbEntity
  8
0
  6
Continuous
 62
     7
370
     0
100
AcDbLine
 10
5.0
 20
0.0
 30
0.0
 11
6.0
 21
0.0
 31
0.0
  0
LINE
  5
2D4
330
2CA
100
AcDbEntity
  8
0
  6
Continuous
 62
     7
370
     0
100
AcDbLine
 10
0.0
 20
5.0
 30
0.0
 11
0.0
 21
6.0
 31
0.0
  0
ENDBLK
  5
2CC
330
2CA
100
AcDbEntity
  8
0
100
AcDbBlockEnd
  0
BLOCK
  5
2D7
330
2D6
100
AcDbEntity
  8
0
100
AcDbBlockBegin
  2
SW_CENTERMARKSYMBOL_8
 70
     0
 71
     0
 10
0.0
 20
0.0
 30
0.0
  3
SW_CENTERMARKSYMBOL_8
  1

  0
LINE
  5
2D9
330
2D6
100
AcDbEntity
  8
0
  6
Continuous
 62
     7
370
     0
100
AcDbLine
 10
0.0
 20
0.0
 30
0.0
 11
-2.5
 21
0.0
 31
0.0
  0
LINE
  5
2DA
330
2D6
100
AcDbEntity
  8
0
  6
Continuous
 62
     7
370
     0
100
AcDbLine
 10
0.0
 20
0.0
 30
0.0
 11
0.0
 21
-2.5
 31
0.0
  0
LINE
  5
2DB
330
2D6
100
AcDbEntity
  8
0
  6
Continuous
 62
     7
370
     0
100
AcDbLine
 10
0.0
 20
0.0
 30
0.0
 11
2.5
 21
0.0
 31
0.0
  0
LINE
  5
2DC
330
2D6
100
AcDbEntity
  8
0
  6
Continuous
 62
     7
370
     0
100
AcDbLine
 10
0.0
 20
0.0
 30
0.0
 11
0.0
 21
2.5
 31
0.0
  0
LINE
  5
2DD
330
2D6
100
AcDbEntity
  8
0
  6
Continuous
 62
     7
370
     0
100
AcDbLine
 10
-5.0
 20
0.0
 30
0.0
 11
-6.0
 21
0.0
 31
0.0
  0
LINE
  5
2DE
330
2D6
100
AcDbEntity
  8
0
  6
Continuous
 62
     7
370
     0
100
AcDbLine
 10
0.0
 20
-5.0
 30
0.0
 11
0.0
 21
-6.0
 31
0.0
  0
LINE
  5
2DF
330
2D6
100
AcDbEntity
  8
0
  6
Continuous
 62
     7
370
     0
100
AcDbLine
 10
5.0
 20
0.0
 30
0.0
 11
6.0
 21
0.0
 31
0.0
  0
LINE
  5
2E0
330
2D6
100
AcDbEntity
  8
0
  6
Continuous
 62
     7
370
     0
100
AcDbLine
 10
0.0
 20
5.0
 30
0.0
 11
0.0
 21
6.0
 31
0.0
  0
ENDBLK
  5
2D8
330
2D6
100
AcDbEntity
  8
0
100
AcDbBlockEnd
  0
BLOCK
  5
468
330
45E
100
AcDbEntity
  8
0
100
AcDbBlockBegin
  2
*D26
 70
     1
 71
     0
 10
0.0
 20
0.0
 30
0.0
  3
*D26
  1

  0
INSERT
  5
46A
330
45E
100
AcDbEntity
  8
0
  6
Continuous
 62
     7
370
     0
100
AcDbBlockReference
  2
_Open30
 10
48.6386842115
 20
246.5195871553
 30
0.1
 41
3.0
 42
3.0
 50
360.0
  0
INSERT
  5
46B
330
45E
100
AcDbEntity
  8
0
  6
Continuous
 62
     7
370
     0
100
AcDbBlockReference
  2
_Open30
 10
58.6386842115
 20
246.5195871553
 30
0.1
 41
3.0
 42
3.0
 50
180.0
  0
LINE
  5
46C
330
45E
100
AcDbEntity
  8
0
  6
Continuous
 62
     7
370
     0
100
AcDbLine
 10
48.6386842115
 20
235.6764455959
 30
0.0
 11
48.6386842115
 21
247.5195871553
 31
0.0
  0
LINE
  5
46D
330
45E
100
AcDbEntity
  8
0
  6
Continuous
 62
     7
370
     0
100
AcDbLine
 10
58.6386842115
 20
236.1764455959
 30
0.0
 11
58.6386842115
 21
247.5195871553
 31
0.0
  0
LINE
  5
46E
330
45E
100
AcDbEntity
  8
0
  6
Continuous
 62
     7
370
     0
100
AcDbLine
 10
48.6386842115
 20
246.5195871553
 30
0.0
 11
43.6386842115
 21
246.5195871553
 31
0.0
  0
LINE
  5
46F
330
45E
100
AcDbEntity
  8
0
  6
Continuous
 62
     7
370
     0
100
AcDbLine
 10
48.6386842115
 20
246.5195871553
 30
0.0
 11
58.6386842115
 21
246.5195871553
 31
0.0
  0
LINE
  5
470
330
45E
100
AcDbEntity
  8
0
  6
Continuous
 62
     7
370
     0
100
AcDbLine
 10
58.6386842115
 20
246.5195871553
 30
0.0
 11
63.6386842115
 21
246.5195871553
 31
0.0
  0
MTEXT
  5
471
330
45E
100
AcDbEntity
  8
0
  6
Continuous
 62
     7
370
     0
100
AcDbMText
 10
51.602864626
 20
250.5923141952
 30
0.0
 40
3.5
 41
0.0
 71
     1
 72
     1
  1
10
  7
SLDTEXTSTYLE0
 73
     1
 44
1.0
  0
ENDBLK
  5
469
330
45E
100
AcDbEntity
  8
0
100
AcDbBlockEnd
  0
BLOCK
  5
480
330
473
100
AcDbEntity
  8
0
100
AcDbBlockBegin
  2
*D27
 70
     1
 71
     0
 10
0.0
 20
0.0
 30
0.0
  3
*D27
  1

  0
INSERT
  5
482
330
473
100
AcDbEntity
  8
0
  6
Continuous
 62
     7
370
     0
100
AcDbBlockReference
  2
_Open30
 10
62.6386842115
 20
246.4039211966
 30
0.1
 41
3.0
 42
3.0
 50
180.0
  0
INSERT
  5
483
330
473
100
AcDbEntity
  8
0
  6
Continuous
 62
     7
370
     0
100
AcDbBlockReference
  2
_Open30
 10
58.6386842115
 20
246.4039211966
 30
0.1
 41
3.0
 42
3.0
 50
360.0
  0
LINE
  5
484
330
473
100
AcDbEntity
  8
0
  6
Continuous
 62
     7
370
     0
100
AcDbLine
 10
62.6386842115
 20
234.1764455959
 30
0.0
 11
62.6386842115
 21
247.4039211966
 31
0.0
  0
LINE
  5
485
330
473
100
AcDbEntity
  8
0
  6
Continuous
 62
     7
370
     0
100
AcDbLine
 10
58.6386842115
 20
234.1764455959
 30
0.0
 11
58.6386842115
 21
247.4039211966
 31
0.0
  0
LINE
  5
486
330
473
100
AcDbEntity
  8
0
  6
Continuous
 62
     7
370
     0
100
AcDbLine
 10
62.6386842115
 20
246.4039211966
 30
0.0
 11
73.3226725713
 21
246.4039211966
 31
0.0
  0
LINE
  5
487
330
473
100
AcDbEntity
  8
0
  6
Continuous
 62
     7
370
     0
100
AcDbLine
 10
62.6386842115
 20
246.4039211966
 30
0.0
 11
58.6386842115
 21
246.4039211966
 31
0.0
  0
LINE
  5
488
330
473
100
AcDbEntity
  8
0
  6
Continuous
 62
     7
370
     0
100
AcDbLine
 10
58.6386842115
 20
246.4039211966
 30
0.0
 11
53.6386842115
 21
246.4039211966
 31
0.0
  0
MTEXT
  5
489
330
473
100
AcDbEntity
  8
0
  6
Continuous
 62
     7
370
     0
100
AcDbMText
 10
69.7009226231
 20
250.4766482365
 30
0.0
 40
3.5
 41
0.0
 71
     1
 72
     1
  1
4
  7
SLDTEXTSTYLE0
 73
     1
 44
1.0
  0
ENDBLK
  5
481
330
473
100
AcDbEntity
  8
0
100
AcDbBlockEnd
  0
BLOCK
  5
495
330
48B
100
AcDbEntity
  8
0
100
AcDbBlockBegin
  2
*D28
 70
     1
 71
     0
 10
0.0
 20
0.0
 30
0.0
  3
*D28
  1

  0
INSERT
  5
497
330
48B
100
AcDbEntity
  8
0
  6
Continuous
 62
     7
370
     0
100
AcDbBlockReference
  2
_Open30
 10
72.6386842115
 20
120.7532827834
 30
0.1
 41
3.0
 42
3.0
 50
180.0
  0
INSERT
  5
498
330
48B
100
AcDbEntity
  8
0
  6
Continuous
 62
     7
370
     0
100
AcDbBlockReference
  2
_Open30
 10
58.6386842115
 20
120.7532827834
 30
0.1
 41
3.0
 42
3.0
 50
360.0
  0
LINE
  5
499
330
48B
100
AcDbEntity
  8
0
  6
Continuous
 62
     7
370
     0
100
AcDbLine
 10
72.6386842115
 20
170.4764455959
 30
0.0
 11
72.6386842115
 21
119.7532827834
 31
0.0
  0
LINE
  5
49A
330
48B
100
AcDbEntity
  8
0
  6
Continuous
 62
     7
370
     0
100
AcDbLine
 10
58.6386842115
 20
152.1764455959
 30
0.0
 11
58.6386842115
 21
119.7532827834
 31
0.0
  0
LINE
  5
49B
330
48B
100
AcDbEntity
  8
0
  6
Continuous
 62
     7
370
     0
100
AcDbLine
 10
72.6386842115
 20
120.7532827834
 30
0.0
 11
77.6386842115
 21
120.7532827834
 31
0.0
  0
LINE
  5
49C
330
48B
100
AcDbEntity
  8
0
  6
Continuous
 62
     7
370
     0
100
AcDbLine
 10
72.6386842115
 20
120.7532827834
 30
0.0
 11
58.6386842115
 21
120.7532827834
 31
0.0
  0
LINE
  5
49D
330
48B
100
AcDbEntity
  8
0
  6
Continuous
 62
     7
370
     0
100
AcDbLine
 10
58.6386842115
 20
120.7532827834
 30
0.0
 11
53.6386842115
 21
120.7532827834
 31
0.0
  0
MTEXT
  5
49E
330
48B
100
AcDbEntity
  8
0
  6
Continuous
 62
     7
370
     0
100
AcDbMText
 10
63.602864626
 20
124.8260098233
 30
0.0
 40
3.5
 41
0.0
 71
     1
 72
     1
  1
14
  7
SLDTEXTSTYLE0
 73
     1
 44
1.0
  0
ENDBLK
  5
496
330
48B
100
AcDbEntity
  8
0
100
AcDbBlockEnd
  0
BLOCK
  5
4AB
330
4A0
100
AcDbEntity
  8
0
100
AcDbBlockBegin
  2
*D29
 70
     1
 71
     0
 10
0.0
 20
0.0
 30
0.0
  3
*D29
  1

  0
INSERT
  5
4AE
330
4A0
100
AcDbEntity
  8
0
  6
Continuous
 62
     7
370
     0
100
AcDbBlockReference
  2
_Open30
 10
58.6386842115
 20
127.579909329
 30
0.1
 41
3.0
 42
3.0
 50
180.0
  0
INSERT
  5
4AF
330
4A0
100
AcDbEntity
  8
0
  6
Continuous
 62
     7
370
     0
100
AcDbBlockReference
  2
_Open30
 10
55.6386842115
 20
127.579909329
 30
0.1
 41
3.0
 42
3.0
 50
360.0
  0
LINE
  5
4B0
330
4A0
100
AcDbEntity
  8
0
  6
Continuous
 62
     7
370
     0
100
AcDbLine
 10
58.6386842115
 20
152.1764455959
 30
0.0
 11
58.6386842115
 21
126.579909329
 31
0.0
  0
LINE
  5
4B1
330
4A0
100
AcDbEntity
  8
0
  6
Continuous
 62
     7
370
     0
100
AcDbLine
 10
55.6386842115
 20
152.1764455959
 30
0.0
 11
55.6386842115
 21
126.579909329
 31
0.0
  0
LINE
  5
4B2
330
4A0
100
AcDbEntity
  8
0
  6
Continuous
 62
     7
370
     0
100
AcDbLine
 10
58.6386842115
 20
127.579909329
 30
0.0
 11
63.6386842115
 21
127.579909329
 31
0.0
  0
LINE
  5
4B3
330
4A0
100
AcDbEntity
  8
0
  6
Continuous
 62
     7
370
     0
100
AcDbLine
 10
58.6386842115
 20
127.579909329
 30
0.0
 11
55.6386842115
 21
127.579909329
 31
0.0
  0
LINE
  5
4B4
330
4A0
100
AcDbEntity
  8
0
  6
Continuous
 62
     7
370
     0
100
AcDbLine
 10
55.6386842115
 20
127.579909329
 30
0.0
 11
50.6386842115
 21
127.579909329
 31
0.0
  0
MTEXT
  5
4B5
330
4A0
100
AcDbEntity
  8
0
  6
Continuous
 62
     7
370
     0
100
AcDbMText
 10
56.1215592374
 20
131.6526363689
 30
0.0
 40
3.5
 41
0.0
 71
     1
 72
     1
  1
3
  7
SLDTEXTSTYLE0
 73
     1
 44
1.0
  0
ENDBLK
  5
4AC
330
4A0
100
AcDbEntity
  8
0
100
AcDbBlockEnd
  0
BLOCK
  5
4C1
330
4B7
100
AcDbEntity
  8
0
100
AcDbBlockBegin
  2
*D30
 70
     1
 71
     0
 10
0.0
 20
0.0
 30
0.0
  3
*D30
  1

  0
INSERT
  5
4C3
330
4B7
100
AcDbEntity
  8
0
  6
Continuous
 62
     7
370
     0
100
AcDbBlockReference
  2
_Open30
 10
58.6386842115
 20
120.7532827834
 30
0.1
 41
3.0
 42
3.0
 50
180.0
  0
INSERT
  5
4C4
330
4B7
100
AcDbEntity
  8
0
  6
Continuous
 62
     7
370
     0
100
AcDbBlockReference
  2
_Open30
 10
44.4386842115
 20
120.7532827834
 30
0.1
 41
3.0
 42
3.0
 50
360.0
  0
LINE
  5
4C5
330
4B7
100
AcDbEntity
  8
0
  6
Continuous
 62
     7
370
     0
100
AcDbLine
 10
58.6386842115
 20
152.1764455959
 30
0.0
 11
58.6386842115
 21
119.7532827834
 31
0.0
  0
LINE
  5
4C6
330
4B7
100
AcDbEntity
  8
0
  6
Continuous
 62
     7
370
     0
100
AcDbLine
 10
44.4386842115
 20
212.7264455959
 30
0.0
 11
44.4386842115
 21
119.7532827834
 31
0.0
  0
LINE
  5
4C7
330
4B7
100
AcDbEntity
  8
0
  6
Continuous
 62
     7
370
     0
100
AcDbLine
 10
58.6386842115
 20
120.7532827834
 30
0.0
 11
63.6386842115
 21
120.7532827834
 31
0.0
  0
LINE
  5
4C8
330
4B7
100
AcDbEntity
  8
0
  6
Continuous
 62
     7
370
     0
100
AcDbLine
 10
58.6386842115
 20
120.7532827834
 30
0.0
 11
44.4386842115
 21
120.7532827834
 31
0.0
  0
LINE
  5
4C9
330
4B7
100
AcDbEntity
  8
0
  6
Continuous
 62
     7
370
     0
100
AcDbLine
 10
44.4386842115
 20
120.7532827834
 30
0.0
 11
39.4386842115
 21
120.7532827834
 31
0.0
  0
MTEXT
  5
4CA
330
4B7
100
AcDbEntity
  8
0
  6
Continuous
 62
     7
370
     0
100
AcDbMText
 10
47.4654754032
 20
124.8260098233
 30
0.0
 40
3.5
 41
0.0
 71
     1
 72
     1
  1
14.2
  7
SLDTEXTSTYLE0
 73
     1
 44
1.0
  0
ENDBLK
  5
4C2
330
4B7
100
AcDbEntity
  8
0
100
AcDbBlockEnd
  0
BLOCK
  5
4D7
330
4CC
100
AcDbEntity
  8
0
100
AcDbBlockBegin
  2
*D31
 70
     1
 71
     0
 10
0.0
 20
0.0
 30
0.0
  3
*D31
  1

  0
INSERT
  5
4DA
330
4CC
100
AcDbEntity
  8
0
  6
Continuous
 62
     7
370
     0
100
AcDbBlockReference
  2
_Open30
 10
58.6386842115
 20
127.579909329
 30
0.1
 41
3.0
 42
3.0
 50
360.0
  0
INSERT
  5
4DB
330
4CC
100
AcDbEntity
  8
0
  6
Continuous
 62
     7
370
     0
100
AcDbBlockReference
  2
_Open30
 10
65.6386842115
 20
127.579909329
 30
0.1
 41
3.0
 42
3.0
 50
180.0
  0
LINE
  5
4DC
330
4CC
100
AcDbEntity
  8
0
  6
Continuous
 62
     7
370
     0
100
AcDbLine
 10
58.6386842115
 20
152.1764455959
 30
0.0
 11
58.6386842115
 21
126.579909329
 31
0.0
  0
LINE
  5
4DD
330
4CC
100
AcDbEntity
  8
0
  6
Continuous
 62
     7
370
     0
100
AcDbLine
 10
65.6386842115
 20
167.1764455959
 30
0.0
 11
65.6386842115
 21
126.579909329
 31
0.0
  0
LINE
  5
4DE
330
4CC
100
AcDbEntity
  8
0
  6
Continuous
 62
     7
370
     0
100
AcDbLine
 10
58.6386842115
 20
127.579909329
 30
0.0
 11
53.6386842115
 21
127.579909329
 31
0.0
  0
LINE
  5
4DF
330
4CC
100
AcDbEntity
  8
0
  6
Continuous
 62
     7
370
     0
100
AcDbLine
 10
58.6386842115
 20
127.579909329
 30
0.0
 11
65.6386842115
 21
127.579909329
 31
0.0
  0
LINE
  5
4E0
330
4CC
100
AcDbEntity
  8
0
  6
Continuous
 62
     7
370
     0
100
AcDbLine
 10
65.6386842115
 20
127.579909329
 30
0.0
 11
70.6386842115
 21
127.579909329
 31
0.0
  0
MTEXT
  5
4E1
330
4CC
100
AcDbEntity
  8
0
  6
Continuous
 62
     7
370
     0
100
AcDbMText
 10
61.1215592374
 20
131.6526363689
 30
0.0
 40
3.5
 41
0.0
 71
     1
 72
     1
  1
7
  7
SLDTEXTSTYLE0
 73
     1
 44
1.0
  0
ENDBLK
  5
4D8
330
4CC
100
AcDbEntity
  8
0
100
AcDbBlockEnd
  0
BLOCK
  5
4EE
330
4E3
100
AcDbEntity
  8
0
100
AcDbBlockBegin
  2
*D32
 70
     1
 71
     0
 10
0.0
 20
0.0
 30
0.0
  3
*D32
  1

  0
INSERT
  5
4F1
330
4E3
100
AcDbEntity
  8
0
  6
Continuous
 62
     7
370
     0
100
AcDbBlockReference
  2
_Open30
 10
58.6386842115
 20
135.7561512327
 30
0.1
 41
3.0
 42
3.0
 50
180.0
  0
INSERT
  5
4F2
330
4E3
100
AcDbEntity
  8
0
  6
Continuous
 62
     7
370
     0
100
AcDbBlockReference
  2
_Open30
 10
52.1386842115
 20
135.7561512327
 30
0.1
 41
3.0
 42
3.0
 50
360.0
  0
LINE
  5
4F3
330
4E3
100
AcDbEntity
  8
0
  6
Continuous
 62
     7
370
     0
100
AcDbLine
 10
58.6386842115
 20
162.4264455959
 30
0.0
 11
58.6386842115
 21
134.7561512327
 31
0.0
  0
LINE
  5
4F4
330
4E3
100
AcDbEntity
  8
0
  6
Continuous
 62
     7
370
     0
100
AcDbLine
 10
52.1386842115
 20
196.1764455959
 30
0.0
 11
52.1386842115
 21
134.7561512327
 31
0.0
  0
LINE
  5
4F5
330
4E3
100
AcDbEntity
  8
0
  6
Continuous
 62
     7
370
     0
100
AcDbLine
 10
58.6386842115
 20
135.7561512327
 30
0.0
 11
63.6386842115
 21
135.7561512327
 31
0.0
  0
LINE
  5
4F6
330
4E3
100
AcDbEntity
  8
0
  6
Continuous
 62
     7
370
     0
100
AcDbLine
 10
58.6386842115
 20
135.7561512327
 30
0.0
 11
52.1386842115
 21
135.7561512327
 31
0.0
  0
LINE
  5
4F7
330
4E3
100
AcDbEntity
  8
0
  6
Continuous
 62
     7
370
     0
100
AcDbLine
 10
52.1386842115
 20
135.7561512327
 30
0.0
 11
47.1386842115
 21
135.7561512327
 31
0.0
  0
MTEXT
  5
4F8
330
4E3
100
AcDbEntity
  8
0
  6
Continuous
 62
     7
370
     0
100
AcDbMText
 10
52.3341700146
 20
139.8288782725
 30
0.0
 40
3.5
 41
0.0
 71
     1
 72
     1
  1
6.5
  7
SLDTEXTSTYLE0
 73
     1
 44
1.0
  0
ENDBLK
  5
4EF
330
4E3
100
AcDbEntity
  8
0
100
AcDbBlockEnd
  0
BLOCK
  5
507
330
4FA
100
AcDbEntity
  8
0
100
AcDbBlockBegin
  2
*D33
 70
     1
 71
     0
 10
0.0
 20
0.0
 30
0.0
  3
*D33
  1

  0
INSERT
  5
509
330
4FA
100
AcDbEntity
  8
0
  6
Continuous
 62
     7
370
     0
100
AcDbBlockReference
  2
_Open30
 10
48.6386842115
 20
135.7561512327
 30
0.1
 41
3.0
 42
3.0
 50
360.0
  0
INSERT
  5
50A
330
4FA
100
AcDbEntity
  8
0
  6
Continuous
 62
     7
370
     0
100
AcDbBlockReference
  2
_Open30
 10
52.1386842115
 20
135.7561512327
 30
0.1
 41
3.0
 42
3.0
 50
180.0
  0
LINE
  5
50B
330
4FA
100
AcDbEntity
  8
0
  6
Continuous
 62
     7
370
     0
100
AcDbLine
 10
48.6386842115
 20
196.6764455959
 30
0.0
 11
48.6386842115
 21
134.7561512327
 31
0.0
  0
LINE
  5
50C
330
4FA
100
AcDbEntity
  8
0
  6
Continuous
 62
     7
370
     0
100
AcDbLine
 10
52.1386842115
 20
196.1764455959
 30
0.0
 11
52.1386842115
 21
134.7561512327
 31
0.0
  0
LINE
  5
50D
330
4FA
100
AcDbEntity
  8
0
  6
Continuous
 62
     7
370
     0
100
AcDbLine
 10
48.6386842115
 20
135.7561512327
 30
0.0
 11
38.1224796613
 21
135.7561512327
 31
0.0
  0
LINE
  5
50E
330
4FA
100
AcDbEntity
  8
0
  6
Continuous
 62
     7
370
     0
100
AcDbLine
 10
48.6386842115
 20
135.7561512327
 30
0.0
 11
52.1386842115
 21
135.7561512327
 31
0.0
  0
LINE
  5
50F
330
4FA
100
AcDbEntity
  8
0
  6
Continuous
 62
     7
370
     0
100
AcDbLine
 10
52.1386842115
 20
135.7561512327
 30
0.0
 11
57.1386842115
 21
135.7561512327
 31
0.0
  0
MTEXT
  5
510
330
4FA
100
AcDbEntity
  8
0
  6
Continuous
 62
     7
370
     0
100
AcDbMText
 10
39.7099796613
 20
139.8288782725
 30
0.0
 40
3.5
 41
0.0
 71
     1
 72
     1
  1
3.5
  7
SLDTEXTSTYLE0
 73
     1
 44
1.0
  0
ENDBLK
  5
508
330
4FA
100
AcDbEntity
  8
0
100
AcDbBlockEnd
  0
BLOCK
  5
51C
330
512
100
AcDbEntity
  8
0
100
AcDbBlockBegin
  2
*D34
 70
     1
 71
     0
 10
0.0
 20
0.0
 30
0.0
  3
*D34
  1

  0
INSERT
  5
51E
330
512
100
AcDbEntity
  8
0
  6
Continuous
 62
     7
370
     0
100
AcDbBlockReference
  2
_Open30
 10
72.6386842115
 20
111.1624422003
 30
0.1
 41
3.0
 42
3.0
 50
360.0
  0
INSERT
  5
51F
330
512
100
AcDbEntity
  8
0
  6
Continuous
 62
     7
370
     0
100
AcDbBlockReference
  2
_Open30
 10
44.4386842115
 20
111.1624422003
 30
0.1
 41
3.0
 42
3.0
 50
180.0
  0
LINE
  5
520
330
512
100
AcDbEntity
  8
0
  6
Continuous
 62
     7
370
     0
100
AcDbLine
 10
72.6386842115
 20
170.4764455959
 30
0.0
 11
72.6386842115
 21
110.1624422003
 31
0.0
  0
LINE
  5
521
330
512
100
AcDbEntity
  8
0
  6
Continuous
 62
     7
370
     0
100
AcDbLine
 10
44.4386842115
 20
212.7264455959
 30
0.0
 11
44.4386842115
 21
110.1624422003
 31
0.0
  0
LINE
  5
522
330
512
100
AcDbEntity
  8
0
  6
Continuous
 62
     7
370
     0
100
AcDbLine
 10
72.6386842115
 20
111.1624422003
 30
0.0
 11
44.4386842115
 21
111.1624422003
 31
0.0
  0
MTEXT
  5
523
330
512
100
AcDbEntity
  8
0
  6
Continuous
 62
     7
370
     0
100
AcDbMText
 10
54.4654754032
 20
115.2351692402
 30
0.0
 40
3.5
 41
0.0
 71
     1
 72
     1
  1
28.2
  7
SLDTEXTSTYLE0
 73
     1
 44
1.0
  0
ENDBLK
  5
51D
330
512
100
AcDbEntity
  8
0
100
AcDbBlockEnd
  0
BLOCK
  5
530
330
525
100
AcDbEntity
  8
0
100
AcDbBlockBegin
  2
*D35
 70
     1
 71
     0
 10
0.0
 20
0.0
 30
0.0
  3
*D35
  1

  0
INSERT
  5
532
330
525
100
AcDbEntity
  8
0
  6
Continuous
 62
     7
370
     0
100
AcDbBlockReference
  2
_Open30
 10
84.4507784195
 20
186.6764455959
 30
0.1
 41
3.0
 42
3.0
 50
270.0
  0
INSERT
  5
533
330
525
100
AcDbEntity
  8
0
  6
Continuous
 62
     7
370
     0
100
AcDbBlockReference
  2
_Open30
 10
84.4507784195
 20
171.1764455959
 30
0.1
 41
3.0
 42
3.0
 50
90.0
  0
LINE
  5
534
330
525
100
AcDbEntity
  8
0
  6
Continuous
 62
     7
370
     0
100
AcDbLine
 10
67.5386842115
 20
186.6764455959
 30
0.0
 11
85.4507784195
 21
186.6764455959
 31
0.0
  0
LINE
  5
535
330
525
100
AcDbEntity
  8
0
  6
Continuous
 62
     7
370
     0
100
AcDbLine
 10
72.6386842115
 20
171.1764455959
 30
0.0
 11
85.4507784195
 21
171.1764455959
 31
0.0
  0
LINE
  5
536
330
525
100
AcDbEntity
  8
0
  6
Continuous
 62
     7
370
     0
100
AcDbLine
 10
84.4507784195
 20
186.6764455959
 30
0.0
 11
84.4507784195
 21
191.6764455959
 31
0.0
  0
LINE
  5
537
330
525
100
AcDbEntity
  8
0
  6
Continuous
 62
     7
370
     0
100
AcDbLine
 10
84.4507784195
 20
186.6764455959
 30
0.0
 11
84.4507784195
 21
171.1764455959
 31
0.0
  0
LINE
  5
538
330
525
100
AcDbEntity
  8
0
  6
Continuous
 62
     7
370
     0
100
AcDbLine
 10
84.4507784195
 20
171.1764455959
 30
0.0
 11
84.4507784195
 21
166.1764455959
 31
0.0
  0
MTEXT
  5
539
330
525
100
AcDbEntity
  8
0
  6
Continuous
 62
     7
370
     0
100
AcDbMText
 10
80.3780513796
 20
174.8532367876
 30
0.0
 40
3.5
 41
0.0
 71
     1
 72
     1
  1
15.5
  7
SLDTEXTSTYLE0
 11
-4.379661780809507E-15
 21
1.0
 31
0.0
 73
     1
 44
1.0
  0
ENDBLK
  5
531
330
525
100
AcDbEntity
  8
0
100
AcDbBlockEnd
  0
BLOCK
  5
546
330
53B
100
AcDbEntity
  8
0
100
AcDbBlockBegin
  2
*D36
 70
     1
 71
     0
 10
0.0
 20
0.0
 30
0.0
  3
*D36
  1

  0
INSERT
  5
548
330
53B
100
AcDbEntity
  8
0
  6
Continuous
 62
     7
370
     0
100
AcDbBlockReference
  2
_Open30
 10
35.7615379856
 20
235.1764455959
 30
0.1
 41
3.0
 42
3.0
 50
90.0
  0
INSERT
  5
549
330
53B
100
AcDbEntity
  8
0
  6
Continuous
 62
     7
370
     0
100
AcDbBlockReference
  2
_Open30
 10
35.7615379856
 20
216.1764455959
 30
0.1
 41
3.0
 42
3.0
 50
270.0
  0
LINE
  5
54A
330
53B
100
AcDbEntity
  8
0
  6
Continuous
 62
     7
370
     0
100
AcDbLine
 10
51.1386842115
 20
235.1764455959
 30
0.0
 11
34.7615379856
 21
235.1764455959
 31
0.0
  0
LINE
  5
54B
330
53B
100
AcDbEntity
  8
0
  6
Continuous
 62
     7
370
     0
100
AcDbLine
 10
48.1386842115
 20
216.1764455959
 30
0.0
 11
34.7615379856
 21
216.1764455959
 31
0.0
  0
LINE
  5
54C
330
53B
100
AcDbEntity
  8
0
  6
Continuous
 62
     7
370
     0
100
AcDbLine
 10
35.7615379856
 20
235.1764455959
 30
0.0
 11
35.7615379856
 21
216.1764455959
 31
0.0
  0
MTEXT
  5
54D
330
53B
100
AcDbEntity
  8
0
  6
Continuous
 62
     7
370
     0
100
AcDbMText
 10
31.6888109457
 20
223.6406260104
 30
0.0
 40
3.5
 41
0.0
 71
     1
 72
     1
  1
19
  7
SLDTEXTSTYLE0
 11
-3.491483361109382E-15
 21
1.0
 31
0.0
 73
     1
 44
1.0
  0
ENDBLK
  5
547
330
53B
100
AcDbEntity
  8
0
100
AcDbBlockEnd
  0
BLOCK
  5
55A
330
54F
100
AcDbEntity
  8
0
100
AcDbBlockBegin
  2
*D37
 70
     1
 71
     0
 10
0.0
 20
0.0
 30
0.0
  3
*D37
  1

  0
INSERT
  5
55C
330
54F
100
AcDbEntity
  8
0
  6
Continuous
 62
     7
370
     0
100
AcDbBlockReference
  2
_Open30
 10
35.7615379856
 20
216.1764455959
 30
0.1
 41
3.0
 42
3.0
 50
90.0
  0
INSERT
  5
55D
330
54F
100
AcDbEntity
  8
0
  6
Continuous
 62
     7
370
     0
100
AcDbBlockReference
  2
_Open30
 10
35.7615379856
 20
186.6764455959
 30
0.1
 41
3.0
 42
3.0
 50
270.0
  0
LINE
  5
55E
330
54F
100
AcDbEntity
  8
0
  6
Continuous
 62
     7
370
     0
100
AcDbLine
 10
48.1386842115
 20
216.1764455959
 30
0.0
 11
34.7615379856
 21
216.1764455959
 31
0.0
  0
LINE
  5
55F
330
54F
100
AcDbEntity
  8
0
  6
Continuous
 62
     7
370
     0
100
AcDbLine
 10
52.8386842115
 20
186.6764455959
 30
0.0
 11
34.7615379856
 21
186.6764455959
 31
0.0
  0
LINE
  5
560
330
54F
100
AcDbEntity
  8
0
  6
Continuous
 62
     7
370
     0
100
AcDbLine
 10
35.7615379856
 20
216.1764455959
 30
0.0
 11
35.7615379856
 21
186.6764455959
 31
0.0
  0
MTEXT
  5
561
330
54F
100
AcDbEntity
  8
0
  6
Continuous
 62
     7
370
     0
100
AcDbMText
 10
31.6888109457
 20
197.3532367876
 30
0.0
 40
3.5
 41
0.0
 71
     1
 72
     1
  1
29.5
  7
SLDTEXTSTYLE0
 11
-3.491483361109382E-15
 21
1.0
 31
0.0
 73
     1
 44
1.0
  0
ENDBLK
  5
55B
330
54F
100
AcDbEntity
  8
0
100
AcDbBlockEnd
  0
BLOCK
  5
56E
330
563
100
AcDbEntity
  8
0
100
AcDbBlockBegin
  2
*D38
 70
     1
 71
     0
 10
0.0
 20
0.0
 30
0.0
  3
*D38
  1

  0
INSERT
  5
570
330
563
100
AcDbEntity
  8
0
  6
Continuous
 62
     7
370
     0
100
AcDbBlockReference
  2
_Open30
 10
35.7615379856
 20
186.6764455959
 30
0.1
 41
3.0
 42
3.0
 50
90.0
  0
INSERT
  5
571
330
563
100
AcDbEntity
  8
0
  6
Continuous
 62
     7
370
     0
100
AcDbBlockReference
  2
_Open30
 10
35.7615379856
 20
153.1764455959
 30
0.1
 41
3.0
 42
3.0
 50
270.0
  0
LINE
  5
572
330
563
100
AcDbEntity
  8
0
  6
Continuous
 62
     7
370
     0
100
AcDbLine
 10
52.8386842115
 20
186.6764455959
 30
0.0
 11
34.7615379856
 21
186.6764455959
 31
0.0
  0
LINE
  5
573
330
563
100
AcDbEntity
  8
0
  6
Continuous
 62
     7
370
     0
100
AcDbLine
 10
54.6386842115
 20
153.1764455959
 30
0.0
 11
34.7615379856
 21
153.1764455959
 31
0.0
  0
LINE
  5
574
330
563
100
AcDbEntity
  8
0
  6
Continuous
 62
     7
370
     0
100
AcDbLine
 10
35.7615379856
 20
186.6764455959
 30
0.0
 11
35.7615379856
 21
153.1764455959
 31
0.0
  0
MTEXT
  5
575
330
563
100
AcDbEntity
  8
0
  6
Continuous
 62
     7
370
     0
100
AcDbMText
 10
31.6888109457
 20
165.8532367876
 30
0.0
 40
3.5
 41
0.0
 71
     1
 72
     1
  1
33.5
  7
SLDTEXTSTYLE0
 11
-3.491483361109382E-15
 21
1.0
 31
0.0
 73
     1
 44
1.0
  0
ENDBLK
  5
56F
330
563
100
AcDbEntity
  8
0
100
AcDbBlockEnd
  0
BLOCK
  5
582
330
577
100
AcDbEntity
  8
0
100
AcDbBlockBegin
  2
*D39
 70
     1
 71
     0
 10
0.0
 20
0.0
 30
0.0
  3
*D39
  1

  0
INSERT
  5
584
330
577
100
AcDbEntity
  8
0
  6
Continuous
 62
     7
370
     0
100
AcDbBlockReference
  2
_Open30
 10
28.433679781
 20
235.1764455959
 30
0.1
 41
3.0
 42
3.0
 50
90.0
  0
INSERT
  5
585
330
577
100
AcDbEntity
  8
0
  6
Continuous
 62
     7
370
     0
100
AcDbBlockReference
  2
_Open30
 10
28.433679781
 20
197.1764455959
 30
0.1
 41
3.0
 42
3.0
 50
270.0
  0
LINE
  5
586
330
577
100
AcDbEntity
  8
0
  6
Continuous
 62
     7
370
     0
100
AcDbLine
 10
51.1386842115
 20
235.1764455959
 30
0.0
 11
27.433679781
 21
235.1764455959
 31
0.0
  0
LINE
  5
587
330
577
100
AcDbEntity
  8
0
  6
Continuous
 62
     7
370
     0
100
AcDbLine
 10
51.1386842115
 20
197.1764455959
 30
0.0
 11
27.433679781
 21
197.1764455959
 31
0.0
  0
LINE
  5
588
330
577
100
AcDbEntity
  8
0
  6
Continuous
 62
     7
370
     0
100
AcDbLine
 10
28.433679781
 20
235.1764455959
 30
0.0
 11
28.433679781
 21
197.1764455959
 31
0.0
  0
MTEXT
  5
589
330
577
100
AcDbEntity
  8
0
  6
Continuous
 62
     7
370
     0
100
AcDbMText
 10
24.3609527411
 20
214.1406260104
 30
0.0
 40
3.5
 41
0.0
 71
     1
 72
     1
  1
38
  7
SLDTEXTSTYLE0
 11
-3.491483361109382E-15
 21
1.0
 31
0.0
 73
     1
 44
1.0
  0
ENDBLK
  5
583
330
577
100
AcDbEntity
  8
0
100
AcDbBlockEnd
  0
BLOCK
  5
596
330
58B
100
AcDbEntity
  8
0
100
AcDbBlockBegin
  2
*D40
 70
     1
 71
     0
 10
0.0
 20
0.0
 30
0.0
  3
*D40
  1

  0
INSERT
  5
598
330
58B
100
AcDbEntity
  8
0
  6
Continuous
 62
     7
370
     0
100
AcDbBlockReference
  2
_Open30
 10
28.433679781
 20
197.1764455959
 30
0.1
 41
3.0
 42
3.0
 50
90.0
  0
INSERT
  5
599
330
58B
100
AcDbEntity
  8
0
  6
Continuous
 62
     7
370
     0
100
AcDbBlockReference
  2
_Open30
 10
28.433679781
 20
153.1764455959
 30
0.1
 41
3.0
 42
3.0
 50
270.0
  0
LINE
  5
59A
330
58B
100
AcDbEntity
  8
0
  6
Continuous
 62
     7
370
     0
100
AcDbLine
 10
51.1386842115
 20
197.1764455959
 30
0.0
 11
27.433679781
 21
197.1764455959
 31
0.0
  0
LINE
  5
59B
330
58B
100
AcDbEntity
  8
0
  6
Continuous
 62
     7
370
     0
100
AcDbLine
 10
54.6386842115
 20
153.1764455959
 30
0.0
 11
27.433679781
 21
153.1764455959
 31
0.0
  0
LINE
  5
59C
330
58B
100
AcDbEntity
  8
0
  6
Continuous
 62
     7
370
     0
100
AcDbLine
 10
28.433679781
 20
197.1764455959
 30
0.0
 11
28.433679781
 21
153.1764455959
 31
0.0
  0
MTEXT
  5
59D
330
58B
100
AcDbEntity
  8
0
  6
Continuous
 62
     7
370
     0
100
AcDbMText
 10
24.3609527411
 20
173.1406260104
 30
0.0
 40
3.5
 41
0.0
 71
     1
 72
     1
  1
44
  7
SLDTEXTSTYLE0
 11
-3.491483361109382E-15
 21
1.0
 31
0.0
 73
     1
 44
1.0
  0
ENDBLK
  5
597
330
58B
100
AcDbEntity
  8
0
100
AcDbBlockEnd
  0
BLOCK
  5
5A0
330
59F
100
AcDbEntity
  8
0
100
AcDbBlockBegin
  2
SW_CENTERMARKSYMBOL_9
 70
     0
 71
     0
 10
0.0
 20
0.0
 30
0.0
  3
SW_CENTERMARKSYMBOL_9
  1

  0
LINE
  5
5A2
330
59F
100
AcDbEntity
  8
0
  6
Continuous
 62
     7
370
     0
100
AcDbLine
 10
0.0
 20
0.0
 30
0.0
 11
0.0
 21
2.5
 31
0.0
  0
LINE
  5
5A3
330
59F
100
AcDbEntity
  8
0
  6
Continuous
 62
     7
370
     0
100
AcDbLine
 10
0.0
 20
0.0
 30
0.0
 11
-2.5
 21
0.0
 31
0.0
  0
LINE
  5
5A4
330
59F
100
AcDbEntity
  8
0
  6
Continuous
 62
     7
370
     0
100
AcDbLine
 10
0.0
 20
0.0
 30
0.0
 11
0.0
 21
-2.5
 31
0.0
  0
LINE
  5
5A5
330
59F
100
AcDbEntity
  8
0
  6
Continuous
 62
     7
370
     0
100
AcDbLine
 10
0.0
 20
0.0
 30
0.0
 11
2.5
 21
0.0
 31
0.0
  0
LINE
  5
5A6
330
59F
100
AcDbEntity
  8
0
  6
Continuous
 62
     7
370
     0
100
AcDbLine
 10
0.0
 20
5.0
 30
0.0
 11
0.0
 21
7.0
 31
0.0
  0
LINE
  5
5A7
330
59F
100
AcDbEntity
  8
0
  6
Continuous
 62
     7
370
     0
100
AcDbLine
 10
-5.0
 20
0.0
 30
0.0
 11
-7.0
 21
0.0
 31
0.0
  0
LINE
  5
5A8
330
59F
100
AcDbEntity
  8
0
  6
Continuous
 62
     7
370
     0
100
AcDbLine
 10
0.0
 20
-5.0
 30
0.0
 11
0.0
 21
-7.0
 31
0.0
  0
LINE
  5
5A9
330
59F
100
AcDbEntity
  8
0
  6
Continuous
 62
     7
370
     0
100
AcDbLine
 10
5.0
 20
0.0
 30
0.0
 11
7.0
 21
0.0
 31
0.0
  0
ENDBLK
  5
5A1
330
59F
100
AcDbEntity
  8
0
100
AcDbBlockEnd
  0
ENDSEC
  0
SECTION
  2
ENTITIES
  0
LINE
  5
2F
330
1F
100
AcDbEntity
  8
0
  6
Continuous
 62
     7
370
     0
100
AcDbLine
 10
20.2604743903
 20
285.0
 30
0.0
 11
196.7604743903
 21
285.0
 31
0.0
  0
LINE
  5
30
330
1F
100
AcDbEntity
  8
0
  6
Continuous
 62
     7
370
     0
100
AcDbLine
 10
20.2604743903
 20
285.0
 30
0.0
 11
20.2604743903
 21
10.0
 31
0.0
  0
LINE
  5
31
330
1F
100
AcDbEntity
  8
0
  6
Continuous
 62
     7
370
     0
100
AcDbLine
 10
20.2604743903
 20
10.0
 30
0.0
 11
196.7604743903
 21
10.0
 31
0.0
  0
LINE
  5
32
330
1F
100
AcDbEntity
  8
0
  6
Continuous
 62
     7
370
     0
100
AcDbLine
 10
196.7604743903
 20
285.0
 30
0.0
 11
196.7604743903
 21
10.0
 31
0.0
  0
LINE
  5
33
330
1F
100
AcDbEntity
  8
0
  6
Continuous
 62
     7
370
     0
100
AcDbLine
 10
127.0104743903
 20
50.75
 30
0.0
 11
196.7604743903
 21
50.75
 31
0.0
  0
LINE
  5
34
330
1F
100
AcDbEntity
  8
0
  6
Continuous
 62
     7
370
     0
100
AcDbLine
 10
127.0104743903
 20
50.75
 30
0.0
 11
127.0104743903
 21
10.0
 31
0.0
  0
LINE
  5
35
330
1F
100
AcDbEntity
  8
0
  6
Continuous
 62
     7
370
     0
100
AcDbLine
 10
127.0104743903
 20
22.75
 30
0.0
 11
196.7604743903
 21
22.75
 31
0.0
  0
LINE
  5
36
330
1F
100
AcDbEntity
  8
0
  6
Continuous
 62
     7
370
     0
100
AcDbLine
 10
127.0104743903
 20
36.75
 30
0.0
 11
196.7604743903
 21
36.75
 31
0.0
  0
MTEXT
  5
38
330
1F
100
AcDbEntity
  8
0
  6
Continuous
 62
     7
370
     0
100
AcDbMText
 10
147.3118294496
 20
29.8861654089
 30
0.0
 40
4.2333333333
 41
0.0
 71
     1
 72
     1
  1
J25411-100-0
  7
SLDTEXTSTYLE0
 73
     1
 44
1.0
  0
LINE
  5
39
330
1F
100
AcDbEntity
  8
0
  6
Continuous
 62
     7
370
     0
100
AcDbLine
 10
131.6370362694
 20
205.7764455959
 30
0.0
 11
131.6370361614
 21
205.2764454856
 31
0.0
  0
LINE
  5
3A
330
1F
100
AcDbEntity
  8
0
  6
Continuous
 62
     7
370
     0
100
AcDbLine
 10
138.6370363775
 20
205.2764454856
 30
0.0
 11
138.6370362694
 21
205.7764455959
 31
0.0
  0
LINE
  5
3B
330
1F
100
AcDbEntity
  8
0
  6
Continuous
 62
     7
370
     0
100
AcDbLine
 10
132.1870362694
 20
206.4764455959
 30
0.0
 11
132.1870361584
 21
205.7764455675
 31
0.0
  0
LINE
  5
3C
330
1F
100
AcDbEntity
  8
0
  6
Continuous
 62
     7
370
     0
100
AcDbLine
 10
138.0870363804
 20
205.7764455675
 30
0.0
 11
138.0870362694
 21
206.4764455959
 31
0.0
  0
LINE
  5
3D
330
1F
100
AcDbEntity
  8
0
  6
Continuous
 62
     7
370
     0
100
AcDbLine
 10
137.8870362694
 20
209.1764455959
 30
0.0
 11
137.5870362694
 21
209.4764455959
 31
0.0
  0
LINE
  5
3E
330
1F
100
AcDbEntity
  8
0
  6
Continuous
 62
     7
370
     0
100
AcDbLine
 10
132.6870362694
 20
209.4764455959
 30
0.0
 11
132.3870362694
 21
209.1764455959
 31
0.0
  0
LINE
  5
3F
330
1F
100
AcDbEntity
  8
0
  6
Continuous
 62
     7
370
     0
100
AcDbLine
 10
137.8870362545
 20
206.4764453098
 30
0.0
 11
137.8870362694
 21
209.1764455959
 31
0.0
  0
LINE
  5
40
330
1F
100
AcDbEntity
  8
0
  6
Continuous
 62
     7
370
     0
100
AcDbLine
 10
132.3870362694
 20
209.1764455959
 30
0.0
 11
132.3870362843
 21
206.4764453098
 31
0.0
  0
ARC
  5
41
330
1F
100
AcDbEntity
  8
0
  6
Continuous
 62
     7
370
     0
100
AcDbCircle
 10
130.8425621946
 20
230.8234466881
 30
0.0
 40
30.36104019882997
100
AcDbArc
 50
268.263280828
 51
269.2332556056
  0
LWPOLYLINE
  5
42
330
1F
100
AcDbEntity
  8
0
  6
Continuous
 62
     7
370
     0
100
AcDbPolyline
 90
        7
 70
   128
 43
0.0
 10
131.3620019368
 20
200.4757924005
 10
131.3631677198
 20
200.4757085814
 10
131.3463668934
 20
200.4733243957
 10
131.3024946152
 20
200.4700610413
 10
131.2337127178
 20
200.4666319116
 10
131.0422926339
 20
200.4615003242
 10
130.8381909634
 20
200.4608130082
  0
ARC
  5
43
330
1F
100
AcDbEntity
  8
0
  6
Continuous
 62
     7
370
     0
100
AcDbCircle
 10
139.8425496134
 20
230.8228673199
 30
0.0
 40
30.36046071311145
100
AcDbArc
 50
268.2632715709
 51
269.2332648627
  0
LWPOLYLINE
  5
44
330
1F
100
AcDbEntity
  8
0
  6
Continuous
 62
     7
370
     0
100
AcDbPolyline
 90
        7
 70
   128
 43
0.0
 10
140.3620017822
 20
200.4757924005
 10
140.363167798
 20
200.4757085814
 10
140.3463667388
 20
200.4733243957
 10
140.3024944606
 20
200.4700610413
 10
140.2337125632
 20
200.4666319116
 10
140.0422927122
 20
200.4615003242
 10
139.8381910416
 20
200.4608130082
  0
LINE
  5
45
330
1F
100
AcDbEntity
  8
0
  6
Continuous
 62
     7
370
     0
100
AcDbLine
 10
128.8870362694
 20
199.4764455959
 30
0.0
 11
128.8870361763
 21
199.176444672
 31
0.0
  0
LINE
  5
46
330
1F
100
AcDbEntity
  8
0
  6
Continuous
 62
     7
370
     0
100
AcDbLine
 10
132.3870362843
 20
199.176444672
 30
0.0
 11
132.3870362694
 21
199.4764455959
 31
0.0
  0
LINE
  5
47
330
1F
100
AcDbEntity
  8
0
  6
Continuous
 62
     7
370
     0
100
AcDbLine
 10
137.8870362694
 20
199.4764455959
 30
0.0
 11
137.8870362545
 21
199.176444672
 31
0.0
  0
LINE
  5
48
330
1F
100
AcDbEntity
  8
0
  6
Continuous
 62
     7
370
     0
100
AcDbLine
 10
141.3870363626
 20
199.176444672
 30
0.0
 11
141.3870362694
 21
199.4764455959
 31
0.0
  0
LINE
  5
49
330
1F
100
AcDbEntity
  8
0
  6
Continuous
 62
     7
370
     0
100
AcDbLine
 10
127.3870362694
 20
171.1764455959
 30
0.0
 11
128.8895740303
 21
171.1764438077
 31
0.0
  0
LINE
  5
4A
330
1F
100
AcDbEntity
  8
0
  6
Continuous
 62
     7
370
     0
100
AcDbLine
 10
141.3844985085
 20
171.1764438077
 30
0.0
 11
142.8870362694
 21
171.1764455959
 31
0.0
  0
LINE
  5
4B
330
1F
100
AcDbEntity
  8
0
  6
Continuous
 62
     7
370
     0
100
AcDbLine
 10
126.8870362694
 20
172.1764455959
 30
0.0
 11
127.3870363961
 21
172.1764458343
 31
0.0
  0
LINE
  5
4C
330
1F
100
AcDbEntity
  8
0
  6
Continuous
 62
     7
370
     0
100
AcDbLine
 10
127.4007426704
 20
178.1764468177
 30
0.0
 11
126.8870362694
 21
178.1764455959
 31
0.0
  0
LINE
  5
4D
330
1F
100
AcDbEntity
  8
0
  6
Continuous
 62
     7
370
     0
100
AcDbLine
 10
142.8870361428
 20
172.1764458343
 30
0.0
 11
143.3870362694
 21
172.1764455959
 31
0.0
  0
LINE
  5
4E
330
1F
100
AcDbEntity
  8
0
  6
Continuous
 62
     7
370
     0
100
AcDbLine
 10
143.3870362694
 20
178.1764455959
 30
0.0
 11
142.8733298684
 21
178.1764468178
 31
0.0
  0
LINE
  5
4F
330
1F
100
AcDbEntity
  8
0
  6
Continuous
 62
     7
370
     0
100
AcDbLine
 10
147.7870362694
 20
173.4464455959
 30
0.0
 11
148.8870361949
 21
174.0514440461
 31
0.0
  0
LINE
  5
50
330
1F
100
AcDbEntity
  8
0
  6
Continuous
 62
     7
370
     0
100
AcDbLine
 10
148.8870361949
 20
176.3014448806
 30
0.0
 11
147.7870362694
 21
176.9064455959
 31
0.0
  0
LINE
  5
51
330
1F
100
AcDbEntity
  8
0
  6
Continuous
 62
     7
370
     0
100
AcDbLine
 10
147.3870362694
 20
173.4464455959
 30
0.0
 11
147.7870362694
 21
173.4464455959
 31
0.0
  0
LINE
  5
52
330
1F
100
AcDbEntity
  8
0
  6
Continuous
 62
     7
370
     0
100
AcDbLine
 10
147.7870362694
 20
176.9064455959
 30
0.0
 11
147.3870362694
 21
176.9064455959
 31
0.0
  0
LINE
  5
53
330
1F
100
AcDbEntity
  8
0
  6
Continuous
 62
     7
370
     0
100
AcDbLine
 10
148.8870362694
 20
173.4464455959
 30
0.0
 11
149.2870362694
 21
173.4464455959
 31
0.0
  0
LINE
  5
54
330
1F
100
AcDbEntity
  8
0
  6
Continuous
 62
     7
370
     0
100
AcDbLine
 10
149.2870362694
 20
176.9064455959
 30
0.0
 11
148.8870362694
 21
176.9064455959
 31
0.0
  0
LINE
  5
55
330
1F
100
AcDbEntity
  8
0
  6
Continuous
 62
     7
370
     0
100
AcDbLine
 10
149.2870362694
 20
173.4464455959
 30
0.0
 11
150.3870362694
 21
174.0514455959
 31
0.0
  0
LINE
  5
56
330
1F
100
AcDbEntity
  8
0
  6
Continuous
 62
     7
370
     0
100
AcDbLine
 10
150.3870362694
 20
176.3014455959
 30
0.0
 11
149.2870362694
 21
176.9064455959
 31
0.0
  0
ARC
  5
57
330
1F
100
AcDbEntity
  8
0
  6
Continuous
 62
     7
370
     0
100
AcDbCircle
 10
145.7870362694
 20
176.8264455959
 30
0.0
 40
0.4000000000000057
100
AcDbArc
 50
180.0
 51
270.0
  0
ARC
  5
58
330
1F
100
AcDbEntity
  8
0
  6
Continuous
 62
     7
370
     0
100
AcDbCircle
 10
145.7870362694
 20
173.5264455959
 30
0.0
 40
0.4000000000000057
100
AcDbArc
 50
90.0
 51
180.0
  0
LINE
  5
59
330
1F
100
AcDbEntity
  8
0
  6
Continuous
 62
     7
370
     0
100
AcDbLine
 10
147.3870359491
 20
176.4264469966
 30
0.0
 11
145.7870362694
 21
176.4264455959
 31
0.0
  0
LINE
  5
5A
330
1F
100
AcDbEntity
  8
0
  6
Continuous
 62
     7
370
     0
100
AcDbLine
 10
145.7870362694
 20
173.9264455959
 30
0.0
 11
147.3870359491
 21
173.9264456555
 31
0.0
  0
LINE
  5
5B
330
1F
100
AcDbEntity
  8
0
  6
Continuous
 62
     7
370
     0
100
AcDbLine
 10
150.6870362694
 20
176.3014455959
 30
0.0
 11
150.3870362694
 21
176.3014455959
 31
0.0
  0
LINE
  5
5C
330
1F
100
AcDbEntity
  8
0
  6
Continuous
 62
     7
370
     0
100
AcDbLine
 10
150.3870362694
 20
174.0514455959
 30
0.0
 11
150.6870362694
 21
174.0514455959
 31
0.0
  0
LINE
  5
5D
330
1F
100
AcDbEntity
  8
0
  6
Continuous
 62
     7
370
     0
100
AcDbLine
 10
150.6870362694
 20
174.0514455959
 30
0.0
 11
150.8870362694
 21
174.2514455959
 31
0.0
  0
LINE
  5
5E
330
1F
100
AcDbEntity
  8
0
  6
Continuous
 62
     7
370
     0
100
AcDbLine
 10
150.8870362694
 20
176.1014455959
 30
0.0
 11
150.6870362694
 21
176.3014455959
 31
0.0
  0
CIRCLE
  5
5F
330
1F
100
AcDbEntity
  8
0
  6
Continuous
 62
     7
370
     0
100
AcDbCircle
 10
125.1370362694
 20
186.6764455959
 30
0.0
 40
2.450000000000002
  0
CIRCLE
  5
60
330
1F
100
AcDbEntity
  8
0
  6
Continuous
 62
     7
370
     0
100
AcDbCircle
 10
125.1370362694
 20
186.6764455959
 30
0.0
 40
2.749999999999987
  0
LINE
  5
61
330
1F
100
AcDbEntity
  8
0
  6
Continuous
 62
     7
370
     0
100
AcDbLine
 10
125.2820713575
 20
185.2403758093
 30
0.0
 11
126.4532271902
 21
186.0840143635
 31
0.0
  0
LINE
  5
62
330
1F
100
AcDbEntity
  8
0
  6
Continuous
 62
     7
370
     0
100
AcDbLine
 10
126.4532271902
 20
186.0840143635
 30
0.0
 11
126.3081923257
 21
187.5200839713
 31
0.0
  0
LINE
  5
63
330
1F
100
AcDbEntity
  8
0
  6
Continuous
 62
     7
370
     0
100
AcDbLine
 10
126.3081923257
 20
187.5200839713
 30
0.0
 11
124.9920016284
 21
188.1125168874
 31
0.0
  0
LINE
  5
64
330
1F
100
AcDbEntity
  8
0
  6
Continuous
 62
     7
370
     0
100
AcDbLine
 10
124.9920016284
 20
188.1125168874
 30
0.0
 11
123.8208448644
 21
187.2688764706
 31
0.0
  0
LINE
  5
65
330
1F
100
AcDbEntity
  8
0
  6
Continuous
 62
     7
370
     0
100
AcDbLine
 10
123.8208448644
 20
187.2688764706
 30
0.0
 11
123.9658806602
 21
185.8328068628
 31
0.0
  0
LINE
  5
66
330
1F
100
AcDbEntity
  8
0
  6
Continuous
 62
     7
370
     0
100
AcDbLine
 10
123.9658806602
 20
185.8328068628
 30
0.0
 11
125.2820713575
 21
185.2403758093
 31
0.0
  0
SPLINE
  5
67
330
1F
100
AcDbEntity
  8
0
  6
Continuous
 62
     7
370
     0
100
AcDbSpline
210
0.0
220
0.0
230
1.0
 70
    12
 71
     3
 72
    12
 73
     8
 74
     0
 42
0.00000001
 43
0.00000001
 40
0.0
 40
0.0
 40
0.0
 40
0.0
 40
0.1761792495488884
 40
0.3361296870726263
 40
0.5001207470806607
 40
0.7237873387185426
 40
1.0
 40
1.0
 40
1.0
 40
1.0
 10
124.9920016284026
 20
188.1125168874206
 30
0.0
 41
1.0
 10
124.9936174922841
 20
188.0965148397938
 30
0.0
 41
1.0
 10
124.9967003741914
 20
188.0659847786482
 30
0.0
 41
1.0
 10
125.0143256797548
 20
187.8914653990757
 30
0.0
 41
1.0
 10
125.0435086325364
 20
187.6025195279271
 30
0.0
 41
1.0
 10
125.085870197313
 20
187.1830652350073
 30
0.0
 41
1.0
 10
125.1188263062073
 20
186.8567524214277
 30
0.0
 41
1.0
 10
125.1370364929474
 20
186.6764454170408
 30
0.0
 41
1.0
  0
SPLINE
  5
68
330
1F
100
AcDbEntity
  8
0
  6
Continuous
 62
     7
370
     0
100
AcDbSpline
210
0.0
220
0.0
230
1.0
 70
    12
 71
     3
 72
    12
 73
     8
 74
     0
 42
0.00000001
 43
0.00000001
 40
0.0
 40
0.0
 40
0.0
 40
0.0
 40
0.1761792936825537
 40
0.3361296785138183
 40
0.5001208286912223
 40
0.7237878928811687
 40
1.0
 40
1.0
 40
1.0
 40
1.0
 10
123.8208448643721
 20
187.26887647056
 30
0.0
 41
1.0
 10
123.835511298959
 20
187.2622754239413
 30
0.0
 41
1.0
 10
123.8634931567561
 20
187.2496813918538
 30
0.0
 41
1.0
 10
124.0234436863992
 20
187.1776860500818
 30
0.0
 41
1.0
 10
124.2882692994224
 20
187.0584845477651
 30
0.0
 41
1.0
 10
124.6727083997183
 20
186.8854441494419
 30
0.0
 41
1.0
 10
124.9717813939787
 20
186.7508283947475
 30
0.0
 41
1.0
 10
125.1370364929474
 20
186.6764454170408
 30
0.0
 41
1.0
  0
SPLINE
  5
69
330
1F
100
AcDbEntity
  8
0
  6
Continuous
 62
     7
370
     0
100
AcDbSpline
210
0.0
220
0.0
230
1.0
 70
    12
 71
     3
 72
    12
 73
     8
 74
     0
 42
0.00000001
 43
0.00000001
 40
0.0
 40
0.0
 40
0.0
 40
0.0
 40
0.238288168649885
 40
0.4370749407375075
 40
0.6074283660320472
 40
0.7948521068895478
 40
1.0
 40
1.0
 40
1.0
 40
1.0
 10
125.1370364929474
 20
186.6764454170408
 30
0.0
 41
1.0
 10
125.0102851933946
 20
186.5851404193472
 30
0.0
 41
1.0
 10
124.7777943523496
 20
186.4176661939919
 30
0.0
 41
1.0
 10
124.4622196698085
 20
186.1903432974968
 30
0.0
 41
1.0
 10
124.2030099199125
 20
186.0036209466916
 30
0.0
 41
1.0
 10
124.0138026102855
 20
185.867328271557
 30
0.0
 41
1.0
 10
123.9823283194514
 20
185.8446552197012
 30
0.0
 41
1.0
 10
123.9658806602396
 20
185.8328068628253
 30
0.0
 41
1.0
  0
SPLINE
  5
6A
330
1F
100
AcDbEntity
  8
0
  6
Continuous
 62
     7
370
     0
100
AcDbSpline
210
0.0
220
0.0
230
1.0
 70
    12
 71
     3
 72
    12
 73
     8
 74
     0
 42
0.00000001
 43
0.00000001
 40
0.0
 40
0.0
 40
0.0
 40
0.0
 40
0.176179317956598
 40
0.3361298471389452
 40
0.5001206939475024
 40
0.7237881293111442
 40
1.0
 40
1.0
 40
1.0
 40
1.0
 10
126.3081923256553
 20
187.5200839712562
 30
0.0
 41
1.0
 10
126.2951421176354
 20
187.5106837640309
 30
0.0
 41
1.0
 10
126.270243823796
 20
187.4927492513176
 30
0.0
 41
1.0
 10
126.1279187949256
 20
187.3902247225938
 30
0.0
 41
1.0
 10
125.8922752171307
 20
187.2204801029476
 30
0.0
 41
1.0
 10
125.5501988728094
 20
186.9740651575262
 30
0.0
 41
1.0
 10
125.2840815274228
 20
186.7823686741748
 30
0.0
 41
1.0
 10
125.1370364929474
 20
186.6764454170408
 30
0.0
 41
1.0
  0
SPLINE
  5
6B
330
1F
100
AcDbEntity
  8
0
  6
Continuous
 62
     7
370
     0
100
AcDbSpline
210
0.0
220
0.0
230
1.0
 70
    12
 71
     3
 72
    12
 73
     8
 74
     0
 42
0.00000001
 43
0.00000001
 40
0.0
 40
0.0
 40
0.0
 40
0.0
 40
0.1761791113115089
 40
0.3361295929880072
 40
0.5001206608150742
 40
0.7237882495097217
 40
1.0
 40
1.0
 40
1.0
 40
1.0
 10
125.2820713574923
 20
185.2403758093061
 30
0.0
 41
1.0
 10
125.2804551287445
 20
185.2563770835882
 30
0.0
 41
1.0
 10
125.277371549158
 20
185.2869056846901
 30
0.0
 41
1.0
 10
125.2597460747691
 20
185.4614255181402
 30
0.0
 41
1.0
 10
125.2305649614715
 20
185.7503717971917
 30
0.0
 41
1.0
 10
125.1882013238011
 20
186.1698262898839
 30
0.0
 41
1.0
 10
125.1552461176702
 20
186.4961390615041
 30
0.0
 41
1.0
 10
125.1370364929474
 20
186.6764454170408
 30
0.0
 41
1.0
  0
SPLINE
  5
6C
330
1F
100
AcDbEntity
  8
0
  6
Continuous
 62
     7
370
     0
100
AcDbSpline
210
0.0
220
0.0
230
1.0
 70
    12
 71
     3
 72
    12
 73
     8
 74
     0
 42
0.00000001
 43
0.00000001
 40
0.0
 40
0.0
 40
0.0
 40
0.0
 40
0.1761792377726029
 40
0.3361298552774467
 40
0.5001207314256158
 40
0.7237878391363046
 40
1.0
 40
1.0
 40
1.0
 40
1.0
 10
126.4532271902002
 20
186.0840143635215
 30
0.0
 41
1.0
 10
126.4385611000469
 20
186.0906151328518
 30
0.0
 41
1.0
 10
126.4105798757947
 20
186.1032086465244
 30
0.0
 41
1.0
 10
126.2506296521708
 20
186.1752077602278
 30
0.0
 41
1.0
 10
125.9858033051948
 20
186.2944052708853
 30
0.0
 41
1.0
 10
125.601364659366
 20
186.4674470773403
 30
0.0
 41
1.0
 10
125.3022916179644
 20
186.6020625790968
 30
0.0
 41
1.0
 10
125.1370364929474
 20
186.6764454170408
 30
0.0
 41
1.0
  0
CIRCLE
  5
6D
330
1F
100
AcDbEntity
  8
0
  6
Continuous
 62
     7
370
     0
100
AcDbCircle
 10
125.1370362694
 20
186.6764455959
 30
0.0
 40
2.950000000000008
  0
CIRCLE
  5
6E
330
1F
100
AcDbEntity
  8
0
  6
Continuous
 62
     7
370
     0
100
AcDbCircle
 10
125.1370362694
 20
186.6764455959
 30
0.0
 40
3.500000000000012
  0
CIRCLE
  5
6F
330
1F
100
AcDbEntity
  8
0
  6
Continuous
 62
     7
370
     0
100
AcDbCircle
 10
145.1370362694
 20
186.6764455959
 30
0.0
 40
2.450000000000002
  0
CIRCLE
  5
70
330
1F
100
AcDbEntity
  8
0
  6
Continuous
 62
     7
370
     0
100
AcDbCircle
 10
145.1370362694
 20
186.6764455959
 30
0.0
 40
2.750000000000016
  0
LINE
  5
71
330
1F
100
AcDbEntity
  8
0
  6
Continuous
 62
     7
370
     0
100
AcDbLine
 10
145.2820709105
 20
185.2403758093
 30
0.0
 11
146.4532276745
 21
186.0840143635
 31
0.0
  0
LINE
  5
72
330
1F
100
AcDbEntity
  8
0
  6
Continuous
 62
     7
370
     0
100
AcDbLine
 10
146.4532276745
 20
186.0840143635
 30
0.0
 11
146.3081918786
 21
187.5200839713
 31
0.0
  0
LINE
  5
73
330
1F
100
AcDbEntity
  8
0
  6
Continuous
 62
     7
370
     0
100
AcDbLine
 10
146.3081918786
 20
187.5200839713
 30
0.0
 11
144.9920011814
 21
188.1125168874
 31
0.0
  0
LINE
  5
74
330
1F
100
AcDbEntity
  8
0
  6
Continuous
 62
     7
370
     0
100
AcDbLine
 10
144.9920011814
 20
188.1125168874
 30
0.0
 11
143.8208453487
 21
187.2688764706
 31
0.0
  0
LINE
  5
75
330
1F
100
AcDbEntity
  8
0
  6
Continuous
 62
     7
370
     0
100
AcDbLine
 10
143.8208453487
 20
187.2688764706
 30
0.0
 11
143.9658802132
 21
185.8328068628
 31
0.0
  0
LINE
  5
76
330
1F
100
AcDbEntity
  8
0
  6
Continuous
 62
     7
370
     0
100
AcDbLine
 10
143.9658802132
 20
185.8328068628
 30
0.0
 11
145.2820709105
 21
185.2403758093
 31
0.0
  0
SPLINE
  5
77
330
1F
100
AcDbEntity
  8
0
  6
Continuous
 62
     7
370
     0
100
AcDbSpline
210
0.0
220
0.0
230
1.0
 70
    12
 71
     3
 72
    12
 73
     8
 74
     0
 42
0.00000001
 43
0.00000001
 40
0.0
 40
0.0
 40
0.0
 40
0.0
 40
0.1761792647718296
 40
0.3361297070935831
 40
0.5001207345717461
 40
0.7237873778794999
 40
1.0
 40
1.0
 40
1.0
 40
1.0
 10
144.9920011813677
 20
188.1125168874207
 30
0.0
 41
1.0
 10
144.9936174069959
 20
188.0965148382506
 30
0.0
 41
1.0
 10
144.9967009789911
 20
188.0659847749798
 30
0.0
 41
1.0
 10
145.014326475529
 20
187.8914654390128
 30
0.0
 41
1.0
 10
145.0435074795832
 20
187.6025194280514
 30
0.0
 41
1.0
 10
145.0858714469059
 20
187.1830653607236
 30
0.0
 41
1.0
 10
145.118826464962
 20
186.8567524467988
 30
0.0
 41
1.0
 10
145.1370360459126
 20
186.6764454170409
 30
0.0
 41
1.0
  0
SPLINE
  5
78
330
1F
100
AcDbEntity
  8
0
  6
Continuous
 62
     7
370
     0
100
AcDbSpline
210
0.0
220
0.0
230
1.0
 70
    12
 71
     3
 72
    12
 73
     8
 74
     0
 42
0.00000001
 43
0.00000001
 40
0.0
 40
0.0
 40
0.0
 40
0.0
 40
0.1761792193816722
 40
0.3361296186389575
 40
0.5001207836068211
 40
0.7237878679694337
 40
1.0
 40
1.0
 40
1.0
 40
1.0
 10
143.8208453486598
 20
187.2688764705601
 30
0.0
 41
1.0
 10
143.8355113945549
 20
187.26227542011
 30
0.0
 41
1.0
 10
143.8634925175893
 20
187.2496813776446
 30
0.0
 41
1.0
 10
144.0234432971149
 20
187.1776860504023
 30
0.0
 41
1.0
 10
144.2882688305205
 20
187.0584845476439
 30
0.0
 41
1.0
 10
144.6727079605244
 20
186.8854441494855
 30
0.0
 41
1.0
 10
144.9717809497345
 20
186.7508283947631
 30
0.0
 41
1.0
 10
145.1370360459126
 20
186.6764454170409
 30
0.0
 41
1.0
  0
SPLINE
  5
79
330
1F
100
AcDbEntity
  8
0
  6
Continuous
 62
     7
370
     0
100
AcDbSpline
210
0.0
220
0.0
230
1.0
 70
    12
 71
     3
 72
    12
 73
     8
 74
     0
 42
0.00000001
 43
0.00000001
 40
0.0
 40
0.0
 40
0.0
 40
0.0
 40
0.1761791950295805
 40
0.3361296854678008
 40
0.5001207949540926
 40
0.7237878130851878
 40
1.0
 40
1.0
 40
1.0
 40
1.0
 10
146.3081918786205
 20
187.5200839712563
 30
0.0
 41
1.0
 10
146.295142042355
 20
187.5106837713524
 30
0.0
 41
1.0
 10
146.2702444523837
 20
187.4927492687199
 30
0.0
 41
1.0
 10
146.1279193317341
 20
187.3902245331429
 30
0.0
 41
1.0
 10
145.8922747118081
 20
187.2204805767334
 30
0.0
 41
1.0
 10
145.5501993072105
 20
186.9740645611594
 30
0.0
 41
1.0
 10
145.2840815216621
 20
186.7823685538212
 30
0.0
 41
1.0
 10
145.1370360459126
 20
186.6764454170409
 30
0.0
 41
1.0
  0
SPLINE
  5
7A
330
1F
100
AcDbEntity
  8
0
  6
Continuous
 62
     7
370
     0
100
AcDbSpline
210
0.0
220
0.0
230
1.0
 70
    12
 71
     3
 72
    12
 73
     8
 74
     0
 42
0.00000001
 43
0.00000001
 40
0.0
 40
0.0
 40
0.0
 40
0.0
 40
0.2382877880113778
 40
0.4370749334287178
 40
0.6074283609350569
 40
0.7948521042259911
 40
1.0
 40
1.0
 40
1.0
 40
1.0
 10
145.1370360459126
 20
186.6764454170409
 30
0.0
 41
1.0
 10
145.0102851444839
 20
186.5851403168014
 30
0.0
 41
1.0
 10
144.7777946662
 20
186.4176656386321
 30
0.0
 41
1.0
 10
144.4622192790442
 20
186.1903435665182
 30
0.0
 41
1.0
 10
144.2030095050668
 20
186.0036209066932
 30
0.0
 41
1.0
 10
144.0138021539604
 20
185.8673282831012
 30
0.0
 41
1.0
 10
143.982327869228
 20
185.8446552236635
 30
0.0
 41
1.0
 10
143.9658802132047
 20
185.8328068628255
 30
0.0
 41
1.0
  0
SPLINE
  5
7B
330
1F
100
AcDbEntity
  8
0
  6
Continuous
 62
     7
370
     0
100
AcDbSpline
210
0.0
220
0.0
230
1.0
 70
    12
 71
     3
 72
    12
 73
     8
 74
     0
 42
0.00000001
 43
0.00000001
 40
0.0
 40
0.0
 40
0.0
 40
0.0
 40
0.1761790960884994
 40
0.3361295729669271
 40
0.5001206733238184
 40
0.7237882103486582
 40
1.0
 40
1.0
 40
1.0
 40
1.0
 10
145.2820709104575
 20
185.2403758093062
 30
0.0
 41
1.0
 10
145.2804550434563
 20
185.2563770820449
 30
0.0
 41
1.0
 10
145.2773721539583
 20
185.2869056810217
 30
0.0
 41
1.0
 10
145.2597468705428
 20
185.4614255580772
 30
0.0
 41
1.0
 10
145.2305638085167
 20
185.7503716973162
 30
0.0
 41
1.0
 10
145.188202573392
 20
186.1698264155999
 30
0.0
 41
1.0
 10
145.1552462764229
 20
186.496139086875
 30
0.0
 41
1.0
 10
145.1370360459126
 20
186.6764454170409
 30
0.0
 41
1.0
  0
SPLINE
  5
7C
330
1F
100
AcDbEntity
  8
0
  6
Continuous
 62
     7
370
     0
100
AcDbSpline
210
0.0
220
0.0
230
1.0
 70
    12
 71
     3
 72
    12
 73
     8
 74
     0
 42
0.00000001
 43
0.00000001
 40
0.0
 40
0.0
 40
0.0
 40
0.0
 40
0.1761793120734905
 40
0.3361299151522925
 40
0.5001207765100262
 40
0.7237878640480447
 40
1.0
 40
1.0
 40
1.0
 40
1.0
 10
146.453227674488
 20
186.0840143635217
 30
0.0
 41
1.0
 10
146.4385611956428
 20
186.0906151290203
 30
0.0
 41
1.0
 10
146.4105792366274
 20
186.1032086323147
 30
0.0
 41
1.0
 10
146.2506292628864
 20
186.1752077605482
 30
0.0
 41
1.0
 10
145.9858028362929
 20
186.2944052707642
 30
0.0
 41
1.0
 10
145.6013642201721
 20
186.467447077384
 30
0.0
 41
1.0
 10
145.3022911737201
 20
186.6020625791124
 30
0.0
 41
1.0
 10
145.1370360459126
 20
186.6764454170409
 30
0.0
 41
1.0
  0
CIRCLE
  5
7D
330
1F
100
AcDbEntity
  8
0
  6
Continuous
 62
     7
370
     0
100
AcDbCircle
 10
145.1370362694
 20
186.6764455959
 30
0.0
 40
2.950000000000007
  0
CIRCLE
  5
7E
330
1F
100
AcDbEntity
  8
0
  6
Continuous
 62
     7
370
     0
100
AcDbCircle
 10
145.1370362694
 20
186.6764455959
 30
0.0
 40
3.500000000000012
  0
LINE
  5
7F
330
1F
100
AcDbEntity
  8
0
  6
Continuous
 62
     7
370
     0
100
AcDbLine
 10
124.1658989469
 20
227.1086322143
 30
0.0
 11
125.5762212108
 21
226.8015090375
 31
0.0
  0
LINE
  5
80
330
1F
100
AcDbEntity
  8
0
  6
Continuous
 62
     7
370
     0
100
AcDbLine
 10
125.5762212108
 20
226.8015090375
 30
0.0
 11
126.5473587568
 21
227.8693225234
 31
0.0
  0
LINE
  5
81
330
1F
100
AcDbEntity
  8
0
  6
Continuous
 62
     7
370
     0
100
AcDbLine
 10
126.5473587568
 20
227.8693225234
 30
0.0
 11
126.108174039
 21
229.244259186
 31
0.0
  0
LINE
  5
82
330
1F
100
AcDbEntity
  8
0
  6
Continuous
 62
     7
370
     0
100
AcDbLine
 10
126.108174039
 20
229.244259186
 30
0.0
 11
124.6978517751
 21
229.5513823628
 31
0.0
  0
LINE
  5
83
330
1F
100
AcDbEntity
  8
0
  6
Continuous
 62
     7
370
     0
100
AcDbLine
 10
124.6978517751
 20
229.5513823628
 30
0.0
 11
123.7267142291
 21
228.4835688769
 31
0.0
  0
LINE
  5
84
330
1F
100
AcDbEntity
  8
0
  6
Continuous
 62
     7
370
     0
100
AcDbLine
 10
123.7267142291
 20
228.4835688769
 30
0.0
 11
124.1658989469
 21
227.1086322143
 31
0.0
  0
CIRCLE
  5
85
330
1F
100
AcDbEntity
  8
0
  6
Continuous
 62
     7
370
     0
100
AcDbCircle
 10
125.1370362694
 20
228.1764455959
 30
0.0
 40
2.450000000000006
  0
CIRCLE
  5
86
330
1F
100
AcDbEntity
  8
0
  6
Continuous
 62
     7
370
     0
100
AcDbCircle
 10
125.1370362694
 20
228.1764455959
 30
0.0
 40
2.750000000000006
  0
SPLINE
  5
87
330
1F
100
AcDbEntity
  8
0
  6
Continuous
 62
     7
370
     0
100
AcDbSpline
210
0.0
220
0.0
230
1.0
 70
    12
 71
     3
 72
    12
 73
     8
 74
     0
 42
0.00000001
 43
0.00000001
 40
0.0
 40
0.0
 40
0.0
 40
0.0
 40
0.1761789122787756
 40
0.3361294511077111
 40
0.5001205776847023
 40
0.7237880227981758
 40
1.0
 40
1.0
 40
1.0
 40
1.0
 10
126.10817403895
 20
229.2442591860236
 30
0.0
 41
1.0
 10
126.0973524427831
 20
229.2323609153027
 30
0.0
 41
1.0
 10
126.0767060604626
 20
229.20966035963
 30
0.0
 41
1.0
 10
125.9586894954118
 20
229.0798926703083
 30
0.0
 41
1.0
 10
125.7632901142773
 20
228.8650426072769
 30
0.0
 41
1.0
 10
125.479635587307
 20
228.5531506300614
 30
0.0
 41
1.0
 10
125.2589679733109
 20
228.3105154934548
 30
0.0
 41
1.0
 10
125.1370364929472
 20
228.1764457001628
 30
0.0
 41
1.0
  0
SPLINE
  5
88
330
1F
100
AcDbEntity
  8
0
  6
Continuous
 62
     7
370
     0
100
AcDbSpline
210
0.0
220
0.0
230
1.0
 70
    12
 71
     3
 72
    12
 73
     8
 74
     0
 42
0.00000001
 43
0.00000001
 40
0.0
 40
0.0
 40
0.0
 40
0.0
 40
0.176178916653163
 40
0.3361294634525356
 40
0.5001206409296871
 40
0.7237875967547249
 40
1.0
 40
1.0
 40
1.0
 40
1.0
 10
124.6978517751132
 20
229.5513823627772
 30
0.0
 41
1.0
 10
124.7027455085516
 20
229.5360615244608
 30
0.0
 41
1.0
 10
124.7120821989239
 20
229.5068310963213
 30
0.0
 41
1.0
 10
124.7654542526166
 20
229.3397413040352
 30
0.0
 41
1.0
 10
124.8538208921109
 20
229.0630957955945
 30
0.0
 41
1.0
 10
124.9821003859776
 20
228.6614981466153
 30
0.0
 41
1.0
 10
125.0818944639584
 20
228.349076706495
 30
0.0
 41
1.0
 10
125.1370364929472
 20
228.1764457001628
 30
0.0
 41
1.0
  0
SPLINE
  5
89
330
1F
100
AcDbEntity
  8
0
  6
Continuous
 62
     7
370
     0
100
AcDbSpline
210
0.0
220
0.0
230
1.0
 70
    12
 71
     3
 72
    12
 73
     8
 74
     0
 42
0.00000001
 43
0.00000001
 40
0.0
 40
0.0
 40
0.0
 40
0.0
 40
0.2382880713930432
 40
0.437075116912854
 40
0.6074287623563875
 40
0.7948525781931778
 40
1.0
 40
1.0
 40
1.0
 40
1.0
 10
125.1370364929472
 20
228.1764457001628
 30
0.0
 41
1.0
 10
124.9844009123206
 20
228.2096846863567
 30
0.0
 41
1.0
 10
124.7044321591329
 20
228.2706526302904
 30
0.0
 41
1.0
 10
124.3244122172945
 20
228.3534095359327
 30
0.0
 41
1.0
 10
124.0122678426053
 20
228.4213830860313
 30
0.0
 41
1.0
 10
123.7844229688307
 20
228.4710018527455
 30
0.0
 41
1.0
 10
123.7465208705497
 20
228.4792556560261
 30
0.0
 41
1.0
 10
123.7267142291103
 20
228.4835688769163
 30
0.0
 41
1.0
  0
SPLINE
  5
8A
330
1F
100
AcDbEntity
  8
0
  6
Continuous
 62
     7
370
     0
100
AcDbSpline
210
0.0
220
0.0
230
1.0
 70
    12
 71
     3
 72
    12
 73
     8
 74
     0
 42
0.00000001
 43
0.00000001
 40
0.0
 40
0.0
 40
0.0
 40
0.0
 40
0.1761788221951962
 40
0.3361295048478768
 40
0.5001206095158016
 40
0.7237873926784363
 40
1.0
 40
1.0
 40
1.0
 40
1.0
 10
124.1658989469443
 20
227.108632214302
 30
0.0
 41
1.0
 10
124.176720048106
 20
227.1205305095163
 30
0.0
 41
1.0
 10
124.1973654998695
 20
227.1432311271564
 30
0.0
 41
1.0
 10
124.3153837849636
 20
227.2729986270843
 30
0.0
 41
1.0
 10
124.5107825373567
 20
227.4878485628147
 30
0.0
 41
1.0
 10
124.794437001223
 20
227.7997404287135
 30
0.0
 41
1.0
 10
125.0151046869967
 20
228.0423755828147
 30
0.0
 41
1.0
 10
125.1370364929472
 20
228.1764457001628
 30
0.0
 41
1.0
  0
SPLINE
  5
8B
330
1F
100
AcDbEntity
  8
0
  6
Continuous
 62
     7
370
     0
100
AcDbSpline
210
0.0
220
0.0
230
1.0
 70
    12
 71
     3
 72
    12
 73
     8
 74
     0
 42
0.00000001
 43
0.00000001
 40
0.0
 40
0.0
 40
0.0
 40
0.0
 40
0.176178916653163
 40
0.3361294634525356
 40
0.5001206409296871
 40
0.7237875967547249
 40
1.0
 40
1.0
 40
1.0
 40
1.0
 10
125.5762212107812
 20
226.8015090375485
 30
0.0
 41
1.0
 10
125.5713274773428
 20
226.8168298758648
 30
0.0
 41
1.0
 10
125.5619907869704
 20
226.8460603040043
 30
0.0
 41
1.0
 10
125.5086187332777
 20
227.0131500962905
 30
0.0
 41
1.0
 10
125.4202520937835
 20
227.2897956047312
 30
0.0
 41
1.0
 10
125.2919725999168
 20
227.6913932537104
 30
0.0
 41
1.0
 10
125.1921785219359
 20
228.0038146938307
 30
0.0
 41
1.0
 10
125.1370364929472
 20
228.1764457001628
 30
0.0
 41
1.0
  0
SPLINE
  5
8C
330
1F
100
AcDbEntity
  8
0
  6
Continuous
 62
     7
370
     0
100
AcDbSpline
210
0.0
220
0.0
230
1.0
 70
    12
 71
     3
 72
    12
 73
     8
 74
     0
 42
0.00000001
 43
0.00000001
 40
0.0
 40
0.0
 40
0.0
 40
0.0
 40
0.1761789830942274
 40
0.3361293285651849
 40
0.5001209465062972
 40
0.7237880179209291
 40
1.0
 40
1.0
 40
1.0
 40
1.0
 10
126.547358756784
 20
227.8693225234093
 30
0.0
 41
1.0
 10
126.5316434569356
 20
227.8727450780627
 30
0.0
 41
1.0
 10
126.5016604641092
 20
227.8792749204845
 30
0.0
 41
1.0
 10
126.3302714919212
 20
227.9165971698994
 30
0.0
 41
1.0
 10
126.046504949007
 20
227.9783925850431
 30
0.0
 41
1.0
 10
125.6345719639593
 20
228.0680987501818
 30
0.0
 41
1.0
 10
125.314110125168
 20
228.1378848555779
 30
0.0
 41
1.0
 10
125.1370364929472
 20
228.1764457001628
 30
0.0
 41
1.0
  0
CIRCLE
  5
8D
330
1F
100
AcDbEntity
  8
0
  6
Continuous
 62
     7
370
     0
100
AcDbCircle
 10
125.1370362694
 20
228.1764455959
 30
0.0
 40
2.949999999999979
  0
CIRCLE
  5
8E
330
1F
100
AcDbEntity
  8
0
  6
Continuous
 62
     7
370
     0
100
AcDbCircle
 10
125.1370362694
 20
228.1764455959
 30
0.0
 40
3.500000000000024
  0
CIRCLE
  5
8F
330
1F
100
AcDbEntity
  8
0
  6
Continuous
 62
     7
370
     0
100
AcDbCircle
 10
145.1370362694
 20
228.1764455959
 30
0.0
 40
2.450000000000017
  0
CIRCLE
  5
90
330
1F
100
AcDbEntity
  8
0
  6
Continuous
 62
     7
370
     0
100
AcDbCircle
 10
145.1370362694
 20
228.1764455959
 30
0.0
 40
2.75
  0
LINE
  5
91
330
1F
100
AcDbEntity
  8
0
  6
Continuous
 62
     7
370
     0
100
AcDbLine
 10
143.6936602126
 20
228.1764457002
 30
0.0
 11
144.4153485949
 21
226.9264459609
 31
0.0
  0
LINE
  5
92
330
1F
100
AcDbEntity
  8
0
  6
Continuous
 62
     7
370
     0
100
AcDbLine
 10
144.4153485949
 20
226.9264459609
 30
0.0
 11
145.8587244282
 21
226.9264459609
 31
0.0
  0
LINE
  5
93
330
1F
100
AcDbEntity
  8
0
  6
Continuous
 62
     7
370
     0
100
AcDbLine
 10
145.8587244282
 20
226.9264459609
 30
0.0
 11
146.5804118792
 21
228.1764457002
 31
0.0
  0
LINE
  5
94
330
1F
100
AcDbEntity
  8
0
  6
Continuous
 62
     7
370
     0
100
AcDbLine
 10
146.5804118792
 20
228.1764457002
 30
0.0
 11
145.8587244282
 21
229.4264454394
 31
0.0
  0
LINE
  5
95
330
1F
100
AcDbEntity
  8
0
  6
Continuous
 62
     7
370
     0
100
AcDbLine
 10
145.8587244282
 20
229.4264454394
 30
0.0
 11
144.4153485949
 21
229.4264454394
 31
0.0
  0
LINE
  5
96
330
1F
100
AcDbEntity
  8
0
  6
Continuous
 62
     7
370
     0
100
AcDbLine
 10
144.4153485949
 20
229.4264454394
 30
0.0
 11
143.6936602126
 21
228.1764457002
 31
0.0
  0
SPLINE
  5
97
330
1F
100
AcDbEntity
  8
0
  6
Continuous
 62
     7
370
     0
100
AcDbSpline
210
0.0
220
0.0
230
1.0
 70
    12
 71
     3
 72
    12
 73
     8
 74
     0
 42
0.00000001
 43
0.00000001
 40
0.0
 40
0.0
 40
0.0
 40
0.0
 40
0.2382878287992888
 40
0.4370747090581328
 40
0.6074285195123852
 40
0.7948525341827304
 40
1.0
 40
1.0
 40
1.0
 40
1.0
 10
145.1370360459123
 20
228.176445700163
 30
0.0
 41
1.0
 10
145.0589298369239
 20
228.3117298741016
 30
0.0
 41
1.0
 10
144.9156650770691
 20
228.5598721785674
 30
0.0
 41
1.0
 10
144.7212023144343
 20
228.8966923646321
 30
0.0
 41
1.0
 10
144.5614710062067
 20
229.1733517801248
 30
0.0
 41
1.0
 10
144.4448795912078
 20
229.3752974261185
 30
0.0
 41
1.0
 10
144.4254841428794
 20
229.408890557839
 30
0.0
 41
1.0
 10
144.4153485949074
 20
229.4264454393926
 30
0.0
 41
1.0
  0
SPLINE
  5
98
330
1F
100
AcDbEntity
  8
0
  6
Continuous
 62
     7
370
     0
100
AcDbSpline
210
0.0
220
0.0
230
1.0
 70
    28
 71
     3
 72
    12
 73
     8
 74
     0
 42
0.00000001
 43
0.00000001
 40
0.0
 40
0.0
 40
0.0
 40
0.0
 40
0.1761789105763014
 40
0.336129644876679
 40
0.5001206981814492
 40
0.7237876265428449
 40
1.0
 40
1.0
 40
1.0
 40
1.0
 10
143.6936602125798
 20
228.1764457001629
 30
0.0
 41
1.0
 10
143.7097434985749
 20
228.1764457001629
 30
0.0
 41
1.0
 10
143.7404286083436
 20
228.1764457001629
 30
0.0
 41
1.0
 10
143.9158364474448
 20
228.1764457001629
 30
0.0
 41
1.0
 10
144.2062518347445
 20
228.1764457001629
 30
0.0
 41
1.0
 10
144.6278396977278
 20
228.176445700163
 30
0.0
 41
1.0
 10
144.9558121823297
 20
228.176445700163
 30
0.0
 41
1.0
 10
145.1370360459123
 20
228.176445700163
 30
0.0
 41
1.0
  0
SPLINE
  5
99
330
1F
100
AcDbEntity
  8
0
  6
Continuous
 62
     7
370
     0
100
AcDbSpline
210
0.0
220
0.0
230
1.0
 70
    12
 71
     3
 72
    12
 73
     8
 74
     0
 42
0.00000001
 43
0.00000001
 40
0.0
 40
0.0
 40
0.0
 40
0.0
 40
0.1761788333953566
 40
0.3361295570811326
 40
0.5001207959181523
 40
0.7237876290753
 40
1.0
 40
1.0
 40
1.0
 40
1.0
 10
145.8587244282399
 20
229.4264454393926
 30
0.0
 41
1.0
 10
145.8506826974088
 20
229.4125172159856
 30
0.0
 41
1.0
 10
145.835339972234
 20
229.3859437197573
 30
0.0
 41
1.0
 10
145.7476371634169
 20
229.2340352288722
 30
0.0
 41
1.0
 10
145.6024277922139
 20
228.9825286530303
 30
0.0
 41
1.0
 10
145.391634318473
 20
228.6174226515711
 30
0.0
 41
1.0
 10
145.2276480236248
 20
228.3333901809359
 30
0.0
 41
1.0
 10
145.1370360459123
 20
228.176445700163
 30
0.0
 41
1.0
  0
SPLINE
  5
9A
330
1F
100
AcDbEntity
  8
0
  6
Continuous
 62
     7
370
     0
100
AcDbSpline
210
0.0
220
0.0
230
1.0
 70
    12
 71
     3
 72
    12
 73
     8
 74
     0
 42
0.00000001
 43
0.00000001
 40
0.0
 40
0.0
 40
0.0
 40
0.0
 40
0.1761788468229438
 40
0.336129370070183
 40
0.5001207578195255
 40
0.72378760802359
 40
1.0
 40
1.0
 40
1.0
 40
1.0
 10
144.4153485949074
 20
226.9264459609333
 30
0.0
 41
1.0
 10
144.423390275286
 20
226.9403742993111
 30
0.0
 41
1.0
 10
144.4387328944978
 20
226.9669479980806
 30
0.0
 41
1.0
 10
144.5264363254331
 20
227.1188548530774
 30
0.0
 41
1.0
 10
144.6716437223898
 20
227.3703631629349
 30
0.0
 41
1.0
 10
144.8824379647966
 20
227.7354685728163
 30
0.0
 41
1.0
 10
145.0464241363355
 20
228.0195011567733
 30
0.0
 41
1.0
 10
145.1370360459123
 20
228.176445700163
 30
0.0
 41
1.0
  0
SPLINE
  5
9B
330
1F
100
AcDbEntity
  8
0
  6
Continuous
 62
     7
370
     0
100
AcDbSpline
210
0.0
220
0.0
230
1.0
 70
    28
 71
     3
 72
    12
 73
     8
 74
     0
 42
0.00000001
 43
0.00000001
 40
0.0
 40
0.0
 40
0.0
 40
0.0
 40
0.1761788881721866
 40
0.3361293566093795
 40
0.5001207617495189
 40
0.7237876616678988
 40
1.0
 40
1.0
 40
1.0
 40
1.0
 10
146.5804118792449
 20
228.176445700163
 30
0.0
 41
1.0
 10
146.5643285018537
 20
228.176445700163
 30
0.0
 41
1.0
 10
146.5336432401253
 20
228.176445700163
 30
0.0
 41
1.0
 10
146.3582366767381
 20
228.176445700163
 30
0.0
 41
1.0
 10
146.0678201971351
 20
228.176445700163
 30
0.0
 41
1.0
 10
145.6462325004569
 20
228.176445700163
 30
0.0
 41
1.0
 10
145.3182599473487
 20
228.176445700163
 30
0.0
 41
1.0
 10
145.1370360459123
 20
228.176445700163
 30
0.0
 41
1.0
  0
SPLINE
  5
9C
330
1F
100
AcDbEntity
  8
0
  6
Continuous
 62
     7
370
     0
100
AcDbSpline
210
0.0
220
0.0
230
1.0
 70
    12
 71
     3
 72
    12
 73
     8
 74
     0
 42
0.00000001
 43
0.00000001
 40
0.0
 40
0.0
 40
0.0
 40
0.0
 40
0.1761788139929244
 40
0.3361293074342086
 40
0.5001208509694443
 40
0.7237876594943449
 40
1.0
 40
1.0
 40
1.0
 40
1.0
 10
145.8587244282399
 20
226.9264459609333
 30
0.0
 41
1.0
 10
145.8506827230102
 20
226.9403742905172
 30
0.0
 41
1.0
 10
145.8353400563855
 20
226.966947972509
 30
0.0
 41
1.0
 10
145.7476369260022
 20
227.1188550020245
 30
0.0
 41
1.0
 10
145.6024280254173
 20
227.3703629418806
 30
0.0
 41
1.0
 10
145.3916342716001
 20
227.7354686153328
 30
0.0
 41
1.0
 10
145.2276480069426
 20
228.019501171905
 30
0.0
 41
1.0
 10
145.1370360459123
 20
228.176445700163
 30
0.0
 41
1.0
  0
CIRCLE
  5
9D
330
1F
100
AcDbEntity
  8
0
  6
Continuous
 62
     7
370
     0
100
AcDbCircle
 10
145.1370362694
 20
228.1764455959
 30
0.0
 40
2.950000000000017
  0
CIRCLE
  5
9E
330
1F
100
AcDbEntity
  8
0
  6
Continuous
 62
     7
370
     0
100
AcDbCircle
 10
145.1370362694
 20
228.1764455959
 30
0.0
 40
3.5
  0
LINE
  5
9F
330
1F
100
AcDbEntity
  8
0
  6
Continuous
 62
     7
370
     0
100
AcDbLine
 10
138.6370362694
 20
205.7764455959
 30
0.0
 11
131.6370362694
 21
205.7764455959
 31
0.0
  0
LINE
  5
A0
330
1F
100
AcDbEntity
  8
0
  6
Continuous
 62
     7
370
     0
100
AcDbLine
 10
138.0870362694
 20
206.4764455959
 30
0.0
 11
132.1870362694
 21
206.4764455959
 31
0.0
  0
LINE
  5
A1
330
1F
100
AcDbEntity
  8
0
  6
Continuous
 62
     7
370
     0
100
AcDbLine
 10
132.6870362694
 20
209.4764455959
 30
0.0
 11
137.5870362694
 21
209.4764455959
 31
0.0
  0
LINE
  5
A2
330
1F
100
AcDbEntity
  8
0
  6
Continuous
 62
     7
370
     0
100
AcDbLine
 10
137.8870362694
 20
209.1764455959
 30
0.0
 11
132.3870362694
 21
209.1764455959
 31
0.0
  0
ARC
  5
A3
330
1F
100
AcDbEntity
  8
0
  6
Continuous
 62
     7
370
     0
100
AcDbCircle
 10
135.1370362694
 20
216.1764455959
 30
0.0
 40
11.50000000000001
100
AcDbArc
 50
148.5510186106
 51
209.591845794
  0
ARC
  5
A4
330
1F
100
AcDbEntity
  8
0
  6
Continuous
 62
     7
370
     0
100
AcDbCircle
 10
135.1370362694
 20
216.1764455959
 30
0.0
 40
11.50000000000001
100
AcDbArc
 50
330.4081542061
 51
31.4489813894
  0
CIRCLE
  5
A5
330
1F
100
AcDbEntity
  8
0
  6
Continuous
 62
     7
370
     0
100
AcDbCircle
 10
135.1370362694
 20
216.1764455959
 30
0.0
 40
5.0
  0
LINE
  5
A6
330
1F
100
AcDbEntity
  8
0
  6
Continuous
 62
     7
370
     0
100
AcDbLine
 10
121.1370358373
 20
222.176445648
 30
0.0
 11
149.1370367016
 21
222.176445648
 31
0.0
  0
LINE
  5
A7
330
1F
100
AcDbEntity
  8
0
  6
Continuous
 62
     7
370
     0
100
AcDbLine
 10
120.1370366047
 20
223.1764458119
 30
0.0
 11
121.1370358373
 21
222.176445648
 31
0.0
  0
LINE
  5
A8
330
1F
100
AcDbEntity
  8
0
  6
Continuous
 62
     7
370
     0
100
AcDbLine
 10
120.1370366047
 20
233.1764465197
 30
0.0
 11
120.1370366047
 21
223.1764458119
 31
0.0
  0
LINE
  5
A9
330
1F
100
AcDbEntity
  8
0
  6
Continuous
 62
     7
370
     0
100
AcDbLine
 10
149.1370367016
 20
234.176444821
 30
0.0
 11
121.1370358373
 21
234.176444821
 31
0.0
  0
LINE
  5
AA
330
1F
100
AcDbEntity
  8
0
  6
Continuous
 62
     7
370
     0
100
AcDbLine
 10
150.1370359342
 20
233.1764465197
 30
0.0
 11
149.1370367016
 21
234.176444821
 31
0.0
  0
LINE
  5
AB
330
1F
100
AcDbEntity
  8
0
  6
Continuous
 62
     7
370
     0
100
AcDbLine
 10
150.1370359342
 20
223.1764458119
 30
0.0
 11
150.1370359342
 21
233.1764465197
 31
0.0
  0
LINE
  5
AC
330
1F
100
AcDbEntity
  8
0
  6
Continuous
 62
     7
370
     0
100
AcDbLine
 10
149.1370367016
 20
222.176445648
 30
0.0
 11
150.1370359342
 21
223.1764458119
 31
0.0
  0
ARC
  5
AD
330
1F
100
AcDbEntity
  8
0
  6
Continuous
 62
     7
370
     0
100
AcDbCircle
 10
145.1370362694
 20
230.6764455959
 30
0.0
 40
1.749999999999986
100
AcDbArc
 50
19.6159791354
 51
160.3840208646
  0
ARC
  5
AE
330
1F
100
AcDbEntity
  8
0
  6
Continuous
 62
     7
370
     0
100
AcDbCircle
 10
125.1370362694
 20
230.6764455959
 30
0.0
 40
1.749999999999992
100
AcDbArc
 50
19.6159791354
 51
160.3840208646
  0
LINE
  5
AF
330
1F
100
AcDbEntity
  8
0
  6
Continuous
 62
     7
370
     0
100
AcDbLine
 10
121.1370358373
 20
234.176444821
 30
0.0
 11
120.1370366047
 21
233.1764465197
 31
0.0
  0
LINE
  5
B0
330
1F
100
AcDbEntity
  8
0
  6
Continuous
 62
     7
370
     0
100
AcDbLine
 10
130.1370363812
 20
205.2764454856
 30
0.0
 11
130.1370363812
 21
203.6764454096
 31
0.0
  0
LINE
  5
B1
330
1F
100
AcDbEntity
  8
0
  6
Continuous
 62
     7
370
     0
100
AcDbLine
 10
130.1370363812
 20
203.6764454096
 30
0.0
 11
125.1370364929
 21
203.6764454096
 31
0.0
  0
LINE
  5
B2
330
1F
100
AcDbEntity
  8
0
  6
Continuous
 62
     7
370
     0
100
AcDbLine
 10
125.1370364929
 20
203.6764454096
 30
0.0
 11
125.1370364929
 21
205.2764454856
 31
0.0
  0
LINE
  5
B3
330
1F
100
AcDbEntity
  8
0
  6
Continuous
 62
     7
370
     0
100
AcDbLine
 10
125.1370364929
 20
205.2764454856
 30
0.0
 11
130.1370363812
 21
205.2764454856
 31
0.0
  0
LINE
  5
B4
330
1F
100
AcDbEntity
  8
0
  6
Continuous
 62
     7
370
     0
100
AcDbLine
 10
130.1370363812
 20
205.2764454856
 30
0.0
 11
140.1370361577
 21
205.2764454856
 31
0.0
  0
LINE
  5
B5
330
1F
100
AcDbEntity
  8
0
  6
Continuous
 62
     7
370
     0
100
AcDbLine
 10
140.1370361577
 20
205.2764454856
 30
0.0
 11
140.1370361577
 21
203.6764454096
 31
0.0
  0
LINE
  5
B6
330
1F
100
AcDbEntity
  8
0
  6
Continuous
 62
     7
370
     0
100
AcDbLine
 10
130.1370363812
 20
203.6764454096
 30
0.0
 11
140.1370361577
 21
203.6764454096
 31
0.0
  0
LINE
  5
B7
330
1F
100
AcDbEntity
  8
0
  6
Continuous
 62
     7
370
     0
100
AcDbLine
 10
140.1370361577
 20
205.2764454856
 30
0.0
 11
145.1370360459
 21
205.2764454856
 31
0.0
  0
LINE
  5
B8
330
1F
100
AcDbEntity
  8
0
  6
Continuous
 62
     7
370
     0
100
AcDbLine
 10
145.1370360459
 20
203.6764454096
 30
0.0
 11
145.1370360459
 21
205.2764454856
 31
0.0
  0
LINE
  5
B9
330
1F
100
AcDbEntity
  8
0
  6
Continuous
 62
     7
370
     0
100
AcDbLine
 10
140.1370361577
 20
203.6764454096
 30
0.0
 11
145.1370360459
 21
203.6764454096
 31
0.0
  0
LINE
  5
BA
330
1F
100
AcDbEntity
  8
0
  6
Continuous
 62
     7
370
     0
100
AcDbLine
 10
145.1370360459
 20
210.6764456257
 30
0.0
 11
125.1370364929
 21
210.6764456257
 31
0.0
  0
LINE
  5
BB
330
1F
100
AcDbEntity
  8
0
  6
Continuous
 62
     7
370
     0
100
AcDbLine
 10
145.1370360459
 20
205.2764454856
 30
0.0
 11
145.1370360459
 21
210.6764456257
 31
0.0
  0
LINE
  5
BC
330
1F
100
AcDbEntity
  8
0
  6
Continuous
 62
     7
370
     0
100
AcDbLine
 10
125.1370364929
 20
210.6764456257
 30
0.0
 11
125.1370364929
 21
205.2764454856
 31
0.0
  0
ARC
  5
BD
330
1F
100
AcDbEntity
  8
0
  6
Continuous
 62
     7
370
     0
100
AcDbCircle
 10
128.9370362694
 20
171.4764455959
 30
0.0
 40
0.299999999999983
100
AcDbArc
 50
180.0
 51
270.0
  0
LINE
  5
BE
330
1F
100
AcDbEntity
  8
0
  6
Continuous
 62
     7
370
     0
100
AcDbLine
 10
129.6370362694
 20
171.4764455959
 30
0.0
 11
128.6370362694
 21
171.4764455959
 31
0.0
  0
LINE
  5
BF
330
1F
100
AcDbEntity
  8
0
  6
Continuous
 62
     7
370
     0
100
AcDbLine
 10
129.6370362694
 20
171.1764455959
 30
0.0
 11
129.6370362694
 21
171.4764455959
 31
0.0
  0
LINE
  5
C0
330
1F
100
AcDbEntity
  8
0
  6
Continuous
 62
     7
370
     0
100
AcDbLine
 10
128.9861852433
 20
171.1764438077
 30
0.0
 11
129.6370362694
 21
171.1764455959
 31
0.0
  0
LINE
  5
C1
330
1F
100
AcDbEntity
  8
0
  6
Continuous
 62
     7
370
     0
100
AcDbLine
 10
140.6370362694
 20
171.4764455958
 30
0.0
 11
140.6370362694
 21
171.1764455959
 31
0.0
  0
LINE
  5
C2
330
1F
100
AcDbEntity
  8
0
  6
Continuous
 62
     7
370
     0
100
AcDbLine
 10
141.6370362694
 20
171.4764455959
 30
0.0
 11
140.6370362694
 21
171.4764455958
 31
0.0
  0
ARC
  5
C3
330
1F
100
AcDbEntity
  8
0
  6
Continuous
 62
     7
370
     0
100
AcDbCircle
 10
141.3370362694
 20
171.4764455959
 30
0.0
 40
0.3000000000000114
100
AcDbArc
 50
270.0000000235
 51
0.0
  0
LINE
  5
C4
330
1F
100
AcDbEntity
  8
0
  6
Continuous
 62
     7
370
     0
100
AcDbLine
 10
140.6370362694
 20
171.1764455959
 30
0.0
 11
141.2878872956
 21
171.1764438077
 31
0.0
  0
LINE
  5
C5
330
1F
100
AcDbEntity
  8
0
  6
Continuous
 62
     7
370
     0
100
AcDbLine
 10
129.6370362694
 20
199.1764455959
 30
0.0
 11
129.6370362694
 21
171.4764455959
 31
0.0
  0
LINE
  5
C6
330
1F
100
AcDbEntity
  8
0
  6
Continuous
 62
     7
370
     0
100
AcDbLine
 10
129.6370362694
 20
199.1764455959
 30
0.0
 11
140.6370362694
 21
199.1764455959
 31
0.0
  0
LINE
  5
C7
330
1F
100
AcDbEntity
  8
0
  6
Continuous
 62
     7
370
     0
100
AcDbLine
 10
140.6370362694
 20
171.4764455958
 30
0.0
 11
140.6370362694
 21
199.1764455959
 31
0.0
  0
LINE
  5
C8
330
1F
100
AcDbEntity
  8
0
  6
Continuous
 62
     7
370
     0
100
AcDbLine
 10
129.6370362694
 20
171.4764455959
 30
0.0
 11
140.6370362694
 21
171.4764455958
 31
0.0
  0
LINE
  5
C9
330
1F
100
AcDbEntity
  8
0
  6
Continuous
 62
     7
370
     0
100
AcDbLine
 10
140.6370362694
 20
199.1764455959
 30
0.0
 11
141.6370362694
 21
199.1764455959
 31
0.0
  0
LINE
  5
CA
330
1F
100
AcDbEntity
  8
0
  6
Continuous
 62
     7
370
     0
100
AcDbLine
 10
141.6370362694
 20
199.1764455959
 30
0.0
 11
141.6370362694
 21
171.4764455959
 31
0.0
  0
LINE
  5
CB
330
1F
100
AcDbEntity
  8
0
  6
Continuous
 62
     7
370
     0
100
AcDbLine
 10
140.6370362694
 20
171.1764455959
 30
0.0
 11
129.6370362694
 21
171.1764455959
 31
0.0
  0
LINE
  5
CC
330
1F
100
AcDbEntity
  8
0
  6
Continuous
 62
     7
370
     0
100
AcDbLine
 10
128.6370362694
 20
199.1764455959
 30
0.0
 11
129.6370362694
 21
199.1764455959
 31
0.0
  0
LINE
  5
CD
330
1F
100
AcDbEntity
  8
0
  6
Continuous
 62
     7
370
     0
100
AcDbLine
 10
128.6370362694
 20
171.4764455959
 30
0.0
 11
128.6370362694
 21
199.1764455959
 31
0.0
  0
LINE
  5
CE
330
1F
100
AcDbEntity
  8
0
  6
Continuous
 62
     7
370
     0
100
AcDbLine
 10
129.9141946378
 20
200.4764461889
 30
0.0
 11
129.5284927763
 21
200.4028863068
 31
0.0
  0
LINE
  5
CF
330
1F
100
AcDbEntity
  8
0
  6
Continuous
 62
     7
370
     0
100
AcDbLine
 10
130.4370362694
 20
200.4028863068
 30
0.0
 11
130.4370363372
 21
200.4483686759
 31
0.0
  0
LINE
  5
D0
330
1F
100
AcDbEntity
  8
0
  6
Continuous
 62
     7
370
     0
100
AcDbLine
 10
130.637036269
 20
200.4028863067
 30
0.0
 11
130.4370362694
 21
200.4028863068
 31
0.0
  0
LINE
  5
D1
330
1F
100
AcDbEntity
  8
0
  6
Continuous
 62
     7
370
     0
100
AcDbLine
 10
130.8370362694
 20
200.402886307
 30
0.0
 11
130.637036269
 21
200.4028863067
 31
0.0
  0
LINE
  5
D2
330
1F
100
AcDbEntity
  8
0
  6
Continuous
 62
     7
370
     0
100
AcDbLine
 10
130.8370361234
 20
200.4430228844
 30
0.0
 11
130.8370362694
 21
200.402886307
 31
0.0
  0
LINE
  5
D3
330
1F
100
AcDbEntity
  8
0
  6
Continuous
 62
     7
370
     0
100
AcDbLine
 10
131.7455797625
 20
200.4028863068
 30
0.0
 11
131.3598780557
 21
200.4764461889
 31
0.0
  0
LINE
  5
D4
330
1F
100
AcDbEntity
  8
0
  6
Continuous
 62
     7
370
     0
100
AcDbLine
 10
131.763476981
 20
200.4028863066
 30
0.0
 11
131.7455797625
 21
200.4028863068
 31
0.0
  0
SPLINE
  5
D5
330
1F
100
AcDbEntity
  8
0
  6
Continuous
 62
     7
370
     0
100
AcDbSpline
210
0.0
220
0.0
230
1.0
 70
    12
 71
     3
 72
    11
 73
     7
 74
     0
 42
0.00000001
 43
0.00000001
 40
0.0
 40
0.0
 40
0.0
 40
0.0
 40
0.2869488345627683
 40
0.5765276423587761
 40
0.7956369643330205
 40
0.9999999999999999
 40
0.9999999999999999
 40
0.9999999999999999
 40
0.9999999999999999
 10
131.7634769379086
 20
200.4028866066875
 30
0.0
 41
1.0
 10
131.8644161669584
 20
200.3497943121742
 30
0.0
 41
1.0
 10
132.067219763754
 20
200.243123116141
 30
0.0
 41
1.0
 10
132.262483860221
 20
199.9873110410113
 30
0.0
 41
1.0
 10
132.3696247006157
 20
199.7242325352729
 30
0.0
 41
1.0
 10
132.3813687413067
 20
199.5571015662133
 30
0.0
 41
1.0
 10
132.3870362843311
 20
199.4764460250082
 30
0.0
 41
1.0
  0
LINE
  5
D6
330
1F
100
AcDbEntity
  8
0
  6
Continuous
 62
     7
370
     0
100
AcDbLine
 10
128.8870362694
 20
199.4764455959
 30
0.0
 11
132.3870362694
 21
199.4764455959
 31
0.0
  0
SPLINE
  5
D7
330
1F
100
AcDbEntity
  8
0
  6
Continuous
 62
     7
370
     0
100
AcDbSpline
210
0.0
220
0.0
230
1.0
 70
    12
 71
     3
 72
    11
 73
     7
 74
     0
 42
0.00000001
 43
0.00000001
 40
0.0
 40
0.0
 40
0.0
 40
0.0
 40
0.2624318629786249
 40
0.5460423542879592
 40
0.7749564126760455
 40
1.0
 40
1.0
 40
1.0
 40
1.0
 10
128.8870361762977
 20
199.4764460250081
 30
0.0
 41
1.0
 10
128.8964059444194
 20
199.5801754334807
 30
0.0
 41
1.0
 10
128.91590163441
 20
199.7960053626987
 30
0.0
 41
1.0
 10
129.0656605979947
 20
200.0706502416741
 30
0.0
 41
1.0
 10
129.2699468626212
 20
200.2827435125849
 30
0.0
 41
1.0
 10
129.4308367101832
 20
200.363067190207
 30
0.0
 41
1.0
 10
129.5105957555509
 20
200.4028866066875
 30
0.0
 41
1.0
  0
LINE
  5
D8
330
1F
100
AcDbEntity
  8
0
  6
Continuous
 62
     7
370
     0
100
AcDbLine
 10
129.5284927763
 20
200.4028863068
 30
0.0
 11
129.5105955578
 21
200.4028863066
 31
0.0
  0
LINE
  5
D9
330
1F
100
AcDbEntity
  8
0
  6
Continuous
 62
     7
370
     0
100
AcDbLine
 10
138.914194716
 20
200.4764461889
 30
0.0
 11
138.5284927763
 21
200.4028863068
 31
0.0
  0
LINE
  5
DA
330
1F
100
AcDbEntity
  8
0
  6
Continuous
 62
     7
370
     0
100
AcDbLine
 10
139.4370362694
 20
200.4028863068
 30
0.0
 11
139.4370364155
 21
200.4483686759
 31
0.0
  0
LINE
  5
DB
330
1F
100
AcDbEntity
  8
0
  6
Continuous
 62
     7
370
     0
100
AcDbLine
 10
139.637036269
 20
200.4028863067
 30
0.0
 11
139.4370362694
 21
200.4028863068
 31
0.0
  0
LINE
  5
DC
330
1F
100
AcDbEntity
  8
0
  6
Continuous
 62
     7
370
     0
100
AcDbLine
 10
139.8370362694
 20
200.402886307
 30
0.0
 11
139.637036269
 21
200.4028863067
 31
0.0
  0
LINE
  5
DD
330
1F
100
AcDbEntity
  8
0
  6
Continuous
 62
     7
370
     0
100
AcDbLine
 10
139.8370362016
 20
200.4430228844
 30
0.0
 11
139.8370362694
 21
200.402886307
 31
0.0
  0
LINE
  5
DE
330
1F
100
AcDbEntity
  8
0
  6
Continuous
 62
     7
370
     0
100
AcDbLine
 10
140.7455797625
 20
200.4028863068
 30
0.0
 11
140.3598779011
 21
200.4764461889
 31
0.0
  0
LINE
  5
DF
330
1F
100
AcDbEntity
  8
0
  6
Continuous
 62
     7
370
     0
100
AcDbLine
 10
140.763476981
 20
200.4028863066
 30
0.0
 11
140.7455797625
 21
200.4028863068
 31
0.0
  0
SPLINE
  5
E0
330
1F
100
AcDbEntity
  8
0
  6
Continuous
 62
     7
370
     0
100
AcDbSpline
210
0.0
220
0.0
230
1.0
 70
    12
 71
     3
 72
    11
 73
     7
 74
     0
 42
0.00000001
 43
0.00000001
 40
0.0
 40
0.0
 40
0.0
 40
0.0
 40
0.2869489824888538
 40
0.5765276475333643
 40
0.7956369545204491
 40
1.0
 40
1.0
 40
1.0
 40
1.0
 10
140.763476783309
 20
200.4028866066876
 30
0.0
 41
1.0
 10
140.8644161155393
 20
200.3497943413327
 30
0.0
 41
1.0
 10
141.0672198169135
 20
200.2431232579164
 30
0.0
 41
1.0
 10
141.2624837119176
 20
199.9873109663598
 30
0.0
 41
1.0
 10
141.3696244904892
 20
199.7242325248973
 30
0.0
 41
1.0
 10
141.3813687254459
 20
199.557101566113
 30
0.0
 41
1.0
 10
141.3870363625622
 20
199.4764460250082
 30
0.0
 41
1.0
  0
LINE
  5
E1
330
1F
100
AcDbEntity
  8
0
  6
Continuous
 62
     7
370
     0
100
AcDbLine
 10
137.8870362694
 20
199.4764455959
 30
0.0
 11
141.3870362694
 21
199.4764455959
 31
0.0
  0
SPLINE
  5
E2
330
1F
100
AcDbEntity
  8
0
  6
Continuous
 62
     7
370
     0
100
AcDbSpline
210
0.0
220
0.0
230
1.0
 70
    12
 71
     3
 72
    11
 73
     7
 74
     0
 42
0.00000001
 43
0.00000001
 40
0.0
 40
0.0
 40
0.0
 40
0.0
 40
0.2624319501107704
 40
0.5460423206755438
 40
0.7749567066714489
 40
1.0
 40
1.0
 40
1.0
 40
1.0
 10
137.8870362545288
 20
199.4764460250082
 30
0.0
 41
1.0
 10
137.8964061630582
 20
199.5801754026061
 30
0.0
 41
1.0
 10
137.9159021375221
 20
199.796005182638
 30
0.0
 41
1.0
 10
138.0656603172339
 20
200.0706505650159
 30
0.0
 41
1.0
 10
138.2699471140881
 20
200.2827432236748
 30
0.0
 41
1.0
 10
138.4308367637782
 20
200.3630671312026
 30
0.0
 41
1.0
 10
138.5105956009514
 20
200.4028866066876
 30
0.0
 41
1.0
  0
LINE
  5
E3
330
1F
100
AcDbEntity
  8
0
  6
Continuous
 62
     7
370
     0
100
AcDbLine
 10
138.5284927763
 20
200.4028863068
 30
0.0
 11
138.5105955578
 21
200.4028863066
 31
0.0
  0
ARC
  5
E4
330
1F
100
AcDbEntity
  8
0
  6
Continuous
 62
     7
370
     0
100
AcDbCircle
 10
142.044632331
 20
174.8786199701
 30
0.0
 40
3.203095919651064
100
AcDbArc
 50
88.3468797607
 51
97.3107446324
  0
LINE
  5
E5
330
1F
100
AcDbEntity
  8
0
  6
Continuous
 62
     7
370
     0
100
AcDbLine
 10
142.1370362685
 20
178.0803840135
 30
0.0
 11
142.1370362685
 21
171.8875567064
 31
0.0
  0
ARC
  5
E6
330
1F
100
AcDbEntity
  8
0
  6
Continuous
 62
     7
370
     0
100
AcDbCircle
 10
142.0965736258
 20
171.4271585504
 30
0.0
 40
0.4621731232376085
100
AcDbArc
 50
84.9773734812
 51
173.8778149026
  0
LINE
  5
E7
330
1F
100
AcDbEntity
  8
0
  6
Continuous
 62
     7
370
     0
100
AcDbLine
 10
128.1370362693
 20
175.1764455963
 30
0.0
 11
128.6370362694
 21
175.1764455959
 31
0.0
  0
ARC
  5
E8
330
1F
100
AcDbEntity
  8
0
  6
Continuous
 62
     7
370
     0
100
AcDbCircle
 10
128.1775228657
 20
171.4271985537
 30
0.0
 40
0.4621427933050983
100
AcDbArc
 50
6.1171359444
 51
95.0259380705
  0
LINE
  5
E9
330
1F
100
AcDbEntity
  8
0
  6
Continuous
 62
     7
370
     0
100
AcDbLine
 10
128.1370362693
 20
171.8875567064
 30
0.0
 11
128.1370362693
 21
175.1764455963
 31
0.0
  0
LINE
  5
EA
330
1F
100
AcDbEntity
  8
0
  6
Continuous
 62
     7
370
     0
100
AcDbLine
 10
128.1370362693
 20
175.1764455963
 30
0.0
 11
128.1370362693
 21
178.080384013
 31
0.0
  0
ARC
  5
EB
330
1F
100
AcDbEntity
  8
0
  6
Continuous
 62
     7
370
     0
100
AcDbCircle
 10
128.2574276164
 20
175.4450263326
 30
0.0
 40
2.638104927960565
100
AcDbArc
 50
81.7267385616
 51
92.6156370452
  0
LINE
  5
EC
330
1F
100
AcDbEntity
  8
0
  6
Continuous
 62
     7
370
     0
100
AcDbLine
 10
129.9141946378
 20
200.4764461889
 30
0.0
 11
130.4370363372
 21
200.4764461889
 31
0.0
  0
LINE
  5
ED
330
1F
100
AcDbEntity
  8
0
  6
Continuous
 62
     7
370
     0
100
AcDbLine
 10
138.9141944832
 20
200.4764461889
 30
0.0
 11
139.4370364155
 21
200.4764461889
 31
0.0
  0
LINE
  5
EE
330
1F
100
AcDbEntity
  8
0
  6
Continuous
 62
     7
370
     0
100
AcDbLine
 10
130.8370361234
 20
200.4764461889
 30
0.0
 11
131.35987759
 21
200.4764461889
 31
0.0
  0
LINE
  5
EF
330
1F
100
AcDbEntity
  8
0
  6
Continuous
 62
     7
370
     0
100
AcDbLine
 10
139.8370362016
 20
200.4764461889
 30
0.0
 11
140.3598779011
 21
200.4764461889
 31
0.0
  0
LINE
  5
F0
330
1F
100
AcDbEntity
  8
0
  6
Continuous
 62
     7
370
     0
100
AcDbLine
 10
127.3870362694
 20
171.1764455959
 30
0.0
 11
127.3870362694
 21
178.080384013
 31
0.0
  0
LINE
  5
F1
330
1F
100
AcDbEntity
  8
0
  6
Continuous
 62
     7
370
     0
100
AcDbLine
 10
128.1370362693
 20
178.080384013
 30
0.0
 11
127.3870362694
 21
178.080384013
 31
0.0
  0
ARC
  5
F2
330
1F
100
AcDbEntity
  8
0
  6
Continuous
 62
     7
370
     0
100
AcDbCircle
 10
128.8985224672
 20
171.9386714256
 30
0.0
 40
0.7632000004556957
100
AcDbArc
 50
183.84019053
 51
272.8925651944
  0
ARC
  5
F3
330
1F
100
AcDbEntity
  8
0
  6
Continuous
 62
     7
370
     0
100
AcDbCircle
 10
141.3755502732
 20
171.9386711989
 30
0.0
 40
0.763199784220037
100
AcDbArc
 50
267.1074188384
 51
356.1598254371
  0
LINE
  5
F4
330
1F
100
AcDbEntity
  8
0
  6
Continuous
 62
     7
370
     0
100
AcDbLine
 10
142.1370362685
 20
178.0803840135
 30
0.0
 11
142.8870362694
 21
178.0803840135
 31
0.0
  0
LINE
  5
F5
330
1F
100
AcDbEntity
  8
0
  6
Continuous
 62
     7
370
     0
100
AcDbLine
 10
142.8870362694
 20
178.0803840135
 30
0.0
 11
142.8870362694
 21
171.1764455959
 31
0.0
  0
LINE
  5
F6
330
1F
100
AcDbEntity
  8
0
  6
Continuous
 62
     7
370
     0
100
AcDbLine
 10
141.6370364035
 20
178.1764468178
 30
0.0
 11
142.8870361428
 21
178.1764468178
 31
0.0
  0
LINE
  5
F7
330
1F
100
AcDbEntity
  8
0
  6
Continuous
 62
     7
370
     0
100
AcDbLine
 10
142.8870361428
 20
178.1691377982
 30
0.0
 11
142.8870361428
 21
178.1764468178
 31
0.0
  0
LINE
  5
F8
330
1F
100
AcDbEntity
  8
0
  6
Continuous
 62
     7
370
     0
100
AcDbLine
 10
142.8870362694
 20
178.0803840135
 30
0.0
 11
142.8870361428
 21
178.1691377982
 31
0.0
  0
LINE
  5
F9
330
1F
100
AcDbEntity
  8
0
  6
Continuous
 62
     7
370
     0
100
AcDbLine
 10
127.3870363961
 20
178.1764468177
 30
0.0
 11
127.3870363961
 21
178.1691377982
 31
0.0
  0
LINE
  5
FA
330
1F
100
AcDbEntity
  8
0
  6
Continuous
 62
     7
370
     0
100
AcDbLine
 10
128.6370361353
 20
178.1764468177
 30
0.0
 11
127.3870363961
 21
178.1764468177
 31
0.0
  0
LINE
  5
FB
330
1F
100
AcDbEntity
  8
0
  6
Continuous
 62
     7
370
     0
100
AcDbLine
 10
127.3870362694
 20
178.080384013
 30
0.0
 11
127.3870363961
 21
178.1691377982
 31
0.0
  0
LINE
  5
FC
330
1F
100
AcDbEntity
  8
0
  6
Continuous
 62
     7
370
     0
100
AcDbLine
 10
126.8870362694
 20
172.1764455959
 30
0.0
 11
126.8870362694
 21
178.1764455959
 31
0.0
  0
LINE
  5
FD
330
1F
100
AcDbEntity
  8
0
  6
Continuous
 62
     7
370
     0
100
AcDbLine
 10
143.3870362694
 20
178.1764455959
 30
0.0
 11
143.3870362694
 21
172.1764455959
 31
0.0
  0
LINE
  5
FE
330
1F
100
AcDbEntity
  8
0
  6
Continuous
 62
     7
370
     0
100
AcDbLine
 10
132.6370363253
 20
203.6764454096
 30
0.0
 11
132.6370363253
 21
199.176444672
 31
0.0
  0
LINE
  5
FF
330
1F
100
AcDbEntity
  8
0
  6
Continuous
 62
     7
370
     0
100
AcDbLine
 10
135.1370362694
 20
203.6764454096
 30
0.0
 11
135.1370362711
 21
199.176444672
 31
0.0
  0
LINE
  5
100
330
1F
100
AcDbEntity
  8
0
  6
Continuous
 62
     7
370
     0
100
AcDbLine
 10
137.6370362136
 20
199.176444672
 30
0.0
 11
137.6370362136
 21
203.6764454096
 31
0.0
  0
LINE
  5
101
330
1F
100
AcDbEntity
  8
0
  6
Continuous
 62
     7
370
     0
100
AcDbLine
 10
126.8870363141
 20
176.4754829928
 30
0.0
 11
124.8870359863
 21
176.4754829928
 31
0.0
  0
LINE
  5
102
330
1F
100
AcDbEntity
  8
0
  6
Continuous
 62
     7
370
     0
100
AcDbLine
 10
124.8870359863
 20
177.7745215222
 30
0.0
 11
124.8870359863
 21
176.4754829928
 31
0.0
  0
LINE
  5
103
330
1F
100
AcDbEntity
  8
0
  6
Continuous
 62
     7
370
     0
100
AcDbLine
 10
126.8870363141
 20
177.7745215222
 30
0.0
 11
124.8870359863
 21
177.7745215222
 31
0.0
  0
LINE
  5
104
330
1F
100
AcDbEntity
  8
0
  6
Continuous
 62
     7
370
     0
100
AcDbLine
 10
124.8870359863
 20
175.5764437839
 30
0.0
 11
125.68703649
 21
175.5764437839
 31
0.0
  0
LINE
  5
105
330
1F
100
AcDbEntity
  8
0
  6
Continuous
 62
     7
370
     0
100
AcDbLine
 10
124.8870359863
 20
175.5764437839
 30
0.0
 11
124.8870359863
 21
176.4754829928
 31
0.0
  0
LINE
  5
106
330
1F
100
AcDbEntity
  8
0
  6
Continuous
 62
     7
370
     0
100
AcDbLine
 10
124.8870359863
 20
173.877405934
 30
0.0
 11
126.8870363141
 21
173.877405934
 31
0.0
  0
LINE
  5
107
330
1F
100
AcDbEntity
  8
0
  6
Continuous
 62
     7
370
     0
100
AcDbLine
 10
124.8870359863
 20
173.877405934
 30
0.0
 11
124.8870359863
 21
174.7764451429
 31
0.0
  0
LINE
  5
108
330
1F
100
AcDbEntity
  8
0
  6
Continuous
 62
     7
370
     0
100
AcDbLine
 10
125.68703649
 20
174.7764451429
 30
0.0
 11
124.8870359863
 21
174.7764451429
 31
0.0
  0
LINE
  5
109
330
1F
100
AcDbEntity
  8
0
  6
Continuous
 62
     7
370
     0
100
AcDbLine
 10
125.68703649
 20
174.7764451429
 30
0.0
 11
125.68703649
 21
175.5764437839
 31
0.0
  0
LINE
  5
10A
330
1F
100
AcDbEntity
  8
0
  6
Continuous
 62
     7
370
     0
100
AcDbLine
 10
126.8870363141
 20
172.5783711299
 30
0.0
 11
124.8870359863
 21
172.5783711299
 31
0.0
  0
LINE
  5
10B
330
1F
100
AcDbEntity
  8
0
  6
Continuous
 62
     7
370
     0
100
AcDbLine
 10
124.8870359863
 20
173.877405934
 30
0.0
 11
124.8870359863
 21
172.5783711299
 31
0.0
  0
LINE
  5
10C
330
1F
100
AcDbEntity
  8
0
  6
Continuous
 62
     7
370
     0
100
AcDbLine
 10
145.3870365526
 20
177.7745215222
 30
0.0
 11
145.3870365526
 21
176.4754829928
 31
0.0
  0
LINE
  5
10D
330
1F
100
AcDbEntity
  8
0
  6
Continuous
 62
     7
370
     0
100
AcDbLine
 10
143.3870362247
 20
176.4754829928
 30
0.0
 11
145.3870365526
 21
176.4754829928
 31
0.0
  0
LINE
  5
10E
330
1F
100
AcDbEntity
  8
0
  6
Continuous
 62
     7
370
     0
100
AcDbLine
 10
143.3870362247
 20
177.7745215222
 30
0.0
 11
145.3870365526
 21
177.7745215222
 31
0.0
  0
LINE
  5
10F
330
1F
100
AcDbEntity
  8
0
  6
Continuous
 62
     7
370
     0
100
AcDbLine
 10
145.3870365526
 20
176.4754829928
 30
0.0
 11
145.3870365526
 21
173.877405934
 31
0.0
  0
LINE
  5
110
330
1F
100
AcDbEntity
  8
0
  6
Continuous
 62
     7
370
     0
100
AcDbLine
 10
143.3870362247
 20
173.877405934
 30
0.0
 11
145.3870365526
 21
173.877405934
 31
0.0
  0
LINE
  5
111
330
1F
100
AcDbEntity
  8
0
  6
Continuous
 62
     7
370
     0
100
AcDbLine
 10
145.3870365526
 20
173.877405934
 30
0.0
 11
145.3870365526
 21
172.5783711299
 31
0.0
  0
LINE
  5
112
330
1F
100
AcDbEntity
  8
0
  6
Continuous
 62
     7
370
     0
100
AcDbLine
 10
143.3870362247
 20
172.5783711299
 30
0.0
 11
145.3870365526
 21
172.5783711299
 31
0.0
  0
LINE
  5
113
330
1F
100
AcDbEntity
  8
0
  6
Continuous
 62
     7
370
     0
100
AcDbLine
 10
147.7870362694
 20
175.1764455959
 30
0.0
 11
147.7870362694
 21
173.4464455959
 31
0.0
  0
LINE
  5
114
330
1F
100
AcDbEntity
  8
0
  6
Continuous
 62
     7
370
     0
100
AcDbLine
 10
147.7870362694
 20
176.9064455959
 30
0.0
 11
147.7870362694
 21
175.1764455959
 31
0.0
  0
LINE
  5
115
330
1F
100
AcDbEntity
  8
0
  6
Continuous
 62
     7
370
     0
100
AcDbLine
 10
147.3870362694
 20
173.4464455959
 30
0.0
 11
147.3870362694
 21
176.9064455959
 31
0.0
  0
LINE
  5
116
330
1F
100
AcDbEntity
  8
0
  6
Continuous
 62
     7
370
     0
100
AcDbLine
 10
149.2870362694
 20
175.1764455959
 30
0.0
 11
149.2870362694
 21
173.4464455959
 31
0.0
  0
LINE
  5
117
330
1F
100
AcDbEntity
  8
0
  6
Continuous
 62
     7
370
     0
100
AcDbLine
 10
149.2870362694
 20
176.9064455959
 30
0.0
 11
149.2870362694
 21
175.1764455959
 31
0.0
  0
LINE
  5
118
330
1F
100
AcDbEntity
  8
0
  6
Continuous
 62
     7
370
     0
100
AcDbLine
 10
148.8870362694
 20
173.4464455959
 30
0.0
 11
148.8870362694
 21
176.9064455959
 31
0.0
  0
LINE
  5
119
330
1F
100
AcDbEntity
  8
0
  6
Continuous
 62
     7
370
     0
100
AcDbLine
 10
150.3870362694
 20
176.3014455959
 30
0.0
 11
150.3870362694
 21
174.0514455959
 31
0.0
  0
LINE
  5
11A
330
1F
100
AcDbEntity
  8
0
  6
Continuous
 62
     7
370
     0
100
AcDbLine
 10
150.6870362694
 20
176.3014455959
 30
0.0
 11
150.6870362694
 21
174.0514455959
 31
0.0
  0
LINE
  5
11B
330
1F
100
AcDbEntity
  8
0
  6
Continuous
 62
     7
370
     0
100
AcDbLine
 10
150.8870362694
 20
176.1014455959
 30
0.0
 11
150.8870362694
 21
174.2514455959
 31
0.0
  0
LINE
  5
11C
330
1F
100
AcDbEntity
  8
0
  6
Continuous
 62
     7
370
     0
100
AcDbLine
 10
148.6370362694
 20
190.6764455959
 30
0.0
 11
148.6370362694
 21
182.6764455962
 31
0.0
  0
ARC
  5
11D
330
1F
100
AcDbEntity
  8
0
  6
Continuous
 62
     7
370
     0
100
AcDbCircle
 10
146.6370362694
 20
182.6764455959
 30
0.0
 40
2.0
100
AcDbArc
 50
270.0
 51
0.0
  0
LINE
  5
11E
330
1F
100
AcDbEntity
  8
0
  6
Continuous
 62
     7
370
     0
100
AcDbLine
 10
146.6370362694
 20
180.6764455959
 30
0.0
 11
141.6370364035
 21
180.6764444336
 31
0.0
  0
ARC
  5
11F
330
1F
100
AcDbEntity
  8
0
  6
Continuous
 62
     7
370
     0
100
AcDbCircle
 10
146.6370362694
 20
190.6764455959
 30
0.0
 40
2.0
100
AcDbArc
 50
0.0
 51
89.9999999882
  0
ARC
  5
120
330
1F
100
AcDbEntity
  8
0
  6
Continuous
 62
     7
370
     0
100
AcDbCircle
 10
145.1370362694
 20
189.1764455959
 30
0.0
 40
1.750000000000009
100
AcDbArc
 50
19.6159791354
 51
160.3840208646
  0
ARC
  5
121
330
1F
100
AcDbEntity
  8
0
  6
Continuous
 62
     7
370
     0
100
AcDbCircle
 10
145.1370362694
 20
184.1764455959
 30
0.0
 40
1.750000000000001
100
AcDbArc
 50
199.6159791354
 51
340.3840208646
  0
LINE
  5
122
330
1F
100
AcDbEntity
  8
0
  6
Continuous
 62
     7
370
     0
100
AcDbLine
 10
141.6370364035
 20
192.6764464005
 30
0.0
 11
146.6370362698
 21
192.6764455959
 31
0.0
  0
ARC
  5
123
330
1F
100
AcDbEntity
  8
0
  6
Continuous
 62
     7
370
     0
100
AcDbCircle
 10
123.6370362694
 20
182.6764455959
 30
0.0
 40
2.0
100
AcDbArc
 50
180.0
 51
270.0000000118
  0
LINE
  5
124
330
1F
100
AcDbEntity
  8
0
  6
Continuous
 62
     7
370
     0
100
AcDbLine
 10
121.6370362694
 20
182.6764455959
 30
0.0
 11
121.6370362694
 21
190.6764455954
 31
0.0
  0
ARC
  5
125
330
1F
100
AcDbEntity
  8
0
  6
Continuous
 62
     7
370
     0
100
AcDbCircle
 10
123.6370362694
 20
190.6764455959
 30
0.0
 40
2.0
100
AcDbArc
 50
90.0
 51
180.0
  0
LINE
  5
126
330
1F
100
AcDbEntity
  8
0
  6
Continuous
 62
     7
370
     0
100
AcDbLine
 10
123.6370362694
 20
192.6764455959
 30
0.0
 11
128.6370361353
 21
192.6764464005
 31
0.0
  0
LINE
  5
127
330
1F
100
AcDbEntity
  8
0
  6
Continuous
 62
     7
370
     0
100
AcDbLine
 10
128.6370361353
 20
180.6764444336
 30
0.0
 11
123.6370362698
 21
180.6764455959
 31
0.0
  0
ARC
  5
128
330
1F
100
AcDbEntity
  8
0
  6
Continuous
 62
     7
370
     0
100
AcDbCircle
 10
125.1370362694
 20
189.1764455959
 30
0.0
 40
1.750000000000005
100
AcDbArc
 50
19.6159791354
 51
160.3840208646
  0
ARC
  5
129
330
1F
100
AcDbEntity
  8
0
  6
Continuous
 62
     7
370
     0
100
AcDbCircle
 10
125.1370362694
 20
184.1764455959
 30
0.0
 40
1.750000000000009
100
AcDbArc
 50
199.6159791354
 51
340.3840208646
  0
LINE
  5
12A
330
1F
100
AcDbEntity
  8
0
  6
Continuous
 62
     7
370
     0
100
AcDbLine
 10
120.1370366047
 20
197.1764462068
 30
0.0
 11
120.1370366047
 21
155.1764449104
 31
0.0
  0
LINE
  5
12B
330
1F
100
AcDbEntity
  8
0
  6
Continuous
 62
     7
370
     0
100
AcDbLine
 10
116.1370368804
 20
197.1764462068
 30
0.0
 11
120.1370366047
 21
197.1764462068
 31
0.0
  0
LINE
  5
12C
330
1F
100
AcDbEntity
  8
0
  6
Continuous
 62
     7
370
     0
100
AcDbLine
 10
116.1370368804
 20
233.1764465197
 30
0.0
 11
116.1370368804
 21
197.1764462068
 31
0.0
  0
LINE
  5
12D
330
1F
100
AcDbEntity
  8
0
  6
Continuous
 62
     7
370
     0
100
AcDbLine
 10
152.1370371933
 20
235.1764449849
 30
0.0
 11
118.1370353456
 21
235.1764449849
 31
0.0
  0
LINE
  5
12E
330
1F
100
AcDbEntity
  8
0
  6
Continuous
 62
     7
370
     0
100
AcDbLine
 10
154.1370356585
 20
233.1764465197
 30
0.0
 11
152.1370371933
 21
235.1764449849
 31
0.0
  0
LINE
  5
12F
330
1F
100
AcDbEntity
  8
0
  6
Continuous
 62
     7
370
     0
100
AcDbLine
 10
154.1370356585
 20
197.1764462068
 30
0.0
 11
154.1370356585
 21
233.1764465197
 31
0.0
  0
LINE
  5
130
330
1F
100
AcDbEntity
  8
0
  6
Continuous
 62
     7
370
     0
100
AcDbLine
 10
150.1370359342
 20
197.1764462068
 30
0.0
 11
154.1370356585
 21
197.1764462068
 31
0.0
  0
LINE
  5
131
330
1F
100
AcDbEntity
  8
0
  6
Continuous
 62
     7
370
     0
100
AcDbLine
 10
150.1370359342
 20
155.1764449104
 30
0.0
 11
150.1370359342
 21
173.9139473065
 31
0.0
  0
LINE
  5
132
330
1F
100
AcDbEntity
  8
0
  6
Continuous
 62
     7
370
     0
100
AcDbLine
 10
150.1370359342
 20
176.4389453455
 30
0.0
 11
150.1370359342
 21
197.1764462068
 31
0.0
  0
LINE
  5
133
330
1F
100
AcDbEntity
  8
0
  6
Continuous
 62
     7
370
     0
100
AcDbLine
 10
148.1370365377
 20
153.1764445826
 30
0.0
 11
150.1370359342
 21
155.1764449104
 31
0.0
  0
LINE
  5
134
330
1F
100
AcDbEntity
  8
0
  6
Continuous
 62
     7
370
     0
100
AcDbLine
 10
122.1370360012
 20
153.1764445826
 30
0.0
 11
148.1370365377
 21
153.1764445826
 31
0.0
  0
LINE
  5
135
330
1F
100
AcDbEntity
  8
0
  6
Continuous
 62
     7
370
     0
100
AcDbLine
 10
120.1370366047
 20
155.1764449104
 30
0.0
 11
122.1370360012
 21
153.1764445826
 31
0.0
  0
CIRCLE
  5
136
330
1F
100
AcDbEntity
  8
0
  6
Continuous
 62
     7
370
     0
100
AcDbCircle
 10
150.1370362694
 20
216.1764455959
 30
0.0
 40
1.25
  0
CIRCLE
  5
137
330
1F
100
AcDbEntity
  8
0
  6
Continuous
 62
     7
370
     0
100
AcDbCircle
 10
120.1370362694
 20
216.1764455959
 30
0.0
 40
1.25
  0
CIRCLE
  5
138
330
1F
100
AcDbEntity
  8
0
  6
Continuous
 62
     7
370
     0
100
AcDbCircle
 10
145.1370362694
 20
161.1764455959
 30
0.0
 40
2.249999999999972
  0
CIRCLE
  5
139
330
1F
100
AcDbEntity
  8
0
  6
Continuous
 62
     7
370
     0
100
AcDbCircle
 10
125.1370362694
 20
161.1764455959
 30
0.0
 40
2.250000000000028
  0
ARC
  5
13A
330
1F
100
AcDbEntity
  8
0
  6
Continuous
 62
     7
370
     0
100
AcDbCircle
 10
135.1370362694
 20
216.1764455959
 30
0.0
 40
12.00000000000001
100
AcDbArc
 50
150.0
 51
213.5573097619
  0
ARC
  5
13B
330
1F
100
AcDbEntity
  8
0
  6
Continuous
 62
     7
370
     0
100
AcDbCircle
 10
135.1370362694
 20
216.1764455959
 30
0.0
 40
12.00000000000001
100
AcDbArc
 50
326.4426902381
 51
30.0
  0
LINE
  5
13C
330
1F
100
AcDbEntity
  8
0
  6
Continuous
 62
     7
370
     0
100
AcDbLine
 10
118.1370353456
 20
235.1764449849
 30
0.0
 11
116.1370368804
 21
233.1764465197
 31
0.0
  0
LINE
  5
13D
330
1F
100
AcDbEntity
  8
0
  6
Continuous
 62
     7
370
     0
100
AcDbLine
 10
145.7870362694
 20
176.4264455959
 30
0.0
 11
145.7870362694
 21
173.9264455959
 31
0.0
  0
DIMENSION
  5
13E
330
1F
100
AcDbEntity
  8
0
  6
Continuous
 62
     7
370
     0
100
AcDbDimension
  2
*D1
 10
145.1370362694
 20
250.2184138841
 30
0.0
 11
135.1370362694
 21
250.2184138841
 31
0.0
 70
   160
 71
     1
 42
20.0
  3
SLDDIMSTYLE0
100
AcDbAlignedDimension
 13
125.1370362694
 23
234.1764455959
 33
0.0
 14
145.1370362694
 24
233.6264455959
 34
0.0
 50
0.0
100
AcDbRotatedDimension
1001
ACAD
1000
DSTYLE
1002
{
1070
    77
1070
     3
1070
   143
1040
0.0393700787
1070
    41
1040
3.0
1070
    44
1040
1.0
1070
    42
1040
1.0
1070
   147
1040
1.524
1070
    73
1070
     0
1070
    74
1070
     0
1070
   140
1040
3.5
1070
   284
1070
    12
1070
    78
1070
    12
1002
}
  0
DIMENSION
  5
159
330
1F
100
AcDbEntity
  8
0
  6
Continuous
 62
     7
370
     0
100
AcDbDimension
  2
*D3
 10
150.1370362694
 20
255.9269557339
 30
0.0
 11
135.1370362694
 21
255.9269557339
 31
0.0
 70
   160
 71
     1
 42
30.0
  3
SLDDIMSTYLE0
100
AcDbAlignedDimension
 13
120.1370362694
 23
219.9264455959
 33
0.0
 14
150.1370362694
 24
219.9264455959
 34
0.0
 50
0.0
100
AcDbRotatedDimension
1001
ACAD
1000
DSTYLE
1002
{
1070
    77
1070
     3
1070
   143
1040
0.0393700787
1070
    41
1040
3.0
1070
    44
1040
1.0
1070
    42
1040
1.0
1070
   147
1040
1.524
1070
    73
1070
     0
1070
    74
1070
     0
1070
   140
1040
3.5
1070
   284
1070
    12
1070
    78
1070
    12
1002
}
  0
DIMENSION
  5
16C
330
1F
100
AcDbEntity
  8
0
  6
Continuous
 62
     7
370
     0
100
AcDbDimension
  2
*D4
 10
145.1370362694
 20
138.0455665363
 30
0.0
 11
135.1370362694
 21
138.0455665363
 31
0.0
 70
   160
 71
     1
 42
20.0
  3
SLDDIMSTYLE0
100
AcDbAlignedDimension
 13
125.1370362694
 23
156.4264455959
 33
0.0
 14
145.1370362694
 24
156.4264455959
 34
0.0
 50
0.0
100
AcDbRotatedDimension
1001
ACAD
1000
DSTYLE
1002
{
1070
    77
1070
     3
1070
   143
1040
0.0393700787
1070
    41
1040
3.0
1070
    44
1040
1.0
1070
    42
1040
1.0
1070
   147
1040
1.524
1070
    73
1070
     0
1070
    74
1070
     0
1070
   140
1040
3.5
1070
   284
1070
    12
1070
    78
1070
    12
1002
}
  0
DIMENSION
  5
17F
330
1F
100
AcDbEntity
  8
0
  6
Continuous
 62
     7
370
     0
100
AcDbDimension
  2
*D5
 10
171.2804897102
 20
216.1764455959
 30
0.0
 11
171.2804897102
 21
222.1764455959
 31
0.0
 70
   160
 71
     1
 42
12.0
  3
SLDDIMSTYLE0
100
AcDbAlignedDimension
 13
150.5870362694
 23
228.1764455959
 33
0.0
 14
153.8870362694
 24
216.1764455959
 34
0.0
 50
90.0
100
AcDbRotatedDimension
1001
ACAD
1000
DSTYLE
1002
{
1070
    77
1070
     3
1070
   143
1040
0.0393700787
1070
    41
1040
3.0
1070
    44
1040
1.0
1070
    42
1040
1.0
1070
   147
1040
1.524
1070
    73
1070
     0
1070
    74
1070
     0
1070
   140
1040
3.5
1070
   284
1070
    12
1070
    78
1070
    12
1002
}
  0
DIMENSION
  5
195
330
1F
100
AcDbEntity
  8
0
  6
Continuous
 62
     7
370
     0
100
AcDbDimension
  2
*D6
 10
171.2804897102
 20
216.1764455959
 30
0.0
 11
171.2804897102
 21
201.4264455959
 31
0.0
 70
   160
 71
     1
 42
29.5
  3
SLDDIMSTYLE0
100
AcDbAlignedDimension
 13
151.1370362694
 23
186.6764455959
 33
0.0
 14
153.8870362694
 24
216.1764455959
 34
0.0
 50
90.0
100
AcDbRotatedDimension
1001
ACAD
1000
DSTYLE
1002
{
1070
    77
1070
     3
1070
   143
1040
0.0393700787
1070
    41
1040
3.0
1070
    44
1040
1.0
1070
    42
1040
1.0
1070
   147
1040
1.524
1070
    73
1070
     0
1070
    74
1070
     0
1070
   140
1040
3.5
1070
   284
1070
    12
1070
    78
1070
    12
1002
}
  0
DIMENSION
  5
1A9
330
1F
100
AcDbEntity
  8
0
  6
Continuous
 62
     7
370
     0
100
AcDbDimension
  2
*D7
 10
171.2804897102
 20
161.1764455959
 30
0.0
 11
171.2804897102
 21
173.9264455959
 31
0.0
 70
   160
 71
     1
 42
25.5
  3
SLDDIMSTYLE0
100
AcDbAlignedDimension
 13
151.1370362694
 23
186.6764455959
 33
0.0
 14
149.8870362694
 24
161.1764455959
 34
0.0
 50
90.0
100
AcDbRotatedDimension
1001
ACAD
1000
DSTYLE
1002
{
1070
    77
1070
     3
1070
   143
1040
0.0393700787
1070
    41
1040
3.0
1070
    44
1040
1.0
1070
    42
1040
1.0
1070
   147
1040
1.524
1070
    73
1070
     0
1070
    74
1070
     0
1070
   140
1040
3.5
1070
   284
1070
    12
1070
    78
1070
    12
1002
}
  0
DIMENSION
  5
1BD
330
1F
100
AcDbEntity
  8
0
  6
Continuous
 62
     7
370
     0
100
AcDbDimension
  2
*D8
 10
178.5930951876
 20
216.1764455959
 30
0.0
 11
178.5930951876
 21
225.6764455959
 31
0.0
 70
   160
 71
     1
 42
19.0
  3
SLDDIMSTYLE0
100
AcDbAlignedDimension
 13
152.1370362694
 23
235.1764455959
 33
0.0
 14
153.8870362694
 24
216.1764455959
 34
0.0
 50
90.0
100
AcDbRotatedDimension
1001
ACAD
1000
DSTYLE
1002
{
1070
    77
1070
     3
1070
   143
1040
0.0393700787
1070
    41
1040
3.0
1070
    44
1040
1.0
1070
    42
1040
1.0
1070
   147
1040
1.524
1070
    73
1070
     0
1070
    74
1070
     0
1070
   140
1040
3.5
1070
   284
1070
    12
1070
    78
1070
    12
1002
}
  0
DIMENSION
  5
1D1
330
1F
100
AcDbEntity
  8
0
  6
Continuous
 62
     7
370
     0
100
AcDbDimension
  2
*D9
 10
178.4305928437
 20
161.1764455959
 30
0.0
 11
178.4305928437
 21
188.6764455959
 31
0.0
 70
   160
 71
     1
 42
55.0
  3
SLDDIMSTYLE0
100
AcDbAlignedDimension
 13
153.8870362694
 23
216.1764455959
 33
0.0
 14
149.8870362694
 24
161.1764455959
 34
0.0
 50
90.0
100
AcDbRotatedDimension
1001
ACAD
1000
DSTYLE
1002
{
1070
    77
1070
     3
1070
   143
1040
0.0393700787
1070
    41
1040
3.0
1070
    44
1040
1.0
1070
    42
1040
1.0
1070
   147
1040
1.524
1070
    73
1070
     0
1070
    74
1070
     0
1070
   140
1040
3.5
1070
   284
1070
    12
1070
    78
1070
    12
1002
}
  0
DIMENSION
  5
1E5
330
1F
100
AcDbEntity
  8
0
  6
Continuous
 62
     7
370
     0
100
AcDbDimension
  2
*D10
 10
184.4431795695
 20
153.1764455959
 30
0.0
 11
184.4431795695
 21
194.1764455959
 31
0.0
 70
   160
 71
     1
 42
82.0
  3
SLDDIMSTYLE0
100
AcDbAlignedDimension
 13
152.1370362694
 23
235.1764455959
 33
0.0
 14
148.1370362694
 24
153.1764455959
 34
0.0
 50
90.0
100
AcDbRotatedDimension
1001
ACAD
1000
DSTYLE
1002
{
1070
    77
1070
     3
1070
   143
1040
0.0393700787
1070
    41
1040
3.0
1070
    44
1040
1.0
1070
    42
1040
1.0
1070
   147
1040
1.524
1070
    73
1070
     0
1070
    74
1070
     0
1070
   140
1040
3.5
1070
   284
1070
    12
1070
    78
1070
    12
1002
}
  0
DIMENSION
  5
1F9
330
1F
100
AcDbEntity
  8
0
  6
Continuous
 62
     7
370
     0
100
AcDbDimension
  2
*D11
 10
154.1370362694
 20
261.4895354105
 30
0.0
 11
135.1370362694
 21
261.4895354105
 31
0.0
 70
   160
 71
     1
 42
38.0
  3
SLDDIMSTYLE0
100
AcDbAlignedDimension
 13
116.1370362694
 23
233.1764455959
 33
0.0
 14
154.1370362694
 24
233.1764455959
 34
0.0
 50
0.0
100
AcDbRotatedDimension
1001
ACAD
1000
DSTYLE
1002
{
1070
    77
1070
     3
1070
   143
1040
0.0393700787
1070
    41
1040
3.0
1070
    44
1040
1.0
1070
    42
1040
1.0
1070
   147
1040
1.524
1070
    73
1070
     0
1070
    74
1070
     0
1070
   140
1040
3.5
1070
   284
1070
    12
1070
    78
1070
    12
1002
}
  0
DIMENSION
  5
20C
330
1F
100
AcDbEntity
  8
0
  6
Continuous
 62
     7
370
     0
100
AcDbDimension
  2
*D12
 10
110.6671154198
 20
221.1764455959
 30
0.0
 11
110.6671154198
 21
227.1764455959
 31
0.0
 70
   160
 71
     1
 42
12.0
  3
SLDDIMSTYLE0
100
AcDbAlignedDimension
 13
121.1370362694
 23
233.1764455959
 33
0.0
 14
121.1370362694
 24
221.1764455959
 34
0.0
 50
90.0
100
AcDbRotatedDimension
1001
ACAD
1000
DSTYLE
1002
{
1070
    77
1070
     3
1070
   143
1040
0.0393700787
1070
    41
1040
3.0
1070
    44
1040
1.0
1070
    42
1040
1.0
1070
   147
1040
1.524
1070
    73
1070
     0
1070
    74
1070
     0
1070
   140
1040
3.5
1070
   284
1070
    12
1070
    78
1070
    12
1002
}
  0
DIMENSION
  5
222
330
1F
100
AcDbEntity
  8
0
  6
Continuous
 62
     7
370
     0
100
AcDbDimension
  2
*D13
 10
110.6671154198
 20
210.6764455959
 30
0.0
 11
110.6671154198
 21
215.9264455959
 31
0.0
 70
   160
 71
     1
 42
10.5
  3
SLDDIMSTYLE0
100
AcDbAlignedDimension
 13
121.1370362694
 23
221.1764455959
 33
0.0
 14
125.1370362694
 24
210.6764455959
 34
0.0
 50
90.0
100
AcDbRotatedDimension
1001
ACAD
1000
DSTYLE
1002
{
1070
    77
1070
     3
1070
   143
1040
0.0393700787
1070
    41
1040
3.0
1070
    44
1040
1.0
1070
    42
1040
1.0
1070
   147
1040
1.524
1070
    73
1070
     0
1070
    74
1070
     0
1070
   140
1040
3.5
1070
   284
1070
    12
1070
    78
1070
    12
1002
}
  0
DIMENSION
  5
238
330
1F
100
AcDbEntity
  8
0
  6
Continuous
 62
     7
370
     0
100
AcDbDimension
  2
*D14
 10
110.6671154198
 20
210.6764455959
 30
0.0
 11
110.6671154198
 21
207.1764455959
 31
0.0
 70
   160
 71
     1
 42
7.0
  3
SLDDIMSTYLE0
100
AcDbAlignedDimension
 13
125.1370362694
 23
203.6764455959
 33
0.0
 14
125.1370362694
 24
210.6764455959
 34
0.0
 50
90.0
100
AcDbRotatedDimension
1001
ACAD
1000
DSTYLE
1002
{
1070
    77
1070
     3
1070
   143
1040
0.0393700787
1070
    41
1040
3.0
1070
    44
1040
1.0
1070
    42
1040
1.0
1070
   147
1040
1.524
1070
    73
1070
     0
1070
    74
1070
     0
1070
   140
1040
3.5
1070
   284
1070
    12
1070
    78
1070
    12
1002
}
  0
DIMENSION
  5
24F
330
1F
100
AcDbEntity
  8
0
  6
Continuous
 62
     7
370
     0
100
AcDbDimension
  2
*D15
 10
110.6671154198
 20
171.4764455959
 30
0.0
 11
110.6671154198
 21
187.5764455959
 31
0.0
 70
   160
 71
     1
 42
32.2
  3
SLDDIMSTYLE0
100
AcDbAlignedDimension
 13
125.1370362694
 23
203.6764455959
 33
0.0
 14
128.6370362694
 24
171.4764455959
 34
0.0
 50
90.0
100
AcDbRotatedDimension
1001
ACAD
1000
DSTYLE
1002
{
1070
    77
1070
     3
1070
   143
1040
0.0393700787
1070
    41
1040
3.0
1070
    44
1040
1.0
1070
    42
1040
1.0
1070
   147
1040
1.524
1070
    73
1070
     0
1070
    74
1070
     0
1070
   140
1040
3.5
1070
   284
1070
    12
1070
    78
1070
    12
1002
}
  0
DIMENSION
  5
263
330
1F
100
AcDbEntity
  8
0
  6
Continuous
 62
     7
370
     0
100
AcDbDimension
  2
*D16
 10
150.1370362694
 20
130.8376508811
 30
0.0
 11
135.1370362694
 21
130.8376508811
 31
0.0
 70
   160
 71
     1
 42
30.0
  3
SLDDIMSTYLE0
100
AcDbAlignedDimension
 13
120.1370362694
 23
155.1764455959
 33
0.0
 14
150.1370362694
 24
155.1764455959
 34
0.0
 50
0.0
100
AcDbRotatedDimension
1001
ACAD
1000
DSTYLE
1002
{
1070
    77
1070
     3
1070
   143
1040
0.0393700787
1070
    41
1040
3.0
1070
    44
1040
1.0
1070
    42
1040
1.0
1070
   147
1040
1.524
1070
    73
1070
     0
1070
    74
1070
     0
1070
   140
1040
3.5
1070
   284
1070
    12
1070
    78
1070
    12
1002
}
  0
INSERT
  5
281
330
1F
100
AcDbEntity
  8
0
  6
Continuous
 62
     7
370
     0
100
AcDbBlockReference
  2
SW_CENTERMARKSYMBOL_0
 10
135.1370362694
 20
216.1764455959
 30
0.0
  0
INSERT
  5
28D
330
1F
100
AcDbEntity
  8
0
  6
Continuous
 62
     7
370
     0
100
AcDbBlockReference
  2
SW_CENTERMARKSYMBOL_1
 10
125.1370362694
 20
161.1764455959
 30
0.0
  0
INSERT
  5
299
330
1F
100
AcDbEntity
  8
0
  6
Continuous
 62
     7
370
     0
100
AcDbBlockReference
  2
SW_CENTERMARKSYMBOL_2
 10
145.1370362694
 20
161.1764455959
 30
0.0
  0
INSERT
  5
2A5
330
1F
100
AcDbEntity
  8
0
  6
Continuous
 62
     7
370
     0
100
AcDbBlockReference
  2
SW_CENTERMARKSYMBOL_3
 10
145.1370362694
 20
228.1764455959
 30
0.0
  0
INSERT
  5
2B1
330
1F
100
AcDbEntity
  8
0
  6
Continuous
 62
     7
370
     0
100
AcDbBlockReference
  2
SW_CENTERMARKSYMBOL_4
 10
125.1370362694
 20
228.1764455959
 30
0.0
  0
INSERT
  5
2BD
330
1F
100
AcDbEntity
  8
0
  6
Continuous
 62
     7
370
     0
100
AcDbBlockReference
  2
SW_CENTERMARKSYMBOL_5
 10
120.1370362694
 20
216.1764455959
 30
0.0
  0
INSERT
  5
2C9
330
1F
100
AcDbEntity
  8
0
  6
Continuous
 62
     7
370
     0
100
AcDbBlockReference
  2
SW_CENTERMARKSYMBOL_6
 10
150.1370362694
 20
216.1764455959
 30
0.0
  0
INSERT
  5
2D5
330
1F
100
AcDbEntity
  8
0
  6
Continuous
 62
     7
370
     0
100
AcDbBlockReference
  2
SW_CENTERMARKSYMBOL_7
 10
125.1370362694
 20
186.6764455959
 30
0.0
  0
INSERT
  5
2E1
330
1F
100
AcDbEntity
  8
0
  6
Continuous
 62
     7
370
     0
100
AcDbBlockReference
  2
SW_CENTERMARKSYMBOL_8
 10
145.1370362694
 20
186.6764455959
 30
0.0
  0
LINE
  5
2E2
330
1F
100
AcDbEntity
  8
0
  6
Continuous
 62
     7
370
     0
100
AcDbLine
 10
153.6370362694
 20
63.8561039006
 30
0.0
 11
153.6370362694
 21
64.3561039006
 31
0.0
  0
LINE
  5
2E3
330
1F
100
AcDbEntity
  8
0
  6
Continuous
 62
     7
370
     0
100
AcDbLine
 10
146.6370362918
 20
64.3561037926
 30
0.0
 11
146.6370362694
 21
63.8561039006
 31
0.0
  0
LINE
  5
2E4
330
1F
100
AcDbEntity
  8
0
  6
Continuous
 62
     7
370
     0
100
AcDbLine
 10
153.0870362694
 20
63.1561039006
 30
0.0
 11
153.0870365108
 21
63.8561037106
 31
0.0
  0
LINE
  5
2E5
330
1F
100
AcDbEntity
  8
0
  6
Continuous
 62
     7
370
     0
100
AcDbLine
 10
147.1870362888
 20
63.8561037106
 30
0.0
 11
147.1870362694
 21
63.1561039006
 31
0.0
  0
LINE
  5
2E6
330
1F
100
AcDbEntity
  8
0
  6
Continuous
 62
     7
370
     0
100
AcDbLine
 10
147.3870359491
 20
63.1561039684
 30
0.0
 11
147.3870362694
 21
60.4561039006
 31
0.0
  0
LINE
  5
2E7
330
1F
100
AcDbEntity
  8
0
  6
Continuous
 62
     7
370
     0
100
AcDbLine
 10
152.8870362694
 20
60.4561039006
 30
0.0
 11
152.8870368506
 21
63.1561039684
 31
0.0
  0
LINE
  5
2E8
330
1F
100
AcDbEntity
  8
0
  6
Continuous
 62
     7
370
     0
100
AcDbLine
 10
147.3870362694
 20
60.4561039006
 30
0.0
 11
147.6870362694
 21
60.1561039006
 31
0.0
  0
LINE
  5
2E9
330
1F
100
AcDbEntity
  8
0
  6
Continuous
 62
     7
370
     0
100
AcDbLine
 10
152.5870362694
 20
60.1561039006
 30
0.0
 11
152.8870362694
 21
60.4561039006
 31
0.0
  0
LINE
  5
2EA
330
1F
100
AcDbEntity
  8
0
  6
Continuous
 62
     7
370
     0
100
AcDbLine
 10
121.6370362694
 20
76.8561039006
 30
0.0
 11
121.6370362694
 21
76.3561039006
 31
0.0
  0
LINE
  5
2EB
330
1F
100
AcDbEntity
  8
0
  6
Continuous
 62
     7
370
     0
100
AcDbLine
 10
122.1870362694
 20
77.5561039006
 30
0.0
 11
122.1870359163
 21
76.8561035132
 31
0.0
  0
LINE
  5
2EC
330
1F
100
AcDbEntity
  8
0
  6
Continuous
 62
     7
370
     0
100
AcDbLine
 10
128.0870361383
 20
76.8561035132
 30
0.0
 11
128.0870361383
 21
77.3561035952
 31
0.0
  0
LINE
  5
2ED
330
1F
100
AcDbEntity
  8
0
  6
Continuous
 62
     7
370
     0
100
AcDbLine
 10
122.6870362694
 20
80.5561039006
 30
0.0
 11
122.3870362694
 21
80.2561039006
 31
0.0
  0
LINE
  5
2EE
330
1F
100
AcDbEntity
  8
0
  6
Continuous
 62
     7
370
     0
100
AcDbLine
 10
122.3870362694
 20
80.2561039006
 30
0.0
 11
122.3870365078
 21
77.5561041867
 31
0.0
  0
LINE
  5
2EF
330
1F
100
AcDbEntity
  8
0
  6
Continuous
 62
     7
370
     0
100
AcDbLine
 10
148.6370362694
 20
76.3561039006
 30
0.0
 11
148.6370362694
 21
76.8561039006
 31
0.0
  0
LINE
  5
2F0
330
1F
100
AcDbEntity
  8
0
  6
Continuous
 62
     7
370
     0
100
AcDbLine
 10
142.1870364006
 20
77.3561035952
 30
0.0
 11
142.1870364006
 21
76.8561035132
 31
0.0
  0
LINE
  5
2F1
330
1F
100
AcDbEntity
  8
0
  6
Continuous
 62
     7
370
     0
100
AcDbLine
 10
148.0870366226
 20
76.8561035132
 30
0.0
 11
148.0870362694
 21
77.5561039006
 31
0.0
  0
LINE
  5
2F2
330
1F
100
AcDbEntity
  8
0
  6
Continuous
 62
     7
370
     0
100
AcDbLine
 10
147.887036031
 20
77.5561041867
 30
0.0
 11
147.887036031
 21
79.6811038366
 31
0.0
  0
LINE
  5
2F3
330
1F
100
AcDbEntity
  8
0
  6
Continuous
 62
     7
370
     0
100
AcDbLine
 10
121.6370362694
 20
78.8561039006
 30
0.0
 11
121.6370359193
 21
78.3561037591
 31
0.0
  0
LINE
  5
2F4
330
1F
100
AcDbEntity
  8
0
  6
Continuous
 62
     7
370
     0
100
AcDbLine
 10
122.1870362694
 20
79.5561039006
 30
0.0
 11
122.1870359163
 21
78.856103841
 31
0.0
  0
LINE
  5
2F5
330
1F
100
AcDbEntity
  8
0
  6
Continuous
 62
     7
370
     0
100
AcDbLine
 10
122.6870362694
 20
82.5561039006
 30
0.0
 11
122.3870362694
 21
82.2561039006
 31
0.0
  0
LINE
  5
2F6
330
1F
100
AcDbEntity
  8
0
  6
Continuous
 62
     7
370
     0
100
AcDbLine
 10
122.3870362694
 20
82.2561039006
 30
0.0
 11
122.3870362694
 21
80.2561039006
 31
0.0
  0
LINE
  5
2F7
330
1F
100
AcDbEntity
  8
0
  6
Continuous
 62
     7
370
     0
100
AcDbLine
 10
148.6370366196
 20
78.3561037591
 30
0.0
 11
148.6370362694
 21
78.8561039006
 31
0.0
  0
LINE
  5
2F8
330
1F
100
AcDbEntity
  8
0
  6
Continuous
 62
     7
370
     0
100
AcDbLine
 10
148.0870366226
 20
78.856103841
 30
0.0
 11
148.0870362694
 21
79.5561039006
 31
0.0
  0
LINE
  5
2F9
330
1F
100
AcDbEntity
  8
0
  6
Continuous
 62
     7
370
     0
100
AcDbLine
 10
116.1370362694
 20
64.8561039006
 30
0.0
 11
116.6370362694
 21
64.3561039006
 31
0.0
  0
LINE
  5
2FA
330
1F
100
AcDbEntity
  8
0
  6
Continuous
 62
     7
370
     0
100
AcDbLine
 10
153.6370362694
 20
64.3561039006
 30
0.0
 11
154.1370362694
 21
64.8561039006
 31
0.0
  0
LINE
  5
2FB
330
1F
100
AcDbEntity
  8
0
  6
Continuous
 62
     7
370
     0
100
AcDbLine
 10
116.1370368804
 20
67.8561039006
 30
0.0
 11
116.1370362694
 21
64.8561039006
 31
0.0
  0
LINE
  5
2FC
330
1F
100
AcDbEntity
  8
0
  6
Continuous
 62
     7
370
     0
100
AcDbLine
 10
154.1370362694
 20
64.8561039006
 30
0.0
 11
154.1370356585
 21
67.8561039006
 31
0.0
  0
LWPOLYLINE
  5
2FD
330
1F
100
AcDbEntity
  8
0
  6
Continuous
 62
     7
370
     0
100
AcDbPolyline
 90
        3
 70
   128
 43
0.0
 10
141.6365483905
 20
78.8620363658
 10
141.6373488623
 20
78.8281455373
 10
141.6374089326
 20
78.7947566917
  0
LINE
  5
2FE
330
1F
100
AcDbEntity
  8
0
  6
Continuous
 62
     7
370
     0
100
AcDbLine
 10
127.3870362694
 20
77.3561039006
 30
0.0
 11
128.1370362693
 21
77.3561039006
 31
0.0
  0
LINE
  5
2FF
330
1F
100
AcDbEntity
  8
0
  6
Continuous
 62
     7
370
     0
100
AcDbLine
 10
128.1370362693
 20
85.3561039006
 30
0.0
 11
127.3870362694
 21
85.3561039006
 31
0.0
  0
LINE
  5
300
330
1F
100
AcDbEntity
  8
0
  6
Continuous
 62
     7
370
     0
100
AcDbLine
 10
142.1370362694
 20
77.3561039006
 30
0.0
 11
142.8870362694
 21
77.3561039006
 31
0.0
  0
LINE
  5
301
330
1F
100
AcDbEntity
  8
0
  6
Continuous
 62
     7
370
     0
100
AcDbLine
 10
142.8870362694
 20
85.3561039006
 30
0.0
 11
142.1370362685
 21
85.3561039006
 31
0.0
  0
ARC
  5
302
330
1F
100
AcDbEntity
  8
0
  6
Continuous
 62
     7
370
     0
100
AcDbCircle
 10
142.1319932334
 20
85.8510924493
 30
0.0
 40
0.4950234781000338
100
AcDbArc
 50
180.9402079685
 51
270.5837340479
  0
ARC
  5
303
330
1F
100
AcDbEntity
  8
0
  6
Continuous
 62
     7
370
     0
100
AcDbCircle
 10
142.132558896
 20
76.8605567949
 30
0.0
 40
0.4955744790787124
100
AcDbArc
 50
89.4823170253
 51
179.1700867511
  0
ARC
  5
304
330
1F
100
AcDbEntity
  8
0
  6
Continuous
 62
     7
370
     0
100
AcDbCircle
 10
128.1370526323
 20
76.8561275429
 30
0.0
 40
0.4999835030948285
100
AcDbArc
 50
0.0
 51
90.0018998687
  0
LINE
  5
305
330
1F
100
AcDbEntity
  8
0
  6
Continuous
 62
     7
370
     0
100
AcDbLine
 10
126.8870362694
 20
78.3561039006
 30
0.0
 11
127.3870363961
 21
78.3561037591
 31
0.0
  0
LINE
  5
306
330
1F
100
AcDbEntity
  8
0
  6
Continuous
 62
     7
370
     0
100
AcDbLine
 10
127.3870363961
 20
84.3561038112
 30
0.0
 11
126.8870362694
 21
84.3561039006
 31
0.0
  0
LINE
  5
307
330
1F
100
AcDbEntity
  8
0
  6
Continuous
 62
     7
370
     0
100
AcDbLine
 10
142.8870361428
 20
78.3561037591
 30
0.0
 11
143.3870362694
 21
78.3561039006
 31
0.0
  0
LINE
  5
308
330
1F
100
AcDbEntity
  8
0
  6
Continuous
 62
     7
370
     0
100
AcDbLine
 10
143.3870362694
 20
84.3561039006
 30
0.0
 11
142.8870361428
 21
84.3561038112
 31
0.0
  0
LINE
  5
309
330
1F
100
AcDbEntity
  8
0
  6
Continuous
 62
     7
370
     0
100
AcDbLine
 10
147.3870362694
 20
79.6261039006
 30
0.0
 11
147.7870362694
 21
79.6261039006
 31
0.0
  0
LINE
  5
30A
330
1F
100
AcDbEntity
  8
0
  6
Continuous
 62
     7
370
     0
100
AcDbLine
 10
147.7870362694
 20
83.0861039006
 30
0.0
 11
147.3870362694
 21
83.0861039006
 31
0.0
  0
LINE
  5
30B
330
1F
100
AcDbEntity
  8
0
  6
Continuous
 62
     7
370
     0
100
AcDbLine
 10
147.7870362694
 20
79.6261039006
 30
0.0
 11
148.8870361949
 21
80.2311038336
 31
0.0
  0
LINE
  5
30C
330
1F
100
AcDbEntity
  8
0
  6
Continuous
 62
     7
370
     0
100
AcDbLine
 10
148.8870361949
 20
82.4811037367
 30
0.0
 11
147.7870362694
 21
83.0861039006
 31
0.0
  0
LINE
  5
30D
330
1F
100
AcDbEntity
  8
0
  6
Continuous
 62
     7
370
     0
100
AcDbLine
 10
148.8870362694
 20
79.6261039006
 30
0.0
 11
149.2870362694
 21
79.6261039006
 31
0.0
  0
LINE
  5
30E
330
1F
100
AcDbEntity
  8
0
  6
Continuous
 62
     7
370
     0
100
AcDbLine
 10
149.2870362694
 20
83.0861039006
 30
0.0
 11
148.8870362694
 21
83.0861039006
 31
0.0
  0
LINE
  5
30F
330
1F
100
AcDbEntity
  8
0
  6
Continuous
 62
     7
370
     0
100
AcDbLine
 10
149.2870362694
 20
79.6261039006
 30
0.0
 11
150.3870362694
 21
80.2311039006
 31
0.0
  0
LINE
  5
310
330
1F
100
AcDbEntity
  8
0
  6
Continuous
 62
     7
370
     0
100
AcDbLine
 10
150.3870362694
 20
82.4811039006
 30
0.0
 11
149.2870362694
 21
83.0861039006
 31
0.0
  0
ARC
  5
311
330
1F
100
AcDbEntity
  8
0
  6
Continuous
 62
     7
370
     0
100
AcDbCircle
 10
145.7870362694
 20
83.0061039006
 30
0.0
 40
0.4000000000000057
100
AcDbArc
 50
180.0
 51
270.0
  0
ARC
  5
312
330
1F
100
AcDbEntity
  8
0
  6
Continuous
 62
     7
370
     0
100
AcDbCircle
 10
145.7870362694
 20
79.7061039006
 30
0.0
 40
0.4000000000000057
100
AcDbArc
 50
90.0
 51
180.0
  0
LINE
  5
313
330
1F
100
AcDbEntity
  8
0
  6
Continuous
 62
     7
370
     0
100
AcDbLine
 10
147.3870359491
 20
82.60610399
 30
0.0
 11
145.7870362694
 21
82.6061039006
 31
0.0
  0
LINE
  5
314
330
1F
100
AcDbEntity
  8
0
  6
Continuous
 62
     7
370
     0
100
AcDbLine
 10
145.7870362694
 20
80.1061039006
 30
0.0
 11
147.3870359491
 21
80.1061035803
 31
0.0
  0
LINE
  5
315
330
1F
100
AcDbEntity
  8
0
  6
Continuous
 62
     7
370
     0
100
AcDbLine
 10
150.6870362694
 20
82.4811039006
 30
0.0
 11
150.3870362694
 21
82.4811039006
 31
0.0
  0
LINE
  5
316
330
1F
100
AcDbEntity
  8
0
  6
Continuous
 62
     7
370
     0
100
AcDbLine
 10
150.3870362694
 20
80.2311039006
 30
0.0
 11
150.6870362694
 21
80.2311039006
 31
0.0
  0
LINE
  5
317
330
1F
100
AcDbEntity
  8
0
  6
Continuous
 62
     7
370
     0
100
AcDbLine
 10
150.6870362694
 20
80.2311039006
 30
0.0
 11
150.8870362694
 21
80.4311039006
 31
0.0
  0
LINE
  5
318
330
1F
100
AcDbEntity
  8
0
  6
Continuous
 62
     7
370
     0
100
AcDbLine
 10
150.8870362694
 20
82.2811039006
 30
0.0
 11
150.6870362694
 21
82.4811039006
 31
0.0
  0
LINE
  5
319
330
1F
100
AcDbEntity
  8
0
  6
Continuous
 62
     7
370
     0
100
AcDbLine
 10
146.9039881947
 20
63.8561039006
 30
0.0
 11
153.6370362694
 21
63.8561039006
 31
0.0
  0
LINE
  5
31A
330
1F
100
AcDbEntity
  8
0
  6
Continuous
 62
     7
370
     0
100
AcDbLine
 10
146.6370362694
 20
63.8561039006
 30
0.0
 11
146.9039881947
 21
63.8561039006
 31
0.0
  0
LINE
  5
31B
330
1F
100
AcDbEntity
  8
0
  6
Continuous
 62
     7
370
     0
100
AcDbLine
 10
147.4120386065
 20
63.1561039006
 30
0.0
 11
153.0870362694
 21
63.1561039006
 31
0.0
  0
LINE
  5
31C
330
1F
100
AcDbEntity
  8
0
  6
Continuous
 62
     7
370
     0
100
AcDbLine
 10
147.1870362694
 20
63.1561039006
 30
0.0
 11
147.4120386065
 21
63.1561039006
 31
0.0
  0
LINE
  5
31D
330
1F
100
AcDbEntity
  8
0
  6
Continuous
 62
     7
370
     0
100
AcDbLine
 10
147.3870362694
 20
60.4561039006
 30
0.0
 11
152.8870362694
 21
60.4561039006
 31
0.0
  0
LINE
  5
31E
330
1F
100
AcDbEntity
  8
0
  6
Continuous
 62
     7
370
     0
100
AcDbLine
 10
152.5870362694
 20
60.1561039006
 30
0.0
 11
147.6870362694
 21
60.1561039006
 31
0.0
  0
LINE
  5
31F
330
1F
100
AcDbEntity
  8
0
  6
Continuous
 62
     7
370
     0
100
AcDbLine
 10
128.6370362694
 20
76.8561039006
 30
0.0
 11
121.6370362694
 21
76.8561039006
 31
0.0
  0
LINE
  5
320
330
1F
100
AcDbEntity
  8
0
  6
Continuous
 62
     7
370
     0
100
AcDbLine
 10
127.3870362694
 20
77.5561039006
 30
0.0
 11
122.1870362694
 21
77.5561039006
 31
0.0
  0
LINE
  5
321
330
1F
100
AcDbEntity
  8
0
  6
Continuous
 62
     7
370
     0
100
AcDbLine
 10
122.6870362694
 20
80.5561039006
 30
0.0
 11
124.8870362694
 21
80.5561039006
 31
0.0
  0
LINE
  5
322
330
1F
100
AcDbEntity
  8
0
  6
Continuous
 62
     7
370
     0
100
AcDbLine
 10
124.8870362694
 20
80.2561039006
 30
0.0
 11
122.3870362694
 21
80.2561039006
 31
0.0
  0
LINE
  5
323
330
1F
100
AcDbEntity
  8
0
  6
Continuous
 62
     7
370
     0
100
AcDbLine
 10
148.6370362694
 20
76.8561039006
 30
0.0
 11
141.6370362694
 21
76.8561039006
 31
0.0
  0
LINE
  5
324
330
1F
100
AcDbEntity
  8
0
  6
Continuous
 62
     7
370
     0
100
AcDbLine
 10
148.0870362694
 20
77.5561039006
 30
0.0
 11
142.8870362694
 21
77.5561039006
 31
0.0
  0
LINE
  5
325
330
1F
100
AcDbEntity
  8
0
  6
Continuous
 62
     7
370
     0
100
AcDbLine
 10
122.3870362694
 20
78.8561039006
 30
0.0
 11
121.6370362694
 21
78.8561039006
 31
0.0
  0
LINE
  5
326
330
1F
100
AcDbEntity
  8
0
  6
Continuous
 62
     7
370
     0
100
AcDbLine
 10
122.3870362694
 20
79.5561039006
 30
0.0
 11
122.1870362694
 21
79.5561039006
 31
0.0
  0
LINE
  5
327
330
1F
100
AcDbEntity
  8
0
  6
Continuous
 62
     7
370
     0
100
AcDbLine
 10
123.4886182721
 20
82.5561039006
 30
0.0
 11
124.8870362694
 21
82.5561039006
 31
0.0
  0
LINE
  5
328
330
1F
100
AcDbEntity
  8
0
  6
Continuous
 62
     7
370
     0
100
AcDbLine
 10
122.6870362694
 20
82.5561039006
 30
0.0
 11
123.4886182721
 21
82.5561039006
 31
0.0
  0
LINE
  5
329
330
1F
100
AcDbEntity
  8
0
  6
Continuous
 62
     7
370
     0
100
AcDbLine
 10
123.2867711704
 20
82.2561039006
 30
0.0
 11
122.3870362694
 21
82.2561039006
 31
0.0
  0
LINE
  5
32A
330
1F
100
AcDbEntity
  8
0
  6
Continuous
 62
     7
370
     0
100
AcDbLine
 10
124.8870362694
 20
82.2561039006
 30
0.0
 11
123.2867711704
 21
82.2561039006
 31
0.0
  0
LINE
  5
32B
330
1F
100
AcDbEntity
  8
0
  6
Continuous
 62
     7
370
     0
100
AcDbLine
 10
148.6370362694
 20
78.8561039006
 30
0.0
 11
147.8870362694
 21
78.8561039006
 31
0.0
  0
LINE
  5
32C
330
1F
100
AcDbEntity
  8
0
  6
Continuous
 62
     7
370
     0
100
AcDbLine
 10
148.0870362694
 20
79.5561039006
 30
0.0
 11
147.8870362694
 21
79.5561039006
 31
0.0
  0
LINE
  5
32D
330
1F
100
AcDbEntity
  8
0
  6
Continuous
 62
     7
370
     0
100
AcDbLine
 10
116.6370362694
 20
64.3561039006
 30
0.0
 11
153.6370362694
 21
64.3561039006
 31
0.0
  0
LINE
  5
32E
330
1F
100
AcDbEntity
  8
0
  6
Continuous
 62
     7
370
     0
100
AcDbLine
 10
116.1370362694
 20
64.8561039006
 30
0.0
 11
154.1370362694
 21
64.8561039006
 31
0.0
  0
LINE
  5
32F
330
1F
100
AcDbEntity
  8
0
  6
Continuous
 62
     7
370
     0
100
AcDbLine
 10
121.1370358373
 20
75.356103733
 30
0.0
 11
120.1370366047
 21
74.3561040347
 31
0.0
  0
LINE
  5
330
330
1F
100
AcDbEntity
  8
0
  6
Continuous
 62
     7
370
     0
100
AcDbLine
 10
149.1370367016
 20
75.356103733
 30
0.0
 11
148.6370366196
 21
75.356103733
 31
0.0
  0
LINE
  5
331
330
1F
100
AcDbEntity
  8
0
  6
Continuous
 62
     7
370
     0
100
AcDbLine
 10
121.6370359193
 20
75.356103733
 30
0.0
 11
121.1370358373
 21
75.356103733
 31
0.0
  0
LINE
  5
332
330
1F
100
AcDbEntity
  8
0
  6
Continuous
 62
     7
370
     0
100
AcDbLine
 10
150.1370359342
 20
74.3561040347
 30
0.0
 11
149.1370367016
 21
75.356103733
 31
0.0
  0
LINE
  5
333
330
1F
100
AcDbEntity
  8
0
  6
Continuous
 62
     7
370
     0
100
AcDbLine
 10
120.1370366047
 20
78.3561037591
 30
0.0
 11
120.1370366047
 21
74.3561040347
 31
0.0
  0
LINE
  5
334
330
1F
100
AcDbEntity
  8
0
  6
Continuous
 62
     7
370
     0
100
AcDbLine
 10
121.1370358373
 20
75.356103733
 30
0.0
 11
121.1370358373
 21
78.3561037591
 31
0.0
  0
LINE
  5
335
330
1F
100
AcDbEntity
  8
0
  6
Continuous
 62
     7
370
     0
100
AcDbLine
 10
120.1370366047
 20
78.3561037591
 30
0.0
 11
121.1370358373
 21
78.3561037591
 31
0.0
  0
LINE
  5
336
330
1F
100
AcDbEntity
  8
0
  6
Continuous
 62
     7
370
     0
100
AcDbLine
 10
149.1370367016
 20
78.3561037591
 30
0.0
 11
149.1370367016
 21
75.356103733
 31
0.0
  0
LINE
  5
337
330
1F
100
AcDbEntity
  8
0
  6
Continuous
 62
     7
370
     0
100
AcDbLine
 10
121.1370358373
 20
78.3561037591
 30
0.0
 11
122.3870365078
 21
78.3561037591
 31
0.0
  0
LINE
  5
338
330
1F
100
AcDbEntity
  8
0
  6
Continuous
 62
     7
370
     0
100
AcDbLine
 10
147.887036031
 20
78.3561037591
 30
0.0
 11
149.1370367016
 21
78.3561037591
 31
0.0
  0
LINE
  5
339
330
1F
100
AcDbEntity
  8
0
  6
Continuous
 62
     7
370
     0
100
AcDbLine
 10
150.1370359342
 20
74.3561040347
 30
0.0
 11
150.1370359342
 21
78.3561037591
 31
0.0
  0
LINE
  5
33A
330
1F
100
AcDbEntity
  8
0
  6
Continuous
 62
     7
370
     0
100
AcDbLine
 10
149.1370367016
 20
78.3561037591
 30
0.0
 11
150.1370359342
 21
78.3561037591
 31
0.0
  0
LINE
  5
33B
330
1F
100
AcDbEntity
  8
0
  6
Continuous
 62
     7
370
     0
100
AcDbLine
 10
128.6370361353
 20
78.7948554119
 30
0.0
 11
128.6201060879
 21
78.8453731423
 31
0.0
  0
ARC
  5
33C
330
1F
100
AcDbEntity
  8
0
  6
Continuous
 62
     7
370
     0
100
AcDbCircle
 10
135.0256978061
 20
77.937713875
 30
0.0
 40
6.982635192925102
100
AcDbArc
 50
150.6886025239
 51
170.5893680139
  0
LINE
  5
33D
330
1F
100
AcDbEntity
  8
0
  6
Continuous
 62
     7
370
     0
100
AcDbLine
 10
128.6370361353
 20
78.7948544806
 30
0.0
 11
128.6483093294
 21
79.0900138875
 31
0.0
  0
LINE
  5
33E
330
1F
100
AcDbEntity
  8
0
  6
Continuous
 62
     7
370
     0
100
AcDbLine
 10
128.6370342727
 20
83.917354021
 30
0.0
 11
128.6195240113
 21
83.865104962
 31
0.0
  0
LINE
  5
33F
330
1F
100
AcDbEntity
  8
0
  6
Continuous
 62
     7
370
     0
100
AcDbLine
 10
128.6485682371
 20
83.6154713964
 30
0.0
 11
128.6370361353
 21
83.917354021
 31
0.0
  0
ARC
  5
340
330
1F
100
AcDbEntity
  8
0
  6
Continuous
 62
     7
370
     0
100
AcDbCircle
 10
135.0356531345
 20
84.7779933076
 30
0.0
 40
6.99302899725588
100
AcDbArc
 50
189.4255824757
 51
209.2964616481
  0
LWPOLYLINE
  5
341
330
1F
100
AcDbEntity
  8
0
  6
Continuous
 62
     7
370
     0
100
AcDbPolyline
 90
        7
 70
   128
 43
0.0
 10
141.6370364035
 20
83.9173558837
 10
141.6722492444
 20
83.8124479836
 10
141.7187436613
 20
83.761450622
 10
141.7837690691
 20
83.7159629649
 10
141.8637454639
 20
83.679045338
 10
141.9532590675
 20
83.6526926344
 10
142.1370364855
 20
83.6327735072
  0
ARC
  5
342
330
1F
100
AcDbEntity
  8
0
  6
Continuous
 62
     7
370
     0
100
AcDbCircle
 10
135.2383822516
 20
84.7780063628
 30
0.0
 40
6.993067786347583
100
AcDbArc
 50
330.7035940208
 51
350.5743618554
  0
LINE
  5
343
330
1F
100
AcDbEntity
  8
0
  6
Continuous
 62
     7
370
     0
100
AcDbLine
 10
141.6370364035
 20
83.917354021
 30
0.0
 11
141.6311732623
 21
83.7638739234
 31
0.0
  0
LWPOLYLINE
  5
344
330
1F
100
AcDbEntity
  8
0
  6
Continuous
 62
     7
370
     0
100
AcDbPolyline
 90
        9
 70
   128
 43
0.0
 10
141.6370364035
 20
78.7948544806
 10
141.6466434616
 20
78.8503734132
 10
141.6750962975
 20
78.9037596172
 10
141.7213015388
 20
78.9529604575
 10
141.7834826874
 20
78.9960853493
 10
141.8592513668
 20
79.0314765384
 10
141.9456943999
 20
79.0577752253
 10
142.039491156
 20
79.0739690622
 10
142.1370364855
 20
79.0794377884
  0
LINE
  5
345
330
1F
100
AcDbEntity
  8
0
  6
Continuous
 62
     7
370
     0
100
AcDbLine
 10
141.634459434
 20
78.8623278698
 30
0.0
 11
141.6370362693
 21
78.7948542053
 31
0.0
  0
ARC
  5
346
330
1F
100
AcDbEntity
  8
0
  6
Continuous
 62
     7
370
     0
100
AcDbCircle
 10
135.2484268993
 20
77.9377322058
 30
0.0
 40
6.982580731277392
100
AcDbArc
 50
9.4105535869
 51
29.3114758753
  0
LINE
  5
347
330
1F
100
AcDbEntity
  8
0
  6
Continuous
 62
     7
370
     0
100
AcDbLine
 10
127.3870362694
 20
77.3561039006
 30
0.0
 11
127.3870362694
 21
85.3561039006
 31
0.0
  0
LINE
  5
348
330
1F
100
AcDbEntity
  8
0
  6
Continuous
 62
     7
370
     0
100
AcDbLine
 10
128.1370362693
 20
83.6327702954
 30
0.0
 11
128.1370362693
 21
85.3561039006
 31
0.0
  0
LINE
  5
349
330
1F
100
AcDbEntity
  8
0
  6
Continuous
 62
     7
370
     0
100
AcDbLine
 10
128.9370362694
 20
75.3561039006
 30
0.0
 11
128.6370362694
 21
75.3561039006
 31
0.0
  0
LINE
  5
34A
330
1F
100
AcDbEntity
  8
0
  6
Continuous
 62
     7
370
     0
100
AcDbLine
 10
128.6370362694
 20
75.3561039006
 30
0.0
 11
128.6370361353
 21
78.7948544806
 31
0.0
  0
LINE
  5
34B
330
1F
100
AcDbEntity
  8
0
  6
Continuous
 62
     7
370
     0
100
AcDbLine
 10
128.9370360914
 20
81.3561042508
 30
0.0
 11
128.9370362694
 21
75.3561039006
 31
0.0
  0
LINE
  5
34C
330
1F
100
AcDbEntity
  8
0
  6
Continuous
 62
     7
370
     0
100
AcDbLine
 10
128.6370362694
 20
87.3561039006
 30
0.0
 11
128.9370362694
 21
87.3561039006
 31
0.0
  0
LINE
  5
34D
330
1F
100
AcDbEntity
  8
0
  6
Continuous
 62
     7
370
     0
100
AcDbLine
 10
128.9370362694
 20
87.3561039006
 30
0.0
 11
128.9370360914
 21
81.3561042508
 31
0.0
  0
LINE
  5
34E
330
1F
100
AcDbEntity
  8
0
  6
Continuous
 62
     7
370
     0
100
AcDbLine
 10
128.6370361353
 20
83.917354021
 30
0.0
 11
128.6370362694
 21
87.3561039006
 31
0.0
  0
ARC
  5
34F
330
1F
100
AcDbEntity
  8
0
  6
Continuous
 62
     7
370
     0
100
AcDbCircle
 10
129.6370365439
 20
75.3561044434
 30
0.0
 40
0.6999995212525131
100
AcDbArc
 50
180.0
 51
269.9999799707
  0
ARC
  5
350
330
1F
100
AcDbEntity
  8
0
  6
Continuous
 62
     7
370
     0
100
AcDbCircle
 10
129.6370362512
 20
87.3561038853
 30
0.0
 40
0.6999992285660158
100
AcDbArc
 50
89.9999960726
 51
180.0
  0
LINE
  5
351
330
1F
100
AcDbEntity
  8
0
  6
Continuous
 62
     7
370
     0
100
AcDbLine
 10
140.6370362694
 20
88.0561039005
 30
0.0
 11
129.6370362694
 21
88.0561039005
 31
0.0
  0
ARC
  5
352
330
1F
100
AcDbEntity
  8
0
  6
Continuous
 62
     7
370
     0
100
AcDbCircle
 10
140.6370362876
 20
87.3561038853
 30
0.0
 40
0.6999992285660016
100
AcDbArc
 50
0.0
 51
90.0000039274
  0
LINE
  5
353
330
1F
100
AcDbEntity
  8
0
  6
Continuous
 62
     7
370
     0
100
AcDbLine
 10
141.3370364475
 20
81.3561023882
 30
0.0
 11
141.3370362696
 21
87.3561039006
 31
0.0
  0
LINE
  5
354
330
1F
100
AcDbEntity
  8
0
  6
Continuous
 62
     7
370
     0
100
AcDbLine
 10
141.3370362828
 20
75.3561039006
 30
0.0
 11
141.3370364475
 21
81.3561023882
 31
0.0
  0
ARC
  5
355
330
1F
100
AcDbEntity
  8
0
  6
Continuous
 62
     7
370
     0
100
AcDbCircle
 10
140.6370359949
 20
75.3561044434
 30
0.0
 40
0.6999995212524938
100
AcDbArc
 50
270.0000200293
 51
360.0
  0
LINE
  5
356
330
1F
100
AcDbEntity
  8
0
  6
Continuous
 62
     7
370
     0
100
AcDbLine
 10
129.6370362694
 20
74.6561039007
 30
0.0
 11
140.6370362694
 21
74.6561039007
 31
0.0
  0
LINE
  5
357
330
1F
100
AcDbEntity
  8
0
  6
Continuous
 62
     7
370
     0
100
AcDbLine
 10
141.6370362694
 20
75.3561039006
 30
0.0
 11
141.3370362828
 21
75.3561039006
 31
0.0
  0
LINE
  5
358
330
1F
100
AcDbEntity
  8
0
  6
Continuous
 62
     7
370
     0
100
AcDbLine
 10
141.6370362693
 20
78.7948542053
 30
0.0
 11
141.6370362694
 21
75.3561039006
 31
0.0
  0
LINE
  5
359
330
1F
100
AcDbEntity
  8
0
  6
Continuous
 62
     7
370
     0
100
AcDbLine
 10
141.3370362696
 20
87.3561039006
 30
0.0
 11
141.6370362694
 21
87.3561039006
 31
0.0
  0
LINE
  5
35A
330
1F
100
AcDbEntity
  8
0
  6
Continuous
 62
     7
370
     0
100
AcDbLine
 10
141.6370362694
 20
87.3561039006
 30
0.0
 11
141.6370364035
 21
83.917354021
 31
0.0
  0
LINE
  5
35B
330
1F
100
AcDbEntity
  8
0
  6
Continuous
 62
     7
370
     0
100
AcDbLine
 10
142.8870362694
 20
85.3561039006
 30
0.0
 11
142.8870362694
 21
77.3561039006
 31
0.0
  0
LINE
  5
35C
330
1F
100
AcDbEntity
  8
0
  6
Continuous
 62
     7
370
     0
100
AcDbLine
 10
129.6370362694
 20
88.3561039006
 30
0.0
 11
140.6370362694
 21
88.3561039006
 31
0.0
  0
LINE
  5
35D
330
1F
100
AcDbEntity
  8
0
  6
Continuous
 62
     7
370
     0
100
AcDbLine
 10
140.6370362694
 20
88.3561039006
 30
0.0
 11
140.6370362694
 21
88.0561039005
 31
0.0
  0
LINE
  5
35E
330
1F
100
AcDbEntity
  8
0
  6
Continuous
 62
     7
370
     0
100
AcDbLine
 10
129.6370362694
 20
88.0561039005
 30
0.0
 11
129.6370362694
 21
88.3561039006
 31
0.0
  0
LINE
  5
35F
330
1F
100
AcDbEntity
  8
0
  6
Continuous
 62
     7
370
     0
100
AcDbLine
 10
129.6370362694
 20
74.3561039006
 30
0.0
 11
129.6370362694
 21
74.6561039007
 31
0.0
  0
LINE
  5
360
330
1F
100
AcDbEntity
  8
0
  6
Continuous
 62
     7
370
     0
100
AcDbLine
 10
140.6370362694
 20
74.6561039007
 30
0.0
 11
140.6370362734
 21
74.3561039006
 31
0.0
  0
ARC
  5
361
330
1F
100
AcDbEntity
  8
0
  6
Continuous
 62
     7
370
     0
100
AcDbCircle
 10
129.6370362694
 20
75.3561039006
 30
0.0
 40
1.0
100
AcDbArc
 50
180.0
 51
269.999999978
  0
ARC
  5
362
330
1F
100
AcDbEntity
  8
0
  6
Continuous
 62
     7
370
     0
100
AcDbCircle
 10
129.6370362694
 20
87.3561039006
 30
0.0
 40
1.0
100
AcDbArc
 50
90.0
 51
180.0
  0
ARC
  5
363
330
1F
100
AcDbEntity
  8
0
  6
Continuous
 62
     7
370
     0
100
AcDbCircle
 10
140.6370362694
 20
75.3561039006
 30
0.0
 40
1.0
100
AcDbArc
 50
270.0000002292
 51
360.0
  0
ARC
  5
364
330
1F
100
AcDbEntity
  8
0
  6
Continuous
 62
     7
370
     0
100
AcDbCircle
 10
140.6370362694
 20
87.3561039006
 30
0.0
 40
1.0
100
AcDbArc
 50
0.0
 51
90.0
  0
ARC
  5
365
330
1F
100
AcDbEntity
  8
0
  6
Continuous
 62
     7
370
     0
100
AcDbCircle
 10
128.1370362694
 20
85.8561039006
 30
0.0
 40
0.5
100
AcDbArc
 50
269.9999999841
 51
0.0
  0
LINE
  5
366
330
1F
100
AcDbEntity
  8
0
  6
Continuous
 62
     7
370
     0
100
AcDbLine
 10
126.8870362694
 20
81.3561039006
 30
0.0
 11
126.8870362694
 21
84.3561039006
 31
0.0
  0
LINE
  5
367
330
1F
100
AcDbEntity
  8
0
  6
Continuous
 62
     7
370
     0
100
AcDbLine
 10
126.8870362694
 20
78.3561039006
 30
0.0
 11
126.8870362694
 21
81.3561039006
 31
0.0
  0
LINE
  5
368
330
1F
100
AcDbEntity
  8
0
  6
Continuous
 62
     7
370
     0
100
AcDbLine
 10
143.3870362694
 20
81.3561039006
 30
0.0
 11
143.3870362694
 21
78.3561039006
 31
0.0
  0
LINE
  5
369
330
1F
100
AcDbEntity
  8
0
  6
Continuous
 62
     7
370
     0
100
AcDbLine
 10
143.3870362694
 20
84.3561039006
 30
0.0
 11
143.3870362694
 21
81.3561039006
 31
0.0
  0
LINE
  5
36A
330
1F
100
AcDbEntity
  8
0
  6
Continuous
 62
     7
370
     0
100
AcDbLine
 10
126.8870362694
 20
81.3561039006
 30
0.0
 11
124.8870359863
 21
81.3561042508
 31
0.0
  0
LINE
  5
36B
330
1F
100
AcDbEntity
  8
0
  6
Continuous
 62
     7
370
     0
100
AcDbLine
 10
124.8870359863
 20
83.606104154
 30
0.0
 11
124.8870359863
 21
81.3561042508
 31
0.0
  0
LINE
  5
36C
330
1F
100
AcDbEntity
  8
0
  6
Continuous
 62
     7
370
     0
100
AcDbLine
 10
124.8870359863
 20
83.606104154
 30
0.0
 11
126.8870363141
 21
83.606104154
 31
0.0
  0
LINE
  5
36D
330
1F
100
AcDbEntity
  8
0
  6
Continuous
 62
     7
370
     0
100
AcDbLine
 10
126.8870363141
 20
79.1061043477
 30
0.0
 11
124.8870359863
 21
79.1061043477
 31
0.0
  0
LINE
  5
36E
330
1F
100
AcDbEntity
  8
0
  6
Continuous
 62
     7
370
     0
100
AcDbLine
 10
124.8870359863
 20
81.3561042508
 30
0.0
 11
124.8870359863
 21
79.1061043477
 31
0.0
  0
LINE
  5
36F
330
1F
100
AcDbEntity
  8
0
  6
Continuous
 62
     7
370
     0
100
AcDbLine
 10
145.3870365526
 20
83.606104154
 30
0.0
 11
145.3870365526
 21
81.3561042508
 31
0.0
  0
LINE
  5
370
330
1F
100
AcDbEntity
  8
0
  6
Continuous
 62
     7
370
     0
100
AcDbLine
 10
143.3870362694
 20
81.3561039006
 30
0.0
 11
145.3870365526
 21
81.3561042508
 31
0.0
  0
LINE
  5
371
330
1F
100
AcDbEntity
  8
0
  6
Continuous
 62
     7
370
     0
100
AcDbLine
 10
143.3870362247
 20
83.606104154
 30
0.0
 11
145.3870365526
 21
83.606104154
 31
0.0
  0
LINE
  5
372
330
1F
100
AcDbEntity
  8
0
  6
Continuous
 62
     7
370
     0
100
AcDbLine
 10
145.3870365526
 20
81.3561042508
 30
0.0
 11
145.3870365526
 21
79.1061043477
 31
0.0
  0
LINE
  5
373
330
1F
100
AcDbEntity
  8
0
  6
Continuous
 62
     7
370
     0
100
AcDbLine
 10
143.3870362247
 20
79.1061043477
 30
0.0
 11
145.3870365526
 21
79.1061043477
 31
0.0
  0
LINE
  5
374
330
1F
100
AcDbEntity
  8
0
  6
Continuous
 62
     7
370
     0
100
AcDbLine
 10
147.7870362694
 20
83.0861039006
 30
0.0
 11
147.7870362694
 21
79.6261039006
 31
0.0
  0
LINE
  5
375
330
1F
100
AcDbEntity
  8
0
  6
Continuous
 62
     7
370
     0
100
AcDbLine
 10
147.3870362694
 20
81.3561039006
 30
0.0
 11
147.3870362694
 21
83.0861039006
 31
0.0
  0
LINE
  5
376
330
1F
100
AcDbEntity
  8
0
  6
Continuous
 62
     7
370
     0
100
AcDbLine
 10
147.3870362694
 20
79.6261039006
 30
0.0
 11
147.3870362694
 21
81.3561039006
 31
0.0
  0
LINE
  5
377
330
1F
100
AcDbEntity
  8
0
  6
Continuous
 62
     7
370
     0
100
AcDbLine
 10
149.2870362694
 20
83.0861039006
 30
0.0
 11
149.2870362694
 21
79.6261039006
 31
0.0
  0
LINE
  5
378
330
1F
100
AcDbEntity
  8
0
  6
Continuous
 62
     7
370
     0
100
AcDbLine
 10
148.8870362694
 20
81.3561039006
 30
0.0
 11
148.8870362694
 21
83.0861039006
 31
0.0
  0
LINE
  5
379
330
1F
100
AcDbEntity
  8
0
  6
Continuous
 62
     7
370
     0
100
AcDbLine
 10
148.8870362694
 20
79.6261039006
 30
0.0
 11
148.8870362694
 21
81.3561039006
 31
0.0
  0
LINE
  5
37A
330
1F
100
AcDbEntity
  8
0
  6
Continuous
 62
     7
370
     0
100
AcDbLine
 10
150.3870362694
 20
81.3561039006
 30
0.0
 11
150.3870362694
 21
80.2311039006
 31
0.0
  0
LINE
  5
37B
330
1F
100
AcDbEntity
  8
0
  6
Continuous
 62
     7
370
     0
100
AcDbLine
 10
150.3870362694
 20
82.4811039006
 30
0.0
 11
150.3870362694
 21
81.3561039006
 31
0.0
  0
LINE
  5
37C
330
1F
100
AcDbEntity
  8
0
  6
Continuous
 62
     7
370
     0
100
AcDbLine
 10
150.6870362694
 20
82.4811039006
 30
0.0
 11
150.6870362694
 21
80.2311039006
 31
0.0
  0
LINE
  5
37D
330
1F
100
AcDbEntity
  8
0
  6
Continuous
 62
     7
370
     0
100
AcDbLine
 10
150.8870362694
 20
81.3561039006
 30
0.0
 11
150.8870362694
 21
80.4311039006
 31
0.0
  0
LINE
  5
37E
330
1F
100
AcDbEntity
  8
0
  6
Continuous
 62
     7
370
     0
100
AcDbLine
 10
150.8870362694
 20
82.2811039006
 30
0.0
 11
150.8870362694
 21
81.3561039006
 31
0.0
  0
LINE
  5
37F
330
1F
100
AcDbEntity
  8
0
  6
Continuous
 62
     7
370
     0
100
AcDbLine
 10
146.6370362694
 20
76.3561039006
 30
0.0
 11
141.6370364035
 21
76.3561043626
 31
0.0
  0
LINE
  5
380
330
1F
100
AcDbEntity
  8
0
  6
Continuous
 62
     7
370
     0
100
AcDbLine
 10
146.6370362918
 20
74.3561040347
 30
0.0
 11
146.6370362694
 21
76.3561039006
 31
0.0
  0
LINE
  5
381
330
1F
100
AcDbEntity
  8
0
  6
Continuous
 62
     7
370
     0
100
AcDbLine
 10
123.6370362698
 20
76.3561039006
 30
0.0
 11
123.6370362471
 21
74.3561040347
 31
0.0
  0
LINE
  5
382
330
1F
100
AcDbEntity
  8
0
  6
Continuous
 62
     7
370
     0
100
AcDbLine
 10
128.6370361353
 20
76.3561043626
 30
0.0
 11
123.6370362698
 21
76.3561039006
 31
0.0
  0
LINE
  5
383
330
1F
100
AcDbEntity
  8
0
  6
Continuous
 62
     7
370
     0
100
AcDbLine
 10
121.6370362694
 20
76.3561039006
 30
0.0
 11
121.6370359193
 21
74.3561040347
 31
0.0
  0
LINE
  5
384
330
1F
100
AcDbEntity
  8
0
  6
Continuous
 62
     7
370
     0
100
AcDbLine
 10
123.6370362698
 20
76.3561039006
 30
0.0
 11
121.6370362694
 21
76.3561039006
 31
0.0
  0
LINE
  5
385
330
1F
100
AcDbEntity
  8
0
  6
Continuous
 62
     7
370
     0
100
AcDbLine
 10
148.6370362694
 20
76.3561039006
 30
0.0
 11
148.6370366196
 21
74.3561040347
 31
0.0
  0
LINE
  5
386
330
1F
100
AcDbEntity
  8
0
  6
Continuous
 62
     7
370
     0
100
AcDbLine
 10
146.6370362694
 20
76.3561039006
 30
0.0
 11
148.6370362694
 21
76.3561039006
 31
0.0
  0
LINE
  5
387
330
1F
100
AcDbEntity
  8
0
  6
Continuous
 62
     7
370
     0
100
AcDbLine
 10
120.1370366047
 20
71.3561040087
 30
0.0
 11
120.1370366047
 21
74.3561040347
 31
0.0
  0
LINE
  5
388
330
1F
100
AcDbEntity
  8
0
  6
Continuous
 62
     7
370
     0
100
AcDbLine
 10
122.1370360012
 20
71.3561040087
 30
0.0
 11
122.1370360012
 21
74.3561040347
 31
0.0
  0
LINE
  5
389
330
1F
100
AcDbEntity
  8
0
  6
Continuous
 62
     7
370
     0
100
AcDbLine
 10
122.1370360012
 20
71.3561040087
 30
0.0
 11
120.1370366047
 21
71.3561040087
 31
0.0
  0
LINE
  5
38A
330
1F
100
AcDbEntity
  8
0
  6
Continuous
 62
     7
370
     0
100
AcDbLine
 10
120.1370366047
 20
74.3561040347
 30
0.0
 11
122.1370360012
 21
74.3561040347
 31
0.0
  0
LINE
  5
38B
330
1F
100
AcDbEntity
  8
0
  6
Continuous
 62
     7
370
     0
100
AcDbLine
 10
148.1370365377
 20
74.3561040347
 30
0.0
 11
148.1370365377
 21
71.3561040087
 31
0.0
  0
LINE
  5
38C
330
1F
100
AcDbEntity
  8
0
  6
Continuous
 62
     7
370
     0
100
AcDbLine
 10
148.1370365377
 20
71.3561040087
 30
0.0
 11
122.1370360012
 21
71.3561040087
 31
0.0
  0
LINE
  5
38D
330
1F
100
AcDbEntity
  8
0
  6
Continuous
 62
     7
370
     0
100
AcDbLine
 10
122.1370360012
 20
74.3561040347
 30
0.0
 11
148.1370365377
 21
74.3561040347
 31
0.0
  0
LINE
  5
38E
330
1F
100
AcDbEntity
  8
0
  6
Continuous
 62
     7
370
     0
100
AcDbLine
 10
150.1370359342
 20
71.3561040087
 30
0.0
 11
150.1370359342
 21
74.3561040347
 31
0.0
  0
LINE
  5
38F
330
1F
100
AcDbEntity
  8
0
  6
Continuous
 62
     7
370
     0
100
AcDbLine
 10
150.1370359342
 20
71.3561040087
 30
0.0
 11
148.1370365377
 21
71.3561040087
 31
0.0
  0
LINE
  5
390
330
1F
100
AcDbEntity
  8
0
  6
Continuous
 62
     7
370
     0
100
AcDbLine
 10
148.1370365377
 20
74.3561040347
 30
0.0
 11
150.1370359342
 21
74.3561040347
 31
0.0
  0
LINE
  5
391
330
1F
100
AcDbEntity
  8
0
  6
Continuous
 62
     7
370
     0
100
AcDbLine
 10
116.1370368804
 20
67.8561039006
 30
0.0
 11
154.1370356585
 21
67.8561039006
 31
0.0
  0
LINE
  5
392
330
1F
100
AcDbEntity
  8
0
  6
Continuous
 62
     7
370
     0
100
AcDbLine
 10
116.1370368804
 20
67.8561039006
 30
0.0
 11
116.1370368804
 21
74.3561040347
 31
0.0
  0
LINE
  5
393
330
1F
100
AcDbEntity
  8
0
  6
Continuous
 62
     7
370
     0
100
AcDbLine
 10
154.1370356585
 20
74.3561040347
 30
0.0
 11
154.1370356585
 21
67.8561039006
 31
0.0
  0
LINE
  5
394
330
1F
100
AcDbEntity
  8
0
  6
Continuous
 62
     7
370
     0
100
AcDbLine
 10
116.1370368804
 20
74.3561040347
 30
0.0
 11
120.1370366047
 21
74.3561040347
 31
0.0
  0
LINE
  5
395
330
1F
100
AcDbEntity
  8
0
  6
Continuous
 62
     7
370
     0
100
AcDbLine
 10
150.1370359342
 20
74.3561040347
 30
0.0
 11
154.1370356585
 21
74.3561040347
 31
0.0
  0
LWPOLYLINE
  5
396
330
1F
100
AcDbEntity
  8
0
  6
Continuous
 62
     7
370
     0
100
AcDbPolyline
 90
        7
 70
   128
 43
0.0
 10
128.6201060879
 20
78.8453731423
 10
128.6019303965
 20
78.8996087125
 10
128.5555337685
 20
78.9505818596
 10
128.4905893858
 20
78.9960853493
 10
128.4106409307
 20
79.0330495423
 10
128.3210835549
 20
79.0594571939
 10
128.1370360534
 20
79.0794377884
  0
ARC
  5
397
330
1F
100
AcDbEntity
  8
0
  6
Continuous
 62
     7
370
     0
100
AcDbCircle
 10
150.0616040123
 20
77.5131452175
 30
0.0
 40
21.4712762540843
100
AcDbArc
 50
169.6895652717
 51
175.7883577833
  0
LWPOLYLINE
  5
398
330
1F
100
AcDbEntity
  8
0
  6
Continuous
 62
     7
370
     0
100
AcDbPolyline
 90
        7
 70
   128
 43
0.0
 10
128.6195240113
 20
83.865104962
 10
128.6019289995
 20
83.8125988578
 10
128.5555328372
 20
83.7616257107
 10
128.4905889201
 20
83.7161212897
 10
128.4106409307
 20
83.6791552341
 10
128.3210835549
 20
83.6527485138
 10
128.1370360534
 20
83.6327660566
  0
ARC
  5
399
330
1F
100
AcDbEntity
  8
0
  6
Continuous
 62
     7
370
     0
100
AcDbCircle
 10
148.5737117296
 20
85.0113445721
 30
0.0
 40
19.9739781996038
100
AcDbArc
 50
184.0073581868
 51
190.5445543478
  0
ARC
  5
39A
330
1F
100
AcDbEntity
  8
0
  6
Continuous
 62
     7
370
     0
100
AcDbCircle
 10
121.2842130755
 20
85.0276358291
 30
0.0
 40
20.38616891418253
100
AcDbArc
 50
349.6244599424
 51
356.4458903252
  0
ARC
  5
39B
330
1F
100
AcDbEntity
  8
0
  6
Continuous
 62
     7
370
     0
100
AcDbCircle
 10
122.8962371493
 20
77.8921149958
 30
0.0
 40
18.7633229309499
100
AcDbArc
 50
2.9639688291
 51
10.6386761097
  0
LINE
  5
39C
330
1F
100
AcDbEntity
  8
0
  6
Continuous
 62
     7
370
     0
100
AcDbLine
 10
128.1370362693
 20
77.3561039006
 30
0.0
 11
128.1370362693
 21
79.0794375053
 31
0.0
  0
LINE
  5
39D
330
1F
100
AcDbEntity
  8
0
  6
Continuous
 62
     7
370
     0
100
AcDbLine
 10
142.1370362694
 20
79.0794375059
 30
0.0
 11
142.1370362694
 21
77.3561039006
 31
0.0
  0
LINE
  5
39E
330
1F
100
AcDbEntity
  8
0
  6
Continuous
 62
     7
370
     0
100
AcDbLine
 10
142.1370362685
 20
85.3561039006
 30
0.0
 11
142.1370362685
 21
83.6327702954
 31
0.0
  0
LINE
  5
39F
330
1F
100
AcDbEntity
  8
0
  6
Continuous
 62
     7
370
     0
100
AcDbLine
 10
145.7870362694
 20
82.6061039006
 30
0.0
 11
145.7870362694
 21
80.1061039006
 31
0.0
  0
LINE
  5
3A0
330
1F
100
AcDbEntity
  8
0
  6
Continuous
 62
     7
370
     0
100
AcDbLine
 10
48.1386842115
 20
212.6764455959
 30
0.0
 11
48.6386841035
 21
212.6764454878
 31
0.0
  0
LINE
  5
3A1
330
1F
100
AcDbEntity
  8
0
  6
Continuous
 62
     7
370
     0
100
AcDbLine
 10
48.6386841035
 20
219.6764457039
 30
0.0
 11
48.1386842115
 21
219.6764455959
 31
0.0
  0
LINE
  5
3A2
330
1F
100
AcDbEntity
  8
0
  6
Continuous
 62
     7
370
     0
100
AcDbLine
 10
47.4386842115
 20
213.2264455959
 30
0.0
 11
48.1386840215
 21
213.2264454848
 31
0.0
  0
LINE
  5
3A3
330
1F
100
AcDbEntity
  8
0
  6
Continuous
 62
     7
370
     0
100
AcDbLine
 10
48.1386840215
 20
219.1264457069
 30
0.0
 11
47.4386842115
 21
219.1264455959
 31
0.0
  0
LINE
  5
3A4
330
1F
100
AcDbEntity
  8
0
  6
Continuous
 62
     7
370
     0
100
AcDbLine
 10
44.7386842115
 20
218.9264455959
 30
0.0
 11
44.4386842115
 21
218.6264455959
 31
0.0
  0
LINE
  5
3A5
330
1F
100
AcDbEntity
  8
0
  6
Continuous
 62
     7
370
     0
100
AcDbLine
 10
44.4386842115
 20
213.7264455959
 30
0.0
 11
44.7386842115
 21
213.4264455959
 31
0.0
  0
LINE
  5
3A6
330
1F
100
AcDbEntity
  8
0
  6
Continuous
 62
     7
370
     0
100
AcDbLine
 10
47.4386842793
 20
218.926445581
 30
0.0
 11
44.7386842115
 21
218.9264455959
 31
0.0
  0
LINE
  5
3A7
330
1F
100
AcDbEntity
  8
0
  6
Continuous
 62
     7
370
     0
100
AcDbLine
 10
44.7386842115
 20
213.4264455959
 30
0.0
 11
47.4386842793
 21
213.4264456108
 31
0.0
  0
LINE
  5
3A8
330
1F
100
AcDbEntity
  8
0
  6
Continuous
 62
     7
370
     0
100
AcDbLine
 10
61.1386842115
 20
190.1764455959
 30
0.0
 11
60.6386846734
 21
190.1764450594
 31
0.0
  0
LINE
  5
3A9
330
1F
100
AcDbEntity
  8
0
  6
Continuous
 62
     7
370
     0
100
AcDbLine
 10
60.6386846734
 20
183.1764457747
 30
0.0
 11
61.1386842115
 21
183.1764455959
 31
0.0
  0
LINE
  5
3AA
330
1F
100
AcDbEntity
  8
0
  6
Continuous
 62
     7
370
     0
100
AcDbLine
 10
61.8386842115
 20
189.6264455959
 30
0.0
 11
61.1386838241
 21
189.6264450624
 31
0.0
  0
LINE
  5
3AB
330
1F
100
AcDbEntity
  8
0
  6
Continuous
 62
     7
370
     0
100
AcDbLine
 10
61.1386838241
 20
183.726443909
 30
0.0
 11
61.8386842115
 21
183.7264455959
 31
0.0
  0
LINE
  5
3AC
330
1F
100
AcDbEntity
  8
0
  6
Continuous
 62
     7
370
     0
100
AcDbLine
 10
61.8386844976
 20
183.9264472946
 30
0.0
 11
64.5386842115
 21
183.9264455959
 31
0.0
  0
LINE
  5
3AD
330
1F
100
AcDbEntity
  8
0
  6
Continuous
 62
     7
370
     0
100
AcDbLine
 10
64.5386842115
 20
189.4264455959
 30
0.0
 11
61.8386844976
 21
189.4264454021
 31
0.0
  0
LINE
  5
3AE
330
1F
100
AcDbEntity
  8
0
  6
Continuous
 62
     7
370
     0
100
AcDbLine
 10
64.5386842115
 20
183.9264455959
 30
0.0
 11
64.8386842115
 21
184.2264455959
 31
0.0
  0
LINE
  5
3AF
330
1F
100
AcDbEntity
  8
0
  6
Continuous
 62
     7
370
     0
100
AcDbLine
 10
64.8386842115
 20
189.1264455959
 30
0.0
 11
64.5386842115
 21
189.4264455959
 31
0.0
  0
LINE
  5
3B0
330
1F
100
AcDbEntity
  8
0
  6
Continuous
 62
     7
370
     0
100
AcDbLine
 10
63.1386842115
 20
231.6764455959
 30
0.0
 11
62.63868407
 21
231.6764453425
 31
0.0
  0
LINE
  5
3B1
330
1F
100
AcDbEntity
  8
0
  6
Continuous
 62
     7
370
     0
100
AcDbLine
 10
62.63868407
 20
224.6764460578
 30
0.0
 11
63.1386842115
 21
224.6764455959
 31
0.0
  0
LINE
  5
3B2
330
1F
100
AcDbEntity
  8
0
  6
Continuous
 62
     7
370
     0
100
AcDbLine
 10
63.8386842115
 20
231.1264455959
 30
0.0
 11
63.1386841519
 21
231.1264453455
 31
0.0
  0
LINE
  5
3B3
330
1F
100
AcDbEntity
  8
0
  6
Continuous
 62
     7
370
     0
100
AcDbLine
 10
63.1386841519
 20
225.2264460548
 30
0.0
 11
63.8386842115
 21
225.2264455959
 31
0.0
  0
LINE
  5
3B4
330
1F
100
AcDbEntity
  8
0
  6
Continuous
 62
     7
370
     0
100
AcDbLine
 10
63.8386838941
 20
225.4264457151
 30
0.0
 11
66.5386842115
 21
225.4264455959
 31
0.0
  0
LINE
  5
3B5
330
1F
100
AcDbEntity
  8
0
  6
Continuous
 62
     7
370
     0
100
AcDbLine
 10
66.5386842115
 20
230.9264455959
 30
0.0
 11
63.8386838941
 21
230.9264456853
 31
0.0
  0
LINE
  5
3B6
330
1F
100
AcDbEntity
  8
0
  6
Continuous
 62
     7
370
     0
100
AcDbLine
 10
66.5386842115
 20
225.4264455959
 30
0.0
 11
66.8386842115
 21
225.7264455959
 31
0.0
  0
LINE
  5
3B7
330
1F
100
AcDbEntity
  8
0
  6
Continuous
 62
     7
370
     0
100
AcDbLine
 10
66.8386842115
 20
230.6264455959
 30
0.0
 11
66.5386842115
 21
230.9264455959
 31
0.0
  0
LINE
  5
3B8
330
1F
100
AcDbEntity
  8
0
  6
Continuous
 62
     7
370
     0
100
AcDbLine
 10
62.1386842115
 20
205.7764455959
 30
0.0
 11
62.138683988
 21
205.2764454856
 31
0.0
  0
LINE
  5
3B9
330
1F
100
AcDbEntity
  8
0
  6
Continuous
 62
     7
370
     0
100
AcDbLine
 10
69.1386851354
 20
205.2764454856
 30
0.0
 11
69.1386842115
 21
205.7764455959
 31
0.0
  0
LINE
  5
3BA
330
1F
100
AcDbEntity
  8
0
  6
Continuous
 62
     7
370
     0
100
AcDbLine
 10
62.6886842115
 20
206.4764455959
 30
0.0
 11
62.688683985
 21
205.7764455675
 31
0.0
  0
LINE
  5
3BB
330
1F
100
AcDbEntity
  8
0
  6
Continuous
 62
     7
370
     0
100
AcDbLine
 10
68.5886851384
 20
205.7764455675
 30
0.0
 11
68.5886842115
 21
206.4764455959
 31
0.0
  0
LINE
  5
3BC
330
1F
100
AcDbEntity
  8
0
  6
Continuous
 62
     7
370
     0
100
AcDbLine
 10
68.3886842115
 20
209.1764455959
 30
0.0
 11
68.0886842115
 21
209.4764455959
 31
0.0
  0
LINE
  5
3BD
330
1F
100
AcDbEntity
  8
0
  6
Continuous
 62
     7
370
     0
100
AcDbLine
 10
63.1886842115
 20
209.4764455959
 30
0.0
 11
62.8886842115
 21
209.1764455959
 31
0.0
  0
LINE
  5
3BE
330
1F
100
AcDbEntity
  8
0
  6
Continuous
 62
     7
370
     0
100
AcDbLine
 10
68.3886836155
 20
206.4764453098
 30
0.0
 11
68.3886842115
 21
209.1764455959
 31
0.0
  0
LINE
  5
3BF
330
1F
100
AcDbEntity
  8
0
  6
Continuous
 62
     7
370
     0
100
AcDbLine
 10
62.8886842115
 20
209.1764455959
 30
0.0
 11
62.8886845766
 21
206.4764453098
 31
0.0
  0
LINE
  5
3C0
330
1F
100
AcDbEntity
  8
0
  6
Continuous
 62
     7
370
     0
100
AcDbLine
 10
49.1386842115
 20
235.1764455959
 30
0.0
 11
48.6386842115
 21
234.6764455959
 31
0.0
  0
LINE
  5
3C1
330
1F
100
AcDbEntity
  8
0
  6
Continuous
 62
     7
370
     0
100
AcDbLine
 10
48.6386842115
 20
197.6764455959
 30
0.0
 11
49.1386842115
 21
197.1764455959
 31
0.0
  0
LINE
  5
3C2
330
1F
100
AcDbEntity
  8
0
  6
Continuous
 62
     7
370
     0
100
AcDbLine
 10
52.1386842115
 20
235.1764449849
 30
0.0
 11
49.1386842115
 21
235.1764455959
 31
0.0
  0
LINE
  5
3C3
330
1F
100
AcDbEntity
  8
0
  6
Continuous
 62
     7
370
     0
100
AcDbLine
 10
49.1386842115
 20
197.1764455959
 30
0.0
 11
52.1386842115
 21
197.1764462068
 31
0.0
  0
ARC
  5
3C4
330
1F
100
AcDbEntity
  8
0
  6
Continuous
 62
     7
370
     0
100
AcDbCircle
 10
61.4210192371
 20
179.7303128018
 30
0.0
 40
20.72886538122834
100
AcDbArc
 50
91.3346844356
 51
93.7402936844
  0
ARC
  5
3C5
330
1F
100
AcDbEntity
  8
0
  6
Continuous
 62
     7
370
     0
100
AcDbCircle
 10
60.3886876491
 20
199.4764436997
 30
0.0
 40
1.000003646186823
100
AcDbArc
 50
111.2218591718
 51
180.0
  0
ARC
  5
3C6
330
1F
100
AcDbEntity
  8
0
  6
Continuous
 62
     7
370
     0
100
AcDbCircle
 10
61.8886803176
 20
199.4764432803
 30
0.0
 40
1.000004259008116
100
AcDbArc
 50
0.0
 51
68.7781167965
  0
ARC
  5
3C7
330
1F
100
AcDbEntity
  8
0
  6
Continuous
 62
     7
370
     0
100
AcDbCircle
 10
60.8563206084
 20
179.7296644214
 30
0.0
 40
20.72951425504757
100
AcDbArc
 50
86.2597439713
 51
88.6652779088
  0
ARC
  5
3C8
330
1F
100
AcDbEntity
  8
0
  6
Continuous
 62
     7
370
     0
100
AcDbCircle
 10
70.4209910504
 20
179.7309611062
 30
0.0
 40
20.7282165835406
100
AcDbArc
 50
91.334646782
 51
93.740331338
  0
ARC
  5
3C9
330
1F
100
AcDbEntity
  8
0
  6
Continuous
 62
     7
370
     0
100
AcDbCircle
 10
69.388687978
 20
199.4764428478
 30
0.0
 40
1.000004362499428
100
AcDbArc
 50
111.2218300194
 51
180.0
  0
ARC
  5
3CA
330
1F
100
AcDbEntity
  8
0
  6
Continuous
 62
     7
370
     0
100
AcDbCircle
 10
70.888680758
 20
199.4764428478
 30
0.0
 40
1.000004362499416
100
AcDbArc
 50
0.0
 51
68.7781699806
  0
ARC
  5
3CB
330
1F
100
AcDbEntity
  8
0
  6
Continuous
 62
     7
370
     0
100
AcDbCircle
 10
69.856320221
 20
179.7296644214
 30
0.0
 40
20.72951425504789
100
AcDbArc
 50
86.2597439713
 51
88.6652779088
  0
LINE
  5
3CC
330
1F
100
AcDbEntity
  8
0
  6
Continuous
 62
     7
370
     0
100
AcDbLine
 10
59.3886842968
 20
199.4764455959
 30
0.0
 11
59.3886840029
 21
199.176444672
 31
0.0
  0
LINE
  5
3CD
330
1F
100
AcDbEntity
  8
0
  6
Continuous
 62
     7
370
     0
100
AcDbLine
 10
62.8886845766
 20
199.176444672
 30
0.0
 11
62.8886841262
 21
199.4764455959
 31
0.0
  0
LINE
  5
3CE
330
1F
100
AcDbEntity
  8
0
  6
Continuous
 62
     7
370
     0
100
AcDbLine
 10
68.3886842968
 20
199.4764455959
 30
0.0
 11
68.3886836155
 21
199.176444672
 31
0.0
  0
LINE
  5
3CF
330
1F
100
AcDbEntity
  8
0
  6
Continuous
 62
     7
370
     0
100
AcDbLine
 10
71.8886851205
 20
199.176444672
 30
0.0
 11
71.8886841262
 21
199.4764455959
 31
0.0
  0
LINE
  5
3D0
330
1F
100
AcDbEntity
  8
0
  6
Continuous
 62
     7
370
     0
100
AcDbLine
 10
48.1386842115
 20
214.8357740676
 30
0.0
 11
48.1386842115
 21
212.6764455959
 31
0.0
  0
LINE
  5
3D1
330
1F
100
AcDbEntity
  8
0
  6
Continuous
 62
     7
370
     0
100
AcDbLine
 10
48.1386842115
 20
219.6764455959
 30
0.0
 11
48.1386842115
 21
214.8357740676
 31
0.0
  0
LINE
  5
3D2
330
1F
100
AcDbEntity
  8
0
  6
Continuous
 62
     7
370
     0
100
AcDbLine
 10
47.4386842115
 20
215.0464510221
 30
0.0
 11
47.4386842115
 21
213.2264455959
 31
0.0
  0
LINE
  5
3D3
330
1F
100
AcDbEntity
  8
0
  6
Continuous
 62
     7
370
     0
100
AcDbLine
 10
47.4386842115
 20
219.1264455959
 30
0.0
 11
47.4386842115
 21
215.0464510221
 31
0.0
  0
LINE
  5
3D4
330
1F
100
AcDbEntity
  8
0
  6
Continuous
 62
     7
370
     0
100
AcDbLine
 10
44.4386842115
 20
213.7264455959
 30
0.0
 11
44.4386842115
 21
218.6264455959
 31
0.0
  0
LINE
  5
3D5
330
1F
100
AcDbEntity
  8
0
  6
Continuous
 62
     7
370
     0
100
AcDbLine
 10
44.7386842115
 20
218.9264455959
 30
0.0
 11
44.7386842115
 21
213.4264455959
 31
0.0
  0
LINE
  5
3D6
330
1F
100
AcDbEntity
  8
0
  6
Continuous
 62
     7
370
     0
100
AcDbLine
 10
61.1386842115
 20
190.1587312252
 30
0.0
 11
61.1386842115
 21
190.1764455959
 31
0.0
  0
LINE
  5
3D7
330
1F
100
AcDbEntity
  8
0
  6
Continuous
 62
     7
370
     0
100
AcDbLine
 10
61.1386842115
 20
183.1764455959
 30
0.0
 11
61.1386842115
 21
190.1587312252
 31
0.0
  0
LINE
  5
3D8
330
1F
100
AcDbEntity
  8
0
  6
Continuous
 62
     7
370
     0
100
AcDbLine
 10
61.8386842115
 20
189.611514912
 30
0.0
 11
61.8386842115
 21
189.6264455959
 31
0.0
  0
LINE
  5
3D9
330
1F
100
AcDbEntity
  8
0
  6
Continuous
 62
     7
370
     0
100
AcDbLine
 10
61.8386842115
 20
183.7264455959
 30
0.0
 11
61.8386842115
 21
189.611514912
 31
0.0
  0
LINE
  5
3DA
330
1F
100
AcDbEntity
  8
0
  6
Continuous
 62
     7
370
     0
100
AcDbLine
 10
64.5386842115
 20
183.9264455959
 30
0.0
 11
64.5386842115
 21
189.4264455959
 31
0.0
  0
LINE
  5
3DB
330
1F
100
AcDbEntity
  8
0
  6
Continuous
 62
     7
370
     0
100
AcDbLine
 10
64.8386842115
 20
189.1264455959
 30
0.0
 11
64.8386842115
 21
184.2264455959
 31
0.0
  0
LINE
  5
3DC
330
1F
100
AcDbEntity
  8
0
  6
Continuous
 62
     7
370
     0
100
AcDbLine
 10
63.1386842115
 20
224.6764455959
 30
0.0
 11
63.1386842115
 21
231.6764455959
 31
0.0
  0
LINE
  5
3DD
330
1F
100
AcDbEntity
  8
0
  6
Continuous
 62
     7
370
     0
100
AcDbLine
 10
63.8386842115
 20
225.2264455959
 30
0.0
 11
63.8386842115
 21
231.1264455959
 31
0.0
  0
LINE
  5
3DE
330
1F
100
AcDbEntity
  8
0
  6
Continuous
 62
     7
370
     0
100
AcDbLine
 10
66.5386842115
 20
226.1419876673
 30
0.0
 11
66.5386842115
 21
230.9264455959
 31
0.0
  0
LINE
  5
3DF
330
1F
100
AcDbEntity
  8
0
  6
Continuous
 62
     7
370
     0
100
AcDbLine
 10
66.5386842115
 20
225.4264455959
 30
0.0
 11
66.5386842115
 21
226.1419876673
 31
0.0
  0
LINE
  5
3E0
330
1F
100
AcDbEntity
  8
0
  6
Continuous
 62
     7
370
     0
100
AcDbLine
 10
66.8386842115
 20
226.3639285322
 30
0.0
 11
66.8386842115
 21
225.7264455959
 31
0.0
  0
LINE
  5
3E1
330
1F
100
AcDbEntity
  8
0
  6
Continuous
 62
     7
370
     0
100
AcDbLine
 10
66.8386842115
 20
230.6264455959
 30
0.0
 11
66.8386842115
 21
226.3639285322
 31
0.0
  0
LINE
  5
3E2
330
1F
100
AcDbEntity
  8
0
  6
Continuous
 62
     7
370
     0
100
AcDbLine
 10
69.1386842115
 20
205.7764455959
 30
0.0
 11
62.1386842115
 21
205.7764455959
 31
0.0
  0
LINE
  5
3E3
330
1F
100
AcDbEntity
  8
0
  6
Continuous
 62
     7
370
     0
100
AcDbLine
 10
68.5886842115
 20
206.4764455959
 30
0.0
 11
62.6886842115
 21
206.4764455959
 31
0.0
  0
LINE
  5
3E4
330
1F
100
AcDbEntity
  8
0
  6
Continuous
 62
     7
370
     0
100
AcDbLine
 10
65.6386842115
 20
209.4764455959
 30
0.0
 11
68.0886842115
 21
209.4764455959
 31
0.0
  0
LINE
  5
3E5
330
1F
100
AcDbEntity
  8
0
  6
Continuous
 62
     7
370
     0
100
AcDbLine
 10
63.1886842115
 20
209.4764455959
 30
0.0
 11
65.6386842115
 21
209.4764455959
 31
0.0
  0
LINE
  5
3E6
330
1F
100
AcDbEntity
  8
0
  6
Continuous
 62
     7
370
     0
100
AcDbLine
 10
65.6386842115
 20
209.1764455959
 30
0.0
 11
62.8886842115
 21
209.1764455959
 31
0.0
  0
LINE
  5
3E7
330
1F
100
AcDbEntity
  8
0
  6
Continuous
 62
     7
370
     0
100
AcDbLine
 10
68.3886842115
 20
209.1764455959
 30
0.0
 11
65.6386842115
 21
209.1764455959
 31
0.0
  0
LINE
  5
3E8
330
1F
100
AcDbEntity
  8
0
  6
Continuous
 62
     7
370
     0
100
AcDbLine
 10
48.6386842115
 20
234.6764455959
 30
0.0
 11
48.6386842115
 21
197.6764455959
 31
0.0
  0
LINE
  5
3E9
330
1F
100
AcDbEntity
  8
0
  6
Continuous
 62
     7
370
     0
100
AcDbLine
 10
49.1386842115
 20
235.1764455959
 30
0.0
 11
49.1386842115
 21
197.1764455959
 31
0.0
  0
LINE
  5
3EA
330
1F
100
AcDbEntity
  8
0
  6
Continuous
 62
     7
370
     0
100
AcDbLine
 10
58.6386843456
 20
233.1764465197
 30
0.0
 11
62.63868407
 21
233.1764465197
 31
0.0
  0
LINE
  5
3EB
330
1F
100
AcDbEntity
  8
0
  6
Continuous
 62
     7
370
     0
100
AcDbLine
 10
62.63868407
 20
233.1764465197
 30
0.0
 11
62.63868407
 21
223.1764458119
 31
0.0
  0
LINE
  5
3EC
330
1F
100
AcDbEntity
  8
0
  6
Continuous
 62
     7
370
     0
100
AcDbLine
 10
62.63868407
 20
223.1764458119
 30
0.0
 11
58.6386843456
 21
223.1764458119
 31
0.0
  0
LINE
  5
3ED
330
1F
100
AcDbEntity
  8
0
  6
Continuous
 62
     7
370
     0
100
AcDbLine
 10
62.63868407
 20
223.1764458119
 30
0.0
 11
62.63868407
 21
222.176445648
 31
0.0
  0
LINE
  5
3EE
330
1F
100
AcDbEntity
  8
0
  6
Continuous
 62
     7
370
     0
100
AcDbLine
 10
59.6386840439
 20
222.176445648
 30
0.0
 11
62.63868407
 21
222.176445648
 31
0.0
  0
LINE
  5
3EF
330
1F
100
AcDbEntity
  8
0
  6
Continuous
 62
     7
370
     0
100
AcDbLine
 10
59.6386840439
 20
222.176445648
 30
0.0
 11
58.6386843456
 21
223.1764458119
 31
0.0
  0
LINE
  5
3F0
330
1F
100
AcDbEntity
  8
0
  6
Continuous
 62
     7
370
     0
100
AcDbLine
 10
62.63868407
 20
234.176444821
 30
0.0
 11
58.6386843456
 21
234.176444821
 31
0.0
  0
LINE
  5
3F1
330
1F
100
AcDbEntity
  8
0
  6
Continuous
 62
     7
370
     0
100
AcDbLine
 10
62.63868407
 20
234.176444821
 30
0.0
 11
62.63868407
 21
233.1764465197
 31
0.0
  0
LINE
  5
3F2
330
1F
100
AcDbEntity
  8
0
  6
Continuous
 62
     7
370
     0
100
AcDbLine
 10
60.7386845036
 20
210.6764456257
 30
0.0
 11
59.1386844276
 21
210.6764456257
 31
0.0
  0
LINE
  5
3F3
330
1F
100
AcDbEntity
  8
0
  6
Continuous
 62
     7
370
     0
100
AcDbLine
 10
60.7386845036
 20
210.6764456257
 30
0.0
 11
60.7386845036
 21
205.2764454856
 31
0.0
  0
LINE
  5
3F4
330
1F
100
AcDbEntity
  8
0
  6
Continuous
 62
     7
370
     0
100
AcDbLine
 10
60.7386845036
 20
205.2764454856
 30
0.0
 11
65.1386844797
 21
205.2764454856
 31
0.0
  0
LINE
  5
3F5
330
1F
100
AcDbEntity
  8
0
  6
Continuous
 62
     7
370
     0
100
AcDbLine
 10
65.1386844797
 20
203.6764454096
 30
0.0
 11
65.1386844797
 21
205.2764454856
 31
0.0
  0
LINE
  5
3F6
330
1F
100
AcDbEntity
  8
0
  6
Continuous
 62
     7
370
     0
100
AcDbLine
 10
60.7386842115
 20
203.6764455959
 30
0.0
 11
65.1386844797
 21
203.6764454096
 31
0.0
  0
ARC
  5
3F7
330
1F
100
AcDbEntity
  8
0
  6
Continuous
 62
     7
370
     0
100
AcDbCircle
 10
60.7386842115
 20
205.2764455959
 30
0.0
 40
1.600000000000001
100
AcDbArc
 50
180.0
 51
270.0
  0
LINE
  5
3F8
330
1F
100
AcDbEntity
  8
0
  6
Continuous
 62
     7
370
     0
100
AcDbLine
 10
59.1386844276
 20
210.6764456257
 30
0.0
 11
59.1386842115
 21
205.2764455957
 31
0.0
  0
LINE
  5
3F9
330
1F
100
AcDbEntity
  8
0
  6
Continuous
 62
     7
370
     0
100
AcDbLine
 10
70.1386834367
 20
205.2764454856
 30
0.0
 11
70.1386834367
 21
203.6764454096
 31
0.0
  0
LINE
  5
3FA
330
1F
100
AcDbEntity
  8
0
  6
Continuous
 62
     7
370
     0
100
AcDbLine
 10
65.1386844797
 20
205.2764454856
 30
0.0
 11
70.1386834367
 21
205.2764454856
 31
0.0
  0
LINE
  5
3FB
330
1F
100
AcDbEntity
  8
0
  6
Continuous
 62
     7
370
     0
100
AcDbLine
 10
70.1386834367
 20
203.6764454096
 30
0.0
 11
65.1386844797
 21
203.6764454096
 31
0.0
  0
LINE
  5
3FC
330
1F
100
AcDbEntity
  8
0
  6
Continuous
 62
     7
370
     0
100
AcDbLine
 10
60.6386842115
 20
192.6764455959
 30
0.0
 11
58.6386843456
 21
192.6764464005
 31
0.0
  0
LINE
  5
3FD
330
1F
100
AcDbEntity
  8
0
  6
Continuous
 62
     7
370
     0
100
AcDbLine
 10
60.6386842115
 20
190.6764455954
 30
0.0
 11
60.6386842115
 21
192.6764455959
 31
0.0
  0
LINE
  5
3FE
330
1F
100
AcDbEntity
  8
0
  6
Continuous
 62
     7
370
     0
100
AcDbLine
 10
60.6386842115
 20
190.6764455954
 30
0.0
 11
58.6386843456
 21
190.6764460727
 31
0.0
  0
LINE
  5
3FF
330
1F
100
AcDbEntity
  8
0
  6
Continuous
 62
     7
370
     0
100
AcDbLine
 10
60.6386842115
 20
182.6764455959
 30
0.0
 11
58.6386843456
 21
182.6764447614
 31
0.0
  0
LINE
  5
400
330
1F
100
AcDbEntity
  8
0
  6
Continuous
 62
     7
370
     0
100
AcDbLine
 10
60.6386842115
 20
182.6764455959
 30
0.0
 11
60.6386842115
 21
190.6764455954
 31
0.0
  0
LINE
  5
401
330
1F
100
AcDbEntity
  8
0
  6
Continuous
 62
     7
370
     0
100
AcDbLine
 10
60.6386842115
 20
180.6764455959
 30
0.0
 11
58.6386843456
 21
180.6764444336
 31
0.0
  0
LINE
  5
402
330
1F
100
AcDbEntity
  8
0
  6
Continuous
 62
     7
370
     0
100
AcDbLine
 10
60.6386842115
 20
180.6764455959
 30
0.0
 11
60.6386842115
 21
182.6764455959
 31
0.0
  0
LINE
  5
403
330
1F
100
AcDbEntity
  8
0
  6
Continuous
 62
     7
370
     0
100
AcDbLine
 10
63.3886846585
 20
175.5764437839
 30
0.0
 11
63.3886846585
 21
176.4754829928
 31
0.0
  0
LINE
  5
404
330
1F
100
AcDbEntity
  8
0
  6
Continuous
 62
     7
370
     0
100
AcDbLine
 10
65.6386845617
 20
177.7745215222
 30
0.0
 11
67.8886844648
 21
176.4754829928
 31
0.0
  0
LINE
  5
405
330
1F
100
AcDbEntity
  8
0
  6
Continuous
 62
     7
370
     0
100
AcDbLine
 10
67.8886844648
 20
175.5764437839
 30
0.0
 11
67.8886844648
 21
176.4754829928
 31
0.0
  0
LINE
  5
406
330
1F
100
AcDbEntity
  8
0
  6
Continuous
 62
     7
370
     0
100
AcDbLine
 10
63.3886846585
 20
175.5764437839
 30
0.0
 11
67.8886844648
 21
175.5764437839
 31
0.0
  0
LINE
  5
407
330
1F
100
AcDbEntity
  8
0
  6
Continuous
 62
     7
370
     0
100
AcDbLine
 10
63.3886846585
 20
176.4754829928
 30
0.0
 11
65.6386845617
 21
177.7745215222
 31
0.0
  0
LINE
  5
408
330
1F
100
AcDbEntity
  8
0
  6
Continuous
 62
     7
370
     0
100
AcDbLine
 10
67.8886844648
 20
173.877405934
 30
0.0
 11
67.8886844648
 21
174.7764451429
 31
0.0
  0
LINE
  5
409
330
1F
100
AcDbEntity
  8
0
  6
Continuous
 62
     7
370
     0
100
AcDbLine
 10
67.8886844648
 20
173.877405934
 30
0.0
 11
65.6386845617
 21
172.5783711299
 31
0.0
  0
LINE
  5
40A
330
1F
100
AcDbEntity
  8
0
  6
Continuous
 62
     7
370
     0
100
AcDbLine
 10
65.6386845617
 20
172.5783711299
 30
0.0
 11
63.3886846585
 21
173.877405934
 31
0.0
  0
LINE
  5
40B
330
1F
100
AcDbEntity
  8
0
  6
Continuous
 62
     7
370
     0
100
AcDbLine
 10
67.8886844648
 20
174.7764451429
 30
0.0
 11
63.3886846585
 21
174.7764451429
 31
0.0
  0
LINE
  5
40C
330
1F
100
AcDbEntity
  8
0
  6
Continuous
 62
     7
370
     0
100
AcDbLine
 10
63.3886846585
 20
174.7764451429
 30
0.0
 11
63.3886846585
 21
173.877405934
 31
0.0
  0
LINE
  5
40D
330
1F
100
AcDbEntity
  8
0
  6
Continuous
 62
     7
370
     0
100
AcDbLine
 10
67.8886844648
 20
174.7764451429
 30
0.0
 11
67.8886844648
 21
175.5764437839
 31
0.0
  0
LINE
  5
40E
330
1F
100
AcDbEntity
  8
0
  6
Continuous
 62
     7
370
     0
100
AcDbLine
 10
63.3886846585
 20
175.5764437839
 30
0.0
 11
63.3886846585
 21
174.7764451429
 31
0.0
  0
CIRCLE
  5
40F
330
1F
100
AcDbEntity
  8
0
  6
Continuous
 62
     7
370
     0
100
AcDbCircle
 10
65.6386842115
 20
175.1764455959
 30
0.0
 40
3.0
  0
ARC
  5
410
330
1F
100
AcDbEntity
  8
0
  6
Continuous
 62
     7
370
     0
100
AcDbCircle
 10
65.6386842115
 20
175.1764455959
 30
0.0
 40
4.000000000000004
100
AcDbArc
 50
133.4491829374
 51
46.5508170624
  0
LINE
  5
411
330
1F
100
AcDbEntity
  8
0
  6
Continuous
 62
     7
370
     0
100
AcDbLine
 10
65.4294145165
 20
178.1691377982
 30
0.0
 11
62.8878404022
 21
178.0803840141
 31
0.0
  0
LINE
  5
412
330
1F
100
AcDbEntity
  8
0
  6
Continuous
 62
     7
370
     0
100
AcDbLine
 10
68.3895280208
 20
178.080384013
 30
0.0
 11
65.8479536755
 21
178.1691377982
 31
0.0
  0
LWPOLYLINE
  5
413
330
1F
100
AcDbEntity
  8
0
  6
Continuous
 62
     7
370
     0
100
AcDbPolyline
 90
        7
 70
   128
 43
0.0
 10
63.0774357228
 20
171.4764451607
 10
63.1821890233
 20
171.6277739032
 10
63.2331621705
 20
171.7014079913
 10
63.2786656602
 20
171.7671444639
 10
63.3156298531
 20
171.820542775
 10
63.3420375048
 20
171.8586897477
 10
63.3620180993
 20
171.8875570222
  0
LWPOLYLINE
  5
414
330
1F
100
AcDbEntity
  8
0
  6
Continuous
 62
     7
370
     0
100
AcDbPolyline
 90
        7
 70
   128
 43
0.0
 10
68.1999343319
 20
171.4764451607
 10
68.0951791687
 20
171.6277739032
 10
68.0442060216
 20
171.7014117166
 10
67.9987016006
 20
171.7671481892
 10
67.9617355449
 20
171.8205465003
 10
67.9353288247
 20
171.8586971983
 10
67.9153463675
 20
171.8875644728
  0
ARC
  5
415
330
1F
100
AcDbEntity
  8
0
  6
Continuous
 62
     7
370
     0
100
AcDbCircle
 10
65.7273767761
 20
181.5025231278
 30
0.0
 40
10.32646020030725
100
AcDbArc
 50
269.5078953892
 51
283.853433504
  0
LINE
  5
416
330
1F
100
AcDbEntity
  8
0
  6
Continuous
 62
     7
370
     0
100
AcDbLine
 10
69.6386842115
 20
175.1764455963
 30
0.0
 11
70.1386842115
 21
175.1764455959
 31
0.0
  0
ARC
  5
417
330
1F
100
AcDbEntity
  8
0
  6
Continuous
 62
     7
370
     0
100
AcDbCircle
 10
65.6386836818
 20
175.1764442014
 30
0.0
 40
4.499999754866433
100
AcDbArc
 50
304.6921475368
 51
0.0
  0
ARC
  5
418
330
1F
100
AcDbEntity
  8
0
  6
Continuous
 62
     7
370
     0
100
AcDbCircle
 10
65.6385656999
 20
175.1764287199
 30
0.0
 40
4.499918873507599
100
AcDbArc
 50
140.21978189
 51
235.3089938494
  0
LWPOLYLINE
  5
419
330
1F
100
AcDbEntity
  8
0
  6
Continuous
 62
     7
370
     0
100
AcDbPolyline
 90
        6
 70
   128
 43
0.0
 10
62.8878407983
 20
178.0803827568
 10
62.8629968373
 20
178.0795147642
 10
62.7973730548
 20
178.0772237107
 10
62.651806405
 20
178.0721424147
 10
62.4008680566
 20
178.0633768066
 10
62.1803578792
 20
178.0556766316
  0
ARC
  5
41A
330
1F
100
AcDbEntity
  8
0
  6
Continuous
 62
     7
370
     0
100
AcDbCircle
 10
65.6386985887
 20
175.1764504073
 30
0.0
 40
4.499984847956628
100
AcDbArc
 50
360.0
 51
39.779159422
  0
LWPOLYLINE
  5
41B
330
1F
100
AcDbEntity
  8
0
  6
Continuous
 62
     7
370
     0
100
AcDbPolyline
 90
        6
 70
   128
 43
0.0
 10
68.3895273937
 20
178.0803827568
 10
68.4143713547
 20
178.0795147642
 10
68.4799960686
 20
178.0772237107
 10
68.625561787
 20
178.0721424147
 10
68.8765010668
 20
178.0633768066
 10
69.0970103128
 20
178.0556766316
  0
LINE
  5
41C
330
1F
100
AcDbEntity
  8
0
  6
Continuous
 62
     7
370
     0
100
AcDbLine
 10
59.6386842115
 20
171.4764455959
 30
0.0
 11
63.0774347915
 21
171.4764451607
 31
0.0
  0
LINE
  5
41D
330
1F
100
AcDbEntity
  8
0
  6
Continuous
 62
     7
370
     0
100
AcDbLine
 10
59.6386840439
 20
180.6764444336
 30
0.0
 11
59.6386842115
 21
171.4764455959
 31
0.0
  0
LINE
  5
41E
330
1F
100
AcDbEntity
  8
0
  6
Continuous
 62
     7
370
     0
100
AcDbLine
 10
59.6386842115
 20
199.1764455959
 30
0.0
 11
59.6386840439
 21
192.6764464005
 31
0.0
  0
LINE
  5
41F
330
1F
100
AcDbEntity
  8
0
  6
Continuous
 62
     7
370
     0
100
AcDbLine
 10
59.6386842115
 20
199.1764455959
 30
0.0
 11
71.6386842115
 21
199.1764455959
 31
0.0
  0
LINE
  5
420
330
1F
100
AcDbEntity
  8
0
  6
Continuous
 62
     7
370
     0
100
AcDbLine
 10
71.6386842115
 20
171.4764455959
 30
0.0
 11
71.6386842115
 21
199.1764455959
 31
0.0
  0
LINE
  5
421
330
1F
100
AcDbEntity
  8
0
  6
Continuous
 62
     7
370
     0
100
AcDbLine
 10
68.1999343319
 20
171.4764451607
 30
0.0
 11
71.6386842115
 21
171.4764455959
 31
0.0
  0
LINE
  5
422
330
1F
100
AcDbEntity
  8
0
  6
Continuous
 62
     7
370
     0
100
AcDbLine
 10
71.6386842115
 20
171.4764455959
 30
0.0
 11
71.6386842115
 21
171.1764455959
 31
0.0
  0
LINE
  5
423
330
1F
100
AcDbEntity
  8
0
  6
Continuous
 62
     7
370
     0
100
AcDbLine
 10
71.6386842115
 20
171.1764455959
 30
0.0
 11
65.6386845617
 21
171.1764438077
 31
0.0
  0
LINE
  5
424
330
1F
100
AcDbEntity
  8
0
  6
Continuous
 62
     7
370
     0
100
AcDbLine
 10
59.6386842115
 20
171.1764455959
 30
0.0
 11
59.6386842115
 21
171.4764455959
 31
0.0
  0
LINE
  5
425
330
1F
100
AcDbEntity
  8
0
  6
Continuous
 62
     7
370
     0
100
AcDbLine
 10
65.6386845617
 20
171.1764438077
 30
0.0
 11
59.6386842115
 21
171.1764455959
 31
0.0
  0
ARC
  5
426
330
1F
100
AcDbEntity
  8
0
  6
Continuous
 62
     7
370
     0
100
AcDbCircle
 10
58.9386842115
 20
171.4764455959
 30
0.0
 40
0.2999999999999972
100
AcDbArc
 50
180.0
 51
270.000000022
  0
LINE
  5
427
330
1F
100
AcDbEntity
  8
0
  6
Continuous
 62
     7
370
     0
100
AcDbLine
 10
59.6386842115
 20
171.4764455959
 30
0.0
 11
58.6386842115
 21
171.4764455958
 31
0.0
  0
LINE
  5
428
330
1F
100
AcDbEntity
  8
0
  6
Continuous
 62
     7
370
     0
100
AcDbLine
 10
58.9878334536
 20
171.1764438077
 30
0.0
 11
59.6386842115
 21
171.1764455959
 31
0.0
  0
LINE
  5
429
330
1F
100
AcDbEntity
  8
0
  6
Continuous
 62
     7
370
     0
100
AcDbLine
 10
72.6386842115
 20
171.4764455959
 30
0.0
 11
71.6386842115
 21
171.4764455959
 31
0.0
  0
ARC
  5
42A
330
1F
100
AcDbEntity
  8
0
  6
Continuous
 62
     7
370
     0
100
AcDbCircle
 10
72.3386842115
 20
171.4764455959
 30
0.0
 40
0.2999999999999972
100
AcDbArc
 50
269.999999978
 51
0.0
  0
LINE
  5
42B
330
1F
100
AcDbEntity
  8
0
  6
Continuous
 62
     7
370
     0
100
AcDbLine
 10
71.6386842115
 20
171.1764455959
 30
0.0
 11
72.2895356698
 21
171.1764438077
 31
0.0
  0
LINE
  5
42C
330
1F
100
AcDbEntity
  8
0
  6
Continuous
 62
     7
370
     0
100
AcDbLine
 10
71.6386842115
 20
199.1764455959
 30
0.0
 11
72.6386842115
 21
199.1764455959
 31
0.0
  0
LINE
  5
42D
330
1F
100
AcDbEntity
  8
0
  6
Continuous
 62
     7
370
     0
100
AcDbLine
 10
72.6386842115
 20
199.1764455959
 30
0.0
 11
72.6386842115
 21
171.4764455959
 31
0.0
  0
LINE
  5
42E
330
1F
100
AcDbEntity
  8
0
  6
Continuous
 62
     7
370
     0
100
AcDbLine
 10
58.6386842115
 20
199.1764455959
 30
0.0
 11
59.6386842115
 21
199.1764455959
 31
0.0
  0
LINE
  5
42F
330
1F
100
AcDbEntity
  8
0
  6
Continuous
 62
     7
370
     0
100
AcDbLine
 10
60.0301407184
 20
200.4028863068
 30
0.0
 11
60.0122435003
 21
200.4028863067
 31
0.0
  0
LINE
  5
430
330
1F
100
AcDbEntity
  8
0
  6
Continuous
 62
     7
370
     0
100
AcDbLine
 10
60.4158424644
 20
200.4764461889
 30
0.0
 11
60.0301407184
 21
200.4028863068
 31
0.0
  0
LINE
  5
431
330
1F
100
AcDbEntity
  8
0
  6
Continuous
 62
     7
370
     0
100
AcDbLine
 10
60.9386841638
 20
200.4764461889
 30
0.0
 11
60.4158424644
 21
200.4764461889
 31
0.0
  0
LINE
  5
432
330
1F
100
AcDbEntity
  8
0
  6
Continuous
 62
     7
370
     0
100
AcDbLine
 10
60.9386842115
 20
200.4028863068
 30
0.0
 11
60.9386841638
 21
200.4369525238
 31
0.0
  0
LINE
  5
433
330
1F
100
AcDbEntity
  8
0
  6
Continuous
 62
     7
370
     0
100
AcDbLine
 10
61.1386842115
 20
200.4028863066
 30
0.0
 11
60.9386842115
 21
200.4028863068
 31
0.0
  0
SPLINE
  5
434
330
1F
100
AcDbEntity
  8
0
  6
Continuous
 62
     7
370
     0
100
AcDbSpline
210
0.0
220
0.0
230
1.0
 70
    28
 71
     3
 72
    11
 73
     7
 74
     0
 42
0.00000001
 43
0.00000001
 40
0.0
 40
0.0
 40
0.0
 40
0.0
 40
0.2624318629786249
 40
0.5460423542879592
 40
0.7749564126760455
 40
1.0
 40
1.0
 40
1.0
 40
1.0
 10
61.13868382408204
 20
199.4764460250082
 30
0.0
 41
1.0
 10
61.13868382408204
 20
199.5801754334807
 30
0.0
 41
1.0
 10
61.13868382408203
 20
199.7960053626987
 30
0.0
 41
1.0
 10
61.13868382408203
 20
200.0706502416741
 30
0.0
 41
1.0
 10
61.13868382408204
 20
200.282743512585
 30
0.0
 41
1.0
 10
61.13868382408204
 20
200.363067190207
 30
0.0
 41
1.0
 10
61.13868382408203
 20
200.4028866066875
 30
0.0
 41
1.0
  0
LINE
  5
435
330
1F
100
AcDbEntity
  8
0
  6
Continuous
 62
     7
370
     0
100
AcDbLine
 10
61.3386844157
 20
200.4369525238
 30
0.0
 11
61.3386842115
 21
200.4028863068
 31
0.0
  0
LINE
  5
436
330
1F
100
AcDbEntity
  8
0
  6
Continuous
 62
     7
370
     0
100
AcDbLine
 10
61.8615261151
 20
200.4764461889
 30
0.0
 11
61.3386844157
 21
200.4764461889
 31
0.0
  0
LINE
  5
437
330
1F
100
AcDbEntity
  8
0
  6
Continuous
 62
     7
370
     0
100
AcDbLine
 10
62.2472277046
 20
200.4028863068
 30
0.0
 11
61.8615261151
 21
200.4764461889
 31
0.0
  0
LINE
  5
438
330
1F
100
AcDbEntity
  8
0
  6
Continuous
 62
     7
370
     0
100
AcDbLine
 10
62.2651249228
 20
200.4028863067
 30
0.0
 11
62.2472277046
 21
200.4028863068
 31
0.0
  0
LINE
  5
439
330
1F
100
AcDbEntity
  8
0
  6
Continuous
 62
     7
370
     0
100
AcDbLine
 10
61.3386842115
 20
200.4028863068
 30
0.0
 11
61.1386842115
 21
200.4028863066
 31
0.0
  0
LINE
  5
43A
330
1F
100
AcDbEntity
  8
0
  6
Continuous
 62
     7
370
     0
100
AcDbLine
 10
69.0301407184
 20
200.4028863068
 30
0.0
 11
69.0122435003
 21
200.4028863067
 31
0.0
  0
LINE
  5
43B
330
1F
100
AcDbEntity
  8
0
  6
Continuous
 62
     7
370
     0
100
AcDbLine
 10
69.4158430083
 20
200.4764461889
 30
0.0
 11
69.0301407184
 21
200.4028863068
 31
0.0
  0
LINE
  5
43C
330
1F
100
AcDbEntity
  8
0
  6
Continuous
 62
     7
370
     0
100
AcDbLine
 10
69.9386837764
 20
200.4764461889
 30
0.0
 11
69.4158430083
 21
200.4764461889
 31
0.0
  0
LINE
  5
43D
330
1F
100
AcDbEntity
  8
0
  6
Continuous
 62
     7
370
     0
100
AcDbLine
 10
69.9386842115
 20
200.4028863068
 30
0.0
 11
69.9386837764
 21
200.4369525238
 31
0.0
  0
LINE
  5
43E
330
1F
100
AcDbEntity
  8
0
  6
Continuous
 62
     7
370
     0
100
AcDbLine
 10
70.1386842115
 20
200.4028863066
 30
0.0
 11
69.9386842115
 21
200.4028863068
 31
0.0
  0
SPLINE
  5
43F
330
1F
100
AcDbEntity
  8
0
  6
Continuous
 62
     7
370
     0
100
AcDbSpline
210
0.0
220
0.0
230
1.0
 70
    28
 71
     3
 72
    11
 73
     7
 74
     0
 42
0.00000001
 43
0.00000001
 40
0.0
 40
0.0
 40
0.0
 40
0.0
 40
0.2624318629786249
 40
0.5460423542879592
 40
0.7749564126760455
 40
1.0
 40
1.0
 40
1.0
 40
1.0
 10
70.13868343665185
 20
199.4764460250081
 30
0.0
 41
1.0
 10
70.13868343665185
 20
199.5801754334807
 30
0.0
 41
1.0
 10
70.13868343665183
 20
199.7960053626987
 30
0.0
 41
1.0
 10
70.13868343665183
 20
200.0706502416741
 30
0.0
 41
1.0
 10
70.13868343665185
 20
200.2827435125849
 30
0.0
 41
1.0
 10
70.13868343665185
 20
200.363067190207
 30
0.0
 41
1.0
 10
70.13868343665183
 20
200.4028866066875
 30
0.0
 41
1.0
  0
LINE
  5
440
330
1F
100
AcDbEntity
  8
0
  6
Continuous
 62
     7
370
     0
100
AcDbLine
 10
70.3386849596
 20
200.4369525238
 30
0.0
 11
70.3386842115
 21
200.4028863068
 31
0.0
  0
LINE
  5
441
330
1F
100
AcDbEntity
  8
0
  6
Continuous
 62
     7
370
     0
100
AcDbLine
 10
70.8615257276
 20
200.4764461889
 30
0.0
 11
70.3386849596
 21
200.4764461889
 31
0.0
  0
LINE
  5
442
330
1F
100
AcDbEntity
  8
0
  6
Continuous
 62
     7
370
     0
100
AcDbLine
 10
71.2472277046
 20
200.4028863068
 30
0.0
 11
70.8615257276
 21
200.4764461889
 31
0.0
  0
LINE
  5
443
330
1F
100
AcDbEntity
  8
0
  6
Continuous
 62
     7
370
     0
100
AcDbLine
 10
71.2651249228
 20
200.4028863067
 30
0.0
 11
71.2472277046
 21
200.4028863068
 31
0.0
  0
LINE
  5
444
330
1F
100
AcDbEntity
  8
0
  6
Continuous
 62
     7
370
     0
100
AcDbLine
 10
70.3386842115
 20
200.4028863068
 30
0.0
 11
70.1386842115
 21
200.4028863066
 31
0.0
  0
LINE
  5
445
330
1F
100
AcDbEntity
  8
0
  6
Continuous
 62
     7
370
     0
100
AcDbLine
 10
62.751932895
 20
203.6764454096
 30
0.0
 11
62.751932895
 21
199.9655151739
 31
0.0
  0
LINE
  5
446
330
1F
100
AcDbEntity
  8
0
  6
Continuous
 62
     7
370
     0
100
AcDbLine
 10
64.1953087284
 20
203.6764454096
 30
0.0
 11
64.1953087284
 21
199.176444672
 31
0.0
  0
LINE
  5
447
330
1F
100
AcDbEntity
  8
0
  6
Continuous
 62
     7
370
     0
100
AcDbLine
 10
67.0820594637
 20
203.6764454096
 30
0.0
 11
67.0820594637
 21
199.176444672
 31
0.0
  0
LINE
  5
448
330
1F
100
AcDbEntity
  8
0
  6
Continuous
 62
     7
370
     0
100
AcDbLine
 10
68.525435297
 20
203.6764454096
 30
0.0
 11
68.525435297
 21
199.9655151739
 31
0.0
  0
LINE
  5
449
330
1F
100
AcDbEntity
  8
0
  6
Continuous
 62
     7
370
     0
100
AcDbLine
 10
61.8615261151
 20
200.4764461889
 30
0.0
 11
61.3386844157
 21
200.4764461889
 31
0.0
  0
LINE
  5
44A
330
1F
100
AcDbEntity
  8
0
  6
Continuous
 62
     7
370
     0
100
AcDbLine
 10
70.8615257276
 20
200.4764461889
 30
0.0
 11
70.3386849596
 21
200.4764461889
 31
0.0
  0
LINE
  5
44B
330
1F
100
AcDbEntity
  8
0
  6
Continuous
 62
     7
370
     0
100
AcDbLine
 10
52.1386842115
 20
235.1764449849
 30
0.0
 11
58.6386843456
 21
235.1764449849
 31
0.0
  0
LINE
  5
44C
330
1F
100
AcDbEntity
  8
0
  6
Continuous
 62
     7
370
     0
100
AcDbLine
 10
58.6386843456
 20
235.1764449849
 30
0.0
 11
58.6386843456
 21
233.1764465197
 31
0.0
  0
LINE
  5
44D
330
1F
100
AcDbEntity
  8
0
  6
Continuous
 62
     7
370
     0
100
AcDbLine
 10
52.1386842115
 20
233.1764465197
 30
0.0
 11
58.6386843456
 21
233.1764465197
 31
0.0
  0
LINE
  5
44E
330
1F
100
AcDbEntity
  8
0
  6
Continuous
 62
     7
370
     0
100
AcDbLine
 10
52.1386842115
 20
235.1764449849
 30
0.0
 11
52.1386842115
 21
233.1764465197
 31
0.0
  0
LINE
  5
44F
330
1F
100
AcDbEntity
  8
0
  6
Continuous
 62
     7
370
     0
100
AcDbLine
 10
58.6386843456
 20
233.1764465197
 30
0.0
 11
58.6386843456
 21
197.1764462068
 31
0.0
  0
LINE
  5
450
330
1F
100
AcDbEntity
  8
0
  6
Continuous
 62
     7
370
     0
100
AcDbLine
 10
52.1386842115
 20
197.1764462068
 30
0.0
 11
58.6386843456
 21
197.1764462068
 31
0.0
  0
LINE
  5
451
330
1F
100
AcDbEntity
  8
0
  6
Continuous
 62
     7
370
     0
100
AcDbLine
 10
52.1386842115
 20
233.1764465197
 30
0.0
 11
52.1386842115
 21
197.1764462068
 31
0.0
  0
LINE
  5
452
330
1F
100
AcDbEntity
  8
0
  6
Continuous
 62
     7
370
     0
100
AcDbLine
 10
55.6386843195
 20
155.1764449104
 30
0.0
 11
58.6386843456
 21
155.1764449104
 31
0.0
  0
LINE
  5
453
330
1F
100
AcDbEntity
  8
0
  6
Continuous
 62
     7
370
     0
100
AcDbLine
 10
55.6386843195
 20
155.1764449104
 30
0.0
 11
55.6386843195
 21
197.1764462068
 31
0.0
  0
LINE
  5
454
330
1F
100
AcDbEntity
  8
0
  6
Continuous
 62
     7
370
     0
100
AcDbLine
 10
58.6386843456
 20
197.1764462068
 30
0.0
 11
58.6386843456
 21
155.1764449104
 31
0.0
  0
LINE
  5
455
330
1F
100
AcDbEntity
  8
0
  6
Continuous
 62
     7
370
     0
100
AcDbLine
 10
55.6386843195
 20
153.1764445826
 30
0.0
 11
58.6386843456
 21
153.1764445826
 31
0.0
  0
LINE
  5
456
330
1F
100
AcDbEntity
  8
0
  6
Continuous
 62
     7
370
     0
100
AcDbLine
 10
55.6386843195
 20
153.1764445826
 30
0.0
 11
55.6386843195
 21
155.1764449104
 31
0.0
  0
LINE
  5
457
330
1F
100
AcDbEntity
  8
0
  6
Continuous
 62
     7
370
     0
100
AcDbLine
 10
58.6386843456
 20
155.1764449104
 30
0.0
 11
58.6386843456
 21
153.1764445826
 31
0.0
  0
ARC
  5
458
330
1F
100
AcDbEntity
  8
0
  6
Continuous
 62
     7
370
     0
100
AcDbCircle
 10
65.4332228302
 20
180.8309047856
 30
0.0
 40
9.646535759404705
100
AcDbArc
 50
255.8648018102
 51
269.3012015085
  0
LINE
  5
459
330
1F
100
AcDbEntity
  8
0
  6
Continuous
 62
     7
370
     0
100
AcDbLine
 10
59.3886842968
 20
199.4764455959
 30
0.0
 11
61.1386842112
 21
199.4764455959
 31
0.0
  0
LINE
  5
45A
330
1F
100
AcDbEntity
  8
0
  6
Continuous
 62
     7
370
     0
100
AcDbLine
 10
61.1386842112
 20
199.4764455959
 30
0.0
 11
62.8886841262
 21
199.4764455959
 31
0.0
  0
LINE
  5
45B
330
1F
100
AcDbEntity
  8
0
  6
Continuous
 62
     7
370
     0
100
AcDbLine
 10
68.3886842968
 20
199.4764455959
 30
0.0
 11
70.1386842112
 21
199.4764455959
 31
0.0
  0
LINE
  5
45C
330
1F
100
AcDbEntity
  8
0
  6
Continuous
 62
     7
370
     0
100
AcDbLine
 10
70.1386842112
 20
199.4764455959
 30
0.0
 11
71.8886841262
 21
199.4764455959
 31
0.0
  0
DIMENSION
  5
45D
330
1F
100
AcDbEntity
  8
0
  6
Continuous
 62
     7
370
     0
100
AcDbDimension
  2
*D26
 10
58.6386842115
 20
246.5195871553
 30
0.0
 11
53.6386842115
 21
246.5195871553
 31
0.0
 70
   160
 71
     1
 42
10.0
  3
SLDDIMSTYLE0
100
AcDbAlignedDimension
 13
48.6386842115
 23
234.6764455959
 33
0.0
 14
58.6386842115
 24
235.1764455959
 34
0.0
 50
0.0
100
AcDbRotatedDimension
1001
ACAD
1000
DSTYLE
1002
{
1070
    77
1070
     3
1070
   143
1040
0.0393700787
1070
    41
1040
3.0
1070
    44
1040
1.0
1070
    42
1040
1.0
1070
   147
1040
1.524
1070
    73
1070
     0
1070
    74
1070
     0
1070
   140
1040
3.5
1070
   284
1070
    12
1070
    78
1070
    12
1002
}
  0
DIMENSION
  5
472
330
1F
100
AcDbEntity
  8
0
  6
Continuous
 62
     7
370
     0
100
AcDbDimension
  2
*D27
 10
58.6386842115
 20
246.4039211966
 30
0.0
 11
70.7180475972
 21
246.4039211966
 31
0.0
 70
   160
 71
     1
 42
4.0
  3
SLDDIMSTYLE0
100
AcDbAlignedDimension
 13
62.6386842115
 23
233.1764455959
 33
0.0
 14
58.6386842115
 24
233.1764455959
 34
0.0
100
AcDbRotatedDimension
1001
ACAD
1000
DSTYLE
1002
{
1070
    77
1070
     3
1070
   143
1040
0.0393700787
1070
    41
1040
3.0
1070
    44
1040
1.0
1070
    42
1040
1.0
1070
   147
1040
1.524
1070
    73
1070
     0
1070
    74
1070
     0
1070
   140
1040
3.5
1070
   284
1070
    12
1070
    78
1070
    12
1002
}
  0
DIMENSION
  5
48A
330
1F
100
AcDbEntity
  8
0
  6
Continuous
 62
     7
370
     0
100
AcDbDimension
  2
*D28
 10
58.6386842115
 20
120.7532827834
 30
0.0
 11
65.6386842115
 21
120.7532827834
 31
0.0
 70
   160
 71
     1
 42
14.0
  3
SLDDIMSTYLE0
100
AcDbAlignedDimension
 13
72.6386842115
 23
171.4764455959
 33
0.0
 14
58.6386842115
 24
153.1764455959
 34
0.0
 50
0.0
100
AcDbRotatedDimension
1001
ACAD
1000
DSTYLE
1002
{
1070
    77
1070
     3
1070
   143
1040
0.0393700787
1070
    41
1040
3.0
1070
    44
1040
1.0
1070
    42
1040
1.0
1070
   147
1040
1.524
1070
    73
1070
     0
1070
    74
1070
     0
1070
   140
1040
3.5
1070
   284
1070
    12
1070
    78
1070
    12
1002
}
  0
DIMENSION
  5
49F
330
1F
100
AcDbEntity
  8
0
  6
Continuous
 62
     7
370
     0
100
AcDbDimension
  2
*D29
 10
55.6386842115
 20
127.579909329
 30
0.0
 11
57.1386842115
 21
127.579909329
 31
0.0
 70
   160
 71
     1
 42
3.0
  3
SLDDIMSTYLE0
100
AcDbAlignedDimension
 13
58.6386842115
 23
153.1764455959
 33
0.0
 14
55.6386842115
 24
153.1764455959
 34
0.0
100
AcDbRotatedDimension
1001
ACAD
1000
DSTYLE
1002
{
1070
    77
1070
     3
1070
   143
1040
0.0393700787
1070
    41
1040
3.0
1070
    44
1040
1.0
1070
    42
1040
1.0
1070
   147
1040
1.524
1070
    73
1070
     0
1070
    74
1070
     0
1070
   140
1040
3.5
1070
   284
1070
    12
1070
    78
1070
    12
1002
}
  0
DIMENSION
  5
4B6
330
1F
100
AcDbEntity
  8
0
  6
Continuous
 62
     7
370
     0
100
AcDbDimension
  2
*D30
 10
44.4386842115
 20
120.7532827834
 30
0.0
 11
51.5386842115
 21
120.7532827834
 31
0.0
 70
   160
 71
     1
 42
14.2
  3
SLDDIMSTYLE0
100
AcDbAlignedDimension
 13
58.6386842115
 23
153.1764455959
 33
0.0
 14
44.4386842115
 24
213.7264455959
 34
0.0
 50
0.0
100
AcDbRotatedDimension
1001
ACAD
1000
DSTYLE
1002
{
1070
    77
1070
     3
1070
   143
1040
0.0393700787
1070
    41
1040
3.0
1070
    44
1040
1.0
1070
    42
1040
1.0
1070
   147
1040
1.524
1070
    73
1070
     0
1070
    74
1070
     0
1070
   140
1040
3.5
1070
   284
1070
    12
1070
    78
1070
    12
1002
}
  0
DIMENSION
  5
4CB
330
1F
100
AcDbEntity
  8
0
  6
Continuous
 62
     7
370
     0
100
AcDbDimension
  2
*D31
 10
65.6386842115
 20
127.579909329
 30
0.0
 11
62.1386842115
 21
127.579909329
 31
0.0
 70
   160
 71
     1
 42
7.0
  3
SLDDIMSTYLE0
100
AcDbAlignedDimension
 13
58.6386842115
 23
153.1764455959
 33
0.0
 14
65.6386842115
 24
168.1764455959
 34
0.0
 50
0.0
100
AcDbRotatedDimension
1001
ACAD
1000
DSTYLE
1002
{
1070
    77
1070
     3
1070
   143
1040
0.0393700787
1070
    41
1040
3.0
1070
    44
1040
1.0
1070
    42
1040
1.0
1070
   147
1040
1.524
1070
    73
1070
     0
1070
    74
1070
     0
1070
   140
1040
3.5
1070
   284
1070
    12
1070
    78
1070
    12
1002
}
  0
DIMENSION
  5
4E2
330
1F
100
AcDbEntity
  8
0
  6
Continuous
 62
     7
370
     0
100
AcDbDimension
  2
*D32
 10
52.1386842115
 20
135.7561512327
 30
0.0
 11
55.3886842115
 21
135.7561512327
 31
0.0
 70
   160
 71
     1
 42
6.5
  3
SLDDIMSTYLE0
100
AcDbAlignedDimension
 13
58.6386842115
 23
163.4264455959
 33
0.0
 14
52.1386842115
 24
197.1764455959
 34
0.0
100
AcDbRotatedDimension
1001
ACAD
1000
DSTYLE
1002
{
1070
    77
1070
     3
1070
   143
1040
0.0393700787
1070
    41
1040
3.0
1070
    44
1040
1.0
1070
    42
1040
1.0
1070
   147
1040
1.524
1070
    73
1070
     0
1070
    74
1070
     0
1070
   140
1040
3.5
1070
   284
1070
    12
1070
    78
1070
    12
1002
}
  0
DIMENSION
  5
4F9
330
1F
100
AcDbEntity
  8
0
  6
Continuous
 62
     7
370
     0
100
AcDbDimension
  2
*D33
 10
52.1386842115
 20
135.7561512327
 30
0.0
 11
42.7644938582
 21
135.7561512327
 31
0.0
 70
   160
 71
     1
 42
3.5
  3
SLDDIMSTYLE0
100
AcDbAlignedDimension
 13
48.6386842115
 23
197.6764455959
 33
0.0
 14
52.1386842115
 24
197.1764455959
 34
0.0
100
AcDbRotatedDimension
1001
ACAD
1000
DSTYLE
1002
{
1070
    77
1070
     3
1070
   143
1040
0.0393700787
1070
    41
1040
3.0
1070
    44
1040
1.0
1070
    42
1040
1.0
1070
   147
1040
1.524
1070
    73
1070
     0
1070
    74
1070
     0
1070
   140
1040
3.5
1070
   284
1070
    12
1070
    78
1070
    12
1002
}
  0
DIMENSION
  5
511
330
1F
100
AcDbEntity
  8
0
  6
Continuous
 62
     7
370
     0
100
AcDbDimension
  2
*D34
 10
44.4386842115
 20
111.1624422003
 30
0.0
 11
58.5386842115
 21
111.1624422003
 31
0.0
 70
   160
 71
     1
 42
28.2
  3
SLDDIMSTYLE0
100
AcDbAlignedDimension
 13
72.6386842115
 23
171.4764455959
 33
0.0
 14
44.4386842115
 24
213.7264455959
 34
0.0
 50
0.0
100
AcDbRotatedDimension
1001
ACAD
1000
DSTYLE
1002
{
1070
    77
1070
     3
1070
   143
1040
0.0393700787
1070
    41
1040
3.0
1070
    44
1040
1.0
1070
    42
1040
1.0
1070
   147
1040
1.524
1070
    73
1070
     0
1070
    74
1070
     0
1070
   140
1040
3.5
1070
   284
1070
    12
1070
    78
1070
    12
1002
}
  0
DIMENSION
  5
524
330
1F
100
AcDbEntity
  8
0
  6
Continuous
 62
     7
370
     0
100
AcDbDimension
  2
*D35
 10
84.4507784195
 20
171.1764455959
 30
0.0
 11
84.4507784195
 21
178.9264455959
 31
0.0
 70
   160
 71
     1
 42
15.5
  3
SLDDIMSTYLE0
100
AcDbAlignedDimension
 13
66.5386842115
 23
186.6764455959
 33
0.0
 14
71.6386842115
 24
171.1764455959
 34
0.0
 50
90.0
100
AcDbRotatedDimension
1001
ACAD
1000
DSTYLE
1002
{
1070
    77
1070
     3
1070
   143
1040
0.0393700787
1070
    41
1040
3.0
1070
    44
1040
1.0
1070
    42
1040
1.0
1070
   147
1040
1.524
1070
    73
1070
     0
1070
    74
1070
     0
1070
   140
1040
3.5
1070
   284
1070
    12
1070
    78
1070
    12
1002
}
  0
DIMENSION
  5
53A
330
1F
100
AcDbEntity
  8
0
  6
Continuous
 62
     7
370
     0
100
AcDbDimension
  2
*D36
 10
35.7615379856
 20
216.1764455959
 30
0.0
 11
35.7615379856
 21
225.6764455959
 31
0.0
 70
   160
 71
     1
 42
19.0
  3
SLDDIMSTYLE0
100
AcDbAlignedDimension
 13
52.1386842115
 23
235.1764455959
 33
0.0
 14
49.1386842115
 24
216.1764455959
 34
0.0
 50
90.0
100
AcDbRotatedDimension
1001
ACAD
1000
DSTYLE
1002
{
1070
    77
1070
     3
1070
   143
1040
0.0393700787
1070
    41
1040
3.0
1070
    44
1040
1.0
1070
    42
1040
1.0
1070
   147
1040
1.524
1070
    73
1070
     0
1070
    74
1070
     0
1070
   140
1040
3.5
1070
   284
1070
    12
1070
    78
1070
    12
1002
}
  0
DIMENSION
  5
54E
330
1F
100
AcDbEntity
  8
0
  6
Continuous
 62
     7
370
     0
100
AcDbDimension
  2
*D37
 10
35.7615379856
 20
186.6764455959
 30
0.0
 11
35.7615379856
 21
201.4264455959
 31
0.0
 70
   160
 71
     1
 42
29.5
  3
SLDDIMSTYLE0
100
AcDbAlignedDimension
 13
49.1386842115
 23
216.1764455959
 33
0.0
 14
53.8386842115
 24
186.6764455959
 34
0.0
 50
90.0
100
AcDbRotatedDimension
1001
ACAD
1000
DSTYLE
1002
{
1070
    77
1070
     3
1070
   143
1040
0.0393700787
1070
    41
1040
3.0
1070
    44
1040
1.0
1070
    42
1040
1.0
1070
   147
1040
1.524
1070
    73
1070
     0
1070
    74
1070
     0
1070
   140
1040
3.5
1070
   284
1070
    12
1070
    78
1070
    12
1002
}
  0
DIMENSION
  5
562
330
1F
100
AcDbEntity
  8
0
  6
Continuous
 62
     7
370
     0
100
AcDbDimension
  2
*D38
 10
35.7615379856
 20
153.1764455959
 30
0.0
 11
35.7615379856
 21
169.9264455959
 31
0.0
 70
   160
 71
     1
 42
33.5
  3
SLDDIMSTYLE0
100
AcDbAlignedDimension
 13
53.8386842115
 23
186.6764455959
 33
0.0
 14
55.6386842115
 24
153.1764455959
 34
0.0
 50
90.0
100
AcDbRotatedDimension
1001
ACAD
1000
DSTYLE
1002
{
1070
    77
1070
     3
1070
   143
1040
0.0393700787
1070
    41
1040
3.0
1070
    44
1040
1.0
1070
    42
1040
1.0
1070
   147
1040
1.524
1070
    73
1070
     0
1070
    74
1070
     0
1070
   140
1040
3.5
1070
   284
1070
    12
1070
    78
1070
    12
1002
}
  0
DIMENSION
  5
576
330
1F
100
AcDbEntity
  8
0
  6
Continuous
 62
     7
370
     0
100
AcDbDimension
  2
*D39
 10
28.433679781
 20
197.1764455959
 30
0.0
 11
28.433679781
 21
216.1764455959
 31
0.0
 70
   160
 71
     1
 42
38.0
  3
SLDDIMSTYLE0
100
AcDbAlignedDimension
 13
52.1386842115
 23
235.1764455959
 33
0.0
 14
52.1386842115
 24
197.1764455959
 34
0.0
 50
90.0
100
AcDbRotatedDimension
1001
ACAD
1000
DSTYLE
1002
{
1070
    77
1070
     3
1070
   143
1040
0.0393700787
1070
    41
1040
3.0
1070
    44
1040
1.0
1070
    42
1040
1.0
1070
   147
1040
1.524
1070
    73
1070
     0
1070
    74
1070
     0
1070
   140
1040
3.5
1070
   284
1070
    12
1070
    78
1070
    12
1002
}
  0
DIMENSION
  5
58A
330
1F
100
AcDbEntity
  8
0
  6
Continuous
 62
     7
370
     0
100
AcDbDimension
  2
*D40
 10
28.433679781
 20
153.1764455959
 30
0.0
 11
28.433679781
 21
175.1764455959
 31
0.0
 70
   160
 71
     1
 42
44.0
  3
SLDDIMSTYLE0
100
AcDbAlignedDimension
 13
52.1386842115
 23
197.1764455959
 33
0.0
 14
55.6386842115
 24
153.1764455959
 34
0.0
 50
90.0
100
AcDbRotatedDimension
1001
ACAD
1000
DSTYLE
1002
{
1070
    77
1070
     3
1070
   143
1040
0.0393700787
1070
    41
1040
3.0
1070
    44
1040
1.0
1070
    42
1040
1.0
1070
   147
1040
1.524
1070
    73
1070
     0
1070
    74
1070
     0
1070
   140
1040
3.5
1070
   284
1070
    12
1070
    78
1070
    12
1002
}
  0
MTEXT
  5
59E
330
1F
100
AcDbEntity
  8
0
  6
Continuous
 62
     7
370
     0
100
AcDbMText
 10
150.2055544041
 20
17.3219396688
 30
0.0
 40
3.5
 41
0.0
 71
     1
 72
     1
  1
090140
  7
SLDTEXTSTYLE0
 73
     1
 44
1.0
  0
INSERT
  5
5AA
330
1F
100
AcDbEntity
  8
0
  6
Continuous
 62
     7
370
     0
100
AcDbBlockReference
  2
SW_CENTERMARKSYMBOL_9
 10
65.6386842115
 20
175.1764455959
 30
0.0
  0
LINE
  5
5AB
330
1F
100
AcDbEntity
  8
0
  6
CENTERX2
 62
     7
370
     0
100
AcDbLine
 10
49.1386842115
 20
216.1764455959
 30
0.0
 11
54.1386842115
 21
216.1764455959
 31
0.0
  0
LINE
  5
5AC
330
1F
100
AcDbEntity
  8
0
  6
CENTERX2
 62
     7
370
     0
100
AcDbLine
 10
49.1386842115
 20
216.1764455959
 30
0.0
 11
48.6386842115
 21
216.1764455959
 31
0.0
  0
LINE
  5
5AD
330
1F
100
AcDbEntity
  8
0
  6
CENTERX2
 62
     7
370
     0
100
AcDbLine
 10
68.5386842115
 20
228.1764455959
 30
0.0
 11
63.8386842115
 21
228.1764455959
 31
0.0
  0
LINE
  5
5AE
330
1F
100
AcDbEntity
  8
0
  6
CENTERX2
 62
     7
370
     0
100
AcDbLine
 10
63.1386842115
 20
228.1764455959
 30
0.0
 11
63.8386842115
 21
228.1764455959
 31
0.0
  0
LINE
  5
5AF
330
1F
100
AcDbEntity
  8
0
  6
CENTERX2
 62
     7
370
     0
100
AcDbLine
 10
62.6386842115
 20
228.1764455959
 30
0.0
 11
63.1386842115
 21
228.1764455959
 31
0.0
  0
LINE
  5
5B0
330
1F
100
AcDbEntity
  8
0
  6
CENTERX2
 62
     7
370
     0
100
AcDbLine
 10
55.8386842115
 20
228.1764455959
 30
0.0
 11
62.6386842115
 21
228.1764455959
 31
0.0
  0
LINE
  5
5B1
330
1F
100
AcDbEntity
  8
0
  6
CENTERX2
 62
     7
370
     0
100
AcDbLine
 10
65.6386842115
 20
211.1764455959
 30
0.0
 11
65.6386842115
 21
206.4764455959
 31
0.0
  0
LINE
  5
5B2
330
1F
100
AcDbEntity
  8
0
  6
CENTERX2
 62
     7
370
     0
100
AcDbLine
 10
65.6386842115
 20
205.7764455959
 30
0.0
 11
65.6386842115
 21
206.4764455959
 31
0.0
  0
LINE
  5
5B3
330
1F
100
AcDbEntity
  8
0
  6
CENTERX2
 62
     7
370
     0
100
AcDbLine
 10
65.6386842115
 20
205.2764455959
 30
0.0
 11
65.6386842115
 21
205.7764455959
 31
0.0
  0
LINE
  5
5B4
330
1F
100
AcDbEntity
  8
0
  6
CENTERX2
 62
     7
370
     0
100
AcDbLine
 10
65.6386842115
 20
198.4764455959
 30
0.0
 11
65.6386842115
 21
205.2764455959
 31
0.0
  0
ENDSEC
  0
SECTION
  2
OBJECTS
  0
DICTIONARY
  5
C
330
0
100
AcDbDictionary
281
     1
  3
ACAD_GROUP
350
D
  3
ACAD_LAYOUT
350
1A
  3
ACAD_MLINESTYLE
350
17
  3
ACAD_PLOTSETTINGS
350
19
  3
ACAD_PLOTSTYLENAME
350
E
  0
DICTIONARY
  5
D
102
{ACAD_REACTORS
330
C
102
}
330
C
100
AcDbDictionary
281
     1
  0
DICTIONARY
  5
1A
102
{ACAD_REACTORS
330
C
102
}
330
C
100
AcDbDictionary
281
     1
  3
Layout1
350
1E
  3
Layout2
350
26
  3
Model
350
22
  0
DICTIONARY
  5
17
102
{ACAD_REACTORS
330
C
102
}
330
C
100
AcDbDictionary
281
     1
  3
Standard
350
18
  0
DICTIONARY
  5
19
102
{ACAD_REACTORS
330
C
102
}
330
C
100
AcDbDictionary
281
     1
  0
ACDBDICTIONARYWDFLT
  5
E
102
{ACAD_REACTORS
330
C
102
}
330
C
100
AcDbDictionary
281
     1
  3
Normal
350
F
100
AcDbDictionaryWithDefault
340
F
  0
LAYOUT
  5
1E
102
{ACAD_REACTORS
330
1A
102
}
330
1A
100
AcDbPlotSettings
  1

  2

  4

  6

 40
0.0
 41
0.0
 42
0.0
 43
0.0
 44
0.0
 45
0.0
 46
0.0
 47
0.0
 48
0.0
 49
0.0
140
0.0
141
0.0
142
1.0
143
1.0
 70
   688
 72
     0
 73
     0
 74
     5
  7

 75
    16
147
1.0
148
0.0
149
0.0
100
AcDbLayout
  1
Layout1
 70
     1
 71
     1
 10
0.0
 20
0.0
 11
0.0
 21
0.0
 12
0.0
 22
0.0
 32
0.0
 14
0.0
 24
0.0
 34
0.0
 15
0.0
 25
0.0
 35
0.0
146
0.0
 13
0.0
 23
0.0
 33
0.0
 16
1.0
 26
0.0
 36
0.0
 17
0.0
 27
1.0
 37
0.0
 76
     0
330
1B
  0
LAYOUT
  5
26
102
{ACAD_REACTORS
330
1A
102
}
330
1A
100
AcDbPlotSettings
  1

  2

  4

  6

 40
0.0
 41
0.0
 42
0.0
 43
0.0
 44
0.0
 45
0.0
 46
0.0
 47
0.0
 48
0.0
 49
0.0
140
0.0
141
0.0
142
1.0
143
1.0
 70
   688
 72
     0
 73
     0
 74
     5
  7

 75
    16
147
1.0
148
0.0
149
0.0
100
AcDbLayout
  1
Layout2
 70
     1
 71
     2
 10
0.0
 20
0.0
 11
0.0
 21
0.0
 12
0.0
 22
0.0
 32
0.0
 14
0.0
 24
0.0
 34
0.0
 15
0.0
 25
0.0
 35
0.0
146
0.0
 13
0.0
 23
0.0
 33
0.0
 16
1.0
 26
0.0
 36
0.0
 17
0.0
 27
1.0
 37
0.0
 76
     0
330
23
  0
LAYOUT
  5
22
102
{ACAD_REACTORS
330
1A
102
}
330
1A
100
AcDbPlotSettings
  1

  2

  4

  6

 40
0.0
 41
0.0
 42
0.0
 43
0.0
 44
0.0
 45
0.0
 46
0.0
 47
0.0
 48
0.0
 49
0.0
140
0.0
141
0.0
142
1.0
143
1.0
 70
  1712
 72
     0
 73
     0
 74
     0
  7

 75
     0
147
1.0
148
0.0
149
0.0
100
AcDbLayout
  1
Model
 70
     1
 71
     0
 10
0.0
 20
0.0
 11
0.0
 21
0.0
 12
0.0
 22
0.0
 32
0.0
 14
0.0
 24
0.0
 34
0.0
 15
210.0
 25
297.0
 35
0.0
146
0.0
 13
0.0
 23
0.0
 33
0.0
 16
1.0
 26
0.0
 36
0.0
 17
0.0
 27
1.0
 37
0.0
 76
     0
330
1F
  0
MLINESTYLE
  5
18
102
{ACAD_REACTORS
330
17
102
}
330
17
100
AcDbMlineStyle
  2
Standard
 70
     0
  3

 62
   256
 51
90.0
 52
90.0
 71
     2
 49
0.5
 62
   256
  6
BYLAYER
 49
-0.5
 62
   256
  6
BYLAYER
  0
ACDBPLACEHOLDER
  5
F
102
{ACAD_REACTORS
330
E
102
}
330
E
  0
ENDSEC
  0
EOF
