  0
SECTION
  2
HEADER
  9
$ACADVER
  1
AC1015
  9
$ACADMAINTVER
 70
     6
  9
$DWGCODEPAGE
  3
DOS932
  9
$INSBASE
 10
0.0
 20
0.0
 30
0.0
  9
$EXTMIN
 10
0.0
 20
0.0
 30
0.0
  9
$EXTMAX
 10
210.0
 20
297.0
 30
0.0
  9
$LIMMIN
 10
0.0
 20
0.0
  9
$LIMMAX
 10
0.0
 20
0.0
  9
$ORTHOMODE
 70
     0
  9
$REGENMODE
 70
     1
  9
$FILLMODE
 70
     1
  9
$QTEXTMODE
 70
     0
  9
$MIRRTEXT
 70
     1
  9
$LTSCALE
 40
1.0
  9
$ATTMODE
 70
     1
  9
$TEXTSIZE
 40
3.5
  9
$TRACEWID
 40
1.0
  9
$TEXTSTYLE
  7
Standard
  9
$CLAYER
  8
0
  9
$CELTYPE
  6
ByLayer
  9
$CECOLOR
 62
   256
  9
$CELTSCALE
 40
1.0
  9
$DISPSILH
 70
     0
  9
$DIMSCALE
 40
1.0
  9
$DIMASZ
 40
3.0
  9
$DIMEXO
 40
1.0
  9
$DIMDLI
 40
3.75
  9
$DIMRND
 40
0.0
  9
$DIMDLE
 40
0.0
  9
$DIMEXE
 40
1.0
  9
$DIMTP
 40
0.0
  9
$DIMTM
 40
0.0
  9
$DIMTXT
 40
3.5
  9
$DIMCEN
 40
2.5
  9
$DIMTSZ
 40
0.0
  9
$DIMTOL
 70
     0
  9
$DIMLIM
 70
     0
  9
$DIMTIH
 70
     1
  9
$DIMTOH
 70
     1
  9
$DIMSE1
 70
     0
  9
$DIMSE2
 70
     0
  9
$DIMTAD
 70
     1
  9
$DIMZIN
 70
     0
  9
$DIMBLK
  1

  9
$DIMASO
 70
     1
  9
$DIMSHO
 70
     1
  9
$DIMPOST
  1

  9
$DIMAPOST
  1

  9
$DIMALT
 70
     0
  9
$DIMALTD
 70
     3
  9
$DIMALTF
 40
0.0393700787
  9
$DIMLFAC
 40
1.0
  9
$DIMTOFL
 70
     1
  9
$DIMTVP
 40
0.0
  9
$DIMTIX
 70
     0
  9
$DIMSOXD
 70
     0
  9
$DIMSAH
 70
     0
  9
$DIMBLK1
  1

  9
$DIMBLK2
  1

  9
$DIMSTYLE
  2
ISO-25
  9
$DIMCLRD
 70
     0
  9
$DIMCLRE
 70
     0
  9
$DIMCLRT
 70
     0
  9
$DIMTFAC
 40
1.0
  9
$DIMGAP
 40
1.524
  9
$DIMJUST
 70
     0
  9
$DIMSD1
 70
     0
  9
$DIMSD2
 70
     0
  9
$DIMTOLJ
 70
     0
  9
$DIMTZIN
 70
     0
  9
$DIMALTZ
 70
     0
  9
$DIMALTTZ
 70
     0
  9
$DIMUPT
 70
     0
  9
$DIMDEC
 70
     2
  9
$DIMTDEC
 70
     2
  9
$DIMALTU
 70
     2
  9
$DIMALTTD
 70
     3
  9
$DIMTXSTY
  7
Standard
  9
$DIMAUNIT
 70
     0
  9
$DIMADEC
 70
     0
  9
$DIMALTRND
 40
0.0
  9
$DIMAZIN
 70
     0
  9
$DIMDSEP
 70
    44
  9
$DIMATFIT
 70
     3
  9
$DIMFRAC
 70
     0
  9
$DIMLDRBLK
  1

  9
$DIMLUNIT
 70
     2
  9
$DIMLWD
 70
    -2
  9
$DIMLWE
 70
    -2
  9
$DIMTMOVE
 70
     0
  9
$LUNITS
 70
     2
  9
$LUPREC
 70
     1
  9
$SKETCHINC
 40
1.0
  9
$FILLETRAD
 40
10.0
  9
$AUNITS
 70
     0
  9
$AUPREC
 70
     0
  9
$MENU
  1
.
  9
$ELEVATION
 40
0.0
  9
$PELEVATION
 40
0.0
  9
$THICKNESS
 40
0.0
  9
$LIMCHECK
 70
     0
  9
$CHAMFERA
 40
10.0
  9
$CHAMFERB
 40
10.0
  9
$CHAMFERC
 40
20.0
  9
$CHAMFERD
 40
0.0
  9
$SKPOLY
 70
     0
  9
$TDCREATE
 40
2454336.418634433
  9
$TDUCREATE
 40
2454336.043634433
  9
$TDUPDATE
 40
2454336.418634445
  9
$TDUUPDATE
 40
2454336.043634445
  9
$TDINDWG
 40
0.0000000116
  9
$TDUSRTIMER
 40
0.0000000116
  9
$USRTIMER
 70
     1
  9
$ANGBASE
 50
0.0
  9
$ANGDIR
 70
     0
  9
$PDMODE
 70
     0
  9
$PDSIZE
 40
-1.0
  9
$PLINEWID
 40
0.0
  9
$SPLFRAME
 70
     0
  9
$SPLINETYPE
 70
     6
  9
$SPLINESEGS
 70
     8
  9
$HANDSEED
  5
574
  9
$SURFTAB1
 70
     6
  9
$SURFTAB2
 70
     6
  9
$SURFTYPE
 70
     6
  9
$SURFU
 70
     6
  9
$SURFV
 70
     6
  9
$UCSBASE
  2

  9
$UCSNAME
  2

  9
$UCSORG
 10
0.0
 20
0.0
 30
0.0
  9
$UCSXDIR
 10
1.0
 20
0.0
 30
0.0
  9
$UCSYDIR
 10
0.0
 20
1.0
 30
0.0
  9
$UCSORTHOREF
  2

  9
$UCSORTHOVIEW
 70
     0
  9
$UCSORGTOP
 10
0.0
 20
0.0
 30
0.0
  9
$UCSORGBOTTOM
 10
0.0
 20
0.0
 30
0.0
  9
$UCSORGLEFT
 10
0.0
 20
0.0
 30
0.0
  9
$UCSORGRIGHT
 10
0.0
 20
0.0
 30
0.0
  9
$UCSORGFRONT
 10
0.0
 20
0.0
 30
0.0
  9
$UCSORGBACK
 10
0.0
 20
0.0
 30
0.0
  9
$PUCSBASE
  2

  9
$PUCSNAME
  2

  9
$PUCSORG
 10
0.0
 20
0.0
 30
0.0
  9
$PUCSXDIR
 10
1.0
 20
0.0
 30
0.0
  9
$PUCSYDIR
 10
0.0
 20
1.0
 30
0.0
  9
$PUCSORTHOREF
  2

  9
$PUCSORTHOVIEW
 70
     0
  9
$PUCSORGTOP
 10
0.0
 20
0.0
 30
0.0
  9
$PUCSORGBOTTOM
 10
0.0
 20
0.0
 30
0.0
  9
$PUCSORGLEFT
 10
0.0
 20
0.0
 30
0.0
  9
$PUCSORGRIGHT
 10
0.0
 20
0.0
 30
0.0
  9
$PUCSORGFRONT
 10
0.0
 20
0.0
 30
0.0
  9
$PUCSORGBACK
 10
0.0
 20
0.0
 30
0.0
  9
$USERI1
 70
     0
  9
$USERI2
 70
     0
  9
$USERI3
 70
     0
  9
$USERI4
 70
     0
  9
$USERI5
 70
     0
  9
$USERR1
 40
0.0
  9
$USERR2
 40
0.0
  9
$USERR3
 40
0.0
  9
$USERR4
 40
0.0
  9
$USERR5
 40
0.0
  9
$WORLDVIEW
 70
     1
  9
$SHADEDGE
 70
     3
  9
$SHADEDIF
 70
    70
  9
$TILEMODE
 70
     1
  9
$MAXACTVP
 70
    64
  9
$PINSBASE
 10
0.0
 20
0.0
 30
0.0
  9
$PLIMCHECK
 70
     0
  9
$PEXTMIN
 10
1.0000000000E+20
 20
1.0000000000E+20
 30
1.0000000000E+20
  9
$PEXTMAX
 10
-1.0000000000E+20
 20
-1.0000000000E+20
 30
-1.0000000000E+20
  9
$PLIMMIN
 10
0.0
 20
0.0
  9
$PLIMMAX
 10
420.0
 20
297.0
  9
$UNITMODE
 70
     0
  9
$VISRETAIN
 70
     1
  9
$PLINEGEN
 70
     0
  9
$PSLTSCALE
 70
     1
  9
$TREEDEPTH
 70
  3020
  9
$CMLSTYLE
  2
Standard
  9
$CMLJUST
 70
     0
  9
$CMLSCALE
 40
20.0
  9
$PROXYGRAPHICS
 70
     1
  9
$MEASUREMENT
 70
     1
  9
$CELWEIGHT
370
    -1
  9
$ENDCAPS
280
     0
  9
$JOINSTYLE
280
     0
  9
$LWDISPLAY
290
     1
  9
$INSUNITS
 70
     4
  9
$HYPERLINKBASE
  1

  9
$STYLESHEET
  1

  9
$XEDIT
290
     1
  9
$CEPSNTYPE
380
     0
  9
$PSTYLEMODE
290
     1
  9
$FINGERPRINTGUID
  2
{1CFACBA7-9357-45E5-BFD8-D048D7733B35}
  9
$VERSIONGUID
  2
{FAEB1C32-E019-11D5-929B-00C0DF256EC4}
  9
$EXTNAMES
290
     1
  9
$PSVPSCALE
 40
0.0
  9
$OLESTARTUP
290
     0
  0
ENDSEC
  0
SECTION
  2
CLASSES
  0
CLASS
  1
ACDBDICTIONARYWDFLT
  2
AcDbDictionaryWithDefault
  3
ObjectDBX Classes
 90
        0
280
     0
281
     0
  0
CLASS
  1
ACDBPLACEHOLDER
  2
AcDbPlaceHolder
  3
ObjectDBX Classes
 90
        0
280
     0
281
     0
  0
CLASS
  1
LAYOUT
  2
AcDbLayout
  3
ObjectDBX Classes
 90
        0
280
     0
281
     0
  0
ENDSEC
  0
SECTION
  2
TABLES
  0
TABLE
  2
VPORT
  5
8
330
0
100
AcDbSymbolTable
 70
     1
  0
VPORT
  5
29
330
8
100
AcDbSymbolTableRecord
100
AcDbViewportTableRecord
  2
*Active
 70
     0
 10
0.0
 20
0.0
 11
1.0
 21
1.0
 12
105.0
 22
148.5
 13
0.0
 23
0.0
 14
10.0
 24
10.0
 15
10.0
 25
10.0
 16
0.0
 26
0.0
 36
1.0
 17
0.0
 27
0.0
 37
0.0
 40
297.0
 41
1.9729729729
 42
50.0
 43
0.0
 44
0.0
 50
0.0
 51
0.0
 71
     0
 72
  2000
 73
     1
 74
     3
 75
     0
 76
     0
 77
     0
 78
     0
281
     0
 65
     1
110
0.0
120
0.0
130
0.0
111
1.0
121
0.0
131
0.0
112
0.0
122
1.0
132
0.0
 79
     0
146
0.0
  0
ENDTAB
  0
TABLE
  2
LTYPE
  5
5
330
0
100
AcDbSymbolTable
 70
     6
  0
LTYPE
  5
14
330
5
100
AcDbSymbolTableRecord
100
AcDbLinetypeTableRecord
  2
ByBlock
 70
     0
  3

 72
    65
 73
     0
 40
0.0
  0
LTYPE
  5
15
330
5
100
AcDbSymbolTableRecord
100
AcDbLinetypeTableRecord
  2
ByLayer
 70
     0
  3

 72
    65
 73
     0
 40
0.0
  0
LTYPE
  5
16
330
5
100
AcDbSymbolTableRecord
100
AcDbLinetypeTableRecord
  2
Continuous
 70
     0
  3
Solid line
 72
    65
 73
     0
 40
0.0
  0
LTYPE
  5
2A
330
5
100
AcDbSymbolTableRecord
100
AcDbLinetypeTableRecord
  2
HIDDEN
 70
     0
  3
Hidden __ __ __ __ __ __ __ __ __ __ __ __ __ __
 72
    65
 73
     2
 40
1.905
 49
1.27
 74
     0
 49
-0.635
 74
     0
  0
LTYPE
  5
2B
330
5
100
AcDbSymbolTableRecord
100
AcDbLinetypeTableRecord
  2
PHANTOM
 70
     0
  3
Phantom ______  __  __  ______  __  __  ______
 72
    65
 73
     6
 40
12.7
 49
6.35
 74
     0
 49
-1.27
 74
     0
 49
1.27
 74
     0
 49
-1.27
 74
     0
 49
1.27
 74
     0
 49
-1.27
 74
     0
  0
LTYPE
  5
2C
330
5
100
AcDbSymbolTableRecord
100
AcDbLinetypeTableRecord
  2
CENTER
 70
     0
  3
Center ____ _ ____ _ ____ _ ____ _ ____ _ ____
 72
    65
 73
     4
 40
10.16
 49
6.35
 74
     0
 49
-1.27
 74
     0
 49
1.27
 74
     0
 49
-1.27
 74
     0
  0
LTYPE
  5
2D
330
5
100
AcDbSymbolTableRecord
100
AcDbLinetypeTableRecord
  2
CENTERX2
 70
     0
  3
Center (2x) ________  __  ________  __  _____
 72
    65
 73
     4
 40
20.32
 49
12.7
 74
     0
 49
-2.54
 74
     0
 49
2.54
 74
     0
 49
-2.54
 74
     0
  0
LTYPE
  5
2E
330
5
100
AcDbSymbolTableRecord
100
AcDbLinetypeTableRecord
  2
DOT2
 70
     0
  3
Dot (.5x) ........................................
 72
    65
 73
     2
 40
0.635
 49
0.0
 74
     0
 49
-0.635
 74
     0
  0
ENDTAB
  0
TABLE
  2
LAYER
  5
2
330
0
100
AcDbSymbolTable
 70
     2
  0
LAYER
  5
10
330
2
100
AcDbSymbolTableRecord
100
AcDbLayerTableRecord
  2
0
 70
     0
 62
     7
  6
Continuous
370
    -3
390
F
  0
LAYER
  5
130
330
2
100
AcDbSymbolTableRecord
100
AcDbLayerTableRecord
  2
Defpoints
 70
     0
 62
     7
  6
Continuous
290
     0
370
    -3
390
F
  0
ENDTAB
  0
TABLE
  2
STYLE
  5
3
330
0
100
AcDbSymbolTable
 70
     2
  0
STYLE
  5
11
330
3
100
AcDbSymbolTableRecord
100
AcDbTextStyleTableRecord
  2
Standard
 70
     0
 40
0.0
 41
1.0
 50
0.0
 71
     0
 42
2.5
  3
txt
  4
bigfont
  0
STYLE
  5
37
330
3
100
AcDbSymbolTableRecord
100
AcDbTextStyleTableRecord
  2
SLDTEXTSTYLE0
 70
     0
 40
0.0
 41
0.7
 50
0.0
 71
     0
 42
0.2
  3
TXT
  4
bigfont
  0
ENDTAB
  0
TABLE
  2
VIEW
  5
6
330
0
100
AcDbSymbolTable
 70
     0
  0
ENDTAB
  0
TABLE
  2
UCS
  5
7
330
0
100
AcDbSymbolTable
 70
     0
  0
ENDTAB
  0
TABLE
  2
APPID
  5
9
330
0
100
AcDbSymbolTable
 70
     1
  0
APPID
  5
12
330
9
100
AcDbSymbolTableRecord
100
AcDbRegAppTableRecord
  2
ACAD
 70
     0
  0
ENDTAB
  0
TABLE
  2
DIMSTYLE
  5
A
330
0
100
AcDbSymbolTable
 70
     2
100
AcDbDimStyleTable
  0
DIMSTYLE
105
27
330
A
100
AcDbSymbolTableRecord
100
AcDbDimStyleTableRecord
  2
ISO-25
 70
     0
 41
2.5
 42
0.625
 43
3.75
 44
1.25
 73
     0
 74
     0
 77
     1
 78
     8
140
2.5
141
2.5
143
0.0393700787
147
0.625
171
     3
172
     1
271
     2
272
     2
274
     3
278
    44
283
     0
284
     8
340
11
  0
DIMSTYLE
105
13D
102
{ACAD_REACTORS
330
12F
330
14A
330
15D
330
170
330
186
330
19C
330
1B2
330
1C6
330
1DC
330
1F0
330
204
330
218
330
22C
330
240
330
255
330
268
330
39A
330
3AF
330
3C7
330
3DE
330
3F6
330
409
330
41E
330
431
330
445
330
459
330
46D
330
481
330
498
102
}
330
A
100
AcDbSymbolTableRecord
100
AcDbDimStyleTableRecord
  2
SLDDIMSTYLE0
 70
     0
 41
3.0
 44
0.0
 73
     0
 74
     0
 77
     3
 78
    12
140
3.5
147
0.875
173
     1
271
     1
272
     3
284
    12
340
37
341
13E
343
13E
344
13E
  0
ENDTAB
  0
TABLE
  2
BLOCK_RECORD
  5
1
330
0
100
AcDbSymbolTable
 70
    43
  0
BLOCK_RECORD
  5
1F
330
1
100
AcDbSymbolTableRecord
100
AcDbBlockTableRecord
  2
*Model_Space
340
22
  0
BLOCK_RECORD
  5
1B
330
1
100
AcDbSymbolTableRecord
100
AcDbBlockTableRecord
  2
*Paper_Space
340
1E
  0
BLOCK_RECORD
  5
23
330
1
100
AcDbSymbolTableRecord
100
AcDbBlockTableRecord
  2
*Paper_Space0
340
26
  0
BLOCK_RECORD
  5
131
330
1
100
AcDbSymbolTableRecord
100
AcDbBlockTableRecord
  2
*D1
340
0
  0
BLOCK_RECORD
  5
13E
330
1
100
AcDbSymbolTableRecord
100
AcDbBlockTableRecord
  2
_Open30
340
0
102
{BLKREFS
331
136
331
135
331
144
331
145
331
150
331
14F
331
157
331
158
331
163
331
162
331
16A
331
16B
331
176
331
175
331
17E
331
17F
331
18C
331
18B
331
194
331
195
331
1A2
331
1A1
331
1AA
331
1AB
331
1B8
331
1B7
331
1C0
331
1C1
331
1CC
331
1CB
331
1D4
331
1D5
331
1E2
331
1E1
331
1EA
331
1EB
331
1F6
331
1F5
331
1FE
331
1FF
331
20A
331
209
331
212
331
213
331
21E
331
21D
331
226
331
227
331
232
331
231
331
23A
331
23B
331
246
331
245
331
24D
331
24E
331
25B
331
25A
331
262
331
263
331
26E
331
26D
331
275
331
276
331
3A0
331
39F
331
3A7
331
3A8
331
3B6
331
3B5
331
3BF
331
3C0
331
3CF
331
3CE
331
3D6
331
3D7
331
3E5
331
3E4
331
3EE
331
3EF
331
3FC
331
3FB
331
403
331
404
331
40F
331
40E
331
416
331
417
331
424
331
423
331
42B
331
42C
331
437
331
436
331
43F
331
440
331
44B
331
44A
331
453
331
454
331
45F
331
45E
331
467
331
468
331
473
331
472
331
47B
331
47C
331
489
331
488
331
490
331
491
331
49E
331
49D
331
4A5
331
4A6
102
}
  0
BLOCK_RECORD
  5
14B
330
1
100
AcDbSymbolTableRecord
100
AcDbBlockTableRecord
  2
*D3
340
0
  0
BLOCK_RECORD
  5
15E
330
1
100
AcDbSymbolTableRecord
100
AcDbBlockTableRecord
  2
*D4
340
0
  0
BLOCK_RECORD
  5
171
330
1
100
AcDbSymbolTableRecord
100
AcDbBlockTableRecord
  2
*D5
340
0
  0
BLOCK_RECORD
  5
187
330
1
100
AcDbSymbolTableRecord
100
AcDbBlockTableRecord
  2
*D6
340
0
  0
BLOCK_RECORD
  5
19D
330
1
100
AcDbSymbolTableRecord
100
AcDbBlockTableRecord
  2
*D7
340
0
  0
BLOCK_RECORD
  5
1B3
330
1
100
AcDbSymbolTableRecord
100
AcDbBlockTableRecord
  2
*D8
340
0
  0
BLOCK_RECORD
  5
1C7
330
1
100
AcDbSymbolTableRecord
100
AcDbBlockTableRecord
  2
*D9
340
0
  0
BLOCK_RECORD
  5
1DD
330
1
100
AcDbSymbolTableRecord
100
AcDbBlockTableRecord
  2
*D10
340
0
  0
BLOCK_RECORD
  5
1F1
330
1
100
AcDbSymbolTableRecord
100
AcDbBlockTableRecord
  2
*D11
340
0
  0
BLOCK_RECORD
  5
205
330
1
100
AcDbSymbolTableRecord
100
AcDbBlockTableRecord
  2
*D12
340
0
  0
BLOCK_RECORD
  5
219
330
1
100
AcDbSymbolTableRecord
100
AcDbBlockTableRecord
  2
*D13
340
0
  0
BLOCK_RECORD
  5
22D
330
1
100
AcDbSymbolTableRecord
100
AcDbBlockTableRecord
  2
*D14
340
0
  0
BLOCK_RECORD
  5
241
330
1
100
AcDbSymbolTableRecord
100
AcDbBlockTableRecord
  2
*D15
340
0
  0
BLOCK_RECORD
  5
256
330
1
100
AcDbSymbolTableRecord
100
AcDbBlockTableRecord
  2
*D16
340
0
  0
BLOCK_RECORD
  5
269
330
1
100
AcDbSymbolTableRecord
100
AcDbBlockTableRecord
  2
*D17
340
0
  0
BLOCK_RECORD
  5
27B
330
1
100
AcDbSymbolTableRecord
100
AcDbBlockTableRecord
  2
SW_CENTERMARKSYMBOL_0
340
0
102
{BLKREFS
331
286
102
}
  0
BLOCK_RECORD
  5
287
330
1
100
AcDbSymbolTableRecord
100
AcDbBlockTableRecord
  2
SW_CENTERMARKSYMBOL_1
340
0
102
{BLKREFS
331
292
102
}
  0
BLOCK_RECORD
  5
293
330
1
100
AcDbSymbolTableRecord
100
AcDbBlockTableRecord
  2
SW_CENTERMARKSYMBOL_2
340
0
102
{BLKREFS
331
29E
102
}
  0
BLOCK_RECORD
  5
29F
330
1
100
AcDbSymbolTableRecord
100
AcDbBlockTableRecord
  2
SW_CENTERMARKSYMBOL_3
340
0
102
{BLKREFS
331
2AA
102
}
  0
BLOCK_RECORD
  5
2AB
330
1
100
AcDbSymbolTableRecord
100
AcDbBlockTableRecord
  2
SW_CENTERMARKSYMBOL_4
340
0
102
{BLKREFS
331
2B6
102
}
  0
BLOCK_RECORD
  5
2B7
330
1
100
AcDbSymbolTableRecord
100
AcDbBlockTableRecord
  2
SW_CENTERMARKSYMBOL_5
340
0
102
{BLKREFS
331
2C2
102
}
  0
BLOCK_RECORD
  5
2C3
330
1
100
AcDbSymbolTableRecord
100
AcDbBlockTableRecord
  2
SW_CENTERMARKSYMBOL_6
340
0
102
{BLKREFS
331
2CE
102
}
  0
BLOCK_RECORD
  5
2CF
330
1
100
AcDbSymbolTableRecord
100
AcDbBlockTableRecord
  2
SW_CENTERMARKSYMBOL_7
340
0
102
{BLKREFS
331
2DA
102
}
  0
BLOCK_RECORD
  5
2DB
330
1
100
AcDbSymbolTableRecord
100
AcDbBlockTableRecord
  2
SW_CENTERMARKSYMBOL_8
340
0
102
{BLKREFS
331
2E6
102
}
  0
BLOCK_RECORD
  5
2E7
330
1
100
AcDbSymbolTableRecord
100
AcDbBlockTableRecord
  2
SW_CENTERMARKSYMBOL_9
340
0
102
{BLKREFS
331
2F2
102
}
  0
BLOCK_RECORD
  5
2F3
330
1
100
AcDbSymbolTableRecord
100
AcDbBlockTableRecord
  2
SW_CENTERMARKSYMBOL_10
340
0
102
{BLKREFS
331
2FE
102
}
  0
BLOCK_RECORD
  5
39B
330
1
100
AcDbSymbolTableRecord
100
AcDbBlockTableRecord
  2
*D29
340
0
  0
BLOCK_RECORD
  5
3B0
330
1
100
AcDbSymbolTableRecord
100
AcDbBlockTableRecord
  2
*D30
340
0
  0
BLOCK_RECORD
  5
3C8
330
1
100
AcDbSymbolTableRecord
100
AcDbBlockTableRecord
  2
*D31
340
0
  0
BLOCK_RECORD
  5
3DF
330
1
100
AcDbSymbolTableRecord
100
AcDbBlockTableRecord
  2
*D32
340
0
  0
BLOCK_RECORD
  5
3F7
330
1
100
AcDbSymbolTableRecord
100
AcDbBlockTableRecord
  2
*D33
340
0
  0
BLOCK_RECORD
  5
40A
330
1
100
AcDbSymbolTableRecord
100
AcDbBlockTableRecord
  2
*D34
340
0
  0
BLOCK_RECORD
  5
41F
330
1
100
AcDbSymbolTableRecord
100
AcDbBlockTableRecord
  2
*D35
340
0
  0
BLOCK_RECORD
  5
432
330
1
100
AcDbSymbolTableRecord
100
AcDbBlockTableRecord
  2
*D36
340
0
  0
BLOCK_RECORD
  5
446
330
1
100
AcDbSymbolTableRecord
100
AcDbBlockTableRecord
  2
*D37
340
0
  0
BLOCK_RECORD
  5
45A
330
1
100
AcDbSymbolTableRecord
100
AcDbBlockTableRecord
  2
*D38
340
0
  0
BLOCK_RECORD
  5
46E
330
1
100
AcDbSymbolTableRecord
100
AcDbBlockTableRecord
  2
*D39
340
0
  0
BLOCK_RECORD
  5
482
330
1
100
AcDbSymbolTableRecord
100
AcDbBlockTableRecord
  2
*D40
340
0
  0
BLOCK_RECORD
  5
499
330
1
100
AcDbSymbolTableRecord
100
AcDbBlockTableRecord
  2
*D41
340
0
  0
BLOCK_RECORD
  5
4AE
330
1
100
AcDbSymbolTableRecord
100
AcDbBlockTableRecord
  2
SW_CENTERMARKSYMBOL_11
340
0
102
{BLKREFS
331
4B9
102
}
  0
ENDTAB
  0
ENDSEC
  0
SECTION
  2
BLOCKS
  0
BLOCK
  5
20
330
1F
100
AcDbEntity
  8
0
100
AcDbBlockBegin
  2
*Model_Space
 70
     0
 71
     0
 10
0.0
 20
0.0
 30
0.0
  3
*Model_Space
  1

  0
ENDBLK
  5
21
330
1F
100
AcDbEntity
  8
0
100
AcDbBlockEnd
  0
BLOCK
  5
1C
330
1B
100
AcDbEntity
 67
     1
  8
0
100
AcDbBlockBegin
  2
*Paper_Space
 70
     0
 71
     0
 10
0.0
 20
0.0
 30
0.0
  3
*Paper_Space
  1

  0
ENDBLK
  5
1D
330
1B
100
AcDbEntity
 67
     1
  8
0
100
AcDbBlockEnd
  0
BLOCK
  5
24
330
23
100
AcDbEntity
  8
0
100
AcDbBlockBegin
  2
*Paper_Space0
 70
     0
 71
     0
 10
0.0
 20
0.0
 30
0.0
  3
*Paper_Space0
  1

  0
ENDBLK
  5
25
330
23
100
AcDbEntity
  8
0
100
AcDbBlockEnd
  0
BLOCK
  5
13B
330
131
100
AcDbEntity
  8
0
100
AcDbBlockBegin
  2
*D1
 70
     1
 71
     0
 10
0.0
 20
0.0
 30
0.0
  3
*D1
  1

  0
INSERT
  5
144
330
131
100
AcDbEntity
  8
0
  6
Continuous
 62
     7
370
     0
100
AcDbBlockReference
  2
_Open30
 10
55.3731352416
 20
130.9190962442
 30
-13.3000515395
 41
3.0
 42
3.0
 50
180.0
  0
INSERT
  5
145
330
131
100
AcDbEntity
  8
0
  6
Continuous
 62
     7
370
     0
100
AcDbBlockReference
  2
_Open30
 10
79.3731352416
 20
130.9190962442
 30
-13.3000515395
 41
3.0
 42
3.0
 50
360.0
  0
LINE
  5
146
330
131
100
AcDbEntity
  8
0
  6
Continuous
 62
     7
370
     0
100
AcDbLine
 10
55.3731352416
 20
143.3206929062
 30
0.0
 11
55.3731352416
 21
129.9190962442
 31
0.0
  0
LINE
  5
147
330
131
100
AcDbEntity
  8
0
  6
Continuous
 62
     7
370
     0
100
AcDbLine
 10
79.3731352416
 20
143.3206929062
 30
0.0
 11
79.3731352416
 21
129.9190962442
 31
0.0
  0
LINE
  5
148
330
131
100
AcDbEntity
  8
0
  6
Continuous
 62
     7
370
     0
100
AcDbLine
 10
55.3731352416
 20
130.9190962442
 30
0.0
 11
79.3731352416
 21
130.9190962442
 31
0.0
  0
MTEXT
  5
149
330
131
100
AcDbEntity
  8
0
  6
Continuous
 62
     7
370
     0
100
AcDbMText
 10
65.3373156561
 20
134.991823284
 30
0.0
 40
3.5
 41
0.0
 71
     1
 72
     1
  1
24
  7
SLDTEXTSTYLE0
 73
     1
 44
1.0
  0
ENDBLK
  5
13C
330
131
100
AcDbEntity
  8
0
100
AcDbBlockEnd
  0
BLOCK
  5
13F
330
13E
100
AcDbEntity
  8
0
100
AcDbBlockBegin
  2
_Open30
 70
     0
 71
     0
 10
0.0
 20
0.0
 30
0.0
  3
_Open30
  1

  0
LINE
  5
141
330
13E
100
AcDbEntity
  8
0
  6
ByBlock
 62
     0
370
    -2
100
AcDbLine
 10
-1.0
 20
0.267949
 30
0.0
 11
0.0
 21
0.0
 31
0.0
  0
LINE
  5
142
330
13E
100
AcDbEntity
  8
0
  6
ByBlock
 62
     0
370
    -2
100
AcDbLine
 10
0.0
 20
0.0
 30
0.0
 11
-1.0
 21
-0.267949
 31
0.0
  0
LINE
  5
143
330
13E
100
AcDbEntity
  8
0
  6
ByBlock
 62
     0
370
    -2
100
AcDbLine
 10
0.0
 20
0.0
 30
0.0
 11
-1.0
 21
0.0
 31
0.0
  0
ENDBLK
  5
140
330
13E
100
AcDbEntity
  8
0
100
AcDbBlockEnd
  0
BLOCK
  5
155
330
14B
100
AcDbEntity
  8
0
100
AcDbBlockBegin
  2
*D3
 70
     1
 71
     0
 10
0.0
 20
0.0
 30
0.0
  3
*D3
  1

  0
INSERT
  5
157
330
14B
100
AcDbEntity
  8
0
  6
Continuous
 62
     7
370
     0
100
AcDbBlockReference
  2
_Open30
 10
52.3731352416
 20
124.1625397694
 30
-13.3000515395
 41
3.0
 42
3.0
 50
180.0
  0
INSERT
  5
158
330
14B
100
AcDbEntity
  8
0
  6
Continuous
 62
     7
370
     0
100
AcDbBlockReference
  2
_Open30
 10
82.3731352416
 20
124.1625397694
 30
-13.3000515395
 41
3.0
 42
3.0
 50
360.0
  0
LINE
  5
159
330
14B
100
AcDbEntity
  8
0
  6
Continuous
 62
     7
370
     0
100
AcDbLine
 10
52.3731352416
 20
159.5706929062
 30
0.0
 11
52.3731352416
 21
123.1625397694
 31
0.0
  0
LINE
  5
15A
330
14B
100
AcDbEntity
  8
0
  6
Continuous
 62
     7
370
     0
100
AcDbLine
 10
82.3731352416
 20
159.5706929062
 30
0.0
 11
82.3731352416
 21
123.1625397694
 31
0.0
  0
LINE
  5
15B
330
14B
100
AcDbEntity
  8
0
  6
Continuous
 62
     7
370
     0
100
AcDbLine
 10
52.3731352416
 20
124.1625397694
 30
0.0
 11
82.3731352416
 21
124.1625397694
 31
0.0
  0
MTEXT
  5
15C
330
14B
100
AcDbEntity
  8
0
  6
Continuous
 62
     7
370
     0
100
AcDbMText
 10
65.3373156561
 20
128.2352668093
 30
0.0
 40
3.5
 41
0.0
 71
     1
 72
     1
  1
30
  7
SLDTEXTSTYLE0
 73
     1
 44
1.0
  0
ENDBLK
  5
156
330
14B
100
AcDbEntity
  8
0
100
AcDbBlockEnd
  0
BLOCK
  5
168
330
15E
100
AcDbEntity
  8
0
100
AcDbBlockBegin
  2
*D4
 70
     1
 71
     0
 10
0.0
 20
0.0
 30
0.0
  3
*D4
  1

  0
INSERT
  5
16A
330
15E
100
AcDbEntity
  8
0
  6
Continuous
 62
     7
370
     0
100
AcDbBlockReference
  2
_Open30
 10
47.3731352416
 20
117.5792283324
 30
-13.3000515395
 41
3.0
 42
3.0
 50
180.0
  0
INSERT
  5
16B
330
15E
100
AcDbEntity
  8
0
  6
Continuous
 62
     7
370
     0
100
AcDbBlockReference
  2
_Open30
 10
87.3731352416
 20
117.5792283324
 30
-13.3000515395
 41
3.0
 42
3.0
 50
0.0
  0
LINE
  5
16C
330
15E
100
AcDbEntity
  8
0
  6
Continuous
 62
     7
370
     0
100
AcDbLine
 10
47.3731352416
 20
145.3206929062
 30
0.0
 11
47.3731352416
 21
116.5792283324
 31
0.0
  0
LINE
  5
16D
330
15E
100
AcDbEntity
  8
0
  6
Continuous
 62
     7
370
     0
100
AcDbLine
 10
87.3731352416
 20
145.3206929062
 30
0.0
 11
87.3731352416
 21
116.5792283324
 31
0.0
  0
LINE
  5
16E
330
15E
100
AcDbEntity
  8
0
  6
Continuous
 62
     7
370
     0
100
AcDbLine
 10
47.3731352416
 20
117.5792283324
 30
0.0
 11
87.3731352416
 21
117.5792283324
 31
0.0
  0
MTEXT
  5
16F
330
15E
100
AcDbEntity
  8
0
  6
Continuous
 62
     7
370
     0
100
AcDbMText
 10
65.3373156561
 20
121.6519553723
 30
0.0
 40
3.5
 41
0.0
 71
     1
 72
     1
  1
40
  7
SLDTEXTSTYLE0
 73
     1
 44
1.0
  0
ENDBLK
  5
169
330
15E
100
AcDbEntity
  8
0
100
AcDbBlockEnd
  0
BLOCK
  5
17C
330
171
100
AcDbEntity
  8
0
100
AcDbBlockBegin
  2
*D5
 70
     1
 71
     0
 10
0.0
 20
0.0
 30
0.0
  3
*D5
  1

  0
INSERT
  5
17E
330
171
100
AcDbEntity
  8
0
  6
Continuous
 62
     7
370
     0
100
AcDbBlockReference
  2
_Open30
 10
33.1262636864
 20
145.3206929062
 30
-13.3000515395
 41
3.0
 42
3.0
 50
90.0
  0
INSERT
  5
17F
330
171
100
AcDbEntity
  8
0
  6
Continuous
 62
     7
370
     0
100
AcDbBlockReference
  2
_Open30
 10
33.1262636864
 20
159.3206929062
 30
-13.3000515395
 41
3.0
 42
3.0
 50
270.0
  0
LINE
  5
180
330
171
100
AcDbEntity
  8
0
  6
Continuous
 62
     7
370
     0
100
AcDbLine
 10
47.3731352416
 20
145.3206929062
 30
0.0
 11
32.1262636864
 21
145.3206929062
 31
0.0
  0
LINE
  5
181
330
171
100
AcDbEntity
  8
0
  6
Continuous
 62
     7
370
     0
100
AcDbLine
 10
47.3731352416
 20
159.3206929062
 30
0.0
 11
32.1262636864
 21
159.3206929062
 31
0.0
  0
LINE
  5
182
330
171
100
AcDbEntity
  8
0
  6
Continuous
 62
     7
370
     0
100
AcDbLine
 10
33.1262636864
 20
145.3206929062
 30
0.0
 11
33.1262636864
 21
140.3206929062
 31
0.0
  0
LINE
  5
183
330
171
100
AcDbEntity
  8
0
  6
Continuous
 62
     7
370
     0
100
AcDbLine
 10
33.1262636864
 20
145.3206929062
 30
0.0
 11
33.1262636864
 21
159.3206929062
 31
0.0
  0
LINE
  5
184
330
171
100
AcDbEntity
  8
0
  6
Continuous
 62
     7
370
     0
100
AcDbLine
 10
33.1262636864
 20
159.3206929062
 30
0.0
 11
33.1262636864
 21
164.3206929062
 31
0.0
  0
MTEXT
  5
185
330
171
100
AcDbEntity
  8
0
  6
Continuous
 62
     7
370
     0
100
AcDbMText
 10
29.0535366465
 20
150.2848733207
 30
0.0
 40
3.5
 41
0.0
 71
     1
 72
     1
  1
14
  7
SLDTEXTSTYLE0
 11
6.123031769111886E-17
 21
1.0
 31
0.0
 73
     1
 44
1.0
  0
ENDBLK
  5
17D
330
171
100
AcDbEntity
  8
0
100
AcDbBlockEnd
  0
BLOCK
  5
192
330
187
100
AcDbEntity
  8
0
100
AcDbBlockBegin
  2
*D6
 70
     1
 71
     0
 10
0.0
 20
0.0
 30
0.0
  3
*D6
  1

  0
INSERT
  5
194
330
187
100
AcDbEntity
  8
0
  6
Continuous
 62
     7
370
     0
100
AcDbBlockReference
  2
_Open30
 10
33.1262636864
 20
159.3206929062
 30
-13.3000515395
 41
3.0
 42
3.0
 50
90.0
  0
INSERT
  5
195
330
187
100
AcDbEntity
  8
0
  6
Continuous
 62
     7
370
     0
100
AcDbBlockReference
  2
_Open30
 10
33.1262636864
 20
169.8206929062
 30
-13.3000515395
 41
3.0
 42
3.0
 50
270.0
  0
LINE
  5
196
330
187
100
AcDbEntity
  8
0
  6
Continuous
 62
     7
370
     0
100
AcDbLine
 10
47.3731352416
 20
159.3206929062
 30
0.0
 11
32.1262636864
 21
159.3206929062
 31
0.0
  0
LINE
  5
197
330
187
100
AcDbEntity
  8
0
  6
Continuous
 62
     7
370
     0
100
AcDbLine
 10
46.3731352416
 20
169.8206929062
 30
0.0
 11
32.1262636864
 21
169.8206929062
 31
0.0
  0
LINE
  5
198
330
187
100
AcDbEntity
  8
0
  6
Continuous
 62
     7
370
     0
100
AcDbLine
 10
33.1262636864
 20
159.3206929062
 30
0.0
 11
33.1262636864
 21
154.3206929062
 31
0.0
  0
LINE
  5
199
330
187
100
AcDbEntity
  8
0
  6
Continuous
 62
     7
370
     0
100
AcDbLine
 10
33.1262636864
 20
159.3206929062
 30
0.0
 11
33.1262636864
 21
169.8206929062
 31
0.0
  0
LINE
  5
19A
330
187
100
AcDbEntity
  8
0
  6
Continuous
 62
     7
370
     0
100
AcDbLine
 10
33.1262636864
 20
169.8206929062
 30
0.0
 11
33.1262636864
 21
174.8206929062
 31
0.0
  0
MTEXT
  5
19B
330
187
100
AcDbEntity
  8
0
  6
Continuous
 62
     7
370
     0
100
AcDbMText
 10
29.0535366465
 20
160.4974840979
 30
0.0
 40
3.5
 41
0.0
 71
     1
 72
     1
  1
10.5
  7
SLDTEXTSTYLE0
 11
6.123031769111886E-17
 21
1.0
 31
0.0
 73
     1
 44
1.0
  0
ENDBLK
  5
193
330
187
100
AcDbEntity
  8
0
100
AcDbBlockEnd
  0
BLOCK
  5
1A8
330
19D
100
AcDbEntity
  8
0
100
AcDbBlockBegin
  2
*D7
 70
     1
 71
     0
 10
0.0
 20
0.0
 30
0.0
  3
*D7
  1

  0
INSERT
  5
1AA
330
19D
100
AcDbEntity
  8
0
  6
Continuous
 62
     7
370
     0
100
AcDbBlockReference
  2
_Open30
 10
33.1262636864
 20
169.8206929062
 30
-13.3000515395
 41
3.0
 42
3.0
 50
90.0
  0
INSERT
  5
1AB
330
19D
100
AcDbEntity
  8
0
  6
Continuous
 62
     7
370
     0
100
AcDbBlockReference
  2
_Open30
 10
33.1262636864
 20
183.8206929062
 30
-13.3000515395
 41
3.0
 42
3.0
 50
270.0
  0
LINE
  5
1AC
330
19D
100
AcDbEntity
  8
0
  6
Continuous
 62
     7
370
     0
100
AcDbLine
 10
46.3731352416
 20
169.8206929062
 30
0.0
 11
32.1262636864
 21
169.8206929062
 31
0.0
  0
LINE
  5
1AD
330
19D
100
AcDbEntity
  8
0
  6
Continuous
 62
     7
370
     0
100
AcDbLine
 10
46.3731352416
 20
183.8206929062
 30
0.0
 11
32.1262636864
 21
183.8206929062
 31
0.0
  0
LINE
  5
1AE
330
19D
100
AcDbEntity
  8
0
  6
Continuous
 62
     7
370
     0
100
AcDbLine
 10
33.1262636864
 20
169.8206929062
 30
0.0
 11
33.1262636864
 21
164.8206929062
 31
0.0
  0
LINE
  5
1AF
330
19D
100
AcDbEntity
  8
0
  6
Continuous
 62
     7
370
     0
100
AcDbLine
 10
33.1262636864
 20
169.8206929062
 30
0.0
 11
33.1262636864
 21
183.8206929062
 31
0.0
  0
LINE
  5
1B0
330
19D
100
AcDbEntity
  8
0
  6
Continuous
 62
     7
370
     0
100
AcDbLine
 10
33.1262636864
 20
183.8206929062
 30
0.0
 11
33.1262636864
 21
188.8206929062
 31
0.0
  0
MTEXT
  5
1B1
330
19D
100
AcDbEntity
  8
0
  6
Continuous
 62
     7
370
     0
100
AcDbMText
 10
29.0535366465
 20
174.7848733207
 30
0.0
 40
3.5
 41
0.0
 71
     1
 72
     1
  1
14
  7
SLDTEXTSTYLE0
 11
2.959316277272028E-14
 21
1.0
 31
0.0
 73
     1
 44
1.0
  0
ENDBLK
  5
1A9
330
19D
100
AcDbEntity
  8
0
100
AcDbBlockEnd
  0
BLOCK
  5
1BE
330
1B3
100
AcDbEntity
  8
0
100
AcDbBlockBegin
  2
*D8
 70
     1
 71
     0
 10
0.0
 20
0.0
 30
0.0
  3
*D8
  1

  0
INSERT
  5
1C0
330
1B3
100
AcDbEntity
  8
0
  6
Continuous
 62
     7
370
     0
100
AcDbBlockReference
  2
_Open30
 10
33.1262636864
 20
183.8206929062
 30
-13.3000515395
 41
3.0
 42
3.0
 50
270.0
  0
INSERT
  5
1C1
330
1B3
100
AcDbEntity
  8
0
  6
Continuous
 62
     7
370
     0
100
AcDbBlockReference
  2
_Open30
 10
33.1262636864
 20
227.8206929062
 30
-13.3000515395
 41
3.0
 42
3.0
 50
90.0
  0
LINE
  5
1C2
330
1B3
100
AcDbEntity
  8
0
  6
Continuous
 62
     7
370
     0
100
AcDbLine
 10
49.3731352416
 20
183.8206929062
 30
0.0
 11
32.1262636864
 21
183.8206929062
 31
0.0
  0
LINE
  5
1C3
330
1B3
100
AcDbEntity
  8
0
  6
Continuous
 62
     7
370
     0
100
AcDbLine
 10
58.3731352416
 20
227.8206929062
 30
0.0
 11
32.1262636864
 21
227.8206929062
 31
0.0
  0
LINE
  5
1C4
330
1B3
100
AcDbEntity
  8
0
  6
Continuous
 62
     7
370
     0
100
AcDbLine
 10
33.1262636864
 20
183.8206929062
 30
0.0
 11
33.1262636864
 21
227.8206929062
 31
0.0
  0
MTEXT
  5
1C5
330
1B3
100
AcDbEntity
  8
0
  6
Continuous
 62
     7
370
     0
100
AcDbMText
 10
29.0535366465
 20
203.7848733207
 30
0.0
 40
3.5
 41
0.0
 71
     1
 72
     1
  1
44
  7
SLDTEXTSTYLE0
 11
2.832749226161502E-16
 21
1.0
 31
0.0
 73
     1
 44
1.0
  0
ENDBLK
  5
1BF
330
1B3
100
AcDbEntity
  8
0
100
AcDbBlockEnd
  0
BLOCK
  5
1D2
330
1C7
100
AcDbEntity
  8
0
100
AcDbBlockBegin
  2
*D9
 70
     1
 71
     0
 10
0.0
 20
0.0
 30
0.0
  3
*D9
  1

  0
INSERT
  5
1D4
330
1C7
100
AcDbEntity
  8
0
  6
Continuous
 62
     7
370
     0
100
AcDbBlockReference
  2
_Open30
 10
104.3216491685
 20
151.8206929062
 30
-13.3000515395
 41
3.0
 42
3.0
 50
90.0
  0
INSERT
  5
1D5
330
1C7
100
AcDbEntity
  8
0
  6
Continuous
 62
     7
370
     0
100
AcDbBlockReference
  2
_Open30
 10
104.3216491685
 20
164.3206929062
 30
-13.3000515395
 41
3.0
 42
3.0
 50
270.0
  0
LINE
  5
1D6
330
1C7
100
AcDbEntity
  8
0
  6
Continuous
 62
     7
370
     0
100
AcDbLine
 10
87.8731352416
 20
151.8206929062
 30
0.0
 11
105.3216491685
 21
151.8206929062
 31
0.0
  0
LINE
  5
1D7
330
1C7
100
AcDbEntity
  8
0
  6
Continuous
 62
     7
370
     0
100
AcDbLine
 10
87.1231352416
 20
164.3206929062
 30
0.0
 11
105.3216491685
 21
164.3206929062
 31
0.0
  0
LINE
  5
1D8
330
1C7
100
AcDbEntity
  8
0
  6
Continuous
 62
     7
370
     0
100
AcDbLine
 10
104.3216491685
 20
151.8206929062
 30
0.0
 11
104.3216491685
 21
146.8206929062
 31
0.0
  0
LINE
  5
1D9
330
1C7
100
AcDbEntity
  8
0
  6
Continuous
 62
     7
370
     0
100
AcDbLine
 10
104.3216491685
 20
151.8206929062
 30
0.0
 11
104.3216491685
 21
164.3206929062
 31
0.0
  0
LINE
  5
1DA
330
1C7
100
AcDbEntity
  8
0
  6
Continuous
 62
     7
370
     0
100
AcDbLine
 10
104.3216491685
 20
164.3206929062
 30
0.0
 11
104.3216491685
 21
169.3206929062
 31
0.0
  0
MTEXT
  5
1DB
330
1C7
100
AcDbEntity
  8
0
  6
Continuous
 62
     7
370
     0
100
AcDbMText
 10
100.2489221286
 20
153.997484098
 30
0.0
 40
3.5
 41
0.0
 71
     1
 72
     1
  1
12.5
  7
SLDTEXTSTYLE0
 11
6.123031769111886E-17
 21
1.0
 31
0.0
 73
     1
 44
1.0
  0
ENDBLK
  5
1D3
330
1C7
100
AcDbEntity
  8
0
100
AcDbBlockEnd
  0
BLOCK
  5
1E8
330
1DD
100
AcDbEntity
  8
0
100
AcDbBlockBegin
  2
*D10
 70
     1
 71
     0
 10
0.0
 20
0.0
 30
0.0
  3
*D10
  1

  0
INSERT
  5
1EA
330
1DD
100
AcDbEntity
  8
0
  6
Continuous
 62
     7
370
     0
100
AcDbBlockReference
  2
_Open30
 10
104.3216491685
 20
164.3206929062
 30
-13.3000515395
 41
3.0
 42
3.0
 50
270.0
  0
INSERT
  5
1EB
330
1DD
100
AcDbEntity
  8
0
  6
Continuous
 62
     7
370
     0
100
AcDbBlockReference
  2
_Open30
 10
104.3216491685
 20
202.8206929062
 30
-13.3000515395
 41
3.0
 42
3.0
 50
90.0
  0
LINE
  5
1EC
330
1DD
100
AcDbEntity
  8
0
  6
Continuous
 62
     7
370
     0
100
AcDbLine
 10
87.1231352416
 20
164.3206929062
 30
0.0
 11
105.3216491685
 21
164.3206929062
 31
0.0
  0
LINE
  5
1ED
330
1DD
100
AcDbEntity
  8
0
  6
Continuous
 62
     7
370
     0
100
AcDbLine
 10
94.8731352416
 20
202.8206929062
 30
0.0
 11
105.3216491685
 21
202.8206929062
 31
0.0
  0
LINE
  5
1EE
330
1DD
100
AcDbEntity
  8
0
  6
Continuous
 62
     7
370
     0
100
AcDbLine
 10
104.3216491685
 20
164.3206929062
 30
0.0
 11
104.3216491685
 21
202.8206929062
 31
0.0
  0
MTEXT
  5
1EF
330
1DD
100
AcDbEntity
  8
0
  6
Continuous
 62
     7
370
     0
100
AcDbMText
 10
100.2489221286
 20
179.497484098
 30
0.0
 40
3.5
 41
0.0
 71
     1
 72
     1
  1
38.5
  7
SLDTEXTSTYLE0
 11
6.123031769111886E-17
 21
1.0
 31
0.0
 73
     1
 44
1.0
  0
ENDBLK
  5
1E9
330
1DD
100
AcDbEntity
  8
0
100
AcDbBlockEnd
  0
BLOCK
  5
1FC
330
1F1
100
AcDbEntity
  8
0
100
AcDbBlockBegin
  2
*D11
 70
     1
 71
     0
 10
0.0
 20
0.0
 30
0.0
  3
*D11
  1

  0
INSERT
  5
1FE
330
1F1
100
AcDbEntity
  8
0
  6
Continuous
 62
     7
370
     0
100
AcDbBlockReference
  2
_Open30
 10
104.3216491685
 20
202.8206929062
 30
-13.3000515395
 41
3.0
 42
3.0
 50
270.0
  0
INSERT
  5
1FF
330
1F1
100
AcDbEntity
  8
0
  6
Continuous
 62
     7
370
     0
100
AcDbBlockReference
  2
_Open30
 10
104.3216491685
 20
239.3206929062
 30
-13.3000515395
 41
3.0
 42
3.0
 50
90.0
  0
LINE
  5
200
330
1F1
100
AcDbEntity
  8
0
  6
Continuous
 62
     7
370
     0
100
AcDbLine
 10
94.8731352416
 20
202.8206929062
 30
0.0
 11
105.3216491685
 21
202.8206929062
 31
0.0
  0
LINE
  5
201
330
1F1
100
AcDbEntity
  8
0
  6
Continuous
 62
     7
370
     0
100
AcDbLine
 10
92.6231352416
 20
239.3206929062
 30
0.0
 11
105.3216491685
 21
239.3206929062
 31
0.0
  0
LINE
  5
202
330
1F1
100
AcDbEntity
  8
0
  6
Continuous
 62
     7
370
     0
100
AcDbLine
 10
104.3216491685
 20
202.8206929062
 30
0.0
 11
104.3216491685
 21
239.3206929062
 31
0.0
  0
MTEXT
  5
203
330
1F1
100
AcDbEntity
  8
0
  6
Continuous
 62
     7
370
     0
100
AcDbMText
 10
100.2489221286
 20
216.997484098
 30
0.0
 40
3.5
 41
0.0
 71
     1
 72
     1
  1
36.5
  7
SLDTEXTSTYLE0
 11
6.123031769111886E-17
 21
1.0
 31
0.0
 73
     1
 44
1.0
  0
ENDBLK
  5
1FD
330
1F1
100
AcDbEntity
  8
0
100
AcDbBlockEnd
  0
BLOCK
  5
210
330
205
100
AcDbEntity
  8
0
100
AcDbBlockBegin
  2
*D12
 70
     1
 71
     0
 10
0.0
 20
0.0
 30
0.0
  3
*D12
  1

  0
INSERT
  5
212
330
205
100
AcDbEntity
  8
0
  6
Continuous
 62
     7
370
     0
100
AcDbBlockReference
  2
_Open30
 10
111.9183877775
 20
145.3206929062
 30
-13.3000515395
 41
3.0
 42
3.0
 50
270.0
  0
INSERT
  5
213
330
205
100
AcDbEntity
  8
0
  6
Continuous
 62
     7
370
     0
100
AcDbBlockReference
  2
_Open30
 10
111.9183877775
 20
164.3206929062
 30
-13.3000515395
 41
3.0
 42
3.0
 50
90.0
  0
LINE
  5
214
330
205
100
AcDbEntity
  8
0
  6
Continuous
 62
     7
370
     0
100
AcDbLine
 10
91.3731352416
 20
145.3206929062
 30
0.0
 11
112.9183877775
 21
145.3206929062
 31
0.0
  0
LINE
  5
215
330
205
100
AcDbEntity
  8
0
  6
Continuous
 62
     7
370
     0
100
AcDbLine
 10
87.1231352416
 20
164.3206929062
 30
0.0
 11
112.9183877775
 21
164.3206929062
 31
0.0
  0
LINE
  5
216
330
205
100
AcDbEntity
  8
0
  6
Continuous
 62
     7
370
     0
100
AcDbLine
 10
111.9183877775
 20
145.3206929062
 30
0.0
 11
111.9183877775
 21
164.3206929062
 31
0.0
  0
MTEXT
  5
217
330
205
100
AcDbEntity
  8
0
  6
Continuous
 62
     7
370
     0
100
AcDbMText
 10
107.8456607376
 20
152.7848733207
 30
0.0
 40
3.5
 41
0.0
 71
     1
 72
     1
  1
19
  7
SLDTEXTSTYLE0
 11
6.123031769111886E-17
 21
1.0
 31
0.0
 73
     1
 44
1.0
  0
ENDBLK
  5
211
330
205
100
AcDbEntity
  8
0
100
AcDbBlockEnd
  0
BLOCK
  5
224
330
219
100
AcDbEntity
  8
0
100
AcDbBlockBegin
  2
*D13
 70
     1
 71
     0
 10
0.0
 20
0.0
 30
0.0
  3
*D13
  1

  0
INSERT
  5
226
330
219
100
AcDbEntity
  8
0
  6
Continuous
 62
     7
370
     0
100
AcDbBlockReference
  2
_Open30
 10
111.9183877775
 20
164.3206929062
 30
-13.3000515395
 41
3.0
 42
3.0
 50
270.0
  0
INSERT
  5
227
330
219
100
AcDbEntity
  8
0
  6
Continuous
 62
     7
370
     0
100
AcDbBlockReference
  2
_Open30
 10
111.9183877775
 20
239.3206929062
 30
-13.3000515395
 41
3.0
 42
3.0
 50
90.0
  0
LINE
  5
228
330
219
100
AcDbEntity
  8
0
  6
Continuous
 62
     7
370
     0
100
AcDbLine
 10
87.1231352416
 20
164.3206929062
 30
0.0
 11
112.9183877775
 21
164.3206929062
 31
0.0
  0
LINE
  5
229
330
219
100
AcDbEntity
  8
0
  6
Continuous
 62
     7
370
     0
100
AcDbLine
 10
92.6231352416
 20
239.3206929062
 30
0.0
 11
112.9183877775
 21
239.3206929062
 31
0.0
  0
LINE
  5
22A
330
219
100
AcDbEntity
  8
0
  6
Continuous
 62
     7
370
     0
100
AcDbLine
 10
111.9183877775
 20
164.3206929062
 30
0.0
 11
111.9183877775
 21
239.3206929062
 31
0.0
  0
MTEXT
  5
22B
330
219
100
AcDbEntity
  8
0
  6
Continuous
 62
     7
370
     0
100
AcDbMText
 10
107.8456607376
 20
199.7848733207
 30
0.0
 40
3.5
 41
0.0
 71
     1
 72
     1
  1
75
  7
SLDTEXTSTYLE0
 11
6.123031769111886E-17
 21
1.0
 31
0.0
 73
     1
 44
1.0
  0
ENDBLK
  5
225
330
219
100
AcDbEntity
  8
0
100
AcDbBlockEnd
  0
BLOCK
  5
238
330
22D
100
AcDbEntity
  8
0
100
AcDbBlockBegin
  2
*D14
 70
     1
 71
     0
 10
0.0
 20
0.0
 30
0.0
  3
*D14
  1

  0
INSERT
  5
23A
330
22D
100
AcDbEntity
  8
0
  6
Continuous
 62
     7
370
     0
100
AcDbBlockReference
  2
_Open30
 10
119.3333020692
 20
145.3206929062
 30
-13.3000515395
 41
3.0
 42
3.0
 50
270.0
  0
INSERT
  5
23B
330
22D
100
AcDbEntity
  8
0
  6
Continuous
 62
     7
370
     0
100
AcDbBlockReference
  2
_Open30
 10
119.3333020692
 20
249.3206929062
 30
-13.3000515395
 41
3.0
 42
3.0
 50
90.0
  0
LINE
  5
23C
330
22D
100
AcDbEntity
  8
0
  6
Continuous
 62
     7
370
     0
100
AcDbLine
 10
91.3731352416
 20
145.3206929062
 30
0.0
 11
120.3333020692
 21
145.3206929062
 31
0.0
  0
LINE
  5
23D
330
22D
100
AcDbEntity
  8
0
  6
Continuous
 62
     7
370
     0
100
AcDbLine
 10
91.3731352416
 20
249.3206929062
 30
0.0
 11
120.3333020692
 21
249.3206929062
 31
0.0
  0
LINE
  5
23E
330
22D
100
AcDbEntity
  8
0
  6
Continuous
 62
     7
370
     0
100
AcDbLine
 10
119.3333020692
 20
145.3206929062
 30
0.0
 11
119.3333020692
 21
249.3206929062
 31
0.0
  0
MTEXT
  5
23F
330
22D
100
AcDbEntity
  8
0
  6
Continuous
 62
     7
370
     0
100
AcDbMText
 10
115.2605750293
 20
194.2661787093
 30
0.0
 40
3.5
 41
0.0
 71
     1
 72
     1
  1
104
  7
SLDTEXTSTYLE0
 11
6.123031769111886E-17
 21
1.0
 31
0.0
 73
     1
 44
1.0
  0
ENDBLK
  5
239
330
22D
100
AcDbEntity
  8
0
100
AcDbBlockEnd
  0
BLOCK
  5
24B
330
241
100
AcDbEntity
  8
0
100
AcDbBlockBegin
  2
*D15
 70
     1
 71
     0
 10
0.0
 20
0.0
 30
0.0
  3
*D15
  1

  0
INSERT
  5
24D
330
241
100
AcDbEntity
  8
0
  6
Continuous
 62
     7
370
     0
100
AcDbBlockReference
  2
_Open30
 10
74.8731352416
 20
260.1840357399
 30
-13.3000515395
 41
3.0
 42
3.0
 50
180.0
  0
INSERT
  5
24E
330
241
100
AcDbEntity
  8
0
  6
Continuous
 62
     7
370
     0
100
AcDbBlockReference
  2
_Open30
 10
59.8731352416
 20
260.1840357399
 30
-13.3000515395
 41
3.0
 42
3.0
 50
360.0
  0
LINE
  5
24F
330
241
100
AcDbEntity
  8
0
  6
Continuous
 62
     7
370
     0
100
AcDbLine
 10
74.8731352416
 20
246.1206929062
 30
0.0
 11
74.8731352416
 21
261.1840357399
 31
0.0
  0
LINE
  5
250
330
241
100
AcDbEntity
  8
0
  6
Continuous
 62
     7
370
     0
100
AcDbLine
 10
59.8731352416
 20
246.1206929062
 30
0.0
 11
59.8731352416
 21
261.1840357399
 31
0.0
  0
LINE
  5
251
330
241
100
AcDbEntity
  8
0
  6
Continuous
 62
     7
370
     0
100
AcDbLine
 10
74.8731352416
 20
260.1840357399
 30
0.0
 11
79.8731352416
 21
260.1840357399
 31
0.0
  0
LINE
  5
252
330
241
100
AcDbEntity
  8
0
  6
Continuous
 62
     7
370
     0
100
AcDbLine
 10
74.8731352416
 20
260.1840357399
 30
0.0
 11
59.8731352416
 21
260.1840357399
 31
0.0
  0
LINE
  5
253
330
241
100
AcDbEntity
  8
0
  6
Continuous
 62
     7
370
     0
100
AcDbLine
 10
59.8731352416
 20
260.1840357399
 30
0.0
 11
54.8731352416
 21
260.1840357399
 31
0.0
  0
MTEXT
  5
254
330
241
100
AcDbEntity
  8
0
  6
Continuous
 62
     7
370
     0
100
AcDbMText
 10
65.3373156561
 20
264.2567627798
 30
0.0
 40
3.5
 41
0.0
 71
     1
 72
     1
  1
15
  7
SLDTEXTSTYLE0
 73
     1
 44
1.0
  0
ENDBLK
  5
24C
330
241
100
AcDbEntity
  8
0
100
AcDbBlockEnd
  0
BLOCK
  5
260
330
256
100
AcDbEntity
  8
0
100
AcDbBlockBegin
  2
*D16
 70
     1
 71
     0
 10
0.0
 20
0.0
 30
0.0
  3
*D16
  1

  0
INSERT
  5
262
330
256
100
AcDbEntity
  8
0
  6
Continuous
 62
     7
370
     0
100
AcDbBlockReference
  2
_Open30
 10
48.3731352416
 20
267.5166821692
 30
-13.3000515395
 41
3.0
 42
3.0
 50
180.0
  0
INSERT
  5
263
330
256
100
AcDbEntity
  8
0
  6
Continuous
 62
     7
370
     0
100
AcDbBlockReference
  2
_Open30
 10
86.3731352416
 20
267.5166821692
 30
-13.3000515395
 41
3.0
 42
3.0
 50
360.0
  0
LINE
  5
264
330
256
100
AcDbEntity
  8
0
  6
Continuous
 62
     7
370
     0
100
AcDbLine
 10
48.3731352416
 20
245.5706929062
 30
0.0
 11
48.3731352416
 21
268.5166821692
 31
0.0
  0
LINE
  5
265
330
256
100
AcDbEntity
  8
0
  6
Continuous
 62
     7
370
     0
100
AcDbLine
 10
86.3731352416
 20
245.5706929062
 30
0.0
 11
86.3731352416
 21
268.5166821692
 31
0.0
  0
LINE
  5
266
330
256
100
AcDbEntity
  8
0
  6
Continuous
 62
     7
370
     0
100
AcDbLine
 10
48.3731352416
 20
267.5166821692
 30
0.0
 11
86.3731352416
 21
267.5166821692
 31
0.0
  0
MTEXT
  5
267
330
256
100
AcDbEntity
  8
0
  6
Continuous
 62
     7
370
     0
100
AcDbMText
 10
65.3373156561
 20
271.5894092091
 30
0.0
 40
3.5
 41
0.0
 71
     1
 72
     1
  1
38
  7
SLDTEXTSTYLE0
 73
     1
 44
1.0
  0
ENDBLK
  5
261
330
256
100
AcDbEntity
  8
0
100
AcDbBlockEnd
  0
BLOCK
  5
273
330
269
100
AcDbEntity
  8
0
100
AcDbBlockBegin
  2
*D17
 70
     1
 71
     0
 10
0.0
 20
0.0
 30
0.0
  3
*D17
  1

  0
INSERT
  5
275
330
269
100
AcDbEntity
  8
0
  6
Continuous
 62
     7
370
     0
100
AcDbBlockReference
  2
_Open30
 10
42.3731352416
 20
274.4589276474
 30
-13.3000515395
 41
3.0
 42
3.0
 50
180.0
  0
INSERT
  5
276
330
269
100
AcDbEntity
  8
0
  6
Continuous
 62
     7
370
     0
100
AcDbBlockReference
  2
_Open30
 10
92.3731352416
 20
274.4589276474
 30
-13.3000515395
 41
3.0
 42
3.0
 50
0.0
  0
LINE
  5
277
330
269
100
AcDbEntity
  8
0
  6
Continuous
 62
     7
370
     0
100
AcDbLine
 10
42.3731352416
 20
248.3206929062
 30
0.0
 11
42.3731352416
 21
275.4589276474
 31
0.0
  0
LINE
  5
278
330
269
100
AcDbEntity
  8
0
  6
Continuous
 62
     7
370
     0
100
AcDbLine
 10
92.3731352416
 20
248.3206929062
 30
0.0
 11
92.3731352416
 21
275.4589276474
 31
0.0
  0
LINE
  5
279
330
269
100
AcDbEntity
  8
0
  6
Continuous
 62
     7
370
     0
100
AcDbLine
 10
42.3731352416
 20
274.4589276474
 30
0.0
 11
92.3731352416
 21
274.4589276474
 31
0.0
  0
MTEXT
  5
27A
330
269
100
AcDbEntity
  8
0
  6
Continuous
 62
     7
370
     0
100
AcDbMText
 10
65.3373156561
 20
278.5316546873
 30
0.0
 40
3.5
 41
0.0
 71
     1
 72
     1
  1
50
  7
SLDTEXTSTYLE0
 73
     1
 44
1.0
  0
ENDBLK
  5
274
330
269
100
AcDbEntity
  8
0
100
AcDbBlockEnd
  0
BLOCK
  5
27C
330
27B
100
AcDbEntity
  8
0
100
AcDbBlockBegin
  2
SW_CENTERMARKSYMBOL_0
 70
     0
 71
     0
 10
0.0
 20
0.0
 30
0.0
  3
SW_CENTERMARKSYMBOL_0
  1

  0
LINE
  5
27E
330
27B
100
AcDbEntity
  8
0
  6
Continuous
 62
     7
370
     0
100
AcDbLine
 10
0.0
 20
0.0
 30
0.0
 11
0.0
 21
2.5
 31
0.0
  0
LINE
  5
27F
330
27B
100
AcDbEntity
  8
0
  6
Continuous
 62
     7
370
     0
100
AcDbLine
 10
0.0
 20
0.0
 30
0.0
 11
-2.5
 21
0.0
 31
0.0
  0
LINE
  5
280
330
27B
100
AcDbEntity
  8
0
  6
Continuous
 62
     7
370
     0
100
AcDbLine
 10
0.0
 20
0.0
 30
0.0
 11
0.0
 21
-2.5
 31
0.0
  0
LINE
  5
281
330
27B
100
AcDbEntity
  8
0
  6
Continuous
 62
     7
370
     0
100
AcDbLine
 10
0.0
 20
0.0
 30
0.0
 11
2.5
 21
0.0
 31
0.0
  0
LINE
  5
282
330
27B
100
AcDbEntity
  8
0
  6
Continuous
 62
     7
370
     0
100
AcDbLine
 10
0.0
 20
5.0
 30
0.0
 11
0.0
 21
5.25
 31
0.0
  0
LINE
  5
283
330
27B
100
AcDbEntity
  8
0
  6
Continuous
 62
     7
370
     0
100
AcDbLine
 10
-5.0
 20
0.0
 30
0.0
 11
-5.25
 21
0.0
 31
0.0
  0
LINE
  5
284
330
27B
100
AcDbEntity
  8
0
  6
Continuous
 62
     7
370
     0
100
AcDbLine
 10
0.0
 20
-5.0
 30
0.0
 11
0.0
 21
-5.25
 31
0.0
  0
LINE
  5
285
330
27B
100
AcDbEntity
  8
0
  6
Continuous
 62
     7
370
     0
100
AcDbLine
 10
5.0
 20
0.0
 30
0.0
 11
5.25
 21
0.0
 31
0.0
  0
ENDBLK
  5
27D
330
27B
100
AcDbEntity
  8
0
100
AcDbBlockEnd
  0
BLOCK
  5
288
330
287
100
AcDbEntity
  8
0
100
AcDbBlockBegin
  2
SW_CENTERMARKSYMBOL_1
 70
     0
 71
     0
 10
0.0
 20
0.0
 30
0.0
  3
SW_CENTERMARKSYMBOL_1
  1

  0
LINE
  5
28A
330
287
100
AcDbEntity
  8
0
  6
Continuous
 62
     7
370
     0
100
AcDbLine
 10
0.0
 20
0.0
 30
0.0
 11
0.0
 21
2.5
 31
0.0
  0
LINE
  5
28B
330
287
100
AcDbEntity
  8
0
  6
Continuous
 62
     7
370
     0
100
AcDbLine
 10
0.0
 20
0.0
 30
0.0
 11
-2.5
 21
0.0
 31
0.0
  0
LINE
  5
28C
330
287
100
AcDbEntity
  8
0
  6
Continuous
 62
     7
370
     0
100
AcDbLine
 10
0.0
 20
0.0
 30
0.0
 11
0.0
 21
-2.5
 31
0.0
  0
LINE
  5
28D
330
287
100
AcDbEntity
  8
0
  6
Continuous
 62
     7
370
     0
100
AcDbLine
 10
0.0
 20
0.0
 30
0.0
 11
2.5
 21
0.0
 31
0.0
  0
LINE
  5
28E
330
287
100
AcDbEntity
  8
0
  6
Continuous
 62
     7
370
     0
100
AcDbLine
 10
0.0
 20
5.0
 30
0.0
 11
0.0
 21
5.8
 31
0.0
  0
LINE
  5
28F
330
287
100
AcDbEntity
  8
0
  6
Continuous
 62
     7
370
     0
100
AcDbLine
 10
-5.0
 20
0.0
 30
0.0
 11
-5.8
 21
0.0
 31
0.0
  0
LINE
  5
290
330
287
100
AcDbEntity
  8
0
  6
Continuous
 62
     7
370
     0
100
AcDbLine
 10
0.0
 20
-5.0
 30
0.0
 11
0.0
 21
-5.8
 31
0.0
  0
LINE
  5
291
330
287
100
AcDbEntity
  8
0
  6
Continuous
 62
     7
370
     0
100
AcDbLine
 10
5.0
 20
0.0
 30
0.0
 11
5.8
 21
0.0
 31
0.0
  0
ENDBLK
  5
289
330
287
100
AcDbEntity
  8
0
100
AcDbBlockEnd
  0
BLOCK
  5
294
330
293
100
AcDbEntity
  8
0
100
AcDbBlockBegin
  2
SW_CENTERMARKSYMBOL_2
 70
     0
 71
     0
 10
0.0
 20
0.0
 30
0.0
  3
SW_CENTERMARKSYMBOL_2
  1

  0
LINE
  5
296
330
293
100
AcDbEntity
  8
0
  6
Continuous
 62
     7
370
     0
100
AcDbLine
 10
0.0
 20
0.0
 30
0.0
 11
0.0
 21
2.5
 31
0.0
  0
LINE
  5
297
330
293
100
AcDbEntity
  8
0
  6
Continuous
 62
     7
370
     0
100
AcDbLine
 10
0.0
 20
0.0
 30
0.0
 11
-2.5
 21
0.0
 31
0.0
  0
LINE
  5
298
330
293
100
AcDbEntity
  8
0
  6
Continuous
 62
     7
370
     0
100
AcDbLine
 10
0.0
 20
0.0
 30
0.0
 11
0.0
 21
-2.5
 31
0.0
  0
LINE
  5
299
330
293
100
AcDbEntity
  8
0
  6
Continuous
 62
     7
370
     0
100
AcDbLine
 10
0.0
 20
0.0
 30
0.0
 11
2.5
 21
0.0
 31
0.0
  0
LINE
  5
29A
330
293
100
AcDbEntity
  8
0
  6
Continuous
 62
     7
370
     0
100
AcDbLine
 10
0.0
 20
5.0
 30
0.0
 11
0.0
 21
5.8
 31
0.0
  0
LINE
  5
29B
330
293
100
AcDbEntity
  8
0
  6
Continuous
 62
     7
370
     0
100
AcDbLine
 10
-5.0
 20
0.0
 30
0.0
 11
-5.8
 21
0.0
 31
0.0
  0
LINE
  5
29C
330
293
100
AcDbEntity
  8
0
  6
Continuous
 62
     7
370
     0
100
AcDbLine
 10
0.0
 20
-5.0
 30
0.0
 11
0.0
 21
-5.8
 31
0.0
  0
LINE
  5
29D
330
293
100
AcDbEntity
  8
0
  6
Continuous
 62
     7
370
     0
100
AcDbLine
 10
5.0
 20
0.0
 30
0.0
 11
5.8
 21
0.0
 31
0.0
  0
ENDBLK
  5
295
330
293
100
AcDbEntity
  8
0
100
AcDbBlockEnd
  0
BLOCK
  5
2A0
330
29F
100
AcDbEntity
  8
0
100
AcDbBlockBegin
  2
SW_CENTERMARKSYMBOL_3
 70
     0
 71
     0
 10
0.0
 20
0.0
 30
0.0
  3
SW_CENTERMARKSYMBOL_3
  1

  0
LINE
  5
2A2
330
29F
100
AcDbEntity
  8
0
  6
Continuous
 62
     7
370
     0
100
AcDbLine
 10
0.0
 20
0.0
 30
0.0
 11
0.0
 21
2.5
 31
0.0
  0
LINE
  5
2A3
330
29F
100
AcDbEntity
  8
0
  6
Continuous
 62
     7
370
     0
100
AcDbLine
 10
0.0
 20
0.0
 30
0.0
 11
-2.5
 21
0.0
 31
0.0
  0
LINE
  5
2A4
330
29F
100
AcDbEntity
  8
0
  6
Continuous
 62
     7
370
     0
100
AcDbLine
 10
0.0
 20
0.0
 30
0.0
 11
0.0
 21
-2.5
 31
0.0
  0
LINE
  5
2A5
330
29F
100
AcDbEntity
  8
0
  6
Continuous
 62
     7
370
     0
100
AcDbLine
 10
0.0
 20
0.0
 30
0.0
 11
2.5
 21
0.0
 31
0.0
  0
LINE
  5
2A6
330
29F
100
AcDbEntity
  8
0
  6
Continuous
 62
     7
370
     0
100
AcDbLine
 10
0.0
 20
5.0
 30
0.0
 11
0.0
 21
5.25
 31
0.0
  0
LINE
  5
2A7
330
29F
100
AcDbEntity
  8
0
  6
Continuous
 62
     7
370
     0
100
AcDbLine
 10
-5.0
 20
0.0
 30
0.0
 11
-5.25
 21
0.0
 31
0.0
  0
LINE
  5
2A8
330
29F
100
AcDbEntity
  8
0
  6
Continuous
 62
     7
370
     0
100
AcDbLine
 10
0.0
 20
-5.0
 30
0.0
 11
0.0
 21
-5.25
 31
0.0
  0
LINE
  5
2A9
330
29F
100
AcDbEntity
  8
0
  6
Continuous
 62
     7
370
     0
100
AcDbLine
 10
5.0
 20
0.0
 30
0.0
 11
5.25
 21
0.0
 31
0.0
  0
ENDBLK
  5
2A1
330
29F
100
AcDbEntity
  8
0
100
AcDbBlockEnd
  0
BLOCK
  5
2AC
330
2AB
100
AcDbEntity
  8
0
100
AcDbBlockBegin
  2
SW_CENTERMARKSYMBOL_4
 70
     0
 71
     0
 10
0.0
 20
0.0
 30
0.0
  3
SW_CENTERMARKSYMBOL_4
  1

  0
LINE
  5
2AE
330
2AB
100
AcDbEntity
  8
0
  6
Continuous
 62
     7
370
     0
100
AcDbLine
 10
0.0
 20
0.0
 30
0.0
 11
0.0
 21
2.5
 31
0.0
  0
LINE
  5
2AF
330
2AB
100
AcDbEntity
  8
0
  6
Continuous
 62
     7
370
     0
100
AcDbLine
 10
0.0
 20
0.0
 30
0.0
 11
-2.5
 21
0.0
 31
0.0
  0
LINE
  5
2B0
330
2AB
100
AcDbEntity
  8
0
  6
Continuous
 62
     7
370
     0
100
AcDbLine
 10
0.0
 20
0.0
 30
0.0
 11
0.0
 21
-2.5
 31
0.0
  0
LINE
  5
2B1
330
2AB
100
AcDbEntity
  8
0
  6
Continuous
 62
     7
370
     0
100
AcDbLine
 10
0.0
 20
0.0
 30
0.0
 11
2.5
 21
0.0
 31
0.0
  0
LINE
  5
2B2
330
2AB
100
AcDbEntity
  8
0
  6
Continuous
 62
     7
370
     0
100
AcDbLine
 10
0.0
 20
5.0
 30
0.0
 11
0.0
 21
7.5
 31
0.0
  0
LINE
  5
2B3
330
2AB
100
AcDbEntity
  8
0
  6
Continuous
 62
     7
370
     0
100
AcDbLine
 10
-5.0
 20
0.0
 30
0.0
 11
-7.5
 21
0.0
 31
0.0
  0
LINE
  5
2B4
330
2AB
100
AcDbEntity
  8
0
  6
Continuous
 62
     7
370
     0
100
AcDbLine
 10
0.0
 20
-5.0
 30
0.0
 11
0.0
 21
-7.5
 31
0.0
  0
LINE
  5
2B5
330
2AB
100
AcDbEntity
  8
0
  6
Continuous
 62
     7
370
     0
100
AcDbLine
 10
5.0
 20
0.0
 30
0.0
 11
7.5
 21
0.0
 31
0.0
  0
ENDBLK
  5
2AD
330
2AB
100
AcDbEntity
  8
0
100
AcDbBlockEnd
  0
BLOCK
  5
2B8
330
2B7
100
AcDbEntity
  8
0
100
AcDbBlockBegin
  2
SW_CENTERMARKSYMBOL_5
 70
     0
 71
     0
 10
0.0
 20
0.0
 30
0.0
  3
SW_CENTERMARKSYMBOL_5
  1

  0
LINE
  5
2BA
330
2B7
100
AcDbEntity
  8
0
  6
Continuous
 62
     7
370
     0
100
AcDbLine
 10
0.0
 20
0.0
 30
0.0
 11
0.0
 21
2.5
 31
0.0
  0
LINE
  5
2BB
330
2B7
100
AcDbEntity
  8
0
  6
Continuous
 62
     7
370
     0
100
AcDbLine
 10
0.0
 20
0.0
 30
0.0
 11
-2.5
 21
0.0
 31
0.0
  0
LINE
  5
2BC
330
2B7
100
AcDbEntity
  8
0
  6
Continuous
 62
     7
370
     0
100
AcDbLine
 10
0.0
 20
0.0
 30
0.0
 11
0.0
 21
-2.5
 31
0.0
  0
LINE
  5
2BD
330
2B7
100
AcDbEntity
  8
0
  6
Continuous
 62
     7
370
     0
100
AcDbLine
 10
0.0
 20
0.0
 30
0.0
 11
2.5
 21
0.0
 31
0.0
  0
LINE
  5
2BE
330
2B7
100
AcDbEntity
  8
0
  6
Continuous
 62
     7
370
     0
100
AcDbLine
 10
0.0
 20
5.0
 30
0.0
 11
0.0
 21
7.5
 31
0.0
  0
LINE
  5
2BF
330
2B7
100
AcDbEntity
  8
0
  6
Continuous
 62
     7
370
     0
100
AcDbLine
 10
-5.0
 20
0.0
 30
0.0
 11
-7.5
 21
0.0
 31
0.0
  0
LINE
  5
2C0
330
2B7
100
AcDbEntity
  8
0
  6
Continuous
 62
     7
370
     0
100
AcDbLine
 10
0.0
 20
-5.0
 30
0.0
 11
0.0
 21
-7.5
 31
0.0
  0
LINE
  5
2C1
330
2B7
100
AcDbEntity
  8
0
  6
Continuous
 62
     7
370
     0
100
AcDbLine
 10
5.0
 20
0.0
 30
0.0
 11
7.5
 21
0.0
 31
0.0
  0
ENDBLK
  5
2B9
330
2B7
100
AcDbEntity
  8
0
100
AcDbBlockEnd
  0
BLOCK
  5
2C4
330
2C3
100
AcDbEntity
  8
0
100
AcDbBlockBegin
  2
SW_CENTERMARKSYMBOL_6
 70
     0
 71
     0
 10
0.0
 20
0.0
 30
0.0
  3
SW_CENTERMARKSYMBOL_6
  1

  0
LINE
  5
2C6
330
2C3
100
AcDbEntity
  8
0
  6
Continuous
 62
     7
370
     0
100
AcDbLine
 10
0.0
 20
0.0
 30
0.0
 11
0.0
 21
2.5
 31
0.0
  0
LINE
  5
2C7
330
2C3
100
AcDbEntity
  8
0
  6
Continuous
 62
     7
370
     0
100
AcDbLine
 10
0.0
 20
0.0
 30
0.0
 11
-2.5
 21
0.0
 31
0.0
  0
LINE
  5
2C8
330
2C3
100
AcDbEntity
  8
0
  6
Continuous
 62
     7
370
     0
100
AcDbLine
 10
0.0
 20
0.0
 30
0.0
 11
0.0
 21
-2.5
 31
0.0
  0
LINE
  5
2C9
330
2C3
100
AcDbEntity
  8
0
  6
Continuous
 62
     7
370
     0
100
AcDbLine
 10
0.0
 20
0.0
 30
0.0
 11
2.5
 21
0.0
 31
0.0
  0
LINE
  5
2CA
330
2C3
100
AcDbEntity
  8
0
  6
Continuous
 62
     7
370
     0
100
AcDbLine
 10
0.0
 20
5.0
 30
0.0
 11
0.0
 21
7.5
 31
0.0
  0
LINE
  5
2CB
330
2C3
100
AcDbEntity
  8
0
  6
Continuous
 62
     7
370
     0
100
AcDbLine
 10
-5.0
 20
0.0
 30
0.0
 11
-7.5
 21
0.0
 31
0.0
  0
LINE
  5
2CC
330
2C3
100
AcDbEntity
  8
0
  6
Continuous
 62
     7
370
     0
100
AcDbLine
 10
0.0
 20
-5.0
 30
0.0
 11
0.0
 21
-24.2196096579
 31
0.0
  0
LINE
  5
2CD
330
2C3
100
AcDbEntity
  8
0
  6
Continuous
 62
     7
370
     0
100
AcDbLine
 10
5.0
 20
0.0
 30
0.0
 11
7.5
 21
0.0
 31
0.0
  0
ENDBLK
  5
2C5
330
2C3
100
AcDbEntity
  8
0
100
AcDbBlockEnd
  0
BLOCK
  5
2D0
330
2CF
100
AcDbEntity
  8
0
100
AcDbBlockBegin
  2
SW_CENTERMARKSYMBOL_7
 70
     0
 71
     0
 10
0.0
 20
0.0
 30
0.0
  3
SW_CENTERMARKSYMBOL_7
  1

  0
LINE
  5
2D2
330
2CF
100
AcDbEntity
  8
0
  6
Continuous
 62
     7
370
     0
100
AcDbLine
 10
0.0
 20
0.0
 30
0.0
 11
0.0
 21
2.5
 31
0.0
  0
LINE
  5
2D3
330
2CF
100
AcDbEntity
  8
0
  6
Continuous
 62
     7
370
     0
100
AcDbLine
 10
0.0
 20
0.0
 30
0.0
 11
-2.5
 21
0.0
 31
0.0
  0
LINE
  5
2D4
330
2CF
100
AcDbEntity
  8
0
  6
Continuous
 62
     7
370
     0
100
AcDbLine
 10
0.0
 20
0.0
 30
0.0
 11
0.0
 21
-2.5
 31
0.0
  0
LINE
  5
2D5
330
2CF
100
AcDbEntity
  8
0
  6
Continuous
 62
     7
370
     0
100
AcDbLine
 10
0.0
 20
0.0
 30
0.0
 11
2.5
 21
0.0
 31
0.0
  0
LINE
  5
2D6
330
2CF
100
AcDbEntity
  8
0
  6
Continuous
 62
     7
370
     0
100
AcDbLine
 10
0.0
 20
2.5
 30
0.0
 11
0.0
 21
3.75
 31
0.0
  0
LINE
  5
2D7
330
2CF
100
AcDbEntity
  8
0
  6
Continuous
 62
     7
370
     0
100
AcDbLine
 10
-2.5
 20
0.0
 30
0.0
 11
-3.75
 21
0.0
 31
0.0
  0
LINE
  5
2D8
330
2CF
100
AcDbEntity
  8
0
  6
Continuous
 62
     7
370
     0
100
AcDbLine
 10
0.0
 20
-2.5
 30
0.0
 11
0.0
 21
-3.75
 31
0.0
  0
LINE
  5
2D9
330
2CF
100
AcDbEntity
  8
0
  6
Continuous
 62
     7
370
     0
100
AcDbLine
 10
2.5
 20
0.0
 30
0.0
 11
3.75
 21
0.0
 31
0.0
  0
ENDBLK
  5
2D1
330
2CF
100
AcDbEntity
  8
0
100
AcDbBlockEnd
  0
BLOCK
  5
2DC
330
2DB
100
AcDbEntity
  8
0
100
AcDbBlockBegin
  2
SW_CENTERMARKSYMBOL_8
 70
     0
 71
     0
 10
0.0
 20
0.0
 30
0.0
  3
SW_CENTERMARKSYMBOL_8
  1

  0
LINE
  5
2DE
330
2DB
100
AcDbEntity
  8
0
  6
Continuous
 62
     7
370
     0
100
AcDbLine
 10
0.0
 20
0.0
 30
0.0
 11
0.0
 21
2.5
 31
0.0
  0
LINE
  5
2DF
330
2DB
100
AcDbEntity
  8
0
  6
Continuous
 62
     7
370
     0
100
AcDbLine
 10
0.0
 20
0.0
 30
0.0
 11
-2.5
 21
0.0
 31
0.0
  0
LINE
  5
2E0
330
2DB
100
AcDbEntity
  8
0
  6
Continuous
 62
     7
370
     0
100
AcDbLine
 10
0.0
 20
0.0
 30
0.0
 11
0.0
 21
-2.5
 31
0.0
  0
LINE
  5
2E1
330
2DB
100
AcDbEntity
  8
0
  6
Continuous
 62
     7
370
     0
100
AcDbLine
 10
0.0
 20
0.0
 30
0.0
 11
2.5
 21
0.0
 31
0.0
  0
LINE
  5
2E2
330
2DB
100
AcDbEntity
  8
0
  6
Continuous
 62
     7
370
     0
100
AcDbLine
 10
0.0
 20
2.5
 30
0.0
 11
0.0
 21
3.75
 31
0.0
  0
LINE
  5
2E3
330
2DB
100
AcDbEntity
  8
0
  6
Continuous
 62
     7
370
     0
100
AcDbLine
 10
-2.5
 20
0.0
 30
0.0
 11
-3.75
 21
0.0
 31
0.0
  0
LINE
  5
2E4
330
2DB
100
AcDbEntity
  8
0
  6
Continuous
 62
     7
370
     0
100
AcDbLine
 10
0.0
 20
-2.5
 30
0.0
 11
0.0
 21
-3.75
 31
0.0
  0
LINE
  5
2E5
330
2DB
100
AcDbEntity
  8
0
  6
Continuous
 62
     7
370
     0
100
AcDbLine
 10
2.5
 20
0.0
 30
0.0
 11
3.75
 21
0.0
 31
0.0
  0
ENDBLK
  5
2DD
330
2DB
100
AcDbEntity
  8
0
100
AcDbBlockEnd
  0
BLOCK
  5
2E8
330
2E7
100
AcDbEntity
  8
0
100
AcDbBlockBegin
  2
SW_CENTERMARKSYMBOL_9
 70
     0
 71
     0
 10
0.0
 20
0.0
 30
0.0
  3
SW_CENTERMARKSYMBOL_9
  1

  0
LINE
  5
2EA
330
2E7
100
AcDbEntity
  8
0
  6
Continuous
 62
     7
370
     0
100
AcDbLine
 10
0.0
 20
0.0
 30
0.0
 11
0.0
 21
2.5
 31
0.0
  0
LINE
  5
2EB
330
2E7
100
AcDbEntity
  8
0
  6
Continuous
 62
     7
370
     0
100
AcDbLine
 10
0.0
 20
0.0
 30
0.0
 11
-2.5
 21
0.0
 31
0.0
  0
LINE
  5
2EC
330
2E7
100
AcDbEntity
  8
0
  6
Continuous
 62
     7
370
     0
100
AcDbLine
 10
0.0
 20
0.0
 30
0.0
 11
0.0
 21
-2.5
 31
0.0
  0
LINE
  5
2ED
330
2E7
100
AcDbEntity
  8
0
  6
Continuous
 62
     7
370
     0
100
AcDbLine
 10
0.0
 20
0.0
 30
0.0
 11
2.5
 21
0.0
 31
0.0
  0
LINE
  5
2EE
330
2E7
100
AcDbEntity
  8
0
  6
Continuous
 62
     7
370
     0
100
AcDbLine
 10
0.0
 20
5.0
 30
0.0
 11
0.0
 21
7.5
 31
0.0
  0
LINE
  5
2EF
330
2E7
100
AcDbEntity
  8
0
  6
Continuous
 62
     7
370
     0
100
AcDbLine
 10
-5.0
 20
0.0
 30
0.0
 11
-7.5
 21
0.0
 31
0.0
  0
LINE
  5
2F0
330
2E7
100
AcDbEntity
  8
0
  6
Continuous
 62
     7
370
     0
100
AcDbLine
 10
0.0
 20
-5.0
 30
0.0
 11
0.0
 21
-7.5
 31
0.0
  0
LINE
  5
2F1
330
2E7
100
AcDbEntity
  8
0
  6
Continuous
 62
     7
370
     0
100
AcDbLine
 10
5.0
 20
0.0
 30
0.0
 11
7.5
 21
0.0
 31
0.0
  0
ENDBLK
  5
2E9
330
2E7
100
AcDbEntity
  8
0
100
AcDbBlockEnd
  0
BLOCK
  5
2F4
330
2F3
100
AcDbEntity
  8
0
100
AcDbBlockBegin
  2
SW_CENTERMARKSYMBOL_10
 70
     0
 71
     0
 10
0.0
 20
0.0
 30
0.0
  3
SW_CENTERMARKSYMBOL_10
  1

  0
LINE
  5
2F6
330
2F3
100
AcDbEntity
  8
0
  6
Continuous
 62
     7
370
     0
100
AcDbLine
 10
0.0
 20
0.0
 30
0.0
 11
0.0
 21
2.5
 31
0.0
  0
LINE
  5
2F7
330
2F3
100
AcDbEntity
  8
0
  6
Continuous
 62
     7
370
     0
100
AcDbLine
 10
0.0
 20
0.0
 30
0.0
 11
-2.5
 21
0.0
 31
0.0
  0
LINE
  5
2F8
330
2F3
100
AcDbEntity
  8
0
  6
Continuous
 62
     7
370
     0
100
AcDbLine
 10
0.0
 20
0.0
 30
0.0
 11
0.0
 21
-2.5
 31
0.0
  0
LINE
  5
2F9
330
2F3
100
AcDbEntity
  8
0
  6
Continuous
 62
     7
370
     0
100
AcDbLine
 10
0.0
 20
0.0
 30
0.0
 11
2.5
 21
0.0
 31
0.0
  0
LINE
  5
2FA
330
2F3
100
AcDbEntity
  8
0
  6
Continuous
 62
     7
370
     0
100
AcDbLine
 10
0.0
 20
5.0
 30
0.0
 11
0.0
 21
7.5
 31
0.0
  0
LINE
  5
2FB
330
2F3
100
AcDbEntity
  8
0
  6
Continuous
 62
     7
370
     0
100
AcDbLine
 10
-5.0
 20
0.0
 30
0.0
 11
-7.5
 21
0.0
 31
0.0
  0
LINE
  5
2FC
330
2F3
100
AcDbEntity
  8
0
  6
Continuous
 62
     7
370
     0
100
AcDbLine
 10
0.0
 20
-5.0
 30
0.0
 11
0.0
 21
-7.5
 31
0.0
  0
LINE
  5
2FD
330
2F3
100
AcDbEntity
  8
0
  6
Continuous
 62
     7
370
     0
100
AcDbLine
 10
5.0
 20
0.0
 30
0.0
 11
7.5
 21
0.0
 31
0.0
  0
ENDBLK
  5
2F5
330
2F3
100
AcDbEntity
  8
0
100
AcDbBlockEnd
  0
BLOCK
  5
3A5
330
39B
100
AcDbEntity
  8
0
100
AcDbBlockBegin
  2
*D29
 70
     1
 71
     0
 10
0.0
 20
0.0
 30
0.0
  3
*D29
  1

  0
INSERT
  5
3A7
330
39B
100
AcDbEntity
  8
0
  6
Continuous
 62
     7
370
     0
100
AcDbBlockReference
  2
_Open30
 10
143.1015502179
 20
258.6024858087
 30
0.1
 41
3.0
 42
3.0
 50
0.0
  0
INSERT
  5
3A8
330
39B
100
AcDbEntity
  8
0
  6
Continuous
 62
     7
370
     0
100
AcDbBlockReference
  2
_Open30
 10
158.6015502179
 20
258.6024858087
 30
0.1
 41
3.0
 42
3.0
 50
180.0
  0
LINE
  5
3A9
330
39B
100
AcDbEntity
  8
0
  6
Continuous
 62
     7
370
     0
100
AcDbLine
 10
143.1015502179
 20
233.9584232316
 30
0.0
 11
143.1015502179
 21
259.6024858087
 31
0.0
  0
LINE
  5
3AA
330
39B
100
AcDbEntity
  8
0
  6
Continuous
 62
     7
370
     0
100
AcDbLine
 10
158.6015502179
 20
250.3206929062
 30
0.0
 11
158.6015502179
 21
259.6024858087
 31
0.0
  0
LINE
  5
3AB
330
39B
100
AcDbEntity
  8
0
  6
Continuous
 62
     7
370
     0
100
AcDbLine
 10
143.1015502179
 20
258.6024858087
 30
0.0
 11
138.1015502179
 21
258.6024858087
 31
0.0
  0
LINE
  5
3AC
330
39B
100
AcDbEntity
  8
0
  6
Continuous
 62
     7
370
     0
100
AcDbLine
 10
143.1015502179
 20
258.6024858087
 30
0.0
 11
158.6015502179
 21
258.6024858087
 31
0.0
  0
LINE
  5
3AD
330
39B
100
AcDbEntity
  8
0
  6
Continuous
 62
     7
370
     0
100
AcDbLine
 10
158.6015502179
 20
258.6024858087
 30
0.0
 11
163.6015502179
 21
258.6024858087
 31
0.0
  0
MTEXT
  5
3AE
330
39B
100
AcDbEntity
  8
0
  6
Continuous
 62
     7
370
     0
100
AcDbMText
 10
146.7783414096
 20
262.6752128486
 30
0.0
 40
3.5
 41
0.0
 71
     1
 72
     1
  1
15.5
  7
SLDTEXTSTYLE0
 73
     1
 44
1.0
  0
ENDBLK
  5
3A6
330
39B
100
AcDbEntity
  8
0
100
AcDbBlockEnd
  0
BLOCK
  5
3BD
330
3B0
100
AcDbEntity
  8
0
100
AcDbBlockBegin
  2
*D30
 70
     1
 71
     0
 10
0.0
 20
0.0
 30
0.0
  3
*D30
  1

  0
INSERT
  5
3BF
330
3B0
100
AcDbEntity
  8
0
  6
Continuous
 62
     7
370
     0
100
AcDbBlockReference
  2
_Open30
 10
158.6015502179
 20
258.6024858087
 30
0.1
 41
3.0
 42
3.0
 50
0.0
  0
INSERT
  5
3C0
330
3B0
100
AcDbEntity
  8
0
  6
Continuous
 62
     7
370
     0
100
AcDbBlockReference
  2
_Open30
 10
162.6015502179
 20
258.6024858087
 30
0.1
 41
3.0
 42
3.0
 50
180.0
  0
LINE
  5
3C1
330
3B0
100
AcDbEntity
  8
0
  6
Continuous
 62
     7
370
     0
100
AcDbLine
 10
158.6015502179
 20
250.3206929062
 30
0.0
 11
158.6015502179
 21
259.6024858087
 31
0.0
  0
LINE
  5
3C2
330
3B0
100
AcDbEntity
  8
0
  6
Continuous
 62
     7
370
     0
100
AcDbLine
 10
162.6015502179
 20
250.3206929062
 30
0.0
 11
162.6015502179
 21
259.6024858087
 31
0.0
  0
LINE
  5
3C3
330
3B0
100
AcDbEntity
  8
0
  6
Continuous
 62
     7
370
     0
100
AcDbLine
 10
158.6015502179
 20
258.6024858087
 30
0.0
 11
153.6015502179
 21
258.6024858087
 31
0.0
  0
LINE
  5
3C4
330
3B0
100
AcDbEntity
  8
0
  6
Continuous
 62
     7
370
     0
100
AcDbLine
 10
158.6015502179
 20
258.6024858087
 30
0.0
 11
162.6015502179
 21
258.6024858087
 31
0.0
  0
LINE
  5
3C5
330
3B0
100
AcDbEntity
  8
0
  6
Continuous
 62
     7
370
     0
100
AcDbLine
 10
162.6015502179
 20
258.6024858087
 30
0.0
 11
167.6876088007
 21
258.6024858087
 31
0.0
  0
MTEXT
  5
3C6
330
3B0
100
AcDbEntity
  8
0
  6
Continuous
 62
     7
370
     0
100
AcDbMText
 10
164.0658588525
 20
262.6752128486
 30
0.0
 40
3.5
 41
0.0
 71
     1
 72
     1
  1
4
  7
SLDTEXTSTYLE0
 73
     1
 44
1.0
  0
ENDBLK
  5
3BE
330
3B0
100
AcDbEntity
  8
0
100
AcDbBlockEnd
  0
BLOCK
  5
3D3
330
3C8
100
AcDbEntity
  8
0
100
AcDbBlockBegin
  2
*D31
 70
     1
 71
     0
 10
0.0
 20
0.0
 30
0.0
  3
*D31
  1

  0
INSERT
  5
3D6
330
3C8
100
AcDbEntity
  8
0
  6
Continuous
 62
     7
370
     0
100
AcDbBlockReference
  2
_Open30
 10
158.6015502179
 20
253.0675007748
 30
0.1
 41
3.0
 42
3.0
 50
0.0
  0
INSERT
  5
3D7
330
3C8
100
AcDbEntity
  8
0
  6
Continuous
 62
     7
370
     0
100
AcDbBlockReference
  2
_Open30
 10
165.1015502179
 20
253.0675007748
 30
0.1
 41
3.0
 42
3.0
 50
180.0
  0
LINE
  5
3D8
330
3C8
100
AcDbEntity
  8
0
  6
Continuous
 62
     7
370
     0
100
AcDbLine
 10
158.6015502179
 20
250.3206929062
 30
0.0
 11
158.6015502179
 21
254.0675007748
 31
0.0
  0
LINE
  5
3D9
330
3C8
100
AcDbEntity
  8
0
  6
Continuous
 62
     7
370
     0
100
AcDbLine
 10
165.1015502179
 20
184.3206929062
 30
0.0
 11
165.1015502179
 21
254.0675007748
 31
0.0
  0
LINE
  5
3DA
330
3C8
100
AcDbEntity
  8
0
  6
Continuous
 62
     7
370
     0
100
AcDbLine
 10
158.6015502179
 20
253.0675007748
 30
0.0
 11
153.6015502179
 21
253.0675007748
 31
0.0
  0
LINE
  5
3DB
330
3C8
100
AcDbEntity
  8
0
  6
Continuous
 62
     7
370
     0
100
AcDbLine
 10
158.6015502179
 20
253.0675007748
 30
0.0
 11
165.1015502179
 21
253.0675007748
 31
0.0
  0
LINE
  5
3DC
330
3C8
100
AcDbEntity
  8
0
  6
Continuous
 62
     7
370
     0
100
AcDbLine
 10
165.1015502179
 20
253.0675007748
 30
0.0
 11
170.1015502179
 21
253.0675007748
 31
0.0
  0
MTEXT
  5
3DD
330
3C8
100
AcDbEntity
  8
0
  6
Continuous
 62
     7
370
     0
100
AcDbMText
 10
158.797036021
 20
257.1402278147
 30
0.0
 40
3.5
 41
0.0
 71
     1
 72
     1
  1
6.5
  7
SLDTEXTSTYLE0
 73
     1
 44
1.0
  0
ENDBLK
  5
3D4
330
3C8
100
AcDbEntity
  8
0
100
AcDbBlockEnd
  0
BLOCK
  5
3EC
330
3DF
100
AcDbEntity
  8
0
100
AcDbBlockBegin
  2
*D32
 70
     1
 71
     0
 10
0.0
 20
0.0
 30
0.0
  3
*D32
  1

  0
INSERT
  5
3EE
330
3DF
100
AcDbEntity
  8
0
  6
Continuous
 62
     7
370
     0
100
AcDbBlockReference
  2
_Open30
 10
165.1015502179
 20
253.0675007748
 30
0.1
 41
3.0
 42
3.0
 50
0.0
  0
INSERT
  5
3EF
330
3DF
100
AcDbEntity
  8
0
  6
Continuous
 62
     7
370
     0
100
AcDbBlockReference
  2
_Open30
 10
168.6015502179
 20
253.0675007748
 30
0.1
 41
3.0
 42
3.0
 50
180.0
  0
LINE
  5
3F0
330
3DF
100
AcDbEntity
  8
0
  6
Continuous
 62
     7
370
     0
100
AcDbLine
 10
165.1015502179
 20
184.3206929062
 30
0.0
 11
165.1015502179
 21
254.0675007748
 31
0.0
  0
LINE
  5
3F1
330
3DF
100
AcDbEntity
  8
0
  6
Continuous
 62
     7
370
     0
100
AcDbLine
 10
168.6015502179
 20
183.8206929062
 30
0.0
 11
168.6015502179
 21
254.0675007748
 31
0.0
  0
LINE
  5
3F2
330
3DF
100
AcDbEntity
  8
0
  6
Continuous
 62
     7
370
     0
100
AcDbLine
 10
165.1015502179
 20
253.0675007748
 30
0.0
 11
160.1015502179
 21
253.0675007748
 31
0.0
  0
LINE
  5
3F3
330
3DF
100
AcDbEntity
  8
0
  6
Continuous
 62
     7
370
     0
100
AcDbLine
 10
165.1015502179
 20
253.0675007748
 30
0.0
 11
168.6015502179
 21
253.0675007748
 31
0.0
  0
LINE
  5
3F4
330
3DF
100
AcDbEntity
  8
0
  6
Continuous
 62
     7
370
     0
100
AcDbLine
 10
168.6015502179
 20
253.0675007748
 30
0.0
 11
178.0984369211
 21
253.0675007748
 31
0.0
  0
MTEXT
  5
3F5
330
3DF
100
AcDbEntity
  8
0
  6
Continuous
 62
     7
370
     0
100
AcDbMText
 10
170.4019085273
 20
257.1402278147
 30
0.0
 40
3.5
 41
0.0
 71
     1
 72
     1
  1
3.5
  7
SLDTEXTSTYLE0
 73
     1
 44
1.0
  0
ENDBLK
  5
3ED
330
3DF
100
AcDbEntity
  8
0
100
AcDbBlockEnd
  0
BLOCK
  5
401
330
3F7
100
AcDbEntity
  8
0
100
AcDbBlockBegin
  2
*D33
 70
     1
 71
     0
 10
0.0
 20
0.0
 30
0.0
  3
*D33
  1

  0
INSERT
  5
403
330
3F7
100
AcDbEntity
  8
0
  6
Continuous
 62
     7
370
     0
100
AcDbBlockReference
  2
_Open30
 10
158.6015502179
 20
265.9824658541
 30
0.1
 41
3.0
 42
3.0
 50
360.0
  0
INSERT
  5
404
330
3F7
100
AcDbEntity
  8
0
  6
Continuous
 62
     7
370
     0
100
AcDbBlockReference
  2
_Open30
 10
130.6015502179
 20
265.9824658541
 30
0.1
 41
3.0
 42
3.0
 50
180.0
  0
LINE
  5
405
330
3F7
100
AcDbEntity
  8
0
  6
Continuous
 62
     7
370
     0
100
AcDbLine
 10
158.6015502179
 20
250.3206929062
 30
0.0
 11
158.6015502179
 21
266.9824658541
 31
0.0
  0
LINE
  5
406
330
3F7
100
AcDbEntity
  8
0
  6
Continuous
 62
     7
370
     0
100
AcDbLine
 10
130.6015502179
 20
227.8206929062
 30
0.0
 11
130.6015502179
 21
266.9824658541
 31
0.0
  0
LINE
  5
407
330
3F7
100
AcDbEntity
  8
0
  6
Continuous
 62
     7
370
     0
100
AcDbLine
 10
158.6015502179
 20
265.9824658541
 30
0.0
 11
130.6015502179
 21
265.9824658541
 31
0.0
  0
MTEXT
  5
408
330
3F7
100
AcDbEntity
  8
0
  6
Continuous
 62
     7
370
     0
100
AcDbMText
 10
142.5657306324
 20
270.0551928939
 30
0.0
 40
3.5
 41
0.0
 71
     1
 72
     1
  1
28
  7
SLDTEXTSTYLE0
 73
     1
 44
1.0
  0
ENDBLK
  5
402
330
3F7
100
AcDbEntity
  8
0
100
AcDbBlockEnd
  0
BLOCK
  5
414
330
40A
100
AcDbEntity
  8
0
100
AcDbBlockBegin
  2
*D34
 70
     1
 71
     0
 10
0.0
 20
0.0
 30
0.0
  3
*D34
  1

  0
INSERT
  5
416
330
40A
100
AcDbEntity
  8
0
  6
Continuous
 62
     7
370
     0
100
AcDbBlockReference
  2
_Open30
 10
172.8015502179
 20
265.9824658541
 30
0.1
 41
3.0
 42
3.0
 50
180.0
  0
INSERT
  5
417
330
40A
100
AcDbEntity
  8
0
  6
Continuous
 62
     7
370
     0
100
AcDbBlockReference
  2
_Open30
 10
158.6015502179
 20
265.9824658541
 30
0.1
 41
3.0
 42
3.0
 50
0.0
  0
LINE
  5
418
330
40A
100
AcDbEntity
  8
0
  6
Continuous
 62
     7
370
     0
100
AcDbLine
 10
172.8015502179
 20
166.7517947428
 30
0.0
 11
172.8015502179
 21
266.9824658541
 31
0.0
  0
LINE
  5
419
330
40A
100
AcDbEntity
  8
0
  6
Continuous
 62
     7
370
     0
100
AcDbLine
 10
158.6015502179
 20
243.6206929062
 30
0.0
 11
158.6015502179
 21
266.9824658541
 31
0.0
  0
LINE
  5
41A
330
40A
100
AcDbEntity
  8
0
  6
Continuous
 62
     7
370
     0
100
AcDbLine
 10
172.8015502179
 20
265.9824658541
 30
0.0
 11
177.8015502179
 21
265.9824658541
 31
0.0
  0
LINE
  5
41B
330
40A
100
AcDbEntity
  8
0
  6
Continuous
 62
     7
370
     0
100
AcDbLine
 10
172.8015502179
 20
265.9824658541
 30
0.0
 11
158.6015502179
 21
265.9824658541
 31
0.0
  0
LINE
  5
41C
330
40A
100
AcDbEntity
  8
0
  6
Continuous
 62
     7
370
     0
100
AcDbLine
 10
158.6015502179
 20
265.9824658541
 30
0.0
 11
153.6015502179
 21
265.9824658541
 31
0.0
  0
MTEXT
  5
41D
330
40A
100
AcDbEntity
  8
0
  6
Continuous
 62
     7
370
     0
100
AcDbMText
 10
161.6283414096
 20
270.0551928939
 30
0.0
 40
3.5
 41
0.0
 71
     1
 72
     1
  1
14.2
  7
SLDTEXTSTYLE0
 73
     1
 44
1.0
  0
ENDBLK
  5
415
330
40A
100
AcDbEntity
  8
0
100
AcDbBlockEnd
  0
BLOCK
  5
429
330
41F
100
AcDbEntity
  8
0
100
AcDbBlockBegin
  2
*D35
 70
     1
 71
     0
 10
0.0
 20
0.0
 30
0.0
  3
*D35
  1

  0
INSERT
  5
42B
330
41F
100
AcDbEntity
  8
0
  6
Continuous
 62
     7
370
     0
100
AcDbBlockReference
  2
_Open30
 10
130.6015502179
 20
273.3624458994
 30
0.1
 41
3.0
 42
3.0
 50
180.0
  0
INSERT
  5
42C
330
41F
100
AcDbEntity
  8
0
  6
Continuous
 62
     7
370
     0
100
AcDbBlockReference
  2
_Open30
 10
172.8015502179
 20
273.3624458994
 30
0.1
 41
3.0
 42
3.0
 50
0.0
  0
LINE
  5
42D
330
41F
100
AcDbEntity
  8
0
  6
Continuous
 62
     7
370
     0
100
AcDbLine
 10
130.6015502179
 20
227.8206929062
 30
0.0
 11
130.6015502179
 21
274.3624458994
 31
0.0
  0
LINE
  5
42E
330
41F
100
AcDbEntity
  8
0
  6
Continuous
 62
     7
370
     0
100
AcDbLine
 10
172.8015502179
 20
167.7706929062
 30
0.0
 11
172.8015502179
 21
274.3624458994
 31
0.0
  0
LINE
  5
42F
330
41F
100
AcDbEntity
  8
0
  6
Continuous
 62
     7
370
     0
100
AcDbLine
 10
130.6015502179
 20
273.3624458994
 30
0.0
 11
172.8015502179
 21
273.3624458994
 31
0.0
  0
MTEXT
  5
430
330
41F
100
AcDbEntity
  8
0
  6
Continuous
 62
     7
370
     0
100
AcDbMText
 10
147.6283414096
 20
277.4351729393
 30
0.0
 40
3.5
 41
0.0
 71
     1
 72
     1
  1
42.2
  7
SLDTEXTSTYLE0
 73
     1
 44
1.0
  0
ENDBLK
  5
42A
330
41F
100
AcDbEntity
  8
0
100
AcDbBlockEnd
  0
BLOCK
  5
43D
330
432
100
AcDbEntity
  8
0
100
AcDbBlockBegin
  2
*D36
 70
     1
 71
     0
 10
0.0
 20
0.0
 30
0.0
  3
*D36
  1

  0
INSERT
  5
43F
330
432
100
AcDbEntity
  8
0
  6
Continuous
 62
     7
370
     0
100
AcDbBlockReference
  2
_Open30
 10
192.3581958584
 20
249.3206929062
 30
0.1
 41
3.0
 42
3.0
 50
90.0
  0
INSERT
  5
440
330
432
100
AcDbEntity
  8
0
  6
Continuous
 62
     7
370
     0
100
AcDbBlockReference
  2
_Open30
 10
192.3581958584
 20
183.3206929062
 30
0.1
 41
3.0
 42
3.0
 50
270.0
  0
LINE
  5
441
330
432
100
AcDbEntity
  8
0
  6
Continuous
 62
     7
370
     0
100
AcDbLine
 10
163.6015502179
 20
249.3206929062
 30
0.0
 11
193.3581958584
 21
249.3206929062
 31
0.0
  0
LINE
  5
442
330
432
100
AcDbEntity
  8
0
  6
Continuous
 62
     7
370
     0
100
AcDbLine
 10
169.1015502179
 20
183.3206929062
 30
0.0
 11
193.3581958584
 21
183.3206929062
 31
0.0
  0
LINE
  5
443
330
432
100
AcDbEntity
  8
0
  6
Continuous
 62
     7
370
     0
100
AcDbLine
 10
192.3581958584
 20
249.3206929062
 30
0.0
 11
192.3581958584
 21
183.3206929062
 31
0.0
  0
MTEXT
  5
444
330
432
100
AcDbEntity
  8
0
  6
Continuous
 62
     7
370
     0
100
AcDbMText
 10
188.2854688185
 20
214.2848733207
 30
0.0
 40
3.5
 41
0.0
 71
     1
 72
     1
  1
66
  7
SLDTEXTSTYLE0
 11
-7.044197039909883E-15
 21
1.0
 31
0.0
 73
     1
 44
1.0
  0
ENDBLK
  5
43E
330
432
100
AcDbEntity
  8
0
100
AcDbBlockEnd
  0
BLOCK
  5
451
330
446
100
AcDbEntity
  8
0
100
AcDbBlockBegin
  2
*D37
 70
     1
 71
     0
 10
0.0
 20
0.0
 30
0.0
  3
*D37
  1

  0
INSERT
  5
453
330
446
100
AcDbEntity
  8
0
  6
Continuous
 62
     7
370
     0
100
AcDbBlockReference
  2
_Open30
 10
181.7583887042
 20
145.3206929062
 30
0.1
 41
3.0
 42
3.0
 50
270.0
  0
INSERT
  5
454
330
446
100
AcDbEntity
  8
0
  6
Continuous
 62
     7
370
     0
100
AcDbBlockReference
  2
_Open30
 10
181.7583887042
 20
164.3206929062
 30
0.1
 41
3.0
 42
3.0
 50
90.0
  0
LINE
  5
455
330
446
100
AcDbEntity
  8
0
  6
Continuous
 62
     7
370
     0
100
AcDbLine
 10
166.1015502179
 20
145.3206929062
 30
0.0
 11
182.7583887042
 21
145.3206929062
 31
0.0
  0
LINE
  5
456
330
446
100
AcDbEntity
  8
0
  6
Continuous
 62
     7
370
     0
100
AcDbLine
 10
169.6015502179
 20
164.3206929062
 30
0.0
 11
182.7583887042
 21
164.3206929062
 31
0.0
  0
LINE
  5
457
330
446
100
AcDbEntity
  8
0
  6
Continuous
 62
     7
370
     0
100
AcDbLine
 10
181.7583887042
 20
145.3206929062
 30
0.0
 11
181.7583887042
 21
164.3206929062
 31
0.0
  0
MTEXT
  5
458
330
446
100
AcDbEntity
  8
0
  6
Continuous
 62
     7
370
     0
100
AcDbMText
 10
177.6856616643
 20
152.7848733207
 30
0.0
 40
3.5
 41
0.0
 71
     1
 72
     1
  1
19
  7
SLDTEXTSTYLE0
 11
6.123031769111886E-17
 21
1.0
 31
0.0
 73
     1
 44
1.0
  0
ENDBLK
  5
452
330
446
100
AcDbEntity
  8
0
100
AcDbBlockEnd
  0
BLOCK
  5
465
330
45A
100
AcDbEntity
  8
0
100
AcDbBlockBegin
  2
*D38
 70
     1
 71
     0
 10
0.0
 20
0.0
 30
0.0
  3
*D38
  1

  0
INSERT
  5
467
330
45A
100
AcDbEntity
  8
0
  6
Continuous
 62
     7
370
     0
100
AcDbBlockReference
  2
_Open30
 10
181.7583887042
 20
164.3206929062
 30
0.1
 41
3.0
 42
3.0
 50
270.0
  0
INSERT
  5
468
330
45A
100
AcDbEntity
  8
0
  6
Continuous
 62
     7
370
     0
100
AcDbBlockReference
  2
_Open30
 10
181.7583887042
 20
202.8206929062
 30
0.1
 41
3.0
 42
3.0
 50
90.0
  0
LINE
  5
469
330
45A
100
AcDbEntity
  8
0
  6
Continuous
 62
     7
370
     0
100
AcDbLine
 10
169.6015502179
 20
164.3206929062
 30
0.0
 11
182.7583887042
 21
164.3206929062
 31
0.0
  0
LINE
  5
46A
330
45A
100
AcDbEntity
  8
0
  6
Continuous
 62
     7
370
     0
100
AcDbLine
 10
158.1015502179
 20
202.8206929062
 30
0.0
 11
182.7583887042
 21
202.8206929062
 31
0.0
  0
LINE
  5
46B
330
45A
100
AcDbEntity
  8
0
  6
Continuous
 62
     7
370
     0
100
AcDbLine
 10
181.7583887042
 20
164.3206929062
 30
0.0
 11
181.7583887042
 21
202.8206929062
 31
0.0
  0
MTEXT
  5
46C
330
45A
100
AcDbEntity
  8
0
  6
Continuous
 62
     7
370
     0
100
AcDbMText
 10
177.6856616643
 20
179.497484098
 30
0.0
 40
3.5
 41
0.0
 71
     1
 72
     1
  1
38.5
  7
SLDTEXTSTYLE0
 11
6.123031769111886E-17
 21
1.0
 31
0.0
 73
     1
 44
1.0
  0
ENDBLK
  5
466
330
45A
100
AcDbEntity
  8
0
100
AcDbBlockEnd
  0
BLOCK
  5
479
330
46E
100
AcDbEntity
  8
0
100
AcDbBlockBegin
  2
*D39
 70
     1
 71
     0
 10
0.0
 20
0.0
 30
0.0
  3
*D39
  1

  0
INSERT
  5
47B
330
46E
100
AcDbEntity
  8
0
  6
Continuous
 62
     7
370
     0
100
AcDbBlockReference
  2
_Open30
 10
192.3581958584
 20
183.3206929062
 30
0.1
 41
3.0
 42
3.0
 50
90.0
  0
INSERT
  5
47C
330
46E
100
AcDbEntity
  8
0
  6
Continuous
 62
     7
370
     0
100
AcDbBlockReference
  2
_Open30
 10
192.3581958584
 20
145.3206929062
 30
0.1
 41
3.0
 42
3.0
 50
270.0
  0
LINE
  5
47D
330
46E
100
AcDbEntity
  8
0
  6
Continuous
 62
     7
370
     0
100
AcDbLine
 10
166.1015502179
 20
183.3206929062
 30
0.0
 11
193.3581958584
 21
183.3206929062
 31
0.0
  0
LINE
  5
47E
330
46E
100
AcDbEntity
  8
0
  6
Continuous
 62
     7
370
     0
100
AcDbLine
 10
166.1015502179
 20
145.3206929062
 30
0.0
 11
193.3581958584
 21
145.3206929062
 31
0.0
  0
LINE
  5
47F
330
46E
100
AcDbEntity
  8
0
  6
Continuous
 62
     7
370
     0
100
AcDbLine
 10
192.3581958584
 20
183.3206929062
 30
0.0
 11
192.3581958584
 21
145.3206929062
 31
0.0
  0
MTEXT
  5
480
330
46E
100
AcDbEntity
  8
0
  6
Continuous
 62
     7
370
     0
100
AcDbMText
 10
188.2854688185
 20
162.2848733207
 30
0.0
 40
3.5
 41
0.0
 71
     1
 72
     1
  1
38
  7
SLDTEXTSTYLE0
 11
-7.044197039909883E-15
 21
1.0
 31
0.0
 73
     1
 44
1.0
  0
ENDBLK
  5
47A
330
46E
100
AcDbEntity
  8
0
100
AcDbBlockEnd
  0
BLOCK
  5
48D
330
482
100
AcDbEntity
  8
0
100
AcDbBlockBegin
  2
*D40
 70
     1
 71
     0
 10
0.0
 20
0.0
 30
0.0
  3
*D40
  1

  0
INSERT
  5
490
330
482
100
AcDbEntity
  8
0
  6
Continuous
 62
     7
370
     0
100
AcDbBlockReference
  2
_Open30
 10
154.6015502179
 20
126.192482109
 30
0.1
 41
3.0
 42
3.0
 50
0.0
  0
INSERT
  5
491
330
482
100
AcDbEntity
  8
0
  6
Continuous
 62
     7
370
     0
100
AcDbBlockReference
  2
_Open30
 10
158.6015502179
 20
126.192482109
 30
0.1
 41
3.0
 42
3.0
 50
180.0
  0
LINE
  5
492
330
482
100
AcDbEntity
  8
0
  6
Continuous
 62
     7
370
     0
100
AcDbLine
 10
154.6015502179
 20
144.3206929062
 30
0.0
 11
154.6015502179
 21
125.192482109
 31
0.0
  0
LINE
  5
493
330
482
100
AcDbEntity
  8
0
  6
Continuous
 62
     7
370
     0
100
AcDbLine
 10
158.6015502179
 20
144.3206929062
 30
0.0
 11
158.6015502179
 21
125.192482109
 31
0.0
  0
LINE
  5
494
330
482
100
AcDbEntity
  8
0
  6
Continuous
 62
     7
370
     0
100
AcDbLine
 10
154.6015502179
 20
126.192482109
 30
0.0
 11
149.6015502179
 21
126.192482109
 31
0.0
  0
LINE
  5
495
330
482
100
AcDbEntity
  8
0
  6
Continuous
 62
     7
370
     0
100
AcDbLine
 10
154.6015502179
 20
126.192482109
 30
0.0
 11
158.6015502179
 21
126.192482109
 31
0.0
  0
LINE
  5
496
330
482
100
AcDbEntity
  8
0
  6
Continuous
 62
     7
370
     0
100
AcDbLine
 10
158.6015502179
 20
126.192482109
 30
0.0
 11
163.6015502179
 21
126.192482109
 31
0.0
  0
MTEXT
  5
497
330
482
100
AcDbEntity
  8
0
  6
Continuous
 62
     7
370
     0
100
AcDbMText
 10
155.5844252438
 20
130.2652091489
 30
0.0
 40
3.5
 41
0.0
 71
     1
 72
     1
  1
4
  7
SLDTEXTSTYLE0
 73
     1
 44
1.0
  0
ENDBLK
  5
48E
330
482
100
AcDbEntity
  8
0
100
AcDbBlockEnd
  0
BLOCK
  5
4A3
330
499
100
AcDbEntity
  8
0
100
AcDbBlockBegin
  2
*D41
 70
     1
 71
     0
 10
0.0
 20
0.0
 30
0.0
  3
*D41
  1

  0
INSERT
  5
4A5
330
499
100
AcDbEntity
  8
0
  6
Continuous
 62
     7
370
     0
100
AcDbBlockReference
  2
_Open30
 10
158.6015502179
 20
126.192482109
 30
0.1
 41
3.0
 42
3.0
 50
0.0
  0
INSERT
  5
4A6
330
499
100
AcDbEntity
  8
0
  6
Continuous
 62
     7
370
     0
100
AcDbBlockReference
  2
_Open30
 10
168.6015502179
 20
126.192482109
 30
0.1
 41
3.0
 42
3.0
 50
180.0
  0
LINE
  5
4A7
330
499
100
AcDbEntity
  8
0
  6
Continuous
 62
     7
370
     0
100
AcDbLine
 10
158.6015502179
 20
144.3206929062
 30
0.0
 11
158.6015502179
 21
125.192482109
 31
0.0
  0
LINE
  5
4A8
330
499
100
AcDbEntity
  8
0
  6
Continuous
 62
     7
370
     0
100
AcDbLine
 10
168.6015502179
 20
144.8206929062
 30
0.0
 11
168.6015502179
 21
125.192482109
 31
0.0
  0
LINE
  5
4A9
330
499
100
AcDbEntity
  8
0
  6
Continuous
 62
     7
370
     0
100
AcDbLine
 10
158.6015502179
 20
126.192482109
 30
0.0
 11
153.6015502179
 21
126.192482109
 31
0.0
  0
LINE
  5
4AA
330
499
100
AcDbEntity
  8
0
  6
Continuous
 62
     7
370
     0
100
AcDbLine
 10
158.6015502179
 20
126.192482109
 30
0.0
 11
168.6015502179
 21
126.192482109
 31
0.0
  0
LINE
  5
4AB
330
499
100
AcDbEntity
  8
0
  6
Continuous
 62
     7
370
     0
100
AcDbLine
 10
168.6015502179
 20
126.192482109
 30
0.0
 11
173.6015502179
 21
126.192482109
 31
0.0
  0
MTEXT
  5
4AC
330
499
100
AcDbEntity
  8
0
  6
Continuous
 62
     7
370
     0
100
AcDbMText
 10
161.5657306324
 20
130.2652091489
 30
0.0
 40
3.5
 41
0.0
 71
     1
 72
     1
  1
10
  7
SLDTEXTSTYLE0
 73
     1
 44
1.0
  0
ENDBLK
  5
4A4
330
499
100
AcDbEntity
  8
0
100
AcDbBlockEnd
  0
BLOCK
  5
4AF
330
4AE
100
AcDbEntity
  8
0
100
AcDbBlockBegin
  2
SW_CENTERMARKSYMBOL_11
 70
     0
 71
     0
 10
0.0
 20
0.0
 30
0.0
  3
SW_CENTERMARKSYMBOL_11
  1

  0
LINE
  5
4B1
330
4AE
100
AcDbEntity
  8
0
  6
Continuous
 62
     7
370
     0
100
AcDbLine
 10
0.0
 20
0.0
 30
0.0
 11
0.0
 21
2.5
 31
0.0
  0
LINE
  5
4B2
330
4AE
100
AcDbEntity
  8
0
  6
Continuous
 62
     7
370
     0
100
AcDbLine
 10
0.0
 20
0.0
 30
0.0
 11
-2.5
 21
0.0
 31
0.0
  0
LINE
  5
4B3
330
4AE
100
AcDbEntity
  8
0
  6
Continuous
 62
     7
370
     0
100
AcDbLine
 10
0.0
 20
0.0
 30
0.0
 11
0.0
 21
-2.5
 31
0.0
  0
LINE
  5
4B4
330
4AE
100
AcDbEntity
  8
0
  6
Continuous
 62
     7
370
     0
100
AcDbLine
 10
0.0
 20
0.0
 30
0.0
 11
2.5
 21
0.0
 31
0.0
  0
LINE
  5
4B5
330
4AE
100
AcDbEntity
  8
0
  6
Continuous
 62
     7
370
     0
100
AcDbLine
 10
0.0
 20
5.0
 30
0.0
 11
0.0
 21
6.5
 31
0.0
  0
LINE
  5
4B6
330
4AE
100
AcDbEntity
  8
0
  6
Continuous
 62
     7
370
     0
100
AcDbLine
 10
-5.0
 20
0.0
 30
0.0
 11
-6.5
 21
0.0
 31
0.0
  0
LINE
  5
4B7
330
4AE
100
AcDbEntity
  8
0
  6
Continuous
 62
     7
370
     0
100
AcDbLine
 10
0.0
 20
-5.0
 30
0.0
 11
0.0
 21
-6.5
 31
0.0
  0
LINE
  5
4B8
330
4AE
100
AcDbEntity
  8
0
  6
Continuous
 62
     7
370
     0
100
AcDbLine
 10
5.0
 20
0.0
 30
0.0
 11
6.5
 21
0.0
 31
0.0
  0
ENDBLK
  5
4B0
330
4AE
100
AcDbEntity
  8
0
100
AcDbBlockEnd
  0
ENDSEC
  0
SECTION
  2
ENTITIES
  0
LINE
  5
2F
330
1F
100
AcDbEntity
  8
0
  6
Continuous
 62
     7
370
     0
100
AcDbLine
 10
20.2604743903
 20
285.0
 30
0.0
 11
196.7604743903
 21
285.0
 31
0.0
  0
LINE
  5
30
330
1F
100
AcDbEntity
  8
0
  6
Continuous
 62
     7
370
     0
100
AcDbLine
 10
20.2604743903
 20
285.0
 30
0.0
 11
20.2604743903
 21
10.0
 31
0.0
  0
LINE
  5
31
330
1F
100
AcDbEntity
  8
0
  6
Continuous
 62
     7
370
     0
100
AcDbLine
 10
20.2604743903
 20
10.0
 30
0.0
 11
196.7604743903
 21
10.0
 31
0.0
  0
LINE
  5
32
330
1F
100
AcDbEntity
  8
0
  6
Continuous
 62
     7
370
     0
100
AcDbLine
 10
196.7604743903
 20
285.0
 30
0.0
 11
196.7604743903
 21
10.0
 31
0.0
  0
LINE
  5
33
330
1F
100
AcDbEntity
  8
0
  6
Continuous
 62
     7
370
     0
100
AcDbLine
 10
127.0104743903
 20
50.75
 30
0.0
 11
196.7604743903
 21
50.75
 31
0.0
  0
LINE
  5
34
330
1F
100
AcDbEntity
  8
0
  6
Continuous
 62
     7
370
     0
100
AcDbLine
 10
127.0104743903
 20
50.75
 30
0.0
 11
127.0104743903
 21
10.0
 31
0.0
  0
LINE
  5
35
330
1F
100
AcDbEntity
  8
0
  6
Continuous
 62
     7
370
     0
100
AcDbLine
 10
127.0104743903
 20
22.75
 30
0.0
 11
196.7604743903
 21
22.75
 31
0.0
  0
LINE
  5
36
330
1F
100
AcDbEntity
  8
0
  6
Continuous
 62
     7
370
     0
100
AcDbLine
 10
127.0104743903
 20
36.75
 30
0.0
 11
196.7604743903
 21
36.75
 31
0.0
  0
MTEXT
  5
38
330
1F
100
AcDbEntity
  8
0
  6
Continuous
 62
     7
370
     0
100
AcDbMText
 10
147.2329445649
 20
29.8861654089
 30
0.0
 40
4.2333333333
 41
0.0
 71
     1
 72
     1
  1
J25411-000-0
  7
SLDTEXTSTYLE0
 73
     1
 44
1.0
  0
ARC
  5
39
330
1F
100
AcDbEntity
  8
0
  6
Continuous
 62
     7
370
     0
100
AcDbCircle
 10
80.3731352416
 20
224.8206929062
 30
0.0
 40
0.4999999999971841
100
AcDbArc
 50
180.0
 51
269.9999999995
  0
ARC
  5
3A
330
1F
100
AcDbEntity
  8
0
  6
Continuous
 62
     7
370
     0
100
AcDbCircle
 10
80.3731352416
 20
215.8206929062
 30
0.0
 40
0.4999999999971841
100
AcDbArc
 50
90.0000000005
 51
180.0
  0
ARC
  5
3B
330
1F
100
AcDbEntity
  8
0
  6
Continuous
 62
     7
370
     0
100
AcDbCircle
 10
54.3731352416
 20
215.8206929062
 30
0.0
 40
0.4999999999924732
100
AcDbArc
 50
0.0
 51
90.0000000007
  0
ARC
  5
3C
330
1F
100
AcDbEntity
  8
0
  6
Continuous
 62
     7
370
     0
100
AcDbCircle
 10
54.3731352416
 20
224.8206929062
 30
0.0
 40
0.4999999999924732
100
AcDbArc
 50
269.9999999993
 51
360.0
  0
LINE
  5
3D
330
1F
100
AcDbEntity
  8
0
  6
Continuous
 62
     7
370
     0
100
AcDbLine
 10
81.8731352416
 20
224.3206929062
 30
0.0
 11
80.3731352416
 21
224.3206929062
 31
0.0
  0
LINE
  5
3E
330
1F
100
AcDbEntity
  8
0
  6
Continuous
 62
     7
370
     0
100
AcDbLine
 10
80.3731352416
 20
216.3206929062
 30
0.0
 11
81.8731352416
 21
216.3206929062
 31
0.0
  0
LINE
  5
3F
330
1F
100
AcDbEntity
  8
0
  6
Continuous
 62
     7
370
     0
100
AcDbLine
 10
53.2731352416
 20
216.3206929062
 30
0.0
 11
54.3731352416
 21
216.3206929062
 31
0.0
  0
LINE
  5
40
330
1F
100
AcDbEntity
  8
0
  6
Continuous
 62
     7
370
     0
100
AcDbLine
 10
54.3731352416
 20
224.3206929062
 30
0.0
 11
53.2731352416
 21
224.3206929062
 31
0.0
  0
LINE
  5
41
330
1F
100
AcDbEntity
  8
0
  6
Continuous
 62
     7
370
     0
100
AcDbLine
 10
63.3731350516
 20
186.320692787
 30
0.0
 11
63.3731350516
 21
183.8206933086
 31
0.0
  0
LINE
  5
42
330
1F
100
AcDbEntity
  8
0
  6
Continuous
 62
     7
370
     0
100
AcDbLine
 10
71.3731354316
 20
183.8206933086
 30
0.0
 11
71.3731354316
 21
186.320692787
 31
0.0
  0
LINE
  5
43
330
1F
100
AcDbEntity
  8
0
  6
Continuous
 62
     7
370
     0
100
AcDbLine
 10
48.7731352416
 20
222.0706929062
 30
0.0
 11
46.2731356946
 21
221.8206939493
 31
0.0
  0
LINE
  5
44
330
1F
100
AcDbEntity
  8
0
  6
Continuous
 62
     7
370
     0
100
AcDbLine
 10
46.2731356946
 20
218.8206915949
 30
0.0
 11
48.7731352416
 21
218.5706929062
 31
0.0
  0
LINE
  5
45
330
1F
100
AcDbEntity
  8
0
  6
Continuous
 62
     7
370
     0
100
AcDbLine
 10
46.2731352416
 20
222.0706929062
 30
0.0
 11
43.7731352416
 21
221.8206929062
 31
0.0
  0
LINE
  5
46
330
1F
100
AcDbEntity
  8
0
  6
Continuous
 62
     7
370
     0
100
AcDbLine
 10
43.7731352416
 20
218.8206929062
 30
0.0
 11
46.2731352416
 21
218.5706929062
 31
0.0
  0
LINE
  5
47
330
1F
100
AcDbEntity
  8
0
  6
Continuous
 62
     7
370
     0
100
AcDbLine
 10
48.7731351731
 20
218.7206936275
 30
0.0
 11
50.7731355009
 21
218.7206936275
 31
0.0
  0
LINE
  5
48
330
1F
100
AcDbEntity
  8
0
  6
Continuous
 62
     7
370
     0
100
AcDbLine
 10
50.7731355009
 20
221.9206919168
 30
0.0
 11
48.7731351731
 21
221.9206919168
 31
0.0
  0
LINE
  5
49
330
1F
100
AcDbEntity
  8
0
  6
Continuous
 62
     7
370
     0
100
AcDbLine
 10
72.3731352416
 20
179.1206929062
 30
0.0
 11
72.3731352416
 21
179.9206929062
 31
0.0
  0
LINE
  5
4A
330
1F
100
AcDbEntity
  8
0
  6
Continuous
 62
     7
370
     0
100
AcDbLine
 10
62.3731352416
 20
179.9206929062
 30
0.0
 11
62.3731352416
 21
179.1206929062
 31
0.0
  0
LINE
  5
4B
330
1F
100
AcDbEntity
  8
0
  6
Continuous
 62
     7
370
     0
100
AcDbLine
 10
71.1731352416
 20
178.1206929062
 30
0.0
 11
71.1731353057
 21
179.1206929107
 31
0.0
  0
LINE
  5
4C
330
1F
100
AcDbEntity
  8
0
  6
Continuous
 62
     7
370
     0
100
AcDbLine
 10
63.5731351775
 20
179.1206929107
 30
0.0
 11
63.5731352416
 21
178.1206929062
 31
0.0
  0
LINE
  5
4D
330
1F
100
AcDbEntity
  8
0
  6
Continuous
 62
     7
370
     0
100
AcDbLine
 10
63.8731352416
 20
174.5206929062
 30
0.0
 11
64.2731352416
 21
174.1206929062
 31
0.0
  0
LINE
  5
4E
330
1F
100
AcDbEntity
  8
0
  6
Continuous
 62
     7
370
     0
100
AcDbLine
 10
70.4731352416
 20
174.1206929062
 30
0.0
 11
70.8731352416
 21
174.5206929062
 31
0.0
  0
LINE
  5
4F
330
1F
100
AcDbEntity
  8
0
  6
Continuous
 62
     7
370
     0
100
AcDbLine
 10
63.8731351336
 20
178.1206927468
 30
0.0
 11
63.8731352416
 21
174.5206929062
 31
0.0
  0
LINE
  5
50
330
1F
100
AcDbEntity
  8
0
  6
Continuous
 62
     7
370
     0
100
AcDbLine
 10
70.8731352416
 20
174.5206929062
 30
0.0
 11
70.8731353497
 21
178.1206927468
 31
0.0
  0
LINE
  5
51
330
1F
100
AcDbEntity
  8
0
  6
Continuous
 62
     7
370
     0
100
AcDbLine
 10
71.8731350479
 20
179.920692483
 30
0.0
 11
71.8731350479
 21
180.6206931566
 31
0.0
  0
LINE
  5
52
330
1F
100
AcDbEntity
  8
0
  6
Continuous
 62
     7
370
     0
100
AcDbLine
 10
62.8731354353
 20
180.6206931566
 30
0.0
 11
62.8731354353
 21
179.920692483
 31
0.0
  0
LINE
  5
53
330
1F
100
AcDbEntity
  8
0
  6
Continuous
 62
     7
370
     0
100
AcDbLine
 10
59.3731352416
 20
226.8206929062
 30
0.0
 11
59.3731352413
 21
187.3206929062
 31
0.0
  0
LINE
  5
54
330
1F
100
AcDbEntity
  8
0
  6
Continuous
 62
     7
370
     0
100
AcDbLine
 10
75.373135242
 20
226.8206929062
 30
0.0
 11
59.3731352416
 21
226.8206929062
 31
0.0
  0
LINE
  5
55
330
1F
100
AcDbEntity
  8
0
  6
Continuous
 62
     7
370
     0
100
AcDbLine
 10
75.373135242
 20
226.8206929062
 30
0.0
 11
75.3731352416
 21
187.3206929062
 31
0.0
  0
LINE
  5
56
330
1F
100
AcDbEntity
  8
0
  6
Continuous
 62
     7
370
     0
100
AcDbLine
 10
75.3731352416
 20
187.3206929062
 30
0.0
 11
59.3731352413
 21
187.3206929062
 31
0.0
  0
LINE
  5
57
330
1F
100
AcDbEntity
  8
0
  6
Continuous
 62
     7
370
     0
100
AcDbLine
 10
79.8731352416
 20
226.8206929062
 30
0.0
 11
75.373135242
 21
226.8206929062
 31
0.0
  0
LINE
  5
58
330
1F
100
AcDbEntity
  8
0
  6
Continuous
 62
     7
370
     0
100
AcDbLine
 10
79.8731352416
 20
226.8206929062
 30
0.0
 11
79.8731352416
 21
187.3206929062
 31
0.0
  0
LINE
  5
59
330
1F
100
AcDbEntity
  8
0
  6
Continuous
 62
     7
370
     0
100
AcDbLine
 10
79.8731352416
 20
187.3206929062
 30
0.0
 11
75.3731352416
 21
187.3206929062
 31
0.0
  0
LINE
  5
5A
330
1F
100
AcDbEntity
  8
0
  6
Continuous
 62
     7
370
     0
100
AcDbLine
 10
75.3731352418
 20
227.8206929062
 30
0.0
 11
75.373135242
 21
226.8206929062
 31
0.0
  0
LINE
  5
5B
330
1F
100
AcDbEntity
  8
0
  6
Continuous
 62
     7
370
     0
100
AcDbLine
 10
78.8731351932
 20
227.8206929062
 30
0.0
 11
75.3731352418
 21
227.8206929062
 31
0.0
  0
ARC
  5
5C
330
1F
100
AcDbEntity
  8
0
  6
Continuous
 62
     7
370
     0
100
AcDbCircle
 10
78.8731352416
 20
226.8206929062
 30
0.0
 40
0.9999999999953815
100
AcDbArc
 50
360.0
 51
90.0000027718
  0
LINE
  5
5D
330
1F
100
AcDbEntity
  8
0
  6
Continuous
 62
     7
370
     0
100
AcDbLine
 10
59.3731352416
 20
227.8206929062
 30
0.0
 11
59.3731352416
 21
226.8206929062
 31
0.0
  0
LINE
  5
5E
330
1F
100
AcDbEntity
  8
0
  6
Continuous
 62
     7
370
     0
100
AcDbLine
 10
75.3731352418
 20
227.8206929062
 30
0.0
 11
59.3731352416
 21
227.8206929062
 31
0.0
  0
LINE
  5
5F
330
1F
100
AcDbEntity
  8
0
  6
Continuous
 62
     7
370
     0
100
AcDbLine
 10
59.3731352413
 20
187.3206929062
 30
0.0
 11
59.3731352415
 21
186.3206929062
 31
0.0
  0
LINE
  5
60
330
1F
100
AcDbEntity
  8
0
  6
Continuous
 62
     7
370
     0
100
AcDbLine
 10
59.3731352415
 20
186.3206929062
 30
0.0
 11
55.8731352416
 21
186.3206929062
 31
0.0
  0
ARC
  5
61
330
1F
100
AcDbEntity
  8
0
  6
Continuous
 62
     7
370
     0
100
AcDbCircle
 10
55.8731352416
 20
187.3206929062
 30
0.0
 40
0.9999999999948273
100
AcDbArc
 50
180.0
 51
270.0000000001
  0
LINE
  5
62
330
1F
100
AcDbEntity
  8
0
  6
Continuous
 62
     7
370
     0
100
AcDbLine
 10
59.3731352413
 20
187.3206929062
 30
0.0
 11
54.8731352416
 21
187.3206929062
 31
0.0
  0
LINE
  5
63
330
1F
100
AcDbEntity
  8
0
  6
Continuous
 62
     7
370
     0
100
AcDbLine
 10
75.3731352416
 20
187.3206929062
 30
0.0
 11
75.3731352416
 21
186.3206929062
 31
0.0
  0
LINE
  5
64
330
1F
100
AcDbEntity
  8
0
  6
Continuous
 62
     7
370
     0
100
AcDbLine
 10
75.3731352416
 20
186.3206929062
 30
0.0
 11
59.3731352415
 21
186.3206929062
 31
0.0
  0
LINE
  5
65
330
1F
100
AcDbEntity
  8
0
  6
Continuous
 62
     7
370
     0
100
AcDbLine
 10
54.8731352416
 20
226.8206929062
 30
0.0
 11
54.8731352416
 21
187.3206929062
 31
0.0
  0
LINE
  5
66
330
1F
100
AcDbEntity
  8
0
  6
Continuous
 62
     7
370
     0
100
AcDbLine
 10
59.3731352416
 20
226.8206929062
 30
0.0
 11
54.8731352416
 21
226.8206929062
 31
0.0
  0
ARC
  5
67
330
1F
100
AcDbEntity
  8
0
  6
Continuous
 62
     7
370
     0
100
AcDbCircle
 10
55.8731352416
 20
226.8206929062
 30
0.0
 40
0.9999999999972076
100
AcDbArc
 50
90.0000000002
 51
180.0
  0
LINE
  5
68
330
1F
100
AcDbEntity
  8
0
  6
Continuous
 62
     7
370
     0
100
AcDbLine
 10
59.3731352416
 20
227.8206929062
 30
0.0
 11
55.8731352416
 21
227.8206929062
 31
0.0
  0
ARC
  5
69
330
1F
100
AcDbEntity
  8
0
  6
Continuous
 62
     7
370
     0
100
AcDbCircle
 10
78.8731352416
 20
187.3206929062
 30
0.0
 40
0.9999999999988347
100
AcDbArc
 50
269.9999999998
 51
360.0
  0
LINE
  5
6A
330
1F
100
AcDbEntity
  8
0
  6
Continuous
 62
     7
370
     0
100
AcDbLine
 10
78.8731352416
 20
186.3206929062
 30
0.0
 11
75.3731352416
 21
186.3206929062
 31
0.0
  0
LINE
  5
6B
330
1F
100
AcDbEntity
  8
0
  6
Continuous
 62
     7
370
     0
100
AcDbLine
 10
81.8731352416
 20
222.3206929062
 30
0.0
 11
81.8731352416
 21
218.3206929062
 31
0.0
  0
LINE
  5
6C
330
1F
100
AcDbEntity
  8
0
  6
Continuous
 62
     7
370
     0
100
AcDbLine
 10
81.8731352416
 20
218.3206929062
 30
0.0
 11
81.8731352416
 21
216.3206929062
 31
0.0
  0
LINE
  5
6D
330
1F
100
AcDbEntity
  8
0
  6
Continuous
 62
     7
370
     0
100
AcDbLine
 10
81.8731352416
 20
224.3206929062
 30
0.0
 11
81.8731352416
 21
222.3206929062
 31
0.0
  0
LINE
  5
6E
330
1F
100
AcDbEntity
  8
0
  6
Continuous
 62
     7
370
     0
100
AcDbLine
 10
53.2731352416
 20
222.3206929062
 30
0.0
 11
53.2731352416
 21
224.3206929062
 31
0.0
  0
LINE
  5
6F
330
1F
100
AcDbEntity
  8
0
  6
Continuous
 62
     7
370
     0
100
AcDbLine
 10
53.2731352416
 20
216.3206929062
 30
0.0
 11
53.2731352416
 21
218.3206929062
 31
0.0
  0
LINE
  5
70
330
1F
100
AcDbEntity
  8
0
  6
Continuous
 62
     7
370
     0
100
AcDbLine
 10
53.2731352416
 20
218.3206929062
 30
0.0
 11
53.2731352416
 21
222.3206929062
 31
0.0
  0
LINE
  5
71
330
1F
100
AcDbEntity
  8
0
  6
Continuous
 62
     7
370
     0
100
AcDbLine
 10
53.2731352416
 20
222.3206929062
 30
0.0
 11
50.7731355009
 21
222.3206912373
 31
0.0
  0
LINE
  5
72
330
1F
100
AcDbEntity
  8
0
  6
Continuous
 62
     7
370
     0
100
AcDbLine
 10
53.2731352416
 20
218.3206929062
 30
0.0
 11
50.7731355009
 21
218.320694307
 31
0.0
  0
LINE
  5
73
330
1F
100
AcDbEntity
  8
0
  6
Continuous
 62
     7
370
     0
100
AcDbLine
 10
50.7731355009
 20
218.320694307
 30
0.0
 11
50.7731355009
 21
222.3206912373
 31
0.0
  0
LINE
  5
74
330
1F
100
AcDbEntity
  8
0
  6
Continuous
 62
     7
370
     0
100
AcDbLine
 10
53.2731352416
 20
216.3206929062
 30
0.0
 11
50.7731355009
 21
216.3206939791
 31
0.0
  0
LINE
  5
75
330
1F
100
AcDbEntity
  8
0
  6
Continuous
 62
     7
370
     0
100
AcDbLine
 10
50.7731355009
 20
216.3206939791
 30
0.0
 11
50.7731355009
 21
218.320694307
 31
0.0
  0
LINE
  5
76
330
1F
100
AcDbEntity
  8
0
  6
Continuous
 62
     7
370
     0
100
AcDbLine
 10
50.7731355009
 20
224.3206915651
 30
0.0
 11
53.2731352416
 21
224.3206929062
 31
0.0
  0
LINE
  5
77
330
1F
100
AcDbEntity
  8
0
  6
Continuous
 62
     7
370
     0
100
AcDbLine
 10
50.7731355009
 20
222.3206912373
 30
0.0
 11
50.7731355009
 21
224.3206915651
 31
0.0
  0
LINE
  5
78
330
1F
100
AcDbEntity
  8
0
  6
Continuous
 62
     7
370
     0
100
AcDbLine
 10
81.8731352416
 20
218.3206929062
 30
0.0
 11
84.3731361655
 21
218.320694307
 31
0.0
  0
LINE
  5
79
330
1F
100
AcDbEntity
  8
0
  6
Continuous
 62
     7
370
     0
100
AcDbLine
 10
81.8731352416
 20
222.3206929062
 30
0.0
 11
84.3731361655
 21
222.3206912373
 31
0.0
  0
LINE
  5
7A
330
1F
100
AcDbEntity
  8
0
  6
Continuous
 62
     7
370
     0
100
AcDbLine
 10
84.3731361655
 20
222.3206912373
 30
0.0
 11
84.3731361655
 21
218.320694307
 31
0.0
  0
LINE
  5
7B
330
1F
100
AcDbEntity
  8
0
  6
Continuous
 62
     7
370
     0
100
AcDbLine
 10
84.3731361655
 20
216.3206939791
 30
0.0
 11
81.8731352416
 21
216.3206929062
 31
0.0
  0
LINE
  5
7C
330
1F
100
AcDbEntity
  8
0
  6
Continuous
 62
     7
370
     0
100
AcDbLine
 10
84.3731361655
 20
218.320694307
 30
0.0
 11
84.3731361655
 21
216.3206939791
 31
0.0
  0
LINE
  5
7D
330
1F
100
AcDbEntity
  8
0
  6
Continuous
 62
     7
370
     0
100
AcDbLine
 10
81.8731352416
 20
224.3206929062
 30
0.0
 11
84.3731361655
 21
224.3206915651
 31
0.0
  0
LINE
  5
7E
330
1F
100
AcDbEntity
  8
0
  6
Continuous
 62
     7
370
     0
100
AcDbLine
 10
84.3731361655
 20
224.3206915651
 30
0.0
 11
84.3731361655
 21
222.3206912373
 31
0.0
  0
LINE
  5
7F
330
1F
100
AcDbEntity
  8
0
  6
Continuous
 62
     7
370
     0
100
AcDbLine
 10
64.7273840131
 20
183.8206933086
 30
0.0
 11
64.7273840131
 21
186.320692787
 31
0.0
  0
LINE
  5
80
330
1F
100
AcDbEntity
  8
0
  6
Continuous
 62
     7
370
     0
100
AcDbLine
 10
70.0188864702
 20
186.320692787
 30
0.0
 11
70.0188864702
 21
183.8206933086
 31
0.0
  0
LINE
  5
81
330
1F
100
AcDbEntity
  8
0
  6
Continuous
 62
     7
370
     0
100
AcDbLine
 10
48.7731352416
 20
218.5706929062
 30
0.0
 11
48.7731352416
 21
222.0706929062
 31
0.0
  0
LINE
  5
82
330
1F
100
AcDbEntity
  8
0
  6
Continuous
 62
     7
370
     0
100
AcDbLine
 10
43.7731352416
 20
218.8206929062
 30
0.0
 11
43.7731352416
 21
221.8206929062
 31
0.0
  0
LINE
  5
83
330
1F
100
AcDbEntity
  8
0
  6
Continuous
 62
     7
370
     0
100
AcDbLine
 10
46.2731352416
 20
218.5706929062
 30
0.0
 11
46.2731352416
 21
222.0706929062
 31
0.0
  0
LINE
  5
84
330
1F
100
AcDbEntity
  8
0
  6
Continuous
 62
     7
370
     0
100
AcDbLine
 10
53.3731352416
 20
194.8206929062
 30
0.0
 11
53.3731352416
 21
210.8206929062
 31
0.0
  0
LINE
  5
85
330
1F
100
AcDbEntity
  8
0
  6
Continuous
 62
     7
370
     0
100
AcDbLine
 10
54.8731352416
 20
210.8206929062
 30
0.0
 11
53.3731352416
 21
210.8206929062
 31
0.0
  0
LINE
  5
86
330
1F
100
AcDbEntity
  8
0
  6
Continuous
 62
     7
370
     0
100
AcDbLine
 10
53.3731352416
 20
194.8206929062
 30
0.0
 11
54.8731352416
 21
194.8206929062
 31
0.0
  0
LINE
  5
87
330
1F
100
AcDbEntity
  8
0
  6
Continuous
 62
     7
370
     0
100
AcDbLine
 10
81.3731352416
 20
210.8206929062
 30
0.0
 11
81.3731352416
 21
194.8206929062
 31
0.0
  0
LINE
  5
88
330
1F
100
AcDbEntity
  8
0
  6
Continuous
 62
     7
370
     0
100
AcDbLine
 10
79.8731352416
 20
194.8206929062
 30
0.0
 11
81.3731352416
 21
194.8206929062
 31
0.0
  0
LINE
  5
89
330
1F
100
AcDbEntity
  8
0
  6
Continuous
 62
     7
370
     0
100
AcDbLine
 10
81.3731352416
 20
210.8206929062
 30
0.0
 11
79.8731352416
 21
210.8206929062
 31
0.0
  0
ARC
  5
8A
330
1F
100
AcDbEntity
  8
0
  6
Continuous
 62
     7
370
     0
100
AcDbCircle
 10
89.3731352416
 20
208.8206929062
 30
0.0
 40
2.000000000009266
100
AcDbArc
 50
0.0
 51
89.9999999999
  0
LINE
  5
8B
330
1F
100
AcDbEntity
  8
0
  6
Continuous
 62
     7
370
     0
100
AcDbLine
 10
91.3731352416
 20
208.8206929062
 30
0.0
 11
91.3731352416
 21
196.8206929062
 31
0.0
  0
ARC
  5
8C
330
1F
100
AcDbEntity
  8
0
  6
Continuous
 62
     7
370
     0
100
AcDbCircle
 10
89.3731352416
 20
196.8206929063
 30
0.0
 40
2.000000000009266
100
AcDbArc
 50
270.0000000001
 51
360.0
  0
LINE
  5
8D
330
1F
100
AcDbEntity
  8
0
  6
Continuous
 62
     7
370
     0
100
AcDbLine
 10
81.3731352416
 20
194.8206929062
 30
0.0
 11
89.3731352416
 21
194.8206929062
 31
0.0
  0
LINE
  5
8E
330
1F
100
AcDbEntity
  8
0
  6
Continuous
 62
     7
370
     0
100
AcDbLine
 10
89.3731352416
 20
210.8206929062
 30
0.0
 11
81.3731352416
 21
210.8206929062
 31
0.0
  0
ARC
  5
8F
330
1F
100
AcDbEntity
  8
0
  6
Continuous
 62
     7
370
     0
100
AcDbCircle
 10
45.3731352416
 20
196.8206929063
 30
0.0
 40
2.000000000009237
100
AcDbArc
 50
180.0
 51
269.9999999999
  0
LINE
  5
90
330
1F
100
AcDbEntity
  8
0
  6
Continuous
 62
     7
370
     0
100
AcDbLine
 10
43.3731352416
 20
196.8206929062
 30
0.0
 11
43.3731352416
 21
208.8206929062
 31
0.0
  0
ARC
  5
91
330
1F
100
AcDbEntity
  8
0
  6
Continuous
 62
     7
370
     0
100
AcDbCircle
 10
45.3731352416
 20
208.8206929062
 30
0.0
 40
2.000000000009266
100
AcDbArc
 50
90.0000000001
 51
180.0
  0
LINE
  5
92
330
1F
100
AcDbEntity
  8
0
  6
Continuous
 62
     7
370
     0
100
AcDbLine
 10
53.3731352416
 20
210.8206929062
 30
0.0
 11
45.3731352416
 21
210.8206929062
 31
0.0
  0
LINE
  5
93
330
1F
100
AcDbEntity
  8
0
  6
Continuous
 62
     7
370
     0
100
AcDbLine
 10
45.3731352416
 20
194.8206929062
 30
0.0
 11
53.3731352416
 21
194.8206929062
 31
0.0
  0
LINE
  5
94
330
1F
100
AcDbEntity
  8
0
  6
Continuous
 62
     7
370
     0
100
AcDbLine
 10
88.1051860032
 20
202.8206926976
 30
0.0
 11
87.2391603169
 21
204.3206920122
 31
0.0
  0
LINE
  5
95
330
1F
100
AcDbEntity
  8
0
  6
Continuous
 62
     7
370
     0
100
AcDbLine
 10
87.2391603169
 20
204.3206920122
 30
0.0
 11
85.5071089444
 21
204.3206920122
 31
0.0
  0
LINE
  5
96
330
1F
100
AcDbEntity
  8
0
  6
Continuous
 62
     7
370
     0
100
AcDbLine
 10
85.5071089444
 20
204.3206920122
 30
0.0
 11
84.6410851208
 21
202.8206926976
 31
0.0
  0
LINE
  5
97
330
1F
100
AcDbEntity
  8
0
  6
Continuous
 62
     7
370
     0
100
AcDbLine
 10
84.6410851208
 20
202.8206926976
 30
0.0
 11
85.5071089444
 21
201.3206933831
 31
0.0
  0
LINE
  5
98
330
1F
100
AcDbEntity
  8
0
  6
Continuous
 62
     7
370
     0
100
AcDbLine
 10
85.5071089444
 20
201.3206933831
 30
0.0
 11
87.2391603169
 21
201.3206933831
 31
0.0
  0
LINE
  5
99
330
1F
100
AcDbEntity
  8
0
  6
Continuous
 62
     7
370
     0
100
AcDbLine
 10
87.2391603169
 20
201.3206933831
 30
0.0
 11
88.1051860032
 21
202.8206926976
 31
0.0
  0
CIRCLE
  5
9A
330
1F
100
AcDbEntity
  8
0
  6
Continuous
 62
     7
370
     0
100
AcDbCircle
 10
86.3731352416
 20
202.8206929062
 30
0.0
 40
3.099999999999994
  0
CIRCLE
  5
9B
330
1F
100
AcDbEntity
  8
0
  6
Continuous
 62
     7
370
     0
100
AcDbCircle
 10
86.3731352416
 20
202.8206929062
 30
0.0
 40
3.5
  0
SPLINE
  5
9C
330
1F
100
AcDbEntity
  8
0
  6
Continuous
 62
     7
370
     0
100
AcDbSpline
210
0.0
220
0.0
230
1.0
 70
    12
 71
     3
 72
    12
 73
     8
 74
     0
 42
0.00000001
 43
0.00000001
 40
0.0
 40
0.0
 40
0.0
 40
0.0
 40
0.1578340238588828
 40
0.307918531378172
 40
0.4720445847047854
 40
0.706220856373084
 40
1.0
 40
1.0
 40
1.0
 40
1.0
 10
85.50710894441242
 20
201.3206933830781
 30
0.0
 41
1.0
 10
85.51704602802343
 20
201.3379036781855
 30
0.0
 41
1.0
 10
85.53643229289123
 20
201.3714792575474
 30
0.0
 41
1.0
 10
85.64500101913281
 20
201.5595274621574
 30
0.0
 41
1.0
 10
85.81935316236621
 20
201.8615127802792
 30
0.0
 41
1.0
 10
86.06960443772292
 20
202.294963595801
 30
0.0
 41
1.0
 10
86.2646192479624
 20
202.632738760874
 30
0.0
 41
1.0
 10
86.37313463067646
 20
202.8206926976247
 30
0.0
 41
1.0
  0
SPLINE
  5
9D
330
1F
100
AcDbEntity
  8
0
  6
Continuous
 62
     7
370
     0
100
AcDbSpline
210
0.0
220
0.0
230
1.0
 70
    12
 71
     3
 72
    12
 73
     8
 74
     0
 42
0.00000001
 43
0.00000001
 40
0.0
 40
0.0
 40
0.0
 40
0.0
 40
0.2535796658478984
 40
0.4629712921567666
 40
0.6367312535285855
 40
0.8157214610043849
 40
1.0
 40
1.0
 40
1.0
 40
1.0
 10
86.37313463067646
 20
202.8206926976247
 30
0.0
 41
1.0
 10
86.46672768008149
 20
202.6585863148893
 30
0.0
 41
1.0
 10
86.63760453203669
 20
202.3626217262819
 30
0.0
 41
1.0
 10
86.86900915031293
 20
201.9618159552478
 30
0.0
 41
1.0
 10
87.05779837102432
 20
201.6348228242843
 30
0.0
 41
1.0
 10
87.20124648376772
 20
201.3863606743924
 30
0.0
 41
1.0
 10
87.22640031251669
 20
201.3427938898734
 30
0.0
 41
1.0
 10
87.2391603169405
 20
201.3206933830781
 30
0.0
 41
1.0
  0
SPLINE
  5
9E
330
1F
100
AcDbEntity
  8
0
  6
Continuous
 62
     7
370
     0
100
AcDbSpline
210
0.0
220
0.0
230
1.0
 70
    12
 71
     3
 72
    12
 73
     8
 74
     0
 42
0.00000001
 43
0.00000001
 40
0.0
 40
0.0
 40
0.0
 40
0.0
 40
0.1578340152895532
 40
0.3079185146602596
 40
0.4720445590759285
 40
0.7062194190124138
 40
1.0
 40
1.0
 40
1.0
 40
1.0
 10
85.50710894441242
 20
204.3206920121712
 30
0.0
 41
1.0
 10
85.51704602059013
 20
204.3034817120801
 30
0.0
 41
1.0
 10
85.53643227095633
 20
204.2699061229957
 30
0.0
 41
1.0
 10
85.64500110507947
 20
204.0818579907151
 30
0.0
 41
1.0
 10
85.81935229593876
 20
203.7798731026983
 30
0.0
 41
1.0
 10
86.0696064953769
 20
203.346424455445
 30
0.0
 41
1.0
 10
86.2646196458679
 20
203.0086481688924
 30
0.0
 41
1.0
 10
86.37313463067646
 20
202.8206926976247
 30
0.0
 41
1.0
  0
SPLINE
  5
9F
330
1F
100
AcDbEntity
  8
0
  6
Continuous
 62
     7
370
     0
100
AcDbSpline
210
0.0
220
0.0
230
1.0
 70
    28
 71
     3
 72
    12
 73
     8
 74
     0
 42
0.00000001
 43
0.00000001
 40
0.0
 40
0.0
 40
0.0
 40
0.0
 40
0.1578341635973667
 40
0.307918673852043
 40
0.4720449102673841
 40
0.7062199311740486
 40
1.0
 40
1.0
 40
1.0
 40
1.0
 10
84.64108512079353
 20
202.8206926976247
 30
0.0
 41
1.0
 10
84.66095846567997
 20
202.8206926976247
 30
0.0
 41
1.0
 10
84.69972937473389
 20
202.8206926976247
 30
0.0
 41
1.0
 10
84.91686778492553
 20
202.8206926976247
 30
0.0
 41
1.0
 10
85.26557031838233
 20
202.8206926976247
 30
0.0
 41
1.0
 10
85.76607445269158
 20
202.8206926976247
 30
0.0
 41
1.0
 10
86.15610341445988
 20
202.8206926976247
 30
0.0
 41
1.0
 10
86.37313463067646
 20
202.8206926976247
 30
0.0
 41
1.0
  0
SPLINE
  5
A0
330
1F
100
AcDbEntity
  8
0
  6
Continuous
 62
     7
370
     0
100
AcDbSpline
210
0.0
220
0.0
230
1.0
 70
    28
 71
     3
 72
    12
 73
     8
 74
     0
 42
0.00000001
 43
0.00000001
 40
0.0
 40
0.0
 40
0.0
 40
0.0
 40
0.1578340361110699
 40
0.3079184251390232
 40
0.4720445289858151
 40
0.7062201684669908
 40
1.0
 40
1.0
 40
1.0
 40
1.0
 10
88.10518600320454
 20
202.8206926976247
 30
0.0
 41
1.0
 10
88.0853126586667
 20
202.8206926976247
 30
0.0
 41
1.0
 10
88.04654175029283
 20
202.8206926976247
 30
0.0
 41
1.0
 10
87.82940333504202
 20
202.8206926976247
 30
0.0
 41
1.0
 10
87.4807003117803
 20
202.8206926976247
 30
0.0
 41
1.0
 10
86.98019532960608
 20
202.8206926976247
 30
0.0
 41
1.0
 10
86.59016581980637
 20
202.8206926976247
 30
0.0
 41
1.0
 10
86.37313463067646
 20
202.8206926976247
 30
0.0
 41
1.0
  0
SPLINE
  5
A1
330
1F
100
AcDbEntity
  8
0
  6
Continuous
 62
     7
370
     0
100
AcDbSpline
210
0.0
220
0.0
230
1.0
 70
    12
 71
     3
 72
    12
 73
     8
 74
     0
 42
0.00000001
 43
0.00000001
 40
0.0
 40
0.0
 40
0.0
 40
0.0
 40
0.1578338612102849
 40
0.3079183132738278
 40
0.4720443059563887
 40
0.7062190920801323
 40
1.0
 40
1.0
 40
1.0
 40
1.0
 10
87.2391603169405
 20
204.3206920121712
 30
0.0
 41
1.0
 10
87.2292240234639
 20
204.3034817005562
 30
0.0
 41
1.0
 10
87.20983929382449
 20
204.2699060781721
 30
0.0
 41
1.0
 10
87.10126989490553
 20
204.0818579863993
 30
0.0
 41
1.0
 10
86.926918834699
 20
203.7798731299324
 30
0.0
 41
1.0
 10
86.67666475128604
 20
203.3464240222914
 30
0.0
 41
1.0
 10
86.48165036941882
 20
203.0086480905248
 30
0.0
 41
1.0
 10
86.37313463067646
 20
202.8206926976247
 30
0.0
 41
1.0
  0
CIRCLE
  5
A2
330
1F
100
AcDbEntity
  8
0
  6
Continuous
 62
     7
370
     0
100
AcDbCircle
 10
86.3731352416
 20
202.8206929062
 30
0.0
 40
3.799999999999997
  0
CIRCLE
  5
A3
330
1F
100
AcDbEntity
  8
0
  6
Continuous
 62
     7
370
     0
100
AcDbCircle
 10
86.3731352416
 20
202.8206929062
 30
0.0
 40
5.0
  0
LINE
  5
A4
330
1F
100
AcDbEntity
  8
0
  6
Continuous
 62
     7
370
     0
100
AcDbLine
 10
50.1051853625
 20
202.8206926976
 30
0.0
 11
49.2391615388
 21
204.3206920122
 31
0.0
  0
LINE
  5
A5
330
1F
100
AcDbEntity
  8
0
  6
Continuous
 62
     7
370
     0
100
AcDbLine
 10
47.5071101663
 20
204.3206920122
 30
0.0
 11
46.64108448
 21
202.8206926976
 31
0.0
  0
LINE
  5
A6
330
1F
100
AcDbEntity
  8
0
  6
Continuous
 62
     7
370
     0
100
AcDbLine
 10
46.64108448
 20
202.8206926976
 30
0.0
 11
47.5071101663
 21
201.3206933831
 31
0.0
  0
CIRCLE
  5
A7
330
1F
100
AcDbEntity
  8
0
  6
Continuous
 62
     7
370
     0
100
AcDbCircle
 10
48.3731352416
 20
202.8206929062
 30
0.0
 40
3.100000000000009
  0
LINE
  5
A8
330
1F
100
AcDbEntity
  8
0
  6
Continuous
 62
     7
370
     0
100
AcDbLine
 10
49.2391615388
 20
204.3206920122
 30
0.0
 11
47.5071101663
 21
204.3206920122
 31
0.0
  0
LINE
  5
A9
330
1F
100
AcDbEntity
  8
0
  6
Continuous
 62
     7
370
     0
100
AcDbLine
 10
49.2391615388
 20
201.3206933831
 30
0.0
 11
50.1051853625
 21
202.8206926976
 31
0.0
  0
LINE
  5
AA
330
1F
100
AcDbEntity
  8
0
  6
Continuous
 62
     7
370
     0
100
AcDbLine
 10
47.5071101663
 20
201.3206933831
 30
0.0
 11
49.2391615388
 21
201.3206933831
 31
0.0
  0
CIRCLE
  5
AB
330
1F
100
AcDbEntity
  8
0
  6
Continuous
 62
     7
370
     0
100
AcDbCircle
 10
48.3731352416
 20
202.8206929062
 30
0.0
 40
3.500000000000007
  0
SPLINE
  5
AC
330
1F
100
AcDbEntity
  8
0
  6
Continuous
 62
     7
370
     0
100
AcDbSpline
210
0.0
220
0.0
230
1.0
 70
    12
 71
     3
 72
    12
 73
     8
 74
     0
 42
0.00000001
 43
0.00000001
 40
0.0
 40
0.0
 40
0.0
 40
0.0
 40
0.1578338697792758
 40
0.307918329991085
 40
0.4720443315842442
 40
0.706220529438866
 40
1.0
 40
1.0
 40
1.0
 40
1.0
 10
47.50711016630764
 20
201.3206933830781
 30
0.0
 41
1.0
 10
47.51704646721752
 20
201.3379036897094
 30
0.0
 41
1.0
 10
47.53643121135855
 20
201.3714793023709
 30
0.0
 41
1.0
 10
47.64500050239588
 20
201.5595274664733
 30
0.0
 41
1.0
 10
47.81935251497649
 20
201.8615127530448
 30
0.0
 41
1.0
 10
48.06960367430511
 20
202.2949640289593
 30
0.0
 41
1.0
 10
48.264619715924
 20
202.632738839242
 30
0.0
 41
1.0
 10
48.37313585257168
 20
202.8206926976247
 30
0.0
 41
1.0
  0
SPLINE
  5
AD
330
1F
100
AcDbEntity
  8
0
  6
Continuous
 62
     7
370
     0
100
AcDbSpline
210
0.0
220
0.0
230
1.0
 70
    12
 71
     3
 72
    12
 73
     8
 74
     0
 42
0.00000001
 43
0.00000001
 40
0.0
 40
0.0
 40
0.0
 40
0.0
 40
0.253579280995655
 40
0.4629709364184003
 40
0.6367309219498585
 40
0.8157214353822395
 40
1.0
 40
1.0
 40
1.0
 40
1.0
 10
48.37313585257168
 20
202.8206926976247
 30
0.0
 41
1.0
 10
48.46672812168681
 20
202.658586233283
 30
0.0
 41
1.0
 10
48.63760367706982
 20
202.3626212739177
 30
0.0
 41
1.0
 10
48.86900875642194
 20
201.9618160254193
 30
0.0
 41
1.0
 10
49.05779723198037
 20
201.6348225431514
 30
0.0
 41
1.0
 10
49.20124825804875
 20
201.3863608618615
 30
0.0
 41
1.0
 10
49.2264017268688
 20
201.3427939416218
 30
0.0
 41
1.0
 10
49.23916153883572
 20
201.3206933830781
 30
0.0
 41
1.0
  0
SPLINE
  5
AE
330
1F
100
AcDbEntity
  8
0
  6
Continuous
 62
     7
370
     0
100
AcDbSpline
210
0.0
220
0.0
230
1.0
 70
    28
 71
     3
 72
    12
 73
     8
 74
     0
 42
0.00000001
 43
0.00000001
 40
0.0
 40
0.0
 40
0.0
 40
0.0
 40
0.1578340361110699
 40
0.3079184251390232
 40
0.4720445289858151
 40
0.7062201684669908
 40
1.0
 40
1.0
 40
1.0
 40
1.0
 10
46.6410844800436
 20
202.8206926976247
 30
0.0
 41
1.0
 10
46.66095782458145
 20
202.8206926976247
 30
0.0
 41
1.0
 10
46.69972873295531
 20
202.8206926976247
 30
0.0
 41
1.0
 10
46.91686714820612
 20
202.8206926976247
 30
0.0
 41
1.0
 10
47.26557017146785
 20
202.8206926976247
 30
0.0
 41
1.0
 10
47.76607515364207
 20
202.8206926976247
 30
0.0
 41
1.0
 10
48.15610466344177
 20
202.8206926976247
 30
0.0
 41
1.0
 10
48.37313585257168
 20
202.8206926976247
 30
0.0
 41
1.0
  0
SPLINE
  5
AF
330
1F
100
AcDbEntity
  8
0
  6
Continuous
 62
     7
370
     0
100
AcDbSpline
210
0.0
220
0.0
230
1.0
 70
    12
 71
     3
 72
    12
 73
     8
 74
     0
 42
0.00000001
 43
0.00000001
 40
0.0
 40
0.0
 40
0.0
 40
0.0
 40
0.1578340152895532
 40
0.3079185146602596
 40
0.4720445590759285
 40
0.7062194190124138
 40
1.0
 40
1.0
 40
1.0
 40
1.0
 10
49.23916153883572
 20
204.3206920121712
 30
0.0
 41
1.0
 10
49.22922446265801
 20
204.3034817120801
 30
0.0
 41
1.0
 10
49.20983821229181
 20
204.2699061229957
 30
0.0
 41
1.0
 10
49.10126937816867
 20
204.0818579907151
 30
0.0
 41
1.0
 10
48.92691818730938
 20
203.7798731026983
 30
0.0
 41
1.0
 10
48.67666398787124
 20
203.346424455445
 30
0.0
 41
1.0
 10
48.48165083738024
 20
203.0086481688924
 30
0.0
 41
1.0
 10
48.37313585257168
 20
202.8206926976247
 30
0.0
 41
1.0
  0
SPLINE
  5
B0
330
1F
100
AcDbEntity
  8
0
  6
Continuous
 62
     7
370
     0
100
AcDbSpline
210
0.0
220
0.0
230
1.0
 70
    12
 71
     3
 72
    12
 73
     8
 74
     0
 42
0.00000001
 43
0.00000001
 40
0.0
 40
0.0
 40
0.0
 40
0.0
 40
0.1578338612102849
 40
0.3079183132738278
 40
0.4720443059563887
 40
0.7062190920801323
 40
1.0
 40
1.0
 40
1.0
 40
1.0
 10
47.50711016630764
 20
204.3206920121712
 30
0.0
 41
1.0
 10
47.51704645978423
 20
204.3034817005562
 30
0.0
 41
1.0
 10
47.53643118942365
 20
204.2699060781721
 30
0.0
 41
1.0
 10
47.6450005883426
 20
204.0818579863993
 30
0.0
 41
1.0
 10
47.81935164854914
 20
203.7798731299324
 30
0.0
 41
1.0
 10
48.06960573196211
 20
203.3464240222914
 30
0.0
 41
1.0
 10
48.26462011382932
 20
203.0086480905248
 30
0.0
 41
1.0
 10
48.37313585257168
 20
202.8206926976247
 30
0.0
 41
1.0
  0
SPLINE
  5
B1
330
1F
100
AcDbEntity
  8
0
  6
Continuous
 62
     7
370
     0
100
AcDbSpline
210
0.0
220
0.0
230
1.0
 70
    28
 71
     3
 72
    12
 73
     8
 74
     0
 42
0.00000001
 43
0.00000001
 40
0.0
 40
0.0
 40
0.0
 40
0.0
 40
0.1578341635973667
 40
0.307918673852043
 40
0.4720449102673841
 40
0.7062199311740486
 40
1.0
 40
1.0
 40
1.0
 40
1.0
 10
50.10518536245461
 20
202.8206926976247
 30
0.0
 41
1.0
 10
50.08531201756816
 20
202.8206926976247
 30
0.0
 41
1.0
 10
50.04654110851424
 20
202.8206926976247
 30
0.0
 41
1.0
 10
49.8294026983226
 20
202.8206926976247
 30
0.0
 41
1.0
 10
49.48070016486579
 20
202.8206926976247
 30
0.0
 41
1.0
 10
48.98019603055656
 20
202.8206926976247
 30
0.0
 41
1.0
 10
48.59016706878825
 20
202.8206926976247
 30
0.0
 41
1.0
 10
48.37313585257168
 20
202.8206926976247
 30
0.0
 41
1.0
  0
CIRCLE
  5
B2
330
1F
100
AcDbEntity
  8
0
  6
Continuous
 62
     7
370
     0
100
AcDbCircle
 10
48.3731352416
 20
202.8206929062
 30
0.0
 40
3.799999999999997
  0
CIRCLE
  5
B3
330
1F
100
AcDbEntity
  8
0
  6
Continuous
 62
     7
370
     0
100
AcDbCircle
 10
48.3731352416
 20
202.8206929062
 30
0.0
 40
4.999999999999993
  0
LINE
  5
B4
330
1F
100
AcDbEntity
  8
0
  6
Continuous
 62
     7
370
     0
100
AcDbLine
 10
81.1051857871
 20
151.82069272
 30
0.0
 11
80.2391610322
 21
153.3206929658
 31
0.0
  0
LINE
  5
B5
330
1F
100
AcDbEntity
  8
0
  6
Continuous
 62
     7
370
     0
100
AcDbLine
 10
80.2391610322
 20
153.3206929658
 30
0.0
 11
78.5071096597
 21
153.3206929658
 31
0.0
  0
CIRCLE
  5
B6
330
1F
100
AcDbEntity
  8
0
  6
Continuous
 62
     7
370
     0
100
AcDbCircle
 10
79.3731352416
 20
151.8206929062
 30
0.0
 40
3.099999999999994
  0
LINE
  5
B7
330
1F
100
AcDbEntity
  8
0
  6
Continuous
 62
     7
370
     0
100
AcDbLine
 10
78.5071096597
 20
150.3206924741
 30
0.0
 11
80.2391610322
 21
150.3206924741
 31
0.0
  0
LINE
  5
B8
330
1F
100
AcDbEntity
  8
0
  6
Continuous
 62
     7
370
     0
100
AcDbLine
 10
80.2391610322
 20
150.3206924741
 30
0.0
 11
81.1051857871
 21
151.82069272
 31
0.0
  0
LINE
  5
B9
330
1F
100
AcDbEntity
  8
0
  6
Continuous
 62
     7
370
     0
100
AcDbLine
 10
78.5071096597
 20
153.3206929658
 30
0.0
 11
77.6410839734
 21
151.82069272
 31
0.0
  0
LINE
  5
BA
330
1F
100
AcDbEntity
  8
0
  6
Continuous
 62
     7
370
     0
100
AcDbLine
 10
77.6410839734
 20
151.82069272
 30
0.0
 11
78.5071096597
 21
150.3206924741
 31
0.0
  0
CIRCLE
  5
BB
330
1F
100
AcDbEntity
  8
0
  6
Continuous
 62
     7
370
     0
100
AcDbCircle
 10
79.3731352416
 20
151.8206929062
 30
0.0
 40
3.5
  0
SPLINE
  5
BC
330
1F
100
AcDbEntity
  8
0
  6
Continuous
 62
     7
370
     0
100
AcDbSpline
210
0.0
220
0.0
230
1.0
 70
    28
 71
     3
 72
    12
 73
     8
 74
     0
 42
0.00000001
 43
0.00000001
 40
0.0
 40
0.0
 40
0.0
 40
0.0
 40
0.1578340998541973
 40
0.307918549495492
 40
0.4720447196265366
 40
0.7062200498205589
 40
1.0
 40
1.0
 40
1.0
 40
1.0
 10
81.1051857871377
 20
151.8206927199764
 30
0.0
 41
1.0
 10
81.08531244242556
 20
151.8206927199764
 30
0.0
 41
1.0
 10
81.04654153371166
 20
151.8206927199764
 30
0.0
 41
1.0
 10
80.82940312099044
 20
151.8206927199764
 30
0.0
 41
1.0
 10
80.48070034263124
 20
151.8206927199764
 30
0.0
 41
1.0
 10
79.98019578438934
 20
151.8206927199764
 30
0.0
 41
1.0
 10
79.59016654860541
 20
151.8206927199764
 30
0.0
 41
1.0
 10
79.3731353459322
 20
151.8206927199764
 30
0.0
 41
1.0
  0
SPLINE
  5
BD
330
1F
100
AcDbEntity
  8
0
  6
Continuous
 62
     7
370
     0
100
AcDbSpline
210
0.0
220
0.0
230
1.0
 70
    12
 71
     3
 72
    12
 73
     8
 74
     0
 42
0.00000001
 43
0.00000001
 40
0.0
 40
0.0
 40
0.0
 40
0.0
 40
0.1578342031637297
 40
0.3079183715726905
 40
0.4720449041547445
 40
0.7062199225537724
 40
0.9999999999999999
 40
0.9999999999999999
 40
0.9999999999999999
 40
0.9999999999999999
 10
80.23916103219624
 20
153.3206929658456
 30
0.0
 41
1.0
 10
80.22922387021391
 20
153.3034818397065
 30
0.0
 41
1.0
 10
80.20983748453632
 20
153.2699046946552
 30
0.0
 41
1.0
 10
80.10127007608026
 20
153.0818579955008
 30
0.0
 41
1.0
 10
79.92691710772466
 20
152.7798723436859
 30
0.0
 41
1.0
 10
79.67666561413638
 20
152.3464226408365
 30
0.0
 41
1.0
 10
79.48165101934937
 20
152.008647406457
 30
0.0
 41
1.0
 10
79.3731353459322
 20
151.8206927199764
 30
0.0
 41
1.0
  0
SPLINE
  5
BE
330
1F
100
AcDbEntity
  8
0
  6
Continuous
 62
     7
370
     0
100
AcDbSpline
210
0.0
220
0.0
230
1.0
 70
    12
 71
     3
 72
    12
 73
     8
 74
     0
 42
0.00000001
 43
0.00000001
 40
0.0
 40
0.0
 40
0.0
 40
0.0
 40
0.1578341356175896
 40
0.3079184130369514
 40
0.472044753672912
 40
0.7062199511825963
 40
1.0
 40
1.0
 40
1.0
 40
1.0
 10
78.50710965966816
 20
153.3206929658456
 30
0.0
 41
1.0
 10
78.51704630626102
 20
153.3034818037624
 30
0.0
 41
1.0
 10
78.53643169737309
 20
153.2699045696967
 30
0.0
 41
1.0
 10
78.64500120806159
 20
153.0818582948423
 30
0.0
 41
1.0
 10
78.81935203272283
 20
152.7798718669178
 30
0.0
 41
1.0
 10
79.06960554770613
 20
152.3464229992921
 30
0.0
 41
1.0
 10
79.26461986720409
 20
152.0086474884216
 30
0.0
 41
1.0
 10
79.3731353459322
 20
151.8206927199764
 30
0.0
 41
1.0
  0
SPLINE
  5
BF
330
1F
100
AcDbEntity
  8
0
  6
Continuous
 62
     7
370
     0
100
AcDbSpline
210
0.0
220
0.0
230
1.0
 70
    12
 71
     3
 72
    12
 73
     8
 74
     0
 42
0.00000001
 43
0.00000001
 40
0.0
 40
0.0
 40
0.0
 40
0.0
 40
0.1578341356175896
 40
0.3079184130369514
 40
0.472044753672912
 40
0.7062199511825963
 40
1.0
 40
1.0
 40
1.0
 40
1.0
 10
78.50710965966816
 20
150.3206924741072
 30
0.0
 41
1.0
 10
78.51704630626102
 20
150.3379036361904
 30
0.0
 41
1.0
 10
78.53643169737309
 20
150.371480870256
 30
0.0
 41
1.0
 10
78.64500120806159
 20
150.5595271451105
 30
0.0
 41
1.0
 10
78.81935203272283
 20
150.861513573035
 30
0.0
 41
1.0
 10
79.06960554770613
 20
151.2949624406607
 30
0.0
 41
1.0
 10
79.26461986720409
 20
151.6327379515312
 30
0.0
 41
1.0
 10
79.3731353459322
 20
151.8206927199764
 30
0.0
 41
1.0
  0
SPLINE
  5
C0
330
1F
100
AcDbEntity
  8
0
  6
Continuous
 62
     7
370
     0
100
AcDbSpline
210
0.0
220
0.0
230
1.0
 70
    12
 71
     3
 72
    12
 73
     8
 74
     0
 42
0.00000001
 43
0.00000001
 40
0.0
 40
0.0
 40
0.0
 40
0.0
 40
0.2535801196307403
 40
0.4629716932480135
 40
0.6367309609938163
 40
0.8157215073764883
 40
1.0
 40
1.0
 40
1.0
 40
1.0
 10
79.3731353459322
 20
151.8206927199764
 30
0.0
 41
1.0
 10
79.46672796234914
 20
151.6585856774793
 30
0.0
 41
1.0
 10
79.63760386603261
 20
151.362620157542
 30
0.0
 41
1.0
 10
79.86900856541112
 20
150.9618141602169
 30
0.0
 41
1.0
 10
80.05779845325364
 20
150.6348227374973
 30
0.0
 41
1.0
 10
80.20124732040662
 20
150.3863596269817
 30
0.0
 41
1.0
 10
80.22640107757172
 20
150.3427929188131
 30
0.0
 41
1.0
 10
80.23916103219624
 20
150.3206924741072
 30
0.0
 41
1.0
  0
SPLINE
  5
C1
330
1F
100
AcDbEntity
  8
0
  6
Continuous
 62
     7
370
     0
100
AcDbSpline
210
0.0
220
0.0
230
1.0
 70
    28
 71
     3
 72
    12
 73
     8
 74
     0
 42
0.00000001
 43
0.00000001
 40
0.0
 40
0.0
 40
0.0
 40
0.0
 40
0.1578341712029368
 40
0.3079183422098286
 40
0.4720448299485833
 40
0.7062201112091019
 40
1.0
 40
1.0
 40
1.0
 40
1.0
 10
77.64108397340412
 20
151.8206927199764
 30
0.0
 41
1.0
 10
77.66095777107421
 20
151.8206927199764
 30
0.0
 41
1.0
 10
77.6997295198365
 20
151.8206927199764
 30
0.0
 41
1.0
 10
77.91686656776452
 20
151.8206927199764
 30
0.0
 41
1.0
 10
78.26557039046011
 20
151.8206927199764
 30
0.0
 41
1.0
 10
78.76607479788726
 20
151.8206927199764
 30
0.0
 41
1.0
 10
79.15610410408006
 20
151.8206927199764
 30
0.0
 41
1.0
 10
79.3731353459322
 20
151.8206927199764
 30
0.0
 41
1.0
  0
CIRCLE
  5
C2
330
1F
100
AcDbEntity
  8
0
  6
Continuous
 62
     7
370
     0
100
AcDbCircle
 10
79.3731352416
 20
151.8206929062
 30
0.0
 40
3.799999999999997
  0
CIRCLE
  5
C3
330
1F
100
AcDbEntity
  8
0
  6
Continuous
 62
     7
370
     0
100
AcDbCircle
 10
79.3731352416
 20
151.8206929062
 30
0.0
 40
5.0
  0
LINE
  5
C4
330
1F
100
AcDbEntity
  8
0
  6
Continuous
 62
     7
370
     0
100
AcDbLine
 10
62.3731352416
 20
179.9206929062
 30
0.0
 11
72.3731352416
 21
179.9206929062
 31
0.0
  0
LINE
  5
C5
330
1F
100
AcDbEntity
  8
0
  6
Continuous
 62
     7
370
     0
100
AcDbLine
 10
62.3731352416
 20
179.1206929062
 30
0.0
 11
72.3731352416
 21
179.1206929062
 31
0.0
  0
LINE
  5
C6
330
1F
100
AcDbEntity
  8
0
  6
Continuous
 62
     7
370
     0
100
AcDbLine
 10
63.5731352416
 20
178.1206929062
 30
0.0
 11
71.1731352416
 21
178.1206929062
 31
0.0
  0
LINE
  5
C7
330
1F
100
AcDbEntity
  8
0
  6
Continuous
 62
     7
370
     0
100
AcDbLine
 10
70.4731352416
 20
174.1206929062
 30
0.0
 11
64.2731352416
 21
174.1206929062
 31
0.0
  0
LINE
  5
C8
330
1F
100
AcDbEntity
  8
0
  6
Continuous
 62
     7
370
     0
100
AcDbLine
 10
63.8731352416
 20
174.5206929062
 30
0.0
 11
70.8731352416
 21
174.5206929062
 31
0.0
  0
LINE
  5
C9
330
1F
100
AcDbEntity
  8
0
  6
Continuous
 62
     7
370
     0
100
AcDbLine
 10
56.2391608236
 20
153.3206929658
 30
0.0
 11
54.5071094511
 21
153.3206929658
 31
0.0
  0
LINE
  5
CA
330
1F
100
AcDbEntity
  8
0
  6
Continuous
 62
     7
370
     0
100
AcDbLine
 10
54.5071094511
 20
153.3206929658
 30
0.0
 11
53.6410846961
 21
151.82069272
 31
0.0
  0
LINE
  5
CB
330
1F
100
AcDbEntity
  8
0
  6
Continuous
 62
     7
370
     0
100
AcDbLine
 10
53.6410846961
 20
151.82069272
 30
0.0
 11
54.5071094511
 21
150.3206924741
 31
0.0
  0
LINE
  5
CC
330
1F
100
AcDbEntity
  8
0
  6
Continuous
 62
     7
370
     0
100
AcDbLine
 10
54.5071094511
 20
150.3206924741
 30
0.0
 11
56.2391608236
 21
150.3206924741
 31
0.0
  0
LINE
  5
CD
330
1F
100
AcDbEntity
  8
0
  6
Continuous
 62
     7
370
     0
100
AcDbLine
 10
56.2391608236
 20
150.3206924741
 30
0.0
 11
57.1051865098
 21
151.82069272
 31
0.0
  0
CIRCLE
  5
CE
330
1F
100
AcDbEntity
  8
0
  6
Continuous
 62
     7
370
     0
100
AcDbCircle
 10
55.3731352416
 20
151.8206929062
 30
0.0
 40
3.100000000000001
  0
LINE
  5
CF
330
1F
100
AcDbEntity
  8
0
  6
Continuous
 62
     7
370
     0
100
AcDbLine
 10
57.1051865098
 20
151.82069272
 30
0.0
 11
56.2391608236
 21
153.3206929658
 31
0.0
  0
CIRCLE
  5
D0
330
1F
100
AcDbEntity
  8
0
  6
Continuous
 62
     7
370
     0
100
AcDbCircle
 10
55.3731352416
 20
151.8206929062
 30
0.0
 40
3.5
  0
SPLINE
  5
D1
330
1F
100
AcDbEntity
  8
0
  6
Continuous
 62
     7
370
     0
100
AcDbSpline
210
0.0
220
0.0
230
1.0
 70
    12
 71
     3
 72
    12
 73
     8
 74
     0
 42
0.00000001
 43
0.00000001
 40
0.0
 40
0.0
 40
0.0
 40
0.0
 40
0.1578342031637297
 40
0.3079183715726905
 40
0.4720449041547445
 40
0.7062199225537724
 40
0.9999999999999999
 40
0.9999999999999999
 40
0.9999999999999999
 40
0.9999999999999999
 10
54.5071094510519
 20
153.3206929658456
 30
0.0
 41
1.0
 10
54.51704661303422
 20
153.3034818397065
 30
0.0
 41
1.0
 10
54.53643299871181
 20
153.2699046946552
 30
0.0
 41
1.0
 10
54.64500040716789
 20
153.0818579955008
 30
0.0
 41
1.0
 10
54.81935337552347
 20
152.7798723436859
 30
0.0
 41
1.0
 10
55.06960486911174
 20
152.3464226408365
 30
0.0
 41
1.0
 10
55.26461946389877
 20
152.008647406457
 30
0.0
 41
1.0
 10
55.37313513731594
 20
151.8206927199764
 30
0.0
 41
1.0
  0
SPLINE
  5
D2
330
1F
100
AcDbEntity
  8
0
  6
Continuous
 62
     7
370
     0
100
AcDbSpline
210
0.0
220
0.0
230
1.0
 70
    28
 71
     3
 72
    12
 73
     8
 74
     0
 42
0.00000001
 43
0.00000001
 40
0.0
 40
0.0
 40
0.0
 40
0.0
 40
0.1578340998541973
 40
0.307918549495492
 40
0.4720447196265366
 40
0.7062200498205589
 40
1.0
 40
1.0
 40
1.0
 40
1.0
 10
53.64108469611044
 20
151.8206927199764
 30
0.0
 41
1.0
 10
53.66095804082258
 20
151.8206927199764
 30
0.0
 41
1.0
 10
53.69972894953647
 20
151.8206927199764
 30
0.0
 41
1.0
 10
53.91686736225771
 20
151.8206927199764
 30
0.0
 41
1.0
 10
54.2655701406169
 20
151.8206927199764
 30
0.0
 41
1.0
 10
54.76607469885881
 20
151.8206927199764
 30
0.0
 41
1.0
 10
55.15610393464273
 20
151.8206927199764
 30
0.0
 41
1.0
 10
55.37313513731594
 20
151.8206927199764
 30
0.0
 41
1.0
  0
SPLINE
  5
D3
330
1F
100
AcDbEntity
  8
0
  6
Continuous
 62
     7
370
     0
100
AcDbSpline
210
0.0
220
0.0
230
1.0
 70
    12
 71
     3
 72
    12
 73
     8
 74
     0
 42
0.00000001
 43
0.00000001
 40
0.0
 40
0.0
 40
0.0
 40
0.0
 40
0.1578342031637297
 40
0.3079183715726905
 40
0.4720449041547445
 40
0.7062199225537724
 40
0.9999999999999999
 40
0.9999999999999999
 40
0.9999999999999999
 40
0.9999999999999999
 10
54.5071094510519
 20
150.3206924741072
 30
0.0
 41
1.0
 10
54.51704661303422
 20
150.3379036002463
 30
0.0
 41
1.0
 10
54.53643299871181
 20
150.3714807452976
 30
0.0
 41
1.0
 10
54.64500040716789
 20
150.559527444452
 30
0.0
 41
1.0
 10
54.81935337552347
 20
150.8615130962669
 30
0.0
 41
1.0
 10
55.06960486911174
 20
151.2949627991163
 30
0.0
 41
1.0
 10
55.26461946389877
 20
151.6327380334958
 30
0.0
 41
1.0
 10
55.37313513731594
 20
151.8206927199764
 30
0.0
 41
1.0
  0
SPLINE
  5
D4
330
1F
100
AcDbEntity
  8
0
  6
Continuous
 62
     7
370
     0
100
AcDbSpline
210
0.0
220
0.0
230
1.0
 70
    12
 71
     3
 72
    12
 73
     8
 74
     0
 42
0.00000001
 43
0.00000001
 40
0.0
 40
0.0
 40
0.0
 40
0.0
 40
0.2535801196307403
 40
0.4629716932480135
 40
0.6367309609938163
 40
0.8157215073764883
 40
1.0
 40
1.0
 40
1.0
 40
1.0
 10
55.37313513731594
 20
151.8206927199764
 30
0.0
 41
1.0
 10
55.46672775373289
 20
151.6585856774793
 30
0.0
 41
1.0
 10
55.63760365741636
 20
151.362620157542
 30
0.0
 41
1.0
 10
55.86900835679487
 20
150.9618141602169
 30
0.0
 41
1.0
 10
56.05779824463738
 20
150.6348227374973
 30
0.0
 41
1.0
 10
56.20124711179037
 20
150.3863596269817
 30
0.0
 41
1.0
 10
56.22640086895548
 20
150.3427929188131
 30
0.0
 41
1.0
 10
56.23916082357998
 20
150.3206924741072
 30
0.0
 41
1.0
  0
SPLINE
  5
D5
330
1F
100
AcDbEntity
  8
0
  6
Continuous
 62
     7
370
     0
100
AcDbSpline
210
0.0
220
0.0
230
1.0
 70
    28
 71
     3
 72
    12
 73
     8
 74
     0
 42
0.00000001
 43
0.00000001
 40
0.0
 40
0.0
 40
0.0
 40
0.0
 40
0.1578341712029368
 40
0.3079183422098286
 40
0.4720448299485833
 40
0.7062201112091019
 40
1.0
 40
1.0
 40
1.0
 40
1.0
 10
57.10518650984402
 20
151.8206927199764
 30
0.0
 41
1.0
 10
57.08531271217393
 20
151.8206927199764
 30
0.0
 41
1.0
 10
57.04654096341163
 20
151.8206927199764
 30
0.0
 41
1.0
 10
56.82940391548361
 20
151.8206927199764
 30
0.0
 41
1.0
 10
56.48070009278802
 20
151.8206927199764
 30
0.0
 41
1.0
 10
55.98019568536088
 20
151.8206927199764
 30
0.0
 41
1.0
 10
55.59016637916808
 20
151.8206927199764
 30
0.0
 41
1.0
 10
55.37313513731594
 20
151.8206927199764
 30
0.0
 41
1.0
  0
SPLINE
  5
D6
330
1F
100
AcDbEntity
  8
0
  6
Continuous
 62
     7
370
     0
100
AcDbSpline
210
0.0
220
0.0
230
1.0
 70
    12
 71
     3
 72
    12
 73
     8
 74
     0
 42
0.00000001
 43
0.00000001
 40
0.0
 40
0.0
 40
0.0
 40
0.0
 40
0.1578341356175896
 40
0.3079184130369514
 40
0.472044753672912
 40
0.7062199511825963
 40
1.0
 40
1.0
 40
1.0
 40
1.0
 10
56.23916082357998
 20
153.3206929658456
 30
0.0
 41
1.0
 10
56.22922417698712
 20
153.3034818037624
 30
0.0
 41
1.0
 10
56.20983878587504
 20
153.2699045696967
 30
0.0
 41
1.0
 10
56.10126927518655
 20
153.0818582948423
 30
0.0
 41
1.0
 10
55.92691845052531
 20
152.7798718669178
 30
0.0
 41
1.0
 10
55.67666493554201
 20
152.3464229992921
 30
0.0
 41
1.0
 10
55.48165061604405
 20
152.0086474884216
 30
0.0
 41
1.0
 10
55.37313513731594
 20
151.8206927199764
 30
0.0
 41
1.0
  0
CIRCLE
  5
D7
330
1F
100
AcDbEntity
  8
0
  6
Continuous
 62
     7
370
     0
100
AcDbCircle
 10
55.3731352416
 20
151.8206929062
 30
0.0
 40
3.799999999999997
  0
CIRCLE
  5
D8
330
1F
100
AcDbEntity
  8
0
  6
Continuous
 62
     7
370
     0
100
AcDbCircle
 10
55.3731352416
 20
151.8206929062
 30
0.0
 40
5.0
  0
LINE
  5
D9
330
1F
100
AcDbEntity
  8
0
  6
Continuous
 62
     7
370
     0
100
AcDbLine
 10
50.3731352416
 20
183.8206929062
 30
0.0
 11
47.3731352416
 21
183.8206929062
 31
0.0
  0
LINE
  5
DA
330
1F
100
AcDbEntity
  8
0
  6
Continuous
 62
     7
370
     0
100
AcDbLine
 10
50.3731352416
 20
183.8206929062
 30
0.0
 11
50.3731352416
 21
180.6206929062
 31
0.0
  0
LINE
  5
DB
330
1F
100
AcDbEntity
  8
0
  6
Continuous
 62
     7
370
     0
100
AcDbLine
 10
47.3731352416
 20
180.6206929062
 30
0.0
 11
50.3731352416
 21
180.6206929062
 31
0.0
  0
LINE
  5
DC
330
1F
100
AcDbEntity
  8
0
  6
Continuous
 62
     7
370
     0
100
AcDbLine
 10
47.3731352416
 20
183.8206929062
 30
0.0
 11
47.3731352416
 21
180.6206929062
 31
0.0
  0
LINE
  5
DD
330
1F
100
AcDbEntity
  8
0
  6
Continuous
 62
     7
370
     0
100
AcDbLine
 10
84.3731352416
 20
180.6206929062
 30
0.0
 11
84.3731352416
 21
183.8206929062
 31
0.0
  0
LINE
  5
DE
330
1F
100
AcDbEntity
  8
0
  6
Continuous
 62
     7
370
     0
100
AcDbLine
 10
87.3731352416
 20
180.6206929062
 30
0.0
 11
87.3731352416
 21
183.8206929062
 31
0.0
  0
LINE
  5
DF
330
1F
100
AcDbEntity
  8
0
  6
Continuous
 62
     7
370
     0
100
AcDbLine
 10
87.3731352416
 20
183.8206929062
 30
0.0
 11
84.3731352416
 21
183.8206929062
 31
0.0
  0
LINE
  5
E0
330
1F
100
AcDbEntity
  8
0
  6
Continuous
 62
     7
370
     0
100
AcDbLine
 10
87.3731352416
 20
180.6206929062
 30
0.0
 11
84.3731352416
 21
180.6206929062
 31
0.0
  0
LINE
  5
E1
330
1F
100
AcDbEntity
  8
0
  6
Continuous
 62
     7
370
     0
100
AcDbLine
 10
84.3731352416
 20
183.8206929062
 30
0.0
 11
50.3731352416
 21
183.8206929062
 31
0.0
  0
LINE
  5
E2
330
1F
100
AcDbEntity
  8
0
  6
Continuous
 62
     7
370
     0
100
AcDbLine
 10
50.3731352416
 20
180.6206929062
 30
0.0
 11
84.3731352416
 21
180.6206929062
 31
0.0
  0
LINE
  5
E3
330
1F
100
AcDbEntity
  8
0
  6
Continuous
 62
     7
370
     0
100
AcDbLine
 10
64.0190333342
 20
180.6206931566
 30
0.0
 11
64.0190333342
 21
179.920692483
 31
0.0
  0
LINE
  5
E4
330
1F
100
AcDbEntity
  8
0
  6
Continuous
 62
     7
370
     0
100
AcDbLine
 10
70.7272371491
 20
180.6206931566
 30
0.0
 11
70.7272371491
 21
179.920692483
 31
0.0
  0
LINE
  5
E5
330
1F
100
AcDbEntity
  8
0
  6
Continuous
 62
     7
370
     0
100
AcDbLine
 10
71.6157756959
 20
169.8206928764
 30
0.0
 11
69.4944554688
 21
170.5706929994
 31
0.0
  0
LINE
  5
E6
330
1F
100
AcDbEntity
  8
0
  6
Continuous
 62
     7
370
     0
100
AcDbLine
 10
69.4944554688
 20
170.5706929994
 30
0.0
 11
67.3731352416
 21
169.8206928764
 31
0.0
  0
LINE
  5
E7
330
1F
100
AcDbEntity
  8
0
  6
Continuous
 62
     7
370
     0
100
AcDbLine
 10
67.3731352416
 20
169.8206928764
 30
0.0
 11
65.2518150145
 21
170.5706929994
 31
0.0
  0
LINE
  5
E8
330
1F
100
AcDbEntity
  8
0
  6
Continuous
 62
     7
370
     0
100
AcDbLine
 10
65.2518150145
 20
170.5706929994
 30
0.0
 11
63.1304947873
 21
169.8206928764
 31
0.0
  0
LINE
  5
E9
330
1F
100
AcDbEntity
  8
0
  6
Continuous
 62
     7
370
     0
100
AcDbLine
 10
63.1304947873
 20
169.8206928764
 30
0.0
 11
61.0091743273
 21
170.5706929994
 31
0.0
  0
LINE
  5
EA
330
1F
100
AcDbEntity
  8
0
  6
Continuous
 62
     7
370
     0
100
AcDbLine
 10
61.0091743273
 20
170.5706929994
 30
0.0
 11
58.887854333
 21
169.8206928764
 31
0.0
  0
LINE
  5
EB
330
1F
100
AcDbEntity
  8
0
  6
Continuous
 62
     7
370
     0
100
AcDbLine
 10
58.887854333
 20
169.8206928764
 30
0.0
 11
56.7665334073
 21
170.5706929994
 31
0.0
  0
LINE
  5
EC
330
1F
100
AcDbEntity
  8
0
  6
Continuous
 62
     7
370
     0
100
AcDbLine
 10
56.7665334073
 20
170.5706929994
 30
0.0
 11
54.645213413
 21
169.8206928764
 31
0.0
  0
LINE
  5
ED
330
1F
100
AcDbEntity
  8
0
  6
Continuous
 62
     7
370
     0
100
AcDbLine
 10
54.645213413
 20
169.8206928764
 30
0.0
 11
52.5238924873
 21
170.5706929994
 31
0.0
  0
LINE
  5
EE
330
1F
100
AcDbEntity
  8
0
  6
Continuous
 62
     7
370
     0
100
AcDbLine
 10
52.5238924873
 20
170.5706929994
 30
0.0
 11
50.4025734243
 21
169.8206928764
 31
0.0
  0
LINE
  5
EF
330
1F
100
AcDbEntity
  8
0
  6
Continuous
 62
     7
370
     0
100
AcDbLine
 10
50.4025734243
 20
169.8206928764
 30
0.0
 11
48.2812515674
 21
170.5706929994
 31
0.0
  0
LINE
  5
F0
330
1F
100
AcDbEntity
  8
0
  6
Continuous
 62
     7
370
     0
100
AcDbLine
 10
48.2812515674
 20
170.5706929994
 30
0.0
 11
47.3731356887
 21
170.2496251297
 31
0.0
  0
LINE
  5
F1
330
1F
100
AcDbEntity
  8
0
  6
Continuous
 62
     7
370
     0
100
AcDbLine
 10
87.3731347946
 20
170.2496251297
 30
0.0
 11
86.4650189159
 21
170.5706929994
 31
0.0
  0
LINE
  5
F2
330
1F
100
AcDbEntity
  8
0
  6
Continuous
 62
     7
370
     0
100
AcDbLine
 10
86.4650189159
 20
170.5706929994
 30
0.0
 11
84.3436970589
 21
169.8206928764
 31
0.0
  0
LINE
  5
F3
330
1F
100
AcDbEntity
  8
0
  6
Continuous
 62
     7
370
     0
100
AcDbLine
 10
84.3436970589
 20
169.8206928764
 30
0.0
 11
82.2223779959
 21
170.5706929994
 31
0.0
  0
LINE
  5
F4
330
1F
100
AcDbEntity
  8
0
  6
Continuous
 62
     7
370
     0
100
AcDbLine
 10
82.2223779959
 20
170.5706929994
 30
0.0
 11
80.1010570703
 21
169.8206928764
 31
0.0
  0
LINE
  5
F5
330
1F
100
AcDbEntity
  8
0
  6
Continuous
 62
     7
370
     0
100
AcDbLine
 10
80.1010570703
 20
169.8206928764
 30
0.0
 11
77.9797370759
 21
170.5706929994
 31
0.0
  0
LINE
  5
F6
330
1F
100
AcDbEntity
  8
0
  6
Continuous
 62
     7
370
     0
100
AcDbLine
 10
77.9797370759
 20
170.5706929994
 30
0.0
 11
75.8584161503
 21
169.8206928764
 31
0.0
  0
LINE
  5
F7
330
1F
100
AcDbEntity
  8
0
  6
Continuous
 62
     7
370
     0
100
AcDbLine
 10
75.8584161503
 20
169.8206928764
 30
0.0
 11
73.7370961559
 21
170.5706929994
 31
0.0
  0
LINE
  5
F8
330
1F
100
AcDbEntity
  8
0
  6
Continuous
 62
     7
370
     0
100
AcDbLine
 10
73.7370961559
 20
170.5706929994
 30
0.0
 11
71.6157756959
 21
169.8206928764
 31
0.0
  0
LINE
  5
F9
330
1F
100
AcDbEntity
  8
0
  6
Continuous
 62
     7
370
     0
100
AcDbLine
 10
87.3731347946
 20
170.2496251297
 30
0.0
 11
87.3731352416
 21
180.6206929062
 31
0.0
  0
LINE
  5
FA
330
1F
100
AcDbEntity
  8
0
  6
Continuous
 62
     7
370
     0
100
AcDbLine
 10
47.3731356887
 20
170.2496251297
 30
0.0
 11
47.3731352416
 21
180.6206929062
 31
0.0
  0
LINE
  5
FB
330
1F
100
AcDbEntity
  8
0
  6
Continuous
 62
     7
370
     0
100
AcDbLine
 10
85.3863387582
 20
169.8206928764
 30
0.0
 11
87.3731347946
 21
169.8206928764
 31
0.0
  0
LINE
  5
FC
330
1F
100
AcDbEntity
  8
0
  6
Continuous
 62
     7
370
     0
100
AcDbLine
 10
84.8650179086
 20
170.0050076676
 30
0.0
 11
85.3863387582
 21
169.8206928764
 31
0.0
  0
LINE
  5
FD
330
1F
100
AcDbEntity
  8
0
  6
Continuous
 62
     7
370
     0
100
AcDbLine
 10
87.3731347946
 20
170.2496251297
 30
0.0
 11
87.3731347946
 21
169.8206928764
 31
0.0
  0
LINE
  5
FE
330
1F
100
AcDbEntity
  8
0
  6
Continuous
 62
     7
370
     0
100
AcDbLine
 10
50.9238924113
 20
170.0050076676
 30
0.0
 11
51.445213261
 21
169.8206928764
 31
0.0
  0
LINE
  5
FF
330
1F
100
AcDbEntity
  8
0
  6
Continuous
 62
     7
370
     0
100
AcDbLine
 10
51.445213261
 20
169.8206928764
 30
0.0
 11
54.645213413
 21
169.8206928764
 31
0.0
  0
LINE
  5
100
330
1F
100
AcDbEntity
  8
0
  6
Continuous
 62
     7
370
     0
100
AcDbLine
 10
76.9010569183
 20
169.8206928764
 30
0.0
 11
80.1010570703
 21
169.8206928764
 31
0.0
  0
LINE
  5
101
330
1F
100
AcDbEntity
  8
0
  6
Continuous
 62
     7
370
     0
100
AcDbLine
 10
76.3797369999
 20
170.0050076676
 30
0.0
 11
76.9010569183
 21
169.8206928764
 31
0.0
  0
LINE
  5
102
330
1F
100
AcDbEntity
  8
0
  6
Continuous
 62
     7
370
     0
100
AcDbLine
 10
80.6223779199
 20
170.0050076676
 30
0.0
 11
81.1436978382
 21
169.8206928764
 31
0.0
  0
LINE
  5
103
330
1F
100
AcDbEntity
  8
0
  6
Continuous
 62
     7
370
     0
100
AcDbLine
 10
81.1436978382
 20
169.8206928764
 30
0.0
 11
84.3436970589
 21
169.8206928764
 31
0.0
  0
LINE
  5
104
330
1F
100
AcDbEntity
  8
0
  6
Continuous
 62
     7
370
     0
100
AcDbLine
 10
55.687854181
 20
169.8206928764
 30
0.0
 11
58.887854333
 21
169.8206928764
 31
0.0
  0
LINE
  5
105
330
1F
100
AcDbEntity
  8
0
  6
Continuous
 62
     7
370
     0
100
AcDbLine
 10
55.1665333313
 20
170.0050076676
 30
0.0
 11
55.687854181
 21
169.8206928764
 31
0.0
  0
LINE
  5
106
330
1F
100
AcDbEntity
  8
0
  6
Continuous
 62
     7
370
     0
100
AcDbLine
 10
59.9304946353
 20
169.8206928764
 30
0.0
 11
63.1304947873
 21
169.8206928764
 31
0.0
  0
LINE
  5
107
330
1F
100
AcDbEntity
  8
0
  6
Continuous
 62
     7
370
     0
100
AcDbLine
 10
59.4091742513
 20
170.0050076676
 30
0.0
 11
59.9304946353
 21
169.8206928764
 31
0.0
  0
LINE
  5
108
330
1F
100
AcDbEntity
  8
0
  6
Continuous
 62
     7
370
     0
100
AcDbLine
 10
72.1370960799
 20
170.0050076676
 30
0.0
 11
72.6584164639
 21
169.8206928764
 31
0.0
  0
LINE
  5
109
330
1F
100
AcDbEntity
  8
0
  6
Continuous
 62
     7
370
     0
100
AcDbLine
 10
72.6584164639
 20
169.8206928764
 30
0.0
 11
75.8584161503
 21
169.8206928764
 31
0.0
  0
LINE
  5
10A
330
1F
100
AcDbEntity
  8
0
  6
Continuous
 62
     7
370
     0
100
AcDbLine
 10
68.4157758932
 20
169.8206928764
 30
0.0
 11
71.6157756959
 21
169.8206928764
 31
0.0
  0
LINE
  5
10B
330
1F
100
AcDbEntity
  8
0
  6
Continuous
 62
     7
370
     0
100
AcDbLine
 10
67.8944555674
 20
170.0050076676
 30
0.0
 11
68.4157758932
 21
169.8206928764
 31
0.0
  0
LINE
  5
10C
330
1F
100
AcDbEntity
  8
0
  6
Continuous
 62
     7
370
     0
100
AcDbLine
 10
63.6518149385
 20
170.0050076676
 30
0.0
 11
64.1731353225
 21
169.8206928764
 31
0.0
  0
LINE
  5
10D
330
1F
100
AcDbEntity
  8
0
  6
Continuous
 62
     7
370
     0
100
AcDbLine
 10
67.3731352416
 20
169.8206928764
 30
0.0
 11
64.1731353225
 21
169.8206928764
 31
0.0
  0
LINE
  5
10E
330
1F
100
AcDbEntity
  8
0
  6
Continuous
 62
     7
370
     0
100
AcDbLine
 10
47.3731356887
 20
169.8206928764
 30
0.0
 11
50.4025734243
 21
169.8206928764
 31
0.0
  0
LINE
  5
10F
330
1F
100
AcDbEntity
  8
0
  6
Continuous
 62
     7
370
     0
100
AcDbLine
 10
47.3731356887
 20
170.2496251297
 30
0.0
 11
47.3731356887
 21
169.8206928764
 31
0.0
  0
ARC
  5
110
330
1F
100
AcDbEntity
  8
0
  6
Continuous
 62
     7
370
     0
100
AcDbCircle
 10
67.3731352416
 20
164.3206929062
 30
0.0
 40
12.00000000000002
100
AcDbArc
 50
0.0
 51
27.279612736
  0
ARC
  5
111
330
1F
100
AcDbEntity
  8
0
  6
Continuous
 62
     7
370
     0
100
AcDbCircle
 10
67.3731352416
 20
164.3206929062
 30
0.0
 40
12.00000000000001
100
AcDbArc
 50
152.720387264
 51
204.6243183522
  0
ARC
  5
112
330
1F
100
AcDbEntity
  8
0
  6
Continuous
 62
     7
370
     0
100
AcDbCircle
 10
67.3731352416
 20
164.3206929062
 30
0.0
 40
12.00000000000001
100
AcDbArc
 50
335.3756816478
 51
0.0
  0
LINE
  5
113
330
1F
100
AcDbEntity
  8
0
  6
Continuous
 62
     7
370
     0
100
AcDbLine
 10
44.3731351969
 20
145.3206935172
 30
0.0
 11
48.3731358526
 21
145.3206935172
 31
0.0
  0
LINE
  5
114
330
1F
100
AcDbEntity
  8
0
  6
Continuous
 62
     7
370
     0
100
AcDbLine
 10
86.3731346307
 20
145.3206935172
 30
0.0
 11
90.3731352863
 21
145.3206935172
 31
0.0
  0
LINE
  5
115
330
1F
100
AcDbEntity
  8
0
  6
Continuous
 62
     7
370
     0
100
AcDbLine
 10
42.3731348691
 20
147.3206919824
 30
0.0
 11
44.3731351969
 21
145.3206935172
 31
0.0
  0
LINE
  5
116
330
1F
100
AcDbEntity
  8
0
  6
Continuous
 62
     7
370
     0
100
AcDbLine
 10
42.3731348691
 20
247.3206897472
 30
0.0
 11
42.3731348691
 21
147.3206919824
 31
0.0
  0
LINE
  5
117
330
1F
100
AcDbEntity
  8
0
  6
Continuous
 62
     7
370
     0
100
AcDbLine
 10
44.3731351969
 20
249.3206938003
 30
0.0
 11
42.3731348691
 21
247.3206897472
 31
0.0
  0
LINE
  5
118
330
1F
100
AcDbEntity
  8
0
  6
Continuous
 62
     7
370
     0
100
AcDbLine
 10
90.3731352863
 20
249.3206938003
 30
0.0
 11
44.3731351969
 21
249.3206938003
 31
0.0
  0
LINE
  5
119
330
1F
100
AcDbEntity
  8
0
  6
Continuous
 62
     7
370
     0
100
AcDbLine
 10
92.3731356142
 20
247.3206897472
 30
0.0
 11
90.3731352863
 21
249.3206938003
 31
0.0
  0
LINE
  5
11A
330
1F
100
AcDbEntity
  8
0
  6
Continuous
 62
     7
370
     0
100
AcDbLine
 10
92.3731356142
 20
147.3206919824
 30
0.0
 11
92.3731356142
 21
247.3206897472
 31
0.0
  0
LINE
  5
11B
330
1F
100
AcDbEntity
  8
0
  6
Continuous
 62
     7
370
     0
100
AcDbLine
 10
90.3731352863
 20
145.3206935172
 30
0.0
 11
92.3731356142
 21
147.3206919824
 31
0.0
  0
CIRCLE
  5
11C
330
1F
100
AcDbEntity
  8
0
  6
Continuous
 62
     7
370
     0
100
AcDbCircle
 10
74.8731352416
 20
239.3206929062
 30
0.0
 40
3.300000000000011
  0
CIRCLE
  5
11D
330
1F
100
AcDbEntity
  8
0
  6
Continuous
 62
     7
370
     0
100
AcDbCircle
 10
59.8731352416
 20
239.3206929062
 30
0.0
 40
3.300000000000004
  0
CIRCLE
  5
11E
330
1F
100
AcDbEntity
  8
0
  6
Continuous
 62
     7
370
     0
100
AcDbCircle
 10
86.3731352416
 20
239.3206929062
 30
0.0
 40
2.749999999999986
  0
CIRCLE
  5
11F
330
1F
100
AcDbEntity
  8
0
  6
Continuous
 62
     7
370
     0
100
AcDbCircle
 10
48.3731352416
 20
239.3206929062
 30
0.0
 40
2.749999999999993
  0
CIRCLE
  5
120
330
1F
100
AcDbEntity
  8
0
  6
Continuous
 62
     7
370
     0
100
AcDbCircle
 10
52.3731352416
 20
164.3206929062
 30
0.0
 40
1.249999999999986
  0
CIRCLE
  5
121
330
1F
100
AcDbEntity
  8
0
  6
Continuous
 62
     7
370
     0
100
AcDbCircle
 10
82.3731352416
 20
164.3206929062
 30
0.0
 40
1.249999999999986
  0
LINE
  5
122
330
1F
100
AcDbEntity
  8
0
  6
Continuous
 62
     7
370
     0
100
AcDbLine
 10
47.3731356887
 20
158.3206928541
 30
0.0
 11
47.3731356887
 21
146.3206936811
 31
0.0
  0
LINE
  5
123
330
1F
100
AcDbEntity
  8
0
  6
Continuous
 62
     7
370
     0
100
AcDbLine
 10
48.3731358526
 20
159.320693018
 30
0.0
 11
47.3731356887
 21
158.3206928541
 31
0.0
  0
LINE
  5
124
330
1F
100
AcDbEntity
  8
0
  6
Continuous
 62
     7
370
     0
100
AcDbLine
 10
86.3731346307
 20
159.320693018
 30
0.0
 11
48.3731358526
 21
159.320693018
 31
0.0
  0
LINE
  5
125
330
1F
100
AcDbEntity
  8
0
  6
Continuous
 62
     7
370
     0
100
AcDbLine
 10
87.3731347946
 20
158.3206928541
 30
0.0
 11
86.3731346307
 21
159.320693018
 31
0.0
  0
LINE
  5
126
330
1F
100
AcDbEntity
  8
0
  6
Continuous
 62
     7
370
     0
100
AcDbLine
 10
87.3731347946
 20
146.3206936811
 30
0.0
 11
87.3731347946
 21
158.3206928541
 31
0.0
  0
LINE
  5
127
330
1F
100
AcDbEntity
  8
0
  6
Continuous
 62
     7
370
     0
100
AcDbLine
 10
86.3731346307
 20
145.3206935172
 30
0.0
 11
87.3731347946
 21
146.3206936811
 31
0.0
  0
LINE
  5
128
330
1F
100
AcDbEntity
  8
0
  6
Continuous
 62
     7
370
     0
100
AcDbLine
 10
48.3731358526
 20
145.3206935172
 30
0.0
 11
86.3731346307
 21
145.3206935172
 31
0.0
  0
LINE
  5
129
330
1F
100
AcDbEntity
  8
0
  6
Continuous
 62
     7
370
     0
100
AcDbLine
 10
47.3731356887
 20
146.3206936811
 30
0.0
 11
48.3731358526
 21
145.3206935172
 31
0.0
  0
ARC
  5
12A
330
1F
100
AcDbEntity
  8
0
  6
Continuous
 62
     7
370
     0
100
AcDbCircle
 10
67.3731352416
 20
164.3206929062
 30
0.0
 40
11.50000000000001
100
AcDbArc
 50
334.2285382595
 51
28.5718781423
  0
ARC
  5
12B
330
1F
100
AcDbEntity
  8
0
  6
Continuous
 62
     7
370
     0
100
AcDbCircle
 10
67.3731352416
 20
164.3206929062
 30
0.0
 40
11.5
100
AcDbArc
 50
151.4281218577
 51
205.7714617406
  0
CIRCLE
  5
12C
330
1F
100
AcDbEntity
  8
0
  6
Continuous
 62
     7
370
     0
100
AcDbCircle
 10
67.3731352416
 20
164.3206929062
 30
0.0
 40
4.999999999999972
  0
LINE
  5
12D
330
1F
100
AcDbEntity
  8
0
  6
Continuous
 62
     7
370
     0
100
AcDbLine
 10
80.3731352416
 20
224.3206929062
 30
0.0
 11
80.3731352416
 21
216.3206929062
 31
0.0
  0
LINE
  5
12E
330
1F
100
AcDbEntity
  8
0
  6
Continuous
 62
     7
370
     0
100
AcDbLine
 10
54.3731352416
 20
216.3206929062
 30
0.0
 11
54.3731352416
 21
224.3206929062
 31
0.0
  0
DIMENSION
  5
12F
330
1F
100
AcDbEntity
  8
0
  6
Continuous
 62
     7
370
     0
100
AcDbDimension
  2
*D1
 10
79.3731352416
 20
130.9190962442
 30
0.0
 11
67.3731352416
 21
130.9190962442
 31
0.0
 70
   160
 71
     1
 42
24.0
  3
SLDDIMSTYLE0
100
AcDbAlignedDimension
 13
55.3731352416
 23
144.3206929062
 33
0.0
 14
79.3731352416
 24
144.3206929062
 34
0.0
100
AcDbRotatedDimension
1001
ACAD
1000
DSTYLE
1002
{
1070
    77
1070
     3
1070
   143
1040
0.0393700787
1070
    41
1040
3.0
1070
    44
1040
1.0
1070
    42
1040
1.0
1070
   147
1040
1.524
1070
    73
1070
     0
1070
    74
1070
     0
1070
   140
1040
3.5
1070
   284
1070
    12
1070
    78
1070
    12
1002
}
  0
DIMENSION
  5
14A
330
1F
100
AcDbEntity
  8
0
  6
Continuous
 62
     7
370
     0
100
AcDbDimension
  2
*D3
 10
82.3731352416
 20
124.1625397694
 30
0.0
 11
67.3731352416
 21
124.1625397694
 31
0.0
 70
   160
 71
     1
 42
30.0
  3
SLDDIMSTYLE0
100
AcDbAlignedDimension
 13
52.3731352416
 23
160.5706929062
 33
0.0
 14
82.3731352416
 24
160.5706929062
 34
0.0
100
AcDbRotatedDimension
1001
ACAD
1000
DSTYLE
1002
{
1070
    77
1070
     3
1070
   143
1040
0.0393700787
1070
    41
1040
3.0
1070
    44
1040
1.0
1070
    42
1040
1.0
1070
   147
1040
1.524
1070
    73
1070
     0
1070
    74
1070
     0
1070
   140
1040
3.5
1070
   284
1070
    12
1070
    78
1070
    12
1002
}
  0
DIMENSION
  5
15D
330
1F
100
AcDbEntity
  8
0
  6
Continuous
 62
     7
370
     0
100
AcDbDimension
  2
*D4
 10
87.3731352416
 20
117.5792283324
 30
0.0
 11
67.3731352416
 21
117.5792283324
 31
0.0
 70
   160
 71
     1
 42
40.0
  3
SLDDIMSTYLE0
100
AcDbAlignedDimension
 13
47.3731352416
 23
146.3206929062
 33
0.0
 14
87.3731352416
 24
146.3206929062
 34
0.0
 50
0.0
100
AcDbRotatedDimension
1001
ACAD
1000
DSTYLE
1002
{
1070
    77
1070
     3
1070
   143
1040
0.0393700787
1070
    41
1040
3.0
1070
    44
1040
1.0
1070
    42
1040
1.0
1070
   147
1040
1.524
1070
    73
1070
     0
1070
    74
1070
     0
1070
   140
1040
3.5
1070
   284
1070
    12
1070
    78
1070
    12
1002
}
  0
DIMENSION
  5
170
330
1F
100
AcDbEntity
  8
0
  6
Continuous
 62
     7
370
     0
100
AcDbDimension
  2
*D5
 10
33.1262636864
 20
159.3206929062
 30
0.0
 11
33.1262636864
 21
152.3206929062
 31
0.0
 70
   160
 71
     1
 42
14.0
  3
SLDDIMSTYLE0
100
AcDbAlignedDimension
 13
48.3731352416
 23
145.3206929062
 33
0.0
 14
48.3731352416
 24
159.3206929062
 34
0.0
 50
90.0
100
AcDbRotatedDimension
1001
ACAD
1000
DSTYLE
1002
{
1070
    77
1070
     3
1070
   143
1040
0.0393700787
1070
    41
1040
3.0
1070
    44
1040
1.0
1070
    42
1040
1.0
1070
   147
1040
1.524
1070
    73
1070
     0
1070
    74
1070
     0
1070
   140
1040
3.5
1070
   284
1070
    12
1070
    78
1070
    12
1002
}
  0
DIMENSION
  5
186
330
1F
100
AcDbEntity
  8
0
  6
Continuous
 62
     7
370
     0
100
AcDbDimension
  2
*D6
 10
33.1262636864
 20
169.8206929062
 30
0.0
 11
33.1262636864
 21
164.5706929062
 31
0.0
 70
   160
 71
     1
 42
10.5
  3
SLDDIMSTYLE0
100
AcDbAlignedDimension
 13
48.3731352416
 23
159.3206929062
 33
0.0
 14
47.3731352416
 24
169.8206929062
 34
0.0
 50
90.0
100
AcDbRotatedDimension
1001
ACAD
1000
DSTYLE
1002
{
1070
    77
1070
     3
1070
   143
1040
0.0393700787
1070
    41
1040
3.0
1070
    44
1040
1.0
1070
    42
1040
1.0
1070
   147
1040
1.524
1070
    73
1070
     0
1070
    74
1070
     0
1070
   140
1040
3.5
1070
   284
1070
    12
1070
    78
1070
    12
1002
}
  0
DIMENSION
  5
19C
330
1F
100
AcDbEntity
  8
0
  6
Continuous
 62
     7
370
     0
100
AcDbDimension
  2
*D7
 10
33.1262636864
 20
183.8206929062
 30
0.0
 11
33.1262636864
 21
176.8206929062
 31
0.0
 70
   160
 71
     1
 42
14.0
  3
SLDDIMSTYLE0
100
AcDbAlignedDimension
 13
47.3731352416
 23
169.8206929062
 33
0.0
 14
47.3731352416
 24
183.8206929062
 34
0.0
 50
90.0
100
AcDbRotatedDimension
1001
ACAD
1000
DSTYLE
1002
{
1070
    77
1070
     3
1070
   143
1040
0.0393700787
1070
    41
1040
3.0
1070
    44
1040
1.0
1070
    42
1040
1.0
1070
   147
1040
1.524
1070
    73
1070
     0
1070
    74
1070
     0
1070
   140
1040
3.5
1070
   284
1070
    12
1070
    78
1070
    12
1002
}
  0
DIMENSION
  5
1B2
330
1F
100
AcDbEntity
  8
0
  6
Continuous
 62
     7
370
     0
100
AcDbDimension
  2
*D8
 10
33.1262636864
 20
227.8206929062
 30
0.0
 11
33.1262636864
 21
205.8206929062
 31
0.0
 70
   160
 71
     1
 42
44.0
  3
SLDDIMSTYLE0
100
AcDbAlignedDimension
 13
50.3731352416
 23
183.8206929062
 33
0.0
 14
59.3731352416
 24
227.8206929062
 34
0.0
 50
90.0
100
AcDbRotatedDimension
1001
ACAD
1000
DSTYLE
1002
{
1070
    77
1070
     3
1070
   143
1040
0.0393700787
1070
    41
1040
3.0
1070
    44
1040
1.0
1070
    42
1040
1.0
1070
   147
1040
1.524
1070
    73
1070
     0
1070
    74
1070
     0
1070
   140
1040
3.5
1070
   284
1070
    12
1070
    78
1070
    12
1002
}
  0
DIMENSION
  5
1C6
330
1F
100
AcDbEntity
  8
0
  6
Continuous
 62
     7
370
     0
100
AcDbDimension
  2
*D9
 10
104.3216491685
 20
164.3206929062
 30
0.0
 11
104.3216491685
 21
158.0706929062
 31
0.0
 70
   160
 71
     1
 42
12.5
  3
SLDDIMSTYLE0
100
AcDbAlignedDimension
 13
86.8731352416
 23
151.8206929062
 33
0.0
 14
86.1231352416
 24
164.3206929062
 34
0.0
 50
90.0
100
AcDbRotatedDimension
1001
ACAD
1000
DSTYLE
1002
{
1070
    77
1070
     3
1070
   143
1040
0.0393700787
1070
    41
1040
3.0
1070
    44
1040
1.0
1070
    42
1040
1.0
1070
   147
1040
1.524
1070
    73
1070
     0
1070
    74
1070
     0
1070
   140
1040
3.5
1070
   284
1070
    12
1070
    78
1070
    12
1002
}
  0
DIMENSION
  5
1DC
330
1F
100
AcDbEntity
  8
0
  6
Continuous
 62
     7
370
     0
100
AcDbDimension
  2
*D10
 10
104.3216491685
 20
202.8206929062
 30
0.0
 11
104.3216491685
 21
183.5706929062
 31
0.0
 70
   160
 71
     1
 42
38.5
  3
SLDDIMSTYLE0
100
AcDbAlignedDimension
 13
86.1231352416
 23
164.3206929062
 33
0.0
 14
93.8731352416
 24
202.8206929062
 34
0.0
 50
90.0
100
AcDbRotatedDimension
1001
ACAD
1000
DSTYLE
1002
{
1070
    77
1070
     3
1070
   143
1040
0.0393700787
1070
    41
1040
3.0
1070
    44
1040
1.0
1070
    42
1040
1.0
1070
   147
1040
1.524
1070
    73
1070
     0
1070
    74
1070
     0
1070
   140
1040
3.5
1070
   284
1070
    12
1070
    78
1070
    12
1002
}
  0
DIMENSION
  5
1F0
330
1F
100
AcDbEntity
  8
0
  6
Continuous
 62
     7
370
     0
100
AcDbDimension
  2
*D11
 10
104.3216491685
 20
239.3206929062
 30
0.0
 11
104.3216491685
 21
221.0706929062
 31
0.0
 70
   160
 71
     1
 42
36.5
  3
SLDDIMSTYLE0
100
AcDbAlignedDimension
 13
93.8731352416
 23
202.8206929062
 33
0.0
 14
91.6231352416
 24
239.3206929062
 34
0.0
 50
90.0
100
AcDbRotatedDimension
1001
ACAD
1000
DSTYLE
1002
{
1070
    77
1070
     3
1070
   143
1040
0.0393700787
1070
    41
1040
3.0
1070
    44
1040
1.0
1070
    42
1040
1.0
1070
   147
1040
1.524
1070
    73
1070
     0
1070
    74
1070
     0
1070
   140
1040
3.5
1070
   284
1070
    12
1070
    78
1070
    12
1002
}
  0
DIMENSION
  5
204
330
1F
100
AcDbEntity
  8
0
  6
Continuous
 62
     7
370
     0
100
AcDbDimension
  2
*D12
 10
111.9183877775
 20
164.3206929062
 30
0.0
 11
111.9183877775
 21
154.8206929062
 31
0.0
 70
   160
 71
     1
 42
19.0
  3
SLDDIMSTYLE0
100
AcDbAlignedDimension
 13
90.3731352416
 23
145.3206929062
 33
0.0
 14
86.1231352416
 24
164.3206929062
 34
0.0
 50
90.0
100
AcDbRotatedDimension
1001
ACAD
1000
DSTYLE
1002
{
1070
    77
1070
     3
1070
   143
1040
0.0393700787
1070
    41
1040
3.0
1070
    44
1040
1.0
1070
    42
1040
1.0
1070
   147
1040
1.524
1070
    73
1070
     0
1070
    74
1070
     0
1070
   140
1040
3.5
1070
   284
1070
    12
1070
    78
1070
    12
1002
}
  0
DIMENSION
  5
218
330
1F
100
AcDbEntity
  8
0
  6
Continuous
 62
     7
370
     0
100
AcDbDimension
  2
*D13
 10
111.9183877775
 20
239.3206929062
 30
0.0
 11
111.9183877775
 21
201.8206929062
 31
0.0
 70
   160
 71
     1
 42
75.0
  3
SLDDIMSTYLE0
100
AcDbAlignedDimension
 13
86.1231352416
 23
164.3206929062
 33
0.0
 14
91.6231352416
 24
239.3206929062
 34
0.0
 50
90.0
100
AcDbRotatedDimension
1001
ACAD
1000
DSTYLE
1002
{
1070
    77
1070
     3
1070
   143
1040
0.0393700787
1070
    41
1040
3.0
1070
    44
1040
1.0
1070
    42
1040
1.0
1070
   147
1040
1.524
1070
    73
1070
     0
1070
    74
1070
     0
1070
   140
1040
3.5
1070
   284
1070
    12
1070
    78
1070
    12
1002
}
  0
DIMENSION
  5
22C
330
1F
100
AcDbEntity
  8
0
  6
Continuous
 62
     7
370
     0
100
AcDbDimension
  2
*D14
 10
119.3333020692
 20
249.3206929062
 30
0.0
 11
119.3333020692
 21
197.3206929062
 31
0.0
 70
   160
 71
     1
 42
104.0
  3
SLDDIMSTYLE0
100
AcDbAlignedDimension
 13
90.3731352416
 23
145.3206929062
 33
0.0
 14
90.3731352416
 24
249.3206929062
 34
0.0
 50
90.0
100
AcDbRotatedDimension
1001
ACAD
1000
DSTYLE
1002
{
1070
    77
1070
     3
1070
   143
1040
0.0393700787
1070
    41
1040
3.0
1070
    44
1040
1.0
1070
    42
1040
1.0
1070
   147
1040
1.524
1070
    73
1070
     0
1070
    74
1070
     0
1070
   140
1040
3.5
1070
   284
1070
    12
1070
    78
1070
    12
1002
}
  0
DIMENSION
  5
240
330
1F
100
AcDbEntity
  8
0
  6
Continuous
 62
     7
370
     0
100
AcDbDimension
  2
*D15
 10
59.8731352416
 20
260.1840357399
 30
0.0
 11
67.3731352416
 21
260.1840357399
 31
0.0
 70
   160
 71
     1
 42
15.0
  3
SLDDIMSTYLE0
100
AcDbAlignedDimension
 13
74.8731352416
 23
245.1206929062
 33
0.0
 14
59.8731352416
 24
245.1206929062
 34
0.0
100
AcDbRotatedDimension
1001
ACAD
1000
DSTYLE
1002
{
1070
    77
1070
     3
1070
   143
1040
0.0393700787
1070
    41
1040
3.0
1070
    44
1040
1.0
1070
    42
1040
1.0
1070
   147
1040
1.524
1070
    73
1070
     0
1070
    74
1070
     0
1070
   140
1040
3.5
1070
   284
1070
    12
1070
    78
1070
    12
1002
}
  0
DIMENSION
  5
255
330
1F
100
AcDbEntity
  8
0
  6
Continuous
 62
     7
370
     0
100
AcDbDimension
  2
*D16
 10
86.3731352416
 20
267.5166821692
 30
0.0
 11
67.3731352416
 21
267.5166821692
 31
0.0
 70
   160
 71
     1
 42
38.0
  3
SLDDIMSTYLE0
100
AcDbAlignedDimension
 13
48.3731352416
 23
244.5706929062
 33
0.0
 14
86.3731352416
 24
244.5706929062
 34
0.0
100
AcDbRotatedDimension
1001
ACAD
1000
DSTYLE
1002
{
1070
    77
1070
     3
1070
   143
1040
0.0393700787
1070
    41
1040
3.0
1070
    44
1040
1.0
1070
    42
1040
1.0
1070
   147
1040
1.524
1070
    73
1070
     0
1070
    74
1070
     0
1070
   140
1040
3.5
1070
   284
1070
    12
1070
    78
1070
    12
1002
}
  0
DIMENSION
  5
268
330
1F
100
AcDbEntity
  8
0
  6
Continuous
 62
     7
370
     0
100
AcDbDimension
  2
*D17
 10
92.3731352416
 20
274.4589276474
 30
0.0
 11
67.3731352416
 21
274.4589276474
 31
0.0
 70
   160
 71
     1
 42
50.0
  3
SLDDIMSTYLE0
100
AcDbAlignedDimension
 13
42.3731352416
 23
247.3206929062
 33
0.0
 14
92.3731352416
 24
247.3206929062
 34
0.0
100
AcDbRotatedDimension
1001
ACAD
1000
DSTYLE
1002
{
1070
    77
1070
     3
1070
   143
1040
0.0393700787
1070
    41
1040
3.0
1070
    44
1040
1.0
1070
    42
1040
1.0
1070
   147
1040
1.524
1070
    73
1070
     0
1070
    74
1070
     0
1070
   140
1040
3.5
1070
   284
1070
    12
1070
    78
1070
    12
1002
}
  0
INSERT
  5
286
330
1F
100
AcDbEntity
  8
0
  6
Continuous
 62
     7
370
     0
100
AcDbBlockReference
  2
SW_CENTERMARKSYMBOL_0
 10
48.3731352416
 20
239.3206929062
 30
0.0
  0
INSERT
  5
292
330
1F
100
AcDbEntity
  8
0
  6
Continuous
 62
     7
370
     0
100
AcDbBlockReference
  2
SW_CENTERMARKSYMBOL_1
 10
59.8731352416
 20
239.3206929062
 30
0.0
  0
INSERT
  5
29E
330
1F
100
AcDbEntity
  8
0
  6
Continuous
 62
     7
370
     0
100
AcDbBlockReference
  2
SW_CENTERMARKSYMBOL_2
 10
74.8731352416
 20
239.3206929062
 30
0.0
  0
INSERT
  5
2AA
330
1F
100
AcDbEntity
  8
0
  6
Continuous
 62
     7
370
     0
100
AcDbBlockReference
  2
SW_CENTERMARKSYMBOL_3
 10
86.3731352416
 20
239.3206929062
 30
0.0
  0
INSERT
  5
2B6
330
1F
100
AcDbEntity
  8
0
  6
Continuous
 62
     7
370
     0
100
AcDbBlockReference
  2
SW_CENTERMARKSYMBOL_4
 10
48.3731352416
 20
202.8206929062
 30
0.0
  0
INSERT
  5
2C2
330
1F
100
AcDbEntity
  8
0
  6
Continuous
 62
     7
370
     0
100
AcDbBlockReference
  2
SW_CENTERMARKSYMBOL_5
 10
86.3731352416
 20
202.8206929062
 30
0.0
  0
INSERT
  5
2CE
330
1F
100
AcDbEntity
  8
0
  6
Continuous
 62
     7
370
     0
100
AcDbBlockReference
  2
SW_CENTERMARKSYMBOL_6
 10
67.3731352416
 20
164.3206929062
 30
0.0
  0
INSERT
  5
2DA
330
1F
100
AcDbEntity
  8
0
  6
Continuous
 62
     7
370
     0
100
AcDbBlockReference
  2
SW_CENTERMARKSYMBOL_7
 10
52.3731352416
 20
164.3206929062
 30
0.0
  0
INSERT
  5
2E6
330
1F
100
AcDbEntity
  8
0
  6
Continuous
 62
     7
370
     0
100
AcDbBlockReference
  2
SW_CENTERMARKSYMBOL_8
 10
82.3731352416
 20
164.3206929062
 30
0.0
  0
INSERT
  5
2F2
330
1F
100
AcDbEntity
  8
0
  6
Continuous
 62
     7
370
     0
100
AcDbBlockReference
  2
SW_CENTERMARKSYMBOL_9
 10
55.3731352416
 20
151.8206929062
 30
0.0
  0
INSERT
  5
2FE
330
1F
100
AcDbEntity
  8
0
  6
Continuous
 62
     7
370
     0
100
AcDbBlockReference
  2
SW_CENTERMARKSYMBOL_10
 10
79.3731352416
 20
151.8206929062
 30
0.0
  0
LINE
  5
2FF
330
1F
100
AcDbEntity
  8
0
  6
CENTERX2
 62
     7
370
     0
100
AcDbLine
 10
67.3731352416
 20
254.7892982817
 30
0.0
 11
67.3731352416
 21
172.3246602819
 31
0.0
  0
LINE
  5
300
330
1F
100
AcDbEntity
  8
0
  6
Continuous
 62
     7
370
     0
100
AcDbLine
 10
154.3015502179
 20
197.8206929062
 30
0.0
 11
155.1015504414
 21
197.8206937407
 31
0.0
  0
LINE
  5
301
330
1F
100
AcDbEntity
  8
0
  6
Continuous
 62
     7
370
     0
100
AcDbLine
 10
155.1015504414
 20
207.8206916545
 30
0.0
 11
154.3015502179
 21
207.8206929062
 31
0.0
  0
LINE
  5
302
330
1F
100
AcDbEntity
  8
0
  6
Continuous
 62
     7
370
     0
100
AcDbLine
 10
153.3015502179
 20
199.0206929062
 30
0.0
 11
154.3015499378
 21
199.0206917022
 31
0.0
  0
LINE
  5
303
330
1F
100
AcDbEntity
  8
0
  6
Continuous
 62
     7
370
     0
100
AcDbLine
 10
154.3015499378
 20
206.620693693
 30
0.0
 11
153.3015502179
 21
206.6206929062
 31
0.0
  0
LINE
  5
304
330
1F
100
AcDbEntity
  8
0
  6
Continuous
 62
     7
370
     0
100
AcDbLine
 10
153.3015497739
 20
206.32069234
 30
0.0
 11
149.7015502179
 21
206.3206929062
 31
0.0
  0
LINE
  5
305
330
1F
100
AcDbEntity
  8
0
  6
Continuous
 62
     7
370
     0
100
AcDbLine
 10
149.7015502179
 20
199.3206929062
 30
0.0
 11
153.3015497739
 21
199.3206930553
 31
0.0
  0
LINE
  5
306
330
1F
100
AcDbEntity
  8
0
  6
Continuous
 62
     7
370
     0
100
AcDbLine
 10
149.7015502179
 20
206.3206929062
 30
0.0
 11
149.3015502179
 21
205.9206929062
 31
0.0
  0
LINE
  5
307
330
1F
100
AcDbEntity
  8
0
  6
Continuous
 62
     7
370
     0
100
AcDbLine
 10
149.3015502179
 20
199.7206929062
 30
0.0
 11
149.7015502179
 21
199.3206929062
 31
0.0
  0
LINE
  5
308
330
1F
100
AcDbEntity
  8
0
  6
Continuous
 62
     7
370
     0
100
AcDbLine
 10
153.8015502179
 20
146.8206929062
 30
0.0
 11
154.6015503595
 21
146.8206928317
 31
0.0
  0
LINE
  5
309
330
1F
100
AcDbEntity
  8
0
  6
Continuous
 62
     7
370
     0
100
AcDbLine
 10
154.6015503595
 20
156.8206930739
 30
0.0
 11
153.8015502179
 21
156.8206929062
 31
0.0
  0
LINE
  5
30A
330
1F
100
AcDbEntity
  8
0
  6
Continuous
 62
     7
370
     0
100
AcDbLine
 10
152.8015502179
 20
148.0206929062
 30
0.0
 11
153.8015498558
 21
148.0206926559
 31
0.0
  0
LINE
  5
30B
330
1F
100
AcDbEntity
  8
0
  6
Continuous
 62
     7
370
     0
100
AcDbLine
 10
153.8015498558
 20
155.6206927841
 30
0.0
 11
152.8015502179
 21
155.6206929062
 31
0.0
  0
LINE
  5
30C
330
1F
100
AcDbEntity
  8
0
  6
Continuous
 62
     7
370
     0
100
AcDbLine
 10
152.8015506232
 20
155.3206932937
 30
0.0
 11
149.2015502179
 21
155.3206929062
 31
0.0
  0
LINE
  5
30D
330
1F
100
AcDbEntity
  8
0
  6
Continuous
 62
     7
370
     0
100
AcDbLine
 10
149.2015502179
 20
148.3206929062
 30
0.0
 11
152.8015506232
 21
148.3206921463
 31
0.0
  0
LINE
  5
30E
330
1F
100
AcDbEntity
  8
0
  6
Continuous
 62
     7
370
     0
100
AcDbLine
 10
149.2015502179
 20
155.3206929062
 30
0.0
 11
148.8015502179
 21
154.9206929062
 31
0.0
  0
LINE
  5
30F
330
1F
100
AcDbEntity
  8
0
  6
Continuous
 62
     7
370
     0
100
AcDbLine
 10
148.8015502179
 20
148.7206929062
 30
0.0
 11
149.2015502179
 21
148.3206929062
 31
0.0
  0
LINE
  5
310
330
1F
100
AcDbEntity
  8
0
  6
Continuous
 62
     7
370
     0
100
AcDbLine
 10
148.1015502179
 20
179.1206929062
 30
0.0
 11
148.1015502179
 21
179.9206929062
 31
0.0
  0
LINE
  5
311
330
1F
100
AcDbEntity
  8
0
  6
Continuous
 62
     7
370
     0
100
AcDbLine
 10
138.1015502179
 20
179.9206929062
 30
0.0
 11
138.1015502179
 21
179.1206929062
 31
0.0
  0
LINE
  5
312
330
1F
100
AcDbEntity
  8
0
  6
Continuous
 62
     7
370
     0
100
AcDbLine
 10
146.9015502179
 20
178.1206929062
 30
0.0
 11
146.9015494699
 21
179.1206929107
 31
0.0
  0
LINE
  5
313
330
1F
100
AcDbEntity
  8
0
  6
Continuous
 62
     7
370
     0
100
AcDbLine
 10
139.3015493417
 20
179.1206929107
 30
0.0
 11
139.3015502179
 21
178.1206929062
 31
0.0
  0
LINE
  5
314
330
1F
100
AcDbEntity
  8
0
  6
Continuous
 62
     7
370
     0
100
AcDbLine
 10
139.6015502179
 20
174.5206929062
 30
0.0
 11
140.0015502179
 21
174.1206929062
 31
0.0
  0
LINE
  5
315
330
1F
100
AcDbEntity
  8
0
  6
Continuous
 62
     7
370
     0
100
AcDbLine
 10
146.2015502179
 20
174.1206929062
 30
0.0
 11
146.6015502179
 21
174.5206929062
 31
0.0
  0
LINE
  5
316
330
1F
100
AcDbEntity
  8
0
  6
Continuous
 62
     7
370
     0
100
AcDbLine
 10
139.6015506947
 20
178.1206927468
 30
0.0
 11
139.6015502179
 21
174.5206929062
 31
0.0
  0
LINE
  5
317
330
1F
100
AcDbEntity
  8
0
  6
Continuous
 62
     7
370
     0
100
AcDbLine
 10
146.6015502179
 20
174.5206929062
 30
0.0
 11
146.6015499795
 21
178.1206927468
 31
0.0
  0
LINE
  5
318
330
1F
100
AcDbEntity
  8
0
  6
Continuous
 62
     7
370
     0
100
AcDbLine
 10
169.1015502179
 20
167.8206929062
 30
0.0
 11
168.6015503259
 21
167.8206930143
 31
0.0
  0
LINE
  5
319
330
1F
100
AcDbEntity
  8
0
  6
Continuous
 62
     7
370
     0
100
AcDbLine
 10
168.6015503259
 20
160.8206927982
 30
0.0
 11
169.1015502179
 21
160.8206929062
 31
0.0
  0
LINE
  5
31A
330
1F
100
AcDbEntity
  8
0
  6
Continuous
 62
     7
370
     0
100
AcDbLine
 10
169.8015502179
 20
167.2706929062
 30
0.0
 11
169.1015504079
 21
167.2706930173
 31
0.0
  0
LINE
  5
31B
330
1F
100
AcDbEntity
  8
0
  6
Continuous
 62
     7
370
     0
100
AcDbLine
 10
169.1015504079
 20
161.3706927952
 30
0.0
 11
169.8015502179
 21
161.3706929062
 31
0.0
  0
LINE
  5
31C
330
1F
100
AcDbEntity
  8
0
  6
Continuous
 62
     7
370
     0
100
AcDbLine
 10
172.5015502179
 20
161.5706929062
 30
0.0
 11
172.8015502179
 21
161.8706929062
 31
0.0
  0
LINE
  5
31D
330
1F
100
AcDbEntity
  8
0
  6
Continuous
 62
     7
370
     0
100
AcDbLine
 10
172.8015502179
 20
166.7706929062
 30
0.0
 11
172.5015502179
 21
167.0706929062
 31
0.0
  0
LINE
  5
31E
330
1F
100
AcDbEntity
  8
0
  6
Continuous
 62
     7
370
     0
100
AcDbLine
 10
169.8015501501
 20
161.5706929211
 30
0.0
 11
172.5015502179
 21
161.5706929062
 31
0.0
  0
LINE
  5
31F
330
1F
100
AcDbEntity
  8
0
  6
Continuous
 62
     7
370
     0
100
AcDbLine
 10
172.5015502179
 20
167.0706929062
 30
0.0
 11
169.8015501501
 21
167.0706928913
 31
0.0
  0
LINE
  5
320
330
1F
100
AcDbEntity
  8
0
  6
Continuous
 62
     7
370
     0
100
AcDbLine
 10
168.1015502179
 20
145.3206929062
 30
0.0
 11
168.6015502179
 21
145.8206929062
 31
0.0
  0
LINE
  5
321
330
1F
100
AcDbEntity
  8
0
  6
Continuous
 62
     7
370
     0
100
AcDbLine
 10
168.6015502179
 20
182.8206929062
 30
0.0
 11
168.1015502179
 21
183.3206929062
 31
0.0
  0
LINE
  5
322
330
1F
100
AcDbEntity
  8
0
  6
Continuous
 62
     7
370
     0
100
AcDbLine
 10
165.1015502179
 20
145.3206935172
 30
0.0
 11
168.1015502179
 21
145.3206929062
 31
0.0
  0
LINE
  5
323
330
1F
100
AcDbEntity
  8
0
  6
Continuous
 62
     7
370
     0
100
AcDbLine
 10
168.1015502179
 20
183.3206929062
 30
0.0
 11
165.1015502179
 21
183.3206922953
 31
0.0
  0
LINE
  5
324
330
1F
100
AcDbEntity
  8
0
  6
Continuous
 62
     7
370
     0
100
AcDbLine
 10
155.1015502179
 20
196.8206929062
 30
0.0
 11
155.1015502179
 21
194.8206929062
 31
0.0
  0
LINE
  5
325
330
1F
100
AcDbEntity
  8
0
  6
Continuous
 62
     7
370
     0
100
AcDbLine
 10
155.1015502179
 20
196.8206929062
 30
0.0
 11
158.6015500838
 21
196.8206917141
 31
0.0
  0
LINE
  5
326
330
1F
100
AcDbEntity
  8
0
  6
Continuous
 62
     7
370
     0
100
AcDbLine
 10
155.1015502179
 20
194.8206929062
 30
0.0
 11
158.6015500838
 21
194.820693249
 31
0.0
  0
LINE
  5
327
330
1F
100
AcDbEntity
  8
0
  6
Continuous
 62
     7
370
     0
100
AcDbLine
 10
155.1015502179
 20
208.8206929062
 30
0.0
 11
155.1015502179
 21
196.8206929062
 31
0.0
  0
LINE
  5
328
330
1F
100
AcDbEntity
  8
0
  6
Continuous
 62
     7
370
     0
100
AcDbLine
 10
158.6015500838
 20
208.8206936811
 30
0.0
 11
155.1015502179
 21
208.8206929062
 31
0.0
  0
LINE
  5
329
330
1F
100
AcDbEntity
  8
0
  6
Continuous
 62
     7
370
     0
100
AcDbLine
 10
155.1015502179
 20
210.8206929062
 30
0.0
 11
155.1015502179
 21
208.8206929062
 31
0.0
  0
LINE
  5
32A
330
1F
100
AcDbEntity
  8
0
  6
Continuous
 62
     7
370
     0
100
AcDbLine
 10
158.6015500838
 20
210.8206940089
 30
0.0
 11
155.1015502179
 21
210.8206929062
 31
0.0
  0
LINE
  5
32B
330
1F
100
AcDbEntity
  8
0
  6
Continuous
 62
     7
370
     0
100
AcDbLine
 10
139.6374486028
 20
218.3206929062
 30
0.0
 11
143.1015502179
 21
216.3206929062
 31
0.0
  0
LINE
  5
32C
330
1F
100
AcDbEntity
  8
0
  6
Continuous
 62
     7
370
     0
100
AcDbLine
 10
139.6374486028
 20
222.3206929062
 30
0.0
 11
139.6374486028
 21
218.3206929062
 31
0.0
  0
LINE
  5
32D
330
1F
100
AcDbEntity
  8
0
  6
Continuous
 62
     7
370
     0
100
AcDbLine
 10
143.1015502179
 20
224.3206929062
 30
0.0
 11
139.6374486028
 21
222.3206929062
 31
0.0
  0
LINE
  5
32E
330
1F
100
AcDbEntity
  8
0
  6
Continuous
 62
     7
370
     0
100
AcDbLine
 10
146.565651833
 20
222.3206929062
 30
0.0
 11
143.1015502179
 21
224.3206929062
 31
0.0
  0
LINE
  5
32F
330
1F
100
AcDbEntity
  8
0
  6
Continuous
 62
     7
370
     0
100
AcDbLine
 10
143.1015502179
 20
216.3206929062
 30
0.0
 11
146.565651833
 21
218.3206929062
 31
0.0
  0
LINE
  5
330
330
1F
100
AcDbEntity
  8
0
  6
Continuous
 62
     7
370
     0
100
AcDbLine
 10
146.565651833
 20
218.3206929062
 30
0.0
 11
146.565651833
 21
222.3206929062
 31
0.0
  0
ARC
  5
331
330
1F
100
AcDbEntity
  8
0
  6
Continuous
 62
     7
370
     0
100
AcDbCircle
 10
143.1015502179
 20
220.3206929062
 30
0.0
 40
3.999999999996815
100
AcDbArc
 50
330.0
 51
30.0
  0
ARC
  5
332
330
1F
100
AcDbEntity
  8
0
  6
Continuous
 62
     7
370
     0
100
AcDbCircle
 10
143.1015502179
 20
220.3206929062
 30
0.0
 40
3.999999999996845
100
AcDbArc
 50
270.0
 51
330.0
  0
ARC
  5
333
330
1F
100
AcDbEntity
  8
0
  6
Continuous
 62
     7
370
     0
100
AcDbCircle
 10
143.1015502179
 20
220.3206929062
 30
0.0
 40
3.999999999996845
100
AcDbArc
 50
30.0
 51
90.0
  0
ARC
  5
334
330
1F
100
AcDbEntity
  8
0
  6
Continuous
 62
     7
370
     0
100
AcDbCircle
 10
143.1015502179
 20
220.3206929062
 30
0.0
 40
3.999999999999766
100
AcDbArc
 50
210.0
 51
270.0
  0
ARC
  5
335
330
1F
100
AcDbEntity
  8
0
  6
Continuous
 62
     7
370
     0
100
AcDbCircle
 10
143.1015502179
 20
220.3206929062
 30
0.0
 40
3.999999999999752
100
AcDbArc
 50
90.0
 51
150.0
  0
ARC
  5
336
330
1F
100
AcDbEntity
  8
0
  6
Continuous
 62
     7
370
     0
100
AcDbCircle
 10
143.1015502179
 20
220.3206929062
 30
0.0
 40
3.999999999999766
100
AcDbArc
 50
150.0
 51
210.0
  0
LINE
  5
337
330
1F
100
AcDbEntity
  8
0
  6
Continuous
 62
     7
370
     0
100
AcDbLine
 10
153.6015502179
 20
194.8206929062
 30
0.0
 11
155.1015502179
 21
194.8206929062
 31
0.0
  0
LINE
  5
338
330
1F
100
AcDbEntity
  8
0
  6
Continuous
 62
     7
370
     0
100
AcDbLine
 10
155.1015502179
 20
210.8206929062
 30
0.0
 11
153.6015502179
 21
210.8206929062
 31
0.0
  0
CIRCLE
  5
339
330
1F
100
AcDbEntity
  8
0
  6
Continuous
 62
     7
370
     0
100
AcDbCircle
 10
143.1015502179
 20
220.3206929062
 30
0.0
 40
4.49999978050576
  0
LINE
  5
33A
330
1F
100
AcDbEntity
  8
0
  6
Continuous
 62
     7
370
     0
100
AcDbLine
 10
151.1015502181
 20
227.8206929062
 30
0.0
 11
151.1015502182
 21
226.8206929062
 31
0.0
  0
LINE
  5
33B
330
1F
100
AcDbEntity
  8
0
  6
Continuous
 62
     7
370
     0
100
AcDbLine
 10
154.6015501695
 20
227.8206929062
 30
0.0
 11
151.1015502181
 21
227.8206929062
 31
0.0
  0
ARC
  5
33C
330
1F
100
AcDbEntity
  8
0
  6
Continuous
 62
     7
370
     0
100
AcDbCircle
 10
154.6015502179
 20
226.8206929062
 30
0.0
 40
0.9999999999972431
100
AcDbArc
 50
360.0
 51
90.0000027715
  0
LINE
  5
33D
330
1F
100
AcDbEntity
  8
0
  6
Continuous
 62
     7
370
     0
100
AcDbLine
 10
155.6015502179
 20
226.8206929062
 30
0.0
 11
151.1015502182
 21
226.8206929062
 31
0.0
  0
LINE
  5
33E
330
1F
100
AcDbEntity
  8
0
  6
Continuous
 62
     7
370
     0
100
AcDbLine
 10
151.1015502182
 20
226.8206929062
 30
0.0
 11
151.1015497858
 21
210.8206940089
 31
0.0
  0
LINE
  5
33F
330
1F
100
AcDbEntity
  8
0
  6
Continuous
 62
     7
370
     0
100
AcDbLine
 10
155.6015505234
 20
210.8206940089
 30
0.0
 11
155.6015502179
 21
226.8206929062
 31
0.0
  0
LINE
  5
340
330
1F
100
AcDbEntity
  8
0
  6
Continuous
 62
     7
370
     0
100
AcDbLine
 10
135.1015502179
 20
226.8206929062
 30
0.0
 11
135.1015502179
 21
187.3206929062
 31
0.0
  0
LINE
  5
341
330
1F
100
AcDbEntity
  8
0
  6
Continuous
 62
     7
370
     0
100
AcDbLine
 10
151.1015502182
 20
226.8206929062
 30
0.0
 11
135.1015502179
 21
226.8206929062
 31
0.0
  0
LINE
  5
342
330
1F
100
AcDbEntity
  8
0
  6
Continuous
 62
     7
370
     0
100
AcDbLine
 10
151.1015497858
 20
194.820693249
 30
0.0
 11
151.1015502179
 21
187.3206929062
 31
0.0
  0
LINE
  5
343
330
1F
100
AcDbEntity
  8
0
  6
Continuous
 62
     7
370
     0
100
AcDbLine
 10
151.1015502179
 20
187.3206929062
 30
0.0
 11
135.1015502179
 21
187.3206929062
 31
0.0
  0
LINE
  5
344
330
1F
100
AcDbEntity
  8
0
  6
Continuous
 62
     7
370
     0
100
AcDbLine
 10
153.6015502179
 20
194.8206929062
 30
0.0
 11
151.1015497858
 21
194.820693249
 31
0.0
  0
LINE
  5
345
330
1F
100
AcDbEntity
  8
0
  6
Continuous
 62
     7
370
     0
100
AcDbLine
 10
151.1015497858
 20
210.8206940089
 30
0.0
 11
153.6015502179
 21
210.8206929062
 31
0.0
  0
LINE
  5
346
330
1F
100
AcDbEntity
  8
0
  6
Continuous
 62
     7
370
     0
100
AcDbLine
 10
135.1015502179
 20
227.8206929062
 30
0.0
 11
135.1015502179
 21
226.8206929062
 31
0.0
  0
LINE
  5
347
330
1F
100
AcDbEntity
  8
0
  6
Continuous
 62
     7
370
     0
100
AcDbLine
 10
151.1015502181
 20
227.8206929062
 30
0.0
 11
135.1015502179
 21
227.8206929062
 31
0.0
  0
LINE
  5
348
330
1F
100
AcDbEntity
  8
0
  6
Continuous
 62
     7
370
     0
100
AcDbLine
 10
151.1015502179
 20
187.3206929062
 30
0.0
 11
151.1015502179
 21
186.3206929062
 31
0.0
  0
LINE
  5
349
330
1F
100
AcDbEntity
  8
0
  6
Continuous
 62
     7
370
     0
100
AcDbLine
 10
151.1015502179
 20
186.3206929062
 30
0.0
 11
135.1015502178
 21
186.3206929062
 31
0.0
  0
LINE
  5
34A
330
1F
100
AcDbEntity
  8
0
  6
Continuous
 62
     7
370
     0
100
AcDbLine
 10
135.1015502179
 20
187.3206929062
 30
0.0
 11
135.1015502178
 21
186.3206929062
 31
0.0
  0
LINE
  5
34B
330
1F
100
AcDbEntity
  8
0
  6
Continuous
 62
     7
370
     0
100
AcDbLine
 10
135.1015502178
 20
186.3206929062
 30
0.0
 11
131.6015502179
 21
186.3206929062
 31
0.0
  0
ARC
  5
34C
330
1F
100
AcDbEntity
  8
0
  6
Continuous
 62
     7
370
     0
100
AcDbCircle
 10
131.6015502179
 20
187.3206929062
 30
0.0
 40
0.9999999999948273
100
AcDbArc
 50
180.0
 51
270.0000000001
  0
LINE
  5
34D
330
1F
100
AcDbEntity
  8
0
  6
Continuous
 62
     7
370
     0
100
AcDbLine
 10
135.1015502179
 20
187.3206929062
 30
0.0
 11
130.6015502179
 21
187.3206929062
 31
0.0
  0
LINE
  5
34E
330
1F
100
AcDbEntity
  8
0
  6
Continuous
 62
     7
370
     0
100
AcDbLine
 10
130.6015502179
 20
226.8206929062
 30
0.0
 11
130.6015502179
 21
187.3206929062
 31
0.0
  0
LINE
  5
34F
330
1F
100
AcDbEntity
  8
0
  6
Continuous
 62
     7
370
     0
100
AcDbLine
 10
135.1015502179
 20
226.8206929062
 30
0.0
 11
130.6015502179
 21
226.8206929062
 31
0.0
  0
ARC
  5
350
330
1F
100
AcDbEntity
  8
0
  6
Continuous
 62
     7
370
     0
100
AcDbCircle
 10
131.6015502179
 20
226.8206929062
 30
0.0
 40
0.9999999999972431
100
AcDbArc
 50
90.0000000002
 51
180.0
  0
LINE
  5
351
330
1F
100
AcDbEntity
  8
0
  6
Continuous
 62
     7
370
     0
100
AcDbLine
 10
135.1015502179
 20
227.8206929062
 30
0.0
 11
131.6015502179
 21
227.8206929062
 31
0.0
  0
ARC
  5
352
330
1F
100
AcDbEntity
  8
0
  6
Continuous
 62
     7
370
     0
100
AcDbCircle
 10
154.6015502179
 20
187.3206929062
 30
0.0
 40
0.9999999999948273
100
AcDbArc
 50
269.9999999999
 51
0.0
  0
LINE
  5
353
330
1F
100
AcDbEntity
  8
0
  6
Continuous
 62
     7
370
     0
100
AcDbLine
 10
154.6015502179
 20
186.3206929062
 30
0.0
 11
151.1015502179
 21
186.3206929062
 31
0.0
  0
LINE
  5
354
330
1F
100
AcDbEntity
  8
0
  6
Continuous
 62
     7
370
     0
100
AcDbLine
 10
155.6015502179
 20
187.3206929062
 30
0.0
 11
151.1015502179
 21
187.3206929062
 31
0.0
  0
LINE
  5
355
330
1F
100
AcDbEntity
  8
0
  6
Continuous
 62
     7
370
     0
100
AcDbLine
 10
155.6015502179
 20
187.3206929062
 30
0.0
 11
155.6015505234
 21
194.820693249
 31
0.0
  0
LINE
  5
356
330
1F
100
AcDbEntity
  8
0
  6
Continuous
 62
     7
370
     0
100
AcDbLine
 10
140.1015498454
 20
186.320692787
 30
0.0
 11
140.1015502179
 21
183.8206929062
 31
0.0
  0
LINE
  5
357
330
1F
100
AcDbEntity
  8
0
  6
Continuous
 62
     7
370
     0
100
AcDbLine
 10
146.1015508289
 20
186.320692787
 30
0.0
 11
146.1015508289
 21
183.8206933086
 31
0.0
  0
LINE
  5
358
330
1F
100
AcDbEntity
  8
0
  6
Continuous
 62
     7
370
     0
100
AcDbLine
 10
154.3015502179
 20
207.8206929062
 30
0.0
 11
154.3015502179
 21
197.8206929062
 31
0.0
  0
LINE
  5
359
330
1F
100
AcDbEntity
  8
0
  6
Continuous
 62
     7
370
     0
100
AcDbLine
 10
153.3015502179
 20
206.6206929062
 30
0.0
 11
153.3015502179
 21
199.0206929062
 31
0.0
  0
LINE
  5
35A
330
1F
100
AcDbEntity
  8
0
  6
Continuous
 62
     7
370
     0
100
AcDbLine
 10
149.7015502179
 20
202.8206929062
 30
0.0
 11
149.7015502179
 21
199.3206929062
 31
0.0
  0
LINE
  5
35B
330
1F
100
AcDbEntity
  8
0
  6
Continuous
 62
     7
370
     0
100
AcDbLine
 10
149.7015502179
 20
206.3206929062
 30
0.0
 11
149.7015502179
 21
202.8206929062
 31
0.0
  0
LINE
  5
35C
330
1F
100
AcDbEntity
  8
0
  6
Continuous
 62
     7
370
     0
100
AcDbLine
 10
149.3015502179
 20
202.8206929062
 30
0.0
 11
149.3015502179
 21
205.9206929062
 31
0.0
  0
LINE
  5
35D
330
1F
100
AcDbEntity
  8
0
  6
Continuous
 62
     7
370
     0
100
AcDbLine
 10
149.3015502179
 20
199.7206929062
 30
0.0
 11
149.3015502179
 21
202.8206929062
 31
0.0
  0
LINE
  5
35E
330
1F
100
AcDbEntity
  8
0
  6
Continuous
 62
     7
370
     0
100
AcDbLine
 10
153.8015502179
 20
156.8206929062
 30
0.0
 11
153.8015502179
 21
146.8206929062
 31
0.0
  0
LINE
  5
35F
330
1F
100
AcDbEntity
  8
0
  6
Continuous
 62
     7
370
     0
100
AcDbLine
 10
152.8015502179
 20
155.6206929062
 30
0.0
 11
152.8015502179
 21
148.0206929062
 31
0.0
  0
LINE
  5
360
330
1F
100
AcDbEntity
  8
0
  6
Continuous
 62
     7
370
     0
100
AcDbLine
 10
149.2015502179
 20
151.8206929062
 30
0.0
 11
149.2015502179
 21
148.3206929062
 31
0.0
  0
LINE
  5
361
330
1F
100
AcDbEntity
  8
0
  6
Continuous
 62
     7
370
     0
100
AcDbLine
 10
149.2015502179
 20
155.3206929062
 30
0.0
 11
149.2015502179
 21
151.8206929062
 31
0.0
  0
LINE
  5
362
330
1F
100
AcDbEntity
  8
0
  6
Continuous
 62
     7
370
     0
100
AcDbLine
 10
148.8015502179
 20
151.8206929062
 30
0.0
 11
148.8015502179
 21
154.9206929062
 31
0.0
  0
LINE
  5
363
330
1F
100
AcDbEntity
  8
0
  6
Continuous
 62
     7
370
     0
100
AcDbLine
 10
148.8015502179
 20
148.7206929062
 30
0.0
 11
148.8015502179
 21
151.8206929062
 31
0.0
  0
LINE
  5
364
330
1F
100
AcDbEntity
  8
0
  6
Continuous
 62
     7
370
     0
100
AcDbLine
 10
138.1015502179
 20
179.1206929062
 30
0.0
 11
148.1015502179
 21
179.1206929062
 31
0.0
  0
LINE
  5
365
330
1F
100
AcDbEntity
  8
0
  6
Continuous
 62
     7
370
     0
100
AcDbLine
 10
138.1015502179
 20
179.9206929062
 30
0.0
 11
148.1015502179
 21
179.9206929062
 31
0.0
  0
LINE
  5
366
330
1F
100
AcDbEntity
  8
0
  6
Continuous
 62
     7
370
     0
100
AcDbLine
 10
139.3015502179
 20
178.1206929062
 30
0.0
 11
146.9015502179
 21
178.1206929062
 31
0.0
  0
LINE
  5
367
330
1F
100
AcDbEntity
  8
0
  6
Continuous
 62
     7
370
     0
100
AcDbLine
 10
143.1015502179
 20
174.1206929062
 30
0.0
 11
140.0015502179
 21
174.1206929062
 31
0.0
  0
LINE
  5
368
330
1F
100
AcDbEntity
  8
0
  6
Continuous
 62
     7
370
     0
100
AcDbLine
 10
146.2015502179
 20
174.1206929062
 30
0.0
 11
143.1015502179
 21
174.1206929062
 31
0.0
  0
LINE
  5
369
330
1F
100
AcDbEntity
  8
0
  6
Continuous
 62
     7
370
     0
100
AcDbLine
 10
143.1015502179
 20
174.5206929062
 30
0.0
 11
146.6015502179
 21
174.5206929062
 31
0.0
  0
LINE
  5
36A
330
1F
100
AcDbEntity
  8
0
  6
Continuous
 62
     7
370
     0
100
AcDbLine
 10
139.6015502179
 20
174.5206929062
 30
0.0
 11
143.1015502179
 21
174.5206929062
 31
0.0
  0
LINE
  5
36B
330
1F
100
AcDbEntity
  8
0
  6
Continuous
 62
     7
370
     0
100
AcDbLine
 10
154.9015498498
 20
170.2496251297
 30
0.0
 11
156.1147539655
 21
169.8206928764
 31
0.0
  0
LINE
  5
36C
330
1F
100
AcDbEntity
  8
0
  6
Continuous
 62
     7
370
     0
100
AcDbLine
 10
154.9015498498
 20
170.2496251297
 30
0.0
 11
154.9015498498
 21
180.6206931566
 31
0.0
  0
LINE
  5
36D
330
1F
100
AcDbEntity
  8
0
  6
Continuous
 62
     7
370
     0
100
AcDbLine
 10
154.9015498498
 20
180.6206931566
 30
0.0
 11
140.1015502179
 21
180.6206929062
 31
0.0
  0
LINE
  5
36E
330
1F
100
AcDbEntity
  8
0
  6
Continuous
 62
     7
370
     0
100
AcDbLine
 10
140.1015502179
 20
180.6206929062
 30
0.0
 11
140.1015502179
 21
183.8206929062
 31
0.0
  0
LINE
  5
36F
330
1F
100
AcDbEntity
  8
0
  6
Continuous
 62
     7
370
     0
100
AcDbLine
 10
140.1015502179
 20
183.8206929062
 30
0.0
 11
155.1015502179
 21
183.8206929062
 31
0.0
  0
ARC
  5
370
330
1F
100
AcDbEntity
  8
0
  6
Continuous
 62
     7
370
     0
100
AcDbCircle
 10
155.1015502179
 20
180.8206929062
 30
0.0
 40
2.999999999999631
100
AcDbArc
 50
360.0
 51
90.0
  0
LINE
  5
371
330
1F
100
AcDbEntity
  8
0
  6
Continuous
 62
     7
370
     0
100
AcDbLine
 10
158.1015502179
 20
180.8206929062
 30
0.0
 11
158.1015500018
 21
170.5231317525
 31
0.0
  0
LINE
  5
372
330
1F
100
AcDbEntity
  8
0
  6
Continuous
 62
     7
370
     0
100
AcDbLine
 10
158.1015500018
 20
170.5231317525
 30
0.0
 11
156.1147539655
 21
169.8206928764
 31
0.0
  0
LINE
  5
373
330
1F
100
AcDbEntity
  8
0
  6
Continuous
 62
     7
370
     0
100
AcDbLine
 10
137.1015502179
 20
180.6206929062
 30
0.0
 11
137.1015502179
 21
183.8206929062
 31
0.0
  0
LINE
  5
374
330
1F
100
AcDbEntity
  8
0
  6
Continuous
 62
     7
370
     0
100
AcDbLine
 10
140.1015502179
 20
183.8206929062
 30
0.0
 11
137.1015502179
 21
183.8206929062
 31
0.0
  0
LINE
  5
375
330
1F
100
AcDbEntity
  8
0
  6
Continuous
 62
     7
370
     0
100
AcDbLine
 10
140.1015502179
 20
180.6206929062
 30
0.0
 11
137.1015502179
 21
180.6206929062
 31
0.0
  0
LINE
  5
376
330
1F
100
AcDbEntity
  8
0
  6
Continuous
 62
     7
370
     0
100
AcDbLine
 10
158.1015500018
 20
170.5231317525
 30
0.0
 11
158.1015500018
 21
169.8206928764
 31
0.0
  0
LINE
  5
377
330
1F
100
AcDbEntity
  8
0
  6
Continuous
 62
     7
370
     0
100
AcDbLine
 10
158.1015500018
 20
169.8206928764
 30
0.0
 11
156.1147539655
 21
169.8206928764
 31
0.0
  0
LINE
  5
378
330
1F
100
AcDbEntity
  8
0
  6
Continuous
 62
     7
370
     0
100
AcDbLine
 10
156.1147539655
 20
169.8206928764
 30
0.0
 11
154.9015498498
 21
169.8206928764
 31
0.0
  0
LINE
  5
379
330
1F
100
AcDbEntity
  8
0
  6
Continuous
 62
     7
370
     0
100
AcDbLine
 10
154.9015498498
 20
170.2496251297
 30
0.0
 11
154.9015498498
 21
169.8206928764
 31
0.0
  0
LINE
  5
37A
330
1F
100
AcDbEntity
  8
0
  6
Continuous
 62
     7
370
     0
100
AcDbLine
 10
140.1015502179
 20
180.6206929062
 30
0.0
 11
140.1015498454
 21
179.920692483
 31
0.0
  0
LINE
  5
37B
330
1F
100
AcDbEntity
  8
0
  6
Continuous
 62
     7
370
     0
100
AcDbLine
 10
146.1015508289
 20
179.920692483
 30
0.0
 11
146.1015508289
 21
180.6206931566
 31
0.0
  0
LINE
  5
37C
330
1F
100
AcDbEntity
  8
0
  6
Continuous
 62
     7
370
     0
100
AcDbLine
 10
158.6015500838
 20
147.3206919824
 30
0.0
 11
165.1015502179
 21
147.3206919824
 31
0.0
  0
LINE
  5
37D
330
1F
100
AcDbEntity
  8
0
  6
Continuous
 62
     7
370
     0
100
AcDbLine
 10
158.6015500838
 20
147.3206919824
 30
0.0
 11
158.6015500838
 21
247.3206897472
 31
0.0
  0
LINE
  5
37E
330
1F
100
AcDbEntity
  8
0
  6
Continuous
 62
     7
370
     0
100
AcDbLine
 10
158.6015500838
 20
247.3206897472
 30
0.0
 11
162.6015502738
 21
247.3206897472
 31
0.0
  0
LINE
  5
37F
330
1F
100
AcDbEntity
  8
0
  6
Continuous
 62
     7
370
     0
100
AcDbLine
 10
162.6015502738
 20
247.3206897472
 30
0.0
 11
162.6015502738
 21
183.3206922953
 31
0.0
  0
LINE
  5
380
330
1F
100
AcDbEntity
  8
0
  6
Continuous
 62
     7
370
     0
100
AcDbLine
 10
162.6015502738
 20
183.3206922953
 30
0.0
 11
165.1015502179
 21
183.3206922953
 31
0.0
  0
LINE
  5
381
330
1F
100
AcDbEntity
  8
0
  6
Continuous
 62
     7
370
     0
100
AcDbLine
 10
165.1015502179
 20
147.3206919824
 30
0.0
 11
165.1015502179
 21
183.3206922953
 31
0.0
  0
LINE
  5
382
330
1F
100
AcDbEntity
  8
0
  6
Continuous
 62
     7
370
     0
100
AcDbLine
 10
158.6015500838
 20
145.3206935172
 30
0.0
 11
165.1015502179
 21
145.3206935172
 31
0.0
  0
LINE
  5
383
330
1F
100
AcDbEntity
  8
0
  6
Continuous
 62
     7
370
     0
100
AcDbLine
 10
158.6015500838
 20
145.3206935172
 30
0.0
 11
158.6015500838
 21
147.3206919824
 31
0.0
  0
LINE
  5
384
330
1F
100
AcDbEntity
  8
0
  6
Continuous
 62
     7
370
     0
100
AcDbLine
 10
165.1015502179
 20
145.3206935172
 30
0.0
 11
165.1015502179
 21
147.3206919824
 31
0.0
  0
LINE
  5
385
330
1F
100
AcDbEntity
  8
0
  6
Continuous
 62
     7
370
     0
100
AcDbLine
 10
158.6015500838
 20
249.3206938003
 30
0.0
 11
162.6015502738
 21
249.3206938003
 31
0.0
  0
LINE
  5
386
330
1F
100
AcDbEntity
  8
0
  6
Continuous
 62
     7
370
     0
100
AcDbLine
 10
158.6015500838
 20
247.3206897472
 30
0.0
 11
158.6015500838
 21
249.3206938003
 31
0.0
  0
LINE
  5
387
330
1F
100
AcDbEntity
  8
0
  6
Continuous
 62
     7
370
     0
100
AcDbLine
 10
162.6015502738
 20
249.3206938003
 30
0.0
 11
162.6015502738
 21
247.3206897472
 31
0.0
  0
LINE
  5
388
330
1F
100
AcDbEntity
  8
0
  6
Continuous
 62
     7
370
     0
100
AcDbLine
 10
154.6015503595
 20
145.3206935172
 30
0.0
 11
158.6015500838
 21
145.3206935172
 31
0.0
  0
LINE
  5
389
330
1F
100
AcDbEntity
  8
0
  6
Continuous
 62
     7
370
     0
100
AcDbLine
 10
154.6015503595
 20
145.3206935172
 30
0.0
 11
154.6015503595
 21
146.3206936811
 31
0.0
  0
LINE
  5
38A
330
1F
100
AcDbEntity
  8
0
  6
Continuous
 62
     7
370
     0
100
AcDbLine
 10
154.6015503595
 20
146.3206936811
 30
0.0
 11
158.6015500838
 21
146.3206936811
 31
0.0
  0
LINE
  5
38B
330
1F
100
AcDbEntity
  8
0
  6
Continuous
 62
     7
370
     0
100
AcDbLine
 10
154.6015503595
 20
146.3206936811
 30
0.0
 11
154.6015503595
 21
158.3206928541
 31
0.0
  0
LINE
  5
38C
330
1F
100
AcDbEntity
  8
0
  6
Continuous
 62
     7
370
     0
100
AcDbLine
 10
154.6015503595
 20
158.3206928541
 30
0.0
 11
158.6015500838
 21
158.3206928541
 31
0.0
  0
LINE
  5
38D
330
1F
100
AcDbEntity
  8
0
  6
Continuous
 62
     7
370
     0
100
AcDbLine
 10
154.6015503595
 20
158.3206928541
 30
0.0
 11
154.6015503595
 21
159.320693018
 31
0.0
  0
LINE
  5
38E
330
1F
100
AcDbEntity
  8
0
  6
Continuous
 62
     7
370
     0
100
AcDbLine
 10
154.6015503595
 20
159.320693018
 30
0.0
 11
157.6015503855
 21
159.320693018
 31
0.0
  0
LINE
  5
38F
330
1F
100
AcDbEntity
  8
0
  6
Continuous
 62
     7
370
     0
100
AcDbLine
 10
158.6015500838
 20
158.3206928541
 30
0.0
 11
157.6015503855
 21
159.320693018
 31
0.0
  0
LINE
  5
390
330
1F
100
AcDbEntity
  8
0
  6
Continuous
 62
     7
370
     0
100
AcDbLine
 10
169.1015502179
 20
165.6613644345
 30
0.0
 11
169.1015502179
 21
167.8206929062
 31
0.0
  0
LINE
  5
391
330
1F
100
AcDbEntity
  8
0
  6
Continuous
 62
     7
370
     0
100
AcDbLine
 10
169.1015502179
 20
160.8206929062
 30
0.0
 11
169.1015502179
 21
165.6613644345
 31
0.0
  0
LINE
  5
392
330
1F
100
AcDbEntity
  8
0
  6
Continuous
 62
     7
370
     0
100
AcDbLine
 10
169.8015502179
 20
165.45068748
 30
0.0
 11
169.8015502179
 21
167.2706929062
 31
0.0
  0
LINE
  5
393
330
1F
100
AcDbEntity
  8
0
  6
Continuous
 62
     7
370
     0
100
AcDbLine
 10
169.8015502179
 20
161.3706929062
 30
0.0
 11
169.8015502179
 21
165.45068748
 31
0.0
  0
LINE
  5
394
330
1F
100
AcDbEntity
  8
0
  6
Continuous
 62
     7
370
     0
100
AcDbLine
 10
172.8015502179
 20
166.7706929062
 30
0.0
 11
172.8015502179
 21
161.8706929062
 31
0.0
  0
LINE
  5
395
330
1F
100
AcDbEntity
  8
0
  6
Continuous
 62
     7
370
     0
100
AcDbLine
 10
172.5015502179
 20
161.5706929062
 30
0.0
 11
172.5015502179
 21
167.0706929062
 31
0.0
  0
LINE
  5
396
330
1F
100
AcDbEntity
  8
0
  6
Continuous
 62
     7
370
     0
100
AcDbLine
 10
168.6015502179
 20
145.8206929062
 30
0.0
 11
168.6015502179
 21
182.8206929062
 31
0.0
  0
LINE
  5
397
330
1F
100
AcDbEntity
  8
0
  6
Continuous
 62
     7
370
     0
100
AcDbLine
 10
168.1015502179
 20
145.3206929062
 30
0.0
 11
168.1015502179
 21
183.3206929062
 31
0.0
  0
LINE
  5
398
330
1F
100
AcDbEntity
  8
0
  6
Continuous
 62
     7
370
     0
100
AcDbLine
 10
153.6015502179
 20
210.8206929062
 30
0.0
 11
153.6015501956
 21
206.620693693
 31
0.0
  0
LINE
  5
399
330
1F
100
AcDbEntity
  8
0
  6
Continuous
 62
     7
370
     0
100
AcDbLine
 10
153.6015501956
 20
199.0206917022
 30
0.0
 11
153.6015502179
 21
194.8206929062
 31
0.0
  0
DIMENSION
  5
39A
330
1F
100
AcDbEntity
  8
0
  6
Continuous
 62
     7
370
     0
100
AcDbDimension
  2
*D29
 10
158.6015502179
 20
258.6024858087
 30
0.0
 11
150.8515502179
 21
258.6024858087
 31
0.0
 70
   160
 71
     1
 42
15.5
  3
SLDDIMSTYLE0
100
AcDbAlignedDimension
 13
143.1015502179
 23
232.9584232316
 33
0.0
 14
158.6015502179
 24
249.3206929062
 34
0.0
100
AcDbRotatedDimension
1001
ACAD
1000
DSTYLE
1002
{
1070
    77
1070
     3
1070
   143
1040
0.0393700787
1070
    41
1040
3.0
1070
    44
1040
1.0
1070
    42
1040
1.0
1070
   147
1040
1.524
1070
    73
1070
     0
1070
    74
1070
     0
1070
   140
1040
3.5
1070
   284
1070
    12
1070
    78
1070
    12
1002
}
  0
DIMENSION
  5
3AF
330
1F
100
AcDbEntity
  8
0
  6
Continuous
 62
     7
370
     0
100
AcDbDimension
  2
*D30
 10
162.6015502179
 20
258.6024858087
 30
0.0
 11
165.0829838266
 21
258.6024858087
 31
0.0
 70
   160
 71
     1
 42
4.0
  3
SLDDIMSTYLE0
100
AcDbAlignedDimension
 13
158.6015502179
 23
249.3206929062
 33
0.0
 14
162.6015502179
 24
249.3206929062
 34
0.0
100
AcDbRotatedDimension
1001
ACAD
1000
DSTYLE
1002
{
1070
    77
1070
     3
1070
   143
1040
0.0393700787
1070
    41
1040
3.0
1070
    44
1040
1.0
1070
    42
1040
1.0
1070
   147
1040
1.524
1070
    73
1070
     0
1070
    74
1070
     0
1070
   140
1040
3.5
1070
   284
1070
    12
1070
    78
1070
    12
1002
}
  0
DIMENSION
  5
3C7
330
1F
100
AcDbEntity
  8
0
  6
Continuous
 62
     7
370
     0
100
AcDbDimension
  2
*D31
 10
165.1015502179
 20
253.0675007748
 30
0.0
 11
161.8515502179
 21
253.0675007748
 31
0.0
 70
   160
 71
     1
 42
6.5
  3
SLDDIMSTYLE0
100
AcDbAlignedDimension
 13
158.6015502179
 23
249.3206929062
 33
0.0
 14
165.1015502179
 24
183.3206929062
 34
0.0
100
AcDbRotatedDimension
1001
ACAD
1000
DSTYLE
1002
{
1070
    77
1070
     3
1070
   143
1040
0.0393700787
1070
    41
1040
3.0
1070
    44
1040
1.0
1070
    42
1040
1.0
1070
   147
1040
1.524
1070
    73
1070
     0
1070
    74
1070
     0
1070
   140
1040
3.5
1070
   284
1070
    12
1070
    78
1070
    12
1002
}
  0
DIMENSION
  5
3DE
330
1F
100
AcDbEntity
  8
0
  6
Continuous
 62
     7
370
     0
100
AcDbDimension
  2
*D32
 10
168.6015502179
 20
253.0675007748
 30
0.0
 11
173.4564227242
 21
253.0675007748
 31
0.0
 70
   160
 71
     1
 42
3.5
  3
SLDDIMSTYLE0
100
AcDbAlignedDimension
 13
165.1015502179
 23
183.3206929062
 33
0.0
 14
168.6015502179
 24
182.8206929062
 34
0.0
100
AcDbRotatedDimension
1001
ACAD
1000
DSTYLE
1002
{
1070
    77
1070
     3
1070
   143
1040
0.0393700787
1070
    41
1040
3.0
1070
    44
1040
1.0
1070
    42
1040
1.0
1070
   147
1040
1.524
1070
    73
1070
     0
1070
    74
1070
     0
1070
   140
1040
3.5
1070
   284
1070
    12
1070
    78
1070
    12
1002
}
  0
DIMENSION
  5
3F6
330
1F
100
AcDbEntity
  8
0
  6
Continuous
 62
     7
370
     0
100
AcDbDimension
  2
*D33
 10
130.6015502179
 20
265.9824658541
 30
0.0
 11
144.6015502179
 21
265.9824658541
 31
0.0
 70
   160
 71
     1
 42
28.0
  3
SLDDIMSTYLE0
100
AcDbAlignedDimension
 13
158.6015502179
 23
249.3206929062
 33
0.0
 14
130.6015502179
 24
226.8206929062
 34
0.0
100
AcDbRotatedDimension
1001
ACAD
1000
DSTYLE
1002
{
1070
    77
1070
     3
1070
   143
1040
0.0393700787
1070
    41
1040
3.0
1070
    44
1040
1.0
1070
    42
1040
1.0
1070
   147
1040
1.524
1070
    73
1070
     0
1070
    74
1070
     0
1070
   140
1040
3.5
1070
   284
1070
    12
1070
    78
1070
    12
1002
}
  0
DIMENSION
  5
409
330
1F
100
AcDbEntity
  8
0
  6
Continuous
 62
     7
370
     0
100
AcDbDimension
  2
*D34
 10
158.6015502179
 20
265.9824658541
 30
0.0
 11
165.7015502179
 21
265.9824658541
 31
0.0
 70
   160
 71
     1
 42
14.2
  3
SLDDIMSTYLE0
100
AcDbAlignedDimension
 13
172.8015502179
 23
165.7517947428
 33
0.0
 14
158.6015502179
 24
242.6206929062
 34
0.0
100
AcDbRotatedDimension
1001
ACAD
1000
DSTYLE
1002
{
1070
    77
1070
     3
1070
   143
1040
0.0393700787
1070
    41
1040
3.0
1070
    44
1040
1.0
1070
    42
1040
1.0
1070
   147
1040
1.524
1070
    73
1070
     0
1070
    74
1070
     0
1070
   140
1040
3.5
1070
   284
1070
    12
1070
    78
1070
    12
1002
}
  0
DIMENSION
  5
41E
330
1F
100
AcDbEntity
  8
0
  6
Continuous
 62
     7
370
     0
100
AcDbDimension
  2
*D35
 10
172.8015502179
 20
273.3624458994
 30
0.0
 11
151.7015502179
 21
273.3624458994
 31
0.0
 70
   160
 71
     1
 42
42.2
  3
SLDDIMSTYLE0
100
AcDbAlignedDimension
 13
130.6015502179
 23
226.8206929062
 33
0.0
 14
172.8015502179
 24
166.7706929062
 34
0.0
100
AcDbRotatedDimension
1001
ACAD
1000
DSTYLE
1002
{
1070
    77
1070
     3
1070
   143
1040
0.0393700787
1070
    41
1040
3.0
1070
    44
1040
1.0
1070
    42
1040
1.0
1070
   147
1040
1.524
1070
    73
1070
     0
1070
    74
1070
     0
1070
   140
1040
3.5
1070
   284
1070
    12
1070
    78
1070
    12
1002
}
  0
DIMENSION
  5
431
330
1F
100
AcDbEntity
  8
0
  6
Continuous
 62
     7
370
     0
100
AcDbDimension
  2
*D36
 10
192.3581958584
 20
183.3206929062
 30
0.0
 11
192.3581958584
 21
216.3206929062
 31
0.0
 70
   160
 71
     1
 42
66.0
  3
SLDDIMSTYLE0
100
AcDbAlignedDimension
 13
162.6015502179
 23
249.3206929062
 33
0.0
 14
168.1015502179
 24
183.3206929062
 34
0.0
 50
90.0
100
AcDbRotatedDimension
1001
ACAD
1000
DSTYLE
1002
{
1070
    77
1070
     3
1070
   143
1040
0.0393700787
1070
    41
1040
3.0
1070
    44
1040
1.0
1070
    42
1040
1.0
1070
   147
1040
1.524
1070
    73
1070
     0
1070
    74
1070
     0
1070
   140
1040
3.5
1070
   284
1070
    12
1070
    78
1070
    12
1002
}
  0
DIMENSION
  5
445
330
1F
100
AcDbEntity
  8
0
  6
Continuous
 62
     7
370
     0
100
AcDbDimension
  2
*D37
 10
181.7583887042
 20
164.3206929062
 30
0.0
 11
181.7583887042
 21
154.8206929062
 31
0.0
 70
   160
 71
     1
 42
19.0
  3
SLDDIMSTYLE0
100
AcDbAlignedDimension
 13
165.1015502179
 23
145.3206929062
 33
0.0
 14
168.6015502179
 24
164.3206929062
 34
0.0
 50
90.0
100
AcDbRotatedDimension
1001
ACAD
1000
DSTYLE
1002
{
1070
    77
1070
     3
1070
   143
1040
0.0393700787
1070
    41
1040
3.0
1070
    44
1040
1.0
1070
    42
1040
1.0
1070
   147
1040
1.524
1070
    73
1070
     0
1070
    74
1070
     0
1070
   140
1040
3.5
1070
   284
1070
    12
1070
    78
1070
    12
1002
}
  0
DIMENSION
  5
459
330
1F
100
AcDbEntity
  8
0
  6
Continuous
 62
     7
370
     0
100
AcDbDimension
  2
*D38
 10
181.7583887042
 20
202.8206929062
 30
0.0
 11
181.7583887042
 21
183.5706929062
 31
0.0
 70
   160
 71
     1
 42
38.5
  3
SLDDIMSTYLE0
100
AcDbAlignedDimension
 13
168.6015502179
 23
164.3206929062
 33
0.0
 14
157.1015502179
 24
202.8206929062
 34
0.0
 50
90.0
100
AcDbRotatedDimension
1001
ACAD
1000
DSTYLE
1002
{
1070
    77
1070
     3
1070
   143
1040
0.0393700787
1070
    41
1040
3.0
1070
    44
1040
1.0
1070
    42
1040
1.0
1070
   147
1040
1.524
1070
    73
1070
     0
1070
    74
1070
     0
1070
   140
1040
3.5
1070
   284
1070
    12
1070
    78
1070
    12
1002
}
  0
DIMENSION
  5
46D
330
1F
100
AcDbEntity
  8
0
  6
Continuous
 62
     7
370
     0
100
AcDbDimension
  2
*D39
 10
192.3581958584
 20
145.3206929062
 30
0.0
 11
192.3581958584
 21
164.3206929062
 31
0.0
 70
   160
 71
     1
 42
38.0
  3
SLDDIMSTYLE0
100
AcDbAlignedDimension
 13
165.1015502179
 23
183.3206929062
 33
0.0
 14
165.1015502179
 24
145.3206929062
 34
0.0
 50
90.0
100
AcDbRotatedDimension
1001
ACAD
1000
DSTYLE
1002
{
1070
    77
1070
     3
1070
   143
1040
0.0393700787
1070
    41
1040
3.0
1070
    44
1040
1.0
1070
    42
1040
1.0
1070
   147
1040
1.524
1070
    73
1070
     0
1070
    74
1070
     0
1070
   140
1040
3.5
1070
   284
1070
    12
1070
    78
1070
    12
1002
}
  0
DIMENSION
  5
481
330
1F
100
AcDbEntity
  8
0
  6
Continuous
 62
     7
370
     0
100
AcDbDimension
  2
*D40
 10
158.6015502179
 20
126.192482109
 30
0.0
 11
156.6015502179
 21
126.192482109
 31
0.0
 70
   160
 71
     1
 42
4.0
  3
SLDDIMSTYLE0
100
AcDbAlignedDimension
 13
154.6015502179
 23
145.3206929062
 33
0.0
 14
158.6015502179
 24
145.3206929062
 34
0.0
100
AcDbRotatedDimension
1001
ACAD
1000
DSTYLE
1002
{
1070
    77
1070
     3
1070
   143
1040
0.0393700787
1070
    41
1040
3.0
1070
    44
1040
1.0
1070
    42
1040
1.0
1070
   147
1040
1.524
1070
    73
1070
     0
1070
    74
1070
     0
1070
   140
1040
3.5
1070
   284
1070
    12
1070
    78
1070
    12
1002
}
  0
DIMENSION
  5
498
330
1F
100
AcDbEntity
  8
0
  6
Continuous
 62
     7
370
     0
100
AcDbDimension
  2
*D41
 10
168.6015502179
 20
126.192482109
 30
0.0
 11
163.6015502179
 21
126.192482109
 31
0.0
 70
   160
 71
     1
 42
10.0
  3
SLDDIMSTYLE0
100
AcDbAlignedDimension
 13
158.6015502179
 23
145.3206929062
 33
0.0
 14
168.6015502179
 24
145.8206929062
 34
0.0
100
AcDbRotatedDimension
1001
ACAD
1000
DSTYLE
1002
{
1070
    77
1070
     3
1070
   143
1040
0.0393700787
1070
    41
1040
3.0
1070
    44
1040
1.0
1070
    42
1040
1.0
1070
   147
1040
1.524
1070
    73
1070
     0
1070
    74
1070
     0
1070
   140
1040
3.5
1070
   284
1070
    12
1070
    78
1070
    12
1002
}
  0
MTEXT
  5
4AD
330
1F
100
AcDbEntity
  8
0
  6
Continuous
 62
     7
370
     0
100
AcDbMText
 10
153.6587564767
 20
16.6940847466
 30
0.0
 40
3.5
 41
0.0
 71
     1
 72
     1
  1
090141
  7
SLDTEXTSTYLE0
 73
     1
 44
1.0
  0
INSERT
  5
4B9
330
1F
100
AcDbEntity
  8
0
  6
Continuous
 62
     7
370
     0
100
AcDbBlockReference
  2
SW_CENTERMARKSYMBOL_11
 10
143.1015502179
 20
220.3206929062
 30
0.0
  0
LINE
  5
4BA
330
1F
100
AcDbEntity
  8
0
  6
CENTERX2
 62
     7
370
     0
100
AcDbLine
 10
174.5015502179
 20
164.3206929062
 30
0.0
 11
169.8015502179
 21
164.3206929062
 31
0.0
  0
LINE
  5
4BB
330
1F
100
AcDbEntity
  8
0
  6
CENTERX2
 62
     7
370
     0
100
AcDbLine
 10
169.1015502179
 20
164.3206929062
 30
0.0
 11
169.8015502179
 21
164.3206929062
 31
0.0
  0
LINE
  5
4BC
330
1F
100
AcDbEntity
  8
0
  6
CENTERX2
 62
     7
370
     0
100
AcDbLine
 10
168.6015502179
 20
164.3206929062
 30
0.0
 11
169.1015502179
 21
164.3206929062
 31
0.0
  0
LINE
  5
4BD
330
1F
100
AcDbEntity
  8
0
  6
CENTERX2
 62
     7
370
     0
100
AcDbLine
 10
156.6015502179
 20
164.3206929062
 30
0.0
 11
168.6015502179
 21
164.3206929062
 31
0.0
  0
LINE
  5
4BE
330
1F
100
AcDbEntity
  8
0
  6
CENTERX2
 62
     7
370
     0
100
AcDbLine
 10
147.2015502179
 20
151.8206929062
 30
0.0
 11
152.8015502179
 21
151.8206929062
 31
0.0
  0
LINE
  5
4BF
330
1F
100
AcDbEntity
  8
0
  6
CENTERX2
 62
     7
370
     0
100
AcDbLine
 10
153.8015502179
 20
151.8206929062
 30
0.0
 11
152.8015502179
 21
151.8206929062
 31
0.0
  0
LINE
  5
4C0
330
1F
100
AcDbEntity
  8
0
  6
CENTERX2
 62
     7
370
     0
100
AcDbLine
 10
156.6015502179
 20
151.8206929062
 30
0.0
 11
153.8015502179
 21
151.8206929062
 31
0.0
  0
LINE
  5
4C1
330
1F
100
AcDbEntity
  8
0
  6
CENTERX2
 62
     7
370
     0
100
AcDbLine
 10
143.1015502179
 20
232.9584232316
 30
0.0
 11
143.1015502179
 21
172.5206929062
 31
0.0
  0
LINE
  5
4C2
330
1F
100
AcDbEntity
  8
0
  6
CENTERX2
 62
     7
370
     0
100
AcDbLine
 10
151.1015502179
 20
187.3206929062
 30
0.0
 11
135.1015502179
 21
187.3206929062
 31
0.0
  0
LINE
  5
4C3
330
1F
100
AcDbEntity
  8
0
  6
CENTERX2
 62
     7
370
     0
100
AcDbLine
 10
151.1015502179
 20
187.3206929062
 30
0.0
 11
151.1015502179
 21
196.8206929062
 31
0.0
  0
LINE
  5
4C4
330
1F
100
AcDbEntity
  8
0
  6
CENTERX2
 62
     7
370
     0
100
AcDbLine
 10
151.1015502179
 20
208.8206929062
 30
0.0
 11
151.1015502182
 21
226.8206929062
 31
0.0
  0
LINE
  5
4C5
330
1F
100
AcDbEntity
  8
0
  6
CENTERX2
 62
     7
370
     0
100
AcDbLine
 10
135.1015502179
 20
187.3206929062
 30
0.0
 11
135.1015502179
 21
226.8206929062
 31
0.0
  0
LINE
  5
4C6
330
1F
100
AcDbEntity
  8
0
  6
CENTERX2
 62
     7
370
     0
100
AcDbLine
 10
135.1015502179
 20
226.8206929062
 30
0.0
 11
151.1015502182
 21
226.8206929062
 31
0.0
  0
LINE
  5
4C7
330
1F
100
AcDbEntity
  8
0
  6
CENTERX2
 62
     7
370
     0
100
AcDbLine
 10
147.7015502179
 20
202.8206929062
 30
0.0
 11
153.3015502179
 21
202.8206929062
 31
0.0
  0
LINE
  5
4C8
330
1F
100
AcDbEntity
  8
0
  6
CENTERX2
 62
     7
370
     0
100
AcDbLine
 10
154.3015502179
 20
202.8206929062
 30
0.0
 11
153.3015502179
 21
202.8206929062
 31
0.0
  0
LINE
  5
4C9
330
1F
100
AcDbEntity
  8
0
  6
CENTERX2
 62
     7
370
     0
100
AcDbLine
 10
157.1015502179
 20
202.8206929062
 30
0.0
 11
154.3015502179
 21
202.8206929062
 31
0.0
  0
LINE
  5
4CA
330
1F
100
AcDbEntity
  8
0
  6
Continuous
 62
     7
370
     0
100
AcDbLine
 10
47.3731356887
 20
82.8964661625
 30
0.0
 11
46.2731356946
 21
82.7864657906
 31
0.0
  0
LINE
  5
4CB
330
1F
100
AcDbEntity
  8
0
  6
Continuous
 62
     7
370
     0
100
AcDbLine
 10
46.2731356946
 20
79.7864671615
 30
0.0
 11
47.3731356887
 21
79.6764667896
 31
0.0
  0
LINE
  5
4CC
330
1F
100
AcDbEntity
  8
0
  6
Continuous
 62
     7
370
     0
100
AcDbLine
 10
46.2731352416
 20
83.0364665953
 30
0.0
 11
43.7731352416
 21
82.7864665953
 31
0.0
  0
LINE
  5
4CD
330
1F
100
AcDbEntity
  8
0
  6
Continuous
 62
     7
370
     0
100
AcDbLine
 10
43.7731352416
 20
79.7864665953
 30
0.0
 11
46.2731352416
 21
79.5364665953
 31
0.0
  0
LINE
  5
4CE
330
1F
100
AcDbEntity
  8
0
  6
Continuous
 62
     7
370
     0
100
AcDbLine
 10
91.3731352416
 20
69.2864665953
 30
0.0
 11
91.3731352416
 21
70.0864665953
 31
0.0
  0
LINE
  5
4CF
330
1F
100
AcDbEntity
  8
0
  6
Continuous
 62
     7
370
     0
100
AcDbLine
 10
90.1731356261
 20
70.0864668754
 30
0.0
 11
90.1731352416
 21
71.0864665953
 31
0.0
  0
LINE
  5
4D0
330
1F
100
AcDbEntity
  8
0
  6
Continuous
 62
     7
370
     0
100
AcDbLine
 10
89.8731361357
 20
71.0864670393
 30
0.0
 11
89.8731352416
 21
74.6864665953
 31
0.0
  0
LINE
  5
4D1
330
1F
100
AcDbEntity
  8
0
  6
Continuous
 62
     7
370
     0
100
AcDbLine
 10
89.8731352416
 20
74.6864665953
 30
0.0
 11
89.4731352416
 21
75.0864665953
 31
0.0
  0
LINE
  5
4D2
330
1F
100
AcDbEntity
  8
0
  6
Continuous
 62
     7
370
     0
100
AcDbLine
 10
43.3731352416
 20
70.0864665953
 30
0.0
 11
43.3731352416
 21
69.2864665953
 31
0.0
  0
LINE
  5
4D3
330
1F
100
AcDbEntity
  8
0
  6
Continuous
 62
     7
370
     0
100
AcDbLine
 10
44.5731352416
 20
71.0864665953
 30
0.0
 11
44.5731348572
 21
70.0864668754
 31
0.0
  0
LINE
  5
4D4
330
1F
100
AcDbEntity
  8
0
  6
Continuous
 62
     7
370
     0
100
AcDbLine
 10
44.8731352416
 20
74.6864665953
 30
0.0
 11
44.8731343476
 21
71.0864670393
 31
0.0
  0
LINE
  5
4D5
330
1F
100
AcDbEntity
  8
0
  6
Continuous
 62
     7
370
     0
100
AcDbLine
 10
45.2731352416
 20
75.0864665953
 30
0.0
 11
44.8731352416
 21
74.6864665953
 31
0.0
  0
LINE
  5
4D6
330
1F
100
AcDbEntity
  8
0
  6
Continuous
 62
     7
370
     0
100
AcDbLine
 10
74.3731352416
 20
70.5864665953
 30
0.0
 11
74.3731354577
 21
69.7864664537
 31
0.0
  0
LINE
  5
4D7
330
1F
100
AcDbEntity
  8
0
  6
Continuous
 62
     7
370
     0
100
AcDbLine
 10
84.3731361655
 20
69.7864664537
 30
0.0
 11
84.3731352416
 21
70.5864665953
 31
0.0
  0
LINE
  5
4D8
330
1F
100
AcDbEntity
  8
0
  6
Continuous
 62
     7
370
     0
100
AcDbLine
 10
75.5731352416
 20
71.5864665953
 30
0.0
 11
75.5731352819
 21
70.5864669574
 31
0.0
  0
LINE
  5
4D9
330
1F
100
AcDbEntity
  8
0
  6
Continuous
 62
     7
370
     0
100
AcDbLine
 10
83.1731344787
 20
70.5864669574
 30
0.0
 11
83.1731352416
 21
71.5864665953
 31
0.0
  0
LINE
  5
4DA
330
1F
100
AcDbEntity
  8
0
  6
Continuous
 62
     7
370
     0
100
AcDbLine
 10
82.8731349883
 20
71.5864661899
 30
0.0
 11
82.8731352416
 21
75.1864665953
 31
0.0
  0
LINE
  5
4DB
330
1F
100
AcDbEntity
  8
0
  6
Continuous
 62
     7
370
     0
100
AcDbLine
 10
75.8731352416
 20
75.1864665953
 30
0.0
 11
75.8731357036
 21
71.5864661899
 31
0.0
  0
LINE
  5
4DC
330
1F
100
AcDbEntity
  8
0
  6
Continuous
 62
     7
370
     0
100
AcDbLine
 10
82.8731352416
 20
75.1864665953
 30
0.0
 11
82.4731352416
 21
75.5864665953
 31
0.0
  0
LINE
  5
4DD
330
1F
100
AcDbEntity
  8
0
  6
Continuous
 62
     7
370
     0
100
AcDbLine
 10
76.2731352416
 20
75.5864665953
 30
0.0
 11
75.8731352416
 21
75.1864665953
 31
0.0
  0
LINE
  5
4DE
330
1F
100
AcDbEntity
  8
0
  6
Continuous
 62
     7
370
     0
100
AcDbLine
 10
50.3731352416
 20
70.5864665953
 30
0.0
 11
50.3731343178
 21
69.7864664537
 31
0.0
  0
LINE
  5
4DF
330
1F
100
AcDbEntity
  8
0
  6
Continuous
 62
     7
370
     0
100
AcDbLine
 10
60.3731350256
 20
69.7864664537
 30
0.0
 11
60.3731352416
 21
70.5864665953
 31
0.0
  0
LINE
  5
4E0
330
1F
100
AcDbEntity
  8
0
  6
Continuous
 62
     7
370
     0
100
AcDbLine
 10
51.5731352416
 20
71.5864665953
 30
0.0
 11
51.5731360046
 21
70.5864669574
 31
0.0
  0
LINE
  5
4E1
330
1F
100
AcDbEntity
  8
0
  6
Continuous
 62
     7
370
     0
100
AcDbLine
 10
59.1731352014
 20
70.5864669574
 30
0.0
 11
59.1731352416
 21
71.5864665953
 31
0.0
  0
LINE
  5
4E2
330
1F
100
AcDbEntity
  8
0
  6
Continuous
 62
     7
370
     0
100
AcDbLine
 10
58.8731347797
 20
71.5864661899
 30
0.0
 11
58.8731352416
 21
75.1864665953
 31
0.0
  0
LINE
  5
4E3
330
1F
100
AcDbEntity
  8
0
  6
Continuous
 62
     7
370
     0
100
AcDbLine
 10
51.8731352416
 20
75.1864665953
 30
0.0
 11
51.8731354949
 21
71.5864661899
 31
0.0
  0
LINE
  5
4E4
330
1F
100
AcDbEntity
  8
0
  6
Continuous
 62
     7
370
     0
100
AcDbLine
 10
58.8731352416
 20
75.1864665953
 30
0.0
 11
58.4731352416
 21
75.5864665953
 31
0.0
  0
LINE
  5
4E5
330
1F
100
AcDbEntity
  8
0
  6
Continuous
 62
     7
370
     0
100
AcDbLine
 10
52.2731352416
 20
75.5864665953
 30
0.0
 11
51.8731352416
 21
75.1864665953
 31
0.0
  0
LINE
  5
4E6
330
1F
100
AcDbEntity
  8
0
  6
Continuous
 62
     7
370
     0
100
AcDbLine
 10
85.8731352416
 20
55.2864665953
 30
0.0
 11
85.8731352416
 21
55.7864665953
 31
0.0
  0
LINE
  5
4E7
330
1F
100
AcDbEntity
  8
0
  6
Continuous
 62
     7
370
     0
100
AcDbLine
 10
78.873135264
 20
55.7864664872
 30
0.0
 11
78.8731352416
 21
55.2864665953
 31
0.0
  0
LINE
  5
4E8
330
1F
100
AcDbEntity
  8
0
  6
Continuous
 62
     7
370
     0
100
AcDbLine
 10
85.3231352416
 20
54.5864665953
 30
0.0
 11
85.323135483
 21
55.2864664053
 31
0.0
  0
LINE
  5
4E9
330
1F
100
AcDbEntity
  8
0
  6
Continuous
 62
     7
370
     0
100
AcDbLine
 10
79.423135261
 20
55.2864664053
 30
0.0
 11
79.4231352416
 21
54.5864665953
 31
0.0
  0
LINE
  5
4EA
330
1F
100
AcDbEntity
  8
0
  6
Continuous
 62
     7
370
     0
100
AcDbLine
 10
79.6231352416
 20
51.8864665953
 30
0.0
 11
79.9231352416
 21
51.5864665953
 31
0.0
  0
LINE
  5
4EB
330
1F
100
AcDbEntity
  8
0
  6
Continuous
 62
     7
370
     0
100
AcDbLine
 10
84.8231352416
 20
51.5864665953
 30
0.0
 11
85.1231352416
 21
51.8864665953
 31
0.0
  0
LINE
  5
4EC
330
1F
100
AcDbEntity
  8
0
  6
Continuous
 62
     7
370
     0
100
AcDbLine
 10
79.6231349212
 20
54.5864666631
 30
0.0
 11
79.6231352416
 21
51.8864665953
 31
0.0
  0
LINE
  5
4ED
330
1F
100
AcDbEntity
  8
0
  6
Continuous
 62
     7
370
     0
100
AcDbLine
 10
85.1231352416
 20
51.8864665953
 30
0.0
 11
85.1231358228
 21
54.5864666631
 31
0.0
  0
LINE
  5
4EE
330
1F
100
AcDbEntity
  8
0
  6
Continuous
 62
     7
370
     0
100
AcDbLine
 10
55.8731352416
 20
55.2864665953
 30
0.0
 11
55.8731352193
 21
55.7864664872
 31
0.0
  0
LINE
  5
4EF
330
1F
100
AcDbEntity
  8
0
  6
Continuous
 62
     7
370
     0
100
AcDbLine
 10
48.8731352416
 20
55.7864665953
 30
0.0
 11
48.8731352416
 21
55.2864665953
 31
0.0
  0
LINE
  5
4F0
330
1F
100
AcDbEntity
  8
0
  6
Continuous
 62
     7
370
     0
100
AcDbLine
 10
55.3231352416
 20
54.5864665953
 30
0.0
 11
55.3231352223
 21
55.2864664053
 31
0.0
  0
LINE
  5
4F1
330
1F
100
AcDbEntity
  8
0
  6
Continuous
 62
     7
370
     0
100
AcDbLine
 10
49.4231350002
 20
55.2864664053
 30
0.0
 11
49.4231352416
 21
54.5864665953
 31
0.0
  0
LINE
  5
4F2
330
1F
100
AcDbEntity
  8
0
  6
Continuous
 62
     7
370
     0
100
AcDbLine
 10
49.6231352416
 20
51.8864665953
 30
0.0
 11
49.9231352416
 21
51.5864665953
 31
0.0
  0
LINE
  5
4F3
330
1F
100
AcDbEntity
  8
0
  6
Continuous
 62
     7
370
     0
100
AcDbLine
 10
54.8231352416
 20
51.5864665953
 30
0.0
 11
55.1231352416
 21
51.8864665953
 31
0.0
  0
LINE
  5
4F4
330
1F
100
AcDbEntity
  8
0
  6
Continuous
 62
     7
370
     0
100
AcDbLine
 10
49.6231346605
 20
54.5864666631
 30
0.0
 11
49.6231352416
 21
51.8864665953
 31
0.0
  0
LINE
  5
4F5
330
1F
100
AcDbEntity
  8
0
  6
Continuous
 62
     7
370
     0
100
AcDbLine
 10
55.1231352416
 20
51.8864665953
 30
0.0
 11
55.123135562
 21
54.5864666631
 31
0.0
  0
LINE
  5
4F6
330
1F
100
AcDbEntity
  8
0
  6
Continuous
 62
     7
370
     0
100
AcDbLine
 10
48.3731352416
 20
56.2864665953
 30
0.0
 11
48.8731352416
 21
55.7864665953
 31
0.0
  0
LINE
  5
4F7
330
1F
100
AcDbEntity
  8
0
  6
Continuous
 62
     7
370
     0
100
AcDbLine
 10
85.8731352416
 20
55.7864665953
 30
0.0
 11
86.3731352416
 21
56.2864665953
 31
0.0
  0
LINE
  5
4F8
330
1F
100
AcDbEntity
  8
0
  6
Continuous
 62
     7
370
     0
100
AcDbLine
 10
48.3731358526
 20
59.2864665953
 30
0.0
 11
48.3731352416
 21
56.2864665953
 31
0.0
  0
LINE
  5
4F9
330
1F
100
AcDbEntity
  8
0
  6
Continuous
 62
     7
370
     0
100
AcDbLine
 10
86.3731352416
 20
56.2864665953
 30
0.0
 11
86.3731346307
 21
59.2864665953
 31
0.0
  0
LINE
  5
4FA
330
1F
100
AcDbEntity
  8
0
  6
Continuous
 62
     7
370
     0
100
AcDbLine
 10
54.8731352416
 20
89.2864665953
 30
0.0
 11
55.8731352416
 21
89.2864665953
 31
0.0
  0
LINE
  5
4FB
330
1F
100
AcDbEntity
  8
0
  6
Continuous
 62
     7
370
     0
100
AcDbLine
 10
55.8731352416
 20
89.2864665953
 30
0.0
 11
55.8731352193
 21
87.2864674595
 31
0.0
  0
LINE
  5
4FC
330
1F
100
AcDbEntity
  8
0
  6
Continuous
 62
     7
370
     0
100
AcDbLine
 10
54.8731352416
 20
89.2864665953
 30
0.0
 11
54.8731350554
 21
87.2864674595
 31
0.0
  0
LINE
  5
4FD
330
1F
100
AcDbEntity
  8
0
  6
Continuous
 62
     7
370
     0
100
AcDbLine
 10
78.873135264
 20
87.2864674595
 30
0.0
 11
78.8731352416
 21
89.2864665954
 31
0.0
  0
LINE
  5
4FE
330
1F
100
AcDbEntity
  8
0
  6
Continuous
 62
     7
370
     0
100
AcDbLine
 10
79.8731352416
 20
89.2864665952
 30
0.0
 11
78.8731352416
 21
89.2864665954
 31
0.0
  0
LINE
  5
4FF
330
1F
100
AcDbEntity
  8
0
  6
Continuous
 62
     7
370
     0
100
AcDbLine
 10
79.8731354279
 20
87.2864674595
 30
0.0
 11
79.8731352416
 21
89.2864665952
 31
0.0
  0
ARC
  5
500
330
1F
100
AcDbEntity
  8
0
  6
Continuous
 62
     7
370
     0
100
AcDbCircle
 10
75.3731352416
 20
89.2864665953
 30
0.0
 40
3.499999999997812
100
AcDbArc
 50
0.0
 51
90.0
  0
LINE
  5
501
330
1F
100
AcDbEntity
  8
0
  6
Continuous
 62
     7
370
     0
100
AcDbLine
 10
75.3731352416
 20
93.7864665953
 30
0.0
 11
75.3731352416
 21
92.7864665953
 31
0.0
  0
ARC
  5
502
330
1F
100
AcDbEntity
  8
0
  6
Continuous
 62
     7
370
     0
100
AcDbCircle
 10
75.3731352416
 20
89.2864665952
 30
0.0
 40
4.500000000012435
100
AcDbArc
 50
0.0
 51
89.9999999999
  0
LINE
  5
503
330
1F
100
AcDbEntity
  8
0
  6
Continuous
 62
     7
370
     0
100
AcDbLine
 10
59.3731352413
 20
93.7864665953
 30
0.0
 11
59.3731352415
 21
92.7864665953
 31
0.0
  0
ARC
  5
504
330
1F
100
AcDbEntity
  8
0
  6
Continuous
 62
     7
370
     0
100
AcDbCircle
 10
59.3731352416
 20
89.2864665953
 30
0.0
 40
3.499999999997819
100
AcDbArc
 50
90.0000000019
 51
180.0
  0
ARC
  5
505
330
1F
100
AcDbEntity
  8
0
  6
Continuous
 62
     7
370
     0
100
AcDbCircle
 10
59.3731352416
 20
89.2864665952
 30
0.0
 40
4.500000000012435
100
AcDbArc
 50
90.0
 51
180.0
  0
LINE
  5
506
330
1F
100
AcDbEntity
  8
0
  6
Continuous
 62
     7
370
     0
100
AcDbLine
 10
75.3731352416
 20
92.7864665953
 30
0.0
 11
59.3731352415
 21
92.7864665953
 31
0.0
  0
LINE
  5
507
330
1F
100
AcDbEntity
  8
0
  6
Continuous
 62
     7
370
     0
100
AcDbLine
 10
75.3731352416
 20
93.7864665953
 30
0.0
 11
59.3731352413
 21
93.7864665953
 31
0.0
  0
LINE
  5
508
330
1F
100
AcDbEntity
  8
0
  6
Continuous
 62
     7
370
     0
100
AcDbLine
 10
56.0231352416
 20
87.7244166601
 30
0.0
 11
56.0231349645
 21
87.2864674595
 31
0.0
  0
ARC
  5
509
330
1F
100
AcDbEntity
  8
0
  6
Continuous
 62
     7
370
     0
100
AcDbCircle
 10
56.5231352416
 20
87.7244166601
 30
0.0
 40
0.5000000000040004
100
AcDbArc
 50
28.7266053492
 51
180.0
  0
ARC
  5
50A
330
1F
100
AcDbEntity
  8
0
  6
Continuous
 62
     7
370
     0
100
AcDbCircle
 10
59.3731352416
 20
89.2864665952
 30
0.0
 40
2.749999999999079
100
AcDbArc
 50
313.3417582272
 51
61.273394652
  0
ARC
  5
50B
330
1F
100
AcDbEntity
  8
0
  6
Continuous
 62
     7
370
     0
100
AcDbCircle
 10
59.3731352416
 20
89.2864665952
 30
0.0
 40
2.749999999998561
100
AcDbArc
 50
208.726605348
 51
226.6582417728
  0
ARC
  5
50C
330
1F
100
AcDbEntity
  8
0
  6
Continuous
 62
     7
370
     0
100
AcDbCircle
 10
60.9351851768
 20
92.1364665952
 30
0.0
 40
0.5000000000038938
100
AcDbArc
 50
89.9999999999
 51
241.2733946523
  0
LINE
  5
50D
330
1F
100
AcDbEntity
  8
0
  6
Continuous
 62
     7
370
     0
100
AcDbLine
 10
73.8110853064
 20
92.6364665953
 30
0.0
 11
60.9351851768
 21
92.6364665953
 31
0.0
  0
ARC
  5
50E
330
1F
100
AcDbEntity
  8
0
  6
Continuous
 62
     7
370
     0
100
AcDbCircle
 10
73.8110853064
 20
92.1364665952
 30
0.0
 40
0.5000000000040075
100
AcDbArc
 50
298.7266053478
 51
90.0000000001
  0
ARC
  5
50F
330
1F
100
AcDbEntity
  8
0
  6
Continuous
 62
     7
370
     0
100
AcDbCircle
 10
75.3731352416
 20
89.2864665952
 30
0.0
 40
2.749999999998003
100
AcDbArc
 50
313.3417582272
 51
331.273394652
  0
ARC
  5
510
330
1F
100
AcDbEntity
  8
0
  6
Continuous
 62
     7
370
     0
100
AcDbCircle
 10
75.3731352416
 20
89.2864665952
 30
0.0
 40
2.749999999998574
100
AcDbArc
 50
118.726605348
 51
226.6582417728
  0
ARC
  5
511
330
1F
100
AcDbEntity
  8
0
  6
Continuous
 62
     7
370
     0
100
AcDbCircle
 10
78.2231352416
 20
87.7244166601
 30
0.0
 40
0.5000000000038938
100
AcDbArc
 50
360.0
 51
151.2733946509
  0
LINE
  5
512
330
1F
100
AcDbEntity
  8
0
  6
Continuous
 62
     7
370
     0
100
AcDbLine
 10
78.7231355188
 20
87.2864674595
 30
0.0
 11
78.7231352416
 21
87.7244166601
 31
0.0
  0
ARC
  5
513
330
1F
100
AcDbEntity
  8
0
  6
Continuous
 62
     7
370
     0
100
AcDbCircle
 10
59.3731352416
 20
89.2864665952
 30
0.0
 40
2.249999999994036
100
AcDbArc
 50
0.0
 51
242.7339555491
  0
ARC
  5
514
330
1F
100
AcDbEntity
  8
0
  6
Continuous
 62
     7
370
     0
100
AcDbCircle
 10
59.3731352416
 20
89.2864665952
 30
0.0
 40
2.249999999994036
100
AcDbArc
 50
297.2660444509
 51
0.0
  0
LINE
  5
515
330
1F
100
AcDbEntity
  8
0
  6
Continuous
 62
     7
370
     0
100
AcDbLine
 10
60.403135254
 20
88.6917959717
 30
0.0
 11
60.403135254
 21
89.8811377403
 31
0.0
  0
LINE
  5
516
330
1F
100
AcDbEntity
  8
0
  6
Continuous
 62
     7
370
     0
100
AcDbLine
 10
60.403135254
 20
89.8811377403
 30
0.0
 11
59.3731348616
 21
90.4758076933
 31
0.0
  0
LINE
  5
517
330
1F
100
AcDbEntity
  8
0
  6
Continuous
 62
     7
370
     0
100
AcDbLine
 10
59.3731348616
 20
90.4758076933
 30
0.0
 11
58.343134935
 21
89.8811377403
 31
0.0
  0
LINE
  5
518
330
1F
100
AcDbEntity
  8
0
  6
Continuous
 62
     7
370
     0
100
AcDbLine
 10
58.343134935
 20
89.8811377403
 30
0.0
 11
58.343134935
 21
88.6917959717
 31
0.0
  0
LINE
  5
519
330
1F
100
AcDbEntity
  8
0
  6
Continuous
 62
     7
370
     0
100
AcDbLine
 10
58.343134935
 20
88.6917959717
 30
0.0
 11
59.3731348616
 21
88.0971241561
 31
0.0
  0
LINE
  5
51A
330
1F
100
AcDbEntity
  8
0
  6
Continuous
 62
     7
370
     0
100
AcDbLine
 10
59.3731348616
 20
88.0971241561
 30
0.0
 11
60.403135254
 21
88.6917959717
 31
0.0
  0
LINE
  5
51B
330
1F
100
AcDbEntity
  8
0
  6
Continuous
 62
     7
370
     0
100
AcDbLine
 10
76.4031355483
 20
89.8811377403
 30
0.0
 11
75.3731356216
 21
90.4758076933
 31
0.0
  0
LINE
  5
51C
330
1F
100
AcDbEntity
  8
0
  6
Continuous
 62
     7
370
     0
100
AcDbLine
 10
75.3731356216
 20
90.4758076933
 30
0.0
 11
74.3431352293
 21
89.8811377403
 31
0.0
  0
LINE
  5
51D
330
1F
100
AcDbEntity
  8
0
  6
Continuous
 62
     7
370
     0
100
AcDbLine
 10
74.3431352293
 20
89.8811377403
 30
0.0
 11
74.3431352293
 21
88.6917959717
 31
0.0
  0
LINE
  5
51E
330
1F
100
AcDbEntity
  8
0
  6
Continuous
 62
     7
370
     0
100
AcDbLine
 10
74.3431352293
 20
88.6917959717
 30
0.0
 11
75.3731356216
 21
88.0971241561
 31
0.0
  0
LINE
  5
51F
330
1F
100
AcDbEntity
  8
0
  6
Continuous
 62
     7
370
     0
100
AcDbLine
 10
75.3731356216
 20
88.0971241561
 30
0.0
 11
76.4031355483
 21
88.6917959717
 31
0.0
  0
LINE
  5
520
330
1F
100
AcDbEntity
  8
0
  6
Continuous
 62
     7
370
     0
100
AcDbLine
 10
76.4031355483
 20
88.6917959717
 30
0.0
 11
76.4031355483
 21
89.8811377403
 31
0.0
  0
ARC
  5
521
330
1F
100
AcDbEntity
  8
0
  6
Continuous
 62
     7
370
     0
100
AcDbCircle
 10
75.3731352416
 20
89.2864665953
 30
0.0
 40
2.250000000000497
100
AcDbArc
 50
0.0
 51
242.7339555493
  0
ARC
  5
522
330
1F
100
AcDbEntity
  8
0
  6
Continuous
 62
     7
370
     0
100
AcDbCircle
 10
75.3731352416
 20
89.2864665953
 30
0.0
 40
2.250000000000497
100
AcDbArc
 50
297.2660444507
 51
0.0
  0
LINE
  5
523
330
1F
100
AcDbEntity
  8
0
  6
Continuous
 62
     7
370
     0
100
AcDbLine
 10
45.3731352416
 20
69.2864665953
 30
0.0
 11
47.3731356887
 21
69.2864663717
 31
0.0
  0
LINE
  5
524
330
1F
100
AcDbEntity
  8
0
  6
Continuous
 62
     7
370
     0
100
AcDbLine
 10
45.3731353608
 20
65.7864667294
 30
0.0
 11
45.3731352416
 21
69.2864665953
 31
0.0
  0
LINE
  5
525
330
1F
100
AcDbEntity
  8
0
  6
Continuous
 62
     7
370
     0
100
AcDbLine
 10
87.3731347946
 20
69.2864663717
 30
0.0
 11
89.3731352416
 21
69.2864665953
 31
0.0
  0
LINE
  5
526
330
1F
100
AcDbEntity
  8
0
  6
Continuous
 62
     7
370
     0
100
AcDbLine
 10
89.3731352416
 20
69.2864665953
 30
0.0
 11
89.3731351224
 21
65.7864667294
 31
0.0
  0
LINE
  5
527
330
1F
100
AcDbEntity
  8
0
  6
Continuous
 62
     7
370
     0
100
AcDbLine
 10
43.373135033
 20
65.7864667294
 30
0.0
 11
43.3731352416
 21
69.2864665953
 31
0.0
  0
LINE
  5
528
330
1F
100
AcDbEntity
  8
0
  6
Continuous
 62
     7
370
     0
100
AcDbLine
 10
45.3731352416
 20
69.2864665953
 30
0.0
 11
43.3731352416
 21
69.2864665953
 31
0.0
  0
LINE
  5
529
330
1F
100
AcDbEntity
  8
0
  6
Continuous
 62
     7
370
     0
100
AcDbLine
 10
91.3731352416
 20
69.2864665953
 30
0.0
 11
89.3731352416
 21
69.2864665953
 31
0.0
  0
LINE
  5
52A
330
1F
100
AcDbEntity
  8
0
  6
Continuous
 62
     7
370
     0
100
AcDbLine
 10
91.3731352416
 20
69.2864665953
 30
0.0
 11
91.3731354502
 21
65.7864667294
 31
0.0
  0
LINE
  5
52B
330
1F
100
AcDbEntity
  8
0
  6
Continuous
 62
     7
370
     0
100
AcDbLine
 10
43.7731352416
 20
79.7864665953
 30
0.0
 11
43.7731352416
 21
82.7864665953
 31
0.0
  0
LINE
  5
52C
330
1F
100
AcDbEntity
  8
0
  6
Continuous
 62
     7
370
     0
100
AcDbLine
 10
46.2731352416
 20
79.5364665953
 30
0.0
 11
46.2731352416
 21
83.0364665953
 31
0.0
  0
LINE
  5
52D
330
1F
100
AcDbEntity
  8
0
  6
Continuous
 62
     7
370
     0
100
AcDbLine
 10
91.3731352416
 20
70.0864665953
 30
0.0
 11
87.3731352416
 21
70.0864665953
 31
0.0
  0
LINE
  5
52E
330
1F
100
AcDbEntity
  8
0
  6
Continuous
 62
     7
370
     0
100
AcDbLine
 10
90.1731352416
 20
71.0864665953
 30
0.0
 11
87.3731352416
 21
71.0864665953
 31
0.0
  0
LINE
  5
52F
330
1F
100
AcDbEntity
  8
0
  6
Continuous
 62
     7
370
     0
100
AcDbLine
 10
89.8731352416
 20
74.6864665953
 30
0.0
 11
87.3731352416
 21
74.6864665953
 31
0.0
  0
LINE
  5
530
330
1F
100
AcDbEntity
  8
0
  6
Continuous
 62
     7
370
     0
100
AcDbLine
 10
87.3731352416
 20
75.0864665953
 30
0.0
 11
89.4731352416
 21
75.0864665953
 31
0.0
  0
LINE
  5
531
330
1F
100
AcDbEntity
  8
0
  6
Continuous
 62
     7
370
     0
100
AcDbLine
 10
47.3731352416
 20
70.0864665953
 30
0.0
 11
43.3731352416
 21
70.0864665953
 31
0.0
  0
LINE
  5
532
330
1F
100
AcDbEntity
  8
0
  6
Continuous
 62
     7
370
     0
100
AcDbLine
 10
47.3731352416
 20
71.0864665953
 30
0.0
 11
44.5731352416
 21
71.0864665953
 31
0.0
  0
LINE
  5
533
330
1F
100
AcDbEntity
  8
0
  6
Continuous
 62
     7
370
     0
100
AcDbLine
 10
47.3731352416
 20
74.6864665953
 30
0.0
 11
44.8731352416
 21
74.6864665953
 31
0.0
  0
LINE
  5
534
330
1F
100
AcDbEntity
  8
0
  6
Continuous
 62
     7
370
     0
100
AcDbLine
 10
45.2731352416
 20
75.0864665953
 30
0.0
 11
47.3731352416
 21
75.0864665953
 31
0.0
  0
LINE
  5
535
330
1F
100
AcDbEntity
  8
0
  6
Continuous
 62
     7
370
     0
100
AcDbLine
 10
84.3731352416
 20
70.5864665953
 30
0.0
 11
74.3731352416
 21
70.5864665953
 31
0.0
  0
LINE
  5
536
330
1F
100
AcDbEntity
  8
0
  6
Continuous
 62
     7
370
     0
100
AcDbLine
 10
83.1731352416
 20
71.5864665953
 30
0.0
 11
75.5731352416
 21
71.5864665953
 31
0.0
  0
LINE
  5
537
330
1F
100
AcDbEntity
  8
0
  6
Continuous
 62
     7
370
     0
100
AcDbLine
 10
82.8731352416
 20
75.1864665953
 30
0.0
 11
75.8731352416
 21
75.1864665953
 31
0.0
  0
LINE
  5
538
330
1F
100
AcDbEntity
  8
0
  6
Continuous
 62
     7
370
     0
100
AcDbLine
 10
76.2731352416
 20
75.5864665953
 30
0.0
 11
82.4731352416
 21
75.5864665953
 31
0.0
  0
CIRCLE
  5
539
330
1F
100
AcDbEntity
  8
0
  6
Continuous
 62
     7
370
     0
100
AcDbCircle
 10
67.3731352416
 20
81.2864665953
 30
0.0
 40
3.100000000000009
  0
CIRCLE
  5
53A
330
1F
100
AcDbEntity
  8
0
  6
Continuous
 62
     7
370
     0
100
AcDbCircle
 10
67.3731352416
 20
81.2864665953
 30
0.0
 40
3.5
  0
LINE
  5
53B
330
1F
100
AcDbEntity
  8
0
  6
Continuous
 62
     7
370
     0
100
AcDbLine
 10
69.1051860321
 20
81.286466476
 30
0.0
 11
68.2391606368
 21
82.7864657906
 31
0.0
  0
LINE
  5
53C
330
1F
100
AcDbEntity
  8
0
  6
Continuous
 62
     7
370
     0
100
AcDbLine
 10
68.2391606368
 20
82.7864657906
 30
0.0
 11
66.5071098464
 21
82.7864657906
 31
0.0
  0
LINE
  5
53D
330
1F
100
AcDbEntity
  8
0
  6
Continuous
 62
     7
370
     0
100
AcDbLine
 10
66.5071098464
 20
82.7864657906
 30
0.0
 11
65.6410844512
 21
81.286466476
 31
0.0
  0
LINE
  5
53E
330
1F
100
AcDbEntity
  8
0
  6
Continuous
 62
     7
370
     0
100
AcDbLine
 10
65.6410844512
 20
81.286466476
 30
0.0
 11
66.5071098464
 21
79.7864671615
 31
0.0
  0
LINE
  5
53F
330
1F
100
AcDbEntity
  8
0
  6
Continuous
 62
     7
370
     0
100
AcDbLine
 10
66.5071098464
 20
79.7864671615
 30
0.0
 11
68.2391606368
 21
79.7864671615
 31
0.0
  0
LINE
  5
540
330
1F
100
AcDbEntity
  8
0
  6
Continuous
 62
     7
370
     0
100
AcDbLine
 10
68.2391606368
 20
79.7864671615
 30
0.0
 11
69.1051860321
 21
81.286466476
 31
0.0
  0
SPLINE
  5
541
330
1F
100
AcDbEntity
  8
0
  6
Continuous
 62
     7
370
     0
100
AcDbSpline
210
0.0
220
0.0
230
1.0
 70
    12
 71
     3
 72
    12
 73
     8
 74
     0
 42
0.00000001
 43
0.00000001
 40
0.0
 40
0.0
 40
0.0
 40
0.0
 40
0.2535801842122919
 40
0.4629718029264048
 40
0.6367310815162823
 40
0.8157214791040182
 40
1.0
 40
1.0
 40
1.0
 40
1.0
 10
67.37313524162407
 20
81.28646647604444
 30
0.0
 41
1.0
 10
67.46672775361495
 20
81.12435942358894
 30
0.0
 41
1.0
 10
67.63760346360559
 20
80.82839389073176
 30
0.0
 41
1.0
 10
67.86900892162063
 20
80.42758803146111
 30
0.0
 41
1.0
 10
68.05779803762859
 20
80.10059632528017
 30
0.0
 41
1.0
 10
68.20124776063683
 20
79.85213452894554
 30
0.0
 41
1.0
 10
68.22640095933336
 20
79.80856768553301
 30
0.0
 41
1.0
 10
68.2391606368498
 20
79.78646716149785
 30
0.0
 41
1.0
  0
SPLINE
  5
542
330
1F
100
AcDbEntity
  8
0
  6
Continuous
 62
     7
370
     0
100
AcDbSpline
210
0.0
220
0.0
230
1.0
 70
    28
 71
     3
 72
    12
 73
     8
 74
     0
 42
0.00000001
 43
0.00000001
 40
0.0
 40
0.0
 40
0.0
 40
0.0
 40
0.157833745417684
 40
0.3079184250956834
 40
0.4720447857359458
 40
0.7062198926588778
 40
1.0
 40
1.0
 40
1.0
 40
1.0
 10
69.10518603207554
 20
81.28646647604444
 30
0.0
 41
1.0
 10
69.08531239162522
 20
81.28646647604444
 30
0.0
 41
1.0
 10
69.04654083455307
 20
81.28646647604445
 30
0.0
 41
1.0
 10
68.82940386778368
 20
81.28646647604444
 30
0.0
 41
1.0
 10
68.48070037226603
 20
81.28646647604442
 30
0.0
 41
1.0
 10
67.98019567089209
 20
81.28646647604444
 30
0.0
 41
1.0
 10
67.5901665330678
 20
81.28646647604444
 30
0.0
 41
1.0
 10
67.37313524162407
 20
81.28646647604444
 30
0.0
 41
1.0
  0
SPLINE
  5
543
330
1F
100
AcDbEntity
  8
0
  6
Continuous
 62
     7
370
     0
100
AcDbSpline
210
0.0
220
0.0
230
1.0
 70
    28
 71
     3
 72
    12
 73
     8
 74
     0
 42
0.00000001
 43
0.00000001
 40
0.0
 40
0.0
 40
0.0
 40
0.0
 40
0.1578337454176839
 40
0.3079184250956832
 40
0.4720447857359455
 40
0.7062198926588773
 40
1.0
 40
1.0
 40
1.0
 40
1.0
 10
65.6410844511726
 20
81.28646647604444
 30
0.0
 41
1.0
 10
65.6609580916229
 20
81.28646647604444
 30
0.0
 41
1.0
 10
65.69972964869507
 20
81.28646647604444
 30
0.0
 41
1.0
 10
65.91686661546446
 20
81.28646647604444
 30
0.0
 41
1.0
 10
66.26557011098211
 20
81.28646647604442
 30
0.0
 41
1.0
 10
66.76607481235605
 20
81.28646647604444
 30
0.0
 41
1.0
 10
67.15610395018034
 20
81.28646647604444
 30
0.0
 41
1.0
 10
67.37313524162407
 20
81.28646647604444
 30
0.0
 41
1.0
  0
SPLINE
  5
544
330
1F
100
AcDbEntity
  8
0
  6
Continuous
 62
     7
370
     0
100
AcDbSpline
210
0.0
220
0.0
230
1.0
 70
    12
 71
     3
 72
    12
 73
     8
 74
     0
 42
0.00000001
 43
0.00000001
 40
0.0
 40
0.0
 40
0.0
 40
0.0
 40
0.1578336002984224
 40
0.3079184423577573
 40
0.4720451766233136
 40
0.7062198380663495
 40
1.0
 40
1.0
 40
1.0
 40
1.0
 10
66.50710984639834
 20
79.78646716149785
 30
0.0
 41
1.0
 10
66.51704667926296
 20
79.80367758080581
 30
0.0
 41
1.0
 10
66.53643250136841
 20
79.83725348286728
 30
0.0
 41
1.0
 10
66.64500106795516
 20
80.02530095238417
 30
0.0
 41
1.0
 10
66.81935211832699
 20
80.32728775187381
 30
0.0
 41
1.0
 10
67.0696054990232
 20
80.76073665373437
 30
0.0
 41
1.0
 10
67.2646197000845
 20
81.09851172774651
 30
0.0
 41
1.0
 10
67.37313524162407
 20
81.28646647604444
 30
0.0
 41
1.0
  0
SPLINE
  5
545
330
1F
100
AcDbEntity
  8
0
  6
Continuous
 62
     7
370
     0
100
AcDbSpline
210
0.0
220
0.0
230
1.0
 70
    12
 71
     3
 72
    12
 73
     8
 74
     0
 42
0.00000001
 43
0.00000001
 40
0.0
 40
0.0
 40
0.0
 40
0.0
 40
0.1578335860943803
 40
0.3079184146470132
 40
0.4720445246267848
 40
0.7062198645047365
 40
1.0
 40
1.0
 40
1.0
 40
1.0
 10
68.2391606368498
 20
82.78646579059102
 30
0.0
 41
1.0
 10
68.22922378423448
 20
82.76925539531563
 30
0.0
 41
1.0
 10
68.20983792359729
 20
82.73567954013942
 30
0.0
 41
1.0
 10
68.10126978384599
 20
82.54763196464016
 30
0.0
 41
1.0
 10
67.92691744974384
 20
82.2456469186708
 30
0.0
 41
1.0
 10
67.6766656869213
 20
81.81219629121195
 30
0.0
 41
1.0
 10
67.4816509420111
 20
81.47442106179079
 30
0.0
 41
1.0
 10
67.37313524162407
 20
81.28646647604444
 30
0.0
 41
1.0
  0
SPLINE
  5
546
330
1F
100
AcDbEntity
  8
0
  6
Continuous
 62
     7
370
     0
100
AcDbSpline
210
0.0
220
0.0
230
1.0
 70
    12
 71
     3
 72
    12
 73
     8
 74
     0
 42
0.00000001
 43
0.00000001
 40
0.0
 40
0.0
 40
0.0
 40
0.0
 40
0.1578335860943803
 40
0.3079184146470131
 40
0.4720445246267845
 40
0.7062198645047363
 40
1.0
 40
1.0
 40
1.0
 40
1.0
 10
66.50710984639834
 20
82.78646579059102
 30
0.0
 41
1.0
 10
66.51704669901366
 20
82.76925539531563
 30
0.0
 41
1.0
 10
66.53643255965085
 20
82.73567954013942
 30
0.0
 41
1.0
 10
66.64500069940215
 20
82.54763196464016
 30
0.0
 41
1.0
 10
66.8193530335043
 20
82.24564691867082
 30
0.0
 41
1.0
 10
67.06960479632684
 20
81.81219629121195
 30
0.0
 41
1.0
 10
67.26461954123704
 20
81.47442106179079
 30
0.0
 41
1.0
 10
67.37313524162407
 20
81.28646647604444
 30
0.0
 41
1.0
  0
CIRCLE
  5
547
330
1F
100
AcDbEntity
  8
0
  6
Continuous
 62
     7
370
     0
100
AcDbCircle
 10
67.3731352416
 20
81.2864665953
 30
0.0
 40
3.799999999999997
  0
CIRCLE
  5
548
330
1F
100
AcDbEntity
  8
0
  6
Continuous
 62
     7
370
     0
100
AcDbCircle
 10
67.3731352416
 20
81.2864665953
 30
0.0
 40
5.0
  0
LINE
  5
549
330
1F
100
AcDbEntity
  8
0
  6
Continuous
 62
     7
370
     0
100
AcDbLine
 10
60.3731352416
 20
70.5864665953
 30
0.0
 11
50.3731352416
 21
70.5864665953
 31
0.0
  0
LINE
  5
54A
330
1F
100
AcDbEntity
  8
0
  6
Continuous
 62
     7
370
     0
100
AcDbLine
 10
59.1731352416
 20
71.5864665953
 30
0.0
 11
51.5731352416
 21
71.5864665953
 31
0.0
  0
LINE
  5
54B
330
1F
100
AcDbEntity
  8
0
  6
Continuous
 62
     7
370
     0
100
AcDbLine
 10
58.8731352416
 20
75.1864665953
 30
0.0
 11
51.8731352416
 21
75.1864665953
 31
0.0
  0
LINE
  5
54C
330
1F
100
AcDbEntity
  8
0
  6
Continuous
 62
     7
370
     0
100
AcDbLine
 10
52.2731352416
 20
75.5864665953
 30
0.0
 11
58.4731352416
 21
75.5864665953
 31
0.0
  0
LINE
  5
54D
330
1F
100
AcDbEntity
  8
0
  6
Continuous
 62
     7
370
     0
100
AcDbLine
 10
50.3731352416
 20
87.2864665953
 30
0.0
 11
84.3731352416
 21
87.2864665953
 31
0.0
  0
ARC
  5
54E
330
1F
100
AcDbEntity
  8
0
  6
Continuous
 62
     7
370
     0
100
AcDbCircle
 10
84.3731352416
 20
84.2864665953
 30
0.0
 40
2.999999999997058
100
AcDbArc
 50
360.0
 51
90.0
  0
ARC
  5
54F
330
1F
100
AcDbEntity
  8
0
  6
Continuous
 62
     7
370
     0
100
AcDbCircle
 10
50.3731352416
 20
84.2864665953
 30
0.0
 40
2.999999999997058
100
AcDbArc
 50
90.0
 51
180.0
  0
LINE
  5
550
330
1F
100
AcDbEntity
  8
0
  6
Continuous
 62
     7
370
     0
100
AcDbLine
 10
47.3731356887
 20
69.7864664537
 30
0.0
 11
47.3731352416
 21
84.2864665953
 31
0.0
  0
LINE
  5
551
330
1F
100
AcDbEntity
  8
0
  6
Continuous
 62
     7
370
     0
100
AcDbLine
 10
87.3731347946
 20
69.7864664537
 30
0.0
 11
87.3731352416
 21
84.2864665953
 31
0.0
  0
LINE
  5
552
330
1F
100
AcDbEntity
  8
0
  6
Continuous
 62
     7
370
     0
100
AcDbLine
 10
90.3731352863
 20
65.7864667294
 30
0.0
 11
90.3731352863
 21
59.2864665953
 31
0.0
  0
LINE
  5
553
330
1F
100
AcDbEntity
  8
0
  6
Continuous
 62
     7
370
     0
100
AcDbLine
 10
90.3731352863
 20
65.7864667294
 30
0.0
 11
92.3731356142
 21
65.7864667294
 31
0.0
  0
LINE
  5
554
330
1F
100
AcDbEntity
  8
0
  6
Continuous
 62
     7
370
     0
100
AcDbLine
 10
92.3731356142
 20
65.7864667294
 30
0.0
 11
92.3731356142
 21
59.2864665953
 31
0.0
  0
LINE
  5
555
330
1F
100
AcDbEntity
  8
0
  6
Continuous
 62
     7
370
     0
100
AcDbLine
 10
90.3731352863
 20
59.2864665953
 30
0.0
 11
92.3731356142
 21
59.2864665953
 31
0.0
  0
LINE
  5
556
330
1F
100
AcDbEntity
  8
0
  6
Continuous
 62
     7
370
     0
100
AcDbLine
 10
42.3731348691
 20
65.7864667294
 30
0.0
 11
42.3731348691
 21
59.2864665953
 31
0.0
  0
LINE
  5
557
330
1F
100
AcDbEntity
  8
0
  6
Continuous
 62
     7
370
     0
100
AcDbLine
 10
42.3731348691
 20
65.7864667294
 30
0.0
 11
44.3731351969
 21
65.7864667294
 31
0.0
  0
LINE
  5
558
330
1F
100
AcDbEntity
  8
0
  6
Continuous
 62
     7
370
     0
100
AcDbLine
 10
44.3731351969
 20
65.7864667294
 30
0.0
 11
44.3731351969
 21
59.2864665953
 31
0.0
  0
LINE
  5
559
330
1F
100
AcDbEntity
  8
0
  6
Continuous
 62
     7
370
     0
100
AcDbLine
 10
42.3731348691
 20
59.2864665953
 30
0.0
 11
44.3731351969
 21
59.2864665953
 31
0.0
  0
LINE
  5
55A
330
1F
100
AcDbEntity
  8
0
  6
Continuous
 62
     7
370
     0
100
AcDbLine
 10
44.3731351969
 20
65.7864667294
 30
0.0
 11
90.3731352863
 21
65.7864667294
 31
0.0
  0
LINE
  5
55B
330
1F
100
AcDbEntity
  8
0
  6
Continuous
 62
     7
370
     0
100
AcDbLine
 10
44.3731351969
 20
59.2864665953
 30
0.0
 11
90.3731352863
 21
59.2864665953
 31
0.0
  0
LINE
  5
55C
330
1F
100
AcDbEntity
  8
0
  6
Continuous
 62
     7
370
     0
100
AcDbLine
 10
86.3731346307
 20
69.7864664537
 30
0.0
 11
86.3731346307
 21
65.7864667294
 31
0.0
  0
LINE
  5
55D
330
1F
100
AcDbEntity
  8
0
  6
Continuous
 62
     7
370
     0
100
AcDbLine
 10
86.3731346307
 20
69.7864664537
 30
0.0
 11
87.3731347946
 21
69.7864664537
 31
0.0
  0
LINE
  5
55E
330
1F
100
AcDbEntity
  8
0
  6
Continuous
 62
     7
370
     0
100
AcDbLine
 10
87.3731347946
 20
69.7864664537
 30
0.0
 11
87.3731347946
 21
65.7864667294
 31
0.0
  0
LINE
  5
55F
330
1F
100
AcDbEntity
  8
0
  6
Continuous
 62
     7
370
     0
100
AcDbLine
 10
48.3731358526
 20
69.7864664537
 30
0.0
 11
48.3731358526
 21
65.7864667294
 31
0.0
  0
LINE
  5
560
330
1F
100
AcDbEntity
  8
0
  6
Continuous
 62
     7
370
     0
100
AcDbLine
 10
48.3731358526
 20
69.7864664537
 30
0.0
 11
86.3731346307
 21
69.7864664537
 31
0.0
  0
LINE
  5
561
330
1F
100
AcDbEntity
  8
0
  6
Continuous
 62
     7
370
     0
100
AcDbLine
 10
48.3731358526
 20
65.7864667294
 30
0.0
 11
86.3731346307
 21
65.7864667294
 31
0.0
  0
LINE
  5
562
330
1F
100
AcDbEntity
  8
0
  6
Continuous
 62
     7
370
     0
100
AcDbLine
 10
47.3731356887
 20
69.7864664537
 30
0.0
 11
47.3731356887
 21
65.7864667294
 31
0.0
  0
LINE
  5
563
330
1F
100
AcDbEntity
  8
0
  6
Continuous
 62
     7
370
     0
100
AcDbLine
 10
47.3731356887
 20
69.7864664537
 30
0.0
 11
48.3731358526
 21
69.7864664537
 31
0.0
  0
LINE
  5
564
330
1F
100
AcDbEntity
  8
0
  6
Continuous
 62
     7
370
     0
100
AcDbLine
 10
78.8731352416
 20
55.2864665953
 30
0.0
 11
85.8731352416
 21
55.2864665953
 31
0.0
  0
LINE
  5
565
330
1F
100
AcDbEntity
  8
0
  6
Continuous
 62
     7
370
     0
100
AcDbLine
 10
79.4231352416
 20
54.5864665953
 30
0.0
 11
85.3231352416
 21
54.5864665953
 31
0.0
  0
LINE
  5
566
330
1F
100
AcDbEntity
  8
0
  6
Continuous
 62
     7
370
     0
100
AcDbLine
 10
80.1100015893
 20
51.5864665953
 30
0.0
 11
79.9231352416
 21
51.5864665953
 31
0.0
  0
LINE
  5
567
330
1F
100
AcDbEntity
  8
0
  6
Continuous
 62
     7
370
     0
100
AcDbLine
 10
84.8231352416
 20
51.5864665953
 30
0.0
 11
80.1100015893
 21
51.5864665953
 31
0.0
  0
LINE
  5
568
330
1F
100
AcDbEntity
  8
0
  6
Continuous
 62
     7
370
     0
100
AcDbLine
 10
79.8328831829
 20
51.8864665953
 30
0.0
 11
85.1231352416
 21
51.8864665953
 31
0.0
  0
LINE
  5
569
330
1F
100
AcDbEntity
  8
0
  6
Continuous
 62
     7
370
     0
100
AcDbLine
 10
79.6231352416
 20
51.8864665953
 30
0.0
 11
79.8328831829
 21
51.8864665953
 31
0.0
  0
LINE
  5
56A
330
1F
100
AcDbEntity
  8
0
  6
Continuous
 62
     7
370
     0
100
AcDbLine
 10
48.8731352416
 20
55.2864665953
 30
0.0
 11
55.8731352416
 21
55.2864665953
 31
0.0
  0
LINE
  5
56B
330
1F
100
AcDbEntity
  8
0
  6
Continuous
 62
     7
370
     0
100
AcDbLine
 10
49.4231352416
 20
54.5864665953
 30
0.0
 11
55.3231352416
 21
54.5864665953
 31
0.0
  0
LINE
  5
56C
330
1F
100
AcDbEntity
  8
0
  6
Continuous
 62
     7
370
     0
100
AcDbLine
 10
50.1100015893
 20
51.5864665953
 30
0.0
 11
49.9231352416
 21
51.5864665953
 31
0.0
  0
LINE
  5
56D
330
1F
100
AcDbEntity
  8
0
  6
Continuous
 62
     7
370
     0
100
AcDbLine
 10
54.8231352416
 20
51.5864665953
 30
0.0
 11
50.1100015893
 21
51.5864665953
 31
0.0
  0
LINE
  5
56E
330
1F
100
AcDbEntity
  8
0
  6
Continuous
 62
     7
370
     0
100
AcDbLine
 10
49.8328831829
 20
51.8864665953
 30
0.0
 11
55.1231352416
 21
51.8864665953
 31
0.0
  0
LINE
  5
56F
330
1F
100
AcDbEntity
  8
0
  6
Continuous
 62
     7
370
     0
100
AcDbLine
 10
49.6231352416
 20
51.8864665953
 30
0.0
 11
49.8328831829
 21
51.8864665953
 31
0.0
  0
LINE
  5
570
330
1F
100
AcDbEntity
  8
0
  6
Continuous
 62
     7
370
     0
100
AcDbLine
 10
67.3731352416
 20
55.7864665953
 30
0.0
 11
85.8731352416
 21
55.7864665953
 31
0.0
  0
LINE
  5
571
330
1F
100
AcDbEntity
  8
0
  6
Continuous
 62
     7
370
     0
100
AcDbLine
 10
48.8731352416
 20
55.7864665953
 30
0.0
 11
67.3731352416
 21
55.7864665953
 31
0.0
  0
LINE
  5
572
330
1F
100
AcDbEntity
  8
0
  6
Continuous
 62
     7
370
     0
100
AcDbLine
 10
67.3731352416
 20
56.2864665953
 30
0.0
 11
86.3731352416
 21
56.2864665953
 31
0.0
  0
LINE
  5
573
330
1F
100
AcDbEntity
  8
0
  6
Continuous
 62
     7
370
     0
100
AcDbLine
 10
48.3731352416
 20
56.2864665953
 30
0.0
 11
67.3731352416
 21
56.2864665953
 31
0.0
  0
ENDSEC
  0
SECTION
  2
OBJECTS
  0
DICTIONARY
  5
C
330
0
100
AcDbDictionary
281
     1
  3
ACAD_GROUP
350
D
  3
ACAD_LAYOUT
350
1A
  3
ACAD_MLINESTYLE
350
17
  3
ACAD_PLOTSETTINGS
350
19
  3
ACAD_PLOTSTYLENAME
350
E
  0
DICTIONARY
  5
D
102
{ACAD_REACTORS
330
C
102
}
330
C
100
AcDbDictionary
281
     1
  0
DICTIONARY
  5
1A
102
{ACAD_REACTORS
330
C
102
}
330
C
100
AcDbDictionary
281
     1
  3
Layout1
350
1E
  3
Layout2
350
26
  3
Model
350
22
  0
DICTIONARY
  5
17
102
{ACAD_REACTORS
330
C
102
}
330
C
100
AcDbDictionary
281
     1
  3
Standard
350
18
  0
DICTIONARY
  5
19
102
{ACAD_REACTORS
330
C
102
}
330
C
100
AcDbDictionary
281
     1
  0
ACDBDICTIONARYWDFLT
  5
E
102
{ACAD_REACTORS
330
C
102
}
330
C
100
AcDbDictionary
281
     1
  3
Normal
350
F
100
AcDbDictionaryWithDefault
340
F
  0
LAYOUT
  5
1E
102
{ACAD_REACTORS
330
1A
102
}
330
1A
100
AcDbPlotSettings
  1

  2

  4

  6

 40
0.0
 41
0.0
 42
0.0
 43
0.0
 44
0.0
 45
0.0
 46
0.0
 47
0.0
 48
0.0
 49
0.0
140
0.0
141
0.0
142
1.0
143
1.0
 70
   688
 72
     0
 73
     0
 74
     5
  7

 75
    16
147
1.0
148
0.0
149
0.0
100
AcDbLayout
  1
Layout1
 70
     1
 71
     1
 10
0.0
 20
0.0
 11
0.0
 21
0.0
 12
0.0
 22
0.0
 32
0.0
 14
0.0
 24
0.0
 34
0.0
 15
0.0
 25
0.0
 35
0.0
146
0.0
 13
0.0
 23
0.0
 33
0.0
 16
1.0
 26
0.0
 36
0.0
 17
0.0
 27
1.0
 37
0.0
 76
     0
330
1B
  0
LAYOUT
  5
26
102
{ACAD_REACTORS
330
1A
102
}
330
1A
100
AcDbPlotSettings
  1

  2

  4

  6

 40
0.0
 41
0.0
 42
0.0
 43
0.0
 44
0.0
 45
0.0
 46
0.0
 47
0.0
 48
0.0
 49
0.0
140
0.0
141
0.0
142
1.0
143
1.0
 70
   688
 72
     0
 73
     0
 74
     5
  7

 75
    16
147
1.0
148
0.0
149
0.0
100
AcDbLayout
  1
Layout2
 70
     1
 71
     2
 10
0.0
 20
0.0
 11
0.0
 21
0.0
 12
0.0
 22
0.0
 32
0.0
 14
0.0
 24
0.0
 34
0.0
 15
0.0
 25
0.0
 35
0.0
146
0.0
 13
0.0
 23
0.0
 33
0.0
 16
1.0
 26
0.0
 36
0.0
 17
0.0
 27
1.0
 37
0.0
 76
     0
330
23
  0
LAYOUT
  5
22
102
{ACAD_REACTORS
330
1A
102
}
330
1A
100
AcDbPlotSettings
  1

  2

  4

  6

 40
0.0
 41
0.0
 42
0.0
 43
0.0
 44
0.0
 45
0.0
 46
0.0
 47
0.0
 48
0.0
 49
0.0
140
0.0
141
0.0
142
1.0
143
1.0
 70
  1712
 72
     0
 73
     0
 74
     0
  7

 75
     0
147
1.0
148
0.0
149
0.0
100
AcDbLayout
  1
Model
 70
     1
 71
     0
 10
0.0
 20
0.0
 11
0.0
 21
0.0
 12
0.0
 22
0.0
 32
0.0
 14
0.0
 24
0.0
 34
0.0
 15
210.0
 25
297.0
 35
0.0
146
0.0
 13
0.0
 23
0.0
 33
0.0
 16
1.0
 26
0.0
 36
0.0
 17
0.0
 27
1.0
 37
0.0
 76
     0
330
1F
  0
MLINESTYLE
  5
18
102
{ACAD_REACTORS
330
17
102
}
330
17
100
AcDbMlineStyle
  2
Standard
 70
     0
  3

 62
   256
 51
90.0
 52
90.0
 71
     2
 49
0.5
 62
   256
  6
BYLAYER
 49
-0.5
 62
   256
  6
BYLAYER
  0
ACDBPLACEHOLDER
  5
F
102
{ACAD_REACTORS
330
E
102
}
330
E
  0
ENDSEC
  0
EOF
