  0
SECTION
  2
HEADER
  9
$ACADVER
  1
AC1015
  9
$ACADMAINTVER
 70
     6
  9
$DWGCODEPAGE
  3
DOS932
  9
$INSBASE
 10
0.0
 20
0.0
 30
0.0
  9
$EXTMIN
 10
0.0
 20
0.0
 30
0.0
  9
$EXTMAX
 10
210.0
 20
297.0
 30
0.0
  9
$LIMMIN
 10
0.0
 20
0.0
  9
$LIMMAX
 10
210.0
 20
297.0
  9
$ORTHOMODE
 70
     0
  9
$REGENMODE
 70
     1
  9
$FILLMODE
 70
     1
  9
$QTEXTMODE
 70
     0
  9
$MIRRTEXT
 70
     1
  9
$LTSCALE
 40
1.0
  9
$ATTMODE
 70
     1
  9
$TEXTSIZE
 40
3.5
  9
$TRACEWID
 40
1.0
  9
$TEXTSTYLE
  7
Standard
  9
$CLAYER
  8
0
  9
$CELTYPE
  6
ByLayer
  9
$CECOLOR
 62
   256
  9
$CELTSCALE
 40
1.0
  9
$DISPSILH
 70
     0
  9
$DIMSCALE
 40
1.0
  9
$DIMASZ
 40
2.0
  9
$DIMEXO
 40
1.0
  9
$DIMDLI
 40
3.75
  9
$DIMRND
 40
0.0
  9
$DIMDLE
 40
0.0
  9
$DIMEXE
 40
1.0
  9
$DIMTP
 40
0.0
  9
$DIMTM
 40
0.0
  9
$DIMTXT
 40
3.5
  9
$DIMCEN
 40
2.5
  9
$DIMTSZ
 40
0.0
  9
$DIMTOL
 70
     0
  9
$DIMLIM
 70
     0
  9
$DIMTIH
 70
     1
  9
$DIMTOH
 70
     1
  9
$DIMSE1
 70
     0
  9
$DIMSE2
 70
     0
  9
$DIMTAD
 70
     1
  9
$DIMZIN
 70
     0
  9
$DIMBLK
  1

  9
$DIMASO
 70
     1
  9
$DIMSHO
 70
     1
  9
$DIMPOST
  1

  9
$DIMAPOST
  1

  9
$DIMALT
 70
     0
  9
$DIMALTD
 70
     3
  9
$DIMALTF
 40
0.0393700787
  9
$DIMLFAC
 40
1.0
  9
$DIMTOFL
 70
     1
  9
$DIMTVP
 40
0.0
  9
$DIMTIX
 70
     0
  9
$DIMSOXD
 70
     0
  9
$DIMSAH
 70
     0
  9
$DIMBLK1
  1

  9
$DIMBLK2
  1

  9
$DIMSTYLE
  2
ISO-25
  9
$DIMCLRD
 70
     0
  9
$DIMCLRE
 70
     0
  9
$DIMCLRT
 70
     0
  9
$DIMTFAC
 40
1.0
  9
$DIMGAP
 40
1.524
  9
$DIMJUST
 70
     0
  9
$DIMSD1
 70
     0
  9
$DIMSD2
 70
     0
  9
$DIMTOLJ
 70
     0
  9
$DIMTZIN
 70
     0
  9
$DIMALTZ
 70
     0
  9
$DIMALTTZ
 70
     0
  9
$DIMUPT
 70
     0
  9
$DIMDEC
 70
     2
  9
$DIMTDEC
 70
     2
  9
$DIMALTU
 70
     2
  9
$DIMALTTD
 70
     3
  9
$DIMTXSTY
  7
Standard
  9
$DIMAUNIT
 70
     0
  9
$DIMADEC
 70
     2
  9
$DIMALTRND
 40
0.0
  9
$DIMAZIN
 70
     0
  9
$DIMDSEP
 70
    44
  9
$DIMATFIT
 70
     3
  9
$DIMFRAC
 70
     0
  9
$DIMLDRBLK
  1

  9
$DIMLUNIT
 70
     2
  9
$DIMLWD
 70
    -2
  9
$DIMLWE
 70
    -2
  9
$DIMTMOVE
 70
     0
  9
$LUNITS
 70
     2
  9
$LUPREC
 70
     2
  9
$SKETCHINC
 40
1.0
  9
$FILLETRAD
 40
10.0
  9
$AUNITS
 70
     0
  9
$AUPREC
 70
     2
  9
$MENU
  1
.
  9
$ELEVATION
 40
0.0
  9
$PELEVATION
 40
0.0
  9
$THICKNESS
 40
0.0
  9
$LIMCHECK
 70
     0
  9
$CHAMFERA
 40
10.0
  9
$CHAMFERB
 40
10.0
  9
$CHAMFERC
 40
20.0
  9
$CHAMFERD
 40
0.0
  9
$SKPOLY
 70
     0
  9
$TDCREATE
 40
2457578.552451563
  9
$TDUCREATE
 40
2457578.177451563
  9
$TDUPDATE
 40
2457578.552457338
  9
$TDUUPDATE
 40
2457578.177457338
  9
$TDINDWG
 40
0.0000000116
  9
$TDUSRTIMER
 40
0.0000000116
  9
$USRTIMER
 70
     1
  9
$ANGBASE
 50
0.0
  9
$ANGDIR
 70
     0
  9
$PDMODE
 70
     0
  9
$PDSIZE
 40
-1.0
  9
$PLINEWID
 40
0.0
  9
$SPLFRAME
 70
     0
  9
$SPLINETYPE
 70
     6
  9
$SPLINESEGS
 70
     8
  9
$HANDSEED
  5
3D7
  9
$SURFTAB1
 70
     6
  9
$SURFTAB2
 70
     6
  9
$SURFTYPE
 70
     6
  9
$SURFU
 70
     6
  9
$SURFV
 70
     6
  9
$UCSBASE
  2

  9
$UCSNAME
  2

  9
$UCSORG
 10
0.0
 20
0.0
 30
0.0
  9
$UCSXDIR
 10
1.0
 20
0.0
 30
0.0
  9
$UCSYDIR
 10
0.0
 20
1.0
 30
0.0
  9
$UCSORTHOREF
  2

  9
$UCSORTHOVIEW
 70
     0
  9
$UCSORGTOP
 10
0.0
 20
0.0
 30
0.0
  9
$UCSORGBOTTOM
 10
0.0
 20
0.0
 30
0.0
  9
$UCSORGLEFT
 10
0.0
 20
0.0
 30
0.0
  9
$UCSORGRIGHT
 10
0.0
 20
0.0
 30
0.0
  9
$UCSORGFRONT
 10
0.0
 20
0.0
 30
0.0
  9
$UCSORGBACK
 10
0.0
 20
0.0
 30
0.0
  9
$PUCSBASE
  2

  9
$PUCSNAME
  2

  9
$PUCSORG
 10
0.0
 20
0.0
 30
0.0
  9
$PUCSXDIR
 10
1.0
 20
0.0
 30
0.0
  9
$PUCSYDIR
 10
0.0
 20
1.0
 30
0.0
  9
$PUCSORTHOREF
  2

  9
$PUCSORTHOVIEW
 70
     0
  9
$PUCSORGTOP
 10
0.0
 20
0.0
 30
0.0
  9
$PUCSORGBOTTOM
 10
0.0
 20
0.0
 30
0.0
  9
$PUCSORGLEFT
 10
0.0
 20
0.0
 30
0.0
  9
$PUCSORGRIGHT
 10
0.0
 20
0.0
 30
0.0
  9
$PUCSORGFRONT
 10
0.0
 20
0.0
 30
0.0
  9
$PUCSORGBACK
 10
0.0
 20
0.0
 30
0.0
  9
$USERI1
 70
     0
  9
$USERI2
 70
     0
  9
$USERI3
 70
     0
  9
$USERI4
 70
     0
  9
$USERI5
 70
     0
  9
$USERR1
 40
0.0
  9
$USERR2
 40
0.0
  9
$USERR3
 40
0.0
  9
$USERR4
 40
0.0
  9
$USERR5
 40
0.0
  9
$WORLDVIEW
 70
     1
  9
$SHADEDGE
 70
     3
  9
$SHADEDIF
 70
    70
  9
$TILEMODE
 70
     1
  9
$MAXACTVP
 70
    64
  9
$PINSBASE
 10
0.0
 20
0.0
 30
0.0
  9
$PLIMCHECK
 70
     0
  9
$PEXTMIN
 10
1.0000000000E+20
 20
1.0000000000E+20
 30
1.0000000000E+20
  9
$PEXTMAX
 10
-1.0000000000E+20
 20
-1.0000000000E+20
 30
-1.0000000000E+20
  9
$PLIMMIN
 10
0.0
 20
0.0
  9
$PLIMMAX
 10
420.0
 20
297.0
  9
$UNITMODE
 70
     0
  9
$VISRETAIN
 70
     1
  9
$PLINEGEN
 70
     0
  9
$PSLTSCALE
 70
     1
  9
$TREEDEPTH
 70
  3020
  9
$CMLSTYLE
  2
Standard
  9
$CMLJUST
 70
     0
  9
$CMLSCALE
 40
20.0
  9
$PROXYGRAPHICS
 70
     1
  9
$MEASUREMENT
 70
     1
  9
$CELWEIGHT
370
    -1
  9
$ENDCAPS
280
     0
  9
$JOINSTYLE
280
     0
  9
$LWDISPLAY
290
     1
  9
$INSUNITS
 70
     4
  9
$HYPERLINKBASE
  1

  9
$STYLESHEET
  1

  9
$XEDIT
290
     1
  9
$CEPSNTYPE
380
     0
  9
$PSTYLEMODE
290
     1
  9
$FINGERPRINTGUID
  2
{802C71AD-CC2C-4814-9238-32611A083A33}
  9
$VERSIONGUID
  2
{FAEB1C32-E019-11D5-929B-00C0DF256EC4}
  9
$EXTNAMES
290
     1
  9
$PSVPSCALE
 40
0.0
  9
$OLESTARTUP
290
     0
  0
ENDSEC
  0
SECTION
  2
CLASSES
  0
CLASS
  1
ACDBDICTIONARYWDFLT
  2
AcDbDictionaryWithDefault
  3
ObjectDBX Classes
 90
        0
280
     0
281
     0
  0
CLASS
  1
VISUALSTYLE
  2
AcDbVisualStyle
  3
ObjectDBX Classes
 90
     4095
280
     0
281
     0
  0
CLASS
  1
MATERIAL
  2
AcDbMaterial
  3
ObjectDBX Classes
 90
     1153
280
     0
281
     0
  0
CLASS
  1
ACDBPLACEHOLDER
  2
AcDbPlaceHolder
  3
ObjectDBX Classes
 90
        0
280
     0
281
     0
  0
CLASS
  1
LAYOUT
  2
AcDbLayout
  3
ObjectDBX Classes
 90
        0
280
     0
281
     0
  0
ENDSEC
  0
SECTION
  2
TABLES
  0
TABLE
  2
VPORT
  5
8
330
0
100
AcDbSymbolTable
 70
     1
  0
VPORT
  5
29
330
8
100
AcDbSymbolTableRecord
100
AcDbViewportTableRecord
  2
*Active
 70
     0
 10
0.0
 20
0.0
 11
1.0
 21
1.0
 12
105.0
 22
148.5
 13
0.0
 23
0.0
 14
10.0
 24
10.0
 15
10.0
 25
10.0
 16
0.0
 26
0.0
 36
1.0
 17
0.0
 27
0.0
 37
0.0
 40
297.0
 41
0.7070707071
 42
50.0
 43
0.0
 44
0.0
 50
0.0
 51
0.0
 71
     0
 72
  2000
 73
     1
 74
     3
 75
     0
 76
     0
 77
     0
 78
     0
281
     0
 65
     1
110
0.0
120
0.0
130
0.0
111
1.0
121
0.0
131
0.0
112
0.0
122
1.0
132
0.0
 79
     0
146
0.0
  0
ENDTAB
  0
TABLE
  2
LTYPE
  5
5
330
0
100
AcDbSymbolTable
 70
     6
  0
LTYPE
  5
14
330
5
100
AcDbSymbolTableRecord
100
AcDbLinetypeTableRecord
  2
ByBlock
 70
     0
  3

 72
    65
 73
     0
 40
0.0
  0
LTYPE
  5
15
330
5
100
AcDbSymbolTableRecord
100
AcDbLinetypeTableRecord
  2
ByLayer
 70
     0
  3

 72
    65
 73
     0
 40
0.0
  0
LTYPE
  5
16
330
5
100
AcDbSymbolTableRecord
100
AcDbLinetypeTableRecord
  2
Continuous
 70
     0
  3
Solid line
 72
    65
 73
     0
 40
0.0
  0
LTYPE
  5
3F
330
5
100
AcDbSymbolTableRecord
100
AcDbLinetypeTableRecord
  2
HIDDEN
 70
     0
  3
Hidden __ __ __ __ __ __ __ __ __ __ __ __ __ __
 72
    65
 73
     2
 40
1.905
 49
1.27
 74
     0
 49
-0.635
 74
     0
  0
LTYPE
  5
40
330
5
100
AcDbSymbolTableRecord
100
AcDbLinetypeTableRecord
  2
PHANTOM
 70
     0
  3
Phantom ______  __  __  ______  __  __  ______
 72
    65
 73
     6
 40
12.7
 49
6.35
 74
     0
 49
-1.27
 74
     0
 49
1.27
 74
     0
 49
-1.27
 74
     0
 49
1.27
 74
     0
 49
-1.27
 74
     0
  0
LTYPE
  5
41
330
5
100
AcDbSymbolTableRecord
100
AcDbLinetypeTableRecord
  2
CENTER
 70
     0
  3
Center ____ _ ____ _ ____ _ ____ _ ____ _ ____
 72
    65
 73
     4
 40
10.16
 49
6.35
 74
     0
 49
-1.27
 74
     0
 49
1.27
 74
     0
 49
-1.27
 74
     0
  0
LTYPE
  5
42
330
5
100
AcDbSymbolTableRecord
100
AcDbLinetypeTableRecord
  2
CENTERX2
 70
     0
  3
Center (2x) ________  __  ________  __  _____
 72
    65
 73
     4
 40
20.32
 49
12.7
 74
     0
 49
-2.54
 74
     0
 49
2.54
 74
     0
 49
-2.54
 74
     0
  0
LTYPE
  5
43
330
5
100
AcDbSymbolTableRecord
100
AcDbLinetypeTableRecord
  2
DOT2
 70
     0
  3
Dot (.5x) ........................................
 72
    65
 73
     2
 40
0.635
 49
0.0
 74
     0
 49
-0.635
 74
     0
  0
ENDTAB
  0
TABLE
  2
LAYER
  5
2
330
0
100
AcDbSymbolTable
 70
     1
  0
LAYER
  5
10
330
2
100
AcDbSymbolTableRecord
100
AcDbLayerTableRecord
  2
0
 70
     0
 62
     7
  6
Continuous
370
    -3
390
F
  0
ENDTAB
  0
TABLE
  2
STYLE
  5
3
330
0
100
AcDbSymbolTable
 70
     3
  0
STYLE
  5
11
330
3
100
AcDbSymbolTableRecord
100
AcDbTextStyleTableRecord
  2
Standard
 70
     0
 40
0.0
 41
1.0
 50
0.0
 71
     0
 42
3.5
  3
txt
  4
bigfont
  0
STYLE
  5
4C
330
3
100
AcDbSymbolTableRecord
100
AcDbTextStyleTableRecord
  2
SLDTEXTSTYLE0
 70
     0
 40
0.0
 41
0.7
 50
0.0
 71
     0
 42
0.2
  3
TXT
  4
bigfont
  0
STYLE
  5
F7
330
3
100
AcDbSymbolTableRecord
100
AcDbTextStyleTableRecord
  2
SLDTEXTSTYLE1
 70
     0
 40
0.0
 41
0.75
 50
0.0
 71
     0
 42
0.2
  3
TXT
  4
bigfont
  0
ENDTAB
  0
TABLE
  2
VIEW
  5
6
330
0
100
AcDbSymbolTable
 70
     0
  0
ENDTAB
  0
TABLE
  2
UCS
  5
7
330
0
100
AcDbSymbolTable
 70
     0
  0
ENDTAB
  0
TABLE
  2
APPID
  5
9
330
0
100
AcDbSymbolTable
 70
     1
  0
APPID
  5
12
330
9
100
AcDbSymbolTableRecord
100
AcDbRegAppTableRecord
  2
ACAD
 70
     0
  0
ENDTAB
  0
TABLE
  2
DIMSTYLE
  5
A
330
0
100
AcDbSymbolTable
 70
     7
100
AcDbDimStyleTable
  0
DIMSTYLE
105
27
330
A
100
AcDbSymbolTableRecord
100
AcDbDimStyleTableRecord
  2
ISO-25
 70
     0
 41
2.5
 42
0.625
 43
3.75
 44
1.25
 73
     0
 74
     0
 77
     1
 78
     8
140
2.5
141
2.5
143
0.0393700787
147
0.625
171
     3
172
     1
178
     0
271
     2
272
     2
274
     3
278
    44
283
     0
284
     8
340
11
  0
DIMSTYLE
105
F8
102
{ACAD_REACTORS
330
F6
330
13D
330
390
102
}
330
A
100
AcDbSymbolTableRecord
100
AcDbDimStyleTableRecord
  2
SLDDIMSTYLE0
 70
     0
 41
2.0
 44
0.0
 45
0.000000001
 73
     0
 74
     0
 77
     3
 78
    12
 79
     3
140
3.5
147
0.875
172
     1
173
     1
178
     0
271
     2
272
     2
276
     2
284
    12
289
     0
340
F7
  0
DIMSTYLE
105
105
102
{ACAD_REACTORS
330
104
330
11A
330
1B5
330
25C
330
386
330
3B3
102
}
330
A
100
AcDbSymbolTableRecord
100
AcDbDimStyleTableRecord
  2
SLDDIMSTYLE1
 70
     0
 41
2.0
 44
0.0
 45
0.000000001
 73
     0
 74
     0
 77
     3
 78
    12
 79
     3
140
3.5
147
0.875
173
     1
178
     0
271
     2
272
     2
276
     2
284
    12
340
F7
  0
DIMSTYLE
105
110
102
{ACAD_REACTORS
330
10F
330
124
330
39C
102
}
330
A
100
AcDbSymbolTableRecord
100
AcDbDimStyleTableRecord
  2
SLDDIMSTYLE2
 70
     0
 41
2.0
 44
0.0
 45
0.000000001
 73
     0
 74
     0
 77
     3
 78
    12
 79
     3
140
3.5
147
0.875
173
     1
178
     0
271
     1
272
     1
276
     2
284
    12
340
F7
  0
DIMSTYLE
105
131
102
{ACAD_REACTORS
330
130
102
}
330
A
100
AcDbSymbolTableRecord
100
AcDbDimStyleTableRecord
  2
SLDDIMSTYLE3
 70
     0
 41
2.0
 44
0.0
 45
0.000000001
 73
     0
 74
     0
 77
     3
 78
    12
 79
     3
140
3.5
147
0.875
173
     1
178
     0
271
     1
272
     2
276
     2
284
    12
340
F7
  0
DIMSTYLE
105
14A
330
A
100
AcDbSymbolTableRecord
100
AcDbDimStyleTableRecord
  2
SLDDIMSTYLE4
 70
     0
 41
2.0
 44
0.0
 45
0.000000001
140
0.0
146
2.0
147
0.0
173
     1
178
     0
271
     0
272
     0
276
     2
340
11
  0
DIMSTYLE
105
3A7
102
{ACAD_REACTORS
330
3A6
102
}
330
A
100
AcDbSymbolTableRecord
100
AcDbDimStyleTableRecord
  2
SLDDIMSTYLE5
 70
     0
 41
2.0
 44
0.0
 45
0.000000001
 73
     0
 74
     0
 77
     3
 78
    12
 79
     3
140
3.5
147
0.875
172
     1
173
     1
178
     0
271
     1
272
     1
276
     2
284
    12
289
     0
340
F7
  0
ENDTAB
  0
TABLE
  2
BLOCK_RECORD
  5
1
330
0
100
AcDbSymbolTable
 70
    18
  0
BLOCK_RECORD
  5
1F
330
1
100
AcDbSymbolTableRecord
100
AcDbBlockTableRecord
  2
*Model_Space
340
22
  0
BLOCK_RECORD
  5
1B
330
1
100
AcDbSymbolTableRecord
100
AcDbBlockTableRecord
  2
*Paper_Space
340
1E
  0
BLOCK_RECORD
  5
23
330
1
100
AcDbSymbolTableRecord
100
AcDbBlockTableRecord
  2
*Paper_Space0
340
26
  0
BLOCK_RECORD
  5
F9
330
1
100
AcDbSymbolTableRecord
100
AcDbBlockTableRecord
  2
_D
340
0
  0
BLOCK_RECORD
  5
106
330
1
100
AcDbSymbolTableRecord
100
AcDbBlockTableRecord
  2
_D_1
340
0
  0
BLOCK_RECORD
  5
111
330
1
100
AcDbSymbolTableRecord
100
AcDbBlockTableRecord
  2
_D_2
340
0
  0
BLOCK_RECORD
  5
11B
330
1
100
AcDbSymbolTableRecord
100
AcDbBlockTableRecord
  2
_D_3
340
0
  0
BLOCK_RECORD
  5
125
330
1
100
AcDbSymbolTableRecord
100
AcDbBlockTableRecord
  2
_D_4
340
0
  0
BLOCK_RECORD
  5
132
330
1
100
AcDbSymbolTableRecord
100
AcDbBlockTableRecord
  2
_D_5
340
0
  0
BLOCK_RECORD
  5
13E
330
1
100
AcDbSymbolTableRecord
100
AcDbBlockTableRecord
  2
_D_6
340
0
  0
BLOCK_RECORD
  5
1B6
330
1
100
AcDbSymbolTableRecord
100
AcDbBlockTableRecord
  2
_D_7
340
0
  0
BLOCK_RECORD
  5
1BF
330
1
100
AcDbSymbolTableRecord
100
AcDbBlockTableRecord
  2
SW_CENTERMARKSYMBOL_0
340
0
102
{BLKREFS
331
1CA
102
}
  0
BLOCK_RECORD
  5
25D
330
1
100
AcDbSymbolTableRecord
100
AcDbBlockTableRecord
  2
_D_8
340
0
  0
BLOCK_RECORD
  5
387
330
1
100
AcDbSymbolTableRecord
100
AcDbBlockTableRecord
  2
_D_9
340
0
  0
BLOCK_RECORD
  5
391
330
1
100
AcDbSymbolTableRecord
100
AcDbBlockTableRecord
  2
_D_10
340
0
  0
BLOCK_RECORD
  5
39D
330
1
100
AcDbSymbolTableRecord
100
AcDbBlockTableRecord
  2
_D_11
340
0
  0
BLOCK_RECORD
  5
3A8
330
1
100
AcDbSymbolTableRecord
100
AcDbBlockTableRecord
  2
_D_12
340
0
  0
BLOCK_RECORD
  5
3B4
330
1
100
AcDbSymbolTableRecord
100
AcDbBlockTableRecord
  2
_D_13
340
0
  0
BLOCK_RECORD
  5
3BF
330
1
100
AcDbSymbolTableRecord
100
AcDbBlockTableRecord
  2
SW_CENTERMARKSYMBOL_1
340
0
102
{BLKREFS
331
3CA
102
}
  0
BLOCK_RECORD
  5
3CB
330
1
100
AcDbSymbolTableRecord
100
AcDbBlockTableRecord
  2
SW_CENTERMARKSYMBOL_2
340
0
102
{BLKREFS
331
3D6
102
}
  0
ENDTAB
  0
ENDSEC
  0
SECTION
  2
BLOCKS
  0
BLOCK
  5
20
330
1F
100
AcDbEntity
  8
0
100
AcDbBlockBegin
  2
*Model_Space
 70
     0
 10
0.0
 20
0.0
 30
0.0
  3
*Model_Space
  1

  0
ENDBLK
  5
21
330
1F
100
AcDbEntity
  8
0
100
AcDbBlockEnd
  0
BLOCK
  5
1C
330
1B
100
AcDbEntity
 67
     1
  8
0
100
AcDbBlockBegin
  2
*Paper_Space
 70
     0
 10
0.0
 20
0.0
 30
0.0
  3
*Paper_Space
  1

  0
ENDBLK
  5
1D
330
1B
100
AcDbEntity
 67
     1
  8
0
100
AcDbBlockEnd
  0
BLOCK
  5
24
330
23
100
AcDbEntity
  8
0
100
AcDbBlockBegin
  2
*Paper_Space0
 70
     0
 10
0.0
 20
0.0
 30
0.0
  3
*Paper_Space0
  1

  0
ENDBLK
  5
25
330
23
100
AcDbEntity
  8
0
100
AcDbBlockEnd
  0
BLOCK
  5
FA
330
F9
100
AcDbEntity
  8
0
100
AcDbBlockBegin
  2
_D
 70
     0
 10
0.0
 20
0.0
 30
0.0
  3
_D
  1

  0
SOLID
  5
FC
330
F9
100
AcDbEntity
  8
0
  6
Continuous
 62
     7
370
     0
100
AcDbTrace
 10
60.3862837926
 20
248.44849362
 30
0.0
 11
58.3862837926
 21
249.19849362
 31
0.0
 12
58.3862837926
 22
247.69849362
 32
0.0
 13
58.3862837926
 23
247.69849362
 33
0.0
  0
SOLID
  5
FD
330
F9
100
AcDbEntity
  8
0
  6
Continuous
 62
     7
370
     0
100
AcDbTrace
 10
65.3862837926
 20
248.44849362
 30
0.0
 11
67.3862837926
 21
247.69849362
 31
0.0
 12
67.3862837926
 22
249.19849362
 32
0.0
 13
67.3862837926
 23
249.19849362
 33
0.0
  0
LINE
  5
FE
330
F9
100
AcDbEntity
  8
0
  6
Continuous
 62
     7
370
     0
100
AcDbLine
 10
60.3862837926
 20
237.6633503837
 30
0.0
 11
60.3862837926
 21
249.44849362
 31
0.0
  0
LINE
  5
FF
330
F9
100
AcDbEntity
  8
0
  6
Continuous
 62
     7
370
     0
100
AcDbLine
 10
65.3862837926
 20
239.8633503837
 30
0.0
 11
65.3862837926
 21
249.44849362
 31
0.0
  0
LINE
  5
100
330
F9
100
AcDbEntity
  8
0
  6
Continuous
 62
     7
370
     0
100
AcDbLine
 10
60.3862837926
 20
248.44849362
 30
0.0
 11
55.3862837926
 21
248.44849362
 31
0.0
  0
LINE
  5
101
330
F9
100
AcDbEntity
  8
0
  6
Continuous
 62
     7
370
     0
100
AcDbLine
 10
60.3862837926
 20
248.44849362
 30
0.0
 11
65.3862837926
 21
248.44849362
 31
0.0
  0
LINE
  5
102
330
F9
100
AcDbEntity
  8
0
  6
Continuous
 62
     7
370
     0
100
AcDbLine
 10
65.3862837926
 20
248.44849362
 30
0.0
 11
70.3862837926
 21
248.44849362
 31
0.0
  0
MTEXT
  5
103
330
F9
100
AcDbEntity
  8
0
  6
Continuous
 62
     7
370
     0
100
AcDbMText
 10
61.9375549738
 20
252.9602305346
 30
-10.9
 40
3.5
 41
0.0
 71
     1
 72
     1
  1
5
  7
SLDTEXTSTYLE1
 73
     1
 44
1.0
  0
ENDBLK
  5
FB
330
F9
100
AcDbEntity
  8
0
100
AcDbBlockEnd
  0
BLOCK
  5
107
330
106
100
AcDbEntity
  8
0
100
AcDbBlockBegin
  2
_D_1
 70
     0
 10
0.0
 20
0.0
 30
0.0
  3
_D_1
  1

  0
SOLID
  5
109
330
106
100
AcDbEntity
  8
0
  6
Continuous
 62
     7
370
     0
100
AcDbTrace
 10
65.3862837926
 20
248.44849362
 30
0.0
 11
67.3862837926
 21
247.69849362
 31
0.0
 12
67.3862837926
 22
249.19849362
 32
0.0
 13
67.3862837926
 23
249.19849362
 33
0.0
  0
SOLID
  5
10A
330
106
100
AcDbEntity
  8
0
  6
Continuous
 62
     7
370
     0
100
AcDbTrace
 10
140.3862837926
 20
248.44849362
 30
0.0
 11
138.3862837926
 21
249.19849362
 31
0.0
 12
138.3862837926
 22
247.69849362
 32
0.0
 13
138.3862837926
 23
247.69849362
 33
0.0
  0
LINE
  5
10B
330
106
100
AcDbEntity
  8
0
  6
Continuous
 62
     7
370
     0
100
AcDbLine
 10
65.3862837926
 20
239.8633503837
 30
0.0
 11
65.3862837926
 21
249.44849362
 31
0.0
  0
LINE
  5
10C
330
106
100
AcDbEntity
  8
0
  6
Continuous
 62
     7
370
     0
100
AcDbLine
 10
140.3862837926
 20
239.3633503837
 30
0.0
 11
140.3862837926
 21
249.44849362
 31
0.0
  0
LINE
  5
10D
330
106
100
AcDbEntity
  8
0
  6
Continuous
 62
     7
370
     0
100
AcDbLine
 10
65.3862837926
 20
248.44849362
 30
0.0
 11
140.3862837926
 21
248.44849362
 31
0.0
  0
MTEXT
  5
10E
330
106
100
AcDbEntity
  8
0
  6
Continuous
 62
     7
370
     0
100
AcDbMText
 10
101.1766858914
 20
252.9602305346
 30
-10.9
 40
3.5
 41
0.0
 71
     1
 72
     1
  1
75
  7
SLDTEXTSTYLE1
 73
     1
 44
1.0
  0
ENDBLK
  5
108
330
106
100
AcDbEntity
  8
0
100
AcDbBlockEnd
  0
BLOCK
  5
112
330
111
100
AcDbEntity
  8
0
100
AcDbBlockBegin
  2
_D_2
 70
     0
 10
0.0
 20
0.0
 30
0.0
  3
_D_2
  1

  0
SOLID
  5
114
330
111
100
AcDbEntity
  8
0
  6
Continuous
 62
     7
370
     0
100
AcDbTrace
 10
155.2862837926
 20
257.9519982796
 30
0.0
 11
153.2862837926
 21
258.7019982796
 31
0.0
 12
153.2862837926
 22
257.2019982796
 32
0.0
 13
153.2862837926
 23
257.2019982796
 33
0.0
  0
SOLID
  5
115
330
111
100
AcDbEntity
  8
0
  6
Continuous
 62
     7
370
     0
100
AcDbTrace
 10
60.3862837926
 20
257.9519982796
 30
0.0
 11
62.3862837926
 21
257.2019982796
 31
0.0
 12
62.3862837926
 22
258.7019982796
 32
0.0
 13
62.3862837926
 23
258.7019982796
 33
0.0
  0
LINE
  5
116
330
111
100
AcDbEntity
  8
0
  6
Continuous
 62
     7
370
     0
100
AcDbLine
 10
155.2862837926
 20
239.5633503837
 30
0.0
 11
155.2862837926
 21
258.9519982796
 31
0.0
  0
LINE
  5
117
330
111
100
AcDbEntity
  8
0
  6
Continuous
 62
     7
370
     0
100
AcDbLine
 10
60.3862837926
 20
237.6633503837
 30
0.0
 11
60.3862837926
 21
258.9519982796
 31
0.0
  0
LINE
  5
118
330
111
100
AcDbEntity
  8
0
  6
Continuous
 62
     7
370
     0
100
AcDbLine
 10
155.2862837926
 20
257.9519982796
 30
0.0
 11
60.3862837926
 21
257.9519982796
 31
0.0
  0
MTEXT
  5
119
330
111
100
AcDbEntity
  8
0
  6
Continuous
 62
     7
370
     0
100
AcDbMText
 10
99.2371025545
 20
262.4637351942
 30
-10.9
 40
3.5
 41
0.0
 71
     1
 72
     1
  1
94.9
  7
SLDTEXTSTYLE1
 73
     1
 44
1.0
  0
ENDBLK
  5
113
330
111
100
AcDbEntity
  8
0
100
AcDbBlockEnd
  0
BLOCK
  5
11C
330
11B
100
AcDbEntity
  8
0
100
AcDbBlockBegin
  2
_D_3
 70
     0
 10
0.0
 20
0.0
 30
0.0
  3
_D_3
  1

  0
SOLID
  5
11E
330
11B
100
AcDbEntity
  8
0
  6
Continuous
 62
     7
370
     0
100
AcDbTrace
 10
168.7362837926
 20
238.8633503837
 30
0.0
 11
167.9862837926
 21
236.8633503837
 31
0.0
 12
169.4862837926
 22
236.8633503837
 32
0.0
 13
169.4862837926
 23
236.8633503837
 33
0.0
  0
SOLID
  5
11F
330
11B
100
AcDbEntity
  8
0
  6
Continuous
 62
     7
370
     0
100
AcDbTrace
 10
168.7362837926
 20
218.8633503837
 30
0.0
 11
169.4862837926
 21
220.8633503837
 31
0.0
 12
167.9862837926
 22
220.8633503837
 32
0.0
 13
167.9862837926
 23
220.8633503837
 33
0.0
  0
LINE
  5
120
330
11B
100
AcDbEntity
  8
0
  6
Continuous
 62
     7
370
     0
100
AcDbLine
 10
159.7362837926
 20
238.8633503837
 30
0.0
 11
169.7362837926
 21
238.8633503837
 31
0.0
  0
LINE
  5
121
330
11B
100
AcDbEntity
  8
0
  6
Continuous
 62
     7
370
     0
100
AcDbLine
 10
159.7362837926
 20
218.8633503837
 30
0.0
 11
169.7362837926
 21
218.8633503837
 31
0.0
  0
LINE
  5
122
330
11B
100
AcDbEntity
  8
0
  6
Continuous
 62
     7
370
     0
100
AcDbLine
 10
168.7362837926
 20
238.8633503837
 30
0.0
 11
168.7362837926
 21
218.8633503837
 31
0.0
  0
MTEXT
  5
123
330
11B
100
AcDbEntity
  8
0
  6
Continuous
 62
     7
370
     0
100
AcDbMText
 10
164.224546878
 20
226.2772391902
 30
-10.9
 40
3.5
 41
0.0
 71
     1
 72
     1
  1
20
  7
SLDTEXTSTYLE1
 11
3.613946018757869E-15
 21
1.0
 31
0.0
 73
     1
 44
1.0
  0
ENDBLK
  5
11D
330
11B
100
AcDbEntity
  8
0
100
AcDbBlockEnd
  0
BLOCK
  5
126
330
125
100
AcDbEntity
  8
0
100
AcDbBlockBegin
  2
_D_4
 70
     0
 10
0.0
 20
0.0
 30
0.0
  3
_D_4
  1

  0
ARC
  5
128
330
125
100
AcDbEntity
  8
0
  6
Continuous
 62
     7
370
     0
100
AcDbCircle
 10
176.7569016185
 20
229.8939060189
 30
0.0
 40
6.212076339995588
100
AcDbArc
 50
243.4349488229
 51
296.5650511771
  0
ARC
  5
129
330
125
100
AcDbEntity
  8
0
  6
Continuous
 62
     7
370
     0
100
AcDbCircle
 10
176.7569016185
 20
227.8327950977
 30
0.0
 40
6.212076339995614
100
AcDbArc
 50
63.4349488229
 51
116.5650511771
  0
SOLID
  5
12A
330
125
100
AcDbEntity
  8
0
  6
Continuous
 62
     7
370
     0
100
AcDbTrace
 10
179.535026614
 20
240.4981473269
 30
0.0
 11
178.785026614
 21
238.4981473269
 31
0.0
 12
180.285026614
 22
238.4981473269
 32
0.0
 13
180.285026614
 23
238.4981473269
 33
0.0
  0
SOLID
  5
12B
330
125
100
AcDbEntity
  8
0
  6
Continuous
 62
     7
370
     0
100
AcDbTrace
 10
179.535026614
 20
217.2285534405
 30
0.0
 11
180.285026614
 21
219.2285534405
 31
0.0
 12
178.785026614
 22
219.2285534405
 32
0.0
 13
178.785026614
 23
219.2285534405
 33
0.0
  0
LINE
  5
12C
330
125
100
AcDbEntity
  8
0
  6
Continuous
 62
     7
370
     0
100
AcDbLine
 10
152.3585047124
 20
240.4981473269
 30
0.0
 11
180.535026614
 21
240.4981473269
 31
0.0
  0
LINE
  5
12D
330
125
100
AcDbEntity
  8
0
  6
Continuous
 62
     7
370
     0
100
AcDbLine
 10
152.1562837926
 20
217.2285534405
 30
0.0
 11
180.535026614
 21
217.2285534405
 31
0.0
  0
LINE
  5
12E
330
125
100
AcDbEntity
  8
0
  6
Continuous
 62
     7
370
     0
100
AcDbLine
 10
179.535026614
 20
240.4981473269
 30
0.0
 11
179.535026614
 21
217.2285534405
 31
0.0
  0
MTEXT
  5
12F
330
125
100
AcDbEntity
  8
0
  6
Continuous
 62
     7
370
     0
100
AcDbMText
 10
175.0232896995
 20
224.3376560279
 30
-10.9
 40
3.5
 41
0.0
 71
     1
 72
     1
  1
23.3
  7
SLDTEXTSTYLE1
 11
-7.044195017643634E-15
 21
1.0
 31
0.0
 73
     1
 44
1.0
  0
ENDBLK
  5
127
330
125
100
AcDbEntity
  8
0
100
AcDbBlockEnd
  0
BLOCK
  5
133
330
132
100
AcDbEntity
  8
0
100
AcDbBlockBegin
  2
_D_5
 70
     0
 10
0.0
 20
0.0
 30
0.0
  3
_D_5
  1

  0
ARC
  5
135
330
132
100
AcDbEntity
  8
0
  6
Continuous
 62
     7
370
     0
100
AcDbCircle
 10
103.500297007
 20
268.4095339616
 30
0.0
 40
6.212076339995614
100
AcDbArc
 50
153.4349488229
 51
206.5650511771
  0
ARC
  5
136
330
132
100
AcDbEntity
  8
0
  6
Continuous
 62
     7
370
     0
100
AcDbCircle
 10
104.0252975121
 20
268.4095339616
 30
0.0
 40
6.212076339995614
100
AcDbArc
 50
333.4349488229
 51
26.5650511771
  0
SOLID
  5
137
330
132
100
AcDbEntity
  8
0
  6
Continuous
 62
     7
370
     0
100
AcDbTrace
 10
158.7362837926
 20
265.6314089661
 30
0.0
 11
156.7362837926
 21
266.3814089661
 31
0.0
 12
156.7362837926
 22
264.8814089661
 32
0.0
 13
156.7362837926
 23
264.8814089661
 33
0.0
  0
SOLID
  5
138
330
132
100
AcDbEntity
  8
0
  6
Continuous
 62
     7
370
     0
100
AcDbTrace
 10
50.8862837926
 20
265.6314089661
 30
0.0
 11
52.8862837926
 21
264.8814089661
 31
0.0
 12
52.8862837926
 22
266.3814089661
 32
0.0
 13
52.8862837926
 23
266.3814089661
 33
0.0
  0
LINE
  5
139
330
132
100
AcDbEntity
  8
0
  6
Continuous
 62
     7
370
     0
100
AcDbLine
 10
158.7362837926
 20
239.8633503837
 30
0.0
 11
158.7362837926
 21
266.6314089661
 31
0.0
  0
LINE
  5
13A
330
132
100
AcDbEntity
  8
0
  6
Continuous
 62
     7
370
     0
100
AcDbLine
 10
50.8862837926
 20
231.3633503837
 30
0.0
 11
50.8862837926
 21
266.6314089661
 31
0.0
  0
LINE
  5
13B
330
132
100
AcDbEntity
  8
0
  6
Continuous
 62
     7
370
     0
100
AcDbLine
 10
158.7362837926
 20
265.6314089661
 30
0.0
 11
50.8862837926
 21
265.6314089661
 31
0.0
  0
MTEXT
  5
13C
330
132
100
AcDbEntity
  8
0
  6
Continuous
 62
     7
370
     0
100
AcDbMText
 10
97.9440470159
 20
270.1431458806
 30
-10.9
 40
3.5
 41
0.0
 71
     1
 72
     1
  1
107.9
  7
SLDTEXTSTYLE1
 73
     1
 44
1.0
  0
ENDBLK
  5
134
330
132
100
AcDbEntity
  8
0
100
AcDbBlockEnd
  0
BLOCK
  5
13F
330
13E
100
AcDbEntity
  8
0
100
AcDbBlockBegin
  2
_D_6
 70
     0
 10
0.0
 20
0.0
 30
0.0
  3
_D_6
  1

  0
SOLID
  5
141
330
13E
100
AcDbEntity
  8
0
  6
Continuous
 62
     7
370
     0
100
AcDbTrace
 10
155.2862837926
 20
257.9519982796
 30
0.0
 11
153.2862837926
 21
258.7019982796
 31
0.0
 12
153.2862837926
 22
257.2019982796
 32
0.0
 13
153.2862837926
 23
257.2019982796
 33
0.0
  0
SOLID
  5
142
330
13E
100
AcDbEntity
  8
0
  6
Continuous
 62
     7
370
     0
100
AcDbTrace
 10
158.7362837926
 20
257.9519982796
 30
0.0
 11
160.7362837926
 21
257.2019982796
 31
0.0
 12
160.7362837926
 22
258.7019982796
 32
0.0
 13
160.7362837926
 23
258.7019982796
 33
0.0
  0
LINE
  5
143
330
13E
100
AcDbEntity
  8
0
  6
Continuous
 62
     7
370
     0
100
AcDbLine
 10
155.2862837926
 20
239.5633503837
 30
0.0
 11
155.2862837926
 21
258.9519982796
 31
0.0
  0
LINE
  5
144
330
13E
100
AcDbEntity
  8
0
  6
Continuous
 62
     7
370
     0
100
AcDbLine
 10
158.7362837926
 20
239.8633503837
 30
0.0
 11
158.7362837926
 21
258.9519982796
 31
0.0
  0
LINE
  5
145
330
13E
100
AcDbEntity
  8
0
  6
Continuous
 62
     7
370
     0
100
AcDbLine
 10
155.2862837926
 20
257.9519982796
 30
0.0
 11
150.2862837926
 21
257.9519982796
 31
0.0
  0
LINE
  5
146
330
13E
100
AcDbEntity
  8
0
  6
Continuous
 62
     7
370
     0
100
AcDbLine
 10
155.2862837926
 20
257.9519982796
 30
0.0
 11
158.7362837926
 21
257.9519982796
 31
0.0
  0
LINE
  5
147
330
13E
100
AcDbEntity
  8
0
  6
Continuous
 62
     7
370
     0
100
AcDbLine
 10
158.7362837926
 20
257.9519982796
 30
0.0
 11
170.6942321317
 21
257.9519982796
 31
0.0
  0
MTEXT
  5
148
330
13E
100
AcDbEntity
  8
0
  6
Continuous
 62
     7
370
     0
100
AcDbMText
 10
161.6428430708
 20
262.4637351942
 30
-10.9
 40
3.5
 41
0.0
 71
     1
 72
     1
  1
3.45
  7
SLDTEXTSTYLE1
 73
     1
 44
1.0
  0
ENDBLK
  5
140
330
13E
100
AcDbEntity
  8
0
100
AcDbBlockEnd
  0
BLOCK
  5
1B7
330
1B6
100
AcDbEntity
  8
0
100
AcDbBlockBegin
  2
_D_7
 70
     0
 10
0.0
 20
0.0
 30
0.0
  3
_D_7
  1

  0
SOLID
  5
1B9
330
1B6
100
AcDbEntity
  8
0
  6
Continuous
 62
     7
370
     0
100
AcDbTrace
 10
49.3203441943
 20
236.8633503837
 30
0.0
 11
48.5703441943
 21
234.8633503837
 31
0.0
 12
50.0703441943
 22
234.8633503837
 32
0.0
 13
50.0703441943
 23
234.8633503837
 33
0.0
  0
SOLID
  5
1BA
330
1B6
100
AcDbEntity
  8
0
  6
Continuous
 62
     7
370
     0
100
AcDbTrace
 10
49.3203441943
 20
220.8633503837
 30
0.0
 11
50.0703441943
 21
222.8633503837
 31
0.0
 12
48.5703441943
 22
222.8633503837
 32
0.0
 13
48.5703441943
 23
222.8633503837
 33
0.0
  0
LINE
  5
1BB
330
1B6
100
AcDbEntity
  8
0
  6
Continuous
 62
     7
370
     0
100
AcDbLine
 10
38.6366628675
 20
236.8633503837
 30
0.0
 11
50.3203441943
 21
236.8633503837
 31
0.0
  0
LINE
  5
1BC
330
1B6
100
AcDbEntity
  8
0
  6
Continuous
 62
     7
370
     0
100
AcDbLine
 10
38.6366628675
 20
220.8633503837
 30
0.0
 11
50.3203441943
 21
220.8633503837
 31
0.0
  0
LINE
  5
1BD
330
1B6
100
AcDbEntity
  8
0
  6
Continuous
 62
     7
370
     0
100
AcDbLine
 10
49.3203441943
 20
236.8633503837
 30
0.0
 11
49.3203441943
 21
220.8633503837
 31
0.0
  0
MTEXT
  5
1BE
330
1B6
100
AcDbEntity
  8
0
  6
Continuous
 62
     7
370
     0
100
AcDbMText
 10
44.8086072797
 20
226.9760127481
 30
-35.475
 40
3.5
 41
0.0
 71
     1
 72
     1
  1
16
  7
SLDTEXTSTYLE1
 11
6.123233995736766E-17
 21
1.0
 31
0.0
 73
     1
 44
1.0
  0
ENDBLK
  5
1B8
330
1B6
100
AcDbEntity
  8
0
100
AcDbBlockEnd
  0
BLOCK
  5
1C0
330
1BF
100
AcDbEntity
  8
0
100
AcDbBlockBegin
  2
SW_CENTERMARKSYMBOL_0
 70
     0
 10
0.0
 20
0.0
 30
0.0
  3
SW_CENTERMARKSYMBOL_0
  1

  0
LINE
  5
1C2
330
1BF
100
AcDbEntity
  8
0
  6
Continuous
 62
     0
370
     0
100
AcDbLine
 10
0.0
 20
0.0
 30
0.0
 11
0.0
 21
2.5
 31
0.0
  0
LINE
  5
1C3
330
1BF
100
AcDbEntity
  8
0
  6
Continuous
 62
     0
370
     0
100
AcDbLine
 10
0.0
 20
0.0
 30
0.0
 11
-2.5
 21
0.0
 31
0.0
  0
LINE
  5
1C4
330
1BF
100
AcDbEntity
  8
0
  6
Continuous
 62
     0
370
     0
100
AcDbLine
 10
0.0
 20
0.0
 30
0.0
 11
0.0
 21
-2.5
 31
0.0
  0
LINE
  5
1C5
330
1BF
100
AcDbEntity
  8
0
  6
Continuous
 62
     0
370
     0
100
AcDbLine
 10
0.0
 20
0.0
 30
0.0
 11
2.5
 21
0.0
 31
0.0
  0
LINE
  5
1C6
330
1BF
100
AcDbEntity
  8
0
  6
Continuous
 62
     0
370
     0
100
AcDbLine
 10
0.0
 20
5.0
 30
0.0
 11
0.0
 21
12.5
 31
0.0
  0
LINE
  5
1C7
330
1BF
100
AcDbEntity
  8
0
  6
Continuous
 62
     0
370
     0
100
AcDbLine
 10
-5.0
 20
0.0
 30
0.0
 11
-12.5
 21
0.0
 31
0.0
  0
LINE
  5
1C8
330
1BF
100
AcDbEntity
  8
0
  6
Continuous
 62
     0
370
     0
100
AcDbLine
 10
0.0
 20
-5.0
 30
0.0
 11
0.0
 21
-12.5
 31
0.0
  0
LINE
  5
1C9
330
1BF
100
AcDbEntity
  8
0
  6
Continuous
 62
     0
370
     0
100
AcDbLine
 10
5.0
 20
0.0
 30
0.0
 11
12.5
 21
0.0
 31
0.0
  0
ENDBLK
  5
1C1
330
1BF
100
AcDbEntity
  8
0
100
AcDbBlockEnd
  0
BLOCK
  5
25E
330
25D
100
AcDbEntity
  8
0
100
AcDbBlockBegin
  2
_D_8
 70
     0
 10
0.0
 20
0.0
 30
0.0
  3
_D_8
  1

  0
SOLID
  5
260
330
25D
100
AcDbEntity
  8
0
  6
Continuous
 62
     7
370
     0
100
AcDbTrace
 10
47.3474026206
 20
187.8272703143
 30
0.0
 11
46.5974026206
 21
185.8272703143
 31
0.0
 12
48.0974026206
 22
185.8272703143
 32
0.0
 13
48.0974026206
 23
185.8272703143
 33
0.0
  0
SOLID
  5
261
330
25D
100
AcDbEntity
  8
0
  6
Continuous
 62
     7
370
     0
100
AcDbTrace
 10
47.3474026206
 20
167.8272703143
 30
0.0
 11
48.0974026206
 21
169.8272703143
 31
0.0
 12
46.5974026206
 22
169.8272703143
 32
0.0
 13
46.5974026206
 23
169.8272703143
 33
0.0
  0
LINE
  5
262
330
25D
100
AcDbEntity
  8
0
  6
Continuous
 62
     7
370
     0
100
AcDbLine
 10
60.3862837926
 20
187.8272703143
 30
0.0
 11
46.3474026206
 21
187.8272703143
 31
0.0
  0
LINE
  5
263
330
25D
100
AcDbEntity
  8
0
  6
Continuous
 62
     7
370
     0
100
AcDbLine
 10
60.3862837926
 20
167.8272703143
 30
0.0
 11
46.3474026206
 21
167.8272703143
 31
0.0
  0
LINE
  5
264
330
25D
100
AcDbEntity
  8
0
  6
Continuous
 62
     7
370
     0
100
AcDbLine
 10
47.3474026206
 20
187.8272703143
 30
0.0
 11
47.3474026206
 21
167.8272703143
 31
0.0
  0
MTEXT
  5
265
330
25D
100
AcDbEntity
  8
0
  6
Continuous
 62
     7
370
     0
100
AcDbMText
 10
42.8356655314
 20
172.9428580098
 30
0.1
 40
3.5
 41
0.0
 71
     1
 72
     1
  1
%%c
  7
SLDTEXTSTYLE1
 11
-7.044195017643634E-15
 21
1.0
 31
0.0
 73
     1
 44
1.0
  0
MTEXT
  5
266
330
25D
100
AcDbEntity
  8
0
  6
Continuous
 62
     7
370
     0
100
AcDbMText
 10
42.7821933548
 20
178.2212954082
 30
0.1
 40
3.5
 41
0.0
 71
     1
 72
     1
  1
20
  7
SLDTEXTSTYLE1
 11
-7.044195017643634E-15
 21
1.0
 31
0.0
 73
     1
 44
1.0
  0
ENDBLK
  5
25F
330
25D
100
AcDbEntity
  8
0
100
AcDbBlockEnd
  0
BLOCK
  5
388
330
387
100
AcDbEntity
  8
0
100
AcDbBlockBegin
  2
_D_9
 70
     0
 10
0.0
 20
0.0
 30
0.0
  3
_D_9
  1

  0
SOLID
  5
38A
330
387
100
AcDbEntity
  8
0
  6
Continuous
 62
     7
370
     0
100
AcDbTrace
 10
189.5516218305
 20
119.1478774696
 30
0.0
 11
188.8016218305
 21
117.1478774696
 31
0.0
 12
190.3016218305
 22
117.1478774696
 32
0.0
 13
190.3016218305
 23
117.1478774696
 33
0.0
  0
SOLID
  5
38B
330
387
100
AcDbEntity
  8
0
  6
Continuous
 62
     7
370
     0
100
AcDbTrace
 10
189.5516218305
 20
107.1478774696
 30
0.0
 11
190.3016218305
 21
109.1478774696
 31
0.0
 12
188.8016218305
 22
109.1478774696
 32
0.0
 13
188.8016218305
 23
109.1478774696
 33
0.0
  0
LINE
  5
38C
330
387
100
AcDbEntity
  8
0
  6
Continuous
 62
     7
370
     0
100
AcDbLine
 10
179.0500567839
 20
119.1478774696
 30
0.0
 11
190.5516218305
 21
119.1478774696
 31
0.0
  0
LINE
  5
38D
330
387
100
AcDbEntity
  8
0
  6
Continuous
 62
     7
370
     0
100
AcDbLine
 10
179.0500567839
 20
107.1478774696
 30
0.0
 11
190.5516218305
 21
107.1478774696
 31
0.0
  0
LINE
  5
38E
330
387
100
AcDbEntity
  8
0
  6
Continuous
 62
     7
370
     0
100
AcDbLine
 10
189.5516218305
 20
119.1478774696
 30
0.0
 11
189.5516218305
 21
107.1478774696
 31
0.0
  0
MTEXT
  5
38F
330
387
100
AcDbEntity
  8
0
  6
Continuous
 62
     7
370
     0
100
AcDbMText
 10
185.039884916
 20
111.2432623157
 30
35.675
 40
3.5
 41
0.0
 71
     1
 72
     1
  1
12
  7
SLDTEXTSTYLE1
 11
-7.044195017643634E-15
 21
1.0
 31
0.0
 73
     1
 44
1.0
  0
ENDBLK
  5
389
330
387
100
AcDbEntity
  8
0
100
AcDbBlockEnd
  0
BLOCK
  5
392
330
391
100
AcDbEntity
  8
0
100
AcDbBlockBegin
  2
_D_10
 70
     0
 10
0.0
 20
0.0
 30
0.0
  3
_D_10
  1

  0
SOLID
  5
394
330
391
100
AcDbEntity
  8
0
  6
Continuous
 62
     7
370
     0
100
AcDbTrace
 10
189.5516218305
 20
119.1478774696
 30
0.0
 11
188.8016218305
 21
117.1478774696
 31
0.0
 12
190.3016218305
 22
117.1478774696
 32
0.0
 13
190.3016218305
 23
117.1478774696
 33
0.0
  0
SOLID
  5
395
330
391
100
AcDbEntity
  8
0
  6
Continuous
 62
     7
370
     0
100
AcDbTrace
 10
189.5516218305
 20
123.1478774696
 30
0.0
 11
190.3016218305
 21
125.1478774696
 31
0.0
 12
188.8016218305
 22
125.1478774696
 32
0.0
 13
188.8016218305
 23
125.1478774696
 33
0.0
  0
LINE
  5
396
330
391
100
AcDbEntity
  8
0
  6
Continuous
 62
     7
370
     0
100
AcDbLine
 10
179.0500567839
 20
119.1478774696
 30
0.0
 11
190.5516218305
 21
119.1478774696
 31
0.0
  0
LINE
  5
397
330
391
100
AcDbEntity
  8
0
  6
Continuous
 62
     7
370
     0
100
AcDbLine
 10
184.1000567839
 20
123.1478774696
 30
0.0
 11
190.5516218305
 21
123.1478774696
 31
0.0
  0
LINE
  5
398
330
391
100
AcDbEntity
  8
0
  6
Continuous
 62
     7
370
     0
100
AcDbLine
 10
189.5516218305
 20
119.1478774696
 30
0.0
 11
189.5516218305
 21
114.1478774696
 31
0.0
  0
LINE
  5
399
330
391
100
AcDbEntity
  8
0
  6
Continuous
 62
     7
370
     0
100
AcDbLine
 10
189.5516218305
 20
119.1478774696
 30
0.0
 11
189.5516218305
 21
123.1478774696
 31
0.0
  0
LINE
  5
39A
330
391
100
AcDbEntity
  8
0
  6
Continuous
 62
     7
370
     0
100
AcDbLine
 10
189.5516218305
 20
123.1478774696
 30
0.0
 11
189.5516218305
 21
129.7729056315
 31
0.0
  0
MTEXT
  5
39B
330
391
100
AcDbEntity
  8
0
  6
Continuous
 62
     7
370
     0
100
AcDbMText
 10
185.039884916
 20
127.186794438
 30
35.675
 40
3.5
 41
0.0
 71
     1
 72
     1
  1
4
  7
SLDTEXTSTYLE1
 11
6.123233995736766E-17
 21
1.0
 31
0.0
 73
     1
 44
1.0
  0
ENDBLK
  5
393
330
391
100
AcDbEntity
  8
0
100
AcDbBlockEnd
  0
BLOCK
  5
39E
330
39D
100
AcDbEntity
  8
0
100
AcDbBlockBegin
  2
_D_11
 70
     0
 10
0.0
 20
0.0
 30
0.0
  3
_D_11
  1

  0
SOLID
  5
3A0
330
39D
100
AcDbEntity
  8
0
  6
Continuous
 62
     7
370
     0
100
AcDbTrace
 10
183.6000567839
 20
139.0265822901
 30
0.0
 11
181.6000567839
 21
139.7765822901
 31
0.0
 12
181.6000567839
 22
138.2765822901
 32
0.0
 13
181.6000567839
 23
138.2765822901
 33
0.0
  0
SOLID
  5
3A1
330
39D
100
AcDbEntity
  8
0
  6
Continuous
 62
     7
370
     0
100
AcDbTrace
 10
163.1000567839
 20
139.0265822901
 30
0.0
 11
165.1000567839
 21
138.2765822901
 31
0.0
 12
165.1000567839
 22
139.7765822901
 32
0.0
 13
165.1000567839
 23
139.7765822901
 33
0.0
  0
LINE
  5
3A2
330
39D
100
AcDbEntity
  8
0
  6
Continuous
 62
     7
370
     0
100
AcDbLine
 10
183.6000567839
 20
123.6478774696
 30
0.0
 11
183.6000567839
 21
140.0265822901
 31
0.0
  0
LINE
  5
3A3
330
39D
100
AcDbEntity
  8
0
  6
Continuous
 62
     7
370
     0
100
AcDbLine
 10
163.1000567839
 20
123.6478774696
 30
0.0
 11
163.1000567839
 21
140.0265822901
 31
0.0
  0
LINE
  5
3A4
330
39D
100
AcDbEntity
  8
0
  6
Continuous
 62
     7
370
     0
100
AcDbLine
 10
183.6000567839
 20
139.0265822901
 30
0.0
 11
163.1000567839
 21
139.0265822901
 31
0.0
  0
MTEXT
  5
3A5
330
39D
100
AcDbEntity
  8
0
  6
Continuous
 62
     7
370
     0
100
AcDbMText
 10
168.8243622534
 20
143.5383192047
 30
35.675
 40
3.5
 41
0.0
 71
     1
 72
     1
  1
20.5
  7
SLDTEXTSTYLE1
 73
     1
 44
1.0
  0
ENDBLK
  5
39F
330
39D
100
AcDbEntity
  8
0
100
AcDbBlockEnd
  0
BLOCK
  5
3A9
330
3A8
100
AcDbEntity
  8
0
100
AcDbBlockBegin
  2
_D_12
 70
     0
 10
0.0
 20
0.0
 30
0.0
  3
_D_12
  1

  0
SOLID
  5
3AB
330
3A8
100
AcDbEntity
  8
0
  6
Continuous
 62
     7
370
     0
100
AcDbTrace
 10
183.6000567839
 20
131.7434109164
 30
0.0
 11
185.6000567839
 21
130.9934109164
 31
0.0
 12
185.6000567839
 22
132.4934109164
 32
0.0
 13
185.6000567839
 23
132.4934109164
 33
0.0
  0
SOLID
  5
3AC
330
3A8
100
AcDbEntity
  8
0
  6
Continuous
 62
     7
370
     0
100
AcDbTrace
 10
174.3000567839
 20
131.7434109164
 30
0.0
 11
172.3000567839
 21
132.4934109164
 31
0.0
 12
172.3000567839
 22
130.9934109164
 32
0.0
 13
172.3000567839
 23
130.9934109164
 33
0.0
  0
LINE
  5
3AD
330
3A8
100
AcDbEntity
  8
0
  6
Continuous
 62
     7
370
     0
100
AcDbLine
 10
183.6000567839
 20
123.6478774696
 30
0.0
 11
183.6000567839
 21
132.7434109164
 31
0.0
  0
LINE
  5
3AE
330
3A8
100
AcDbEntity
  8
0
  6
Continuous
 62
     7
370
     0
100
AcDbLine
 10
174.3000567839
 20
123.8978774696
 30
0.0
 11
174.3000567839
 21
132.7434109164
 31
0.0
  0
LINE
  5
3AF
330
3A8
100
AcDbEntity
  8
0
  6
Continuous
 62
     7
370
     0
100
AcDbLine
 10
183.6000567839
 20
131.7434109164
 30
0.0
 11
188.6000567839
 21
131.7434109164
 31
0.0
  0
LINE
  5
3B0
330
3A8
100
AcDbEntity
  8
0
  6
Continuous
 62
     7
370
     0
100
AcDbLine
 10
183.6000567839
 20
131.7434109164
 30
0.0
 11
174.3000567839
 21
131.7434109164
 31
0.0
  0
LINE
  5
3B1
330
3A8
100
AcDbEntity
  8
0
  6
Continuous
 62
     7
370
     0
100
AcDbLine
 10
174.3000567839
 20
131.7434109164
 30
0.0
 11
169.3000567839
 21
131.7434109164
 31
0.0
  0
MTEXT
  5
3B2
330
3A8
100
AcDbEntity
  8
0
  6
Continuous
 62
     7
370
     0
100
AcDbMText
 10
175.7174179666
 20
136.255147831
 30
35.675
 40
3.5
 41
0.0
 71
     1
 72
     1
  1
9.3
  7
SLDTEXTSTYLE1
 73
     1
 44
1.0
  0
ENDBLK
  5
3AA
330
3A8
100
AcDbEntity
  8
0
100
AcDbBlockEnd
  0
BLOCK
  5
3B5
330
3B4
100
AcDbEntity
  8
0
100
AcDbBlockBegin
  2
_D_13
 70
     0
 10
0.0
 20
0.0
 30
0.0
  3
_D_13
  1

  0
SOLID
  5
3B7
330
3B4
100
AcDbEntity
  8
0
  6
Continuous
 62
     7
370
     0
100
AcDbTrace
 10
194.6000567839
 20
123.1478774696
 30
0.0
 11
193.8500567839
 21
121.1478774696
 31
0.0
 12
195.3500567839
 22
121.1478774696
 32
0.0
 13
195.3500567839
 23
121.1478774696
 33
0.0
  0
SOLID
  5
3B8
330
3B4
100
AcDbEntity
  8
0
  6
Continuous
 62
     7
370
     0
100
AcDbTrace
 10
194.6000567839
 20
103.1478774696
 30
0.0
 11
195.3500567839
 21
105.1478774696
 31
0.0
 12
193.8500567839
 22
105.1478774696
 32
0.0
 13
193.8500567839
 23
105.1478774696
 33
0.0
  0
LINE
  5
3B9
330
3B4
100
AcDbEntity
  8
0
  6
Continuous
 62
     7
370
     0
100
AcDbLine
 10
184.1000567839
 20
123.1478774696
 30
0.0
 11
195.6000567839
 21
123.1478774696
 31
0.0
  0
LINE
  5
3BA
330
3B4
100
AcDbEntity
  8
0
  6
Continuous
 62
     7
370
     0
100
AcDbLine
 10
184.1000567839
 20
103.1478774696
 30
0.0
 11
195.6000567839
 21
103.1478774696
 31
0.0
  0
LINE
  5
3BB
330
3B4
100
AcDbEntity
  8
0
  6
Continuous
 62
     7
370
     0
100
AcDbLine
 10
194.6000567839
 20
123.1478774696
 30
0.0
 11
194.6000567839
 21
103.1478774696
 31
0.0
  0
MTEXT
  5
3BC
330
3B4
100
AcDbEntity
  8
0
  6
Continuous
 62
     7
370
     0
100
AcDbMText
 10
190.0883198693
 20
110.5617662761
 30
35.675
 40
3.5
 41
0.0
 71
     1
 72
     1
  1
20
  7
SLDTEXTSTYLE1
 11
-7.044195017643634E-15
 21
1.0
 31
0.0
 73
     1
 44
1.0
  0
ENDBLK
  5
3B6
330
3B4
100
AcDbEntity
  8
0
100
AcDbBlockEnd
  0
BLOCK
  5
3C0
330
3BF
100
AcDbEntity
  8
0
100
AcDbBlockBegin
  2
SW_CENTERMARKSYMBOL_1
 70
     0
 10
0.0
 20
0.0
 30
0.0
  3
SW_CENTERMARKSYMBOL_1
  1

  0
LINE
  5
3C2
330
3BF
100
AcDbEntity
  8
0
  6
Continuous
 62
     0
370
     0
100
AcDbLine
 10
0.0
 20
0.0
 30
0.0
 11
0.0
 21
2.5
 31
0.0
  0
LINE
  5
3C3
330
3BF
100
AcDbEntity
  8
0
  6
Continuous
 62
     0
370
     0
100
AcDbLine
 10
0.0
 20
0.0
 30
0.0
 11
-2.5
 21
0.0
 31
0.0
  0
LINE
  5
3C4
330
3BF
100
AcDbEntity
  8
0
  6
Continuous
 62
     0
370
     0
100
AcDbLine
 10
0.0
 20
0.0
 30
0.0
 11
0.0
 21
-2.5
 31
0.0
  0
LINE
  5
3C5
330
3BF
100
AcDbEntity
  8
0
  6
Continuous
 62
     0
370
     0
100
AcDbLine
 10
0.0
 20
0.0
 30
0.0
 11
2.5
 21
0.0
 31
0.0
  0
LINE
  5
3C6
330
3BF
100
AcDbEntity
  8
0
  6
Continuous
 62
     0
370
     0
100
AcDbLine
 10
0.0
 20
2.5
 30
0.0
 11
0.0
 21
3.75
 31
0.0
  0
LINE
  5
3C7
330
3BF
100
AcDbEntity
  8
0
  6
Continuous
 62
     0
370
     0
100
AcDbLine
 10
-2.5
 20
0.0
 30
0.0
 11
-3.75
 21
0.0
 31
0.0
  0
LINE
  5
3C8
330
3BF
100
AcDbEntity
  8
0
  6
Continuous
 62
     0
370
     0
100
AcDbLine
 10
0.0
 20
-2.5
 30
0.0
 11
0.0
 21
-3.75
 31
0.0
  0
LINE
  5
3C9
330
3BF
100
AcDbEntity
  8
0
  6
Continuous
 62
     0
370
     0
100
AcDbLine
 10
2.5
 20
0.0
 30
0.0
 11
3.75
 21
0.0
 31
0.0
  0
ENDBLK
  5
3C1
330
3BF
100
AcDbEntity
  8
0
100
AcDbBlockEnd
  0
BLOCK
  5
3CC
330
3CB
100
AcDbEntity
  8
0
100
AcDbBlockBegin
  2
SW_CENTERMARKSYMBOL_2
 70
     0
 10
0.0
 20
0.0
 30
0.0
  3
SW_CENTERMARKSYMBOL_2
  1

  0
LINE
  5
3CE
330
3CB
100
AcDbEntity
  8
0
  6
Continuous
 62
     0
370
     0
100
AcDbLine
 10
0.0
 20
0.0
 30
0.0
 11
0.0
 21
2.5
 31
0.0
  0
LINE
  5
3CF
330
3CB
100
AcDbEntity
  8
0
  6
Continuous
 62
     0
370
     0
100
AcDbLine
 10
0.0
 20
0.0
 30
0.0
 11
-2.5
 21
0.0
 31
0.0
  0
LINE
  5
3D0
330
3CB
100
AcDbEntity
  8
0
  6
Continuous
 62
     0
370
     0
100
AcDbLine
 10
0.0
 20
0.0
 30
0.0
 11
0.0
 21
-2.5
 31
0.0
  0
LINE
  5
3D1
330
3CB
100
AcDbEntity
  8
0
  6
Continuous
 62
     0
370
     0
100
AcDbLine
 10
0.0
 20
0.0
 30
0.0
 11
2.5
 21
0.0
 31
0.0
  0
LINE
  5
3D2
330
3CB
100
AcDbEntity
  8
0
  6
Continuous
 62
     0
370
     0
100
AcDbLine
 10
0.0
 20
2.5
 30
0.0
 11
0.0
 21
3.75
 31
0.0
  0
LINE
  5
3D3
330
3CB
100
AcDbEntity
  8
0
  6
Continuous
 62
     0
370
     0
100
AcDbLine
 10
-2.5
 20
0.0
 30
0.0
 11
-3.75
 21
0.0
 31
0.0
  0
LINE
  5
3D4
330
3CB
100
AcDbEntity
  8
0
  6
Continuous
 62
     0
370
     0
100
AcDbLine
 10
0.0
 20
-2.5
 30
0.0
 11
0.0
 21
-3.75
 31
0.0
  0
LINE
  5
3D5
330
3CB
100
AcDbEntity
  8
0
  6
Continuous
 62
     0
370
     0
100
AcDbLine
 10
2.5
 20
0.0
 30
0.0
 11
3.75
 21
0.0
 31
0.0
  0
ENDBLK
  5
3CD
330
3CB
100
AcDbEntity
  8
0
100
AcDbBlockEnd
  0
ENDSEC
  0
SECTION
  2
ENTITIES
  0
LINE
  5
44
330
1F
100
AcDbEntity
  8
0
  6
Continuous
 62
     7
370
     0
100
AcDbLine
 10
20.2604743903
 20
285.0
 30
0.0
 11
196.7604743903
 21
285.0
 31
0.0
  0
LINE
  5
45
330
1F
100
AcDbEntity
  8
0
  6
Continuous
 62
     7
370
     0
100
AcDbLine
 10
20.2604743903
 20
285.0
 30
0.0
 11
20.2604743903
 21
10.0
 31
0.0
  0
LINE
  5
46
330
1F
100
AcDbEntity
  8
0
  6
Continuous
 62
     7
370
     0
100
AcDbLine
 10
20.2604743903
 20
10.0
 30
0.0
 11
196.7604743903
 21
10.0
 31
0.0
  0
LINE
  5
47
330
1F
100
AcDbEntity
  8
0
  6
Continuous
 62
     7
370
     0
100
AcDbLine
 10
196.7604743903
 20
285.0
 30
0.0
 11
196.7604743903
 21
10.0
 31
0.0
  0
LINE
  5
48
330
1F
100
AcDbEntity
  8
0
  6
Continuous
 62
     7
370
     0
100
AcDbLine
 10
127.0104743903
 20
50.75
 30
0.0
 11
196.7604743903
 21
50.75
 31
0.0
  0
LINE
  5
49
330
1F
100
AcDbEntity
  8
0
  6
Continuous
 62
     7
370
     0
100
AcDbLine
 10
127.0104743903
 20
50.75
 30
0.0
 11
127.0104743903
 21
10.0
 31
0.0
  0
LINE
  5
4A
330
1F
100
AcDbEntity
  8
0
  6
Continuous
 62
     7
370
     0
100
AcDbLine
 10
127.0104743903
 20
22.75
 30
0.0
 11
196.7604743903
 21
22.75
 31
0.0
  0
LINE
  5
4B
330
1F
100
AcDbEntity
  8
0
  6
Continuous
 62
     7
370
     0
100
AcDbLine
 10
127.0104743903
 20
36.75
 30
0.0
 11
196.7604743903
 21
36.75
 31
0.0
  0
MTEXT
  5
4D
330
1F
100
AcDbEntity
  8
0
  6
Continuous
 62
     7
370
     0
100
AcDbMText
 10
161.8364742417
 20
30.4171582345
 30
0.0
 40
4.2333333333
 41
0.0
 71
     2
 72
     1
  1
J25410-30A
  7
SLDTEXTSTYLE0
 73
     1
 44
1.0
  0
MTEXT
  5
4E
330
1F
100
AcDbEntity
  8
0
  6
Continuous
 62
     7
370
     0
100
AcDbMText
 10
157.9336637379
 20
45.4086694242
 30
0.0
 40
3.7041666667
 41
0.0
 71
     2
 72
     1
  1
パイプ複合チャックＤ・φ20・90度
  7
SLDTEXTSTYLE0
 73
     1
 44
1.0
  0
MTEXT
  5
4F
330
1F
100
AcDbEntity
  8
0
  6
Continuous
 62
     7
370
     0
100
AcDbMText
 10
162.4952401765
 20
16.8228189052
 30
0.0
 40
4.2333333333
 41
0.0
 71
     2
 72
     1
  1
090203
  7
SLDTEXTSTYLE0
 73
     1
 44
1.0
  0
LINE
  5
50
330
1F
100
AcDbEntity
  8
0
  6
Continuous
 62
     7
370
    15
100
AcDbLine
 10
147.1362839677
 20
233.863350272
 30
0.0
 11
147.1362839677
 21
223.8633504955
 31
0.0
  0
LINE
  5
51
330
1F
100
AcDbEntity
  8
0
  6
Continuous
 62
     7
370
    15
100
AcDbLine
 10
156.6362831966
 20
237.3633508457
 30
0.0
 11
155.2862836272
 21
237.3633508457
 31
0.0
  0
LINE
  5
52
330
1F
100
AcDbEntity
  8
0
  6
Continuous
 62
     7
370
    15
100
AcDbLine
 10
155.2862836272
 20
220.3633499218
 30
0.0
 11
156.6362831966
 21
220.3633499218
 31
0.0
  0
LINE
  5
53
330
1F
100
AcDbEntity
  8
0
  6
Continuous
 62
     7
370
    15
100
AcDbLine
 10
63.5862801448
 20
218.8633506072
 30
0.0
 11
65.3862808124
 21
218.8633506072
 31
0.0
  0
LINE
  5
54
330
1F
100
AcDbEntity
  8
0
  6
Continuous
 62
     7
370
    15
100
AcDbLine
 10
65.3862808124
 20
238.8633501602
 30
0.0
 11
63.5862801448
 21
238.8633501602
 31
0.0
  0
LINE
  5
55
330
1F
100
AcDbEntity
  8
0
  6
Continuous
 62
     7
370
    15
100
AcDbLine
 10
63.5862801448
 20
238.8633501602
 30
0.0
 11
63.3862842098
 21
238.6633505
 31
0.0
  0
LINE
  5
56
330
1F
100
AcDbEntity
  8
0
  6
Continuous
 62
     7
370
    15
100
AcDbLine
 10
63.3862842098
 20
219.0633502675
 30
0.0
 11
63.5862801448
 21
218.8633506072
 31
0.0
  0
LINE
  5
57
330
1F
100
AcDbEntity
  8
0
  6
Continuous
 62
     7
370
    15
100
AcDbLine
 10
153.0362837241
 20
218.1790371312
 30
0.0
 11
153.0362837241
 21
218.3633505253
 31
0.0
  0
LINE
  5
58
330
1F
100
AcDbEntity
  8
0
  6
Continuous
 62
     7
370
    15
100
AcDbLine
 10
148.5362839178
 20
218.3633505253
 30
0.0
 11
148.5362839178
 21
218.1790371312
 31
0.0
  0
ARC
  5
59
330
1F
100
AcDbEntity
  8
0
  6
Continuous
 62
     7
370
    15
100
AcDbCircle
 10
150.7862837926
 20
220.1633503837
 30
0.0
 40
3.000000000000006
100
AcDbArc
 50
221.4096221093
 51
250.2798766506
  0
ARC
  5
5A
330
1F
100
AcDbEntity
  8
0
  6
Continuous
 62
     7
370
    15
100
AcDbCircle
 10
150.7862837926
 20
220.1633503837
 30
0.0
 40
2.999999999999995
100
AcDbArc
 50
289.7201233494
 51
318.5903778907
  0
ARC
  5
5B
330
1F
100
AcDbEntity
  8
0
  6
Continuous
 62
     7
370
    15
100
AcDbCircle
 10
150.7862837926
 20
237.5633503837
 30
0.0
 40
3.000000000000024
100
AcDbArc
 50
104.102493234
 51
138.5903778907
  0
ARC
  5
5C
330
1F
100
AcDbEntity
  8
0
  6
Continuous
 62
     7
370
    15
100
AcDbCircle
 10
150.7862837926
 20
237.5633503837
 30
0.0
 40
3.00000000000002
100
AcDbArc
 50
41.4096221093
 51
75.897506766
  0
LINE
  5
5D
330
1F
100
AcDbEntity
  8
0
  6
Continuous
 62
     7
370
    15
100
AcDbLine
 10
148.5362839178
 20
239.5476636363
 30
0.0
 11
148.5362839178
 21
239.3633502422
 31
0.0
  0
LINE
  5
5E
330
1F
100
AcDbEntity
  8
0
  6
Continuous
 62
     7
370
    15
100
AcDbLine
 10
153.0362837241
 20
239.3633502422
 30
0.0
 11
153.0362837241
 21
239.5476636363
 31
0.0
  0
LINE
  5
5F
330
1F
100
AcDbEntity
  8
0
  6
Continuous
 62
     7
370
    15
100
AcDbLine
 10
154.5362839699
 20
233.863350272
 30
0.0
 11
154.5362839699
 21
234.6133503949
 31
0.0
  0
LINE
  5
60
330
1F
100
AcDbEntity
  8
0
  6
Continuous
 62
     7
370
    15
100
AcDbLine
 10
147.0362836719
 20
234.6133503949
 30
0.0
 11
147.0362836719
 21
233.863350272
 31
0.0
  0
LINE
  5
61
330
1F
100
AcDbEntity
  8
0
  6
Continuous
 62
     7
370
    15
100
AcDbLine
 10
140.3862837926
 20
238.8633501602
 30
0.0
 11
65.3862808124
 21
238.8633501602
 31
0.0
  0
LINE
  5
62
330
1F
100
AcDbEntity
  8
0
  6
Continuous
 62
     7
370
    15
100
AcDbLine
 10
65.3862808124
 20
218.8633506072
 30
0.0
 11
140.3862837926
 21
218.8633506072
 31
0.0
  0
LINE
  5
63
330
1F
100
AcDbEntity
  8
0
  6
Continuous
 62
     7
370
    15
100
AcDbLine
 10
153.7862833813
 20
218.3633505253
 30
0.0
 11
153.7862833813
 21
218.8633506072
 31
0.0
  0
LINE
  5
64
330
1F
100
AcDbEntity
  8
0
  6
Continuous
 62
     7
370
    15
100
AcDbLine
 10
147.7862837948
 20
218.8633506072
 30
0.0
 11
147.7862837948
 21
218.3633505253
 31
0.0
  0
LINE
  5
65
330
1F
100
AcDbEntity
  8
0
  6
Continuous
 62
     7
370
    15
100
AcDbLine
 10
153.7862833813
 20
238.8633501602
 30
0.0
 11
153.7862833813
 21
239.3633502422
 31
0.0
  0
LINE
  5
66
330
1F
100
AcDbEntity
  8
0
  6
Continuous
 62
     7
370
    15
100
AcDbLine
 10
147.7862837948
 20
239.3633502422
 30
0.0
 11
147.7862837948
 21
238.8633501602
 31
0.0
  0
LINE
  5
67
330
1F
100
AcDbEntity
  8
0
  6
Continuous
 62
     7
370
    15
100
AcDbLine
 10
147.0362836719
 20
223.8633504955
 30
0.0
 11
147.0362836719
 21
223.1133503725
 31
0.0
  0
LINE
  5
68
330
1F
100
AcDbEntity
  8
0
  6
Continuous
 62
     7
370
    15
100
AcDbLine
 10
154.5362839699
 20
223.1133503725
 30
0.0
 11
154.5362839699
 21
223.8633504955
 31
0.0
  0
LINE
  5
69
330
1F
100
AcDbEntity
  8
0
  6
Continuous
 62
     7
370
    15
100
AcDbLine
 10
53.386286296
 20
230.6133504377
 30
0.0
 11
50.8862812296
 21
230.3633503968
 31
0.0
  0
LINE
  5
6A
330
1F
100
AcDbEntity
  8
0
  6
Continuous
 62
     7
370
    15
100
AcDbLine
 10
50.8862812296
 20
227.3633503707
 30
0.0
 11
53.386286296
 21
227.1133503297
 31
0.0
  0
LINE
  5
6B
330
1F
100
AcDbEntity
  8
0
  6
Continuous
 62
     7
370
    15
100
AcDbLine
 10
55.8862839118
 20
230.6133504377
 30
0.0
 11
53.386286296
 21
230.3633503968
 31
0.0
  0
LINE
  5
6C
330
1F
100
AcDbEntity
  8
0
  6
Continuous
 62
     7
370
    15
100
AcDbLine
 10
53.386286296
 20
227.3633503707
 30
0.0
 11
55.8862839118
 21
227.1133503297
 31
0.0
  0
LINE
  5
6D
330
1F
100
AcDbEntity
  8
0
  6
Continuous
 62
     7
370
    15
100
AcDbLine
 10
55.8862839118
 20
227.2633504241
 30
0.0
 11
57.8862805143
 21
227.2633504241
 31
0.0
  0
LINE
  5
6E
330
1F
100
AcDbEntity
  8
0
  6
Continuous
 62
     7
370
    15
100
AcDbLine
 10
57.8862805143
 20
230.4633503433
 30
0.0
 11
55.8862839118
 21
230.4633503433
 31
0.0
  0
LINE
  5
6F
330
1F
100
AcDbEntity
  8
0
  6
Continuous
 62
     7
370
    15
100
AcDbLine
 10
156.6362831966
 20
219.3633506892
 30
0.0
 11
158.7362833545
 21
219.3633506892
 31
0.0
  0
LINE
  5
70
330
1F
100
AcDbEntity
  8
0
  6
Continuous
 62
     7
370
    15
100
AcDbLine
 10
156.6362831966
 20
223.8633504955
 30
0.0
 11
156.6362831966
 21
219.3633506892
 31
0.0
  0
LINE
  5
71
330
1F
100
AcDbEntity
  8
0
  6
Continuous
 62
     7
370
    15
100
AcDbLine
 10
152.1325748638
 20
223.8633504955
 30
0.0
 11
156.6362831966
 21
223.8633504955
 31
0.0
  0
LINE
  5
72
330
1F
100
AcDbEntity
  8
0
  6
Continuous
 62
     7
370
    15
100
AcDbLine
 10
150.6362840757
 20
233.863350272
 30
0.0
 11
150.6362840757
 21
223.8633504955
 31
0.0
  0
LINE
  5
73
330
1F
100
AcDbEntity
  8
0
  6
Continuous
 62
     7
370
    15
100
AcDbLine
 10
152.1325748638
 20
233.863350272
 30
0.0
 11
156.6362831966
 21
233.863350272
 31
0.0
  0
LINE
  5
74
330
1F
100
AcDbEntity
  8
0
  6
Continuous
 62
     7
370
    15
100
AcDbLine
 10
158.7362833545
 20
238.3633500783
 30
0.0
 11
156.6362831966
 21
238.3633500783
 31
0.0
  0
LINE
  5
75
330
1F
100
AcDbEntity
  8
0
  6
Continuous
 62
     7
370
    15
100
AcDbLine
 10
158.7362833545
 20
219.3633506892
 30
0.0
 11
158.7362833545
 21
238.3633500783
 31
0.0
  0
LINE
  5
76
330
1F
100
AcDbEntity
  8
0
  6
Continuous
 62
     7
370
    15
100
AcDbLine
 10
156.6362831966
 20
238.3633500783
 30
0.0
 11
156.6362831966
 21
233.863350272
 31
0.0
  0
LINE
  5
77
330
1F
100
AcDbEntity
  8
0
  6
Continuous
 62
     7
370
    15
100
AcDbLine
 10
156.6362831966
 20
238.8633501602
 30
0.0
 11
158.7362833545
 21
238.8633501602
 31
0.0
  0
LINE
  5
78
330
1F
100
AcDbEntity
  8
0
  6
Continuous
 62
     7
370
    15
100
AcDbLine
 10
158.7362833545
 20
238.8633501602
 30
0.0
 11
158.7362833545
 21
238.3633500783
 31
0.0
  0
LINE
  5
79
330
1F
100
AcDbEntity
  8
0
  6
Continuous
 62
     7
370
    15
100
AcDbLine
 10
156.6362831966
 20
238.3633500783
 30
0.0
 11
156.6362831966
 21
238.8633501602
 31
0.0
  0
LINE
  5
7A
330
1F
100
AcDbEntity
  8
0
  6
Continuous
 62
     7
370
    15
100
AcDbLine
 10
158.7362833545
 20
218.8633506072
 30
0.0
 11
156.6362831966
 21
218.8633506072
 31
0.0
  0
LINE
  5
7B
330
1F
100
AcDbEntity
  8
0
  6
Continuous
 62
     7
370
    15
100
AcDbLine
 10
158.7362833545
 20
219.3633506892
 30
0.0
 11
158.7362833545
 21
218.8633506072
 31
0.0
  0
LINE
  5
7C
330
1F
100
AcDbEntity
  8
0
  6
Continuous
 62
     7
370
    15
100
AcDbLine
 10
156.6362831966
 20
218.8633506072
 30
0.0
 11
156.6362831966
 21
219.3633506892
 31
0.0
  0
LINE
  5
7D
330
1F
100
AcDbEntity
  8
0
  6
Continuous
 62
     7
370
    15
100
AcDbLine
 10
154.8362834603
 20
233.863350272
 30
0.0
 11
154.8362834603
 21
234.6133503949
 31
0.0
  0
LINE
  5
7E
330
1F
100
AcDbEntity
  8
0
  6
Continuous
 62
     7
370
    15
100
AcDbLine
 10
154.8362834603
 20
223.1133503725
 30
0.0
 11
154.8362834603
 21
223.8633504955
 31
0.0
  0
LINE
  5
7F
330
1F
100
AcDbEntity
  8
0
  6
Continuous
 62
     7
370
    15
100
AcDbLine
 10
146.7862836309
 20
232.4633503219
 30
0.0
 11
147.1362839677
 21
232.4633503219
 31
0.0
  0
LINE
  5
80
330
1F
100
AcDbEntity
  8
0
  6
Continuous
 62
     7
370
    15
100
AcDbLine
 10
146.7862836309
 20
225.2633504456
 30
0.0
 11
147.1362839677
 21
225.2633504456
 31
0.0
  0
LINE
  5
81
330
1F
100
AcDbEntity
  8
0
  6
Continuous
 62
     7
370
    15
100
AcDbLine
 10
146.7862836309
 20
226.8633502887
 30
0.0
 11
147.1362839677
 21
226.8633502887
 31
0.0
  0
LINE
  5
82
330
1F
100
AcDbEntity
  8
0
  6
Continuous
 62
     7
370
    15
100
AcDbLine
 10
65.3862808124
 20
228.8633503837
 30
0.0
 11
65.3862808124
 21
238.8633501602
 31
0.0
  0
LINE
  5
83
330
1F
100
AcDbEntity
  8
0
  6
Continuous
 62
     7
370
    15
100
AcDbLine
 10
65.3862808124
 20
218.8633506072
 30
0.0
 11
65.3862808124
 21
228.8633503837
 31
0.0
  0
LINE
  5
84
330
1F
100
AcDbEntity
  8
0
  6
Continuous
 62
     7
370
    15
100
AcDbLine
 10
63.5862801448
 20
220.8633500037
 30
0.0
 11
63.5862801448
 21
218.8633506072
 31
0.0
  0
LINE
  5
85
330
1F
100
AcDbEntity
  8
0
  6
Continuous
 62
     7
370
    15
100
AcDbLine
 10
63.5862801448
 20
220.8633500037
 30
0.0
 11
61.3862801567
 21
220.8633500037
 31
0.0
  0
LINE
  5
86
330
1F
100
AcDbEntity
  8
0
  6
Continuous
 62
     7
370
    15
100
AcDbLine
 10
61.3862801567
 20
220.8633500037
 30
0.0
 11
61.3862801567
 21
236.8633507637
 31
0.0
  0
LINE
  5
87
330
1F
100
AcDbEntity
  8
0
  6
Continuous
 62
     7
370
    15
100
AcDbLine
 10
63.5862801448
 20
236.8633507637
 30
0.0
 11
61.3862801567
 21
236.8633507637
 31
0.0
  0
LINE
  5
88
330
1F
100
AcDbEntity
  8
0
  6
Continuous
 62
     7
370
    15
100
AcDbLine
 10
63.5862801448
 20
238.8633501602
 30
0.0
 11
63.5862801448
 21
236.8633507637
 31
0.0
  0
SPLINE
  5
89
330
1F
100
AcDbEntity
  8
0
  6
Continuous
 62
     7
370
    15
100
AcDbSpline
210
0.0
220
0.0
230
1.0
 70
    24
 71
     3
 72
     8
 73
     4
 74
     0
 42
0.00000001
 43
0.00000001
 12
1.0
 22
0.0
 32
0.0
 13
1.0
 23
0.0
 33
0.0
 40
0.0
 40
0.0
 40
0.0
 40
0.0
 40
0.0002877909434268
 40
0.0002877909434268
 40
0.0002877909434268
 40
0.0002877909434268
 10
60.58628379259778
 20
236.8633503837255
 30
0.0
 10
60.51960386913967
 20
236.7966704602674
 30
0.0
 10
60.45293697455753
 20
236.7300035656853
 30
0.0
 10
60.38628379259778
 20
236.6633503837255
 30
0.0
  0
SPLINE
  5
8A
330
1F
100
AcDbEntity
  8
0
  6
Continuous
 62
     7
370
    15
100
AcDbSpline
210
0.0
220
0.0
230
1.0
 70
    24
 71
     3
 72
     8
 73
     4
 74
     0
 42
0.00000001
 43
0.00000001
 12
1.0
 22
0.0
 32
0.0
 13
1.0
 23
0.0
 33
0.0
 40
0.0
 40
0.0
 40
0.0
 40
0.0
 40
1.0
 40
1.0
 40
1.0
 40
1.0
 10
60.58628379259778
 20
236.8633503837255
 30
0.0
 10
60.83264952939982
 20
236.8633503837255
 30
0.0
 10
61.10187166302875
 20
236.8633503837255
 30
0.0
 10
61.38628379259778
 20
236.8633503837255
 30
0.0
  0
SPLINE
  5
8B
330
1F
100
AcDbEntity
  8
0
  6
Continuous
 62
     7
370
    15
100
AcDbSpline
210
0.0
220
0.0
230
1.0
 70
    24
 71
     3
 72
     8
 73
     4
 74
     0
 42
0.00000001
 43
0.00000001
 12
1.0
 22
0.0
 32
0.0
 13
1.0
 23
0.0
 33
0.0
 40
0.0
 40
0.0
 40
0.0
 40
0.0
 40
1.0
 40
1.0
 40
1.0
 40
1.0
 10
61.38628379259761
 20
220.8633503837255
 30
0.0
 10
61.10103998687543
 20
220.8633503837255
 30
0.0
 10
60.83183049765313
 20
220.8633503837255
 30
0.0
 10
60.58628379259759
 20
220.8633503837255
 30
0.0
  0
SPLINE
  5
8C
330
1F
100
AcDbEntity
  8
0
  6
Continuous
 62
     7
370
    15
100
AcDbSpline
210
0.0
220
0.0
230
1.0
 70
    24
 71
     3
 72
     8
 73
     4
 74
     0
 42
0.00000001
 43
0.00000001
 12
1.0
 22
0.0
 32
0.0
 13
1.0
 23
0.0
 33
0.0
 40
0.0
 40
0.0
 40
0.0
 40
0.0
 40
0.0002877909434268
 40
0.0002877909434268
 40
0.0002877909434268
 40
0.0002877909434268
 10
60.38628379259761
 20
221.0633503837255
 30
0.0
 10
60.45293697455737
 20
220.9966972017657
 30
0.0
 10
60.5196038691395
 20
220.9300303071836
 30
0.0
 10
60.58628379259762
 20
220.8633503837255
 30
0.0
  0
LINE
  5
8D
330
1F
100
AcDbEntity
  8
0
  6
Continuous
 62
     7
370
    15
100
AcDbLine
 10
60.3862855807
 20
221.0633505953
 30
0.0
 11
60.3862855807
 21
236.6633501721
 31
0.0
  0
LINE
  5
8E
330
1F
100
AcDbEntity
  8
0
  6
Continuous
 62
     7
370
    15
100
AcDbLine
 10
63.3862842098
 20
236.8633507637
 30
0.0
 11
63.3862842098
 21
238.6633505
 31
0.0
  0
LINE
  5
8F
330
1F
100
AcDbEntity
  8
0
  6
Continuous
 62
     7
370
    15
100
AcDbLine
 10
63.3862842098
 20
219.0633502675
 30
0.0
 11
63.3862842098
 21
220.8633500037
 31
0.0
  0
LINE
  5
90
330
1F
100
AcDbEntity
  8
0
  6
Continuous
 62
     7
370
    15
100
AcDbLine
 10
153.0362837241
 20
218.1790371312
 30
0.0
 11
148.5362839178
 21
218.1790371312
 31
0.0
  0
ARC
  5
91
330
1F
100
AcDbEntity
  8
0
  6
Continuous
 62
     7
370
    15
100
AcDbCircle
 10
150.7862837926
 20
220.1633503837
 30
0.0
 40
2.977095900370027
100
AcDbArc
 50
250.3322848816
 51
260.3301084759
  0
LWPOLYLINE
  5
92
330
1F
100
AcDbEntity
  8
0
  6
Continuous
 62
     7
370
    15
100
AcDbPolyline
 90
        5
 70
   128
 43
0.0
 10
149.7740060315
 20
217.3392942993
 10
149.7746505067
 20
217.3405860437
 10
149.7765820697
 20
217.3444603456
 10
149.7797988579
 20
217.3509125484
 10
149.7842980773
 20
217.3599370641
  0
LWPOLYLINE
  5
93
330
1F
100
AcDbEntity
  8
0
  6
Continuous
 62
     7
370
    15
100
AcDbPolyline
 90
        5
 70
   128
 43
0.0
 10
151.7882695646
 20
217.3599370641
 10
151.7927687839
 20
217.3509125484
 10
151.7959855721
 20
217.3444603456
 10
151.7979171351
 20
217.3405860437
 10
151.7985616103
 20
217.3392942993
  0
ARC
  5
94
330
1F
100
AcDbEntity
  8
0
  6
Continuous
 62
     7
370
    15
100
AcDbCircle
 10
150.7862837926
 20
220.1633503837
 30
0.0
 40
2.977095900370036
100
AcDbArc
 50
279.6698915241
 51
289.6677151184
  0
LINE
  5
95
330
1F
100
AcDbEntity
  8
0
  6
Continuous
 62
     7
370
    15
100
AcDbLine
 10
151.2863509581
 20
217.2285535259
 30
0.0
 11
151.1562833786
 21
217.2285535259
 31
0.0
  0
LINE
  5
96
330
1F
100
AcDbEntity
  8
0
  6
Continuous
 62
     7
370
    15
100
AcDbLine
 10
151.1562833786
 20
217.2285535259
 30
0.0
 11
151.1562833786
 21
217.3599370641
 31
0.0
  0
ARC
  5
97
330
1F
100
AcDbEntity
  8
0
  6
Continuous
 62
     7
370
    15
100
AcDbCircle
 10
150.7862833552
 20
220.6651691024
 30
0.0
 40
3.325877154092433
100
AcDbArc
 50
263.6126884462
 51
276.3873115538
  0
LINE
  5
98
330
1F
100
AcDbEntity
  8
0
  6
Continuous
 62
     7
370
    15
100
AcDbLine
 10
150.4162833319
 20
217.3599370641
 30
0.0
 11
150.4162833319
 21
217.2285535259
 31
0.0
  0
LINE
  5
99
330
1F
100
AcDbEntity
  8
0
  6
Continuous
 62
     7
370
    15
100
AcDbLine
 10
150.4162833319
 20
217.2285535259
 30
0.0
 11
150.2862166837
 21
217.2285535259
 31
0.0
  0
ARC
  5
9A
330
1F
100
AcDbEntity
  8
0
  6
Continuous
 62
     7
370
    15
100
AcDbCircle
 10
150.9676181546
 20
238.2855183278
 30
0.0
 40
2.255413655983892
100
AcDbArc
 50
75.8951582698
 51
78.822159005
  0
ARC
  5
9B
330
1F
100
AcDbEntity
  8
0
  6
Continuous
 62
     7
370
    15
100
AcDbCircle
 10
150.5881771635
 20
238.2646066368
 30
0.0
 40
2.276873123396537
100
AcDbArc
 50
70.2885559342
 51
78.8039101885
  0
LINE
  5
9C
330
1F
100
AcDbEntity
  8
0
  6
Continuous
 62
     7
370
    15
100
AcDbLine
 10
151.030271709
 20
240.4981472416
 30
0.0
 11
150.8522615061
 21
240.4981472416
 31
0.0
  0
ARC
  5
9D
330
1F
100
AcDbEntity
  8
0
  6
Continuous
 62
     7
370
    15
100
AcDbCircle
 10
151.1369845081
 20
239.6541408809
 30
0.0
 40
0.890737854077011
100
AcDbArc
 50
108.6416678477
 51
113.1861241923
  0
LINE
  5
9E
330
1F
100
AcDbEntity
  8
0
  6
Continuous
 62
     7
370
    15
100
AcDbLine
 10
150.2140624673
 20
240.4981472416
 30
0.0
 11
150.1677254439
 21
240.4981472416
 31
0.0
  0
ARC
  5
9F
330
1F
100
AcDbEntity
  8
0
  6
Continuous
 62
     7
370
    15
100
AcDbCircle
 10
150.6129938551
 20
238.2523418169
 30
0.0
 40
2.289520902568117
100
AcDbArc
 50
101.2144091235
 51
112.5535375659
  0
ARC
  5
A0
330
1F
100
AcDbEntity
  8
0
  6
Continuous
 62
     7
370
    15
100
AcDbCircle
 10
149.9221408032
 20
239.5279056702
 30
0.0
 40
0.8595105514867262
100
AcDbArc
 50
77.414455793
 51
102.585544207
  0
ARC
  5
A1
330
1F
100
AcDbEntity
  8
0
  6
Continuous
 62
     7
370
    15
100
AcDbCircle
 10
150.9875618921
 20
238.2523436706
 30
0.0
 40
2.289518607445605
100
AcDbArc
 50
101.2143579564
 51
112.5535202145
  0
LINE
  5
A2
330
1F
100
AcDbEntity
  8
0
  6
Continuous
 62
     7
370
    15
100
AcDbLine
 10
150.5422959328
 20
240.4981472416
 30
0.0
 11
150.7203061358
 21
240.4981472416
 31
0.0
  0
ARC
  5
A3
330
1F
100
AcDbEntity
  8
0
  6
Continuous
 62
     7
370
    15
100
AcDbCircle
 10
150.3979464776
 20
239.5634616628
 30
0.0
 40
0.9887127390906211
100
AcDbArc
 50
54.338222468
 51
70.9714199347
  0
ARC
  5
A4
330
1F
100
AcDbEntity
  8
0
  6
Continuous
 62
     7
370
    15
100
AcDbCircle
 10
151.2934643999
 20
237.9111341033
 30
0.0
 40
2.476275618408446
100
AcDbArc
 50
82.5961348109
 51
97.4038651891
  0
ARC
  5
A5
330
1F
100
AcDbEntity
  8
0
  6
Continuous
 62
     7
370
    15
100
AcDbCircle
 10
151.036148522
 20
239.5634715607
 30
0.0
 40
0.9887024020535772
100
AcDbArc
 50
54.3380734274
 51
70.9713975793
  0
LINE
  5
A6
330
1F
100
AcDbEntity
  8
0
  6
Continuous
 62
     7
370
    15
100
AcDbLine
 10
151.3585051746
 20
240.4981472416
 30
0.0
 11
151.4048412666
 21
240.4981472416
 31
0.0
  0
LINE
  5
A7
330
1F
100
AcDbEntity
  8
0
  6
Continuous
 62
     7
370
    15
100
AcDbLine
 10
148.5362839178
 20
239.5476636363
 30
0.0
 11
153.0362837241
 21
239.5476636363
 31
0.0
  0
SPLINE
  5
A8
330
1F
100
AcDbEntity
  8
0
  6
Continuous
 62
     7
370
    15
100
AcDbSpline
210
0.0
220
0.0
230
1.0
 70
     8
 71
     3
 72
     9
 73
     5
 74
     0
 42
0.00000001
 43
0.00000001
 12
1.0
 22
0.0
 32
0.0
 13
1.0
 23
0.0
 33
0.0
 40
0.0
 40
0.0
 40
0.0
 40
0.0
 40
0.7661980044671663
 40
1.0
 40
1.0
 40
1.0
 40
1.0
 10
151.3585051745601
 20
240.4981472415584
 30
0.0
 10
151.3570426690685
 20
240.4645863089939
 30
0.0
 10
151.3551338863739
 20
240.4207844035219
 30
0.0
 10
151.3531236679117
 20
240.3770004735192
 30
0.0
 10
151.3526536748238
 20
240.3667637033122
 30
0.0
  0
SPLINE
  5
A9
330
1F
100
AcDbEntity
  8
0
  6
Continuous
 62
     7
370
    15
100
AcDbSpline
210
0.0
220
0.0
230
1.0
 70
     8
 71
     3
 72
     9
 73
     5
 74
     0
 42
0.00000001
 43
0.00000001
 12
1.0
 22
0.0
 32
0.0
 13
1.0
 23
0.0
 33
0.0
 40
0.0
 40
0.0
 40
0.0
 40
0.0
 40
0.1629985148987061
 40
1.0
 40
1.0
 40
1.0
 40
1.0
 10
150.1768291220494
 20
240.37787531295
 30
0.0
 10
150.1763185877213
 20
240.3844083959832
 30
0.0
 10
150.1731864467422
 20
240.4244890251672
 30
0.0
 10
150.1702136658795
 20
240.4645860076621
 30
0.0
 10
150.1677254438825
 20
240.4981472415584
 30
0.0
  0
SPLINE
  5
AA
330
1F
100
AcDbEntity
  8
0
  6
Continuous
 62
     7
370
    15
100
AcDbSpline
210
0.0
220
0.0
230
1.0
 70
     8
 71
     3
 72
     9
 73
     5
 74
     0
 42
0.00000001
 43
0.00000001
 12
1.0
 22
0.0
 32
0.0
 13
1.0
 23
0.0
 33
0.0
 40
0.0
 40
0.0
 40
0.0
 40
0.0
 40
0.7661980044671663
 40
1.0
 40
1.0
 40
1.0
 40
1.0
 10
150.2140624672599
 20
240.4981472415584
 30
0.0
 10
150.2155249727515
 20
240.4645863089939
 30
0.0
 10
150.2174337554462
 20
240.4207844035219
 30
0.0
 10
150.2194439739083
 20
240.3770004735192
 30
0.0
 10
150.2199139669962
 20
240.3667637033123
 30
0.0
  0
SPLINE
  5
AB
330
1F
100
AcDbEntity
  8
0
  6
Continuous
 62
     7
370
    15
100
AcDbSpline
210
0.0
220
0.0
230
1.0
 70
     8
 71
     3
 72
     9
 73
     5
 74
     0
 42
0.00000001
 43
0.00000001
 12
1.0
 22
0.0
 32
0.0
 13
1.0
 23
0.0
 33
0.0
 40
0.0
 40
0.0
 40
0.0
 40
0.0
 40
0.7142366210130289
 40
1.0
 40
1.0
 40
1.0
 40
1.0
 10
151.0302717090078
 20
240.4981472415584
 30
0.0
 10
151.027777921477
 20
240.4645865562864
 30
0.0
 10
151.0242863789582
 20
240.41759836738
 30
0.0
 10
151.0206087156136
 20
240.3706294102664
 30
0.0
 10
151.0195577741094
 20
240.3572074023741
 30
0.0
  0
SPLINE
  5
AC
330
1F
100
AcDbEntity
  8
0
  6
Continuous
 62
     7
370
    15
100
AcDbSpline
210
0.0
220
0.0
230
1.0
 70
    24
 71
     3
 72
     9
 73
     5
 74
     0
 42
0.00000001
 43
0.00000001
 12
1.0
 22
0.0
 32
0.0
 13
1.0
 23
0.0
 33
0.0
 40
0.0
 40
0.0
 40
0.0
 40
0.0
 40
0.3621235131142621
 40
1.0
 40
1.0
 40
1.0
 40
1.0
 10
147.1362839676863
 20
226.8633502887297
 30
0.0
 10
147.0977328802784
 20
226.8633502887297
 30
0.0
 10
146.9912744869078
 20
226.8633502887297
 30
0.0
 10
146.8661180067769
 20
226.8633502887297
 30
0.0
 10
146.7862836309201
 20
226.8633502887297
 30
0.0
  0
SPLINE
  5
AD
330
1F
100
AcDbEntity
  8
0
  6
Continuous
 62
     7
370
    15
100
AcDbSpline
210
0.0
220
0.0
230
1.0
 70
    24
 71
     3
 72
     9
 73
     5
 74
     0
 42
0.00000001
 43
0.00000001
 12
1.0
 22
0.0
 32
0.0
 13
1.0
 23
0.0
 33
0.0
 40
0.0
 40
0.0
 40
0.0
 40
0.0
 40
0.4028878027484367
 40
1.0
 40
1.0
 40
1.0
 40
1.0
 10
146.7862836309201
 20
230.8633504787195
 30
0.0
 10
146.8367642110109
 20
230.8633504787195
 30
0.0
 10
146.9620610796341
 20
230.8633504787195
 30
0.0
 10
147.0711472717952
 20
230.8633504787195
 30
0.0
 10
147.1362839676864
 20
230.8633504787195
 30
0.0
  0
LINE
  5
AE
330
1F
100
AcDbEntity
  8
0
  6
Continuous
 62
     7
370
    15
100
AcDbLine
 10
153.1257288754
 20
238.3633500783
 30
0.0
 11
140.8862838163
 21
238.3633500783
 31
0.0
  0
LINE
  5
AF
330
1F
100
AcDbEntity
  8
0
  6
Continuous
 62
     7
370
    15
100
AcDbLine
 10
140.8862838163
 20
238.3633500783
 30
0.0
 11
140.8862838163
 21
238.8633501602
 31
0.0
  0
LINE
  5
B0
330
1F
100
AcDbEntity
  8
0
  6
Continuous
 62
     7
370
    15
100
AcDbLine
 10
140.8862838163
 20
238.8633501602
 30
0.0
 11
153.2590616718
 21
238.8633501602
 31
0.0
  0
ELLIPSE
  5
B1
330
1F
100
AcDbEntity
  8
0
  6
Continuous
 62
     7
370
    15
100
AcDbEllipse
 10
153.2590619984
 20
238.3633503837
 30
0.0
 11
0.0
 21
0.5
 31
0.0
210
0.0
220
0.0
230
1.0
 40
0.2666666667
 41
0.0
 42
1.570796326794897
  0
LINE
  5
B2
330
1F
100
AcDbEntity
  8
0
  6
Continuous
 62
     7
370
    15
100
AcDbLine
 10
140.8862838163
 20
238.3633500783
 30
0.0
 11
140.3862837926
 21
238.3633500783
 31
0.0
  0
ARC
  5
B3
330
1F
100
AcDbEntity
  8
0
  6
Continuous
 62
     7
370
    15
100
AcDbCircle
 10
140.8862837926
 20
238.3633503837
 30
0.0
 40
0.5000000000000284
100
AcDbArc
 50
90.0
 51
180.0
  0
LINE
  5
B4
330
1F
100
AcDbEntity
  8
0
  6
Continuous
 62
     7
370
    15
100
AcDbLine
 10
140.8862838163
 20
238.3633500783
 30
0.0
 11
140.8862838163
 21
219.3633506892
 31
0.0
  0
LINE
  5
B5
330
1F
100
AcDbEntity
  8
0
  6
Continuous
 62
     7
370
    15
100
AcDbLine
 10
153.1257288754
 20
234.6133503949
 30
0.0
 11
153.1257288754
 21
238.3633500783
 31
0.0
  0
LINE
  5
B6
330
1F
100
AcDbEntity
  8
0
  6
Continuous
 62
     7
370
    15
100
AcDbLine
 10
146.7862836309
 20
234.6133503949
 30
0.0
 11
153.1257288754
 21
234.6133503949
 31
0.0
  0
LINE
  5
B7
330
1F
100
AcDbEntity
  8
0
  6
Continuous
 62
     7
370
    15
100
AcDbLine
 10
146.7862836309
 20
234.6133503949
 30
0.0
 11
146.7862836309
 21
223.1133503725
 31
0.0
  0
LINE
  5
B8
330
1F
100
AcDbEntity
  8
0
  6
Continuous
 62
     7
370
    15
100
AcDbLine
 10
146.7862836309
 20
223.1133503725
 30
0.0
 11
153.1257288754
 21
223.1133503725
 31
0.0
  0
LINE
  5
B9
330
1F
100
AcDbEntity
  8
0
  6
Continuous
 62
     7
370
    15
100
AcDbLine
 10
153.1257288754
 20
219.3633506892
 30
0.0
 11
153.1257288754
 21
223.1133503725
 31
0.0
  0
LINE
  5
BA
330
1F
100
AcDbEntity
  8
0
  6
Continuous
 62
     7
370
    15
100
AcDbLine
 10
140.8862838163
 20
219.3633506892
 30
0.0
 11
153.1257288754
 21
219.3633506892
 31
0.0
  0
LINE
  5
BB
330
1F
100
AcDbEntity
  8
0
  6
Continuous
 62
     7
370
    15
100
AcDbLine
 10
153.1257288754
 20
238.3633500783
 30
0.0
 11
153.3753438145
 21
238.3633500783
 31
0.0
  0
ARC
  5
BC
330
1F
100
AcDbEntity
  8
0
  6
Continuous
 62
     7
370
    15
100
AcDbCircle
 10
153.2313279548
 20
238.5864274751
 30
0.0
 40
0.2783079815540476
100
AcDbArc
 50
355.2436744154
 51
84.2809161277
  0
ELLIPSE
  5
BD
330
1F
100
AcDbEntity
  8
0
  6
Continuous
 62
     7
370
    15
100
AcDbEllipse
 10
153.5086770867
 20
238.3633503837
 30
0.0
 11
0.0
 21
0.1999999999999886
 31
0.0
210
0.0
220
0.0
230
1.0
 40
0.6666666667
 41
0.0
 42
1.570796326794897
  0
LINE
  5
BE
330
1F
100
AcDbEntity
  8
0
  6
Continuous
 62
     7
370
    15
100
AcDbLine
 10
140.8862838163
 20
219.3633506892
 30
0.0
 11
140.3862837926
 21
219.3633506892
 31
0.0
  0
LINE
  5
BF
330
1F
100
AcDbEntity
  8
0
  6
Continuous
 62
     7
370
    15
100
AcDbLine
 10
140.3862837926
 20
219.3633506892
 30
0.0
 11
140.3862837926
 21
238.3633500783
 31
0.0
  0
LINE
  5
C0
330
1F
100
AcDbEntity
  8
0
  6
Continuous
 62
     7
370
    15
100
AcDbLine
 10
153.3753438145
 20
238.3633500783
 30
0.0
 11
153.3753438145
 21
234.6133503949
 31
0.0
  0
LINE
  5
C1
330
1F
100
AcDbEntity
  8
0
  6
Continuous
 62
     7
370
    15
100
AcDbLine
 10
153.3753438145
 20
234.6133503949
 30
0.0
 11
153.1257288754
 21
234.6133503949
 31
0.0
  0
LINE
  5
C2
330
1F
100
AcDbEntity
  8
0
  6
Continuous
 62
     7
370
    15
100
AcDbLine
 10
153.3753438145
 20
223.1133503725
 30
0.0
 11
153.3753438145
 21
219.3633506892
 31
0.0
  0
LINE
  5
C3
330
1F
100
AcDbEntity
  8
0
  6
Continuous
 62
     7
370
    15
100
AcDbLine
 10
153.3753438145
 20
219.3633506892
 30
0.0
 11
153.1257288754
 21
219.3633506892
 31
0.0
  0
LINE
  5
C4
330
1F
100
AcDbEntity
  8
0
  6
Continuous
 62
     7
370
    15
100
AcDbLine
 10
153.1257288754
 20
223.1133503725
 30
0.0
 11
153.3753438145
 21
223.1133503725
 31
0.0
  0
LINE
  5
C5
330
1F
100
AcDbEntity
  8
0
  6
Continuous
 62
     7
370
    15
100
AcDbLine
 10
140.8862838163
 20
219.3633506892
 30
0.0
 11
140.8862838163
 21
218.8633506072
 31
0.0
  0
ARC
  5
C6
330
1F
100
AcDbEntity
  8
0
  6
Continuous
 62
     7
370
    15
100
AcDbCircle
 10
140.8862837926
 20
219.3633503837
 30
0.0
 40
0.5
100
AcDbArc
 50
180.0
 51
270.0
  0
ELLIPSE
  5
C7
330
1F
100
AcDbEntity
  8
0
  6
Continuous
 62
     7
370
    15
100
AcDbEllipse
 10
153.2590619984
 20
219.3633503837
 30
0.0
 11
0.0
 21
0.5
 31
0.0
210
0.0
220
0.0
230
1.0
 40
0.2666666667
 41
1.570796326794897
 42
3.14159265358958
  0
LINE
  5
C8
330
1F
100
AcDbEntity
  8
0
  6
Continuous
 62
     7
370
    15
100
AcDbLine
 10
153.2590616718
 20
218.8633506072
 30
0.0
 11
140.8862838163
 21
218.8633506072
 31
0.0
  0
ELLIPSE
  5
C9
330
1F
100
AcDbEntity
  8
0
  6
Continuous
 62
     7
370
    15
100
AcDbEllipse
 10
153.5086770867
 20
219.3633503837
 30
0.0
 11
0.0
 21
0.2000000000000171
 31
0.0
210
0.0
220
0.0
230
1.0
 40
0.6666666667
 41
1.570796326794897
 42
3.141592653589793
  0
ARC
  5
CA
330
1F
100
AcDbEntity
  8
0
  6
Continuous
 62
     7
370
    15
100
AcDbCircle
 10
153.2313279548
 20
219.1402732924
 30
0.0
 40
0.2783079815540476
100
AcDbArc
 50
275.7190838723
 51
4.7563255846
  0
LINE
  5
CB
330
1F
100
AcDbEntity
  8
0
  6
Continuous
 62
     7
370
    15
100
AcDbLine
 10
155.2358990759
 20
238.5633506698
 30
0.0
 11
153.5086775423
 21
238.5633506698
 31
0.0
  0
LINE
  5
CC
330
1F
100
AcDbEntity
  8
0
  6
Continuous
 62
     7
370
    15
100
AcDbLine
 10
155.2358990759
 20
234.6133503949
 30
0.0
 11
155.2358990759
 21
238.5633506698
 31
0.0
  0
LINE
  5
CD
330
1F
100
AcDbEntity
  8
0
  6
Continuous
 62
     7
370
    15
100
AcDbLine
 10
155.2358990759
 20
234.6133503949
 30
0.0
 11
153.3753438145
 21
234.6133503949
 31
0.0
  0
LINE
  5
CE
330
1F
100
AcDbEntity
  8
0
  6
Continuous
 62
     7
370
    15
100
AcDbLine
 10
155.2358990759
 20
219.1633500976
 30
0.0
 11
155.2358990759
 21
223.1133503725
 31
0.0
  0
LINE
  5
CF
330
1F
100
AcDbEntity
  8
0
  6
Continuous
 62
     7
370
    15
100
AcDbLine
 10
153.5086775423
 20
219.1633500976
 30
0.0
 11
155.2358990759
 21
219.1633500976
 31
0.0
  0
LINE
  5
D0
330
1F
100
AcDbEntity
  8
0
  6
Continuous
 62
     7
370
    15
100
AcDbLine
 10
153.3753438145
 20
223.1133503725
 30
0.0
 11
155.2358990759
 21
223.1133503725
 31
0.0
  0
LINE
  5
D1
330
1F
100
AcDbEntity
  8
0
  6
Continuous
 62
     7
370
    15
100
AcDbLine
 10
153.2590616718
 20
238.8633501602
 30
0.0
 11
154.9862841368
 21
238.8633501602
 31
0.0
  0
ARC
  5
D2
330
1F
100
AcDbEntity
  8
0
  6
Continuous
 62
     7
370
    15
100
AcDbCircle
 10
154.9585493155
 20
238.5864274173
 30
0.0
 40
0.2783081491007916
100
AcDbArc
 50
355.2436892242
 51
84.2806911097
  0
LINE
  5
D3
330
1F
100
AcDbEntity
  8
0
  6
Continuous
 62
     7
370
    15
100
AcDbLine
 10
154.9862841368
 20
218.8633506072
 30
0.0
 11
153.2590616718
 21
218.8633506072
 31
0.0
  0
ARC
  5
D4
330
1F
100
AcDbEntity
  8
0
  6
Continuous
 62
     7
370
    15
100
AcDbCircle
 10
154.9585493155
 20
219.1402733502
 30
0.0
 40
0.2783081491007657
100
AcDbArc
 50
275.7193088903
 51
4.7563107759
  0
ARC
  5
D5
330
1F
100
AcDbEntity
  8
0
  6
Continuous
 62
     7
370
    15
100
AcDbCircle
 10
154.9862837926
 20
238.5633503837
 30
0.0
 40
0.3000000000000398
100
AcDbArc
 50
0.0
 51
90.0
  0
LINE
  5
D6
330
1F
100
AcDbEntity
  8
0
  6
Continuous
 62
     7
370
    15
100
AcDbLine
 10
155.2862836272
 20
238.5633506698
 30
0.0
 11
155.2358990759
 21
238.5633506698
 31
0.0
  0
LINE
  5
D7
330
1F
100
AcDbEntity
  8
0
  6
Continuous
 62
     7
370
    15
100
AcDbLine
 10
155.2862836272
 20
238.5633506698
 30
0.0
 11
155.2862836272
 21
234.6133503949
 31
0.0
  0
LINE
  5
D8
330
1F
100
AcDbEntity
  8
0
  6
Continuous
 62
     7
370
    15
100
AcDbLine
 10
155.2862836272
 20
234.6133503949
 30
0.0
 11
155.2358990759
 21
234.6133503949
 31
0.0
  0
LINE
  5
D9
330
1F
100
AcDbEntity
  8
0
  6
Continuous
 62
     7
370
    15
100
AcDbLine
 10
155.2862836272
 20
223.1133503725
 30
0.0
 11
155.2862836272
 21
219.1633500976
 31
0.0
  0
LINE
  5
DA
330
1F
100
AcDbEntity
  8
0
  6
Continuous
 62
     7
370
    15
100
AcDbLine
 10
155.2358990759
 20
219.1633500976
 30
0.0
 11
155.2862836272
 21
219.1633500976
 31
0.0
  0
LINE
  5
DB
330
1F
100
AcDbEntity
  8
0
  6
Continuous
 62
     7
370
    15
100
AcDbLine
 10
155.2358990759
 20
223.1133503725
 30
0.0
 11
155.2862836272
 21
223.1133503725
 31
0.0
  0
ARC
  5
DC
330
1F
100
AcDbEntity
  8
0
  6
Continuous
 62
     7
370
    15
100
AcDbCircle
 10
154.9862837926
 20
219.1633503837
 30
0.0
 40
0.3000000000000114
100
AcDbArc
 50
270.0
 51
0.0
  0
LINE
  5
DD
330
1F
100
AcDbEntity
  8
0
  6
Continuous
 62
     7
370
    15
100
AcDbLine
 10
149.5265489668
 20
233.863350272
 30
0.0
 11
147.0362836719
 21
233.863350272
 31
0.0
  0
LINE
  5
DE
330
1F
100
AcDbEntity
  8
0
  6
Continuous
 62
     7
370
    15
100
AcDbLine
 10
152.1325748638
 20
233.863350272
 30
0.0
 11
149.5265489668
 21
233.863350272
 31
0.0
  0
LINE
  5
DF
330
1F
100
AcDbEntity
  8
0
  6
Continuous
 62
     7
370
    15
100
AcDbLine
 10
140.3862837926
 20
219.3633506892
 30
0.0
 11
140.3862837926
 21
218.8633506072
 31
0.0
  0
LINE
  5
E0
330
1F
100
AcDbEntity
  8
0
  6
Continuous
 62
     7
370
    15
100
AcDbLine
 10
140.3862837926
 20
238.8633501602
 30
0.0
 11
140.3862837926
 21
238.3633500783
 31
0.0
  0
LINE
  5
E1
330
1F
100
AcDbEntity
  8
0
  6
Continuous
 62
     7
370
    15
100
AcDbLine
 10
65.3862808124
 20
238.1037504298
 30
0.0
 11
65.3862808124
 21
218.8633506072
 31
0.0
  0
LINE
  5
E2
330
1F
100
AcDbEntity
  8
0
  6
Continuous
 62
     7
370
    15
100
AcDbLine
 10
65.3862808124
 20
238.8633501602
 30
0.0
 11
65.3862808124
 21
238.1037504298
 31
0.0
  0
LINE
  5
E3
330
1F
100
AcDbEntity
  8
0
  6
Continuous
 62
     7
370
    15
100
AcDbLine
 10
153.7689030394
 20
218.3633505253
 30
0.0
 11
153.7862833813
 21
218.3633505253
 31
0.0
  0
LINE
  5
E4
330
1F
100
AcDbEntity
  8
0
  6
Continuous
 62
     7
370
    15
100
AcDbLine
 10
147.7862837948
 20
218.3633505253
 30
0.0
 11
153.7689030394
 21
218.3633505253
 31
0.0
  0
LINE
  5
E5
330
1F
100
AcDbEntity
  8
0
  6
Continuous
 62
     7
370
    15
100
AcDbLine
 10
153.7689030394
 20
239.3633502422
 30
0.0
 11
153.7862833813
 21
239.3633502422
 31
0.0
  0
LINE
  5
E6
330
1F
100
AcDbEntity
  8
0
  6
Continuous
 62
     7
370
    15
100
AcDbLine
 10
147.7862837948
 20
239.3633502422
 30
0.0
 11
153.7689030394
 21
239.3633502422
 31
0.0
  0
LINE
  5
E7
330
1F
100
AcDbEntity
  8
0
  6
Continuous
 62
     7
370
    15
100
AcDbLine
 10
147.0362836719
 20
223.8633504955
 30
0.0
 11
152.1325748638
 21
223.8633504955
 31
0.0
  0
LINE
  5
E8
330
1F
100
AcDbEntity
  8
0
  6
Continuous
 62
     7
370
    15
100
AcDbLine
 10
60.3862855807
 20
228.5264050649
 30
0.0
 11
57.8862805143
 21
228.5264050649
 31
0.0
  0
LINE
  5
E9
330
1F
100
AcDbEntity
  8
0
  6
Continuous
 62
     7
370
    15
100
AcDbLine
 10
60.3862855807
 20
232.1901210004
 30
0.0
 11
57.8862805143
 21
232.1901210004
 31
0.0
  0
LINE
  5
EA
330
1F
100
AcDbEntity
  8
0
  6
Continuous
 62
     7
370
    15
100
AcDbLine
 10
57.8862805143
 20
228.5264050649
 30
0.0
 11
57.8862805143
 21
232.1901210004
 31
0.0
  0
LINE
  5
EB
330
1F
100
AcDbEntity
  8
0
  6
Continuous
 62
     7
370
    15
100
AcDbLine
 10
60.3862855807
 20
225.1996344773
 30
0.0
 11
57.8862805143
 21
225.1996344773
 31
0.0
  0
LINE
  5
EC
330
1F
100
AcDbEntity
  8
0
  6
Continuous
 62
     7
370
    15
100
AcDbLine
 10
57.8862805143
 20
225.1996344773
 30
0.0
 11
57.8862805143
 21
228.5264050649
 31
0.0
  0
LINE
  5
ED
330
1F
100
AcDbEntity
  8
0
  6
Continuous
 62
     7
370
    15
100
AcDbLine
 10
57.8862805143
 20
232.5270662902
 30
0.0
 11
60.3862855807
 21
232.5270662902
 31
0.0
  0
LINE
  5
EE
330
1F
100
AcDbEntity
  8
0
  6
Continuous
 62
     7
370
    15
100
AcDbLine
 10
57.8862805143
 20
232.1901210004
 30
0.0
 11
57.8862805143
 21
232.5270662902
 31
0.0
  0
LINE
  5
EF
330
1F
100
AcDbEntity
  8
0
  6
Continuous
 62
     7
370
    15
100
AcDbLine
 10
53.386286296
 20
230.3008438673
 30
0.0
 11
53.386286296
 21
230.6133504377
 31
0.0
  0
LINE
  5
F0
330
1F
100
AcDbEntity
  8
0
  6
Continuous
 62
     7
370
    15
100
AcDbLine
 10
53.386286296
 20
227.1133503297
 30
0.0
 11
53.386286296
 21
230.3008438673
 31
0.0
  0
LINE
  5
F1
330
1F
100
AcDbEntity
  8
0
  6
Continuous
 62
     7
370
    15
100
AcDbLine
 10
50.8862812296
 20
227.3633503707
 30
0.0
 11
50.8862812296
 21
230.3633503968
 31
0.0
  0
LINE
  5
F2
330
1F
100
AcDbEntity
  8
0
  6
Continuous
 62
     7
370
    15
100
AcDbLine
 10
55.8862839118
 20
227.1133503297
 30
0.0
 11
55.8862839118
 21
230.3008438673
 31
0.0
  0
LINE
  5
F3
330
1F
100
AcDbEntity
  8
0
  6
Continuous
 62
     7
370
    15
100
AcDbLine
 10
55.8862839118
 20
230.3008438673
 30
0.0
 11
55.8862839118
 21
230.6133504377
 31
0.0
  0
LINE
  5
F4
330
1F
100
AcDbEntity
  8
0
  6
Continuous
 62
     7
370
    15
100
AcDbLine
 10
155.2862836272
 20
235.4189057721
 30
0.0
 11
156.6362831966
 21
235.4189057721
 31
0.0
  0
LINE
  5
F5
330
1F
100
AcDbEntity
  8
0
  6
Continuous
 62
     7
370
    15
100
AcDbLine
 10
156.6362831966
 20
222.3077949954
 30
0.0
 11
155.2862836272
 21
222.3077949954
 31
0.0
  0
DIMENSION
  5
F6
330
1F
100
AcDbEntity
  8
0
  6
Continuous
 62
     7
370
     0
100
AcDbDimension
  2
_D
 10
65.3862837926
 20
248.44849362
 30
0.0
 11
63.2306105706
 21
248.44849362
 31
0.0
 70
   160
  1
<>
 71
     2
 42
-1.0
  3
SLDDIMSTYLE0
100
AcDbAlignedDimension
 13
60.3862837926
 23
236.6633503837
 33
0.0
 14
65.3862837926
 24
238.8633503837
 34
0.0
 50
0.0
100
AcDbRotatedDimension
  0
DIMENSION
  5
104
330
1F
100
AcDbEntity
  8
0
  6
Continuous
 62
     7
370
     0
100
AcDbDimension
  2
_D_1
 10
140.3862837926
 20
248.44849362
 30
0.0
 11
103.7627970849
 21
248.44849362
 31
0.0
 70
   160
  1
<>
 71
     2
 42
-1.0
  3
SLDDIMSTYLE1
100
AcDbAlignedDimension
 13
65.3862837926
 23
238.8633503837
 33
0.0
 14
140.3862837926
 24
238.3633503837
 34
0.0
 50
0.0
100
AcDbRotatedDimension
  0
DIMENSION
  5
10F
330
1F
100
AcDbEntity
  8
0
  6
Continuous
 62
     7
370
     0
100
AcDbDimension
  2
_D_2
 10
60.3862837926
 20
257.9519982796
 30
0.0
 11
103.7627970849
 21
257.9519982796
 31
0.0
 70
   160
  1
<>
 71
     2
 42
-1.0
  3
SLDDIMSTYLE2
100
AcDbAlignedDimension
 13
155.2862837926
 23
238.5633503837
 33
0.0
 14
60.3862837926
 24
236.6633503837
 34
0.0
 50
0.0
100
AcDbRotatedDimension
  0
DIMENSION
  5
11A
330
1F
100
AcDbEntity
  8
0
  6
Continuous
 62
     7
370
     0
100
AcDbDimension
  2
_D_3
 10
168.7362837926
 20
218.8633503837
 30
0.0
 11
168.7362837926
 21
228.8633503837
 31
0.0
 70
   160
  1
<>
 71
     2
 42
-1.0
  3
SLDDIMSTYLE1
100
AcDbAlignedDimension
 13
158.7362837926
 23
238.8633503837
 33
0.0
 14
158.7362837926
 24
218.8633503837
 34
0.0
 50
90.0
100
AcDbRotatedDimension
  0
DIMENSION
  5
124
330
1F
100
AcDbEntity
  8
0
  6
Continuous
 62
     7
370
     0
100
AcDbDimension
  2
_D_4
 10
179.535026614
 20
217.2285534405
 30
0.0
 11
179.535026614
 21
228.8633503837
 31
0.0
 70
   160
  1
(<>)
 71
     2
 42
-1.0
  3
SLDDIMSTYLE2
100
AcDbAlignedDimension
 13
151.3585047124
 23
240.4981473269
 33
0.0
 14
151.1562837926
 24
217.2285534405
 34
0.0
 50
90.0
100
AcDbRotatedDimension
  0
DIMENSION
  5
130
330
1F
100
AcDbEntity
  8
0
  6
Continuous
 62
     7
370
     0
100
AcDbDimension
  2
_D_5
 10
50.8862837926
 20
265.6314089661
 30
0.0
 11
103.7627970849
 21
265.6314089661
 31
0.0
 70
   160
  1
(<>)
 71
     2
 42
-1.0
  3
SLDDIMSTYLE3
100
AcDbAlignedDimension
 13
158.7362837926
 23
238.8633503837
 33
0.0
 14
50.8862837926
 24
230.3633503837
 34
0.0
 50
0.0
100
AcDbRotatedDimension
  0
DIMENSION
  5
13D
330
1F
100
AcDbEntity
  8
0
  6
Continuous
 62
     7
370
     0
100
AcDbDimension
  2
_D_6
 10
158.7362837926
 20
257.9519982796
 30
0.0
 11
166.1685376013
 21
257.9519982796
 31
0.0
 70
   160
  1
<>
 71
     2
 42
-1.0
  3
SLDDIMSTYLE0
100
AcDbAlignedDimension
 13
155.2862837926
 23
238.5633503837
 33
0.0
 14
158.7362837926
 24
238.8633503837
 34
0.0
 50
0.0
100
AcDbRotatedDimension
  0
MTEXT
  5
149
330
1F
100
AcDbEntity
  8
0
  6
Continuous
 62
     7
370
     0
100
AcDbMText
 10
38.3473627879
 20
261.4380409464
 30
0.0
 40
3.5
 41
0.0
 71
     1
 72
     1
  1
BF-5
  7
SLDTEXTSTYLE1
 73
     1
 44
1.0
  0
LEADER
  5
14B
330
1F
100
AcDbEntity
  8
0
  6
Continuous
 62
     7
370
     0
100
AcDbLeader
  3
SLDDIMSTYLE4
 76
     3
 10
54.9907958718
 20
230.5238015916
 30
0.0
 10
47.8317865429
 20
256.8445475638
 30
0.0
 10
38.283062645
 20
256.8445475638
 30
0.0
  0
LINE
  5
14C
330
1F
100
AcDbEntity
  8
0
  6
CENTERX2
 62
     7
370
     0
100
AcDbLine
 10
50.0076201886
 20
228.8633503837
 30
0.0
 11
161.3747434835
 21
228.8633503837
 31
0.0
  0
ARC
  5
14D
330
1F
100
AcDbEntity
  8
0
  6
Continuous
 62
     7
370
    15
100
AcDbCircle
 10
39.1366628675
 20
220.1633503837
 30
0.0
 40
2.999999999999986
100
AcDbArc
 50
289.7201233494
 51
318.5903778907
  0
ARC
  5
14E
330
1F
100
AcDbEntity
  8
0
  6
Continuous
 62
     7
370
    15
100
AcDbCircle
 10
39.1366628675
 20
220.1633503837
 30
0.0
 40
2.999999999999986
100
AcDbArc
 50
221.4096221093
 51
250.2798766506
  0
LINE
  5
14F
330
1F
100
AcDbEntity
  8
0
  6
Continuous
 62
     7
370
    15
100
AcDbLine
 10
41.3866637765
 20
218.1790371312
 30
0.0
 11
41.3866637765
 21
218.3633505253
 31
0.0
  0
LINE
  5
150
330
1F
100
AcDbEntity
  8
0
  6
Continuous
 62
     7
370
    15
100
AcDbLine
 10
36.8866630389
 20
218.3633505253
 30
0.0
 11
36.8866630389
 21
218.1790371312
 31
0.0
  0
LINE
  5
151
330
1F
100
AcDbEntity
  8
0
  6
Continuous
 62
     7
370
    15
100
AcDbLine
 10
36.8866630389
 20
239.5476636363
 30
0.0
 11
36.8866630389
 21
239.3633502422
 31
0.0
  0
LINE
  5
152
330
1F
100
AcDbEntity
  8
0
  6
Continuous
 62
     7
370
    15
100
AcDbLine
 10
41.3866637765
 20
239.3633502422
 30
0.0
 11
41.3866637765
 21
239.5476636363
 31
0.0
  0
ARC
  5
153
330
1F
100
AcDbEntity
  8
0
  6
Continuous
 62
     7
370
    15
100
AcDbCircle
 10
39.1366628675
 20
237.5633503837
 30
0.0
 40
3.000000000000005
100
AcDbArc
 50
41.4096221093
 51
75.897506766
  0
ARC
  5
154
330
1F
100
AcDbEntity
  8
0
  6
Continuous
 62
     7
370
    15
100
AcDbCircle
 10
39.1366628675
 20
237.5633503837
 30
0.0
 40
3.000000000000014
100
AcDbArc
 50
104.102493234
 51
138.5903778907
  0
LINE
  5
155
330
1F
100
AcDbEntity
  8
0
  6
Continuous
 62
     7
370
    15
100
AcDbLine
 10
42.1366634338
 20
218.3633505253
 30
0.0
 11
42.1366634338
 21
218.8633506072
 31
0.0
  0
LINE
  5
156
330
1F
100
AcDbEntity
  8
0
  6
Continuous
 62
     7
370
    15
100
AcDbLine
 10
36.1366624503
 20
218.8633506072
 30
0.0
 11
36.1366624503
 21
218.3633505253
 31
0.0
  0
LINE
  5
157
330
1F
100
AcDbEntity
  8
0
  6
Continuous
 62
     7
370
    15
100
AcDbLine
 10
42.1366634338
 20
238.8633501602
 30
0.0
 11
42.1366634338
 21
239.3633502422
 31
0.0
  0
LINE
  5
158
330
1F
100
AcDbEntity
  8
0
  6
Continuous
 62
     7
370
    15
100
AcDbLine
 10
36.1366624503
 20
239.3633502422
 30
0.0
 11
36.1366624503
 21
238.8633501602
 31
0.0
  0
LINE
  5
159
330
1F
100
AcDbEntity
  8
0
  6
Continuous
 62
     7
370
    15
100
AcDbLine
 10
22.1366628913
 20
219.3633506892
 30
0.0
 11
22.636662915
 21
218.8633506072
 31
0.0
  0
LINE
  5
15A
330
1F
100
AcDbEntity
  8
0
  6
Continuous
 62
     7
370
    15
100
AcDbLine
 10
22.636662915
 20
218.8633506072
 30
0.0
 11
23.6366629625
 21
218.8633506072
 31
0.0
  0
LINE
  5
15B
330
1F
100
AcDbEntity
  8
0
  6
Continuous
 62
     7
370
    15
100
AcDbLine
 10
22.1366628913
 20
219.5404742731
 30
0.0
 11
22.1366628913
 21
219.3633506892
 31
0.0
  0
LINE
  5
15C
330
1F
100
AcDbEntity
  8
0
  6
Continuous
 62
     7
370
    15
100
AcDbLine
 10
22.636662915
 20
238.8633501602
 30
0.0
 11
22.1366628913
 21
238.3633500783
 31
0.0
  0
LINE
  5
15D
330
1F
100
AcDbEntity
  8
0
  6
Continuous
 62
     7
370
    15
100
AcDbLine
 10
22.636662915
 20
238.8633501602
 30
0.0
 11
23.6366629625
 21
238.8633501602
 31
0.0
  0
LINE
  5
15E
330
1F
100
AcDbEntity
  8
0
  6
Continuous
 62
     7
370
    15
100
AcDbLine
 10
22.1366628913
 20
238.3633500783
 30
0.0
 11
22.1366628913
 21
238.1862264944
 31
0.0
  0
LINE
  5
15F
330
1F
100
AcDbEntity
  8
0
  6
Continuous
 62
     7
370
    15
100
AcDbLine
 10
36.1266516639
 20
236.6633501721
 30
0.0
 11
27.1466740897
 21
236.6633501721
 31
0.0
  0
ARC
  5
160
330
1F
100
AcDbEntity
  8
0
  6
Continuous
 62
     7
370
    15
100
AcDbCircle
 10
31.6366628675
 20
228.8633503837
 30
0.0
 40
9.000000000000007
100
AcDbArc
 50
299.9264348666
 51
60.0735651334
  0
LINE
  5
161
330
1F
100
AcDbEntity
  8
0
  6
Continuous
 62
     7
370
    15
100
AcDbLine
 10
27.1466740897
 20
221.0633505953
 30
0.0
 11
36.1266516639
 21
221.0633505953
 31
0.0
  0
ARC
  5
162
330
1F
100
AcDbEntity
  8
0
  6
Continuous
 62
     7
370
    15
100
AcDbCircle
 10
31.6366628675
 20
228.8633503837
 30
0.0
 40
9.000000000000009
100
AcDbArc
 50
119.9264348666
 51
240.0735651334
  0
ARC
  5
163
330
1F
100
AcDbEntity
  8
0
  6
Continuous
 62
     7
370
    15
100
AcDbCircle
 10
31.6366628675
 20
228.8633503837
 30
0.0
 40
10.00000000000002
100
AcDbArc
 50
126.8698976458
 51
233.1301023542
  0
SPLINE
  5
164
330
1F
100
AcDbEntity
  8
0
  6
Continuous
 62
     7
370
    15
100
AcDbSpline
210
0.0
220
0.0
230
1.0
 70
    24
 71
     3
 72
     8
 73
     4
 74
     0
 42
0.00000001
 43
0.00000001
 12
1.0
 22
0.0
 32
0.0
 13
1.0
 23
0.0
 33
0.0
 40
0.0
 40
0.0
 40
0.0
 40
0.0
 40
1.0
 40
1.0
 40
1.0
 40
1.0
 10
25.63666286752454
 20
236.8633503837255
 30
0.0
 10
26.11206921039486
 20
236.8633503837255
 30
0.0
 10
26.59629500715802
 20
236.8633503837255
 30
0.0
 10
27.09353619088431
 20
236.8633503837255
 30
0.0
  0
SPLINE
  5
165
330
1F
100
AcDbEntity
  8
0
  6
Continuous
 62
     7
370
    15
100
AcDbSpline
210
0.0
220
0.0
230
1.0
 70
     8
 71
     3
 72
     8
 73
     4
 74
     0
 42
0.00000001
 43
0.00000001
 12
1.0
 22
0.0
 32
0.0
 13
1.0
 23
0.0
 33
0.0
 40
0.0
 40
0.0
 40
0.0
 40
0.0
 40
0.0002877909434268
 40
0.0002877909434268
 40
0.0002877909434268
 40
0.0002877909434268
 10
27.14667400339581
 20
236.6633503837255
 30
0.0
 10
27.12886019120782
 20
236.7300035656853
 30
0.0
 10
27.11114871059704
 20
236.7966704602674
 30
0.0
 10
27.09353619088432
 20
236.8633503837255
 30
0.0
  0
SPLINE
  5
166
330
1F
100
AcDbEntity
  8
0
  6
Continuous
 62
     7
370
    15
100
AcDbSpline
210
0.0
220
0.0
230
1.0
 70
     8
 71
     3
 72
     8
 73
     4
 74
     0
 42
0.00000001
 43
0.00000001
 12
1.0
 22
0.0
 32
0.0
 13
1.0
 23
0.0
 33
0.0
 40
0.0
 40
0.0
 40
0.0
 40
0.0
 40
0.0002877909434268
 40
0.0002877909434268
 40
0.0002877909434268
 40
0.0002877909434268
 10
27.09353619088431
 20
220.8633503837255
 30
0.0
 10
27.11114871059704
 20
220.9300303071836
 30
0.0
 10
27.12886019120782
 20
220.9966972017657
 30
0.0
 10
27.14667400339581
 20
221.0633503837255
 30
0.0
  0
SPLINE
  5
167
330
1F
100
AcDbEntity
  8
0
  6
Continuous
 62
     7
370
    15
100
AcDbSpline
210
0.0
220
0.0
230
1.0
 70
    24
 71
     3
 72
     8
 73
     4
 74
     0
 42
0.00000001
 43
0.00000001
 12
1.0
 22
0.0
 32
0.0
 13
1.0
 23
0.0
 33
0.0
 40
0.0
 40
0.0
 40
0.0
 40
0.0
 40
1.0
 40
1.0
 40
1.0
 40
1.0
 10
27.09353619088431
 20
220.8633503837255
 30
0.0
 10
26.59463643749797
 20
220.8633503837255
 30
0.0
 10
26.11068308347291
 20
220.8633503837255
 30
0.0
 10
25.63666286752453
 20
220.8633503837255
 30
0.0
  0
LINE
  5
168
330
1F
100
AcDbEntity
  8
0
  6
Continuous
 62
     7
370
    15
100
AcDbLine
 10
36.1797892048
 20
220.8633500037
 30
0.0
 11
27.0935360833
 21
220.8633500037
 31
0.0
  0
SPLINE
  5
169
330
1F
100
AcDbEntity
  8
0
  6
Continuous
 62
     7
370
    15
100
AcDbSpline
210
0.0
220
0.0
230
1.0
 70
     8
 71
     3
 72
     8
 73
     4
 74
     0
 42
0.00000001
 43
0.00000001
 12
1.0
 22
0.0
 32
0.0
 13
1.0
 23
0.0
 33
0.0
 40
0.0
 40
0.0
 40
0.0
 40
0.0
 40
0.0002877909434268
 40
0.0002877909434268
 40
0.0002877909434268
 40
0.0002877909434268
 10
36.12665173165326
 20
221.0633503837255
 30
0.0
 10
36.14446554384124
 20
220.9966972017657
 30
0.0
 10
36.16217702445203
 20
220.9300303071836
 30
0.0
 10
36.17978954416476
 20
220.8633503837255
 30
0.0
  0
SPLINE
  5
16A
330
1F
100
AcDbEntity
  8
0
  6
Continuous
 62
     7
370
    15
100
AcDbSpline
210
0.0
220
0.0
230
1.0
 70
     8
 71
     3
 72
     8
 73
     4
 74
     0
 42
0.00000001
 43
0.00000001
 12
1.0
 22
0.0
 32
0.0
 13
1.0
 23
0.0
 33
0.0
 40
0.0
 40
0.0
 40
0.0
 40
0.0
 40
0.0002877909434268
 40
0.0002877909434268
 40
0.0002877909434268
 40
0.0002877909434268
 10
36.17978954416475
 20
236.8633503837255
 30
0.0
 10
36.16217702445203
 20
236.7966704602674
 30
0.0
 10
36.14446554384124
 20
236.7300035656853
 30
0.0
 10
36.12665173165326
 20
236.6633503837255
 30
0.0
  0
SPLINE
  5
16B
330
1F
100
AcDbEntity
  8
0
  6
Continuous
 62
     7
370
    15
100
AcDbSpline
210
0.0
220
0.0
230
1.0
 70
    24
 71
     3
 72
     8
 73
     4
 74
     0
 42
0.00000001
 43
0.00000001
 12
1.0
 22
0.0
 32
0.0
 13
1.0
 23
0.0
 33
0.0
 40
0.0
 40
0.0
 40
0.0
 40
0.0
 40
1.0
 40
1.0
 40
1.0
 40
1.0
 10
36.17978954416475
 20
236.8633503837255
 30
0.0
 10
36.6786892975511
 20
236.8633503837255
 30
0.0
 10
37.16264265157615
 20
236.8633503837255
 30
0.0
 10
37.63666286752454
 20
236.8633503837255
 30
0.0
  0
ARC
  5
16C
330
1F
100
AcDbEntity
  8
0
  6
Continuous
 62
     7
370
    15
100
AcDbCircle
 10
31.6366628675
 20
228.8633503837
 30
0.0
 40
10.00000000000003
100
AcDbArc
 50
306.8698976458
 51
53.1301023542
  0
SPLINE
  5
16D
330
1F
100
AcDbEntity
  8
0
  6
Continuous
 62
     7
370
    15
100
AcDbSpline
210
0.0
220
0.0
230
1.0
 70
    24
 71
     3
 72
     8
 73
     4
 74
     0
 42
0.00000001
 43
0.00000001
 12
1.0
 22
0.0
 32
0.0
 13
1.0
 23
0.0
 33
0.0
 40
0.0
 40
0.0
 40
0.0
 40
0.0
 40
1.0
 40
1.0
 40
1.0
 40
1.0
 10
37.63666286752454
 20
220.8633503837255
 30
0.0
 10
37.16125652465423
 20
220.8633503837255
 30
0.0
 10
36.67703072789106
 20
220.8633503837255
 30
0.0
 10
36.17978954416478
 20
220.8633503837255
 30
0.0
  0
LINE
  5
16E
330
1F
100
AcDbEntity
  8
0
  6
Continuous
 62
     7
370
    15
100
AcDbLine
 10
27.0935360833
 20
236.8633507637
 30
0.0
 11
36.1797892048
 21
236.8633507637
 31
0.0
  0
ARC
  5
16F
330
1F
100
AcDbEntity
  8
0
  6
Continuous
 62
     7
370
    15
100
AcDbCircle
 10
31.6366628675
 20
228.8633503837
 30
0.0
 40
9.800000000000024
100
AcDbArc
 50
234.7187381727
 51
305.2812618273
  0
ARC
  5
170
330
1F
100
AcDbEntity
  8
0
  6
Continuous
 62
     7
370
    15
100
AcDbCircle
 10
31.6366628675
 20
228.8633503837
 30
0.0
 40
10.00000000000003
100
AcDbArc
 50
233.1301023542
 51
306.8698976458
  0
ARC
  5
171
330
1F
100
AcDbEntity
  8
0
  6
Continuous
 62
     7
370
    15
100
AcDbCircle
 10
31.6366628675
 20
228.8633503837
 30
0.0
 40
9.799999999999999
100
AcDbArc
 50
54.7187381727
 51
125.2812618273
  0
ARC
  5
172
330
1F
100
AcDbEntity
  8
0
  6
Continuous
 62
     7
370
    15
100
AcDbCircle
 10
31.6366628675
 20
228.8633503837
 30
0.0
 40
10.0
100
AcDbArc
 50
53.1301023542
 51
126.8698976458
  0
LINE
  5
173
330
1F
100
AcDbEntity
  8
0
  6
Continuous
 62
     7
370
    15
100
AcDbLine
 10
39.5066624998
 20
217.2285535259
 30
0.0
 11
39.5066624998
 21
217.3599370641
 31
0.0
  0
ARC
  5
174
330
1F
100
AcDbEntity
  8
0
  6
Continuous
 62
     7
370
    15
100
AcDbCircle
 10
39.136662942
 20
220.6651588986
 30
0.0
 40
3.325866961807245
100
AcDbArc
 50
263.6126768627
 51
276.3873231373
  0
LINE
  5
175
330
1F
100
AcDbEntity
  8
0
  6
Continuous
 62
     7
370
    15
100
AcDbLine
 10
38.7666633843
 20
217.3599370641
 30
0.0
 11
38.7666633843
 21
217.2285535259
 31
0.0
  0
LINE
  5
176
330
1F
100
AcDbEntity
  8
0
  6
Continuous
 62
     7
370
    15
100
AcDbLine
 10
38.7666633843
 20
217.2285535259
 30
0.0
 11
38.6365967362
 21
217.2285535259
 31
0.0
  0
ARC
  5
177
330
1F
100
AcDbEntity
  8
0
  6
Continuous
 62
     7
370
    15
100
AcDbCircle
 10
39.1366628675
 20
220.1633503837
 30
0.0
 40
2.977095900370017
100
AcDbArc
 50
250.3322848816
 51
260.3301084759
  0
LINE
  5
178
330
1F
100
AcDbEntity
  8
0
  6
Continuous
 62
     7
370
    15
100
AcDbLine
 10
38.1346771984
 20
217.3599370641
 30
0.0
 11
38.1243860839
 21
217.3392942993
 31
0.0
  0
LWPOLYLINE
  5
179
330
1F
100
AcDbEntity
  8
0
  6
Continuous
 62
     7
370
    15
100
AcDbPolyline
 90
        5
 70
   128
 43
0.0
 10
40.1386486857
 20
217.3599370641
 10
40.1431469737
 20
217.3509125484
 10
40.1463656245
 20
217.3444603456
 10
40.1482971875
 20
217.3405860437
 10
40.1489398001
 20
217.3392942993
  0
ARC
  5
17A
330
1F
100
AcDbEntity
  8
0
  6
Continuous
 62
     7
370
    15
100
AcDbCircle
 10
39.1366628675
 20
220.1633503837
 30
0.0
 40
2.977095900370019
100
AcDbArc
 50
279.6698915241
 51
289.6677151184
  0
LINE
  5
17B
330
1F
100
AcDbEntity
  8
0
  6
Continuous
 62
     7
370
    15
100
AcDbLine
 10
39.6367291479
 20
217.2285535259
 30
0.0
 11
39.5066624998
 21
217.2285535259
 31
0.0
  0
LINE
  5
17C
330
1F
100
AcDbEntity
  8
0
  6
Continuous
 62
     7
370
    15
100
AcDbLine
 10
41.3866637765
 20
218.1790371312
 30
0.0
 11
36.8866630389
 21
218.1790371312
 31
0.0
  0
LINE
  5
17D
330
1F
100
AcDbEntity
  8
0
  6
Continuous
 62
     7
370
    15
100
AcDbLine
 10
37.1961946158
 20
239.5476636363
 30
0.0
 11
41.3866637765
 21
239.5476636363
 31
0.0
  0
LINE
  5
17E
330
1F
100
AcDbEntity
  8
0
  6
Continuous
 62
     7
370
    15
100
AcDbLine
 10
36.8866630389
 20
239.5476636363
 30
0.0
 11
37.1961946158
 21
239.5476636363
 31
0.0
  0
ARC
  5
17F
330
1F
100
AcDbEntity
  8
0
  6
Continuous
 62
     7
370
    15
100
AcDbCircle
 10
39.4863787386
 20
239.6567286598
 30
0.0
 40
0.8879713250195368
100
AcDbArc
 50
108.6348826254
 51
113.1934487859
  0
LINE
  5
180
330
1F
100
AcDbEntity
  8
0
  6
Continuous
 62
     7
370
    15
100
AcDbLine
 10
38.5644415884
 20
240.4981472416
 30
0.0
 11
38.518104565
 21
240.4981472416
 31
0.0
  0
ARC
  5
181
330
1F
100
AcDbEntity
  8
0
  6
Continuous
 62
     7
370
    15
100
AcDbCircle
 10
38.9633729763
 20
238.2523418169
 30
0.0
 40
2.289520902568148
100
AcDbArc
 50
101.2144091235
 51
112.5535375659
  0
ARC
  5
182
330
1F
100
AcDbEntity
  8
0
  6
Continuous
 62
     7
370
    15
100
AcDbCircle
 10
38.27252039
 20
239.527901106
 30
0.0
 40
0.8595151074784643
100
AcDbArc
 50
77.4144917932
 51
102.5855082068
  0
ARC
  5
183
330
1F
100
AcDbEntity
  8
0
  6
Continuous
 62
     7
370
    15
100
AcDbCircle
 10
39.3379434652
 20
238.2523418169
 30
0.0
 40
2.289520902568124
100
AcDbArc
 50
101.2144091235
 51
112.5535375659
  0
LINE
  5
184
330
1F
100
AcDbEntity
  8
0
  6
Continuous
 62
     7
370
    15
100
AcDbLine
 10
38.8926750539
 20
240.4981472416
 30
0.0
 11
39.0706843256
 21
240.4981472416
 31
0.0
  0
ARC
  5
185
330
1F
100
AcDbEntity
  8
0
  6
Continuous
 62
     7
370
    15
100
AcDbCircle
 10
38.7483541913
 20
239.5635187538
 30
0.0
 40
0.9886491418115951
100
AcDbArc
 50
54.3376836929
 51
70.9719587098
  0
ARC
  5
186
330
1F
100
AcDbEntity
  8
0
  6
Continuous
 62
     7
370
    15
100
AcDbCircle
 10
39.643843521
 20
237.9111100117
 30
0.0
 40
2.476299629203649
100
AcDbArc
 50
82.596185273
 51
97.403814727
  0
ARC
  5
187
330
1F
100
AcDbEntity
  8
0
  6
Continuous
 62
     7
370
    15
100
AcDbCircle
 10
39.3865088366
 20
239.5634311083
 30
0.0
 40
0.9887467756880766
100
AcDbArc
 50
54.3385107861
 51
70.9711316167
  0
LINE
  5
188
330
1F
100
AcDbEntity
  8
0
  6
Continuous
 62
     7
370
    15
100
AcDbLine
 10
39.7088842957
 20
240.4981472416
 30
0.0
 11
39.7552213191
 21
240.4981472416
 31
0.0
  0
ARC
  5
189
330
1F
100
AcDbEntity
  8
0
  6
Continuous
 62
     7
370
    15
100
AcDbCircle
 10
39.3187803477
 20
238.2890461503
 30
0.0
 40
2.251801135315879
100
AcDbArc
 50
75.8926302911
 51
78.8242815203
  0
ARC
  5
18A
330
1F
100
AcDbEntity
  8
0
  6
Continuous
 62
     7
370
    15
100
AcDbCircle
 10
38.938542857
 20
238.2645580662
 30
0.0
 40
2.276923376894239
100
AcDbArc
 50
70.2886500779
 51
78.8038160449
  0
LINE
  5
18B
330
1F
100
AcDbEntity
  8
0
  6
Continuous
 62
     7
370
    15
100
AcDbLine
 10
39.3806508301
 20
240.4981472416
 30
0.0
 11
39.2026396959
 21
240.4981472416
 31
0.0
  0
SPLINE
  5
18C
330
1F
100
AcDbEntity
  8
0
  6
Continuous
 62
     7
370
    15
100
AcDbSpline
210
0.0
220
0.0
230
1.0
 70
     8
 71
     3
 72
     9
 73
     5
 74
     0
 42
0.00000001
 43
0.00000001
 12
1.0
 22
0.0
 32
0.0
 13
1.0
 23
0.0
 33
0.0
 40
0.0
 40
0.0
 40
0.0
 40
0.0
 40
0.7661986207603529
 40
1.0
 40
1.0
 40
1.0
 40
1.0
 10
39.70888429568041
 20
240.4981472415584
 30
0.0
 10
39.70742136285625
 20
240.4645863532072
 30
0.0
 10
39.70551202396614
 20
240.420784540672
 30
0.0
 10
39.70350184681255
 20
240.3770004776383
 30
0.0
 10
39.70303186462153
 20
240.3667637033123
 30
0.0
  0
SPLINE
  5
18D
330
1F
100
AcDbEntity
  8
0
  6
Continuous
 62
     7
370
    15
100
AcDbSpline
210
0.0
220
0.0
230
1.0
 70
     8
 71
     3
 72
     9
 73
     5
 74
     0
 42
0.00000001
 43
0.00000001
 12
1.0
 22
0.0
 32
0.0
 13
1.0
 23
0.0
 33
0.0
 40
0.0
 40
0.0
 40
0.0
 40
0.0
 40
0.0942189814983691
 40
0.9999999999999999
 40
0.9999999999999999
 40
0.9999999999999999
 40
0.9999999999999999
 10
38.52649764404524
 20
240.3870059994715
 30
0.0
 10
38.52622526355052
 20
240.3904956197788
 30
0.0
 10
38.52333433339628
 20
240.4275329582409
 30
0.0
 10
38.52059017321066
 20
240.4645856325157
 30
0.0
 10
38.51810456500281
 20
240.4981472415584
 30
0.0
  0
SPLINE
  5
18E
330
1F
100
AcDbEntity
  8
0
  6
Continuous
 62
     7
370
    15
100
AcDbSpline
210
0.0
220
0.0
230
1.0
 70
     8
 71
     3
 72
     9
 73
     5
 74
     0
 42
0.00000001
 43
0.00000001
 12
1.0
 22
0.0
 32
0.0
 13
1.0
 23
0.0
 33
0.0
 40
0.0
 40
0.0
 40
0.0
 40
0.0
 40
0.766197982303546
 40
1.0
 40
1.0
 40
1.0
 40
1.0
 10
38.56444158838023
 20
240.4981472415584
 30
0.0
 10
38.56590288508094
 20
240.4645863074039
 30
0.0
 10
38.56781009018259
 20
240.4207843985896
 30
0.0
 10
38.56982332182015
 20
240.3770004733711
 30
0.0
 10
38.57029401943911
 20
240.3667637033122
 30
0.0
  0
SPLINE
  5
18F
330
1F
100
AcDbEntity
  8
0
  6
Continuous
 62
     7
370
    15
100
AcDbSpline
210
0.0
220
0.0
230
1.0
 70
     8
 71
     3
 72
     9
 73
     5
 74
     0
 42
0.00000001
 43
0.00000001
 12
1.0
 22
0.0
 32
0.0
 13
1.0
 23
0.0
 33
0.0
 40
0.0
 40
0.0
 40
0.0
 40
0.0
 40
0.7142364120200587
 40
1.0
 40
1.0
 40
1.0
 40
1.0
 10
39.38065083012808
 20
240.4981472415584
 30
0.0
 10
39.37815774003037
 20
240.4645865440196
 30
0.0
 10
39.37466717296356
 20
240.4175983241893
 30
0.0
 10
39.37098820913375
 20
240.3706294083017
 30
0.0
 10
39.36993689522971
 20
240.3572074023741
 30
0.0
  0
ARC
  5
190
330
1F
100
AcDbEntity
  8
0
  6
Continuous
 62
     7
370
    15
100
AcDbCircle
 10
23.6366628675
 20
220.8633503837
 30
0.0
 40
1.5
100
AcDbArc
 50
180.0
 51
270.0
  0
LINE
  5
191
330
1F
100
AcDbEntity
  8
0
  6
Continuous
 62
     7
370
    15
100
AcDbLine
 10
23.6366629625
 20
219.3633506892
 30
0.0
 11
23.6366629625
 21
218.8633506072
 31
0.0
  0
ARC
  5
192
330
1F
100
AcDbEntity
  8
0
  6
Continuous
 62
     7
370
    15
100
AcDbCircle
 10
23.6366628675
 20
220.8633503837
 30
0.0
 40
2.0
100
AcDbArc
 50
180.0
 51
270.0
  0
LINE
  5
193
330
1F
100
AcDbEntity
  8
0
  6
Continuous
 62
     7
370
    15
100
AcDbLine
 10
22.1366628913
 20
220.8633500037
 30
0.0
 11
21.6366628675
 21
220.8633500037
 31
0.0
  0
LINE
  5
194
330
1F
100
AcDbEntity
  8
0
  6
Continuous
 62
     7
370
    15
100
AcDbLine
 10
43.1366635977
 20
219.3633506892
 30
0.0
 11
43.1366635977
 21
218.8633506072
 31
0.0
  0
LINE
  5
195
330
1F
100
AcDbEntity
  8
0
  6
Continuous
 62
     7
370
    15
100
AcDbLine
 10
43.1366635977
 20
218.8633506072
 30
0.0
 11
23.6366629625
 21
218.8633506072
 31
0.0
  0
ARC
  5
196
330
1F
100
AcDbEntity
  8
0
  6
Continuous
 62
     7
370
    15
100
AcDbCircle
 10
23.6366628675
 20
236.8633503837
 30
0.0
 40
1.5
100
AcDbArc
 50
90.0
 51
180.0
  0
LINE
  5
197
330
1F
100
AcDbEntity
  8
0
  6
Continuous
 62
     7
370
    15
100
AcDbLine
 10
43.1366635977
 20
219.3633506892
 30
0.0
 11
43.1366635977
 21
238.3633500783
 31
0.0
  0
LINE
  5
198
330
1F
100
AcDbEntity
  8
0
  6
Continuous
 62
     7
370
    15
100
AcDbLine
 10
21.6366628675
 20
220.8633500037
 30
0.0
 11
21.6366628675
 21
236.8633507637
 31
0.0
  0
LINE
  5
199
330
1F
100
AcDbEntity
  8
0
  6
Continuous
 62
     7
370
    15
100
AcDbLine
 10
22.1366628913
 20
236.8633507637
 30
0.0
 11
21.6366628675
 21
236.8633507637
 31
0.0
  0
ARC
  5
19A
330
1F
100
AcDbEntity
  8
0
  6
Continuous
 62
     7
370
    15
100
AcDbCircle
 10
43.1366628675
 20
219.3633503837
 30
0.0
 40
0.5000000000000071
100
AcDbArc
 50
270.0
 51
0.0
  0
LINE
  5
19B
330
1F
100
AcDbEntity
  8
0
  6
Continuous
 62
     7
370
    15
100
AcDbLine
 10
43.6366627483
 20
219.3633506892
 30
0.0
 11
43.1366635977
 21
219.3633506892
 31
0.0
  0
LINE
  5
19C
330
1F
100
AcDbEntity
  8
0
  6
Continuous
 62
     7
370
    15
100
AcDbLine
 10
43.6366627483
 20
238.3633500783
 30
0.0
 11
43.6366627483
 21
219.3633506892
 31
0.0
  0
LINE
  5
19D
330
1F
100
AcDbEntity
  8
0
  6
Continuous
 62
     7
370
    15
100
AcDbLine
 10
43.6366627483
 20
238.3633500783
 30
0.0
 11
43.1366635977
 21
238.3633500783
 31
0.0
  0
ARC
  5
19E
330
1F
100
AcDbEntity
  8
0
  6
Continuous
 62
     7
370
    15
100
AcDbCircle
 10
23.6366628675
 20
236.8633503837
 30
0.0
 40
2.000000000000028
100
AcDbArc
 50
90.0
 51
180.0
  0
LINE
  5
19F
330
1F
100
AcDbEntity
  8
0
  6
Continuous
 62
     7
370
    15
100
AcDbLine
 10
23.6366629625
 20
238.8633501602
 30
0.0
 11
23.6366629625
 21
238.3633500783
 31
0.0
  0
LINE
  5
1A0
330
1F
100
AcDbEntity
  8
0
  6
Continuous
 62
     7
370
    15
100
AcDbLine
 10
23.6366629625
 20
238.8633501602
 30
0.0
 11
43.1366635977
 21
238.8633501602
 31
0.0
  0
LINE
  5
1A1
330
1F
100
AcDbEntity
  8
0
  6
Continuous
 62
     7
370
    15
100
AcDbLine
 10
43.1366635977
 20
238.8633501602
 30
0.0
 11
43.1366635977
 21
238.3633500783
 31
0.0
  0
ARC
  5
1A2
330
1F
100
AcDbEntity
  8
0
  6
Continuous
 62
     7
370
    15
100
AcDbCircle
 10
43.1366628675
 20
238.3633503837
 30
0.0
 40
0.5000000000000284
100
AcDbArc
 50
0.0
 51
90.0
  0
LINE
  5
1A3
330
1F
100
AcDbEntity
  8
0
  6
Continuous
 62
     7
370
    15
100
AcDbLine
 10
36.1366624503
 20
218.3633505253
 30
0.0
 11
42.1366634338
 21
218.3633505253
 31
0.0
  0
LINE
  5
1A4
330
1F
100
AcDbEntity
  8
0
  6
Continuous
 62
     7
370
    15
100
AcDbLine
 10
36.1366624503
 20
239.3633502422
 30
0.0
 11
42.1366634338
 21
239.3633502422
 31
0.0
  0
CIRCLE
  5
1A5
330
1F
100
AcDbEntity
  8
0
  6
Continuous
 62
     7
370
    15
100
AcDbCircle
 10
31.6366628675
 20
228.8633503837
 30
0.0
 40
1.500000000000419
  0
CIRCLE
  5
1A6
330
1F
100
AcDbEntity
  8
0
  6
Continuous
 62
     7
370
    15
100
AcDbCircle
 10
31.6366628675
 20
228.8633503837
 30
0.0
 40
1.000000000000179
  0
ARC
  5
1A7
330
1F
100
AcDbEntity
  8
0
  6
Continuous
 62
     7
370
    15
100
AcDbCircle
 10
31.6366628675
 20
228.8633503837
 30
0.0
 40
1.74999999999984
100
AcDbArc
 50
55.2276825737
 51
235.2276825737
  0
ARC
  5
1A8
330
1F
100
AcDbEntity
  8
0
  6
Continuous
 62
     7
370
    15
100
AcDbCircle
 10
31.6366628675
 20
228.8633503837
 30
0.0
 40
1.74999999999984
100
AcDbArc
 50
235.2276825737
 51
55.2276825737
  0
LINE
  5
1A9
330
1F
100
AcDbEntity
  8
0
  6
Continuous
 62
     7
370
    15
100
AcDbLine
 10
33.3628392337
 20
225.1996344773
 30
0.0
 11
35.6726225956
 21
228.5264050649
 31
0.0
  0
LINE
  5
1AA
330
1F
100
AcDbEntity
  8
0
  6
Continuous
 62
     7
370
    15
100
AcDbLine
 10
29.3268802135
 20
225.536579767
 30
0.0
 11
33.3628392337
 21
225.1996344773
 31
0.0
  0
LINE
  5
1AB
330
1F
100
AcDbEntity
  8
0
  6
Continuous
 62
     7
370
    15
100
AcDbLine
 10
27.6007036238
 20
229.2002957026
 30
0.0
 11
29.3268802135
 21
225.536579767
 31
0.0
  0
LINE
  5
1AC
330
1F
100
AcDbEntity
  8
0
  6
Continuous
 62
     7
370
    15
100
AcDbLine
 10
29.9104860543
 20
232.5270662902
 30
0.0
 11
27.6007036238
 21
229.2002957026
 31
0.0
  0
LINE
  5
1AD
330
1F
100
AcDbEntity
  8
0
  6
Continuous
 62
     7
370
    15
100
AcDbLine
 10
33.9464460059
 20
232.1901210004
 30
0.0
 11
29.9104860543
 21
232.5270662902
 31
0.0
  0
LINE
  5
1AE
330
1F
100
AcDbEntity
  8
0
  6
Continuous
 62
     7
370
    15
100
AcDbLine
 10
35.6726225956
 20
228.5264050649
 30
0.0
 11
33.9464460059
 21
232.1901210004
 31
0.0
  0
LINE
  5
1AF
330
1F
100
AcDbEntity
  8
0
  6
Continuous
 62
     7
370
    15
100
AcDbLine
 10
23.6366629625
 20
219.3633506892
 30
0.0
 11
28.514163897
 21
219.3633506892
 31
0.0
  0
LINE
  5
1B0
330
1F
100
AcDbEntity
  8
0
  6
Continuous
 62
     7
370
    15
100
AcDbLine
 10
34.7591618566
 20
219.3633506892
 30
0.0
 11
43.1366635977
 21
219.3633506892
 31
0.0
  0
LINE
  5
1B1
330
1F
100
AcDbEntity
  8
0
  6
Continuous
 62
     7
370
    15
100
AcDbLine
 10
22.1366628913
 20
236.8633507637
 30
0.0
 11
22.1366628913
 21
231.9858493635
 31
0.0
  0
LINE
  5
1B2
330
1F
100
AcDbEntity
  8
0
  6
Continuous
 62
     7
370
    15
100
AcDbLine
 10
22.1366628913
 20
225.7408514039
 30
0.0
 11
22.1366628913
 21
220.8633500037
 31
0.0
  0
LINE
  5
1B3
330
1F
100
AcDbEntity
  8
0
  6
Continuous
 62
     7
370
    15
100
AcDbLine
 10
43.1366635977
 20
238.3633500783
 30
0.0
 11
34.7591618566
 21
238.3633500783
 31
0.0
  0
LINE
  5
1B4
330
1F
100
AcDbEntity
  8
0
  6
Continuous
 62
     7
370
    15
100
AcDbLine
 10
28.514163897
 20
238.3633500783
 30
0.0
 11
23.6366629625
 21
238.3633500783
 31
0.0
  0
DIMENSION
  5
1B5
330
1F
100
AcDbEntity
  8
0
  6
Continuous
 62
     7
370
     0
100
AcDbDimension
  2
_D_7
 10
49.3203441943
 20
220.8633503837
 30
0.0
 11
49.3203441943
 21
229.5621239417
 31
0.0
 70
   160
  1
<>
 71
     2
 42
-1.0
  3
SLDDIMSTYLE1
100
AcDbAlignedDimension
 13
37.6366628675
 23
236.8633503837
 33
0.0
 14
37.6366628675
 24
220.8633503837
 34
0.0
 50
90.0
100
AcDbRotatedDimension
  0
INSERT
  5
1CA
330
1F
100
AcDbEntity
  8
0
  6
Continuous
 62
     7
370
     0
100
AcDbBlockReference
  2
SW_CENTERMARKSYMBOL_0
 10
31.6366628675
 20
228.8633503837
 30
0.0
  0
LINE
  5
1CB
330
1F
100
AcDbEntity
  8
0
  6
Continuous
 62
     7
370
    15
100
AcDbLine
 10
61.3862801567
 20
167.8272703143
 30
0.0
 11
65.3862808124
 21
167.8272703143
 31
0.0
  0
LINE
  5
1CC
330
1F
100
AcDbEntity
  8
0
  6
Continuous
 62
     7
370
    15
100
AcDbLine
 10
65.3862808124
 20
187.8272698672
 30
0.0
 11
61.3862801567
 21
187.8272698672
 31
0.0
  0
LINE
  5
1CD
330
1F
100
AcDbEntity
  8
0
  6
Continuous
 62
     7
370
    15
100
AcDbLine
 10
61.3862801567
 20
187.8272698672
 30
0.0
 11
60.3862855807
 21
186.8272697033
 31
0.0
  0
LINE
  5
1CE
330
1F
100
AcDbEntity
  8
0
  6
Continuous
 62
     7
370
    15
100
AcDbLine
 10
60.3862855807
 20
168.8272703618
 30
0.0
 11
61.3862801567
 21
167.8272703143
 31
0.0
  0
LINE
  5
1CF
330
1F
100
AcDbEntity
  8
0
  6
Continuous
 62
     7
370
    15
100
AcDbLine
 10
140.3862837926
 20
187.8272698672
 30
0.0
 11
65.3862808124
 21
187.8272698672
 31
0.0
  0
LINE
  5
1D0
330
1F
100
AcDbEntity
  8
0
  6
Continuous
 62
     7
370
    15
100
AcDbLine
 10
65.3862808124
 20
167.8272703143
 30
0.0
 11
140.3862837926
 21
167.8272703143
 31
0.0
  0
LINE
  5
1D1
330
1F
100
AcDbEntity
  8
0
  6
Continuous
 62
     7
370
    15
100
AcDbLine
 10
55.8862839118
 20
179.5772699119
 30
0.0
 11
53.386286296
 21
179.3272703366
 31
0.0
  0
LINE
  5
1D2
330
1F
100
AcDbEntity
  8
0
  6
Continuous
 62
     7
370
    15
100
AcDbLine
 10
53.386286296
 20
176.3272707762
 30
0.0
 11
55.8862839118
 21
176.0772702696
 31
0.0
  0
LINE
  5
1D3
330
1F
100
AcDbEntity
  8
0
  6
Continuous
 62
     7
370
    15
100
AcDbLine
 10
53.386286296
 20
179.5772699119
 30
0.0
 11
50.8862812296
 21
179.3272703366
 31
0.0
  0
LINE
  5
1D4
330
1F
100
AcDbEntity
  8
0
  6
Continuous
 62
     7
370
    15
100
AcDbLine
 10
50.8862812296
 20
176.3272707762
 30
0.0
 11
53.386286296
 21
176.0772702696
 31
0.0
  0
LINE
  5
1D5
330
1F
100
AcDbEntity
  8
0
  6
Continuous
 62
     7
370
    15
100
AcDbLine
 10
55.8862839118
 20
176.2272700147
 30
0.0
 11
57.8862805143
 21
176.2272700147
 31
0.0
  0
LINE
  5
1D6
330
1F
100
AcDbEntity
  8
0
  6
Continuous
 62
     7
370
    15
100
AcDbLine
 10
57.8862805143
 20
179.4272701667
 30
0.0
 11
55.8862839118
 21
179.4272701667
 31
0.0
  0
LINE
  5
1D7
330
1F
100
AcDbEntity
  8
0
  6
Continuous
 62
     7
370
    15
100
AcDbLine
 10
156.6362831966
 20
188.8272700311
 30
0.0
 11
158.7362833545
 21
188.8272700311
 31
0.0
  0
LINE
  5
1D8
330
1F
100
AcDbEntity
  8
0
  6
Continuous
 62
     7
370
    15
100
AcDbLine
 10
158.7362833545
 20
188.3272708805
 30
0.0
 11
156.6362831966
 21
188.3272708805
 31
0.0
  0
LINE
  5
1D9
330
1F
100
AcDbEntity
  8
0
  6
Continuous
 62
     7
370
    15
100
AcDbLine
 10
156.6362831966
 20
188.3272708805
 30
0.0
 11
156.6362831966
 21
188.8272700311
 31
0.0
  0
LINE
  5
1DA
330
1F
100
AcDbEntity
  8
0
  6
Continuous
 62
     7
370
    15
100
AcDbLine
 10
158.7362833545
 20
188.8272700311
 30
0.0
 11
158.7362833545
 21
188.3272708805
 31
0.0
  0
LINE
  5
1DB
330
1F
100
AcDbEntity
  8
0
  6
Continuous
 62
     7
370
    15
100
AcDbLine
 10
156.6362831966
 20
168.8272703618
 30
0.0
 11
158.7362833545
 21
168.8272703618
 31
0.0
  0
LINE
  5
1DC
330
1F
100
AcDbEntity
  8
0
  6
Continuous
 62
     7
370
    15
100
AcDbLine
 10
156.6362831966
 20
168.8272703618
 30
0.0
 11
156.6362831966
 21
188.3272708805
 31
0.0
  0
LINE
  5
1DD
330
1F
100
AcDbEntity
  8
0
  6
Continuous
 62
     7
370
    15
100
AcDbLine
 10
158.7362833545
 20
188.3272708805
 30
0.0
 11
158.7362833545
 21
168.8272703618
 31
0.0
  0
LINE
  5
1DE
330
1F
100
AcDbEntity
  8
0
  6
Continuous
 62
     7
370
    15
100
AcDbLine
 10
158.7362833545
 20
168.327270338
 30
0.0
 11
156.6362831966
 21
168.327270338
 31
0.0
  0
LINE
  5
1DF
330
1F
100
AcDbEntity
  8
0
  6
Continuous
 62
     7
370
    15
100
AcDbLine
 10
156.6362831966
 20
168.327270338
 30
0.0
 11
156.6362831966
 21
168.8272703618
 31
0.0
  0
LINE
  5
1E0
330
1F
100
AcDbEntity
  8
0
  6
Continuous
 62
     7
370
    15
100
AcDbLine
 10
158.7362833545
 20
168.8272703618
 30
0.0
 11
158.7362833545
 21
168.327270338
 31
0.0
  0
LINE
  5
1E1
330
1F
100
AcDbEntity
  8
0
  6
Continuous
 62
     7
370
    15
100
AcDbLine
 10
154.8362834603
 20
177.0272705184
 30
0.0
 11
156.6362831966
 21
177.0272705184
 31
0.0
  0
LINE
  5
1E2
330
1F
100
AcDbEntity
  8
0
  6
Continuous
 62
     7
370
    15
100
AcDbLine
 10
154.8362834603
 20
177.0272705184
 30
0.0
 11
154.8362834603
 21
181.9647600354
 31
0.0
  0
LINE
  5
1E3
330
1F
100
AcDbEntity
  8
0
  6
Continuous
 62
     7
370
    15
100
AcDbLine
 10
156.6362831966
 20
181.9647600354
 30
0.0
 11
154.8362834603
 21
181.9647600354
 31
0.0
  0
LINE
  5
1E4
330
1F
100
AcDbEntity
  8
0
  6
Continuous
 62
     7
370
    15
100
AcDbLine
 10
154.8362834603
 20
181.9647600354
 30
0.0
 11
154.8362834603
 21
183.377269976
 31
0.0
  0
ARC
  5
1E5
330
1F
100
AcDbEntity
  8
0
  6
Continuous
 62
     7
370
    15
100
AcDbCircle
 10
154.7362837926
 20
181.7272703143
 30
0.0
 40
0.1000000000000227
100
AcDbArc
 50
0.0
 51
90.0
  0
LINE
  5
1E6
330
1F
100
AcDbEntity
  8
0
  6
Continuous
 62
     7
370
    15
100
AcDbLine
 10
154.7362836302
 20
181.8272707464
 30
0.0
 11
153.7862833813
 21
181.8272707464
 31
0.0
  0
LINE
  5
1E7
330
1F
100
AcDbEntity
  8
0
  6
Continuous
 62
     7
370
    15
100
AcDbLine
 10
153.9529500753
 20
188.8272700311
 30
0.0
 11
156.6362831966
 21
188.8272700311
 31
0.0
  0
LINE
  5
1E8
330
1F
100
AcDbEntity
  8
0
  6
Continuous
 62
     7
370
    15
100
AcDbLine
 10
154.8362834603
 20
175.0272701906
 30
0.0
 11
156.6362831966
 21
175.0272701906
 31
0.0
  0
LINE
  5
1E9
330
1F
100
AcDbEntity
  8
0
  6
Continuous
 62
     7
370
    15
100
AcDbLine
 10
154.8362834603
 20
175.0272701906
 30
0.0
 11
154.8362834603
 21
177.0272705184
 31
0.0
  0
LINE
  5
1EA
330
1F
100
AcDbEntity
  8
0
  6
Continuous
 62
     7
370
    15
100
AcDbLine
 10
153.7862833813
 20
177.3272700088
 30
0.0
 11
154.8362834603
 21
177.3272700088
 31
0.0
  0
LINE
  5
1EB
330
1F
100
AcDbEntity
  8
0
  6
Continuous
 62
     7
370
    15
100
AcDbLine
 10
153.7862833813
 20
168.327270338
 30
0.0
 11
156.6362831966
 21
168.327270338
 31
0.0
  0
ARC
  5
1EC
330
1F
100
AcDbEntity
  8
0
  6
Continuous
 62
     7
370
    15
100
AcDbCircle
 10
151.9862837926
 20
173.8272703143
 30
0.0
 40
3.000000000000023
100
AcDbArc
 50
306.8698976458
 51
53.1301023542
  0
LINE
  5
1ED
330
1F
100
AcDbEntity
  8
0
  6
Continuous
 62
     7
370
    15
100
AcDbLine
 10
61.3862801567
 20
167.8272703143
 30
0.0
 11
61.3862801567
 21
171.8272705043
 31
0.0
  0
LINE
  5
1EE
330
1F
100
AcDbEntity
  8
0
  6
Continuous
 62
     7
370
    15
100
AcDbLine
 10
63.5862801448
 20
171.8272705043
 30
0.0
 11
61.3862801567
 21
171.8272705043
 31
0.0
  0
LINE
  5
1EF
330
1F
100
AcDbEntity
  8
0
  6
Continuous
 62
     7
370
    15
100
AcDbLine
 10
63.5862801448
 20
183.8272710742
 30
0.0
 11
63.5862801448
 21
171.8272705043
 31
0.0
  0
LINE
  5
1F0
330
1F
100
AcDbEntity
  8
0
  6
Continuous
 62
     7
370
    15
100
AcDbLine
 10
63.5862801448
 20
183.8272710742
 30
0.0
 11
61.3862801567
 21
183.8272710742
 31
0.0
  0
LINE
  5
1F1
330
1F
100
AcDbEntity
  8
0
  6
Continuous
 62
     7
370
    15
100
AcDbLine
 10
61.3862801567
 20
183.8272710742
 30
0.0
 11
61.3862801567
 21
187.8272698672
 31
0.0
  0
LINE
  5
1F2
330
1F
100
AcDbEntity
  8
0
  6
Continuous
 62
     7
370
    15
100
AcDbLine
 10
65.3862808124
 20
167.8272703143
 30
0.0
 11
65.3862808124
 21
187.8272698672
 31
0.0
  0
LINE
  5
1F3
330
1F
100
AcDbEntity
  8
0
  6
Continuous
 62
     7
370
    15
100
AcDbLine
 10
63.3862842098
 20
172.166881472
 30
0.0
 11
63.3862842098
 21
183.4876587095
 31
0.0
  0
SPLINE
  5
1F4
330
1F
100
AcDbEntity
  8
0
  6
Continuous
 62
     7
370
    15
100
AcDbSpline
210
0.0
220
0.0
230
1.0
 70
     8
 71
     3
 72
     8
 73
     4
 74
     0
 42
0.00000001
 43
0.00000001
 12
1.0
 22
0.0
 32
0.0
 13
1.0
 23
0.0
 33
0.0
 40
0.0
 40
0.0
 40
0.0
 40
0.0
 40
0.0003941266918041
 40
0.0003941266918041
 40
0.0003941266918041
 40
0.0003941266918041
 10
63.38628379259763
 20
183.4876589934947
 30
0.0
 10
63.45199208597281
 20
183.6014217245663
 30
0.0
 10
63.51869162258632
 20
183.7146166975752
 30
0.0
 10
63.58628379259762
 20
183.8272703142607
 30
0.0
  0
SPLINE
  5
1F5
330
1F
100
AcDbEntity
  8
0
  6
Continuous
 62
     7
370
    15
100
AcDbSpline
210
0.0
220
0.0
230
1.0
 70
     8
 71
     3
 72
     8
 73
     4
 74
     0
 42
0.00000001
 43
0.00000001
 12
1.0
 22
0.0
 32
0.0
 13
1.0
 23
0.0
 33
0.0
 40
0.0
 40
0.0
 40
0.0
 40
0.0
 40
0.0003941266918041
 40
0.0003941266918041
 40
0.0003941266918041
 40
0.0003941266918041
 10
63.58628379259762
 20
171.8272703142607
 30
0.0
 10
63.51869162258632
 20
171.9399239309462
 30
0.0
 10
63.45199208597281
 20
172.0531189039551
 30
0.0
 10
63.38628379259763
 20
172.1668816350268
 30
0.0
  0
SPLINE
  5
1F6
330
1F
100
AcDbEntity
  8
0
  6
Continuous
 62
     7
370
    15
100
AcDbSpline
210
0.0
220
0.0
230
1.0
 70
     8
 71
     3
 72
     8
 73
     4
 74
     0
 42
0.00000001
 43
0.00000001
 12
1.0
 22
0.0
 32
0.0
 13
1.0
 23
0.0
 33
0.0
 40
0.0
 40
0.0
 40
0.0
 40
0.0
 40
1.0
 40
1.0
 40
1.0
 40
1.0
 10
60.58628379259763
 20
173.2841436376205
 30
0.0
 10
60.83264952939967
 20
172.7852438842342
 30
0.0
 10
61.10187166302859
 20
172.3012905302091
 30
0.0
 10
61.38628379259762
 20
171.8272703142607
 30
0.0
  0
LINE
  5
1F7
330
1F
100
AcDbEntity
  8
0
  6
Continuous
 62
     7
370
    15
100
AcDbLine
 10
60.5862815157
 20
182.3703966515
 30
0.0
 11
60.5862815157
 21
173.28414353
 31
0.0
  0
SPLINE
  5
1F8
330
1F
100
AcDbEntity
  8
0
  6
Continuous
 62
     7
370
    15
100
AcDbSpline
210
0.0
220
0.0
230
1.0
 70
     8
 71
     3
 72
     8
 73
     4
 74
     0
 42
0.00000001
 43
0.00000001
 12
1.0
 22
0.0
 32
0.0
 13
1.0
 23
0.0
 33
0.0
 40
0.0
 40
0.0
 40
0.0
 40
0.0
 40
1.0
 40
1.0
 40
1.0
 40
1.0
 10
61.38628379259762
 20
183.8272703142607
 30
0.0
 10
61.10103998687543
 20
183.3518639713904
 30
0.0
 10
60.83183049765314
 20
182.8676381746272
 30
0.0
 10
60.58628379259761
 20
182.370396990901
 30
0.0
  0
SPLINE
  5
1F9
330
1F
100
AcDbEntity
  8
0
  6
Continuous
 62
     7
370
    15
100
AcDbSpline
210
0.0
220
0.0
230
1.0
 70
     8
 71
     3
 72
     8
 73
     4
 74
     0
 42
0.00000001
 43
0.00000001
 12
1.0
 22
0.0
 32
0.0
 13
1.0
 23
0.0
 33
0.0
 40
0.0
 40
0.0
 40
0.0
 40
0.0
 40
0.0002877909434268
 40
0.0002877909434268
 40
0.0002877909434268
 40
0.0002877909434268
 10
60.38628379259762
 20
182.3172591783895
 30
0.0
 10
60.45293697455737
 20
182.3350729905774
 30
0.0
 10
60.51960386913952
 20
182.3527844711882
 30
0.0
 10
60.58628379259763
 20
182.3703969909009
 30
0.0
  0
LINE
  5
1FA
330
1F
100
AcDbEntity
  8
0
  6
Continuous
 62
     7
370
    15
100
AcDbLine
 10
60.3862855807
 20
182.3172591107
 30
0.0
 11
60.3862855807
 21
186.8272697033
 31
0.0
  0
SPLINE
  5
1FB
330
1F
100
AcDbEntity
  8
0
  6
Continuous
 62
     7
370
    15
100
AcDbSpline
210
0.0
220
0.0
230
1.0
 70
     8
 71
     3
 72
     8
 73
     4
 74
     0
 42
0.00000001
 43
0.00000001
 12
1.0
 22
0.0
 32
0.0
 13
1.0
 23
0.0
 33
0.0
 40
0.0
 40
0.0
 40
0.0
 40
0.0
 40
0.0002877909434268
 40
0.0002877909434268
 40
0.0002877909434268
 40
0.0002877909434268
 10
60.58628379259763
 20
173.2841436376205
 30
0.0
 10
60.51960386913952
 20
173.3017561573332
 30
0.0
 10
60.45293697455737
 20
173.319467637944
 30
0.0
 10
60.38628379259762
 20
173.337281450132
 30
0.0
  0
LINE
  5
1FC
330
1F
100
AcDbEntity
  8
0
  6
Continuous
 62
     7
370
    15
100
AcDbLine
 10
60.3862855807
 20
173.3372815365
 30
0.0
 11
60.3862855807
 21
182.3172591107
 31
0.0
  0
LINE
  5
1FD
330
1F
100
AcDbEntity
  8
0
  6
Continuous
 62
     7
370
    15
100
AcDbLine
 10
60.3862855807
 20
168.8272703618
 30
0.0
 11
60.3862855807
 21
173.3372815365
 31
0.0
  0
ARC
  5
1FE
330
1F
100
AcDbEntity
  8
0
  6
Continuous
 62
     7
370
    15
100
AcDbCircle
 10
151.9862837926
 20
173.8272703143
 30
0.0
 40
2.500000000000032
100
AcDbArc
 50
316.0544804377
 51
43.9455195623
  0
LINE
  5
1FF
330
1F
100
AcDbEntity
  8
0
  6
Continuous
 62
     7
370
    15
100
AcDbLine
 10
150.2862166837
 20
185.6972699465
 30
0.0
 11
149.7842980773
 21
185.6972699465
 31
0.0
  0
ARC
  5
200
330
1F
100
AcDbEntity
  8
0
  6
Continuous
 62
     7
370
    15
100
AcDbCircle
 10
156.4267495709
 20
185.3272703888
 30
0.0
 40
6.652748418399061
100
AcDbArc
 50
176.8117902867
 51
183.1882097133
  0
LINE
  5
201
330
1F
100
AcDbEntity
  8
0
  6
Continuous
 62
     7
370
    15
100
AcDbLine
 10
149.7842980773
 20
184.957270831
 30
0.0
 11
150.2862166837
 21
184.957270831
 31
0.0
  0
ARC
  5
202
330
1F
100
AcDbEntity
  8
0
  6
Continuous
 62
     7
370
    15
100
AcDbCircle
 10
150.7862837926
 20
185.3272703143
 30
0.0
 40
0.6220666381702941
100
AcDbArc
 50
216.4977758989
 51
233.5022241011
  0
LINE
  5
203
330
1F
100
AcDbEntity
  8
0
  6
Continuous
 62
     7
370
    15
100
AcDbLine
 10
150.4162833319
 20
184.8272041829
 30
0.0
 11
150.4162833319
 21
184.3252846451
 31
0.0
  0
ARC
  5
204
330
1F
100
AcDbEntity
  8
0
  6
Continuous
 62
     7
370
    15
100
AcDbCircle
 10
150.7862833552
 20
190.9674224595
 30
0.0
 40
6.652435250573865
100
AcDbArc
 50
266.8116360276
 51
273.1883639724
  0
LINE
  5
205
330
1F
100
AcDbEntity
  8
0
  6
Continuous
 62
     7
370
    15
100
AcDbLine
 10
151.1562833786
 20
184.3252846451
 30
0.0
 11
151.1562833786
 21
184.8272041829
 31
0.0
  0
ARC
  5
206
330
1F
100
AcDbEntity
  8
0
  6
Continuous
 62
     7
370
    15
100
AcDbCircle
 10
150.7862837926
 20
185.3272703143
 30
0.0
 40
0.6220666381702713
100
AcDbArc
 50
306.4977758989
 51
323.5022241011
  0
LINE
  5
207
330
1F
100
AcDbEntity
  8
0
  6
Continuous
 62
     7
370
    15
100
AcDbLine
 10
151.2863509581
 20
184.957270831
 30
0.0
 11
151.7882695646
 21
184.957270831
 31
0.0
  0
ARC
  5
208
330
1F
100
AcDbEntity
  8
0
  6
Continuous
 62
     7
370
    15
100
AcDbCircle
 10
145.1458180709
 20
185.3272703888
 30
0.0
 40
6.652748418399089
100
AcDbArc
 50
356.8117902867
 51
3.1882097133
  0
LINE
  5
209
330
1F
100
AcDbEntity
  8
0
  6
Continuous
 62
     7
370
    15
100
AcDbLine
 10
151.7882695646
 20
185.6972699465
 30
0.0
 11
151.2863509581
 21
185.6972699465
 31
0.0
  0
ARC
  5
20A
330
1F
100
AcDbEntity
  8
0
  6
Continuous
 62
     7
370
    15
100
AcDbCircle
 10
150.7862837926
 20
185.3272703143
 30
0.0
 40
0.6220666381702713
100
AcDbArc
 50
36.4977758989
 51
53.5022241011
  0
LINE
  5
20B
330
1F
100
AcDbEntity
  8
0
  6
Continuous
 62
     7
370
    15
100
AcDbLine
 10
151.1562833786
 20
185.8273365946
 30
0.0
 11
151.1562833786
 21
186.3292561324
 31
0.0
  0
ARC
  5
20C
330
1F
100
AcDbEntity
  8
0
  6
Continuous
 62
     7
370
    15
100
AcDbCircle
 10
150.7862833552
 20
179.687118318
 30
0.0
 40
6.652435250573923
100
AcDbArc
 50
86.8116360276
 51
93.1883639724
  0
LINE
  5
20D
330
1F
100
AcDbEntity
  8
0
  6
Continuous
 62
     7
370
    15
100
AcDbLine
 10
150.4162833319
 20
186.3292561324
 30
0.0
 11
150.4162833319
 21
185.8273365946
 31
0.0
  0
ARC
  5
20E
330
1F
100
AcDbEntity
  8
0
  6
Continuous
 62
     7
370
    15
100
AcDbCircle
 10
150.7862837926
 20
185.3272703143
 30
0.0
 40
0.6220666381702772
100
AcDbArc
 50
126.4977758989
 51
143.5022241011
  0
CIRCLE
  5
20F
330
1F
100
AcDbEntity
  8
0
  6
Continuous
 62
     7
370
    15
100
AcDbCircle
 10
150.7862837926
 20
185.3272703143
 30
0.0
 40
2.25
  0
ARC
  5
210
330
1F
100
AcDbEntity
  8
0
  6
Continuous
 62
     7
370
    15
100
AcDbCircle
 10
150.7862837926
 20
185.3272703143
 30
0.0
 40
0.5560000000000009
100
AcDbArc
 50
41.7182103817
 51
48.2817896183
  0
SPLINE
  5
211
330
1F
100
AcDbEntity
  8
0
  6
Continuous
 62
     7
370
    15
100
AcDbSpline
210
0.0
220
0.0
230
1.0
 70
    24
 71
     3
 72
     8
 73
     4
 74
     0
 42
0.00000001
 43
0.00000001
 12
1.0
 22
0.0
 32
0.0
 13
1.0
 23
0.0
 33
0.0
 40
0.0
 40
0.0
 40
0.0
 40
0.0
 40
1.0
 40
1.0
 40
1.0
 40
1.0
 10
151.1562837925976
 20
185.8273372121098
 30
0.0
 10
151.1562837925976
 20
185.7999348438434
 30
0.0
 10
151.1562837925976
 20
185.7717772824666
 30
0.0
 10
151.1562837925976
 20
185.7422835670611
 30
0.0
  0
SPLINE
  5
212
330
1F
100
AcDbEntity
  8
0
  6
Continuous
 62
     7
370
    15
100
AcDbSpline
210
0.0
220
0.0
230
1.0
 70
    24
 71
     3
 72
     8
 73
     4
 74
     0
 42
0.00000001
 43
0.00000001
 12
1.0
 22
0.0
 32
0.0
 13
1.0
 23
0.0
 33
0.0
 40
0.0
 40
0.0
 40
0.0
 40
0.0
 40
1.0
 40
1.0
 40
1.0
 40
1.0
 10
151.2863506904467
 20
185.6972703142607
 30
0.0
 10
151.2589483221803
 20
185.6972703142607
 30
0.0
 10
151.2307907608036
 20
185.6972703142607
 30
0.0
 10
151.201297045398
 20
185.6972703142607
 30
0.0
  0
SPLINE
  5
213
330
1F
100
AcDbEntity
  8
0
  6
Continuous
 62
     7
370
    15
100
AcDbSpline
210
0.0
220
0.0
230
1.0
 70
    24
 71
     3
 72
     8
 73
     4
 74
     0
 42
0.00000001
 43
0.00000001
 12
1.0
 22
0.0
 32
0.0
 13
1.0
 23
0.0
 33
0.0
 40
0.0
 40
0.0
 40
0.0
 40
0.0
 40
1.0
 40
1.0
 40
1.0
 40
1.0
 10
151.1562837925976
 20
184.8272034164115
 30
0.0
 10
151.1562837925976
 20
184.8546057846779
 30
0.0
 10
151.1562837925976
 20
184.8827633460547
 30
0.0
 10
151.1562837925976
 20
184.9122570614603
 30
0.0
  0
ARC
  5
214
330
1F
100
AcDbEntity
  8
0
  6
Continuous
 62
     7
370
    15
100
AcDbCircle
 10
150.7862837926
 20
185.3272703143
 30
0.0
 40
0.5560000000000009
100
AcDbArc
 50
311.7182103817
 51
318.2817896183
  0
SPLINE
  5
215
330
1F
100
AcDbEntity
  8
0
  6
Continuous
 62
     7
370
    15
100
AcDbSpline
210
0.0
220
0.0
230
1.0
 70
    24
 71
     3
 72
     8
 73
     4
 74
     0
 42
0.00000001
 43
0.00000001
 12
1.0
 22
0.0
 32
0.0
 13
1.0
 23
0.0
 33
0.0
 40
0.0
 40
0.0
 40
0.0
 40
0.0
 40
1.0
 40
1.0
 40
1.0
 40
1.0
 10
151.2863506904467
 20
184.9572703142607
 30
0.0
 10
151.2589483221803
 20
184.9572703142607
 30
0.0
 10
151.2307907608036
 20
184.9572703142607
 30
0.0
 10
151.201297045398
 20
184.9572703142607
 30
0.0
  0
SPLINE
  5
216
330
1F
100
AcDbEntity
  8
0
  6
Continuous
 62
     7
370
    15
100
AcDbSpline
210
0.0
220
0.0
230
1.0
 70
    24
 71
     3
 72
     8
 73
     4
 74
     0
 42
0.00000001
 43
0.00000001
 12
1.0
 22
0.0
 32
0.0
 13
1.0
 23
0.0
 33
0.0
 40
0.0
 40
0.0
 40
0.0
 40
0.0
 40
1.0
 40
1.0
 40
1.0
 40
1.0
 10
150.2862168947485
 20
185.6972703142607
 30
0.0
 10
150.3136192630148
 20
185.6972703142607
 30
0.0
 10
150.3417768243916
 20
185.6972703142607
 30
0.0
 10
150.3712705397972
 20
185.6972703142607
 30
0.0
  0
ARC
  5
217
330
1F
100
AcDbEntity
  8
0
  6
Continuous
 62
     7
370
    15
100
AcDbCircle
 10
150.7862837926
 20
185.3272703143
 30
0.0
 40
0.5560000000000009
100
AcDbArc
 50
131.7182103817
 51
138.2817896183
  0
SPLINE
  5
218
330
1F
100
AcDbEntity
  8
0
  6
Continuous
 62
     7
370
    15
100
AcDbSpline
210
0.0
220
0.0
230
1.0
 70
    24
 71
     3
 72
     8
 73
     4
 74
     0
 42
0.00000001
 43
0.00000001
 12
1.0
 22
0.0
 32
0.0
 13
1.0
 23
0.0
 33
0.0
 40
0.0
 40
0.0
 40
0.0
 40
0.0
 40
1.0
 40
1.0
 40
1.0
 40
1.0
 10
150.4162837925976
 20
185.8273372121098
 30
0.0
 10
150.4162837925976
 20
185.7999348438434
 30
0.0
 10
150.4162837925976
 20
185.7717772824666
 30
0.0
 10
150.4162837925976
 20
185.7422835670611
 30
0.0
  0
SPLINE
  5
219
330
1F
100
AcDbEntity
  8
0
  6
Continuous
 62
     7
370
    15
100
AcDbSpline
210
0.0
220
0.0
230
1.0
 70
    24
 71
     3
 72
     8
 73
     4
 74
     0
 42
0.00000001
 43
0.00000001
 12
1.0
 22
0.0
 32
0.0
 13
1.0
 23
0.0
 33
0.0
 40
0.0
 40
0.0
 40
0.0
 40
0.0
 40
1.0
 40
1.0
 40
1.0
 40
1.0
 10
150.2862168947485
 20
184.9572703142607
 30
0.0
 10
150.3136192630148
 20
184.9572703142607
 30
0.0
 10
150.3417768243916
 20
184.9572703142607
 30
0.0
 10
150.3712705397972
 20
184.9572703142607
 30
0.0
  0
ARC
  5
21A
330
1F
100
AcDbEntity
  8
0
  6
Continuous
 62
     7
370
    15
100
AcDbCircle
 10
150.7862837926
 20
185.3272703143
 30
0.0
 40
0.5560000000000009
100
AcDbArc
 50
221.7182103817
 51
228.2817896183
  0
SPLINE
  5
21B
330
1F
100
AcDbEntity
  8
0
  6
Continuous
 62
     7
370
    15
100
AcDbSpline
210
0.0
220
0.0
230
1.0
 70
    24
 71
     3
 72
     8
 73
     4
 74
     0
 42
0.00000001
 43
0.00000001
 12
1.0
 22
0.0
 32
0.0
 13
1.0
 23
0.0
 33
0.0
 40
0.0
 40
0.0
 40
0.0
 40
0.0
 40
1.0
 40
1.0
 40
1.0
 40
1.0
 10
150.4162837925976
 20
184.8272034164115
 30
0.0
 10
150.4162837925976
 20
184.8546057846779
 30
0.0
 10
150.4162837925976
 20
184.8827633460547
 30
0.0
 10
150.4162837925976
 20
184.9122570614603
 30
0.0
  0
LINE
  5
21C
330
1F
100
AcDbEntity
  8
0
  6
Continuous
 62
     7
370
    15
100
AcDbLine
 10
151.3827167675
 20
184.957270831
 30
0.0
 11
151.3827167675
 21
185.6972699465
 31
0.0
  0
LINE
  5
21D
330
1F
100
AcDbEntity
  8
0
  6
Continuous
 62
     7
370
    15
100
AcDbLine
 10
151.1562833786
 20
185.9237024041
 30
0.0
 11
150.4162833319
 21
185.9237024041
 31
0.0
  0
LINE
  5
21E
330
1F
100
AcDbEntity
  8
0
  6
Continuous
 62
     7
370
    15
100
AcDbLine
 10
150.4162833319
 20
184.7308383735
 30
0.0
 11
151.1562833786
 21
184.7308383735
 31
0.0
  0
LINE
  5
21F
330
1F
100
AcDbEntity
  8
0
  6
Continuous
 62
     7
370
    15
100
AcDbLine
 10
150.1898508743
 20
185.6972699465
 30
0.0
 11
150.1898508743
 21
184.957270831
 31
0.0
  0
ARC
  5
220
330
1F
100
AcDbEntity
  8
0
  6
Continuous
 62
     7
370
    15
100
AcDbCircle
 10
150.7862837926
 20
185.3272703143
 30
0.0
 40
0.5560000000000009
100
AcDbArc
 50
228.2817896183
 51
311.7182103817
  0
ARC
  5
221
330
1F
100
AcDbEntity
  8
0
  6
Continuous
 62
     7
370
    15
100
AcDbCircle
 10
150.7862837926
 20
185.3272703143
 30
0.0
 40
0.5560000000000009
100
AcDbArc
 50
138.2817896183
 51
221.7182103817
  0
ARC
  5
222
330
1F
100
AcDbEntity
  8
0
  6
Continuous
 62
     7
370
    15
100
AcDbCircle
 10
150.7862837926
 20
185.3272703143
 30
0.0
 40
0.5560000000000009
100
AcDbArc
 50
48.2817896183
 51
131.7182103817
  0
ARC
  5
223
330
1F
100
AcDbEntity
  8
0
  6
Continuous
 62
     7
370
    15
100
AcDbCircle
 10
150.7862837926
 20
185.3272703143
 30
0.0
 40
0.5560000000000009
100
AcDbArc
 50
318.2817896183
 51
41.7182103817
  0
LINE
  5
224
330
1F
100
AcDbEntity
  8
0
  6
Continuous
 62
     7
370
    15
100
AcDbLine
 10
154.9862841368
 20
186.7364378126
 30
0.0
 11
153.2590616718
 21
189.3272710444
 31
0.0
  0
LWPOLYLINE
  5
225
330
1F
100
AcDbEntity
  8
0
  6
Continuous
 62
     7
370
    15
100
AcDbPolyline
 90
        9
 70
   128
 43
0.0
 10
153.5086775423
 20
189.493679762
 10
153.503881231
 20
189.490483463
 10
153.4896766991
 20
189.481013775
 10
153.4666097016
 20
189.4656357767
 10
153.4355668575
 20
189.4449399264
 10
153.3977402598
 20
189.4197234364
 10
153.3545855657
 20
189.3909530194
 10
153.3077595979
 20
189.3597350867
 10
153.2590616718
 20
189.3272710444
  0
LINE
  5
226
330
1F
100
AcDbEntity
  8
0
  6
Continuous
 62
     7
370
    15
100
AcDbLine
 10
153.5086775423
 20
189.493679762
 30
0.0
 11
155.2358990759
 21
186.9028483929
 31
0.0
  0
LWPOLYLINE
  5
227
330
1F
100
AcDbEntity
  8
0
  6
Continuous
 62
     7
370
    15
100
AcDbPolyline
 90
        9
 70
   128
 43
0.0
 10
154.9862841368
 20
186.7364378126
 10
155.0349811316
 20
186.7689018549
 10
155.0818070993
 20
186.8001197876
 10
155.1249627248
 20
186.8288902046
 10
155.1627883912
 20
186.8541066946
 10
155.1938312352
 20
186.8748025449
 10
155.2168982327
 20
186.8901805432
 10
155.2311027646
 20
186.8996502312
 10
155.2358990759
 20
186.9028483929
  0
LINE
  5
228
330
1F
100
AcDbEntity
  8
0
  6
Continuous
 62
     7
370
    15
100
AcDbLine
 10
153.6620198042
 20
182.6272703187
 30
0.0
 11
154.9862841368
 21
183.9515337201
 31
0.0
  0
ARC
  5
229
330
1F
100
AcDbEntity
  8
0
  6
Continuous
 62
     7
370
    15
100
AcDbCircle
 10
154.0862837926
 20
182.2030062455
 30
0.0
 40
0.6000000000000227
100
AcDbArc
 50
135.0
 51
180.0
  0
LINE
  5
22A
330
1F
100
AcDbEntity
  8
0
  6
Continuous
 62
     7
370
    15
100
AcDbLine
 10
153.4862838909
 20
169.8272704093
 30
0.0
 11
153.4862838909
 21
182.2030063199
 31
0.0
  0
LINE
  5
22B
330
1F
100
AcDbEntity
  8
0
  6
Continuous
 62
     7
370
    15
100
AcDbLine
 10
140.8862838163
 20
169.8272704093
 30
0.0
 11
153.4862838909
 21
169.8272704093
 31
0.0
  0
LINE
  5
22C
330
1F
100
AcDbEntity
  8
0
  6
Continuous
 62
     7
370
    15
100
AcDbLine
 10
140.8862838163
 20
189.3272710444
 30
0.0
 11
140.8862838163
 21
169.8272704093
 31
0.0
  0
LINE
  5
22D
330
1F
100
AcDbEntity
  8
0
  6
Continuous
 62
     7
370
    15
100
AcDbLine
 10
153.2590616718
 20
189.3272710444
 30
0.0
 11
140.8862838163
 21
189.3272710444
 31
0.0
  0
LINE
  5
22E
330
1F
100
AcDbEntity
  8
0
  6
Continuous
 62
     7
370
    15
100
AcDbLine
 10
154.9862841368
 20
183.9515337201
 30
0.0
 11
154.9862841368
 21
186.7364378126
 31
0.0
  0
LINE
  5
22F
330
1F
100
AcDbEntity
  8
0
  6
Continuous
 62
     7
370
    15
100
AcDbLine
 10
154.9862841368
 20
186.7364378126
 30
0.0
 11
155.2862836272
 21
186.7364378126
 31
0.0
  0
LINE
  5
230
330
1F
100
AcDbEntity
  8
0
  6
Continuous
 62
     7
370
    15
100
AcDbLine
 10
155.2862836272
 20
186.7364378126
 30
0.0
 11
155.2862836272
 21
183.9515337201
 31
0.0
  0
LINE
  5
231
330
1F
100
AcDbEntity
  8
0
  6
Continuous
 62
     7
370
    15
100
AcDbLine
 10
154.9862841368
 20
183.9515337201
 30
0.0
 11
155.2862836272
 21
183.9515337201
 31
0.0
  0
ARC
  5
232
330
1F
100
AcDbEntity
  8
0
  6
Continuous
 62
     7
370
    15
100
AcDbCircle
 10
154.9862837926
 20
186.7364376229
 30
0.0
 40
0.3000000000000398
100
AcDbArc
 50
0.0
 51
33.690067526
  0
LWPOLYLINE
  5
233
330
1F
100
AcDbEntity
  8
0
  6
Continuous
 62
     7
370
    15
100
AcDbPolyline
 90
       10
 70
   128
 43
0.0
 10
153.5086775423
 20
189.493679762
 10
153.4855239317
 20
189.5284106435
 10
153.4630744011
 20
189.5620835425
 10
153.4420106784
 20
189.5936795922
 10
153.422971651
 20
189.6222376676
 10
153.4065375328
 20
189.6468897762
 10
153.3932065815
 20
189.6668852718
 10
153.3833848536
 20
189.681618795
 10
153.3773694411
 20
189.6906414481
 10
153.3753438145
 20
189.6936812849
  0
LWPOLYLINE
  5
234
330
1F
100
AcDbEntity
  8
0
  6
Continuous
 62
     7
370
    15
100
AcDbPolyline
 90
       10
 70
   128
 43
0.0
 10
153.1257288754
 20
189.8272701951
 10
153.127754502
 20
189.8196743281
 10
153.1337699146
 20
189.7971158327
 10
153.1435916424
 20
189.7602838875
 10
153.1569225938
 20
189.7102923544
 10
153.1733567119
 20
189.648664877
 10
153.1923957393
 20
189.5772696884
 10
153.213459462
 20
189.4982804956
 10
153.2359089926
 20
189.4140945228
 10
153.2590616718
 20
189.3272710444
  0
ARC
  5
235
330
1F
100
AcDbEntity
  8
0
  6
Continuous
 62
     7
370
    15
100
AcDbCircle
 10
153.1257286651
 20
189.5272703143
 30
0.0
 40
0.3000000000000131
100
AcDbArc
 50
33.690067526
 51
90.0
  0
ARC
  5
236
330
1F
100
AcDbEntity
  8
0
  6
Continuous
 62
     7
370
    15
100
AcDbCircle
 10
154.9862837926
 20
183.951534383
 30
0.0
 40
0.3000000000000398
100
AcDbArc
 50
315.0
 51
0.0
  0
LWPOLYLINE
  5
237
330
1F
100
AcDbEntity
  8
0
  6
Continuous
 62
     7
370
    15
100
AcDbPolyline
 90
        9
 70
   128
 43
0.0
 10
154.9862841368
 20
183.9515337201
 10
155.0276683867
 20
183.9101494701
 10
155.067462869
 20
183.8703540565
 10
155.104138352
 20
183.8336804362
 10
155.136283882
 20
183.8015349062
 10
155.1626654566
 20
183.7751524003
 10
155.1822679341
 20
183.7555499227
 10
155.1943397373
 20
183.7434781195
 10
155.1984161362
 20
183.739402652
  0
LINE
  5
238
330
1F
100
AcDbEntity
  8
0
  6
Continuous
 62
     7
370
    15
100
AcDbLine
 10
140.8862838163
 20
189.8272701951
 30
0.0
 11
153.1257288754
 21
189.8272701951
 31
0.0
  0
LINE
  5
239
330
1F
100
AcDbEntity
  8
0
  6
Continuous
 62
     7
370
    15
100
AcDbLine
 10
140.8862838163
 20
189.8272701951
 30
0.0
 11
140.8862838163
 21
189.3272710444
 31
0.0
  0
LINE
  5
23A
330
1F
100
AcDbEntity
  8
0
  6
Continuous
 62
     7
370
    15
100
AcDbLine
 10
155.1984161362
 20
183.739402652
 30
0.0
 11
153.8741518036
 21
182.4151383193
 31
0.0
  0
LINE
  5
23B
330
1F
100
AcDbEntity
  8
0
  6
Continuous
 62
     7
370
    15
100
AcDbLine
 10
153.6620198042
 20
182.6272703187
 30
0.0
 11
153.8741518036
 21
182.4151383193
 31
0.0
  0
ARC
  5
23C
330
1F
100
AcDbEntity
  8
0
  6
Continuous
 62
     7
370
    15
100
AcDbCircle
 10
154.0862837926
 20
182.2030062455
 30
0.0
 40
0.2999999999999944
100
AcDbArc
 50
135.0
 51
180.0
  0
LINE
  5
23D
330
1F
100
AcDbEntity
  8
0
  6
Continuous
 62
     7
370
    15
100
AcDbLine
 10
153.4862838909
 20
182.2030063199
 30
0.0
 11
153.7862833813
 21
182.2030063199
 31
0.0
  0
LINE
  5
23E
330
1F
100
AcDbEntity
  8
0
  6
Continuous
 62
     7
370
    15
100
AcDbLine
 10
153.7862833813
 20
182.2030063199
 30
0.0
 11
153.7862833813
 21
169.8272704093
 31
0.0
  0
LINE
  5
23F
330
1F
100
AcDbEntity
  8
0
  6
Continuous
 62
     7
370
    15
100
AcDbLine
 10
153.4862838909
 20
169.8272704093
 30
0.0
 11
153.7862833813
 21
169.8272704093
 31
0.0
  0
LINE
  5
240
330
1F
100
AcDbEntity
  8
0
  6
Continuous
 62
     7
370
    15
100
AcDbLine
 10
153.4862838909
 20
167.8272703143
 30
0.0
 11
153.4862838909
 21
169.8272704093
 31
0.0
  0
LINE
  5
241
330
1F
100
AcDbEntity
  8
0
  6
Continuous
 62
     7
370
    15
100
AcDbLine
 10
153.7862833813
 20
168.1272703285
 30
0.0
 11
153.7862833813
 21
169.8272704093
 31
0.0
  0
ARC
  5
242
330
1F
100
AcDbEntity
  8
0
  6
Continuous
 62
     7
370
    15
100
AcDbCircle
 10
153.4862837926
 20
168.1272703143
 30
0.0
 40
0.3000000000000114
100
AcDbArc
 50
270.0
 51
0.0
  0
LINE
  5
243
330
1F
100
AcDbEntity
  8
0
  6
Continuous
 62
     7
370
    15
100
AcDbLine
 10
153.4862838909
 20
167.8272703143
 30
0.0
 11
140.8862838163
 21
167.8272703143
 31
0.0
  0
LINE
  5
244
330
1F
100
AcDbEntity
  8
0
  6
Continuous
 62
     7
370
    15
100
AcDbLine
 10
140.8862838163
 20
167.8272703143
 30
0.0
 11
140.8862838163
 21
169.8272704093
 31
0.0
  0
LINE
  5
245
330
1F
100
AcDbEntity
  8
0
  6
Continuous
 62
     7
370
    15
100
AcDbLine
 10
140.3862837926
 20
189.3272710444
 30
0.0
 11
140.8862838163
 21
189.3272710444
 31
0.0
  0
ARC
  5
246
330
1F
100
AcDbEntity
  8
0
  6
Continuous
 62
     7
370
    15
100
AcDbCircle
 10
140.8862837926
 20
189.3272703143
 30
0.0
 40
0.5
100
AcDbArc
 50
90.0
 51
180.0
  0
LINE
  5
247
330
1F
100
AcDbEntity
  8
0
  6
Continuous
 62
     7
370
    15
100
AcDbLine
 10
140.3862837926
 20
169.8272704093
 30
0.0
 11
140.3862837926
 21
174.7047713438
 31
0.0
  0
LINE
  5
248
330
1F
100
AcDbEntity
  8
0
  6
Continuous
 62
     7
370
    15
100
AcDbLine
 10
140.3862837926
 20
180.9497693034
 30
0.0
 11
140.3862837926
 21
189.3272710444
 31
0.0
  0
LINE
  5
249
330
1F
100
AcDbEntity
  8
0
  6
Continuous
 62
     7
370
    15
100
AcDbLine
 10
140.3862837926
 20
169.8272704093
 30
0.0
 11
140.8862838163
 21
169.8272704093
 31
0.0
  0
LINE
  5
24A
330
1F
100
AcDbEntity
  8
0
  6
Continuous
 62
     7
370
    15
100
AcDbLine
 10
140.3862837926
 20
169.8272704093
 30
0.0
 11
140.3862837926
 21
168.327270338
 31
0.0
  0
ARC
  5
24B
330
1F
100
AcDbEntity
  8
0
  6
Continuous
 62
     7
370
    15
100
AcDbCircle
 10
140.8862837926
 20
168.3272703143
 30
0.0
 40
0.5
100
AcDbArc
 50
180.0
 51
270.0
  0
LINE
  5
24C
330
1F
100
AcDbEntity
  8
0
  6
Continuous
 62
     7
370
    15
100
AcDbLine
 10
140.3862837926
 20
180.9497693034
 30
0.0
 11
140.3862837926
 21
174.7047713438
 31
0.0
  0
LINE
  5
24D
330
1F
100
AcDbEntity
  8
0
  6
Continuous
 62
     7
370
    15
100
AcDbLine
 10
140.3862837926
 20
168.327270338
 30
0.0
 11
140.3862837926
 21
167.8272703143
 31
0.0
  0
CIRCLE
  5
24E
330
1F
100
AcDbEntity
  8
0
  6
Continuous
 62
     7
370
    15
100
AcDbCircle
 10
150.7862837926
 20
185.3272703143
 30
0.0
 40
2.999999999999953
  0
LINE
  5
24F
330
1F
100
AcDbEntity
  8
0
  6
Continuous
 62
     7
370
    15
100
AcDbLine
 10
60.3862855807
 20
179.5534466805
 30
0.0
 11
57.8862805143
 21
179.5534466805
 31
0.0
  0
LINE
  5
250
330
1F
100
AcDbEntity
  8
0
  6
Continuous
 62
     7
370
    15
100
AcDbLine
 10
57.8862805143
 20
179.5534466805
 30
0.0
 11
57.8862805143
 21
181.8632300423
 31
0.0
  0
LINE
  5
251
330
1F
100
AcDbEntity
  8
0
  6
Continuous
 62
     7
370
    15
100
AcDbLine
 10
60.3862855807
 20
181.8632300423
 30
0.0
 11
57.8862805143
 21
181.8632300423
 31
0.0
  0
LINE
  5
252
330
1F
100
AcDbEntity
  8
0
  6
Continuous
 62
     7
370
    15
100
AcDbLine
 10
60.3862855807
 20
175.5174876602
 30
0.0
 11
57.8862805143
 21
175.5174876602
 31
0.0
  0
LINE
  5
253
330
1F
100
AcDbEntity
  8
0
  6
Continuous
 62
     7
370
    15
100
AcDbLine
 10
57.8862805143
 20
175.5174876602
 30
0.0
 11
57.8862805143
 21
179.5534466805
 31
0.0
  0
LINE
  5
254
330
1F
100
AcDbEntity
  8
0
  6
Continuous
 62
     7
370
    15
100
AcDbLine
 10
60.3862855807
 20
173.7913110705
 30
0.0
 11
57.8862805143
 21
173.7913110705
 31
0.0
  0
LINE
  5
255
330
1F
100
AcDbEntity
  8
0
  6
Continuous
 62
     7
370
    15
100
AcDbLine
 10
57.8862805143
 20
173.7913110705
 30
0.0
 11
57.8862805143
 21
175.5174876602
 31
0.0
  0
LINE
  5
256
330
1F
100
AcDbEntity
  8
0
  6
Continuous
 62
     7
370
    15
100
AcDbLine
 10
55.8862839118
 20
176.0772702696
 30
0.0
 11
55.8862839118
 21
176.829216391
 31
0.0
  0
LINE
  5
257
330
1F
100
AcDbEntity
  8
0
  6
Continuous
 62
     7
370
    15
100
AcDbLine
 10
55.8862839118
 20
176.829216391
 30
0.0
 11
55.8862839118
 21
179.5772699119
 31
0.0
  0
LINE
  5
258
330
1F
100
AcDbEntity
  8
0
  6
Continuous
 62
     7
370
    15
100
AcDbLine
 10
53.386286296
 20
176.0772702696
 30
0.0
 11
53.386286296
 21
176.829216391
 31
0.0
  0
LINE
  5
259
330
1F
100
AcDbEntity
  8
0
  6
Continuous
 62
     7
370
    15
100
AcDbLine
 10
53.386286296
 20
176.829216391
 30
0.0
 11
53.386286296
 21
179.5772699119
 31
0.0
  0
LINE
  5
25A
330
1F
100
AcDbEntity
  8
0
  6
Continuous
 62
     7
370
    15
100
AcDbLine
 10
50.8862812296
 20
176.3272707762
 30
0.0
 11
50.8862812296
 21
179.3272703366
 31
0.0
  0
LINE
  5
25B
330
1F
100
AcDbEntity
  8
0
  6
Continuous
 62
     7
370
    15
100
AcDbLine
 10
155.2840205133
 20
183.9147520663
 30
0.0
 11
156.6362831966
 21
183.9147520663
 31
0.0
  0
DIMENSION
  5
25C
330
1F
100
AcDbEntity
  8
0
  6
Continuous
 62
     7
370
     0
100
AcDbDimension
  2
_D_8
 10
47.3474026206
 20
167.8272703143
 30
0.0
 11
47.3474026206
 21
178.1681881354
 31
0.0
 70
   160
  1
%%c<>
 71
     2
 42
-1.0
  3
SLDDIMSTYLE1
100
AcDbAlignedDimension
 13
61.3862837926
 23
187.8272703143
 33
0.0
 14
61.3862837926
 24
167.8272703143
 34
0.0
 50
90.0
100
AcDbRotatedDimension
  0
LINE
  5
267
330
1F
100
AcDbEntity
  8
0
  6
CENTERX2
 62
     7
370
     0
100
AcDbLine
 10
142.3862837926
 20
177.8272703143
 30
0.0
 11
63.3862837926
 21
177.8272703143
 31
0.0
  0
LINE
  5
268
330
1F
100
AcDbEntity
  8
0
  6
Continuous
 62
     7
370
    15
100
AcDbLine
 10
154.8362834603
 20
104.6478770077
 30
0.0
 11
156.6362831966
 21
104.6478770077
 31
0.0
  0
LINE
  5
269
330
1F
100
AcDbEntity
  8
0
  6
Continuous
 62
     7
370
    15
100
AcDbLine
 10
156.6362831966
 20
121.6478779316
 30
0.0
 11
154.8362834603
 21
121.6478779316
 31
0.0
  0
LINE
  5
26A
330
1F
100
AcDbEntity
  8
0
  6
Continuous
 62
     7
370
    15
100
AcDbLine
 10
154.9862841368
 20
109.5478775315
 30
0.0
 11
154.9862841368
 21
111.1478773746
 31
0.0
  0
LINE
  5
26B
330
1F
100
AcDbEntity
  8
0
  6
Continuous
 62
     7
370
    15
100
AcDbLine
 10
154.9862841368
 20
115.1478775646
 30
0.0
 11
154.9862841368
 21
116.7478774078
 31
0.0
  0
LINE
  5
26C
330
1F
100
AcDbEntity
  8
0
  6
Continuous
 62
     7
370
    15
100
AcDbLine
 10
63.5862801448
 20
103.1478776931
 30
0.0
 11
65.3862808124
 21
103.1478776931
 31
0.0
  0
LINE
  5
26D
330
1F
100
AcDbEntity
  8
0
  6
Continuous
 62
     7
370
    15
100
AcDbLine
 10
65.3862808124
 20
123.1478772461
 30
0.0
 11
63.5862801448
 21
123.1478772461
 31
0.0
  0
LINE
  5
26E
330
1F
100
AcDbEntity
  8
0
  6
Continuous
 62
     7
370
    15
100
AcDbLine
 10
63.5862801448
 20
123.1478772461
 30
0.0
 11
63.3862842098
 21
122.9478775858
 31
0.0
  0
LINE
  5
26F
330
1F
100
AcDbEntity
  8
0
  6
Continuous
 62
     7
370
    15
100
AcDbLine
 10
63.3862842098
 20
103.3478773534
 30
0.0
 11
63.5862801448
 21
103.1478776931
 31
0.0
  0
LINE
  5
270
330
1F
100
AcDbEntity
  8
0
  6
Continuous
 62
     7
370
    15
100
AcDbLine
 10
154.4862840549
 20
108.9978775344
 30
0.0
 11
154.4862840549
 21
109.3978775534
 31
0.0
  0
LINE
  5
271
330
1F
100
AcDbEntity
  8
0
  6
Continuous
 62
     7
370
    15
100
AcDbLine
 10
154.4862840549
 20
116.8978773858
 30
0.0
 11
154.4862840549
 21
117.2978774048
 31
0.0
  0
ARC
  5
272
330
1F
100
AcDbEntity
  8
0
  6
Continuous
 62
     7
370
    15
100
AcDbCircle
 10
150.7862837926
 20
121.8478774696
 30
0.0
 40
3.00000000000001
100
AcDbArc
 50
109.7201233494
 51
138.5903778907
  0
ARC
  5
273
330
1F
100
AcDbEntity
  8
0
  6
Continuous
 62
     7
370
    15
100
AcDbCircle
 10
150.7862837926
 20
121.8478774696
 30
0.0
 40
2.999999999999995
100
AcDbArc
 50
41.4096221093
 51
70.2798766506
  0
LINE
  5
274
330
1F
100
AcDbEntity
  8
0
  6
Continuous
 62
     7
370
    15
100
AcDbLine
 10
148.5362839178
 20
123.8321907222
 30
0.0
 11
148.5362839178
 21
123.6478773281
 31
0.0
  0
LINE
  5
275
330
1F
100
AcDbEntity
  8
0
  6
Continuous
 62
     7
370
    15
100
AcDbLine
 10
153.0362837241
 20
123.6478773281
 30
0.0
 11
153.0362837241
 21
123.8321907222
 31
0.0
  0
LINE
  5
276
330
1F
100
AcDbEntity
  8
0
  6
Continuous
 62
     7
370
    15
100
AcDbLine
 10
153.0362837241
 20
102.4635642171
 30
0.0
 11
153.0362837241
 21
102.6478776112
 31
0.0
  0
LINE
  5
277
330
1F
100
AcDbEntity
  8
0
  6
Continuous
 62
     7
370
    15
100
AcDbLine
 10
148.5362839178
 20
102.6478776112
 30
0.0
 11
148.5362839178
 21
102.4635642171
 31
0.0
  0
ARC
  5
278
330
1F
100
AcDbEntity
  8
0
  6
Continuous
 62
     7
370
    15
100
AcDbCircle
 10
150.7862837926
 20
104.4478774696
 30
0.0
 40
3.000000000000024
100
AcDbArc
 50
221.4096221093
 51
255.897506766
  0
ARC
  5
279
330
1F
100
AcDbEntity
  8
0
  6
Continuous
 62
     7
370
    15
100
AcDbCircle
 10
150.7862837926
 20
104.4478774696
 30
0.0
 40
3.000000000000008
100
AcDbArc
 50
284.102493234
 51
318.5903778907
  0
LINE
  5
27A
330
1F
100
AcDbEntity
  8
0
  6
Continuous
 62
     7
370
    15
100
AcDbLine
 10
154.5362839699
 20
107.3978774584
 30
0.0
 11
154.5362839699
 21
108.1478775814
 31
0.0
  0
LINE
  5
27B
330
1F
100
AcDbEntity
  8
0
  6
Continuous
 62
     7
370
    15
100
AcDbLine
 10
140.3862837926
 20
123.1478772461
 30
0.0
 11
65.3862808124
 21
123.1478772461
 31
0.0
  0
LINE
  5
27C
330
1F
100
AcDbEntity
  8
0
  6
Continuous
 62
     7
370
    15
100
AcDbLine
 10
65.3862808124
 20
103.1478776931
 30
0.0
 11
140.3862837926
 21
103.1478776931
 31
0.0
  0
LINE
  5
27D
330
1F
100
AcDbEntity
  8
0
  6
Continuous
 62
     7
370
    15
100
AcDbLine
 10
147.7862837948
 20
123.6478773281
 30
0.0
 11
147.7862837948
 21
123.1478772461
 31
0.0
  0
LINE
  5
27E
330
1F
100
AcDbEntity
  8
0
  6
Continuous
 62
     7
370
    15
100
AcDbLine
 10
153.7862833813
 20
123.1478772461
 30
0.0
 11
153.7862833813
 21
123.6478773281
 31
0.0
  0
LINE
  5
27F
330
1F
100
AcDbEntity
  8
0
  6
Continuous
 62
     7
370
    15
100
AcDbLine
 10
147.7862837948
 20
103.1478776931
 30
0.0
 11
147.7862837948
 21
102.6478776112
 31
0.0
  0
LINE
  5
280
330
1F
100
AcDbEntity
  8
0
  6
Continuous
 62
     7
370
    15
100
AcDbLine
 10
153.7862833813
 20
102.6478776112
 30
0.0
 11
153.7862833813
 21
103.1478776931
 31
0.0
  0
LINE
  5
281
330
1F
100
AcDbEntity
  8
0
  6
Continuous
 62
     7
370
    15
100
AcDbLine
 10
154.5362839699
 20
118.1478773579
 30
0.0
 11
154.5362839699
 21
118.8978774808
 31
0.0
  0
LINE
  5
282
330
1F
100
AcDbEntity
  8
0
  6
Continuous
 62
     7
370
    15
100
AcDbLine
 10
55.8862839118
 20
114.8978775236
 30
0.0
 11
53.386286296
 21
114.6478774827
 31
0.0
  0
LINE
  5
283
330
1F
100
AcDbEntity
  8
0
  6
Continuous
 62
     7
370
    15
100
AcDbLine
 10
53.386286296
 20
111.6478774566
 30
0.0
 11
55.8862839118
 21
111.3978774156
 31
0.0
  0
LINE
  5
284
330
1F
100
AcDbEntity
  8
0
  6
Continuous
 62
     7
370
    15
100
AcDbLine
 10
53.386286296
 20
114.8978775236
 30
0.0
 11
50.8862812296
 21
114.6478774827
 31
0.0
  0
LINE
  5
285
330
1F
100
AcDbEntity
  8
0
  6
Continuous
 62
     7
370
    15
100
AcDbLine
 10
50.8862812296
 20
111.6478774566
 30
0.0
 11
53.386286296
 21
111.3978774156
 31
0.0
  0
LINE
  5
286
330
1F
100
AcDbEntity
  8
0
  6
Continuous
 62
     7
370
    15
100
AcDbLine
 10
55.8862839118
 20
111.54787751
 30
0.0
 11
57.8862805143
 21
111.54787751
 31
0.0
  0
LINE
  5
287
330
1F
100
AcDbEntity
  8
0
  6
Continuous
 62
     7
370
    15
100
AcDbLine
 10
57.8862805143
 20
114.7478774292
 30
0.0
 11
55.8862839118
 21
114.7478774292
 31
0.0
  0
LINE
  5
288
330
1F
100
AcDbEntity
  8
0
  6
Continuous
 62
     7
370
    15
100
AcDbLine
 10
158.7362833545
 20
122.6478771641
 30
0.0
 11
156.6362831966
 21
122.6478771641
 31
0.0
  0
LINE
  5
289
330
1F
100
AcDbEntity
  8
0
  6
Continuous
 62
     7
370
    15
100
AcDbLine
 10
156.6362831966
 20
122.6478771641
 30
0.0
 11
156.6362831966
 21
123.1478772461
 31
0.0
  0
LINE
  5
28A
330
1F
100
AcDbEntity
  8
0
  6
Continuous
 62
     7
370
    15
100
AcDbLine
 10
156.6362831966
 20
123.1478772461
 30
0.0
 11
158.7362833545
 21
123.1478772461
 31
0.0
  0
LINE
  5
28B
330
1F
100
AcDbEntity
  8
0
  6
Continuous
 62
     7
370
    15
100
AcDbLine
 10
158.7362833545
 20
123.1478772461
 30
0.0
 11
158.7362833545
 21
122.6478771641
 31
0.0
  0
LINE
  5
28C
330
1F
100
AcDbEntity
  8
0
  6
Continuous
 62
     7
370
    15
100
AcDbLine
 10
156.6362831966
 20
103.6478777751
 30
0.0
 11
158.7362833545
 21
103.6478777751
 31
0.0
  0
LINE
  5
28D
330
1F
100
AcDbEntity
  8
0
  6
Continuous
 62
     7
370
    15
100
AcDbLine
 10
156.6362831966
 20
103.6478777751
 30
0.0
 11
156.6362831966
 21
111.1478773746
 31
0.0
  0
LINE
  5
28E
330
1F
100
AcDbEntity
  8
0
  6
Continuous
 62
     7
370
    15
100
AcDbLine
 10
156.6362831966
 20
111.1478773746
 30
0.0
 11
153.7862833813
 21
111.1478773746
 31
0.0
  0
LINE
  5
28F
330
1F
100
AcDbEntity
  8
0
  6
Continuous
 62
     7
370
    15
100
AcDbLine
 10
153.7862833813
 20
115.1478775646
 30
0.0
 11
156.6362831966
 21
115.1478775646
 31
0.0
  0
LINE
  5
290
330
1F
100
AcDbEntity
  8
0
  6
Continuous
 62
     7
370
    15
100
AcDbLine
 10
156.6362831966
 20
115.1478775646
 30
0.0
 11
156.6362831966
 21
122.6478771641
 31
0.0
  0
LINE
  5
291
330
1F
100
AcDbEntity
  8
0
  6
Continuous
 62
     7
370
    15
100
AcDbLine
 10
158.7362833545
 20
103.6478777751
 30
0.0
 11
158.7362833545
 21
122.6478771641
 31
0.0
  0
LINE
  5
292
330
1F
100
AcDbEntity
  8
0
  6
Continuous
 62
     7
370
    15
100
AcDbLine
 10
158.7362833545
 20
103.1478776931
 30
0.0
 11
156.6362831966
 21
103.1478776931
 31
0.0
  0
LINE
  5
293
330
1F
100
AcDbEntity
  8
0
  6
Continuous
 62
     7
370
    15
100
AcDbLine
 10
156.6362831966
 20
103.1478776931
 30
0.0
 11
156.6362831966
 21
103.6478777751
 31
0.0
  0
LINE
  5
294
330
1F
100
AcDbEntity
  8
0
  6
Continuous
 62
     7
370
    15
100
AcDbLine
 10
158.7362833545
 20
103.6478777751
 30
0.0
 11
158.7362833545
 21
103.1478776931
 31
0.0
  0
LINE
  5
295
330
1F
100
AcDbEntity
  8
0
  6
Continuous
 62
     7
370
    15
100
AcDbLine
 10
154.8362834603
 20
109.1478772796
 30
0.0
 11
156.6362831966
 21
109.1478772796
 31
0.0
  0
LINE
  5
296
330
1F
100
AcDbEntity
  8
0
  6
Continuous
 62
     7
370
    15
100
AcDbLine
 10
154.8362834603
 20
109.1478772796
 30
0.0
 11
154.8362834603
 21
109.5478775315
 31
0.0
  0
LINE
  5
297
330
1F
100
AcDbEntity
  8
0
  6
Continuous
 62
     7
370
    15
100
AcDbLine
 10
154.8362834603
 20
117.1478776596
 30
0.0
 11
156.6362831966
 21
117.1478776596
 31
0.0
  0
LINE
  5
298
330
1F
100
AcDbEntity
  8
0
  6
Continuous
 62
     7
370
    15
100
AcDbLine
 10
154.8362834603
 20
116.7478774078
 30
0.0
 11
154.8362834603
 21
117.1478776596
 31
0.0
  0
LINE
  5
299
330
1F
100
AcDbEntity
  8
0
  6
Continuous
 62
     7
370
    15
100
AcDbLine
 10
154.8362834603
 20
107.1478774175
 30
0.0
 11
156.6362831966
 21
107.1478774175
 31
0.0
  0
LINE
  5
29A
330
1F
100
AcDbEntity
  8
0
  6
Continuous
 62
     7
370
    15
100
AcDbLine
 10
154.8362834603
 20
104.6478770077
 30
0.0
 11
154.8362834603
 21
107.1478774175
 31
0.0
  0
LINE
  5
29B
330
1F
100
AcDbEntity
  8
0
  6
Continuous
 62
     7
370
    15
100
AcDbLine
 10
154.8362834603
 20
119.1478775218
 30
0.0
 11
156.6362831966
 21
119.1478775218
 31
0.0
  0
LINE
  5
29C
330
1F
100
AcDbEntity
  8
0
  6
Continuous
 62
     7
370
    15
100
AcDbLine
 10
154.8362834603
 20
119.1478775218
 30
0.0
 11
154.8362834603
 21
121.6478779316
 31
0.0
  0
LINE
  5
29D
330
1F
100
AcDbEntity
  8
0
  6
Continuous
 62
     7
370
    15
100
AcDbLine
 10
154.8362834603
 20
117.1478776596
 30
0.0
 11
154.8362834603
 21
119.1478775218
 31
0.0
  0
LINE
  5
29E
330
1F
100
AcDbEntity
  8
0
  6
Continuous
 62
     7
370
    15
100
AcDbLine
 10
154.8362834603
 20
107.1478774175
 30
0.0
 11
154.8362834603
 21
109.1478772796
 31
0.0
  0
LINE
  5
29F
330
1F
100
AcDbEntity
  8
0
  6
Continuous
 62
     7
370
    15
100
AcDbLine
 10
154.7362836302
 20
118.1478773579
 30
0.0
 11
154.8362834603
 21
118.1478773579
 31
0.0
  0
LINE
  5
2A0
330
1F
100
AcDbEntity
  8
0
  6
Continuous
 62
     7
370
    15
100
AcDbLine
 10
154.8362834603
 20
108.1478775814
 30
0.0
 11
154.7362836302
 21
108.1478775814
 31
0.0
  0
LINE
  5
2A1
330
1F
100
AcDbEntity
  8
0
  6
Continuous
 62
     7
370
    15
100
AcDbLine
 10
154.7362836302
 20
118.1478773579
 30
0.0
 11
153.7862833813
 21
118.1478773579
 31
0.0
  0
LINE
  5
2A2
330
1F
100
AcDbEntity
  8
0
  6
Continuous
 62
     7
370
    15
100
AcDbLine
 10
154.7362836302
 20
108.1478775814
 30
0.0
 11
153.7862833813
 21
108.1478775814
 31
0.0
  0
LINE
  5
2A3
330
1F
100
AcDbEntity
  8
0
  6
Continuous
 62
     7
370
    15
100
AcDbLine
 10
154.9862841368
 20
109.5478775315
 30
0.0
 11
153.7862833813
 21
109.5478775315
 31
0.0
  0
LINE
  5
2A4
330
1F
100
AcDbEntity
  8
0
  6
Continuous
 62
     7
370
    15
100
AcDbLine
 10
154.9862841368
 20
116.7478774078
 30
0.0
 11
153.7862833813
 21
116.7478774078
 31
0.0
  0
LINE
  5
2A5
330
1F
100
AcDbEntity
  8
0
  6
Continuous
 62
     7
370
    15
100
AcDbLine
 10
61.3862801567
 20
105.1478770896
 30
0.0
 11
61.3862801567
 21
121.1478778496
 31
0.0
  0
SPLINE
  5
2A6
330
1F
100
AcDbEntity
  8
0
  6
Continuous
 62
     7
370
    15
100
AcDbSpline
210
0.0
220
0.0
230
1.0
 70
    24
 71
     3
 72
     8
 73
     4
 74
     0
 42
0.00000001
 43
0.00000001
 12
1.0
 22
0.0
 32
0.0
 13
1.0
 23
0.0
 33
0.0
 40
0.0
 40
0.0
 40
0.0
 40
0.0
 40
1.0
 40
1.0
 40
1.0
 40
1.0
 10
61.38628379259779
 20
105.1478774696188
 30
0.0
 10
61.10103998687561
 20
105.1478774696188
 30
0.0
 10
60.8318304976533
 20
105.1478774696188
 30
0.0
 10
60.58628379259775
 20
105.1478774696188
 30
0.0
  0
SPLINE
  5
2A7
330
1F
100
AcDbEntity
  8
0
  6
Continuous
 62
     7
370
    15
100
AcDbSpline
210
0.0
220
0.0
230
1.0
 70
    24
 71
     3
 72
     8
 73
     4
 74
     0
 42
0.00000001
 43
0.00000001
 12
1.0
 22
0.0
 32
0.0
 13
1.0
 23
0.0
 33
0.0
 40
0.0
 40
0.0
 40
0.0
 40
0.0
 40
0.0002877909434268
 40
0.0002877909434268
 40
0.0002877909434268
 40
0.0002877909434268
 10
60.38628379259779
 20
105.3478774696188
 30
0.0
 10
60.45293697455755
 20
105.2812242876591
 30
0.0
 10
60.51960386913968
 20
105.2145573930769
 30
0.0
 10
60.5862837925978
 20
105.1478774696188
 30
0.0
  0
LINE
  5
2A8
330
1F
100
AcDbEntity
  8
0
  6
Continuous
 62
     7
370
    15
100
AcDbLine
 10
60.3862855807
 20
105.3478776812
 30
0.0
 11
60.3862855807
 21
120.947877258
 31
0.0
  0
SPLINE
  5
2A9
330
1F
100
AcDbEntity
  8
0
  6
Continuous
 62
     7
370
    15
100
AcDbSpline
210
0.0
220
0.0
230
1.0
 70
    24
 71
     3
 72
     8
 73
     4
 74
     0
 42
0.00000001
 43
0.00000001
 12
1.0
 22
0.0
 32
0.0
 13
1.0
 23
0.0
 33
0.0
 40
0.0
 40
0.0
 40
0.0
 40
0.0
 40
0.0002877909434268
 40
0.0002877909434268
 40
0.0002877909434268
 40
0.0002877909434268
 10
60.58628379259763
 20
121.1478774696188
 30
0.0
 10
60.51960386913952
 20
121.0811975461607
 30
0.0
 10
60.45293697455737
 20
121.0145306515786
 30
0.0
 10
60.38628379259762
 20
120.9478774696188
 30
0.0
  0
SPLINE
  5
2AA
330
1F
100
AcDbEntity
  8
0
  6
Continuous
 62
     7
370
    15
100
AcDbSpline
210
0.0
220
0.0
230
1.0
 70
    24
 71
     3
 72
     8
 73
     4
 74
     0
 42
0.00000001
 43
0.00000001
 12
1.0
 22
0.0
 32
0.0
 13
1.0
 23
0.0
 33
0.0
 40
0.0
 40
0.0
 40
0.0
 40
0.0
 40
1.0
 40
1.0
 40
1.0
 40
1.0
 10
60.58628379259763
 20
121.1478774696188
 30
0.0
 10
60.83264952939967
 20
121.1478774696188
 30
0.0
 10
61.10187166302859
 20
121.1478774696188
 30
0.0
 10
61.38628379259762
 20
121.1478774696188
 30
0.0
  0
LINE
  5
2AB
330
1F
100
AcDbEntity
  8
0
  6
Continuous
 62
     7
370
    15
100
AcDbLine
 10
65.3862808124
 20
103.1478776931
 30
0.0
 11
65.3862808124
 21
123.1478772461
 31
0.0
  0
LINE
  5
2AC
330
1F
100
AcDbEntity
  8
0
  6
Continuous
 62
     7
370
    15
100
AcDbLine
 10
63.5862801448
 20
121.1478778496
 30
0.0
 11
61.3862801567
 21
121.1478778496
 31
0.0
  0
LINE
  5
2AD
330
1F
100
AcDbEntity
  8
0
  6
Continuous
 62
     7
370
    15
100
AcDbLine
 10
63.5862801448
 20
123.1478772461
 30
0.0
 11
63.5862801448
 21
121.1478778496
 31
0.0
  0
LINE
  5
2AE
330
1F
100
AcDbEntity
  8
0
  6
Continuous
 62
     7
370
    15
100
AcDbLine
 10
63.5862801448
 20
105.1478770896
 30
0.0
 11
63.5862801448
 21
103.1478776931
 31
0.0
  0
LINE
  5
2AF
330
1F
100
AcDbEntity
  8
0
  6
Continuous
 62
     7
370
    15
100
AcDbLine
 10
63.5862801448
 20
105.1478770896
 30
0.0
 11
61.3862801567
 21
105.1478770896
 31
0.0
  0
LINE
  5
2B0
330
1F
100
AcDbEntity
  8
0
  6
Continuous
 62
     7
370
    15
100
AcDbLine
 10
63.3862842098
 20
121.1478778496
 30
0.0
 11
63.3862842098
 21
122.9478775858
 31
0.0
  0
LINE
  5
2B1
330
1F
100
AcDbEntity
  8
0
  6
Continuous
 62
     7
370
    15
100
AcDbLine
 10
63.3862842098
 20
103.3478773534
 30
0.0
 11
63.3862842098
 21
105.1478770896
 31
0.0
  0
LINE
  5
2B2
330
1F
100
AcDbEntity
  8
0
  6
Continuous
 62
     7
370
    15
100
AcDbLine
 10
153.7862833813
 20
109.3978775534
 30
0.0
 11
154.4862840549
 21
109.3978775534
 31
0.0
  0
LINE
  5
2B3
330
1F
100
AcDbEntity
  8
0
  6
Continuous
 62
     7
370
    15
100
AcDbLine
 10
153.7862833813
 20
108.9978775344
 30
0.0
 11
154.4862840549
 21
108.9978775344
 31
0.0
  0
LINE
  5
2B4
330
1F
100
AcDbEntity
  8
0
  6
Continuous
 62
     7
370
    15
100
AcDbLine
 10
153.7862833813
 20
116.8978773858
 30
0.0
 11
154.4862840549
 21
116.8978773858
 31
0.0
  0
LINE
  5
2B5
330
1F
100
AcDbEntity
  8
0
  6
Continuous
 62
     7
370
    15
100
AcDbLine
 10
153.7862833813
 20
117.2978774048
 30
0.0
 11
154.4862840549
 21
117.2978774048
 31
0.0
  0
LWPOLYLINE
  5
2B6
330
1F
100
AcDbEntity
  8
0
  6
Continuous
 62
     7
370
    15
100
AcDbPolyline
 90
        5
 70
   128
 43
0.0
 10
149.7842980773
 20
124.6512907892
 10
149.7797988579
 20
124.660315305
 10
149.7765820697
 20
124.6667675078
 10
149.7746505067
 20
124.6706418097
 10
149.7740060315
 20
124.6719335541
  0
ARC
  5
2B7
330
1F
100
AcDbEntity
  8
0
  6
Continuous
 62
     7
370
    15
100
AcDbCircle
 10
150.7862837926
 20
121.8478774696
 30
0.0
 40
2.977095900370041
100
AcDbArc
 50
99.6698915241
 51
109.6677151184
  0
LINE
  5
2B8
330
1F
100
AcDbEntity
  8
0
  6
Continuous
 62
     7
370
    15
100
AcDbLine
 10
150.2862166837
 20
124.7826743275
 30
0.0
 11
150.4162833319
 21
124.7826743275
 31
0.0
  0
LINE
  5
2B9
330
1F
100
AcDbEntity
  8
0
  6
Continuous
 62
     7
370
    15
100
AcDbLine
 10
150.4162833319
 20
124.7826743275
 30
0.0
 11
150.4162833319
 21
124.6512907892
 31
0.0
  0
ARC
  5
2BA
330
1F
100
AcDbEntity
  8
0
  6
Continuous
 62
     7
370
    15
100
AcDbCircle
 10
150.7862833552
 20
121.3460587509
 30
0.0
 40
3.325877154093837
100
AcDbArc
 50
83.6126884462
 51
96.3873115538
  0
LINE
  5
2BB
330
1F
100
AcDbEntity
  8
0
  6
Continuous
 62
     7
370
    15
100
AcDbLine
 10
151.1562833786
 20
124.6512907892
 30
0.0
 11
151.1562833786
 21
124.7826743275
 31
0.0
  0
LINE
  5
2BC
330
1F
100
AcDbEntity
  8
0
  6
Continuous
 62
     7
370
    15
100
AcDbLine
 10
151.1562833786
 20
124.7826743275
 30
0.0
 11
151.2863509581
 21
124.7826743275
 31
0.0
  0
ARC
  5
2BD
330
1F
100
AcDbEntity
  8
0
  6
Continuous
 62
     7
370
    15
100
AcDbCircle
 10
150.7862837926
 20
121.8478774696
 30
0.0
 40
2.977095900370029
100
AcDbArc
 50
70.3322848816
 51
80.3301084759
  0
LWPOLYLINE
  5
2BE
330
1F
100
AcDbEntity
  8
0
  6
Continuous
 62
     7
370
    15
100
AcDbPolyline
 90
        5
 70
   128
 43
0.0
 10
151.7985616103
 20
124.6719335541
 10
151.7979171351
 20
124.6706418097
 10
151.7959855721
 20
124.6667675078
 10
151.7927687839
 20
124.660315305
 10
151.7882695646
 20
124.6512907892
  0
LINE
  5
2BF
330
1F
100
AcDbEntity
  8
0
  6
Continuous
 62
     7
370
    15
100
AcDbLine
 10
150.7862838209
 20
123.8321907222
 30
0.0
 11
153.0362837241
 21
123.8321907222
 31
0.0
  0
LINE
  5
2C0
330
1F
100
AcDbEntity
  8
0
  6
Continuous
 62
     7
370
    15
100
AcDbLine
 10
148.5362839178
 20
123.8321907222
 30
0.0
 11
150.7862838209
 21
123.8321907222
 31
0.0
  0
LINE
  5
2C1
330
1F
100
AcDbEntity
  8
0
  6
Continuous
 62
     7
370
    15
100
AcDbLine
 10
149.6473890022
 20
102.4635642171
 30
0.0
 11
148.5362839178
 21
102.4635642171
 31
0.0
  0
LINE
  5
2C2
330
1F
100
AcDbEntity
  8
0
  6
Continuous
 62
     7
370
    15
100
AcDbLine
 10
153.0362837241
 20
102.4635642171
 30
0.0
 11
149.6473890022
 21
102.4635642171
 31
0.0
  0
ARC
  5
2C3
330
1F
100
AcDbEntity
  8
0
  6
Continuous
 62
     7
370
    15
100
AcDbCircle
 10
150.9595812423
 20
103.7588646287
 30
0.0
 40
2.289498272491975
100
AcDbArc
 50
281.2143074351
 51
292.5535707359
  0
ARC
  5
2C4
330
1F
100
AcDbEntity
  8
0
  6
Continuous
 62
     7
370
    15
100
AcDbCircle
 10
151.6504263729
 20
102.4833271479
 30
0.0
 40
0.8595154983605344
100
AcDbArc
 50
257.4144976106
 51
282.5855023894
  0
ARC
  5
2C5
330
1F
100
AcDbEntity
  8
0
  6
Continuous
 62
     7
370
    15
100
AcDbCircle
 10
150.5850169549
 20
103.7588410401
 30
0.0
 40
2.289474109312772
100
AcDbArc
 50
281.2142928668
 51
292.5536538226
  0
LINE
  5
2C6
330
1F
100
AcDbEntity
  8
0
  6
Continuous
 62
     7
370
    15
100
AcDbLine
 10
151.030271709
 20
101.5130806118
 30
0.0
 11
150.8522615061
 21
101.5130806118
 31
0.0
  0
ARC
  5
2C7
330
1F
100
AcDbEntity
  8
0
  6
Continuous
 62
     7
370
    15
100
AcDbCircle
 10
151.1746211642
 20
102.4477661906
 30
0.0
 40
0.988712739090598
100
AcDbArc
 50
234.338222468
 51
250.9714199347
  0
ARC
  5
2C8
330
1F
100
AcDbEntity
  8
0
  6
Continuous
 62
     7
370
    15
100
AcDbCircle
 10
150.2791032419
 20
104.10009375
 30
0.0
 40
2.476275618407425
100
AcDbArc
 50
262.5961348109
 51
277.4038651891
  0
ARC
  5
2C9
330
1F
100
AcDbEntity
  8
0
  6
Continuous
 62
     7
370
    15
100
AcDbCircle
 10
150.5364191198
 20
102.4477562926
 30
0.0
 40
0.9887024020535887
100
AcDbArc
 50
234.3380734274
 51
250.9713975793
  0
LINE
  5
2CA
330
1F
100
AcDbEntity
  8
0
  6
Continuous
 62
     7
370
    15
100
AcDbLine
 10
150.2140624673
 20
101.5130806118
 30
0.0
 11
150.1677254439
 21
101.5130806118
 31
0.0
  0
ARC
  5
2CB
330
1F
100
AcDbEntity
  8
0
  6
Continuous
 62
     7
370
    15
100
AcDbCircle
 10
150.6049993839
 20
103.7259158443
 30
0.0
 40
2.255625914227146
100
AcDbArc
 50
255.895206198
 51
258.8219083467
  0
ARC
  5
2CC
330
1F
100
AcDbEntity
  8
0
  6
Continuous
 62
     7
370
    15
100
AcDbCircle
 10
150.9843904783
 20
103.7466212165
 30
0.0
 40
2.276873123396587
100
AcDbArc
 50
250.2885559342
 51
258.8039101885
  0
LINE
  5
2CD
330
1F
100
AcDbEntity
  8
0
  6
Continuous
 62
     7
370
    15
100
AcDbLine
 10
150.5422959328
 20
101.5130806118
 30
0.0
 11
150.7203061358
 21
101.5130806118
 31
0.0
  0
ARC
  5
2CE
330
1F
100
AcDbEntity
  8
0
  6
Continuous
 62
     7
370
    15
100
AcDbCircle
 10
150.4355831337
 20
102.3570869724
 30
0.0
 40
0.8907378540770371
100
AcDbArc
 50
288.6416678477
 51
293.1861241923
  0
LINE
  5
2CF
330
1F
100
AcDbEntity
  8
0
  6
Continuous
 62
     7
370
    15
100
AcDbLine
 10
151.3585051746
 20
101.5130806118
 30
0.0
 11
151.4048412666
 21
101.5130806118
 31
0.0
  0
SPLINE
  5
2D0
330
1F
100
AcDbEntity
  8
0
  6
Continuous
 62
     7
370
    15
100
AcDbSpline
210
0.0
220
0.0
230
1.0
 70
     8
 71
     3
 72
     9
 73
     5
 74
     0
 42
0.00000001
 43
0.00000001
 12
1.0
 22
0.0
 32
0.0
 13
1.0
 23
0.0
 33
0.0
 40
0.0
 40
0.0
 40
0.0
 40
0.0
 40
0.7661980044671663
 40
1.0
 40
1.0
 40
1.0
 40
1.0
 10
150.2140624672599
 20
101.5130806117859
 30
0.0
 10
150.2155249727515
 20
101.5466415443504
 30
0.0
 10
150.2174337554462
 20
101.5904434498224
 30
0.0
 10
150.2194439739083
 20
101.6342273798251
 30
0.0
 10
150.2199139669962
 20
101.6444641500321
 30
0.0
  0
SPLINE
  5
2D1
330
1F
100
AcDbEntity
  8
0
  6
Continuous
 62
     7
370
    15
100
AcDbSpline
210
0.0
220
0.0
230
1.0
 70
     8
 71
     3
 72
     9
 73
     5
 74
     0
 42
0.00000001
 43
0.00000001
 12
1.0
 22
0.0
 32
0.0
 13
1.0
 23
0.0
 33
0.0
 40
0.0
 40
0.0
 40
0.0
 40
0.0
 40
0.1629984984963521
 40
0.9999999999999999
 40
0.9999999999999999
 40
0.9999999999999999
 40
0.9999999999999999
 10
151.3957385197707
 20
101.6333525403943
 30
0.0
 10
151.3962490590305
 20
101.6268194572971
 30
0.0
 10
151.3993812305813
 20
101.5867388236869
 30
0.0
 10
151.4023534851109
 20
101.5466418439944
 30
0.0
 10
151.404841266615
 20
101.5130806117859
 30
0.0
  0
SPLINE
  5
2D2
330
1F
100
AcDbEntity
  8
0
  6
Continuous
 62
     7
370
    15
100
AcDbSpline
210
0.0
220
0.0
230
1.0
 70
     8
 71
     3
 72
     8
 73
     4
 74
     0
 42
0.00000001
 43
0.00000001
 12
1.0
 22
0.0
 32
0.0
 13
1.0
 23
0.0
 33
0.0
 40
0.0
 40
0.0
 40
0.0
 40
0.0
 40
1.0
 40
1.0
 40
1.0
 40
1.0
 10
151.358504712405
 20
101.5130805264437
 30
0.0
 10
151.3570618463215
 20
101.5458502140071
 30
0.0
 10
151.3556146490504
 20
101.5786191755587
 30
0.0
 10
151.3541628904166
 20
101.6113873725154
 30
0.0
  0
SPLINE
  5
2D3
330
1F
100
AcDbEntity
  8
0
  6
Continuous
 62
     7
370
    15
100
AcDbSpline
210
0.0
220
0.0
230
1.0
 70
     8
 71
     3
 72
     9
 73
     5
 74
     0
 42
0.00000001
 43
0.00000001
 12
1.0
 22
0.0
 32
0.0
 13
1.0
 23
0.0
 33
0.0
 40
0.0
 40
0.0
 40
0.0
 40
0.0
 40
0.7142372147633181
 40
1.0
 40
1.0
 40
1.0
 40
1.0
 10
150.5422959328123
 20
101.5130806117859
 30
0.0
 10
150.544789717601
 20
101.5466412622078
 30
0.0
 10
150.5482812533782
 20
101.5936293632591
 30
0.0
 10
150.551958925797
 20
101.6405984374962
 30
0.0
 10
150.5530098677106
 20
101.6540204509702
 30
0.0
  0
LINE
  5
2D4
330
1F
100
AcDbEntity
  8
0
  6
Continuous
 62
     7
370
    15
100
AcDbLine
 10
153.4862838909
 20
103.1478776931
 30
0.0
 11
153.4862838909
 21
105.1478770896
 31
0.0
  0
LINE
  5
2D5
330
1F
100
AcDbEntity
  8
0
  6
Continuous
 62
     7
370
    15
100
AcDbLine
 10
153.4862838909
 20
105.1478770896
 30
0.0
 11
153.7862833813
 21
105.1478770896
 31
0.0
  0
LINE
  5
2D6
330
1F
100
AcDbEntity
  8
0
  6
Continuous
 62
     7
370
    15
100
AcDbLine
 10
153.7862833813
 20
103.4478771835
 30
0.0
 11
153.7862833813
 21
105.1478770896
 31
0.0
  0
ARC
  5
2D7
330
1F
100
AcDbEntity
  8
0
  6
Continuous
 62
     7
370
    15
100
AcDbCircle
 10
153.4862837926
 20
103.4478774696
 30
0.0
 40
0.3000000000000114
100
AcDbArc
 50
270.0
 51
0.0
  0
LINE
  5
2D8
330
1F
100
AcDbEntity
  8
0
  6
Continuous
 62
     7
370
    15
100
AcDbLine
 10
153.4862838909
 20
105.1478770896
 30
0.0
 11
153.4862838909
 21
121.1478778496
 31
0.0
  0
LINE
  5
2D9
330
1F
100
AcDbEntity
  8
0
  6
Continuous
 62
     7
370
    15
100
AcDbLine
 10
153.4862838909
 20
121.1478778496
 30
0.0
 11
153.7862833813
 21
121.1478778496
 31
0.0
  0
LINE
  5
2DA
330
1F
100
AcDbEntity
  8
0
  6
Continuous
 62
     7
370
    15
100
AcDbLine
 10
153.7862833813
 20
121.1478778496
 30
0.0
 11
153.7862833813
 21
105.1478770896
 31
0.0
  0
LINE
  5
2DB
330
1F
100
AcDbEntity
  8
0
  6
Continuous
 62
     7
370
    15
100
AcDbLine
 10
153.4862838909
 20
121.1478778496
 30
0.0
 11
153.4862838909
 21
123.1478772461
 31
0.0
  0
ARC
  5
2DC
330
1F
100
AcDbEntity
  8
0
  6
Continuous
 62
     7
370
    15
100
AcDbCircle
 10
153.4862837926
 20
122.8478774696
 30
0.0
 40
0.3000000000000398
100
AcDbArc
 50
0.0
 51
90.0
  0
LINE
  5
2DD
330
1F
100
AcDbEntity
  8
0
  6
Continuous
 62
     7
370
    15
100
AcDbLine
 10
153.7862833813
 20
121.1478778496
 30
0.0
 11
153.7862833813
 21
122.8478777557
 31
0.0
  0
LINE
  5
2DE
330
1F
100
AcDbEntity
  8
0
  6
Continuous
 62
     7
370
    15
100
AcDbLine
 10
153.4862838909
 20
121.1478778496
 30
0.0
 11
140.8862838163
 21
121.1478778496
 31
0.0
  0
LINE
  5
2DF
330
1F
100
AcDbEntity
  8
0
  6
Continuous
 62
     7
370
    15
100
AcDbLine
 10
140.8862838163
 20
121.1478778496
 30
0.0
 11
140.8862838163
 21
123.1478772461
 31
0.0
  0
LINE
  5
2E0
330
1F
100
AcDbEntity
  8
0
  6
Continuous
 62
     7
370
    15
100
AcDbLine
 10
140.8862838163
 20
123.1478772461
 30
0.0
 11
153.4862838909
 21
123.1478772461
 31
0.0
  0
LINE
  5
2E1
330
1F
100
AcDbEntity
  8
0
  6
Continuous
 62
     7
370
    15
100
AcDbLine
 10
153.4862838909
 20
103.1478776931
 30
0.0
 11
140.8862838163
 21
103.1478776931
 31
0.0
  0
LINE
  5
2E2
330
1F
100
AcDbEntity
  8
0
  6
Continuous
 62
     7
370
    15
100
AcDbLine
 10
140.8862838163
 20
103.1478776931
 30
0.0
 11
140.8862838163
 21
105.1478770896
 31
0.0
  0
LINE
  5
2E3
330
1F
100
AcDbEntity
  8
0
  6
Continuous
 62
     7
370
    15
100
AcDbLine
 10
140.8862838163
 20
105.1478770896
 30
0.0
 11
153.4862838909
 21
105.1478770896
 31
0.0
  0
LINE
  5
2E4
330
1F
100
AcDbEntity
  8
0
  6
Continuous
 62
     7
370
    15
100
AcDbLine
 10
140.8862838163
 20
121.1478778496
 30
0.0
 11
140.8862838163
 21
105.1478770896
 31
0.0
  0
LINE
  5
2E5
330
1F
100
AcDbEntity
  8
0
  6
Continuous
 62
     7
370
    15
100
AcDbLine
 10
140.3862837926
 20
105.1478770896
 30
0.0
 11
140.3862837926
 21
103.6478777751
 31
0.0
  0
LINE
  5
2E6
330
1F
100
AcDbEntity
  8
0
  6
Continuous
 62
     7
370
    15
100
AcDbLine
 10
140.3862837926
 20
105.1478770896
 30
0.0
 11
140.8862838163
 21
105.1478770896
 31
0.0
  0
ARC
  5
2E7
330
1F
100
AcDbEntity
  8
0
  6
Continuous
 62
     7
370
    15
100
AcDbCircle
 10
140.8862837926
 20
103.6478774696
 30
0.0
 40
0.5
100
AcDbArc
 50
180.0
 51
270.0
  0
LINE
  5
2E8
330
1F
100
AcDbEntity
  8
0
  6
Continuous
 62
     7
370
    15
100
AcDbLine
 10
140.3862837926
 20
122.6478771641
 30
0.0
 11
140.3862837926
 21
121.1478778496
 31
0.0
  0
ARC
  5
2E9
330
1F
100
AcDbEntity
  8
0
  6
Continuous
 62
     7
370
    15
100
AcDbCircle
 10
140.8862837926
 20
122.6478774696
 30
0.0
 40
0.5
100
AcDbArc
 50
90.0
 51
180.0
  0
LINE
  5
2EA
330
1F
100
AcDbEntity
  8
0
  6
Continuous
 62
     7
370
    15
100
AcDbLine
 10
140.3862837926
 20
121.1478778496
 30
0.0
 11
140.8862838163
 21
121.1478778496
 31
0.0
  0
LINE
  5
2EB
330
1F
100
AcDbEntity
  8
0
  6
Continuous
 62
     7
370
    15
100
AcDbLine
 10
140.3862837926
 20
105.1478770896
 30
0.0
 11
140.3862837926
 21
110.0253784898
 31
0.0
  0
LINE
  5
2EC
330
1F
100
AcDbEntity
  8
0
  6
Continuous
 62
     7
370
    15
100
AcDbLine
 10
140.3862837926
 20
116.2703764494
 30
0.0
 11
140.3862837926
 21
121.1478778496
 31
0.0
  0
LINE
  5
2ED
330
1F
100
AcDbEntity
  8
0
  6
Continuous
 62
     7
370
    15
100
AcDbLine
 10
153.8741518036
 20
122.8478777557
 30
0.0
 11
153.7862833813
 21
122.8478777557
 31
0.0
  0
LINE
  5
2EE
330
1F
100
AcDbEntity
  8
0
  6
Continuous
 62
     7
370
    15
100
AcDbLine
 10
153.8741518036
 20
122.8478777557
 30
0.0
 11
153.8741518036
 21
118.8978774808
 31
0.0
  0
LINE
  5
2EF
330
1F
100
AcDbEntity
  8
0
  6
Continuous
 62
     7
370
    15
100
AcDbLine
 10
153.8741518036
 20
118.8978774808
 30
0.0
 11
153.7862833813
 21
118.8978774808
 31
0.0
  0
ARC
  5
2F0
330
1F
100
AcDbEntity
  8
0
  6
Continuous
 62
     7
370
    15
100
AcDbCircle
 10
153.6089879559
 20
122.8853781612
 30
0.0
 40
0.2678024393524706
100
AcDbArc
 50
351.9504113276
 51
78.5784509088
  0
LINE
  5
2F1
330
1F
100
AcDbEntity
  8
0
  6
Continuous
 62
     7
370
    15
100
AcDbLine
 10
153.4862838909
 20
123.1478772461
 30
0.0
 11
153.6620198042
 21
123.1478772461
 31
0.0
  0
LINE
  5
2F2
330
1F
100
AcDbEntity
  8
0
  6
Continuous
 62
     7
370
    15
100
AcDbLine
 10
153.7862833813
 20
103.4478771835
 30
0.0
 11
153.8741518036
 21
103.4478771835
 31
0.0
  0
ARC
  5
2F3
330
1F
100
AcDbEntity
  8
0
  6
Continuous
 62
     7
370
    15
100
AcDbCircle
 10
153.6089879559
 20
103.4103767781
 30
0.0
 40
0.2678024393524572
100
AcDbArc
 50
281.4215490912
 51
8.0495886724
  0
LINE
  5
2F4
330
1F
100
AcDbEntity
  8
0
  6
Continuous
 62
     7
370
    15
100
AcDbLine
 10
153.6620198042
 20
103.1478776931
 30
0.0
 11
153.4862838909
 21
103.1478776931
 31
0.0
  0
LINE
  5
2F5
330
1F
100
AcDbEntity
  8
0
  6
Continuous
 62
     7
370
    15
100
AcDbLine
 10
153.8741518036
 20
107.3978774584
 30
0.0
 11
153.8741518036
 21
103.4478771835
 31
0.0
  0
LINE
  5
2F6
330
1F
100
AcDbEntity
  8
0
  6
Continuous
 62
     7
370
    15
100
AcDbLine
 10
153.7862833813
 20
107.3978774584
 30
0.0
 11
153.8741518036
 21
107.3978774584
 31
0.0
  0
ARC
  5
2F7
330
1F
100
AcDbEntity
  8
0
  6
Continuous
 62
     7
370
    15
100
AcDbCircle
 10
154.9332504592
 20
122.8853768676
 30
0.0
 40
0.2678040696034107
100
AcDbArc
 50
351.9507401678
 51
78.5781220685
  0
LINE
  5
2F8
330
1F
100
AcDbEntity
  8
0
  6
Continuous
 62
     7
370
    15
100
AcDbLine
 10
155.1984161362
 20
122.8478777557
 30
0.0
 11
153.8741518036
 21
122.8478777557
 31
0.0
  0
LINE
  5
2F9
330
1F
100
AcDbEntity
  8
0
  6
Continuous
 62
     7
370
    15
100
AcDbLine
 10
153.6620198042
 20
123.1478772461
 30
0.0
 11
154.9862841368
 21
123.1478772461
 31
0.0
  0
LINE
  5
2FA
330
1F
100
AcDbEntity
  8
0
  6
Continuous
 62
     7
370
    15
100
AcDbLine
 10
154.8362834603
 20
118.8978774808
 30
0.0
 11
153.8741518036
 21
118.8978774808
 31
0.0
  0
LINE
  5
2FB
330
1F
100
AcDbEntity
  8
0
  6
Continuous
 62
     7
370
    15
100
AcDbLine
 10
153.8741518036
 20
103.4478771835
 30
0.0
 11
155.1984161362
 21
103.4478771835
 31
0.0
  0
ARC
  5
2FC
330
1F
100
AcDbEntity
  8
0
  6
Continuous
 62
     7
370
    15
100
AcDbCircle
 10
154.9332504592
 20
103.4103780717
 30
0.0
 40
0.2678040696033916
100
AcDbArc
 50
281.4218779315
 51
8.0492598322
  0
LINE
  5
2FD
330
1F
100
AcDbEntity
  8
0
  6
Continuous
 62
     7
370
    15
100
AcDbLine
 10
154.9862841368
 20
103.1478776931
 30
0.0
 11
153.6620198042
 21
103.1478776931
 31
0.0
  0
LINE
  5
2FE
330
1F
100
AcDbEntity
  8
0
  6
Continuous
 62
     7
370
    15
100
AcDbLine
 10
153.8741518036
 20
107.3978774584
 30
0.0
 11
154.8362834603
 21
107.3978774584
 31
0.0
  0
LINE
  5
2FF
330
1F
100
AcDbEntity
  8
0
  6
Continuous
 62
     7
370
    15
100
AcDbLine
 10
155.2862836272
 20
104.6478770077
 30
0.0
 11
155.2862836272
 21
103.4478771835
 31
0.0
  0
LINE
  5
300
330
1F
100
AcDbEntity
  8
0
  6
Continuous
 62
     7
370
    15
100
AcDbLine
 10
155.1984161362
 20
103.4478771835
 30
0.0
 11
155.2862836272
 21
103.4478771835
 31
0.0
  0
LINE
  5
301
330
1F
100
AcDbEntity
  8
0
  6
Continuous
 62
     7
370
    15
100
AcDbLine
 10
155.2862836272
 20
122.8478777557
 30
0.0
 11
155.1984161362
 21
122.8478777557
 31
0.0
  0
LINE
  5
302
330
1F
100
AcDbEntity
  8
0
  6
Continuous
 62
     7
370
    15
100
AcDbLine
 10
155.2862836272
 20
122.8478777557
 30
0.0
 11
155.2862836272
 21
121.6478779316
 31
0.0
  0
ARC
  5
303
330
1F
100
AcDbEntity
  8
0
  6
Continuous
 62
     7
370
    15
100
AcDbCircle
 10
154.9862837926
 20
122.8478774696
 30
0.0
 40
0.3000000000000398
100
AcDbArc
 50
0.0
 51
90.0
  0
ARC
  5
304
330
1F
100
AcDbEntity
  8
0
  6
Continuous
 62
     7
370
    15
100
AcDbCircle
 10
154.9862837926
 20
103.4478774696
 30
0.0
 40
0.3000000000000114
100
AcDbArc
 50
270.0
 51
0.0
  0
LINE
  5
305
330
1F
100
AcDbEntity
  8
0
  6
Continuous
 62
     7
370
    15
100
AcDbLine
 10
140.3862837926
 20
123.1478772461
 30
0.0
 11
140.3862837926
 21
122.6478771641
 31
0.0
  0
LINE
  5
306
330
1F
100
AcDbEntity
  8
0
  6
Continuous
 62
     7
370
    15
100
AcDbLine
 10
140.3862837926
 20
116.2703764494
 30
0.0
 11
140.3862837926
 21
110.0253784898
 31
0.0
  0
LINE
  5
307
330
1F
100
AcDbEntity
  8
0
  6
Continuous
 62
     7
370
    15
100
AcDbLine
 10
140.3862837926
 20
103.6478777751
 30
0.0
 11
140.3862837926
 21
103.1478776931
 31
0.0
  0
LINE
  5
308
330
1F
100
AcDbEntity
  8
0
  6
Continuous
 62
     7
370
    15
100
AcDbLine
 10
153.7862833813
 20
123.6478773281
 30
0.0
 11
147.7862837948
 21
123.6478773281
 31
0.0
  0
LINE
  5
309
330
1F
100
AcDbEntity
  8
0
  6
Continuous
 62
     7
370
    15
100
AcDbLine
 10
153.7862833813
 20
102.6478776112
 30
0.0
 11
147.7862837948
 21
102.6478776112
 31
0.0
  0
LINE
  5
30A
330
1F
100
AcDbEntity
  8
0
  6
Continuous
 62
     7
370
    15
100
AcDbLine
 10
60.3862855807
 20
112.8109321508
 30
0.0
 11
57.8862805143
 21
112.8109321508
 31
0.0
  0
LINE
  5
30B
330
1F
100
AcDbEntity
  8
0
  6
Continuous
 62
     7
370
    15
100
AcDbLine
 10
57.8862805143
 20
112.8109321508
 30
0.0
 11
57.8862805143
 21
116.4746480863
 31
0.0
  0
LINE
  5
30C
330
1F
100
AcDbEntity
  8
0
  6
Continuous
 62
     7
370
    15
100
AcDbLine
 10
60.3862855807
 20
116.4746480863
 30
0.0
 11
57.8862805143
 21
116.4746480863
 31
0.0
  0
LINE
  5
30D
330
1F
100
AcDbEntity
  8
0
  6
Continuous
 62
     7
370
    15
100
AcDbLine
 10
57.8862805143
 20
109.4841615632
 30
0.0
 11
60.3862855807
 21
109.4841615632
 31
0.0
  0
LINE
  5
30E
330
1F
100
AcDbEntity
  8
0
  6
Continuous
 62
     7
370
    15
100
AcDbLine
 10
57.8862805143
 20
109.4841615632
 30
0.0
 11
57.8862805143
 21
112.8109321508
 31
0.0
  0
LINE
  5
30F
330
1F
100
AcDbEntity
  8
0
  6
Continuous
 62
     7
370
    15
100
AcDbLine
 10
60.3862855807
 20
116.8115933761
 30
0.0
 11
57.8862805143
 21
116.8115933761
 31
0.0
  0
LINE
  5
310
330
1F
100
AcDbEntity
  8
0
  6
Continuous
 62
     7
370
    15
100
AcDbLine
 10
57.8862805143
 20
116.4746480863
 30
0.0
 11
57.8862805143
 21
116.8115933761
 31
0.0
  0
LINE
  5
311
330
1F
100
AcDbEntity
  8
0
  6
Continuous
 62
     7
370
    15
100
AcDbLine
 10
55.8862839118
 20
111.3978774156
 30
0.0
 11
55.8862839118
 21
114.5853709532
 31
0.0
  0
LINE
  5
312
330
1F
100
AcDbEntity
  8
0
  6
Continuous
 62
     7
370
    15
100
AcDbLine
 10
55.8862839118
 20
114.5853709532
 30
0.0
 11
55.8862839118
 21
114.8978775236
 31
0.0
  0
LINE
  5
313
330
1F
100
AcDbEntity
  8
0
  6
Continuous
 62
     7
370
    15
100
AcDbLine
 10
50.8862812296
 20
112.2924023293
 30
0.0
 11
50.8862812296
 21
114.6478774827
 31
0.0
  0
LINE
  5
314
330
1F
100
AcDbEntity
  8
0
  6
Continuous
 62
     7
370
    15
100
AcDbLine
 10
50.8862812296
 20
111.6478774566
 30
0.0
 11
50.8862812296
 21
112.2924023293
 31
0.0
  0
LINE
  5
315
330
1F
100
AcDbEntity
  8
0
  6
Continuous
 62
     7
370
    15
100
AcDbLine
 10
53.386286296
 20
111.3978774156
 30
0.0
 11
53.386286296
 21
114.5853709532
 31
0.0
  0
LINE
  5
316
330
1F
100
AcDbEntity
  8
0
  6
Continuous
 62
     7
370
    15
100
AcDbLine
 10
53.386286296
 20
114.5853709532
 30
0.0
 11
53.386286296
 21
114.8978775236
 31
0.0
  0
LINE
  5
317
330
1F
100
AcDbEntity
  8
0
  6
Continuous
 62
     7
370
    15
100
AcDbLine
 10
154.7362836302
 20
108.1478775814
 30
0.0
 11
154.7362836302
 21
109.5478775315
 31
0.0
  0
LINE
  5
318
330
1F
100
AcDbEntity
  8
0
  6
Continuous
 62
     7
370
    15
100
AcDbLine
 10
154.7362836302
 20
116.7478774078
 30
0.0
 11
154.7362836302
 21
118.1478773579
 31
0.0
  0
LINE
  5
319
330
1F
100
AcDbEntity
  8
0
  6
Continuous
 62
     7
370
    15
100
AcDbLine
 10
155.1984161362
 20
121.6478779316
 30
0.0
 11
155.1984161362
 21
122.8478777557
 31
0.0
  0
LINE
  5
31A
330
1F
100
AcDbEntity
  8
0
  6
Continuous
 62
     7
370
    15
100
AcDbLine
 10
155.1984161362
 20
103.4478771835
 30
0.0
 11
155.1984161362
 21
104.6478770077
 31
0.0
  0
LINE
  5
31B
330
1F
100
AcDbEntity
  8
0
  6
CENTERX2
 62
     7
370
     0
100
AcDbLine
 10
49.4000373321
 20
113.1478774696
 30
0.0
 11
161.3862528527
 21
113.1478774696
 31
0.0
  0
LINE
  5
31C
330
1F
100
AcDbEntity
  8
0
  6
CENTERX2
 62
     7
370
     0
100
AcDbLine
 10
63.3862837926
 20
113.1478774696
 30
0.0
 11
140.3862837926
 21
113.1478774696
 31
0.0
  0
LINE
  5
31D
330
1F
100
AcDbEntity
  8
0
  6
Continuous
 62
     7
370
    15
100
AcDbLine
 10
177.8500569552
 20
123.8321907222
 30
0.0
 11
177.8500569552
 21
123.6478773281
 31
0.0
  0
LINE
  5
31E
330
1F
100
AcDbEntity
  8
0
  6
Continuous
 62
     7
370
    15
100
AcDbLine
 10
182.3500576928
 20
123.6478773281
 30
0.0
 11
182.3500576928
 21
123.8321907222
 31
0.0
  0
ARC
  5
31F
330
1F
100
AcDbEntity
  8
0
  6
Continuous
 62
     7
370
    15
100
AcDbCircle
 10
180.1000567839
 20
121.8478774696
 30
0.0
 40
2.999999999999996
100
AcDbArc
 50
41.4096221093
 51
70.2798766506
  0
ARC
  5
320
330
1F
100
AcDbEntity
  8
0
  6
Continuous
 62
     7
370
    15
100
AcDbCircle
 10
180.1000567839
 20
121.8478774696
 30
0.0
 40
2.999999999999996
100
AcDbArc
 50
109.7201233494
 51
138.5903778907
  0
ARC
  5
321
330
1F
100
AcDbEntity
  8
0
  6
Continuous
 62
     7
370
    15
100
AcDbCircle
 10
180.1000567839
 20
104.4478774696
 30
0.0
 40
3.000000000000013
100
AcDbArc
 50
284.102493234
 51
318.5903778907
  0
ARC
  5
322
330
1F
100
AcDbEntity
  8
0
  6
Continuous
 62
     7
370
    15
100
AcDbCircle
 10
180.1000567839
 20
104.4478774696
 30
0.0
 40
3.000000000000005
100
AcDbArc
 50
221.4096221093
 51
255.897506766
  0
LINE
  5
323
330
1F
100
AcDbEntity
  8
0
  6
Continuous
 62
     7
370
    15
100
AcDbLine
 10
182.3500576928
 20
102.4635642171
 30
0.0
 11
182.3500576928
 21
102.6478776112
 31
0.0
  0
LINE
  5
324
330
1F
100
AcDbEntity
  8
0
  6
Continuous
 62
     7
370
    15
100
AcDbLine
 10
177.8500569552
 20
102.6478776112
 30
0.0
 11
177.8500569552
 21
102.4635642171
 31
0.0
  0
LINE
  5
325
330
1F
100
AcDbEntity
  8
0
  6
Continuous
 62
     7
370
    15
100
AcDbLine
 10
183.8500570074
 20
107.3978774584
 30
0.0
 11
183.8500570074
 21
108.1478775814
 31
0.0
  0
LINE
  5
326
330
1F
100
AcDbEntity
  8
0
  6
Continuous
 62
     7
370
    15
100
AcDbLine
 10
177.1000563666
 20
123.6478773281
 30
0.0
 11
177.1000563666
 21
123.1478772461
 31
0.0
  0
LINE
  5
327
330
1F
100
AcDbEntity
  8
0
  6
Continuous
 62
     7
370
    15
100
AcDbLine
 10
183.1000573501
 20
123.1478772461
 30
0.0
 11
183.1000573501
 21
123.6478773281
 31
0.0
  0
LINE
  5
328
330
1F
100
AcDbEntity
  8
0
  6
Continuous
 62
     7
370
    15
100
AcDbLine
 10
177.1000563666
 20
103.1478776931
 30
0.0
 11
177.1000563666
 21
102.6478776112
 31
0.0
  0
LINE
  5
329
330
1F
100
AcDbEntity
  8
0
  6
Continuous
 62
     7
370
    15
100
AcDbLine
 10
183.1000573501
 20
102.6478776112
 30
0.0
 11
183.1000573501
 21
103.1478776931
 31
0.0
  0
LINE
  5
32A
330
1F
100
AcDbEntity
  8
0
  6
Continuous
 62
     7
370
    15
100
AcDbLine
 10
183.8500570074
 20
118.1478773579
 30
0.0
 11
183.8500570074
 21
118.8978774808
 31
0.0
  0
LINE
  5
32B
330
1F
100
AcDbEntity
  8
0
  6
Continuous
 62
     7
370
    15
100
AcDbLine
 10
173.8000563845
 20
107.8978775404
 30
0.0
 11
174.1000568062
 21
108.1978774964
 31
0.0
  0
LINE
  5
32C
330
1F
100
AcDbEntity
  8
0
  6
Continuous
 62
     7
370
    15
100
AcDbLine
 10
174.1000568062
 20
108.1978774964
 30
0.0
 11
174.1000568062
 21
108.3817736581
 31
0.0
  0
LINE
  5
32D
330
1F
100
AcDbEntity
  8
0
  6
Continuous
 62
     7
370
    15
100
AcDbLine
 10
174.1000568062
 20
117.9139812812
 30
0.0
 11
174.1000568062
 21
118.0978774428
 31
0.0
  0
LINE
  5
32E
330
1F
100
AcDbEntity
  8
0
  6
Continuous
 62
     7
370
    15
100
AcDbLine
 10
174.1000568062
 20
118.0978774428
 30
0.0
 11
173.8000563845
 21
118.3978773988
 31
0.0
  0
LINE
  5
32F
330
1F
100
AcDbEntity
  8
0
  6
Continuous
 62
     7
370
    15
100
AcDbLine
 10
163.1000568076
 20
103.6478777751
 30
0.0
 11
163.6000568314
 21
103.1478776931
 31
0.0
  0
LINE
  5
330
330
1F
100
AcDbEntity
  8
0
  6
Continuous
 62
     7
370
    15
100
AcDbLine
 10
163.1000568076
 20
103.6478777751
 30
0.0
 11
163.1000568076
 21
122.6478771641
 31
0.0
  0
LINE
  5
331
330
1F
100
AcDbEntity
  8
0
  6
Continuous
 62
     7
370
    15
100
AcDbLine
 10
163.6000568314
 20
123.1478772461
 30
0.0
 11
163.1000568076
 21
122.6478771641
 31
0.0
  0
LINE
  5
332
330
1F
100
AcDbEntity
  8
0
  6
Continuous
 62
     7
370
    15
100
AcDbLine
 10
183.1000573501
 20
123.1478772461
 30
0.0
 11
163.6000568314
 21
123.1478772461
 31
0.0
  0
LINE
  5
333
330
1F
100
AcDbEntity
  8
0
  6
Continuous
 62
     7
370
    15
100
AcDbLine
 10
183.6000565007
 20
122.6478771641
 30
0.0
 11
183.1000573501
 21
123.1478772461
 31
0.0
  0
LINE
  5
334
330
1F
100
AcDbEntity
  8
0
  6
Continuous
 62
     7
370
    15
100
AcDbLine
 10
183.6000565007
 20
122.6478771641
 30
0.0
 11
183.6000565007
 21
103.6478777751
 31
0.0
  0
LINE
  5
335
330
1F
100
AcDbEntity
  8
0
  6
Continuous
 62
     7
370
    15
100
AcDbLine
 10
183.1000573501
 20
103.1478776931
 30
0.0
 11
183.6000565007
 21
103.6478777751
 31
0.0
  0
CIRCLE
  5
336
330
1F
100
AcDbEntity
  8
0
  6
Continuous
 62
     7
370
    15
100
AcDbCircle
 10
174.3000567839
 20
107.1478774696
 30
0.0
 40
1.25
  0
CIRCLE
  5
337
330
1F
100
AcDbEntity
  8
0
  6
Continuous
 62
     7
370
    15
100
AcDbCircle
 10
174.3000567839
 20
119.1478774696
 30
0.0
 40
1.25
  0
CIRCLE
  5
338
330
1F
100
AcDbEntity
  8
0
  6
Continuous
 62
     7
370
    15
100
AcDbCircle
 10
180.1000567839
 20
113.1478774696
 30
0.0
 40
1.249999999999972
  0
LINE
  5
339
330
1F
100
AcDbEntity
  8
0
  6
Continuous
 62
     7
370
    15
100
AcDbLine
 10
183.1000573501
 20
103.1478776931
 30
0.0
 11
163.6000568314
 21
103.1478776931
 31
0.0
  0
LINE
  5
33A
330
1F
100
AcDbEntity
  8
0
  6
Continuous
 62
     7
370
    15
100
AcDbLine
 10
177.8500569552
 20
123.8321907222
 30
0.0
 11
182.3500576928
 21
123.8321907222
 31
0.0
  0
LWPOLYLINE
  5
33B
330
1F
100
AcDbEntity
  8
0
  6
Continuous
 62
     7
370
    15
100
AcDbPolyline
 90
        5
 70
   128
 43
0.0
 10
179.0980711147
 20
124.6512907892
 10
179.093570964
 20
124.660315305
 10
179.0903541759
 20
124.6667675078
 10
179.0884226128
 20
124.6706418097
 10
179.0877800003
 20
124.6719335541
  0
ARC
  5
33C
330
1F
100
AcDbEntity
  8
0
  6
Continuous
 62
     7
370
    15
100
AcDbCircle
 10
180.1000567839
 20
121.8478774696
 30
0.0
 40
2.977095900370027
100
AcDbArc
 50
99.6698915241
 51
109.6677151184
  0
LINE
  5
33D
330
1F
100
AcDbEntity
  8
0
  6
Continuous
 62
     7
370
    15
100
AcDbLine
 10
179.5999906525
 20
124.7826743275
 30
0.0
 11
179.7300573006
 21
124.7826743275
 31
0.0
  0
LINE
  5
33E
330
1F
100
AcDbEntity
  8
0
  6
Continuous
 62
     7
370
    15
100
AcDbLine
 10
179.7300573006
 20
124.7826743275
 30
0.0
 11
179.7300573006
 21
124.6512907892
 31
0.0
  0
ARC
  5
33F
330
1F
100
AcDbEntity
  8
0
  6
Continuous
 62
     7
370
    15
100
AcDbCircle
 10
180.1000568584
 20
121.3460689548
 30
0.0
 40
3.325866961807274
100
AcDbArc
 50
83.6126768627
 51
96.3873231373
  0
LINE
  5
340
330
1F
100
AcDbEntity
  8
0
  6
Continuous
 62
     7
370
    15
100
AcDbLine
 10
180.4700564161
 20
124.6512907892
 30
0.0
 11
180.4700564161
 21
124.7826743275
 31
0.0
  0
LINE
  5
341
330
1F
100
AcDbEntity
  8
0
  6
Continuous
 62
     7
370
    15
100
AcDbLine
 10
180.4700564161
 20
124.7826743275
 30
0.0
 11
180.6001230642
 21
124.7826743275
 31
0.0
  0
ARC
  5
342
330
1F
100
AcDbEntity
  8
0
  6
Continuous
 62
     7
370
    15
100
AcDbCircle
 10
180.1000567839
 20
121.8478774696
 30
0.0
 40
2.977095900370032
100
AcDbArc
 50
70.3322848816
 51
80.3301084759
  0
ARC
  5
343
330
1F
100
AcDbEntity
  8
0
  6
Continuous
 62
     7
370
    15
100
AcDbCircle
 10
193.8151676545
 20
118.326255825
 30
0.0
 40
14.19963435789992
100
AcDbArc
 50
153.4556619113
 51
153.5487328078
  0
ARC
  5
344
330
1F
100
AcDbEntity
  8
0
  6
Continuous
 62
     7
370
    15
100
AcDbCircle
 10
180.4883838169
 20
102.4477397384
 30
0.0
 40
0.9886846501914991
100
AcDbArc
 50
234.3378615703
 51
250.9714380394
  0
ARC
  5
345
330
1F
100
AcDbEntity
  8
0
  6
Continuous
 62
     7
370
    15
100
AcDbCircle
 10
179.5928762794
 20
104.1001178416
 30
0.0
 40
2.476299629203416
100
AcDbArc
 50
262.596185273
 51
277.403814727
  0
ARC
  5
346
330
1F
100
AcDbEntity
  8
0
  6
Continuous
 62
     7
370
    15
100
AcDbCircle
 10
179.8502109638
 20
102.4477967451
 30
0.0
 40
0.9887467756880945
100
AcDbArc
 50
234.3385107861
 51
250.9711316167
  0
LINE
  5
347
330
1F
100
AcDbEntity
  8
0
  6
Continuous
 62
     7
370
    15
100
AcDbLine
 10
179.5278355047
 20
101.5130806118
 30
0.0
 11
179.4814984813
 21
101.5130806118
 31
0.0
  0
ARC
  5
348
330
1F
100
AcDbEntity
  8
0
  6
Continuous
 62
     7
370
    15
100
AcDbCircle
 10
179.9179394527
 20
103.7221817031
 30
0.0
 40
2.251801135315864
100
AcDbArc
 50
255.8926302911
 51
258.8242815203
  0
ARC
  5
349
330
1F
100
AcDbEntity
  8
0
  6
Continuous
 62
     7
370
    15
100
AcDbCircle
 10
180.2981769434
 20
103.7466697872
 30
0.0
 40
2.276923376894218
100
AcDbArc
 50
250.2886500779
 51
258.8038160449
  0
LINE
  5
34A
330
1F
100
AcDbEntity
  8
0
  6
Continuous
 62
     7
370
    15
100
AcDbLine
 10
179.8560689703
 20
101.5130806118
 30
0.0
 11
180.0340782419
 21
101.5130806118
 31
0.0
  0
ARC
  5
34B
330
1F
100
AcDbEntity
  8
0
  6
Continuous
 62
     7
370
    15
100
AcDbCircle
 10
179.7503024111
 20
102.3546212992
 30
0.0
 40
0.8880987843494279
100
AcDbArc
 50
288.6346143842
 51
293.1926382978
  0
LINE
  5
34C
330
1F
100
AcDbEntity
  8
0
  6
Continuous
 62
     7
370
    15
100
AcDbLine
 10
180.672278212
 20
101.5130806118
 30
0.0
 11
180.7186152354
 21
101.5130806118
 31
0.0
  0
ARC
  5
34D
330
1F
100
AcDbEntity
  8
0
  6
Continuous
 62
     7
370
    15
100
AcDbCircle
 10
180.2733468241
 20
103.7588860364
 30
0.0
 40
2.289520902568166
100
AcDbArc
 50
281.2144091235
 51
292.5535375659
  0
ARC
  5
34E
330
1F
100
AcDbEntity
  8
0
  6
Continuous
 62
     7
370
    15
100
AcDbCircle
 10
180.9641994104
 20
102.4833232504
 30
0.0
 40
0.8595116945339559
100
AcDbArc
 50
257.4144409992
 51
282.5855590008
  0
ARC
  5
34F
330
1F
100
AcDbEntity
  8
0
  6
Continuous
 62
     7
370
    15
100
AcDbCircle
 10
179.8987763352
 20
103.7588860364
 30
0.0
 40
2.289520902568166
100
AcDbArc
 50
281.2144091235
 51
292.5535375659
  0
LINE
  5
350
330
1F
100
AcDbEntity
  8
0
  6
Continuous
 62
     7
370
    15
100
AcDbLine
 10
180.3440447465
 20
101.5130806118
 30
0.0
 11
180.1660336122
 21
101.5130806118
 31
0.0
  0
LINE
  5
351
330
1F
100
AcDbEntity
  8
0
  6
Continuous
 62
     7
370
    15
100
AcDbLine
 10
182.3500576928
 20
102.4635642171
 30
0.0
 11
177.8500569552
 21
102.4635642171
 31
0.0
  0
SPLINE
  5
352
330
1F
100
AcDbEntity
  8
0
  6
Continuous
 62
     7
370
    15
100
AcDbSpline
210
0.0
220
0.0
230
1.0
 70
     8
 71
     3
 72
     9
 73
     5
 74
     0
 42
0.00000001
 43
0.00000001
 12
1.0
 22
0.0
 32
0.0
 13
1.0
 23
0.0
 33
0.0
 40
0.0
 40
0.0
 40
0.0
 40
0.0
 40
0.766197982303546
 40
1.0
 40
1.0
 40
1.0
 40
1.0
 10
179.5278355047105
 20
101.5130806117859
 30
0.0
 10
179.5292968014112
 20
101.5466415459404
 30
0.0
 10
179.5312040065128
 20
101.5904434547547
 30
0.0
 10
179.5332172381504
 20
101.6342273799733
 30
0.0
 10
179.5336879357693
 20
101.6444641500321
 30
0.0
  0
SPLINE
  5
353
330
1F
100
AcDbEntity
  8
0
  6
Continuous
 62
     7
370
    15
100
AcDbSpline
210
0.0
220
0.0
230
1.0
 70
     8
 71
     3
 72
     9
 73
     5
 74
     0
 42
0.00000001
 43
0.00000001
 12
1.0
 22
0.0
 32
0.0
 13
1.0
 23
0.0
 33
0.0
 40
0.0
 40
0.0
 40
0.0
 40
0.0
 40
0.1629987147180574
 40
0.9999999999999999
 40
0.9999999999999999
 40
0.9999999999999999
 40
0.9999999999999999
 10
180.7095106258986
 20
101.6333525403943
 30
0.0
 10
180.7100211552426
 20
101.6268194581414
 30
0.0
 10
180.7131532618047
 20
101.5867388828788
 30
0.0
 10
180.7161265714192
 20
101.5466418662447
 30
0.0
 10
180.7186152353881
 20
101.5130806117859
 30
0.0
  0
SPLINE
  5
354
330
1F
100
AcDbEntity
  8
0
  6
Continuous
 62
     7
370
    15
100
AcDbSpline
210
0.0
220
0.0
230
1.0
 70
     8
 71
     3
 72
     9
 73
     5
 74
     0
 42
0.00000001
 43
0.00000001
 12
1.0
 22
0.0
 32
0.0
 13
1.0
 23
0.0
 33
0.0
 40
0.0
 40
0.0
 40
0.0
 40
0.0
 40
0.7661986207603529
 40
1.0
 40
1.0
 40
1.0
 40
1.0
 10
180.6722782120106
 20
101.5130806117859
 30
0.0
 10
180.6708152791865
 20
101.5466415001371
 30
0.0
 10
180.6689059402964
 20
101.5904433126723
 30
0.0
 10
180.6668957631428
 20
101.6342273757061
 30
0.0
 10
180.6664257809518
 20
101.6444641500321
 30
0.0
  0
SPLINE
  5
355
330
1F
100
AcDbEntity
  8
0
  6
Continuous
 62
     7
370
    15
100
AcDbSpline
210
0.0
220
0.0
230
1.0
 70
     8
 71
     3
 72
     9
 73
     5
 74
     0
 42
0.00000001
 43
0.00000001
 12
1.0
 22
0.0
 32
0.0
 13
1.0
 23
0.0
 33
0.0
 40
0.0
 40
0.0
 40
0.0
 40
0.0
 40
0.7142364120200587
 40
1.0
 40
1.0
 40
1.0
 40
1.0
 10
179.8560689702628
 20
101.5130806117859
 30
0.0
 10
179.8585620603605
 20
101.5466413093247
 30
0.0
 10
179.8620526274273
 20
101.593629529155
 30
0.0
 10
179.8657315912571
 20
101.6405984450426
 30
0.0
 10
179.8667829051612
 20
101.6540204509702
 30
0.0
  0
LINE
  5
356
330
1F
100
AcDbEntity
  8
0
  6
Continuous
 62
     7
370
    15
100
AcDbLine
 10
184.4664677545
 20
103.6478777751
 30
0.0
 11
184.4664677545
 21
107.3978774584
 31
0.0
  0
ARC
  5
357
330
1F
100
AcDbEntity
  8
0
  6
Continuous
 62
     7
370
    15
100
AcDbCircle
 10
184.2664668427
 20
103.6478774696
 30
0.0
 40
0.1999999999999886
100
AcDbArc
 50
270.0
 51
0.0
  0
LINE
  5
358
330
1F
100
AcDbEntity
  8
0
  6
Continuous
 62
     7
370
    15
100
AcDbLine
 10
183.6000565007
 20
107.3978774584
 30
0.0
 11
184.4664677545
 21
107.3978774584
 31
0.0
  0
LWPOLYLINE
  5
359
330
1F
100
AcDbEntity
  8
0
  6
Continuous
 62
     7
370
    15
100
AcDbPolyline
 90
        9
 70
   128
 43
0.0
 10
184.2664662316
 20
103.4478771835
 10
184.2632699326
 20
103.389350079
 10
184.2538002446
 20
103.3330721184
 10
184.2384222463
 20
103.2812067642
 10
184.217726396
 20
103.2357451841
 10
184.192509906
 20
103.1984364017
 10
184.163739489
 20
103.1707137227
 10
184.1325215563
 20
103.1536416486
 10
184.100057514
 20
103.1478776931
  0
LINE
  5
35A
330
1F
100
AcDbEntity
  8
0
  6
Continuous
 62
     7
370
    15
100
AcDbLine
 10
184.100057514
 20
103.1478776931
 30
0.0
 11
183.1000573501
 21
103.1478776931
 31
0.0
  0
LINE
  5
35B
330
1F
100
AcDbEntity
  8
0
  6
Continuous
 62
     7
370
    15
100
AcDbLine
 10
184.4664677545
 20
118.8978774808
 30
0.0
 11
184.4664677545
 21
122.6478771641
 31
0.0
  0
ARC
  5
35C
330
1F
100
AcDbEntity
  8
0
  6
Continuous
 62
     7
370
    15
100
AcDbCircle
 10
184.2664668427
 20
122.6478774696
 30
0.0
 40
0.2000000000000028
100
AcDbArc
 50
0.0
 51
90.0
  0
LINE
  5
35D
330
1F
100
AcDbEntity
  8
0
  6
Continuous
 62
     7
370
    15
100
AcDbLine
 10
184.4664677545
 20
118.8978774808
 30
0.0
 11
183.6000565007
 21
118.8978774808
 31
0.0
  0
LINE
  5
35E
330
1F
100
AcDbEntity
  8
0
  6
Continuous
 62
     7
370
    15
100
AcDbLine
 10
183.1000573501
 20
123.1478772461
 30
0.0
 11
184.100057514
 21
123.1478772461
 31
0.0
  0
LWPOLYLINE
  5
35F
330
1F
100
AcDbEntity
  8
0
  6
Continuous
 62
     7
370
    15
100
AcDbPolyline
 90
        9
 70
   128
 43
0.0
 10
184.2664662316
 20
122.8478777557
 10
184.2632699326
 20
122.9064048603
 10
184.2538002446
 20
122.9626828208
 10
184.2384222463
 20
123.014548175
 10
184.217726396
 20
123.0600097552
 10
184.192509906
 20
123.0973185375
 10
184.163739489
 20
123.1250412166
 10
184.1325215563
 20
123.1421132907
 10
184.100057514
 20
123.1478772461
  0
LINE
  5
360
330
1F
100
AcDbEntity
  8
0
  6
Continuous
 62
     7
370
    15
100
AcDbLine
 10
162.9000567981
 20
121.1478778496
 30
0.0
 11
162.9000567981
 21
105.1478770896
 31
0.0
  0
ARC
  5
361
330
1F
100
AcDbEntity
  8
0
  6
Continuous
 62
     7
370
    15
100
AcDbCircle
 10
164.6000567839
 20
105.1478774696
 30
0.0
 40
2.000000000000006
100
AcDbArc
 50
180.0
 51
221.4096221093
  0
LINE
  5
362
330
1F
100
AcDbEntity
  8
0
  6
Continuous
 62
     7
370
    15
100
AcDbLine
 10
162.6000567839
 20
105.1478770896
 30
0.0
 11
162.9000567981
 21
105.1478770896
 31
0.0
  0
LINE
  5
363
330
1F
100
AcDbEntity
  8
0
  6
Continuous
 62
     7
370
    15
100
AcDbLine
 10
162.6000567839
 20
105.1478770896
 30
0.0
 11
162.6000567839
 21
121.1478778496
 31
0.0
  0
LINE
  5
364
330
1F
100
AcDbEntity
  8
0
  6
Continuous
 62
     7
370
    15
100
AcDbLine
 10
162.6000567839
 20
121.1478778496
 30
0.0
 11
162.9000567981
 21
121.1478778496
 31
0.0
  0
ARC
  5
365
330
1F
100
AcDbEntity
  8
0
  6
Continuous
 62
     7
370
    15
100
AcDbCircle
 10
164.6000567839
 20
121.1478774696
 30
0.0
 40
2.000000000000006
100
AcDbArc
 50
138.5903778907
 51
180.0
  0
LINE
  5
366
330
1F
100
AcDbEntity
  8
0
  6
Continuous
 62
     7
370
    15
100
AcDbLine
 10
184.6000566646
 20
103.6478777751
 30
0.0
 11
184.4664677545
 21
103.6478777751
 31
0.0
  0
ARC
  5
367
330
1F
100
AcDbEntity
  8
0
  6
Continuous
 62
     7
370
    15
100
AcDbCircle
 10
184.1000567839
 20
103.6478774696
 30
0.0
 40
0.5
100
AcDbArc
 50
270.0
 51
0.0
  0
ARC
  5
368
330
1F
100
AcDbEntity
  8
0
  6
Continuous
 62
     7
370
    15
100
AcDbCircle
 10
184.1000567839
 20
122.6478774696
 30
0.0
 40
0.5
100
AcDbArc
 50
0.0
 51
90.0
  0
LINE
  5
369
330
1F
100
AcDbEntity
  8
0
  6
Continuous
 62
     7
370
    15
100
AcDbLine
 10
184.4664677545
 20
122.6478771641
 30
0.0
 11
184.6000566646
 21
122.6478771641
 31
0.0
  0
LINE
  5
36A
330
1F
100
AcDbEntity
  8
0
  6
Continuous
 62
     7
370
    15
100
AcDbLine
 10
184.6000566646
 20
107.3978774584
 30
0.0
 11
184.6000566646
 21
103.6478777751
 31
0.0
  0
LINE
  5
36B
330
1F
100
AcDbEntity
  8
0
  6
Continuous
 62
     7
370
    15
100
AcDbLine
 10
184.4664677545
 20
107.3978774584
 30
0.0
 11
184.6000566646
 21
107.3978774584
 31
0.0
  0
LINE
  5
36C
330
1F
100
AcDbEntity
  8
0
  6
Continuous
 62
     7
370
    15
100
AcDbLine
 10
184.6000566646
 20
122.6478771641
 30
0.0
 11
184.6000566646
 21
118.8978774808
 31
0.0
  0
LINE
  5
36D
330
1F
100
AcDbEntity
  8
0
  6
Continuous
 62
     7
370
    15
100
AcDbLine
 10
184.6000566646
 20
118.8978774808
 30
0.0
 11
184.4664677545
 21
118.8978774808
 31
0.0
  0
LINE
  5
36E
330
1F
100
AcDbEntity
  8
0
  6
Continuous
 62
     7
370
    15
100
AcDbLine
 10
184.6000566646
 20
107.3978774584
 30
0.0
 11
184.6000566646
 21
118.8978774808
 31
0.0
  0
LINE
  5
36F
330
1F
100
AcDbEntity
  8
0
  6
Continuous
 62
     7
370
    15
100
AcDbLine
 10
175.5248015314
 20
118.8978774808
 30
0.0
 11
173.0753123328
 21
118.8978774808
 31
0.0
  0
LINE
  5
370
330
1F
100
AcDbEntity
  8
0
  6
Continuous
 62
     7
370
    15
100
AcDbLine
 10
173.0753123328
 20
107.3978774584
 30
0.0
 11
175.5248015314
 21
107.3978774584
 31
0.0
  0
LINE
  5
371
330
1F
100
AcDbEntity
  8
0
  6
Continuous
 62
     7
370
    15
100
AcDbLine
 10
183.6000565007
 20
108.1478775814
 30
0.0
 11
183.8500570074
 21
108.1478775814
 31
0.0
  0
LINE
  5
372
330
1F
100
AcDbEntity
  8
0
  6
Continuous
 62
     7
370
    15
100
AcDbLine
 10
180.422516124
 20
123.6478773281
 30
0.0
 11
177.1000563666
 21
123.6478773281
 31
0.0
  0
LINE
  5
373
330
1F
100
AcDbEntity
  8
0
  6
Continuous
 62
     7
370
    15
100
AcDbLine
 10
183.1000573501
 20
123.6478773281
 30
0.0
 11
180.422516124
 21
123.6478773281
 31
0.0
  0
LINE
  5
374
330
1F
100
AcDbEntity
  8
0
  6
Continuous
 62
     7
370
    15
100
AcDbLine
 10
180.422516124
 20
102.6478776112
 30
0.0
 11
177.1000563666
 21
102.6478776112
 31
0.0
  0
LINE
  5
375
330
1F
100
AcDbEntity
  8
0
  6
Continuous
 62
     7
370
    15
100
AcDbLine
 10
183.1000573501
 20
102.6478776112
 30
0.0
 11
180.422516124
 21
102.6478776112
 31
0.0
  0
LINE
  5
376
330
1F
100
AcDbEntity
  8
0
  6
Continuous
 62
     7
370
    15
100
AcDbLine
 10
183.8500570074
 20
118.1478773579
 30
0.0
 11
183.6000565007
 21
118.1478773579
 31
0.0
  0
LINE
  5
377
330
1F
100
AcDbEntity
  8
0
  6
Continuous
 62
     7
370
    15
100
AcDbLine
 10
173.6218235955
 20
108.1978774964
 30
0.0
 11
174.1000568062
 21
108.1978774964
 31
0.0
  0
LINE
  5
378
330
1F
100
AcDbEntity
  8
0
  6
Continuous
 62
     7
370
    15
100
AcDbLine
 10
173.8000563845
 20
107.8978775404
 30
0.0
 11
173.3000572339
 21
107.8978775404
 31
0.0
  0
LINE
  5
379
330
1F
100
AcDbEntity
  8
0
  6
Continuous
 62
     7
370
    15
100
AcDbLine
 10
173.7142527044
 20
118.0978774428
 30
0.0
 11
173.6218235955
 21
118.0978774428
 31
0.0
  0
LINE
  5
37A
330
1F
100
AcDbEntity
  8
0
  6
Continuous
 62
     7
370
    15
100
AcDbLine
 10
174.1000568062
 20
118.0978774428
 30
0.0
 11
173.7142527044
 21
118.0978774428
 31
0.0
  0
LINE
  5
37B
330
1F
100
AcDbEntity
  8
0
  6
Continuous
 62
     7
370
    15
100
AcDbLine
 10
173.3000572339
 20
118.3978773988
 30
0.0
 11
173.8000563845
 21
118.3978773988
 31
0.0
  0
LINE
  5
37C
330
1F
100
AcDbEntity
  8
0
  6
Continuous
 62
     7
370
    15
100
AcDbLine
 10
179.8177599475
 20
114.2675390802
 30
0.0
 11
178.9892535225
 21
113.4632324611
 31
0.0
  0
LINE
  5
37D
330
1F
100
AcDbEntity
  8
0
  6
Continuous
 62
     7
370
    15
100
AcDbLine
 10
178.9892535225
 20
113.4632324611
 30
0.0
 11
179.2715504333
 21
112.3435708796
 31
0.0
  0
LINE
  5
37E
330
1F
100
AcDbEntity
  8
0
  6
Continuous
 62
     7
370
    15
100
AcDbLine
 10
179.2715504333
 20
112.3435708796
 30
0.0
 11
180.3823537692
 21
112.028215859
 31
0.0
  0
LINE
  5
37F
330
1F
100
AcDbEntity
  8
0
  6
Continuous
 62
     7
370
    15
100
AcDbLine
 10
180.3823537692
 20
112.028215859
 30
0.0
 11
181.2108601943
 21
112.8325224781
 31
0.0
  0
LINE
  5
380
330
1F
100
AcDbEntity
  8
0
  6
Continuous
 62
     7
370
    15
100
AcDbLine
 10
181.2108601943
 20
112.8325224781
 30
0.0
 11
180.9285632834
 21
113.9521840596
 31
0.0
  0
LINE
  5
381
330
1F
100
AcDbEntity
  8
0
  6
Continuous
 62
     7
370
    15
100
AcDbLine
 10
180.9285632834
 20
113.9521840596
 30
0.0
 11
179.8177599475
 21
114.2675390802
 31
0.0
  0
LINE
  5
382
330
1F
100
AcDbEntity
  8
0
  6
Continuous
 62
     7
370
    15
100
AcDbLine
 10
183.4000568405
 20
103.4478771835
 30
0.0
 11
184.2664662316
 21
103.4478771835
 31
0.0
  0
LINE
  5
383
330
1F
100
AcDbEntity
  8
0
  6
Continuous
 62
     7
370
    15
100
AcDbLine
 10
184.2664662316
 20
122.8478777557
 30
0.0
 11
183.4000568405
 21
122.8478777557
 31
0.0
  0
ARC
  5
384
330
1F
100
AcDbEntity
  8
0
  6
Continuous
 62
     7
370
    15
100
AcDbCircle
 10
164.6000567839
 20
121.1478774696
 30
0.0
 40
1.700000000000004
100
AcDbArc
 50
151.9275130641
 51
180.0
  0
ARC
  5
385
330
1F
100
AcDbEntity
  8
0
  6
Continuous
 62
     7
370
    15
100
AcDbCircle
 10
164.6000567839
 20
105.1478774696
 30
0.0
 40
1.70000000000001
100
AcDbArc
 50
180.0
 51
208.0724869359
  0
DIMENSION
  5
386
330
1F
100
AcDbEntity
  8
0
  6
Continuous
 62
     7
370
     0
100
AcDbDimension
  2
_D_9
 10
189.5516218305
 20
107.1478774696
 30
0.0
 11
189.5516218305
 21
113.8293735093
 31
0.0
 70
   160
  1
<>
 71
     2
 42
-1.0
  3
SLDDIMSTYLE1
100
AcDbAlignedDimension
 13
178.0500567839
 23
119.1478774696
 33
0.0
 14
178.0500567839
 24
107.1478774696
 34
0.0
 50
90.0
100
AcDbRotatedDimension
  0
DIMENSION
  5
390
330
1F
100
AcDbEntity
  8
0
  6
Continuous
 62
     7
370
     0
100
AcDbDimension
  2
_D_10
 10
189.5516218305
 20
123.1478774696
 30
0.0
 11
189.5516218305
 21
128.4798500348
 31
0.0
 70
   160
  1
<>
 71
     2
 42
-1.0
  3
SLDDIMSTYLE0
100
AcDbAlignedDimension
 13
178.0500567839
 23
119.1478774696
 33
0.0
 14
183.1000567839
 24
123.1478774696
 34
0.0
 50
90.0
100
AcDbRotatedDimension
  0
DIMENSION
  5
39C
330
1F
100
AcDbEntity
  8
0
  6
Continuous
 62
     7
370
     0
100
AcDbDimension
  2
_D_11
 10
163.1000567839
 20
139.0265822901
 30
0.0
 11
173.3500567839
 21
139.0265822901
 31
0.0
 70
   160
  1
<>
 71
     2
 42
-1.0
  3
SLDDIMSTYLE2
100
AcDbAlignedDimension
 13
183.6000567839
 23
122.6478774696
 33
0.0
 14
163.1000567839
 24
122.6478774696
 34
0.0
100
AcDbRotatedDimension
  0
DIMENSION
  5
3A6
330
1F
100
AcDbEntity
  8
0
  6
Continuous
 62
     7
370
     0
100
AcDbDimension
  2
_D_12
 10
174.3000567839
 20
131.7434109164
 30
0.0
 11
178.9500567839
 21
131.7434109164
 31
0.0
 70
   160
  1
<>
 71
     2
 42
-1.0
  3
SLDDIMSTYLE5
100
AcDbAlignedDimension
 13
183.6000567839
 23
122.6478774696
 33
0.0
 14
174.3000567839
 24
122.8978774696
 34
0.0
100
AcDbRotatedDimension
  0
DIMENSION
  5
3B3
330
1F
100
AcDbEntity
  8
0
  6
Continuous
 62
     7
370
     0
100
AcDbDimension
  2
_D_13
 10
194.6000567839
 20
103.1478774696
 30
0.0
 11
194.6000567839
 21
113.1478774696
 31
0.0
 70
   160
  1
<>
 71
     2
 42
-1.0
  3
SLDDIMSTYLE1
100
AcDbAlignedDimension
 13
183.1000567839
 23
123.1478774696
 33
0.0
 14
183.1000567839
 24
103.1478774696
 34
0.0
 50
90.0
100
AcDbRotatedDimension
  0
MTEXT
  5
3BD
330
1F
100
AcDbEntity
  8
0
  6
Continuous
 62
     7
370
     0
100
AcDbMText
 10
180.385021706
 20
96.6954580243
 30
0.0
 40
3.5
 41
0.0
 71
     1
 72
     1
  1
2-M3
  7
SLDTEXTSTYLE1
 73
     1
 44
1.0
  0
LEADER
  5
3BE
330
1F
100
AcDbEntity
  8
0
  6
Continuous
 62
     7
370
     0
100
AcDbLeader
  3
SLDDIMSTYLE4
 76
     3
 10
174.5661581841
 20
105.9265298349
 30
0.0
 10
179.7784222738
 20
92.2273781903
 30
0.0
 10
191.2993039443
 20
92.2273781903
 30
0.0
  0
INSERT
  5
3CA
330
1F
100
AcDbEntity
  8
0
  6
Continuous
 62
     7
370
     0
100
AcDbBlockReference
  2
SW_CENTERMARKSYMBOL_1
 10
174.3000567839
 20
119.1478774696
 30
0.0
  0
INSERT
  5
3D6
330
1F
100
AcDbEntity
  8
0
  6
Continuous
 62
     7
370
     0
100
AcDbBlockReference
  2
SW_CENTERMARKSYMBOL_2
 10
174.3000567839
 20
107.1478774696
 30
0.0
  0
ENDSEC
  0
SECTION
  2
OBJECTS
  0
DICTIONARY
  5
C
330
0
100
AcDbDictionary
281
     1
  3
ACAD_GROUP
350
D
  3
ACAD_LAYOUT
350
1A
  3
ACAD_MLINESTYLE
350
17
  3
ACAD_PLOTSETTINGS
350
19
  3
ACAD_PLOTSTYLENAME
350
E
  0
DICTIONARY
  5
D
102
{ACAD_REACTORS
330
C
102
}
330
C
100
AcDbDictionary
281
     1
  0
DICTIONARY
  5
1A
102
{ACAD_REACTORS
330
C
102
}
330
C
100
AcDbDictionary
281
     1
  3
Layout1
350
1E
  3
Layout2
350
26
  3
Model
350
22
  0
DICTIONARY
  5
17
102
{ACAD_REACTORS
330
C
102
}
330
C
100
AcDbDictionary
281
     1
  3
Standard
350
18
  0
DICTIONARY
  5
19
102
{ACAD_REACTORS
330
C
102
}
330
C
100
AcDbDictionary
281
     1
  0
ACDBDICTIONARYWDFLT
  5
E
102
{ACAD_REACTORS
330
C
102
}
330
C
100
AcDbDictionary
281
     1
  3
Normal
350
F
100
AcDbDictionaryWithDefault
340
F
  0
LAYOUT
  5
1E
102
{ACAD_REACTORS
330
1A
102
}
330
1A
100
AcDbPlotSettings
  1

  2
none_device
  4

  6

 40
0.0
 41
0.0
 42
0.0
 43
0.0
 44
0.0
 45
0.0
 46
0.0
 47
0.0
 48
0.0
 49
0.0
140
0.0
141
0.0
142
1.0
143
1.0
 70
   688
 72
     0
 73
     0
 74
     5
  7

 75
    16
147
1.0
148
0.0
149
0.0
100
AcDbLayout
  1
Layout1
 70
     1
 71
     1
 10
0.0
 20
0.0
 11
420.0
 21
297.0
 12
0.0
 22
0.0
 32
0.0
 14
1.0000000000E+20
 24
1.0000000000E+20
 34
1.0000000000E+20
 15
-1.0000000000E+20
 25
-1.0000000000E+20
 35
-1.0000000000E+20
146
0.0
 13
0.0
 23
0.0
 33
0.0
 16
1.0
 26
0.0
 36
0.0
 17
0.0
 27
1.0
 37
0.0
 76
     0
330
1B
  0
LAYOUT
  5
26
102
{ACAD_REACTORS
330
1A
102
}
330
1A
100
AcDbPlotSettings
  1

  2
none_device
  4

  6

 40
0.0
 41
0.0
 42
0.0
 43
0.0
 44
0.0
 45
0.0
 46
0.0
 47
0.0
 48
0.0
 49
0.0
140
0.0
141
0.0
142
1.0
143
1.0
 70
   688
 72
     0
 73
     0
 74
     5
  7

 75
    16
147
1.0
148
0.0
149
0.0
100
AcDbLayout
  1
Layout2
 70
     1
 71
     2
 10
0.0
 20
0.0
 11
0.0
 21
0.0
 12
0.0
 22
0.0
 32
0.0
 14
0.0
 24
0.0
 34
0.0
 15
0.0
 25
0.0
 35
0.0
146
0.0
 13
0.0
 23
0.0
 33
0.0
 16
1.0
 26
0.0
 36
0.0
 17
0.0
 27
1.0
 37
0.0
 76
     0
330
23
  0
LAYOUT
  5
22
102
{ACAD_REACTORS
330
1A
102
}
330
1A
100
AcDbPlotSettings
  1

  2
none_device
  4

  6

 40
0.0
 41
0.0
 42
0.0
 43
0.0
 44
0.0
 45
0.0
 46
0.0
 47
0.0
 48
0.0
 49
0.0
140
0.0
141
0.0
142
1.0
143
1.0
 70
  1712
 72
     0
 73
     0
 74
     0
  7

 75
     0
147
1.0
148
0.0
149
0.0
100
AcDbLayout
  1
Model
 70
     1
 71
     0
 10
0.0
 20
0.0
 11
210.0
 21
297.0
 12
0.0
 22
0.0
 32
0.0
 14
0.0
 24
0.0
 34
0.0
 15
210.0
 25
297.0
 35
0.0
146
0.0
 13
0.0
 23
0.0
 33
0.0
 16
1.0
 26
0.0
 36
0.0
 17
0.0
 27
1.0
 37
0.0
 76
     0
330
1F
331
29
  0
MLINESTYLE
  5
18
102
{ACAD_REACTORS
330
17
102
}
330
17
100
AcDbMlineStyle
  2
Standard
 70
     0
  3

 62
   256
 51
90.0
 52
90.0
 71
     2
 49
0.5
 62
   256
  6
BYLAYER
 49
-0.5
 62
   256
  6
BYLAYER
  0
ACDBPLACEHOLDER
  5
F
102
{ACAD_REACTORS
330
E
102
}
330
E
  0
ENDSEC
  0
EOF
